  0
SECTION
  2
HEADER
  9
$ACADVER
  1
AC1018
  9
$ACADMAINTVER
 70
     0
  9
$DWGCODEPAGE
  3
ANSI_1252
  9
$INSBASE
 10
0.0
 20
0.0
 30
0.0
  9
$EXTMIN
 10
-41.17845573881861
 20
-23.6515
 30
0.0
  9
$EXTMAX
 10
27.26738568572133
 20
24.39802994486349
 30
0.0
  9
$LIMMIN
 10
0.0
 20
0.0
  9
$LIMMAX
 10
12.0
 20
9.0
  9
$ORTHOMODE
 70
     0
  9
$REGENMODE
 70
     1
  9
$FILLMODE
 70
     1
  9
$QTEXTMODE
 70
     0
  9
$MIRRTEXT
 70
     0
  9
$LTSCALE
 40
1.0
  9
$ATTMODE
 70
     1
  9
$TEXTSIZE
 40
0.0
  9
$TRACEWID
 40
0.05
  9
$TEXTSTYLE
  7
Standard
  9
$CLAYER
  8
1
  9
$CELTYPE
  6
ByLayer
  9
$CECOLOR
 62
   256
  9
$CELTSCALE
 40
1.0
  9
$DISPSILH
 70
     0
  9
$DIMSCALE
 40
1.0
  9
$DIMASZ
 40
1.75
  9
$DIMEXO
 40
0.625
  9
$DIMDLI
 40
3.75
  9
$DIMRND
 40
0.0
  9
$DIMDLE
 40
0.0
  9
$DIMEXE
 40
1.25
  9
$DIMTP
 40
0.0
  9
$DIMTM
 40
0.0
  9
$DIMTXT
 40
2.5
  9
$DIMCEN
 40
2.5
  9
$DIMTSZ
 40
0.0
  9
$DIMTOL
 70
     0
  9
$DIMLIM
 70
     0
  9
$DIMTIH
 70
     0
  9
$DIMTOH
 70
     0
  9
$DIMSE1
 70
     0
  9
$DIMSE2
 70
     0
  9
$DIMTAD
 70
     1
  9
$DIMZIN
 70
     8
  9
$DIMBLK
  1

  9
$DIMASO
 70
     1
  9
$DIMSHO
 70
     1
  9
$DIMPOST
  1
in
  9
$DIMAPOST
  1

  9
$DIMALT
 70
     0
  9
$DIMALTD
 70
     3
  9
$DIMALTF
 40
0.0393700787
  9
$DIMLFAC
 40
0.0393700787401575
  9
$DIMTOFL
 70
     1
  9
$DIMTVP
 40
0.0
  9
$DIMTIX
 70
     0
  9
$DIMSOXD
 70
     0
  9
$DIMSAH
 70
     0
  9
$DIMBLK1
  1

  9
$DIMBLK2
  1

  9
$DIMSTYLE
  2
Copy of ISO-25
  9
$DIMCLRD
 70
     0
  9
$DIMCLRE
 70
     0
  9
$DIMCLRT
 70
     0
  9
$DIMTFAC
 40
1.0
  9
$DIMGAP
 40
0.625
  9
$DIMJUST
 70
     0
  9
$DIMSD1
 70
     0
  9
$DIMSD2
 70
     0
  9
$DIMTOLJ
 70
     0
  9
$DIMTZIN
 70
     8
  9
$DIMALTZ
 70
     0
  9
$DIMALTTZ
 70
     0
  9
$DIMUPT
 70
     0
  9
$DIMDEC
 70
     3
  9
$DIMTDEC
 70
     3
  9
$DIMALTU
 70
     2
  9
$DIMALTTD
 70
     3
  9
$DIMTXSTY
  7
Standard
  9
$DIMAUNIT
 70
     2
  9
$DIMADEC
 70
     3
  9
$DIMALTRND
 40
0.0
  9
$DIMAZIN
 70
     0
  9
$DIMDSEP
 70
    46
  9
$DIMATFIT
 70
     3
  9
$DIMFRAC
 70
     0
  9
$DIMLDRBLK
  1

  9
$DIMLUNIT
 70
     2
  9
$DIMLWD
 70
    -2
  9
$DIMLWE
 70
    -2
  9
$DIMTMOVE
 70
     0
  9
$LUNITS
 70
     2
  9
$LUPREC
 70
     4
  9
$SKETCHINC
 40
0.1
  9
$FILLETRAD
 40
0.0
  9
$AUNITS
 70
     0
  9
$AUPREC
 70
     0
  9
$MENU
  1
.
  9
$ELEVATION
 40
0.0
  9
$PELEVATION
 40
0.0
  9
$THICKNESS
 40
0.0
  9
$LIMCHECK
 70
     0
  9
$CHAMFERA
 40
0.0
  9
$CHAMFERB
 40
0.0
  9
$CHAMFERC
 40
0.0
  9
$CHAMFERD
 40
0.0
  9
$SKPOLY
 70
     0
  9
$TDCREATE
 40
2457169.562357651
  9
$TDUCREATE
 40
2457169.812357651
  9
$TDUPDATE
 40
2457197.542158542
  9
$TDUUPDATE
 40
2457197.792158542
  9
$TDINDWG
 40
0.0566431713
  9
$TDUSRTIMER
 40
0.0566429282
  9
$USRTIMER
 70
     1
  9
$ANGBASE
 50
0.0
  9
$ANGDIR
 70
     0
  9
$PDMODE
 70
     0
  9
$PDSIZE
 40
0.0
  9
$PLINEWID
 40
0.0
  9
$SPLFRAME
 70
     0
  9
$SPLINETYPE
 70
     6
  9
$SPLINESEGS
 70
     8
  9
$HANDSEED
  5
7D7
  9
$SURFTAB1
 70
     6
  9
$SURFTAB2
 70
     6
  9
$SURFTYPE
 70
     6
  9
$SURFU
 70
     6
  9
$SURFV
 70
     6
  9
$UCSBASE
  2

  9
$UCSNAME
  2

  9
$UCSORG
 10
0.0
 20
0.0
 30
0.0
  9
$UCSXDIR
 10
1.0
 20
0.0
 30
0.0
  9
$UCSYDIR
 10
0.0
 20
1.0
 30
0.0
  9
$UCSORTHOREF
  2

  9
$UCSORTHOVIEW
 70
     0
  9
$UCSORGTOP
 10
0.0
 20
0.0
 30
0.0
  9
$UCSORGBOTTOM
 10
0.0
 20
0.0
 30
0.0
  9
$UCSORGLEFT
 10
0.0
 20
0.0
 30
0.0
  9
$UCSORGRIGHT
 10
0.0
 20
0.0
 30
0.0
  9
$UCSORGFRONT
 10
0.0
 20
0.0
 30
0.0
  9
$UCSORGBACK
 10
0.0
 20
0.0
 30
0.0
  9
$PUCSBASE
  2

  9
$PUCSNAME
  2

  9
$PUCSORG
 10
0.0
 20
0.0
 30
0.0
  9
$PUCSXDIR
 10
1.0
 20
0.0
 30
0.0
  9
$PUCSYDIR
 10
0.0
 20
1.0
 30
0.0
  9
$PUCSORTHOREF
  2

  9
$PUCSORTHOVIEW
 70
     0
  9
$PUCSORGTOP
 10
0.0
 20
0.0
 30
0.0
  9
$PUCSORGBOTTOM
 10
0.0
 20
0.0
 30
0.0
  9
$PUCSORGLEFT
 10
0.0
 20
0.0
 30
0.0
  9
$PUCSORGRIGHT
 10
0.0
 20
0.0
 30
0.0
  9
$PUCSORGFRONT
 10
0.0
 20
0.0
 30
0.0
  9
$PUCSORGBACK
 10
0.0
 20
0.0
 30
0.0
  9
$USERI1
 70
     0
  9
$USERI2
 70
     0
  9
$USERI3
 70
     0
  9
$USERI4
 70
     0
  9
$USERI5
 70
     0
  9
$USERR1
 40
0.0
  9
$USERR2
 40
0.0
  9
$USERR3
 40
0.0
  9
$USERR4
 40
0.0
  9
$USERR5
 40
0.0
  9
$WORLDVIEW
 70
     1
  9
$SHADEDGE
 70
     3
  9
$SHADEDIF
 70
    70
  9
$TILEMODE
 70
     1
  9
$MAXACTVP
 70
    64
  9
$PINSBASE
 10
0.0
 20
0.0
 30
0.0
  9
$PLIMCHECK
 70
     0
  9
$PEXTMIN
 10
1.000000000000000E+20
 20
1.000000000000000E+20
 30
1.000000000000000E+20
  9
$PEXTMAX
 10
-1.000000000000000E+20
 20
-1.000000000000000E+20
 30
-1.000000000000000E+20
  9
$PLIMMIN
 10
0.0
 20
0.0
  9
$PLIMMAX
 10
12.0
 20
9.0
  9
$UNITMODE
 70
     0
  9
$VISRETAIN
 70
     1
  9
$PLINEGEN
 70
     0
  9
$PSLTSCALE
 70
     1
  9
$TREEDEPTH
 70
  3020
  9
$CMLSTYLE
  2
Standard
  9
$CMLJUST
 70
     0
  9
$CMLSCALE
 40
1.0
  9
$PROXYGRAPHICS
 70
     1
  9
$MEASUREMENT
 70
     0
  9
$CELWEIGHT
370
    18
  9
$ENDCAPS
280
     0
  9
$JOINSTYLE
280
     0
  9
$LWDISPLAY
290
     1
  9
$INSUNITS
 70
     1
  9
$HYPERLINKBASE
  1

  9
$STYLESHEET
  1

  9
$XEDIT
290
     1
  9
$CEPSNTYPE
380
     0
  9
$PSTYLEMODE
290
     1
  9
$FINGERPRINTGUID
  2
{1A3370DD-E015-4359-90D3-D666A526498D}
  9
$VERSIONGUID
  2
{99EBBC30-0066-41AC-BABC-6505BE2D2115}
  9
$EXTNAMES
290
     1
  9
$PSVPSCALE
 40
0.0
  9
$OLESTARTUP
290
     0
  9
$SORTENTS
280
   127
  9
$INDEXCTL
280
     0
  9
$HIDETEXT
280
     0
  9
$XCLIPFRAME
290
     0
  9
$HALOGAP
280
     0
  9
$OBSCOLOR
 70
   257
  9
$OBSLTYPE
280
     0
  9
$INTERSECTIONDISPLAY
280
     0
  9
$INTERSECTIONCOLOR
 70
   257
  9
$DIMASSOC
280
     1
  9
$PROJECTNAME
  1

  0
ENDSEC
  0
SECTION
  2
CLASSES
  0
CLASS
  1
RASTERVARIABLES
  2
AcDbRasterVariables
  3
ISM
 90
        0
 91
        0
280
     0
281
     0
  0
CLASS
  1
ACDBDICTIONARYWDFLT
  2
AcDbDictionaryWithDefault
  3
ObjectDBX Classes
 90
        0
 91
        1
280
     0
281
     0
  0
ENDSEC
  0
SECTION
  2
TABLES
  0
TABLE
  2
VPORT
  5
186
330
0
100
AcDbSymbolTable
 70
     2
  0
VPORT
  5
7D6
330
186
100
AcDbSymbolTableRecord
100
AcDbViewportTableRecord
  2
*Active
 70
     0
 10
0.0
 20
0.0
 11
1.0
 21
1.0
 12
2.794369922049284
 22
-0.2984507772314373
 13
0.0
 23
0.0
 14
0.5
 24
0.5
 15
10.0
 25
10.0
 16
0.0
 26
0.0
 36
1.0
 17
0.0
 27
0.0
 37
0.0
 40
102.4232982805004
 41
2.202020202020201
 42
50.0
 43
0.0
 44
0.0
 50
0.0
 51
0.0
 71
     0
 72
   100
 73
     1
 74
     1
 75
     0
 76
     0
 77
     0
 78
     0
281
     0
 65
     1
110
0.0
120
0.0
130
0.0
111
1.0
121
0.0
131
0.0
112
0.0
122
1.0
132
0.0
 79
     0
146
0.0
  0
ENDTAB
  0
TABLE
  2
LTYPE
  5
187
330
0
100
AcDbSymbolTable
 70
     3
  0
LTYPE
  5
14
330
187
100
AcDbSymbolTableRecord
100
AcDbLinetypeTableRecord
  2
ByBlock
 70
     0
  3

 72
    65
 73
     0
 40
0.0
  0
LTYPE
  5
15
330
187
100
AcDbSymbolTableRecord
100
AcDbLinetypeTableRecord
  2
ByLayer
 70
     0
  3

 72
    65
 73
     0
 40
0.0
  0
LTYPE
  5
16
330
187
100
AcDbSymbolTableRecord
100
AcDbLinetypeTableRecord
  2
CONTINUOUS
 70
     0
  3
Solid line
 72
    65
 73
     0
 40
0.0
  0
LTYPE
  5
6A
330
187
100
AcDbSymbolTableRecord
100
AcDbLinetypeTableRecord
  2
CENTER
 70
     0
  3
____ _ ____ _ ____ _ ____
 72
    65
 73
     4
 40
47.5
 49
22.0
 74
     0
 49
-8.5
 74
     0
 49
8.5
 74
     0
 49
-8.5
 74
     0
  0
LTYPE
  5
6B
330
187
100
AcDbSymbolTableRecord
100
AcDbLinetypeTableRecord
  2
DASHED
 70
     0
  3
__ __ __ __ __ __ __ __ __
 72
    65
 73
     2
 40
25.72
 49
12.86
 74
     0
 49
-12.86
 74
     0
  0
ENDTAB
  0
TABLE
  2
LAYER
  5
188
330
0
100
AcDbSymbolTable
 70
    11
  0
LAYER
  5
10
330
188
100
AcDbSymbolTableRecord
100
AcDbLayerTableRecord
  2
0
 70
     0
 62
     7
  6
CONTINUOUS
370
    -3
390
193
  0
LAYER
  5
6D
330
188
100
AcDbSymbolTableRecord
100
AcDbLayerTableRecord
  2
81
 70
     0
 62
    -3
  6
CONTINUOUS
370
    -3
390
193
  0
LAYER
  5
6F
330
188
100
AcDbSymbolTableRecord
100
AcDbLayerTableRecord
  2
80
 70
     0
 62
    -6
  6
CONTINUOUS
370
    -3
390
193
  0
LAYER
  5
74
330
188
100
AcDbSymbolTableRecord
100
AcDbLayerTableRecord
  2
2
 70
     0
 62
     7
  6
CONTINUOUS
370
    -3
390
193
  0
LAYER
  5
78
330
188
100
AcDbSymbolTableRecord
100
AcDbLayerTableRecord
  2
1
 70
     0
 62
     4
  6
CONTINUOUS
370
    -3
390
193
  0
LAYER
  5
88
330
188
100
AcDbSymbolTableRecord
100
AcDbLayerTableRecord
  2
4
 70
     0
 62
    -2
  6
CENTER
370
    -3
390
193
  0
LAYER
  5
172
330
188
100
AcDbSymbolTableRecord
100
AcDbLayerTableRecord
  2
SK2
 70
     0
 62
     7
  6
CONTINUOUS
370
    -3
390
193
  0
LAYER
  5
173
330
188
100
AcDbSymbolTableRecord
100
AcDbLayerTableRecord
  2
SK1
 70
     0
 62
     4
  6
CONTINUOUS
370
    -3
390
193
  0
LAYER
  5
174
330
188
100
AcDbSymbolTableRecord
100
AcDbLayerTableRecord
  2
SK4
 70
     0
 62
     2
  6
CENTER
370
    -3
390
193
  0
LAYER
  5
175
330
188
100
AcDbSymbolTableRecord
100
AcDbLayerTableRecord
  2
SK6
 70
     0
 62
     5
  6
CONTINUOUS
370
    -3
390
193
  0
LAYER
  5
244
330
188
100
AcDbSymbolTableRecord
100
AcDbLayerTableRecord
  2
Defpoints
 70
     0
 62
     7
  6
CONTINUOUS
290
     0
370
    -3
390
193
  0
ENDTAB
  0
TABLE
  2
STYLE
  5
189
330
0
100
AcDbSymbolTable
 70
     3
  0
STYLE
  5
11
330
189
100
AcDbSymbolTableRecord
100
AcDbTextStyleTableRecord
  2
Standard
 70
     0
 40
0.0
 41
1.0
 50
0.0
 71
     0
 42
0.0
  3
txt
  4

  0
STYLE
  5
CE
330
189
100
AcDbSymbolTableRecord
100
AcDbTextStyleTableRecord
  2
iso_b_vert
 70
     0
 40
0.0
 41
1.0
 50
0.0
 71
     0
 42
0.0
  3
simplex.shx
  4

  0
STYLE
  5
CF
330
189
100
AcDbSymbolTableRecord
100
AcDbTextStyleTableRecord
  2
DWGDirectTextStyle
 70
     0
 40
0.0
 41
1.0
 50
0.0
 71
     0
 42
0.0
  3
simplex
  4

  0
ENDTAB
  0
TABLE
  2
VIEW
  5
18B
330
0
100
AcDbSymbolTable
 70
     0
  0
ENDTAB
  0
TABLE
  2
UCS
  5
18C
330
0
100
AcDbSymbolTable
 70
     0
  0
ENDTAB
  0
TABLE
  2
APPID
  5
18D
330
0
100
AcDbSymbolTable
 70
     1
  0
APPID
  5
12
330
18D
100
AcDbSymbolTableRecord
100
AcDbRegAppTableRecord
  2
ACAD
 70
     0
  0
ENDTAB
  0
TABLE
  2
DIMSTYLE
  5
18A
330
0
100
AcDbSymbolTable
 70
     3
100
AcDbDimStyleTable
 71
     3
340
1A1
340
35F
340
27
  0
DIMSTYLE
105
27
330
18A
100
AcDbSymbolTableRecord
100
AcDbDimStyleTableRecord
  2
Standard
 70
     0
  3
in
 73
     0
 74
     0
 77
     1
144
0.0393700787401575
271
     2
272
     2
278
    52
340
11
  0
DIMSTYLE
105
1A1
102
{ACAD_REACTORS
330
538
330
4B4
330
47F
102
}
330
18A
100
AcDbSymbolTableRecord
100
AcDbDimStyleTableRecord
  2
ISO-25
 70
     0
 41
2.5
 42
0.625
 43
3.75
 44
1.25
 73
     0
 74
     0
 77
     1
 78
     8
140
2.5
141
2.5
143
0.0393700787
147
0.625
171
     3
172
     1
271
     2
272
     2
274
     3
278
    44
283
     0
284
     8
340
11
  0
DIMSTYLE
105
35F
330
18A
100
AcDbSymbolTableRecord
100
AcDbDimStyleTableRecord
  2
Copy of ISO-25
 70
     0
  3
in
 41
1.75
 42
0.625
 43
3.75
 44
1.25
 73
     0
 74
     0
 77
     1
 78
     8
140
2.5
141
2.5
143
0.0393700787
144
0.0393700787401575
147
0.625
171
     3
172
     1
179
     3
271
     3
272
     3
274
     3
275
     2
283
     0
284
     8
340
11
  0
ENDTAB
  0
TABLE
  2
BLOCK_RECORD
  5
18E
330
0
100
AcDbSymbolTable
 70
    16
  0
BLOCK_RECORD
  5
1F
330
18E
100
AcDbSymbolTableRecord
100
AcDbBlockTableRecord
  2
*Model_Space
340
198
  0
BLOCK_RECORD
  5
1B
330
18E
100
AcDbSymbolTableRecord
100
AcDbBlockTableRecord
  2
*Paper_Space
340
199
  0
BLOCK_RECORD
  5
23
330
18E
100
AcDbSymbolTableRecord
100
AcDbBlockTableRecord
  2
*Paper_Space0
340
0
  0
BLOCK_RECORD
  5
D1
330
18E
100
AcDbSymbolTableRecord
100
AcDbBlockTableRecord
  2
DimnDraft3D1
340
0
  0
BLOCK_RECORD
  5
DB
330
18E
100
AcDbSymbolTableRecord
100
AcDbBlockTableRecord
  2
DimnDraft3D2
340
0
  0
BLOCK_RECORD
  5
E5
330
18E
100
AcDbSymbolTableRecord
100
AcDbBlockTableRecord
  2
DimnDraft3D3
340
0
  0
BLOCK_RECORD
  5
EF
330
18E
100
AcDbSymbolTableRecord
100
AcDbBlockTableRecord
  2
DimnDraft3D4
340
0
  0
BLOCK_RECORD
  5
F9
330
18E
100
AcDbSymbolTableRecord
100
AcDbBlockTableRecord
  2
DimnDraft3D5
340
0
  0
BLOCK_RECORD
  5
103
330
18E
100
AcDbSymbolTableRecord
100
AcDbBlockTableRecord
  2
DimnDraft3D6
340
0
  0
BLOCK_RECORD
  5
10E
330
18E
100
AcDbSymbolTableRecord
100
AcDbBlockTableRecord
  2
DimnDraft3D7
340
0
  0
BLOCK_RECORD
  5
245
330
18E
100
AcDbSymbolTableRecord
100
AcDbBlockTableRecord
  2
*D8
340
0
  0
BLOCK_RECORD
  5
253
330
18E
100
AcDbSymbolTableRecord
100
AcDbBlockTableRecord
  2
*D9
340
0
  0
BLOCK_RECORD
  5
261
330
18E
100
AcDbSymbolTableRecord
100
AcDbBlockTableRecord
  2
*D10
340
0
  0
BLOCK_RECORD
  5
361
330
18E
100
AcDbSymbolTableRecord
100
AcDbBlockTableRecord
  2
*D11
340
0
  0
BLOCK_RECORD
  5
480
330
18E
100
AcDbSymbolTableRecord
100
AcDbBlockTableRecord
  2
*D12
340
0
  0
BLOCK_RECORD
  5
4B5
330
18E
100
AcDbSymbolTableRecord
100
AcDbBlockTableRecord
  2
*D13
340
0
  0
BLOCK_RECORD
  5
523
330
18E
100
AcDbSymbolTableRecord
100
AcDbBlockTableRecord
  2
*D14
340
0
  0
BLOCK_RECORD
  5
539
330
18E
100
AcDbSymbolTableRecord
100
AcDbBlockTableRecord
  2
*D15
340
0
  0
ENDTAB
  0
ENDSEC
  0
SECTION
  2
BLOCKS
  0
BLOCK
  5
20
330
1F
100
AcDbEntity
  8
0
100
AcDbBlockBegin
  2
*Model_Space
 70
     0
 10
0.0
 20
0.0
 30
0.0
  3
*Model_Space
  1

  0
ENDBLK
  5
21
330
1F
100
AcDbEntity
  8
0
100
AcDbBlockEnd
  0
BLOCK
  5
1C
330
1B
100
AcDbEntity
 67
     1
  8
0
100
AcDbBlockBegin
  2
*Paper_Space
 70
     0
 10
0.0
 20
0.0
 30
0.0
  3
*Paper_Space
  1

  0
ENDBLK
  5
1D
330
1B
100
AcDbEntity
 67
     1
  8
0
100
AcDbBlockEnd
  0
BLOCK
  5
24
330
23
100
AcDbEntity
  8
0
100
AcDbBlockBegin
  2
*Paper_Space0
 70
     0
 10
0.0
 20
0.0
 30
0.0
  3
*Paper_Space0
  1

  0
ENDBLK
  5
25
330
23
100
AcDbEntity
  8
0
100
AcDbBlockEnd
  0
BLOCK
  5
D8
330
D1
100
AcDbEntity
  8
0
100
AcDbBlockBegin
  2
DimnDraft3D1
 70
     0
 10
0.0
 20
0.0
 30
0.0
  3
DimnDraft3D1
  1

  0
LINE
  5
40D
330
D1
100
AcDbEntity
  8
SK2
 62
    35
370
    -2
100
AcDbLine
 10
-0.0000000000000001
 20
-3.174999999999998
 30
0.0
 11
-0.0000000000000007
 21
-13.713398
 31
0.0
  0
LINE
  5
40E
330
D1
100
AcDbEntity
  8
SK2
 62
    35
370
    -2
100
AcDbLine
 10
25.5709
 20
-4.674999999999998
 30
0.0
 11
25.5709
 21
-13.713398
 31
0.0
  0
LINE
  5
40F
330
D1
100
AcDbEntity
  8
SK2
 62
    35
370
    -2
100
AcDbLine
 10
3.499999999999998
 20
-11.713398
 30
0.0
 11
22.0709
 21
-11.713398
 31
0.0
  0
SOLID
  5
410
330
D1
100
AcDbEntity
  8
SK2
 62
    35
370
    18
100
AcDbTrace
 10
3.499999999999998
 20
-11.13006466666666
 30
0.0
 11
3.499999999999998
 21
-12.29673133333333
 31
0.0
 12
-0.0000000000000006
 22
-11.713398
 32
0.0
 13
-0.0000000000000006
 23
-11.713398
 33
0.0
  0
SOLID
  5
411
330
D1
100
AcDbEntity
  8
SK2
 62
    35
370
    18
100
AcDbTrace
 10
22.0709
 20
-11.13006466666666
 30
0.0
 11
22.0709
 21
-12.29673133333333
 31
0.0
 12
25.5709
 22
-11.713398
 32
0.0
 13
25.5709
 23
-11.713398
 33
0.0
  0
MTEXT
  5
412
330
D1
100
AcDbEntity
  8
SK2
 62
    35
370
    13
100
AcDbMText
 10
12.78545
 20
-8.213397999999997
 30
0.0
 40
3.5
 41
0.0
 71
     5
 72
     1
  1
\A1;1401in
  7
iso_b_vert
 73
     1
 44
1.0
  0
POINT
  5
413
330
D1
100
AcDbEntity
  8
Defpoints
 62
     0
370
    18
100
AcDbPoint
 10
0.0
 20
-1.587499999999999
 30
0.0
  0
POINT
  5
414
330
D1
100
AcDbEntity
  8
Defpoints
 62
     0
370
    18
100
AcDbPoint
 10
25.5709
 20
-3.087499999999999
 30
0.0
  0
POINT
  5
415
330
D1
100
AcDbEntity
  8
Defpoints
 62
     0
370
    18
100
AcDbPoint
 10
25.5709
 20
-11.713398
 30
0.0
  0
ENDBLK
  5
D9
330
D1
100
AcDbEntity
  8
0
100
AcDbBlockEnd
  0
BLOCK
  5
E2
330
DB
100
AcDbEntity
  8
0
100
AcDbBlockBegin
  2
DimnDraft3D2
 70
     0
 10
0.0
 20
0.0
 30
0.0
  3
DimnDraft3D2
  1

  0
LINE
  5
416
330
DB
100
AcDbEntity
  8
SK2
 62
    35
370
    -2
100
AcDbLine
 10
-36.0
 20
-6.174999999999998
 30
0.0
 11
-36.0
 21
-33.69298499999999
 31
0.0
  0
LINE
  5
417
330
DB
100
AcDbEntity
  8
SK2
 62
    35
370
    -2
100
AcDbLine
 10
26.0
 20
-3.174999999999998
 30
0.0
 11
26.0
 21
-33.692985
 31
0.0
  0
LINE
  5
418
330
DB
100
AcDbEntity
  8
SK2
 62
    35
370
    -2
100
AcDbLine
 10
-32.5
 20
-31.692985
 30
0.0
 11
22.5
 21
-31.692985
 31
0.0
  0
SOLID
  5
419
330
DB
100
AcDbEntity
  8
SK2
 62
    35
370
    18
100
AcDbTrace
 10
-32.5
 20
-31.10965166666666
 30
0.0
 11
-32.5
 21
-32.27631833333333
 31
0.0
 12
-36.0
 22
-31.692985
 32
0.0
 13
-36.0
 23
-31.692985
 33
0.0
  0
SOLID
  5
41A
330
DB
100
AcDbEntity
  8
SK2
 62
    35
370
    18
100
AcDbTrace
 10
22.5
 20
-31.10965166666666
 30
0.0
 11
22.5
 21
-32.27631833333333
 31
0.0
 12
26.0
 22
-31.692985
 32
0.0
 13
26.0
 23
-31.692985
 33
0.0
  0
MTEXT
  5
41B
330
DB
100
AcDbEntity
  8
SK2
 62
    35
370
    13
100
AcDbMText
 10
-5.0
 20
-28.192985
 30
0.0
 40
3.5
 41
0.0
 71
     5
 72
     1
  1
\A1;2444in
  7
iso_b_vert
 73
     1
 44
1.0
  0
POINT
  5
41C
330
DB
100
AcDbEntity
  8
Defpoints
 62
     0
370
    18
100
AcDbPoint
 10
-36.0
 20
-4.5875
 30
0.0
  0
POINT
  5
41D
330
DB
100
AcDbEntity
  8
Defpoints
 62
     0
370
    18
100
AcDbPoint
 10
26.0
 20
-1.587499999999999
 30
0.0
  0
POINT
  5
41E
330
DB
100
AcDbEntity
  8
Defpoints
 62
     0
370
    18
100
AcDbPoint
 10
26.0
 20
-31.692985
 30
0.0
  0
ENDBLK
  5
E3
330
DB
100
AcDbEntity
  8
0
100
AcDbBlockEnd
  0
BLOCK
  5
EC
330
E5
100
AcDbEntity
  8
0
100
AcDbBlockBegin
  2
DimnDraft3D3
 70
     0
 10
0.0
 20
0.0
 30
0.0
  3
DimnDraft3D3
  1

  0
LINE
  5
41F
330
E5
100
AcDbEntity
  8
SK2
 62
    35
370
    -2
100
AcDbLine
 10
16.58
 20
4.674999999999998
 30
0.0
 11
16.58
 21
15.109119
 31
0.0
  0
LINE
  5
420
330
E5
100
AcDbEntity
  8
SK2
 62
    35
370
    -2
100
AcDbLine
 10
26.0
 20
3.174999999999998
 30
0.0
 11
26.0
 21
15.109119
 31
0.0
  0
LINE
  5
421
330
E5
100
AcDbEntity
  8
SK2
 62
    35
370
    -2
100
AcDbLine
 10
13.08
 20
13.109119
 30
0.0
 11
9.579999999999998
 21
13.109119
 31
0.0
  0
LINE
  5
422
330
E5
100
AcDbEntity
  8
SK2
 62
    35
370
    -2
100
AcDbLine
 10
29.5
 20
13.109119
 30
0.0
 11
53.0
 21
13.109119
 31
0.0
  0
LINE
  5
423
330
E5
100
AcDbEntity
  8
SK2
 62
    35
370
    -2
100
AcDbLine
 10
16.58
 20
13.109119
 30
0.0
 11
26.0
 21
13.109119
 31
0.0
  0
SOLID
  5
424
330
E5
100
AcDbEntity
  8
SK2
 62
    35
370
    18
100
AcDbTrace
 10
13.08
 20
13.69245233333333
 30
0.0
 11
13.08
 21
12.52578566666666
 31
0.0
 12
16.58
 22
13.109119
 32
0.0
 13
16.58
 23
13.109119
 33
0.0
  0
SOLID
  5
425
330
E5
100
AcDbEntity
  8
SK2
 62
    35
370
    18
100
AcDbTrace
 10
29.5
 20
13.69245233333333
 30
0.0
 11
29.5
 21
12.52578566666666
 31
0.0
 12
26.0
 22
13.109119
 32
0.0
 13
26.0
 23
13.109119
 33
0.0
  0
MTEXT
  5
426
330
E5
100
AcDbEntity
  8
SK2
 62
    35
370
    13
100
AcDbMText
 10
43.0
 20
16.609119
 30
0.0
 40
3.5
 41
0.0
 71
     5
 72
     1
  1
\A1;0437in
  7
iso_b_vert
 73
     1
 44
1.0
  0
POINT
  5
427
330
E5
100
AcDbEntity
  8
Defpoints
 62
     0
370
    18
100
AcDbPoint
 10
16.58
 20
3.087499999999999
 30
0.0
  0
POINT
  5
428
330
E5
100
AcDbEntity
  8
Defpoints
 62
     0
370
    18
100
AcDbPoint
 10
26.0
 20
1.587499999999999
 30
0.0
  0
POINT
  5
429
330
E5
100
AcDbEntity
  8
Defpoints
 62
     0
370
    18
100
AcDbPoint
 10
26.0
 20
13.109119
 30
0.0
  0
ENDBLK
  5
ED
330
E5
100
AcDbEntity
  8
0
100
AcDbBlockEnd
  0
BLOCK
  5
F6
330
EF
100
AcDbEntity
  8
0
100
AcDbBlockBegin
  2
DimnDraft3D4
 70
     0
 10
0.0
 20
0.0
 30
0.0
  3
DimnDraft3D4
  1

  0
LINE
  5
42A
330
EF
100
AcDbEntity
  8
SK2
 62
    35
370
    -2
100
AcDbLine
 10
26.0
 20
-3.174999999999998
 30
0.0
 11
26.0
 21
-16.302503
 31
0.0
  0
LINE
  5
42B
330
EF
100
AcDbEntity
  8
SK2
 62
    35
370
    -2
100
AcDbLine
 10
25.5709
 20
-4.674999999999998
 30
0.0
 11
25.5709
 21
-16.302503
 31
0.0
  0
LINE
  5
42C
330
EF
100
AcDbEntity
  8
SK2
 62
    35
370
    -2
100
AcDbLine
 10
29.5
 20
-14.302503
 30
0.0
 11
33.0
 21
-14.302503
 31
0.0
  0
LINE
  5
42D
330
EF
100
AcDbEntity
  8
SK2
 62
    35
370
    -2
100
AcDbLine
 10
22.0709
 20
-14.302503
 30
0.0
 11
-1.429099999999991
 21
-14.302503
 31
0.0
  0
LINE
  5
42E
330
EF
100
AcDbEntity
  8
SK2
 62
    35
370
    -2
100
AcDbLine
 10
26.0
 20
-14.302503
 30
0.0
 11
25.5709
 21
-14.302503
 31
0.0
  0
SOLID
  5
42F
330
EF
100
AcDbEntity
  8
SK2
 62
    35
370
    18
100
AcDbTrace
 10
29.5
 20
-13.71916966666666
 30
0.0
 11
29.5
 21
-14.88583633333333
 31
0.0
 12
26.0
 22
-14.302503
 32
0.0
 13
26.0
 23
-14.302503
 33
0.0
  0
SOLID
  5
430
330
EF
100
AcDbEntity
  8
SK2
 62
    35
370
    18
100
AcDbTrace
 10
22.0709
 20
-13.71916966666666
 30
0.0
 11
22.0709
 21
-14.88583633333333
 31
0.0
 12
25.5709
 22
-14.302503
 32
0.0
 13
25.5709
 23
-14.302503
 33
0.0
  0
MTEXT
  5
431
330
EF
100
AcDbEntity
  8
SK2
 62
    35
370
    13
100
AcDbMText
 10
8.570900000000005
 20
-10.802503
 30
0.0
 40
3.5
 41
0.0
 71
     5
 72
     1
  1
\A1;0402in
  7
iso_b_vert
 73
     1
 44
1.0
  0
POINT
  5
432
330
EF
100
AcDbEntity
  8
Defpoints
 62
     0
370
    18
100
AcDbPoint
 10
26.0
 20
-1.587499999999999
 30
0.0
  0
POINT
  5
433
330
EF
100
AcDbEntity
  8
Defpoints
 62
     0
370
    18
100
AcDbPoint
 10
25.5709
 20
-3.087499999999999
 30
0.0
  0
POINT
  5
434
330
EF
100
AcDbEntity
  8
Defpoints
 62
     0
370
    18
100
AcDbPoint
 10
25.5709
 20
-14.302503
 30
0.0
  0
ENDBLK
  5
F7
330
EF
100
AcDbEntity
  8
0
100
AcDbBlockEnd
  0
BLOCK
  5
100
330
F9
100
AcDbEntity
  8
0
100
AcDbBlockBegin
  2
DimnDraft3D5
 70
     0
 10
0.0
 20
0.0
 30
0.0
  3
DimnDraft3D5
  1

  0
LINE
  5
435
330
F9
100
AcDbEntity
  8
SK2
 62
    35
370
    -2
100
AcDbLine
 10
-36.0
 20
-6.174999999999998
 30
0.0
 11
-36.0
 21
-23.34342799999999
 31
0.0
  0
LINE
  5
436
330
F9
100
AcDbEntity
  8
SK2
 62
    35
370
    -2
100
AcDbLine
 10
25.5709
 20
-4.674999999999998
 30
0.0
 11
25.5709
 21
-23.343428
 31
0.0
  0
LINE
  5
437
330
F9
100
AcDbEntity
  8
SK2
 62
    35
370
    -2
100
AcDbLine
 10
-32.5
 20
-21.343428
 30
0.0
 11
22.0709
 21
-21.343428
 31
0.0
  0
SOLID
  5
438
330
F9
100
AcDbEntity
  8
SK2
 62
    35
370
    18
100
AcDbTrace
 10
-32.5
 20
-20.76009466666667
 30
0.0
 11
-32.5
 21
-21.92676133333333
 31
0.0
 12
-36.0
 22
-21.343428
 32
0.0
 13
-36.0
 23
-21.343428
 33
0.0
  0
SOLID
  5
439
330
F9
100
AcDbEntity
  8
SK2
 62
    35
370
    18
100
AcDbTrace
 10
22.0709
 20
-20.76009466666667
 30
0.0
 11
22.0709
 21
-21.92676133333333
 31
0.0
 12
25.5709
 22
-21.343428
 32
0.0
 13
25.5709
 23
-21.343428
 33
0.0
  0
MTEXT
  5
43A
330
F9
100
AcDbEntity
  8
SK2
 62
    35
370
    13
100
AcDbMText
 10
-5.214549999999999
 20
-17.843428
 30
0.0
 40
3.5
 41
0.0
 71
     5
 72
     1
  1
\A1;2442in
  7
iso_b_vert
 73
     1
 44
1.0
  0
POINT
  5
43B
330
F9
100
AcDbEntity
  8
Defpoints
 62
     0
370
    18
100
AcDbPoint
 10
-36.0
 20
-4.5875
 30
0.0
  0
POINT
  5
43C
330
F9
100
AcDbEntity
  8
Defpoints
 62
     0
370
    18
100
AcDbPoint
 10
25.5709
 20
-3.087499999999999
 30
0.0
  0
POINT
  5
43D
330
F9
100
AcDbEntity
  8
Defpoints
 62
     0
370
    18
100
AcDbPoint
 10
25.5709
 20
-21.343428
 30
0.0
  0
ENDBLK
  5
101
330
F9
100
AcDbEntity
  8
0
100
AcDbBlockEnd
  0
BLOCK
  5
10B
330
103
100
AcDbEntity
  8
0
100
AcDbBlockBegin
  2
DimnDraft3D6
 70
     0
 10
0.0
 20
0.0
 30
0.0
  3
DimnDraft3D6
  1

  0
LINE
  5
43E
330
103
100
AcDbEntity
  8
SK2
 62
    35
370
    -2
100
AcDbLine
 10
-39.175
 20
-2.999999999999998
 30
0.0
 11
-48.625163
 21
-2.999999999999996
 31
0.0
  0
LINE
  5
43F
330
103
100
AcDbEntity
  8
SK2
 62
    35
370
    -2
100
AcDbLine
 10
-39.175
 20
3.0
 30
0.0
 11
-48.625163
 21
3.000000000000003
 31
0.0
  0
LINE
  5
440
330
103
100
AcDbEntity
  8
SK2
 62
    35
370
    -2
100
AcDbLine
 10
-46.625163
 20
-6.499999999999997
 30
0.0
 11
-46.625163
 21
-9.999999999999996
 31
0.0
  0
LINE
  5
441
330
103
100
AcDbEntity
  8
SK2
 62
    35
370
    -2
100
AcDbLine
 10
-46.625163
 20
6.500000000000002
 30
0.0
 11
-46.62516299999999
 21
33.33333333333333
 31
0.0
  0
SOLID
  5
442
330
103
100
AcDbEntity
  8
SK2
 62
    35
370
    18
100
AcDbTrace
 10
-47.20849633333332
 20
-6.499999999999997
 30
0.0
 11
-46.04182966666665
 21
-6.499999999999997
 31
0.0
 12
-46.625163
 22
-2.999999999999996
 32
0.0
 13
-46.625163
 23
-2.999999999999996
 33
0.0
  0
SOLID
  5
443
330
103
100
AcDbEntity
  8
SK2
 62
    35
370
    18
100
AcDbTrace
 10
-47.20849633333332
 20
6.500000000000002
 30
0.0
 11
-46.04182966666665
 21
6.500000000000002
 31
0.0
 12
-46.625163
 22
3.000000000000001
 32
0.0
 13
-46.625163
 23
3.000000000000001
 33
0.0
  0
MTEXT
  5
444
330
103
100
AcDbEntity
  8
SK2
 62
    35
370
    13
100
AcDbMText
 10
-50.125163
 20
21.66666666666666
 30
0.0
 40
3.5
 41
0.0
 71
     5
 72
     1
  1
\A1;04236in
  7
iso_b_vert
 11
0.0000000000000001
 21
1.0
 31
0.0
 73
     1
 44
1.0
  0
POINT
  5
445
330
103
100
AcDbEntity
  8
Defpoints
 62
     0
370
    18
100
AcDbPoint
 10
-37.5875
 20
-3.0
 30
0.0
  0
POINT
  5
446
330
103
100
AcDbEntity
  8
Defpoints
 62
     0
370
    18
100
AcDbPoint
 10
-37.5875
 20
3.0
 30
0.0
  0
POINT
  5
447
330
103
100
AcDbEntity
  8
Defpoints
 62
     0
370
    18
100
AcDbPoint
 10
-46.625163
 20
3.000000000000001
 30
0.0
  0
ENDBLK
  5
10C
330
103
100
AcDbEntity
  8
0
100
AcDbBlockEnd
  0
BLOCK
  5
116
330
10E
100
AcDbEntity
  8
0
100
AcDbBlockBegin
  2
DimnDraft3D7
 70
     0
 10
0.0
 20
0.0
 30
0.0
  3
DimnDraft3D7
  1

  0
LINE
  5
448
330
10E
100
AcDbEntity
  8
2
 62
    35
370
    -2
100
AcDbLine
 10
28.7459
 20
-1.5
 30
0.0
 11
42.08334299999999
 21
-1.500000000000004
 31
0.0
  0
LINE
  5
449
330
10E
100
AcDbEntity
  8
2
 62
    35
370
    -2
100
AcDbLine
 10
28.7459
 20
1.499999999999999
 30
0.0
 11
42.08334299999999
 21
1.499999999999995
 31
0.0
  0
LINE
  5
44A
330
10E
100
AcDbEntity
  8
2
 62
    35
370
    -2
100
AcDbLine
 10
40.083343
 20
-5.000000000000001
 30
0.0
 11
40.083343
 21
-8.500000000000001
 31
0.0
  0
LINE
  5
44B
330
10E
100
AcDbEntity
  8
2
 62
    35
370
    -2
100
AcDbLine
 10
40.083343
 20
4.999999999999995
 30
0.0
 11
40.083343
 21
30.49999999999999
 31
0.0
  0
SOLID
  5
44C
330
10E
100
AcDbEntity
  8
2
 62
    35
370
    18
100
AcDbTrace
 10
39.50000966666666
 20
-5.000000000000001
 30
0.0
 11
40.66667633333334
 21
-5.000000000000001
 31
0.0
 12
40.083343
 22
-1.500000000000003
 32
0.0
 13
40.083343
 23
-1.500000000000003
 33
0.0
  0
SOLID
  5
44D
330
10E
100
AcDbEntity
  8
2
 62
    35
370
    18
100
AcDbTrace
 10
39.50000966666666
 20
4.999999999999995
 30
0.0
 11
40.66667633333334
 21
4.999999999999995
 31
0.0
 12
40.083343
 22
1.499999999999995
 32
0.0
 13
40.083343
 23
1.499999999999995
 33
0.0
  0
MTEXT
  5
44E
330
10E
100
AcDbEntity
  8
2
 62
    35
370
    13
100
AcDbMText
 10
36.583343
 20
19.5
 30
0.0
 40
3.5
 41
0.0
 71
     5
 72
     1
  1
\A1;04118in
  7
iso_b_vert
 11
0.0000000000000001
 21
1.0
 31
0.0
 73
     1
 44
1.0
  0
POINT
  5
44F
330
10E
100
AcDbEntity
  8
Defpoints
 62
     0
370
    18
100
AcDbPoint
 10
27.1584
 20
-1.5
 30
0.0
  0
POINT
  5
450
330
10E
100
AcDbEntity
  8
Defpoints
 62
     0
370
    18
100
AcDbPoint
 10
27.1584
 20
1.5
 30
0.0
  0
POINT
  5
451
330
10E
100
AcDbEntity
  8
Defpoints
 62
     0
370
    18
100
AcDbPoint
 10
40.083343
 20
1.499999999999995
 30
0.0
  0
ENDBLK
  5
117
330
10E
100
AcDbEntity
  8
0
100
AcDbBlockEnd
  0
BLOCK
  5
250
330
245
100
AcDbEntity
  8
0
370
    18
100
AcDbBlockBegin
  2
*D8
 70
     1
 10
0.0
 20
0.0
 30
0.0
  3
*D8
  1

  0
LINE
  5
246
330
245
100
AcDbEntity
  8
0
 62
     0
370
    -2
100
AcDbLine
 10
117.5037172624325
 20
2.272902153363291
 30
0.0
 11
117.5037172624325
 21
4.965494817786342
 31
0.0
  0
LINE
  5
247
330
245
100
AcDbEntity
  8
0
 62
     0
370
    -2
100
AcDbLine
 10
122.4656131114396
 20
1.253970243181179
 30
0.0
 11
122.4656131114396
 21
4.965494817786342
 31
0.0
  0
LINE
  5
248
330
245
100
AcDbEntity
  8
0
 62
     0
370
    -2
100
AcDbLine
 10
117.6837172624325
 20
4.785494817786341
 30
0.0
 11
119.474665186936
 21
4.785494817786341
 31
0.0
  0
LINE
  5
249
330
245
100
AcDbEntity
  8
0
 62
     0
370
    -2
100
AcDbLine
 10
122.2856131114396
 20
4.785494817786341
 30
0.0
 11
120.4946651869361
 21
4.785494817786341
 31
0.0
  0
SOLID
  5
24A
330
245
100
AcDbEntity
  8
0
 62
     0
370
    18
100
AcDbTrace
 10
117.6837172624325
 20
4.815494817786341
 30
0.0
 11
117.6837172624325
 21
4.755494817786342
 31
0.0
 12
117.5037172624325
 22
4.785494817786341
 32
0.0
 13
117.5037172624325
 23
4.785494817786341
 33
0.0
  0
SOLID
  5
24B
330
245
100
AcDbEntity
  8
0
 62
     0
370
    18
100
AcDbTrace
 10
122.2856131114396
 20
4.815494817786341
 30
0.0
 11
122.2856131114396
 21
4.755494817786342
 31
0.0
 12
122.4656131114396
 22
4.785494817786341
 32
0.0
 13
122.4656131114396
 23
4.785494817786341
 33
0.0
  0
MTEXT
  5
24C
330
245
100
AcDbEntity
  8
0
 62
     0
370
    18
100
AcDbMText
 10
119.984665186936
 20
4.785494817786341
 30
0.0
 40
0.18
 41
0.0
 71
     5
 72
     1
  1
\A1;4.9619
 73
     1
 44
1.0
  0
POINT
  5
24D
330
245
100
AcDbEntity
  8
Defpoints
 62
     0
370
    18
100
AcDbPoint
 10
117.5037172624325
 20
2.210402153363291
 30
0.0
  0
POINT
  5
24E
330
245
100
AcDbEntity
  8
Defpoints
 62
     0
370
    18
100
AcDbPoint
 10
122.4656131114396
 20
1.191470243181179
 30
0.0
  0
POINT
  5
24F
330
245
100
AcDbEntity
  8
Defpoints
 62
     0
370
    18
100
AcDbPoint
 10
122.4656131114396
 20
4.785494817786341
 30
0.0
  0
ENDBLK
  5
251
330
245
100
AcDbEntity
  8
0
370
    18
100
AcDbBlockEnd
  0
BLOCK
  5
25E
330
253
100
AcDbEntity
  8
0
370
    18
100
AcDbBlockBegin
  2
*D9
 70
     1
 10
0.0
 20
0.0
 30
0.0
  3
*D9
  1

  0
LINE
  5
254
330
253
100
AcDbEntity
  8
0
 62
     0
370
    -2
100
AcDbLine
 10
117.5037172624325
 20
2.272902153363291
 30
0.0
 11
117.5037172624325
 21
3.922030005219873
 31
0.0
  0
LINE
  5
255
330
253
100
AcDbEntity
  8
0
 62
     0
370
    -2
100
AcDbLine
 10
122.4656131114396
 20
1.253970243181179
 30
0.0
 11
122.4656131114396
 21
3.922030005219873
 31
0.0
  0
LINE
  5
256
330
253
100
AcDbEntity
  8
0
 62
     0
370
    -2
100
AcDbLine
 10
117.6837172624325
 20
3.742030005219873
 30
0.0
 11
119.474665186936
 21
3.742030005219873
 31
0.0
  0
LINE
  5
257
330
253
100
AcDbEntity
  8
0
 62
     0
370
    -2
100
AcDbLine
 10
122.2856131114396
 20
3.742030005219873
 30
0.0
 11
120.4946651869361
 21
3.742030005219873
 31
0.0
  0
SOLID
  5
258
330
253
100
AcDbEntity
  8
0
 62
     0
370
    18
100
AcDbTrace
 10
117.6837172624325
 20
3.772030005219872
 30
0.0
 11
117.6837172624325
 21
3.712030005219873
 31
0.0
 12
117.5037172624325
 22
3.742030005219873
 32
0.0
 13
117.5037172624325
 23
3.742030005219873
 33
0.0
  0
SOLID
  5
259
330
253
100
AcDbEntity
  8
0
 62
     0
370
    18
100
AcDbTrace
 10
122.2856131114396
 20
3.772030005219872
 30
0.0
 11
122.2856131114396
 21
3.712030005219873
 31
0.0
 12
122.4656131114396
 22
3.742030005219873
 32
0.0
 13
122.4656131114396
 23
3.742030005219873
 33
0.0
  0
MTEXT
  5
25A
330
253
100
AcDbEntity
  8
0
 62
     0
370
    18
100
AcDbMText
 10
119.984665186936
 20
3.742030005219873
 30
0.0
 40
0.18
 41
0.0
 71
     5
 72
     1
  1
\A1;4.9619
 73
     1
 44
1.0
  0
POINT
  5
25B
330
253
100
AcDbEntity
  8
Defpoints
 62
     0
370
    18
100
AcDbPoint
 10
117.5037172624325
 20
2.210402153363291
 30
0.0
  0
POINT
  5
25C
330
253
100
AcDbEntity
  8
Defpoints
 62
     0
370
    18
100
AcDbPoint
 10
122.4656131114396
 20
1.191470243181179
 30
0.0
  0
POINT
  5
25D
330
253
100
AcDbEntity
  8
Defpoints
 62
     0
370
    18
100
AcDbPoint
 10
122.4656131114396
 20
3.742030005219873
 30
0.0
  0
ENDBLK
  5
25F
330
253
100
AcDbEntity
  8
0
370
    18
100
AcDbBlockEnd
  0
BLOCK
  5
26C
330
261
100
AcDbEntity
  8
0
370
    18
100
AcDbBlockBegin
  2
*D10
 70
     1
 10
0.0
 20
0.0
 30
0.0
  3
*D10
  1

  0
LINE
  5
262
330
261
100
AcDbEntity
  8
0
 62
     0
370
    -2
100
AcDbLine
 10
-27.24435463599025
 20
3.0625
 30
0.0
 11
-27.24435463599025
 21
12.17414377043024
 31
0.0
  0
LINE
  5
263
330
261
100
AcDbEntity
  8
0
 62
     0
370
    -2
100
AcDbLine
 10
-14.0547699123174
 20
3.0625
 30
0.0
 11
-14.0547699123174
 21
12.17414377043024
 31
0.0
  0
LINE
  5
264
330
261
100
AcDbEntity
  8
0
 62
     0
370
    -2
100
AcDbLine
 10
-27.06435463599025
 20
11.99414377043024
 30
0.0
 11
-21.21956227415383
 21
11.99414377043024
 31
0.0
  0
LINE
  5
265
330
261
100
AcDbEntity
  8
0
 62
     0
370
    -2
100
AcDbLine
 10
-14.2347699123174
 20
11.99414377043024
 30
0.0
 11
-20.07956227415383
 21
11.99414377043024
 31
0.0
  0
SOLID
  5
266
330
261
100
AcDbEntity
  8
0
 62
     0
370
    18
100
AcDbTrace
 10
-27.06435463599025
 20
12.02414377043024
 30
0.0
 11
-27.06435463599025
 21
11.96414377043024
 31
0.0
 12
-27.24435463599025
 22
11.99414377043024
 32
0.0
 13
-27.24435463599025
 23
11.99414377043024
 33
0.0
  0
SOLID
  5
267
330
261
100
AcDbEntity
  8
0
 62
     0
370
    18
100
AcDbTrace
 10
-14.2347699123174
 20
12.02414377043024
 30
0.0
 11
-14.2347699123174
 21
11.96414377043024
 31
0.0
 12
-14.0547699123174
 22
11.99414377043024
 32
0.0
 13
-14.0547699123174
 23
11.99414377043024
 33
0.0
  0
MTEXT
  5
268
330
261
100
AcDbEntity
  8
0
 62
     0
370
    18
100
AcDbMText
 10
-20.64956227415382
 20
11.99414377043024
 30
0.0
 40
0.18
 41
0.0
 71
     5
 72
     1
  1
\A1;13.1896
 73
     1
 44
1.0
  0
POINT
  5
269
330
261
100
AcDbEntity
  8
Defpoints
 62
     0
370
    18
100
AcDbPoint
 10
-27.24435463599025
 20
3.0
 30
0.0
  0
POINT
  5
26A
330
261
100
AcDbEntity
  8
Defpoints
 62
     0
370
    18
100
AcDbPoint
 10
-14.0547699123174
 20
3.0
 30
0.0
  0
POINT
  5
26B
330
261
100
AcDbEntity
  8
Defpoints
 62
     0
370
    18
100
AcDbPoint
 10
-14.0547699123174
 20
11.99414377043024
 30
0.0
  0
ENDBLK
  5
26D
330
261
100
AcDbEntity
  8
0
370
    18
100
AcDbBlockEnd
  0
BLOCK
  5
36B
330
361
100
AcDbEntity
  8
0
370
    18
100
AcDbBlockBegin
  2
*D11
 70
     1
 10
0.0
 20
0.0
 30
0.0
  3
*D11
  1

  0
LINE
  5
473
330
361
100
AcDbEntity
  8
0
 62
     0
370
    -2
100
AcDbLine
 10
117.8053548980675
 20
2.601747639746895
 30
0.0
 11
117.8053548980675
 21
5.435517696007308
 31
0.0
  0
LINE
  5
474
330
361
100
AcDbEntity
  8
0
 62
     0
370
    -2
100
AcDbLine
 10
122.4656131114396
 20
1.816470243181178
 30
0.0
 11
122.4656131114396
 21
5.435517696007308
 31
0.0
  0
LINE
  5
475
330
361
100
AcDbEntity
  8
0
 62
     0
370
    -2
100
AcDbLine
 10
115.3053548980675
 20
4.185517696007308
 30
0.0
 11
112.8053548980675
 21
4.185517696007308
 31
0.0
  0
LINE
  5
476
330
361
100
AcDbEntity
  8
0
 62
     0
370
    -2
100
AcDbLine
 10
124.9656131114396
 20
4.185517696007308
 30
0.0
 11
141.2156131114396
 21
4.185517696007308
 31
0.0
  0
LINE
  5
477
330
361
100
AcDbEntity
  8
0
 62
     0
370
    -2
100
AcDbLine
 10
117.8053548980675
 20
4.185517696007308
 30
0.0
 11
122.4656131114396
 21
4.185517696007308
 31
0.0
  0
SOLID
  5
478
330
361
100
AcDbEntity
  8
0
 62
     0
370
    18
100
AcDbTrace
 10
115.3053548980675
 20
4.602184362673976
 30
0.0
 11
115.3053548980675
 21
3.768851029340642
 31
0.0
 12
117.8053548980675
 22
4.185517696007308
 32
0.0
 13
117.8053548980675
 23
4.185517696007308
 33
0.0
  0
SOLID
  5
479
330
361
100
AcDbEntity
  8
0
 62
     0
370
    18
100
AcDbTrace
 10
124.9656131114396
 20
4.602184362673976
 30
0.0
 11
124.9656131114396
 21
3.768851029340642
 31
0.0
 12
122.4656131114396
 22
4.185517696007308
 32
0.0
 13
122.4656131114396
 23
4.185517696007308
 33
0.0
  0
MTEXT
  5
47A
330
361
100
AcDbEntity
  8
0
 62
     0
370
    18
100
AcDbMText
 10
134.3406131114396
 20
6.268851029340642
 30
0.0
 40
2.5
 41
0.0
 71
     5
 72
     1
  1
0,183in
 73
     1
 44
1.0
  0
POINT
  5
47B
330
361
100
AcDbEntity
  8
Defpoints
 62
     0
370
    18
100
AcDbPoint
 10
117.8053548980675
 20
1.976747639746895
 30
0.0
  0
POINT
  5
47C
330
361
100
AcDbEntity
  8
Defpoints
 62
     0
370
    18
100
AcDbPoint
 10
122.4656131114396
 20
1.191470243181179
 30
0.0
  0
POINT
  5
47D
330
361
100
AcDbEntity
  8
Defpoints
 62
     0
370
    18
100
AcDbPoint
 10
122.4656131114396
 20
4.185517696007308
 30
0.0
  0
ENDBLK
  5
36C
330
361
100
AcDbEntity
  8
0
370
    18
100
AcDbBlockEnd
  0
BLOCK
  5
48A
330
480
100
AcDbEntity
  8
0
370
    18
100
AcDbBlockBegin
  2
*D12
 70
     1
 10
0.0
 20
0.0
 30
0.0
  3
*D12
  1

  0
LINE
  5
78A
330
480
100
AcDbEntity
  8
SK2
 62
     0
370
    -2
100
AcDbLine
 10
-25.23000000000001
 20
2.7416666667
 30
0.0
 11
-25.23000000000001
 21
11.41502765031932
 31
0.0
  0
LINE
  5
78B
330
480
100
AcDbEntity
  8
SK2
 62
     0
370
    -2
100
AcDbLine
 10
-17.35599999999999
 20
2.784
 30
0.0
 11
-17.35599999999999
 21
11.41502765031932
 31
0.0
  0
LINE
  5
78C
330
480
100
AcDbEntity
  8
SK2
 62
     0
370
    -2
100
AcDbLine
 10
-19.85599999999999
 20
10.16502765031932
 30
0.0
 11
-22.73000000000001
 21
10.16502765031932
 31
0.0
  0
LINE
  5
78D
330
480
100
AcDbEntity
  8
SK2
 62
     0
370
    -2
100
AcDbLine
 10
-25.23000000000001
 20
10.16502765031932
 30
0.0
 11
-40.34512240548527
 21
10.16502765031932
 31
0.0
  0
SOLID
  5
78E
330
480
100
AcDbEntity
  8
SK2
 62
     0
370
    18
100
AcDbTrace
 10
-19.85599999999999
 20
10.58169431698599
 30
0.0
 11
-19.85599999999999
 21
9.748360983652654
 31
0.0
 12
-17.35599999999999
 22
10.16502765031932
 32
0.0
 13
-17.35599999999999
 23
10.16502765031932
 33
0.0
  0
SOLID
  5
78F
330
480
100
AcDbEntity
  8
SK2
 62
     0
370
    18
100
AcDbTrace
 10
-22.73000000000001
 20
10.58169431698599
 30
0.0
 11
-22.73000000000001
 21
9.748360983652654
 31
0.0
 12
-25.23000000000001
 22
10.16502765031932
 32
0.0
 13
-25.23000000000001
 23
10.16502765031932
 33
0.0
  0
MTEXT
  5
790
330
480
100
AcDbEntity
  8
SK2
 62
     0
370
    18
100
AcDbMText
 10
-35.76178907215194
 20
12.24836098365265
 30
0.0
 40
2.5
 41
0.0
 71
     5
 72
     1
  1
7,87
 73
     1
 44
1.0
  0
POINT
  5
791
330
480
100
AcDbEntity
  8
Defpoints
 62
     0
370
    18
100
AcDbPoint
 10
-25.23000000000001
 20
2.1166666667
 30
0.0
  0
POINT
  5
792
330
480
100
AcDbEntity
  8
Defpoints
 62
     0
370
    18
100
AcDbPoint
 10
-17.35599999999999
 20
2.159
 30
0.0
  0
POINT
  5
793
330
480
100
AcDbEntity
  8
Defpoints
 62
     0
370
    18
100
AcDbPoint
 10
-17.35599999999999
 20
10.16502765031932
 30
0.0
  0
ENDBLK
  5
48B
330
480
100
AcDbEntity
  8
0
370
    18
100
AcDbBlockEnd
  0
BLOCK
  5
4BF
330
4B5
100
AcDbEntity
  8
0
370
    18
100
AcDbBlockBegin
  2
*D13
 70
     1
 10
0.0
 20
0.0
 30
0.0
  3
*D13
  1

  0
LINE
  5
7CB
330
4B5
100
AcDbEntity
  8
SK2
 62
     0
370
    -2
100
AcDbLine
 10
6.272708476362192
 20
3.485514361114506
 30
0.0
 11
6.272708476362192
 21
11.70741852636316
 31
0.0
  0
LINE
  5
7CC
330
4B5
100
AcDbEntity
  8
SK2
 62
     0
370
    -2
100
AcDbLine
 10
11.34999999999999
 20
2.3290592411
 30
0.0
 11
11.34999999999999
 21
11.70741852636316
 31
0.0
  0
LINE
  5
7CD
330
4B5
100
AcDbEntity
  8
SK2
 62
     0
370
    -2
100
AcDbLine
 10
3.772708476362192
 20
10.45741852636316
 30
0.0
 11
1.272708476362192
 21
10.45741852636316
 31
0.0
  0
LINE
  5
7CE
330
4B5
100
AcDbEntity
  8
SK2
 62
     0
370
    -2
100
AcDbLine
 10
13.84999999999999
 20
10.45741852636316
 30
0.0
 11
25.30833333333332
 21
10.45741852636316
 31
0.0
  0
LINE
  5
7CF
330
4B5
100
AcDbEntity
  8
SK2
 62
     0
370
    -2
100
AcDbLine
 10
6.272708476362192
 20
10.45741852636316
 30
0.0
 11
11.34999999999999
 21
10.45741852636316
 31
0.0
  0
SOLID
  5
7D0
330
4B5
100
AcDbEntity
  8
SK2
 62
     0
370
    18
100
AcDbTrace
 10
3.772708476362192
 20
10.87408519302982
 30
0.0
 11
3.772708476362192
 21
10.04075185969649
 31
0.0
 12
6.272708476362192
 22
10.45741852636316
 32
0.0
 13
6.272708476362192
 23
10.45741852636316
 33
0.0
  0
SOLID
  5
7D1
330
4B5
100
AcDbEntity
  8
SK2
 62
     0
370
    18
100
AcDbTrace
 10
13.84999999999999
 20
10.87408519302982
 30
0.0
 11
13.84999999999999
 21
10.04075185969649
 31
0.0
 12
11.34999999999999
 22
10.45741852636316
 32
0.0
 13
11.34999999999999
 23
10.45741852636316
 33
0.0
  0
MTEXT
  5
7D2
330
4B5
100
AcDbEntity
  8
SK2
 62
     0
370
    18
100
AcDbMText
 10
20.93333333333332
 20
12.54075185969649
 30
0.0
 40
2.5
 41
0.0
 71
     5
 72
     1
  1
5,08
 73
     1
 44
1.0
  0
POINT
  5
7D3
330
4B5
100
AcDbEntity
  8
Defpoints
 62
     0
370
    18
100
AcDbPoint
 10
6.272708476362192
 20
2.860514361114505
 30
0.0
  0
POINT
  5
7D4
330
4B5
100
AcDbEntity
  8
Defpoints
 62
     0
370
    18
100
AcDbPoint
 10
11.34999999999999
 20
1.7040592411
 30
0.0
  0
POINT
  5
7D5
330
4B5
100
AcDbEntity
  8
Defpoints
 62
     0
370
    18
100
AcDbPoint
 10
11.34999999999999
 20
10.45741852636316
 30
0.0
  0
ENDBLK
  5
4C0
330
4B5
100
AcDbEntity
  8
0
370
    18
100
AcDbBlockEnd
  0
BLOCK
  5
52D
330
523
100
AcDbEntity
  8
0
370
    18
100
AcDbBlockBegin
  2
*D14
 70
     1
 10
0.0
 20
0.0
 30
0.0
  3
*D14
  1

  0
LINE
  5
52F
330
523
100
AcDbEntity
  8
0
 62
     0
370
    -2
100
AcDbLine
 10
94.33961311143958
 20
10.48713187490472
 30
0.0
 11
94.33961311143958
 21
14.83025231219608
 31
0.0
  0
LINE
  5
530
330
523
100
AcDbEntity
  8
0
 62
     0
370
    -2
100
AcDbLine
 10
117.812800825673
 20
10.48713187490472
 30
0.0
 11
117.812800825673
 21
14.83025231219608
 31
0.0
  0
LINE
  5
531
330
523
100
AcDbEntity
  8
0
 62
     0
370
    -2
100
AcDbLine
 10
96.08961311143959
 20
13.58025231219608
 30
0.0
 11
116.0628008256729
 21
13.58025231219608
 31
0.0
  0
SOLID
  5
532
330
523
100
AcDbEntity
  8
0
 62
     0
370
    18
100
AcDbTrace
 10
96.08961311143959
 20
13.87191897886274
 30
0.0
 11
96.08961311143959
 21
13.28858564552941
 31
0.0
 12
94.33961311143958
 22
13.58025231219608
 32
0.0
 13
94.33961311143958
 23
13.58025231219608
 33
0.0
  0
SOLID
  5
533
330
523
100
AcDbEntity
  8
0
 62
     0
370
    18
100
AcDbTrace
 10
116.0628008256729
 20
13.87191897886274
 30
0.0
 11
116.0628008256729
 21
13.28858564552941
 31
0.0
 12
117.812800825673
 22
13.58025231219608
 32
0.0
 13
117.812800825673
 23
13.58025231219608
 33
0.0
  0
MTEXT
  5
534
330
523
100
AcDbEntity
  8
0
 62
     0
370
    18
100
AcDbMText
 10
106.0762069685563
 20
15.45525231219608
 30
0.0
 40
2.5
 41
0.0
 71
     5
 72
     1
  1
0.924in
 73
     1
 44
1.0
  0
POINT
  5
535
330
523
100
AcDbEntity
  8
Defpoints
 62
     0
370
    18
100
AcDbPoint
 10
94.33961311143958
 20
9.86213187490472
 30
0.0
  0
POINT
  5
536
330
523
100
AcDbEntity
  8
Defpoints
 62
     0
370
    18
100
AcDbPoint
 10
117.812800825673
 20
9.86213187490472
 30
0.0
  0
POINT
  5
537
330
523
100
AcDbEntity
  8
Defpoints
 62
     0
370
    18
100
AcDbPoint
 10
117.812800825673
 20
13.58025231219608
 30
0.0
  0
ENDBLK
  5
52E
330
523
100
AcDbEntity
  8
0
370
    18
100
AcDbBlockEnd
  0
BLOCK
  5
543
330
539
100
AcDbEntity
  8
0
370
    18
100
AcDbBlockBegin
  2
*D15
 70
     1
 10
0.0
 20
0.0
 30
0.0
  3
*D15
  1

  0
LINE
  5
794
330
539
100
AcDbEntity
  8
2
 62
     0
370
    -2
100
AcDbLine
 10
10.715
 20
2.401499999999999
 30
0.0
 11
19.61249427619714
 21
2.401499999999997
 31
0.0
  0
LINE
  5
795
330
539
100
AcDbEntity
  8
2
 62
     0
370
    -2
100
AcDbLine
 10
10.715
 20
-2.401499999999999
 30
0.0
 11
19.61249427619714
 21
-2.401500000000001
 31
0.0
  0
LINE
  5
796
330
539
100
AcDbEntity
  8
2
 62
     0
370
    -2
100
AcDbLine
 10
18.36249427619714
 20
4.901499999999997
 30
0.0
 11
18.36249427619714
 21
7.401499999999997
 31
0.0
  0
LINE
  5
797
330
539
100
AcDbEntity
  8
2
 62
     0
370
    -2
100
AcDbLine
 10
18.36249427619714
 20
-4.901500000000001
 30
0.0
 11
18.36249427619713
 21
-23.6515
 31
0.0
  0
LINE
  5
798
330
539
100
AcDbEntity
  8
2
 62
     0
370
    -2
100
AcDbLine
 10
18.36249427619714
 20
2.401499999999997
 30
0.0
 11
18.36249427619714
 21
-2.401500000000001
 31
0.0
  0
SOLID
  5
799
330
539
100
AcDbEntity
  8
2
 62
     0
370
    18
100
AcDbTrace
 10
17.94582760953047
 20
4.901499999999998
 30
0.0
 11
18.77916094286381
 21
4.901499999999997
 31
0.0
 12
18.36249427619714
 22
2.401499999999997
 32
0.0
 13
18.36249427619714
 23
2.401499999999997
 33
0.0
  0
SOLID
  5
79A
330
539
100
AcDbEntity
  8
2
 62
     0
370
    18
100
AcDbTrace
 10
17.94582760953047
 20
-4.9015
 30
0.0
 11
18.77916094286381
 21
-4.901500000000001
 31
0.0
 12
18.36249427619714
 22
-2.401500000000001
 32
0.0
 13
18.36249427619714
 23
-2.401500000000001
 33
0.0
  0
MTEXT
  5
79B
330
539
100
AcDbEntity
  8
2
 62
     0
370
    18
100
AcDbMText
 10
16.27916094286381
 20
-15.5265
 30
0.0
 40
2.5
 41
0.0
 71
     5
 72
     1
  1
%%c 4,803
 11
0.0000000000000001
 21
1.0
 31
0.0
 73
     1
 44
1.0
  0
POINT
  5
79C
330
539
100
AcDbEntity
  8
Defpoints
 62
     0
370
    18
100
AcDbPoint
 10
10.09
 20
2.401499999999999
 30
0.0
  0
POINT
  5
79D
330
539
100
AcDbEntity
  8
Defpoints
 62
     0
370
    18
100
AcDbPoint
 10
10.09
 20
-2.401499999999999
 30
0.0
  0
POINT
  5
79E
330
539
100
AcDbEntity
  8
Defpoints
 62
     0
370
    18
100
AcDbPoint
 10
18.36249427619714
 20
-2.401500000000001
 30
0.0
  0
ENDBLK
  5
544
330
539
100
AcDbEntity
  8
0
370
    18
100
AcDbBlockEnd
  0
ENDSEC
  0
SECTION
  2
ENTITIES
  0
POINT
  5
6E
330
1F
100
AcDbEntity
  8
80
370
    18
100
AcDbPoint
 10
0.0
 20
0.0
 30
0.0
 50
360.0
  0
POINT
  5
70
330
1F
100
AcDbEntity
  8
SK2
 60
     1
370
    18
100
AcDbPoint
 10
-36.0
 20
-3.0
 30
0.0
 50
360.0
  0
POINT
  5
72
330
1F
100
AcDbEntity
  8
SK2
 60
     1
370
    18
100
AcDbPoint
 10
-36.0
 20
3.0
 30
0.0
 50
360.0
  0
POINT
  5
73
330
1F
100
AcDbEntity
  8
2
 60
     1
370
    18
100
AcDbPoint
 10
25.5709
 20
-1.5
 30
0.0
 50
360.0
  0
POINT
  5
75
330
1F
100
AcDbEntity
  8
2
 60
     1
370
    18
100
AcDbPoint
 10
25.5709
 20
1.5
 30
0.0
 50
360.0
  0
LINE
  5
76
330
1F
100
AcDbEntity
  8
81
370
    18
100
AcDbLine
 10
11.34999999999999
 20
0.0
 30
0.0
 11
16.34999999999999
 21
0.0
 31
0.0
  0
LINE
  5
85
330
1F
100
AcDbEntity
  8
SK4
 48
0.05
370
    18
100
AcDbLine
 10
24.29399178004671
 20
0.0
 30
0.0
 11
-35.05933441770626
 21
0.0
 31
0.0
  0
LINE
  5
87
330
1F
100
AcDbEntity
  8
4
 48
0.05
370
    18
100
AcDbLine
 10
11.34999999999999
 20
0.0
 30
0.0
 11
0.0
 21
0.0
 31
0.0
  0
LINE
  5
89
330
1F
100
AcDbEntity
  8
80
370
    18
100
AcDbLine
 10
0.0
 20
0.0
 30
0.0
 11
-5.259144607358891
 21
0.0
 31
0.0
  0
MTEXT
  5
CD
330
1F
100
AcDbEntity
  8
SK6
370
    13
100
AcDbMText
 10
-5.758584044607506
 20
20.89802994486347
 30
0.0
 40
3.5
 41
0.0
 71
     8
 72
     5
  1
\W0.7645;452.C1-0480-100T-C CD10
  7
iso_b_vert
 73
     1
 44
1.084337
  0
LINE
  5
1FF
330
1F
100
AcDbEntity
  8
SK1
  6
Continuous
370
    15
100
AcDbLine
 10
0.0
 20
3.0
 30
0.0
 11
0.0
 21
5.0
 31
0.0
  0
DIMENSION
  5
47F
330
1F
100
AcDbEntity
  8
SK2
370
    18
100
AcDbDimension
  2
*D12
 10
-17.35599999999999
 20
10.16502765031932
 30
0.0
 11
-35.76178907215194
 21
10.16502765031932
 31
0.0
 70
   160
 71
     5
 42
7.874000000000012
  3
ISO-25
100
AcDbAlignedDimension
 13
-25.23000000000001
 23
2.1166666667
 33
0.0
 14
-17.35599999999999
 24
2.159
 34
0.0
100
AcDbRotatedDimension
  0
DIMENSION
  5
4B4
330
1F
100
AcDbEntity
  8
SK2
370
    18
100
AcDbDimension
  2
*D13
 10
11.34999999999999
 20
10.45741852636316
 30
0.0
 11
20.93333333333332
 21
10.45741852636316
 31
0.0
 70
   160
 71
     5
 42
5.077291523637798
  3
ISO-25
100
AcDbAlignedDimension
 13
6.272708476362192
 23
2.860514361114505
 33
0.0
 14
11.34999999999999
 24
1.7040592411
 34
0.0
100
AcDbRotatedDimension
  0
DIMENSION
  5
538
330
1F
100
AcDbEntity
  8
2
370
    18
100
AcDbDimension
  2
*D15
 10
18.36249427619714
 20
-2.401500000000001
 30
0.0
 11
16.27916094286381
 21
-15.5265
 31
0.0
 70
    32
  1
%%c <>
 71
     5
 42
4.802999999999999
  3
ISO-25
100
AcDbAlignedDimension
 13
10.09
 23
2.401499999999999
 33
0.0
 14
10.09
 24
-2.401499999999999
 34
0.0
 50
90.0
100
AcDbRotatedDimension
1001
ACAD
1000
DSTYLE
1002
{
1070
   271
1070
     3
1002
}
  0
ARC
  5
66E
330
1F
100
AcDbEntity
  8
1
  6
Continuous
370
    15
100
AcDbCircle
 10
7.07754414979999
 20
3.301499999999999
 30
0.0
 40
0.8999999999999991
100
AcDbArc
 50
220.0
 51
270.0
  0
LINE
  5
66F
330
1F
100
AcDbEntity
  8
1
  6
Continuous
370
    15
100
AcDbLine
 10
6.388104150999992
 20
2.7229911513
 30
0.0
 11
4.477466865799995
 21
5.0
 31
0.0
  0
LINE
  5
670
330
1F
100
AcDbEntity
  8
1
  6
Continuous
370
    15
100
AcDbLine
 10
11.34999999999999
 20
1.7040592411
 30
0.0
 11
11.34999999999999
 21
-1.7040592411
 31
0.0
  0
LINE
  5
671
330
1F
100
AcDbEntity
  8
1
  6
Continuous
370
    15
100
AcDbLine
 10
10.09
 20
2.401499999999999
 30
0.0
 11
10.09
 21
-2.401499999999999
 31
0.0
  0
LINE
  5
672
330
1F
100
AcDbEntity
  8
1
  6
Continuous
370
    15
100
AcDbLine
 10
10.72
 20
2.232692008799999
 30
0.0
 11
10.72
 21
-2.232692008799999
 31
0.0
  0
LINE
  5
673
330
1F
100
AcDbEntity
  8
SK1
  6
Continuous
370
    15
100
AcDbLine
 10
-25.23000000000001
 20
-2.1166666667
 30
0.0
 11
-25.23000000000001
 21
2.1166666667
 31
0.0
  0
LINE
  5
674
330
1F
100
AcDbEntity
  8
SK1
  6
Continuous
370
    15
100
AcDbLine
 10
-17.35599999999999
 20
2.159
 30
0.0
 11
-17.35599999999999
 21
-2.159
 31
0.0
  0
LINE
  5
675
330
1F
100
AcDbEntity
  8
1
  6
Continuous
370
    15
100
AcDbLine
 10
5.0
 20
0.0
 30
0.0
 11
5.0
 21
-2.401499999999999
 31
0.0
  0
LINE
  5
676
330
1F
100
AcDbEntity
  8
1
  6
Continuous
370
    15
100
AcDbLine
 10
5.0
 20
0.0
 30
0.0
 11
3.0
 21
0.0
 31
0.0
  0
LINE
  5
677
330
1F
100
AcDbEntity
  8
SK1
  6
Continuous
370
    15
100
AcDbLine
 10
-15.7157478852
 20
5.0
 30
0.0
 11
-15.7157478852
 21
-5.0
 31
0.0
  0
LINE
  5
678
330
1F
100
AcDbEntity
  8
0
  6
Continuous
 62
     7
370
    15
100
AcDbLine
 10
0.0
 20
3.0
 30
0.0
 11
0.0
 21
5.0
 31
0.0
  0
LINE
  5
679
330
1F
100
AcDbEntity
  8
SK1
  6
Continuous
370
    15
100
AcDbLine
 10
-18.626
 20
-2.159
 30
0.0
 11
-17.35599999999999
 21
-2.159
 31
0.0
  0
LINE
  5
67A
330
1F
100
AcDbEntity
  8
SK1
  6
Continuous
370
    15
100
AcDbLine
 10
-17.35599999999999
 20
2.159
 30
0.0
 11
-18.626
 21
2.159
 31
0.0
  0
LINE
  5
67B
330
1F
100
AcDbEntity
  8
1
  6
Continuous
370
    15
100
AcDbLine
 10
11.34999999999999
 20
1.7040592411
 30
0.0
 11
10.72
 21
2.232692008799999
 31
0.0
  0
LINE
  5
67C
330
1F
100
AcDbEntity
  8
1
  6
Continuous
370
    15
100
AcDbLine
 10
10.72
 20
-2.232692008799999
 30
0.0
 11
11.34999999999999
 21
-1.7040592411
 31
0.0
  0
LINE
  5
67D
330
1F
100
AcDbEntity
  8
1
  6
Continuous
370
    15
100
AcDbLine
 10
5.0
 20
-2.401499999999999
 30
0.0
 11
10.09
 21
-2.401499999999999
 31
0.0
  0
LINE
  5
67E
330
1F
100
AcDbEntity
  8
1
  6
Continuous
370
    15
100
AcDbLine
 10
10.09
 20
2.401499999999999
 30
0.0
 11
7.07754414979999
 21
2.401499999999999
 31
0.0
  0
LINE
  5
67F
330
1F
100
AcDbEntity
  8
1
  6
Continuous
370
    15
100
AcDbLine
 10
10.72
 20
2.232692008799999
 30
0.0
 11
10.09
 21
2.401499999999999
 31
0.0
  0
LINE
  5
680
330
1F
100
AcDbEntity
  8
1
  6
Continuous
370
    15
100
AcDbLine
 10
10.09
 20
-2.401499999999999
 30
0.0
 11
10.72
 21
-2.232692008799999
 31
0.0
  0
LINE
  5
681
330
1F
100
AcDbEntity
  8
SK1
  6
Continuous
370
    15
100
AcDbLine
 10
-25.23000000000001
 20
-2.1166666667
 30
0.0
 11
-24.97107435210001
 21
-2.375592314599999
 31
0.0
  0
LINE
  5
682
330
1F
100
AcDbEntity
  8
SK1
  6
Continuous
370
    15
100
AcDbLine
 10
-24.73128871910001
 20
2.615377947599998
 30
0.0
 11
-25.23000000000001
 21
2.1166666667
 31
0.0
  0
LINE
  5
683
330
1F
100
AcDbEntity
  8
SK1
  6
Continuous
370
    15
100
AcDbLine
 10
-24.96066889540001
 20
-2.371629530999999
 30
0.0
 11
-24.76615623590001
 21
-2.153094197599998
 31
0.0
  0
LINE
  5
684
330
1F
100
AcDbEntity
  8
SK1
  6
Continuous
370
    15
100
AcDbLine
 10
-17.35599999999999
 20
-2.159
 30
0.0
 11
-15.7157478852
 21
-5.0
 31
0.0
  0
LINE
  5
685
330
1F
100
AcDbEntity
  8
SK1
  6
Continuous
370
    15
100
AcDbLine
 10
-15.7157478852
 20
5.0
 30
0.0
 11
-17.35599999999999
 21
2.159
 31
0.0
  0
LINE
  5
686
330
1F
100
AcDbEntity
  8
1
  6
Continuous
370
    15
100
AcDbLine
 10
2.819599608399997
 20
-5.0
 30
0.0
 11
5.0
 21
-2.401499999999999
 31
0.0
  0
LINE
  5
687
330
1F
100
AcDbEntity
  8
SK1
  6
Continuous
370
    15
100
AcDbLine
 10
-15.7157478852
 20
-5.0
 30
0.0
 11
0.0
 21
-5.0
 31
0.0
  0
LINE
  5
688
330
1F
100
AcDbEntity
  8
SK1
  6
Continuous
370
    15
100
AcDbLine
 10
0.0
 20
5.0
 30
0.0
 11
-15.7157478852
 21
5.0
 31
0.0
  0
SPLINE
  5
689
330
1F
100
AcDbEntity
  8
1
  6
Continuous
370
    15
100
AcDbSpline
210
0.0
220
0.0
230
1.0
 70
     8
 71
     3
 72
    24
 73
    20
 74
     0
 42
0.0000000001
 43
0.0000000001
 40
0.0
 40
0.0
 40
0.0
 40
0.0
 40
0.1249999999999997
 40
0.1249999999999997
 40
0.2499999999999993
 40
0.2499999999999993
 40
0.3124999999999989
 40
0.3124999999999989
 40
0.3749999999999984
 40
0.3749999999999984
 40
0.4999999999999988
 40
0.4999999999999988
 40
0.6249999999999992
 40
0.6249999999999992
 40
0.7499999999999995
 40
0.7499999999999995
 40
0.8749999999999998
 40
0.8749999999999998
 40
1.0
 40
1.0
 40
1.0
 40
1.0
 10
7.939693478919195
 20
2.401499999999999
 30
0.0
 10
7.939693478919195
 20
2.401499999999999
 30
0.0
 10
7.933728281804846
 20
2.369574339187255
 30
0.0
 10
7.903773830295136
 20
2.24349772785149
 30
0.0
 10
7.879769288005347
 20
2.149948378071801
 30
0.0
 10
7.819173193041322
 20
1.97229516121721
 30
0.0
 10
7.79441188156403
 20
1.905877607526579
 30
0.0
 10
7.735073573503483
 20
1.765004404436683
 30
0.0
 10
7.700516812102762
 20
1.690456087201311
 30
0.0
 10
7.578808394410371
 20
1.457102559173201
 30
0.0
 10
7.471692870792877
 20
1.287053907675962
 30
0.0
 10
7.211047196916723
 20
0.9616869092940474
 30
0.0
 10
7.054504919623923
 20
0.8026248851929516
 30
0.0
 10
6.708080794537379
 20
0.5237310607963659
 30
0.0
 10
6.514676834374697
 20
0.4006591205549467
 30
0.0
 10
6.109213733319079
 20
0.2034907806406432
 30
0.0
 10
5.892989752191667
 20
0.1270709761376771
 30
0.0
 10
5.452168465392048
 20
0.0256604846495989
 30
0.0
 10
5.228002843778938
 20
0.0000000000000018
 30
0.0
 10
5.0
 20
0.0000000000000018
 30
0.0
  0
SPLINE
  5
68A
330
1F
100
AcDbEntity
  8
SK1
  6
Continuous
370
    15
100
AcDbSpline
210
0.0
220
0.0
230
1.0
 70
    24
 71
     3
 72
    17
 73
    13
 74
     0
 42
0.0000000001
 43
0.0000000001
 40
0.0
 40
0.0
 40
0.0
 40
0.0
 40
0.10464001078729
 40
0.2092447106641755
 40
0.3133100596123415
 40
0.4173751146337115
 40
0.5184604337888621
 40
0.6195284691348363
 40
0.7200865588813504
 40
0.8206441078586568
 40
0.9167059408203462
 40
1.0
 40
1.0
 40
1.0
 40
1.0
 10
-18.626
 20
0.5104211083144749
 30
0.0
 10
-18.626
 20
0.361152160448845
 30
0.0
 10
-18.626
 20
0.0626646357219904
 30
0.0
 10
-18.626
 20
-0.3844533916190453
 30
0.0
 10
-18.626
 20
-0.8135392536573844
 30
0.0
 10
-18.626
 20
-1.209849226120024
 30
0.0
 10
-18.626
 20
-1.561924736458523
 30
0.0
 10
-18.626
 20
-1.862400583532558
 30
0.0
 10
-18.626
 20
-2.102532267656044
 30
0.0
 10
-18.626
 20
-2.271912096219404
 30
0.0
 10
-18.626
 20
-2.370994156428995
 30
0.0
 10
-18.626
 20
-2.380396093342739
 30
0.0
 10
-18.626
 20
-2.384762414852153
 30
0.0
  0
SPLINE
  5
68B
330
1F
100
AcDbEntity
  8
SK1
  6
Continuous
370
    15
100
AcDbSpline
210
0.0
220
0.0
230
1.0
 70
     8
 71
     3
 72
    26
 73
    22
 74
     0
 42
0.0000000001
 43
0.0000000001
 40
0.0
 40
0.0
 40
0.0
 40
0.0
 40
0.0470244130668007
 40
0.0973223843166833
 40
0.1490373661666999
 40
0.2000327978660329
 40
0.2525056970285048
 40
0.3036285889953258
 40
0.3561666772178098
 40
0.4084333445390075
 40
0.4622157488157349
 40
0.5144801740945013
 40
0.5682056516391084
 40
0.621423252904491
 40
0.6761648074533168
 40
0.7297027346436967
 40
0.7847749367273305
 40
0.8388061988444317
 40
0.8943579709985758
 40
0.9491671905612207
 40
1.0
 40
1.0
 40
1.0
 40
1.0
 10
-24.96982357535026
 20
-2.374341537800674
 30
0.0
 10
-24.96601697456279
 20
-2.373653568905115
 30
0.0
 10
-24.95813878022462
 20
-2.372229738837174
 30
0.0
 10
-24.94542799227306
 20
-2.288227196042733
 30
0.0
 10
-24.9323744927301
 20
-2.143706129470698
 30
0.0
 10
-24.91931981946935
 20
-1.93440899623074
 30
0.0
 10
-24.90725234734188
 20
-1.670461314523274
 30
0.0
 10
-24.89465918662164
 20
-1.35626922526047
 30
0.0
 10
-24.88165628236796
 20
-1.003571454348649
 30
0.0
 10
-24.86848212767136
 20
-0.6147966637608695
 30
0.0
 10
-24.8556650216655
 20
-0.2070901482015151
 30
0.0
 10
-24.84361274181155
 20
0.2121093340409637
 30
0.0
 10
-24.83084245222892
 20
0.6261557483729332
 30
0.0
 10
-24.81768231915232
 20
1.031228733244132
 30
0.0
 10
-24.80462201170158
 20
1.409190549456928
 30
0.0
 10
-24.79199204240001
 20
1.753434523284372
 30
0.0
 10
-24.77991568594231
 20
2.048741056216325
 30
0.0
 10
-24.76687624861211
 20
2.292789530261325
 30
0.0
 10
-24.75382039984266
 20
2.472343664780713
 30
0.0
 10
-24.74114908367103
 20
2.588324199950148
 30
0.0
 10
-24.73337083284127
 20
2.605468050041104
 30
0.0
 10
-24.72962809573245
 20
2.613717324245303
 30
0.0
  0
SPLINE
  5
68C
330
1F
100
AcDbEntity
  8
SK1
  6
Continuous
370
    15
100
AcDbSpline
210
0.0
220
0.0
230
1.0
 70
    24
 71
     3
 72
    15
 73
    11
 74
     0
 42
0.0000000001
 43
0.0000000001
 40
0.0
 40
0.0
 40
0.0
 40
0.0
 40
0.1000164598684852
 40
0.2226864580489107
 40
0.3453565496261407
 40
0.4705548472779837
 40
0.5957833544396048
 40
0.7222999178382923
 40
0.8488162817048731
 40
1.0
 40
1.0
 40
1.0
 40
1.0
 10
-18.626
 20
2.445718204840527
 30
0.0
 10
-18.626
 20
2.442994299312149
 30
0.0
 10
-18.626
 20
2.436929528823659
 30
0.0
 10
-18.626
 20
2.346981058433287
 30
0.0
 10
-18.626
 20
2.19286328441021
 30
0.0
 10
-18.626
 20
1.971446897497757
 30
0.0
 10
-18.626
 20
1.692388013414273
 30
0.0
 10
-18.626
 20
1.362772995845682
 30
0.0
 10
-18.626
 20
0.9706693405607298
 30
0.0
 10
-18.626
 20
0.6726609481396864
 30
0.0
 10
-18.626
 20
0.5104211083144623
 30
0.0
  0
SPLINE
  5
68D
330
1F
100
AcDbEntity
  8
SK1
  6
Continuous
370
    15
100
AcDbSpline
210
0.0
220
0.0
230
1.0
 70
     8
 71
     3
 72
    23
 73
    19
 74
     0
 42
0.0000000001
 43
0.0000000001
 40
0.0
 40
0.0
 40
0.0
 40
0.0
 40
0.0403268620608052
 40
0.106535035888344
 40
0.1727432097158828
 40
0.2376677971079384
 40
0.3025923844999892
 40
0.3688005583275276
 40
0.435008732155066
 40
0.4999333195471229
 40
0.5648579069391753
 40
0.6310660807667148
 40
0.6972742545942542
 40
0.7621988419863098
 40
0.8271234293783605
 40
0.8933316032058989
 40
0.9595397770334372
 40
1.0
 40
1.0
 40
1.0
 40
1.0
 10
-19.32314683991917
 20
-2.143586363372866
 30
0.0
 10
-19.31749380778134
 20
-2.137901674865549
 30
0.0
 10
-19.30255969312661
 20
-2.122883930781516
 30
0.0
 10
-19.27685587194175
 20
-2.005559547735291
 30
0.0
 10
-19.24760598836209
 20
-1.806529747245074
 30
0.0
 10
-19.22017723980069
 20
-1.536140911626501
 30
0.0
 10
-19.19275653366035
 20
-1.208392315688791
 30
0.0
 10
-19.16348204477036
 20
-0.831632057019086
 30
0.0
 10
-19.13420814059791
 20
-0.4225707384431506
 30
0.0
 10
-19.10678571423921
 20
0.0000000029056118
 30
0.0
 10
-19.07936328816149
 20
0.4225707267057645
 30
0.0
 10
-19.0500893831294
 20
0.8316320989706358
 30
0.0
 10
-19.02081489738393
 20
1.208392161246527
 30
0.0
 10
-18.99339417974452
 20
1.536141475370315
 30
0.0
 10
-18.96596547419845
 20
1.806527624421173
 30
0.0
 10
-18.93671542697976
 20
2.005567645159874
 30
0.0
 10
-18.91099229568343
 20
2.122949271541146
 30
0.0
 10
-18.89603971132342
 20
2.137971770505719
 30
0.0
 10
-18.89036806990651
 20
2.143669931122071
 30
0.0
  0
SPLINE
  5
68E
330
1F
100
AcDbEntity
  8
SK1
  6
Continuous
370
    15
100
AcDbSpline
210
0.0
220
0.0
230
1.0
 70
     8
 71
     3
 72
    23
 73
    19
 74
     0
 42
0.0000000001
 43
0.0000000001
 40
0.0
 40
0.0
 40
0.0
 40
0.0
 40
0.0405700868691537
 40
0.1066496590782919
 40
0.17272923128743
 40
0.2375277102773062
 40
0.3023261892671787
 40
0.3684057614763178
 40
0.4344853336854574
 40
0.4992838126753349
 40
0.5640822916652089
 40
0.630161863874347
 40
0.6962414360834851
 40
0.7610399150733614
 40
0.8258383940632334
 40
0.8919179662723724
 40
0.957997538481511
 40
1.0
 40
1.0
 40
1.0
 40
1.0
 10
-20.23042623824107
 20
-2.143788251062511
 30
0.0
 10
-20.22472824931822
 20
-2.138071051016923
 30
0.0
 10
-20.20974951441894
 20
-2.123041814384753
 30
0.0
 10
-20.18399904169644
 20
-2.005579072236554
 30
0.0
 10
-20.1547487635514
 20
-1.806524628749194
 30
0.0
 10
-20.1273201187042
 20
-1.536142270710811
 30
0.0
 10
-20.09989938485373
 20
-1.208391944108072
 30
0.0
 10
-20.07062490348331
 20
-0.8316321550807257
 30
0.0
 10
-20.04135099747076
 20
-0.4225707215795104
 30
0.0
 10
-20.01392857093774
 20
0.0000000306569019
 30
0.0
 10
-19.98650614736924
 20
0.4225705977397638
 30
0.0
 10
-19.95723223228685
 20
0.8316325977072587
 30
0.0
 10
-19.92795778409385
 20
1.208390314604248
 30
0.0
 10
-19.900536928918
 20
1.536148218711668
 30
0.0
 10
-19.87310873792094
 20
1.806502231060647
 30
0.0
 10
-19.84385673323792
 20
2.005664507299719
 30
0.0
 10
-19.81789840609379
 20
2.12374632203367
 30
0.0
 10
-19.80272090567328
 20
2.13882697438821
 30
0.0
 10
-19.796822678601
 20
2.144687564704188
 30
0.0
  0
SPLINE
  5
68F
330
1F
100
AcDbEntity
  8
SK1
  6
Continuous
370
    15
100
AcDbSpline
210
0.0
220
0.0
230
1.0
 70
     8
 71
     3
 72
    23
 73
    19
 74
     0
 42
0.0000000001
 43
0.0000000001
 40
0.0
 40
0.0
 40
0.0
 40
0.0
 40
0.0406032248944538
 40
0.1068980518073109
 40
0.1731928787201681
 40
0.2382024392429591
 40
0.3032119997657496
 40
0.3695068266786063
 40
0.435801653591463
 40
0.5008112141142556
 40
0.5658207746370476
 40
0.6321156015499057
 40
0.6984104284627631
 40
0.7634199889855542
 40
0.8284295495083451
 40
0.8947243764212021
 40
0.9610192033340595
 40
1.0
 40
1.0
 40
1.0
 40
1.0
 10
-21.13752718554751
 20
-2.143726283822231
 30
0.0
 10
-21.13184299541895
 20
-2.138019050096056
 30
0.0
 10
-21.11687795625214
 20
-2.122993342947846
 30
0.0
 10
-21.09114180310572
 20
-2.005573093095621
 30
0.0
 10
-21.06189164579031
 20
-1.806526196150278
 30
0.0
 10
-21.03446296918788
 20
-1.536141854804878
 30
0.0
 10
-21.00704224380054
 20
-1.208392056775972
 30
0.0
 10
-20.97776776021402
 20
-0.8316321293401305
 30
0.0
 10
-20.94849385444224
 20
-0.4225707108759142
 30
0.0
 10
-20.92107142914436
 20
-0.0000000357821177
 30
0.0
 10
-20.89364900038633
 20
0.4225708554192568
 30
0.0
 10
-20.86437510520068
 20
0.8316316127151599
 30
0.0
 10
-20.83510058289014
 20
1.208393958700813
 30
0.0
 10
-20.8076799991114
 20
1.536134912415255
 30
0.0
 10
-20.780250792784
 20
1.806552338291935
 30
0.0
 10
-20.75100265064978
 20
2.005473374969893
 30
0.0
 10
-20.72550107313845
 20
2.122200518853899
 30
0.0
 10
-20.71076043400445
 20
2.137168648009018
 30
0.0
 10
-20.70530236273139
 20
2.142710952858236
 30
0.0
  0
SPLINE
  5
690
330
1F
100
AcDbEntity
  8
SK1
  6
Continuous
370
    15
100
AcDbSpline
210
0.0
220
0.0
230
1.0
 70
     8
 71
     3
 72
    23
 73
    19
 74
     0
 42
0.0000000001
 43
0.0000000001
 40
0.0
 40
0.0
 40
0.0
 40
0.0
 40
0.0425914695890113
 40
0.1086443439554479
 40
0.1746972183218845
 40
0.23946951706359
 40
0.3042418158052949
 40
0.3702946901717319
 40
0.4363475645381688
 40
0.5011198632798744
 40
0.5658921620215791
 40
0.6319450363880163
 40
0.6979979107544534
 40
0.7627702094961589
 40
0.8275425082378628
 40
0.8935953826042993
 40
0.9596482569707356
 40
1.0
 40
1.0
 40
1.0
 40
1.0
 10
-22.04557759767713
 20
-2.145068180682804
 30
0.0
 10
-22.03959463495295
 20
-2.139147591728013
 30
0.0
 10
-22.02433300941264
 20
-2.124045072161768
 30
0.0
 10
-21.99828669102756
 20
-2.005699927539788
 30
0.0
 10
-21.96903397054503
 20
-1.806492945287979
 30
0.0
 10
-21.94160596770736
 20
-1.53615068463102
 30
0.0
 10
-21.91418506223488
 20
-1.208389639194932
 30
0.0
 10
-21.88491062778435
 20
-0.8316327805988299
 30
0.0
 10
-21.85563670898804
 20
-0.4225705486741777
 30
0.0
 10
-21.82821428647905
 20
-0.0000000477633453
 30
0.0
 10
-21.80079185935131
 20
0.4225707416162213
 30
0.0
 10
-21.77151795468578
 20
0.8316320909878871
 30
0.0
 10
-21.74224346854493
 20
1.208392177957617
 30
0.0
 10
-21.71482275209708
 20
1.536141417661393
 30
0.0
 10
-21.68739404216208
 20
1.806527840827671
 30
0.0
 10
-21.65814401162118
 20
2.005566819936733
 30
0.0
 10
-21.63242285064876
 20
2.122942603742573
 30
0.0
 10
-21.61747215083607
 20
2.137964617397841
 30
0.0
 10
-21.61180240819037
 20
2.143661404338442
 30
0.0
  0
SPLINE
  5
691
330
1F
100
AcDbEntity
  8
SK1
  6
Continuous
370
    15
100
AcDbSpline
210
0.0
220
0.0
230
1.0
 70
     8
 71
     3
 72
    23
 73
    19
 74
     0
 42
0.0000000001
 43
0.0000000001
 40
0.0
 40
0.0
 40
0.0
 40
0.0
 40
0.040907143180054
 40
0.1070749047486125
 40
0.1732426663171712
 40
0.2381276249279409
 40
0.3030125835387102
 40
0.3691803451072691
 40
0.435348106675828
 40
0.500233065286598
 40
0.5651180238973657
 40
0.6312857854659243
 40
0.6974535470344833
 40
0.7623385056452548
 40
0.8272234642560235
 40
0.8933912258245817
 40
0.9595589873931404
 40
1.0
 40
1.0
 40
1.0
 40
1.0
 10
-22.95197478173017
 20
-2.143965639908073
 30
0.0
 10
-22.9462372930548
 20
-2.138219972068419
 30
0.0
 10
-22.93121935228324
 20
-2.123180622242886
 30
0.0
 10
-22.90542788611024
 20
-2.005596121817946
 30
0.0
 10
-22.87617726341345
 20
-1.806520158987065
 30
0.0
 10
-22.84874870914038
 20
-1.536143457851252
 30
0.0
 10
-22.82132795106678
 20
-1.208391618367878
 30
0.0
 10
-22.79205347635997
 20
-0.8316322455235507
 30
0.0
 10
-22.76277956837857
 20
-0.4225706890551999
 30
0.0
 10
-22.73535714301885
 20
-0.0000000100989226
 30
0.0
 10
-22.70793471668256
 20
0.4225707298502545
 30
0.0
 10
-22.67866081168891
 20
0.8316320997144337
 30
0.0
 10
-22.64938632605287
 20
1.208392155155715
 30
0.0
 10
-22.62196560794604
 20
1.53614149847296
 30
0.0
 10
-22.59453690416658
 20
1.806527537187934
 30
0.0
 10
-22.56528685022241
 20
2.005567977973775
 30
0.0
 10
-22.539562924103
 20
2.122951961358181
 30
0.0
 10
-22.52460957952378
 20
2.137974656102706
 30
0.0
 10
-22.51893717215094
 20
2.143673370793419
 30
0.0
  0
SPLINE
  5
692
330
1F
100
AcDbEntity
  8
SK1
  6
Continuous
370
    15
100
AcDbSpline
210
0.0
220
0.0
230
1.0
 70
     8
 71
     3
 72
    23
 73
    19
 74
     0
 42
0.0000000001
 43
0.0000000001
 40
0.0
 40
0.0
 40
0.0
 40
0.0
 40
0.040172387813071
 40
0.1062857913101742
 40
0.1723991948072773
 40
0.2372308491935586
 40
0.302062503579839
 40
0.3681759070769423
 40
0.4342893105740456
 40
0.4991209649603272
 40
0.5639526193466075
 40
0.6300660228437105
 40
0.696179426340814
 40
0.7610110807270956
 40
0.8258427351133747
 40
0.8919561386104778
 40
0.9580695421075807
 40
1.0
 40
1.0
 40
1.0
 40
1.0
 10
-23.85882006374898
 20
-2.143525649901333
 30
0.0
 10
-23.85318055179405
 20
-2.137850762066629
 30
0.0
 10
-23.83825985568006
 20
-2.12283647048619
 30
0.0
 10
-23.81257006324052
 20
-2.005553650915067
 30
0.0
 10
-23.78332029882903
 20
-1.806531293197916
 30
0.0
 10
-23.75589151893923
 20
-1.5361405009318
 30
0.0
 10
-23.72847082118494
 20
-1.208392428753914
 30
0.0
 10
-23.69919632995914
 20
-0.8316320241980124
 30
0.0
 10
-23.66992242658352
 20
-0.4225707553895859
 30
0.0
 10
-23.64249999939469
 20
0.0000000378056084
 30
0.0
 10
-23.61507757586169
 20
0.4225706026723463
 30
0.0
 10
-23.5858036613013
 20
0.8316325700381357
 30
0.0
 10
-23.55652921098935
 20
1.208390419275302
 30
0.0
 10
-23.5291083636185
 20
1.536147835913399
 30
0.0
 10
-23.50168014340961
 20
1.806503672718854
 30
0.0
 10
-23.47242824985848
 20
2.005659008098199
 30
0.0
 10
-23.44648348703232
 20
2.123700294733138
 30
0.0
 10
-23.43131895591236
 20
2.138777581429466
 30
0.0
 10
-23.42543379292942
 20
2.14462888595359
 30
0.0
  0
SPLINE
  5
693
330
1F
100
AcDbEntity
  8
SK1
  6
Continuous
370
    15
100
AcDbSpline
210
0.0
220
0.0
230
1.0
 70
     8
 71
     3
 72
    23
 73
    19
 74
     0
 42
0.0000000001
 43
0.0000000001
 40
0.0
 40
0.0
 40
0.0
 40
0.0
 40
0.0403583480200578
 40
0.1066895527979779
 40
0.173020757575898
 40
0.2380659907013743
 40
0.3031112238268501
 40
0.3694424286047704
 40
0.4357736333826909
 40
0.5008188665081672
 40
0.5658640996336432
 40
0.6321953044115634
 40
0.6985265091894836
 40
0.7635717423149597
 40
0.8286169754404351
 40
0.8949481802183548
 40
0.9612793849962752
 40
1.0
 40
1.0
 40
1.0
 40
1.0
 10
-24.76598560218695
 20
-2.14355918611582
 30
0.0
 10
-24.76033862208608
 20
-2.137878883347533
 30
0.0
 10
-24.745410513995
 20
-2.122862684919278
 30
0.0
 10
-24.71971297255905
 20
-2.005556909601668
 30
0.0
 10
-24.69046314229198
 20
-1.806530438805271
 30
0.0
 10
-24.66303437972046
 20
-1.536140728170034
 30
0.0
 10
-24.63561367731035
 20
-1.208392365208434
 30
0.0
 10
-24.60633918745738
 20
-0.8316320463943434
 30
0.0
 10
-24.57706528333603
 20
-0.4225707310103762
 30
0.0
 10
-24.54964285772414
 20
-0.0000000363044519
 30
0.0
 10
-24.52222042860159
 20
0.4225708776637678
 30
0.0
 10
-24.49294653522091
 20
0.8316315222277417
 30
0.0
 10
-24.46367200607862
 20
1.208394294897414
 30
0.0
 10
-24.43625144734431
 20
1.536133684436022
 30
0.0
 10
-24.40882214731495
 20
1.80655696256761
 30
0.0
 10
-24.3795743616465
 20
2.005455735799523
 30
0.0
 10
-24.35411346247413
 20
2.122063270087148
 30
0.0
 10
-24.33941174569405
 20
2.137021461544293
 30
0.0
 10
-24.33399290081807
 20
2.142534839358861
 30
0.0
  0
SPLINE
  5
694
330
1F
100
AcDbEntity
  8
SK1
  6
Continuous
370
    15
100
AcDbSpline
210
0.0
220
0.0
230
1.0
 70
     8
 71
     3
 72
    18
 73
    14
 74
     0
 42
0.0000000001
 43
0.0000000001
 40
0.0
 40
0.0
 40
0.0
 40
0.0
 40
0.0525332695880856
 40
0.1456645306958519
 40
0.2393861726816946
 40
0.3325174337894609
 40
0.4239214726394492
 40
0.5153255114894291
 40
0.6084567725971946
 40
0.7021784145830365
 40
0.7953096756908021
 40
0.8867137145407932
 40
1.0
 40
1.0
 40
1.0
 40
1.0
 10
-18.87071682115373
 20
-2.65618168255047
 30
0.0
 10
-18.8665634326442
 20
-2.6519525946669
 30
0.0
 10
-18.85504689478576
 20
-2.640226157179528
 30
0.0
 10
-18.83503499384817
 20
-2.548445358486433
 30
0.0
 10
-18.81156007610844
 20
-2.38852461830297
 30
0.0
 10
-18.78837016843519
 20
-2.167099731057004
 30
0.0
 10
-18.76660734029847
 20
-1.895468096512488
 30
0.0
 10
-18.74484332005197
 20
-1.57780771563952
 30
0.0
 10
-18.72165706417747
 20
-1.218725997261254
 30
0.0
 10
-18.69816864961532
 20
-0.8267818521392902
 30
0.0
 10
-18.67495702847971
 20
-0.4169295318414461
 30
0.0
 10
-18.65157452229544
 20
0.0336623500453897
 30
0.0
 10
-18.63511149607939
 20
0.3405651279524182
 30
0.0
 10
-18.626
 20
0.5104211083146364
 30
0.0
  0
SPLINE
  5
695
330
1F
100
AcDbEntity
  8
SK1
  6
Continuous
370
    15
100
AcDbSpline
210
0.0
220
0.0
230
1.0
 70
     8
 71
     3
 72
    27
 73
    23
 74
     0
 42
0.0000000001
 43
0.0000000001
 40
0.0
 40
0.0
 40
0.0
 40
0.0
 40
0.0313601137801025
 40
0.0835776683849851
 40
0.136126242299302
 40
0.1883437969041847
 40
0.2395929191965709
 40
0.2908420414889534
 40
0.3430595960938367
 40
0.3956081700081545
 40
0.4478257246130383
 40
0.499074846905426
 40
0.5503239691978099
 40
0.6025415238026925
 40
0.6550900977170093
 40
0.7073076523218921
 40
0.7585567746142783
 40
0.8098058969066606
 40
0.8620234515115436
 40
0.9145720254258607
 40
0.9667895800307439
 40
1.0
 40
1.0
 40
1.0
 40
1.0
 10
-19.77867125269091
 20
-2.657373609628757
 30
0.0
 10
-19.7742503568393
 20
-2.652948760571048
 30
0.0
 10
-19.76246825139029
 20
-2.641156119453991
 30
0.0
 10
-19.74217966159462
 20
-2.548566460085289
 30
0.0
 10
-19.71870245738341
 20
-2.388492237477226
 30
0.0
 10
-19.69551312265943
 20
-2.167108400259061
 30
0.0
 10
-19.67375027186864
 20
-1.895465082167638
 30
0.0
 10
-19.65198577959133
 20
-1.57781121773837
 30
0.0
 10
-19.62880147324517
 20
-1.218714797221477
 30
0.0
 10
-19.6053056844604
 20
-0.8268232262353496
 30
0.0
 10
-19.58212129022298
 20
-0.4167775962639162
 30
0.0
 10
-19.56035714281419
 20
0.00000000286974
 30
0.0
 10
-19.53859299566481
 20
0.4167775846765755
 30
0.0
 10
-19.51540860063277
 20
0.8268232677253617
 30
0.0
 10
-19.49191281478487
 20
1.218714642540821
 30
0.0
 10
-19.46872849761347
 20
1.577811786137938
 30
0.0
 10
-19.44696404495379
 20
1.895463004277081
 30
0.0
 10
-19.42520104595626
 20
2.167116221951728
 30
0.0
 10
-19.40201227577083
 20
2.388462350383119
 30
0.0
 10
-19.37853294798748
 20
2.548678418625001
 30
0.0
 10
-19.35797551529528
 20
2.6420636292924
 30
0.0
 10
-19.34593550262769
 20
2.653921364701409
 30
0.0
 10
-19.3412549061472
 20
2.658531100268481
 30
0.0
  0
SPLINE
  5
696
330
1F
100
AcDbEntity
  8
SK1
  6
Continuous
370
    15
100
AcDbSpline
210
0.0
220
0.0
230
1.0
 70
     8
 71
     3
 72
    27
 73
    23
 74
     0
 42
0.0000000001
 43
0.0000000001
 40
0.0
 40
0.0
 40
0.0
 40
0.0
 40
0.0318401379784035
 40
0.0842120560014614
 40
0.1369159718798177
 40
0.1892878899028757
 40
0.2406885127730904
 40
0.2920891356433047
 40
0.3444610536663622
 40
0.3971649695447181
 40
0.4495368875677757
 40
0.5009375104379921
 40
0.5523381333082075
 40
0.6047100513312662
 40
0.6574139672096228
 40
0.709785885232681
 40
0.7611865081028962
 40
0.8125871309731106
 40
0.8649590489961685
 40
0.9176629648745247
 40
0.9700348828975828
 40
1.0
 40
1.0
 40
1.0
 40
1.0
 10
-20.68597859966434
 20
-2.657615189309605
 30
0.0
 10
-20.68150349556992
 20
-2.653151340668113
 30
0.0
 10
-20.66966756329891
 20
-2.641345177264105
 30
0.0
 10
-20.64932287521571
 20
-2.548590271323003
 30
0.0
 10
-20.62584521936515
 20
-2.3884858811175
 30
0.0
 10
-20.60265600470674
 20
-2.1671100637711
 30
0.0
 10
-20.58089312239535
 20
-1.89546464023737
 30
0.0
 10
-20.55912863854435
 20
-1.577811338649288
 30
0.0
 10
-20.53594432989414
 20
-1.218714764231521
 30
0.0
 10
-20.51244854174055
 20
-0.8268232354063265
 30
0.0
 10
-20.48926414730985
 20
-0.4167775925242819
 30
0.0
 10
-20.46750000004512
 20
-0.0000000030129721
 30
0.0
 10
-20.44573585250804
 20
0.4167776046900499
 30
0.0
 10
-20.42255145891163
 20
0.8268231918453031
 30
0.0
 10
-20.39905566767457
 20
1.218714926633284
 30
0.0
 10
-20.37587137038996
 20
1.577810741877331
 30
0.0
 10
-20.35410684494376
 20
1.895466821848605
 30
0.0
 10
-20.33234411823706
 20
2.167101851648314
 30
0.0
 10
-20.30915431086038
 20
2.38851726006547
 30
0.0
 10
-20.28567888458291
 20
2.548472724224645
 30
0.0
 10
-20.26560570911394
 20
2.64043172766053
 30
0.0
 10
-20.25403034915109
 20
2.652172754707016
 30
0.0
 10
-20.24981770029555
 20
2.656445695186524
 30
0.0
  0
SPLINE
  5
697
330
1F
100
AcDbEntity
  8
SK1
  6
Continuous
370
    15
100
AcDbSpline
210
0.0
220
0.0
230
1.0
 70
     8
 71
     3
 72
    27
 73
    23
 74
     0
 42
0.0000000001
 43
0.0000000001
 40
0.0
 40
0.0
 40
0.0
 40
0.0
 40
0.0317837186568124
 40
0.0840685894507254
 40
0.1366849062871623
 40
0.1889697770810753
 40
0.240284967109301
 40
0.2916001571375261
 40
0.3438850279314394
 40
0.3965013447678765
 40
0.4487862155617897
 40
0.5001014055900157
 40
0.5514165956182403
 40
0.6037014664121539
 40
0.656317783248591
 40
0.7086026540425046
 40
0.75991784407073
 40
0.8112330340989544
 40
0.8635179048928669
 40
0.9161342217293039
 40
0.9684190925232167
 40
1.0
 40
1.0
 40
1.0
 40
1.0
 10
-21.59311996881122
 20
-2.657613003949002
 30
0.0
 10
-21.58864535507661
 20
-2.653149507110132
 30
0.0
 10
-21.57680990973219
 20
-2.641343466183542
 30
0.0
 10
-21.55646572914984
 20
-2.548590056994187
 30
0.0
 10
-21.53298807736458
 20
-2.388485938332378
 30
0.0
 10
-21.50979886162541
 20
-2.167110048796569
 30
0.0
 10
-21.48803597959782
 20
-1.895464644218903
 30
0.0
 10
-21.46627149567071
 20
-1.577811337547219
 30
0.0
 10
-21.44308718704222
 20
-1.218714764580917
 30
0.0
 10
-21.41959139887923
 20
-0.8268232351272635
 30
0.0
 10
-21.39640700446402
 20
-0.4167775932802488
 30
0.0
 10
-21.37464285714765
 20
-0.0000000003193721
 30
0.0
 10
-21.35287870980241
 20
0.416777594569874
 30
0.0
 10
-21.32969431547564
 20
0.8268232305097127
 30
0.0
 10
-21.30619852698579
 20
1.218714781795906
 30
0.0
 10
-21.28301421956209
 20
1.577811274287999
 30
0.0
 10
-21.26124973122579
 20
1.89546487547486
 30
0.0
 10
-21.23948686569265
 20
2.167109178292168
 30
0.0
 10
-21.21629758712396
 20
2.388489264574981
 30
0.0
 10
-21.1928201716787
 20
2.548577596724142
 30
0.0
 10
-21.1725054154409
 20
2.641244282747785
 30
0.0
 10
-21.16069820235036
 20
2.65304322712072
 30
0.0
 10
-21.15625202046473
 20
2.657486295297619
 30
0.0
  0
SPLINE
  5
698
330
1F
100
AcDbEntity
  8
SK1
  6
Continuous
370
    15
100
AcDbSpline
210
0.0
220
0.0
230
1.0
 70
     8
 71
     3
 72
    27
 73
    23
 74
     0
 42
0.0000000001
 43
0.0000000001
 40
0.0
 40
0.0
 40
0.0
 40
0.0
 40
0.0338187058696204
 40
0.0859874018402665
 40
0.1384868073940205
 40
0.1906555033646667
 40
0.241856673160234
 40
0.2930578429558007
 40
0.3452265389264471
 40
0.3977259444802013
 40
0.4498946404508475
 40
0.5010958102464152
 40
0.5522969800419804
 40
0.6044656760126266
 40
0.6569650815663808
 40
0.7091337775370273
 40
0.7603349473325959
 40
0.8115361171281623
 40
0.8637048130988082
 40
0.9162042186525624
 40
0.9683729146232083
 40
1.0
 40
1.0
 40
1.0
 40
1.0
 10
-22.50116053764201
 20
-2.658931437449163
 30
0.0
 10
-22.49639013634714
 20
-2.654258886071358
 30
0.0
 10
-22.48426091961537
 20
-2.64237846242382
 30
0.0
 10
-22.46361047062023
 20
-2.54871592209958
 30
0.0
 10
-22.44013043149021
 20
-2.388452338910461
 30
0.0
 10
-22.4169418504119
 20
-2.167118842034051
 30
0.0
 10
-22.39517880176863
 20
-1.895462308234634
 30
0.0
 10
-22.37341436237979
 20
-1.577811976530951
 30
0.0
 10
-22.35023004158273
 20
-1.218714590754844
 30
0.0
 10
-22.32673425671658
 20
-0.8268232815170577
 30
0.0
 10
-22.30354986142582
 20
-0.4167775811863752
 30
0.0
 10
-22.28178571433605
 20
-0.0000000033617162
 30
0.0
 10
-22.26002156694241
 20
0.4167775947603422
 30
0.0
 10
-22.2368371725825
 20
0.8268232329138447
 30
0.0
 10
-22.21334138427598
 20
1.218714771954622
 30
0.0
 10
-22.19015707616009
 20
1.577811310682565
 30
0.0
 10
-22.16839259036139
 20
1.895464742367613
 30
0.0
 10
-22.14662971533407
 20
2.167109679357115
 30
0.0
 10
-22.1234404729303
 20
2.388487349975219
 30
0.0
 10
-22.09996292144668
 20
2.548584768911228
 30
0.0
 10
-22.07963124757947
 20
2.641301303043265
 30
0.0
 10
-22.06780780206781
 20
2.653104326509414
 30
0.0
 10
-22.06334527287324
 20
2.65755914780072
 30
0.0
  0
SPLINE
  5
699
330
1F
100
AcDbEntity
  8
SK1
  6
Continuous
370
    15
100
AcDbSpline
210
0.0
220
0.0
230
1.0
 70
     8
 71
     3
 72
    27
 73
    23
 74
     0
 42
0.0000000001
 43
0.0000000001
 40
0.0
 40
0.0
 40
0.0
 40
0.0
 40
0.0316790503194393
 40
0.0838874343937394
 40
0.1364267796433324
 40
0.1886351637176324
 40
0.2398752855570688
 40
0.2911154073965044
 40
0.3433237914708046
 40
0.3958631367203977
 40
0.4480715207946979
 40
0.4993116426341345
 40
0.5505517644735699
 40
0.6027601485478699
 40
0.655299493797463
 40
0.7075078778717633
 40
0.7587479997112001
 40
0.8099881215506345
 40
0.8621965056249344
 40
0.9147358508745272
 40
0.9669442349488271
 40
1.0
 40
1.0
 40
1.0
 40
1.0
 10
-23.40738090054419
 20
-2.657576606798126
 30
0.0
 10
-23.40291445378534
 20
-2.653118971880144
 30
0.0
 10
-23.39108711819045
 20
-2.641314970404009
 30
0.0
 10
-23.37075138995156
 20
-2.548586484489852
 30
0.0
 10
-23.34727380592773
 20
-2.388486892005033
 30
0.0
 10
-23.32408457217459
 20
-2.167109799211977
 30
0.0
 10
-23.3023216948762
 20
-1.895464710525799
 30
0.0
 10
-23.28055720968471
 20
-1.577811319398275
 30
0.0
 10
-23.2573729014025
 20
-1.218714769561678
 30
0.0
 10
-23.2338771131426
 20
-0.8268232336346661
 30
0.0
 10
-23.21069271876455
 20
-0.4167775942700703
 30
0.0
 10
-23.18892857139668
 20
0.0000000021306326
 30
0.0
 10
-23.16716442422141
 20
0.4167775856670879
 30
0.0
 10
-23.1439800292534
 20
0.8268232644388174
 30
0.0
 10
-23.12048424317396
 20
1.218714654719489
 30
0.0
 10
-23.09729992685459
 20
1.577811741404905
 30
0.0
 10
-23.07553547107708
 20
1.895463167801969
 30
0.0
 10
-23.05377248374303
 20
2.167115606405114
 30
0.0
 10
-23.03058366912992
 20
2.388464702418338
 30
0.0
 10
-23.00710450846606
 20
2.548669607784304
 30
0.0
 10
-22.98656870817105
 20
2.641990470872833
 30
0.0
 10
-22.97454944336756
 20
2.653842941767305
 30
0.0
 10
-22.96988973588785
 20
2.658437985489459
 30
0.0
  0
SPLINE
  5
69A
330
1F
100
AcDbEntity
  8
SK1
  6
Continuous
370
    15
100
AcDbSpline
210
0.0
220
0.0
230
1.0
 70
     8
 71
     3
 72
    27
 73
    23
 74
     0
 42
0.0000000001
 43
0.0000000001
 40
0.0
 40
0.0
 40
0.0
 40
0.0
 40
0.0315390550092857
 40
0.0839394106061209
 40
0.1366719443306955
 40
0.1890722999275306
 40
0.2405008329652606
 40
0.2919293660029892
 40
0.3443297215998246
 40
0.3970622553243993
 40
0.4494626109212347
 40
0.500891143958965
 40
0.552319676996694
 40
0.6047200325935293
 40
0.6574525663181039
 40
0.7098529219149392
 40
0.7612814549526692
 40
0.812709987990398
 40
0.8651103435872331
 40
0.9178428773118078
 40
0.9702432329086427
 40
1.0
 40
1.0
 40
1.0
 40
1.0
 10
-24.31441489268754
 20
-2.657416721097332
 30
0.0
 10
-24.30998432277766
 20
-2.652984896009589
 30
0.0
 10
-24.29819261161907
 20
-2.641189844266123
 30
0.0
 10
-24.27789401118801
 20
-2.548570726939626
 30
0.0
 10
-24.2544167260453
 20
-2.388491098449001
 30
0.0
 10
-24.23122741283649
 20
-2.167108698353838
 30
0.0
 10
-24.20946455639724
 20
-1.895465002969459
 30
0.0
 10
-24.18770006563035
 20
-1.577811239429419
 30
0.0
 10
-24.16451575886956
 20
-1.218714791216497
 30
0.0
 10
-24.14101997020451
 20
-0.8268232282283587
 30
0.0
 10
-24.11783557590798
 20
-0.4167775943085826
 30
0.0
 10
-24.09607142861459
 20
-0.0000000028828273
 30
0.0
 10
-24.07430728106062
 20
0.4167776059489219
 30
0.0
 10
-24.05112288756234
 20
0.8268231865487738
 30
0.0
 10
-24.02762709594702
 20
1.218714946604047
 30
0.0
 10
-24.00444280006092
 20
1.577810668432341
 30
0.0
 10
-23.98267826949535
 20
1.895467090355815
 30
0.0
 10
-23.96091556194014
 20
2.167100840916734
 30
0.0
 10
-23.93772568161288
 20
2.388521122124533
 30
0.0
 10
-23.91425052974687
 20
2.548458256759161
 30
0.0
 10
-23.89420985236779
 20
2.640322667449948
 30
0.0
 10
-23.88266569026103
 20
2.652055951866238
 30
0.0
 10
-23.87848447100899
 20
2.656305669969404
 30
0.0
  0
SPLINE
  5
69B
330
1F
100
AcDbEntity
  8
1
  6
Continuous
370
    15
100
AcDbSpline
210
0.0
220
0.0
230
1.0
 70
     8
 71
     3
 72
     8
 73
     4
 74
     0
 42
0.0000000001
 43
0.0000000001
 40
0.0000283700812425
 40
0.0000283700812425
 40
0.0000283700812425
 40
0.0000283700812425
 40
0.0003090773653092
 40
0.0003090773653092
 40
0.0003090773653092
 40
0.0003090773653092
 10
3.0
 20
0.0
 30
0.0
 10
2.939854945283926
 20
0.0
 30
0.0
 10
2.879699058285055
 20
0.0018083726451916
 30
0.0
 10
2.819597135119265
 20
0.0054291114847809
 30
0.0
  0
SPLINE
  5
69C
330
1F
100
AcDbEntity
  8
SK1
  6
Continuous
370
    15
100
AcDbSpline
210
0.0
220
0.0
230
1.0
 70
    11
 71
     3
 72
    73
 73
    69
 74
     0
 42
0.0000000001
 43
0.0000000001
 40
0.0
 40
0.0
 40
0.0
 40
0.0
 40
0.030791751013564
 40
0.0461824575660249
 40
0.0617852762592421
 40
0.077365262250539
 40
0.0929343230945305
 40
0.1086346744669734
 40
0.1244609564656032
 40
0.1323333049681682
 40
0.1401908922338403
 40
0.1559151153527659
 40
0.1717084471919842
 40
0.1873449339061091
 40
0.2029012833388255
 40
0.218495898278402
 40
0.2339063785048891
 40
0.2492598526403101
 40
0.2647617412688749
 40
0.2801976423174748
 40
0.2956060461836282
 40
0.3111713603791874
 40
0.3269068664149698
 40
0.3425686112288621
 40
0.3582635677626447
 40
0.3661621484803541
 40
0.3740949903997688
 40
0.3898342173060333
 40
0.405480398487044
 40
0.4211666964891835
 40
0.4367640667368111
 40
0.4521920871565829
 40
0.4676374844011559
 40
0.4986338096531543
 40
0.5293558433917479
 40
0.5450071853407619
 40
0.5606544878880321
 40
0.576303988568491
 40
0.592096989524052
 40
0.6080651004283291
 40
0.6160194862854828
 40
0.623958581303871
 40
0.6345426513564221
 40
0.6398417357450642
 40
0.6558017018264324
 40
0.6716410128210418
 40
0.6873563113579185
 40
0.703072330601864
 40
0.7185906158459324
 40
0.7339921012523787
 40
0.74948476777082
 40
0.7648450916495261
 40
0.7801785247457
 40
0.7957149147542717
 40
0.8114277576066335
 40
0.8270943634266625
 40
0.8428466549744586
 40
0.8587912422730854
 40
0.8667696631202293
 40
0.8747169010880018
 40
0.8905657522908136
 40
0.9064482241237287
 40
0.9223089954956387
 40
0.9379878283289382
 40
0.9536283379503217
 40
0.9692365673579695
 40
0.9987286078709836
 40
1.0
 40
1.0
 40
1.0
 40
1.0
 10
-11.77880381535651
 20
-0.1458621890073362
 30
0.0
 10
-11.77971422514686
 20
-0.0361340308723639
 30
0.0
 10
-11.79776927278551
 20
0.1295956728369667
 30
0.0
 10
-11.8537118349189
 20
0.3414215612555509
 30
0.0
 10
-11.91104661188699
 20
0.4949903911738165
 30
0.0
 10
-11.98285679840841
 20
0.6412007723063136
 30
0.0
 10
-12.06799014290342
 20
0.7786690616351441
 30
0.0
 10
-12.16583591876767
 20
0.9068542105854112
 30
0.0
 10
-12.25729708802299
 20
1.005112328593366
 30
0.0
 10
-12.3359024837689
 20
1.07806399432415
 30
0.0
 10
-12.41770136029041
 20
1.146902998195405
 30
0.0
 10
-12.52641515591886
 20
1.225641222285095
 30
0.0
 10
-12.66597918758199
 20
1.307255766578505
 30
0.0
 10
-12.81364328101043
 20
1.375158714186395
 30
0.0
 10
-12.96821089011503
 20
1.428554207178713
 30
0.0
 10
-13.1281840450752
 20
1.466563764149998
 30
0.0
 10
-13.29174630406359
 20
1.48851493870198
 30
0.0
 10
-13.45702214717669
 20
1.494083906639622
 30
0.0
 10
-13.62198949978642
 20
1.483093539213169
 30
0.0
 10
-13.78431279488419
 20
1.455789472651128
 30
0.0
 10
-13.94193765254228
 20
1.412896562065204
 30
0.0
 10
-14.09397355715718
 20
1.35495291601532
 30
0.0
 10
-14.23890794687678
 20
1.282687965252817
 30
0.0
 10
-14.37537500960585
 20
1.197074835714476
 30
0.0
 10
-14.48119898837616
 20
1.115400778514104
 30
0.0
 10
-14.56102800170377
 20
1.043950272836474
 30
0.0
 10
-14.63741398253576
 20
0.9685471865563187
 30
0.0
 10
-14.72573943251282
 20
0.8676027258551979
 30
0.0
 10
-14.81979027065765
 20
0.7362694596853645
 30
0.0
 10
-14.90100464952386
 20
0.5955814060099504
 30
0.0
 10
-14.96830269795918
 20
0.4468148984902049
 30
0.0
 10
-15.02080348119868
 20
0.2914290440926583
 30
0.0
 10
-15.07024362672889
 20
0.0771161762108772
 30
0.0
 10
-15.09139696493955
 20
-0.2001954259518275
 30
0.0
 10
-15.05678466429744
 20
-0.4742525078672656
 30
0.0
 10
-14.99851436843449
 20
-0.682493574990235
 30
0.0
 10
-14.93989181125128
 20
-0.8331418973562314
 30
0.0
 10
-14.86765862549024
 20
-0.9759483831904187
 30
0.0
 10
-14.78240959165281
 20
-1.110538108318096
 30
0.0
 10
-14.70115795078367
 20
-1.215019435823754
 30
0.0
 10
-14.63044401205165
 20
-1.293564136368669
 30
0.0
 10
-14.56869201498636
 20
-1.355884363463554
 30
0.0
 10
-14.5100695000368
 20
-1.408797386982563
 30
0.0
 10
-14.42833701638555
 20
-1.47576052024237
 30
0.0
 10
-14.32783831761323
 20
-1.547877759475043
 30
0.0
 10
-14.1895484310339
 20
-1.628144133299206
 30
0.0
 10
-14.042976195418
 20
-1.695188658593685
 30
0.0
 10
-13.88927232636911
 20
-1.748015938133549
 30
0.0
 10
-13.72982002250388
 20
-1.785710620962321
 30
0.0
 10
-13.5663113139099
 20
-1.807560144883103
 30
0.0
 10
-13.40101538855217
 20
-1.812964786844043
 30
0.0
 10
-13.23647265029109
 20
-1.801825768593633
 30
0.0
 10
-13.07500008609131
 20
-1.774633153874419
 30
0.0
 10
-12.91782871811496
 20
-1.731887771002249
 30
0.0
 10
-12.76684059676328
 20
-1.67436893251734
 30
0.0
 10
-12.62360330508492
 20
-1.603176520734081
 30
0.0
 10
-12.48881342868965
 20
-1.519169576105268
 30
0.0
 10
-12.38398934922445
 20
-1.438937611064388
 30
0.0
 10
-12.30493733721258
 20
-1.368868940206823
 30
0.0
 10
-12.22959396433383
 20
-1.295350169480379
 30
0.0
 10
-12.14210700908892
 20
-1.196823086407325
 30
0.0
 10
-12.04841971775163
 20
-1.068423110723458
 30
0.0
 10
-11.96706281133434
 20
-0.9307646115400698
 30
0.0
 10
-11.89895715505989
 20
-0.7848823775635312
 30
0.0
 10
-11.84497691255433
 20
-0.6318258411933197
 30
0.0
 10
-11.79431647376291
 20
-0.425388507241479
 30
0.0
 10
-11.77831568979826
 20
-0.2599883192493397
 30
0.0
 10
-11.7787662245147
 20
-0.1503928672569375
 30
0.0
 10
-11.77880381535651
 20
-0.1458621890073362
 30
0.0
  0
SPLINE
  5
69D
330
1F
100
AcDbEntity
  8
SK1
  6
Continuous
370
    15
100
AcDbSpline
210
0.0
220
0.0
230
1.0
 70
    11
 71
     3
 72
    70
 73
    66
 74
     0
 42
0.0000000001
 43
0.0000000001
 40
0.0
 40
0.0
 40
0.0
 40
0.0
 40
0.0324051082307611
 40
0.0486808494837646
 40
0.0648310950637916
 40
0.0808442494212007
 40
0.096861425007946
 40
0.1127275516499169
 40
0.1284064281406074
 40
0.1440273935027879
 40
0.1595681635076118
 40
0.1748492240663772
 40
0.1900031885502793
 40
0.2051820057798453
 40
0.2201887806381738
 40
0.2350072420532522
 40
0.2498595782323133
 40
0.264841328289512
 40
0.2797286750369734
 40
0.2947200415877803
 40
0.3098997382691563
 40
0.3250917236256926
 40
0.3404396711648601
 40
0.3559686580481087
 40
0.3715123396010798
 40
0.3871867415943911
 40
0.4030866543803335
 40
0.418979049555036
 40
0.4349037737724382
 40
0.4510045370533853
 40
0.4672762216921745
 40
0.4834387224491774
 40
0.4996334131817232
 40
0.5160155801159413
 40
0.5324315092540157
 40
0.5486559158466075
 40
0.5647391655418184
 40
0.5808437710525399
 40
0.5968682922127372
 40
0.6126798910756481
 40
0.6284231911525101
 40
0.6441090497229735
 40
0.6595432528752074
 40
0.6748502068963616
 40
0.6901594035197009
 40
0.7052571079289784
 40
0.7201762810568888
 40
0.7351091839689924
 40
0.7501010425171294
 40
0.7649488228642056
 40
0.7798548588454887
 40
0.7949488414291998
 40
0.810027495646716
 40
0.8252231632486497
 40
0.8406336324204929
 40
0.8560639776987224
 40
0.8716085500355912
 40
0.8873907894874211
 40
0.9032049188428583
 40
0.9190551735758962
 40
0.9350880299966243
 40
0.9513067209643576
 40
0.9674392034984576
 40
0.9836262152777011
 40
1.0
 40
1.0
 40
1.0
 40
1.0
 10
-11.18057641877206
 20
-0.1540739744478969
 30
0.0
 10
-11.17937263300149
 20
-0.3169760258497876
 30
0.0
 10
-11.19992886207906
 20
-0.5619720416249381
 30
0.0
 10
-11.27041793498735
 20
-0.876701753479212
 30
0.0
 10
-11.34381123145891
 20
-1.104555536300539
 30
0.0
 10
-11.43647500042527
 20
-1.321858236194418
 30
0.0
 10
-11.54723586962096
 20
-1.526992559333085
 30
0.0
 10
-11.67486358135674
 20
-1.718411748423146
 30
0.0
 10
-11.81802610145798
 20
-1.894822956218573
 30
0.0
 10
-11.97593109279627
 20
-2.055483908700475
 30
0.0
 10
-12.14743471479146
 20
-2.199067500098568
 30
0.0
 10
-12.33121867475188
 20
-2.324336913089187
 30
0.0
 10
-12.52650175838666
 20
-2.4304690806859
 30
0.0
 10
-12.73232370821527
 20
-2.516192789103634
 30
0.0
 10
-12.94651586300876
 20
-2.579870266812904
 30
0.0
 10
-13.16650052920369
 20
-2.620361293100351
 30
0.0
 10
-13.39061553921751
 20
-2.63694187394559
 30
0.0
 10
-13.61574618074204
 20
-2.628897685311334
 30
0.0
 10
-13.83848369162324
 20
-2.596367263666713
 30
0.0
 10
-14.0557609595331
 20
-2.540222100411142
 30
0.0
 10
-14.26526941631875
 20
-2.46150130083771
 30
0.0
 10
-14.46509338343782
 20
-2.361560789586556
 30
0.0
 10
-14.65365224919036
 20
-2.241871828525603
 30
0.0
 10
-14.82971656359332
 20
-2.10368474181525
 30
0.0
 10
-14.99221605014251
 20
-1.948287939461183
 30
0.0
 10
-15.14041830785276
 20
-1.776638854934421
 30
0.0
 10
-15.27321212119467
 20
-1.58977450808984
 30
0.0
 10
-15.38929373948314
 20
-1.389193049861439
 30
0.0
 10
-15.48759696631396
 20
-1.176433858031803
 30
0.0
 10
-15.56732444620897
 20
-0.9521286812385616
 30
0.0
 10
-15.62695989385719
 20
-0.7185962506174981
 30
0.0
 10
-15.66540120141661
 20
-0.4786291781461163
 30
0.0
 10
-15.68205936825279
 20
-0.2345050174426593
 30
0.0
 10
-15.67634152694036
 20
0.0119762244668396
 30
0.0
 10
-15.64794870937816
 20
0.2570060869056387
 30
0.0
 10
-15.59756075986791
 20
0.496319151109165
 30
0.0
 10
-15.52619431392932
 20
0.7275182828549767
 30
0.0
 10
-15.4346641513422
 20
0.9490235770290532
 30
0.0
 10
-15.32412898688633
 20
1.158611066175469
 30
0.0
 10
-15.19604630559465
 20
1.354350749820569
 30
0.0
 10
-15.05157953149697
 20
1.535022764833064
 30
0.0
 10
-14.8919522368045
 20
1.699209812791385
 30
0.0
 10
-14.71858698427778
 20
1.845583056359654
 30
0.0
 10
-14.53254868731525
 20
1.973247958132639
 30
0.0
 10
-14.33496791935892
 20
2.080994294336083
 30
0.0
 10
-14.12771687817172
 20
2.1673728132295
 30
0.0
 10
-13.9128833423997
 20
2.231297308729601
 30
0.0
 10
-13.69168398788632
 20
2.271978535279286
 30
0.0
 10
-13.46690900443392
 20
2.288351107915235
 30
0.0
 10
-13.24171848554407
 20
2.280055456047921
 30
0.0
 10
-13.01884085221348
 20
2.247350701529584
 30
0.0
 10
-12.8008174221568
 20
2.190709229346857
 30
0.0
 10
-12.59012796437186
 20
2.111117930633851
 30
0.0
 10
-12.38882620544482
 20
2.009879396205303
 30
0.0
 10
-12.19855824546492
 20
1.888176385568686
 30
0.0
 10
-12.02077815851577
 20
1.74732240066365
 30
0.0
 10
-11.85658037638606
 20
1.588526923860279
 30
0.0
 10
-11.70714230255701
 20
1.412854103295203
 30
0.0
 10
-11.57388179887115
 20
1.22179899099305
 30
0.0
 10
-11.4579925589831
 20
1.016987066688646
 30
0.0
 10
-11.36029470542315
 20
0.7992225300571853
 30
0.0
 10
-11.28234663737828
 20
0.5707121182961279
 30
0.0
 10
-11.22533626635319
 20
0.3341513718845546
 30
0.0
 10
-11.18995271577913
 20
0.0918295912793141
 30
0.0
 10
-11.18118467253622
 20
-0.0717621641777075
 30
0.0
 10
-11.18057641877206
 20
-0.1540739744478969
 30
0.0
  0
LWPOLYLINE
  5
69E
330
1F
100
AcDbEntity
  8
1
  6
Continuous
370
    15
100
AcDbPolyline
 90
       23
 70
   128
 43
0.0
 10
2.819597135099996
 20
0.0054291114999998
 10
2.819597141799988
 20
-0.3624930235999999
 10
2.819597161899991
 20
-0.7284498726999999
 10
2.819597195200002
 20
-1.0904573702
 10
2.819597241699995
 20
-1.446552862499999
 10
2.819597300899998
 20
-1.794805748199999
 10
2.819597372700002
 20
-2.1333279453
 10
2.819597456599993
 20
-2.4602841277
 10
2.819597552099991
 20
-2.773901675099999
 10
2.819597658799991
 20
-3.0724802841
 10
2.819597776099996
 20
-3.354401185899998
 10
2.819597903299991
 20
-3.618135922799998
 10
2.819598039799998
 20
-3.862254635099998
 10
2.819598184699998
 20
-4.085433812799998
 10
2.819598337399995
 20
-4.2864634716
 10
2.819598496899999
 20
-4.4642537123
 10
2.819598662499998
 20
-4.617840630499999
 10
2.819598833199988
 20
-4.746391541899998
 10
2.819599008199999
 20
-4.849209497099999
 10
2.819599186299996
 20
-4.9257370599
 10
2.819599366799991
 20
-4.9755593298
 10
2.819599548599995
 20
-4.998406191299999
 10
2.819599608399997
 20
-5.0
  0
SPLINE
  5
69F
330
1F
100
AcDbEntity
  8
1
  6
Continuous
370
    15
100
AcDbSpline
210
0.0
220
0.0
230
1.0
 70
     8
 71
     3
 72
    22
 73
    18
 74
     0
 42
0.0000000001
 43
0.0000000001
 40
0.0
 40
0.0
 40
0.0
 40
0.0
 40
0.1249999999999999
 40
0.1249999999999999
 40
0.2499999999999999
 40
0.2499999999999999
 40
0.3749999999999998
 40
0.3749999999999998
 40
0.5
 40
0.5
 40
0.625
 40
0.625
 40
0.7499999999999997
 40
0.7499999999999997
 40
0.8749999999999998
 40
0.8749999999999998
 40
1.0
 40
1.0
 40
1.0
 40
1.0
 10
2.819597151116083
 20
0.0054291105210798
 30
0.0
 10
2.620748223820243
 20
0.0174084271930326
 30
0.0
 10
2.426400715195939
 20
0.0487979022282135
 30
0.0
 10
2.046356562560163
 20
0.1488293359308903
 30
0.0
 10
1.858662481283658
 20
0.2185725984600069
 30
0.0
 10
1.503944496542188
 20
0.3921641822689983
 30
0.0
 10
1.337114268256172
 20
0.4953145911385485
 30
0.0
 10
1.02451121264029
 20
0.7337074316812747
 30
0.0
 10
0.8784422089254633
 20
0.8700541569610392
 30
0.0
 10
0.6216580597544237
 20
1.161205185340947
 30
0.0
 10
0.5089218183314586
 20
1.317310771818587
 30
0.0
 10
0.3146241582883249
 20
1.648826386220481
 30
0.0
 10
0.2360243057800488
 20
1.819499669993883
 30
0.0
 10
0.1135576803127947
 20
2.162388274615345
 30
0.0
 10
0.0691106066896339
 20
2.33712404058797
 30
0.0
 10
0.0125968676463373
 20
2.67605602615703
 30
0.0
 10
0.0
 20
2.840711663196715
 30
0.0
 10
0.0
 20
2.999999999999998
 30
0.0
  0
SPLINE
  5
6A0
330
1F
100
AcDbEntity
  8
SK1
  6
Continuous
370
    15
100
AcDbSpline
210
0.0
220
0.0
230
1.0
 70
     8
 71
     3
 72
     9
 73
     5
 74
     0
 42
0.0000000001
 43
0.0000000001
 40
0.0
 40
0.0
 40
0.0
 40
0.0
 40
0.4883859162247866
 40
1.0
 40
1.0
 40
1.0
 40
1.0
 10
-18.8800003143244
 20
2.164635407543578
 30
0.0
 10
-18.95250778961048
 20
2.246088206010524
 30
0.0
 10
-19.10097127489393
 20
2.412867786995521
 30
0.0
 10
-19.24937338916921
 20
2.579699339765426
 30
0.0
 10
-19.32529800089447
 20
2.665052711780599
 30
0.0
  0
SPLINE
  5
6A1
330
1F
100
AcDbEntity
  8
SK1
  6
Continuous
370
    15
100
AcDbSpline
210
0.0
220
0.0
230
1.0
 70
     8
 71
     3
 72
     9
 73
     5
 74
     0
 42
0.0000000001
 43
0.0000000001
 40
0.0
 40
0.0
 40
0.0
 40
0.0
 40
0.4884604462452609
 40
1.0
 40
1.0
 40
1.0
 40
1.0
 10
-19.78713296969088
 20
2.164624454216998
 30
0.0
 10
-19.85965411849793
 20
2.246092769648218
 30
0.0
 10
-20.00812294409994
 20
2.412878670241516
 30
0.0
 10
-20.15653298881487
 20
2.579718579679865
 30
0.0
 10
-20.23245059686107
 20
2.665063792502443
 30
0.0
  0
SPLINE
  5
6A2
330
1F
100
AcDbEntity
  8
SK1
  6
Continuous
370
    15
100
AcDbSpline
210
0.0
220
0.0
230
1.0
 70
     8
 71
     3
 72
     9
 73
     5
 74
     0
 42
0.0000000001
 43
0.0000000001
 40
0.0
 40
0.0
 40
0.0
 40
0.0
 40
0.4885227309357705
 40
1.0
 40
1.0
 40
1.0
 40
1.0
 10
-20.69427478435973
 20
2.164623529167482
 30
0.0
 10
-20.76682059981356
 20
2.246120054344154
 30
0.0
 10
-20.91532098855672
 20
2.41294243540422
 30
0.0
 10
-21.06376041429357
 20
2.579814648469759
 30
0.0
 10
-21.13968380639091
 20
2.665165992291228
 30
0.0
  0
SPLINE
  5
6A3
330
1F
100
AcDbEntity
  8
SK1
  6
Continuous
370
    15
100
AcDbSpline
210
0.0
220
0.0
230
1.0
 70
     8
 71
     3
 72
     9
 73
     5
 74
     0
 42
0.0000000001
 43
0.0000000001
 40
0.0
 40
0.0
 40
0.0
 40
0.0
 40
0.489382563470863
 40
1.0
 40
1.0
 40
1.0
 40
1.0
 10
-21.60144252267638
 20
2.16462004983823
 30
0.0
 10
-21.67424953490765
 20
2.246412910353138
 30
0.0
 10
-21.82302273948382
 20
2.413547717802767
 30
0.0
 10
-21.97173092722957
 20
2.580706841076845
 30
0.0
 10
-22.0476639208472
 20
2.666061204095514
 30
0.0
  0
SPLINE
  5
6A4
330
1F
100
AcDbEntity
  8
SK1
  6
Continuous
370
    15
100
AcDbSpline
210
0.0
220
0.0
230
1.0
 70
     8
 71
     3
 72
     9
 73
     5
 74
     0
 42
0.0000000001
 43
0.0000000001
 40
0.0
 40
0.0
 40
0.0
 40
0.0
 40
0.4893517153386621
 40
1.0
 40
1.0
 40
1.0
 40
1.0
 10
-22.50858411647643
 20
2.164621514503831
 30
0.0
 10
-22.58135609277754
 20
2.246376405039098
 30
0.0
 10
-22.73006707921137
 20
2.413444156050634
 30
0.0
 10
-22.87872164629499
 20
2.580549733579084
 30
0.0
 10
-22.95463184598331
 20
2.665881910101329
 30
0.0
  0
SPLINE
  5
6A5
330
1F
100
AcDbEntity
  8
SK1
  6
Continuous
370
    15
100
AcDbSpline
210
0.0
220
0.0
230
1.0
 70
     8
 71
     3
 72
     9
 73
     5
 74
     0
 42
0.0000000001
 43
0.0000000001
 40
0.0
 40
0.0
 40
0.0
 40
0.0
 40
0.4877529723811896
 40
1.0
 40
1.0
 40
1.0
 40
1.0
 10
-23.41571637645502
 20
2.164613655248918
 30
0.0
 10
-23.48801279053068
 20
2.245822759748175
 30
0.0
 10
-23.63623621133877
 20
2.41231914028851
 30
0.0
 10
-23.7844073386387
 20
2.578891319046622
 30
0.0
 10
-23.86030755817702
 20
2.664217422499453
 30
0.0
  0
SPLINE
  5
6A6
330
1F
100
AcDbEntity
  8
SK1
  6
Continuous
370
    15
100
AcDbSpline
210
0.0
220
0.0
230
1.0
 70
     8
 71
     3
 72
     9
 73
     5
 74
     0
 42
0.0000000001
 43
0.0000000001
 40
0.0
 40
0.0
 40
0.0
 40
0.0
 40
0.6168932828141141
 40
1.0
 40
1.0
 40
1.0
 40
1.0
 10
-24.32284207795567
 20
2.164618930508392
 30
0.0
 10
-24.40486927856542
 20
2.256766886473901
 30
0.0
 10
-24.53783749672393
 20
2.406141111372501
 30
0.0
 10
-24.67075320215096
 20
2.55556109489644
 30
0.0
 10
-24.72167410171955
 20
2.612804894266267
 30
0.0
  0
SPLINE
  5
6A7
330
1F
100
AcDbEntity
  8
SK1
  6
Continuous
370
    15
100
AcDbSpline
210
0.0
220
0.0
230
1.0
 70
     8
 71
     3
 72
     9
 73
     5
 74
     0
 42
0.0000000001
 43
0.0000000001
 40
0.0
 40
0.0
 40
0.0
 40
0.0
 40
0.5000650291348372
 40
1.0
 40
1.0
 40
1.0
 40
1.0
 10
-24.31457551923549
 20
-2.665043376744628
 30
0.0
 10
-24.23865054598181
 20
-2.579689779054937
 30
0.0
 10
-24.08682034624751
 20
-2.409004782670838
 30
0.0
 10
-23.93492726852284
 20
-2.238373091164663
 30
0.0
 10
-23.85899060713594
 20
-2.153068341442847
 30
0.0
  0
SPLINE
  5
6A8
330
1F
100
AcDbEntity
  8
SK1
  6
Continuous
370
    15
100
AcDbSpline
210
0.0
220
0.0
230
1.0
 70
     8
 71
     3
 72
     9
 73
     5
 74
     0
 42
0.0000000001
 43
0.0000000001
 40
0.0
 40
0.0
 40
0.0
 40
0.0
 40
0.5000535344020543
 40
1.0
 40
1.0
 40
1.0
 40
1.0
 10
-23.40753948301482
 20
-2.665164342478479
 30
0.0
 10
-23.33164499092494
 20
-2.579846217336503
 30
0.0
 10
-23.17987225687029
 20
-2.409228234915892
 30
0.0
 10
-23.02804777239945
 20
-2.23867001938302
 30
0.0
 10
-22.95214365799703
 20
-2.15340004234867
 30
0.0
  0
SPLINE
  5
6A9
330
1F
100
AcDbEntity
  8
SK1
  6
Continuous
370
    15
100
AcDbSpline
210
0.0
220
0.0
230
1.0
 70
     8
 71
     3
 72
     9
 73
     5
 74
     0
 42
0.0000000001
 43
0.0000000001
 40
0.0
 40
0.0
 40
0.0
 40
0.0
 40
0.5000647870696774
 40
1.0
 40
1.0
 40
1.0
 40
1.0
 10
-22.50131388309317
 20
-2.666140362046454
 30
0.0
 10
-22.42539023815231
 20
-2.580796667109859
 30
0.0
 10
-22.27356262120339
 20
-2.41013139104294
 30
0.0
 10
-22.12167228163437
 20
-2.239492966359343
 30
0.0
 10
-22.04573695237987
 20
-2.154184809181054
 30
0.0
  0
SPLINE
  5
6AA
330
1F
100
AcDbEntity
  8
SK1
  6
Continuous
370
    15
100
AcDbSpline
210
0.0
220
0.0
230
1.0
 70
     8
 71
     3
 72
     9
 73
     5
 74
     0
 42
0.0000000001
 43
0.0000000001
 40
0.0
 40
0.0
 40
0.0
 40
0.0
 40
0.5000649661113619
 40
1.0
 40
1.0
 40
1.0
 40
1.0
 10
-21.59327982886856
 20
-2.66519362277865
 30
0.0
 10
-21.51735510663826
 20
-2.579841148901094
 30
0.0
 10
-21.36552538975023
 20
-2.409158378337735
 30
0.0
 10
-21.21363284563615
 20
-2.238525507537167
 30
0.0
 10
-21.13769644144704
 20
-2.153220157490967
 30
0.0
  0
SPLINE
  5
6AB
330
1F
100
AcDbEntity
  8
SK1
  6
Continuous
370
    15
100
AcDbSpline
210
0.0
220
0.0
230
1.0
 70
     8
 71
     3
 72
     9
 73
     5
 74
     0
 42
0.0000000001
 43
0.0000000001
 40
0.0
 40
0.0
 40
0.0
 40
0.0
 40
0.5000624022880562
 40
1.0
 40
1.0
 40
1.0
 40
1.0
 10
-20.6861381438032
 20
-2.665194937559285
 30
0.0
 10
-20.61021995629805
 20
-2.579849927962195
 30
0.0
 10
-20.45840252879742
 20
-2.409181209005144
 30
0.0
 10
-20.30652475840246
 20
-2.238564600780443
 30
0.0
 10
-20.23059535072535
 20
-2.153266943534827
 30
0.0
  0
SPLINE
  5
6AC
330
1F
100
AcDbEntity
  8
SK1
  6
Continuous
370
    15
100
AcDbSpline
210
0.0
220
0.0
230
1.0
 70
     8
 71
     3
 72
     9
 73
     5
 74
     0
 42
0.0000000001
 43
0.0000000001
 40
0.0
 40
0.0
 40
0.0
 40
0.0
 40
0.5000605770280674
 40
1.0
 40
1.0
 40
1.0
 40
1.0
 10
-19.77883149748859
 20
-2.665009432859299
 30
0.0
 10
-19.7029179347824
 20
-2.5796689163102
 30
0.0
 10
-19.55110920161378
 20
-2.409008559406458
 30
0.0
 10
-19.39924190591579
 20
-2.238405970057911
 30
0.0
 10
-19.32331745773623
 20
-2.153115009981479
 30
0.0
  0
SPLINE
  5
6AD
330
1F
100
AcDbEntity
  8
SK1
  6
Continuous
370
    15
100
AcDbSpline
210
0.0
220
0.0
230
1.0
 70
     8
 71
     3
 72
     9
 73
     5
 74
     0
 42
0.0000000001
 43
0.0000000001
 40
0.0
 40
0.0
 40
0.0
 40
0.0
 40
0.922414121980432
 40
1.0
 40
1.0
 40
1.0
 40
1.0
 10
-18.8708799682575
 20
-2.664041297767641
 30
0.0
 10
-18.79497962525372
 20
-2.578704897553549
 30
0.0
 10
-18.71269517058727
 20
-2.486190702269038
 30
0.0
 10
-18.63038094964118
 20
-2.393720026934548
 30
0.0
 10
-18.62399452853557
 20
-2.38654560839766
 30
0.0
  0
SPLINE
  5
6AE
330
1F
100
AcDbEntity
  8
SK1
  6
Continuous
370
    15
100
AcDbSpline
210
0.0
220
0.0
230
1.0
 70
     8
 71
     3
 72
     9
 73
     5
 74
     0
 42
0.0000000001
 43
0.0000000001
 40
0.0
 40
0.0
 40
0.0
 40
0.0
 40
0.1307951568513941
 40
1.0
 40
1.0
 40
1.0
 40
1.0
 10
-18.62813902202348
 20
2.447622056227686
 30
0.0
 10
-18.63956145609832
 20
2.434782358779771
 30
0.0
 10
-18.72689216734024
 20
2.336615899432195
 30
0.0
 10
-18.81425886303803
 20
2.238478902109628
 30
0.0
 10
-18.89019841806843
 20
2.15317774874479
 30
0.0
  0
SPLINE
  5
6AF
330
1F
100
AcDbEntity
  8
SK1
  6
Continuous
370
    15
100
AcDbSpline
210
0.0
220
0.0
230
1.0
 70
     8
 71
     3
 72
     9
 73
     5
 74
     0
 42
0.0000000001
 43
0.0000000001
 40
0.0
 40
0.0
 40
0.0
 40
0.0
 40
0.5000636860473985
 40
1.0
 40
1.0
 40
1.0
 40
1.0
 10
-19.34109945717589
 20
2.66586424956428
 30
0.0
 10
-19.41702050336928
 20
2.580520634294605
 30
0.0
 10
-19.56884325777381
 20
2.409855141776548
 30
0.0
 10
-19.72072764610377
 20
2.23922466092609
 30
0.0
 10
-19.79666016735239
 20
2.153920287281755
 30
0.0
  0
SPLINE
  5
6B0
330
1F
100
AcDbEntity
  8
SK1
  6
Continuous
370
    15
100
AcDbSpline
210
0.0
220
0.0
230
1.0
 70
     8
 71
     3
 72
     9
 73
     5
 74
     0
 42
0.0000000001
 43
0.0000000001
 40
0.0
 40
0.0
 40
0.0
 40
0.0
 40
0.5000578293531311
 40
1.0
 40
1.0
 40
1.0
 40
1.0
 10
-20.24965500702638
 20
2.66426344976187
 30
0.0
 10
-20.32556171026136
 20
2.578929591275431
 30
0.0
 10
-20.47735756021971
 20
2.408281611227154
 30
0.0
 10
-20.62920926791819
 20
2.237708962098324
 30
0.0
 10
-20.70512634028141
 20
2.15243250163987
 30
0.0
  0
SPLINE
  5
6B1
330
1F
100
AcDbEntity
  8
SK1
  6
Continuous
370
    15
100
AcDbSpline
210
0.0
220
0.0
230
1.0
 70
     8
 71
     3
 72
     9
 73
     5
 74
     0
 42
0.0000000001
 43
0.0000000001
 40
0.0
 40
0.0
 40
0.0
 40
0.0
 40
0.5000622344092275
 40
1.0
 40
1.0
 40
1.0
 40
1.0
 10
-21.15609199323345
 20
2.665096530530107
 30
0.0
 10
-21.23200980747962
 20
2.579751468429435
 30
0.0
 10
-21.38382653952271
 20
2.409082587182084
 30
0.0
 10
-21.53570344531168
 20
2.238468184109959
 30
0.0
 10
-21.61163244623666
 20
2.153171600660479
 30
0.0
  0
SPLINE
  5
6B2
330
1F
100
AcDbEntity
  8
SK1
  6
Continuous
370
    15
100
AcDbSpline
210
0.0
220
0.0
230
1.0
 70
     8
 71
     3
 72
     9
 73
     5
 74
     0
 42
0.0000000001
 43
0.0000000001
 40
0.0
 40
0.0
 40
0.0
 40
0.0
 40
0.5000648908408416
 40
1.0
 40
1.0
 40
1.0
 40
1.0
 10
-22.06318520820089
 20
2.665152625929326
 30
0.0
 10
-22.13910976574052
 20
2.579800104340804
 30
0.0
 10
-22.29093917614357
 20
2.409117212676471
 30
0.0
 10
-22.44283133800292
 20
2.238485236797955
 30
0.0
 10
-22.51876756252251
 20
2.153180321311088
 30
0.0
  0
SPLINE
  5
6B3
330
1F
100
AcDbEntity
  8
SK1
  6
Continuous
370
    15
100
AcDbSpline
210
0.0
220
0.0
230
1.0
 70
     8
 71
     3
 72
     9
 73
     5
 74
     0
 42
0.0000000001
 43
0.0000000001
 40
0.0
 40
0.0
 40
0.0
 40
0.0
 40
0.5000621596005719
 40
1.0
 40
1.0
 40
1.0
 40
1.0
 10
-22.96973397954386
 20
2.665798433158838
 30
0.0
 10
-23.04565116055407
 20
2.580458391318313
 30
0.0
 10
-23.19746664899424
 20
2.409799523811344
 30
0.0
 10
-23.34934228642089
 20
2.23917879119313
 30
0.0
 10
-23.42527066460526
 20
2.153879030600614
 30
0.0
  0
SPLINE
  5
6B4
330
1F
100
AcDbEntity
  8
SK1
  6
Continuous
370
    15
100
AcDbSpline
210
0.0
220
0.0
230
1.0
 70
     8
 71
     3
 72
     9
 73
     5
 74
     0
 42
0.0000000001
 43
0.0000000001
 40
0.0
 40
0.0
 40
0.0
 40
0.0
 40
0.5000592298871826
 40
1.0
 40
1.0
 40
1.0
 40
1.0
 10
-23.87832127664663
 20
2.6641464791936
 30
0.0
 10
-23.95423177144303
 20
2.578807829256008
 30
0.0
 10
-24.10603477848587
 20
2.408150745380474
 30
0.0
 10
-24.25789499203937
 20
2.237570458276439
 30
0.0
 10
-24.3338161041528
 20
2.152290418175585
 30
0.0
  0
SPLINE
  5
6B5
330
1F
100
AcDbEntity
  8
SK1
  6
Continuous
370
    15
100
AcDbSpline
210
0.0
220
0.0
230
1.0
 70
     8
 71
     3
 72
     9
 73
     5
 74
     0
 42
0.0000000001
 43
0.0000000001
 40
0.0
 40
0.0
 40
0.0
 40
0.0
 40
0.4892092647907141
 40
1.0
 40
1.0
 40
1.0
 40
1.0
 10
-24.77642003940815
 20
-2.16462559995217
 30
0.0
 10
-24.70366740858506
 20
-2.246357197969921
 30
0.0
 10
-24.55495266407954
 20
-2.413425984070518
 30
0.0
 10
-24.4063015473313
 20
-2.580525239146147
 30
0.0
 10
-24.33037193411778
 20
-2.665877990499153
 30
0.0
  0
SPLINE
  5
6B6
330
1F
100
AcDbEntity
  8
SK1
  6
Continuous
370
    15
100
AcDbSpline
210
0.0
220
0.0
230
1.0
 70
     8
 71
     3
 72
     9
 73
     5
 74
     0
 42
0.0000000001
 43
0.0000000001
 40
0.0
 40
0.0
 40
0.0
 40
0.0
 40
0.4885408616746514
 40
1.0
 40
1.0
 40
1.0
 40
1.0
 10
-23.86928610412748
 20
-2.164635364446453
 30
0.0
 10
-23.79673831174617
 20
-2.24613421927722
 30
0.0
 10
-23.64823938755667
 20
-2.41295517781772
 30
0.0
 10
-23.49980035324511
 20
-2.579826742915209
 30
0.0
 10
-23.42387985266228
 20
-2.665174729810976
 30
0.0
  0
SPLINE
  5
6B7
330
1F
100
AcDbEntity
  8
SK1
  6
Continuous
370
    15
100
AcDbSpline
210
0.0
220
0.0
230
1.0
 70
     8
 71
     3
 72
     9
 73
     5
 74
     0
 42
0.0000000001
 43
0.0000000001
 40
0.0
 40
0.0
 40
0.0
 40
0.0
 40
0.488425243878875
 40
1.0
 40
1.0
 40
1.0
 40
1.0
 10
-22.96214333175305
 20
-2.164634877139014
 30
0.0
 10
-22.88962709045792
 20
-2.246097670384564
 30
0.0
 10
-22.74115761185512
 20
-2.412884285668014
 30
0.0
 10
-22.59274864314823
 20
-2.579723178545935
 30
0.0
 10
-22.51682636117582
 20
-2.665073744481476
 30
0.0
  0
SPLINE
  5
6B8
330
1F
100
AcDbEntity
  8
SK1
  6
Continuous
370
    15
100
AcDbSpline
210
0.0
220
0.0
230
1.0
 70
     8
 71
     3
 72
     9
 73
     5
 74
     0
 42
0.0000000001
 43
0.0000000001
 40
0.0
 40
0.0
 40
0.0
 40
0.0
 40
0.488700218729769
 40
1.0
 40
1.0
 40
1.0
 40
1.0
 10
-22.05501900808169
 20
-2.164613556044284
 30
0.0
 10
-21.98244882663927
 20
-2.246138151542933
 30
0.0
 10
-21.83395251200481
 20
-2.412957384222113
 30
0.0
 10
-21.68550852114492
 20
-2.5798339163256
 30
0.0
 10
-21.60960914108739
 20
-2.665157850689249
 30
0.0
  0
SPLINE
  5
6B9
330
1F
100
AcDbEntity
  8
SK1
  6
Continuous
370
    15
100
AcDbSpline
210
0.0
220
0.0
230
1.0
 70
     8
 71
     3
 72
     9
 73
     5
 74
     0
 42
0.0000000001
 43
0.0000000001
 40
0.0
 40
0.0
 40
0.0
 40
0.0
 40
0.489145665015545
 40
1.0
 40
1.0
 40
1.0
 40
1.0
 10
-21.14784988068465
 20
-2.164627658509969
 30
0.0
 10
-21.07511333723249
 20
-2.246340918961638
 30
0.0
 10
-20.92641214522696
 20
-2.413393938738621
 30
0.0
 10
-20.77777537539293
 20
-2.580477678785005
 30
0.0
 10
-20.70184363718513
 20
-2.66583313169312
 30
0.0
  0
SPLINE
  5
6BA
330
1F
100
AcDbEntity
  8
SK1
  6
Continuous
370
    15
100
AcDbSpline
210
0.0
220
0.0
230
1.0
 70
     8
 71
     3
 72
     9
 73
     5
 74
     0
 42
0.0000000001
 43
0.0000000001
 40
0.0
 40
0.0
 40
0.0
 40
0.0
 40
0.4885766536256119
 40
1.0
 40
1.0
 40
1.0
 40
1.0
 10
-20.24071429004553
 20
-2.164635699458803
 30
0.0
 10
-20.16815841480245
 20
-2.246143804194995
 30
0.0
 10
-20.01965382559489
 20
-2.412971474185647
 30
0.0
 10
-19.8712083832926
 20
-2.579849956713823
 30
0.0
 10
-19.79528991843634
 20
-2.665195508686263
 30
0.0
  0
SPLINE
  5
6BB
330
1F
100
AcDbEntity
  8
SK1
  6
Continuous
370
    15
100
AcDbSpline
210
0.0
220
0.0
230
1.0
 70
     8
 71
     3
 72
     9
 73
     5
 74
     0
 42
0.0000000001
 43
0.0000000001
 40
0.0
 40
0.0
 40
0.0
 40
0.0
 40
0.4883972661514655
 40
1.0
 40
1.0
 40
1.0
 40
1.0
 10
-19.33357134143365
 20
-2.16463526680985
 30
0.0
 10
-19.26106131841023
 20
-2.24609096913974
 30
0.0
 10
-19.11259606676211
 20
-2.412872620011279
 30
0.0
 10
-18.96419194303756
 20
-2.579706323938128
 30
0.0
 10
-18.88826798762568
 20
-2.66505890296518
 30
0.0
  0
LINE
  5
6BC
330
1F
100
AcDbEntity
  8
1
370
    18
100
AcDbLine
 10
0.0
 20
5.0
 30
0.0
 11
4.477466865799995
 21
5.0
 31
0.0
  0
LINE
  5
6BD
330
1F
100
AcDbEntity
  8
SK1
370
    18
100
AcDbLine
 10
0.0
 20
5.0
 30
0.0
 11
0.0
 21
-5.0
 31
0.0
  0
LINE
  5
6BE
330
1F
100
AcDbEntity
  8
1
370
    18
100
AcDbLine
 10
0.0
 20
-5.0
 30
0.0
 11
2.819599608399997
 21
-5.0
 31
0.0
  0
ENDSEC
  0
SECTION
  2
OBJECTS
  0
DICTIONARY
  5
183
330
0
100
AcDbDictionary
281
     1
  3
ACAD_COLOR
350
195
  3
ACAD_GROUP
350
184
  3
ACAD_LAYOUT
350
196
  3
ACAD_MATERIAL
350
194
  3
ACAD_MLINESTYLE
350
185
  3
ACAD_PLOTSETTINGS
350
197
  3
ACAD_PLOTSTYLENAME
350
192
  0
DICTIONARY
  5
195
102
{ACAD_REACTORS
330
183
102
}
330
183
100
AcDbDictionary
281
     1
  0
DICTIONARY
  5
184
330
183
100
AcDbDictionary
281
     1
  0
DICTIONARY
  5
196
102
{ACAD_REACTORS
330
183
102
}
330
183
100
AcDbDictionary
281
     1
  3
Layout1
350
199
  3
Model
350
198
  0
DICTIONARY
  5
194
102
{ACAD_REACTORS
330
183
102
}
330
183
100
AcDbDictionary
281
     1
  0
DICTIONARY
  5
185
330
183
100
AcDbDictionary
281
     1
  3
Standard
350
18
  0
DICTIONARY
  5
197
102
{ACAD_REACTORS
330
183
102
}
330
183
100
AcDbDictionary
281
     1
  0
ACDBDICTIONARYWDFLT
  5
192
102
{ACAD_REACTORS
330
183
102
}
330
183
100
AcDbDictionary
281
     1
  3
Normal
350
193
100
AcDbDictionaryWithDefault
340
193
  0
LAYOUT
  5
199
102
{ACAD_REACTORS
330
196
102
}
330
196
100
AcDbPlotSettings
  1

  2
Chappel Main Office
  4

  6

 40
0.0
 41
0.0
 42
0.0
 43
0.0
 44
0.0
 45
0.0
 46
0.0
 47
0.0
 48
0.0
 49
0.0
140
0.0
141
0.0
142
1.0
143
1.0
 70
   688
 72
     0
 73
     0
 74
     5
  7

 75
    16
147
1.0
 76
     0
 77
     2
 78
   300
148
0.0
149
0.0
100
AcDbLayout
  1
Layout1
 70
     1
 71
     1
 10
0.0
 20
0.0
 11
12.0
 21
9.0
 12
0.0
 22
0.0
 32
0.0
 14
1.000000000000000E+20
 24
1.000000000000000E+20
 34
1.000000000000000E+20
 15
-1.000000000000000E+20
 25
-1.000000000000000E+20
 35
-1.000000000000000E+20
146
0.0
 13
0.0
 23
0.0
 33
0.0
 16
1.0
 26
0.0
 36
0.0
 17
0.0
 27
1.0
 37
0.0
 76
     0
330
1B
  0
LAYOUT
  5
198
102
{ACAD_REACTORS
330
196
102
}
330
196
100
AcDbPlotSettings
  1

  2
Chappel Main Office
  4

  6

 40
0.0
 41
0.0
 42
0.0
 43
0.0
 44
0.0
 45
0.0
 46
0.0
 47
0.0
 48
0.0
 49
0.0
140
0.0
141
0.0
142
1.0
143
1.0
 70
  1712
 72
     0
 73
     0
 74
     0
  7

 75
     0
147
1.0
 76
     0
 77
     2
 78
   300
148
0.0
149
0.0
100
AcDbLayout
  1
Model
 70
     1
 71
     0
 10
0.0
 20
0.0
 11
12.0
 21
9.0
 12
0.0
 22
0.0
 32
0.0
 14
0.0
 24
0.0
 34
0.0
 15
0.0
 25
0.0
 35
0.0
146
0.0
 13
0.0
 23
0.0
 33
0.0
 16
1.0
 26
0.0
 36
0.0
 17
0.0
 27
1.0
 37
0.0
 76
     0
330
1F
  0
MLINESTYLE
  5
18
330
185
100
AcDbMlineStyle
  2
STANDARD
 70
     0
  3

 62
   256
 51
90.0
 52
90.0
 71
     2
 49
0.5
 62
   256
  6
BYLAYER
 49
-0.5
 62
   256
  6
BYLAYER
  0
ACDBPLACEHOLDER
  5
193
102
{ACAD_REACTORS
330
192
102
}
330
192
  0
ENDSEC
  0
EOF
