  0
SECTION
  2
HEADER
  9
$ACADVER
  1
AC1018
  9
$ACADMAINTVER
 70
     0
  9
$DWGCODEPAGE
  3
ANSI_1252
  9
$INSBASE
 10
0.0
 20
0.0
 30
0.0
  9
$EXTMIN
 10
-40.22086270548668
 20
-23.6515
 30
0.0
  9
$EXTMAX
 10
97.7698271159025
 20
24.39802994486349
 30
0.0
  9
$LIMMIN
 10
0.0
 20
0.0
  9
$LIMMAX
 10
12.0
 20
9.0
  9
$ORTHOMODE
 70
     0
  9
$REGENMODE
 70
     1
  9
$FILLMODE
 70
     1
  9
$QTEXTMODE
 70
     0
  9
$MIRRTEXT
 70
     0
  9
$LTSCALE
 40
1.0
  9
$ATTMODE
 70
     1
  9
$TEXTSIZE
 40
0.0
  9
$TRACEWID
 40
0.05
  9
$TEXTSTYLE
  7
Standard
  9
$CLAYER
  8
1
  9
$CELTYPE
  6
ByLayer
  9
$CECOLOR
 62
   256
  9
$CELTSCALE
 40
1.0
  9
$DISPSILH
 70
     0
  9
$DIMSCALE
 40
1.0
  9
$DIMASZ
 40
1.75
  9
$DIMEXO
 40
0.625
  9
$DIMDLI
 40
3.75
  9
$DIMRND
 40
0.0
  9
$DIMDLE
 40
0.0
  9
$DIMEXE
 40
1.25
  9
$DIMTP
 40
0.0
  9
$DIMTM
 40
0.0
  9
$DIMTXT
 40
2.5
  9
$DIMCEN
 40
2.5
  9
$DIMTSZ
 40
0.0
  9
$DIMTOL
 70
     0
  9
$DIMLIM
 70
     0
  9
$DIMTIH
 70
     0
  9
$DIMTOH
 70
     0
  9
$DIMSE1
 70
     0
  9
$DIMSE2
 70
     0
  9
$DIMTAD
 70
     1
  9
$DIMZIN
 70
     8
  9
$DIMBLK
  1

  9
$DIMASO
 70
     1
  9
$DIMSHO
 70
     1
  9
$DIMPOST
  1
in
  9
$DIMAPOST
  1

  9
$DIMALT
 70
     0
  9
$DIMALTD
 70
     3
  9
$DIMALTF
 40
0.0393700787
  9
$DIMLFAC
 40
0.0393700787401575
  9
$DIMTOFL
 70
     1
  9
$DIMTVP
 40
0.0
  9
$DIMTIX
 70
     0
  9
$DIMSOXD
 70
     0
  9
$DIMSAH
 70
     0
  9
$DIMBLK1
  1

  9
$DIMBLK2
  1

  9
$DIMSTYLE
  2
Copy of ISO-25
  9
$DIMCLRD
 70
     0
  9
$DIMCLRE
 70
     0
  9
$DIMCLRT
 70
     0
  9
$DIMTFAC
 40
1.0
  9
$DIMGAP
 40
0.625
  9
$DIMJUST
 70
     0
  9
$DIMSD1
 70
     0
  9
$DIMSD2
 70
     0
  9
$DIMTOLJ
 70
     0
  9
$DIMTZIN
 70
     8
  9
$DIMALTZ
 70
     0
  9
$DIMALTTZ
 70
     0
  9
$DIMUPT
 70
     0
  9
$DIMDEC
 70
     3
  9
$DIMTDEC
 70
     3
  9
$DIMALTU
 70
     2
  9
$DIMALTTD
 70
     3
  9
$DIMTXSTY
  7
Standard
  9
$DIMAUNIT
 70
     2
  9
$DIMADEC
 70
     3
  9
$DIMALTRND
 40
0.0
  9
$DIMAZIN
 70
     0
  9
$DIMDSEP
 70
    46
  9
$DIMATFIT
 70
     3
  9
$DIMFRAC
 70
     0
  9
$DIMLDRBLK
  1

  9
$DIMLUNIT
 70
     2
  9
$DIMLWD
 70
    -2
  9
$DIMLWE
 70
    -2
  9
$DIMTMOVE
 70
     0
  9
$LUNITS
 70
     2
  9
$LUPREC
 70
     4
  9
$SKETCHINC
 40
0.1
  9
$FILLETRAD
 40
0.0
  9
$AUNITS
 70
     0
  9
$AUPREC
 70
     0
  9
$MENU
  1
.
  9
$ELEVATION
 40
0.0
  9
$PELEVATION
 40
0.0
  9
$THICKNESS
 40
0.0
  9
$LIMCHECK
 70
     0
  9
$CHAMFERA
 40
0.0
  9
$CHAMFERB
 40
0.0
  9
$CHAMFERC
 40
0.0
  9
$CHAMFERD
 40
0.0
  9
$SKPOLY
 70
     0
  9
$TDCREATE
 40
2457169.562357651
  9
$TDUCREATE
 40
2457169.812357651
  9
$TDUPDATE
 40
2457197.668546655
  9
$TDUUPDATE
 40
2457197.918546655
  9
$TDINDWG
 40
0.0731669213
  9
$TDUSRTIMER
 40
0.0731665278
  9
$USRTIMER
 70
     1
  9
$ANGBASE
 50
0.0
  9
$ANGDIR
 70
     0
  9
$PDMODE
 70
     0
  9
$PDSIZE
 40
0.0
  9
$PLINEWID
 40
0.0
  9
$SPLFRAME
 70
     0
  9
$SPLINETYPE
 70
     6
  9
$SPLINESEGS
 70
     8
  9
$HANDSEED
  5
821
  9
$SURFTAB1
 70
     6
  9
$SURFTAB2
 70
     6
  9
$SURFTYPE
 70
     6
  9
$SURFU
 70
     6
  9
$SURFV
 70
     6
  9
$UCSBASE
  2

  9
$UCSNAME
  2

  9
$UCSORG
 10
0.0
 20
0.0
 30
0.0
  9
$UCSXDIR
 10
1.0
 20
0.0
 30
0.0
  9
$UCSYDIR
 10
0.0
 20
1.0
 30
0.0
  9
$UCSORTHOREF
  2

  9
$UCSORTHOVIEW
 70
     0
  9
$UCSORGTOP
 10
0.0
 20
0.0
 30
0.0
  9
$UCSORGBOTTOM
 10
0.0
 20
0.0
 30
0.0
  9
$UCSORGLEFT
 10
0.0
 20
0.0
 30
0.0
  9
$UCSORGRIGHT
 10
0.0
 20
0.0
 30
0.0
  9
$UCSORGFRONT
 10
0.0
 20
0.0
 30
0.0
  9
$UCSORGBACK
 10
0.0
 20
0.0
 30
0.0
  9
$PUCSBASE
  2

  9
$PUCSNAME
  2

  9
$PUCSORG
 10
0.0
 20
0.0
 30
0.0
  9
$PUCSXDIR
 10
1.0
 20
0.0
 30
0.0
  9
$PUCSYDIR
 10
0.0
 20
1.0
 30
0.0
  9
$PUCSORTHOREF
  2

  9
$PUCSORTHOVIEW
 70
     0
  9
$PUCSORGTOP
 10
0.0
 20
0.0
 30
0.0
  9
$PUCSORGBOTTOM
 10
0.0
 20
0.0
 30
0.0
  9
$PUCSORGLEFT
 10
0.0
 20
0.0
 30
0.0
  9
$PUCSORGRIGHT
 10
0.0
 20
0.0
 30
0.0
  9
$PUCSORGFRONT
 10
0.0
 20
0.0
 30
0.0
  9
$PUCSORGBACK
 10
0.0
 20
0.0
 30
0.0
  9
$USERI1
 70
     0
  9
$USERI2
 70
     0
  9
$USERI3
 70
     0
  9
$USERI4
 70
     0
  9
$USERI5
 70
     0
  9
$USERR1
 40
0.0
  9
$USERR2
 40
0.0
  9
$USERR3
 40
0.0
  9
$USERR4
 40
0.0
  9
$USERR5
 40
0.0
  9
$WORLDVIEW
 70
     1
  9
$SHADEDGE
 70
     3
  9
$SHADEDIF
 70
    70
  9
$TILEMODE
 70
     1
  9
$MAXACTVP
 70
    64
  9
$PINSBASE
 10
0.0
 20
0.0
 30
0.0
  9
$PLIMCHECK
 70
     0
  9
$PEXTMIN
 10
1.000000000000000E+20
 20
1.000000000000000E+20
 30
1.000000000000000E+20
  9
$PEXTMAX
 10
-1.000000000000000E+20
 20
-1.000000000000000E+20
 30
-1.000000000000000E+20
  9
$PLIMMIN
 10
0.0
 20
0.0
  9
$PLIMMAX
 10
12.0
 20
9.0
  9
$UNITMODE
 70
     0
  9
$VISRETAIN
 70
     1
  9
$PLINEGEN
 70
     0
  9
$PSLTSCALE
 70
     1
  9
$TREEDEPTH
 70
  3020
  9
$CMLSTYLE
  2
Standard
  9
$CMLJUST
 70
     0
  9
$CMLSCALE
 40
1.0
  9
$PROXYGRAPHICS
 70
     1
  9
$MEASUREMENT
 70
     0
  9
$CELWEIGHT
370
    18
  9
$ENDCAPS
280
     0
  9
$JOINSTYLE
280
     0
  9
$LWDISPLAY
290
     1
  9
$INSUNITS
 70
     1
  9
$HYPERLINKBASE
  1

  9
$STYLESHEET
  1

  9
$XEDIT
290
     1
  9
$CEPSNTYPE
380
     0
  9
$PSTYLEMODE
290
     1
  9
$FINGERPRINTGUID
  2
{1A3370DD-E015-4359-90D3-D666A526498D}
  9
$VERSIONGUID
  2
{55041F7D-7FC4-4D4C-8695-A7F511A06313}
  9
$EXTNAMES
290
     1
  9
$PSVPSCALE
 40
0.0
  9
$OLESTARTUP
290
     0
  9
$SORTENTS
280
   127
  9
$INDEXCTL
280
     0
  9
$HIDETEXT
280
     0
  9
$XCLIPFRAME
290
     0
  9
$HALOGAP
280
     0
  9
$OBSCOLOR
 70
   257
  9
$OBSLTYPE
280
     0
  9
$INTERSECTIONDISPLAY
280
     0
  9
$INTERSECTIONCOLOR
 70
   257
  9
$DIMASSOC
280
     1
  9
$PROJECTNAME
  1

  0
ENDSEC
  0
SECTION
  2
CLASSES
  0
CLASS
  1
RASTERVARIABLES
  2
AcDbRasterVariables
  3
ISM
 90
        0
 91
        0
280
     0
281
     0
  0
CLASS
  1
ACDBDICTIONARYWDFLT
  2
AcDbDictionaryWithDefault
  3
ObjectDBX Classes
 90
        0
 91
        1
280
     0
281
     0
  0
ENDSEC
  0
SECTION
  2
TABLES
  0
TABLE
  2
VPORT
  5
186
330
0
100
AcDbSymbolTable
 70
     6
  0
VPORT
  5
820
330
186
100
AcDbSymbolTableRecord
100
AcDbViewportTableRecord
  2
*Active
 70
     0
 10
0.0
 20
0.0
 11
1.0
 21
1.0
 12
0.6543481034345789
 22
5.34982237997714
 13
0.0
 23
0.0
 14
0.5
 24
0.5
 15
10.0
 25
10.0
 16
0.0
 26
0.0
 36
1.0
 17
0.0
 27
0.0
 37
0.0
 40
71.46489833791233
 41
2.202020202020201
 42
50.0
 43
0.0
 44
0.0
 50
0.0
 51
0.0
 71
     0
 72
   100
 73
     1
 74
     1
 75
     0
 76
     0
 77
     0
 78
     0
281
     0
 65
     1
110
0.0
120
0.0
130
0.0
111
1.0
121
0.0
131
0.0
112
0.0
122
1.0
132
0.0
 79
     0
146
0.0
  0
ENDTAB
  0
TABLE
  2
LTYPE
  5
187
330
0
100
AcDbSymbolTable
 70
     3
  0
LTYPE
  5
14
330
187
100
AcDbSymbolTableRecord
100
AcDbLinetypeTableRecord
  2
ByBlock
 70
     0
  3

 72
    65
 73
     0
 40
0.0
  0
LTYPE
  5
15
330
187
100
AcDbSymbolTableRecord
100
AcDbLinetypeTableRecord
  2
ByLayer
 70
     0
  3

 72
    65
 73
     0
 40
0.0
  0
LTYPE
  5
16
330
187
100
AcDbSymbolTableRecord
100
AcDbLinetypeTableRecord
  2
CONTINUOUS
 70
     0
  3
Solid line
 72
    65
 73
     0
 40
0.0
  0
LTYPE
  5
6A
330
187
100
AcDbSymbolTableRecord
100
AcDbLinetypeTableRecord
  2
CENTER
 70
     0
  3
____ _ ____ _ ____ _ ____
 72
    65
 73
     4
 40
47.5
 49
22.0
 74
     0
 49
-8.5
 74
     0
 49
8.5
 74
     0
 49
-8.5
 74
     0
  0
LTYPE
  5
6B
330
187
100
AcDbSymbolTableRecord
100
AcDbLinetypeTableRecord
  2
DASHED
 70
     0
  3
__ __ __ __ __ __ __ __ __
 72
    65
 73
     2
 40
25.72
 49
12.86
 74
     0
 49
-12.86
 74
     0
  0
ENDTAB
  0
TABLE
  2
LAYER
  5
188
330
0
100
AcDbSymbolTable
 70
    11
  0
LAYER
  5
10
330
188
100
AcDbSymbolTableRecord
100
AcDbLayerTableRecord
  2
0
 70
     0
 62
     7
  6
CONTINUOUS
370
    -3
390
193
  0
LAYER
  5
6D
330
188
100
AcDbSymbolTableRecord
100
AcDbLayerTableRecord
  2
81
 70
     0
 62
     3
  6
CONTINUOUS
370
    -3
390
193
  0
LAYER
  5
6F
330
188
100
AcDbSymbolTableRecord
100
AcDbLayerTableRecord
  2
80
 70
     0
 62
     6
  6
CONTINUOUS
370
    -3
390
193
  0
LAYER
  5
74
330
188
100
AcDbSymbolTableRecord
100
AcDbLayerTableRecord
  2
2
 70
     0
 62
     7
  6
CONTINUOUS
370
    -3
390
193
  0
LAYER
  5
78
330
188
100
AcDbSymbolTableRecord
100
AcDbLayerTableRecord
  2
1
 70
     0
 62
     4
  6
CONTINUOUS
370
    -3
390
193
  0
LAYER
  5
88
330
188
100
AcDbSymbolTableRecord
100
AcDbLayerTableRecord
  2
4
 70
     0
 62
     2
  6
CENTER
370
    -3
390
193
  0
LAYER
  5
172
330
188
100
AcDbSymbolTableRecord
100
AcDbLayerTableRecord
  2
SK2
 70
     0
 62
     7
  6
CONTINUOUS
370
    -3
390
193
  0
LAYER
  5
173
330
188
100
AcDbSymbolTableRecord
100
AcDbLayerTableRecord
  2
SK1
 70
     0
 62
     4
  6
CONTINUOUS
370
    -3
390
193
  0
LAYER
  5
174
330
188
100
AcDbSymbolTableRecord
100
AcDbLayerTableRecord
  2
SK4
 70
     0
 62
     2
  6
CENTER
370
    -3
390
193
  0
LAYER
  5
175
330
188
100
AcDbSymbolTableRecord
100
AcDbLayerTableRecord
  2
SK6
 70
     0
 62
     5
  6
CONTINUOUS
370
    -3
390
193
  0
LAYER
  5
244
330
188
100
AcDbSymbolTableRecord
100
AcDbLayerTableRecord
  2
Defpoints
 70
     0
 62
     7
  6
CONTINUOUS
290
     0
370
    -3
390
193
  0
ENDTAB
  0
TABLE
  2
STYLE
  5
189
330
0
100
AcDbSymbolTable
 70
     3
  0
STYLE
  5
11
330
189
100
AcDbSymbolTableRecord
100
AcDbTextStyleTableRecord
  2
Standard
 70
     0
 40
0.0
 41
1.0
 50
0.0
 71
     0
 42
0.0
  3
txt
  4

  0
STYLE
  5
CE
330
189
100
AcDbSymbolTableRecord
100
AcDbTextStyleTableRecord
  2
iso_b_vert
 70
     0
 40
0.0
 41
1.0
 50
0.0
 71
     0
 42
0.0
  3
simplex.shx
  4

  0
STYLE
  5
CF
330
189
100
AcDbSymbolTableRecord
100
AcDbTextStyleTableRecord
  2
DWGDirectTextStyle
 70
     0
 40
0.0
 41
1.0
 50
0.0
 71
     0
 42
0.0
  3
simplex
  4

  0
ENDTAB
  0
TABLE
  2
VIEW
  5
18B
330
0
100
AcDbSymbolTable
 70
     0
  0
ENDTAB
  0
TABLE
  2
UCS
  5
18C
330
0
100
AcDbSymbolTable
 70
     0
  0
ENDTAB
  0
TABLE
  2
APPID
  5
18D
330
0
100
AcDbSymbolTable
 70
     1
  0
APPID
  5
12
330
18D
100
AcDbSymbolTableRecord
100
AcDbRegAppTableRecord
  2
ACAD
 70
     0
  0
ENDTAB
  0
TABLE
  2
DIMSTYLE
  5
18A
330
0
100
AcDbSymbolTable
 70
     3
100
AcDbDimStyleTable
 71
     3
340
1A1
340
27
340
35F
  0
DIMSTYLE
105
27
330
18A
100
AcDbSymbolTableRecord
100
AcDbDimStyleTableRecord
  2
Standard
 70
     0
  3
in
 73
     0
 74
     0
 77
     1
144
0.0393700787401575
271
     2
272
     2
278
    52
340
11
  0
DIMSTYLE
105
1A1
102
{ACAD_REACTORS
330
538
330
47F
330
4B4
102
}
330
18A
100
AcDbSymbolTableRecord
100
AcDbDimStyleTableRecord
  2
ISO-25
 70
     0
 41
2.5
 42
0.625
 43
3.75
 44
1.25
 73
     0
 74
     0
 77
     1
 78
     8
140
2.5
141
2.5
143
0.0393700787
147
0.625
171
     3
172
     1
271
     2
272
     2
274
     3
278
    44
283
     0
284
     8
340
11
  0
DIMSTYLE
105
35F
330
18A
100
AcDbSymbolTableRecord
100
AcDbDimStyleTableRecord
  2
Copy of ISO-25
 70
     0
  3
in
 41
1.75
 42
0.625
 43
3.75
 44
1.25
 73
     0
 74
     0
 77
     1
 78
     8
140
2.5
141
2.5
143
0.0393700787
144
0.0393700787401575
147
0.625
171
     3
172
     1
179
     3
271
     3
272
     3
274
     3
275
     2
283
     0
284
     8
340
11
  0
ENDTAB
  0
TABLE
  2
BLOCK_RECORD
  5
18E
330
0
100
AcDbSymbolTable
 70
    17
  0
BLOCK_RECORD
  5
1F
330
18E
100
AcDbSymbolTableRecord
100
AcDbBlockTableRecord
  2
*Model_Space
340
198
  0
BLOCK_RECORD
  5
1B
330
18E
100
AcDbSymbolTableRecord
100
AcDbBlockTableRecord
  2
*Paper_Space
340
199
  0
BLOCK_RECORD
  5
23
330
18E
100
AcDbSymbolTableRecord
100
AcDbBlockTableRecord
  2
*Paper_Space0
340
0
  0
BLOCK_RECORD
  5
D1
330
18E
100
AcDbSymbolTableRecord
100
AcDbBlockTableRecord
  2
DimnDraft3D1
340
0
  0
BLOCK_RECORD
  5
DB
330
18E
100
AcDbSymbolTableRecord
100
AcDbBlockTableRecord
  2
DimnDraft3D2
340
0
  0
BLOCK_RECORD
  5
E5
330
18E
100
AcDbSymbolTableRecord
100
AcDbBlockTableRecord
  2
DimnDraft3D3
340
0
  0
BLOCK_RECORD
  5
EF
330
18E
100
AcDbSymbolTableRecord
100
AcDbBlockTableRecord
  2
DimnDraft3D4
340
0
  0
BLOCK_RECORD
  5
F9
330
18E
100
AcDbSymbolTableRecord
100
AcDbBlockTableRecord
  2
DimnDraft3D5
340
0
  0
BLOCK_RECORD
  5
103
330
18E
100
AcDbSymbolTableRecord
100
AcDbBlockTableRecord
  2
DimnDraft3D6
340
0
  0
BLOCK_RECORD
  5
10E
330
18E
100
AcDbSymbolTableRecord
100
AcDbBlockTableRecord
  2
DimnDraft3D7
340
0
  0
BLOCK_RECORD
  5
245
330
18E
100
AcDbSymbolTableRecord
100
AcDbBlockTableRecord
  2
*D8
340
0
  0
BLOCK_RECORD
  5
253
330
18E
100
AcDbSymbolTableRecord
100
AcDbBlockTableRecord
  2
*D9
340
0
  0
BLOCK_RECORD
  5
261
330
18E
100
AcDbSymbolTableRecord
100
AcDbBlockTableRecord
  2
*D10
340
0
  0
BLOCK_RECORD
  5
361
330
18E
100
AcDbSymbolTableRecord
100
AcDbBlockTableRecord
  2
*D11
340
0
  0
BLOCK_RECORD
  5
480
330
18E
100
AcDbSymbolTableRecord
100
AcDbBlockTableRecord
  2
*D12
340
0
  0
BLOCK_RECORD
  5
4B5
330
18E
100
AcDbSymbolTableRecord
100
AcDbBlockTableRecord
  2
*D13
340
0
  0
BLOCK_RECORD
  5
523
330
18E
100
AcDbSymbolTableRecord
100
AcDbBlockTableRecord
  2
*D14
340
0
  0
BLOCK_RECORD
  5
539
330
18E
100
AcDbSymbolTableRecord
100
AcDbBlockTableRecord
  2
*D15
340
0
  0
ENDTAB
  0
ENDSEC
  0
SECTION
  2
BLOCKS
  0
BLOCK
  5
20
330
1F
100
AcDbEntity
  8
0
100
AcDbBlockBegin
  2
*Model_Space
 70
     0
 10
0.0
 20
0.0
 30
0.0
  3
*Model_Space
  1

  0
ENDBLK
  5
21
330
1F
100
AcDbEntity
  8
0
100
AcDbBlockEnd
  0
BLOCK
  5
1C
330
1B
100
AcDbEntity
 67
     1
  8
0
100
AcDbBlockBegin
  2
*Paper_Space
 70
     0
 10
0.0
 20
0.0
 30
0.0
  3
*Paper_Space
  1

  0
ENDBLK
  5
1D
330
1B
100
AcDbEntity
 67
     1
  8
0
100
AcDbBlockEnd
  0
BLOCK
  5
24
330
23
100
AcDbEntity
  8
0
100
AcDbBlockBegin
  2
*Paper_Space0
 70
     0
 10
0.0
 20
0.0
 30
0.0
  3
*Paper_Space0
  1

  0
ENDBLK
  5
25
330
23
100
AcDbEntity
  8
0
100
AcDbBlockEnd
  0
BLOCK
  5
D8
330
D1
100
AcDbEntity
  8
0
100
AcDbBlockBegin
  2
DimnDraft3D1
 70
     0
 10
0.0
 20
0.0
 30
0.0
  3
DimnDraft3D1
  1

  0
LINE
  5
40D
330
D1
100
AcDbEntity
  8
SK2
 62
    35
370
    -2
100
AcDbLine
 10
-0.0000000000000001
 20
-3.174999999999998
 30
0.0
 11
-0.0000000000000007
 21
-13.713398
 31
0.0
  0
LINE
  5
40E
330
D1
100
AcDbEntity
  8
SK2
 62
    35
370
    -2
100
AcDbLine
 10
25.5709
 20
-4.674999999999998
 30
0.0
 11
25.5709
 21
-13.713398
 31
0.0
  0
LINE
  5
40F
330
D1
100
AcDbEntity
  8
SK2
 62
    35
370
    -2
100
AcDbLine
 10
3.499999999999998
 20
-11.713398
 30
0.0
 11
22.0709
 21
-11.713398
 31
0.0
  0
SOLID
  5
410
330
D1
100
AcDbEntity
  8
SK2
 62
    35
370
    18
100
AcDbTrace
 10
3.499999999999998
 20
-11.13006466666666
 30
0.0
 11
3.499999999999998
 21
-12.29673133333333
 31
0.0
 12
-0.0000000000000006
 22
-11.713398
 32
0.0
 13
-0.0000000000000006
 23
-11.713398
 33
0.0
  0
SOLID
  5
411
330
D1
100
AcDbEntity
  8
SK2
 62
    35
370
    18
100
AcDbTrace
 10
22.0709
 20
-11.13006466666666
 30
0.0
 11
22.0709
 21
-12.29673133333333
 31
0.0
 12
25.5709
 22
-11.713398
 32
0.0
 13
25.5709
 23
-11.713398
 33
0.0
  0
MTEXT
  5
412
330
D1
100
AcDbEntity
  8
SK2
 62
    35
370
    13
100
AcDbMText
 10
12.78545
 20
-8.213397999999997
 30
0.0
 40
3.5
 41
0.0
 71
     5
 72
     1
  1
\A1;1401in
  7
iso_b_vert
 73
     1
 44
1.0
  0
POINT
  5
413
330
D1
100
AcDbEntity
  8
Defpoints
 62
     0
370
    18
100
AcDbPoint
 10
0.0
 20
-1.587499999999999
 30
0.0
  0
POINT
  5
414
330
D1
100
AcDbEntity
  8
Defpoints
 62
     0
370
    18
100
AcDbPoint
 10
25.5709
 20
-3.087499999999999
 30
0.0
  0
POINT
  5
415
330
D1
100
AcDbEntity
  8
Defpoints
 62
     0
370
    18
100
AcDbPoint
 10
25.5709
 20
-11.713398
 30
0.0
  0
ENDBLK
  5
D9
330
D1
100
AcDbEntity
  8
0
100
AcDbBlockEnd
  0
BLOCK
  5
E2
330
DB
100
AcDbEntity
  8
0
100
AcDbBlockBegin
  2
DimnDraft3D2
 70
     0
 10
0.0
 20
0.0
 30
0.0
  3
DimnDraft3D2
  1

  0
LINE
  5
416
330
DB
100
AcDbEntity
  8
SK2
 62
    35
370
    -2
100
AcDbLine
 10
-36.0
 20
-6.174999999999998
 30
0.0
 11
-36.0
 21
-33.69298499999999
 31
0.0
  0
LINE
  5
417
330
DB
100
AcDbEntity
  8
SK2
 62
    35
370
    -2
100
AcDbLine
 10
26.0
 20
-3.174999999999998
 30
0.0
 11
26.0
 21
-33.692985
 31
0.0
  0
LINE
  5
418
330
DB
100
AcDbEntity
  8
SK2
 62
    35
370
    -2
100
AcDbLine
 10
-32.5
 20
-31.692985
 30
0.0
 11
22.5
 21
-31.692985
 31
0.0
  0
SOLID
  5
419
330
DB
100
AcDbEntity
  8
SK2
 62
    35
370
    18
100
AcDbTrace
 10
-32.5
 20
-31.10965166666666
 30
0.0
 11
-32.5
 21
-32.27631833333333
 31
0.0
 12
-36.0
 22
-31.692985
 32
0.0
 13
-36.0
 23
-31.692985
 33
0.0
  0
SOLID
  5
41A
330
DB
100
AcDbEntity
  8
SK2
 62
    35
370
    18
100
AcDbTrace
 10
22.5
 20
-31.10965166666666
 30
0.0
 11
22.5
 21
-32.27631833333333
 31
0.0
 12
26.0
 22
-31.692985
 32
0.0
 13
26.0
 23
-31.692985
 33
0.0
  0
MTEXT
  5
41B
330
DB
100
AcDbEntity
  8
SK2
 62
    35
370
    13
100
AcDbMText
 10
-5.0
 20
-28.192985
 30
0.0
 40
3.5
 41
0.0
 71
     5
 72
     1
  1
\A1;2444in
  7
iso_b_vert
 73
     1
 44
1.0
  0
POINT
  5
41C
330
DB
100
AcDbEntity
  8
Defpoints
 62
     0
370
    18
100
AcDbPoint
 10
-36.0
 20
-4.5875
 30
0.0
  0
POINT
  5
41D
330
DB
100
AcDbEntity
  8
Defpoints
 62
     0
370
    18
100
AcDbPoint
 10
26.0
 20
-1.587499999999999
 30
0.0
  0
POINT
  5
41E
330
DB
100
AcDbEntity
  8
Defpoints
 62
     0
370
    18
100
AcDbPoint
 10
26.0
 20
-31.692985
 30
0.0
  0
ENDBLK
  5
E3
330
DB
100
AcDbEntity
  8
0
100
AcDbBlockEnd
  0
BLOCK
  5
EC
330
E5
100
AcDbEntity
  8
0
100
AcDbBlockBegin
  2
DimnDraft3D3
 70
     0
 10
0.0
 20
0.0
 30
0.0
  3
DimnDraft3D3
  1

  0
LINE
  5
41F
330
E5
100
AcDbEntity
  8
SK2
 62
    35
370
    -2
100
AcDbLine
 10
16.58
 20
4.674999999999998
 30
0.0
 11
16.58
 21
15.109119
 31
0.0
  0
LINE
  5
420
330
E5
100
AcDbEntity
  8
SK2
 62
    35
370
    -2
100
AcDbLine
 10
26.0
 20
3.174999999999998
 30
0.0
 11
26.0
 21
15.109119
 31
0.0
  0
LINE
  5
421
330
E5
100
AcDbEntity
  8
SK2
 62
    35
370
    -2
100
AcDbLine
 10
13.08
 20
13.109119
 30
0.0
 11
9.579999999999998
 21
13.109119
 31
0.0
  0
LINE
  5
422
330
E5
100
AcDbEntity
  8
SK2
 62
    35
370
    -2
100
AcDbLine
 10
29.5
 20
13.109119
 30
0.0
 11
53.0
 21
13.109119
 31
0.0
  0
LINE
  5
423
330
E5
100
AcDbEntity
  8
SK2
 62
    35
370
    -2
100
AcDbLine
 10
16.58
 20
13.109119
 30
0.0
 11
26.0
 21
13.109119
 31
0.0
  0
SOLID
  5
424
330
E5
100
AcDbEntity
  8
SK2
 62
    35
370
    18
100
AcDbTrace
 10
13.08
 20
13.69245233333333
 30
0.0
 11
13.08
 21
12.52578566666666
 31
0.0
 12
16.58
 22
13.109119
 32
0.0
 13
16.58
 23
13.109119
 33
0.0
  0
SOLID
  5
425
330
E5
100
AcDbEntity
  8
SK2
 62
    35
370
    18
100
AcDbTrace
 10
29.5
 20
13.69245233333333
 30
0.0
 11
29.5
 21
12.52578566666666
 31
0.0
 12
26.0
 22
13.109119
 32
0.0
 13
26.0
 23
13.109119
 33
0.0
  0
MTEXT
  5
426
330
E5
100
AcDbEntity
  8
SK2
 62
    35
370
    13
100
AcDbMText
 10
43.0
 20
16.609119
 30
0.0
 40
3.5
 41
0.0
 71
     5
 72
     1
  1
\A1;0437in
  7
iso_b_vert
 73
     1
 44
1.0
  0
POINT
  5
427
330
E5
100
AcDbEntity
  8
Defpoints
 62
     0
370
    18
100
AcDbPoint
 10
16.58
 20
3.087499999999999
 30
0.0
  0
POINT
  5
428
330
E5
100
AcDbEntity
  8
Defpoints
 62
     0
370
    18
100
AcDbPoint
 10
26.0
 20
1.587499999999999
 30
0.0
  0
POINT
  5
429
330
E5
100
AcDbEntity
  8
Defpoints
 62
     0
370
    18
100
AcDbPoint
 10
26.0
 20
13.109119
 30
0.0
  0
ENDBLK
  5
ED
330
E5
100
AcDbEntity
  8
0
100
AcDbBlockEnd
  0
BLOCK
  5
F6
330
EF
100
AcDbEntity
  8
0
100
AcDbBlockBegin
  2
DimnDraft3D4
 70
     0
 10
0.0
 20
0.0
 30
0.0
  3
DimnDraft3D4
  1

  0
LINE
  5
42A
330
EF
100
AcDbEntity
  8
SK2
 62
    35
370
    -2
100
AcDbLine
 10
26.0
 20
-3.174999999999998
 30
0.0
 11
26.0
 21
-16.302503
 31
0.0
  0
LINE
  5
42B
330
EF
100
AcDbEntity
  8
SK2
 62
    35
370
    -2
100
AcDbLine
 10
25.5709
 20
-4.674999999999998
 30
0.0
 11
25.5709
 21
-16.302503
 31
0.0
  0
LINE
  5
42C
330
EF
100
AcDbEntity
  8
SK2
 62
    35
370
    -2
100
AcDbLine
 10
29.5
 20
-14.302503
 30
0.0
 11
33.0
 21
-14.302503
 31
0.0
  0
LINE
  5
42D
330
EF
100
AcDbEntity
  8
SK2
 62
    35
370
    -2
100
AcDbLine
 10
22.0709
 20
-14.302503
 30
0.0
 11
-1.429099999999991
 21
-14.302503
 31
0.0
  0
LINE
  5
42E
330
EF
100
AcDbEntity
  8
SK2
 62
    35
370
    -2
100
AcDbLine
 10
26.0
 20
-14.302503
 30
0.0
 11
25.5709
 21
-14.302503
 31
0.0
  0
SOLID
  5
42F
330
EF
100
AcDbEntity
  8
SK2
 62
    35
370
    18
100
AcDbTrace
 10
29.5
 20
-13.71916966666666
 30
0.0
 11
29.5
 21
-14.88583633333333
 31
0.0
 12
26.0
 22
-14.302503
 32
0.0
 13
26.0
 23
-14.302503
 33
0.0
  0
SOLID
  5
430
330
EF
100
AcDbEntity
  8
SK2
 62
    35
370
    18
100
AcDbTrace
 10
22.0709
 20
-13.71916966666666
 30
0.0
 11
22.0709
 21
-14.88583633333333
 31
0.0
 12
25.5709
 22
-14.302503
 32
0.0
 13
25.5709
 23
-14.302503
 33
0.0
  0
MTEXT
  5
431
330
EF
100
AcDbEntity
  8
SK2
 62
    35
370
    13
100
AcDbMText
 10
8.570900000000005
 20
-10.802503
 30
0.0
 40
3.5
 41
0.0
 71
     5
 72
     1
  1
\A1;0402in
  7
iso_b_vert
 73
     1
 44
1.0
  0
POINT
  5
432
330
EF
100
AcDbEntity
  8
Defpoints
 62
     0
370
    18
100
AcDbPoint
 10
26.0
 20
-1.587499999999999
 30
0.0
  0
POINT
  5
433
330
EF
100
AcDbEntity
  8
Defpoints
 62
     0
370
    18
100
AcDbPoint
 10
25.5709
 20
-3.087499999999999
 30
0.0
  0
POINT
  5
434
330
EF
100
AcDbEntity
  8
Defpoints
 62
     0
370
    18
100
AcDbPoint
 10
25.5709
 20
-14.302503
 30
0.0
  0
ENDBLK
  5
F7
330
EF
100
AcDbEntity
  8
0
100
AcDbBlockEnd
  0
BLOCK
  5
100
330
F9
100
AcDbEntity
  8
0
100
AcDbBlockBegin
  2
DimnDraft3D5
 70
     0
 10
0.0
 20
0.0
 30
0.0
  3
DimnDraft3D5
  1

  0
LINE
  5
435
330
F9
100
AcDbEntity
  8
SK2
 62
    35
370
    -2
100
AcDbLine
 10
-36.0
 20
-6.174999999999998
 30
0.0
 11
-36.0
 21
-23.34342799999999
 31
0.0
  0
LINE
  5
436
330
F9
100
AcDbEntity
  8
SK2
 62
    35
370
    -2
100
AcDbLine
 10
25.5709
 20
-4.674999999999998
 30
0.0
 11
25.5709
 21
-23.343428
 31
0.0
  0
LINE
  5
437
330
F9
100
AcDbEntity
  8
SK2
 62
    35
370
    -2
100
AcDbLine
 10
-32.5
 20
-21.343428
 30
0.0
 11
22.0709
 21
-21.343428
 31
0.0
  0
SOLID
  5
438
330
F9
100
AcDbEntity
  8
SK2
 62
    35
370
    18
100
AcDbTrace
 10
-32.5
 20
-20.76009466666667
 30
0.0
 11
-32.5
 21
-21.92676133333333
 31
0.0
 12
-36.0
 22
-21.343428
 32
0.0
 13
-36.0
 23
-21.343428
 33
0.0
  0
SOLID
  5
439
330
F9
100
AcDbEntity
  8
SK2
 62
    35
370
    18
100
AcDbTrace
 10
22.0709
 20
-20.76009466666667
 30
0.0
 11
22.0709
 21
-21.92676133333333
 31
0.0
 12
25.5709
 22
-21.343428
 32
0.0
 13
25.5709
 23
-21.343428
 33
0.0
  0
MTEXT
  5
43A
330
F9
100
AcDbEntity
  8
SK2
 62
    35
370
    13
100
AcDbMText
 10
-5.214549999999999
 20
-17.843428
 30
0.0
 40
3.5
 41
0.0
 71
     5
 72
     1
  1
\A1;2442in
  7
iso_b_vert
 73
     1
 44
1.0
  0
POINT
  5
43B
330
F9
100
AcDbEntity
  8
Defpoints
 62
     0
370
    18
100
AcDbPoint
 10
-36.0
 20
-4.5875
 30
0.0
  0
POINT
  5
43C
330
F9
100
AcDbEntity
  8
Defpoints
 62
     0
370
    18
100
AcDbPoint
 10
25.5709
 20
-3.087499999999999
 30
0.0
  0
POINT
  5
43D
330
F9
100
AcDbEntity
  8
Defpoints
 62
     0
370
    18
100
AcDbPoint
 10
25.5709
 20
-21.343428
 30
0.0
  0
ENDBLK
  5
101
330
F9
100
AcDbEntity
  8
0
100
AcDbBlockEnd
  0
BLOCK
  5
10B
330
103
100
AcDbEntity
  8
0
100
AcDbBlockBegin
  2
DimnDraft3D6
 70
     0
 10
0.0
 20
0.0
 30
0.0
  3
DimnDraft3D6
  1

  0
LINE
  5
43E
330
103
100
AcDbEntity
  8
SK2
 62
    35
370
    -2
100
AcDbLine
 10
-39.175
 20
-2.999999999999998
 30
0.0
 11
-48.625163
 21
-2.999999999999996
 31
0.0
  0
LINE
  5
43F
330
103
100
AcDbEntity
  8
SK2
 62
    35
370
    -2
100
AcDbLine
 10
-39.175
 20
3.0
 30
0.0
 11
-48.625163
 21
3.000000000000003
 31
0.0
  0
LINE
  5
440
330
103
100
AcDbEntity
  8
SK2
 62
    35
370
    -2
100
AcDbLine
 10
-46.625163
 20
-6.499999999999997
 30
0.0
 11
-46.625163
 21
-9.999999999999996
 31
0.0
  0
LINE
  5
441
330
103
100
AcDbEntity
  8
SK2
 62
    35
370
    -2
100
AcDbLine
 10
-46.625163
 20
6.500000000000002
 30
0.0
 11
-46.62516299999999
 21
33.33333333333333
 31
0.0
  0
SOLID
  5
442
330
103
100
AcDbEntity
  8
SK2
 62
    35
370
    18
100
AcDbTrace
 10
-47.20849633333332
 20
-6.499999999999997
 30
0.0
 11
-46.04182966666665
 21
-6.499999999999997
 31
0.0
 12
-46.625163
 22
-2.999999999999996
 32
0.0
 13
-46.625163
 23
-2.999999999999996
 33
0.0
  0
SOLID
  5
443
330
103
100
AcDbEntity
  8
SK2
 62
    35
370
    18
100
AcDbTrace
 10
-47.20849633333332
 20
6.500000000000002
 30
0.0
 11
-46.04182966666665
 21
6.500000000000002
 31
0.0
 12
-46.625163
 22
3.000000000000001
 32
0.0
 13
-46.625163
 23
3.000000000000001
 33
0.0
  0
MTEXT
  5
444
330
103
100
AcDbEntity
  8
SK2
 62
    35
370
    13
100
AcDbMText
 10
-50.125163
 20
21.66666666666666
 30
0.0
 40
3.5
 41
0.0
 71
     5
 72
     1
  1
\A1;04236in
  7
iso_b_vert
 11
0.0000000000000001
 21
1.0
 31
0.0
 73
     1
 44
1.0
  0
POINT
  5
445
330
103
100
AcDbEntity
  8
Defpoints
 62
     0
370
    18
100
AcDbPoint
 10
-37.5875
 20
-3.0
 30
0.0
  0
POINT
  5
446
330
103
100
AcDbEntity
  8
Defpoints
 62
     0
370
    18
100
AcDbPoint
 10
-37.5875
 20
3.0
 30
0.0
  0
POINT
  5
447
330
103
100
AcDbEntity
  8
Defpoints
 62
     0
370
    18
100
AcDbPoint
 10
-46.625163
 20
3.000000000000001
 30
0.0
  0
ENDBLK
  5
10C
330
103
100
AcDbEntity
  8
0
100
AcDbBlockEnd
  0
BLOCK
  5
116
330
10E
100
AcDbEntity
  8
0
100
AcDbBlockBegin
  2
DimnDraft3D7
 70
     0
 10
0.0
 20
0.0
 30
0.0
  3
DimnDraft3D7
  1

  0
LINE
  5
448
330
10E
100
AcDbEntity
  8
2
 62
    35
370
    -2
100
AcDbLine
 10
28.7459
 20
-1.5
 30
0.0
 11
42.08334299999999
 21
-1.500000000000004
 31
0.0
  0
LINE
  5
449
330
10E
100
AcDbEntity
  8
2
 62
    35
370
    -2
100
AcDbLine
 10
28.7459
 20
1.499999999999999
 30
0.0
 11
42.08334299999999
 21
1.499999999999995
 31
0.0
  0
LINE
  5
44A
330
10E
100
AcDbEntity
  8
2
 62
    35
370
    -2
100
AcDbLine
 10
40.083343
 20
-5.0
 30
0.0
 11
40.083343
 21
-8.500000000000001
 31
0.0
  0
LINE
  5
44B
330
10E
100
AcDbEntity
  8
2
 62
    35
370
    -2
100
AcDbLine
 10
40.083343
 20
4.999999999999995
 30
0.0
 11
40.083343
 21
30.49999999999999
 31
0.0
  0
SOLID
  5
44C
330
10E
100
AcDbEntity
  8
2
 62
    35
370
    18
100
AcDbTrace
 10
39.50000966666666
 20
-5.0
 30
0.0
 11
40.66667633333334
 21
-5.0
 31
0.0
 12
40.083343
 22
-1.500000000000003
 32
0.0
 13
40.083343
 23
-1.500000000000003
 33
0.0
  0
SOLID
  5
44D
330
10E
100
AcDbEntity
  8
2
 62
    35
370
    18
100
AcDbTrace
 10
39.50000966666666
 20
4.999999999999995
 30
0.0
 11
40.66667633333334
 21
4.999999999999995
 31
0.0
 12
40.083343
 22
1.499999999999995
 32
0.0
 13
40.083343
 23
1.499999999999995
 33
0.0
  0
MTEXT
  5
44E
330
10E
100
AcDbEntity
  8
2
 62
    35
370
    13
100
AcDbMText
 10
36.583343
 20
19.5
 30
0.0
 40
3.5
 41
0.0
 71
     5
 72
     1
  1
\A1;04118in
  7
iso_b_vert
 11
0.0000000000000001
 21
1.0
 31
0.0
 73
     1
 44
1.0
  0
POINT
  5
44F
330
10E
100
AcDbEntity
  8
Defpoints
 62
     0
370
    18
100
AcDbPoint
 10
27.1584
 20
-1.5
 30
0.0
  0
POINT
  5
450
330
10E
100
AcDbEntity
  8
Defpoints
 62
     0
370
    18
100
AcDbPoint
 10
27.1584
 20
1.5
 30
0.0
  0
POINT
  5
451
330
10E
100
AcDbEntity
  8
Defpoints
 62
     0
370
    18
100
AcDbPoint
 10
40.083343
 20
1.499999999999995
 30
0.0
  0
ENDBLK
  5
117
330
10E
100
AcDbEntity
  8
0
100
AcDbBlockEnd
  0
BLOCK
  5
250
330
245
100
AcDbEntity
  8
0
370
    18
100
AcDbBlockBegin
  2
*D8
 70
     1
 10
0.0
 20
0.0
 30
0.0
  3
*D8
  1

  0
LINE
  5
246
330
245
100
AcDbEntity
  8
0
 62
     0
370
    -2
100
AcDbLine
 10
117.5037172624325
 20
2.272902153363291
 30
0.0
 11
117.5037172624325
 21
4.965494817786342
 31
0.0
  0
LINE
  5
247
330
245
100
AcDbEntity
  8
0
 62
     0
370
    -2
100
AcDbLine
 10
122.4656131114396
 20
1.253970243181179
 30
0.0
 11
122.4656131114396
 21
4.965494817786342
 31
0.0
  0
LINE
  5
248
330
245
100
AcDbEntity
  8
0
 62
     0
370
    -2
100
AcDbLine
 10
117.6837172624325
 20
4.785494817786339
 30
0.0
 11
119.474665186936
 21
4.785494817786339
 31
0.0
  0
LINE
  5
249
330
245
100
AcDbEntity
  8
0
 62
     0
370
    -2
100
AcDbLine
 10
122.2856131114396
 20
4.785494817786339
 30
0.0
 11
120.4946651869361
 21
4.785494817786339
 31
0.0
  0
SOLID
  5
24A
330
245
100
AcDbEntity
  8
0
 62
     0
370
    18
100
AcDbTrace
 10
117.6837172624325
 20
4.815494817786341
 30
0.0
 11
117.6837172624325
 21
4.755494817786342
 31
0.0
 12
117.5037172624325
 22
4.785494817786339
 32
0.0
 13
117.5037172624325
 23
4.785494817786339
 33
0.0
  0
SOLID
  5
24B
330
245
100
AcDbEntity
  8
0
 62
     0
370
    18
100
AcDbTrace
 10
122.2856131114396
 20
4.815494817786341
 30
0.0
 11
122.2856131114396
 21
4.755494817786342
 31
0.0
 12
122.4656131114396
 22
4.785494817786339
 32
0.0
 13
122.4656131114396
 23
4.785494817786339
 33
0.0
  0
MTEXT
  5
24C
330
245
100
AcDbEntity
  8
0
 62
     0
370
    18
100
AcDbMText
 10
119.984665186936
 20
4.785494817786339
 30
0.0
 40
0.18
 41
0.0
 71
     5
 72
     1
  1
\A1;4.9619
 73
     1
 44
1.0
  0
POINT
  5
24D
330
245
100
AcDbEntity
  8
Defpoints
 62
     0
370
    18
100
AcDbPoint
 10
117.5037172624325
 20
2.210402153363291
 30
0.0
  0
POINT
  5
24E
330
245
100
AcDbEntity
  8
Defpoints
 62
     0
370
    18
100
AcDbPoint
 10
122.4656131114396
 20
1.191470243181179
 30
0.0
  0
POINT
  5
24F
330
245
100
AcDbEntity
  8
Defpoints
 62
     0
370
    18
100
AcDbPoint
 10
122.4656131114396
 20
4.785494817786339
 30
0.0
  0
ENDBLK
  5
251
330
245
100
AcDbEntity
  8
0
370
    18
100
AcDbBlockEnd
  0
BLOCK
  5
25E
330
253
100
AcDbEntity
  8
0
370
    18
100
AcDbBlockBegin
  2
*D9
 70
     1
 10
0.0
 20
0.0
 30
0.0
  3
*D9
  1

  0
LINE
  5
254
330
253
100
AcDbEntity
  8
0
 62
     0
370
    -2
100
AcDbLine
 10
117.5037172624325
 20
2.272902153363291
 30
0.0
 11
117.5037172624325
 21
3.922030005219873
 31
0.0
  0
LINE
  5
255
330
253
100
AcDbEntity
  8
0
 62
     0
370
    -2
100
AcDbLine
 10
122.4656131114396
 20
1.253970243181179
 30
0.0
 11
122.4656131114396
 21
3.922030005219873
 31
0.0
  0
LINE
  5
256
330
253
100
AcDbEntity
  8
0
 62
     0
370
    -2
100
AcDbLine
 10
117.6837172624325
 20
3.742030005219873
 30
0.0
 11
119.474665186936
 21
3.742030005219873
 31
0.0
  0
LINE
  5
257
330
253
100
AcDbEntity
  8
0
 62
     0
370
    -2
100
AcDbLine
 10
122.2856131114396
 20
3.742030005219873
 30
0.0
 11
120.4946651869361
 21
3.742030005219873
 31
0.0
  0
SOLID
  5
258
330
253
100
AcDbEntity
  8
0
 62
     0
370
    18
100
AcDbTrace
 10
117.6837172624325
 20
3.772030005219872
 30
0.0
 11
117.6837172624325
 21
3.712030005219873
 31
0.0
 12
117.5037172624325
 22
3.742030005219873
 32
0.0
 13
117.5037172624325
 23
3.742030005219873
 33
0.0
  0
SOLID
  5
259
330
253
100
AcDbEntity
  8
0
 62
     0
370
    18
100
AcDbTrace
 10
122.2856131114396
 20
3.772030005219872
 30
0.0
 11
122.2856131114396
 21
3.712030005219873
 31
0.0
 12
122.4656131114396
 22
3.742030005219873
 32
0.0
 13
122.4656131114396
 23
3.742030005219873
 33
0.0
  0
MTEXT
  5
25A
330
253
100
AcDbEntity
  8
0
 62
     0
370
    18
100
AcDbMText
 10
119.984665186936
 20
3.742030005219873
 30
0.0
 40
0.18
 41
0.0
 71
     5
 72
     1
  1
\A1;4.9619
 73
     1
 44
1.0
  0
POINT
  5
25B
330
253
100
AcDbEntity
  8
Defpoints
 62
     0
370
    18
100
AcDbPoint
 10
117.5037172624325
 20
2.210402153363291
 30
0.0
  0
POINT
  5
25C
330
253
100
AcDbEntity
  8
Defpoints
 62
     0
370
    18
100
AcDbPoint
 10
122.4656131114396
 20
1.191470243181179
 30
0.0
  0
POINT
  5
25D
330
253
100
AcDbEntity
  8
Defpoints
 62
     0
370
    18
100
AcDbPoint
 10
122.4656131114396
 20
3.742030005219873
 30
0.0
  0
ENDBLK
  5
25F
330
253
100
AcDbEntity
  8
0
370
    18
100
AcDbBlockEnd
  0
BLOCK
  5
26C
330
261
100
AcDbEntity
  8
0
370
    18
100
AcDbBlockBegin
  2
*D10
 70
     1
 10
0.0
 20
0.0
 30
0.0
  3
*D10
  1

  0
LINE
  5
262
330
261
100
AcDbEntity
  8
0
 62
     0
370
    -2
100
AcDbLine
 10
-27.24435463599025
 20
3.0625
 30
0.0
 11
-27.24435463599025
 21
12.17414377043024
 31
0.0
  0
LINE
  5
263
330
261
100
AcDbEntity
  8
0
 62
     0
370
    -2
100
AcDbLine
 10
-14.0547699123174
 20
3.0625
 30
0.0
 11
-14.0547699123174
 21
12.17414377043024
 31
0.0
  0
LINE
  5
264
330
261
100
AcDbEntity
  8
0
 62
     0
370
    -2
100
AcDbLine
 10
-27.06435463599025
 20
11.99414377043024
 30
0.0
 11
-21.21956227415383
 21
11.99414377043024
 31
0.0
  0
LINE
  5
265
330
261
100
AcDbEntity
  8
0
 62
     0
370
    -2
100
AcDbLine
 10
-14.2347699123174
 20
11.99414377043024
 30
0.0
 11
-20.07956227415383
 21
11.99414377043024
 31
0.0
  0
SOLID
  5
266
330
261
100
AcDbEntity
  8
0
 62
     0
370
    18
100
AcDbTrace
 10
-27.06435463599025
 20
12.02414377043024
 30
0.0
 11
-27.06435463599025
 21
11.96414377043024
 31
0.0
 12
-27.24435463599025
 22
11.99414377043024
 32
0.0
 13
-27.24435463599025
 23
11.99414377043024
 33
0.0
  0
SOLID
  5
267
330
261
100
AcDbEntity
  8
0
 62
     0
370
    18
100
AcDbTrace
 10
-14.2347699123174
 20
12.02414377043024
 30
0.0
 11
-14.2347699123174
 21
11.96414377043024
 31
0.0
 12
-14.0547699123174
 22
11.99414377043024
 32
0.0
 13
-14.0547699123174
 23
11.99414377043024
 33
0.0
  0
MTEXT
  5
268
330
261
100
AcDbEntity
  8
0
 62
     0
370
    18
100
AcDbMText
 10
-20.64956227415382
 20
11.99414377043024
 30
0.0
 40
0.18
 41
0.0
 71
     5
 72
     1
  1
\A1;13.1896
 73
     1
 44
1.0
  0
POINT
  5
269
330
261
100
AcDbEntity
  8
Defpoints
 62
     0
370
    18
100
AcDbPoint
 10
-27.24435463599025
 20
3.0
 30
0.0
  0
POINT
  5
26A
330
261
100
AcDbEntity
  8
Defpoints
 62
     0
370
    18
100
AcDbPoint
 10
-14.0547699123174
 20
3.0
 30
0.0
  0
POINT
  5
26B
330
261
100
AcDbEntity
  8
Defpoints
 62
     0
370
    18
100
AcDbPoint
 10
-14.0547699123174
 20
11.99414377043024
 30
0.0
  0
ENDBLK
  5
26D
330
261
100
AcDbEntity
  8
0
370
    18
100
AcDbBlockEnd
  0
BLOCK
  5
36B
330
361
100
AcDbEntity
  8
0
370
    18
100
AcDbBlockBegin
  2
*D11
 70
     1
 10
0.0
 20
0.0
 30
0.0
  3
*D11
  1

  0
LINE
  5
473
330
361
100
AcDbEntity
  8
0
 62
     0
370
    -2
100
AcDbLine
 10
117.8053548980675
 20
2.601747639746895
 30
0.0
 11
117.8053548980675
 21
5.435517696007308
 31
0.0
  0
LINE
  5
474
330
361
100
AcDbEntity
  8
0
 62
     0
370
    -2
100
AcDbLine
 10
122.4656131114396
 20
1.816470243181178
 30
0.0
 11
122.4656131114396
 21
5.435517696007308
 31
0.0
  0
LINE
  5
475
330
361
100
AcDbEntity
  8
0
 62
     0
370
    -2
100
AcDbLine
 10
115.3053548980675
 20
4.185517696007308
 30
0.0
 11
112.8053548980675
 21
4.185517696007308
 31
0.0
  0
LINE
  5
476
330
361
100
AcDbEntity
  8
0
 62
     0
370
    -2
100
AcDbLine
 10
124.9656131114396
 20
4.185517696007308
 30
0.0
 11
141.2156131114396
 21
4.185517696007308
 31
0.0
  0
LINE
  5
477
330
361
100
AcDbEntity
  8
0
 62
     0
370
    -2
100
AcDbLine
 10
117.8053548980675
 20
4.185517696007308
 30
0.0
 11
122.4656131114396
 21
4.185517696007308
 31
0.0
  0
SOLID
  5
478
330
361
100
AcDbEntity
  8
0
 62
     0
370
    18
100
AcDbTrace
 10
115.3053548980675
 20
4.602184362673976
 30
0.0
 11
115.3053548980675
 21
3.768851029340642
 31
0.0
 12
117.8053548980675
 22
4.185517696007308
 32
0.0
 13
117.8053548980675
 23
4.185517696007308
 33
0.0
  0
SOLID
  5
479
330
361
100
AcDbEntity
  8
0
 62
     0
370
    18
100
AcDbTrace
 10
124.9656131114396
 20
4.602184362673976
 30
0.0
 11
124.9656131114396
 21
3.768851029340642
 31
0.0
 12
122.4656131114396
 22
4.185517696007308
 32
0.0
 13
122.4656131114396
 23
4.185517696007308
 33
0.0
  0
MTEXT
  5
47A
330
361
100
AcDbEntity
  8
0
 62
     0
370
    18
100
AcDbMText
 10
134.3406131114396
 20
6.268851029340642
 30
0.0
 40
2.5
 41
0.0
 71
     5
 72
     1
  1
0,183in
 73
     1
 44
1.0
  0
POINT
  5
47B
330
361
100
AcDbEntity
  8
Defpoints
 62
     0
370
    18
100
AcDbPoint
 10
117.8053548980675
 20
1.976747639746895
 30
0.0
  0
POINT
  5
47C
330
361
100
AcDbEntity
  8
Defpoints
 62
     0
370
    18
100
AcDbPoint
 10
122.4656131114396
 20
1.191470243181179
 30
0.0
  0
POINT
  5
47D
330
361
100
AcDbEntity
  8
Defpoints
 62
     0
370
    18
100
AcDbPoint
 10
122.4656131114396
 20
4.185517696007308
 30
0.0
  0
ENDBLK
  5
36C
330
361
100
AcDbEntity
  8
0
370
    18
100
AcDbBlockEnd
  0
BLOCK
  5
48A
330
480
100
AcDbEntity
  8
0
370
    18
100
AcDbBlockBegin
  2
*D12
 70
     1
 10
0.0
 20
0.0
 30
0.0
  3
*D12
  1

  0
LINE
  5
80B
330
480
100
AcDbEntity
  8
SK2
 62
     0
370
    -2
100
AcDbLine
 10
-25.1182995503
 20
2.7416666667
 30
0.0
 11
-25.1182995503
 21
10.29029958948672
 31
0.0
  0
LINE
  5
80C
330
480
100
AcDbEntity
  8
SK2
 62
     0
370
    -2
100
AcDbLine
 10
-17.24429955029999
 20
2.784
 30
0.0
 11
-17.24429955029999
 21
10.29029958948672
 31
0.0
  0
LINE
  5
80D
330
480
100
AcDbEntity
  8
SK2
 62
     0
370
    -2
100
AcDbLine
 10
-19.74429955029999
 20
9.040299589486719
 30
0.0
 11
-22.6182995503
 21
9.040299589486719
 31
0.0
  0
LINE
  5
80E
330
480
100
AcDbEntity
  8
SK2
 62
     0
370
    -2
100
AcDbLine
 10
-25.1182995503
 20
9.040299589486719
 30
0.0
 11
-40.22086270548668
 21
9.040299589486719
 31
0.0
  0
SOLID
  5
80F
330
480
100
AcDbEntity
  8
SK2
 62
     0
370
    18
100
AcDbTrace
 10
-19.74429955029999
 20
9.456966256153386
 30
0.0
 11
-19.74429955029999
 21
8.623632922820053
 31
0.0
 12
-17.24429955029999
 22
9.040299589486719
 32
0.0
 13
-17.24429955029999
 23
9.040299589486719
 33
0.0
  0
SOLID
  5
810
330
480
100
AcDbEntity
  8
SK2
 62
     0
370
    18
100
AcDbTrace
 10
-22.6182995503
 20
9.456966256153386
 30
0.0
 11
-22.6182995503
 21
8.623632922820053
 31
0.0
 12
-25.1182995503
 22
9.040299589486719
 32
0.0
 13
-25.1182995503
 23
9.040299589486719
 33
0.0
  0
MTEXT
  5
811
330
480
100
AcDbEntity
  8
SK2
 62
     0
370
    18
100
AcDbMText
 10
-35.63752937215336
 20
11.12363292282005
 30
0.0
 40
2.5
 41
0.0
 71
     5
 72
     1
  1
7,87
 73
     1
 44
1.0
  0
POINT
  5
812
330
480
100
AcDbEntity
  8
Defpoints
 62
     0
370
    18
100
AcDbPoint
 10
-25.1182995503
 20
2.1166666667
 30
0.0
  0
POINT
  5
813
330
480
100
AcDbEntity
  8
Defpoints
 62
     0
370
    18
100
AcDbPoint
 10
-17.24429955029999
 20
2.159
 30
0.0
  0
POINT
  5
814
330
480
100
AcDbEntity
  8
Defpoints
 62
     0
370
    18
100
AcDbPoint
 10
-17.24429955029999
 20
9.040299589486719
 30
0.0
  0
ENDBLK
  5
48B
330
480
100
AcDbEntity
  8
0
370
    18
100
AcDbBlockEnd
  0
BLOCK
  5
4BF
330
4B5
100
AcDbEntity
  8
0
370
    18
100
AcDbBlockBegin
  2
*D13
 70
     1
 10
0.0
 20
0.0
 30
0.0
  3
*D13
  1

  0
LINE
  5
815
330
4B5
100
AcDbEntity
  8
SK2
 62
     0
370
    -2
100
AcDbLine
 10
6.384486187867679
 20
3.657008424312704
 30
0.0
 11
6.38448618786768
 21
10.44114756375981
 31
0.0
  0
LINE
  5
816
330
4B5
100
AcDbEntity
  8
SK2
 62
     0
370
    -2
100
AcDbLine
 10
11.4617004497
 20
2.3290592411
 30
0.0
 11
11.4617004497
 21
10.44114756375981
 31
0.0
  0
LINE
  5
817
330
4B5
100
AcDbEntity
  8
SK2
 62
     0
370
    -2
100
AcDbLine
 10
3.884486187867679
 20
9.191147563759813
 30
0.0
 11
1.384486187867679
 21
9.191147563759813
 31
0.0
  0
LINE
  5
818
330
4B5
100
AcDbEntity
  8
SK2
 62
     0
370
    -2
100
AcDbLine
 10
13.9617004497
 20
9.191147563759813
 30
0.0
 11
26.11980713897562
 21
9.191147563759813
 31
0.0
  0
LINE
  5
819
330
4B5
100
AcDbEntity
  8
SK2
 62
     0
370
    -2
100
AcDbLine
 10
6.384486187867679
 20
9.191147563759813
 30
0.0
 11
11.4617004497
 21
9.191147563759813
 31
0.0
  0
SOLID
  5
81A
330
4B5
100
AcDbEntity
  8
SK2
 62
     0
370
    18
100
AcDbTrace
 10
3.884486187867679
 20
9.607814230426479
 30
0.0
 11
3.884486187867679
 21
8.774480897093146
 31
0.0
 12
6.384486187867679
 22
9.191147563759813
 32
0.0
 13
6.384486187867679
 23
9.191147563759813
 33
0.0
  0
SOLID
  5
81B
330
4B5
100
AcDbEntity
  8
SK2
 62
     0
370
    18
100
AcDbTrace
 10
13.9617004497
 20
9.607814230426479
 30
0.0
 11
13.9617004497
 21
8.774480897093146
 31
0.0
 12
11.4617004497
 22
9.191147563759813
 32
0.0
 13
11.4617004497
 23
9.191147563759813
 33
0.0
  0
MTEXT
  5
81C
330
4B5
100
AcDbEntity
  8
SK2
 62
     0
370
    18
100
AcDbMText
 10
21.74480713897562
 20
11.27448089709314
 30
0.0
 40
2.5
 41
0.0
 71
     5
 72
     1
  1
5,08
 73
     1
 44
1.0
  0
POINT
  5
81D
330
4B5
100
AcDbEntity
  8
Defpoints
 62
     0
370
    18
100
AcDbPoint
 10
6.384486187867679
 20
3.032008424312704
 30
0.0
  0
POINT
  5
81E
330
4B5
100
AcDbEntity
  8
Defpoints
 62
     0
370
    18
100
AcDbPoint
 10
11.4617004497
 20
1.7040592411
 30
0.0
  0
POINT
  5
81F
330
4B5
100
AcDbEntity
  8
Defpoints
 62
     0
370
    18
100
AcDbPoint
 10
11.4617004497
 20
9.191147563759813
 30
0.0
  0
ENDBLK
  5
4C0
330
4B5
100
AcDbEntity
  8
0
370
    18
100
AcDbBlockEnd
  0
BLOCK
  5
52D
330
523
100
AcDbEntity
  8
0
370
    18
100
AcDbBlockBegin
  2
*D14
 70
     1
 10
0.0
 20
0.0
 30
0.0
  3
*D14
  1

  0
LINE
  5
52F
330
523
100
AcDbEntity
  8
0
 62
     0
370
    -2
100
AcDbLine
 10
94.33961311143958
 20
10.48713187490472
 30
0.0
 11
94.33961311143958
 21
14.83025231219608
 31
0.0
  0
LINE
  5
530
330
523
100
AcDbEntity
  8
0
 62
     0
370
    -2
100
AcDbLine
 10
117.812800825673
 20
10.48713187490472
 30
0.0
 11
117.812800825673
 21
14.83025231219608
 31
0.0
  0
LINE
  5
531
330
523
100
AcDbEntity
  8
0
 62
     0
370
    -2
100
AcDbLine
 10
96.08961311143959
 20
13.58025231219608
 30
0.0
 11
116.0628008256729
 21
13.58025231219608
 31
0.0
  0
SOLID
  5
532
330
523
100
AcDbEntity
  8
0
 62
     0
370
    18
100
AcDbTrace
 10
96.08961311143959
 20
13.87191897886274
 30
0.0
 11
96.08961311143959
 21
13.28858564552941
 31
0.0
 12
94.33961311143958
 22
13.58025231219608
 32
0.0
 13
94.33961311143958
 23
13.58025231219608
 33
0.0
  0
SOLID
  5
533
330
523
100
AcDbEntity
  8
0
 62
     0
370
    18
100
AcDbTrace
 10
116.0628008256729
 20
13.87191897886274
 30
0.0
 11
116.0628008256729
 21
13.28858564552941
 31
0.0
 12
117.812800825673
 22
13.58025231219608
 32
0.0
 13
117.812800825673
 23
13.58025231219608
 33
0.0
  0
MTEXT
  5
534
330
523
100
AcDbEntity
  8
0
 62
     0
370
    18
100
AcDbMText
 10
106.0762069685563
 20
15.45525231219608
 30
0.0
 40
2.5
 41
0.0
 71
     5
 72
     1
  1
0.924in
 73
     1
 44
1.0
  0
POINT
  5
535
330
523
100
AcDbEntity
  8
Defpoints
 62
     0
370
    18
100
AcDbPoint
 10
94.33961311143958
 20
9.86213187490472
 30
0.0
  0
POINT
  5
536
330
523
100
AcDbEntity
  8
Defpoints
 62
     0
370
    18
100
AcDbPoint
 10
117.812800825673
 20
9.86213187490472
 30
0.0
  0
POINT
  5
537
330
523
100
AcDbEntity
  8
Defpoints
 62
     0
370
    18
100
AcDbPoint
 10
117.812800825673
 20
13.58025231219608
 30
0.0
  0
ENDBLK
  5
52E
330
523
100
AcDbEntity
  8
0
370
    18
100
AcDbBlockEnd
  0
BLOCK
  5
543
330
539
100
AcDbEntity
  8
0
370
    18
100
AcDbBlockBegin
  2
*D15
 70
     1
 10
0.0
 20
0.0
 30
0.0
  3
*D15
  1

  0
LINE
  5
7F5
330
539
100
AcDbEntity
  8
2
 62
     0
370
    -2
100
AcDbLine
 10
10.82670044970001
 20
2.4015
 30
0.0
 11
19.21931428358042
 21
2.401499999999997
 31
0.0
  0
LINE
  5
7F6
330
539
100
AcDbEntity
  8
2
 62
     0
370
    -2
100
AcDbLine
 10
10.82670044970001
 20
-2.401499999999999
 30
0.0
 11
19.21931428358042
 21
-2.401500000000002
 31
0.0
  0
LINE
  5
7F7
330
539
100
AcDbEntity
  8
2
 62
     0
370
    -2
100
AcDbLine
 10
17.96931428358042
 20
4.901499999999998
 30
0.0
 11
17.96931428358042
 21
7.401499999999998
 31
0.0
  0
LINE
  5
7F8
330
539
100
AcDbEntity
  8
2
 62
     0
370
    -2
100
AcDbLine
 10
17.96931428358042
 20
-4.901500000000002
 30
0.0
 11
17.96931428358041
 21
-23.6515
 31
0.0
  0
LINE
  5
7F9
330
539
100
AcDbEntity
  8
2
 62
     0
370
    -2
100
AcDbLine
 10
17.96931428358042
 20
2.401499999999998
 30
0.0
 11
17.96931428358042
 21
-2.401500000000002
 31
0.0
  0
SOLID
  5
7FA
330
539
100
AcDbEntity
  8
2
 62
     0
370
    18
100
AcDbTrace
 10
17.55264761691375
 20
4.901499999999998
 30
0.0
 11
18.38598095024708
 21
4.901499999999997
 31
0.0
 12
17.96931428358042
 22
2.401499999999998
 32
0.0
 13
17.96931428358042
 23
2.401499999999998
 33
0.0
  0
SOLID
  5
7FB
330
539
100
AcDbEntity
  8
2
 62
     0
370
    18
100
AcDbTrace
 10
17.55264761691375
 20
-4.901500000000002
 30
0.0
 11
18.38598095024708
 21
-4.901500000000003
 31
0.0
 12
17.96931428358042
 22
-2.401500000000002
 32
0.0
 13
17.96931428358042
 23
-2.401500000000002
 33
0.0
  0
MTEXT
  5
7FC
330
539
100
AcDbEntity
  8
2
 62
     0
370
    18
100
AcDbMText
 10
15.88598095024708
 20
-15.5265
 30
0.0
 40
2.5
 41
0.0
 71
     5
 72
     1
  1
%%c 4,803
 11
0.0000000000000001
 21
1.0
 31
0.0
 73
     1
 44
1.0
  0
POINT
  5
7FD
330
539
100
AcDbEntity
  8
Defpoints
 62
     0
370
    18
100
AcDbPoint
 10
10.20170044970001
 20
2.4015
 30
0.0
  0
POINT
  5
7FE
330
539
100
AcDbEntity
  8
Defpoints
 62
     0
370
    18
100
AcDbPoint
 10
10.20170044970001
 20
-2.401499999999999
 30
0.0
  0
POINT
  5
7FF
330
539
100
AcDbEntity
  8
Defpoints
 62
     0
370
    18
100
AcDbPoint
 10
17.96931428358042
 20
-2.401500000000002
 30
0.0
  0
ENDBLK
  5
544
330
539
100
AcDbEntity
  8
0
370
    18
100
AcDbBlockEnd
  0
ENDSEC
  0
SECTION
  2
ENTITIES
  0
POINT
  5
6E
330
1F
100
AcDbEntity
  8
80
370
    18
100
AcDbPoint
 10
0.0
 20
0.0
 30
0.0
 50
360.0
  0
POINT
  5
70
330
1F
100
AcDbEntity
  8
SK2
 60
     1
370
    18
100
AcDbPoint
 10
-36.0
 20
-3.0
 30
0.0
 50
360.0
  0
POINT
  5
72
330
1F
100
AcDbEntity
  8
SK2
 60
     1
370
    18
100
AcDbPoint
 10
-36.0
 20
3.0
 30
0.0
 50
360.0
  0
POINT
  5
73
330
1F
100
AcDbEntity
  8
2
 60
     1
370
    18
100
AcDbPoint
 10
25.5709
 20
-1.5
 30
0.0
 50
360.0
  0
POINT
  5
75
330
1F
100
AcDbEntity
  8
2
 60
     1
370
    18
100
AcDbPoint
 10
25.5709
 20
1.5
 30
0.0
 50
360.0
  0
LINE
  5
76
330
1F
100
AcDbEntity
  8
81
370
    18
100
AcDbLine
 10
11.4617004497
 20
0.0
 30
0.0
 11
13.8073032699
 21
0.0
 31
0.0
  0
LINE
  5
85
330
1F
100
AcDbEntity
  8
SK4
 48
0.05
370
    18
100
AcDbLine
 10
13.74644074004587
 20
0.0
 30
0.0
 11
-27.69100924818149
 21
0.0
 31
0.0
  0
LINE
  5
87
330
1F
100
AcDbEntity
  8
4
 48
0.05
370
    18
100
AcDbLine
 10
11.4617004497
 20
0.0
 30
0.0
 11
0.0
 21
0.0
 31
0.0
  0
LINE
  5
89
330
1F
100
AcDbEntity
  8
80
370
    18
100
AcDbLine
 10
0.0
 20
0.0
 30
0.0
 11
-5.259144607358891
 21
0.0
 31
0.0
  0
MTEXT
  5
CD
330
1F
100
AcDbEntity
  8
SK6
370
    13
100
AcDbMText
 10
-5.758584044607506
 20
20.89802994486347
 30
0.0
 40
3.5
 41
0.0
 71
     8
 72
     5
  1
\W0.7645;452.C1-0480-130T-C CD10
  7
iso_b_vert
 73
     1
 44
1.084337
  0
LINE
  5
1FF
330
1F
100
AcDbEntity
  8
SK1
  6
Continuous
370
    15
100
AcDbLine
 10
0.0
 20
3.0
 30
0.0
 11
0.0
 21
5.0
 31
0.0
  0
DIMENSION
  5
47F
330
1F
100
AcDbEntity
  8
SK2
370
    18
100
AcDbDimension
  2
*D12
 10
-17.24429955029999
 20
9.040299589486719
 30
0.0
 11
-35.63752937215336
 21
9.040299589486719
 31
0.0
 70
   160
 71
     5
 42
7.874000000000002
  3
ISO-25
100
AcDbAlignedDimension
 13
-25.1182995503
 23
2.1166666667
 33
0.0
 14
-17.24429955029999
 24
2.159
 34
0.0
100
AcDbRotatedDimension
  0
DIMENSION
  5
4B4
330
1F
100
AcDbEntity
  8
SK2
370
    18
100
AcDbDimension
  2
*D13
 10
11.4617004497
 20
9.191147563759813
 30
0.0
 11
21.74480713897562
 21
9.191147563759813
 31
0.0
 70
   160
 71
     5
 42
5.077214261832324
  3
ISO-25
100
AcDbAlignedDimension
 13
6.384486187867679
 23
3.032008424312704
 33
0.0
 14
11.4617004497
 24
1.7040592411
 34
0.0
100
AcDbRotatedDimension
  0
DIMENSION
  5
538
330
1F
100
AcDbEntity
  8
2
370
    18
100
AcDbDimension
  2
*D15
 10
17.96931428358042
 20
-2.401500000000002
 30
0.0
 11
15.88598095024708
 21
-15.5265
 31
0.0
 70
    32
  1
%%c <>
 71
     5
 42
4.803
  3
ISO-25
100
AcDbAlignedDimension
 13
10.20170044970001
 23
2.4015
 33
0.0
 14
10.20170044970001
 24
-2.401499999999999
 34
0.0
 50
90.0
100
AcDbRotatedDimension
1001
ACAD
1000
DSTYLE
1002
{
1070
   271
1070
     3
1002
}
  0
ARC
  5
6CD
330
1F
100
AcDbEntity
  8
1
  6
Continuous
370
    15
100
AcDbCircle
 10
7.060739251100002
 20
3.0015
 30
0.0
 40
0.6000000000000023
100
AcDbArc
 50
204.9999999999999
 51
270.0
  0
LINE
  5
6CE
330
1F
100
AcDbEntity
  8
1
  6
Continuous
370
    15
100
AcDbLine
 10
6.516954578899998
 20
2.747929043
 30
0.0
 11
5.396850496200002
 21
5.15
 31
0.0
  0
LINE
  5
6CF
330
1F
100
AcDbEntity
  8
1
  6
Continuous
370
    15
100
AcDbLine
 10
5.396850496200002
 20
5.15
 30
0.0
 11
0.0
 21
5.15
 31
0.0
  0
LINE
  5
6D0
330
1F
100
AcDbEntity
  8
0
  6
Continuous
 62
     7
370
    15
100
AcDbLine
 10
0.0
 20
5.15
 30
0.0
 11
0.0
 21
5.0
 31
0.0
  0
LINE
  5
6D1
330
1F
100
AcDbEntity
  8
1
  6
Continuous
370
    15
100
AcDbLine
 10
11.4617004497
 20
1.7040592411
 30
0.0
 11
11.4617004497
 21
-1.7040592411
 31
0.0
  0
LINE
  5
6D2
330
1F
100
AcDbEntity
  8
1
  6
Continuous
370
    15
100
AcDbLine
 10
10.20170044970001
 20
2.4015
 30
0.0
 11
10.20170044970001
 21
-2.401499999999999
 31
0.0
  0
LINE
  5
6D3
330
1F
100
AcDbEntity
  8
1
  6
Continuous
370
    15
100
AcDbLine
 10
10.83170044970001
 20
2.232692008799999
 30
0.0
 11
10.83170044970001
 21
-2.232692008799999
 31
0.0
  0
LINE
  5
6D4
330
1F
100
AcDbEntity
  8
SK1
  6
Continuous
370
    15
100
AcDbLine
 10
-25.1182995503
 20
-2.1166666667
 30
0.0
 11
-25.1182995503
 21
2.1166666667
 31
0.0
  0
LINE
  5
6D5
330
1F
100
AcDbEntity
  8
SK1
  6
Continuous
370
    15
100
AcDbLine
 10
-18.54151385399999
 20
-0.0000003317999999
 30
0.0
 11
-18.51429955029999
 21
-0.0000003356000002
 31
0.0
  0
LINE
  5
6D6
330
1F
100
AcDbEntity
  8
SK1
  6
Continuous
370
    15
100
AcDbLine
 10
-17.24429955029999
 20
2.159
 30
0.0
 11
-17.24429955029999
 21
-2.159
 31
0.0
  0
LINE
  5
6D7
330
1F
100
AcDbEntity
  8
1
  6
Continuous
370
    15
100
AcDbLine
 10
5.111700449700009
 20
0.0357407847999998
 30
0.0
 11
5.111700449700009
 21
-2.401499999999999
 31
0.0
  0
LINE
  5
6D8
330
1F
100
AcDbEntity
  8
1
  6
Continuous
370
    15
100
AcDbLine
 10
3.900000000000005
 20
0.0
 30
0.0
 11
3.900000000000005
 21
-5.0
 31
0.0
  0
LINE
  5
6D9
330
1F
100
AcDbEntity
  8
1
  6
Continuous
370
    15
100
AcDbLine
 10
4.650000000000005
 20
0.0
 30
0.0
 11
3.150000000000005
 21
0.0
 31
0.0
  0
LINE
  5
6DA
330
1F
100
AcDbEntity
  8
1
  6
Continuous
370
    15
100
AcDbLine
 10
0.1500000000000057
 20
3.0
 30
0.0
 11
0.1500000000000057
 21
5.0
 31
0.0
  0
LINE
  5
6DB
330
1F
100
AcDbEntity
  8
SK1
  6
Continuous
370
    15
100
AcDbLine
 10
-15.60404743549999
 20
5.0
 30
0.0
 11
-15.60404743549999
 21
-5.0
 31
0.0
  0
LINE
  5
6DC
330
1F
100
AcDbEntity
  8
SK1
  6
Continuous
370
    15
100
AcDbLine
 10
-18.51429955029999
 20
-2.159
 30
0.0
 11
-17.24429955029999
 21
-2.159
 31
0.0
  0
LINE
  5
6DD
330
1F
100
AcDbEntity
  8
SK1
  6
Continuous
370
    15
100
AcDbLine
 10
-17.24429955029999
 20
2.159
 30
0.0
 11
-18.51429955029999
 21
2.159
 31
0.0
  0
LINE
  5
6DE
330
1F
100
AcDbEntity
  8
1
  6
Continuous
370
    15
100
AcDbLine
 10
11.4617004497
 20
1.7040592411
 30
0.0
 11
10.83170044970001
 21
2.232692008799999
 31
0.0
  0
LINE
  5
6DF
330
1F
100
AcDbEntity
  8
1
  6
Continuous
370
    15
100
AcDbLine
 10
10.83170044970001
 20
-2.232692008799999
 30
0.0
 11
11.4617004497
 21
-1.7040592411
 31
0.0
  0
LINE
  5
6E0
330
1F
100
AcDbEntity
  8
1
  6
Continuous
370
    15
100
AcDbLine
 10
5.111700449700009
 20
-2.401499999999999
 30
0.0
 11
10.20170044970001
 21
-2.401499999999999
 31
0.0
  0
LINE
  5
6E1
330
1F
100
AcDbEntity
  8
1
  6
Continuous
370
    15
100
AcDbLine
 10
10.20170044970001
 20
2.4015
 30
0.0
 11
7.060739251100002
 21
2.4015
 31
0.0
  0
LINE
  5
6E2
330
1F
100
AcDbEntity
  8
1
  6
Continuous
370
    15
100
AcDbLine
 10
10.83170044970001
 20
2.232692008799999
 30
0.0
 11
10.20170044970001
 21
2.4015
 31
0.0
  0
LINE
  5
6E3
330
1F
100
AcDbEntity
  8
1
  6
Continuous
370
    15
100
AcDbLine
 10
10.20170044970001
 20
-2.401499999999999
 30
0.0
 11
10.83170044970001
 21
-2.232692008799999
 31
0.0
  0
LINE
  5
6E4
330
1F
100
AcDbEntity
  8
SK1
  6
Continuous
370
    15
100
AcDbLine
 10
-25.1182995503
 20
-2.1166666667
 30
0.0
 11
-24.85937390309999
 21
-2.375592313899999
 31
0.0
  0
LINE
  5
6E5
330
1F
100
AcDbEntity
  8
SK1
  6
Continuous
370
    15
100
AcDbLine
 10
-24.61958826949999
 20
2.615377947499999
 30
0.0
 11
-25.1182995503
 21
2.1166666667
 31
0.0
  0
LINE
  5
6E6
330
1F
100
AcDbEntity
  8
SK1
  6
Continuous
370
    15
100
AcDbLine
 10
-24.84896192749999
 20
-2.371621891999999
 30
0.0
 11
-24.6544486993
 21
-2.1530861562
 31
0.0
  0
LINE
  5
6E7
330
1F
100
AcDbEntity
  8
SK1
  6
Continuous
370
    15
100
AcDbLine
 10
-17.24429955029999
 20
-2.159
 30
0.0
 11
-15.60404743549999
 21
-5.0
 31
0.0
  0
LINE
  5
6E8
330
1F
100
AcDbEntity
  8
SK1
  6
Continuous
370
    15
100
AcDbLine
 10
-15.60404743549999
 20
5.0
 30
0.0
 11
-17.24429955029999
 21
2.159
 31
0.0
  0
LINE
  5
6E9
330
1F
100
AcDbEntity
  8
1
  6
Continuous
370
    15
100
AcDbLine
 10
3.900000000000005
 20
-5.0
 30
0.0
 11
5.111700449700009
 21
-2.401499999999999
 31
0.0
  0
LINE
  5
6EA
330
1F
100
AcDbEntity
  8
SK1
  6
Continuous
370
    15
100
AcDbLine
 10
-15.60404743549999
 20
-5.0
 30
0.0
 11
0.0
 21
-5.0
 31
0.0
  0
LINE
  5
6EB
330
1F
100
AcDbEntity
  8
SK1
  6
Continuous
370
    15
100
AcDbLine
 10
0.0
 20
5.0
 30
0.0
 11
-15.60404743549999
 21
5.0
 31
0.0
  0
SPLINE
  5
6EC
330
1F
100
AcDbEntity
  8
1
  6
Continuous
370
    15
100
AcDbSpline
210
0.0
220
0.0
230
1.0
 70
     8
 71
     3
 72
    24
 73
    20
 74
     0
 42
0.0000000001
 43
0.0000000001
 40
0.0
 40
0.0
 40
0.0
 40
0.0
 40
0.125
 40
0.125
 40
0.2500000000000001
 40
0.2500000000000001
 40
0.3750000000000001
 40
0.3750000000000001
 40
0.4375000000000001
 40
0.4375000000000001
 40
0.5
 40
0.5
 40
0.625
 40
0.625
 40
0.75
 40
0.75
 40
0.8750000000000001
 40
0.8750000000000001
 40
1.0
 40
1.0
 40
1.0
 40
1.0
 10
7.589693478903413
 20
2.4015
 30
0.0
 10
7.589693478903413
 20
2.4015
 30
0.0
 10
7.584614888061736
 20
2.374732806307143
 30
0.0
 10
7.560177284612208
 20
2.269389449248071
 30
0.0
 10
7.540564213106861
 20
2.190264663265441
 30
0.0
 10
7.476853945847295
 20
1.990084382485179
 30
0.0
 10
7.431371430812149
 20
1.865799935045018
 30
0.0
 10
7.336262183219361
 20
1.662238926858303
 30
0.0
 10
7.30003979848584
 20
1.591309920469271
 30
0.0
 10
7.216677345277275
 20
1.444594561225189
 30
0.0
 10
7.169159109069624
 20
1.368367998929444
 30
0.0
 10
7.012849847468103
 20
1.142452419595434
 30
0.0
 10
6.88780703229591
 20
0.9918769459792837
 30
0.0
 10
6.600156026318259
 20
0.7115004944492132
 30
0.0
 10
6.440777673367804
 20
0.5841951019115168
 30
0.0
 10
6.091375750450694
 20
0.3607891469068516
 30
0.0
 10
5.907107565833712
 20
0.2682467621951634
 30
0.0
 10
5.520246812453649
 20
0.1215515169174823
 30
0.0
 10
5.317668574255534
 20
0.0678215067998211
 30
0.0
 10
5.111700449700009
 20
0.0357407848279783
 30
0.0
  0
SPLINE
  5
6ED
330
1F
100
AcDbEntity
  8
SK1
  6
Continuous
370
    15
100
AcDbSpline
210
0.0
220
0.0
230
1.0
 70
    24
 71
     3
 72
    15
 73
    11
 74
     0
 42
0.0000000001
 43
0.0000000001
 40
0.0
 40
0.0
 40
0.0
 40
0.0
 40
0.1000164637021101
 40
0.2226864602741949
 40
0.3453565502427893
 40
0.4705548488287933
 40
0.5957833568919407
 40
0.7222999188038141
 40
0.8488162811833259
 40
1.0
 40
1.0
 40
1.0
 40
1.0
 10
-18.51429955029999
 20
2.445718205644272
 30
0.0
 10
-18.51429955029999
 20
2.442994299509438
 30
0.0
 10
-18.51429955029999
 20
2.436929527842524
 30
0.0
 10
-18.51429955029999
 20
2.346981055771172
 30
0.0
 10
-18.51429955029999
 20
2.19286328195235
 30
0.0
 10
-18.51429955029999
 20
1.971446895147032
 30
0.0
 10
-18.51429955029999
 20
1.692388009613667
 30
0.0
 10
-18.51429955029999
 20
1.362772992170113
 30
0.0
 10
-18.51429955029999
 20
0.9706693386693245
 30
0.0
 10
-18.51429955029999
 20
0.6726609470159435
 30
0.0
 10
-18.51429955029999
 20
0.5104211064848752
 30
0.0
  0
SPLINE
  5
6EE
330
1F
100
AcDbEntity
  8
SK1
  6
Continuous
370
    15
100
AcDbSpline
210
0.0
220
0.0
230
1.0
 70
    24
 71
     3
 72
    17
 73
    13
 74
     0
 42
0.0000000001
 43
0.0000000001
 40
0.0
 40
0.0
 40
0.0
 40
0.0
 40
0.0955368497569894
 40
0.1910733967879252
 40
0.3054012464706
 40
0.4197290699754002
 40
0.5340758223303906
 40
0.6483796530639993
 40
0.7599456281752959
 40
0.8715113115773974
 40
0.980123129892001
 40
1.0
 40
1.0
 40
1.0
 40
1.0
 10
-18.51429955029999
 20
-0.0000003280162177
 30
0.0
 10
-18.51429955029999
 20
-0.120275637432564
 30
0.0
 10
-18.51429955029999
 20
-0.3608258751508506
 30
0.0
 10
-18.51429955029999
 20
-0.7337967811922317
 30
0.0
 10
-18.51429955029999
 20
-1.10857406531441
 30
0.0
 10
-18.51429955029999
 20
-1.469797573227483
 30
0.0
 10
-18.51429955029999
 20
-1.7845274859227
 30
0.0
 10
-18.51429955029999
 20
-2.041580962826225
 30
0.0
 10
-18.51429955029999
 20
-2.232466758527962
 30
0.0
 10
-18.5142995503
 20
-2.347135620717061
 30
0.0
 10
-18.51429955029999
 20
-2.395815715968326
 30
0.0
 10
-18.51429955029999
 20
-2.38522185958582
 30
0.0
 10
-18.51429955029999
 20
-2.38358301721111
 30
0.0
  0
SPLINE
  5
6EF
330
1F
100
AcDbEntity
  8
SK1
  6
Continuous
370
    15
100
AcDbSpline
210
0.0
220
0.0
230
1.0
 70
     8
 71
     3
 72
    17
 73
    13
 74
     0
 42
0.0000000001
 43
0.0000000001
 40
0.0
 40
0.0
 40
0.0
 40
0.0
 40
0.0634857550390048
 40
0.1680419733084821
 40
0.2732609979355247
 40
0.3778172162050021
 40
0.4804343237480051
 40
0.5830514312910072
 40
0.6876076495604922
 40
0.7928266741875423
 40
0.8973828924570268
 40
1.0
 40
1.0
 40
1.0
 40
1.0
 10
-18.75997533850205
 20
-2.657590072562149
 30
0.0
 10
-18.7555058746055
 20
-2.653130282095105
 30
0.0
 10
-18.74367554302408
 20
-2.64132555534713
 30
0.0
 10
-18.72333669224953
 20
-2.548587907660219
 30
0.0
 10
-18.69985908318063
 20
-2.388486690996503
 30
0.0
 10
-18.67666985608558
 20
-2.167110087562929
 30
0.0
 10
-18.65490697703922
 20
-1.895464921597993
 30
0.0
 10
-18.63314249231516
 20
-1.577811595466325
 30
0.0
 10
-18.60995818390451
 20
-1.218715064524579
 30
0.0
 10
-18.58646239568215
 20
-0.8268235511549688
 30
0.0
 10
-18.56327800128399
 20
-0.4167779230671016
 30
0.0
 10
-18.54872315936698
 20
-0.1380565992148695
 30
0.0
 10
-18.54151385395851
 20
-0.0000003318257189
 30
0.0
  0
SPLINE
  5
6F0
330
1F
100
AcDbEntity
  8
SK1
  6
Continuous
370
    15
100
AcDbSpline
210
0.0
220
0.0
230
1.0
 70
     8
 71
     3
 72
    27
 73
    23
 74
     0
 42
0.0000000001
 43
0.0000000001
 40
0.0
 40
0.0
 40
0.0
 40
0.0
 40
0.0336131029077452
 40
0.0857092009458719
 40
0.1381355483518077
 40
0.1902316463899345
 40
0.2413615646619488
 40
0.2924914829339595
 40
0.3445875809720868
 40
0.3970139283780235
 40
0.4491100264161513
 40
0.5002399446881669
 40
0.5513698629601791
 40
0.6034659609983058
 40
0.6558923084042415
 40
0.7079884064423683
 40
0.7591183247143826
 40
0.8102482429863931
 40
0.8623443410245203
 40
0.9147706884304563
 40
0.9668667864685836
 40
1.0
 40
1.0
 40
1.0
 40
1.0
 10
-19.6679638474838
 20
-2.658832045843616
 30
0.0
 10
-19.66321574515881
 20
-2.654175051145184
 30
0.0
 10
-19.65110867913161
 20
-2.64230029815057
 30
0.0
 10
-19.63048132886621
 20
-2.548706768983176
 30
0.0
 10
-19.60700146529673
 20
-2.388454961219466
 30
0.0
 10
-19.58381283754672
 20
-2.167118391499101
 30
0.0
 10
-19.56204980115611
 20
-1.895462715601047
 30
0.0
 10
-19.54028535849177
 20
-1.577812198889498
 30
0.0
 10
-19.51710103859046
 20
-1.218714900387332
 30
0.0
 10
-19.49360525347847
 20
-0.8268235949027955
 30
0.0
 10
-19.47042085826466
 20
-0.4167779118693025
 30
0.0
 10
-19.44865671111221
 20
-0.0000003338833334
 30
0.0
 10
-19.42689256389431
 20
0.4167772565261459
 30
0.0
 10
-19.40370816888097
 20
0.8268229504820219
 30
0.0
 10
-19.38021238302806
 20
1.218714345807216
 30
0.0
 10
-19.35702806585778
 20
1.577811516770607
 30
0.0
 10
-19.33526361319859
 20
1.895462768658502
 30
0.0
 10
-19.31350061419801
 20
2.167116026013108
 30
0.0
 10
-19.29031184402452
 20
2.388462198275338
 30
0.0
 10
-19.26683251619617
 20
2.548678318246744
 30
0.0
 10
-19.24627507766727
 20
2.642063591299972
 30
0.0
 10
-19.23423505940172
 20
2.653921356708833
 30
0.0
 10
-19.22955445728528
 20
2.658531107345815
 30
0.0
  0
SPLINE
  5
6F1
330
1F
100
AcDbEntity
  8
SK1
  6
Continuous
370
    15
100
AcDbSpline
210
0.0
220
0.0
230
1.0
 70
     8
 71
     3
 72
    27
 73
    23
 74
     0
 42
0.0000000001
 43
0.0000000001
 40
0.0
 40
0.0
 40
0.0
 40
0.0
 40
0.0313280705201347
 40
0.0837276863054746
 40
0.1364594755287155
 40
0.1888590913140553
 40
0.2402868982609115
 40
0.2917147052077673
 40
0.3441143209931067
 40
0.3968461102163471
 40
0.4492457260016866
 40
0.5006735329485445
 40
0.5521013398954015
 40
0.604500955680742
 40
0.6572327449039833
 40
0.7096323606893233
 40
0.7610601676361794
 40
0.8124879745830357
 40
0.8648875903683755
 40
0.9176193795916164
 40
0.9700189953769562
 40
1.0
 40
1.0
 40
1.0
 40
1.0
 10
-20.57405366602572
 20
-2.657285492348935
 30
0.0
 10
-20.56965254820291
 20
-2.652874937756616
 30
0.0
 10
-20.55789008066683
 20
-2.641087249424473
 30
0.0
 10
-20.53762195602853
 20
-2.548557815718181
 30
0.0
 10
-20.51414491772814
 20
-2.388494723975949
 30
0.0
 10
-20.49095553889783
 20
-2.167107985269431
 30
0.0
 10
-20.46919269968602
 20
-1.895465480081345
 30
0.0
 10
-20.447428204314
 20
-1.577811442719577
 30
0.0
 10
-20.42424389881153
 20
-1.218715105998902
 30
0.0
 10
-20.40074810980506
 20
-0.8268235403796015
 30
0.0
 10
-20.37756371560109
 20
-0.4167779247989439
 30
0.0
 10
-20.35579956827684
 20
-0.0000003353377309
 30
0.0
 10
-20.33403542075568
 20
0.4167772753282808
 30
0.0
 10
-20.3108510271549
 20
0.8268228749315662
 30
0.0
 10
-20.28735523591909
 20
1.218714629811437
 30
0.0
 10
-20.26417093863391
 20
1.577810472534024
 30
0.0
 10
-20.2424064131887
 20
1.895466586220249
 30
0.0
 10
-20.22064368647857
 20
2.16710165572514
 30
0.0
 10
-20.19745387911485
 20
2.388517107904613
 30
0.0
 10
-20.17397845278869
 20
2.548472624043636
 30
0.0
 10
-20.15390527153677
 20
2.640431688240901
 30
0.0
 10
-20.14232990602253
 20
2.652172744124484
 30
0.0
 10
-20.13811725157449
 20
2.656445698722061
 30
0.0
  0
SPLINE
  5
6F2
330
1F
100
AcDbEntity
  8
SK1
  6
Continuous
370
    15
100
AcDbSpline
210
0.0
220
0.0
230
1.0
 70
     8
 71
     3
 72
    27
 73
    23
 74
     0
 42
0.0000000001
 43
0.0000000001
 40
0.0
 40
0.0
 40
0.0
 40
0.0
 40
0.0314687681732143
 40
0.0837706445021526
 40
0.1364040746756845
 40
0.1887059510046228
 40
0.2400378311814155
 40
0.2913697113582075
 40
0.3436715876871461
 40
0.3963050178606782
 40
0.4486068941896167
 40
0.4999387743664096
 40
0.5512706545432015
 40
0.60357253087214
 40
0.6562059610456724
 40
0.7085078373746114
 40
0.7598397175514036
 40
0.8111715977281951
 40
0.8634734740571332
 40
0.9161069042306648
 40
0.9684087805596027
 40
1.0
 40
1.0
 40
1.0
 40
1.0
 10
-21.48128120592489
 20
-2.657409862350768
 30
0.0
 10
-21.47685217953767
 20
-2.652979160345573
 30
0.0
 10
-21.46506200100469
 20
-2.641184521275838
 30
0.0
 10
-21.44476499781921
 20
-2.548570149411601
 30
0.0
 10
-21.42128772557966
 20
-2.388491431523005
 30
0.0
 10
-21.39809840894061
 20
-2.167108846929767
 30
0.0
 10
-21.37633555340197
 20
-1.895465251178746
 30
0.0
 10
-21.35457106239405
 20
-1.577811505320581
 30
0.0
 10
-21.33138675570017
 20
-1.218715089018479
 30
0.0
 10
-21.30789096701299
 20
-0.8268235447266976
 30
0.0
 10
-21.28470657273714
 20
-0.4167779243442081
 30
0.0
 10
-21.26294242538418
 20
-0.0000003329657643
 30
0.0
 10
-21.24117827804873
 20
0.4167772652960915
 30
0.0
 10
-21.21799388371927
 20
0.8268229135720108
 30
0.0
 10
-21.19449809523021
 20
1.218714484980567
 30
0.0
 10
-21.17131378780607
 20
1.577811004942596
 30
0.0
 10
-21.1495492994707
 20
1.895464639848505
 30
0.0
 10
-21.12778643393427
 20
2.167108982363016
 30
0.0
 10
-21.10459715537809
 20
2.388489112436536
 30
0.0
 10
-21.08111973988572
 20
2.548577496459294
 30
0.0
 10
-21.06080497779658
 20
2.641244244182523
 30
0.0
 10
-21.0489977590916
 20
2.653043217983208
 30
0.0
 10
-21.04455157155174
 20
2.657486300779124
 30
0.0
  0
SPLINE
  5
6F3
330
1F
100
AcDbEntity
  8
SK1
  6
Continuous
370
    15
100
AcDbSpline
210
0.0
220
0.0
230
1.0
 70
     8
 71
     3
 72
    27
 73
    23
 74
     0
 42
0.0000000001
 43
0.0000000001
 40
0.0
 40
0.0
 40
0.0
 40
0.0
 40
0.0317207418135561
 40
0.0840027145661722
 40
0.1366161149899495
 40
0.1888980877425655
 40
0.2402104334768759
 40
0.2915227792111856
 40
0.3438047519638019
 40
0.3964181523875795
 40
0.4487001251401956
 40
0.5000124708745061
 40
0.5513248166088144
 40
0.6036067893614305
 40
0.6562201897852081
 40
0.7085021625378244
 40
0.7598145082721363
 40
0.8111268540064456
 40
0.8634088267590616
 40
0.9160222271828391
 40
0.968304199935455
 40
1.0
 40
1.0
 40
1.0
 40
1.0
 10
-22.38853635210245
 20
-2.657574776532344
 30
0.0
 10
-22.38407032042222
 20
-2.653117450270898
 30
0.0
 10
-22.37224339699517
 20
-2.641313580491647
 30
0.0
 10
-22.3519080983325
 20
-2.548586405526835
 30
0.0
 10
-22.32843051775529
 20
-2.388487091987669
 30
0.0
 10
-22.30524128308591
 20
-2.167109982620821
 30
0.0
 10
-22.28347840602801
 20
-1.895464949474781
 30
0.0
 10
-22.26171392077242
 20
-1.577811587847731
 30
0.0
 10
-22.23852961250697
 20
-1.218715066571141
 30
0.0
 10
-22.21503382424537
 20
-0.8268235507062602
 30
0.0
 10
-22.19184942985727
 20
-0.4167779228260145
 30
0.0
 10
-22.17008528253052
 20
-0.0000003331986047
 30
0.0
 10
-22.14832113520023
 20
0.4167772647180464
 30
0.0
 10
-22.125136740823
 20
0.8268229161852218
 30
0.0
 10
-22.10164095252123
 20
1.21871447508342
 30
0.0
 10
-22.07845664440384
 20
1.577811041351953
 30
0.0
 10
-22.05669215860638
 20
1.895464506736704
 30
0.0
 10
-22.03492928357562
 20
2.167109483431555
 30
0.0
 10
-22.01174004118459
 20
2.388487197826819
 30
0.0
 10
-21.98826248965315
 20
2.548584668682657
 30
0.0
 10
-21.96793080983086
 20
2.641301264871263
 30
0.0
 10
-21.95610735860539
 20
2.653104317830368
 30
0.0
 10
-21.95164482365664
 20
2.657559153844625
 30
0.0
  0
SPLINE
  5
6F4
330
1F
100
AcDbEntity
  8
SK1
  6
Continuous
370
    15
100
AcDbSpline
210
0.0
220
0.0
230
1.0
 70
     8
 71
     3
 72
    27
 73
    23
 74
     0
 42
0.0000000001
 43
0.0000000001
 40
0.0
 40
0.0
 40
0.0
 40
0.0
 40
0.0336957382116716
 40
0.0857953875705835
 40
0.1382253088099589
 40
0.1903249581688707
 40
0.2414583618984968
 40
0.2925917656281221
 40
0.3446914149870341
 40
0.3971213362264095
 40
0.4492209855853216
 40
0.5003543893149479
 40
0.5514877930445729
 40
0.6035874424034848
 40
0.6560173636428603
 40
0.7081170130017723
 40
0.7592504167313989
 40
0.8103838204610227
 40
0.8624834698199347
 40
0.9149133910593098
 40
0.9670130404182215
 40
1.0
 40
1.0
 40
1.0
 40
1.0
 10
-23.29656957552546
 20
-2.658882420032681
 30
0.0
 10
-23.29181017343065
 20
-2.654217543619903
 30
0.0
 10
-23.27969188283963
 20
-2.642339932353785
 30
0.0
 10
-23.25905282772563
 20
-2.548711463923603
 30
0.0
 10
-23.23557287510493
 20
-2.388453707915088
 30
0.0
 10
-23.21238427102863
 20
-2.16711871949896
 30
0.0
 10
-23.19062122842301
 20
-1.895462628465313
 30
0.0
 10
-23.16885678742004
 20
-1.577812222725665
 30
0.0
 10
-23.14567246706474
 20
-1.218714893898745
 30
0.0
 10
-23.12217668207605
 20
-0.8268235966505024
 30
0.0
 10
-23.09899228682838
 20
-0.4167779113545276
 30
0.0
 10
-23.07722813968881
 20
-0.0000003342295152
 30
0.0
 10
-23.05546399245251
 20
0.4167772574091782
 30
0.0
 10
-23.03227959750117
 20
0.826822947224719
 30
0.0
 10
-23.00878381141727
 20
1.218714357978074
 30
0.0
 10
-22.98559949509887
 20
1.577811472039636
 30
0.0
 10
-22.96383503932188
 20
1.895462932182784
 30
0.0
 10
-22.94207205198478
 20
2.167115410466875
 30
0.0
 10
-22.91888323738362
 20
2.388464550309636
 30
0.0
 10
-22.89540407667471
 20
2.548669507409359
 30
0.0
 10
-22.87486827055759
 20
2.641990432775759
 30
0.0
 10
-22.86284900016995
 20
2.653842933615271
 30
0.0
 10
-22.85818928706803
 20
2.658437992356048
 30
0.0
  0
SPLINE
  5
6F5
330
1F
100
AcDbEntity
  8
SK1
  6
Continuous
370
    15
100
AcDbSpline
210
0.0
220
0.0
230
1.0
 70
     8
 71
     3
 72
    27
 73
    23
 74
     0
 42
0.0000000001
 43
0.0000000001
 40
0.0
 40
0.0
 40
0.0
 40
0.0
 40
0.030546726657542
 40
0.0830007718348794
 40
0.1357873354907824
 40
0.1882413806681195
 40
0.2397226075536905
 40
0.2912038344392602
 40
0.3436578796165977
 40
0.3964444432725008
 40
0.4488984884498384
 40
0.5003797153354097
 40
0.5518609422209798
 40
0.604314987398317
 40
0.6571015510542202
 40
0.7095555962315575
 40
0.7610368231171286
 40
0.8125180500026985
 40
0.8649720951800357
 40
0.9177586588359387
 40
0.970212704013276
 40
1.0
 40
1.0
 40
1.0
 40
1.0
 10
-24.2022799879088
 20
-2.656778648673498
 30
0.0
 10
-24.19799261485025
 20
-2.652450822092389
 30
0.0
 10
-24.18634307619448
 20
-2.640691364176433
 30
0.0
 10
-24.16619262206984
 20
-2.548506881932314
 30
0.0
 10
-24.14271654985535
 20
-2.388508320641623
 30
0.0
 10
-24.11952691419708
 20
-2.167104426913367
 30
0.0
 10
-24.09776414240955
 20
-1.895466425382831
 30
0.0
 10
-24.07599962901428
 20
-1.577811184143803
 30
0.0
 10
-24.05281532843596
 20
-1.218715176335139
 30
0.0
 10
-24.02931953809576
 20
-0.8268235216291088
 30
0.0
 10
-24.00613514424457
 20
-0.4167779296118664
 30
0.0
 10
-23.98437099683427
 20
-0.0000003344030128
 30
0.0
 10
-23.96260684931155
 20
0.4167772763670703
 30
0.0
 10
-23.93942245580472
 20
0.8268228696949124
 30
0.0
 10
-23.91592666419176
 20
1.2187146497662
 30
0.0
 10
-23.89274236830481
 20
1.577810399093298
 30
0.0
 10
-23.87097783774031
 20
1.895466854726057
 30
0.0
 10
-23.84921513018164
 20
2.167100644994961
 30
0.0
 10
-23.82602524986741
 20
2.388520969959404
 30
0.0
 10
-23.80255009795243
 20
2.548458156593861
 30
0.0
 10
-23.78250941479058
 20
2.640322627945338
 30
0.0
 10
-23.77096524713224
 20
2.652055941121345
 30
0.0
 10
-23.76678402228727
 20
2.656305673281981
 30
0.0
  0
SPLINE
  5
6F6
330
1F
100
AcDbEntity
  8
SK1
  6
Continuous
370
    15
100
AcDbSpline
210
0.0
220
0.0
230
1.0
 70
     8
 71
     3
 72
    26
 73
    22
 74
     0
 42
0.0000000001
 43
0.0000000001
 40
0.0
 40
0.0
 40
0.0
 40
0.0
 40
0.0470244118861305
 40
0.097322383400642
 40
0.149037365550172
 40
0.2000327970480152
 40
0.2525056959939813
 40
0.3036285882072093
 40
0.3561666767086963
 40
0.4084333438283877
 40
0.4622157478977645
 40
0.514480172968551
 40
0.5682056502651754
 40
0.6214232518055051
 40
0.6761648066657721
 40
0.7297027336546404
 40
0.7847749354980984
 40
0.8388061978764806
 40
0.8943579703264548
 40
0.9491671896875716
 40
1.0
 40
1.0
 40
1.0
 40
1.0
 10
-24.85812312605771
 20
-2.374341536887186
 30
0.0
 10
-24.85431652523191
 20
-2.373653568507115
 30
0.0
 10
-24.84643833069077
 20
-2.372229739483693
 30
0.0
 10
-24.83372754253362
 20
-2.288227198410645
 30
0.0
 10
-24.82067404298176
 20
-2.143706132458226
 30
0.0
 10
-24.80761937001833
 20
-1.934408999924776
 30
0.0
 10
-24.79555189842456
 20
-1.67046131907205
 30
0.0
 10
-24.78295873692681
 20
-1.356269230453317
 30
0.0
 10
-24.76995583257285
 20
-1.003571459229564
 30
0.0
 10
-24.75678167791564
 20
-0.6147966692376956
 30
0.0
 10
-24.74396457249291
 20
-0.2070901553632867
 30
0.0
 10
-24.73191229267405
 20
0.2121093250437269
 30
0.0
 10
-24.7191420025869
 20
0.6261557391716304
 30
0.0
 10
-24.70598186945542
 20
1.031228725424488
 30
0.0
 10
-24.69292156204624
 20
1.409190543127451
 30
0.0
 10
-24.68029159351563
 20
1.753434516915335
 30
0.0
 10
-24.66821523651922
 20
2.048741050912633
 30
0.0
 10
-24.65517579889065
 20
2.292789526861135
 30
0.0
 10
-24.64211995006927
 20
2.472343662837205
 30
0.0
 10
-24.62944863409216
 20
2.588324199167114
 30
0.0
 10
-24.62167038347024
 20
2.605468049862494
 30
0.0
 10
-24.6179276464209
 20
2.613717324446824
 30
0.0
  0
SPLINE
  5
6F7
330
1F
100
AcDbEntity
  8
SK1
  6
Continuous
370
    15
100
AcDbSpline
210
0.0
220
0.0
230
1.0
 70
     8
 71
     3
 72
    23
 73
    19
 74
     0
 42
0.0000000001
 43
0.0000000001
 40
0.0
 40
0.0
 40
0.0
 40
0.0
 40
0.0423380478305141
 40
0.1084074578058722
 40
0.1744768677812302
 40
0.2392653815538678
 40
0.3040538953265007
 40
0.3701233053018582
 40
0.4361927152772158
 40
0.5009812290498548
 40
0.5657697428224892
 40
0.6318391527978479
 40
0.6979085627732065
 40
0.7626970765458441
 40
0.8274855903184768
 40
0.8935550002938343
 40
0.9596244102691919
 40
1.0
 40
1.0
 40
1.0
 40
1.0
 10
-19.21233643982484
 20
-2.144902368479836
 30
0.0
 10
-19.20639039469485
 20
-2.139007882189114
 30
0.0
 10
-19.19116542166061
 20
-2.123914926642206
 30
0.0
 10
-19.16515744160316
 20
-2.005684651700121
 30
0.0
 10
-19.13590503191496
 20
-1.806497127282078
 30
0.0
 10
-19.10847694738016
 20
-1.53614980489834
 30
0.0
 10
-19.08105606374545
 20
-1.20839015687928
 30
0.0
 10
-19.05178162333045
 20
-0.8316329508486504
 30
0.0
 10
-19.02250770613773
 20
-0.4225708344487327
 30
0.0
 10
-18.99508528320153
 20
-0.0000003119789334
 30
0.0
 10
-18.96766285620923
 20
0.4225704740647887
 30
0.0
 10
-18.93838895142596
 20
0.8316318461611267
 30
0.0
 10
-18.90911446561728
 20
1.208391937466213
 30
0.0
 10
-18.88169374798118
 20
1.536141284901009
 30
0.0
 10
-18.85426504248403
 20
1.806527471647576
 30
0.0
 10
-18.82501499506254
 20
2.005567551901611
 30
0.0
 10
-18.79929183964854
 20
2.122949294265838
 30
0.0
 10
-18.78433923222116
 20
2.137971827703831
 30
0.0
 10
-18.77866756756279
 20
2.143670015955831
 30
0.0
  0
SPLINE
  5
6F8
330
1F
100
AcDbEntity
  8
SK1
  6
Continuous
370
    15
100
AcDbSpline
210
0.0
220
0.0
230
1.0
 70
     8
 71
     3
 72
    23
 73
    19
 74
     0
 42
0.0000000001
 43
0.0000000001
 40
0.0
 40
0.0
 40
0.0
 40
0.0
 40
0.0404312293011701
 40
0.1065203535957939
 40
0.1726094778904176
 40
0.2374173237782616
 40
0.3022251696661021
 40
0.3683142939607267
 40
0.4344034182553517
 40
0.4992112641431972
 40
0.5640191100310391
 40
0.6301082343256629
 40
0.6961973586202866
 40
0.7610052045081305
 40
0.8258130503959709
 40
0.8919021746905952
 40
0.9579912989852196
 40
1.0
 40
1.0
 40
1.0
 40
1.0
 10
-20.11866436232818
 20
-2.143697420177355
 30
0.0
 10
-20.11298660392736
 20
-2.137994846474033
 30
0.0
 10
-20.09802794837966
 20
-2.122970812384957
 30
0.0
 10
-20.07229846951859
 20
-2.005570405368769
 30
0.0
 10
-20.04304836860864
 20
-1.806527078135431
 30
0.0
 10
-20.01561967717247
 20
-1.536141851085016
 30
0.0
 10
-19.98819895577524
 20
-1.208392335779685
 30
0.0
 10
-19.95892447100374
 20
-0.8316323594169912
 30
0.0
 10
-19.92965056590473
 20
-0.4225709983425708
 30
0.0
 10
-19.9022281391315
 20
-0.0000002362263789
 30
0.0
 10
-19.87480571562747
 20
0.4225703319531942
 30
0.0
 10
-19.84553180052653
 20
0.831632348450384
 30
0.0
 10
-19.81625735234205
 20
1.208390089896736
 30
0.0
 10
-19.78883649715095
 20
1.536148028473431
 30
0.0
 10
-19.76140830620664
 20
1.806502078280843
 30
0.0
 10
-19.73215630132414
 20
2.005664413824991
 30
0.0
 10
-19.7061979498209
 20
2.123746346225681
 30
0.0
 10
-19.69102042611003
 20
2.13882703359817
 30
0.0
 10
-19.68512217557734
 20
2.144687651840166
 30
0.0
  0
SPLINE
  5
6F9
330
1F
100
AcDbEntity
  8
SK1
  6
Continuous
370
    15
100
AcDbSpline
210
0.0
220
0.0
230
1.0
 70
     8
 71
     3
 72
    23
 73
    19
 74
     0
 42
0.0000000001
 43
0.0000000001
 40
0.0
 40
0.0
 40
0.0
 40
0.0
 40
0.0404175296089628
 40
0.1067251771878774
 40
0.1730328247667922
 40
0.2380549573997285
 40
0.3030770900326643
 40
0.3693847376115784
 40
0.4356923851904926
 40
0.5007145178234305
 40
0.5657366504563677
 40
0.6320442980352831
 40
0.6983519456141983
 40
0.7633740782471347
 40
0.8283962108800707
 40
0.8947038584589856
 40
0.9610115060379003
 40
1.0
 40
1.0
 40
1.0
 40
1.0
 10
-21.0257448508489
 20
-2.143605203008374
 30
0.0
 10
-21.02008762774808
 20
-2.137917489489046
 30
0.0
 10
-21.00514935359655
 20
-2.122898703357952
 30
0.0
 10
-20.9794411837008
 20
-2.005561476611241
 30
0.0
 10
-20.9501912632286
 20
-1.806529418807731
 30
0.0
 10
-20.92276252436827
 20
-1.536141229831796
 30
0.0
 10
-20.89534181562248
 20
-1.208392504685117
 30
0.0
 10
-20.86606732749104
 20
-0.8316323184732228
 30
0.0
 10
-20.83679342294002
 20
-0.4225709916246423
 30
0.0
 10
-20.80937099732118
 20
-0.0000003016069572
 30
0.0
 10
-20.7819485686492
 20
0.4225705893427368
 30
0.0
 10
-20.75267467343908
 20
0.8316313635369763
 30
0.0
 10
-20.72340015113868
 20
1.20839373397155
 30
0.0
 10
-20.6959795673442
 20
1.536134722186888
 30
0.0
 10
-20.66855036106998
 20
1.806552185494015
 30
0.0
 10
-20.63930221873504
 20
2.005473281558971
 30
0.0
 10
-20.61380061826541
 20
2.1222005370415
 30
0.0
 10
-20.59905995716487
 20
2.137168699931652
 30
0.0
 10
-20.59360186375418
 20
2.142711031492197
 30
0.0
  0
SPLINE
  5
6FA
330
1F
100
AcDbEntity
  8
SK1
  6
Continuous
370
    15
100
AcDbSpline
210
0.0
220
0.0
230
1.0
 70
     8
 71
     3
 72
    23
 73
    19
 74
     0
 42
0.0000000001
 43
0.0000000001
 40
0.0
 40
0.0
 40
0.0
 40
0.0
 40
0.040519622649245
 40
0.1067154251377923
 40
0.1729112276263398
 40
0.2378236835241532
 40
0.3027361394219659
 40
0.3689319419105138
 40
0.4351277443990614
 40
0.5000402002968749
 40
0.5649526561946877
 40
0.6311484586832356
 40
0.6973442611717836
 40
0.7622567170695968
 40
0.8271691729674088
 40
0.893364975455956
 40
0.9595607779445032
 40
1.0
 40
1.0
 40
1.0
 40
1.0
 10
-21.93295988143795
 20
-2.14371191742111
 30
0.0
 10
-21.92727889476748
 20
-2.138007009859777
 30
0.0
 10
-21.91231703510285
 20
-2.122982150397255
 30
0.0
 10
-21.88658420623997
 20
-2.005571806612646
 30
0.0
 10
-21.85733407701189
 20
-1.806526710739488
 30
0.0
 10
-21.82990539302299
 20
-1.536141948816969
 30
0.0
 10
-21.8024846696223
 20
-1.208392308383384
 30
0.0
 10
-21.77321018544664
 20
-0.8316323692345513
 30
0.0
 10
-21.74393628000641
 20
-0.4225709868492454
 30
0.0
 10
-21.7165138539865
 20
-0.000000271782568
 30
0.0
 10
-21.68909142779749
 20
0.4225704640905486
 30
0.0
 10
-21.65981752287462
 20
0.8316318449049928
 30
0.0
 10
-21.63054303680648
 20
1.208391952416358
 30
0.0
 10
-21.60312232032639
 20
1.536141227650599
 30
0.0
 10
-21.57569361044912
 20
1.80652768796284
 30
0.0
 10
-21.54644357970568
 20
2.005566726571885
 30
0.0
 10
-21.52072239496125
 20
2.122942625289219
 30
0.0
 10
-21.50577167241109
 20
2.137964673332443
 30
0.0
 10
-21.50010190685628
 20
2.143661487668499
 30
0.0
  0
SPLINE
  5
6FB
330
1F
100
AcDbEntity
  8
SK1
  6
Continuous
370
    15
100
AcDbSpline
210
0.0
220
0.0
230
1.0
 70
     8
 71
     3
 72
    23
 73
    19
 74
     0
 42
0.0000000001
 43
0.0000000001
 40
0.0
 40
0.0
 40
0.0
 40
0.0
 40
0.0424684903710742
 40
0.1085285232319068
 40
0.1745885560927394
 40
0.2393678745461834
 40
0.3041471929996271
 40
0.37020722586046
 40
0.4362672587212928
 40
0.5010465771747371
 40
0.5658258956281791
 40
0.631885928489012
 40
0.6979459613498449
 40
0.7627252798032905
 40
0.8275045982567336
 40
0.8935646311175661
 40
0.9596246639783988
 40
1.0
 40
1.0
 40
1.0
 40
1.0
 10
-22.84096582662876
 20
-2.144988064522773
 30
0.0
 10
-22.83500070342045
 20
-2.139080085561516
 30
0.0
 10
-22.819756789473
 20
-2.123982204135832
 30
0.0
 10
-22.79372899758709
 20
-2.005692609382963
 30
0.0
 10
-22.76447642708393
 20
-1.806495041096821
 30
0.0
 10
-22.73704838482181
 20
-1.536150358898054
 30
0.0
 10
-22.70962748988766
 20
-1.20839000516002
 30
0.0
 10
-22.68035305255844
 20
-0.8316329918559688
 30
0.0
 10
-22.65107913453751
 20
-0.4225708237286181
 30
0.0
 10
-22.62365671181676
 20
-0.0000003147149732
 30
0.0
 10
-22.59623428477533
 20
0.4225704743971077
 30
0.0
 10
-22.56696037997329
 20
0.8316318476651094
 30
0.0
 10
-22.53768589428941
 20
1.208391931176308
 30
0.0
 10
-22.51026517618186
 20
1.536141308055817
 30
0.0
 10
-22.48283647245235
 20
1.806527384402714
 30
0.0
 10
-22.45358641830531
 20
2.005567884708472
 30
0.0
 10
-22.42786246809181
 20
2.122951984004902
 30
0.0
 10
-22.41290910046777
 20
2.137974713219088
 30
0.0
 10
-22.40723666987618
 20
2.143673455529592
 30
0.0
  0
SPLINE
  5
6FC
330
1F
100
AcDbEntity
  8
SK1
  6
Continuous
370
    15
100
AcDbSpline
210
0.0
220
0.0
230
1.0
 70
     8
 71
     3
 72
    23
 73
    19
 74
     0
 42
0.0000000001
 43
0.0000000001
 40
0.0
 40
0.0
 40
0.0
 40
0.0
 40
0.0395985556334285
 40
0.1057514734688891
 40
0.1719043913043495
 40
0.2367747939593959
 40
0.3016451966144416
 40
0.3677981144499022
 40
0.4339510322853629
 40
0.4988214349404096
 40
0.5636918375954549
 40
0.6298447554309155
 40
0.6959976732663762
 40
0.7608680759214231
 40
0.8257384785764672
 40
0.8918913964119276
 40
0.958044314247388
 40
1.0
 40
1.0
 40
1.0
 40
1.0
 10
-23.74686605306368
 20
-2.143150732190183
 30
0.0
 10
-23.74131003931096
 20
-2.13753662271329
 30
0.0
 10
-23.72647220920418
 20
-2.1225436427952
 30
0.0
 10
-23.70086904423954
 20
-2.005517077235875
 30
0.0
 10
-23.67162002102539
 20
-1.80654105863128
 30
0.0
 10
-23.64419104630044
 20
-1.536138138481303
 30
0.0
 10
-23.61677040062561
 20
-1.208393352498136
 30
0.0
 10
-23.58749589517651
 20
-0.8316320846945552
 30
0.0
 10
-23.55822199562126
 20
-0.4225710698616512
 30
0.0
 10
-23.53079956742813
 20
-0.0000002190638089
 30
0.0
 10
-23.50337714416382
 20
0.422570334143372
 30
0.0
 10
-23.47410322952909
 20
0.831632321522461
 30
0.0
 10
-23.44482877924065
 20
1.208390194374142
 30
0.0
 10
-23.41740793185067
 20
1.53614764572417
 30
0.0
 10
-23.38997971169537
 20
1.806503519934725
 30
0.0
 10
-23.36072781794523
 20
2.005658914589872
 30
0.0
 10
-23.33478303089901
 20
2.123700318415776
 30
0.0
 10
-23.3196184766211
 20
2.138777640068193
 30
0.0
 10
-23.3137332903108
 20
2.144628972415896
 30
0.0
  0
SPLINE
  5
6FD
330
1F
100
AcDbEntity
  8
SK1
  6
Continuous
370
    15
100
AcDbSpline
210
0.0
220
0.0
230
1.0
 70
     8
 71
     3
 72
    23
 73
    19
 74
     0
 42
0.0000000001
 43
0.0000000001
 40
0.0
 40
0.0
 40
0.0
 40
0.0
 40
0.0403420268719873
 40
0.106674348796296
 40
0.1730066707206048
 40
0.2380529993342082
 40
0.303099327947811
 40
0.3694316498721201
 40
0.4357639717964292
 40
0.5008103004100325
 40
0.5658566290236357
 40
0.6321889509479445
 40
0.6985212728722533
 40
0.7635676014858566
 40
0.8286139300994589
 40
0.8949462520237677
 40
0.9612785739480763
 40
1.0
 40
1.0
 40
1.0
 40
1.0
 10
-24.65427797890097
 20
-2.143548572521045
 30
0.0
 10
-24.64863336671012
 20
-2.137869997069469
 30
0.0
 10
-24.63370760872633
 20
-2.122854431780456
 30
0.0
 10
-24.60801252426632
 20
-2.005555980109785
 30
0.0
 10
-24.57876271487151
 20
-1.80653085976175
 30
0.0
 10
-24.5513339468134
 20
-1.536140847207176
 30
0.0
 10
-24.52391324586987
 20
-1.208392609358869
 30
0.0
 10
-24.49463875561635
 20
-0.8316322906112647
 30
0.0
 10
-24.46536485160261
 20
-0.4225709973183385
 30
0.0
 10
-24.43794242596236
 20
-0.0000003059641118
 30
0.0
 10
-24.41051999684764
 20
0.422570612637399
 30
0.0
 10
-24.38124610346386
 20
0.8316312727659429
 30
0.0
 10
-24.351971574326
 20
1.208394070241459
 30
0.0
 10
-24.32455101557736
 20
1.536133494191986
 30
0.0
 10
-24.29712171560108
 20
1.806556809759666
 30
0.0
 10
-24.26787392973086
 20
2.005455642446025
 30
0.0
 10
-24.24241300760101
 20
2.1220632881585
 30
0.0
 10
-24.22771126885376
 20
2.137021513266571
 30
0.0
 10
-24.22229240183851
 20
2.142534917771865
 30
0.0
  0
SPLINE
  5
6FE
330
1F
100
AcDbEntity
  8
SK1
  6
Continuous
370
    15
100
AcDbSpline
210
0.0
220
0.0
230
1.0
 70
    24
 71
     3
 72
     8
 73
     4
 74
     0
 42
0.0000000001
 43
0.0000000001
 40
0.0
 40
0.0
 40
0.0
 40
0.0
 40
1.0
 40
1.0
 40
1.0
 40
1.0
 10
-18.51429955029999
 20
0.5104211064833653
 30
0.0
 10
-18.51429955029999
 20
0.342906141783585
 30
0.0
 10
-18.51429955029999
 20
0.1727650381618915
 30
0.0
 10
-18.51429955029999
 20
-0.0000003356346854
 30
0.0
  0
SPLINE
  5
6FF
330
1F
100
AcDbEntity
  8
SK1
  6
Continuous
370
    15
100
AcDbSpline
210
0.0
220
0.0
230
1.0
 70
     8
 71
     3
 72
     8
 73
     4
 74
     0
 42
0.0000000001
 43
0.0000000001
 40
0.0
 40
0.0
 40
0.0
 40
0.0
 40
1.0
 40
1.0
 40
1.0
 40
1.0
 10
-18.54151385395851
 20
-0.0000003318257189
 30
0.0
 10
-18.5328755982454
 20
0.168490362989659
 30
0.0
 10
-18.52372982624088
 20
0.3402139614829851
 30
0.0
 10
-18.51429955029999
 20
0.5104211064848512
 30
0.0
  0
SPLINE
  5
700
330
1F
100
AcDbEntity
  8
1
  6
Continuous
370
    15
100
AcDbSpline
210
0.0
220
0.0
230
1.0
 70
     8
 71
     3
 72
     8
 73
     4
 74
     0
 42
0.0000000001
 43
0.0000000001
 40
0.0
 40
0.0
 40
0.0
 40
0.0
 40
1.0
 40
1.0
 40
1.0
 40
1.0
 10
5.111700449700009
 20
0.0357407848277056
 30
0.0
 10
4.958083003823148
 20
0.0118139826497741
 30
0.0
 10
4.804099002252556
 20
-0.0000000000001288
 30
0.0
 10
4.649999999984231
 20
-0.0000000000001288
 30
0.0
  0
SPLINE
  5
701
330
1F
100
AcDbEntity
  8
1
  6
Continuous
370
    15
100
AcDbSpline
210
0.0
220
0.0
230
1.0
 70
     8
 71
     3
 72
    22
 73
    18
 74
     0
 42
0.0000000001
 43
0.0000000001
 40
0.0
 40
0.0
 40
0.0
 40
0.0
 40
0.125
 40
0.125
 40
0.25
 40
0.25
 40
0.375
 40
0.375
 40
0.5
 40
0.5
 40
0.625
 40
0.625
 40
0.75
 40
0.75
 40
0.875
 40
0.875
 40
1.0
 40
1.0
 40
1.0
 40
1.0
 10
3.149999999984231
 20
0.0
 30
0.0
 10
2.943095877159422
 20
0.0
 30
0.0
 10
2.739785864608933
 20
0.0211763808036611
 30
0.0
 10
2.340072259764525
 20
0.1041956477057599
 30
0.0
 10
2.141477277119506
 20
0.1671864462709856
 30
0.0
 10
1.76582126175478
 20
0.3305431388840834
 30
0.0
 10
1.588176175794586
 20
0.4304385844509309
 30
0.0
 10
1.253475806485369
 20
0.6665185859839378
 30
0.0
 10
1.097471664335955
 20
0.8027635328576012
 30
0.0
 10
0.8217006114927016
 20
1.097437880454497
 30
0.0
 10
0.699062120695487
 20
1.258475247827337
 30
0.0
 10
0.4895644783295552
 20
1.599254560714017
 30
0.0
 10
0.4051366787275157
 20
1.774481966821582
 30
0.0
 10
0.2723515829803063
 20
2.130915027088383
 30
0.0
 10
0.2242816266571594
 20
2.31308136863533
 30
0.0
 10
0.1635798783192683
 20
2.66387492944705
 30
0.0
 10
0.1499999999842316
 20
2.834631079979129
 30
0.0
 10
0.1499999999842316
 20
3.0
 30
0.0
  0
SPLINE
  5
702
330
1F
100
AcDbEntity
  8
SK1
  6
Continuous
370
    15
100
AcDbSpline
210
0.0
220
0.0
230
1.0
 70
    11
 71
     3
 72
    70
 73
    66
 74
     0
 42
0.0000000001
 43
0.0000000001
 40
0.0
 40
0.0
 40
0.0
 40
0.0
 40
0.0324051082307612
 40
0.0486808494837646
 40
0.0648310950637916
 40
0.0808442494212006
 40
0.0968614250079464
 40
0.1127275516499169
 40
0.1284064281406077
 40
0.1440273935027877
 40
0.1595681635076121
 40
0.1748492240663773
 40
0.1900031885502797
 40
0.2051820057798455
 40
0.2201887806381742
 40
0.2350072420532525
 40
0.2498595782323138
 40
0.2648413282895125
 40
0.279728675036973
 40
0.2947200415877806
 40
0.3098997382691563
 40
0.3250917236256928
 40
0.3404396711648599
 40
0.3559686580481085
 40
0.3715123396010802
 40
0.3871867415943911
 40
0.4030866543803335
 40
0.4189790495550361
 40
0.4349037737724382
 40
0.4510045370533855
 40
0.4672762216921744
 40
0.4834387224491777
 40
0.4996334131817239
 40
0.5160155801159416
 40
0.5324315092540159
 40
0.5486559158466079
 40
0.5647391655418183
 40
0.58084377105254
 40
0.5968682922127381
 40
0.6126798910756487
 40
0.62842319115251
 40
0.6441090497229737
 40
0.6595432528752078
 40
0.6748502068963618
 40
0.6901594035197002
 40
0.7052571079289787
 40
0.7201762810568889
 40
0.7351091839689925
 40
0.7501010425171292
 40
0.7649488228642049
 40
0.7798548588454887
 40
0.7949488414291999
 40
0.8100274956467147
 40
0.8252231632486497
 40
0.8406336324204929
 40
0.8560639776987228
 40
0.8716085500355903
 40
0.8873907894874209
 40
0.9032049188428585
 40
0.9190551735758962
 40
0.9350880299966235
 40
0.9513067209643576
 40
0.9674392034984576
 40
0.9836262152777015
 40
1.0
 40
1.0
 40
1.0
 40
1.0
 10
-11.06887596907205
 20
-0.1540739744478961
 30
0.0
 10
-11.06767218330147
 20
-0.3169760258497858
 30
0.0
 10
-11.08822841237904
 20
-0.5619720416249381
 30
0.0
 10
-11.15871748528732
 20
-0.8767017534792156
 30
0.0
 10
-11.23211078175888
 20
-1.104555536300544
 30
0.0
 10
-11.32477455072525
 20
-1.321858236194425
 30
0.0
 10
-11.43553541992097
 20
-1.526992559333089
 30
0.0
 10
-11.56316313165671
 20
-1.718411748423163
 30
0.0
 10
-11.70632565175796
 20
-1.89482295621858
 30
0.0
 10
-11.86423064309625
 20
-2.055483908700491
 30
0.0
 10
-12.03573426509146
 20
-2.199067500098573
 30
0.0
 10
-12.21951822505186
 20
-2.324336913089201
 30
0.0
 10
-12.41480130868665
 20
-2.430469080685908
 30
0.0
 10
-12.62062325851526
 20
-2.516192789103651
 30
0.0
 10
-12.83481541330875
 20
-2.579870266812917
 30
0.0
 10
-13.05480007950368
 20
-2.620361293100366
 30
0.0
 10
-13.27891508951751
 20
-2.636941873945605
 30
0.0
 10
-13.50404573104203
 20
-2.628897685311346
 30
0.0
 10
-13.72678324192324
 20
-2.596367263666729
 30
0.0
 10
-13.94406050983308
 20
-2.540222100411158
 30
0.0
 10
-14.15356896661874
 20
-2.461501300837729
 30
0.0
 10
-14.35339293373781
 20
-2.361560789586568
 30
0.0
 10
-14.54195179949036
 20
-2.241871828525621
 30
0.0
 10
-14.71801611389331
 20
-2.103684741815259
 30
0.0
 10
-14.88051560044251
 20
-1.9482879394612
 30
0.0
 10
-15.02871785815275
 20
-1.776638854934431
 30
0.0
 10
-15.16151167149467
 20
-1.589774508089853
 30
0.0
 10
-15.27759328978314
 20
-1.38919304986145
 30
0.0
 10
-15.37589651661395
 20
-1.17643385803181
 30
0.0
 10
-15.45562399650897
 20
-0.9521286812385705
 30
0.0
 10
-15.51525944415719
 20
-0.7185962506175044
 30
0.0
 10
-15.55370075171662
 20
-0.4786291781461199
 30
0.0
 10
-15.5703589185528
 20
-0.2345050174426575
 30
0.0
 10
-15.56464107724036
 20
0.0119762244668431
 30
0.0
 10
-15.53624825967816
 20
0.257006086905637
 30
0.0
 10
-15.48586031016791
 20
0.4963191511091712
 30
0.0
 10
-15.41449386422931
 20
0.7275182828549794
 30
0.0
 10
-15.32296370164221
 20
0.9490235770290622
 30
0.0
 10
-15.21242853718632
 20
1.158611066175478
 30
0.0
 10
-15.08434585589464
 20
1.35435074982058
 30
0.0
 10
-14.93987908179696
 20
1.535022764833076
 30
0.0
 10
-14.78025178710449
 20
1.699209812791398
 30
0.0
 10
-14.60688653457777
 20
1.845583056359668
 30
0.0
 10
-14.42084823761525
 20
1.973247958132649
 30
0.0
 10
-14.22326746965891
 20
2.080994294336099
 30
0.0
 10
-14.01601642847171
 20
2.167372813229512
 30
0.0
 10
-13.80118289269969
 20
2.231297308729615
 30
0.0
 10
-13.57998353818631
 20
2.271978535279299
 30
0.0
 10
-13.35520855473392
 20
2.288351107915252
 30
0.0
 10
-13.13001803584406
 20
2.280055456047935
 30
0.0
 10
-12.90714040251347
 20
2.247350701529597
 30
0.0
 10
-12.68911697245679
 20
2.190709229346874
 30
0.0
 10
-12.47842751467186
 20
2.111117930633863
 30
0.0
 10
-12.27712575574481
 20
2.009879396205323
 30
0.0
 10
-12.08685779576493
 20
1.888176385568691
 30
0.0
 10
-11.90907770881574
 20
1.747322400663669
 30
0.0
 10
-11.74487992668606
 20
1.588526923860285
 30
0.0
 10
-11.59544185285699
 20
1.412854103295219
 30
0.0
 10
-11.46218134917114
 20
1.221798990993059
 30
0.0
 10
-11.34629210928308
 20
1.016987066688654
 30
0.0
 10
-11.24859425572313
 20
0.7992225300571958
 30
0.0
 10
-11.17064618767824
 20
0.5707121182961359
 30
0.0
 10
-11.11363581665318
 20
0.3341513718845563
 30
0.0
 10
-11.07825226607911
 20
0.0918295912793124
 30
0.0
 10
-11.06948422283621
 20
-0.0717621641777075
 30
0.0
 10
-11.06887596907205
 20
-0.1540739744478961
 30
0.0
  0
SPLINE
  5
703
330
1F
100
AcDbEntity
  8
SK1
  6
Continuous
370
    15
100
AcDbSpline
210
0.0
220
0.0
230
1.0
 70
    11
 71
     3
 72
    73
 73
    69
 74
     0
 42
0.0000000001
 43
0.0000000001
 40
0.0
 40
0.0
 40
0.0
 40
0.0
 40
0.0307917510135638
 40
0.0461824575660248
 40
0.0617852762592426
 40
0.0773652622505387
 40
0.0929343230945303
 40
0.1086346744669734
 40
0.1244609564656038
 40
0.1323333049681681
 40
0.1401908922338403
 40
0.1559151153527655
 40
0.1717084471919837
 40
0.1873449339061098
 40
0.2029012833388252
 40
0.218495898278402
 40
0.2339063785048891
 40
0.2492598526403101
 40
0.2647617412688747
 40
0.2801976423174746
 40
0.295606046183628
 40
0.3111713603791878
 40
0.3269068664149696
 40
0.3425686112288617
 40
0.3582635677626438
 40
0.3661621484803537
 40
0.3740949903997689
 40
0.3898342173060329
 40
0.4054803984870432
 40
0.421166696489183
 40
0.4367640667368111
 40
0.4521920871565822
 40
0.4676374844011557
 40
0.4986338096531537
 40
0.5293558433917479
 40
0.5450071853407613
 40
0.560654487888032
 40
0.5763039885684906
 40
0.592096989524052
 40
0.6080651004283286
 40
0.6160194862854823
 40
0.6239585813038709
 40
0.6345426513564218
 40
0.6398417357450638
 40
0.6558017018264328
 40
0.6716410128210409
 40
0.6873563113579183
 40
0.7030723306018631
 40
0.7185906158459322
 40
0.7339921012523777
 40
0.7494847677708194
 40
0.7648450916495263
 40
0.7801785247457
 40
0.7957149147542713
 40
0.8114277576066333
 40
0.8270943634266625
 40
0.8428466549744582
 40
0.8587912422730854
 40
0.8667696631202289
 40
0.8747169010880016
 40
0.8905657522908136
 40
0.9064482241237287
 40
0.9223089954956391
 40
0.9379878283289379
 40
0.9536283379503213
 40
0.9692365673579695
 40
0.9987286078709836
 40
1.0
 40
1.0
 40
1.0
 40
1.0
 10
-11.6671033656565
 20
-0.145862189007337
 30
0.0
 10
-11.66801377544687
 20
-0.0361340308723675
 30
0.0
 10
-11.6860688230855
 20
0.1295956728369676
 30
0.0
 10
-11.74201138521889
 20
0.3414215612555509
 30
0.0
 10
-11.79934616218698
 20
0.4949903911738183
 30
0.0
 10
-11.8711563487084
 20
0.6412007723063136
 30
0.0
 10
-11.9562896932034
 20
0.7786690616351422
 30
0.0
 10
-12.05413546906767
 20
0.9068542105854131
 30
0.0
 10
-12.14559663832297
 20
1.005112328593367
 30
0.0
 10
-12.22420203406889
 20
1.07806399432415
 30
0.0
 10
-12.3060009105904
 20
1.146902998195405
 30
0.0
 10
-12.41471470621884
 20
1.225641222285094
 30
0.0
 10
-12.55427873788198
 20
1.307255766578506
 30
0.0
 10
-12.7019428313104
 20
1.375158714186394
 30
0.0
 10
-12.85651044041502
 20
1.428554207178714
 30
0.0
 10
-13.01648359537519
 20
1.466563764149997
 30
0.0
 10
-13.18004585436358
 20
1.48851493870198
 30
0.0
 10
-13.34532169747669
 20
1.494083906639623
 30
0.0
 10
-13.51028905008641
 20
1.48309353921317
 30
0.0
 10
-13.67261234518419
 20
1.455789472651128
 30
0.0
 10
-13.83023720284226
 20
1.412896562065206
 30
0.0
 10
-13.98227310745717
 20
1.354952916015319
 30
0.0
 10
-14.12720749717677
 20
1.282687965252817
 30
0.0
 10
-14.26367455990584
 20
1.197074835714479
 30
0.0
 10
-14.36949853867614
 20
1.115400778514106
 30
0.0
 10
-14.44932755200377
 20
1.043950272836477
 30
0.0
 10
-14.52571353283575
 20
0.9685471865563197
 30
0.0
 10
-14.61403898281281
 20
0.8676027258552005
 30
0.0
 10
-14.70808982095764
 20
0.7362694596853672
 30
0.0
 10
-14.78930419982386
 20
0.5955814060099529
 30
0.0
 10
-14.85660224825917
 20
0.4468148984902057
 30
0.0
 10
-14.90910303149867
 20
0.2914290440926583
 30
0.0
 10
-14.95854317702888
 20
0.0771161762108808
 30
0.0
 10
-14.97969651523954
 20
-0.2001954259518266
 30
0.0
 10
-14.94508421459743
 20
-0.4742525078672628
 30
0.0
 10
-14.88681391873448
 20
-0.6824935749902368
 30
0.0
 10
-14.82819136155126
 20
-0.8331418973562323
 30
0.0
 10
-14.75595817579023
 20
-0.9759483831904196
 30
0.0
 10
-14.67070914195278
 20
-1.110538108318099
 30
0.0
 10
-14.58945750108367
 20
-1.215019435823754
 30
0.0
 10
-14.51874356235163
 20
-1.29356413636867
 30
0.0
 10
-14.45699156528635
 20
-1.355884363463554
 30
0.0
 10
-14.39836905033678
 20
-1.408797386982564
 30
0.0
 10
-14.31663656668554
 20
-1.47576052024237
 30
0.0
 10
-14.2161378679132
 20
-1.547877759475043
 30
0.0
 10
-14.07784798133389
 20
-1.628144133299205
 30
0.0
 10
-13.931275745718
 20
-1.695188658593685
 30
0.0
 10
-13.7775718766691
 20
-1.74801593813355
 30
0.0
 10
-13.61811957280388
 20
-1.785710620962319
 30
0.0
 10
-13.45461086420989
 20
-1.807560144883104
 30
0.0
 10
-13.28931493885216
 20
-1.812964786844041
 30
0.0
 10
-13.12477220059108
 20
-1.801825768593632
 30
0.0
 10
-12.9632996363913
 20
-1.77463315387442
 30
0.0
 10
-12.80612826841495
 20
-1.731887771002248
 30
0.0
 10
-12.65514014706327
 20
-1.67436893251734
 30
0.0
 10
-12.5119028553849
 20
-1.603176520734083
 30
0.0
 10
-12.37711297898964
 20
-1.519169576105268
 30
0.0
 10
-12.27228889952444
 20
-1.438937611064392
 30
0.0
 10
-12.19323688751257
 20
-1.36886894020682
 30
0.0
 10
-12.11789351463382
 20
-1.295350169480383
 30
0.0
 10
-12.03040655938891
 20
-1.196823086407327
 30
0.0
 10
-11.93671926805162
 20
-1.068423110723457
 30
0.0
 10
-11.85536236163433
 20
-0.93076461154007
 30
0.0
 10
-11.78725670535988
 20
-0.7848823775635303
 30
0.0
 10
-11.73327646285432
 20
-0.6318258411933196
 30
0.0
 10
-11.6826160240629
 20
-0.4253885072414816
 30
0.0
 10
-11.66661524009824
 20
-0.259988319249338
 30
0.0
 10
-11.66706577481469
 20
-0.1503928672569375
 30
0.0
 10
-11.6671033656565
 20
-0.145862189007337
 30
0.0
  0
SPLINE
  5
704
330
1F
100
AcDbEntity
  8
SK1
  6
Continuous
370
    15
100
AcDbSpline
210
0.0
220
0.0
230
1.0
 70
     8
 71
     3
 72
     9
 73
     5
 74
     0
 42
0.0000000001
 43
0.0000000001
 40
0.0
 40
0.0
 40
0.0
 40
0.0
 40
0.1307951585502082
 40
1.0
 40
1.0
 40
1.0
 40
1.0
 10
-18.51643857220961
 20
2.44762205692942
 30
0.0
 10
-18.52786100645024
 20
2.434782359292816
 30
0.0
 10
-18.61519171782552
 20
2.336615899777615
 30
0.0
 10
-18.70255841365252
 20
2.238478902290946
 30
0.0
 10
-18.77849796864682
 20
2.153177748950186
 30
0.0
  0
SPLINE
  5
705
330
1F
100
AcDbEntity
  8
SK1
  6
Continuous
370
    15
100
AcDbSpline
210
0.0
220
0.0
230
1.0
 70
     8
 71
     3
 72
     9
 73
     5
 74
     0
 42
0.0000000001
 43
0.0000000001
 40
0.0
 40
0.0
 40
0.0
 40
0.0
 40
0.5000636860426763
 40
1.0
 40
1.0
 40
1.0
 40
1.0
 10
-19.22939900844723
 20
2.665864249151434
 30
0.0
 10
-19.30532005461674
 20
2.580520633888287
 30
0.0
 10
-19.45714280897493
 20
2.409855141381672
 30
0.0
 10
-19.60902719725528
 20
2.239224660557193
 30
0.0
 10
-19.68495971847982
 20
2.153920286925036
 30
0.0
  0
SPLINE
  5
706
330
1F
100
AcDbEntity
  8
SK1
  6
Continuous
370
    15
100
AcDbSpline
210
0.0
220
0.0
230
1.0
 70
     8
 71
     3
 72
     9
 73
     5
 74
     0
 42
0.0000000001
 43
0.0000000001
 40
0.0
 40
0.0
 40
0.0
 40
0.0
 40
0.5000578293520233
 40
1.0
 40
1.0
 40
1.0
 40
1.0
 10
-20.13795455836471
 20
2.664263449117482
 30
0.0
 10
-20.21386126158589
 20
2.578929590631366
 30
0.0
 10
-20.36565711151694
 20
2.408281610583357
 30
0.0
 10
-20.51750881918821
 20
2.237708961468166
 30
0.0
 10
-20.59342589153798
 20
2.152432501016344
 30
0.0
  0
SPLINE
  5
707
330
1F
100
AcDbEntity
  8
SK1
  6
Continuous
370
    15
100
AcDbSpline
210
0.0
220
0.0
230
1.0
 70
     8
 71
     3
 72
     9
 73
     5
 74
     0
 42
0.0000000001
 43
0.0000000001
 40
0.0
 40
0.0
 40
0.0
 40
0.0
 40
0.5000622344095302
 40
1.0
 40
1.0
 40
1.0
 40
1.0
 10
-21.04439154441659
 20
2.665096530144973
 30
0.0
 10
-21.12030935865197
 20
2.579751468038814
 30
0.0
 10
-21.2721260906734
 20
2.409082586780595
 30
0.0
 10
-21.42400299644224
 20
2.238468183705668
 30
0.0
 10
-21.49993199735711
 20
2.153171600254838
 30
0.0
  0
SPLINE
  5
708
330
1F
100
AcDbEntity
  8
SK1
  6
Continuous
370
    15
100
AcDbSpline
210
0.0
220
0.0
230
1.0
 70
     8
 71
     3
 72
     9
 73
     5
 74
     0
 42
0.0000000001
 43
0.0000000001
 40
0.0
 40
0.0
 40
0.0
 40
0.0
 40
0.5000648908326379
 40
1.0
 40
1.0
 40
1.0
 40
1.0
 10
-21.951484759086
 20
2.66515262588464
 30
0.0
 10
-22.0274093165929
 20
2.579800104316984
 30
0.0
 10
-22.17923872693299
 20
2.409117212691579
 30
0.0
 10
-22.33113088872277
 20
2.238485236859871
 30
0.0
 10
-22.40706711320882
 20
2.153180321395005
 30
0.0
  0
SPLINE
  5
709
330
1F
100
AcDbEntity
  8
SK1
  6
Continuous
370
    15
100
AcDbSpline
210
0.0
220
0.0
230
1.0
 70
     8
 71
     3
 72
     9
 73
     5
 74
     0
 42
0.0000000001
 43
0.0000000001
 40
0.0
 40
0.0
 40
0.0
 40
0.0
 40
0.5000621595962532
 40
1.0
 40
1.0
 40
1.0
 40
1.0
 10
-22.85803353085347
 20
2.665798432699673
 30
0.0
 10
-22.93395071184086
 20
2.580458390864789
 30
0.0
 10
-23.08576620023672
 20
2.409799523367627
 30
0.0
 10
-23.23764183761614
 20
2.239178790774166
 30
0.0
 10
-23.31357021577755
 20
2.153879030193287
 30
0.0
  0
SPLINE
  5
70A
330
1F
100
AcDbEntity
  8
SK1
  6
Continuous
370
    15
100
AcDbSpline
210
0.0
220
0.0
230
1.0
 70
     8
 71
     3
 72
     9
 73
     5
 74
     0
 42
0.0000000001
 43
0.0000000001
 40
0.0
 40
0.0
 40
0.0
 40
0.0
 40
0.5000592298865128
 40
1.0
 40
1.0
 40
1.0
 40
1.0
 10
-23.76662082797964
 20
2.664146478544244
 30
0.0
 10
-23.84253132276331
 20
2.578807828605416
 30
0.0
 10
-23.99433432978091
 20
2.40815074472718
 30
0.0
 10
-24.14619454330971
 20
2.237570457633657
 30
0.0
 10
-24.22211565541089
 20
2.15229041753794
 30
0.0
  0
SPLINE
  5
70B
330
1F
100
AcDbEntity
  8
SK1
  6
Continuous
370
    15
100
AcDbSpline
210
0.0
220
0.0
230
1.0
 70
     8
 71
     3
 72
     9
 73
     5
 74
     0
 42
0.0000000001
 43
0.0000000001
 40
0.0
 40
0.0
 40
0.0
 40
0.0
 40
0.4892093111164325
 40
1.0
 40
1.0
 40
1.0
 40
1.0
 10
-24.66471963083371
 20
-2.164625554307732
 30
0.0
 10
-24.59196698655155
 20
-2.246357167460429
 30
0.0
 10
-24.4432522286167
 20
-2.413425968678001
 30
0.0
 10
-24.29460109844026
 20
-2.580525238886103
 30
0.0
 10
-24.21867148525411
 20
-2.66587799022764
 30
0.0
  0
SPLINE
  5
70C
330
1F
100
AcDbEntity
  8
SK1
  6
Continuous
370
    15
100
AcDbSpline
210
0.0
220
0.0
230
1.0
 70
     8
 71
     3
 72
     9
 73
     5
 74
     0
 42
0.0000000001
 43
0.0000000001
 40
0.0
 40
0.0
 40
0.0
 40
0.0
 40
0.4885444721971798
 40
1.0
 40
1.0
 40
1.0
 40
1.0
 10
-23.75758879911718
 20
-2.164631831874539
 30
0.0
 10
-23.68503995843246
 20
-2.24613186429822
 30
0.0
 10
-23.53653998593572
 20
-2.412954000381645
 30
0.0
 10
-23.38809990373429
 20
-2.579826743375808
 30
0.0
 10
-23.31217940314488
 20
-2.665174730219793
 30
0.0
  0
SPLINE
  5
70D
330
1F
100
AcDbEntity
  8
SK1
  6
Continuous
370
    15
100
AcDbSpline
210
0.0
220
0.0
230
1.0
 70
     8
 71
     3
 72
     9
 73
     5
 74
     0
 42
0.0000000001
 43
0.0000000001
 40
0.0
 40
0.0
 40
0.0
 40
0.0
 40
0.488444228467337
 40
1.0
 40
1.0
 40
1.0
 40
1.0
 10
-22.85045941142861
 20
-2.164616306818567
 30
0.0
 10
-22.77793766004959
 20
-2.246085289585129
 30
0.0
 10
-22.62946267119245
 20
-2.412878094205216
 30
0.0
 10
-22.48104819447362
 20
-2.579723178371338
 30
0.0
 10
-22.4051259123291
 20
-2.665073744128369
 30
0.0
  0
SPLINE
  5
70E
330
1F
100
AcDbEntity
  8
SK1
  6
Continuous
370
    15
100
AcDbSpline
210
0.0
220
0.0
230
1.0
 70
     8
 71
     3
 72
     9
 73
     5
 74
     0
 42
0.0000000001
 43
0.0000000001
 40
0.0
 40
0.0
 40
0.0
 40
0.0
 40
0.4886779395308536
 40
1.0
 40
1.0
 40
1.0
 40
1.0
 10
-21.94329914972492
 20
-2.164635362535086
 30
0.0
 10
-21.8707354387345
 20
-2.246152689625365
 30
0.0
 10
-21.72224559476882
 20
-2.412964654103519
 30
0.0
 10
-21.57380807229666
 20
-2.579833915523146
 30
0.0
 10
-21.49790869245525
 20
-2.665157850101193
 30
0.0
  0
SPLINE
  5
70F
330
1F
100
AcDbEntity
  8
SK1
  6
Continuous
370
    15
100
AcDbSpline
210
0.0
220
0.0
230
1.0
 70
     8
 71
     3
 72
     9
 73
     5
 74
     0
 42
0.0000000001
 43
0.0000000001
 40
0.0
 40
0.0
 40
0.0
 40
0.0
 40
0.4891460036327975
 40
1.0
 40
1.0
 40
1.0
 40
1.0
 10
-21.03614972726259
 20
-2.164627326187608
 30
0.0
 10
-20.96341308527113
 20
-2.246340697349813
 30
0.0
 10
-20.81471179475407
 20
-2.413393827816659
 30
0.0
 10
-20.6660749264462
 20
-2.580477678585016
 30
0.0
 10
-20.59014318826362
 20
-2.665833131478451
 30
0.0
  0
SPLINE
  5
710
330
1F
100
AcDbEntity
  8
SK1
  6
Continuous
370
    15
100
AcDbSpline
210
0.0
220
0.0
230
1.0
 70
     8
 71
     3
 72
     9
 73
     5
 74
     0
 42
0.0000000001
 43
0.0000000001
 40
0.0
 40
0.0
 40
0.0
 40
0.0
 40
0.4885764343649485
 40
1.0
 40
1.0
 40
1.0
 40
1.0
 10
-20.12901364931062
 20
-2.164635914609804
 30
0.0
 10
-20.05645783776834
 20
-2.246143947807495
 30
0.0
 10
-19.9079533122961
 20
-2.412971546243826
 30
0.0
 10
-19.75950793369861
 20
-2.57984995719106
 30
0.0
 10
-19.68358946887424
 20
-2.665195509145207
 30
0.0
  0
SPLINE
  5
711
330
1F
100
AcDbEntity
  8
SK1
  6
Continuous
370
    15
100
AcDbSpline
210
0.0
220
0.0
230
1.0
 70
     8
 71
     3
 72
     9
 73
     5
 74
     0
 42
0.0000000001
 43
0.0000000001
 40
0.0
 40
0.0
 40
0.0
 40
0.0
 40
0.4884142141784269
 40
1.0
 40
1.0
 40
1.0
 40
1.0
 10
-19.22188564663595
 20
-2.164618690131981
 30
0.0
 10
-19.14937070505269
 20
-2.246079917512584
 30
0.0
 10
-19.00090053469691
 20
-2.412867093265917
 30
0.0
 10
-18.85249149428551
 20
-2.579706323810073
 30
0.0
 10
-18.77656753872362
 20
-2.66505890267387
 30
0.0
  0
SPLINE
  5
712
330
1F
100
AcDbEntity
  8
SK1
  6
Continuous
370
    15
100
AcDbSpline
210
0.0
220
0.0
230
1.0
 70
     8
 71
     3
 72
     9
 73
     5
 74
     0
 42
0.0000000001
 43
0.0000000001
 40
0.0
 40
0.0
 40
0.0
 40
0.0
 40
0.4885175866415131
 40
1.0
 40
1.0
 40
1.0
 40
1.0
 10
-18.76829952524976
 20
2.164635789354297
 30
0.0
 10
-18.84084551886266
 20
2.24613258505632
 30
0.0
 10
-18.98934783607019
 20
2.412957276593632
 30
0.0
 10
-19.1377886353449
 20
2.579830890476849
 30
0.0
 10
-19.2137134935988
 20
2.66518380923169
 30
0.0
  0
SPLINE
  5
713
330
1F
100
AcDbEntity
  8
SK1
  6
Continuous
370
    15
100
AcDbSpline
210
0.0
220
0.0
230
1.0
 70
     8
 71
     3
 72
     9
 73
     5
 74
     0
 42
0.0000000001
 43
0.0000000001
 40
0.0
 40
0.0
 40
0.0
 40
0.0
 40
0.4894084368490879
 40
1.0
 40
1.0
 40
1.0
 40
1.0
 10
-19.67544663538943
 20
2.164608595607711
 30
0.0
 10
-19.74823966071953
 20
2.246387054290511
 30
0.0
 10
-19.89697642095758
 20
2.41348359886442
 30
0.0
 10
-20.04565528979941
 20
2.58061487571633
 30
0.0
 10
-20.12156946584886
 20
2.665950695615554
 30
0.0
  0
SPLINE
  5
714
330
1F
100
AcDbEntity
  8
SK1
  6
Continuous
370
    15
100
AcDbSpline
210
0.0
220
0.0
230
1.0
 70
     8
 71
     3
 72
    11
 73
     7
 74
     0
 42
0.0000000001
 43
0.0000000001
 40
0.0
 40
0.0
 40
0.0
 40
0.0
 40
0.2255682156228475
 40
0.4640894574858169
 40
0.7127565374449674
 40
1.0
 40
1.0
 40
1.0
 40
1.0
 10
-20.58264623116494
 20
2.164542758504713
 30
0.0
 10
-20.61334387851709
 20
2.198785690127555
 30
0.0
 10
-20.67650195451824
 20
2.269237919027305
 30
0.0
 10
-20.79014224011524
 20
2.394835550876962
 30
0.0
 10
-20.91422468181149
 20
2.535989199870256
 30
0.0
 10
-20.98821186461579
 20
2.620004335400508
 30
0.0
 10
-21.02786836115285
 20
2.665035728743736
 30
0.0
  0
SPLINE
  5
715
330
1F
100
AcDbEntity
  8
SK1
  6
Continuous
370
    15
100
AcDbSpline
210
0.0
220
0.0
230
1.0
 70
     8
 71
     3
 72
     9
 73
     5
 74
     0
 42
0.0000000001
 43
0.0000000001
 40
0.0
 40
0.0
 40
0.0
 40
0.0
 40
0.4885391184199805
 40
1.0
 40
1.0
 40
1.0
 40
1.0
 10
-21.48972808905929
 20
2.164635761383193
 30
0.0
 10
-21.56227141512751
 20
2.246129523493149
 30
0.0
 10
-21.71076172702482
 20
2.412940652914107
 30
0.0
 10
-21.85919344268837
 20
2.57980411543645
 30
0.0
 10
-21.93511045883608
 20
2.665148249081621
 30
0.0
  0
SPLINE
  5
716
330
1F
100
AcDbEntity
  8
SK1
  6
Continuous
370
    15
100
AcDbSpline
210
0.0
220
0.0
230
1.0
 70
     8
 71
     3
 72
     9
 73
     5
 74
     0
 42
0.0000000001
 43
0.0000000001
 40
0.0
 40
0.0
 40
0.0
 40
0.0
 40
0.4885314166526044
 40
1.0
 40
1.0
 40
1.0
 40
1.0
 10
-22.39687095894178
 20
2.164635792390385
 30
0.0
 10
-22.46941967993221
 20
2.246135702779945
 30
0.0
 10
-22.61792337594326
 20
2.412962047230818
 30
0.0
 10
-22.76636597585766
 20
2.579837582155068
 30
0.0
 10
-22.84228970214429
 20
2.665189175598113
 30
0.0
  0
SPLINE
  5
717
330
1F
100
AcDbEntity
  8
SK1
  6
Continuous
370
    15
100
AcDbSpline
210
0.0
220
0.0
230
1.0
 70
     8
 71
     3
 72
     9
 73
     5
 74
     0
 42
0.0000000001
 43
0.0000000001
 40
0.0
 40
0.0
 40
0.0
 40
0.0
 40
0.4892598417382809
 40
1.0
 40
1.0
 40
1.0
 40
1.0
 10
-23.30401470656406
 20
2.164615026756855
 30
0.0
 10
-23.37675768423876
 20
2.246336999779028
 30
0.0
 10
-23.5254373253396
 20
2.413368842678346
 30
0.0
 10
-23.67406129747295
 20
2.580441762711153
 30
0.0
 10
-23.74996952852181
 20
2.665772612329956
 30
0.0
  0
SPLINE
  5
718
330
1F
100
AcDbEntity
  8
SK1
  6
Continuous
370
    15
100
AcDbSpline
210
0.0
220
0.0
230
1.0
 70
     8
 71
     3
 72
     9
 73
     5
 74
     0
 42
0.0000000001
 43
0.0000000001
 40
0.0
 40
0.0
 40
0.0
 40
0.0
 40
0.5453451745445845
 40
1.0
 40
1.0
 40
1.0
 40
1.0
 10
-24.21114203428116
 20
2.164618474808686
 30
0.0
 10
-24.2836524950084
 20
2.246073455333521
 30
0.0
 10
-24.41661500043039
 20
2.395437535785609
 30
0.0
 10
-24.54952247924887
 20
2.544848266308212
 30
0.0
 10
-24.60994950583281
 20
2.612778575915132
 30
0.0
  0
SPLINE
  5
719
330
1F
100
AcDbEntity
  8
SK1
  6
Continuous
370
    15
100
AcDbSpline
210
0.0
220
0.0
230
1.0
 70
     8
 71
     3
 72
     9
 73
     5
 74
     0
 42
0.0000000001
 43
0.0000000001
 40
0.0
 40
0.0
 40
0.0
 40
0.0
 40
0.5000537352463225
 40
1.0
 40
1.0
 40
1.0
 40
1.0
 10
-24.20244127762199
 20
-2.664536546871958
 30
0.0
 10
-24.12654588747234
 20
-2.579216634849846
 30
0.0
 10
-23.97477141844998
 20
-2.408595147580915
 30
0.0
 10
-23.82294503906757
 20
-2.238046063852385
 30
0.0
 10
-23.74704000780426
 20
-2.152780686485145
 30
0.0
  0
SPLINE
  5
71A
330
1F
100
AcDbEntity
  8
SK1
  6
Continuous
370
    15
100
AcDbSpline
210
0.0
220
0.0
230
1.0
 70
     8
 71
     3
 72
     9
 73
     5
 74
     0
 42
0.0000000001
 43
0.0000000001
 40
0.0
 40
0.0
 40
0.0
 40
0.0
 40
0.5000661109730298
 40
1.0
 40
1.0
 40
1.0
 40
1.0
 10
-23.29672335523882
 20
-2.666107265052946
 30
0.0
 10
-23.22079636497983
 20
-2.580759780485006
 30
0.0
 10
-23.06896246023619
 20
-2.410087377986325
 30
0.0
 10
-22.91706455103128
 20
-2.239441268318915
 30
0.0
 10
-22.84112563854741
 20
-2.154129495065563
 30
0.0
  0
SPLINE
  5
71B
330
1F
100
AcDbEntity
  8
SK1
  6
Continuous
370
    15
100
AcDbSpline
210
0.0
220
0.0
230
1.0
 70
     8
 71
     3
 72
     9
 73
     5
 74
     0
 42
0.0000000001
 43
0.0000000001
 40
0.0
 40
0.0
 40
0.0
 40
0.0
 40
0.5000639152581882
 40
1.0
 40
1.0
 40
1.0
 40
1.0
 10
-22.38869623890423
 20
-2.665164412456686
 30
0.0
 10
-22.31277416088022
 20
-2.579814797090035
 30
0.0
 10
-22.16094941266817
 20
-2.409137384138567
 30
0.0
 10
-22.0090628575592
 20
-2.238511471528309
 30
0.0
 10
-21.93312928787309
 20
-2.153209420822438
 30
0.0
  0
SPLINE
  5
71C
330
1F
100
AcDbEntity
  8
SK1
  6
Continuous
370
    15
100
AcDbSpline
210
0.0
220
0.0
230
1.0
 70
     8
 71
     3
 72
     9
 73
     5
 74
     0
 42
0.0000000001
 43
0.0000000001
 40
0.0
 40
0.0
 40
0.0
 40
0.0
 40
0.5624487903289129
 40
1.0
 40
1.0
 40
1.0
 40
1.0
 10
-21.48144052363055
 20
-2.665036565669873
 30
0.0
 10
-21.39605335053676
 20
-2.569047656939908
 30
0.0
 10
-21.24424011071476
 20
-2.398385171073714
 30
0.0
 10
-21.09236735301386
 20
-2.227778385196758
 30
0.0
 10
-21.02591524416574
 20
-2.153129179658198
 30
0.0
  0
SPLINE
  5
71D
330
1F
100
AcDbEntity
  8
SK1
  6
Continuous
370
    15
100
AcDbSpline
210
0.0
220
0.0
230
1.0
 70
     8
 71
     3
 72
     9
 73
     5
 74
     0
 42
0.0000000001
 43
0.0000000001
 40
0.0
 40
0.0
 40
0.0
 40
0.0
 40
0.4374648737622214
 40
1.0
 40
1.0
 40
1.0
 40
1.0
 10
-20.57421264291719
 20
-2.664939130296378
 30
0.0
 10
-20.5078208661039
 20
-2.590303045190215
 30
0.0
 10
-20.35605604841163
 20
-2.419692581167611
 30
0.0
 10
-20.20423737759159
 20
-2.249140336840681
 30
0.0
 10
-20.11883404243659
 20
-2.153198708548095
 30
0.0
  0
SPLINE
  5
71E
330
1F
100
AcDbEntity
  8
SK1
  6
Continuous
370
    15
100
AcDbSpline
210
0.0
220
0.0
230
1.0
 70
     8
 71
     3
 72
     9
 73
     5
 74
     0
 42
0.0000000001
 43
0.0000000001
 40
0.0
 40
0.0
 40
0.0
 40
0.0
 40
0.5000676299505703
 40
1.0
 40
1.0
 40
1.0
 40
1.0
 10
-19.66811808657363
 20
-2.666073107900965
 30
0.0
 10
-19.59218730143168
 20
-2.580721331674505
 30
0.0
 10
-19.4403462691508
 20
-2.410040865444575
 30
0.0
 10
-19.2884397613975
 20
-2.23938594278244
 30
0.0
 10
-19.21249678095047
 20
-2.154070022835357
 30
0.0
  0
SPLINE
  5
71F
330
1F
100
AcDbEntity
  8
SK1
  6
Continuous
370
    15
100
AcDbSpline
210
0.0
220
0.0
230
1.0
 70
     8
 71
     3
 72
     9
 73
     5
 74
     0
 42
0.0000000001
 43
0.0000000001
 40
0.0
 40
0.0
 40
0.0
 40
0.0
 40
0.9167992364040799
 40
1.0
 40
1.0
 40
1.0
 40
1.0
 10
-18.76013510055529
 20
-2.665175984930769
 30
0.0
 10
-18.68421865228545
 20
-2.579824410211915
 30
0.0
 10
-18.60141268424428
 20
-2.486727065308329
 30
0.0
 10
-18.51857328659253
 20
-2.39365792031231
 30
0.0
 10
-18.51168098545208
 20
-2.385914496381421
 30
0.0
  0
LINE
  5
720
330
1F
100
AcDbEntity
  8
SK1
370
    18
100
AcDbLine
 10
0.0
 20
5.0
 30
0.0
 11
0.0
 21
-5.0
 31
0.0
  0
LINE
  5
721
330
1F
100
AcDbEntity
  8
1
370
    18
100
AcDbLine
 10
0.0
 20
5.0
 30
0.0
 11
0.1500000000000057
 21
5.0
 31
0.0
  0
LINE
  5
722
330
1F
100
AcDbEntity
  8
1
370
    18
100
AcDbLine
 10
0.0
 20
-5.0
 30
0.0
 11
3.900000000000005
 21
-5.0
 31
0.0
  0
ENDSEC
  0
SECTION
  2
OBJECTS
  0
DICTIONARY
  5
183
330
0
100
AcDbDictionary
281
     1
  3
ACAD_COLOR
350
195
  3
ACAD_GROUP
350
184
  3
ACAD_LAYOUT
350
196
  3
ACAD_MATERIAL
350
194
  3
ACAD_MLINESTYLE
350
185
  3
ACAD_PLOTSETTINGS
350
197
  3
ACAD_PLOTSTYLENAME
350
192
  0
DICTIONARY
  5
195
102
{ACAD_REACTORS
330
183
102
}
330
183
100
AcDbDictionary
281
     1
  0
DICTIONARY
  5
184
330
183
100
AcDbDictionary
281
     1
  0
DICTIONARY
  5
196
102
{ACAD_REACTORS
330
183
102
}
330
183
100
AcDbDictionary
281
     1
  3
Layout1
350
199
  3
Model
350
198
  0
DICTIONARY
  5
194
102
{ACAD_REACTORS
330
183
102
}
330
183
100
AcDbDictionary
281
     1
  0
DICTIONARY
  5
185
330
183
100
AcDbDictionary
281
     1
  3
Standard
350
18
  0
DICTIONARY
  5
197
102
{ACAD_REACTORS
330
183
102
}
330
183
100
AcDbDictionary
281
     1
  0
ACDBDICTIONARYWDFLT
  5
192
102
{ACAD_REACTORS
330
183
102
}
330
183
100
AcDbDictionary
281
     1
  3
Normal
350
193
100
AcDbDictionaryWithDefault
340
193
  0
LAYOUT
  5
199
102
{ACAD_REACTORS
330
196
102
}
330
196
100
AcDbPlotSettings
  1

  2
Chappel Main Office
  4

  6

 40
0.0
 41
0.0
 42
0.0
 43
0.0
 44
0.0
 45
0.0
 46
0.0
 47
0.0
 48
0.0
 49
0.0
140
0.0
141
0.0
142
1.0
143
1.0
 70
   688
 72
     0
 73
     0
 74
     5
  7

 75
    16
147
1.0
 76
     0
 77
     2
 78
   300
148
0.0
149
0.0
100
AcDbLayout
  1
Layout1
 70
     1
 71
     1
 10
0.0
 20
0.0
 11
12.0
 21
9.0
 12
0.0
 22
0.0
 32
0.0
 14
1.000000000000000E+20
 24
1.000000000000000E+20
 34
1.000000000000000E+20
 15
-1.000000000000000E+20
 25
-1.000000000000000E+20
 35
-1.000000000000000E+20
146
0.0
 13
0.0
 23
0.0
 33
0.0
 16
1.0
 26
0.0
 36
0.0
 17
0.0
 27
1.0
 37
0.0
 76
     0
330
1B
  0
LAYOUT
  5
198
102
{ACAD_REACTORS
330
196
102
}
330
196
100
AcDbPlotSettings
  1

  2
Chappel Main Office
  4

  6

 40
0.0
 41
0.0
 42
0.0
 43
0.0
 44
0.0
 45
0.0
 46
0.0
 47
0.0
 48
0.0
 49
0.0
140
0.0
141
0.0
142
1.0
143
1.0
 70
  1712
 72
     0
 73
     0
 74
     0
  7

 75
     0
147
1.0
 76
     0
 77
     2
 78
   300
148
0.0
149
0.0
100
AcDbLayout
  1
Model
 70
     1
 71
     0
 10
0.0
 20
0.0
 11
12.0
 21
9.0
 12
0.0
 22
0.0
 32
0.0
 14
0.0
 24
0.0
 34
0.0
 15
0.0
 25
0.0
 35
0.0
146
0.0
 13
0.0
 23
0.0
 33
0.0
 16
1.0
 26
0.0
 36
0.0
 17
0.0
 27
1.0
 37
0.0
 76
     0
330
1F
  0
MLINESTYLE
  5
18
330
185
100
AcDbMlineStyle
  2
STANDARD
 70
     0
  3

 62
   256
 51
90.0
 52
90.0
 71
     2
 49
0.5
 62
   256
  6
BYLAYER
 49
-0.5
 62
   256
  6
BYLAYER
  0
ACDBPLACEHOLDER
  5
193
102
{ACAD_REACTORS
330
192
102
}
330
192
  0
ENDSEC
  0
EOF
