  0
SECTION
  2
HEADER
  9
$ACADVER
  1
AC1018
  9
$ACADMAINTVER
 70
     0
  9
$DWGCODEPAGE
  3
ANSI_1252
  9
$INSBASE
 10
0.0
 20
0.0
 30
0.0
  9
$EXTMIN
 10
-40.41544508785194
 20
-23.92383611159836
 30
0.0
  9
$EXTMAX
 10
28.2387296700213
 20
24.39802994486349
 30
0.0
  9
$LIMMIN
 10
0.0
 20
0.0
  9
$LIMMAX
 10
12.0
 20
9.0
  9
$ORTHOMODE
 70
     0
  9
$REGENMODE
 70
     1
  9
$FILLMODE
 70
     1
  9
$QTEXTMODE
 70
     0
  9
$MIRRTEXT
 70
     0
  9
$LTSCALE
 40
1.0
  9
$ATTMODE
 70
     1
  9
$TEXTSIZE
 40
0.0
  9
$TRACEWID
 40
0.05
  9
$TEXTSTYLE
  7
Standard
  9
$CLAYER
  8
1
  9
$CELTYPE
  6
ByLayer
  9
$CECOLOR
 62
   256
  9
$CELTSCALE
 40
1.0
  9
$DISPSILH
 70
     0
  9
$DIMSCALE
 40
1.0
  9
$DIMASZ
 40
1.75
  9
$DIMEXO
 40
0.625
  9
$DIMDLI
 40
3.75
  9
$DIMRND
 40
0.0
  9
$DIMDLE
 40
0.0
  9
$DIMEXE
 40
1.25
  9
$DIMTP
 40
0.0
  9
$DIMTM
 40
0.0
  9
$DIMTXT
 40
2.5
  9
$DIMCEN
 40
2.5
  9
$DIMTSZ
 40
0.0
  9
$DIMTOL
 70
     0
  9
$DIMLIM
 70
     0
  9
$DIMTIH
 70
     0
  9
$DIMTOH
 70
     0
  9
$DIMSE1
 70
     0
  9
$DIMSE2
 70
     0
  9
$DIMTAD
 70
     1
  9
$DIMZIN
 70
     8
  9
$DIMBLK
  1

  9
$DIMASO
 70
     1
  9
$DIMSHO
 70
     1
  9
$DIMPOST
  1
in
  9
$DIMAPOST
  1

  9
$DIMALT
 70
     0
  9
$DIMALTD
 70
     3
  9
$DIMALTF
 40
0.0393700787
  9
$DIMLFAC
 40
0.0393700787401575
  9
$DIMTOFL
 70
     1
  9
$DIMTVP
 40
0.0
  9
$DIMTIX
 70
     0
  9
$DIMSOXD
 70
     0
  9
$DIMSAH
 70
     0
  9
$DIMBLK1
  1

  9
$DIMBLK2
  1

  9
$DIMSTYLE
  2
Copy of ISO-25
  9
$DIMCLRD
 70
     0
  9
$DIMCLRE
 70
     0
  9
$DIMCLRT
 70
     0
  9
$DIMTFAC
 40
1.0
  9
$DIMGAP
 40
0.625
  9
$DIMJUST
 70
     0
  9
$DIMSD1
 70
     0
  9
$DIMSD2
 70
     0
  9
$DIMTOLJ
 70
     0
  9
$DIMTZIN
 70
     8
  9
$DIMALTZ
 70
     0
  9
$DIMALTTZ
 70
     0
  9
$DIMUPT
 70
     0
  9
$DIMDEC
 70
     3
  9
$DIMTDEC
 70
     3
  9
$DIMALTU
 70
     2
  9
$DIMALTTD
 70
     3
  9
$DIMTXSTY
  7
Standard
  9
$DIMAUNIT
 70
     2
  9
$DIMADEC
 70
     3
  9
$DIMALTRND
 40
0.0
  9
$DIMAZIN
 70
     0
  9
$DIMDSEP
 70
    46
  9
$DIMATFIT
 70
     3
  9
$DIMFRAC
 70
     0
  9
$DIMLDRBLK
  1

  9
$DIMLUNIT
 70
     2
  9
$DIMLWD
 70
    -2
  9
$DIMLWE
 70
    -2
  9
$DIMTMOVE
 70
     0
  9
$LUNITS
 70
     2
  9
$LUPREC
 70
     4
  9
$SKETCHINC
 40
0.1
  9
$FILLETRAD
 40
0.0
  9
$AUNITS
 70
     0
  9
$AUPREC
 70
     0
  9
$MENU
  1
.
  9
$ELEVATION
 40
0.0
  9
$PELEVATION
 40
0.0
  9
$THICKNESS
 40
0.0
  9
$LIMCHECK
 70
     0
  9
$CHAMFERA
 40
0.0
  9
$CHAMFERB
 40
0.0
  9
$CHAMFERC
 40
0.0
  9
$CHAMFERD
 40
0.0
  9
$SKPOLY
 70
     0
  9
$TDCREATE
 40
2457169.562357651
  9
$TDUCREATE
 40
2457169.812357651
  9
$TDUPDATE
 40
2457197.540085000
  9
$TDUUPDATE
 40
2457197.790085000
  9
$TDINDWG
 40
0.0486648611
  9
$TDUSRTIMER
 40
0.0486645255
  9
$USRTIMER
 70
     1
  9
$ANGBASE
 50
0.0
  9
$ANGDIR
 70
     0
  9
$PDMODE
 70
     0
  9
$PDSIZE
 40
0.0
  9
$PLINEWID
 40
0.0
  9
$SPLFRAME
 70
     0
  9
$SPLINETYPE
 70
     6
  9
$SPLINESEGS
 70
     8
  9
$HANDSEED
  5
66A
  9
$SURFTAB1
 70
     6
  9
$SURFTAB2
 70
     6
  9
$SURFTYPE
 70
     6
  9
$SURFU
 70
     6
  9
$SURFV
 70
     6
  9
$UCSBASE
  2

  9
$UCSNAME
  2

  9
$UCSORG
 10
0.0
 20
0.0
 30
0.0
  9
$UCSXDIR
 10
1.0
 20
0.0
 30
0.0
  9
$UCSYDIR
 10
0.0
 20
1.0
 30
0.0
  9
$UCSORTHOREF
  2

  9
$UCSORTHOVIEW
 70
     0
  9
$UCSORGTOP
 10
0.0
 20
0.0
 30
0.0
  9
$UCSORGBOTTOM
 10
0.0
 20
0.0
 30
0.0
  9
$UCSORGLEFT
 10
0.0
 20
0.0
 30
0.0
  9
$UCSORGRIGHT
 10
0.0
 20
0.0
 30
0.0
  9
$UCSORGFRONT
 10
0.0
 20
0.0
 30
0.0
  9
$UCSORGBACK
 10
0.0
 20
0.0
 30
0.0
  9
$PUCSBASE
  2

  9
$PUCSNAME
  2

  9
$PUCSORG
 10
0.0
 20
0.0
 30
0.0
  9
$PUCSXDIR
 10
1.0
 20
0.0
 30
0.0
  9
$PUCSYDIR
 10
0.0
 20
1.0
 30
0.0
  9
$PUCSORTHOREF
  2

  9
$PUCSORTHOVIEW
 70
     0
  9
$PUCSORGTOP
 10
0.0
 20
0.0
 30
0.0
  9
$PUCSORGBOTTOM
 10
0.0
 20
0.0
 30
0.0
  9
$PUCSORGLEFT
 10
0.0
 20
0.0
 30
0.0
  9
$PUCSORGRIGHT
 10
0.0
 20
0.0
 30
0.0
  9
$PUCSORGFRONT
 10
0.0
 20
0.0
 30
0.0
  9
$PUCSORGBACK
 10
0.0
 20
0.0
 30
0.0
  9
$USERI1
 70
     0
  9
$USERI2
 70
     0
  9
$USERI3
 70
     0
  9
$USERI4
 70
     0
  9
$USERI5
 70
     0
  9
$USERR1
 40
0.0
  9
$USERR2
 40
0.0
  9
$USERR3
 40
0.0
  9
$USERR4
 40
0.0
  9
$USERR5
 40
0.0
  9
$WORLDVIEW
 70
     1
  9
$SHADEDGE
 70
     3
  9
$SHADEDIF
 70
    70
  9
$TILEMODE
 70
     1
  9
$MAXACTVP
 70
    64
  9
$PINSBASE
 10
0.0
 20
0.0
 30
0.0
  9
$PLIMCHECK
 70
     0
  9
$PEXTMIN
 10
1.000000000000000E+20
 20
1.000000000000000E+20
 30
1.000000000000000E+20
  9
$PEXTMAX
 10
-1.000000000000000E+20
 20
-1.000000000000000E+20
 30
-1.000000000000000E+20
  9
$PLIMMIN
 10
0.0
 20
0.0
  9
$PLIMMAX
 10
12.0
 20
9.0
  9
$UNITMODE
 70
     0
  9
$VISRETAIN
 70
     1
  9
$PLINEGEN
 70
     0
  9
$PSLTSCALE
 70
     1
  9
$TREEDEPTH
 70
  3020
  9
$CMLSTYLE
  2
Standard
  9
$CMLJUST
 70
     0
  9
$CMLSCALE
 40
1.0
  9
$PROXYGRAPHICS
 70
     1
  9
$MEASUREMENT
 70
     0
  9
$CELWEIGHT
370
    18
  9
$ENDCAPS
280
     0
  9
$JOINSTYLE
280
     0
  9
$LWDISPLAY
290
     1
  9
$INSUNITS
 70
     1
  9
$HYPERLINKBASE
  1

  9
$STYLESHEET
  1

  9
$XEDIT
290
     1
  9
$CEPSNTYPE
380
     0
  9
$PSTYLEMODE
290
     1
  9
$FINGERPRINTGUID
  2
{1A3370DD-E015-4359-90D3-D666A526498D}
  9
$VERSIONGUID
  2
{A78ECF44-26C8-4021-95FB-40E4B1D71251}
  9
$EXTNAMES
290
     1
  9
$PSVPSCALE
 40
0.0
  9
$OLESTARTUP
290
     0
  9
$SORTENTS
280
   127
  9
$INDEXCTL
280
     0
  9
$HIDETEXT
280
     0
  9
$XCLIPFRAME
290
     0
  9
$HALOGAP
280
     0
  9
$OBSCOLOR
 70
   257
  9
$OBSLTYPE
280
     0
  9
$INTERSECTIONDISPLAY
280
     0
  9
$INTERSECTIONCOLOR
 70
   257
  9
$DIMASSOC
280
     1
  9
$PROJECTNAME
  1

  0
ENDSEC
  0
SECTION
  2
CLASSES
  0
CLASS
  1
RASTERVARIABLES
  2
AcDbRasterVariables
  3
ISM
 90
        0
 91
        0
280
     0
281
     0
  0
CLASS
  1
ACDBDICTIONARYWDFLT
  2
AcDbDictionaryWithDefault
  3
ObjectDBX Classes
 90
        0
 91
        1
280
     0
281
     0
  0
ENDSEC
  0
SECTION
  2
TABLES
  0
TABLE
  2
VPORT
  5
186
330
0
100
AcDbSymbolTable
 70
     2
  0
VPORT
  5
669
330
186
100
AcDbSymbolTableRecord
100
AcDbViewportTableRecord
  2
*Active
 70
     0
 10
0.0
 20
0.0
 11
1.0
 21
1.0
 12
1.701896657584043
 22
16.04720747423513
 13
0.0
 23
0.0
 14
0.5
 24
0.5
 15
10.0
 25
10.0
 16
0.0
 26
0.0
 36
1.0
 17
0.0
 27
0.0
 37
0.0
 40
99.1937263982993
 41
2.202020202020201
 42
50.0
 43
0.0
 44
0.0
 50
0.0
 51
0.0
 71
     0
 72
   100
 73
     1
 74
     1
 75
     0
 76
     0
 77
     0
 78
     0
281
     0
 65
     1
110
0.0
120
0.0
130
0.0
111
1.0
121
0.0
131
0.0
112
0.0
122
1.0
132
0.0
 79
     0
146
0.0
  0
ENDTAB
  0
TABLE
  2
LTYPE
  5
187
330
0
100
AcDbSymbolTable
 70
     3
  0
LTYPE
  5
14
330
187
100
AcDbSymbolTableRecord
100
AcDbLinetypeTableRecord
  2
ByBlock
 70
     0
  3

 72
    65
 73
     0
 40
0.0
  0
LTYPE
  5
15
330
187
100
AcDbSymbolTableRecord
100
AcDbLinetypeTableRecord
  2
ByLayer
 70
     0
  3

 72
    65
 73
     0
 40
0.0
  0
LTYPE
  5
16
330
187
100
AcDbSymbolTableRecord
100
AcDbLinetypeTableRecord
  2
CONTINUOUS
 70
     0
  3
Solid line
 72
    65
 73
     0
 40
0.0
  0
LTYPE
  5
6A
330
187
100
AcDbSymbolTableRecord
100
AcDbLinetypeTableRecord
  2
CENTER
 70
     0
  3
____ _ ____ _ ____ _ ____
 72
    65
 73
     4
 40
47.5
 49
22.0
 74
     0
 49
-8.5
 74
     0
 49
8.5
 74
     0
 49
-8.5
 74
     0
  0
LTYPE
  5
6B
330
187
100
AcDbSymbolTableRecord
100
AcDbLinetypeTableRecord
  2
DASHED
 70
     0
  3
__ __ __ __ __ __ __ __ __
 72
    65
 73
     2
 40
25.72
 49
12.86
 74
     0
 49
-12.86
 74
     0
  0
ENDTAB
  0
TABLE
  2
LAYER
  5
188
330
0
100
AcDbSymbolTable
 70
    11
  0
LAYER
  5
10
330
188
100
AcDbSymbolTableRecord
100
AcDbLayerTableRecord
  2
0
 70
     0
 62
     7
  6
CONTINUOUS
370
    -3
390
193
  0
LAYER
  5
6D
330
188
100
AcDbSymbolTableRecord
100
AcDbLayerTableRecord
  2
81
 70
     0
 62
    -3
  6
CONTINUOUS
370
    -3
390
193
  0
LAYER
  5
6F
330
188
100
AcDbSymbolTableRecord
100
AcDbLayerTableRecord
  2
80
 70
     0
 62
    -6
  6
CONTINUOUS
370
    -3
390
193
  0
LAYER
  5
74
330
188
100
AcDbSymbolTableRecord
100
AcDbLayerTableRecord
  2
2
 70
     0
 62
     7
  6
CONTINUOUS
370
    -3
390
193
  0
LAYER
  5
78
330
188
100
AcDbSymbolTableRecord
100
AcDbLayerTableRecord
  2
1
 70
     0
 62
     4
  6
CONTINUOUS
370
    -3
390
193
  0
LAYER
  5
88
330
188
100
AcDbSymbolTableRecord
100
AcDbLayerTableRecord
  2
4
 70
     0
 62
    -2
  6
CENTER
370
    -3
390
193
  0
LAYER
  5
172
330
188
100
AcDbSymbolTableRecord
100
AcDbLayerTableRecord
  2
SK2
 70
     0
 62
     7
  6
CONTINUOUS
370
    -3
390
193
  0
LAYER
  5
173
330
188
100
AcDbSymbolTableRecord
100
AcDbLayerTableRecord
  2
SK1
 70
     0
 62
     4
  6
CONTINUOUS
370
    -3
390
193
  0
LAYER
  5
174
330
188
100
AcDbSymbolTableRecord
100
AcDbLayerTableRecord
  2
SK4
 70
     0
 62
     2
  6
CENTER
370
    -3
390
193
  0
LAYER
  5
175
330
188
100
AcDbSymbolTableRecord
100
AcDbLayerTableRecord
  2
SK6
 70
     0
 62
     5
  6
CONTINUOUS
370
    -3
390
193
  0
LAYER
  5
244
330
188
100
AcDbSymbolTableRecord
100
AcDbLayerTableRecord
  2
Defpoints
 70
     0
 62
     7
  6
CONTINUOUS
290
     0
370
    -3
390
193
  0
ENDTAB
  0
TABLE
  2
STYLE
  5
189
330
0
100
AcDbSymbolTable
 70
     3
  0
STYLE
  5
11
330
189
100
AcDbSymbolTableRecord
100
AcDbTextStyleTableRecord
  2
Standard
 70
     0
 40
0.0
 41
1.0
 50
0.0
 71
     0
 42
0.0
  3
txt
  4

  0
STYLE
  5
CE
330
189
100
AcDbSymbolTableRecord
100
AcDbTextStyleTableRecord
  2
iso_b_vert
 70
     0
 40
0.0
 41
1.0
 50
0.0
 71
     0
 42
0.0
  3
simplex.shx
  4

  0
STYLE
  5
CF
330
189
100
AcDbSymbolTableRecord
100
AcDbTextStyleTableRecord
  2
DWGDirectTextStyle
 70
     0
 40
0.0
 41
1.0
 50
0.0
 71
     0
 42
0.0
  3
simplex
  4

  0
ENDTAB
  0
TABLE
  2
VIEW
  5
18B
330
0
100
AcDbSymbolTable
 70
     0
  0
ENDTAB
  0
TABLE
  2
UCS
  5
18C
330
0
100
AcDbSymbolTable
 70
     0
  0
ENDTAB
  0
TABLE
  2
APPID
  5
18D
330
0
100
AcDbSymbolTable
 70
     1
  0
APPID
  5
12
330
18D
100
AcDbSymbolTableRecord
100
AcDbRegAppTableRecord
  2
ACAD
 70
     0
  0
ENDTAB
  0
TABLE
  2
DIMSTYLE
  5
18A
330
0
100
AcDbSymbolTable
 70
     3
100
AcDbDimStyleTable
 71
     3
340
1A1
340
35F
340
27
  0
DIMSTYLE
105
27
330
18A
100
AcDbSymbolTableRecord
100
AcDbDimStyleTableRecord
  2
Standard
 70
     0
  3
in
 73
     0
 74
     0
 77
     1
144
0.0393700787401575
271
     2
272
     2
278
    52
340
11
  0
DIMSTYLE
105
1A1
102
{ACAD_REACTORS
330
538
330
4B4
330
47F
102
}
330
18A
100
AcDbSymbolTableRecord
100
AcDbDimStyleTableRecord
  2
ISO-25
 70
     0
 41
2.5
 42
0.625
 43
3.75
 44
1.25
 73
     0
 74
     0
 77
     1
 78
     8
140
2.5
141
2.5
143
0.0393700787
147
0.625
171
     3
172
     1
271
     2
272
     2
274
     3
278
    44
283
     0
284
     8
340
11
  0
DIMSTYLE
105
35F
330
18A
100
AcDbSymbolTableRecord
100
AcDbDimStyleTableRecord
  2
Copy of ISO-25
 70
     0
  3
in
 41
1.75
 42
0.625
 43
3.75
 44
1.25
 73
     0
 74
     0
 77
     1
 78
     8
140
2.5
141
2.5
143
0.0393700787
144
0.0393700787401575
147
0.625
171
     3
172
     1
179
     3
271
     3
272
     3
274
     3
275
     2
283
     0
284
     8
340
11
  0
ENDTAB
  0
TABLE
  2
BLOCK_RECORD
  5
18E
330
0
100
AcDbSymbolTable
 70
    16
  0
BLOCK_RECORD
  5
1F
330
18E
100
AcDbSymbolTableRecord
100
AcDbBlockTableRecord
  2
*Model_Space
340
198
  0
BLOCK_RECORD
  5
1B
330
18E
100
AcDbSymbolTableRecord
100
AcDbBlockTableRecord
  2
*Paper_Space
340
199
  0
BLOCK_RECORD
  5
23
330
18E
100
AcDbSymbolTableRecord
100
AcDbBlockTableRecord
  2
*Paper_Space0
340
0
  0
BLOCK_RECORD
  5
D1
330
18E
100
AcDbSymbolTableRecord
100
AcDbBlockTableRecord
  2
DimnDraft3D1
340
0
  0
BLOCK_RECORD
  5
DB
330
18E
100
AcDbSymbolTableRecord
100
AcDbBlockTableRecord
  2
DimnDraft3D2
340
0
  0
BLOCK_RECORD
  5
E5
330
18E
100
AcDbSymbolTableRecord
100
AcDbBlockTableRecord
  2
DimnDraft3D3
340
0
  0
BLOCK_RECORD
  5
EF
330
18E
100
AcDbSymbolTableRecord
100
AcDbBlockTableRecord
  2
DimnDraft3D4
340
0
  0
BLOCK_RECORD
  5
F9
330
18E
100
AcDbSymbolTableRecord
100
AcDbBlockTableRecord
  2
DimnDraft3D5
340
0
  0
BLOCK_RECORD
  5
103
330
18E
100
AcDbSymbolTableRecord
100
AcDbBlockTableRecord
  2
DimnDraft3D6
340
0
  0
BLOCK_RECORD
  5
10E
330
18E
100
AcDbSymbolTableRecord
100
AcDbBlockTableRecord
  2
DimnDraft3D7
340
0
  0
BLOCK_RECORD
  5
245
330
18E
100
AcDbSymbolTableRecord
100
AcDbBlockTableRecord
  2
*D8
340
0
  0
BLOCK_RECORD
  5
253
330
18E
100
AcDbSymbolTableRecord
100
AcDbBlockTableRecord
  2
*D9
340
0
  0
BLOCK_RECORD
  5
261
330
18E
100
AcDbSymbolTableRecord
100
AcDbBlockTableRecord
  2
*D10
340
0
  0
BLOCK_RECORD
  5
361
330
18E
100
AcDbSymbolTableRecord
100
AcDbBlockTableRecord
  2
*D11
340
0
  0
BLOCK_RECORD
  5
480
330
18E
100
AcDbSymbolTableRecord
100
AcDbBlockTableRecord
  2
*D12
340
0
  0
BLOCK_RECORD
  5
4B5
330
18E
100
AcDbSymbolTableRecord
100
AcDbBlockTableRecord
  2
*D13
340
0
  0
BLOCK_RECORD
  5
523
330
18E
100
AcDbSymbolTableRecord
100
AcDbBlockTableRecord
  2
*D14
340
0
  0
BLOCK_RECORD
  5
539
330
18E
100
AcDbSymbolTableRecord
100
AcDbBlockTableRecord
  2
*D15
340
0
  0
ENDTAB
  0
ENDSEC
  0
SECTION
  2
BLOCKS
  0
BLOCK
  5
20
330
1F
100
AcDbEntity
  8
0
100
AcDbBlockBegin
  2
*Model_Space
 70
     0
 10
0.0
 20
0.0
 30
0.0
  3
*Model_Space
  1

  0
ENDBLK
  5
21
330
1F
100
AcDbEntity
  8
0
100
AcDbBlockEnd
  0
BLOCK
  5
1C
330
1B
100
AcDbEntity
 67
     1
  8
0
100
AcDbBlockBegin
  2
*Paper_Space
 70
     0
 10
0.0
 20
0.0
 30
0.0
  3
*Paper_Space
  1

  0
ENDBLK
  5
1D
330
1B
100
AcDbEntity
 67
     1
  8
0
100
AcDbBlockEnd
  0
BLOCK
  5
24
330
23
100
AcDbEntity
  8
0
100
AcDbBlockBegin
  2
*Paper_Space0
 70
     0
 10
0.0
 20
0.0
 30
0.0
  3
*Paper_Space0
  1

  0
ENDBLK
  5
25
330
23
100
AcDbEntity
  8
0
100
AcDbBlockEnd
  0
BLOCK
  5
D8
330
D1
100
AcDbEntity
  8
0
100
AcDbBlockBegin
  2
DimnDraft3D1
 70
     0
 10
0.0
 20
0.0
 30
0.0
  3
DimnDraft3D1
  1

  0
LINE
  5
40D
330
D1
100
AcDbEntity
  8
SK2
 62
    35
370
    -2
100
AcDbLine
 10
-0.0000000000000001
 20
-3.174999999999998
 30
0.0
 11
-0.0000000000000007
 21
-13.713398
 31
0.0
  0
LINE
  5
40E
330
D1
100
AcDbEntity
  8
SK2
 62
    35
370
    -2
100
AcDbLine
 10
25.5709
 20
-4.674999999999998
 30
0.0
 11
25.5709
 21
-13.713398
 31
0.0
  0
LINE
  5
40F
330
D1
100
AcDbEntity
  8
SK2
 62
    35
370
    -2
100
AcDbLine
 10
3.499999999999998
 20
-11.713398
 30
0.0
 11
22.0709
 21
-11.713398
 31
0.0
  0
SOLID
  5
410
330
D1
100
AcDbEntity
  8
SK2
 62
    35
370
    18
100
AcDbTrace
 10
3.499999999999998
 20
-11.13006466666666
 30
0.0
 11
3.499999999999998
 21
-12.29673133333333
 31
0.0
 12
-0.0000000000000006
 22
-11.713398
 32
0.0
 13
-0.0000000000000006
 23
-11.713398
 33
0.0
  0
SOLID
  5
411
330
D1
100
AcDbEntity
  8
SK2
 62
    35
370
    18
100
AcDbTrace
 10
22.0709
 20
-11.13006466666666
 30
0.0
 11
22.0709
 21
-12.29673133333333
 31
0.0
 12
25.5709
 22
-11.713398
 32
0.0
 13
25.5709
 23
-11.713398
 33
0.0
  0
MTEXT
  5
412
330
D1
100
AcDbEntity
  8
SK2
 62
    35
370
    13
100
AcDbMText
 10
12.78545
 20
-8.213397999999997
 30
0.0
 40
3.5
 41
0.0
 71
     5
 72
     1
  1
\A1;1401in
  7
iso_b_vert
 73
     1
 44
1.0
  0
POINT
  5
413
330
D1
100
AcDbEntity
  8
Defpoints
 62
     0
370
    18
100
AcDbPoint
 10
0.0
 20
-1.587499999999999
 30
0.0
  0
POINT
  5
414
330
D1
100
AcDbEntity
  8
Defpoints
 62
     0
370
    18
100
AcDbPoint
 10
25.5709
 20
-3.087499999999999
 30
0.0
  0
POINT
  5
415
330
D1
100
AcDbEntity
  8
Defpoints
 62
     0
370
    18
100
AcDbPoint
 10
25.5709
 20
-11.713398
 30
0.0
  0
ENDBLK
  5
D9
330
D1
100
AcDbEntity
  8
0
100
AcDbBlockEnd
  0
BLOCK
  5
E2
330
DB
100
AcDbEntity
  8
0
100
AcDbBlockBegin
  2
DimnDraft3D2
 70
     0
 10
0.0
 20
0.0
 30
0.0
  3
DimnDraft3D2
  1

  0
LINE
  5
416
330
DB
100
AcDbEntity
  8
SK2
 62
    35
370
    -2
100
AcDbLine
 10
-36.0
 20
-6.174999999999998
 30
0.0
 11
-36.0
 21
-33.69298499999999
 31
0.0
  0
LINE
  5
417
330
DB
100
AcDbEntity
  8
SK2
 62
    35
370
    -2
100
AcDbLine
 10
26.0
 20
-3.174999999999998
 30
0.0
 11
26.0
 21
-33.692985
 31
0.0
  0
LINE
  5
418
330
DB
100
AcDbEntity
  8
SK2
 62
    35
370
    -2
100
AcDbLine
 10
-32.5
 20
-31.692985
 30
0.0
 11
22.5
 21
-31.692985
 31
0.0
  0
SOLID
  5
419
330
DB
100
AcDbEntity
  8
SK2
 62
    35
370
    18
100
AcDbTrace
 10
-32.5
 20
-31.10965166666666
 30
0.0
 11
-32.5
 21
-32.27631833333333
 31
0.0
 12
-36.0
 22
-31.692985
 32
0.0
 13
-36.0
 23
-31.692985
 33
0.0
  0
SOLID
  5
41A
330
DB
100
AcDbEntity
  8
SK2
 62
    35
370
    18
100
AcDbTrace
 10
22.5
 20
-31.10965166666666
 30
0.0
 11
22.5
 21
-32.27631833333333
 31
0.0
 12
26.0
 22
-31.692985
 32
0.0
 13
26.0
 23
-31.692985
 33
0.0
  0
MTEXT
  5
41B
330
DB
100
AcDbEntity
  8
SK2
 62
    35
370
    13
100
AcDbMText
 10
-5.0
 20
-28.192985
 30
0.0
 40
3.5
 41
0.0
 71
     5
 72
     1
  1
\A1;2444in
  7
iso_b_vert
 73
     1
 44
1.0
  0
POINT
  5
41C
330
DB
100
AcDbEntity
  8
Defpoints
 62
     0
370
    18
100
AcDbPoint
 10
-36.0
 20
-4.5875
 30
0.0
  0
POINT
  5
41D
330
DB
100
AcDbEntity
  8
Defpoints
 62
     0
370
    18
100
AcDbPoint
 10
26.0
 20
-1.587499999999999
 30
0.0
  0
POINT
  5
41E
330
DB
100
AcDbEntity
  8
Defpoints
 62
     0
370
    18
100
AcDbPoint
 10
26.0
 20
-31.692985
 30
0.0
  0
ENDBLK
  5
E3
330
DB
100
AcDbEntity
  8
0
100
AcDbBlockEnd
  0
BLOCK
  5
EC
330
E5
100
AcDbEntity
  8
0
100
AcDbBlockBegin
  2
DimnDraft3D3
 70
     0
 10
0.0
 20
0.0
 30
0.0
  3
DimnDraft3D3
  1

  0
LINE
  5
41F
330
E5
100
AcDbEntity
  8
SK2
 62
    35
370
    -2
100
AcDbLine
 10
16.58
 20
4.674999999999998
 30
0.0
 11
16.58
 21
15.109119
 31
0.0
  0
LINE
  5
420
330
E5
100
AcDbEntity
  8
SK2
 62
    35
370
    -2
100
AcDbLine
 10
26.0
 20
3.174999999999998
 30
0.0
 11
26.0
 21
15.109119
 31
0.0
  0
LINE
  5
421
330
E5
100
AcDbEntity
  8
SK2
 62
    35
370
    -2
100
AcDbLine
 10
13.08
 20
13.109119
 30
0.0
 11
9.579999999999998
 21
13.109119
 31
0.0
  0
LINE
  5
422
330
E5
100
AcDbEntity
  8
SK2
 62
    35
370
    -2
100
AcDbLine
 10
29.5
 20
13.109119
 30
0.0
 11
53.0
 21
13.109119
 31
0.0
  0
LINE
  5
423
330
E5
100
AcDbEntity
  8
SK2
 62
    35
370
    -2
100
AcDbLine
 10
16.58
 20
13.109119
 30
0.0
 11
26.0
 21
13.109119
 31
0.0
  0
SOLID
  5
424
330
E5
100
AcDbEntity
  8
SK2
 62
    35
370
    18
100
AcDbTrace
 10
13.08
 20
13.69245233333333
 30
0.0
 11
13.08
 21
12.52578566666666
 31
0.0
 12
16.58
 22
13.109119
 32
0.0
 13
16.58
 23
13.109119
 33
0.0
  0
SOLID
  5
425
330
E5
100
AcDbEntity
  8
SK2
 62
    35
370
    18
100
AcDbTrace
 10
29.5
 20
13.69245233333333
 30
0.0
 11
29.5
 21
12.52578566666666
 31
0.0
 12
26.0
 22
13.109119
 32
0.0
 13
26.0
 23
13.109119
 33
0.0
  0
MTEXT
  5
426
330
E5
100
AcDbEntity
  8
SK2
 62
    35
370
    13
100
AcDbMText
 10
43.0
 20
16.609119
 30
0.0
 40
3.5
 41
0.0
 71
     5
 72
     1
  1
\A1;0437in
  7
iso_b_vert
 73
     1
 44
1.0
  0
POINT
  5
427
330
E5
100
AcDbEntity
  8
Defpoints
 62
     0
370
    18
100
AcDbPoint
 10
16.58
 20
3.087499999999999
 30
0.0
  0
POINT
  5
428
330
E5
100
AcDbEntity
  8
Defpoints
 62
     0
370
    18
100
AcDbPoint
 10
26.0
 20
1.587499999999999
 30
0.0
  0
POINT
  5
429
330
E5
100
AcDbEntity
  8
Defpoints
 62
     0
370
    18
100
AcDbPoint
 10
26.0
 20
13.109119
 30
0.0
  0
ENDBLK
  5
ED
330
E5
100
AcDbEntity
  8
0
100
AcDbBlockEnd
  0
BLOCK
  5
F6
330
EF
100
AcDbEntity
  8
0
100
AcDbBlockBegin
  2
DimnDraft3D4
 70
     0
 10
0.0
 20
0.0
 30
0.0
  3
DimnDraft3D4
  1

  0
LINE
  5
42A
330
EF
100
AcDbEntity
  8
SK2
 62
    35
370
    -2
100
AcDbLine
 10
26.0
 20
-3.174999999999998
 30
0.0
 11
26.0
 21
-16.302503
 31
0.0
  0
LINE
  5
42B
330
EF
100
AcDbEntity
  8
SK2
 62
    35
370
    -2
100
AcDbLine
 10
25.5709
 20
-4.674999999999998
 30
0.0
 11
25.5709
 21
-16.302503
 31
0.0
  0
LINE
  5
42C
330
EF
100
AcDbEntity
  8
SK2
 62
    35
370
    -2
100
AcDbLine
 10
29.5
 20
-14.302503
 30
0.0
 11
33.0
 21
-14.302503
 31
0.0
  0
LINE
  5
42D
330
EF
100
AcDbEntity
  8
SK2
 62
    35
370
    -2
100
AcDbLine
 10
22.0709
 20
-14.302503
 30
0.0
 11
-1.429099999999991
 21
-14.302503
 31
0.0
  0
LINE
  5
42E
330
EF
100
AcDbEntity
  8
SK2
 62
    35
370
    -2
100
AcDbLine
 10
26.0
 20
-14.302503
 30
0.0
 11
25.5709
 21
-14.302503
 31
0.0
  0
SOLID
  5
42F
330
EF
100
AcDbEntity
  8
SK2
 62
    35
370
    18
100
AcDbTrace
 10
29.5
 20
-13.71916966666666
 30
0.0
 11
29.5
 21
-14.88583633333333
 31
0.0
 12
26.0
 22
-14.302503
 32
0.0
 13
26.0
 23
-14.302503
 33
0.0
  0
SOLID
  5
430
330
EF
100
AcDbEntity
  8
SK2
 62
    35
370
    18
100
AcDbTrace
 10
22.0709
 20
-13.71916966666666
 30
0.0
 11
22.0709
 21
-14.88583633333333
 31
0.0
 12
25.5709
 22
-14.302503
 32
0.0
 13
25.5709
 23
-14.302503
 33
0.0
  0
MTEXT
  5
431
330
EF
100
AcDbEntity
  8
SK2
 62
    35
370
    13
100
AcDbMText
 10
8.570900000000005
 20
-10.802503
 30
0.0
 40
3.5
 41
0.0
 71
     5
 72
     1
  1
\A1;0402in
  7
iso_b_vert
 73
     1
 44
1.0
  0
POINT
  5
432
330
EF
100
AcDbEntity
  8
Defpoints
 62
     0
370
    18
100
AcDbPoint
 10
26.0
 20
-1.587499999999999
 30
0.0
  0
POINT
  5
433
330
EF
100
AcDbEntity
  8
Defpoints
 62
     0
370
    18
100
AcDbPoint
 10
25.5709
 20
-3.087499999999999
 30
0.0
  0
POINT
  5
434
330
EF
100
AcDbEntity
  8
Defpoints
 62
     0
370
    18
100
AcDbPoint
 10
25.5709
 20
-14.302503
 30
0.0
  0
ENDBLK
  5
F7
330
EF
100
AcDbEntity
  8
0
100
AcDbBlockEnd
  0
BLOCK
  5
100
330
F9
100
AcDbEntity
  8
0
100
AcDbBlockBegin
  2
DimnDraft3D5
 70
     0
 10
0.0
 20
0.0
 30
0.0
  3
DimnDraft3D5
  1

  0
LINE
  5
435
330
F9
100
AcDbEntity
  8
SK2
 62
    35
370
    -2
100
AcDbLine
 10
-36.0
 20
-6.174999999999998
 30
0.0
 11
-36.0
 21
-23.34342799999999
 31
0.0
  0
LINE
  5
436
330
F9
100
AcDbEntity
  8
SK2
 62
    35
370
    -2
100
AcDbLine
 10
25.5709
 20
-4.674999999999998
 30
0.0
 11
25.5709
 21
-23.343428
 31
0.0
  0
LINE
  5
437
330
F9
100
AcDbEntity
  8
SK2
 62
    35
370
    -2
100
AcDbLine
 10
-32.5
 20
-21.343428
 30
0.0
 11
22.0709
 21
-21.343428
 31
0.0
  0
SOLID
  5
438
330
F9
100
AcDbEntity
  8
SK2
 62
    35
370
    18
100
AcDbTrace
 10
-32.5
 20
-20.76009466666667
 30
0.0
 11
-32.5
 21
-21.92676133333333
 31
0.0
 12
-36.0
 22
-21.343428
 32
0.0
 13
-36.0
 23
-21.343428
 33
0.0
  0
SOLID
  5
439
330
F9
100
AcDbEntity
  8
SK2
 62
    35
370
    18
100
AcDbTrace
 10
22.0709
 20
-20.76009466666667
 30
0.0
 11
22.0709
 21
-21.92676133333333
 31
0.0
 12
25.5709
 22
-21.343428
 32
0.0
 13
25.5709
 23
-21.343428
 33
0.0
  0
MTEXT
  5
43A
330
F9
100
AcDbEntity
  8
SK2
 62
    35
370
    13
100
AcDbMText
 10
-5.214549999999999
 20
-17.843428
 30
0.0
 40
3.5
 41
0.0
 71
     5
 72
     1
  1
\A1;2442in
  7
iso_b_vert
 73
     1
 44
1.0
  0
POINT
  5
43B
330
F9
100
AcDbEntity
  8
Defpoints
 62
     0
370
    18
100
AcDbPoint
 10
-36.0
 20
-4.5875
 30
0.0
  0
POINT
  5
43C
330
F9
100
AcDbEntity
  8
Defpoints
 62
     0
370
    18
100
AcDbPoint
 10
25.5709
 20
-3.087499999999999
 30
0.0
  0
POINT
  5
43D
330
F9
100
AcDbEntity
  8
Defpoints
 62
     0
370
    18
100
AcDbPoint
 10
25.5709
 20
-21.343428
 30
0.0
  0
ENDBLK
  5
101
330
F9
100
AcDbEntity
  8
0
100
AcDbBlockEnd
  0
BLOCK
  5
10B
330
103
100
AcDbEntity
  8
0
100
AcDbBlockBegin
  2
DimnDraft3D6
 70
     0
 10
0.0
 20
0.0
 30
0.0
  3
DimnDraft3D6
  1

  0
LINE
  5
43E
330
103
100
AcDbEntity
  8
SK2
 62
    35
370
    -2
100
AcDbLine
 10
-39.175
 20
-2.999999999999998
 30
0.0
 11
-48.625163
 21
-2.999999999999996
 31
0.0
  0
LINE
  5
43F
330
103
100
AcDbEntity
  8
SK2
 62
    35
370
    -2
100
AcDbLine
 10
-39.175
 20
3.0
 30
0.0
 11
-48.625163
 21
3.000000000000003
 31
0.0
  0
LINE
  5
440
330
103
100
AcDbEntity
  8
SK2
 62
    35
370
    -2
100
AcDbLine
 10
-46.625163
 20
-6.499999999999997
 30
0.0
 11
-46.625163
 21
-9.999999999999996
 31
0.0
  0
LINE
  5
441
330
103
100
AcDbEntity
  8
SK2
 62
    35
370
    -2
100
AcDbLine
 10
-46.625163
 20
6.500000000000002
 30
0.0
 11
-46.62516299999999
 21
33.33333333333333
 31
0.0
  0
SOLID
  5
442
330
103
100
AcDbEntity
  8
SK2
 62
    35
370
    18
100
AcDbTrace
 10
-47.20849633333332
 20
-6.499999999999997
 30
0.0
 11
-46.04182966666665
 21
-6.499999999999997
 31
0.0
 12
-46.625163
 22
-2.999999999999996
 32
0.0
 13
-46.625163
 23
-2.999999999999996
 33
0.0
  0
SOLID
  5
443
330
103
100
AcDbEntity
  8
SK2
 62
    35
370
    18
100
AcDbTrace
 10
-47.20849633333332
 20
6.500000000000002
 30
0.0
 11
-46.04182966666665
 21
6.500000000000002
 31
0.0
 12
-46.625163
 22
3.000000000000001
 32
0.0
 13
-46.625163
 23
3.000000000000001
 33
0.0
  0
MTEXT
  5
444
330
103
100
AcDbEntity
  8
SK2
 62
    35
370
    13
100
AcDbMText
 10
-50.125163
 20
21.66666666666666
 30
0.0
 40
3.5
 41
0.0
 71
     5
 72
     1
  1
\A1;04236in
  7
iso_b_vert
 11
0.0000000000000001
 21
1.0
 31
0.0
 73
     1
 44
1.0
  0
POINT
  5
445
330
103
100
AcDbEntity
  8
Defpoints
 62
     0
370
    18
100
AcDbPoint
 10
-37.5875
 20
-3.0
 30
0.0
  0
POINT
  5
446
330
103
100
AcDbEntity
  8
Defpoints
 62
     0
370
    18
100
AcDbPoint
 10
-37.5875
 20
3.0
 30
0.0
  0
POINT
  5
447
330
103
100
AcDbEntity
  8
Defpoints
 62
     0
370
    18
100
AcDbPoint
 10
-46.625163
 20
3.000000000000001
 30
0.0
  0
ENDBLK
  5
10C
330
103
100
AcDbEntity
  8
0
100
AcDbBlockEnd
  0
BLOCK
  5
116
330
10E
100
AcDbEntity
  8
0
100
AcDbBlockBegin
  2
DimnDraft3D7
 70
     0
 10
0.0
 20
0.0
 30
0.0
  3
DimnDraft3D7
  1

  0
LINE
  5
448
330
10E
100
AcDbEntity
  8
2
 62
    35
370
    -2
100
AcDbLine
 10
28.7459
 20
-1.5
 30
0.0
 11
42.08334299999999
 21
-1.500000000000004
 31
0.0
  0
LINE
  5
449
330
10E
100
AcDbEntity
  8
2
 62
    35
370
    -2
100
AcDbLine
 10
28.7459
 20
1.499999999999999
 30
0.0
 11
42.08334299999999
 21
1.499999999999995
 31
0.0
  0
LINE
  5
44A
330
10E
100
AcDbEntity
  8
2
 62
    35
370
    -2
100
AcDbLine
 10
40.083343
 20
-5.0
 30
0.0
 11
40.083343
 21
-8.500000000000001
 31
0.0
  0
LINE
  5
44B
330
10E
100
AcDbEntity
  8
2
 62
    35
370
    -2
100
AcDbLine
 10
40.083343
 20
4.999999999999995
 30
0.0
 11
40.083343
 21
30.49999999999999
 31
0.0
  0
SOLID
  5
44C
330
10E
100
AcDbEntity
  8
2
 62
    35
370
    18
100
AcDbTrace
 10
39.50000966666666
 20
-5.0
 30
0.0
 11
40.66667633333334
 21
-5.0
 31
0.0
 12
40.083343
 22
-1.500000000000003
 32
0.0
 13
40.083343
 23
-1.500000000000003
 33
0.0
  0
SOLID
  5
44D
330
10E
100
AcDbEntity
  8
2
 62
    35
370
    18
100
AcDbTrace
 10
39.50000966666666
 20
4.999999999999995
 30
0.0
 11
40.66667633333334
 21
4.999999999999995
 31
0.0
 12
40.083343
 22
1.499999999999995
 32
0.0
 13
40.083343
 23
1.499999999999995
 33
0.0
  0
MTEXT
  5
44E
330
10E
100
AcDbEntity
  8
2
 62
    35
370
    13
100
AcDbMText
 10
36.583343
 20
19.5
 30
0.0
 40
3.5
 41
0.0
 71
     5
 72
     1
  1
\A1;04118in
  7
iso_b_vert
 11
0.0000000000000001
 21
1.0
 31
0.0
 73
     1
 44
1.0
  0
POINT
  5
44F
330
10E
100
AcDbEntity
  8
Defpoints
 62
     0
370
    18
100
AcDbPoint
 10
27.1584
 20
-1.5
 30
0.0
  0
POINT
  5
450
330
10E
100
AcDbEntity
  8
Defpoints
 62
     0
370
    18
100
AcDbPoint
 10
27.1584
 20
1.5
 30
0.0
  0
POINT
  5
451
330
10E
100
AcDbEntity
  8
Defpoints
 62
     0
370
    18
100
AcDbPoint
 10
40.083343
 20
1.499999999999995
 30
0.0
  0
ENDBLK
  5
117
330
10E
100
AcDbEntity
  8
0
100
AcDbBlockEnd
  0
BLOCK
  5
250
330
245
100
AcDbEntity
  8
0
370
    18
100
AcDbBlockBegin
  2
*D8
 70
     1
 10
0.0
 20
0.0
 30
0.0
  3
*D8
  1

  0
LINE
  5
246
330
245
100
AcDbEntity
  8
0
 62
     0
370
    -2
100
AcDbLine
 10
117.5037172624325
 20
2.272902153363291
 30
0.0
 11
117.5037172624325
 21
4.965494817786342
 31
0.0
  0
LINE
  5
247
330
245
100
AcDbEntity
  8
0
 62
     0
370
    -2
100
AcDbLine
 10
122.4656131114396
 20
1.253970243181179
 30
0.0
 11
122.4656131114396
 21
4.965494817786342
 31
0.0
  0
LINE
  5
248
330
245
100
AcDbEntity
  8
0
 62
     0
370
    -2
100
AcDbLine
 10
117.6837172624325
 20
4.78549481778634
 30
0.0
 11
119.474665186936
 21
4.78549481778634
 31
0.0
  0
LINE
  5
249
330
245
100
AcDbEntity
  8
0
 62
     0
370
    -2
100
AcDbLine
 10
122.2856131114396
 20
4.78549481778634
 30
0.0
 11
120.4946651869361
 21
4.78549481778634
 31
0.0
  0
SOLID
  5
24A
330
245
100
AcDbEntity
  8
0
 62
     0
370
    18
100
AcDbTrace
 10
117.6837172624325
 20
4.815494817786341
 30
0.0
 11
117.6837172624325
 21
4.755494817786342
 31
0.0
 12
117.5037172624325
 22
4.78549481778634
 32
0.0
 13
117.5037172624325
 23
4.78549481778634
 33
0.0
  0
SOLID
  5
24B
330
245
100
AcDbEntity
  8
0
 62
     0
370
    18
100
AcDbTrace
 10
122.2856131114396
 20
4.815494817786341
 30
0.0
 11
122.2856131114396
 21
4.755494817786342
 31
0.0
 12
122.4656131114396
 22
4.78549481778634
 32
0.0
 13
122.4656131114396
 23
4.78549481778634
 33
0.0
  0
MTEXT
  5
24C
330
245
100
AcDbEntity
  8
0
 62
     0
370
    18
100
AcDbMText
 10
119.984665186936
 20
4.78549481778634
 30
0.0
 40
0.18
 41
0.0
 71
     5
 72
     1
  1
\A1;4.9619
 73
     1
 44
1.0
  0
POINT
  5
24D
330
245
100
AcDbEntity
  8
Defpoints
 62
     0
370
    18
100
AcDbPoint
 10
117.5037172624325
 20
2.210402153363291
 30
0.0
  0
POINT
  5
24E
330
245
100
AcDbEntity
  8
Defpoints
 62
     0
370
    18
100
AcDbPoint
 10
122.4656131114396
 20
1.191470243181179
 30
0.0
  0
POINT
  5
24F
330
245
100
AcDbEntity
  8
Defpoints
 62
     0
370
    18
100
AcDbPoint
 10
122.4656131114396
 20
4.78549481778634
 30
0.0
  0
ENDBLK
  5
251
330
245
100
AcDbEntity
  8
0
370
    18
100
AcDbBlockEnd
  0
BLOCK
  5
25E
330
253
100
AcDbEntity
  8
0
370
    18
100
AcDbBlockBegin
  2
*D9
 70
     1
 10
0.0
 20
0.0
 30
0.0
  3
*D9
  1

  0
LINE
  5
254
330
253
100
AcDbEntity
  8
0
 62
     0
370
    -2
100
AcDbLine
 10
117.5037172624325
 20
2.272902153363291
 30
0.0
 11
117.5037172624325
 21
3.922030005219873
 31
0.0
  0
LINE
  5
255
330
253
100
AcDbEntity
  8
0
 62
     0
370
    -2
100
AcDbLine
 10
122.4656131114396
 20
1.253970243181179
 30
0.0
 11
122.4656131114396
 21
3.922030005219873
 31
0.0
  0
LINE
  5
256
330
253
100
AcDbEntity
  8
0
 62
     0
370
    -2
100
AcDbLine
 10
117.6837172624325
 20
3.742030005219873
 30
0.0
 11
119.474665186936
 21
3.742030005219873
 31
0.0
  0
LINE
  5
257
330
253
100
AcDbEntity
  8
0
 62
     0
370
    -2
100
AcDbLine
 10
122.2856131114396
 20
3.742030005219873
 30
0.0
 11
120.4946651869361
 21
3.742030005219873
 31
0.0
  0
SOLID
  5
258
330
253
100
AcDbEntity
  8
0
 62
     0
370
    18
100
AcDbTrace
 10
117.6837172624325
 20
3.772030005219872
 30
0.0
 11
117.6837172624325
 21
3.712030005219873
 31
0.0
 12
117.5037172624325
 22
3.742030005219873
 32
0.0
 13
117.5037172624325
 23
3.742030005219873
 33
0.0
  0
SOLID
  5
259
330
253
100
AcDbEntity
  8
0
 62
     0
370
    18
100
AcDbTrace
 10
122.2856131114396
 20
3.772030005219872
 30
0.0
 11
122.2856131114396
 21
3.712030005219873
 31
0.0
 12
122.4656131114396
 22
3.742030005219873
 32
0.0
 13
122.4656131114396
 23
3.742030005219873
 33
0.0
  0
MTEXT
  5
25A
330
253
100
AcDbEntity
  8
0
 62
     0
370
    18
100
AcDbMText
 10
119.984665186936
 20
3.742030005219873
 30
0.0
 40
0.18
 41
0.0
 71
     5
 72
     1
  1
\A1;4.9619
 73
     1
 44
1.0
  0
POINT
  5
25B
330
253
100
AcDbEntity
  8
Defpoints
 62
     0
370
    18
100
AcDbPoint
 10
117.5037172624325
 20
2.210402153363291
 30
0.0
  0
POINT
  5
25C
330
253
100
AcDbEntity
  8
Defpoints
 62
     0
370
    18
100
AcDbPoint
 10
122.4656131114396
 20
1.191470243181179
 30
0.0
  0
POINT
  5
25D
330
253
100
AcDbEntity
  8
Defpoints
 62
     0
370
    18
100
AcDbPoint
 10
122.4656131114396
 20
3.742030005219873
 30
0.0
  0
ENDBLK
  5
25F
330
253
100
AcDbEntity
  8
0
370
    18
100
AcDbBlockEnd
  0
BLOCK
  5
26C
330
261
100
AcDbEntity
  8
0
370
    18
100
AcDbBlockBegin
  2
*D10
 70
     1
 10
0.0
 20
0.0
 30
0.0
  3
*D10
  1

  0
LINE
  5
262
330
261
100
AcDbEntity
  8
0
 62
     0
370
    -2
100
AcDbLine
 10
-27.24435463599025
 20
3.0625
 30
0.0
 11
-27.24435463599025
 21
12.17414377043024
 31
0.0
  0
LINE
  5
263
330
261
100
AcDbEntity
  8
0
 62
     0
370
    -2
100
AcDbLine
 10
-14.0547699123174
 20
3.0625
 30
0.0
 11
-14.0547699123174
 21
12.17414377043024
 31
0.0
  0
LINE
  5
264
330
261
100
AcDbEntity
  8
0
 62
     0
370
    -2
100
AcDbLine
 10
-27.06435463599025
 20
11.99414377043024
 30
0.0
 11
-21.21956227415383
 21
11.99414377043024
 31
0.0
  0
LINE
  5
265
330
261
100
AcDbEntity
  8
0
 62
     0
370
    -2
100
AcDbLine
 10
-14.2347699123174
 20
11.99414377043024
 30
0.0
 11
-20.07956227415383
 21
11.99414377043024
 31
0.0
  0
SOLID
  5
266
330
261
100
AcDbEntity
  8
0
 62
     0
370
    18
100
AcDbTrace
 10
-27.06435463599025
 20
12.02414377043024
 30
0.0
 11
-27.06435463599025
 21
11.96414377043024
 31
0.0
 12
-27.24435463599025
 22
11.99414377043024
 32
0.0
 13
-27.24435463599025
 23
11.99414377043024
 33
0.0
  0
SOLID
  5
267
330
261
100
AcDbEntity
  8
0
 62
     0
370
    18
100
AcDbTrace
 10
-14.2347699123174
 20
12.02414377043024
 30
0.0
 11
-14.2347699123174
 21
11.96414377043024
 31
0.0
 12
-14.0547699123174
 22
11.99414377043024
 32
0.0
 13
-14.0547699123174
 23
11.99414377043024
 33
0.0
  0
MTEXT
  5
268
330
261
100
AcDbEntity
  8
0
 62
     0
370
    18
100
AcDbMText
 10
-20.64956227415382
 20
11.99414377043024
 30
0.0
 40
0.18
 41
0.0
 71
     5
 72
     1
  1
\A1;13.1896
 73
     1
 44
1.0
  0
POINT
  5
269
330
261
100
AcDbEntity
  8
Defpoints
 62
     0
370
    18
100
AcDbPoint
 10
-27.24435463599025
 20
3.0
 30
0.0
  0
POINT
  5
26A
330
261
100
AcDbEntity
  8
Defpoints
 62
     0
370
    18
100
AcDbPoint
 10
-14.0547699123174
 20
3.0
 30
0.0
  0
POINT
  5
26B
330
261
100
AcDbEntity
  8
Defpoints
 62
     0
370
    18
100
AcDbPoint
 10
-14.0547699123174
 20
11.99414377043024
 30
0.0
  0
ENDBLK
  5
26D
330
261
100
AcDbEntity
  8
0
370
    18
100
AcDbBlockEnd
  0
BLOCK
  5
36B
330
361
100
AcDbEntity
  8
0
370
    18
100
AcDbBlockBegin
  2
*D11
 70
     1
 10
0.0
 20
0.0
 30
0.0
  3
*D11
  1

  0
LINE
  5
473
330
361
100
AcDbEntity
  8
0
 62
     0
370
    -2
100
AcDbLine
 10
117.8053548980675
 20
2.601747639746895
 30
0.0
 11
117.8053548980675
 21
5.435517696007308
 31
0.0
  0
LINE
  5
474
330
361
100
AcDbEntity
  8
0
 62
     0
370
    -2
100
AcDbLine
 10
122.4656131114396
 20
1.816470243181178
 30
0.0
 11
122.4656131114396
 21
5.435517696007308
 31
0.0
  0
LINE
  5
475
330
361
100
AcDbEntity
  8
0
 62
     0
370
    -2
100
AcDbLine
 10
115.3053548980675
 20
4.185517696007308
 30
0.0
 11
112.8053548980675
 21
4.185517696007308
 31
0.0
  0
LINE
  5
476
330
361
100
AcDbEntity
  8
0
 62
     0
370
    -2
100
AcDbLine
 10
124.9656131114396
 20
4.185517696007308
 30
0.0
 11
141.2156131114396
 21
4.185517696007308
 31
0.0
  0
LINE
  5
477
330
361
100
AcDbEntity
  8
0
 62
     0
370
    -2
100
AcDbLine
 10
117.8053548980675
 20
4.185517696007308
 30
0.0
 11
122.4656131114396
 21
4.185517696007308
 31
0.0
  0
SOLID
  5
478
330
361
100
AcDbEntity
  8
0
 62
     0
370
    18
100
AcDbTrace
 10
115.3053548980675
 20
4.602184362673976
 30
0.0
 11
115.3053548980675
 21
3.768851029340642
 31
0.0
 12
117.8053548980675
 22
4.185517696007308
 32
0.0
 13
117.8053548980675
 23
4.185517696007308
 33
0.0
  0
SOLID
  5
479
330
361
100
AcDbEntity
  8
0
 62
     0
370
    18
100
AcDbTrace
 10
124.9656131114396
 20
4.602184362673976
 30
0.0
 11
124.9656131114396
 21
3.768851029340642
 31
0.0
 12
122.4656131114396
 22
4.185517696007308
 32
0.0
 13
122.4656131114396
 23
4.185517696007308
 33
0.0
  0
MTEXT
  5
47A
330
361
100
AcDbEntity
  8
0
 62
     0
370
    18
100
AcDbMText
 10
134.3406131114396
 20
6.268851029340642
 30
0.0
 40
2.5
 41
0.0
 71
     5
 72
     1
  1
0,183in
 73
     1
 44
1.0
  0
POINT
  5
47B
330
361
100
AcDbEntity
  8
Defpoints
 62
     0
370
    18
100
AcDbPoint
 10
117.8053548980675
 20
1.976747639746895
 30
0.0
  0
POINT
  5
47C
330
361
100
AcDbEntity
  8
Defpoints
 62
     0
370
    18
100
AcDbPoint
 10
122.4656131114396
 20
1.191470243181179
 30
0.0
  0
POINT
  5
47D
330
361
100
AcDbEntity
  8
Defpoints
 62
     0
370
    18
100
AcDbPoint
 10
122.4656131114396
 20
4.185517696007308
 30
0.0
  0
ENDBLK
  5
36C
330
361
100
AcDbEntity
  8
0
370
    18
100
AcDbBlockEnd
  0
BLOCK
  5
48A
330
480
100
AcDbEntity
  8
0
370
    18
100
AcDbBlockBegin
  2
*D12
 70
     1
 10
0.0
 20
0.0
 30
0.0
  3
*D12
  1

  0
LINE
  5
63E
330
480
100
AcDbEntity
  8
SK2
 62
     0
370
    -2
100
AcDbLine
 10
-24.6582629230949
 20
2.649680616889284
 30
0.0
 11
-24.6582629230949
 21
10.231037590834
 31
0.0
  0
LINE
  5
63F
330
480
100
AcDbEntity
  8
SK2
 62
     0
370
    -2
100
AcDbLine
 10
-16.7842629230949
 20
2.692013950189283
 30
0.0
 11
-16.7842629230949
 21
10.231037590834
 31
0.0
  0
LINE
  5
640
330
480
100
AcDbEntity
  8
SK2
 62
     0
370
    -2
100
AcDbLine
 10
-19.2842629230949
 20
8.981037590833997
 30
0.0
 11
-22.1582629230949
 21
8.981037590833997
 31
0.0
  0
LINE
  5
641
330
480
100
AcDbEntity
  8
SK2
 62
     0
370
    -2
100
AcDbLine
 10
-24.6582629230949
 20
8.981037590833997
 30
0.0
 11
-39.58211175451861
 21
8.981037590833997
 31
0.0
  0
SOLID
  5
642
330
480
100
AcDbEntity
  8
SK2
 62
     0
370
    18
100
AcDbTrace
 10
-19.2842629230949
 20
9.397704257500663
 30
0.0
 11
-19.2842629230949
 21
8.564370924167331
 31
0.0
 12
-16.7842629230949
 22
8.981037590833997
 32
0.0
 13
-16.7842629230949
 23
8.981037590833997
 33
0.0
  0
SOLID
  5
643
330
480
100
AcDbEntity
  8
SK2
 62
     0
370
    18
100
AcDbTrace
 10
-22.1582629230949
 20
9.397704257500663
 30
0.0
 11
-22.1582629230949
 21
8.564370924167331
 31
0.0
 12
-24.6582629230949
 22
8.981037590833997
 32
0.0
 13
-24.6582629230949
 23
8.981037590833997
 33
0.0
  0
MTEXT
  5
644
330
480
100
AcDbEntity
  8
SK2
 62
     0
370
    18
100
AcDbMText
 10
-34.99877842118528
 20
11.06437092416733
 30
0.0
 40
2.5
 41
0.0
 71
     5
 72
     1
  1
7,87
 73
     1
 44
1.0
  0
POINT
  5
645
330
480
100
AcDbEntity
  8
Defpoints
 62
     0
370
    18
100
AcDbPoint
 10
-24.6582629230949
 20
2.024680616889284
 30
0.0
  0
POINT
  5
646
330
480
100
AcDbEntity
  8
Defpoints
 62
     0
370
    18
100
AcDbPoint
 10
-16.7842629230949
 20
2.067013950189283
 30
0.0
  0
POINT
  5
647
330
480
100
AcDbEntity
  8
Defpoints
 62
     0
370
    18
100
AcDbPoint
 10
-16.7842629230949
 20
8.981037590833997
 30
0.0
  0
ENDBLK
  5
48B
330
480
100
AcDbEntity
  8
0
370
    18
100
AcDbBlockEnd
  0
BLOCK
  5
4BF
330
4B5
100
AcDbEntity
  8
0
370
    18
100
AcDbBlockBegin
  2
*D13
 70
     1
 10
0.0
 20
0.0
 30
0.0
  3
*D13
  1

  0
LINE
  5
65E
330
4B5
100
AcDbEntity
  8
SK2
 62
     0
370
    -2
100
AcDbLine
 10
6.828515727038109
 20
2.743439570510184
 30
0.0
 11
6.82851572703811
 21
10.52342846687784
 31
0.0
  0
LINE
  5
65F
330
4B5
100
AcDbEntity
  8
SK2
 62
     0
370
    -2
100
AcDbLine
 10
11.40539633668797
 20
1.840076036662606
 30
0.0
 11
11.40539633668797
 21
10.52342846687784
 31
0.0
  0
LINE
  5
660
330
4B5
100
AcDbEntity
  8
SK2
 62
     0
370
    -2
100
AcDbLine
 10
4.328515727038109
 20
9.273428466877838
 30
0.0
 11
1.828515727038109
 21
9.273428466877838
 31
0.0
  0
LINE
  5
661
330
4B5
100
AcDbEntity
  8
SK2
 62
     0
370
    -2
100
AcDbLine
 10
13.90539633668797
 20
9.273428466877838
 30
0.0
 11
26.15539633668797
 21
9.273428466877838
 31
0.0
  0
LINE
  5
662
330
4B5
100
AcDbEntity
  8
SK2
 62
     0
370
    -2
100
AcDbLine
 10
6.828515727038109
 20
9.273428466877838
 30
0.0
 11
11.40539633668797
 21
9.273428466877838
 31
0.0
  0
SOLID
  5
663
330
4B5
100
AcDbEntity
  8
SK2
 62
     0
370
    18
100
AcDbTrace
 10
4.328515727038109
 20
9.690095133544504
 30
0.0
 11
4.328515727038109
 21
8.856761800211172
 31
0.0
 12
6.828515727038109
 22
9.273428466877838
 32
0.0
 13
6.828515727038109
 23
9.273428466877838
 33
0.0
  0
SOLID
  5
664
330
4B5
100
AcDbEntity
  8
SK2
 62
     0
370
    18
100
AcDbTrace
 10
13.90539633668797
 20
9.690095133544504
 30
0.0
 11
13.90539633668797
 21
8.856761800211172
 31
0.0
 12
11.40539633668797
 22
9.273428466877838
 32
0.0
 13
11.40539633668797
 23
9.273428466877838
 33
0.0
  0
MTEXT
  5
665
330
4B5
100
AcDbEntity
  8
SK2
 62
     0
370
    18
100
AcDbMText
 10
21.57206300335464
 20
11.35676180021117
 30
0.0
 40
2.5
 41
0.0
 71
     5
 72
     1
  1
4,58
 73
     1
 44
1.0
  0
POINT
  5
666
330
4B5
100
AcDbEntity
  8
Defpoints
 62
     0
370
    18
100
AcDbPoint
 10
6.828515727038109
 20
2.118439570510184
 30
0.0
  0
POINT
  5
667
330
4B5
100
AcDbEntity
  8
Defpoints
 62
     0
370
    18
100
AcDbPoint
 10
11.40539633668797
 20
1.215076036662606
 30
0.0
  0
POINT
  5
668
330
4B5
100
AcDbEntity
  8
Defpoints
 62
     0
370
    18
100
AcDbPoint
 10
11.40539633668797
 20
9.273428466877838
 30
0.0
  0
ENDBLK
  5
4C0
330
4B5
100
AcDbEntity
  8
0
370
    18
100
AcDbBlockEnd
  0
BLOCK
  5
52D
330
523
100
AcDbEntity
  8
0
370
    18
100
AcDbBlockBegin
  2
*D14
 70
     1
 10
0.0
 20
0.0
 30
0.0
  3
*D14
  1

  0
LINE
  5
52F
330
523
100
AcDbEntity
  8
0
 62
     0
370
    -2
100
AcDbLine
 10
94.33961311143958
 20
10.48713187490472
 30
0.0
 11
94.33961311143958
 21
14.83025231219608
 31
0.0
  0
LINE
  5
530
330
523
100
AcDbEntity
  8
0
 62
     0
370
    -2
100
AcDbLine
 10
117.812800825673
 20
10.48713187490472
 30
0.0
 11
117.812800825673
 21
14.83025231219608
 31
0.0
  0
LINE
  5
531
330
523
100
AcDbEntity
  8
0
 62
     0
370
    -2
100
AcDbLine
 10
96.08961311143959
 20
13.58025231219608
 30
0.0
 11
116.0628008256729
 21
13.58025231219608
 31
0.0
  0
SOLID
  5
532
330
523
100
AcDbEntity
  8
0
 62
     0
370
    18
100
AcDbTrace
 10
96.08961311143959
 20
13.87191897886274
 30
0.0
 11
96.08961311143959
 21
13.28858564552941
 31
0.0
 12
94.33961311143958
 22
13.58025231219608
 32
0.0
 13
94.33961311143958
 23
13.58025231219608
 33
0.0
  0
SOLID
  5
533
330
523
100
AcDbEntity
  8
0
 62
     0
370
    18
100
AcDbTrace
 10
116.0628008256729
 20
13.87191897886274
 30
0.0
 11
116.0628008256729
 21
13.28858564552941
 31
0.0
 12
117.812800825673
 22
13.58025231219608
 32
0.0
 13
117.812800825673
 23
13.58025231219608
 33
0.0
  0
MTEXT
  5
534
330
523
100
AcDbEntity
  8
0
 62
     0
370
    18
100
AcDbMText
 10
106.0762069685563
 20
15.45525231219608
 30
0.0
 40
2.5
 41
0.0
 71
     5
 72
     1
  1
0.924in
 73
     1
 44
1.0
  0
POINT
  5
535
330
523
100
AcDbEntity
  8
Defpoints
 62
     0
370
    18
100
AcDbPoint
 10
94.33961311143958
 20
9.86213187490472
 30
0.0
  0
POINT
  5
536
330
523
100
AcDbEntity
  8
Defpoints
 62
     0
370
    18
100
AcDbPoint
 10
117.812800825673
 20
9.86213187490472
 30
0.0
  0
POINT
  5
537
330
523
100
AcDbEntity
  8
Defpoints
 62
     0
370
    18
100
AcDbPoint
 10
117.812800825673
 20
13.58025231219608
 30
0.0
  0
ENDBLK
  5
52E
330
523
100
AcDbEntity
  8
0
370
    18
100
AcDbBlockEnd
  0
BLOCK
  5
543
330
539
100
AcDbEntity
  8
0
370
    18
100
AcDbBlockBegin
  2
*D15
 70
     1
 10
0.0
 20
0.0
 30
0.0
  3
*D15
  1

  0
LINE
  5
648
330
539
100
AcDbEntity
  8
2
 62
     0
370
    -2
100
AcDbLine
 10
10.13937123153331
 20
2.052497221734979
 30
0.0
 11
17.22070655298913
 21
2.052497221734976
 31
0.0
  0
LINE
  5
649
330
539
100
AcDbEntity
  8
2
 62
     0
370
    -2
100
AcDbLine
 10
10.13937123153331
 20
-2.090502778265018
 30
0.0
 11
17.22070655298913
 21
-2.09050277826502
 31
0.0
  0
LINE
  5
64A
330
539
100
AcDbEntity
  8
2
 62
     0
370
    -2
100
AcDbLine
 10
15.97070655298913
 20
4.552497221734977
 30
0.0
 11
15.97070655298913
 21
7.052497221734977
 31
0.0
  0
LINE
  5
64B
330
539
100
AcDbEntity
  8
2
 62
     0
370
    -2
100
AcDbLine
 10
15.97070655298913
 20
-4.590502778265019
 30
0.0
 11
15.97070655298912
 21
-22.92383611159835
 31
0.0
  0
LINE
  5
64C
330
539
100
AcDbEntity
  8
2
 62
     0
370
    -2
100
AcDbLine
 10
15.97070655298913
 20
2.052497221734977
 30
0.0
 11
15.97070655298913
 21
-2.090502778265019
 31
0.0
  0
SOLID
  5
64D
330
539
100
AcDbEntity
  8
2
 62
     0
370
    18
100
AcDbTrace
 10
15.55403988632246
 20
4.552497221734977
 30
0.0
 11
16.38737321965579
 21
4.552497221734977
 31
0.0
 12
15.97070655298913
 22
2.052497221734977
 32
0.0
 13
15.97070655298913
 23
2.052497221734977
 33
0.0
  0
SOLID
  5
64E
330
539
100
AcDbEntity
  8
2
 62
     0
370
    18
100
AcDbTrace
 10
15.55403988632246
 20
-4.590502778265019
 30
0.0
 11
16.38737321965579
 21
-4.590502778265019
 31
0.0
 12
15.97070655298913
 22
-2.090502778265019
 32
0.0
 13
15.97070655298913
 23
-2.090502778265019
 33
0.0
  0
MTEXT
  5
64F
330
539
100
AcDbEntity
  8
2
 62
     0
370
    18
100
AcDbMText
 10
13.88737321965579
 20
-15.00716944493168
 30
0.0
 40
2.5
 41
0.0
 71
     5
 72
     1
  1
%%c 4,143
 11
0.0000000000000001
 21
1.0
 31
0.0
 73
     1
 44
1.0
  0
POINT
  5
650
330
539
100
AcDbEntity
  8
Defpoints
 62
     0
370
    18
100
AcDbPoint
 10
9.514371231533315
 20
2.052497221734979
 30
0.0
  0
POINT
  5
651
330
539
100
AcDbEntity
  8
Defpoints
 62
     0
370
    18
100
AcDbPoint
 10
9.514371231533315
 20
-2.090502778265018
 30
0.0
  0
POINT
  5
652
330
539
100
AcDbEntity
  8
Defpoints
 62
     0
370
    18
100
AcDbPoint
 10
15.97070655298913
 20
-2.090502778265019
 30
0.0
  0
ENDBLK
  5
544
330
539
100
AcDbEntity
  8
0
370
    18
100
AcDbBlockEnd
  0
ENDSEC
  0
SECTION
  2
ENTITIES
  0
POINT
  5
6E
330
1F
100
AcDbEntity
  8
80
370
    18
100
AcDbPoint
 10
0.0
 20
0.0
 30
0.0
 50
360.0
  0
POINT
  5
70
330
1F
100
AcDbEntity
  8
SK2
 60
     1
370
    18
100
AcDbPoint
 10
-36.0
 20
-3.0
 30
0.0
 50
360.0
  0
POINT
  5
72
330
1F
100
AcDbEntity
  8
SK2
 60
     1
370
    18
100
AcDbPoint
 10
-36.0
 20
3.0
 30
0.0
 50
360.0
  0
POINT
  5
73
330
1F
100
AcDbEntity
  8
2
 60
     1
370
    18
100
AcDbPoint
 10
25.5709
 20
-1.5
 30
0.0
 50
360.0
  0
POINT
  5
75
330
1F
100
AcDbEntity
  8
2
 60
     1
370
    18
100
AcDbPoint
 10
25.5709
 20
1.5
 30
0.0
 50
360.0
  0
LINE
  5
76
330
1F
100
AcDbEntity
  8
81
370
    18
100
AcDbLine
 10
11.34999999999999
 20
0.0
 30
0.0
 11
13.8073032699
 21
0.0
 31
0.0
  0
LINE
  5
85
330
1F
100
AcDbEntity
  8
SK4
 48
0.05
370
    18
100
AcDbLine
 10
24.29399178004671
 20
0.0
 30
0.0
 11
-35.05933441770626
 21
0.0
 31
0.0
  0
LINE
  5
87
330
1F
100
AcDbEntity
  8
4
 48
0.05
370
    18
100
AcDbLine
 10
11.34999999999999
 20
0.0
 30
0.0
 11
0.0
 21
0.0
 31
0.0
  0
LINE
  5
89
330
1F
100
AcDbEntity
  8
80
370
    18
100
AcDbLine
 10
0.0
 20
0.0
 30
0.0
 11
-5.259144607358891
 21
0.0
 31
0.0
  0
MTEXT
  5
CD
330
1F
100
AcDbEntity
  8
SK6
370
    13
100
AcDbMText
 10
-5.758584044607506
 20
20.89802994486347
 30
0.0
 40
3.5
 41
0.0
 71
     8
 72
     5
  1
\W0.7645;452.C1-0414-100T-C CD10
  7
iso_b_vert
 73
     1
 44
1.084337
  0
ARC
  5
1F4
330
1F
100
AcDbEntity
  8
1
  6
Continuous
370
    15
100
AcDbCircle
 10
7.07754414979999
 20
2.971499999999998
 30
0.0
 40
0.9
100
AcDbArc
 50
220.0000000000002
 51
270.0
  0
LINE
  5
1F5
330
1F
100
AcDbEntity
  8
1
  6
Continuous
370
    15
100
AcDbLine
 10
6.388104150999992
 20
2.392991151299999
 30
0.0
 11
4.20056398749999
 21
5.0
 31
0.0
  0
LINE
  5
1F6
330
1F
100
AcDbEntity
  8
1
  6
Continuous
370
    15
100
AcDbLine
 10
11.34999999999999
 20
1.3740592411
 30
0.0
 11
11.34999999999999
 21
-1.3740592411
 31
0.0
  0
LINE
  5
1F7
330
1F
100
AcDbEntity
  8
1
  6
Continuous
370
    15
100
AcDbLine
 10
10.09
 20
2.071499999999999
 30
0.0
 11
10.09
 21
-2.071499999999999
 31
0.0
  0
LINE
  5
1F8
330
1F
100
AcDbEntity
  8
1
  6
Continuous
370
    15
100
AcDbLine
 10
10.72
 20
1.902692008799999
 30
0.0
 11
10.72
 21
-1.902692008799999
 31
0.0
  0
LINE
  5
1F9
330
1F
100
AcDbEntity
  8
SK1
  6
Continuous
370
    15
100
AcDbLine
 10
-24.65000000000001
 20
-2.1166666667
 30
0.0
 11
-24.65000000000001
 21
2.1166666667
 31
0.0
  0
LINE
  5
1FA
330
1F
100
AcDbEntity
  8
SK1
  6
Continuous
370
    15
100
AcDbLine
 10
-16.77600000000001
 20
2.159
 30
0.0
 11
-16.77600000000001
 21
-2.159
 31
0.0
  0
LINE
  5
1FB
330
1F
100
AcDbEntity
  8
1
  6
Continuous
370
    15
100
AcDbLine
 10
5.0
 20
0.0
 30
0.0
 11
5.0
 21
-2.071499999999999
 31
0.0
  0
LINE
  5
1FC
330
1F
100
AcDbEntity
  8
1
  6
Continuous
370
    15
100
AcDbLine
 10
5.0
 20
0.0
 30
0.0
 11
3.0
 21
0.0
 31
0.0
  0
LINE
  5
1FD
330
1F
100
AcDbEntity
  8
SK1
  6
Continuous
370
    15
100
AcDbLine
 10
-15.1357478852
 20
5.0
 30
0.0
 11
-15.1357478852
 21
-5.0
 31
0.0
  0
LINE
  5
1FE
330
1F
100
AcDbEntity
  8
1
  6
Continuous
370
    15
100
AcDbLine
 10
2.542696730100002
 20
0.0350592384999997
 30
0.0
 11
2.542696730100002
 21
-5.0
 31
0.0
  0
LINE
  5
1FF
330
1F
100
AcDbEntity
  8
SK1
  6
Continuous
370
    15
100
AcDbLine
 10
0.0
 20
3.0
 30
0.0
 11
0.0
 21
5.0
 31
0.0
  0
LINE
  5
200
330
1F
100
AcDbEntity
  8
1
  6
Continuous
370
    15
100
AcDbLine
 10
11.34999999999999
 20
1.3740592411
 30
0.0
 11
10.72
 21
1.902692008799999
 31
0.0
  0
LINE
  5
201
330
1F
100
AcDbEntity
  8
1
  6
Continuous
370
    15
100
AcDbLine
 10
10.72
 20
-1.902692008799999
 30
0.0
 11
11.34999999999999
 21
-1.3740592411
 31
0.0
  0
LINE
  5
202
330
1F
100
AcDbEntity
  8
1
  6
Continuous
370
    15
100
AcDbLine
 10
5.0
 20
-2.071499999999999
 30
0.0
 11
10.09
 21
-2.071499999999999
 31
0.0
  0
LINE
  5
203
330
1F
100
AcDbEntity
  8
1
  6
Continuous
370
    15
100
AcDbLine
 10
10.09
 20
2.071499999999999
 30
0.0
 11
7.07754414979999
 21
2.071499999999999
 31
0.0
  0
LINE
  5
204
330
1F
100
AcDbEntity
  8
1
  6
Continuous
370
    15
100
AcDbLine
 10
10.72
 20
1.902692008799999
 30
0.0
 11
10.09
 21
2.071499999999999
 31
0.0
  0
LINE
  5
205
330
1F
100
AcDbEntity
  8
1
  6
Continuous
370
    15
100
AcDbLine
 10
10.09
 20
-2.071499999999999
 30
0.0
 11
10.72
 21
-1.902692008799999
 31
0.0
  0
LINE
  5
206
330
1F
100
AcDbEntity
  8
SK1
  6
Continuous
370
    15
100
AcDbLine
 10
-18.046
 20
-2.159
 30
0.0
 11
-16.77600000000001
 21
-2.159
 31
0.0
  0
LINE
  5
207
330
1F
100
AcDbEntity
  8
SK1
  6
Continuous
370
    15
100
AcDbLine
 10
-16.77600000000001
 20
2.159
 30
0.0
 11
-18.046
 21
2.159
 31
0.0
  0
LINE
  5
208
330
1F
100
AcDbEntity
  8
SK1
  6
Continuous
370
    15
100
AcDbLine
 10
-24.65000000000001
 20
-2.1166666667
 30
0.0
 11
-24.39107435210001
 21
-2.375592314599999
 31
0.0
  0
LINE
  5
209
330
1F
100
AcDbEntity
  8
SK1
  6
Continuous
370
    15
100
AcDbLine
 10
-24.15128871910001
 20
2.615377947599998
 30
0.0
 11
-24.65000000000001
 21
2.1166666667
 31
0.0
  0
LINE
  5
20A
330
1F
100
AcDbEntity
  8
SK1
  6
Continuous
370
    15
100
AcDbLine
 10
-24.38066889540002
 20
-2.371629530999999
 30
0.0
 11
-24.1861562359
 21
-2.153094197599997
 31
0.0
  0
LINE
  5
20B
330
1F
100
AcDbEntity
  8
SK1
  6
Continuous
370
    15
100
AcDbLine
 10
-16.77600000000001
 20
-2.159
 30
0.0
 11
-15.1357478852
 21
-5.0
 31
0.0
  0
LINE
  5
20C
330
1F
100
AcDbEntity
  8
SK1
  6
Continuous
370
    15
100
AcDbLine
 10
-15.1357478852
 20
5.0
 30
0.0
 11
-16.77600000000001
 21
2.159
 31
0.0
  0
LINE
  5
20D
330
1F
100
AcDbEntity
  8
1
  6
Continuous
370
    15
100
AcDbLine
 10
2.542696730100002
 20
-5.0
 30
0.0
 11
5.0
 21
-2.071499999999999
 31
0.0
  0
LINE
  5
20E
330
1F
100
AcDbEntity
  8
SK1
  6
Continuous
370
    15
100
AcDbLine
 10
-15.1357478852
 20
-5.0
 30
0.0
 11
2.542696730100002
 21
-5.0
 31
0.0
  0
LINE
  5
20F
330
1F
100
AcDbEntity
  8
SK1
  6
Continuous
370
    15
100
AcDbLine
 10
4.20056398749999
 20
5.0
 30
0.0
 11
-15.1357478852
 21
5.0
 31
0.0
  0
SPLINE
  5
210
330
1F
100
AcDbEntity
  8
1
  6
Continuous
370
    15
100
AcDbSpline
210
0.0
220
0.0
230
1.0
 70
     8
 71
     3
 72
    24
 73
    20
 74
     0
 42
0.0000000001
 43
0.0000000001
 40
0.0
 40
0.0
 40
0.0
 40
0.0
 40
0.1249999999999988
 40
0.1249999999999988
 40
0.2499999999999976
 40
0.2499999999999976
 40
0.3749999999999963
 40
0.3749999999999963
 40
0.4374999999999968
 40
0.4374999999999968
 40
0.499999999999997
 40
0.499999999999997
 40
0.6249999999999978
 40
0.6249999999999978
 40
0.7499999999999986
 40
0.7499999999999986
 40
0.8749999999999992
 40
0.8749999999999992
 40
1.0
 40
1.0
 40
1.0
 40
1.0
 10
7.852698327899389
 20
2.071499999999999
 30
0.0
 10
7.852698327899389
 20
2.071499999999999
 30
0.0
 10
7.843460698610869
 20
2.041518969338758
 30
0.0
 10
7.80079732670721
 20
1.923204306568905
 30
0.0
 10
7.767884880037541
 20
1.836666057690703
 30
0.0
 10
7.665617107941782
 20
1.618327823136973
 30
0.0
 10
7.596739701326409
 20
1.48857771128472
 30
0.0
 10
7.460058057766687
 20
1.280995068292489
 30
0.0
 10
7.408492649220619
 20
1.209095027742326
 30
0.0
 10
7.296251014017995
 20
1.067279445540981
 30
0.0
 10
7.23519058711548
 20
0.9967205256064939
 30
0.0
 10
7.036328799056761
 20
0.7886231720586993
 30
0.0
 10
6.884487041937759
 20
0.657075036249287
 30
0.0
 10
6.554297807341127
 20
0.4261415883751162
 30
0.0
 10
6.374889245537302
 20
0.3258863544894206
 30
0.0
 10
6.002130906412105
 20
0.1650506401324137
 30
0.0
 10
5.805157683305694
 20
0.1029291779727774
 30
0.0
 10
5.407100443883281
 20
0.020810937282139
 30
0.0
 10
5.205082284649347
 20
-0.0000000000000009
 30
0.0
 10
5.0
 20
-0.0000000000000018
 30
0.0
  0
SPLINE
  5
211
330
1F
100
AcDbEntity
  8
SK1
  6
Continuous
370
    15
100
AcDbSpline
210
0.0
220
0.0
230
1.0
 70
    24
 71
     3
 72
    17
 73
    13
 74
     0
 42
0.0000000001
 43
0.0000000001
 40
0.0
 40
0.0
 40
0.0
 40
0.0
 40
0.1046400107872878
 40
0.209244710664171
 40
0.3133100596123385
 40
0.4173751146337101
 40
0.5184604337888608
 40
0.6195284691348344
 40
0.7200865588813464
 40
0.8206441078586507
 40
0.9167059408203416
 40
1.0
 40
1.0
 40
1.0
 40
1.0
 10
-18.046
 20
0.5104211083144749
 30
0.0
 10
-18.046
 20
0.3611521604488477
 30
0.0
 10
-18.046
 20
0.0626646357219984
 30
0.0
 10
-18.046
 20
-0.3844533916190347
 30
0.0
 10
-18.046
 20
-0.8135392536573773
 30
0.0
 10
-18.046
 20
-1.209849226120021
 30
0.0
 10
-18.046
 20
-1.561924736458523
 30
0.0
 10
-18.04600000000002
 20
-1.862400583532553
 30
0.0
 10
-18.046
 20
-2.10253226765604
 30
0.0
 10
-18.046
 20
-2.271912096219399
 30
0.0
 10
-18.046
 20
-2.370994156428994
 30
0.0
 10
-18.046
 20
-2.380396093342739
 30
0.0
 10
-18.046
 20
-2.384762414852152
 30
0.0
  0
SPLINE
  5
212
330
1F
100
AcDbEntity
  8
SK1
  6
Continuous
370
    15
100
AcDbSpline
210
0.0
220
0.0
230
1.0
 70
     8
 71
     3
 72
    26
 73
    22
 74
     0
 42
0.0000000001
 43
0.0000000001
 40
0.0
 40
0.0
 40
0.0
 40
0.0
 40
0.0470244130667802
 40
0.0973223843166629
 40
0.149037366166679
 40
0.2000327978660116
 40
0.2525056970284837
 40
0.3036285889953046
 40
0.3561666772177877
 40
0.4084333445389858
 40
0.4622157488157136
 40
0.5144801740944799
 40
0.5682056516390867
 40
0.6214232529044689
 40
0.6761648074532946
 40
0.7297027346436749
 40
0.7847749367273086
 40
0.8388061988444091
 40
0.8943579709985533
 40
0.949167190561198
 40
1.0
 40
1.0
 40
1.0
 40
1.0
 10
-24.38982357535027
 20
-2.37434153780067
 30
0.0
 10
-24.3860169745628
 20
-2.373653568905115
 30
0.0
 10
-24.37813878022463
 20
-2.372229738837194
 30
0.0
 10
-24.36542799227307
 20
-2.288227196042786
 30
0.0
 10
-24.35237449273011
 20
-2.143706129470777
 30
0.0
 10
-24.33931981946937
 20
-1.93440899623084
 30
0.0
 10
-24.3272523473419
 20
-1.670461314523397
 30
0.0
 10
-24.31465918662166
 20
-1.356269225260609
 30
0.0
 10
-24.30165628236797
 20
-1.003571454348803
 30
0.0
 10
-24.28848212767136
 20
-0.6147966637610347
 30
0.0
 10
-24.27566502166551
 20
-0.207090148201682
 30
0.0
 10
-24.26361274181156
 20
0.2121093340407949
 30
0.0
 10
-24.25084245222893
 20
0.626155748372768
 30
0.0
 10
-24.23768231915234
 20
1.031228733243974
 30
0.0
 10
-24.22462201170159
 20
1.409190549456781
 30
0.0
 10
-24.21199204240003
 20
1.753434523284248
 30
0.0
 10
-24.19991568594233
 20
2.048741056216218
 30
0.0
 10
-24.18687624861212
 20
2.292789530261245
 30
0.0
 10
-24.17382039984267
 20
2.472343664780654
 30
0.0
 10
-24.16114908367102
 20
2.588324199950129
 30
0.0
 10
-24.15337083284129
 20
2.60546805004111
 30
0.0
 10
-24.14962809573245
 20
2.613717324245318
 30
0.0
  0
SPLINE
  5
213
330
1F
100
AcDbEntity
  8
SK1
  6
Continuous
370
    15
100
AcDbSpline
210
0.0
220
0.0
230
1.0
 70
    24
 71
     3
 72
    15
 73
    11
 74
     0
 42
0.0000000001
 43
0.0000000001
 40
0.0
 40
0.0
 40
0.0
 40
0.0
 40
0.1000164598684806
 40
0.2226864580489074
 40
0.3453565496261387
 40
0.4705548472779831
 40
0.5957833544396052
 40
0.7222999178382917
 40
0.8488162817048714
 40
1.0
 40
1.0
 40
1.0
 40
1.0
 10
-18.046
 20
2.445718204840526
 30
0.0
 10
-18.046
 20
2.442994299312148
 30
0.0
 10
-18.046
 20
2.436929528823659
 30
0.0
 10
-18.046
 20
2.346981058433287
 30
0.0
 10
-18.046
 20
2.192863284410206
 30
0.0
 10
-18.046
 20
1.971446897497756
 30
0.0
 10
-18.046
 20
1.692388013414275
 30
0.0
 10
-18.046
 20
1.36277299584569
 30
0.0
 10
-18.046
 20
0.9706693405607431
 30
0.0
 10
-18.046
 20
0.6726609481397025
 30
0.0
 10
-18.046
 20
0.5104211083144792
 30
0.0
  0
SPLINE
  5
214
330
1F
100
AcDbEntity
  8
SK1
  6
Continuous
370
    15
100
AcDbSpline
210
0.0
220
0.0
230
1.0
 70
     8
 71
     3
 72
    23
 73
    19
 74
     0
 42
0.0000000001
 43
0.0000000001
 40
0.0
 40
0.0
 40
0.0
 40
0.0
 40
0.0403252560024285
 40
0.1065336632796964
 40
0.1727420705569644
 40
0.2376668868728291
 40
0.3025917031886889
 40
0.3688001104659564
 40
0.435008517743224
 40
0.4999333340590901
 40
0.5648581503749515
 40
0.6310665576522202
 40
0.6972749649294887
 40
0.7621997812453535
 40
0.8271245975612131
 40
0.8933330048384807
 40
0.9595414121157478
 40
1.0
 40
1.0
 40
1.0
 40
1.0
 10
-18.74314609900797
 20
-2.143585267872941
 30
0.0
 10
-18.73749331082366
 20
-2.137900756110064
 30
0.0
 10
-18.72255943829023
 20
-2.12288307433715
 30
0.0
 10
-18.69685587023981
 20
-2.005559441438323
 30
0.0
 10
-18.66760598880827
 20
-1.806529775111829
 30
0.0
 10
-18.64017723968222
 20
-1.536140904226485
 30
0.0
 10
-18.6127565336928
 20
-1.208392317714704
 30
0.0
 10
-18.58348204476164
 20
-0.8316320564740633
 30
0.0
 10
-18.55420814060004
 20
-0.4225707385761919
 30
0.0
 10
-18.52678571423922
 20
0.0000000029050744
 30
0.0
 10
-18.49936328815931
 20
0.4225707268409771
 30
0.0
 10
-18.47008938313826
 20
0.8316320984178505
 30
0.0
 10
-18.44081489735103
 20
1.208392163301024
 30
0.0
 10
-18.41339417986468
 20
1.536141467865956
 30
0.0
 10
-18.38596547374598
 20
1.80652765268083
 30
0.0
 10
-18.3567154287057
 20
2.005567537364183
 30
0.0
 10
-18.33099255482278
 20
2.122948400415888
 30
0.0
 10
-18.3160402166695
 20
2.137970835975604
 30
0.0
 10
-18.31036882331739
 20
2.143668817140328
 30
0.0
  0
SPLINE
  5
215
330
1F
100
AcDbEntity
  8
SK1
  6
Continuous
370
    15
100
AcDbSpline
210
0.0
220
0.0
230
1.0
 70
     8
 71
     3
 72
    23
 73
    19
 74
     0
 42
0.0000000001
 43
0.0000000001
 40
0.0
 40
0.0
 40
0.0
 40
0.0
 40
0.0405684664183776
 40
0.106648275207166
 40
0.1727280839959543
 40
0.2375267949788804
 40
0.3023255059618028
 40
0.3684053147505921
 40
0.4344851235393818
 40
0.4992838345223093
 40
0.5640825455052332
 40
0.6301623542940216
 40
0.6962421630828101
 40
0.7610408740657359
 40
0.8258395850486582
 40
0.8919193938374473
 40
0.957999202626236
 40
1.0
 40
1.0
 40
1.0
 40
1.0
 10
-19.65042548847823
 20
-2.143787142474685
 30
0.0
 10
-19.64472774641287
 20
-2.138070120626745
 30
0.0
 10
-19.62974925652914
 20
-2.123040947152043
 30
0.0
 10
-19.60399903998547
 20
-2.005578965375883
 30
0.0
 10
-19.57474876399995
 20
-1.806524656763724
 30
0.0
 10
-19.54732011858509
 20
-1.536142263271551
 30
0.0
 10
-19.51989938488634
 20
-1.208391946144738
 30
0.0
 10
-19.49062490347454
 20
-0.8316321545327696
 30
0.0
 10
-19.4613509974729
 20
-0.4225707217134227
 30
0.0
 10
-19.43392857093774
 20
0.0000000306569703
 30
0.0
 10
-19.40650614736711
 20
0.4225705978733977
 30
0.0
 10
-19.37723223229562
 20
0.8316325971603005
 30
0.0
 10
-19.34795778406129
 20
1.208390316637235
 30
0.0
 10
-19.32053692903689
 20
1.53614821128584
 30
0.0
 10
-19.2931087374732
 20
1.806502259024604
 30
0.0
 10
-19.2638567349458
 20
2.005664400631971
 30
0.0
 10
-19.23789867115404
 20
2.123745428341683
 30
0.0
 10
-19.22272142253111
 20
2.138826015338148
 30
0.0
 10
-19.21682344909503
 20
2.144686425463568
 30
0.0
  0
SPLINE
  5
216
330
1F
100
AcDbEntity
  8
SK1
  6
Continuous
370
    15
100
AcDbSpline
210
0.0
220
0.0
230
1.0
 70
     8
 71
     3
 72
    23
 73
    19
 74
     0
 42
0.0000000001
 43
0.0000000001
 40
0.0
 40
0.0
 40
0.0
 40
0.0
 40
0.0406015816460122
 40
0.1068966389403815
 40
0.1731916962347509
 40
0.238201482672618
 40
0.3032112691104845
 40
0.3695063264048534
 40
0.4358013836992222
 40
0.5008111701370909
 40
0.5658209565749589
 40
0.6321160138693289
 40
0.6984110711636987
 40
0.7634208576015658
 40
0.8284306440394328
 40
0.8947257013338022
 40
0.9610207586281715
 40
1.0
 40
1.0
 40
1.0
 40
1.0
 10
-20.55752643032622
 20
-2.143725167163639
 30
0.0
 10
-20.55184248885558
 20
-2.138018113135299
 30
0.0
 10
-20.53687769648758
 20
-2.122992469572948
 30
0.0
 10
-20.51114180137881
 20
-2.005572985239362
 30
0.0
 10
-20.48189164624304
 20
-1.806526224425815
 30
0.0
 10
-20.45446296906765
 20
-1.536141847296303
 30
0.0
 10
-20.42704224383346
 20
-1.208392058831629
 30
0.0
 10
-20.39776776020517
 20
-0.8316321287870156
 30
0.0
 10
-20.36849385444441
 20
-0.4225707110112709
 30
0.0
 10
-20.34107142914435
 20
-0.0000000357813335
 30
0.0
 10
-20.31364900038422
 20
0.4225708555514407
 30
0.0
 10
-20.28437510520935
 20
0.8316316121733818
 30
0.0
 10
-20.25510058285789
 20
1.20839396071474
 30
0.0
 10
-20.22767999922918
 20
1.536134905059005
 30
0.0
 10
-20.20025079234045
 20
1.806552365993893
 30
0.0
 10
-20.17100265234167
 20
2.00547326930153
 30
0.0
 10
-20.1455013192341
 20
2.122199694022655
 30
0.0
 10
-20.13076091394585
 20
2.13716776342782
 30
0.0
 10
-20.12530307833991
 20
2.142709894770475
 30
0.0
  0
SPLINE
  5
217
330
1F
100
AcDbEntity
  8
SK1
  6
Continuous
370
    15
100
AcDbSpline
210
0.0
220
0.0
230
1.0
 70
     8
 71
     3
 72
    23
 73
    19
 74
     0
 42
0.0000000001
 43
0.0000000001
 40
0.0
 40
0.0
 40
0.0
 40
0.0
 40
0.0425897854595911
 40
0.1086428973051266
 40
0.1746960091506622
 40
0.2394685407674285
 40
0.3042410723841944
 40
0.3702941842297303
 40
0.4363472960752662
 40
0.5011198276920326
 40
0.5658923593087982
 40
0.6319454711543342
 40
0.6979985829998703
 40
0.7627711146166365
 40
0.8275436462334015
 40
0.8935967580789368
 40
0.9596498699244719
 40
1.0
 40
1.0
 40
1.0
 40
1.0
 10
-21.46557681721389
 20
-2.145067026701835
 30
0.0
 10
-21.4595941113881
 20
-2.139146619049459
 30
0.0
 10
-21.44433274090635
 20
-2.12404416587575
 30
0.0
 10
-21.41828668931854
 20
-2.005699820800153
 30
0.0
 10
-21.38903397099308
 20
-1.806492973270783
 30
0.0
 10
-21.36160596758838
 20
-1.536150677200184
 30
0.0
 10
-21.33418506226745
 20
-1.20838964122929
 30
0.0
 10
-21.30491062777558
 20
-0.8316327800515033
 30
0.0
 10
-21.27563670899018
 20
-0.4225705488079062
 30
0.0
 10
-21.24821428647905
 20
-0.0000000477633959
 30
0.0
 10
-21.22079185934916
 20
0.4225707417501532
 30
0.0
 10
-21.19151795469456
 20
0.8316320904398287
 30
0.0
 10
-21.16224346851232
 20
1.208392179994665
 30
0.0
 10
-21.13482275221622
 20
1.536141410220744
 30
0.0
 10
-21.10739404171345
 20
1.806527868847428
 30
0.0
 10
-21.07814401333248
 20
2.005566713056138
 30
0.0
 10
-21.05242310751642
 20
2.122941740276067
 30
0.0
 10
-21.03747265175241
 20
2.1379636910865
 30
0.0
 10
-21.03180315499768
 20
2.14366030012064
 30
0.0
  0
SPLINE
  5
218
330
1F
100
AcDbEntity
  8
SK1
  6
Continuous
370
    15
100
AcDbSpline
210
0.0
220
0.0
230
1.0
 70
     8
 71
     3
 72
    23
 73
    19
 74
     0
 42
0.0000000001
 43
0.0000000001
 40
0.0
 40
0.0
 40
0.0
 40
0.0
 40
0.0409055670688759
 40
0.1070735600372722
 40
0.1732415530056684
 40
0.2381267385300972
 40
0.3030119240545255
 40
0.369179917022922
 40
0.4353479099913188
 40
0.5002330955157475
 40
0.5651182810401743
 40
0.6312862740085709
 40
0.6974542669769673
 40
0.7623394525013977
 40
0.8272246380258254
 40
0.8933926309942215
 40
0.959560623962618
 40
1.0
 40
1.0
 40
1.0
 40
1.0
 10
-22.37197405269826
 20
-2.143964561972679
 30
0.0
 10
-22.36623680404584
 20
-2.138219066846164
 30
0.0
 10
-22.35121910151655
 20
-2.123179778518085
 30
0.0
 10
-22.32542788445615
 20
-2.005596018509839
 30
0.0
 10
-22.29617726384709
 20
-1.806520186070254
 30
0.0
 10
-22.26874870902522
 20
-1.536143450659315
 30
0.0
 10
-22.24132795109831
 20
-1.208391620336803
 30
0.0
 10
-22.2120534763515
 20
-0.831632244993937
 30
0.0
 10
-22.18277956838064
 20
-0.4225706891841936
 30
0.0
 10
-22.15535714301887
 20
-0.0000000101005577
 30
0.0
 10
-22.12793471668039
 20
0.4225707299858552
 30
0.0
 10
-22.09866081169777
 20
0.8316320991612116
 30
0.0
 10
-22.06938632601995
 20
1.208392157211553
 30
0.0
 10
-22.04196560806628
 20
1.536141490963785
 30
0.0
 10
-22.01453690371382
 20
1.806527565465714
 30
0.0
 10
-21.98528685194947
 20
2.005567870108964
 30
0.0
 10
-21.95956318343778
 20
2.122951089566949
 30
0.0
 10
-21.94461008525086
 20
2.137973720857089
 30
0.0
 10
-21.93893792612955
 20
2.143672255972234
 30
0.0
  0
SPLINE
  5
219
330
1F
100
AcDbEntity
  8
SK1
  6
Continuous
370
    15
100
AcDbSpline
210
0.0
220
0.0
230
1.0
 70
     8
 71
     3
 72
    23
 73
    19
 74
     0
 42
0.0000000001
 43
0.0000000001
 40
0.0
 40
0.0
 40
0.0
 40
0.0
 40
0.040170760934465
 40
0.1062844007133579
 40
0.1723980404922506
 40
0.237229926579496
 40
0.3020618126667405
 40
0.3681754524456334
 40
0.4342890922245264
 40
0.4991209783117719
 40
0.5639528643990161
 40
0.630066504177909
 40
0.6961801439568021
 40
0.7610120300440478
 40
0.8258439161312908
 40
0.8919575559101835
 40
0.9580711956890763
 40
1.0
 40
1.0
 40
1.0
 40
1.0
 10
-23.27881931235411
 20
-2.143524538900423
 30
0.0
 10
-23.27318004780777
 20
-2.137849830510769
 30
0.0
 10
-23.25825959724053
 20
-2.12283560209221
 30
0.0
 10
-23.23257006151106
 20
-2.005553542899781
 30
0.0
 10
-23.20332029928243
 20
-1.806531321515144
 30
0.0
 10
-23.17589151881882
 20
-1.536140493412156
 30
0.0
 10
-23.14847082121791
 20
-1.2083924308126
 30
0.0
 10
-23.11919632995027
 20
-0.8316320236440908
 30
0.0
 10
-23.0899224265857
 20
-0.4225707555251077
 30
0.0
 10
-23.06249999939469
 20
0.0000000378062728
 30
0.0
 10
-23.03507757585956
 20
0.422570602805183
 30
0.0
 10
-23.00580366131001
 20
0.8316325694938182
 30
0.0
 10
-22.97652921095695
 20
1.208390421298633
 30
0.0
 10
-22.94910836373684
 20
1.536147828522804
 30
0.0
 10
-22.92168014296398
 20
1.80650370055013
 30
0.0
 10
-22.89242825155826
 20
2.005658901936551
 30
0.0
 10
-22.86648375033572
 20
2.123699407113619
 30
0.0
 10
-22.85131946934634
 20
2.138776628913305
 30
0.0
 10
-22.84543455832386
 20
2.144627754253137
 30
0.0
  0
SPLINE
  5
21A
330
1F
100
AcDbEntity
  8
SK1
  6
Continuous
370
    15
100
AcDbSpline
210
0.0
220
0.0
230
1.0
 70
     8
 71
     3
 72
    23
 73
    19
 74
     0
 42
0.0000000001
 43
0.0000000001
 40
0.0
 40
0.0
 40
0.0
 40
0.0
 40
0.0403567276388747
 40
0.1066881613718763
 40
0.1730195951048778
 40
0.2380650527466538
 40
0.3031105103884291
 40
0.369441944121431
 40
0.4357733778544329
 40
0.5008188354962087
 40
0.5658642931379845
 40
0.6321957268709861
 40
0.6985271606039878
 40
0.763572618245764
 40
0.8286180758875387
 40
0.8949495096205401
 40
0.9612809433535415
 40
1.0
 40
1.0
 40
1.0
 40
1.0
 10
-24.18598485781267
 20
-2.143558085495456
 30
0.0
 10
-24.180338122807
 20
-2.137877960386219
 30
0.0
 10
-24.1654102579687
 20
-2.122861824546625
 30
0.0
 10
-24.13971297084763
 20
-2.005556802712935
 30
0.0
 10
-24.11046314274064
 20
-1.806530466827162
 30
0.0
 10
-24.08303437960132
 20
-1.536140720728818
 30
0.0
 10
-24.05561367734299
 20
-1.208392367245639
 30
0.0
 10
-24.0263391874486
 20
-0.8316320458462334
 30
0.0
 10
-23.99706528333819
 20
-0.4225707311443623
 30
0.0
 10
-23.96964285772414
 20
-0.0000000363042432
 30
0.0
 10
-23.94222042859945
 20
0.422570877796913
 30
0.0
 10
-23.91294653522963
 20
0.8316315216826364
 30
0.0
 10
-23.88367200604618
 20
1.208394296923553
 30
0.0
 10
-23.85625144746281
 20
1.5361336770352
 30
0.0
 10
-23.82882214686872
 20
1.806556990437389
 30
0.0
 10
-23.79957436334864
 20
2.005455629491009
 30
0.0
 10
-23.77411370860921
 20
2.122062445585926
 30
0.0
 10
-23.75941222571833
 20
2.137020577371103
 30
0.0
 10
-23.753993616564
 20
2.142533781067951
 30
0.0
  0
SPLINE
  5
21B
330
1F
100
AcDbEntity
  8
SK1
  6
Continuous
370
    15
100
AcDbSpline
210
0.0
220
0.0
230
1.0
 70
     8
 71
     3
 72
    18
 73
    14
 74
     0
 42
0.0000000001
 43
0.0000000001
 40
0.0
 40
0.0
 40
0.0
 40
0.0
 40
0.0525332695880962
 40
0.1456645306958617
 40
0.2393861726817037
 40
0.3325174337894694
 40
0.4239214726394568
 40
0.5153255114894363
 40
0.608456772597201
 40
0.7021784145830427
 40
0.7953096756908074
 40
0.8867137145407976
 40
1.0
 40
1.0
 40
1.0
 40
1.0
 10
-18.29071682115374
 20
-2.656181682550474
 30
0.0
 10
-18.2865634326442
 20
-2.651952594666903
 30
0.0
 10
-18.27504689478576
 20
-2.640226157179529
 30
0.0
 10
-18.25503499384815
 20
-2.548445358486435
 30
0.0
 10
-18.23156007610844
 20
-2.38852461830297
 30
0.0
 10
-18.20837016843519
 20
-2.167099731057005
 30
0.0
 10
-18.18660734029848
 20
-1.895468096512488
 30
0.0
 10
-18.16484332005197
 20
-1.57780771563952
 30
0.0
 10
-18.14165706417748
 20
-1.218725997261254
 30
0.0
 10
-18.11816864961531
 20
-0.8267818521392893
 30
0.0
 10
-18.09495702847971
 20
-0.4169295318414471
 30
0.0
 10
-18.07157452229545
 20
0.0336623500453843
 30
0.0
 10
-18.05511149607939
 20
0.3405651279524076
 30
0.0
 10
-18.046
 20
0.5104211083146195
 30
0.0
  0
SPLINE
  5
21C
330
1F
100
AcDbEntity
  8
SK1
  6
Continuous
370
    15
100
AcDbSpline
210
0.0
220
0.0
230
1.0
 70
     8
 71
     3
 72
    27
 73
    23
 74
     0
 42
0.0000000001
 43
0.0000000001
 40
0.0
 40
0.0
 40
0.0
 40
0.0
 40
0.03136011378014
 40
0.0835776683850203
 40
0.1361262422993348
 40
0.1883437969042151
 40
0.2395929191965991
 40
0.2908420414889794
 40
0.3430595960938603
 40
0.3956081700081757
 40
0.4478257246130572
 40
0.4990748469054423
 40
0.5503239691978241
 40
0.6025415238027044
 40
0.655090097717019
 40
0.7073076523218993
 40
0.7585567746142833
 40
0.8098058969066633
 40
0.8620234515115438
 40
0.9145720254258588
 40
0.9667895800307395
 40
1.0
 40
1.0
 40
1.0
 40
1.0
 10
-19.19867125269093
 20
-2.65737360962878
 30
0.0
 10
-19.19425035683932
 20
-2.652948760571068
 30
0.0
 10
-19.18246825139028
 20
-2.641156119454009
 30
0.0
 10
-19.16217966159462
 20
-2.548566460085293
 30
0.0
 10
-19.13870245738342
 20
-2.388492237477225
 30
0.0
 10
-19.11551312265943
 20
-2.167108400259061
 30
0.0
 10
-19.09375027186864
 20
-1.895465082167638
 30
0.0
 10
-19.07198577959133
 20
-1.57781121773837
 30
0.0
 10
-19.04880147324518
 20
-1.218714797221477
 30
0.0
 10
-19.0253056844604
 20
-0.8268232262353496
 30
0.0
 10
-19.00212129022299
 20
-0.4167775962639162
 30
0.0
 10
-18.9803571428142
 20
0.00000000286974
 30
0.0
 10
-18.95859299566481
 20
0.4167775846765763
 30
0.0
 10
-18.93540860063278
 20
0.8268232677253608
 30
0.0
 10
-18.91191281478487
 20
1.21871464254082
 30
0.0
 10
-18.88872849761346
 20
1.577811786137938
 30
0.0
 10
-18.8669640449538
 20
1.895463004277081
 30
0.0
 10
-18.84520104595626
 20
2.167116221951725
 30
0.0
 10
-18.82201227577082
 20
2.388462350383119
 30
0.0
 10
-18.79853294798748
 20
2.548678418625
 30
0.0
 10
-18.77797551529529
 20
2.642063629292406
 30
0.0
 10
-18.76593550262768
 20
2.653921364701412
 30
0.0
 10
-18.7612549061472
 20
2.658531100268485
 30
0.0
  0
SPLINE
  5
21D
330
1F
100
AcDbEntity
  8
SK1
  6
Continuous
370
    15
100
AcDbSpline
210
0.0
220
0.0
230
1.0
 70
     8
 71
     3
 72
    27
 73
    23
 74
     0
 42
0.0000000001
 43
0.0000000001
 40
0.0
 40
0.0
 40
0.0
 40
0.0
 40
0.031840137978412
 40
0.0842120560014705
 40
0.1369159718798273
 40
0.1892878899028859
 40
0.2406885127731011
 40
0.2920891356433159
 40
0.3444610536663739
 40
0.3971649695447304
 40
0.4495368875677885
 40
0.5009375104380054
 40
0.5523381333082215
 40
0.6047100513312805
 40
0.6574139672096379
 40
0.7097858852326966
 40
0.7611865081029121
 40
0.8125871309731273
 40
0.8649590489961857
 40
0.9176629648745423
 40
0.9700348828976011
 40
1.0
 40
1.0
 40
1.0
 40
1.0
 10
-20.10597859966436
 20
-2.65761518930961
 30
0.0
 10
-20.10150349556993
 20
-2.653151340668119
 30
0.0
 10
-20.08966756329892
 20
-2.641345177264109
 30
0.0
 10
-20.06932287521572
 20
-2.548590271323003
 30
0.0
 10
-20.04584521936516
 20
-2.3884858811175
 30
0.0
 10
-20.02265600470675
 20
-2.1671100637711
 30
0.0
 10
-20.00089312239536
 20
-1.89546464023737
 30
0.0
 10
-19.97912863854435
 20
-1.577811338649286
 30
0.0
 10
-19.95594432989413
 20
-1.218714764231521
 30
0.0
 10
-19.93244854174055
 20
-0.8268232354063265
 30
0.0
 10
-19.90926414730985
 20
-0.4167775925242819
 30
0.0
 10
-19.88750000004512
 20
-0.0000000030129712
 30
0.0
 10
-19.86573585250805
 20
0.4167776046900479
 30
0.0
 10
-19.84255145891163
 20
0.826823191845305
 30
0.0
 10
-19.81905566767457
 20
1.218714926633281
 30
0.0
 10
-19.79587137038996
 20
1.577810741877331
 30
0.0
 10
-19.77410684494376
 20
1.895466821848605
 30
0.0
 10
-19.75234411823705
 20
2.167101851648312
 30
0.0
 10
-19.72915431086038
 20
2.388517260065468
 30
0.0
 10
-19.70567888458291
 20
2.548472724224644
 30
0.0
 10
-19.68560570911394
 20
2.640431727660521
 30
0.0
 10
-19.67403034915109
 20
2.652172754707005
 30
0.0
 10
-19.66981770029557
 20
2.656445695186515
 30
0.0
  0
SPLINE
  5
21E
330
1F
100
AcDbEntity
  8
SK1
  6
Continuous
370
    15
100
AcDbSpline
210
0.0
220
0.0
230
1.0
 70
     8
 71
     3
 72
    27
 73
    23
 74
     0
 42
0.0000000001
 43
0.0000000001
 40
0.0
 40
0.0
 40
0.0
 40
0.0
 40
0.0317837186568023
 40
0.0840685894507156
 40
0.1366849062871529
 40
0.1889697770810662
 40
0.2402849671092922
 40
0.2916001571375176
 40
0.3438850279314312
 40
0.3965013447678686
 40
0.4487862155617821
 40
0.5001014055900082
 40
0.5514165956182337
 40
0.6037014664121471
 40
0.6563177832485847
 40
0.7086026540424986
 40
0.7599178440707243
 40
0.811233034098949
 40
0.863517904892862
 40
0.9161342217292991
 40
0.9684190925232122
 40
1.0
 40
1.0
 40
1.0
 40
1.0
 10
-21.01311996881121
 20
-2.657613003948996
 30
0.0
 10
-21.00864535507661
 20
-2.653149507110124
 30
0.0
 10
-20.99680990973219
 20
-2.641343466183537
 30
0.0
 10
-20.97646572914985
 20
-2.548590056994187
 30
0.0
 10
-20.95298807736458
 20
-2.388485938332378
 30
0.0
 10
-20.92979886162542
 20
-2.167110048796569
 30
0.0
 10
-20.90803597959781
 20
-1.895464644218903
 30
0.0
 10
-20.88627149567071
 20
-1.577811337547215
 30
0.0
 10
-20.86308718704223
 20
-1.218714764580917
 30
0.0
 10
-20.83959139887924
 20
-0.8268232351272626
 30
0.0
 10
-20.81640700446403
 20
-0.4167775932802499
 30
0.0
 10
-20.79464285714765
 20
-0.0000000003193703
 30
0.0
 10
-20.77287870980241
 20
0.4167775945698722
 30
0.0
 10
-20.74969431547564
 20
0.8268232305097136
 30
0.0
 10
-20.7261985269858
 20
1.218714781795906
 30
0.0
 10
-20.70301421956209
 20
1.577811274287999
 30
0.0
 10
-20.68124973122579
 20
1.89546487547486
 30
0.0
 10
-20.65948686569266
 20
2.167109178292168
 30
0.0
 10
-20.63629758712396
 20
2.38848926457498
 30
0.0
 10
-20.6128201716787
 20
2.548577596724145
 30
0.0
 10
-20.59250541544091
 20
2.641244282747788
 30
0.0
 10
-20.58069820235036
 20
2.65304322712072
 30
0.0
 10
-20.57625202046474
 20
2.657486295297621
 30
0.0
  0
SPLINE
  5
21F
330
1F
100
AcDbEntity
  8
SK1
  6
Continuous
370
    15
100
AcDbSpline
210
0.0
220
0.0
230
1.0
 70
     8
 71
     3
 72
    27
 73
    23
 74
     0
 42
0.0000000001
 43
0.0000000001
 40
0.0
 40
0.0
 40
0.0
 40
0.0
 40
0.0338187058696353
 40
0.0859874018402807
 40
0.138486807394034
 40
0.1906555033646795
 40
0.2418566731602461
 40
0.2930578429558122
 40
0.3452265389264579
 40
0.3977259444802114
 40
0.4498946404508569
 40
0.5010958102464237
 40
0.5522969800419883
 40
0.6044656760126338
 40
0.6569650815663876
 40
0.709133777537033
 40
0.7603349473326011
 40
0.8115361171281668
 40
0.8637048130988118
 40
0.9162042186525656
 40
0.9683729146232108
 40
1.0
 40
1.0
 40
1.0
 40
1.0
 10
-21.92116053764201
 20
-2.658931437449173
 30
0.0
 10
-21.91639013634715
 20
-2.654258886071365
 30
0.0
 10
-21.90426091961538
 20
-2.642378462423828
 30
0.0
 10
-21.88361047062024
 20
-2.548715922099581
 30
0.0
 10
-21.86013043149021
 20
-2.388452338910461
 30
0.0
 10
-21.8369418504119
 20
-2.167118842034051
 30
0.0
 10
-21.81517880176864
 20
-1.895462308234634
 30
0.0
 10
-21.79341436237979
 20
-1.577811976530953
 30
0.0
 10
-21.77023004158273
 20
-1.218714590754844
 30
0.0
 10
-21.74673425671659
 20
-0.8268232815170577
 30
0.0
 10
-21.72354986142583
 20
-0.4167775811863752
 30
0.0
 10
-21.70178571433606
 20
-0.0000000033617162
 30
0.0
 10
-21.68002156694242
 20
0.4167775947603423
 30
0.0
 10
-21.6568371725825
 20
0.8268232329138456
 30
0.0
 10
-21.63334138427598
 20
1.21871477195462
 30
0.0
 10
-21.61015707616008
 20
1.577811310682568
 30
0.0
 10
-21.5883925903614
 20
1.895464742367613
 30
0.0
 10
-21.56662971533407
 20
2.167109679357114
 30
0.0
 10
-21.5434404729303
 20
2.388487349975218
 30
0.0
 10
-21.51996292144669
 20
2.548584768911227
 30
0.0
 10
-21.49963124757947
 20
2.641301303043263
 30
0.0
 10
-21.48780780206781
 20
2.653104326509414
 30
0.0
 10
-21.48334527287324
 20
2.65755914780072
 30
0.0
  0
SPLINE
  5
220
330
1F
100
AcDbEntity
  8
SK1
  6
Continuous
370
    15
100
AcDbSpline
210
0.0
220
0.0
230
1.0
 70
     8
 71
     3
 72
    27
 73
    23
 74
     0
 42
0.0000000001
 43
0.0000000001
 40
0.0
 40
0.0
 40
0.0
 40
0.0
 40
0.0316790503194632
 40
0.083887434393762
 40
0.1364267796433539
 40
0.1886351637176527
 40
0.239875285557088
 40
0.2911154073965225
 40
0.3433237914708214
 40
0.3958631367204133
 40
0.4480715207947123
 40
0.499311642634148
 40
0.550551764473582
 40
0.6027601485478808
 40
0.6552994937974729
 40
0.707507877871772
 40
0.7587479997112077
 40
0.8099881215506407
 40
0.8621965056249395
 40
0.9147358508745313
 40
0.9669442349488299
 40
1.0
 40
1.0
 40
1.0
 40
1.0
 10
-22.8273809005442
 20
-2.657576606798139
 30
0.0
 10
-22.82291445378534
 20
-2.65311897188016
 30
0.0
 10
-22.81108711819046
 20
-2.641314970404021
 30
0.0
 10
-22.79075138995157
 20
-2.548586484489852
 30
0.0
 10
-22.76727380592773
 20
-2.388486892005034
 30
0.0
 10
-22.74408457217459
 20
-2.167109799211976
 30
0.0
 10
-22.72232169487621
 20
-1.8954647105258
 30
0.0
 10
-22.70055720968472
 20
-1.577811319398275
 30
0.0
 10
-22.67737290140251
 20
-1.218714769561678
 30
0.0
 10
-22.6538771131426
 20
-0.8268232336346672
 30
0.0
 10
-22.63069271876455
 20
-0.4167775942700695
 30
0.0
 10
-22.60892857139669
 20
0.0000000021306317
 30
0.0
 10
-22.58716442422139
 20
0.4167775856670888
 30
0.0
 10
-22.5639800292534
 20
0.8268232644388174
 30
0.0
 10
-22.54048424317396
 20
1.218714654719489
 30
0.0
 10
-22.51729992685459
 20
1.577811741404905
 30
0.0
 10
-22.49553547107709
 20
1.895463167801969
 30
0.0
 10
-22.47377248374303
 20
2.167115606405114
 30
0.0
 10
-22.45058366912991
 20
2.388464702418336
 30
0.0
 10
-22.42710450846607
 20
2.548669607784304
 30
0.0
 10
-22.40656870817105
 20
2.641990470872833
 30
0.0
 10
-22.39454944336757
 20
2.653842941767305
 30
0.0
 10
-22.38988973588785
 20
2.658437985489458
 30
0.0
  0
SPLINE
  5
221
330
1F
100
AcDbEntity
  8
SK1
  6
Continuous
370
    15
100
AcDbSpline
210
0.0
220
0.0
230
1.0
 70
     8
 71
     3
 72
    27
 73
    23
 74
     0
 42
0.0000000001
 43
0.0000000001
 40
0.0
 40
0.0
 40
0.0
 40
0.0
 40
0.0315390550092857
 40
0.0839394106061209
 40
0.1366719443306953
 40
0.1890722999275304
 40
0.2405008329652603
 40
0.2919293660029889
 40
0.3443297215998242
 40
0.3970622553243989
 40
0.4494626109212342
 40
0.5008911439589645
 40
0.5523196769966934
 40
0.6047200325935286
 40
0.6574525663181035
 40
0.7098529219149384
 40
0.7612814549526684
 40
0.8127099879903973
 40
0.8651103435872322
 40
0.9178428773118067
 40
0.970243232908642
 40
1.0
 40
1.0
 40
1.0
 40
1.0
 10
-23.73441489268754
 20
-2.657416721097332
 30
0.0
 10
-23.72998432277767
 20
-2.652984896009587
 30
0.0
 10
-23.71819261161907
 20
-2.641189844266123
 30
0.0
 10
-23.697894011188
 20
-2.548570726939626
 30
0.0
 10
-23.67441672604529
 20
-2.388491098449001
 30
0.0
 10
-23.65122741283649
 20
-2.167108698353835
 30
0.0
 10
-23.62946455639724
 20
-1.895465002969459
 30
0.0
 10
-23.60770006563035
 20
-1.577811239429419
 30
0.0
 10
-23.58451575886956
 20
-1.218714791216497
 30
0.0
 10
-23.56101997020451
 20
-0.8268232282283587
 30
0.0
 10
-23.53783557590798
 20
-0.4167775943085819
 30
0.0
 10
-23.51607142861459
 20
-0.0000000028828282
 30
0.0
 10
-23.49430728106063
 20
0.4167776059489229
 30
0.0
 10
-23.47112288756235
 20
0.8268231865487738
 30
0.0
 10
-23.44762709594701
 20
1.218714946604047
 30
0.0
 10
-23.42444280006093
 20
1.57781066843234
 30
0.0
 10
-23.40267826949535
 20
1.895467090355815
 30
0.0
 10
-23.38091556194014
 20
2.167100840916734
 30
0.0
 10
-23.35772568161289
 20
2.388521122124533
 30
0.0
 10
-23.33425052974688
 20
2.548458256759161
 30
0.0
 10
-23.31420985236778
 20
2.640322667449948
 30
0.0
 10
-23.30266569026102
 20
2.652055951866238
 30
0.0
 10
-23.29848447100899
 20
2.656305669969404
 30
0.0
  0
SPLINE
  5
222
330
1F
100
AcDbEntity
  8
1
  6
Continuous
370
    15
100
AcDbSpline
210
0.0
220
0.0
230
1.0
 70
     8
 71
     3
 72
     8
 73
     4
 74
     0
 42
0.0000000001
 43
0.0000000001
 40
0.0
 40
0.0
 40
0.0
 40
0.0
 40
1.0
 40
1.0
 40
1.0
 40
1.0
 10
2.999999999999984
 20
-0.0000000000001137
 30
0.0
 10
2.847215023891179
 20
-0.0000000000001137
 30
0.0
 10
2.694816219065443
 20
0.0115968001639004
 30
0.0
 10
2.54269673009729
 20
0.0350592384776229
 30
0.0
  0
SPLINE
  5
223
330
1F
100
AcDbEntity
  8
SK1
  6
Continuous
370
    15
100
AcDbSpline
210
0.0
220
0.0
230
1.0
 70
    11
 71
     3
 72
    73
 73
    69
 74
     0
 42
0.0000000001
 43
0.0000000001
 40
0.0
 40
0.0
 40
0.0
 40
0.0
 40
0.0307917510135637
 40
0.0461824575660248
 40
0.0617852762592425
 40
0.0773652622505387
 40
0.0929343230945302
 40
0.1086346744669732
 40
0.1244609564656033
 40
0.132333304968168
 40
0.1401908922338404
 40
0.1559151153527667
 40
0.1717084471919839
 40
0.1873449339061095
 40
0.2029012833388256
 40
0.218495898278402
 40
0.2339063785048893
 40
0.2492598526403101
 40
0.2647617412688753
 40
0.2801976423174746
 40
0.295606046183628
 40
0.3111713603791875
 40
0.3269068664149697
 40
0.3425686112288618
 40
0.3582635677626441
 40
0.3661621484803538
 40
0.3740949903997686
 40
0.3898342173060334
 40
0.4054803984870443
 40
0.4211666964891835
 40
0.4367640667368112
 40
0.4521920871565825
 40
0.4676374844011559
 40
0.4986338096531535
 40
0.5293558433917479
 40
0.5450071853407616
 40
0.5606544878880319
 40
0.576303988568491
 40
0.5920969895240518
 40
0.6080651004283287
 40
0.6160194862854823
 40
0.6239585813038705
 40
0.6345426513564214
 40
0.6398417357450638
 40
0.6558017018264322
 40
0.6716410128210411
 40
0.6873563113579181
 40
0.7030723306018639
 40
0.7185906158459324
 40
0.7339921012523779
 40
0.7494847677708193
 40
0.7648450916495265
 40
0.7801785247457
 40
0.7957149147542713
 40
0.811427757606633
 40
0.8270943634266625
 40
0.8428466549744582
 40
0.858791242273085
 40
0.8667696631202288
 40
0.8747169010880011
 40
0.8905657522908136
 40
0.9064482241237287
 40
0.9223089954956387
 40
0.9379878283289382
 40
0.9536283379503217
 40
0.9692365673579695
 40
0.9987286078709836
 40
1.0
 40
1.0
 40
1.0
 40
1.0
 10
-11.19880381535651
 20
-0.145862189007337
 30
0.0
 10
-11.1997142251469
 20
-0.0361340308723701
 30
0.0
 10
-11.2177692727855
 20
0.1295956728369667
 30
0.0
 10
-11.27371183491891
 20
0.34142156125555
 30
0.0
 10
-11.33104661188699
 20
0.4949903911738165
 30
0.0
 10
-11.40285679840842
 20
0.6412007723063127
 30
0.0
 10
-11.48799014290341
 20
0.7786690616351413
 30
0.0
 10
-11.58583591876767
 20
0.9068542105854103
 30
0.0
 10
-11.67729708802298
 20
1.005112328593364
 30
0.0
 10
-11.7559024837689
 20
1.07806399432415
 30
0.0
 10
-11.83770136029041
 20
1.146902998195405
 30
0.0
 10
-11.94641515591887
 20
1.225641222285095
 30
0.0
 10
-12.085979187582
 20
1.307255766578508
 30
0.0
 10
-12.23364328101043
 20
1.375158714186393
 30
0.0
 10
-12.38821089011503
 20
1.428554207178714
 30
0.0
 10
-12.5481840450752
 20
1.466563764149995
 30
0.0
 10
-12.71174630406359
 20
1.48851493870198
 30
0.0
 10
-12.87702214717669
 20
1.494083906639625
 30
0.0
 10
-13.04198949978641
 20
1.483093539213168
 30
0.0
 10
-13.2043127948842
 20
1.455789472651126
 30
0.0
 10
-13.36193765254228
 20
1.412896562065206
 30
0.0
 10
-13.5139735571572
 20
1.354952916015319
 30
0.0
 10
-13.65890794687678
 20
1.282687965252817
 30
0.0
 10
-13.79537500960585
 20
1.197074835714478
 30
0.0
 10
-13.90119898837615
 20
1.115400778514106
 30
0.0
 10
-13.98102800170377
 20
1.043950272836477
 30
0.0
 10
-14.05741398253576
 20
0.9685471865563195
 30
0.0
 10
-14.14573943251282
 20
0.8676027258551979
 30
0.0
 10
-14.23979027065765
 20
0.7362694596853622
 30
0.0
 10
-14.32100464952387
 20
0.5955814060099494
 30
0.0
 10
-14.38830269795919
 20
0.4468148984902049
 30
0.0
 10
-14.4408034811987
 20
0.2914290440926574
 30
0.0
 10
-14.4902436267289
 20
0.0771161762108816
 30
0.0
 10
-14.51139696493956
 20
-0.2001954259518248
 30
0.0
 10
-14.47678466429744
 20
-0.4742525078672612
 30
0.0
 10
-14.4185143684345
 20
-0.6824935749902341
 30
0.0
 10
-14.35989181125129
 20
-0.8331418973562294
 30
0.0
 10
-14.28765862549025
 20
-0.9759483831904175
 30
0.0
 10
-14.20240959165281
 20
-1.110538108318094
 30
0.0
 10
-14.12115795078367
 20
-1.215019435823754
 30
0.0
 10
-14.05044401205165
 20
-1.293564136368666
 30
0.0
 10
-13.98869201498637
 20
-1.355884363463552
 30
0.0
 10
-13.93006950003681
 20
-1.40879738698256
 30
0.0
 10
-13.84833701638557
 20
-1.475760520242364
 30
0.0
 10
-13.74783831761323
 20
-1.54787775947504
 30
0.0
 10
-13.6095484310339
 20
-1.628144133299204
 30
0.0
 10
-13.46297619541801
 20
-1.695188658593685
 30
0.0
 10
-13.30927232636911
 20
-1.74801593813355
 30
0.0
 10
-13.1498200225039
 20
-1.785710620962318
 30
0.0
 10
-12.98631131390991
 20
-1.807560144883104
 30
0.0
 10
-12.82101538855218
 20
-1.812964786844041
 30
0.0
 10
-12.65647265029111
 20
-1.801825768593632
 30
0.0
 10
-12.49500008609131
 20
-1.774633153874419
 30
0.0
 10
-12.33782871811498
 20
-1.731887771002249
 30
0.0
 10
-12.18684059676329
 20
-1.674368932517343
 30
0.0
 10
-12.04360330508493
 20
-1.603176520734083
 30
0.0
 10
-11.90881342868965
 20
-1.51916957610527
 30
0.0
 10
-11.80398934922445
 20
-1.438937611064389
 30
0.0
 10
-11.72493733721259
 20
-1.368868940206827
 30
0.0
 10
-11.64959396433383
 20
-1.295350169480383
 30
0.0
 10
-11.56210700908892
 20
-1.196823086407331
 30
0.0
 10
-11.46841971775163
 20
-1.068423110723459
 30
0.0
 10
-11.38706281133434
 20
-0.9307646115400698
 30
0.0
 10
-11.31895715505989
 20
-0.7848823775635329
 30
0.0
 10
-11.26497691255433
 20
-0.6318258411933188
 30
0.0
 10
-11.21431647376292
 20
-0.4253885072414807
 30
0.0
 10
-11.19831568979822
 20
-0.2599883192493344
 30
0.0
 10
-11.1987662245147
 20
-0.1503928672569375
 30
0.0
 10
-11.19880381535651
 20
-0.145862189007337
 30
0.0
  0
SPLINE
  5
224
330
1F
100
AcDbEntity
  8
SK1
  6
Continuous
370
    15
100
AcDbSpline
210
0.0
220
0.0
230
1.0
 70
    11
 71
     3
 72
    70
 73
    66
 74
     0
 42
0.0000000001
 43
0.0000000001
 40
0.0
 40
0.0
 40
0.0
 40
0.0
 40
0.0324051082307611
 40
0.0486808494837644
 40
0.0648310950637918
 40
0.0808442494212007
 40
0.0968614250079463
 40
0.1127275516499169
 40
0.1284064281406078
 40
0.1440273935027877
 40
0.159568163507612
 40
0.1748492240663775
 40
0.1900031885502799
 40
0.2051820057798456
 40
0.2201887806381743
 40
0.2350072420532525
 40
0.2498595782323139
 40
0.2648413282895122
 40
0.2797286750369732
 40
0.2947200415877805
 40
0.3098997382691567
 40
0.3250917236256928
 40
0.3404396711648602
 40
0.3559686580481089
 40
0.3715123396010802
 40
0.3871867415943913
 40
0.4030866543803337
 40
0.4189790495550358
 40
0.4349037737724385
 40
0.4510045370533855
 40
0.4672762216921745
 40
0.4834387224491776
 40
0.4996334131817243
 40
0.5160155801159415
 40
0.5324315092540159
 40
0.5486559158466078
 40
0.5647391655418184
 40
0.58084377105254
 40
0.5968682922127369
 40
0.6126798910756485
 40
0.6284231911525101
 40
0.6441090497229735
 40
0.6595432528752074
 40
0.6748502068963611
 40
0.6901594035197001
 40
0.7052571079289788
 40
0.7201762810568888
 40
0.7351091839689921
 40
0.7501010425171291
 40
0.7649488228642051
 40
0.7798548588454889
 40
0.7949488414291998
 40
0.8100274956467155
 40
0.8252231632486497
 40
0.8406336324204922
 40
0.856063977698723
 40
0.8716085500355912
 40
0.8873907894874211
 40
0.9032049188428587
 40
0.9190551735758964
 40
0.9350880299966238
 40
0.9513067209643576
 40
0.9674392034984578
 40
0.9836262152777011
 40
1.0
 40
1.0
 40
1.0
 40
1.0
 10
-10.60057641877205
 20
-0.1540739744478961
 30
0.0
 10
-10.59937263300148
 20
-0.3169760258497867
 30
0.0
 10
-10.61992886207905
 20
-0.561972041624939
 30
0.0
 10
-10.69041793498732
 20
-0.8767017534792183
 30
0.0
 10
-10.7638112314589
 20
-1.10455553630055
 30
0.0
 10
-10.85647500042526
 20
-1.321858236194427
 30
0.0
 10
-10.96723586962096
 20
-1.526992559333097
 30
0.0
 10
-11.09486358135672
 20
-1.718411748423165
 30
0.0
 10
-11.23802610145796
 20
-1.894822956218588
 30
0.0
 10
-11.39593109279626
 20
-2.055483908700499
 30
0.0
 10
-11.56743471479146
 20
-2.199067500098585
 30
0.0
 10
-11.75121867475187
 20
-2.324336913089207
 30
0.0
 10
-11.94650175838666
 20
-2.430469080685917
 30
0.0
 10
-12.15232370821528
 20
-2.516192789103655
 30
0.0
 10
-12.36651586300877
 20
-2.579870266812923
 30
0.0
 10
-12.58650052920369
 20
-2.620361293100373
 30
0.0
 10
-12.81061553921752
 20
-2.636941873945615
 30
0.0
 10
-13.03574618074205
 20
-2.628897685311351
 30
0.0
 10
-13.25848369162325
 20
-2.596367263666732
 30
0.0
 10
-13.47576095953312
 20
-2.540222100411166
 30
0.0
 10
-13.68526941631876
 20
-2.461501300837731
 30
0.0
 10
-13.88509338343782
 20
-2.361560789586575
 30
0.0
 10
-14.07365224919039
 20
-2.241871828525629
 30
0.0
 10
-14.24971656359334
 20
-2.103684741815264
 30
0.0
 10
-14.41221605014252
 20
-1.9482879394612
 30
0.0
 10
-14.56041830785277
 20
-1.776638854934434
 30
0.0
 10
-14.6932121211947
 20
-1.589774508089858
 30
0.0
 10
-14.80929373948316
 20
-1.389193049861449
 30
0.0
 10
-14.90759696631397
 20
-1.176433858031812
 30
0.0
 10
-14.98732444620898
 20
-0.9521286812385687
 30
0.0
 10
-15.04695989385722
 20
-0.7185962506175027
 30
0.0
 10
-15.08540120141664
 20
-0.4786291781461173
 30
0.0
 10
-15.10205936825281
 20
-0.2345050174426557
 30
0.0
 10
-15.09634152694038
 20
0.0119762244668449
 30
0.0
 10
-15.06794870937817
 20
0.2570060869056405
 30
0.0
 10
-15.01756075986793
 20
0.4963191511091729
 30
0.0
 10
-14.94619431392934
 20
0.7275182828549874
 30
0.0
 10
-14.85466415134222
 20
0.9490235770290595
 30
0.0
 10
-14.74412898688635
 20
1.15861106617548
 30
0.0
 10
-14.61604630559465
 20
1.35435074982058
 30
0.0
 10
-14.47157953149697
 20
1.53502276483308
 30
0.0
 10
-14.31195223680453
 20
1.699209812791405
 30
0.0
 10
-14.13858698427779
 20
1.845583056359668
 30
0.0
 10
-13.95254868731527
 20
1.973247958132659
 30
0.0
 10
-13.75496791935893
 20
2.080994294336103
 30
0.0
 10
-13.54771687817172
 20
2.167372813229516
 30
0.0
 10
-13.33288334239972
 20
2.231297308729621
 30
0.0
 10
-13.11168398788632
 20
2.271978535279306
 30
0.0
 10
-12.88690900443393
 20
2.288351107915259
 30
0.0
 10
-12.66171848554407
 20
2.280055456047938
 30
0.0
 10
-12.43884085221349
 20
2.247350701529609
 30
0.0
 10
-12.2208174221568
 20
2.190709229346878
 30
0.0
 10
-12.01012796437186
 20
2.111117930633874
 30
0.0
 10
-11.80882620544483
 20
2.009879396205329
 30
0.0
 10
-11.61855824546492
 20
1.888176385568701
 30
0.0
 10
-11.44077815851575
 20
1.747322400663676
 30
0.0
 10
-11.27658037638605
 20
1.588526923860291
 30
0.0
 10
-11.12714230255699
 20
1.412854103295223
 30
0.0
 10
-10.99388179887116
 20
1.221798990993059
 30
0.0
 10
-10.87799255898308
 20
1.016987066688662
 30
0.0
 10
-10.78029470542314
 20
0.7992225300571958
 30
0.0
 10
-10.70234663737824
 20
0.5707121182961396
 30
0.0
 10
-10.64533626635318
 20
0.3341513718845599
 30
0.0
 10
-10.6099527157791
 20
0.091829591279315
 30
0.0
 10
-10.6011846725362
 20
-0.0717621641777058
 30
0.0
 10
-10.60057641877205
 20
-0.1540739744478961
 30
0.0
  0
SPLINE
  5
225
330
1F
100
AcDbEntity
  8
1
  6
Continuous
370
    15
100
AcDbSpline
210
0.0
220
0.0
230
1.0
 70
     8
 71
     3
 72
    20
 73
    16
 74
     0
 42
0.0000000001
 43
0.0000000001
 40
0.0
 40
0.0
 40
0.0
 40
0.0
 40
0.1249999999999999
 40
0.1249999999999999
 40
0.2499999999999998
 40
0.2499999999999998
 40
0.3749999999999998
 40
0.3749999999999998
 40
0.5
 40
0.5
 40
0.6249999999999996
 40
0.6249999999999996
 40
0.7499999999999996
 40
0.7499999999999996
 40
1.0
 40
1.0
 40
1.0
 40
1.0
 10
2.54269673009729
 20
0.0350592384777215
 30
0.0
 10
2.357453451018727
 20
0.0636305874737921
 30
0.0
 10
2.1777630572343
 20
0.1089630813274827
 30
0.0
 10
1.829065567256748
 20
0.231773020615468
 30
0.0
 10
1.658570678112695
 20
0.3101611179924495
 30
0.0
 10
1.336269332254474
 20
0.496668998717569
 30
0.0
 10
1.185905888135007
 20
0.6035490894977693
 30
0.0
 10
0.9064129481362217
 20
0.8434268689843813
 30
0.0
 10
0.7760856103002141
 20
0.9782344948609683
 30
0.0
 10
0.5473323181113443
 20
1.262832128807694
 30
0.0
 10
0.4479389511367772
 20
1.412928467604108
 30
0.0
 10
0.2778697748948815
 20
1.726493547862645
 30
0.0
 10
0.2076562812932821
 20
1.890126349744421
 30
0.0
 10
0.0461578050887255
 20
2.374837509689394
 30
0.0
 10
0.0
 20
2.700176032021509
 30
0.0
 10
0.0
 20
3.0
 30
0.0
  0
SPLINE
  5
226
330
1F
100
AcDbEntity
  8
SK1
  6
Continuous
370
    15
100
AcDbSpline
210
0.0
220
0.0
230
1.0
 70
     8
 71
     3
 72
     9
 73
     5
 74
     0
 42
0.0000000001
 43
0.0000000001
 40
0.0
 40
0.0
 40
0.0
 40
0.0
 40
0.4883859162247863
 40
1.0
 40
1.0
 40
1.0
 40
1.0
 10
-18.3000003143244
 20
2.164635407543578
 30
0.0
 10
-18.37250778961049
 20
2.246088206010524
 30
0.0
 10
-18.52097127489393
 20
2.412867786995519
 30
0.0
 10
-18.66937338916921
 20
2.579699339765423
 30
0.0
 10
-18.74529800089446
 20
2.665052711780598
 30
0.0
  0
SPLINE
  5
227
330
1F
100
AcDbEntity
  8
SK1
  6
Continuous
370
    15
100
AcDbSpline
210
0.0
220
0.0
230
1.0
 70
     8
 71
     3
 72
     9
 73
     5
 74
     0
 42
0.0000000001
 43
0.0000000001
 40
0.0
 40
0.0
 40
0.0
 40
0.0
 40
0.4884604462452768
 40
1.0
 40
1.0
 40
1.0
 40
1.0
 10
-19.20713296969087
 20
2.164624454216998
 30
0.0
 10
-19.27965411849794
 20
2.24609276964822
 30
0.0
 10
-19.42812294409995
 20
2.41287867024152
 30
0.0
 10
-19.57653298881489
 20
2.579718579679873
 30
0.0
 10
-19.65245059686107
 20
2.665063792502444
 30
0.0
  0
SPLINE
  5
228
330
1F
100
AcDbEntity
  8
SK1
  6
Continuous
370
    15
100
AcDbSpline
210
0.0
220
0.0
230
1.0
 70
     8
 71
     3
 72
     9
 73
     5
 74
     0
 42
0.0000000001
 43
0.0000000001
 40
0.0
 40
0.0
 40
0.0
 40
0.0
 40
0.4885227309357786
 40
1.0
 40
1.0
 40
1.0
 40
1.0
 10
-20.11427478435974
 20
2.164623529167482
 30
0.0
 10
-20.18682059981356
 20
2.246120054344154
 30
0.0
 10
-20.33532098855672
 20
2.412942435404215
 30
0.0
 10
-20.48376041429356
 20
2.579814648469751
 30
0.0
 10
-20.55968380639091
 20
2.665165992291219
 30
0.0
  0
SPLINE
  5
229
330
1F
100
AcDbEntity
  8
SK1
  6
Continuous
370
    15
100
AcDbSpline
210
0.0
220
0.0
230
1.0
 70
     8
 71
     3
 72
     9
 73
     5
 74
     0
 42
0.0000000001
 43
0.0000000001
 40
0.0
 40
0.0
 40
0.0
 40
0.0
 40
0.4893825634708612
 40
1.0
 40
1.0
 40
1.0
 40
1.0
 10
-21.02144252267638
 20
2.16462004983823
 30
0.0
 10
-21.09424953490765
 20
2.246412910353141
 30
0.0
 10
-21.24302273948382
 20
2.41354771780277
 30
0.0
 10
-21.39173092722957
 20
2.58070684107685
 30
0.0
 10
-21.4676639208472
 20
2.66606120409552
 30
0.0
  0
SPLINE
  5
22A
330
1F
100
AcDbEntity
  8
SK1
  6
Continuous
370
    15
100
AcDbSpline
210
0.0
220
0.0
230
1.0
 70
     8
 71
     3
 72
     9
 73
     5
 74
     0
 42
0.0000000001
 43
0.0000000001
 40
0.0
 40
0.0
 40
0.0
 40
0.0
 40
0.4893517153386652
 40
1.0
 40
1.0
 40
1.0
 40
1.0
 10
-21.92858411647645
 20
2.164621514503831
 30
0.0
 10
-22.00135609277754
 20
2.246376405039098
 30
0.0
 10
-22.15006707921137
 20
2.413444156050629
 30
0.0
 10
-22.29872164629499
 20
2.580549733579081
 30
0.0
 10
-22.37463184598332
 20
2.665881910101326
 30
0.0
  0
SPLINE
  5
22B
330
1F
100
AcDbEntity
  8
SK1
  6
Continuous
370
    15
100
AcDbSpline
210
0.0
220
0.0
230
1.0
 70
     8
 71
     3
 72
     9
 73
     5
 74
     0
 42
0.0000000001
 43
0.0000000001
 40
0.0
 40
0.0
 40
0.0
 40
0.0
 40
0.4877529723811894
 40
1.0
 40
1.0
 40
1.0
 40
1.0
 10
-22.83571637645502
 20
2.164613655248918
 30
0.0
 10
-22.90801279053068
 20
2.245822759748175
 30
0.0
 10
-23.05623621133877
 20
2.412319140288508
 30
0.0
 10
-23.2044073386387
 20
2.578891319046622
 30
0.0
 10
-23.28030755817701
 20
2.664217422499453
 30
0.0
  0
SPLINE
  5
22C
330
1F
100
AcDbEntity
  8
SK1
  6
Continuous
370
    15
100
AcDbSpline
210
0.0
220
0.0
230
1.0
 70
     8
 71
     3
 72
     9
 73
     5
 74
     0
 42
0.0000000001
 43
0.0000000001
 40
0.0
 40
0.0
 40
0.0
 40
0.0
 40
0.6168932828141142
 40
1.0
 40
1.0
 40
1.0
 40
1.0
 10
-23.74284207795566
 20
2.164618930508392
 30
0.0
 10
-23.82486927856541
 20
2.256766886473899
 30
0.0
 10
-23.95783749672393
 20
2.406141111372499
 30
0.0
 10
-24.09075320215095
 20
2.555561094896443
 30
0.0
 10
-24.14167410171955
 20
2.612804894266266
 30
0.0
  0
SPLINE
  5
22D
330
1F
100
AcDbEntity
  8
SK1
  6
Continuous
370
    15
100
AcDbSpline
210
0.0
220
0.0
230
1.0
 70
     8
 71
     3
 72
     9
 73
     5
 74
     0
 42
0.0000000001
 43
0.0000000001
 40
0.0
 40
0.0
 40
0.0
 40
0.0
 40
0.5000650291348375
 40
1.0
 40
1.0
 40
1.0
 40
1.0
 10
-23.73457551923549
 20
-2.665043376744626
 30
0.0
 10
-23.65865054598181
 20
-2.579689779054937
 30
0.0
 10
-23.50682034624751
 20
-2.409004782670837
 30
0.0
 10
-23.35492726852284
 20
-2.238373091164663
 30
0.0
 10
-23.27899060713595
 20
-2.15306834144285
 30
0.0
  0
SPLINE
  5
22E
330
1F
100
AcDbEntity
  8
SK1
  6
Continuous
370
    15
100
AcDbSpline
210
0.0
220
0.0
230
1.0
 70
     8
 71
     3
 72
     9
 73
     5
 74
     0
 42
0.0000000001
 43
0.0000000001
 40
0.0
 40
0.0
 40
0.0
 40
0.0
 40
0.5000535344020549
 40
1.0
 40
1.0
 40
1.0
 40
1.0
 10
-22.82753948301483
 20
-2.66516434247849
 30
0.0
 10
-22.75164499092495
 20
-2.579846217336515
 30
0.0
 10
-22.5998722568703
 20
-2.409228234915897
 30
0.0
 10
-22.44804777239946
 20
-2.238670019383024
 30
0.0
 10
-22.37214365799703
 20
-2.15340004234867
 30
0.0
  0
SPLINE
  5
22F
330
1F
100
AcDbEntity
  8
SK1
  6
Continuous
370
    15
100
AcDbSpline
210
0.0
220
0.0
230
1.0
 70
     8
 71
     3
 72
     9
 73
     5
 74
     0
 42
0.0000000001
 43
0.0000000001
 40
0.0
 40
0.0
 40
0.0
 40
0.0
 40
0.5000647870696781
 40
1.0
 40
1.0
 40
1.0
 40
1.0
 10
-21.92131388309318
 20
-2.666140362046458
 30
0.0
 10
-21.84539023815232
 20
-2.580796667109865
 30
0.0
 10
-21.6935626212034
 20
-2.410131391042936
 30
0.0
 10
-21.54167228163438
 20
-2.239492966359335
 30
0.0
 10
-21.46573695237987
 20
-2.154184809181046
 30
0.0
  0
SPLINE
  5
230
330
1F
100
AcDbEntity
  8
SK1
  6
Continuous
370
    15
100
AcDbSpline
210
0.0
220
0.0
230
1.0
 70
     8
 71
     3
 72
     9
 73
     5
 74
     0
 42
0.0000000001
 43
0.0000000001
 40
0.0
 40
0.0
 40
0.0
 40
0.0
 40
0.5000649661113609
 40
1.0
 40
1.0
 40
1.0
 40
1.0
 10
-21.01327982886856
 20
-2.665193622778645
 30
0.0
 10
-20.93735510663825
 20
-2.579841148901087
 30
0.0
 10
-20.78552538975023
 20
-2.409158378337731
 30
0.0
 10
-20.63363284563614
 20
-2.238525507537163
 30
0.0
 10
-20.55769644144703
 20
-2.153220157490965
 30
0.0
  0
SPLINE
  5
231
330
1F
100
AcDbEntity
  8
SK1
  6
Continuous
370
    15
100
AcDbSpline
210
0.0
220
0.0
230
1.0
 70
     8
 71
     3
 72
     9
 73
     5
 74
     0
 42
0.0000000001
 43
0.0000000001
 40
0.0
 40
0.0
 40
0.0
 40
0.0
 40
0.5000624022880528
 40
1.0
 40
1.0
 40
1.0
 40
1.0
 10
-20.10613814380321
 20
-2.665194937559288
 30
0.0
 10
-20.03021995629806
 20
-2.579849927962201
 30
0.0
 10
-19.87840252879744
 20
-2.409181209005147
 30
0.0
 10
-19.72652475840246
 20
-2.238564600780451
 30
0.0
 10
-19.65059535072537
 20
-2.153266943534835
 30
0.0
  0
SPLINE
  5
232
330
1F
100
AcDbEntity
  8
SK1
  6
Continuous
370
    15
100
AcDbSpline
210
0.0
220
0.0
230
1.0
 70
     8
 71
     3
 72
     9
 73
     5
 74
     0
 42
0.0000000001
 43
0.0000000001
 40
0.0
 40
0.0
 40
0.0
 40
0.0
 40
0.5000605770280662
 40
1.0
 40
1.0
 40
1.0
 40
1.0
 10
-19.19883149748861
 20
-2.665009432859318
 30
0.0
 10
-19.12291793478242
 20
-2.579668916310213
 30
0.0
 10
-18.9711092016138
 20
-2.409008559406474
 30
0.0
 10
-18.8192419059158
 20
-2.238405970057923
 30
0.0
 10
-18.74331745773625
 20
-2.153115009981489
 30
0.0
  0
SPLINE
  5
233
330
1F
100
AcDbEntity
  8
SK1
  6
Continuous
370
    15
100
AcDbSpline
210
0.0
220
0.0
230
1.0
 70
     8
 71
     3
 72
     9
 73
     5
 74
     0
 42
0.0000000001
 43
0.0000000001
 40
0.0
 40
0.0
 40
0.0
 40
0.0
 40
0.9224141219804231
 40
1.0
 40
1.0
 40
1.0
 40
1.0
 10
-18.2908799682575
 20
-2.664041297767643
 30
0.0
 10
-18.21497962525372
 20
-2.578704897553553
 30
0.0
 10
-18.13269517058727
 20
-2.486190702269039
 30
0.0
 10
-18.05038094964118
 20
-2.393720026934548
 30
0.0
 10
-18.04399452853558
 20
-2.386545608397659
 30
0.0
  0
SPLINE
  5
234
330
1F
100
AcDbEntity
  8
SK1
  6
Continuous
370
    15
100
AcDbSpline
210
0.0
220
0.0
230
1.0
 70
     8
 71
     3
 72
     9
 73
     5
 74
     0
 42
0.0000000001
 43
0.0000000001
 40
0.0
 40
0.0
 40
0.0
 40
0.0
 40
0.130795156851395
 40
1.0
 40
1.0
 40
1.0
 40
1.0
 10
-18.04813902202349
 20
2.447622056227681
 30
0.0
 10
-18.05956145609832
 20
2.434782358779771
 30
0.0
 10
-18.14689216734024
 20
2.336615899432193
 30
0.0
 10
-18.23425886303802
 20
2.238478902109632
 30
0.0
 10
-18.31019841806842
 20
2.153177748744798
 30
0.0
  0
SPLINE
  5
235
330
1F
100
AcDbEntity
  8
SK1
  6
Continuous
370
    15
100
AcDbSpline
210
0.0
220
0.0
230
1.0
 70
     8
 71
     3
 72
     9
 73
     5
 74
     0
 42
0.0000000001
 43
0.0000000001
 40
0.0
 40
0.0
 40
0.0
 40
0.0
 40
0.5000636860473977
 40
1.0
 40
1.0
 40
1.0
 40
1.0
 10
-18.76109945717589
 20
2.665864249564283
 30
0.0
 10
-18.83702050336929
 20
2.580520634294605
 30
0.0
 10
-18.98884325777381
 20
2.409855141776549
 30
0.0
 10
-19.14072764610377
 20
2.239224660926095
 30
0.0
 10
-19.2166601673524
 20
2.153920287281758
 30
0.0
  0
SPLINE
  5
236
330
1F
100
AcDbEntity
  8
SK1
  6
Continuous
370
    15
100
AcDbSpline
210
0.0
220
0.0
230
1.0
 70
     8
 71
     3
 72
     9
 73
     5
 74
     0
 42
0.0000000001
 43
0.0000000001
 40
0.0
 40
0.0
 40
0.0
 40
0.0
 40
0.500057829353132
 40
1.0
 40
1.0
 40
1.0
 40
1.0
 10
-19.66965500702638
 20
2.664263449761861
 30
0.0
 10
-19.74556171026137
 20
2.578929591275423
 30
0.0
 10
-19.89735756021971
 20
2.408281611227149
 30
0.0
 10
-20.04920926791819
 20
2.237708962098325
 30
0.0
 10
-20.1251263402814
 20
2.15243250163987
 30
0.0
  0
SPLINE
  5
237
330
1F
100
AcDbEntity
  8
SK1
  6
Continuous
370
    15
100
AcDbSpline
210
0.0
220
0.0
230
1.0
 70
     8
 71
     3
 72
     9
 73
     5
 74
     0
 42
0.0000000001
 43
0.0000000001
 40
0.0
 40
0.0
 40
0.0
 40
0.0
 40
0.5000622344092295
 40
1.0
 40
1.0
 40
1.0
 40
1.0
 10
-20.57609199323345
 20
2.66509653053011
 30
0.0
 10
-20.65200980747963
 20
2.579751468429436
 30
0.0
 10
-20.80382653952272
 20
2.409082587182087
 30
0.0
 10
-20.95570344531168
 20
2.238468184109962
 30
0.0
 10
-21.03163244623666
 20
2.153171600660479
 30
0.0
  0
SPLINE
  5
238
330
1F
100
AcDbEntity
  8
SK1
  6
Continuous
370
    15
100
AcDbSpline
210
0.0
220
0.0
230
1.0
 70
     8
 71
     3
 72
     9
 73
     5
 74
     0
 42
0.0000000001
 43
0.0000000001
 40
0.0
 40
0.0
 40
0.0
 40
0.0
 40
0.5000648908408421
 40
1.0
 40
1.0
 40
1.0
 40
1.0
 10
-21.48318520820089
 20
2.665152625929326
 30
0.0
 10
-21.55910976574054
 20
2.579800104340803
 30
0.0
 10
-21.71093917614357
 20
2.40911721267647
 30
0.0
 10
-21.86283133800292
 20
2.238485236797953
 30
0.0
 10
-21.9387675625225
 20
2.153180321311088
 30
0.0
  0
SPLINE
  5
239
330
1F
100
AcDbEntity
  8
SK1
  6
Continuous
370
    15
100
AcDbSpline
210
0.0
220
0.0
230
1.0
 70
     8
 71
     3
 72
     9
 73
     5
 74
     0
 42
0.0000000001
 43
0.0000000001
 40
0.0
 40
0.0
 40
0.0
 40
0.0
 40
0.500062159600571
 40
1.0
 40
1.0
 40
1.0
 40
1.0
 10
-22.38973397954386
 20
2.665798433158836
 30
0.0
 10
-22.46565116055407
 20
2.580458391318313
 30
0.0
 10
-22.61746664899423
 20
2.409799523811344
 30
0.0
 10
-22.76934228642089
 20
2.23917879119313
 30
0.0
 10
-22.84527066460527
 20
2.153879030600613
 30
0.0
  0
SPLINE
  5
23A
330
1F
100
AcDbEntity
  8
SK1
  6
Continuous
370
    15
100
AcDbSpline
210
0.0
220
0.0
230
1.0
 70
     8
 71
     3
 72
     9
 73
     5
 74
     0
 42
0.0000000001
 43
0.0000000001
 40
0.0
 40
0.0
 40
0.0
 40
0.0
 40
0.5000592298871837
 40
1.0
 40
1.0
 40
1.0
 40
1.0
 10
-23.29832127664663
 20
2.6641464791936
 30
0.0
 10
-23.37423177144303
 20
2.578807829256008
 30
0.0
 10
-23.52603477848588
 20
2.40815074538047
 30
0.0
 10
-23.67789499203937
 20
2.237570458276437
 30
0.0
 10
-23.7538161041528
 20
2.152290418175581
 30
0.0
  0
SPLINE
  5
23B
330
1F
100
AcDbEntity
  8
SK1
  6
Continuous
370
    15
100
AcDbSpline
210
0.0
220
0.0
230
1.0
 70
     8
 71
     3
 72
     9
 73
     5
 74
     0
 42
0.0000000001
 43
0.0000000001
 40
0.0
 40
0.0
 40
0.0
 40
0.0
 40
0.489209264790715
 40
1.0
 40
1.0
 40
1.0
 40
1.0
 10
-24.19642003940815
 20
-2.164625599952168
 30
0.0
 10
-24.12366740858506
 20
-2.246357197969921
 30
0.0
 10
-23.97495266407955
 20
-2.413425984070518
 30
0.0
 10
-23.8263015473313
 20
-2.580525239146147
 30
0.0
 10
-23.75037193411778
 20
-2.665877990499153
 30
0.0
  0
SPLINE
  5
23C
330
1F
100
AcDbEntity
  8
SK1
  6
Continuous
370
    15
100
AcDbSpline
210
0.0
220
0.0
230
1.0
 70
     8
 71
     3
 72
     9
 73
     5
 74
     0
 42
0.0000000001
 43
0.0000000001
 40
0.0
 40
0.0
 40
0.0
 40
0.0
 40
0.4885408616746524
 40
1.0
 40
1.0
 40
1.0
 40
1.0
 10
-23.28928610412749
 20
-2.164635364446453
 30
0.0
 10
-23.21673831174619
 20
-2.24613421927722
 30
0.0
 10
-23.06823938755667
 20
-2.41295517781772
 30
0.0
 10
-22.91980035324511
 20
-2.579826742915209
 30
0.0
 10
-22.84387985266227
 20
-2.665174729810976
 30
0.0
  0
SPLINE
  5
23D
330
1F
100
AcDbEntity
  8
SK1
  6
Continuous
370
    15
100
AcDbSpline
210
0.0
220
0.0
230
1.0
 70
     8
 71
     3
 72
     9
 73
     5
 74
     0
 42
0.0000000001
 43
0.0000000001
 40
0.0
 40
0.0
 40
0.0
 40
0.0
 40
0.488425243878876
 40
1.0
 40
1.0
 40
1.0
 40
1.0
 10
-22.38214333175306
 20
-2.164634877139014
 30
0.0
 10
-22.30962709045792
 20
-2.246097670384564
 30
0.0
 10
-22.16115761185512
 20
-2.412884285668014
 30
0.0
 10
-22.01274864314823
 20
-2.579723178545935
 30
0.0
 10
-21.93682636117582
 20
-2.665073744481476
 30
0.0
  0
SPLINE
  5
23E
330
1F
100
AcDbEntity
  8
SK1
  6
Continuous
370
    15
100
AcDbSpline
210
0.0
220
0.0
230
1.0
 70
     8
 71
     3
 72
     9
 73
     5
 74
     0
 42
0.0000000001
 43
0.0000000001
 40
0.0
 40
0.0
 40
0.0
 40
0.0
 40
0.488700218729766
 40
1.0
 40
1.0
 40
1.0
 40
1.0
 10
-21.47501900808169
 20
-2.164613556044284
 30
0.0
 10
-21.40244882663927
 20
-2.246138151542931
 30
0.0
 10
-21.25395251200481
 20
-2.412957384222107
 30
0.0
 10
-21.10550852114494
 20
-2.579833916325595
 30
0.0
 10
-21.02960914108739
 20
-2.665157850689244
 30
0.0
  0
SPLINE
  5
23F
330
1F
100
AcDbEntity
  8
SK1
  6
Continuous
370
    15
100
AcDbSpline
210
0.0
220
0.0
230
1.0
 70
     8
 71
     3
 72
     9
 73
     5
 74
     0
 42
0.0000000001
 43
0.0000000001
 40
0.0
 40
0.0
 40
0.0
 40
0.0
 40
0.4891456650155476
 40
1.0
 40
1.0
 40
1.0
 40
1.0
 10
-20.56784988068465
 20
-2.164627658509969
 30
0.0
 10
-20.49511333723248
 20
-2.246340918961641
 30
0.0
 10
-20.34641214522695
 20
-2.413393938738626
 30
0.0
 10
-20.19777537539292
 20
-2.580477678785016
 30
0.0
 10
-20.12184363718512
 20
-2.665833131693128
 30
0.0
  0
SPLINE
  5
240
330
1F
100
AcDbEntity
  8
SK1
  6
Continuous
370
    15
100
AcDbSpline
210
0.0
220
0.0
230
1.0
 70
     8
 71
     3
 72
     9
 73
     5
 74
     0
 42
0.0000000001
 43
0.0000000001
 40
0.0
 40
0.0
 40
0.0
 40
0.0
 40
0.4885766536256237
 40
1.0
 40
1.0
 40
1.0
 40
1.0
 10
-19.66071429004553
 20
-2.164635699458803
 30
0.0
 10
-19.58815841480245
 20
-2.246143804194995
 30
0.0
 10
-19.43965382559489
 20
-2.412971474185646
 30
0.0
 10
-19.2912083832926
 20
-2.579849956713825
 30
0.0
 10
-19.21528991843634
 20
-2.665195508686263
 30
0.0
  0
SPLINE
  5
241
330
1F
100
AcDbEntity
  8
SK1
  6
Continuous
370
    15
100
AcDbSpline
210
0.0
220
0.0
230
1.0
 70
     8
 71
     3
 72
     9
 73
     5
 74
     0
 42
0.0000000001
 43
0.0000000001
 40
0.0
 40
0.0
 40
0.0
 40
0.0
 40
0.4883972661514684
 40
1.0
 40
1.0
 40
1.0
 40
1.0
 10
-18.75357134143365
 20
-2.164635266809848
 30
0.0
 10
-18.68106131841023
 20
-2.246090969139739
 30
0.0
 10
-18.53259606676211
 20
-2.412872620011277
 30
0.0
 10
-18.38419194303756
 20
-2.579706323938125
 30
0.0
 10
-18.3082679876257
 20
-2.665058902965173
 30
0.0
  0
DIMENSION
  5
47F
330
1F
100
AcDbEntity
  8
SK2
370
    18
100
AcDbDimension
  2
*D12
 10
-16.7842629230949
 20
8.981037590833997
 30
0.0
 11
-34.99877842118528
 21
8.981037590833997
 31
0.0
 70
   160
 71
     5
 42
7.873999999999998
  3
ISO-25
100
AcDbAlignedDimension
 13
-24.6582629230949
 23
2.024680616889284
 33
0.0
 14
-16.7842629230949
 24
2.067013950189283
 34
0.0
100
AcDbRotatedDimension
  0
DIMENSION
  5
4B4
330
1F
100
AcDbEntity
  8
SK2
370
    18
100
AcDbDimension
  2
*D13
 10
11.40539633668797
 20
9.273428466877838
 30
0.0
 11
21.57206300335464
 21
9.273428466877838
 31
0.0
 70
   160
 71
     5
 42
4.57688060964986
  3
ISO-25
100
AcDbAlignedDimension
 13
6.828515727038109
 23
2.118439570510184
 33
0.0
 14
11.40539633668797
 24
1.215076036662606
 34
0.0
100
AcDbRotatedDimension
  0
DIMENSION
  5
538
330
1F
100
AcDbEntity
  8
2
370
    18
100
AcDbDimension
  2
*D15
 10
15.97070655298913
 20
-2.090502778265019
 30
0.0
 11
13.88737321965579
 21
-15.00716944493168
 31
0.0
 70
    32
  1
%%c <>
 71
     5
 42
4.142999999999997
  3
ISO-25
100
AcDbAlignedDimension
 13
9.514371231533315
 23
2.052497221734979
 33
0.0
 14
9.514371231533315
 24
-2.090502778265018
 34
0.0
 50
90.0
100
AcDbRotatedDimension
1001
ACAD
1000
DSTYLE
1002
{
1070
   271
1070
     3
1002
}
  0
LINE
  5
59D
330
1F
100
AcDbEntity
  8
1
370
    18
100
AcDbLine
 10
0.0
 20
5.0
 30
0.0
 11
0.0
 21
-5.0
 31
0.0
  0
LINE
  5
59E
330
1F
100
AcDbEntity
  8
1
370
    18
100
AcDbLine
 10
0.0
 20
5.0
 30
0.0
 11
4.20056398749999
 21
5.0
 31
0.0
  0
LINE
  5
5C2
330
1F
100
AcDbEntity
  8
1
370
    18
100
AcDbLine
 10
0.0
 20
-5.0
 30
0.0
 11
2.542696730100018
 21
-5.0
 31
0.0
  0
ENDSEC
  0
SECTION
  2
OBJECTS
  0
DICTIONARY
  5
183
330
0
100
AcDbDictionary
281
     1
  3
ACAD_COLOR
350
195
  3
ACAD_GROUP
350
184
  3
ACAD_LAYOUT
350
196
  3
ACAD_MATERIAL
350
194
  3
ACAD_MLINESTYLE
350
185
  3
ACAD_PLOTSETTINGS
350
197
  3
ACAD_PLOTSTYLENAME
350
192
  0
DICTIONARY
  5
195
102
{ACAD_REACTORS
330
183
102
}
330
183
100
AcDbDictionary
281
     1
  0
DICTIONARY
  5
184
330
183
100
AcDbDictionary
281
     1
  0
DICTIONARY
  5
196
102
{ACAD_REACTORS
330
183
102
}
330
183
100
AcDbDictionary
281
     1
  3
Layout1
350
199
  3
Model
350
198
  0
DICTIONARY
  5
194
102
{ACAD_REACTORS
330
183
102
}
330
183
100
AcDbDictionary
281
     1
  0
DICTIONARY
  5
185
330
183
100
AcDbDictionary
281
     1
  3
Standard
350
18
  0
DICTIONARY
  5
197
102
{ACAD_REACTORS
330
183
102
}
330
183
100
AcDbDictionary
281
     1
  0
ACDBDICTIONARYWDFLT
  5
192
102
{ACAD_REACTORS
330
183
102
}
330
183
100
AcDbDictionary
281
     1
  3
Normal
350
193
100
AcDbDictionaryWithDefault
340
193
  0
LAYOUT
  5
199
102
{ACAD_REACTORS
330
196
102
}
330
196
100
AcDbPlotSettings
  1

  2
Chappel Main Office
  4

  6

 40
0.0
 41
0.0
 42
0.0
 43
0.0
 44
0.0
 45
0.0
 46
0.0
 47
0.0
 48
0.0
 49
0.0
140
0.0
141
0.0
142
1.0
143
1.0
 70
   688
 72
     0
 73
     0
 74
     5
  7

 75
    16
147
1.0
 76
     0
 77
     2
 78
   300
148
0.0
149
0.0
100
AcDbLayout
  1
Layout1
 70
     1
 71
     1
 10
0.0
 20
0.0
 11
12.0
 21
9.0
 12
0.0
 22
0.0
 32
0.0
 14
1.000000000000000E+20
 24
1.000000000000000E+20
 34
1.000000000000000E+20
 15
-1.000000000000000E+20
 25
-1.000000000000000E+20
 35
-1.000000000000000E+20
146
0.0
 13
0.0
 23
0.0
 33
0.0
 16
1.0
 26
0.0
 36
0.0
 17
0.0
 27
1.0
 37
0.0
 76
     0
330
1B
  0
LAYOUT
  5
198
102
{ACAD_REACTORS
330
196
102
}
330
196
100
AcDbPlotSettings
  1

  2
Chappel Main Office
  4

  6

 40
0.0
 41
0.0
 42
0.0
 43
0.0
 44
0.0
 45
0.0
 46
0.0
 47
0.0
 48
0.0
 49
0.0
140
0.0
141
0.0
142
1.0
143
1.0
 70
  1712
 72
     0
 73
     0
 74
     0
  7

 75
     0
147
1.0
 76
     0
 77
     2
 78
   300
148
0.0
149
0.0
100
AcDbLayout
  1
Model
 70
     1
 71
     0
 10
0.0
 20
0.0
 11
12.0
 21
9.0
 12
0.0
 22
0.0
 32
0.0
 14
0.0
 24
0.0
 34
0.0
 15
0.0
 25
0.0
 35
0.0
146
0.0
 13
0.0
 23
0.0
 33
0.0
 16
1.0
 26
0.0
 36
0.0
 17
0.0
 27
1.0
 37
0.0
 76
     0
330
1F
  0
MLINESTYLE
  5
18
330
185
100
AcDbMlineStyle
  2
STANDARD
 70
     0
  3

 62
   256
 51
90.0
 52
90.0
 71
     2
 49
0.5
 62
   256
  6
BYLAYER
 49
-0.5
 62
   256
  6
BYLAYER
  0
ACDBPLACEHOLDER
  5
193
102
{ACAD_REACTORS
330
192
102
}
330
192
  0
ENDSEC
  0
EOF
