0
SECTION
2
HEADER
9
$ACADVER
1
AC1015
9
$DWGCODEPAGE
3
ANSI_1252
9
$HANDSEED
5
26f
9
$ANGBASE
50
0
9
$ANGDIR
70
0
9
$ATTMODE
70
1
9
$AUNITS
70
0
9
$AUPREC
70
0
9
$CECOLOR
62
256
9
$CELTSCALE
40
1
9
$CELTYPE
6
ByLayer
9
$CELWEIGHT
370
18
9
$CLAYER
8
0
9
$CMLJUST
70
0
9
$CMLSCALE
40
1
9
$CMLSTYLE
2
Standard
9
$DIMSTYLE
2
Standard
9
$TEXTSIZE
40
0.2
9
$TEXTSTYLE
7
Standard
9
$LUNITS
70
2
9
$LUPREC
70
4
9
$EXTNAMES
290
1
9
$INSUNITS
70
4
9
$LTSCALE
40
1
9
$LWDISPLAY
290
1
9
$PDMODE
70
0
9
$PDSIZE
40
0
9
$PLINEGEN
70
0
0
ENDSEC
0
SECTION
2
CLASSES
0
CLASS
1
RASTERVARIABLES
2
AcDbRasterVariables
3
ISM
90
0
280
0
281
0
0
ENDSEC
0
SECTION
2
TABLES
0
TABLE
2
VPORT
5
265
100
AcDbSymbolTable
0
VPORT
5
1
100
AcDbSymbolTableRecord
100
AcDbViewportTableRecord
2
*Active
70
0
10
0
20
0
11
1
21
1
12
-1
22
1
13
0
23
0
14
0.5
24
0.5
15
10
25
10
16
0
26
0
36
1
17
0
27
0
37
0
0
ENDTAB
0
TABLE
2
LTYPE
5
266
100
AcDbSymbolTable
0
LTYPE
5
14
100
AcDbSymbolTableRecord
100
AcDbLinetypeTableRecord
70
0
2
ByBlock
3

72
65
73
0
40
0
0
LTYPE
5
15
100
AcDbSymbolTableRecord
100
AcDbLinetypeTableRecord
70
0
2
ByLayer
3

72
65
73
0
40
0
0
LTYPE
5
16
100
AcDbSymbolTableRecord
100
AcDbLinetypeTableRecord
70
0
2
Continuous
3
Solid line
72
65
73
0
40
0
0
LTYPE
5
6E
100
AcDbSymbolTableRecord
100
AcDbLinetypeTableRecord
70
0
2
CENTER
3
____ _ ____ _ ____ _ ____
72
65
73
4
40
47.5
49
22
74
0
49
-8.5
74
0
49
8.5
74
0
49
-8.5
74
0
0
LTYPE
5
6F
100
AcDbSymbolTableRecord
100
AcDbLinetypeTableRecord
70
0
2
DASHED
3
__ __ __ __ __ __ __ __ __
72
65
73
2
40
25.72
49
12.86
74
0
49
-12.86
74
0
0
ENDTAB
0
TABLE
2
LAYER
5
267
100
AcDbSymbolTable
0
LAYER
5
10
100
AcDbSymbolTableRecord
100
AcDbLayerTableRecord
2
0
70
0
62
7
6
Continuous
290
1
370
-3
390
0
0
LAYER
5
71
100
AcDbSymbolTableRecord
100
AcDbLayerTableRecord
2
81
70
0
62
-3
6
Continuous
290
1
370
-3
390
0
0
LAYER
5
73
100
AcDbSymbolTableRecord
100
AcDbLayerTableRecord
2
80
70
0
62
-6
6
Continuous
290
1
370
-3
390
0
0
LAYER
5
75
100
AcDbSymbolTableRecord
100
AcDbLayerTableRecord
2
1
70
0
62
4
6
Continuous
290
1
370
-3
390
0
0
LAYER
5
7B
100
AcDbSymbolTableRecord
100
AcDbLayerTableRecord
2
4
70
0
62
-2
6
CENTER
290
1
370
-3
390
0
0
LAYER
5
E0
100
AcDbSymbolTableRecord
100
AcDbLayerTableRecord
2
2
70
0
62
7
6
Continuous
290
1
370
-3
390
0
0
LAYER
5
1C4
100
AcDbSymbolTableRecord
100
AcDbLayerTableRecord
2
Defpoints
70
0
62
7
6
Continuous
290
0
370
-3
390
0
0
LAYER
5
251
100
AcDbSymbolTableRecord
100
AcDbLayerTableRecord
2
SK4
70
0
62
2
6
CENTER
290
1
370
-3
390
0
0
LAYER
5
252
100
AcDbSymbolTableRecord
100
AcDbLayerTableRecord
2
SK1
70
0
62
4
6
Continuous
290
1
370
-3
390
0
0
LAYER
5
253
100
AcDbSymbolTableRecord
100
AcDbLayerTableRecord
2
SK2
70
0
62
7
6
Continuous
290
1
370
-3
390
0
0
LAYER
5
254
100
AcDbSymbolTableRecord
100
AcDbLayerTableRecord
2
SK6
70
0
62
5
6
Continuous
290
1
370
-3
390
0
0
ENDTAB
0
TABLE
2
STYLE
5
268
100
AcDbSymbolTable
0
STYLE
5
11
100
AcDbSymbolTableRecord
100
AcDbTextStyleTableRecord
2
Standard
3
txt
70
0
71
0
40
0
41
1
42
0
50
0
0
STYLE
5
196
100
AcDbSymbolTableRecord
100
AcDbTextStyleTableRecord
2
iso_b_vert
3
simplex.shx
70
0
71
0
40
0
41
1
42
0
50
0
0
STYLE
5
197
100
AcDbSymbolTableRecord
100
AcDbTextStyleTableRecord
2
DWGDirectTextStyle
3
simplex
70
0
71
0
40
0
41
1
42
0
50
0
0
ENDTAB
0
TABLE
2
DIMSTYLE
5
269
100
AcDbSymbolTable
100
AcDbDimStyleTable
0
DIMSTYLE
105
27
100
AcDbSymbolTableRecord
100
AcDbDimStyleTableRecord
2
Standard
70
0
3
<>
41
0.18
42
0.0625
44
0.18
140
0.18
147
0.09
73
0
74
0
77
1
271
2
275
0
278
52
280
0
340
11
0
ENDTAB
0
TABLE
2
VIEW
5
26a
100
AcDbSymbolTable
0
ENDTAB
0
TABLE
2
UCS
5
26b
100
AcDbSymbolTable
0
ENDTAB
0
TABLE
2
APPID
5
26c
100
AcDbSymbolTable
0
APPID
5
12
100
AcDbSymbolTableRecord
100
AcDbRegAppTableRecord
2
ACAD
70
0
0
APPID
5
1C0
100
AcDbSymbolTableRecord
100
AcDbRegAppTableRecord
2
ACAD_DSTYLE_DIMBREAK
70
0
0
APPID
5
210
100
AcDbSymbolTableRecord
100
AcDbRegAppTableRecord
2
ACAD_DSTYLE_DIM_LINETYPE
70
0
0
APPID
5
211
100
AcDbSymbolTableRecord
100
AcDbRegAppTableRecord
2
ACAD_DSTYLE_DIM_EXT1_LINETYPE
70
0
0
APPID
5
212
100
AcDbSymbolTableRecord
100
AcDbRegAppTableRecord
2
ACAD_DSTYLE_DIM_EXT2_LINETYPE
70
0
0
APPID
5
24D
100
AcDbSymbolTableRecord
100
AcDbRegAppTableRecord
2
ACAD_MLEADERVER
70
0
0
ENDTAB
0
TABLE
2
BLOCK_RECORD
5
26d
100
AcDbSymbolTable
0
BLOCK_RECORD
5
1F
100
AcDbSymbolTableRecord
100
AcDbBlockTableRecord
2
*Model_Space
340
0
70
0
0
BLOCK_RECORD
5
1B
100
AcDbSymbolTableRecord
100
AcDbBlockTableRecord
2
*Paper_Space
340
0
70
0
0
BLOCK_RECORD
5
23
100
AcDbSymbolTableRecord
100
AcDbBlockTableRecord
2
*Paper_Space0
340
0
70
0
0
BLOCK_RECORD
5
1C5
100
AcDbSymbolTableRecord
100
AcDbBlockTableRecord
2
*D1
340
0
70
0
0
BLOCK_RECORD
5
1D1
100
AcDbSymbolTableRecord
100
AcDbBlockTableRecord
2
_U0
340
0
70
0
0
BLOCK_RECORD
5
1DD
100
AcDbSymbolTableRecord
100
AcDbBlockTableRecord
2
*D3
340
0
70
0
0
BLOCK_RECORD
5
1E9
100
AcDbSymbolTableRecord
100
AcDbBlockTableRecord
2
_U1
340
0
70
0
0
ENDTAB
0
ENDSEC
0
SECTION
2
BLOCKS
0
BLOCK
5
20
100
AcDbEntity
8
0
100
AcDbBlockBegin
2
*Model_Space
70
0
10
0
20
0
30
0
3
*Model_Space
0
ENDBLK
5
21
100
AcDbEntity
8
0
100
AcDbBlockEnd
0
BLOCK
5
1C
100
AcDbEntity
8
0
100
AcDbBlockBegin
2
*Paper_Space
70
0
10
0
20
0
30
0
3
*Paper_Space
0
ENDBLK
5
1D
100
AcDbEntity
8
0
100
AcDbBlockEnd
0
BLOCK
5
24
100
AcDbEntity
8
0
100
AcDbBlockBegin
2
*Paper_Space0
70
0
10
0
20
0
30
0
3
*Paper_Space0
0
ENDBLK
5
25
100
AcDbEntity
8
0
100
AcDbBlockEnd
0
BLOCK
5
1C6
100
AcDbEntity
8
0
100
AcDbBlockBegin
2
*D1
70
1
10
0
20
0
30
0
3
*D1
0
LINE
5
1C8
100
AcDbEntity
8
0
62
256
6
ByLayer
370
-2
48
1
60
0
100
AcDbLine
10
60.963091
20
-11.5875
30
0
11
60.963091
21
-27.729228
31
0
39
0
210
0
220
0
230
1
0
LINE
5
1C9
100
AcDbEntity
8
0
62
256
6
ByLayer
370
-2
48
1
60
0
100
AcDbLine
10
20.963091
20
-11.5875
30
0
11
20.963091
21
-27.729228
31
0
39
0
210
0
220
0
230
1
0
LINE
5
1CA
100
AcDbEntity
8
0
62
256
6
ByLayer
370
-2
48
1
60
0
100
AcDbLine
10
57.463091
20
-25.729228
30
0
11
24.463091
21
-25.729228
31
0
39
0
210
0
220
0
230
1
0
SOLID
5
1CB
100
AcDbEntity
8
0
62
256
6
ByLayer
370
-1
48
1
60
0
100
AcDbTrace
10
57.463091
20
-26.312561
30
0
11
57.463091
21
-25.145895
31
0
12
60.963091
22
-25.729228
32
0
13
60.963091
23
-25.729228
33
0
39
0
210
0
220
0
230
1
0
SOLID
5
1CC
100
AcDbEntity
8
0
62
256
6
ByLayer
370
-1
48
1
60
0
100
AcDbTrace
10
24.463091
20
-25.145895
30
0
11
24.463091
21
-26.312561
31
0
12
20.963091
22
-25.729228
32
0
13
20.963091
23
-25.729228
33
0
39
0
210
0
220
0
230
1
0
MTEXT
5
1CD
100
AcDbEntity
8
0
62
256
6
ByLayer
370
18
48
1
60
0
100
AcDbMText
10
40.963091
20
-18.729228
30
0
210
0
220
0
230
1
1
\A1;40
40
3.5
41
0
44
1
50
0
71
5
72
5
7
iso_b_vert
0
POINT
5
1CE
100
AcDbEntity
8
Defpoints
62
0
6
ByLayer
370
-1
48
1
60
0
100
AcDbPoint
10
60.963091
20
-10
30
0
39
0
210
0
220
0
230
1
50
360
0
POINT
5
1CF
100
AcDbEntity
8
Defpoints
62
0
6
ByLayer
370
-1
48
1
60
0
100
AcDbPoint
10
20.963091
20
-10
30
0
39
0
210
0
220
0
230
1
50
360
0
POINT
5
1D0
100
AcDbEntity
8
Defpoints
62
0
6
ByLayer
370
-1
48
1
60
0
100
AcDbPoint
10
20.963091
20
-25.729228
30
0
39
0
210
0
220
0
230
1
50
360
0
ENDBLK
5
1C7
100
AcDbEntity
8
0
100
AcDbBlockEnd
0
BLOCK
5
1D8
100
AcDbEntity
8
0
100
AcDbBlockBegin
2
_U0
70
0
10
0
20
0
30
0
3
_U0
0
MTEXT
5
1D2
100
AcDbEntity
8
SK2
62
256
6
ByLayer
370
18
48
1
60
0
100
AcDbMText
10
38.873858
20
-24.696594
30
0
210
0
220
0
230
1
1
\W0.7361;40
40
3.5
41
0
44
1.084337
50
0
71
7
72
5
7
iso_b_vert
0
LINE
5
1D3
100
AcDbEntity
8
SK2
62
256
6
ByLayer
370
13
48
1
60
0
100
AcDbLine
10
60.963091
20
-11.5875
30
0
11
60.963091
21
-27.729228
31
0
39
0
210
0
220
0
230
1
0
LINE
5
1D4
100
AcDbEntity
8
SK2
62
256
6
ByLayer
370
13
48
1
60
0
100
AcDbLine
10
20.963091
20
-11.5875
30
0
11
20.963091
21
-27.729228
31
0
39
0
210
0
220
0
230
1
0
LINE
5
1D5
100
AcDbEntity
8
SK2
62
256
6
ByLayer
370
13
48
1
60
0
100
AcDbLine
10
60.963091
20
-25.729228
30
0
11
20.963091
21
-25.729228
31
0
39
0
210
0
220
0
230
1
0
SOLID
5
1D6
100
AcDbEntity
8
SK2
62
256
6
ByLayer
370
18
48
1
60
0
100
AcDbTrace
10
60.963091
20
-25.729228
30
0
11
57.463092
21
-26.190012
31
0
12
57.463089
22
-25.268444
32
0
13
57.463089
23
-25.268444
33
0
39
0
210
0
220
0
230
1
0
SOLID
5
1D7
100
AcDbEntity
8
SK2
62
256
6
ByLayer
370
18
48
1
60
0
100
AcDbTrace
10
20.963091
20
-25.729228
30
0
11
24.463089
21
-25.268444
31
0
12
24.463092
22
-26.190012
32
0
13
24.463092
23
-26.190012
33
0
39
0
210
0
220
0
230
1
0
ENDBLK
5
1D9
100
AcDbEntity
8
0
100
AcDbBlockEnd
0
BLOCK
5
1DE
100
AcDbEntity
8
0
100
AcDbBlockBegin
2
*D3
70
1
10
0
20
0
30
0
3
*D3
0
LINE
5
1E0
100
AcDbEntity
8
0
62
256
6
ByLayer
370
-2
48
1
60
0
100
AcDbLine
10
60.963091
20
-11.5875
30
0
11
60.963091
21
-42.729228
31
0
39
0
210
0
220
0
230
1
0
LINE
5
1E1
100
AcDbEntity
8
0
62
256
6
ByLayer
370
-2
48
1
60
0
100
AcDbLine
10
0.96077
20
-11.1875
30
0
11
0.96077
21
-42.729228
31
0
39
0
210
0
220
0
230
1
0
LINE
5
1E2
100
AcDbEntity
8
0
62
256
6
ByLayer
370
-2
48
1
60
0
100
AcDbLine
10
57.463091
20
-40.729228
30
0
11
4.46077
21
-40.729228
31
0
39
0
210
0
220
0
230
1
0
SOLID
5
1E3
100
AcDbEntity
8
0
62
256
6
ByLayer
370
-1
48
1
60
0
100
AcDbTrace
10
57.463091
20
-41.312561
30
0
11
57.463091
21
-40.145895
31
0
12
60.963091
22
-40.729228
32
0
13
60.963091
23
-40.729228
33
0
39
0
210
0
220
0
230
1
0
SOLID
5
1E4
100
AcDbEntity
8
0
62
256
6
ByLayer
370
-1
48
1
60
0
100
AcDbTrace
10
4.46077
20
-40.145895
30
0
11
4.46077
21
-41.312561
31
0
12
0.96077
22
-40.729228
32
0
13
0.96077
23
-40.729228
33
0
39
0
210
0
220
0
230
1
0
MTEXT
5
1E5
100
AcDbEntity
8
0
62
256
6
ByLayer
370
18
48
1
60
0
100
AcDbMText
10
30.96193
20
-33.729228
30
0
210
0
220
0
230
1
1
\A1;60
40
3.5
41
0
44
1
50
0
71
5
72
5
7
iso_b_vert
0
POINT
5
1E6
100
AcDbEntity
8
Defpoints
62
0
6
ByLayer
370
-1
48
1
60
0
100
AcDbPoint
10
60.963091
20
-10
30
0
39
0
210
0
220
0
230
1
50
360
0
POINT
5
1E7
100
AcDbEntity
8
Defpoints
62
0
6
ByLayer
370
-1
48
1
60
0
100
AcDbPoint
10
0.96077
20
-9.6
30
0
39
0
210
0
220
0
230
1
50
360
0
POINT
5
1E8
100
AcDbEntity
8
Defpoints
62
0
6
ByLayer
370
-1
48
1
60
0
100
AcDbPoint
10
0.96077
20
-40.729228
30
0
39
0
210
0
220
0
230
1
50
360
0
ENDBLK
5
1DF
100
AcDbEntity
8
0
100
AcDbBlockEnd
0
BLOCK
5
1F0
100
AcDbEntity
8
0
100
AcDbBlockBegin
2
_U1
70
0
10
0
20
0
30
0
3
_U1
0
MTEXT
5
1EA
100
AcDbEntity
8
SK2
62
256
6
ByLayer
370
18
48
1
60
0
100
AcDbMText
10
29.056964
20
-39.696594
30
0
210
0
220
0
230
1
1
\W0.6740;60
40
3.5
41
0
44
1.084337
50
0
71
7
72
5
7
iso_b_vert
0
LINE
5
1EB
100
AcDbEntity
8
SK2
62
256
6
ByLayer
370
13
48
1
60
0
100
AcDbLine
10
60.963091
20
-11.5875
30
0
11
60.963091
21
-42.729228
31
0
39
0
210
0
220
0
230
1
0
LINE
5
1EC
100
AcDbEntity
8
SK2
62
256
6
ByLayer
370
13
48
1
60
0
100
AcDbLine
10
0.96077
20
-11.1875
30
0
11
0.96077
21
-42.729228
31
0
39
0
210
0
220
0
230
1
0
LINE
5
1ED
100
AcDbEntity
8
SK2
62
256
6
ByLayer
370
13
48
1
60
0
100
AcDbLine
10
60.963091
20
-40.729228
30
0
11
0.96077
21
-40.729228
31
0
39
0
210
0
220
0
230
1
0
SOLID
5
1EE
100
AcDbEntity
8
SK2
62
256
6
ByLayer
370
18
48
1
60
0
100
AcDbTrace
10
60.963091
20
-40.729228
30
0
11
57.463092
21
-41.190012
31
0
12
57.463089
22
-40.268444
32
0
13
57.463089
23
-40.268444
33
0
39
0
210
0
220
0
230
1
0
SOLID
5
1EF
100
AcDbEntity
8
SK2
62
256
6
ByLayer
370
18
48
1
60
0
100
AcDbTrace
10
0.96077
20
-40.729228
30
0
11
4.460768
21
-40.268444
31
0
12
4.460771
22
-41.190012
32
0
13
4.460771
23
-41.190012
33
0
39
0
210
0
220
0
230
1
0
ENDBLK
5
1F1
100
AcDbEntity
8
0
100
AcDbBlockEnd
0
ENDSEC
0
SECTION
2
ENTITIES
0
ARC
5
F2
100
AcDbEntity
8
1
62
256
6
ByLayer
370
18
48
1
60
0
100
AcDbCircle
39
0
10
20.002321
20
-10.6
30
0
40
1
210
0
220
0
230
1
100
AcDbArc
50
60
51
90
0
ARC
5
F3
100
AcDbEntity
8
1
62
256
6
ByLayer
370
18
48
1
60
0
100
AcDbCircle
39
0
10
0.96077
20
10.6
30
0
40
1
210
0
220
0
230
1
100
AcDbArc
50
240
51
270
0
ARC
5
F4
100
AcDbEntity
8
1
62
256
6
ByLayer
370
18
48
1
60
0
100
AcDbCircle
39
0
10
0.96077
20
-10.6
30
0
40
1
210
0
220
0
230
1
100
AcDbArc
50
90
51
120
0
ELLIPSE
5
F5
100
AcDbEntity
8
1
62
256
6
ByLayer
370
18
48
1
60
0
100
AcDbEllipse
10
60.528283
20
-1.522104
30
0
11
0.194845692432203
21
-1.88644736990878
31
0
210
0
220
0
230
1
40
0.140893
41
0.36741400544725
42
0.393453670986336
0
ELLIPSE
5
F6
100
AcDbEntity
8
1
62
256
6
ByLayer
370
18
48
1
60
0
100
AcDbEllipse
10
60.843003
20
-0.072041
30
0
11
0.0517306350252229
21
2.81023593733669
31
0
210
0
220
0
230
1
40
0.051625
41
1.41439199959096
42
1.6249318884345
0
ELLIPSE
5
F7
100
AcDbEntity
8
1
62
256
6
ByLayer
370
18
48
1
60
0
100
AcDbEllipse
10
60.67584
20
0.302423
30
0
11
1.37729754714474
21
-0.224538501260186
31
0
210
0
220
0
230
1
40
0.369273
41
-1.73853162825652
42
-1.49653466412374
0
ELLIPSE
5
F8
100
AcDbEntity
8
1
62
256
6
ByLayer
370
18
48
1
60
0
100
AcDbEllipse
10
60.624002
20
-1.619817
30
0
11
0.186960837589437
21
1.51223561098969
31
0
210
0
220
0
230
1
40
0.144001
41
0.68664415376695
42
0.707461695833302
0
ELLIPSE
5
F9
100
AcDbEntity
8
1
62
256
6
ByLayer
370
18
48
1
60
0
100
AcDbEllipse
10
60.376823
20
-1.367645
30
0
11
1.37424051197691
21
0.0767336030549543
31
0
210
0
220
0
230
1
40
0.669376
41
1.35229575591348
42
2.28003774860767
0
ELLIPSE
5
FA
100
AcDbEntity
8
1
62
256
6
ByLayer
370
18
48
1
60
0
100
AcDbEllipse
10
60.67584
20
0.302423
30
0
11
1.3772975460064
21
-0.224538500645297
31
0
210
0
220
0
230
1
40
0.369273
41
2.4228298841679
42
2.67008356877681
0
ELLIPSE
5
FB
100
AcDbEntity
8
1
62
256
6
ByLayer
370
18
48
1
60
0
100
AcDbEllipse
10
30.150256
20
0
30
0
11
17.5301500393105
21
-8.76295669849726
31
0
210
0
220
0
230
1
40
0.223645
41
2.29510136721931
42
2.67061522641369
0
ELLIPSE
5
FC
100
AcDbEntity
8
1
62
256
6
ByLayer
370
18
48
1
60
0
100
AcDbEllipse
10
30.477361
20
0
30
0
11
18.1134758786963
21
5.40063379260694
31
0
210
0
220
0
230
1
40
0.438172
41
-2.68848918785233
42
-2.31138824333435
0
ELLIPSE
5
FD
100
AcDbEntity
8
1
62
256
6
ByLayer
370
18
48
1
60
0
100
AcDbEllipse
10
30.8432
20
0
30
0
11
18.8121988816365
21
-7.07618400917471
31
0
210
0
220
0
230
1
40
0.344856
41
-2.42982862408407
42
-2.05010855575798
0
POINT
5
70
100
AcDbEntity
8
81
62
256
6
ByLayer
370
18
48
1
60
0
100
AcDbPoint
10
60.963091
20
0
30
0
39
0
210
0
220
0
230
1
50
360
0
POINT
5
72
100
AcDbEntity
8
80
62
256
6
ByLayer
370
18
48
1
60
0
100
AcDbPoint
10
0
20
0
30
0
39
0
210
0
220
0
230
1
50
360
0
POINT
5
74
100
AcDbEntity
8
1
62
256
6
ByLayer
370
18
48
1
60
1
100
AcDbPoint
10
60.963091
20
-10
30
0
39
0
210
0
220
0
230
1
50
360
0
POINT
5
76
100
AcDbEntity
8
1
62
256
6
ByLayer
370
18
48
1
60
1
100
AcDbPoint
10
20.963091
20
-10
30
0
39
0
210
0
220
0
230
1
50
360
0
POINT
5
77
100
AcDbEntity
8
1
62
256
6
ByLayer
370
18
48
1
60
1
100
AcDbPoint
10
60.963091
20
-10
30
0
39
0
210
0
220
0
230
1
50
360
0
POINT
5
78
100
AcDbEntity
8
1
62
256
6
ByLayer
370
18
48
1
60
1
100
AcDbPoint
10
0.96077
20
-9.6
30
0
39
0
210
0
220
0
230
1
50
360
0
SPLINE
5
FE
100
AcDbEntity
8
1
62
256
6
ByLayer
370
18
48
1
60
0
100
AcDbSpline
70
4
71
3
72
16
73
12
40
0
40
0
40
0
40
0
40
0.321220063098744
40
0.321220063098744
40
0.481830094648126
40
0.481830094648126
40
0.642440126197508
40
0.642440126197508
40
0.963660189296272
40
0.963660189296272
40
1
40
1
40
1
40
1
41
1
10
60.9500103141955
20
2.4212858865495
30
0
41
1
10
60.9500757583447
20
2.42732407521348
30
0
41
1
10
60.9477778593167
20
2.43308740358324
30
0
41
1
10
60.9408882967383
20
2.44133200342222
30
0
41
1
10
60.9380176540548
20
2.44401343215438
30
0
41
1
10
60.9311121664228
20
2.44924089117964
30
0
41
1
10
60.927053948653
20
2.45179807959695
30
0
41
1
10
60.9132371991772
20
2.45916709645618
30
0
41
1
10
60.9019066751729
20
2.46366198739781
30
0
41
1
10
60.8870204003549
20
2.46821713183806
30
0
41
1
10
60.8854812331779
20
2.46867491255037
30
0
41
1
10
60.8839157552819
20
2.4691275066557
30
0
0
SPLINE
5
FF
100
AcDbEntity
8
1
62
256
6
ByLayer
370
18
48
1
60
0
100
AcDbSpline
70
4
71
3
72
12
73
8
40
0
40
0
40
0
40
0
40
0.577782518133935
40
0.577782518133935
40
0.866673777200918
40
0.866673777200918
40
1
40
1
40
1
40
1
41
1
10
60.9500103141952
20
-7.60948217315573
30
0
41
1
10
60.9500778376761
20
-7.63350129315222
30
0
41
1
10
60.9476300023144
20
-7.6573452156986
30
0
41
1
10
60.9402950657067
20
-7.69285595484098
30
0
41
1
10
60.9372391180511
20
-7.70465031325503
30
0
41
1
10
60.9318644707065
20
-7.72182461925647
30
0
41
1
10
60.9300290978554
20
-7.72725049041429
30
0
41
1
10
60.9280637669984
20
-7.73265485283861
30
0
0
SPLINE
5
100
100
AcDbEntity
8
1
62
256
6
ByLayer
370
18
48
1
60
0
100
AcDbSpline
70
4
71
3
72
12
73
8
40
0
40
0
40
0
40
0
40
0.500000000000007
40
0.500000000000007
40
0.750000000000003
40
0.750000000000003
40
1
40
1
40
1
40
1
41
1
10
20.3011404881062
20
8.66594787701521
30
0
41
1
10
20.3357836509505
20
8.68516370324983
30
0
41
1
10
20.3699289276677
20
8.70608803523825
30
0
41
1
10
20.420373940987
20
8.74012676036074
30
0
41
1
10
20.4370823128248
20
8.75193400169124
30
0
41
1
10
20.470027189814
20
8.77630626545377
30
0
41
1
10
20.4862834150673
20
8.78888311245004
30
0
41
1
10
20.5023210778392
20
8.80185491983158
30
0
0
SPLINE
5
101
100
AcDbEntity
8
1
62
256
6
ByLayer
370
18
48
1
60
0
100
AcDbSpline
70
4
71
3
72
8
73
4
40
0
40
0
40
0
40
0
40
1
40
1
40
1
40
1
41
1
10
20.5023210778392
20
8.80185491983161
30
0
41
1
10
20.6552803538723
20
8.92557358720541
30
0
41
1
10
20.8088856280631
20
9.04820100573068
30
0
41
1
10
20.963090593298
20
9.1698153994455
30
0
0
SPLINE
5
102
100
AcDbEntity
8
1
62
256
6
ByLayer
370
18
48
1
60
0
100
AcDbSpline
70
4
71
3
72
9
73
5
40
0
40
0
40
0
40
0
40
0.998799947758542
40
1
40
1
40
1
40
1
41
1
10
60.7859868218687
20
-8.2076261429938
30
0
41
1
10
60.8410860308785
20
-8.00669602533515
30
0
41
1
10
60.8958154481485
20
-7.80711442608751
30
0
41
1
10
60.9499453563383
20
-7.60971905477649
30
0
41
1
10
60.9500103141929
20
-7.6094821731661
30
0
0
SPLINE
5
103
100
AcDbEntity
8
1
62
256
6
ByLayer
370
18
48
1
60
0
100
AcDbSpline
70
4
71
3
72
8
73
4
40
0
40
0
40
0
40
0
40
1
40
1
40
1
40
1
41
1
10
60.3351039216901
20
9.98935744825343
30
0
41
1
10
60.3684188952158
20
9.98910432733322
30
0
41
1
10
60.4017349617556
20
9.98892075277175
30
0
41
1
10
60.4350516868529
20
9.98880681558364
30
0
0
SPLINE
5
104
100
AcDbEntity
8
1
62
256
6
ByLayer
370
18
48
1
60
0
100
AcDbSpline
70
4
71
3
72
30
73
26
40
0
40
0
40
0
40
0
40
0.124999999999959
40
0.124999999999959
40
0.187499999999935
40
0.187499999999935
40
0.249999999999911
40
0.249999999999911
40
0.374999999999889
40
0.374999999999889
40
0.437499999999897
40
0.437499999999897
40
0.499999999999904
40
0.499999999999904
40
0.624999999999925
40
0.624999999999925
40
0.687499999999938
40
0.687499999999938
40
0.749999999999951
40
0.749999999999951
40
0.874999999999977
40
0.874999999999977
40
0.937499999999988
40
0.937499999999988
40
1
40
1
40
1
40
1
41
1
10
60.9500103141954
20
9.49191309816817
30
0
41
1
10
60.9500766858466
20
9.52042048442829
30
0
41
1
10
60.9477124832574
20
9.54856139456976
30
0
41
1
10
60.9406259779677
20
9.59023897675701
30
0
41
1
10
60.9376734010718
20
9.60404248378899
30
0
41
1
10
60.9305692769392
20
9.63146871999828
30
0
41
1
10
60.926392017729
20
9.64515640824214
30
0
41
1
10
60.9121958619492
20
9.6853623679537
30
0
41
1
10
60.9005565132497
20
9.71101914033
30
0
41
1
10
60.879946335558
20
9.74784241378669
30
0
41
1
10
60.872549401056
20
9.75983896991394
30
0
41
1
10
60.8566843380893
20
9.78326714597966
30
0
41
1
10
60.8481703172113
20
9.79475013583385
30
0
41
1
10
60.8213750220982
20
9.8278081724068
30
0
41
1
10
60.8018404164523
20
9.84805854447112
30
0
41
1
10
60.7701103553444
20
9.87583558964712
30
0
41
1
10
60.7591281853644
20
9.88466067289608
30
0
41
1
10
60.7363389330226
20
9.9014280507883
30
0
41
1
10
60.7244717031241
20
9.90940106382854
30
0
41
1
10
60.6881717614594
20
9.93158385306594
30
0
41
1
10
60.6629851623725
20
9.94414647688012
30
0
41
1
10
60.6237663688401
20
9.95974419705973
30
0
41
1
10
60.6104531206843
20
9.96440127055195
30
0
41
1
10
60.5833365653394
20
9.97260982097956
30
0
41
1
10
60.5694765086761
20
9.97616950570173
30
0
41
1
10
60.5555618367205
20
9.9791120040251
30
0
0
SPLINE
5
105
100
AcDbEntity
8
1
62
256
6
ByLayer
370
18
48
1
60
0
100
AcDbSpline
70
4
71
3
72
8
73
4
40
0
40
0
40
0
40
0
40
1
40
1
40
1
40
1
41
1
10
60.435051686853
20
9.9888068155837
30
0
41
1
10
60.4752136259336
20
9.98547219510516
30
0
41
1
10
60.5153836844137
20
9.98224069951917
30
0
41
1
10
60.5555618367206
20
9.97911200402507
30
0
0
SPLINE
5
106
100
AcDbEntity
8
1
62
256
6
ByLayer
370
18
48
1
60
0
100
AcDbSpline
70
4
71
3
72
26
73
22
40
0
40
0
40
0
40
0
40
0.249999999999991
40
0.249999999999991
40
0.374999999999991
40
0.374999999999991
40
0.499999999999991
40
0.499999999999991
40
0.62499999999999
40
0.62499999999999
40
0.74999999999999
40
0.74999999999999
40
0.81249999999999
40
0.81249999999999
40
0.874999999999991
40
0.874999999999991
40
0.937499999999991
40
0.937499999999991
40
0.968749999999996
40
0.968749999999996
40
1
40
1
40
1
40
1
41
1
10
60.6026918430792
20
-8.70859170426732
30
0
41
1
10
60.6209040903557
20
-8.67464506163557
30
0
41
1
10
60.6390213243381
20
-8.63953372913898
30
0
41
1
10
60.6658142718989
20
-8.58457601063321
30
0
41
1
10
60.6746835714439
20
-8.56586666215671
30
0
41
1
10
60.6922609275622
20
-8.52742819713578
30
0
41
1
10
60.7009559958864
20
-8.50772940567558
30
0
41
1
10
60.7180040451213
20
-8.46719333781707
30
0
41
1
10
60.7263694940887
20
-8.44634407240545
30
0
41
1
10
60.7426123204869
20
-8.40285660020044
30
0
41
1
10
60.7505205887285
20
-8.38015157833161
30
0
41
1
10
60.7614515349269
20
-8.34463692626062
30
0
41
1
10
60.7649653670189
20
-8.33245425508105
30
0
41
1
10
60.7714477191338
20
-8.30778177494994
30
0
41
1
10
60.7744216092739
20
-8.29529430202987
30
0
41
1
10
60.7796093270401
20
-8.26988930576016
30
0
41
1
10
60.7818356182367
20
-8.25680891574461
30
0
41
1
10
60.7841704347899
20
-8.23786950237675
30
0
41
1
10
60.7847894412971
20
-8.23163902036342
30
0
41
1
10
60.7856699709799
20
-8.21936358320286
30
0
41
1
10
60.785925766911
20
-8.21335734316017
30
0
41
1
10
60.7859868218687
20
-8.20762614299221
30
0
0
SPLINE
5
107
100
AcDbEntity
8
1
62
256
6
ByLayer
370
18
48
1
60
0
100
AcDbSpline
70
4
71
3
72
20
73
16
40
0
40
0
40
0
40
0
40
0.0653331644751403
40
0.0653331644751403
40
0.112066506251385
40
0.112066506251385
40
0.158799848027629
40
0.158799848027629
40
0.252266531580115
40
0.252266531580115
40
0.439199898685086
40
0.439199898685086
40
0.626133265790058
40
0.626133265790058
40
1
40
1
40
1
40
1
41
1
10
53.7398317301249
20
8.6053122432121
30
0
41
1
10
53.8835884927656
20
8.65950653387151
30
0
41
1
10
54.027524698961
20
8.71230956097281
30
0
41
1
10
54.2747734994015
20
8.80044774733952
30
0
41
1
10
54.3779855268127
20
8.83647556869118
30
0
41
1
10
54.5846414778138
20
8.90705347122014
30
0
41
1
10
54.6880951261189
20
8.94160533248433
30
0
41
1
10
54.997965832609
20
9.04273196385935
30
0
41
1
10
55.2041811143207
20
9.10687693624683
30
0
41
1
10
55.8219613851801
20
9.28943589809913
30
0
41
1
10
56.2326589804555
20
9.39798227962629
30
0
41
1
10
57.0529204920982
20
9.58866869328091
30
0
41
1
10
57.4624863070073
20
9.67080307007711
30
0
41
1
10
58.6913011205976
20
9.87706810242702
30
0
41
1
10
59.5106601199875
20
9.96112540971004
30
0
41
1
10
60.3351039216903
20
9.98935744825326
30
0
0
SPLINE
5
108
100
AcDbEntity
8
1
62
256
6
ByLayer
370
18
48
1
60
0
100
AcDbSpline
70
4
71
3
72
8
73
4
40
0
40
0
40
0
40
0
40
1
40
1
40
1
40
1
41
1
10
60.3351039216935
20
9.98935744825459
30
0
41
1
10
60.4100314566891
20
9.75861260882607
30
0
41
1
10
60.4902899998549
20
9.52978140972758
30
0
41
1
10
60.5770085946782
20
9.3032691369917
30
0
0
SPLINE
5
109
100
AcDbEntity
8
1
62
256
6
ByLayer
370
13
48
1
60
0
100
AcDbSpline
70
4
71
3
72
8
73
4
40
0
40
0
40
0
40
0
40
1
40
1
40
1
40
1
41
1
10
24.7431248509134
20
-8.7235039993653
30
0
41
1
10
23.4831134317082
20
-8.82154913375407
30
0
41
1
10
22.223102012503
20
-8.80627341636841
30
0
41
1
10
20.9630905932978
20
-8.67461612326665
30
0
0
SPLINE
5
10A
100
AcDbEntity
8
1
62
256
6
ByLayer
370
18
48
1
60
0
100
AcDbSpline
70
4
71
3
72
41
73
37
40
0
40
0
40
0
40
0
40
0.0949149328620457
40
0.0949149328620457
40
0.189829865724091
40
0.189829865724091
40
0.213558598939603
40
0.213558598939603
40
0.237287332155115
40
0.237287332155115
40
0.284744798586138
40
0.284744798586138
40
0.379659731448182
40
0.379659731448182
40
0.427117197879205
40
0.427117197879205
40
0.474574664310228
40
0.474574664310228
40
0.569489597172276
40
0.569489597172276
40
0.616947063603299
40
0.616947063603299
40
0.640675796818811
40
0.640675796818811
40
0.664404530034323
40
0.664404530034323
40
0.75931946289637
40
0.75931946289637
40
0.854234395758418
40
0.854234395758418
40
0.877963128973927
40
0.877963128973927
40
0.901691862189436
40
0.949149328620454
40
0.949149328620454
40
1
40
1
40
1
40
1
41
1
10
60.5770086163566
20
9.30326914495723
30
0
41
1
10
60.6115927165566
20
9.21294179284047
30
0
41
1
10
60.6416371529838
20
9.12151759752496
30
0
41
1
10
60.6912755243117
20
8.9361442297635
30
0
41
1
10
60.7108791748098
20
8.84219740400061
30
0
41
1
10
60.727594428139
20
8.72288187211876
30
0
41
1
10
60.7305459474426
20
8.69892416661651
30
0
41
1
10
60.7356249626755
20
8.65080966072856
30
0
41
1
10
60.7377548144406
20
8.62661723148523
30
0
41
1
10
60.7428233026022
20
8.5539760539738
30
0
41
1
10
60.7444313866217
20
8.50568580226008
30
0
41
1
10
60.7437015048354
20
8.36124535005186
30
0
41
1
10
60.7358249174428
20
8.26552425068815
30
0
41
1
10
60.7117029486681
20
8.12289608531373
30
0
41
1
10
60.7016074017948
20
8.07551256484578
30
0
41
1
10
60.677053163938
20
7.98108355568212
30
0
41
1
10
60.6627748528364
20
7.93474228114854
30
0
41
1
10
60.6141632781325
20
7.79843340857661
30
0
41
1
10
60.5740377221744
20
7.71109995515255
30
0
41
1
10
60.5028866671609
20
7.58512689126493
30
0
41
1
10
60.4773412161671
20
7.54397432453246
30
0
41
1
10
60.4363473868755
20
7.48347243419855
30
0
41
1
10
60.4222494131917
20
7.46353270991645
30
0
41
1
10
60.3934442578429
20
7.42440366274127
30
0
41
1
10
60.3787069391578
20
7.40516904570785
30
0
41
1
10
60.3034300824182
20
7.3105632566689
30
0
41
1
10
60.2381422091212
20
7.23987184264791
30
0
41
1
10
60.0991706023054
20
7.10676361863074
30
0
41
1
10
60.0254803647213
20
7.04435321876582
30
0
41
1
10
59.9289154239839
20
6.97072806314341
30
0
41
1
10
59.9093938254803
20
6.95623566806395
30
0
41
1
10
59.8701270538609
20
6.92781752705289
30
0
41
1
10
59.8108177599117
20
6.88598436451781
30
0
41
1
10
59.7503545359105
20
6.84639074046748
30
0
41
1
10
59.6659060417003
20
6.79355334273123
30
0
41
1
10
59.6217004383603
20
6.7672396413432
30
0
41
1
10
59.5770224634977
20
6.74184271493849
30
0
0
SPLINE
5
10B
100
AcDbEntity
8
1
62
256
6
ByLayer
370
13
48
1
60
0
100
AcDbSpline
70
4
71
3
72
9
73
5
40
0
40
0
40
0
40
0
40
0.790982355028332
40
1
40
1
40
1
40
1
41
1
10
60.5770086128056
20
9.3032691454539
30
0
41
1
10
59.0390359396363
20
9.25870801130091
30
0
41
1
10
57.0946529032864
20
8.97282277664618
30
0
41
1
10
55.1502698669364
20
8.41548626065148
30
0
41
1
10
54.7438595037557
20
8.28775778778916
30
0
0
SPLINE
5
10C
100
AcDbEntity
8
1
62
256
6
ByLayer
370
13
48
1
60
0
100
AcDbSpline
70
4
71
3
72
9
73
5
40
0
40
0
40
0
40
0
40
0.179402899087865
40
1
40
1
40
1
40
1
41
1
10
27.0562147274707
20
-8.51267233588581
30
0
41
1
10
26.6918400160797
20
-8.59107786407429
30
0
41
1
10
24.6607986380222
20
-8.97646067387532
30
0
41
1
10
22.6297572599646
20
-9.06564739162454
30
0
41
1
10
20.9630905932979
20
-8.92937626482896
30
0
0
SPLINE
5
10D
100
AcDbEntity
8
1
62
256
6
ByLayer
370
18
48
1
60
0
100
AcDbSpline
70
4
71
3
72
24
73
20
40
0
40
0
40
0
40
0
40
0.0900819008216911
40
0.0900819008216911
40
0.272065520657347
40
0.272065520657347
40
0.317561425616264
40
0.317561425616264
40
0.363057330575181
40
0.363057330575181
40
0.454049140493012
40
0.454049140493012
40
0.545040950410842
40
0.545040950410842
40
0.636032760328672
40
0.636032760328672
40
0.818016380164336
40
0.818016380164336
40
1
40
1
40
1
40
1
41
1
10
27.7415126479407
20
-8.77408123647265
30
0
41
1
10
27.5381551690427
20
-8.83341748518501
30
0
41
1
10
27.3348150747511
20
-8.88980560242751
30
0
41
1
10
26.7205552071072
20
-9.05113608329364
30
0
41
1
10
26.3095195555092
20
-9.14689324762071
30
0
41
1
10
25.7949441174993
20
-9.25064388189639
30
0
41
1
10
25.6919896289421
20
-9.27059555994765
30
0
41
1
10
25.4859853956541
20
-9.3088786060145
30
0
41
1
10
25.3829072593937
20
-9.3272148392241
30
0
41
1
10
25.0736968818037
20
-9.37972216071083
30
0
41
1
10
24.8678596911697
20
-9.41131779617587
30
0
41
1
10
24.4565856024078
20
-9.46777846690395
30
0
41
1
10
24.2511141032426
20
-9.49273697169502
30
0
41
1
10
23.8403304278713
20
-9.53618072363562
30
0
41
1
10
23.6350281322661
20
-9.55463968858922
30
0
41
1
10
23.0192204673523
20
-9.60003933334744
30
0
41
1
10
22.6087911301885
20
-9.61706582239998
30
0
41
1
10
21.7869296401685
20
-9.62459738374432
30
0
41
1
10
21.3755189077997
20
-9.61503963066991
30
0
41
1
10
20.9630905932979
20
-9.59175512495452
30
0
0
SPLINE
5
10E
100
AcDbEntity
8
1
62
256
6
ByLayer
370
18
48
1
60
0
100
AcDbSpline
70
4
71
3
72
11
73
7
40
0
40
0
40
0
40
0
40
0.142226124742297
40
0.337376477178664
40
0.727677182051397
40
1
40
1
40
1
40
1
41
1
10
20.8317335427749
20
-9.8880897079483
30
0
41
1
10
20.9452293257536
20
-9.88100124844388
30
0
41
1
10
21.2144929031938
20
-9.86170823409515
30
0
41
1
10
21.7954405554692
20
-9.80730142043205
30
0
41
1
10
22.4805244430901
20
-9.71726794949308
30
0
41
1
10
23.0098324580748
20
-9.62544760396798
30
0
41
1
10
23.2273588516956
20
-9.58399343981938
30
0
0
SPLINE
5
10F
100
AcDbEntity
8
1
62
256
6
ByLayer
370
18
48
1
60
0
100
AcDbSpline
70
4
71
3
72
9
73
5
40
0
40
0
40
0
40
0
40
0.161237491662446
40
1
40
1
40
1
40
1
41
1
10
26.9242535569478
20
-8.45942984249072
30
0
41
1
10
26.6038659023978
20
-8.51228539581873
30
0
41
1
10
24.6168115811811
20
-8.79597004803307
30
0
41
1
10
22.6297572599644
20
-8.80089717421086
30
0
41
1
10
20.9630905932978
20
-8.60192406912009
30
0
0
SPLINE
5
110
100
AcDbEntity
8
1
62
256
6
ByLayer
370
18
48
1
60
0
100
AcDbSpline
70
4
71
3
72
8
73
4
40
0
40
0
40
0
40
0
40
1
40
1
40
1
40
1
41
1
10
20.9630905932979
20
-9.59175512495415
30
0
41
1
10
20.7198576377334
20
-9.58218646296334
30
0
41
1
10
20.4777003698526
20
-9.56905289677491
30
0
41
1
10
20.2367103862738
20
-9.55205086879116
30
0
0
SPLINE
5
111
100
AcDbEntity
8
1
62
256
6
ByLayer
370
18
48
1
60
0
100
AcDbSpline
70
4
71
3
72
8
73
4
40
0
40
0
40
0
40
0
40
1
40
1
40
1
40
1
41
1
10
60.423943861153
20
-7.70257429458476
30
0
41
1
10
60.4694341875742
20
-7.70220719757575
30
0
41
1
10
60.5149343060029
20
-7.70193574783744
30
0
41
1
10
60.5604441825369
20
-7.70175961421427
30
0
0
SPLINE
5
112
100
AcDbEntity
8
1
62
256
6
ByLayer
370
18
48
1
60
0
100
AcDbSpline
70
4
71
3
72
24
73
20
40
0
40
0
40
0
40
0
40
0.125
40
0.125
40
0.250000000000001
40
0.250000000000001
40
0.375000000000001
40
0.375000000000001
40
0.437500000000003
40
0.437500000000003
40
0.500000000000005
40
0.500000000000005
40
0.625000000000004
40
0.625000000000004
40
0.687500000000003
40
0.687500000000003
40
0.750000000000002
40
0.750000000000002
40
1
40
1
40
1
40
1
41
1
10
59.3579564154074
20
6.93242511592302
30
0
41
1
10
59.3770728466007
20
6.92715355581416
30
0
41
1
10
59.3976014480606
20
6.91689252478474
30
0
41
1
10
59.4411889760523
20
6.8874303344289
30
0
41
1
10
59.464249350638
20
6.86822405884666
30
0
41
1
10
59.5127228788338
20
6.82149868393861
30
0
41
1
10
59.5381367658201
20
6.79397699345262
30
0
41
1
10
59.5779492343251
20
6.74671757311197
30
0
41
1
10
59.5915285289947
20
6.72993214715734
30
0
41
1
10
59.6190868855769
20
6.69459377408626
30
0
41
1
10
59.6330669022334
20
6.6760428540893
30
0
41
1
10
59.6755877635516
20
6.61784017889789
30
0
41
1
10
59.7047080444801
20
6.57564454547517
30
0
41
1
10
59.7494895138693
20
6.50751720387206
30
0
41
1
10
59.76460054054
20
6.48400085123583
30
0
41
1
10
59.7951845562412
20
6.43537903561872
30
0
41
1
10
59.8106470700277
20
6.41028891600374
30
0
41
1
10
59.888488280406
20
6.28153091945171
30
0
41
1
10
59.952709435041
20
6.16759767236468
30
0
41
1
10
60.0187661716474
20
6.04336914303042
30
0
0
SPLINE
5
113
100
AcDbEntity
8
1
62
256
6
ByLayer
370
18
48
1
60
0
100
AcDbSpline
70
4
71
3
72
45
73
41
40
0
40
0
40
0
40
0
40
0.0624999999999962
40
0.0624999999999962
40
0.093749999999998
40
0.093749999999998
40
0.109375000000001
40
0.109375000000001
40
0.125000000000005
40
0.125000000000005
40
0.187500000000015
40
0.187500000000015
40
0.218750000000019
40
0.218750000000019
40
0.250000000000023
40
0.250000000000023
40
0.312500000000031
40
0.312500000000031
40
0.375000000000039
40
0.375000000000039
40
0.437500000000047
40
0.437500000000047
40
0.468750000000049
40
0.468750000000049
40
0.50000000000005
40
0.50000000000005
40
0.562500000000045
40
0.562500000000045
40
0.625000000000041
40
0.625000000000041
40
0.656250000000039
40
0.656250000000039
40
0.687500000000036
40
0.750000000000032
40
0.750000000000032
40
0.812500000000028
40
0.812500000000028
40
0.875000000000023
40
0.875000000000023
40
1
40
1
40
1
40
1
41
1
10
59.4864912504136
20
0.733482123639448
30
0
41
1
10
59.4560616511734
20
0.718207724691837
30
0
41
1
10
59.4307186472993
20
0.699240143718583
30
0
41
1
10
59.399114876941
20
0.666997455379772
30
0
41
1
10
59.3896572555859
20
0.655608475999628
30
0
41
1
10
59.3769954862988
20
0.637717583565006
30
0
41
1
10
59.3730210952551
20
0.63160473581766
30
0
41
1
10
59.3656130390921
20
0.619205544550709
30
0
41
1
10
59.3621830444195
20
0.612928576735129
30
0
41
1
10
59.3463216327486
20
0.581215935251635
30
0
41
1
10
59.3377177524565
20
0.554817565976464
30
0
41
1
10
59.3299069942186
20
0.514510849703441
30
0
41
1
10
59.32816014062
20
0.500952981751567
30
0
41
1
10
59.3262803402274
20
0.473695100542216
30
0
41
1
10
59.3261486202034
20
0.459975582269095
30
0
41
1
10
59.3280723804531
20
0.418859151628339
30
0
41
1
10
59.3324010495166
20
0.391867725732879
30
0
41
1
10
59.346382487997
20
0.339142621843877
30
0
41
1
10
59.3560416155062
20
0.313406986034551
30
0
41
1
10
59.3803888871525
20
0.263506561790393
30
0
41
1
10
59.3950791061023
20
0.239341260771653
30
0
41
1
10
59.4209134258568
20
0.204458542949311
30
0
41
1
10
59.4301289384047
20
0.193105392821195
30
0
41
1
10
59.4496301739287
20
0.17109596589043
30
0
41
1
10
59.4599326428663
20
0.160416809153645
30
0
41
1
10
59.4924768250398
20
0.129346785696356
30
0
41
1
10
59.5163494601808
20
0.109926088240314
30
0
41
1
10
59.5685048366783
20
0.0735650684412406
30
0
41
1
10
59.5967883632307
20
0.0566259800364151
30
0
41
1
10
59.6427001439359
20
0.0329241423599171
30
0
41
1
10
59.6586186082762
20
0.0252955010033133
30
0
41
1
10
59.6912820277703
20
0.0107265805403927
30
0
41
1
10
59.7416285722991
20
-0.0101593207229769
30
0
41
1
10
59.7960013886653
20
-0.0284693646120502
30
0
41
1
10
59.8720931704927
20
-0.0512545570416876
30
0
41
1
10
59.9119372506977
20
-0.0618319624673518
30
0
41
1
10
59.9952864344087
20
-0.0821278768369211
30
0
41
1
10
60.0389819883202
20
-0.091882682950768
30
0
41
1
10
60.1729466169841
20
-0.120660725772382
30
0
41
1
10
60.266720552206
20
-0.139349425641456
30
0
41
1
10
60.364148376995
20
-0.161551170219724
30
0
0
SPLINE
5
114
100
AcDbEntity
8
1
62
256
6
ByLayer
370
18
48
1
60
0
100
AcDbSpline
70
4
71
3
72
16
73
12
40
0
40
0
40
0
40
0
40
0.24999999999997
40
0.24999999999997
40
0.49999999999994
40
0.49999999999994
40
0.624999999999945
40
0.624999999999945
40
0.74999999999995
40
0.74999999999995
40
1
40
1
40
1
40
1
41
1
10
56.5561215803709
20
1.3378890840273
30
0
41
1
10
56.564279882994
20
1.35405229656664
30
0
41
1
10
56.5724771730752
20
1.37159059861298
30
0
41
1
10
56.5892150488281
20
1.40934722915003
30
0
41
1
10
56.5977939099793
20
1.42966575149751
30
0
41
1
10
56.6108422608461
20
1.46163623743536
30
0
41
1
10
56.6152271802229
20
1.47255476256396
30
0
41
1
10
56.624084806838
20
1.49491587726914
30
0
41
1
10
56.6285654799654
20
1.5063795802877
30
0
41
1
10
56.6420403995347
20
1.54126251155495
30
0
41
1
10
56.6511003767158
20
1.5652449638423
30
0
41
1
10
56.6602484281404
20
1.5899614050287
30
0
0
SPLINE
5
115
100
AcDbEntity
8
1
62
256
6
ByLayer
370
18
48
1
60
0
100
AcDbSpline
70
4
71
3
72
14
73
10
40
0
40
0
40
0
40
0
40
0.556677310272947
40
0.556677310272947
40
0.835015965409445
40
0.835015965409445
40
0.974185292977694
40
0.974185292977694
40
1
40
1
40
1
40
1
41
1
10
59.4428593435676
20
-0.719559094229567
30
0
41
1
10
59.3747759474632
20
-0.763894374830812
30
0
41
1
10
59.3134891195213
20
-0.813582361582377
30
0
41
1
10
59.2320293263181
20
-0.894445678833478
30
0
41
1
10
59.2066265154958
20
-0.922470234522109
30
0
41
1
10
59.171272654297
20
-0.966053693559218
30
0
41
1
10
59.1599472734741
20
-0.980840455105096
30
0
41
1
10
59.1470856405407
20
-0.998680781140166
30
0
41
1
10
59.1450928020445
20
-1.00147679758183
30
0
41
1
10
59.143119567155
20
-1.00427732069258
30
0
0
SPLINE
5
116
100
AcDbEntity
8
1
62
256
6
ByLayer
370
18
48
1
60
0
100
AcDbSpline
70
4
71
3
72
8
73
4
40
0
40
0
40
0
40
0
40
1
40
1
40
1
40
1
41
1
10
60.0187661746359
20
6.04336914322136
30
0
41
1
10
60.0298360453859
20
6.02255031729115
30
0
41
1
10
60.0406951727013
20
6.00292784725818
30
0
41
1
10
60.0513281111594
20
5.98458942706955
30
0
0
SPLINE
5
117
100
AcDbEntity
8
1
62
256
6
ByLayer
370
13
48
1
60
0
100
AcDbSpline
70
4
71
3
72
8
73
4
40
0
40
0
40
0
40
0
40
1
40
1
40
1
40
1
41
1
10
60.0187661758593
20
6.04336914488462
30
0
41
1
10
59.8725109108759
20
6.10753585882728
30
0
41
1
10
59.7262556458925
20
6.17078579425691
30
0
41
1
10
59.580000380909
20
6.23309281966451
30
0
0
SPLINE
5
118
100
AcDbEntity
8
1
62
256
6
ByLayer
370
18
48
1
60
0
100
AcDbSpline
70
4
71
3
72
10
73
6
40
0
40
0
40
0
40
0
40
0.753948042360086
40
0.753948042360086
40
1
40
1
40
1
40
1
41
1
10
60.2816475853124
20
-6.91070404736533
30
0
41
1
10
60.3149819355849
20
-7.11127736028433
30
0
41
1
10
60.3480020350681
20
-7.30995982123369
30
0
41
1
10
60.3912911991806
20
-7.57043140650725
30
0
41
1
10
60.4018994741027
20
-7.63426156453048
30
0
41
1
10
60.4124660067246
20
-7.69784055847211
30
0
0
SPLINE
5
119
100
AcDbEntity
8
1
62
256
6
ByLayer
370
18
48
1
60
0
100
AcDbSpline
70
4
71
3
72
8
73
4
40
0
40
0
40
0
40
0
40
1
40
1
40
1
40
1
41
1
10
60.4400812652767
20
-7.64469993265533
30
0
41
1
10
60.4307310668683
20
-7.66226236908869
30
0
41
1
10
60.4220016614989
20
-7.67999437830395
30
0
41
1
10
60.4137838786133
20
-7.69786614776532
30
0
0
SPLINE
5
11A
100
AcDbEntity
8
1
62
256
6
ByLayer
370
18
48
1
60
0
100
AcDbSpline
70
4
71
3
72
30
73
26
40
0
40
0
40
0
40
0
40
0.12499999999999
40
0.12499999999999
40
0.187499999999992
40
0.187499999999992
40
0.249999999999993
40
0.249999999999993
40
0.375000000000014
40
0.375000000000014
40
0.437500000000008
40
0.437500000000008
40
0.500000000000002
40
0.500000000000002
40
0.624999999999953
40
0.624999999999953
40
0.687499999999952
40
0.687499999999952
40
0.749999999999951
40
0.749999999999951
40
0.874999999999948
40
0.874999999999948
40
0.937499999999974
40
0.937499999999974
40
1
40
1
40
1
40
1
41
1
10
60.9500103141952
20
-7.3578769875808
30
0
41
1
10
60.9500762003582
20
-7.37909623864357
30
0
41
1
10
60.9477468194236
20
-7.39991820041328
30
0
41
1
10
60.9407637463643
20
-7.43057244226102
30
0
41
1
10
60.9378542017039
20
-7.44069401413196
30
0
41
1
10
60.9308544195217
20
-7.46074132308243
30
0
41
1
10
60.9267395773572
20
-7.47071325075589
30
0
41
1
10
60.9127426134942
20
-7.49993363576334
30
0
41
1
10
60.9012654016398
20
-7.51845207406774
30
0
41
1
10
60.8809441242905
20
-7.54483782863286
30
0
41
1
10
60.8736510875282
20
-7.55340033390848
30
0
41
1
10
60.858011213274
20
-7.57005301878604
30
0
41
1
10
60.8496198074833
20
-7.57817940265366
30
0
41
1
10
60.8231670692343
20
-7.60150205696851
30
0
41
1
10
60.8038818579705
20
-7.61563948502069
30
0
41
1
10
60.7725612658044
20
-7.63479949488988
30
0
41
1
10
60.761721219163
20
-7.64084424204026
30
0
41
1
10
60.7392308031216
20
-7.65224080561887
30
0
41
1
10
60.7275203963337
20
-7.6576139642726
30
0
41
1
10
60.6916159649422
20
-7.67244602090327
30
0
41
1
10
60.666704505666
20
-7.68063317037428
30
0
41
1
10
60.6279196577775
20
-7.6904412227596
30
0
41
1
10
60.6147544976769
20
-7.69329741336693
30
0
41
1
10
60.5879431707697
20
-7.6981708257259
30
0
41
1
10
60.5742391580206
20
-7.70019284123438
30
0
41
1
10
60.5604441825369
20
-7.7017596142143
30
0
0
SPLINE
5
11B
100
AcDbEntity
8
1
62
256
6
ByLayer
370
18
48
1
60
0
100
AcDbSpline
70
4
71
3
72
9
73
5
40
0
40
0
40
0
40
0
40
0.998799947759777
40
1
40
1
40
1
40
1
41
1
10
60.7859868218686
20
-6.37094503949837
30
0
41
1
10
60.841086030879
20
-6.70247785175064
30
0
41
1
10
60.8958154481491
20
-7.03178562125143
30
0
41
1
10
60.9499453563383
20
-7.35748613512874
30
0
41
1
10
60.9500103141928
20
-7.35787698756684
30
0
0
SPLINE
5
11C
100
AcDbEntity
8
1
62
256
6
ByLayer
370
13
48
1
60
0
100
AcDbSpline
70
4
71
3
72
8
73
4
40
0
40
0
40
0
40
0
40
1
40
1
40
1
40
1
41
1
10
60.4400812652765
20
-7.64469993265533
30
0
41
1
10
60.4013598317727
20
-7.41171245471207
30
0
41
1
10
60.3621146590411
20
-7.17557362955117
30
0
41
1
10
60.3224520613018
20
-6.93692315151466
30
0
0
SPLINE
5
11D
100
AcDbEntity
8
1
62
256
6
ByLayer
370
18
48
1
60
0
100
AcDbSpline
70
4
71
3
72
28
73
24
40
0
40
0
40
0
40
0
40
0.249999999999953
40
0.249999999999953
40
0.374999999999973
40
0.374999999999973
40
0.499999999999993
40
0.499999999999993
40
0.625000000000013
40
0.625000000000013
40
0.687500000000104
40
0.687500000000104
40
0.750000000000194
40
0.750000000000194
40
0.781250000000239
40
0.781250000000239
40
0.812500000000283
40
0.812500000000283
40
0.875000000000189
40
0.875000000000189
40
0.937500000000094
40
0.937500000000094
40
1
40
1
40
1
40
1
41
1
10
60.560444182537
20
-7.70175961421427
30
0
41
1
10
60.5535161162616
20
-7.690996739648
30
0
41
1
10
60.546265677124
20
-7.68034166241361
30
0
41
1
10
60.5344584378457
20
-7.66468743109039
30
0
41
1
10
60.5303609725337
20
-7.65952110401338
30
0
41
1
10
60.5217127535926
20
-7.64942048662346
30
0
41
1
10
60.5171568722406
20
-7.64446794822447
30
0
41
1
10
60.5072799671348
20
-7.63502540397758
30
0
41
1
10
60.5019523215254
20
-7.63047611200304
30
0
41
1
10
60.4927956201685
20
-7.62463347532344
30
0
41
1
10
60.4895389819853
20
-7.62284504963671
30
0
41
1
10
60.4823184957933
20
-7.61998625183156
30
0
41
1
10
60.4783470925449
20
-7.61893381324393
30
0
41
1
10
60.4720763789173
20
-7.61868661291541
30
0
41
1
10
60.4699089822197
20
-7.61883899038841
30
0
41
1
10
60.4657792524561
20
-7.61964046873157
30
0
41
1
10
60.4637491054041
20
-7.62030029095192
30
0
41
1
10
60.4581546064385
20
-7.62281603727916
30
0
41
1
10
60.4550055090705
20
-7.62518795576457
30
0
41
1
10
60.4496726116936
20
-7.63028427814689
30
0
41
1
10
60.447409798207
20
-7.63307598426849
30
0
41
1
10
60.4434121024248
20
-7.63878388069151
30
0
41
1
10
60.4416690439659
20
-7.64171761494609
30
0
41
1
10
60.4400812652766
20
-7.64469993265593
30
0
0
SPLINE
5
11E
100
AcDbEntity
8
1
62
256
6
ByLayer
370
18
48
1
60
0
100
AcDbSpline
70
4
71
3
72
28
73
24
40
0
40
0
40
0
40
0
40
0.24999999999999
40
0.24999999999999
40
0.374999999999985
40
0.374999999999985
40
0.499999999999979
40
0.499999999999979
40
0.624999999999973
40
0.624999999999973
40
0.749999999999968
40
0.749999999999968
40
0.812499999999974
40
0.812499999999974
40
0.874999999999981
40
0.874999999999981
40
0.906249999999986
40
0.906249999999986
40
0.93749999999999
40
0.93749999999999
40
0.968749999999995
40
0.968749999999995
40
1
40
1
40
1
40
1
41
1
10
60.6047673822783
20
-6.24480386693878
30
0
41
1
10
60.6228052655209
20
-6.27015599082515
30
0
41
1
10
60.6407264830295
20
-6.29426076498566
30
0
41
1
10
60.6672471580852
20
-6.32748103689036
30
0
41
1
10
60.6760408377465
20
-6.33807708606361
30
0
41
1
10
60.6934208358648
20
-6.35792035231052
30
0
41
1
10
60.7020029026618
20
-6.36716750822112
30
0
41
1
10
60.7188676996046
20
-6.38379124171922
30
0
41
1
10
60.7271529613827
20
-6.39118363967489
30
0
41
1
10
60.7432655655495
20
-6.40310686123445
30
0
41
1
10
60.7510251489134
20
-6.40761361345255
30
0
41
1
10
60.7618151240837
20
-6.41054922266142
30
0
41
1
10
60.7652829676825
20
-6.41087249620935
30
0
41
1
10
60.7716725203626
20
-6.40969446765686
30
0
41
1
10
60.7746115844757
20
-6.40821118468833
30
0
41
1
10
60.7784642249487
20
-6.40404198961059
30
0
41
1
10
60.7796576655692
20
-6.40231179929967
30
0
41
1
10
60.7817608978293
20
-6.3981489184126
30
0
41
1
10
60.7826779785277
20
-6.39571179849918
30
0
41
1
10
60.7842059244482
20
-6.39002799826972
30
0
41
1
10
60.7848196120587
20
-6.38675525826824
30
0
41
1
10
60.7856804482868
20
-6.37940389970547
30
0
41
1
10
60.7859266124686
20
-6.37536018565163
30
0
41
1
10
60.7859868218689
20
-6.37094503949348
30
0
0
SPLINE
5
11F
100
AcDbEntity
8
1
62
256
6
ByLayer
370
18
48
1
60
0
100
AcDbSpline
70
4
71
3
72
8
73
4
40
0
40
0
40
0
40
0
40
1
40
1
40
1
40
1
41
1
10
37.7374079783078
20
5.79984605456326
30
0
41
1
10
37.7961595791044
20
5.80002002790863
30
0
41
1
10
37.8549111799011
20
5.80005218059668
30
0
41
1
10
37.9136627806978
20
5.79994244370852
30
0
0
SPLINE
5
120
100
AcDbEntity
8
1
62
256
6
ByLayer
370
13
48
1
60
0
100
AcDbSpline
70
4
71
3
72
13
73
9
40
0
40
0
40
0
40
0
40
0.0549667957278757
40
0.275827611951874
40
0.496688428175872
40
0.71754924439987
40
0.938410060623868
40
1
40
1
40
1
40
1
41
1
10
45.3409024131169
20
5.04721321195382
30
0
41
1
10
45.5482984731772
20
5.00647966437145
30
0
41
1
10
46.5890278665708
20
4.7943760672309
30
0
41
1
10
48.4630905932978
20
4.34453599669575
30
0
41
1
10
50.9630905932978
20
3.61581603637799
30
0
41
1
10
53.4630905932978
20
2.78142748167283
30
0
41
1
10
55.3621432049121
20
2.08469132416417
30
0
41
1
10
56.427862483193
20
1.67902228472374
30
0
41
1
10
56.6602484281406
20
1.58996140502867
30
0
0
SPLINE
5
121
100
AcDbEntity
8
1
62
256
6
ByLayer
370
18
48
1
60
0
100
AcDbSpline
70
4
71
3
72
30
73
26
40
0
40
0
40
0
40
0
40
0.124999999999964
40
0.249999999999927
40
0.249999999999927
40
0.281249999999918
40
0.281249999999918
40
0.312499999999909
40
0.374999999999892
40
0.374999999999892
40
0.499999999999877
40
0.499999999999877
40
0.56249999999988
40
0.56249999999988
40
0.624999999999883
40
0.624999999999883
40
0.749999999999888
40
0.749999999999888
40
0.781249999999903
40
0.781249999999903
40
0.812499999999917
40
0.812499999999917
40
0.874999999999944
40
0.874999999999944
40
1
40
1
40
1
40
1
41
1
10
56.6602484281404
20
1.5899614050287
30
0
41
1
10
56.6819056187732
20
1.64847767394699
30
0
41
1
10
56.7333219281703
20
1.76222355999843
30
0
41
1
10
56.800050415984
20
1.86986489147083
30
0
41
1
10
56.8467329501831
20
1.93514186700088
30
0
41
1
10
56.8563337586105
20
1.94811220651519
30
0
41
1
10
56.8758715180019
20
1.97361950933814
30
0
41
1
10
56.9057381358578
20
2.01131068127683
30
0
41
1
10
56.9372676965244
20
2.04731101330191
30
0
41
1
10
57.0025520350056
20
2.1170536080561
30
0
41
1
10
57.0490219459022
20
2.16055760490804
30
0
41
1
10
57.1235238983024
20
2.22097103932222
30
0
41
1
10
57.1492376455412
20
2.2403370620745
30
0
41
1
10
57.2014201768314
20
2.27668584454929
30
0
41
1
10
57.2279888418886
20
2.2937577112358
30
0
41
1
10
57.3091807479221
20
2.34164409932401
30
0
41
1
10
57.3652772026399
20
2.36915374473943
30
0
41
1
10
57.4382159153837
20
2.39759416391396
30
0
41
1
10
57.4529455702358
20
2.40298298186363
30
0
41
1
10
57.4827019547196
20
2.41314320678274
30
0
41
1
10
57.4977298192489
20
2.4179127158329
30
0
41
1
10
57.5428539244664
20
2.43114909328437
30
0
41
1
10
57.5731284606196
20
2.43859454522109
30
0
41
1
10
57.6645872470639
20
2.45679448119316
30
0
41
1
10
57.7264037638718
20
2.46343324759519
30
0
41
1
10
57.7892549082472
20
2.4643209532673
30
0
0
SPLINE
5
122
100
AcDbEntity
8
1
62
256
6
ByLayer
370
18
48
1
60
0
100
AcDbSpline
70
4
71
3
72
14
73
10
40
0
40
0
40
0
40
0
40
0.149117454005599
40
0.149117454005599
40
0.290931211671334
40
0.290931211671334
40
0.432744969337069
40
0.432744969337069
40
1
40
1
40
1
40
1
41
1
10
59.3946660378353
20
-7.26345205280128
30
0
41
1
10
59.4134112826917
20
-7.34051650880971
30
0
41
1
10
59.4329360413013
20
-7.41570939703578
30
0
41
1
10
59.4725671896789
20
-7.55871974960405
30
0
41
1
10
59.4925986476908
20
-7.62671712079211
30
0
41
1
10
59.534108414854
20
-7.75923805662245
30
0
41
1
10
59.5555965432916
20
-7.82378143685642
30
0
41
1
10
59.6662691590169
20
-8.13649322138139
30
0
41
1
10
59.7654171068703
20
-8.3557555027802
30
0
41
1
10
59.875368691538
20
-8.54354614023745
30
0
0
SPLINE
5
123
100
AcDbEntity
8
1
62
256
6
ByLayer
370
18
48
1
60
0
100
AcDbSpline
70
4
71
3
72
14
73
10
40
0
40
0
40
0
40
0
40
0.299227575030169
40
0.299227575030169
40
0.598455150060339
40
0.598455150060339
40
0.897682725090508
40
0.897682725090508
40
1
40
1
40
1
40
1
41
1
10
56.0706604954014
20
-6.17108742431083
30
0
41
1
10
56.3435056086821
20
-6.27366418575053
30
0
41
1
10
56.616374175804
20
-6.36826162868658
30
0
41
1
10
57.1621546399321
20
-6.54271509336351
30
0
41
1
10
57.4350665476267
20
-6.62256747882441
30
0
41
1
10
57.9809314178232
20
-6.76830484109092
30
0
41
1
10
58.2538843859947
20
-6.83418788900343
30
0
41
1
10
58.620197051882
20
-6.91351208326708
30
0
41
1
10
58.7135391742433
20
-6.93293260635278
30
0
41
1
10
58.8068836198785
20
-6.95156271978595
30
0
0
SPLINE
5
124
100
AcDbEntity
8
1
62
256
6
ByLayer
370
18
48
1
60
0
100
AcDbSpline
70
4
71
3
72
35
73
31
40
0
40
0
40
0
40
0
40
0.157812749567325
40
0.157812749567325
40
0.197265936959157
40
0.197265936959157
40
0.236719124350988
40
0.236719124350988
40
0.31562549913467
40
0.394531873918352
40
0.394531873918352
40
0.433985061310192
40
0.433985061310192
40
0.473438248702033
40
0.473438248702033
40
0.631250998269421
40
0.631250998269421
40
0.670704185661266
40
0.670704185661266
40
0.710157373053112
40
0.710157373053112
40
0.789063747836802
40
0.789063747836802
40
0.828516935228645
40
0.828516935228645
40
0.867970122620488
40
0.867970122620488
40
0.946876497404167
40
0.946876497404167
40
1
40
1
40
1
40
1
41
1
10
56.0706604954015
20
-6.1710874243108
30
0
41
1
10
56.0102856861307
20
-6.1483893729033
30
0
41
1
10
55.9540363672286
20
-6.12024356132048
30
0
41
1
10
55.8896831619742
20
-6.07698012771442
30
0
41
1
10
55.8771132567435
20
-6.06791966977386
30
0
41
1
10
55.8526079488707
20
-6.04893418653785
30
0
41
1
10
55.8406326243213
20
-6.03897156804365
30
0
41
1
10
55.8060919232306
20
-6.00804496684549
30
0
41
1
10
55.7636727541625
20
-5.96404974470889
30
0
41
1
10
55.7286341626696
20
-5.91441743937472
30
0
41
1
10
55.7052305212233
20
-5.87499132712063
30
0
41
1
10
55.6979092340812
20
-5.8614818371455
30
0
41
1
10
55.6842538362498
20
-5.83370701626708
30
0
41
1
10
55.6779217692522
20
-5.8194304059725
30
0
41
1
10
55.6492289302236
20
-5.74729799340801
30
0
41
1
10
55.6352306208559
20
-5.68633090073695
30
0
41
1
10
55.6279447916003
20
-5.60646949454747
30
0
41
1
10
55.6270031051843
20
-5.59026906910483
30
0
41
1
10
55.6261427046104
20
-5.55785859703821
30
0
41
1
10
55.6262184977282
20
-5.54162130186353
30
0
41
1
10
55.627881549708
20
-5.49282212264751
30
0
41
1
10
55.630900607518
20
-5.46017315671369
30
0
41
1
10
55.6380485680553
20
-5.4110562485979
30
0
41
1
10
55.6408688236787
20
-5.39465997805692
30
0
41
1
10
55.647354482267
20
-5.36182405220035
30
0
41
1
10
55.6510279356549
20
-5.34535280183437
30
0
41
1
10
55.6632228652922
20
-5.29610676887677
30
0
41
1
10
55.6728659139267
20
-5.26366466348478
30
0
41
1
10
55.6912460041139
20
-5.2099731993147
30
0
41
1
10
55.6992456704959
20
-5.18852939283474
30
0
41
1
10
55.7078200166688
20
-5.16723995382756
30
0
0
SPLINE
5
125
100
AcDbEntity
8
1
62
256
6
ByLayer
370
13
48
1
60
0
100
AcDbSpline
70
4
71
3
72
20
73
16
40
0
40
0
40
0
40
0
40
0.0535993601656631
40
0.155435500383705
40
0.257271640601746
40
0.359107780819788
40
0.460943921037829
40
0.53732102620136
40
0.613698131364891
40
0.664616201473912
40
0.715534271582933
40
0.791911376746464
40
0.868288481909995
40
0.970124622128036
40
1
40
1
40
1
40
1
41
1
10
54.7789142304394
20
-4.58771515087582
30
0
41
1
10
54.3403063513922
20
-4.47156664279646
30
0
41
1
10
53.0683651390117
20
-4.11467368544607
30
0
41
1
10
50.9630905932979
20
-3.43627231193668
30
0
41
1
10
48.4630905932978
20
-2.51580870230032
30
0
41
1
10
45.9630905932979
20
-1.51404562752978
30
0
41
1
10
43.6714239266312
20
-0.547895175251597
30
0
41
1
10
41.5880905932979
20
0.341520606144314
30
0
41
0.999999999999999
10
39.9214239266312
20
1.04884445023845
30
0
41
1
10
38.4630905932979
20
1.65506551816844
30
0
41
0.999999999999999
10
37.0047572599645
20
2.24598578267614
30
0
41
1
10
35.3380905932979
20
2.89259552471748
30
0
41
1
10
33.2547572599646
20
3.6441838851845
30
0
41
1
10
31.5519513045018
20
4.18973227591491
30
0
41
1
10
30.4741453490392
20
4.49618123827915
30
0
41
1
10
30.2296727269098
20
4.56359454863102
30
0
0
SPLINE
5
126
100
AcDbEntity
8
1
62
256
6
ByLayer
370
18
48
1
60
0
100
AcDbSpline
70
4
71
3
72
8
73
4
40
0
40
0
40
0
40
0
40
1
40
1
40
1
40
1
41
1
10
59.8753686894204
20
-8.54354614209376
30
0
41
1
10
59.9115938455095
20
-8.53065400389553
30
0
41
1
10
59.9484008034055
20
-8.51345528364843
30
0
41
1
10
59.9856672255105
20
-8.49214693093086
30
0
0
SPLINE
5
127
100
AcDbEntity
8
1
62
256
6
ByLayer
370
18
48
1
60
0
100
AcDbSpline
70
4
71
3
72
24
73
20
40
0
40
0
40
0
40
0
40
0.0398621818735297
40
0.110425801745679
40
0.180989421617829
40
0.251553041489978
40
0.322116661362128
40
0.392680281234278
40
0.463243901106427
40
0.516166616010539
40
0.569089330914652
40
0.604371140850726
40
0.639652950786801
40
0.692575665690913
40
0.745498380595025
40
0.816062000467175
40
0.886625620339325
40
0.957189240211474
40
1
40
1
40
1
40
1
41
1
10
59.8753686887865
20
-8.54354614173354
30
0
41
1
10
59.4046093236235
20
-8.61475933448207
30
0
41
1
10
58.1005166251273
20
-8.76560308780188
30
0
41
1
10
55.9630905932979
20
-8.79868173451021
30
0
41
1
10
53.4630905932978
20
-8.51415185587865
30
0
41
1
10
50.9630905932978
20
-7.91702464635279
30
0
41
1
10
48.4630905932978
20
-7.02982811766282
30
0
41
1
10
45.9630905932978
20
-5.8842181513229
30
0
41
1
10
43.6714239266311
20
-4.63663328405233
30
0
41
1
10
41.5880905932978
20
-3.38361624382247
30
0
41
0.999999999999999
10
39.9214239266311
20
-2.31566297345614
30
0
41
1
10
38.4630905932979
20
-1.3515666806683
30
0
41
0.999999999999999
10
37.0047572599645
20
-0.376701319859677
30
0
41
1
10
35.3380905932978
20
0.746630996092022
30
0
41
1
10
33.2547572599646
20
2.13700466917879
30
0
41
1
10
30.9630905932978
20
3.60308103445556
30
0
41
1
10
28.4630905932979
20
5.0733290254679
30
0
41
1
10
26.2908428180976
20
6.1877071540344
30
0
41
1
10
24.9519283762306
20
6.77441790468132
30
0
41
1
10
24.446347267697
20
6.98031016397744
30
0
0
SPLINE
5
128
100
AcDbEntity
8
1
62
256
6
ByLayer
370
18
48
1
60
0
100
AcDbSpline
70
4
71
3
72
20
73
16
40
0
40
0
40
0
40
0
40
0.062500000000001
40
0.062500000000001
40
0.125000000000002
40
0.250000000000003
40
0.250000000000003
40
0.500000000000006
40
0.500000000000006
40
0.562500000000006
40
0.562500000000006
40
0.625000000000006
40
0.750000000000005
40
0.750000000000005
40
1
40
1
40
1
40
1
41
1
10
59.3841769522487
20
-1.16621515675513
30
0
41
1
10
59.392073739356
20
-1.22403268479542
30
0
41
1
10
59.40018035176
20
-1.28214608966181
30
0
41
1
10
59.4167910706848
20
-1.39878291052821
30
0
41
1
10
59.4422967473807
20
-1.57430991506388
30
0
41
1
10
59.4695774664219
20
-1.75155829785118
30
0
41
1
10
59.5265277424443
20
-2.10837168065351
30
0
41
1
10
59.5676774977515
20
-2.34933394642405
30
0
41
1
10
59.6231983818227
20
-2.65449700812883
30
0
41
1
10
59.6345057893642
20
-2.71572054178719
30
0
41
1
10
59.657489186611
20
-2.8383402635171
30
0
41
1
10
59.6925322023578
20
-3.02261188391986
30
0
41
1
10
59.7292793304323
20
-3.20790983016386
30
0
41
1
10
59.8050521498371
20
-3.57987801971947
30
0
41
1
10
59.8586033466804
20
-3.82968527724302
30
0
41
1
10
59.915232020358
20
-4.08134598879906
30
0
0
SPLINE
5
129
100
AcDbEntity
8
1
62
256
6
ByLayer
370
18
48
1
60
0
100
AcDbSpline
70
4
71
3
72
14
73
10
40
0
40
0
40
0
40
0
40
0.249999999999989
40
0.249999999999989
40
0.374999999999989
40
0.374999999999989
40
0.499999999999989
40
0.499999999999989
40
1
40
1
40
1
40
1
41
1
10
56.9381795418681
20
0.471664817708842
30
0
41
1
10
57.1409531052817
20
0.338997357066148
30
0
41
1
10
57.3444660117869
20
0.205009647839034
30
0
41
1
10
57.650794696064
20
0.002136443009249
30
0
41
1
10
57.7531319975828
20
-0.0658377817828466
30
0
41
1
10
57.957554178585
20
-0.20200585216341
30
0
41
1
10
58.0597050602168
20
-0.270243210873787
30
0
41
1
10
58.5701667199284
20
-0.612175496292053
30
0
41
1
10
58.9776036288573
20
-0.888095754512733
30
0
41
1
10
59.3841769522458
20
-1.16621515675254
30
0
0
SPLINE
5
12A
100
AcDbEntity
8
1
62
256
6
ByLayer
370
18
48
1
60
0
100
AcDbSpline
70
4
71
3
72
36
73
32
40
0
40
0
40
0
40
0
40
0.125000000000038
40
0.125000000000038
40
0.187500000000057
40
0.187500000000057
40
0.218750000000056
40
0.218750000000056
40
0.250000000000054
40
0.250000000000054
40
0.375000000000048
40
0.375000000000048
40
0.437500000000045
40
0.437500000000045
40
0.468750000000044
40
0.468750000000044
40
0.500000000000042
40
0.500000000000042
40
0.625000000000035
40
0.625000000000035
40
0.68750000000003
40
0.68750000000003
40
0.718750000000027
40
0.718750000000027
40
0.750000000000024
40
0.750000000000024
40
0.875000000000012
40
0.875000000000012
40
0.937500000000006
40
0.937500000000006
40
1
40
1
40
1
40
1
41
1
10
56.9381795418681
20
0.471664817708842
30
0
41
1
10
56.8932750420528
20
0.501044219351002
30
0
41
1
10
56.8507527220388
20
0.532097048974151
30
0
41
1
10
56.7908865199586
20
0.581371494202045
30
0
41
1
10
56.7715863466554
20
0.598247181783165
30
0
41
1
10
56.7436881455039
20
0.624278634187334
30
0
41
1
10
56.7345642981048
20
0.633075585572072
30
0
41
1
10
56.7166821123529
20
0.650918028770349
30
0
41
1
10
56.7079036750235
20
0.659985997716092
30
0
41
1
10
56.6653556332338
20
0.705547539388192
30
0
41
1
10
56.6353997810312
20
0.74287787186708
30
0
41
1
10
56.5967289459006
20
0.800193209230684
30
0
41
1
10
56.5848856716619
20
0.819519274821118
30
0
41
1
10
56.5687396443528
20
0.84884900464246
30
0
41
1
10
56.5636276778827
20
0.858682422092727
30
0
41
1
10
56.5539548444888
20
0.878465357682103
30
0
41
1
10
56.5494084219964
20
0.888388935544981
30
0
41
1
10
56.5282954125335
20
0.93773902213303
30
0
41
1
10
56.5163629328539
20
0.976764042353295
30
0
41
1
10
56.5053147730408
20
1.03470951013347
30
0
41
1
10
56.5027784113208
20
1.0539258973304
30
0
41
1
10
56.5006570499422
20
1.08261314983014
30
0
41
1
10
56.5002332164251
20
1.09213467923843
30
0
41
1
10
56.499937257489
20
1.11097495952123
30
0
41
1
10
56.5000635884353
20
1.12031244777407
30
0
41
1
10
56.5020115125493
20
1.16660757934852
30
0
41
1
10
56.507758071415
20
1.20239516544396
30
0
41
1
10
56.5219188372816
20
1.25451292422352
30
0
41
1
10
56.5275812324518
20
1.27165657895264
30
0
41
1
10
56.5406094504716
20
1.30526926685357
30
0
41
1
10
56.5479686671774
20
1.32173481280694
30
0
41
1
10
56.5561215803709
20
1.33788908402732
30
0
0
SPLINE
5
12B
100
AcDbEntity
8
1
62
256
6
ByLayer
370
13
48
1
60
0
100
AcDbSpline
70
4
71
3
72
12
73
8
40
0
40
0
40
0
40
0
40
0.0592801803601084
40
0.30918356505795
40
0.559086949755791
40
0.808990334453632
40
1
40
1
40
1
40
1
41
1
10
56.5561215803709
20
1.3378890840273
30
0
41
1
10
56.3584445846799
20
1.41550202219338
30
0
41
1
10
55.3274342556555
20
1.81851283866453
30
0
41
1
10
53.4630905932978
20
2.52760048736823
30
0
41
1
10
50.9630905932978
20
3.40522009486543
30
0
41
1
10
48.6594788869267
20
4.12528375158638
30
0
41
1
10
47.189200513889
20
4.52210726897036
30
0
41
1
10
46.5522554741845
20
4.68091505509381
30
0
0
SPLINE
5
12C
100
AcDbEntity
8
1
62
256
6
ByLayer
370
18
48
1
60
0
100
AcDbSpline
70
4
71
3
72
8
73
4
40
0
40
0
40
0
40
0
40
1
40
1
40
1
40
1
41
1
10
59.9152320192773
20
-4.08134598865934
30
0
41
1
10
59.9440603234282
20
-4.15602274929918
30
0
41
1
10
59.9732373186695
20
-4.22952257905854
30
0
41
1
10
60.0027018150242
20
-4.30174450919455
30
0
0
SPLINE
5
12D
100
AcDbEntity
8
1
62
256
6
ByLayer
370
18
48
1
60
0
100
AcDbSpline
70
4
71
3
72
15
73
11
40
0
40
0
40
0
40
0
40
0.0767698189995766
40
0.208936386322757
40
0.341102953645937
40
0.473269520969118
40
0.605436088292298
40
0.737602655615478
40
0.869769222938659
40
1
40
1
40
1
40
1
41
1
10
59.9152320189705
20
-4.08134598905099
30
0
41
1
10
59.4311848770796
20
-3.80830967741048
30
0
41
1
10
58.1138044018553
20
-3.04500151675614
30
0
41
1
10
55.9630905932978
20
-1.72295460433793
30
0
41
1
10
53.4630905932978
20
-0.134813405797161
30
0
41
1
10
50.9630905932978
20
1.46392066699903
30
0
41
1
10
48.4630905932978
20
3.0103675983892
30
0
41
1
10
45.9630905932978
20
4.45878324775489
30
0
41
1
10
43.4752960896212
20
5.75455850026239
30
0
41
1
10
41.8208349192779
20
6.49111174043534
30
0
41
1
10
40.9997070822679
20
6.82039114372975
30
0
0
SPLINE
5
12E
100
AcDbEntity
8
1
62
256
6
ByLayer
370
18
48
1
60
0
100
AcDbSpline
70
4
71
3
72
20
73
16
40
0
40
0
40
0
40
0
40
0.249999999999953
40
0.249999999999953
40
0.374999999999945
40
0.374999999999945
40
0.499999999999937
40
0.499999999999937
40
0.749999999999943
40
0.749999999999943
40
0.812499999999953
40
0.812499999999953
40
0.874999999999963
40
0.874999999999963
40
1
40
1
40
1
40
1
41
1
10
60.0027018165171
20
-4.30174450857402
30
0
41
1
10
60.0184536721383
20
-4.34035624315339
30
0
41
1
10
60.033787761743
20
-4.38024643326205
30
0
41
1
10
60.0560951693428
20
-4.44220468708457
30
0
41
1
10
60.0634003654618
20
-4.46318049387477
30
0
41
1
10
60.0775628981241
20
-4.50532005098745
30
0
41
1
10
60.0844440950394
20
-4.52654873422432
30
0
41
1
10
60.1044421002536
20
-4.59074753877272
30
0
41
1
10
60.1169299412068
20
-4.63421721596981
30
0
41
1
10
60.131154053229
20
-4.68965489294285
30
0
41
1
10
60.1339311770537
20
-4.70081319096448
30
0
41
1
10
60.1392639708972
20
-4.72297367057811
30
0
41
1
10
60.1418281402046
20
-4.73400788494652
30
0
41
1
10
60.1491956490652
20
-4.76696420531655
30
0
41
1
10
60.1536765964837
20
-4.788741162684
30
0
41
1
10
60.1576528177077
20
-4.81029087925072
30
0
0
SPLINE
5
12F
100
AcDbEntity
8
1
62
256
6
ByLayer
370
13
48
1
60
0
100
AcDbSpline
70
4
71
3
72
15
73
11
40
0
40
0
40
0
40
0
40
0.0851745690162966
40
0.223479888721886
40
0.361785208427475
40
0.500090528133065
40
0.638395847838654
40
0.776701167544243
40
0.915006487249832
40
1
40
1
40
1
40
1
41
1
10
60.0027018171757
20
-4.30174450774518
30
0
41
1
10
59.489498075883
20
-4.0160437320811
30
0
41
1
10
58.142961001257
20
-3.24369632483678
30
0
41
1
10
55.9630905932978
20
-1.90809249078694
30
0
41
1
10
53.4630905932978
20
-0.324224163862226
30
0
41
1
10
50.9630905932978
20
1.28373642806608
30
0
41
1
10
48.4630905932978
20
2.8404576431102
30
0
41
1
10
45.9630905932978
20
4.30385672324471
30
0
41
1
10
43.7843111066574
20
5.45943218044508
30
0
41
1
10
42.4388649533502
20
6.09184698128931
30
0
41
1
10
41.9267521333764
20
6.31934899104607
30
0
0
SPLINE
5
130
100
AcDbEntity
8
1
62
256
6
ByLayer
370
18
48
1
60
0
100
AcDbSpline
70
4
71
3
72
20
73
16
40
0
40
0
40
0
40
0
40
0.25000000000002
40
0.25000000000002
40
0.375000000000017
40
0.375000000000017
40
0.500000000000014
40
0.500000000000014
40
0.750000000000008
40
0.750000000000008
40
0.812500000000005
40
0.812500000000005
40
0.875000000000002
40
0.875000000000002
40
1
40
1
40
1
40
1
41
1
10
59.9856672240001
20
-8.49214693114189
30
0
41
1
10
60.0015865379023
20
-8.4830469722009
30
0
41
1
10
60.0170885538535
20
-8.47698924212801
30
0
41
1
10
60.0396460578222
20
-8.47297316444804
30
0
41
1
10
60.0470442598727
20
-8.47249441571745
30
0
41
1
10
60.0613885760374
20
-8.47337586793756
30
0
41
1
10
60.0683598802525
20
-8.47472939340813
30
0
41
1
10
60.088623896848
20
-8.48174348363156
30
0
41
1
10
60.1012838390416
20
-8.49027973216357
30
0
41
1
10
60.11570546211
20
-8.50732749326525
30
0
41
1
10
60.1185258882913
20
-8.51107527241416
30
0
41
1
10
60.1239488899196
20
-8.51919741401161
30
0
41
1
10
60.1265561975657
20
-8.52357479055644
30
0
41
1
10
60.1340459085314
20
-8.53771543694248
30
0
41
1
10
60.1385989067354
20
-8.5484787030465
30
0
41
1
10
60.1426324906901
20
-8.56081878715474
30
0
0
SPLINE
5
131
100
AcDbEntity
8
1
62
256
6
ByLayer
370
13
48
1
60
0
100
AcDbSpline
70
4
71
3
72
22
73
18
40
0
40
0
40
0
40
0
40
0.0483008431323689
40
0.127634289845569
40
0.206967736558768
40
0.286301183271968
40
0.365634629985168
40
0.444968076698368
40
0.504468161733267
40
0.563968246768167
40
0.603634970124767
40
0.643301693481367
40
0.702801778516267
40
0.762301863551167
40
0.841635310264366
40
0.920968756977566
40
1
40
1
40
1
40
1
41
1
10
57.4851738108271
20
-8.76985556801534
30
0
41
1
10
56.9778127383173
20
-8.79372585140575
30
0
41
1
10
55.6371183324743
20
-8.80436125752104
30
0
41
1
10
53.4630905932978
20
-8.59638019051377
30
0
41
1
10
50.9630905932978
20
-8.03645581572971
30
0
41
1
10
48.4630905932978
20
-7.18751866929569
30
0
41
1
10
45.9630905932978
20
-6.07416589624293
30
0
41
1
10
43.6714239266311
20
-4.8456634355517
30
0
41
1
10
41.5880905932978
20
-3.6025289663946
30
0
41
0.999999999999999
10
39.9214239266311
20
-2.54495565065844
30
0
41
1
10
38.4630905932978
20
-1.58575370694544
30
0
41
0.999999999999999
10
37.0047572599645
20
-0.609480826485424
30
0
41
1
10
35.3380905932978
20
0.517343796028967
30
0
41
1
10
33.2547572599645
20
1.9153141636655
30
0
41
1
10
30.9630905932978
20
3.39887461126136
30
0
41
1
10
28.4662649972775
20
4.89223999222293
30
0
41
1
10
26.8027727345906
20
5.76669934288307
30
0
41
1
10
25.972613805237
20
6.16584738449285
30
0
0
SPLINE
5
132
100
AcDbEntity
8
1
62
256
6
ByLayer
370
18
48
1
60
0
100
AcDbSpline
70
4
71
3
72
50
73
46
40
0
40
0
40
0
40
0
40
0.0625000000000017
40
0.0625000000000017
40
0.125000000000003
40
0.125000000000003
40
0.140625000000004
40
0.140625000000004
40
0.156250000000004
40
0.187500000000005
40
0.187500000000005
40
0.250000000000007
40
0.250000000000007
40
0.265625000000009
40
0.265625000000009
40
0.281250000000011
40
0.281250000000011
40
0.312500000000014
40
0.312500000000014
40
0.375000000000018
40
0.375000000000018
40
0.390625000000018
40
0.390625000000018
40
0.406250000000018
40
0.437500000000018
40
0.437500000000018
40
0.500000000000012
40
0.500000000000012
40
0.531250000000009
40
0.531250000000009
40
0.562500000000005
40
0.562500000000005
40
0.625000000000006
40
0.625000000000006
40
0.687500000000007
40
0.687500000000007
40
0.750000000000007
40
0.750000000000007
40
0.781250000000007
40
0.781250000000007
40
0.812500000000007
40
0.812500000000007
40
0.875000000000008
40
0.875000000000008
40
1
40
1
40
1
40
1
41
1
10
60.5427281594122
20
3.54877769156079
30
0
41
1
10
60.5820527479241
20
3.506009816741
30
0
41
1
10
60.6161020982523
20
3.46306432577555
30
0
41
1
10
60.6717184987871
20
3.37675306568363
30
0
41
1
10
60.6933039215278
20
3.33338791556454
30
0
41
1
10
60.7106395070476
20
3.27885669191227
30
0
41
1
10
60.7136235935202
20
3.26791438327132
30
0
41
1
10
60.7185225283072
20
3.2461820581922
30
0
41
1
10
60.7242885770294
20
3.21375915042131
30
0
41
1
10
60.7252027069504
20
3.18187461741118
30
0
41
1
10
60.7202314358012
20
3.11886003554875
30
0
41
1
10
60.7078733941228
20
3.07785383201926
30
0
41
1
10
60.6797163614721
20
3.028006336895
30
0
41
1
10
60.6734477505008
20
3.01810754284335
30
0
41
1
10
60.6595936951611
20
2.99845607216159
30
0
41
1
10
60.6520332549455
20
2.98874443856954
30
0
41
1
10
60.6276628821201
20
2.96018129749763
30
0
41
1
10
60.6090979267874
20
2.94180443941281
30
0
41
1
10
60.5467693787257
20
2.88857761302603
30
0
41
1
10
60.4963806456229
20
2.85562894126861
30
0
41
1
10
60.4232560793708
20
2.81735271236528
30
0
41
1
10
60.4080904656851
20
2.80982876385252
30
0
41
1
10
60.3770471204966
20
2.79519501046693
30
0
41
1
10
60.329346696349
20
2.77382617916891
30
0
41
1
10
60.2784504180881
20
2.75409495012792
30
0
41
1
10
60.1728643616283
20
2.71657633673962
30
0
41
1
10
60.0974347282604
20
2.69414594855397
30
0
41
1
10
59.9781504736229
20
2.66364649169034
30
0
41
1
10
59.9373308318492
20
2.65400062251484
30
0
41
1
10
59.8539408764962
20
2.63569574996703
30
0
41
1
10
59.8116498312218
20
2.6270962802468
30
0
41
1
10
59.6832117163925
20
2.60274968804555
30
0
41
1
10
59.595509462882
20
2.58844529574344
30
0
41
1
10
59.4168246309819
20
2.5628796390493
30
0
41
1
10
59.3258375055205
20
2.55162259293482
30
0
41
1
10
59.1411789562451
20
2.53159870016333
30
0
41
1
10
59.0475050835582
20
2.52283412530377
30
0
41
1
10
58.9053064549712
20
2.51125303804878
30
0
41
1
10
58.8576245430068
20
2.50765462690893
30
0
41
1
10
58.7617399883167
20
2.50094088187626
30
0
41
1
10
58.7135307489326
20
2.49782583910445
30
0
41
1
10
58.5688153685416
20
2.48918604761408
30
0
41
1
10
58.4720020388001
20
2.48434761086821
30
0
41
1
10
58.1807152291442
20
2.47215173846962
30
0
41
1
10
57.9854031078391
20
2.46709133829501
30
0
41
1
10
57.7892549082471
20
2.4643209532673
30
0
0
SPLINE
5
133
100
AcDbEntity
8
1
62
256
6
ByLayer
370
18
48
1
60
0
100
AcDbSpline
70
4
71
3
72
8
73
4
40
0
40
0
40
0
40
0
40
1
40
1
40
1
40
1
41
1
10
60.3059211864912
20
4.59155448272722
30
0
41
1
10
60.3385739210611
20
4.36562588718488
30
0
41
1
10
60.3711968617797
20
4.13884078500607
30
0
41
1
10
60.4037880425254
20
3.91121448183699
30
0
0
SPLINE
5
134
100
AcDbEntity
8
1
62
256
6
ByLayer
370
18
48
1
60
0
100
AcDbSpline
70
4
71
3
72
8
73
4
40
0
40
0
40
0
40
0
40
1
40
1
40
1
40
1
41
1
10
60.4323126927537
20
3.9643353278023
30
0
41
1
10
60.4222090556051
20
3.94686226098904
30
0
41
1
10
60.4127345284253
20
3.92914207620999
30
0
41
1
10
60.4037880425256
20
3.9112144818379
30
0
0
SPLINE
5
135
100
AcDbEntity
8
1
62
256
6
ByLayer
370
18
48
1
60
0
100
AcDbSpline
70
4
71
3
72
28
73
24
40
0
40
0
40
0
40
0
40
0.124999999999968
40
0.124999999999968
40
0.187499999999961
40
0.187499999999961
40
0.249999999999955
40
0.249999999999955
40
0.374999999999921
40
0.374999999999921
40
0.437499999999904
40
0.437499999999904
40
0.499999999999887
40
0.499999999999887
40
0.624999999999886
40
0.624999999999886
40
0.687499999999888
40
0.687499999999888
40
0.749999999999889
40
0.749999999999889
40
0.874999999999945
40
0.874999999999945
40
1
40
1
40
1
40
1
41
1
10
60.9500103141952
20
3.5941590785747
30
0
41
1
10
60.9500750173853
20
3.60578204587907
30
0
41
1
10
60.9478294181063
20
3.61744982123139
30
0
41
1
10
60.9410951999617
20
3.63501676393264
30
0
41
1
10
60.9382891786528
20
3.64088329749748
30
0
41
1
10
60.931540257939
20
3.65263841424573
30
0
41
1
10
60.9275765163579
20
3.65855207608308
30
0
41
1
10
60.914059426043
20
3.67613832731479
30
0
41
1
10
60.9029728108179
20
3.68757572358186
30
0
41
1
10
60.8833470016928
20
3.70431782174521
30
0
41
1
10
60.8763039750745
20
3.70982927635686
30
0
41
1
10
60.861205328941
20
3.72071225715533
30
0
41
1
10
60.8531181078754
20
3.72610248596095
30
0
41
1
10
60.8274922176726
20
3.74192276107229
30
0
41
1
10
60.8088086660492
20
3.75188527399422
30
0
41
1
10
60.7784749765351
20
3.76598580707204
30
0
41
1
10
60.7679774058154
20
3.77054485584017
30
0
41
1
10
60.7462053749754
20
3.77937915849279
30
0
41
1
10
60.7349028335746
20
3.78366368512278
30
0
41
1
10
60.6999559280245
20
3.79601055224958
30
0
41
1
10
60.6757097932048
20
3.80342492527154
30
0
41
1
10
60.6253944800208
20
3.81668312057784
30
0
41
1
10
60.5993226313142
20
3.82253158946548
30
0
41
1
10
60.5723142316024
20
3.82755927317737
30
0
0
SPLINE
5
136
100
AcDbEntity
8
1
62
256
6
ByLayer
370
18
48
1
60
0
100
AcDbSpline
70
4
71
3
72
18
73
14
40
0
40
0
40
0
40
0
40
0.313885745594434
40
0.313885745594434
40
0.470828618391654
40
0.470828618391654
40
0.627771491188874
40
0.627771491188874
40
0.784714363986093
40
0.784714363986093
40
0.941657236783313
40
0.941657236783313
40
1
40
1
40
1
40
1
41
1
10
60.6066559662369
20
5.25953452909999
30
0
41
1
10
60.6245293455622
20
5.21321092340833
30
0
41
1
10
60.6422807864067
20
5.16646788991898
30
0
41
1
10
60.6685522597944
20
5.09562469247004
30
0
41
1
10
60.6772635125573
20
5.0718492128313
30
0
41
1
10
60.6944720710867
20
5.02413528791342
30
0
41
1
10
60.7029691953337
20
5.0002007243819
30
0
41
1
10
60.7196660976613
20
4.95211626086541
30
0
41
1
10
60.7278683861555
20
4.92796817890812
30
0
41
1
10
60.7438176855525
20
4.87934230547353
30
0
41
1
10
60.7514839752872
20
4.85512984020662
30
0
41
1
10
60.761238161347
20
4.82225231595169
30
0
41
1
10
60.7638094035106
20
4.81335244065488
30
0
41
1
10
60.7662504875303
20
4.80459784641917
30
0
0
SPLINE
5
137
100
AcDbEntity
8
1
62
256
6
ByLayer
370
13
48
1
60
0
100
AcDbSpline
70
4
71
3
72
8
73
4
40
0
40
0
40
0
40
0
40
1
40
1
40
1
40
1
41
1
10
60.4323126927534
20
3.96433532780227
30
0
41
1
10
60.3976355233251
20
4.19972318531768
30
0
41
1
10
60.3625454861104
20
4.43791358021639
30
0
41
1
10
60.3271185316968
20
4.67839096159383
30
0
0
SPLINE
5
138
100
AcDbEntity
8
1
62
256
6
ByLayer
370
18
48
1
60
0
100
AcDbSpline
70
4
71
3
72
30
73
26
40
0
40
0
40
0
40
0
40
0.250000000000113
40
0.250000000000113
40
0.500000000000225
40
0.500000000000225
40
0.625000000000318
40
0.625000000000318
40
0.687500000000364
40
0.687500000000364
40
0.750000000000411
40
0.750000000000411
40
0.781250000000372
40
0.781250000000372
40
0.812500000000334
40
0.812500000000334
40
0.843750000000296
40
0.843750000000296
40
0.875000000000257
40
0.875000000000257
40
0.906250000000219
40
0.906250000000219
40
0.937500000000181
40
0.937500000000181
40
1
40
1
40
1
40
1
41
1
10
60.5723142316037
20
3.82755927317763
30
0
41
1
10
60.564447038803
20
3.8449289301322
30
0
41
1
10
60.5562610353335
20
3.86220435097414
30
0
41
1
10
60.5387991969811
20
3.89635619180686
30
0
41
1
10
60.5295884261909
20
3.91322384444766
30
0
41
1
10
60.5139824574401
20
3.9377753719923
30
0
41
1
10
60.5084711631587
20
3.94584780242838
30
0
41
1
10
60.4993543766497
20
3.95746086143635
30
0
41
1
10
60.4961629501565
20
3.96125726778567
30
0
41
1
10
60.4893620109282
20
3.96851038991187
30
0
41
1
10
60.4857594687713
20
3.97198151098482
30
0
41
1
10
60.4797394106523
20
3.9767158613702
30
0
41
1
10
60.4776353581601
20
3.97820514963897
30
0
41
1
10
60.4731931990177
20
3.98086697643552
30
0
41
1
10
60.470828185977
20
3.9820516568096
30
0
41
1
10
60.4659125503777
20
3.98383414830431
30
0
41
1
10
60.4632897868793
20
3.98444973285049
30
0
41
1
10
60.4579947729108
20
3.98476879901329
30
0
41
1
10
60.4553213953013
20
3.98445445743374
30
0
41
1
10
60.4504001302229
20
3.98296513168469
30
0
41
1
10
60.448113241943
20
3.98179588829584
30
0
41
1
10
60.4440576223678
20
3.97903103728208
30
0
41
1
10
60.4422315554868
20
3.97741100245094
30
0
41
1
10
60.4372762022053
20
3.97222277658975
30
0
41
1
10
60.4346442623646
20
3.96836750661009
30
0
41
1
10
60.4323126927534
20
3.96433532780188
30
0
0
SPLINE
5
139
100
AcDbEntity
8
1
62
256
6
ByLayer
370
13
48
1
60
0
100
AcDbSpline
70
4
71
3
72
20
73
16
40
0
40
0
40
0
40
0
40
0.0782291234672538
40
0.177895902757445
40
0.252645987225089
40
0.327396071692732
40
0.377229461337828
40
0.427062850982924
40
0.501812935450567
40
0.576563019918211
40
0.676229799208402
40
0.775896578498593
40
0.875563357788785
40
0.975230137078976
40
1
40
1
40
1
40
1
41
1
10
29.0008238273708
20
4.97255627715916
30
0
41
1
10
29.6549127493464
20
4.83062089000947
30
0
41
1
10
31.1423350046555
20
4.46948810341598
30
0
41
1
10
33.2547572599646
20
3.84504014508869
30
0
41
1
10
35.3380905932979
20
3.13756188751091
30
0
41
0.999999999999999
10
37.0047572599645
20
2.52056146722245
30
0
41
1
10
38.4630905932979
20
1.95123552629383
30
0
41
0.999999999999999
10
39.9214239266312
20
1.362832822027
30
0
41
1
10
41.5880905932979
20
0.670593650152113
30
0
41
1
10
43.6714239266312
20
-0.207873846348889
30
0
41
1
10
45.9630905932979
20
-1.172182769361
30
0
41
1
10
48.4630905932978
20
-2.18425899609258
30
0
41
1
10
50.9630905932979
20
-3.12568089114652
30
0
41
1
10
52.8368629032008
20
-3.75338237132203
30
0
41
1
10
53.8773018797705
20
-4.06829822118564
30
0
41
1
10
54.0844075230068
20
-4.12958747532795
30
0
0
SPLINE
5
13A
100
AcDbEntity
8
1
62
256
6
ByLayer
370
18
48
1
60
0
100
AcDbSpline
70
4
71
3
72
8
73
4
40
0
40
0
40
0
40
0
40
1
40
1
40
1
40
1
41
1
10
60.2865134694428
20
4.70727168471748
30
0
41
1
10
60.2929822748663
20
4.66874299138709
30
0
41
1
10
60.2994515243519
20
4.63017053329864
30
0
41
1
10
60.3059211864912
20
4.59155448272725
30
0
0
SPLINE
5
13B
100
AcDbEntity
8
1
62
256
6
ByLayer
370
18
48
1
60
0
100
AcDbSpline
70
4
71
3
72
8
73
4
40
0
40
0
40
0
40
0
40
1
40
1
40
1
40
1
41
1
10
60.2865134694433
20
4.70727168471709
30
0
41
1
10
60.3000962679022
20
4.69769360840866
30
0
41
1
10
60.3136319328904
20
4.68806692510069
30
0
41
1
10
60.3271185316972
20
4.67839096159386
30
0
0
SPLINE
5
13C
100
AcDbEntity
8
1
62
256
6
ByLayer
370
18
48
1
60
0
100
AcDbSpline
70
4
71
3
72
40
73
36
40
0
40
0
40
0
40
0
40
0.0312499999999747
40
0.0312499999999747
40
0.0624999999999494
40
0.0624999999999494
40
0.0781249999999361
40
0.0781249999999361
40
0.0937499999999229
40
0.0937499999999229
40
0.10937499999991
40
0.10937499999991
40
0.124999999999896
40
0.124999999999896
40
0.156249999999906
40
0.156249999999906
40
0.187499999999916
40
0.187499999999916
40
0.218749999999926
40
0.218749999999926
40
0.249999999999935
40
0.249999999999935
40
0.312499999999941
40
0.312499999999941
40
0.374999999999946
40
0.374999999999946
40
0.499999999999957
40
0.499999999999957
40
0.624999999999968
40
0.624999999999968
40
0.749999999999978
40
0.749999999999978
40
0.874999999999989
40
0.874999999999989
40
1
40
1
40
1
40
1
41
1
10
60.3271185316967
20
4.67839096159423
30
0
41
1
10
60.3352028651648
20
4.67259085463363
30
0
41
1
10
60.3435977457386
20
4.66716188667675
30
0
41
1
10
60.3613207009657
20
4.65742587939008
30
0
41
1
10
60.3706677312993
20
4.65309070207266
30
0
41
1
10
60.3857915920225
20
4.64807750582335
30
0
41
1
10
60.3908918739547
20
4.64670467473596
30
0
41
1
10
60.401233157333
20
4.64466987412013
30
0
41
1
10
60.4065398918721
20
4.6440078492995
30
0
41
1
10
60.4169341828684
20
4.64355425916392
30
0
41
1
10
60.4220183486487
20
4.64375076679343
30
0
41
1
10
60.4319650421004
20
4.64497787275769
30
0
41
1
10
60.4368439723263
20
4.64602306182312
30
0
41
1
10
60.4505838732139
20
4.65016239556178
30
0
41
1
10
60.4588389827212
20
4.65431769854953
30
0
41
1
10
60.4733509201424
20
4.66394399489965
30
0
41
1
10
60.4797580430347
20
4.66946922400112
30
0
41
1
10
60.4913958342444
20
4.68133333166878
30
0
41
1
10
60.4965308909979
20
4.68757507024878
30
0
41
1
10
60.5059295268412
20
4.7004551476833
30
0
41
1
10
60.5101856148579
20
4.7070968243234
30
0
41
1
10
60.5220096609268
20
4.72745297692944
30
0
41
1
10
60.52866314094
20
4.74161963225276
30
0
41
1
10
60.5404432207467
20
4.77050268528481
30
0
41
1
10
60.5455196194546
20
4.78512796836833
30
0
41
1
10
60.5591698287276
20
4.82936140909644
30
0
41
1
10
60.5661960044874
20
4.85932006788221
30
0
41
1
10
60.5780063931974
20
4.91974029930708
30
0
41
1
10
60.5827482171582
20
4.95021129601247
30
0
41
1
10
60.5907183087776
20
5.01148413725019
30
0
41
1
10
60.5939337816299
20
5.04228881268486
30
0
41
1
10
60.5992388193472
20
5.10413393424594
30
0
41
1
10
60.6013244268012
20
5.13517545101931
30
0
41
1
10
60.604611104405
20
5.1973004519254
30
0
41
1
10
60.605812037739
20
5.22840356882378
30
0
41
1
10
60.606655966237
20
5.25953452909997
30
0
0
SPLINE
5
13D
100
AcDbEntity
8
1
62
256
6
ByLayer
370
18
48
1
60
0
100
AcDbSpline
70
4
71
3
72
8
73
4
40
0
40
0
40
0
40
0
40
1
40
1
40
1
40
1
41
1
10
60.6066559662369
20
5.25953452909999
30
0
41
1
10
60.5081050101338
20
5.46124761059139
30
0
41
1
10
60.4098431587764
20
5.66008834238244
30
0
41
1
10
60.3118686404113
20
5.85607432741978
30
0
0
SPLINE
5
13E
100
AcDbEntity
8
1
62
256
6
ByLayer
370
18
48
1
60
0
100
AcDbSpline
70
4
71
3
72
37
73
33
40
0
40
0
40
0
40
0
40
0.102072061925512
40
0.102072061925512
40
0.204144123851023
40
0.204144123851023
40
0.255180154813779
40
0.255180154813779
40
0.280698170295157
40
0.280698170295157
40
0.306216185776535
40
0.357252216739291
40
0.357252216739291
40
0.408288247702047
40
0.408288247702047
40
0.510360309627557
40
0.510360309627557
40
0.612432371553067
40
0.612432371553067
40
0.663468402515822
40
0.663468402515822
40
0.714504433478576
40
0.714504433478576
40
0.816576495404084
40
0.816576495404084
40
0.918648557329591
40
0.918648557329591
40
0.944166572810968
40
0.944166572810968
40
0.969684588292345
40
0.969684588292345
40
1
40
1
40
1
40
1
41
1
10
60.3118686404114
20
5.85607432741975
30
0
41
1
10
59.9005257266604
20
6.07178054640659
30
0
41
1
10
59.4896247482431
20
6.28027552339401
30
0
41
1
10
58.6678847455219
20
6.68191056384634
30
0
41
1
10
58.257045101198
20
6.87505216632138
30
0
41
1
10
57.6401721734272
20
7.15240028541649
30
0
41
1
10
57.4344450105485
20
7.24278749821926
30
0
41
1
10
57.1256120291425
20
7.37515593921907
30
0
41
1
10
57.0225824956353
20
7.41876181779327
30
0
41
1
10
56.8166770073806
20
7.50477825203021
30
0
41
1
10
56.5080838931592
20
7.63199705727982
30
0
41
1
10
56.2002186203709
20
7.75374524444848
30
0
41
1
10
55.7902623275246
20
7.911108075589
30
0
41
1
10
55.5855586523857
20
7.98728618214008
30
0
41
1
10
54.9720593195647
20
8.20840983965402
30
0
41
1
10
54.5637973107752
20
8.34610583705353
30
0
41
1
10
53.7482183488349
20
8.60160890251973
30
0
41
1
10
53.3409351150026
20
8.71941993925557
30
0
41
1
10
52.730194668935
20
8.88051849677547
30
0
41
1
10
52.5266367314868
20
8.93160518700176
30
0
41
1
10
52.119421221541
20
9.02840559258786
30
0
41
1
10
51.9157598254614
20
9.07412791155403
30
0
41
1
10
51.3043285632584
20
9.2032903069038
30
0
41
1
10
50.8960615836247
20
9.27877956577049
30
0
41
1
10
50.0772855814074
20
9.40799257973563
30
0
41
1
10
49.6668380520356
20
9.46172912910475
30
0
41
1
10
49.1521166011223
20
9.51478632283906
30
0
41
1
10
49.0490476180774
20
9.52469402153781
30
0
41
1
10
48.8429366819012
20
9.54305789102986
30
0
41
1
10
48.7399358583696
20
9.55151072764909
30
0
41
1
10
48.5146798992897
20
9.56840305415145
30
0
41
1
10
48.3924448850977
20
9.57654361255635
30
0
41
1
10
48.2702635532738
20
9.58366970247846
30
0
0
SPLINE
5
13F
100
AcDbEntity
8
1
62
256
6
ByLayer
370
18
48
1
60
0
100
AcDbSpline
70
4
71
3
72
21
73
17
40
0
40
0
40
0
40
0
40
0.0441066103171242
40
0.106507394359527
40
0.16890817840193
40
0.231308962444333
40
0.293709746486736
40
0.418511314571542
40
0.480912098613946
40
0.543312882656349
40
0.668114450741155
40
0.699314842762356
40
0.730515234783558
40
0.792916018825961
40
0.917717586910767
40
1
40
1
40
1
40
1
41
1
10
45.2292947744255
20
9.90992836238883
30
0
41
1
10
45.4491289426456
20
9.90189537412584
30
0
41
1
10
45.9799962159955
20
9.87423209617472
30
0
41
1
10
46.8219302875435
20
9.79910495766205
30
0
41
1
10
47.7550610455761
20
9.67557183086919
30
0
41
1
10
48.6881069999506
20
9.51253395936152
30
0
41
1
10
49.9322483530111
20
9.24259806257928
30
0
41
1
10
51.1773033754009
20
8.89589310502981
30
0
41
1
10
52.4248245558746
20
8.47604395426796
30
0
41
1
10
53.6744143448024
20
8.00828655708736
30
0
41
1
10
54.7712687636765
20
7.53867934334002
30
0
41
1
10
55.7149181107776
20
7.09633493148365
30
0
41
1
10
56.3449568362578
20
6.79088363311917
30
0
41
1
10
57.4501757828661
20
6.22945911815907
30
0
41
1
10
58.8212858441436
20
5.47425341363297
30
0
41
1
10
59.8827504515143
20
4.84734832922734
30
0
41
1
10
60.3059211864912
20
4.59155448272722
30
0
0
SPLINE
5
140
100
AcDbEntity
8
1
62
256
6
ByLayer
370
18
48
1
60
0
100
AcDbSpline
70
4
71
3
72
10
73
6
40
0
40
0
40
0
40
0
40
0.5
40
0.5
40
1
40
1
40
1
40
1
41
1
10
15.2219938972912
20
9.59981581761372
30
0
41
1
10
15.2658982445877
20
9.59977996936948
30
0
41
1
10
15.3093050848627
20
9.59972784833505
30
0
41
1
10
15.3948060500544
20
9.59954704116365
30
0
41
1
10
15.4369047082073
20
9.59941987880288
30
0
41
1
10
15.4780922687133
20
9.5992056503724
30
0
0
SPLINE
5
141
100
AcDbEntity
8
1
62
256
6
ByLayer
370
18
48
1
60
0
100
AcDbSpline
70
4
71
3
72
12
73
8
40
0
40
0
40
0
40
0
40
0.500000000000002
40
0.500000000000002
40
0.750000000000001
40
0.750000000000001
40
1
40
1
40
1
40
1
41
1
10
14.9925927067007
20
-8.05076495950911
30
0
41
1
10
15.0258310931607
20
-8.04583152173967
30
0
41
1
10
15.0579099025618
20
-8.0393847042223
30
0
41
1
10
15.1033594031359
20
-8.02618337732557
30
0
41
1
10
15.1181207180143
20
-8.02114895056056
30
0
41
1
10
15.145681209957
20
-8.00988297903547
30
0
41
1
10
15.1585727574359
20
-8.00363205814787
30
0
41
1
10
15.1704328519194
20
-7.99665523863942
30
0
0
SPLINE
5
142
100
AcDbEntity
8
1
62
256
6
ByLayer
370
18
48
1
60
0
100
AcDbSpline
70
4
71
3
72
24
73
20
40
0
40
0
40
0
40
0
40
0.249999999999986
40
0.249999999999986
40
0.374999999999978
40
0.374999999999978
40
0.499999999999971
40
0.499999999999971
40
0.531249999999971
40
0.531249999999971
40
0.562499999999971
40
0.562499999999971
40
0.624999999999974
40
0.624999999999974
40
0.749999999999983
40
0.749999999999983
40
0.874999999999991
40
0.874999999999991
40
1
40
1
40
1
40
1
41
1
10
15.1704328519194
20
-7.99665523863942
30
0
41
1
10
14.8464728937349
20
-7.79282041050786
30
0
41
1
10
14.5427499184742
20
-7.5650868602855
30
0
41
1
10
14.1181658115311
20
-7.18228190437426
30
0
41
1
10
13.9817996953423
20
-7.04780125684098
30
0
41
1
10
13.7194575351276
20
-6.76400436138059
30
0
41
1
10
13.593480719104
20
-6.61469016159407
30
0
41
1
10
13.4425405398227
20
-6.41799001411508
30
0
41
1
10
13.4126790674829
20
-6.37814657626711
30
0
41
1
10
13.3536103503212
20
-6.2974308631922
30
0
41
1
10
13.3243725247252
20
-6.25651421319597
30
0
41
1
10
13.2378966808781
20
-6.13255434675577
30
0
41
1
10
13.1819273922169
20
-6.04835673069186
30
0
41
1
10
13.0189289079942
20
-5.79104902486645
30
0
41
1
10
12.9168058392597
20
-5.61322781885966
30
0
41
1
10
12.7249951723862
20
-5.24471977032772
30
0
41
1
10
12.6353064173202
20
-5.05403447582842
30
0
41
1
10
12.4678303986287
20
-4.65936257708344
30
0
41
1
10
12.390041724105
20
-4.45537814514219
30
0
41
1
10
12.3180146291613
20
-4.24442894161211
30
0
0
SPLINE
5
143
100
AcDbEntity
8
1
62
256
6
ByLayer
370
18
48
1
60
0
100
AcDbSpline
70
4
71
3
72
23
73
19
40
0
40
0
40
0
40
0
40
0.124999999999986
40
0.124999999999986
40
0.249999999999973
40
0.249999999999973
40
0.499999999999942
40
0.499999999999942
40
0.562499999999948
40
0.562499999999948
40
0.624999999999954
40
0.68749999999996
40
0.68749999999996
40
0.749999999999966
40
0.749999999999966
40
0.874999999999983
40
0.874999999999983
40
1
40
1
40
1
40
1
41
1
10
12.3180146291613
20
-4.24442894161214
30
0
41
1
10
12.3115835833355
20
-4.22559402961306
30
0
41
1
10
12.3063616505825
20
-4.20654388154475
30
0
41
1
10
12.2988224413968
20
-4.16793453413158
30
0
41
1
10
12.2965001319984
20
-4.14837613210523
30
0
41
1
10
12.2949894211516
20
-4.08876075919753
30
0
41
1
10
12.301261913469
20
-4.04996923306382
30
0
41
1
10
12.3205911564007
20
-4.00307125244782
30
0
41
1
10
12.3249847656786
20
-3.99391322242545
30
0
41
1
10
12.3347219260755
20
-3.97617248187714
30
0
41
1
10
12.3454291270378
20
-3.95895783386703
30
0
41
1
10
12.3580083535044
20
-3.94276182864567
30
0
41
1
10
12.3714972520959
20
-3.92706243411934
30
0
41
1
10
12.3787391717943
20
-3.91942344151539
30
0
41
1
10
12.4013692336494
20
-3.89763243144924
30
0
41
1
10
12.4176892355094
20
-3.88452035712376
30
0
41
1
10
12.4523383668724
20
-3.86061099611851
30
0
41
1
10
12.4706704745719
20
-3.84981706376703
30
0
41
1
10
12.4898614609242
20
-3.84001622938013
30
0
0
SPLINE
5
144
100
AcDbEntity
8
1
62
256
6
ByLayer
370
18
48
1
60
0
100
AcDbSpline
70
4
71
3
72
46
73
42
40
0
40
0
40
0
40
0
40
0.0312499999999955
40
0.0312499999999955
40
0.0624999999999911
40
0.0624999999999911
40
0.0937499999999866
40
0.0937499999999866
40
0.124999999999982
40
0.124999999999982
40
0.156249999999978
40
0.156249999999978
40
0.171874999999975
40
0.171874999999975
40
0.187499999999973
40
0.187499999999973
40
0.249999999999975
40
0.249999999999975
40
0.281249999999976
40
0.281249999999976
40
0.312499999999977
40
0.312499999999977
40
0.374999999999979
40
0.374999999999979
40
0.43749999999998
40
0.43749999999998
40
0.499999999999982
40
0.499999999999982
40
0.562499999999984
40
0.562499999999984
40
0.593749999999985
40
0.593749999999985
40
0.624999999999985
40
0.624999999999985
40
0.749999999999989
40
0.749999999999989
40
0.812499999999993
40
0.812499999999993
40
0.874999999999997
40
0.874999999999997
40
1
40
1
40
1
40
1
41
1
10
12.4898614609241
20
-3.84001622938013
30
0
41
1
10
12.5620902649329
20
-3.80312898799187
30
0
41
1
10
12.6356829365035
20
-3.77024025912749
30
0
41
1
10
12.7849883976375
20
-3.71073492045767
30
0
41
1
10
12.8607058306001
20
-3.68413138177544
30
0
41
1
10
13.0138853712155
20
-3.63612639451344
30
0
41
1
10
13.0913496726176
20
-3.61473113084352
30
0
41
1
10
13.2477672232204
20
-3.57641082090109
30
0
41
1
10
13.3267216283676
20
-3.5594890390301
30
0
41
1
10
13.4859375108936
20
-3.5295925429578
30
0
41
1
10
13.5661996489603
20
-3.5166196980172
30
0
41
1
10
13.687473006405
20
-3.49983081750867
30
0
41
1
10
13.7280653701268
20
-3.49467889094314
30
0
41
1
10
13.8092212284746
20
-3.48526020412598
30
0
41
1
10
13.8498214926852
20
-3.48098786212819
30
0
41
1
10
14.0529280440687
20
-3.46168817553706
30
0
41
1
10
14.2157475297485
20
-3.45280063737442
30
0
41
1
10
14.4603895180784
20
-3.44758877052871
30
0
41
1
10
14.5420061363099
20
-3.44721391917415
30
0
41
1
10
14.7053677712547
20
-3.44898933876985
30
0
41
1
10
14.7871699679212
20
-3.45114316781576
30
0
41
1
10
15.0321447841261
20
-3.46111981104056
30
0
41
1
10
15.1949895973403
20
-3.47243876816452
30
0
41
1
10
15.5198506923953
20
-3.5032372177769
30
0
41
1
10
15.681884579143
20
-3.52272500274043
30
0
41
1
10
16.0051286915394
20
-3.56901135987118
30
0
41
1
10
16.1659504192751
20
-3.59575528965212
30
0
41
1
10
16.4861401173228
20
-3.65570204891301
30
0
41
1
10
16.645507575438
20
-3.68890712611852
30
0
41
1
10
16.8835527338154
20
-3.74311265037744
30
0
41
1
10
16.9627286341006
20
-3.76191469133877
30
0
41
1
10
17.1205251748449
20
-3.80086027253833
30
0
41
1
10
17.1991757067639
20
-3.82101049355248
30
0
41
1
10
17.5912383966063
20
-3.92497798160889
30
0
41
1
10
17.9010916074498
20
-4.0184143834401
30
0
41
1
10
18.3609506773536
20
-4.17112402866351
30
0
41
1
10
18.5134930885096
20
-4.22415558489936
30
0
41
1
10
18.8164117541986
20
-4.3337575674708
30
0
41
1
10
18.9668420815575
20
-4.39034370310753
30
0
41
1
10
19.415274029426
20
-4.56481826683938
30
0
41
1
10
19.7104182478063
20
-4.68741712067447
30
0
41
1
10
20.0023210778391
20
-4.81469657158885
30
0
0
SPLINE
5
145
100
AcDbEntity
8
1
62
256
6
ByLayer
370
18
48
1
60
0
100
AcDbSpline
70
4
71
3
72
8
73
4
40
0
40
0
40
0
40
0
40
1
40
1
40
1
40
1
41
1
10
60.3024444370421
20
-7.05168449187747
30
0
41
1
10
60.3391179488577
20
-7.26837966094789
30
0
41
1
10
60.3757527816662
20
-7.48355749246798
30
0
41
1
10
60.4123453175577
20
-7.6971991779179
30
0
0
SPLINE
5
146
100
AcDbEntity
8
1
62
256
6
ByLayer
370
18
48
1
60
0
100
AcDbSpline
70
4
71
3
72
8
73
4
40
0
40
0
40
0
40
0
40
1
40
1
40
1
40
1
41
1
10
60.279951188857
20
3.85747412080201
30
0
41
1
10
60.3161654865438
20
3.85438658578175
30
0
41
1
10
60.3523807998586
20
3.85132795160757
30
0
41
1
10
60.3885967324662
20
3.84829829977741
30
0
0
SPLINE
5
147
100
AcDbEntity
8
1
62
256
6
ByLayer
370
18
48
1
60
0
100
AcDbSpline
70
4
71
3
72
24
73
20
40
0
40
0
40
0
40
0
40
0.0341804277607536
40
0.0619269346259611
40
0.0896734414911683
40
0.145166455221583
40
0.200659468951998
40
0.256152482682412
40
0.311645496412827
40
0.367138510143242
40
0.478124537604072
40
0.533617551334486
40
0.589110565064901
40
0.700096592525731
40
0.727843099390938
40
0.755589606256145
40
0.81108261998656
40
0.92206864744739
40
1
40
1
40
1
40
1
41
1
10
43.4483489517471
20
9.99836825232481
30
0
41
1
10
43.6398706186115
20
9.99686554042304
30
0
41
1
10
43.9868802622747
20
9.98944302547952
30
0
41
1
10
44.4894072011784
20
9.96634774462134
30
0
41
1
10
45.111402982333
20
9.92409356449889
30
0
41
1
10
45.888956224083
20
9.84565102878065
30
0
41
1
10
46.8220751374027
20
9.71108277455488
30
0
41
1
10
47.7552102805006
20
9.5366474733807
30
0
41
1
10
48.6882555388578
20
9.32300629700234
30
0
41
1
10
49.9323947706309
20
8.98692800557401
30
0
41
1
10
51.1774688853329
20
8.57609026141401
30
0
41
1
10
52.4249617767545
20
8.09440971880053
30
0
41
1
10
53.6745620044289
20
7.56713644548375
30
0
41
1
10
54.7714539456099
20
7.04843155390805
30
0
41
1
10
55.7150500916455
20
6.56623051938209
30
0
41
1
10
56.3450740712683
20
6.23499458817255
30
0
41
1
10
57.4503091051146
20
5.63051037347012
30
0
41
1
10
58.848729434129
20
4.8114272768793
30
0
41
1
10
59.937784065401
20
4.13427212345974
30
0
41
1
10
60.3885967324962
20
3.84829830009156
30
0
0
SPLINE
5
148
100
AcDbEntity
8
1
62
256
6
ByLayer
370
18
48
1
60
0
100
AcDbSpline
70
4
71
3
72
8
73
4
40
0
40
0
40
0
40
0
40
1
40
1
40
1
40
1
41
1
10
60.2799511888564
20
3.85747412080255
30
0
41
1
10
60.3613944867895
20
3.75408082970793
30
0
41
1
10
60.4485963954895
20
3.65115062442467
30
0
41
1
10
60.5427281579676
20
3.54877769186845
30
0
0
SPLINE
5
149
100
AcDbEntity
8
1
62
256
6
ByLayer
370
18
48
1
60
0
100
AcDbSpline
70
4
71
3
72
49
73
45
40
0
40
0
40
0
40
0
40
0.0153752866687522
40
0.0153752866687522
40
0.027998680429409
40
0.027998680429409
40
0.0406220741900658
40
0.0406220741900658
40
0.0911156492326942
40
0.0911156492326942
40
0.192102799317951
40
0.192102799317951
40
0.204726193078609
40
0.204726193078609
40
0.217349586839267
40
0.217349586839267
40
0.242596374360581
40
0.242596374360581
40
0.293089949403209
40
0.293089949403209
40
0.394077099488464
40
0.394077099488464
40
0.495064249573718
40
0.495064249573718
40
0.545557824616345
40
0.545557824616345
40
0.558181218377002
40
0.558181218377002
40
0.570804612137658
40
0.570804612137658
40
0.596051399658973
40
0.596051399658973
40
0.69703854974423
40
0.69703854974423
40
0.798025699829487
40
0.798025699829487
40
0.899012849914744
40
0.899012849914744
40
0.924259637436059
40
0.924259637436059
40
0.936883031196715
40
0.936883031196715
40
0.949506424957371
40
1
40
1
40
1
40
1
41
1
10
35.9563356099748
20
8.79054793669474
30
0
41
1
10
36.0816272458829
20
8.83160005243516
30
0
41
1
10
36.2069635041888
20
8.87169049132393
30
0
41
1
10
36.4353087497519
20
8.94292046012612
30
0
41
1
10
36.5382989800721
20
8.97437743619193
30
0
41
1
10
36.7443734943023
20
9.03596066631897
30
0
41
1
10
36.8474912151854
20
9.06609667982127
30
0
41
1
10
37.362780552099
20
9.21326224699772
30
0
41
1
10
37.7742289497439
20
9.31980565420292
30
0
41
1
10
39.0076849390806
20
9.60543537763732
30
0
41
1
10
39.8288063883523
20
9.75063937214645
30
0
41
1
10
40.7554916498518
20
9.86104173489477
30
0
41
1
10
40.8584971566854
20
9.87257193696968
30
0
41
1
10
41.064603485659
20
9.89415072467153
30
0
41
1
10
41.16773900401
20
9.90420180736751
30
0
41
1
10
41.4767165763079
20
9.93206952246044
30
0
41
1
10
41.682300217378
20
9.94762219527138
30
0
41
1
10
42.298034419593
20
9.9853051159289
30
0
41
1
10
42.7071693213305
20
9.99846751602911
30
0
41
1
10
43.9319583024353
20
10.0026193759495
30
0
41
1
10
44.7450153937363
20
9.95821529867197
30
0
41
1
10
46.3715401784816
20
9.77674891511717
30
0
41
1
10
47.1849186017044
20
9.63986148176073
30
0
41
1
10
48.4107093447893
20
9.3661105819186
30
0
41
1
10
48.8202693417667
20
9.26344086618033
30
0
41
1
10
49.3340277909431
20
9.12092165736175
30
0
41
1
10
49.4368698172292
20
9.09170916063988
30
0
41
1
10
49.642749548929
20
9.03186944846999
30
0
41
1
10
49.7458458216276
20
9.00122437826997
30
0
41
1
10
50.0550226991551
20
8.90730009384205
30
0
41
1
10
50.2607322339683
20
8.84211447931554
30
0
41
1
10
51.2875350730574
20
8.50366759397247
30
0
41
1
10
52.1033717633379
20
8.19278755081564
30
0
41
1
10
53.7313812372714
20
7.49893432937486
30
0
41
1
10
54.5435560462089
20
7.11609806085164
30
0
41
1
10
56.1716000406879
20
6.28560347326132
30
0
41
1
10
56.9874112835844
20
5.83790892476537
30
0
41
1
10
58.0140160189741
20
5.24230335942912
30
0
41
1
10
58.2196817590004
20
5.12138195537773
30
0
41
1
10
58.5287919232848
20
4.93738220899769
30
0
41
1
10
58.6319148302206
20
4.87562168779277
30
0
41
1
10
58.8380259356898
20
4.75145742453302
30
0
41
1
10
59.3531835284732
20
4.43930943380187
30
0
41
1
10
59.8679320390947
20
4.11872721694189
30
0
41
1
10
60.2799511888571
20
3.85747412080201
30
0
0
SPLINE
5
14A
100
AcDbEntity
8
1
62
256
6
ByLayer
370
13
48
1
60
0
100
AcDbSpline
70
4
71
3
72
17
73
13
40
0
40
0
40
0
40
0
40
0.0886850442970587
40
0.19529622231103
40
0.301907400325001
40
0.408518578338972
40
0.515129756352943
40
0.621740934366914
40
0.728352112380885
40
0.834963290394856
40
0.941574468408826
40
1
40
1
40
1
40
1
41
1
10
60.5427281591972
20
3.5487776912567
30
0
41
1
10
59.8495156372308
20
3.95885984461546
30
0
41
1
10
58.3229697819309
20
4.83515785925516
30
0
41
1
10
55.9630905932979
20
6.06950634003584
30
0
41
1
10
53.4630905932978
20
7.1970554292065
30
0
41
1
10
50.9630905932978
20
8.11431998209156
30
0
41
1
10
48.4630905932978
20
8.79071008542007
30
0
41
1
10
45.9630905932978
20
9.21024849516013
30
0
41
1
10
43.4630905932978
20
9.35643633927157
30
0
41
1
10
40.9630905932978
20
9.22926595041738
30
0
41
1
10
38.839736889684
20
8.88856303065072
30
0
41
1
10
37.5497165194034
20
8.5785570125507
30
0
41
1
10
37.0930294824563
20
8.45632297015473
30
0
0
SPLINE
5
14B
100
AcDbEntity
8
1
62
256
6
ByLayer
370
18
48
1
60
0
100
AcDbSpline
70
4
71
3
72
8
73
4
40
0
40
0
40
0
40
0
40
1
40
1
40
1
40
1
41
1
10
60.1576528204523
20
-4.81029087887748
30
0
41
1
10
60.2037012234459
20
-5.05987087433255
30
0
41
1
10
60.2507886406881
20
-5.31023629876472
30
0
41
1
10
60.2989812762318
20
-5.5614371946929
30
0
0
SPLINE
5
14C
100
AcDbEntity
8
1
62
256
6
ByLayer
370
13
48
1
60
0
100
AcDbSpline
70
4
71
3
72
14
73
10
40
0
40
0
40
0
40
0
40
0.106032189733033
40
0.262462251705095
40
0.418892313677158
40
0.57532237564922
40
0.731752437621282
40
0.888182499593345
40
1
40
1
40
1
40
1
41
1
10
60.1576528212405
20
-4.81029087793098
30
0
41
1
10
59.5927987452596
20
-4.49807896024117
30
0
41
1
10
58.1946113359454
20
-3.6963384630424
30
0
41
1
10
55.9630905932979
20
-2.31566875448769
30
0
41
1
10
53.4630905932979
20
-0.703444489585678
30
0
41
1
10
50.9630905932979
20
0.945477142538664
30
0
41
1
10
48.4630905932979
20
2.55419485640942
30
0
41
1
10
46.2007503766487
20
3.93407535661768
30
0
41
1
10
44.7717434933329
20
4.74194629566421
30
0
41
1
10
44.1760699433505
20
5.06447653977617
30
0
0
SPLINE
5
14D
100
AcDbEntity
8
1
62
256
6
ByLayer
370
18
48
1
60
0
100
AcDbSpline
70
4
71
3
72
8
73
4
40
0
40
0
40
0
40
0
40
1
40
1
40
1
40
1
41
1
10
60.2816475853124
20
-6.91070404736527
30
0
41
1
10
60.2885793272635
20
-6.95773930791014
30
0
41
1
10
60.2955116254667
20
-7.00473289229018
30
0
41
1
10
60.3024444370421
20
-7.05168449187747
30
0
0
SPLINE
5
14E
100
AcDbEntity
8
1
62
256
6
ByLayer
370
18
48
1
60
0
100
AcDbSpline
70
4
71
3
72
8
73
4
40
0
40
0
40
0
40
0
40
1
40
1
40
1
40
1
41
1
10
60.2816475853124
20
-6.91070404736539
30
0
41
1
10
60.2953013118417
20
-6.91939759074518
30
0
41
1
10
60.308903511936
20
-6.92813708138539
30
0
41
1
10
60.322452061302
20
-6.93692315151458
30
0
0
SPLINE
5
14F
100
AcDbEntity
8
1
62
256
6
ByLayer
370
18
48
1
60
0
100
AcDbSpline
70
4
71
3
72
40
73
36
40
0
40
0
40
0
40
0
40
0.0312500000000315
40
0.0312500000000315
40
0.0625000000000629
40
0.0625000000000629
40
0.0781250000000791
40
0.0781250000000791
40
0.0937500000000952
40
0.0937500000000952
40
0.109375000000111
40
0.109375000000111
40
0.125000000000128
40
0.125000000000128
40
0.140625000000144
40
0.140625000000144
40
0.15625000000016
40
0.15625000000016
40
0.187500000000162
40
0.187500000000162
40
0.218750000000163
40
0.218750000000163
40
0.250000000000165
40
0.250000000000165
40
0.31250000000015
40
0.31250000000015
40
0.375000000000136
40
0.375000000000136
40
0.500000000000108
40
0.500000000000108
40
0.625000000000081
40
0.625000000000081
40
0.750000000000054
40
0.750000000000054
40
1
40
1
40
1
40
1
41
1
10
60.3224520613016
20
-6.93692315151438
30
0
41
1
10
60.330226808418
20
-6.94196498083176
30
0
41
1
10
60.33829199104
20
-6.94656053866288
30
0
41
1
10
60.3552807499571
20
-6.95444252553449
30
0
41
1
10
60.3641931156256
20
-6.95774574330747
30
0
41
1
10
60.3786393018188
20
-6.96106799760236
30
0
41
1
10
60.3835307815544
20
-6.96187007216233
30
0
41
1
10
60.3934857726824
20
-6.96273518801115
30
0
41
1
10
60.398597186972
20
-6.96279503246694
30
0
41
1
10
60.4088192716904
20
-6.96202036593181
30
0
41
1
10
60.4138616820076
20
-6.96119733310181
30
0
41
1
10
60.4238058981651
20
-6.95865692491051
30
0
41
1
10
60.4287620077541
20
-6.95691104077096
30
0
41
1
10
60.4381924042714
20
-6.95266792105846
30
0
41
1
10
60.4426780486129
20
-6.95018234033381
30
0
41
1
10
60.45126112792
20
-6.94459603963725
30
0
41
1
10
60.4553432212056
20
-6.94149871226341
30
0
41
1
10
60.4667748665173
20
-6.93173616352613
30
0
41
1
10
60.4734764317093
20
-6.92451443610213
30
0
41
1
10
60.4856948375319
20
-6.90919761590624
30
0
41
1
10
60.491058052
20
-6.901290168363
30
0
41
1
10
60.500853846933
20
-6.88516604957215
30
0
41
1
10
60.5052774067756
20
-6.8769463245157
30
0
41
1
10
60.5175493483952
20
-6.85195634963648
30
0
41
1
10
60.5244428868175
20
-6.83478480500949
30
0
41
1
10
60.5365405050981
20
-6.80039099620737
30
0
41
1
10
60.54174288161
20
-6.78315015830685
30
0
41
1
10
60.5557257962273
20
-6.73134434324564
30
0
41
1
10
60.562914340099
20
-6.69669773155326
30
0
41
1
10
60.5750134840257
20
-6.62728460287593
30
0
41
1
10
60.57987842383
20
-6.59251557871315
30
0
41
1
10
60.5880774468184
20
-6.52289063855616
30
0
41
1
10
60.5913993834645
20
-6.48801244141137
30
0
41
1
10
60.5996425344102
20
-6.38359473822854
30
0
41
1
10
60.6028923103959
20
-6.31415954604213
30
0
41
1
10
60.6047673822783
20
-6.24480386693878
30
0
0
SPLINE
5
150
100
AcDbEntity
8
1
62
256
6
ByLayer
370
18
48
1
60
0
100
AcDbSpline
70
4
71
3
72
8
73
4
40
0
40
0
40
0
40
0
40
1
40
1
40
1
40
1
41
1
10
60.6047673822783
20
-6.24480386693878
30
0
41
1
10
60.502514209989
20
-6.02006351527072
30
0
41
1
10
60.4005861446954
20
-5.79226864224367
30
0
41
1
10
60.2989812762312
20
-5.56143719469827
30
0
0
SPLINE
5
151
100
AcDbEntity
8
1
62
256
6
ByLayer
370
18
48
1
60
0
100
AcDbSpline
70
4
71
3
72
80
73
76
40
0
40
0
40
0
40
0
40
0.0425577186205476
40
0.0425577186205476
40
0.0851154372410952
40
0.0851154372410952
40
0.10639429655137
40
0.10639429655137
40
0.117033726206507
40
0.117033726206507
40
0.127673155861644
40
0.148952015171919
40
0.148952015171919
40
0.170230874482194
40
0.170230874482194
40
0.212788593102745
40
0.212788593102745
40
0.255346311723295
40
0.255346311723295
40
0.27662517103357
40
0.27662517103357
40
0.297904030343844
40
0.297904030343844
40
0.340461748964394
40
0.340461748964394
40
0.361740608274668
40
0.372380037929805
40
0.372380037929805
40
0.383019467584942
40
0.383019467584942
40
0.404298326895215
40
0.404298326895215
40
0.425577186205489
40
0.425577186205489
40
0.468134904826035
40
0.468134904826035
40
0.510692623446582
40
0.510692623446582
40
0.531971482756854
40
0.531971482756854
40
0.553250342067127
40
0.553250342067127
40
0.595808060687671
40
0.595808060687671
40
0.638365779308216
40
0.638365779308216
40
0.659644638618487
40
0.659644638618487
40
0.670284068273623
40
0.670284068273623
40
0.680923497928759
40
0.680923497928759
40
0.723481216549303
40
0.723481216549303
40
0.766038935169848
40
0.766038935169848
40
0.78731779448012
40
0.78731779448012
40
0.808596653790393
40
0.808596653790393
40
0.851154372410939
40
0.851154372410939
40
0.872433231721212
40
0.872433231721212
40
0.893712091031484
40
0.893712091031484
40
0.936269809652029
40
0.936269809652029
40
0.946909239307165
40
0.946909239307165
40
0.957548668962301
40
0.957548668962301
40
0.978827528272573
40
0.978827528272573
40
1
40
1
40
1
40
1
41
1
10
60.2989812762131
20
-5.56143719469276
30
0
41
1
10
59.8868265483151
20
-5.32598781676222
30
0
41
1
10
59.4750112919529
20
-5.0837202539746
30
0
41
1
10
58.6514570214551
20
-4.58632751770659
30
0
41
1
10
58.2397673619563
20
-4.3311352188251
30
0
41
1
10
57.6216260239174
20
-3.93940217851767
30
0
41
1
10
57.4154658096454
20
-3.80734924542361
30
0
41
1
10
57.1059221943619
20
-3.6072099684099
30
0
41
1
10
57.0026798740568
20
-3.54014638872178
30
0
41
1
10
56.7965013971677
20
-3.40564146095983
30
0
41
1
10
56.4875328036575
20
-3.20321458360195
30
0
41
1
10
56.1793609265599
20
-2.99892300691315
30
0
41
1
10
55.76899302052
20
-2.72513473245996
30
0
41
1
10
55.5640801447314
20
-2.58752854403221
30
0
41
1
10
54.9499594355312
20
-2.17288278893378
30
0
41
1
10
54.5412954109812
20
-1.89414483226156
30
0
41
1
10
53.7250203770343
20
-1.33268762360254
30
0
41
1
10
53.3174618111683
20
-1.0498902038872
30
0
41
1
10
52.706355297074
20
-0.623465190950299
30
0
41
1
10
52.5026781182161
20
-0.480971210672863
30
0
41
1
10
52.0951977001913
20
-0.195525379369542
30
0
41
1
10
51.8913905352209
20
-0.0525803883959952
30
0
41
1
10
51.2794302958474
20
0.376410966202826
30
0
41
1
10
50.8706882940592
20
0.662531468864387
30
0
41
1
10
50.2555125424457
20
1.09058923216637
30
0
41
1
10
49.9474285599186
20
1.30436722674318
30
0
41
1
10
49.6384823010869
20
1.51760541582459
30
0
41
1
10
49.4323121312896
20
1.65962449325099
30
0
41
1
10
49.3290884649446
20
1.73058874819549
30
0
41
1
10
49.0193182679991
20
1.94308376548003
30
0
41
1
10
48.8132486548118
20
2.08382275040211
30
0
41
1
10
48.4018921186406
20
2.36330121963749
30
0
41
1
10
48.196599622541
20
2.50203740038381
30
0
41
1
10
47.5815939217543
20
2.91500229281266
30
0
41
1
10
47.1727047338042
20
3.18599526189368
30
0
41
1
10
46.3564455534011
20
3.71821202604463
30
0
41
1
10
45.9490710546701
20
3.97943150768279
30
0
41
1
10
45.3383854414162
20
4.36290383623896
30
0
41
1
10
45.1348921133974
20
4.48933178700466
30
0
41
1
10
44.7279370266307
20
4.73917991360412
30
0
41
1
10
44.5244674348599
20
4.86259850887879
30
0
41
1
10
43.9136738240225
20
5.22816178879415
30
0
41
1
10
43.5060317598082
20
5.46559502171263
30
0
41
1
10
42.68888007284
20
5.92638598501861
30
0
41
1
10
42.2793775683114
20
6.14975895863037
30
0
41
1
10
41.6629751160778
20
6.47299754281423
30
0
41
1
10
41.4571488195497
20
6.57877057653849
30
0
41
1
10
41.1477668710912
20
6.73427830225179
30
0
41
1
10
41.0444831919527
20
6.78561016986066
30
0
41
1
10
40.8382401130404
20
6.88694680317522
30
0
41
1
10
40.7352151146281
20
6.93698722811536
30
0
41
1
10
40.2204821616282
20
7.18411582752285
30
0
41
1
10
39.8100543858606
20
7.3718860578166
30
0
41
1
10
38.9912950657895
20
7.72675417698542
30
0
41
1
10
38.5829523300949
20
7.89386587803224
30
0
41
1
10
37.9713331369373
20
8.12823403715487
30
0
41
1
10
37.7676055718527
20
8.20363923320687
30
0
41
1
10
37.3603099358108
20
8.34886144376202
30
0
41
1
10
37.1567464105846
20
8.41866292583322
30
0
41
1
10
36.5459282571424
20
8.61986461060681
30
0
41
1
10
36.138607037468
20
8.74293443342745
30
0
41
1
10
35.5267456821151
20
8.91001046149671
30
0
41
1
10
35.3226521073612
20
8.96276707597042
30
0
41
1
10
34.9139880415337
20
9.06263818756236
30
0
41
1
10
34.7094245193711
20
9.10973832345493
30
0
41
1
10
34.094935887936
20
9.24217362473644
30
0
41
1
10
33.6842076483381
20
9.31869852513267
30
0
41
1
10
33.1688727234111
20
9.39877003940222
30
0
41
1
10
33.065698957109
20
9.41400531529388
30
0
41
1
10
32.8591784365958
20
9.4428832436449
30
0
41
1
10
32.7559828359563
20
9.45650460326181
30
0
41
1
10
32.4465643294574
20
9.49490204950672
30
0
41
1
10
32.2405158327587
20
9.51719368080217
30
0
41
1
10
31.8297135057364
20
9.55515066720537
30
0
41
1
10
31.6249524001016
20
9.57086462933174
30
0
41
1
10
31.4202115474729
20
9.58345360262777
30
0
0
SPLINE
5
152
100
AcDbEntity
8
1
62
256
6
ByLayer
370
18
48
1
60
0
100
AcDbSpline
70
4
71
3
72
43
73
39
40
0
40
0
40
0
40
0
40
0.0031547497233577
40
0.0178919983601492
40
0.047366495633732
40
0.0768409929073148
40
0.0915782415441062
40
0.106315490180898
40
0.121052738817689
40
0.13578998745448
40
0.194738982001646
40
0.209476230638438
40
0.224213479275229
40
0.253687976548812
40
0.268425225185603
40
0.283162473822395
40
0.312636971095977
40
0.371585965643143
40
0.386323214279934
40
0.401060462916726
40
0.430534960190309
40
0.489483954737474
40
0.504221203374266
40
0.518958452011057
40
0.54843294928464
40
0.577907446558223
40
0.607381943831806
40
0.636856441105389
40
0.666330938378971
40
0.725279932926137
40
0.75475443019972
40
0.784228927473303
40
0.843177922020468
40
0.85791517065726
40
0.872652419294051
40
0.902126916567634
40
0.9610759111148
40
1
40
1
40
1
40
1
41
1
10
28.5448576917583
20
9.90992799936888
30
0
41
1
10
28.5781433112258
20
9.90864437580478
30
0
41
1
10
28.7669158567175
20
9.90086651295013
30
0
41
1
10
29.2665871950743
20
9.87277782741796
30
0
41
1
10
30.0435855858626
20
9.80061765349399
30
0
41
1
10
30.8201799150662
20
9.69109745769572
30
0
41
1
10
31.4411797955152
20
9.58161729000625
30
0
41
1
10
31.9068048425413
20
9.48859509891972
30
0
41
1
10
32.3723091678529
20
9.38470991274673
30
0
41
1
10
33.3031014222456
20
9.15531243703407
30
0
41
1
10
34.2334175580878
20
8.87272833880115
30
0
41
1
10
35.1635380595427
20
8.54078532401849
30
0
41
1
10
35.7835822768827
20
8.30666099249217
30
0
41
1
10
36.4036136117871
20
8.05332238530954
30
0
41
1
10
37.0236736895151
20
7.7817100193493
30
0
41
1
10
37.643768056442
20
7.49829871460855
30
0
41
1
10
38.7290694017708
20
6.97169567195735
30
0
41
1
10
39.8146627567432
20
6.38797793260758
30
0
41
1
10
40.7454848651018
20
5.85277525415282
30
0
41
1
10
41.3661245638333
20
5.48708195885942
30
0
41
1
10
42.4524757289705
20
4.82420566949412
30
0
41
1
10
43.5391820908467
20
4.12082326718857
30
0
41
1
10
44.4708254854018
20
3.49622088011728
30
0
41
1
10
45.0919636142573
20
3.07447114018331
30
0
41
1
10
45.8684648306132
20
2.53799361526029
30
0
41
1
10
46.8003345348255
20
1.88256438879446
30
0
41
1
10
47.7322253646147
20
1.21848056856095
30
0
41
1
10
48.6640362564528
20
0.548932428649636
30
0
41
1
10
49.9065731275374
20
-0.347329433328895
30
0
41
1
10
51.1502848482408
20
-1.24327508364033
30
0
41
1
10
52.3971084744196
20
-2.12792127029928
30
0
41
1
10
53.6465197395914
20
-3.00134971132084
30
0
41
1
10
54.7441190848783
20
-3.7459141090693
30
0
41
1
10
55.6893243541749
20
-4.36320273064749
30
0
41
1
10
56.3206392545911
20
-4.76866491640155
30
0
41
1
10
57.4287973940444
20
-5.46101368679186
30
0
41
1
10
58.80631484322
20
-6.26705174613039
30
0
41
1
10
59.8753865948745
20
-6.83500624136548
30
0
41
1
10
60.3024444370422
20
-7.05168449187747
30
0
0
SPLINE
5
153
100
AcDbEntity
8
1
62
256
6
ByLayer
370
18
48
1
60
0
100
AcDbSpline
70
4
71
3
72
8
73
4
40
0
40
0
40
0
40
0
40
1
40
1
40
1
40
1
41
1
10
60.1426324932976
20
-8.56081878380175
30
0
41
1
10
60.1890417514404
20
-8.70282886747327
30
0
41
1
10
60.2365738170815
20
-8.84183402875379
30
0
41
1
10
60.2853056169519
20
-8.97762840111085
30
0
0
SPLINE
5
154
100
AcDbEntity
8
1
62
256
6
ByLayer
370
13
48
1
60
0
100
AcDbSpline
70
4
71
3
72
23
73
19
40
0
40
0
40
0
40
0
40
0.0520852993963424
40
0.129614325871215
40
0.207143352346087
40
0.28467237882096
40
0.362201405295832
40
0.439730431770704
40
0.517259458245577
40
0.575406228101731
40
0.633552997957886
40
0.672317511195322
40
0.711082024432758
40
0.769228794288912
40
0.827375564145067
40
0.904904590619939
40
0.982433617094812
40
1
40
1
40
1
40
1
41
1
10
60.142632494073
20
-8.56081878427182
30
0
41
1
10
59.5827851938147
20
-8.68058859971765
30
0
41
1
10
58.189604560223
20
-8.91939934968002
30
0
41
1
10
55.9630905932979
20
-9.05841339768799
30
0
41
1
10
53.4630905932979
20
-8.8840343536115
30
0
41
1
10
50.9630905932979
20
-8.37868790058593
30
0
41
1
10
48.4630905932979
20
-7.57152427660748
30
0
41
1
10
45.9630905932979
20
-6.48596328617433
30
0
41
1
10
43.6714239266312
20
-5.26905119195075
30
0
41
1
10
41.5880905932979
20
-4.02513065770219
30
0
41
1
10
39.9214239266312
20
-2.95915513226797
30
0
41
1
10
38.4630905932979
20
-1.98703866323891
30
0
41
1
10
37.0047572599645
20
-0.993605055512376
30
0
41
1
10
35.3380905932979
20
0.158755481059558
30
0
41
1
10
33.2547572599646
20
1.5969883064995
30
0
41
1
10
30.9630905932979
20
3.13420035860221
30
0
41
1
10
29.1076088068421
20
4.29470504371312
30
0
41
1
10
28.0854603537196
20
4.89030549289578
30
0
41
1
10
27.8966452339305
20
4.99874545187504
30
0
0
SPLINE
5
155
100
AcDbEntity
8
1
62
256
6
ByLayer
370
18
48
1
60
0
100
AcDbSpline
70
4
71
3
72
8
73
4
40
0
40
0
40
0
40
0
40
1
40
1
40
1
40
1
41
1
10
60.6026918430804
20
-8.70859170426652
30
0
41
1
10
60.4965319589667
20
-8.80381258549556
30
0
41
1
10
60.3907371475114
20
-8.89348240297318
30
0
41
1
10
60.2853056169513
20
-8.9776284011202
30
0
0
SPLINE
5
156
100
AcDbEntity
8
1
62
256
6
ByLayer
370
18
48
1
60
0
100
AcDbSpline
70
4
71
3
72
113
73
109
40
0
40
0
40
0
40
0
40
0.0312500000000007
40
0.0312500000000007
40
0.0468750000000014
40
0.0468750000000014
40
0.0625000000000021
40
0.0625000000000021
40
0.0781250000000027
40
0.0781250000000027
40
0.0859375000000034
40
0.0859375000000034
40
0.0937500000000041
40
0.0937500000000041
40
0.109375000000005
40
0.109375000000005
40
0.125000000000007
40
0.125000000000007
40
0.156250000000009
40
0.156250000000009
40
0.17187500000001
40
0.17187500000001
40
0.187500000000011
40
0.187500000000011
40
0.203125000000012
40
0.203125000000012
40
0.218750000000013
40
0.218750000000013
40
0.234375000000014
40
0.234375000000014
40
0.250000000000015
40
0.250000000000015
40
0.265625000000016
40
0.265625000000016
40
0.273437500000016
40
0.273437500000016
40
0.281250000000017
40
0.296875000000018
40
0.296875000000018
40
0.312500000000019
40
0.312500000000019
40
0.34375000000002
40
0.34375000000002
40
0.375000000000022
40
0.375000000000022
40
0.390625000000023
40
0.390625000000023
40
0.406250000000024
40
0.406250000000024
40
0.437500000000026
40
0.437500000000026
40
0.453125000000027
40
0.453125000000027
40
0.457031250000027
40
0.457031250000027
40
0.460937500000027
40
0.460937500000027
40
0.468750000000027
40
0.468750000000027
40
0.484375000000026
40
0.484375000000026
40
0.500000000000026
40
0.500000000000026
40
0.531250000000025
40
0.531250000000025
40
0.546875000000025
40
0.546875000000025
40
0.562500000000025
40
0.562500000000025
40
0.593750000000025
40
0.593750000000025
40
0.625000000000025
40
0.625000000000025
40
0.640625000000024
40
0.640625000000024
40
0.648437500000024
40
0.648437500000024
40
0.656250000000024
40
0.656250000000024
40
0.687500000000023
40
0.687500000000023
40
0.718750000000022
40
0.718750000000022
40
0.734375000000022
40
0.734375000000022
40
0.742187500000022
40
0.742187500000022
40
0.750000000000022
40
0.750000000000022
40
0.781250000000019
40
0.781250000000019
40
0.812500000000017
40
0.812500000000017
40
0.828125000000016
40
0.828125000000016
40
0.835937500000015
40
0.835937500000015
40
0.843750000000014
40
0.843750000000014
40
0.875000000000011
40
0.875000000000011
40
0.906250000000008
40
0.906250000000008
40
0.937500000000006
40
0.937500000000006
40
0.968750000000003
40
0.968750000000003
40
1
40
1
40
1
40
1
41
1
10
60.2853056169327
20
-8.9776284011235
30
0
41
1
10
59.8735784417654
20
-9.08693821406899
30
0
41
1
10
59.4622111052704
20
-9.18262880285539
30
0
41
1
10
58.8452812986336
20
-9.30560990621964
30
0
41
1
10
58.6396583932443
20
-9.34317495828347
30
0
41
1
10
58.2283906109424
20
-9.41134203763954
30
0
41
1
10
58.0227440952503
20
-9.44193750943688
30
0
41
1
10
57.6111959358286
20
-9.49603398258375
30
0
41
1
10
57.4052918831653
20
-9.5195421601359
30
0
41
1
10
57.0960497506785
20
-9.54946446255673
30
0
41
1
10
56.992987924056
20
-9.55854050609688
30
0
41
1
10
56.7871621543273
20
-9.57487585854491
30
0
41
1
10
56.6843543895604
20
-9.5821390592717
30
0
41
1
10
56.3762025981056
20
-9.60122286215812
30
0
41
1
10
56.1711313584507
20
-9.61033392861333
30
0
41
1
10
55.7614736325348
20
-9.62140138838356
30
0
41
1
10
55.5568827843674
20
-9.62336946437139
30
0
41
1
10
54.9437132559081
20
-9.61877707012508
30
0
41
1
10
54.5357293349097
20
-9.60177844178651
30
0
41
1
10
53.9247021719305
20
-9.55524351245484
30
0
41
1
10
53.7211822392927
20
-9.53622481912404
30
0
41
1
10
53.3143819725206
20
-9.49116426195891
30
0
41
1
10
53.1111068394312
20
-9.46512430434416
30
0
41
1
10
52.7045631068649
20
-9.4060107951407
30
0
41
1
10
52.5012950343355
20
-9.37293279963924
30
0
41
1
10
52.0945165098829
20
-9.29971120599748
30
0
41
1
10
51.8910029533105
20
-9.25957697891934
30
0
41
1
10
51.4834302606969
20
-9.1724817014036
30
0
41
1
10
51.279369009348
20
-9.12553256862341
30
0
41
1
10
50.8704326393927
20
-9.02497012162965
30
0
41
1
10
50.6655489722906
20
-8.97135719932345
30
0
41
1
10
50.2548614279227
20
-8.85742932884247
30
0
41
1
10
50.0490601089179
20
-8.79711268028029
30
0
41
1
10
49.7396047874533
20
-8.70154928259626
30
0
41
1
10
49.6363110453481
20
-8.66883970728554
30
0
41
1
10
49.4301106165458
20
-8.60192898624362
30
0
41
1
10
49.1211488071301
20
-8.49925234563065
30
0
41
1
10
48.8131547676516
20
-8.38968829227088
30
0
41
1
10
48.4032620327652
20
-8.23754326822626
30
0
41
1
10
48.1986981805551
20
-8.15844438934849
30
0
41
1
10
47.5858223410526
20
-7.91257844345606
30
0
41
1
10
47.1782709184048
20
-7.73741983923372
30
0
41
1
10
46.3642183176365
20
-7.36504077574824
30
0
41
1
10
45.9577070524989
20
-7.16781780323643
30
0
41
1
10
45.3476317837323
20
-6.85664508966417
30
0
41
1
10
45.1442338269621
20
-6.75032858925104
30
0
41
1
10
44.7372310500916
20
-6.5324902670651
30
0
41
1
10
44.5336251619632
20
-6.42096527145875
30
0
41
1
10
43.9221096578129
20
-6.07932692683579
30
0
41
1
10
43.5135466184995
20
-5.84201988327106
30
0
41
1
10
42.8984431387209
20
-5.47192738159046
30
0
41
1
10
42.693030161089
20
-5.34619617219195
30
0
41
1
10
42.43563876709
20
-5.18638639462387
30
0
41
1
10
42.3841296278243
20
-5.15429021176627
30
0
41
1
10
42.2810472595389
20
-5.08982926777381
30
0
41
1
10
42.2294679789925
20
-5.05746059574764
30
0
41
1
10
42.0748713359696
20
-4.96010385991914
30
0
41
1
10
41.9719169146663
20
-4.8948158483891
30
0
41
1
10
41.6633582506475
20
-4.69783225984105
30
0
41
1
10
41.4580542762741
20
-4.56502311665639
30
0
41
1
10
41.0481526693906
20
-4.29654256258596
30
0
41
1
10
40.8435627437949
20
-4.16085723653168
30
0
41
1
10
40.2305112805834
20
-3.75008069567011
30
0
41
1
10
39.822850161821
20
-3.47112148066077
30
0
41
1
10
39.2122884587
20
-3.0456833219898
30
0
41
1
10
39.0089230467887
20
-2.90269713470426
30
0
41
1
10
38.6021881401115
20
-2.61491218931795
30
0
41
1
10
38.3988285442063
20
-2.470092206342
30
0
41
1
10
37.7885809126871
20
-2.0330422915161
30
0
41
1
10
37.3815147751694
20
-1.73824633973158
30
0
41
1
10
36.5658394929404
20
-1.14308610972645
30
0
41
1
10
36.1572286759008
20
-0.842735701434549
30
0
41
1
10
35.5422573163657
20
-0.389081829804411
30
0
41
1
10
35.3369299706907
20
-0.237318354998109
30
0
41
1
10
35.0282340386429
20
-0.0092448840450459
30
0
41
1
10
34.925211494507
20
0.0668580919447095
30
0
41
1
10
34.7189490774797
20
0.219181140795456
30
0
41
1
10
34.6158735189539
20
0.295281019201411
30
0
41
1
10
34.1007370662267
20
0.675416853819286
30
0
41
1
10
33.6893954223219
20
0.978361066599916
30
0
41
1
10
32.8669519936065
20
1.58010568136794
30
0
41
1
10
32.4558897250474
20
1.87894641660122
30
0
41
1
10
31.8386275132628
20
2.32291105990953
30
0
41
1
10
31.6327509673443
20
2.47017413850554
30
0
41
1
10
31.3236046688015
20
2.68980436896567
30
0
41
1
10
31.2204748605905
20
2.76282239029248
30
0
41
1
10
31.0142057073612
20
2.90833049562107
30
0
41
1
10
30.9111269745524
20
2.9807781548248
30
0
41
1
10
30.3959715713136
20
3.34142957072615
30
0
41
1
10
29.9846223932945
20
3.62488253788769
30
0
41
1
10
29.1622423127234
20
4.17998920577892
30
0
41
1
10
28.7512020184256
20
4.45163587114138
30
0
41
1
10
28.1337842850315
20
4.84886672558724
30
0
41
1
10
27.9278385913677
20
4.97957369005204
30
0
41
1
10
27.6185737320536
20
5.17296883836923
30
0
41
1
10
27.5153733807387
20
5.23702339164467
30
0
41
1
10
27.3091412391829
20
5.36403601252476
30
0
41
1
10
27.2061306771869
20
5.4269814567742
30
0
41
1
10
26.6915706089805
20
5.73885720103598
30
0
41
1
10
26.2814797186657
20
5.97925049958855
30
0
41
1
10
25.4631046231548
20
6.44086538533429
30
0
41
1
10
25.0548169974987
20
6.66209975826496
30
0
41
1
10
24.2388522543567
20
7.08400599682861
30
0
41
1
10
23.8310584892737
20
7.28484625333957
30
0
41
1
10
23.0146420269764
20
7.66484200623981
30
0
41
1
10
22.6060740822289
20
7.84384373218742
30
0
41
1
10
21.786580865167
20
8.17916466705987
30
0
41
1
10
21.3757067808452
20
8.33540176174961
30
0
41
1
10
20.9630905932979
20
8.479306936207
30
0
0
SPLINE
5
157
100
AcDbEntity
8
1
62
256
6
ByLayer
370
18
48
1
60
0
100
AcDbSpline
70
4
71
3
72
8
73
4
40
0
40
0
40
0
40
0
40
1
40
1
40
1
40
1
41
1
10
20.9630905932979
20
8.479306936207
30
0
41
1
10
20.7209292430712
20
8.55355371887126
30
0
41
1
10
20.4799265463639
20
8.6252606248365
30
0
41
1
10
20.2401835801327
20
8.69420608397584
30
0
0
SPLINE
5
158
100
AcDbEntity
8
1
62
256
6
ByLayer
370
18
48
1
60
0
100
AcDbSpline
70
4
71
3
72
8
73
4
40
0
40
0
40
0
40
0
40
1
40
1
40
1
40
1
41
1
10
60.4123453175577
20
-7.6971991779179
30
0
41
1
10
60.4123855473707
20
-7.69741297355506
30
0
41
1
10
60.4124257770933
20
-7.69762676707518
30
0
41
1
10
60.4124660067255
20
-7.69784055847822
30
0
0
SPLINE
5
159
100
AcDbEntity
8
1
62
256
6
ByLayer
370
18
48
1
60
0
100
AcDbSpline
70
4
71
3
72
8
73
4
40
0
40
0
40
0
40
0
40
1
40
1
40
1
40
1
41
1
10
60.4137838786132
20
-7.6978661477653
30
0
41
1
10
60.4171704234121
20
-7.69943617557274
30
0
41
1
10
60.4205570842236
20
-7.70100555801923
30
0
41
1
10
60.423943861153
20
-7.70257429458448
30
0
0
SPLINE
5
15A
100
AcDbEntity
8
1
62
256
6
ByLayer
370
18
48
1
60
0
100
AcDbSpline
70
4
71
3
72
8
73
4
40
0
40
0
40
0
40
0
40
1
40
1
40
1
40
1
41
1
10
60.4137838786133
20
-7.69786614776532
30
0
41
1
10
60.4133445915093
20
-7.69785754856599
30
0
41
1
10
60.4129053008629
20
-7.69784901875821
30
0
41
1
10
60.4124660067256
20
-7.69784055847819
30
0
0
SPLINE
5
15B
100
AcDbEntity
8
1
62
256
6
ByLayer
370
13
48
1
60
0
100
AcDbSpline
70
4
71
3
72
18
73
14
40
0
40
0
40
0
40
0
40
0.0951801798072428
40
0.170581831489973
40
0.245983483172702
40
0.296251250961189
40
0.346519018749675
40
0.421920670432405
40
0.497322322115135
40
0.597857857692108
40
0.698393393269081
40
0.798928928846054
40
1
40
1
40
1
40
1
41
1
10
45.8299198756258
20
1.73581275536125
30
0
41
1
10
45.0409767815165
20
2.2601153612425
30
0
41
1
10
43.6270336874071
20
3.18430469659793
30
0
41
1
10
41.5880905932978
20
4.44291469217677
30
0
41
0.999999999999999
10
39.9214239266311
20
5.39776181552179
30
0
41
1
10
38.4630905932978
20
6.16713133066128
30
0
41
0.999999999999999
10
37.0047572599645
20
6.8776417624768
30
0
41
1
10
35.3380905932978
20
7.59653884248817
30
0
41
1
10
33.2547572599646
20
8.33748389351067
30
0
41
1
10
30.9630905932978
20
8.93632050054706
30
0
41
1
10
28.4630905932978
20
9.29287302087991
30
0
41
1
10
25.1297572599645
20
9.36418811104304
30
0
41
1
10
22.6297572599645
20
8.95219452622135
30
0
41
1
10
20.9630905932978
20
8.48918864535437
30
0
0
SPLINE
5
15C
100
AcDbEntity
8
1
62
256
6
ByLayer
370
13
48
1
60
0
100
AcDbSpline
70
4
71
3
72
14
73
10
40
0
40
0
40
0
40
0
40
0.0849926562637525
40
0.215707991083216
40
0.34642332590268
40
0.477138660722144
40
0.607853995541608
40
0.738569330361072
40
1
40
1
40
1
40
1
41
1
10
40.0886201530305
20
-6.05712822633035
30
0
41
1
10
39.5467769664529
20
-5.95619285182741
30
0
41
1
10
38.171600446542
20
-5.65924778992397
30
0
41
1
10
35.9630905932978
20
-5.02898996463378
30
0
41
1
10
33.4630905932979
20
-4.12830792052392
30
0
41
1
10
30.9630905932978
20
-3.08421382706561
30
0
41
1
10
28.4630905932978
20
-1.93151691558967
30
0
41
1
10
25.1297572599645
20
-0.31536043203883
30
0
41
1
10
22.6297572599645
20
0.921424900907198
30
0
41
1
10
20.9630905932978
20
1.69188343399091
30
0
0
SPLINE
5
15D
100
AcDbEntity
8
1
62
256
6
ByLayer
370
18
48
1
60
0
100
AcDbSpline
70
4
71
3
72
16
73
12
40
0
40
0
40
0
40
0
40
0.042109985840972
40
0.14854220963642
40
0.254974433431867
40
0.361406657227315
40
0.467838881022762
40
0.57427110481821
40
0.680703328613657
40
0.787135552409105
40
1
40
1
40
1
40
1
41
1
10
44.4522173901292
20
-8.32849191942407
30
0
41
1
10
44.1225084578521
20
-8.37131977503233
30
0
41
1
10
42.9594661922416
20
-8.49819060220594
30
0
41
1
10
40.9630905932978
20
-8.5667137670143
30
0
41
1
10
38.4630905932978
20
-8.37796688310024
30
0
41
1
10
35.9630905932978
20
-7.92344483576499
30
0
41
1
10
33.4630905932979
20
-7.21943772751192
30
0
41
1
10
30.9630905932978
20
-6.28658469357458
30
0
41
1
10
28.4630905932978
20
-5.15255438574837
30
0
41
1
10
25.1297572599644
20
-3.4240491025987
30
0
41
1
10
22.6297572599645
20
-1.945512618815
30
0
41
1
10
20.9630905932978
20
-0.936338128535766
30
0
0
SPLINE
5
15E
100
AcDbEntity
8
1
62
256
6
ByLayer
370
13
48
1
60
0
100
AcDbSpline
70
4
71
3
72
14
73
10
40
0
40
0
40
0
40
0
40
0.108279641998024
40
0.235668264569735
40
0.363056887141446
40
0.490445509713156
40
0.617834132284867
40
0.745222754856578
40
1
40
1
40
1
40
1
41
1
10
40.5880771072439
20
-8.77001426796602
30
0
41
1
10
39.8797482692619
20
-8.80114716602523
30
0
41
1
10
38.3380860979465
20
-8.79570113573351
30
0
41
1
10
35.9630905932977
20
-8.54180237468384
30
0
41
1
10
33.4630905932978
20
-8.00441384097084
30
0
41
1
10
30.9630905932978
20
-7.21222294504048
30
0
41
1
10
28.4630905932978
20
-6.19110946668852
30
0
41
1
10
25.1297572599644
20
-4.57032468604373
30
0
41
1
10
22.6297572599644
20
-3.11445871983864
30
0
41
1
10
20.9630905932978
20
-2.09958322357619
30
0
0
SPLINE
5
15F
100
AcDbEntity
8
1
62
256
6
ByLayer
370
18
48
1
60
0
100
AcDbSpline
70
4
71
3
72
8
73
4
40
0
40
0
40
0
40
0
40
1
40
1
40
1
40
1
41
1
10
60.3885967324812
20
3.84829829993612
30
0
41
1
10
60.4498212190944
20
3.84130190747783
30
0
41
1
10
60.5110604048408
20
3.83438900855168
30
0
41
1
10
60.5723142316024
20
3.82755927317726
30
0
0
SPLINE
5
160
100
AcDbEntity
8
1
62
256
6
ByLayer
370
13
48
1
60
0
100
AcDbSpline
70
4
71
3
72
13
73
9
40
0
40
0
40
0
40
0
40
0.308431657752158
40
0.462647486628237
40
0.616863315504316
40
0.771079144380395
40
0.925294973256474
40
1
40
1
40
1
40
1
41
1
10
20.9630905932978
20
2.52652660389447
30
0
41
1
10
22.6297572599645
20
1.85985967376169
30
0
41
1
10
25.1297572599645
20
0.76288357813604
30
0
41
1
10
28.4630905932978
20
-0.725778490223661
30
0
41
1
10
30.9630905932979
20
-1.81719131720496
30
0
41
1
10
33.4630905932979
20
-2.84043676622576
30
0
41
1
10
35.5334394851073
20
-3.60271179803359
30
0
41
1
10
36.7704550435835
20
-4.00703156547317
30
0
41
1
10
37.1741372687262
20
-4.13303008914281
30
0
0
SPLINE
5
161
100
AcDbEntity
8
1
62
256
6
ByLayer
370
18
48
1
60
0
100
AcDbSpline
70
4
71
3
72
28
73
24
40
0
40
0
40
0
40
0
40
0.0431735256263051
40
0.102215848123504
40
0.131737009372104
40
0.161258170620704
40
0.279342815615102
40
0.338385138112301
40
0.367906299360901
40
0.397427460609501
40
0.515512105603899
40
0.545033266852499
40
0.574554428101098
40
0.604075589349698
40
0.633596750598297
40
0.692639073095497
40
0.751681395592696
40
0.781202556841296
40
0.810723718089895
40
0.840244879338495
40
0.869766040587094
40
0.987850685581493
40
1
40
1
40
1
40
1
41
1
10
20.9614561366046
20
-5.46726116376601
30
0
41
1
10
21.1886336496582
20
-5.60292920255924
30
0
41
1
10
21.726449122811
20
-5.91901503427187
30
0
41
1
10
22.4194122285248
20
-6.30959583651341
30
0
41
1
10
23.0403578106244
20
-6.64543324158905
30
0
41
1
10
23.9715690623831
20
-7.13439679687352
30
0
41
1
10
25.0574846736004
20
-7.66026670987117
30
0
41
1
10
26.143183360016
20
-8.12600401930797
30
0
41
1
10
26.7635729084205
20
-8.37404509956141
30
0
41
1
10
27.6941634682564
20
-8.72764023504092
30
0
41
1
10
28.6248058038028
20
-9.03414708567215
30
0
41
1
10
29.5557401925585
20
-9.29027214807152
30
0
41
1
10
30.0212852823126
20
-9.40810861509109
30
0
41
1
10
30.4869258649641
20
-9.51552088604296
30
0
41
1
10
31.1079137711548
20
-9.64479155867406
30
0
41
1
10
31.8843958057204
20
-9.77988005425917
30
0
41
1
10
32.6612489652858
20
-9.87911354169847
30
0
41
1
10
33.2829545424691
20
-9.93672759734005
30
0
41
1
10
33.7493468102488
20
-9.96887523467041
30
0
41
1
10
34.2158597856599
20
-9.98998787462983
30
0
41
1
10
35.1491252767152
20
-10.0100761715797
30
0
41
1
10
35.9914321013569
20
-9.97817037263954
30
0
41
1
10
36.6785351573167
20
-9.91634287204514
30
0
41
1
10
36.7426377637855
20
-9.91026396694343
30
0
0
SPLINE
5
162
100
AcDbEntity
8
1
62
256
6
ByLayer
370
18
48
1
60
0
100
AcDbSpline
70
4
71
3
72
27
73
23
40
0
40
0
40
0
40
0
40
0.250125052751234
40
0.250125052751234
40
0.28139068434514
40
0.28139068434514
40
0.312656315939046
40
0.312656315939046
40
0.375187579126857
40
0.375187579126857
40
0.500250105502478
40
0.500250105502478
40
0.625312631878098
40
0.625312631878098
40
0.687843895065908
40
0.687843895065908
40
0.719109526659813
40
0.719109526659813
40
0.750375158253718
40
0.875437684629339
40
0.875437684629339
40
1
40
1
40
1
40
1
41
1
10
20.9630905932979
20
-5.52304551384995
30
0
41
1
10
21.788592754639
20
-6.01394275765716
30
0
41
1
10
22.6115516972901
20
-6.47473807101704
30
0
41
1
10
23.539497871434
20
-6.95377477155742
30
0
41
1
10
23.6426323764317
20
-7.00645519351045
30
0
41
1
10
23.8489771712004
20
-7.11070640930345
30
0
41
1
10
23.952159068215
20
-7.16226252471031
30
0
41
1
10
24.2614820902651
20
-7.31506418724541
30
0
41
1
10
24.4675077661179
20
-7.41449762837792
30
0
41
1
10
25.0852174636597
20
-7.70534203621335
30
0
41
1
10
25.4965357133128
20
-7.88930041183113
30
0
41
1
10
26.3192291770995
20
-8.23642139048758
30
0
41
1
10
26.7306012507736
20
-8.39956362702122
30
0
41
1
10
27.3485076028693
20
-8.6279865593271
30
0
41
1
10
27.5546179455644
20
-8.70141281100413
30
0
41
1
10
27.8640987438404
20
-8.80739464290414
30
0
41
1
10
27.967280230264
20
-8.84201730683782
30
0
41
1
10
28.1733319233872
20
-8.90972369583113
30
0
41
1
10
28.6879407169348
20
-9.07523027861654
30
0
41
1
10
29.2001757063444
20
-9.22192356981756
30
0
41
1
10
30.0161736232504
20
-9.43187140190145
30
0
41
1
10
30.4223938910787
20
-9.52450682428699
30
0
41
1
10
30.8281556168036
20
-9.60500768687791
30
0
0
SPLINE
5
163
100
AcDbEntity
8
1
62
256
6
ByLayer
370
13
48
1
60
0
100
AcDbSpline
70
4
71
3
72
16
73
12
40
0
40
0
40
0
40
0
40
0.0245520799139203
40
0.132935182145707
40
0.241318284377494
40
0.34970138660928
40
0.458084488841067
40
0.566467591072853
40
0.67485069330464
40
0.783233795536427
40
1
40
1
40
1
40
1
41
1
10
44.0294168795997
20
-8.43616568292484
30
0
41
1
10
43.8406414508324
20
-8.47856926165164
30
0
41
1
10
42.8185326887319
20
-8.69572814242423
30
0
41
1
10
40.9630905932979
20
-8.96531168591846
30
0
41
1
10
38.4630905932979
20
-9.04399231737665
30
0
41
1
10
35.9630905932979
20
-8.8358513496714
30
0
41
1
10
33.4630905932979
20
-8.34814588664588
30
0
41
1
10
30.9630905932979
20
-7.5948020463407
30
0
41
1
10
28.4630905932979
20
-6.60040925909757
30
0
41
1
10
25.1297572599645
20
-4.99791675694595
30
0
41
1
10
22.6297572599645
20
-3.53564038397894
30
0
41
1
10
20.9630905932979
20
-2.50762072456689
30
0
0
SPLINE
5
164
100
AcDbEntity
8
1
62
256
6
ByLayer
370
18
48
1
60
0
100
AcDbSpline
70
4
71
3
72
64
73
60
40
0
40
0
40
0
40
0
40
0.0059388704557749
40
0.0059388704557749
40
0.0314276173671628
40
0.0314276173671628
40
0.0824051111899387
40
0.0824051111899387
40
0.133382605012715
40
0.133382605012715
40
0.158871351924103
40
0.158871351924103
40
0.171615725379798
40
0.171615725379798
40
0.184360098835493
40
0.184360098835493
40
0.235337592658276
40
0.235337592658276
40
0.286315086481058
40
0.286315086481058
40
0.31180383339245
40
0.31180383339245
40
0.337292580303841
40
0.337292580303841
40
0.388270074126624
40
0.388270074126624
40
0.439247567949406
40
0.439247567949406
40
0.490225061772189
40
0.490225061772189
40
0.51571380868358
40
0.51571380868358
40
0.528458182139275
40
0.528458182139275
40
0.541202555594971
40
0.541202555594971
40
0.59218004941775
40
0.59218004941775
40
0.617668796329141
40
0.617668796329141
40
0.643157543240531
40
0.643157543240531
40
0.694135037063313
40
0.694135037063313
40
0.745112530886095
40
0.745112530886095
40
0.796090024708876
40
0.796090024708876
40
0.847067518531658
40
0.847067518531658
40
0.859811891987353
40
0.859811891987353
40
0.872556265443048
40
0.872556265443048
40
0.898045012354439
40
0.898045012354439
40
0.94902250617722
40
0.94902250617722
40
1
40
1
40
1
40
1
41
1
10
45.063605750699
20
-8.56567785076876
30
0
41
1
10
45.0155766273618
20
-8.58068933686297
30
0
41
1
10
44.9675496733415
20
-8.59554618314564
30
0
41
1
10
44.7134934857385
20
-8.67331362082874
30
0
41
1
10
44.5076837924842
20
-8.73347204905204
30
0
41
1
10
43.8905450440075
20
-8.90559750371466
30
0
41
1
10
43.4795780678452
20
-9.00907341587563
30
0
41
1
10
42.6576392626513
20
-9.19267075169705
30
0
41
1
10
42.2466737235451
20
-9.27280016425698
30
0
41
1
10
41.6295395886879
20
-9.37468241300948
30
0
41
1
10
41.4237136829497
20
-9.40558756912836
30
0
41
1
10
41.1147118789973
20
-9.44722964682364
30
0
41
1
10
41.0116375692203
20
-9.46032849311879
30
0
41
1
10
40.805494970372
20
-9.48500229248569
30
0
41
1
10
40.7025183802458
20
-9.49657256422995
30
0
41
1
10
40.1880518067242
20
-9.55066864309669
30
0
41
1
10
39.7778815288857
20
-9.58179004602763
30
0
41
1
10
38.9597220935984
20
-9.61938485292279
30
0
41
1
10
38.5517158367064
20
-9.62588608711755
30
0
41
1
10
37.9405908697853
20
-9.6173257290375
30
0
41
1
10
37.7370350928009
20
-9.61140413426565
30
0
41
1
10
37.3301316249434
20
-9.59332343553669
30
0
41
1
10
37.1267865204062
20
-9.5811473641719
30
0
41
1
10
36.5166610070791
20
-9.53600098812208
30
0
41
1
10
36.1098874708592
20
-9.49409327781018
30
0
41
1
10
35.2954122080291
20
-9.38622707116335
30
0
41
1
10
34.8877130090841
20
-9.3203333889746
30
0
41
1
10
34.0705806225198
20
-9.16425380547
30
0
41
1
10
33.6611641331197
20
-9.07392492790075
30
0
41
1
10
33.0449052325008
20
-8.92079377500633
30
0
41
1
10
32.8391275963032
20
-8.86682512307718
30
0
41
1
10
32.5298209548021
20
-8.78153947535642
30
0
41
1
10
32.4267375809359
20
-8.75241825699345
30
0
41
1
10
32.2208476317198
20
-8.69286235271352
30
0
41
1
10
32.1180019763901
20
-8.66241692271183
30
0
41
1
10
31.6042419058417
20
-8.5068591125771
30
0
41
1
10
31.1947398598906
20
-8.37173902622155
30
0
41
1
10
30.5820690471195
20
-8.15342417891415
30
0
41
1
10
30.3781114093372
20
-8.07804178418024
30
0
41
1
10
29.9705768727615
20
-7.92224781794565
30
0
41
1
10
29.7669996283326
20
-7.84183510850065
30
0
41
1
10
29.1565085506025
20
-7.5936943402958
30
0
41
1
10
28.7498519686461
20
-7.41903499777021
30
0
41
1
10
27.9364125685494
20
-7.05159213512036
30
0
41
1
10
27.5296322468223
20
-6.85883370029254
30
0
41
1
10
26.7152287617729
20
-6.45542064273624
30
0
41
1
10
26.3076384651712
20
-6.24456120742221
30
0
41
1
10
25.4903533060949
20
-5.80711891682824
30
0
41
1
10
25.0807042295759
20
-5.58037396737052
30
0
41
1
10
24.5667912117133
20
-5.28722661004389
30
0
41
1
10
24.4639156881905
20
-5.22811122224263
30
0
41
1
10
24.2579625975764
20
-5.10891582030993
30
0
41
1
10
24.1548346305809
20
-5.04880607911392
30
0
41
1
10
23.8455882242385
20
-4.86731455394988
30
0
41
1
10
23.6395926108185
20
-4.7447640508893
30
0
41
1
10
23.021935183564
20
-4.37262951902451
30
0
41
1
10
22.6106431743464
20
-4.11843390450062
30
0
41
1
10
21.7874431237798
20
-3.60062042549538
30
0
41
1
10
21.3756212725212
20
-3.33677675934132
30
0
41
1
10
20.9630905932979
20
-3.06858909477634
30
0
0
SPLINE
5
165
100
AcDbEntity
8
1
62
256
6
ByLayer
370
13
48
1
60
0
100
AcDbSpline
70
4
71
3
72
10
73
6
40
0
40
0
40
0
40
0
40
0.105453849930721
40
0.403635899953814
40
1
40
1
40
1
40
1
41
1
10
29.3472304159544
20
1.73601604756632
30
0
41
1
10
29.0525171417355
20
1.94288221669427
30
0
41
1
10
27.9244705341833
20
2.72962521166622
30
0
41
1
10
25.1297572599644
20
4.61364442998908
30
0
41
1
10
22.6297572599645
20
6.07371583908022
30
0
41
1
10
20.9630905932978
20
6.87677135723959
30
0
0
SPLINE
5
166
100
AcDbEntity
8
1
62
256
6
ByLayer
370
18
48
1
60
0
100
AcDbSpline
70
4
71
3
72
12
73
8
40
0
40
0
40
0
40
0
40
0.249999999999997
40
0.249999999999997
40
0.499999999999995
40
0.499999999999995
40
1
40
1
40
1
40
1
41
1
10
20.2367103862751
20
-9.55205086879099
30
0
41
1
10
20.2615333065361
20
-9.56800267741727
30
0
41
1
10
20.285215123447
20
-9.58371795028012
30
0
41
1
10
20.3313316902038
20
-9.61460117643239
30
0
41
1
10
20.3537413196009
20
-9.62977139006117
30
0
41
1
10
20.4195909088954
20
-9.67444784866572
30
0
41
1
10
20.461677779551
20
-9.70311569436055
30
0
41
1
10
20.5023210778394
20
-9.73073332556282
30
0
0
SPLINE
5
167
100
AcDbEntity
8
1
62
256
6
ByLayer
370
18
48
1
60
0
100
AcDbSpline
70
4
71
3
72
10
73
6
40
0
40
0
40
0
40
0
40
0.5
40
0.5
40
1
40
1
40
1
40
1
41
1
10
20.5023210778391
20
-9.73073332556302
30
0
41
1
10
20.5490096471767
20
-9.7624587943028
30
0
41
1
10
20.6003503464767
20
-9.79156432725244
30
0
41
1
10
20.7106401742047
20
-9.8441299654861
30
0
41
1
10
20.7695951117948
20
-9.86759234339735
30
0
41
1
10
20.8317335427749
20
-9.8880897079483
30
0
0
SPLINE
5
168
100
AcDbEntity
8
1
62
256
6
ByLayer
370
18
48
1
60
0
100
AcDbSpline
70
4
71
3
72
12
73
8
40
0
40
0
40
0
40
0
40
0.249999999999972
40
0.249999999999972
40
0.499999999999944
40
0.499999999999944
40
1
40
1
40
1
40
1
41
1
10
20.236710386274
20
-9.55205086879076
30
0
41
1
10
20.2182266077068
20
-9.54578598293341
30
0
41
1
10
20.1994728950102
20
-9.53999298838528
30
0
41
1
10
20.1613926082202
20
-9.52940845958943
30
0
41
1
10
20.1420428801661
20
-9.52461186185971
30
0
41
1
10
20.0832265048136
20
-9.51187107516668
30
0
41
1
10
20.0432218840986
20
-9.50560915568875
30
0
41
1
10
20.0023210778392
20
-9.50186735873322
30
0
0
SPLINE
5
169
100
AcDbEntity
8
1
62
256
6
ByLayer
370
18
48
1
60
0
100
AcDbSpline
70
4
71
3
72
12
73
8
40
0
40
0
40
0
40
0
40
0.25
40
0.25
40
0.5
40
0.5
40
1
40
1
40
1
40
1
41
1
10
20.2401835801327
20
8.69420608397581
30
0
41
1
10
20.221435509862
20
8.69668787221147
30
0
41
1
10
20.2024107514679
20
8.69953546062914
30
0
41
1
10
20.1637740277182
20
8.70600696429406
30
0
41
1
10
20.1441337134686
20
8.70963665354159
30
0
41
1
10
20.0844676590976
20
8.72173690163862
30
0
41
1
10
20.0438631437543
20
8.73137410324682
30
0
41
1
10
20.0023210778393
20
8.74279128237447
30
0
0
SPLINE
5
16A
100
AcDbEntity
8
1
62
256
6
ByLayer
370
18
48
1
60
0
100
AcDbSpline
70
4
71
3
72
10
73
6
40
0
40
0
40
0
40
0
40
0.5
40
0.5
40
1
40
1
40
1
40
1
41
1
10
20.0023210778392
20
7.30591261743143
30
0
41
1
10
20.0605443676319
20
7.29205301418804
30
0
41
1
10
20.1175925398402
20
7.28147066600587
30
0
41
1
10
20.2292203399557
20
7.26579299484052
30
0
41
1
10
20.2837995613887
20
7.26070332902694
30
0
41
1
10
20.3369987807932
20
7.25801450059254
30
0
0
SPLINE
5
16B
100
AcDbEntity
8
1
62
256
6
ByLayer
370
18
48
1
60
0
100
AcDbSpline
70
4
71
3
72
8
73
4
40
0
40
0
40
0
40
0
40
1
40
1
40
1
40
1
41
1
10
20.3369987807931
20
7.25801450059259
30
0
41
1
10
20.394025841939
20
7.25513220297142
30
0
41
1
10
20.4491608971748
20
7.255816412233
30
0
41
1
10
20.5023210778392
20
7.26022333912107
30
0
0
SPLINE
5
16C
100
AcDbEntity
8
1
62
256
6
ByLayer
370
18
48
1
60
0
100
AcDbSpline
70
4
71
3
72
8
73
4
40
0
40
0
40
0
40
0
40
1
40
1
40
1
40
1
41
1
10
20.5023210778392
20
7.26022333912107
30
0
41
1
10
20.6555058786197
20
7.27292220900756
30
0
41
1
10
20.8091062252269
20
7.28505302843928
30
0
41
1
10
20.963090593298
20
7.29665889116785
30
0
0
SPLINE
5
16D
100
AcDbEntity
8
1
62
256
6
ByLayer
370
18
48
1
60
0
100
AcDbSpline
70
4
71
3
72
8
73
4
40
0
40
0
40
0
40
0
40
1
40
1
40
1
40
1
41
1
10
20.5023210778391
20
-5.13213949498652
30
0
41
1
10
20.6553169874748
20
-5.26297344917714
30
0
41
1
10
20.8089211774546
20
-5.39326260165777
30
0
41
1
10
20.9630896143203
20
-5.52304639066389
30
0
0
SPLINE
5
16E
100
AcDbEntity
8
1
62
256
6
ByLayer
370
18
48
1
60
0
100
AcDbSpline
70
4
71
3
72
10
73
6
40
0
40
0
40
0
40
0
40
0.5
40
0.5
40
1
40
1
40
1
40
1
41
1
10
20.831858910606
20
-4.6620254182622
30
0
41
1
10
20.8448280863915
20
-4.79793210839404
30
0
41
1
10
20.862612190281
20
-4.93311625423564
30
0
41
1
10
20.9062874436525
20
-5.2017135252816
30
0
41
1
10
20.9321693207667
20
-5.33505123670932
30
0
41
1
10
20.9614561366046
20
-5.46726116376601
30
0
0
SPLINE
5
16F
100
AcDbEntity
8
1
62
256
6
ByLayer
370
18
48
1
60
0
100
AcDbSpline
70
4
71
3
72
10
73
6
40
0
40
0
40
0
40
0
40
0.5
40
0.5
40
1
40
1
40
1
40
1
41
1
10
20.0023210778391
20
-4.81469657158902
30
0
41
1
10
20.0516075313288
20
-4.83618712286932
30
0
41
1
10
20.1001083520218
20
-4.85990013817869
30
0
41
1
10
20.1954429048141
20
-4.91177760302816
30
0
41
1
10
20.2422763892243
20
-4.93994330434336
30
0
41
1
10
20.2881831697613
20
-4.97045472716658
30
0
0
SPLINE
5
170
100
AcDbEntity
8
1
62
256
6
ByLayer
370
18
48
1
60
0
100
AcDbSpline
70
4
71
3
72
12
73
8
40
0
40
0
40
0
40
0
40
0.499999999999939
40
0.499999999999939
40
0.749999999999969
40
0.749999999999969
40
1
40
1
40
1
40
1
41
1
10
20.2881831697612
20
-4.9704547271665
30
0
41
1
10
20.3251175984515
20
-4.99500277774476
30
0
41
1
10
20.3614850289928
20
-5.02075525032868
30
0
41
1
10
20.4151584670244
20
-5.06124839309587
30
0
41
1
10
20.4329350848116
20
-5.07508393827953
30
0
41
1
10
20.4680009812383
20
-5.10324847966595
30
0
41
1
10
20.4852861375479
20
-5.11757212123766
30
0
41
1
10
20.5023210778392
20
-5.13213949498652
30
0
0
SPLINE
5
171
100
AcDbEntity
8
1
62
256
6
ByLayer
370
18
48
1
60
0
100
AcDbSpline
70
4
71
3
72
38
73
34
40
0
40
0
40
0
40
0
40
0.250000000000013
40
0.250000000000013
40
0.37500000000002
40
0.37500000000002
40
0.500000000000027
40
0.500000000000027
40
0.56250000000003
40
0.56250000000003
40
0.625000000000033
40
0.625000000000033
40
0.687500000000037
40
0.687500000000037
40
0.718750000000039
40
0.718750000000039
40
0.75000000000004
40
0.75000000000004
40
0.781250000000042
40
0.781250000000042
40
0.812500000000044
40
0.812500000000044
40
0.828125000000045
40
0.828125000000045
40
0.843750000000045
40
0.843750000000045
40
0.875000000000047
40
0.875000000000047
40
0.906250000000049
40
0.906250000000049
40
0.937500000000051
40
0.937500000000051
40
1
40
1
40
1
40
1
41
1
10
15.0044910414729
20
1.1207212817456
30
0
41
1
10
14.9596882075044
20
1.1616384531728
30
0
41
1
10
14.9159612546754
20
1.20356389335205
30
0
41
1
10
14.8531355572256
20
1.26906692636777
30
0
41
1
10
14.832660955256
20
1.29134332324389
30
0
41
1
10
14.793071973685
20
1.3371883866746
30
0
41
1
10
14.7739753368858
20
1.36071066503038
30
0
41
1
10
14.7471810188534
20
1.39730707655676
30
0
41
1
10
14.7385424451005
20
1.40975770054246
30
0
41
1
10
14.7222102604087
20
1.43514424504724
30
0
41
1
10
14.714510465512
20
1.44807617518509
30
0
41
1
10
14.700475820509
20
1.47464103547941
30
0
41
1
10
14.6941233538295
20
1.48826484027276
30
0
41
1
10
14.6862886926085
20
1.50957327427958
30
0
41
1
10
14.6839785215496
20
1.51679535436352
30
0
41
1
10
14.6802128001701
20
1.53140679613242
30
0
41
1
10
14.6787430390007
20
1.5388492612397
30
0
41
1
10
14.6770065489012
20
1.5538602479063
30
0
41
1
10
14.6767435926877
20
1.56135147933367
30
0
41
1
10
14.6778532741308
20
1.57629647419429
30
0
41
1
10
14.6792741340179
20
1.58385938629581
30
0
41
1
10
14.6829237370203
20
1.59455302877797
30
0
41
1
10
14.6843883733534
20
1.59802154622048
30
0
41
1
10
14.6878465483088
20
1.60475402039646
30
0
41
1
10
14.6898578576018
20
1.60803648394492
30
0
41
1
10
14.6965074499927
20
1.61726694519689
30
0
41
1
10
14.7018216393436
20
1.62271883691608
30
0
41
1
10
14.7137827094198
20
1.63227050853322
30
0
41
1
10
14.7202366583485
20
1.63624222128726
30
0
41
1
10
14.7338185443858
20
1.64304135832251
30
0
41
1
10
14.7409917278199
20
1.64587318065494
30
0
41
1
10
14.7627445954351
20
1.6528990512343
30
0
41
1
10
14.7776909487806
20
1.65576329733534
30
0
41
1
10
14.792885802007
20
1.6576105661851
30
0
0
SPLINE
5
172
100
AcDbEntity
8
1
62
256
6
ByLayer
370
18
48
1
60
0
100
AcDbSpline
70
4
71
3
72
30
73
26
40
0
40
0
40
0
40
0
40
0.125000000000036
40
0.125000000000036
40
0.250000000000072
40
0.250000000000072
40
0.281250000000056
40
0.281250000000056
40
0.312500000000041
40
0.375000000000009
40
0.437499999999978
40
0.437499999999978
40
0.468749999999962
40
0.468749999999962
40
0.499999999999947
40
0.499999999999947
40
0.624999999999959
40
0.624999999999959
40
0.749999999999972
40
0.749999999999972
40
0.812499999999979
40
0.812499999999979
40
0.874999999999986
40
0.874999999999986
40
1
40
1
40
1
40
1
41
1
10
14.792885802007
20
1.6576105661851
30
0
41
1
10
14.8412798466186
20
1.66349392746486
30
0
41
1
10
14.8891503031594
20
1.67144295749674
30
0
41
1
10
14.9834898825021
20
1.692863003833
30
0
41
1
10
15.0299647552209
20
1.70631163477228
30
0
41
1
10
15.0868179227032
20
1.72800184583852
30
0
41
1
10
15.0981511420487
20
1.73259877229276
30
0
41
1
10
15.120520647712
20
1.74226999755558
30
0
41
1
10
15.153634865783
20
1.75749149342423
30
0
41
1
10
15.2064862633217
20
1.78665688010082
30
0
41
1
10
15.245909071542
20
1.81462091540112
30
0
41
1
10
15.2742342475472
20
1.83760273271111
30
0
41
1
10
15.2834489230834
20
1.84558805444803
30
0
41
1
10
15.3011556730315
20
1.86200101712146
30
0
41
1
10
15.3096840179153
20
1.87045724870592
30
0
41
1
10
15.3506909994928
20
1.91399251514733
30
0
41
1
10
15.3782877754611
20
1.95288347130432
30
0
41
1
10
15.4227064635558
20
2.03860494090552
30
0
41
1
10
15.4385821592612
20
2.08345877871392
30
0
41
1
10
15.4549938787852
20
2.15302218642236
30
0
41
1
10
15.4592159079134
20
2.17663592845725
30
0
41
1
10
15.4653658999161
20
2.22366602319053
30
0
41
1
10
15.4673255281347
20
2.24719530669469
30
0
41
1
10
15.470394783204
20
2.31780804777742
30
0
41
1
10
15.4687213159225
20
2.36491552241714
30
0
41
1
10
15.464285529837
20
2.41202338204238
30
0
0
SPLINE
5
173
100
AcDbEntity
8
1
62
256
6
ByLayer
370
18
48
1
60
0
100
AcDbSpline
70
4
71
3
72
23
73
19
40
0
40
0
40
0
40
0
40
0.249999999999986
40
0.249999999999986
40
0.312499999999983
40
0.312499999999983
40
0.374999999999979
40
0.374999999999979
40
0.499999999999976
40
0.624999999999972
40
0.624999999999972
40
0.68749999999997
40
0.68749999999997
40
0.749999999999969
40
0.749999999999969
40
0.874999999999984
40
0.874999999999984
40
1
40
1
40
1
40
1
41
1
10
13.067401020774
20
6.49976855794054
30
0
41
1
10
13.0438326907322
20
6.56322201565055
30
0
41
1
10
13.0287333935447
20
6.62667122612325
30
0
41
1
10
13.0235212850137
20
6.70617541534932
30
0
41
1
10
13.0231686174995
20
6.72208636430835
30
0
41
1
10
13.0239514902334
20
6.7539357319809
30
0
41
1
10
13.0250911786559
20
6.76980692139341
30
0
41
1
10
13.0307716147716
20
6.81675833790098
30
0
41
1
10
13.0443771107937
20
6.8779933032894
30
0
41
1
10
13.0703902765334
20
6.93651964353396
30
0
41
1
10
13.0947394776633
20
6.979399689198
30
0
41
1
10
13.1036905700916
20
6.99355202848699
30
0
41
1
10
13.1228937610521
20
7.02105644601974
30
0
41
1
10
13.1331747068751
20
7.03446712334213
30
0
41
1
10
13.1659576508219
20
7.07373415474251
30
0
41
1
10
13.190396180859
20
7.09862752236671
30
0
41
1
10
13.244016098233
20
7.14610684431366
30
0
41
1
10
13.2733030527749
20
7.16875373704363
30
0
41
1
10
13.3044035561974
20
7.19009488839211
30
0
0
SPLINE
5
174
100
AcDbEntity
8
1
62
256
6
ByLayer
370
18
48
1
60
0
100
AcDbSpline
70
4
71
3
72
48
73
44
40
0
40
0
40
0
40
0
40
0.0312499999999981
40
0.0312499999999981
40
0.0624999999999962
40
0.0624999999999962
40
0.0937499999999943
40
0.0937499999999943
40
0.124999999999992
40
0.124999999999992
40
0.140624999999991
40
0.140624999999991
40
0.15624999999999
40
0.187499999999983
40
0.187499999999983
40
0.218749999999975
40
0.218749999999975
40
0.234374999999971
40
0.234374999999971
40
0.249999999999967
40
0.249999999999967
40
0.31249999999997
40
0.31249999999997
40
0.374999999999972
40
0.374999999999972
40
0.406249999999973
40
0.406249999999973
40
0.437499999999974
40
0.437499999999974
40
0.499999999999977
40
0.499999999999977
40
0.562499999999979
40
0.562499999999979
40
0.624999999999981
40
0.624999999999981
40
0.687499999999983
40
0.687499999999983
40
0.749999999999985
40
0.812499999999987
40
0.812499999999987
40
0.87499999999999
40
0.87499999999999
40
1
40
1
40
1
40
1
41
1
10
13.3044035561974
20
7.19009488839211
30
0
41
1
10
13.3556375118808
20
7.22525160555418
30
0
41
1
10
13.4096274115244
20
7.25733637359653
30
0
41
1
10
13.521986343243
20
7.31674085114227
30
0
41
1
10
13.5803627038545
20
7.34405157810505
30
0
41
1
10
13.7007642232977
20
7.39479605223062
30
0
41
1
10
13.7627930693998
20
7.41822528988789
30
0
41
1
10
13.8899903076573
20
7.46182621028322
30
0
41
1
10
13.9551607327581
20
7.48199541238861
30
0
41
1
10
14.0549952558678
20
7.51014197970926
30
0
41
1
10
14.0885758079182
20
7.51915802908547
30
0
41
1
10
14.1560185385944
20
7.53644302396185
30
0
41
1
10
14.2577331320385
20
7.56128433854786
30
0
41
1
10
14.3609777770536
20
7.58313933028577
30
0
41
1
10
14.4998333959407
20
7.60999086863222
30
0
41
1
10
14.5698597681709
20
7.62227123867379
30
0
41
1
10
14.6757054346827
20
7.63917742295564
30
0
41
1
10
14.7111438617966
20
7.64456281276574
30
0
41
1
10
14.7821232931037
20
7.65483340445743
30
0
41
1
10
14.8176731137583
20
7.6597203762266
30
0
41
1
10
14.9957068274948
20
7.68298861995686
30
0
41
1
10
15.1390385945158
20
7.69789921134768
30
0
41
1
10
15.427214482121
20
7.72169349541085
30
0
41
1
10
15.5720607225564
20
7.73056692024366
30
0
41
1
10
15.7903278852406
20
7.73996822761944
30
0
41
1
10
15.8631627101139
20
7.74244292031429
30
0
41
1
10
16.008768232315
20
7.74615346932433
30
0
41
1
10
16.0815731899552
20
7.74739070026166
30
0
41
1
10
16.2999942938633
20
7.74935381437956
30
0
41
1
10
16.4456166553489
20
7.74833679259277
30
0
41
1
10
16.7368765254102
20
7.74204552266553
30
0
41
1
10
16.8825982262308
20
7.73676198455394
30
0
41
1
10
17.173054443406
20
7.72223002453688
30
0
41
1
10
17.3179040806659
20
7.71298028713707
30
0
41
1
10
17.6068947177823
20
7.69069021856558
30
0
41
1
10
17.7510956935167
20
7.67764260710757
30
0
41
1
10
18.0385564734301
20
7.64787253810857
30
0
41
1
10
18.3247514993387
20
7.61446420856029
30
0
41
1
10
18.6085446567835
20
7.57390783777748
30
0
41
1
10
18.8911891488083
20
7.52979226184911
30
0
41
1
10
19.0319731191435
20
7.50594579717975
30
0
41
1
10
19.4517504752284
20
7.42921292048302
30
0
41
1
10
19.7284735930366
20
7.37109989046388
30
0
41
1
10
20.0023210778392
20
7.30591261743149
30
0
0
SPLINE
5
175
100
AcDbEntity
8
1
62
256
6
ByLayer
370
18
48
1
60
0
100
AcDbSpline
70
4
71
3
72
38
73
34
40
0
40
0
40
0
40
0
40
0.250000000000036
40
0.250000000000036
40
0.375000000000034
40
0.375000000000034
40
0.500000000000033
40
0.500000000000033
40
0.625000000000031
40
0.625000000000031
40
0.687500000000017
40
0.687500000000017
40
0.750000000000004
40
0.750000000000004
40
0.781249999999994
40
0.781249999999994
40
0.812499999999983
40
0.812499999999983
40
0.82812499999997
40
0.82812499999997
40
0.843749999999958
40
0.843749999999958
40
0.859374999999945
40
0.859374999999945
40
0.874999999999932
40
0.874999999999932
40
0.906249999999949
40
0.906249999999949
40
0.937499999999966
40
0.937499999999966
40
0.968749999999983
40
0.968749999999983
40
1
40
1
40
1
40
1
41
1
10
15.4179687735036
20
9.58786346219892
30
0
41
1
10
15.3759831047186
20
9.58995204461712
30
0
41
1
10
15.3350904620322
20
9.59182457654529
30
0
41
1
10
15.2765327849394
20
9.59427394411546
30
0
41
1
10
15.2574807158244
20
9.59503044927976
30
0
41
1
10
15.2207450914456
20
9.59641337190703
30
0
41
1
10
15.2031153454649
20
9.59703731751515
30
0
41
1
10
15.1702251120376
20
9.5981364858458
30
0
41
1
10
15.1548549524322
20
9.59861318738533
30
0
41
1
10
15.1356465745516
20
9.59918773448584
30
0
41
1
10
15.1298805222617
20
9.59935623383603
30
0
41
1
10
15.1204104371598
20
9.59964204780496
30
0
41
1
10
15.1166793406081
20
9.59975937816964
30
0
41
1
10
15.1141300798204
20
9.59988567528796
30
0
41
1
10
15.1137980453112
20
9.59991978529561
30
0
41
1
10
15.1145512874239
20
9.599969781619
30
0
41
1
10
15.1156226190932
20
9.59998599483765
30
0
41
1
10
15.1186338951581
20
9.59999802158484
30
0
41
1
10
15.1198763996253
20
9.5999999372151
30
0
41
1
10
15.1228003689383
20
9.60000005968504
30
0
41
1
10
15.1244886384153
20
9.59999830508113
30
0
41
1
10
15.1283333771289
20
9.59999189948496
30
0
41
1
10
15.1305091032798
20
9.59998720048876
30
0
41
1
10
15.1352421753734
20
9.59997587978395
30
0
41
1
10
15.1377894448049
20
9.59996929956804
30
0
41
1
10
15.1459229982085
20
9.59994804670026
30
0
41
1
10
15.152071867726
20
9.59993177614314
30
0
41
1
10
15.1649263510354
20
9.59990102398845
30
0
41
1
10
15.1716635704588
20
9.59988638780158
30
0
41
1
10
15.1855924302149
20
9.59986025809582
30
0
41
1
10
15.1927925583508
20
9.59984874575247
30
0
41
1
10
15.2072806160487
20
9.59982958739394
30
0
41
1
10
15.2146061831668
20
9.59982184974029
30
0
41
1
10
15.2219938972912
20
9.59981581761372
30
0
0
SPLINE
5
176
100
AcDbEntity
8
1
62
256
6
ByLayer
370
18
48
1
60
0
100
AcDbSpline
70
4
71
3
72
34
73
30
40
0
40
0
40
0
40
0
40
0.24999999999997
40
0.24999999999997
40
0.374999999999934
40
0.374999999999934
40
0.499999999999899
40
0.499999999999899
40
0.624999999999863
40
0.624999999999863
40
0.687499999999847
40
0.687499999999847
40
0.749999999999831
40
0.749999999999831
40
0.812499999999815
40
0.812499999999815
40
0.843749999999805
40
0.843749999999805
40
0.874999999999794
40
0.874999999999794
40
0.890624999999803
40
0.890624999999803
40
0.906249999999812
40
0.906249999999812
40
0.937499999999875
40
0.937499999999875
40
0.968749999999937
40
0.968749999999937
40
1
40
1
40
1
40
1
41
1
10
15.2275782082648
20
-8.33007849366973
30
0
41
1
10
15.1862681062595
20
-8.31047786453024
30
0
41
1
10
15.1459423707658
20
-8.29019856298478
30
0
41
1
10
15.0878998446219
20
-8.25823019873036
30
0
41
1
10
15.0689389486261
20
-8.24729583953652
30
0
41
1
10
15.0323354593153
20
-8.22481626359126
30
0
41
1
10
15.0146887911363
20
-8.21327993257444
30
0
41
1
10
14.9813999387267
20
-8.18934497594603
30
0
41
1
10
14.9657169664168
20
-8.17696185068732
30
0
41
1
10
14.9448995684258
20
-8.15727786970484
30
0
41
1
10
14.9383960383349
20
-8.15050129105359
30
0
41
1
10
14.9269395866696
20
-8.13650304229071
30
0
41
1
10
14.9219873628307
20
-8.12930614733702
30
0
41
1
10
14.9148047526032
20
-8.11441733328903
30
0
41
1
10
14.9125855357775
20
-8.10685477160348
30
0
41
1
10
14.9131153113023
20
-8.0952075334622
30
0
41
1
10
14.9139666061806
20
-8.0913344577751
30
0
41
1
10
14.917355672258
20
-8.08380514387198
30
0
41
1
10
14.9199559740916
20
-8.08008863569609
30
0
41
1
10
14.9251103746228
20
-8.07499246735415
30
0
41
1
10
14.927038310025
20
-8.07336113044602
30
0
41
1
10
14.9313135418869
20
-8.0702337530382
30
0
41
1
10
14.9336802871719
20
-8.06872764003356
30
0
41
1
10
14.9412446729345
20
-8.06450150689909
30
0
41
1
10
14.9468801970128
20
-8.06206915624577
30
0
41
1
10
14.9590901513451
20
-8.0578175367842
30
0
41
1
10
14.9655361961761
20
-8.05604368198783
30
0
41
1
10
14.9787827614929
20
-8.05303893510808
30
0
41
1
10
14.9856103072239
20
-8.05180132850799
30
0
41
1
10
14.9925927067007
20
-8.05076495950911
30
0
0
SPLINE
5
177
100
AcDbEntity
8
1
62
256
6
ByLayer
370
18
48
1
60
0
100
AcDbSpline
70
4
71
3
72
21
73
17
40
0
40
0
40
0
40
0
40
0.250000000000005
40
0.250000000000005
40
0.500000000000011
40
0.500000000000011
40
0.562500000000012
40
0.562500000000012
40
0.593750000000012
40
0.593750000000012
40
0.625000000000011
40
0.750000000000007
40
0.750000000000007
40
0.875000000000004
40
0.875000000000004
40
1
40
1
40
1
40
1
41
1
10
15.464285529837
20
2.41202338204238
30
0
41
1
10
15.1865521269074
20
2.74943615480265
30
0
41
1
10
14.9278487173842
20
3.09133211107576
30
0
41
1
10
14.4483565351454
20
3.78134349216586
30
0
41
1
10
14.2275509267927
20
4.12946145596206
30
0
41
1
10
13.975050338836
20
4.56624217239246
30
0
41
1
10
13.9257260221497
20
4.65367772911574
30
0
41
1
10
13.8535027327522
20
4.78490078703163
30
0
41
1
10
13.8297368205251
20
4.82862798318521
30
0
41
1
10
13.7829702357876
20
4.91575920630598
30
0
41
1
10
13.6678572146168
20
5.13297915276866
30
0
41
1
10
13.5616247654973
20
5.3470540022181
30
0
41
1
10
13.4024398577722
20
5.68497911159366
30
0
41
1
10
13.3282402150379
20
5.8516449354581
30
0
41
1
10
13.1901622936903
20
6.17977449389645
30
0
41
1
10
13.1262831519696
20
6.34123909000314
30
0
41
1
10
13.067401020774
20
6.49976855794057
30
0
0
SPLINE
5
178
100
AcDbEntity
8
1
62
256
6
ByLayer
370
18
48
1
60
0
100
AcDbSpline
70
4
71
3
72
10
73
6
40
0
40
0
40
0
40
0
40
0.5
40
0.5
40
1
40
1
40
1
40
1
41
1
10
20.2381476284613
20
-2.6585509498772
30
0
41
1
10
20.2009858976513
20
-2.62847047904196
30
0
41
1
10
20.16271882122
20
-2.59944625843096
30
0
41
1
10
20.0837584583091
20
-2.54388078440235
30
0
41
1
10
20.0434860897465
20
-2.51763443749309
30
0
41
1
10
20.0023210778392
20
-2.49311930836024
30
0
0
SPLINE
5
179
100
AcDbEntity
8
1
62
256
6
ByLayer
370
18
48
1
60
0
100
AcDbSpline
70
4
71
3
72
10
73
6
40
0
40
0
40
0
40
0
40
0.5
40
0.5
40
1
40
1
40
1
40
1
41
1
10
20.8320328385616
20
7.86347938516857
30
0
41
1
10
20.8450192438968
20
7.77723635317028
30
0
41
1
10
20.8628256085195
20
7.69075692670611
30
0
41
1
10
20.9064735641491
20
7.51674106055046
30
0
41
1
10
20.9323072529426
20
7.42925200562664
30
0
41
1
10
20.961491660166
20
7.34110236624738
30
0
0
SPLINE
5
17A
100
AcDbEntity
8
1
62
256
6
ByLayer
370
18
48
1
60
0
100
AcDbSpline
70
4
71
3
72
8
73
4
40
0
40
0
40
0
40
0
40
1
40
1
40
1
40
1
41
1
10
20.9614561366046
20
-5.46726116376601
30
0
41
1
10
20.9618793206679
20
-5.48586035333645
30
0
41
1
10
20.962423753886
20
-5.50445544678556
30
0
41
1
10
20.9630864734777
20
-5.52304562745582
30
0
0
SPLINE
5
17B
100
AcDbEntity
8
1
62
256
6
ByLayer
370
18
48
1
60
0
100
AcDbSpline
70
4
71
3
72
8
73
4
40
0
40
0
40
0
40
0
40
1
40
1
40
1
40
1
41
1
10
20.9630905932979
20
-3.06858909477631
30
0
41
1
10
20.7204277733946
20
-2.93430567993573
30
0
41
1
10
20.4787486911132
20
-2.79770047231005
30
0
41
1
10
20.2381476284613
20
-2.6585509498772
30
0
0
SPLINE
5
17C
100
AcDbEntity
8
1
62
256
6
ByLayer
370
18
48
1
60
0
100
AcDbSpline
70
4
71
3
72
12
73
8
40
0
40
0
40
0
40
0
40
0.249999999999997
40
0.249999999999997
40
0.499999999999994
40
0.499999999999994
40
1
40
1
40
1
40
1
41
1
10
20.2381476284613
20
-2.6585509498772
30
0
41
1
10
20.2627676528386
20
-2.73639753399735
30
0
41
1
10
20.2862909847441
20
-2.81448424169165
30
0
41
1
10
20.3321270206344
20
-2.9708632161115
30
0
41
1
10
20.3544160482971
20
-3.04916219491781
30
0
41
1
10
20.4199348007154
20
-3.28424139031529
30
0
41
1
10
20.461841568313
20
-3.44119627779327
30
0
41
1
10
20.5023210778394
20
-3.59830968492648
30
0
0
SPLINE
5
17D
100
AcDbEntity
8
1
62
256
6
ByLayer
370
18
48
1
60
0
100
AcDbSpline
70
4
71
3
72
10
73
6
40
0
40
0
40
0
40
0
40
0.5
40
0.5
40
1
40
1
40
1
40
1
41
1
10
20.5023210778391
20
-3.59830968492659
30
0
41
1
10
20.5489489887564
20
-3.77928692594122
30
0
41
1
10
20.6002665489677
20
-3.95830060207271
30
0
41
1
10
20.7105958622544
20
-4.3127667571699
30
0
41
1
10
20.7696129944828
20
-4.48821826693936
30
0
41
1
10
20.8318589106041
20
-4.66202541826067
30
0
0
SPLINE
5
17E
100
AcDbEntity
8
1
62
256
6
ByLayer
370
18
48
1
60
0
100
AcDbSpline
70
4
71
3
72
32
73
28
40
0
40
0
40
0
40
0
40
0.0430395367285679
40
0.0925073523855954
40
0.117241260214109
40
0.141975168042623
40
0.240910799356678
40
0.290378615013706
40
0.315112522842219
40
0.339846430670733
40
0.438782061984788
40
0.463515969813302
40
0.488249877641816
40
0.512983785470329
40
0.537717693298843
40
0.587185508955871
40
0.636653324612898
40
0.661387232441412
40
0.686121140269926
40
0.71085504809844
40
0.735588955926953
40
0.834524587241008
40
0.859258495069522
40
0.883992402898036
40
0.933460218555063
40
0.982928034212091
40
1
40
1
40
1
40
1
41
1
10
20.8318589106041
20
-4.66202541826064
30
0
41
1
10
21.102174581401
20
-4.83094990564786
30
0
41
1
10
21.6831325487518
20
-5.18842409016418
30
0
41
1
10
22.4192033910186
20
-5.62449218868676
30
0
41
1
10
23.0401438380706
20
-5.97981271651659
30
0
41
1
10
23.9713554620422
20
-6.49939257858225
30
0
41
1
10
25.057273829221
20
-7.06491788349686
30
0
41
1
10
26.1429647124244
20
-7.57493571891388
30
0
41
1
10
26.7633597287272
20
-7.84962412744056
30
0
41
1
10
27.6939582617399
20
-8.24421260272797
30
0
41
1
10
28.6246026327127
20
-8.59423444300916
30
0
41
1
10
29.5555281871822
20
-8.89636560973219
30
0
41
1
10
30.0210694923339
20
-9.03773861742417
30
0
41
1
10
30.4867118160644
20
-9.16910302382257
30
0
41
1
10
31.1077053181821
20
-9.33074851505361
30
0
41
1
10
31.8841840052585
20
-9.5070378342615
30
0
41
1
10
32.6610362170584
20
-9.64846703038202
30
0
41
1
10
33.2827393811551
20
-9.74048819792054
30
0
41
1
10
33.7491333305439
20
-9.79872257540973
30
0
41
1
10
34.2156534851118
20
-9.84612676386217
30
0
41
1
10
35.1489251674795
20
-9.91900249185002
30
0
41
1
10
36.0828134543151
20
-9.93691436885246
30
0
41
1
10
37.01739476573
20
-9.89981313440063
30
0
41
1
10
37.6406334540417
20
-9.86057420636061
30
0
41
1
10
38.4200163785351
20
-9.78378195393
30
0
41
1
10
39.1512771216189
20
-9.67773193010873
30
0
41
1
10
39.5706826091509
20
-9.60395999424938
30
0
41
1
10
39.6782844167746
20
-9.58418797021918
30
0
0
SPLINE
5
17F
100
AcDbEntity
8
1
62
256
6
ByLayer
370
18
48
1
60
0
100
AcDbSpline
70
4
71
3
72
12
73
8
40
0
40
0
40
0
40
0
40
0.25
40
0.25
40
0.5
40
0.5
40
1
40
1
40
1
40
1
41
1
10
20.2401835801327
20
8.69420608397581
30
0
41
1
10
20.2645270435134
20
8.66522385038206
30
0
41
1
10
20.287830990183
20
8.63584310720498
30
0
41
1
10
20.3332726060505
20
8.57636478006145
30
0
41
1
10
20.3553888322291
20
8.54626572303957
30
0
41
1
10
20.4204302235742
20
8.45495276189902
30
0
41
1
10
20.4620728148724
20
8.39272296539542
30
0
41
1
10
20.5023210778394
20
8.32925532815926
30
0
0
SPLINE
5
180
100
AcDbEntity
8
1
62
256
6
ByLayer
370
18
48
1
60
0
100
AcDbSpline
70
4
71
3
72
10
73
6
40
0
40
0
40
0
40
0
40
0.5
40
0.5
40
1
40
1
40
1
40
1
41
1
10
20.5023210778392
20
8.32925532815932
30
0
41
1
10
20.5490606183254
20
8.25555157099109
30
0
41
1
10
20.6004613461894
20
8.18009806107878
30
0
41
1
10
20.7108579671813
20
8.02502664345118
30
0
41
1
10
20.7698599553877
20
7.94541191028966
30
0
41
1
10
20.8320328385616
20
7.86347938516857
30
0
0
SPLINE
5
181
100
AcDbEntity
8
1
62
256
6
ByLayer
370
18
48
1
60
0
100
AcDbSpline
70
4
71
3
72
56
73
52
40
0
40
0
40
0
40
0
40
0.0097441401323844
40
0.022761956893196
40
0.0487975904148192
40
0.0618154071756308
40
0.0748332239364424
40
0.100868857458066
40
0.113886674218877
40
0.126904490979689
40
0.152940124501312
40
0.178975758022935
40
0.191993574783747
40
0.205011391544558
40
0.21802920830537
40
0.231047025066181
40
0.257082658587805
40
0.283118292109428
40
0.296136108870239
40
0.309153925631051
40
0.322171742391863
40
0.335189559152674
40
0.387260826195921
40
0.400278642956732
40
0.413296459717544
40
0.439332093239167
40
0.46536772676079
40
0.491403360282413
40
0.504421177043225
40
0.517438993804037
40
0.54347462732566
40
0.556492444086471
40
0.569510260847283
40
0.595545894368906
40
0.608563711129718
40
0.621581527890529
40
0.647617161412153
40
0.660634978172964
40
0.673652794933776
40
0.699688428455399
40
0.725724061977022
40
0.751759695498645
40
0.777795329020268
40
0.803830962541891
40
0.855902229585138
40
0.881937863106761
40
0.907973496628384
40
0.934009130150008
40
0.960044763671631
40
0.986080397193254
40
1
40
1
40
1
40
1
41
1
10
20.8320328385616
20
7.86347938516857
30
0
41
1
10
20.9485284857151
20
7.80936533072719
30
0
41
1
10
21.2207046039533
20
7.68073809028587
30
0
41
1
10
21.8044047417747
20
7.39400527153546
30
0
41
1
10
22.4275418527882
20
7.06868257819784
30
0
41
1
10
23.0507830364604
20
6.72543995657375
30
0
41
1
10
23.6740204870735
20
6.37056441722063
30
0
41
1
10
24.2971601731162
20
5.99912932605466
30
0
41
1
10
24.9200065551653
20
5.61277927970184
30
0
41
1
10
25.5426371666259
20
5.21688210747237
30
0
41
1
10
26.3205269978997
20
4.70522699165329
30
0
41
1
10
27.0979054882541
20
4.17383176560267
30
0
41
1
10
27.7194882388768
20
3.73851138888819
30
0
41
1
10
28.1855169370498
20
3.4073765652108
30
0
41
1
10
28.6513954893983
20
3.07200968681795
30
0
41
1
10
29.2723653064151
20
2.61970381089193
30
0
41
1
10
30.0482025729169
20
2.04587382975359
30
0
41
1
10
30.8235233388201
20
1.46377964820067
30
0
41
1
10
31.4434521315659
20
0.994879489778469
30
0
41
1
10
31.9082482722269
20
0.642115726380467
30
0
41
1
10
32.3729000794492
20
0.28861386157098
30
0
41
1
10
33.3019482331731
20
-0.418985442393762
30
0
41
1
10
34.2304348346273
20
-1.12567858821203
30
0
41
1
10
35.1586950056276
20
-1.82282525204917
30
0
41
1
10
35.7774937158467
20
-2.28453606677894
30
0
41
1
10
36.550970907472
20
-2.85476954755777
30
0
41
1
10
37.4791845880761
20
-3.52454804748106
30
0
41
1
10
38.2528458060731
20
-4.06786703605994
30
0
41
1
10
38.8718879822426
20
-4.49202335451918
30
0
41
1
10
39.4910140083525
20
-4.90872283007144
30
0
41
1
10
40.1102715864937
20
-5.31323063325377
30
0
41
1
10
40.7296747496404
20
-5.7040689344164
30
0
41
1
10
41.3491801738068
20
-6.08538748864126
30
0
41
1
10
41.9688556530282
20
-6.45147948589107
30
0
41
1
10
42.5886740659634
20
-6.80103117041878
30
0
41
1
10
43.2085800869846
20
-7.13919224158821
30
0
41
1
10
43.8286048982128
20
-7.45934129746166
30
0
41
1
10
44.4487237724425
20
-7.76038071689857
30
0
41
1
10
45.0688953607694
20
-8.0483545415199
30
0
41
1
10
45.8442025401736
20
-8.38277100855251
30
0
41
1
10
46.7746445235184
20
-8.74153362300316
30
0
41
1
10
47.7050978475604
20
-9.0556750902667
30
0
41
1
10
48.635435652778
20
-9.32391062882991
30
0
41
1
10
49.8759956255374
20
-9.6178701035642
30
0
41
1
10
51.1179872730773
20
-9.8147695621272
30
0
41
1
10
52.363873214507
20
-9.91145946312164
30
0
41
1
10
53.3007420106209
20
-9.93279224441332
30
0
41
1
10
54.2407205090619
20
-9.90271219961537
30
0
41
1
10
55.1844104995984
20
-9.82073349082029
30
0
41
1
10
55.9854767143895
20
-9.70745969205899
30
0
41
1
10
56.4724484974721
20
-9.61828024909022
30
0
41
1
10
56.6423548859549
20
-9.58471640422096
30
0
0
SPLINE
5
182
100
AcDbEntity
8
1
62
256
6
ByLayer
370
18
48
1
60
0
100
AcDbSpline
70
4
71
3
72
9
73
5
40
0
40
0
40
0
40
0
40
0.759800172446005
40
1
40
1
40
1
40
1
41
1
10
26.8585813218398
20
9.99836546645207
30
0
41
1
10
26.9874123271708
20
9.99729878795202
30
0
41
1
10
27.1569528945556
20
9.99416921793647
30
0
41
1
10
27.3264692277229
20
9.98876837840533
30
0
41
1
10
27.3671856236906
20
9.98734008203886
30
0
0
SPLINE
5
183
100
AcDbEntity
8
1
62
256
6
ByLayer
370
18
48
1
60
0
100
AcDbSpline
70
4
71
3
72
44
73
40
40
0
40
0
40
0
40
0
40
6.81111110519E-05
40
0.0145877878152848
40
0.0291074645195177
40
0.0581468179279836
40
0.0871861713364494
40
0.101705848040682
40
0.116225524744915
40
0.130745201449148
40
0.145264878153381
40
0.203343584970313
40
0.217863261674546
40
0.232382938378779
40
0.261422291787245
40
0.275941968491477
40
0.29046164519571
40
0.319500998604176
40
0.377579705421108
40
0.392099382125341
40
0.406619058829574
40
0.43565841223804
40
0.493737119054971
40
0.508256795759204
40
0.522776472463437
40
0.551815825871903
40
0.580855179280369
40
0.609894532688835
40
0.638933886097301
40
0.667973239505766
40
0.726051946322698
40
0.755091299731164
40
0.78413065313963
40
0.842209359956562
40
0.856729036660794
40
0.871248713365027
40
0.900288066773493
40
0.958366773590425
40
1
40
1
40
1
40
1
41
1
10
28.1762249163841
20
9.94171076114017
30
0
41
1
10
28.1769544670667
20
9.94165406084974
30
0
41
1
10
28.3332068588736
20
9.92950119622591
30
0
41
1
10
28.6449410105093
20
9.90140412975458
30
0
41
1
10
29.2667865169788
20
9.83015652439622
30
0
41
1
10
30.0437782218275
20
9.71289381804269
30
0
41
1
10
30.8203691750627
20
9.5586682978996
30
0
41
1
10
31.4413817017693
20
9.41360412317138
30
0
41
1
10
31.9070162908517
20
9.29400298320888
30
0
41
1
10
32.3725231257677
20
9.1637705356199
30
0
41
1
10
33.3033112491823
20
8.8823766684024
30
0
41
1
10
34.2336189964246
20
8.54954894231102
30
0
41
1
10
35.1637399099249
20
8.16915543132066
30
0
41
1
10
35.7837851137522
20
7.90315532557196
30
0
41
1
10
36.4038137699266
20
7.61891117780073
30
0
41
1
10
37.0238732822999
20
7.31740453114276
30
0
41
1
10
37.6439685892697
20
7.00472773617176
30
0
41
1
10
38.7292638721513
20
6.42910574755987
30
0
41
1
10
39.8148755177806
20
5.80074357252948
30
0
41
1
10
40.7457027904395
20
5.23043814354304
30
0
41
1
10
41.3663369985064
20
4.84217906823338
30
0
41
1
10
42.4526668429405
20
4.14267922027102
30
0
41
1
10
43.5393794972317
20
3.40818941062506
30
0
41
1
10
44.4710326132665
20
2.7608702629322
30
0
41
1
10
45.0921735270526
20
2.32506487071382
30
0
41
1
10
45.8686693252869
20
1.77326278363512
30
0
41
1
10
46.800534020242
20
1.10293573027943
30
0
41
1
10
47.7324296671515
20
0.427529938234528
30
0
41
1
10
48.6642402927534
20
-0.249765857366697
30
0
41
1
10
49.9067757330897
20
-1.15140814252268
30
0
41
1
10
51.1505113405134
20
-2.04542044562496
30
0
41
1
10
52.3972936021538
20
-2.92071405266611
30
0
41
1
10
53.6467250038977
20
-3.77988520697659
30
0
41
1
10
54.7443795754971
20
-4.50564459846095
30
0
41
1
10
55.6895035889628
20
-5.10217517035261
30
0
41
1
10
56.3207946933026
20
-5.49261247187263
30
0
41
1
10
57.4289780729869
20
-6.15561501855123
30
0
41
1
10
58.842681063932
20
-6.93798433055596
30
0
41
1
10
59.9484652007903
20
-7.48211372459269
30
0
41
1
10
60.4123453175578
20
-7.69719917791792
30
0
0
SPLINE
5
184
100
AcDbEntity
8
1
62
256
6
ByLayer
370
18
48
1
60
0
100
AcDbSpline
70
4
71
3
72
8
73
4
40
0
40
0
40
0
40
0
40
1
40
1
40
1
40
1
41
1
10
60.3219197959618
20
-7.69759018097466
30
0
41
1
10
60.3559268866455
20
-7.69919939988949
30
0
41
1
10
60.3899350499131
20
-7.70086075493788
30
0
41
1
10
60.4239438611529
20
-7.70257429458448
30
0
0
SPLINE
5
185
100
AcDbEntity
8
1
62
256
6
ByLayer
370
18
48
1
60
0
100
AcDbSpline
70
4
71
3
72
80
73
76
40
0
40
0
40
0
40
0
40
0.0625000000000032
40
0.0625000000000032
40
0.0703125000000033
40
0.0703125000000033
40
0.0781250000000033
40
0.0781250000000033
40
0.0937500000000034
40
0.0937500000000034
40
0.125000000000004
40
0.125000000000004
40
0.187500000000004
40
0.187500000000004
40
0.218750000000004
40
0.218750000000004
40
0.250000000000004
40
0.250000000000004
40
0.265625000000005
40
0.265625000000005
40
0.273437500000005
40
0.273437500000005
40
0.281250000000006
40
0.312500000000009
40
0.312500000000009
40
0.343750000000012
40
0.343750000000012
40
0.375000000000015
40
0.375000000000015
40
0.437500000000021
40
0.437500000000021
40
0.468750000000023
40
0.468750000000023
40
0.476562500000024
40
0.476562500000024
40
0.484375000000025
40
0.500000000000026
40
0.500000000000026
40
0.562500000000029
40
0.562500000000029
40
0.57031250000003
40
0.57031250000003
40
0.57812500000003
40
0.57812500000003
40
0.59375000000003
40
0.59375000000003
40
0.625000000000031
40
0.625000000000031
40
0.656250000000032
40
0.656250000000032
40
0.687500000000033
40
0.687500000000033
40
0.750000000000034
40
0.750000000000034
40
0.765625000000034
40
0.765625000000034
40
0.773437500000034
40
0.773437500000034
40
0.777343750000034
40
0.777343750000034
40
0.781250000000034
40
0.812500000000029
40
0.812500000000029
40
0.875000000000019
40
0.875000000000019
40
0.906250000000014
40
0.906250000000014
40
0.93750000000001
40
0.968750000000005
40
0.968750000000005
40
0.976562500000004
40
0.976562500000004
40
0.984375000000003
40
0.984375000000003
40
1
40
1
40
1
40
1
41
1
10
20.963090593298
20
9.16982947930356
30
0
41
1
10
21.7896516490726
20
9.40937997430859
30
0
41
1
10
22.6135283792974
20
9.59864336444068
30
0
41
1
10
23.5426397399546
20
9.75288525036586
30
0
41
1
10
23.645905785376
20
9.7692066447984
30
0
41
1
10
23.8525194008499
20
9.80020636439764
30
0
41
1
10
23.9557905020038
20
9.81487262380219
30
0
41
1
10
24.2651812723173
20
9.85632445691766
30
0
41
1
10
24.4710186420467
20
9.88058229638861
30
0
41
1
10
25.087484200798
20
9.94327764201458
30
0
41
1
10
25.4970710848126
20
9.97165771104918
30
0
41
1
10
26.7233052450158
20
10.0172116976536
30
0
41
1
10
27.5373718791641
20
9.99490689522347
30
0
41
1
10
28.760121128603
20
9.88274068891042
30
0
41
1
10
29.167983912854
20
9.83223952955123
30
0
41
1
10
29.985377081494
20
9.70522677957641
30
0
41
1
10
30.394908939595
20
9.62870384984186
30
0
41
1
10
31.0112790996154
20
9.49439743766246
30
0
41
1
10
31.2170787640732
20
9.44637889160728
30
0
41
1
10
31.5264123056832
20
9.36941729853871
30
0
41
1
10
31.6296547382966
20
9.34293344051545
30
0
41
1
10
31.8362644451304
20
9.28834980627832
30
0
41
1
10
32.3522110344756
20
9.1480872744967
30
0
41
1
10
32.8655186306846
20
8.9891002877591
30
0
41
1
10
33.6846343402307
20
8.71199925226435
30
0
41
1
10
34.0931048529236
20
8.56209608684327
30
0
41
1
10
34.9090022910445
20
8.24064441390556
30
0
41
1
10
35.3164266440236
20
8.06909428457826
30
0
41
1
10
36.5387288691729
20
7.5232480264356
30
0
41
1
10
37.3536236655389
20
7.1177531622773
30
0
41
1
10
38.5827168400671
20
6.45266390050838
30
0
41
1
10
38.9935455025458
20
6.2215077434289
30
0
41
1
10
39.5092276967034
20
5.92128400049191
30
0
41
1
10
39.612516165825
20
5.86064844463996
30
0
41
1
10
39.8191162755139
20
5.73838528395976
30
0
41
1
10
40.1288512601383
20
5.55362232692346
30
0
41
1
10
40.438172277862
20
5.36485207875029
30
0
41
1
10
41.4686794683426
20
4.72714315646377
30
0
41
1
10
42.2912526190801
20
4.18980397273845
30
0
41
1
10
43.2197029751002
20
3.56118896144574
30
0
41
1
10
43.3229073756314
20
3.49100806553551
30
0
41
1
10
43.5294218431968
20
3.34999886446548
30
0
41
1
10
43.6327738059284
20
3.27914155097781
30
0
41
1
10
43.9423712644671
20
3.06607635003869
30
0
41
1
10
44.1483336771138
20
2.92325654028352
30
0
41
1
10
44.7651381898592
20
2.49278283043512
30
0
41
1
10
45.1749013358893
20
2.20311941536394
30
0
41
1
10
45.9926721232599
20
1.6200089855501
30
0
41
1
10
46.400669857757
20
1.32654918158221
30
0
41
1
10
47.2159783789532
20
0.737343434846821
30
0
41
1
10
47.6232910006582
20
0.441599815963116
30
0
41
1
10
48.8459072065033
20
-0.446686149836864
30
0
41
1
10
49.661907898458
20
-1.04025578822308
30
0
41
1
10
50.6886446327284
20
-1.77617522317337
30
0
41
1
10
50.8943282947566
20
-1.92305800773704
30
0
41
1
10
51.203464229691
20
-2.1427843883491
30
0
41
1
10
51.3066114444329
20
-2.21592665957147
30
0
41
1
10
51.4614996173969
20
-2.32547030571033
30
0
41
1
10
51.5131718241168
20
-2.36196703289545
30
0
41
1
10
51.6164318107935
20
-2.4348000655275
30
0
41
1
10
52.080845866258
20
-2.76191531543418
30
0
41
1
10
52.5430593515027
20
-3.08322049718174
30
0
41
1
10
53.7722137695919
20
-3.92429121055616
30
0
41
1
10
54.5871172300952
20
-4.46406198547004
30
0
41
1
10
55.809409686908
20
-5.23416175884887
30
0
41
1
10
56.2168190308975
20
-5.48428033459706
30
0
41
1
10
57.0326513931156
20
-5.97012071740201
30
0
41
1
10
57.8495017405392
20
-6.44155693529123
30
0
41
1
10
58.6706547970683
20
-6.8813488498696
30
0
41
1
10
59.1859697991088
20
-7.14534254919792
30
0
41
1
10
59.2891376776162
20
-7.19759710407396
30
0
41
1
10
59.4957025173894
20
-7.30099187004123
30
0
41
1
10
59.5990298838257
20
-7.35209683510112
30
0
41
1
10
59.9088801547395
20
-7.50346128445344
30
0
41
1
10
60.1153915851381
20
-7.60183074577418
30
0
41
1
10
60.3219197959617
20
-7.69759018097463
30
0
0
SPLINE
5
186
100
AcDbEntity
8
1
62
256
6
ByLayer
370
18
48
1
60
0
100
AcDbSpline
70
4
71
3
72
53
73
49
40
0
40
0
40
0
40
0
40
0.0066626198091165
40
0.0207922219194152
40
0.0490514261400126
40
0.0631810282503114
40
0.07731063036061
40
0.105569834581208
40
0.119699436691506
40
0.133829038801805
40
0.162088243022402
40
0.190347447243
40
0.204477049353298
40
0.218606651463597
40
0.232736253573896
40
0.246865855684195
40
0.275125059904792
40
0.303384264125389
40
0.317513866235688
40
0.331643468345987
40
0.345773070456286
40
0.359902672566584
40
0.416421081007779
40
0.430550683118078
40
0.444680285228376
40
0.472939489448974
40
0.501198693669571
40
0.529457897890169
40
0.543587500000468
40
0.557717102110766
40
0.585976306331364
40
0.600105908441662
40
0.614235510551961
40
0.642494714772558
40
0.656624316882857
40
0.670753918993156
40
0.699013123213753
40
0.713142725324052
40
0.727272327434351
40
0.755531531654948
40
0.783790735875546
40
0.812049940096143
40
0.84030914431674
40
0.868568348537338
40
0.925086756978533
40
0.95334596119913
40
0.981605165419728
40
1
40
1
40
1
40
1
41
1
10
20.961491660166
20
7.34110236624738
30
0
41
1
10
21.0348874443122
20
7.30286799376537
30
0
41
1
10
21.2639591001414
20
7.18244588659212
30
0
41
1
10
21.8045276602244
20
6.89035946209296
30
0
41
1
10
22.4276681059241
20
6.53574645379493
30
0
41
1
10
23.0509067991272
20
6.16448616575414
30
0
41
1
10
23.6741430735207
20
5.78264139184813
30
0
41
1
10
24.2972855858702
20
5.38575160244628
30
0
41
1
10
24.9201331461781
20
4.97546472618296
30
0
41
1
10
25.542762084867
20
4.55679527574046
30
0
41
1
10
26.3206514931269
20
4.01878270728423
30
0
41
1
10
27.0980243532621
20
3.46395484990666
30
0
41
1
10
27.719610749058
20
3.01174476027683
30
0
41
1
10
28.1856462479864
20
2.66885215844914
30
0
41
1
10
28.6515284329862
20
2.32266659622437
30
0
41
1
10
29.2724965250407
20
1.85727041129903
30
0
41
1
10
30.0483218826043
20
1.26951453935575
30
0
41
1
10
30.8236326720171
20
0.67676210064306
30
0
41
1
10
31.4435711469278
20
0.201354582375785
30
0
41
1
10
31.9083770999708
20
-0.15531215134186
30
0
41
1
10
32.373032975952
20
-0.511673357766881
30
0
41
1
10
33.302080111495
20
-1.22290995823681
30
0
41
1
10
34.2305635005346
20
-1.92818889152977
30
0
41
1
10
35.1588229393973
20
-2.61887364365794
30
0
41
1
10
35.7776189208591
20
-3.0748807179246
30
0
41
1
10
36.5510838733859
20
-3.63546968102327
30
0
41
1
10
37.4793084724151
20
-4.28977224555135
30
0
41
1
10
38.2529768215902
20
-4.8169903982382
30
0
41
1
10
38.8720196370846
20
-5.22636158544847
30
0
41
1
10
39.4911393237043
20
-5.626956660014
30
0
41
1
10
40.1103912274947
20
-6.01357975929506
30
0
41
1
10
40.7297949996855
20
-6.38477544215189
30
0
41
1
10
41.3493053522656
20
-6.74523228277994
30
0
41
1
10
41.9689814520006
20
-7.08884133875981
30
0
41
1
10
42.5887996643671
20
-7.41428912734554
30
0
41
1
10
43.2087029128743
20
-7.72722122352269
30
0
41
1
10
43.8287270663219
20
-8.02071705002419
30
0
41
1
10
44.4488482686501
20
-8.29365562520189
30
0
41
1
10
45.0690227835099
20
-8.55253580117574
30
0
41
1
10
45.8443296830979
20
-8.84911770892927
30
0
41
1
10
46.7747693405084
20
-9.15999350627536
30
0
41
1
10
47.7052244071479
20
-9.42422783040027
30
0
41
1
10
48.6355596783019
20
-9.6404022817965
30
0
41
1
10
49.8761191129202
20
-9.86306040516541
30
0
41
1
10
51.1181447097475
20
-9.98609102132193
30
0
41
1
10
52.3639868245765
20
-10.0067087892193
30
0
41
1
10
53.1918512166961
20
-9.97474540916477
30
0
41
1
10
53.7088344744195
20
-9.93129846714351
30
0
41
1
10
53.912919610616
20
-9.91050063536846
30
0
0
SPLINE
5
187
100
AcDbEntity
8
1
62
256
6
ByLayer
370
18
48
1
60
0
100
AcDbSpline
70
4
71
3
72
8
73
4
40
0
40
0
40
0
40
0
40
1
40
1
40
1
40
1
41
1
10
20.961491660166
20
7.34110236624738
30
0
41
1
10
20.9619066655461
20
7.32642231836377
30
0
41
1
10
20.9624406727682
20
7.31174192891865
30
0
41
1
10
20.9630905932979
20
7.29705988007956
30
0
0
SPLINE
5
188
100
AcDbEntity
8
1
62
256
6
ByLayer
370
18
48
1
60
0
100
AcDbSpline
70
4
71
1
72
4
73
2
40
0
40
0
40
1
40
1
41
1
10
20.9630905472101
20
7.29705988053845
30
0
41
1
10
20.9630906393855
20
7.29666519149143
30
0
0
SPLINE
5
189
100
AcDbEntity
8
1
62
256
6
ByLayer
370
18
48
1
60
0
100
AcDbSpline
70
4
71
3
72
57
73
53
40
0
40
0
40
0
40
0
40
0.0836277740941108
40
0.0836277740941108
40
0.0940812458558744
40
0.0940812458558744
40
0.104534717617638
40
0.125441661141165
40
0.125441661141165
40
0.167255548188216
40
0.167255548188216
40
0.209069435235268
40
0.209069435235268
40
0.25088332228232
40
0.25088332228232
40
0.334511096376423
40
0.334511096376423
40
0.344964568138185
40
0.344964568138185
40
0.355418039899947
40
0.376324983423473
40
0.376324983423473
40
0.418138870470523
40
0.418138870470523
40
0.459952757517573
40
0.459952757517573
40
0.501766644564623
40
0.501766644564623
40
0.543580531611673
40
0.543580531611673
40
0.585394418658723
40
0.585394418658723
40
0.595847890420486
40
0.595847890420486
40
0.606301362182249
40
0.627208305705774
40
0.627208305705774
40
0.669022192752825
40
0.669022192752825
40
0.75264996684693
40
0.75264996684693
40
0.794463853893981
40
0.794463853893981
40
0.815370797417507
40
0.82582426917927
40
0.831051005060152
40
0.831051005060152
40
0.836277740941033
40
0.836277740941033
40
0.919905515035135
40
0.919905515035135
40
1
40
1
40
1
40
1
41
1
10
20.963090593298
20
7.29666519194899
30
0
41
1
10
21.7911914491888
20
6.8621402163823
30
0
41
1
10
22.6161164521969
20
6.3850720291581
30
0
41
1
10
23.5469477893233
20
5.80681474500341
30
0
41
1
10
23.6504231484353
20
5.74198004491401
30
0
41
1
10
23.8574291612708
20
5.61120543582487
30
0
41
1
10
24.1675637639802
20
5.4136752051219
30
0
41
1
10
24.4766786552103
20
5.2121728710558
30
0
41
1
10
25.093815254323
20
4.80421889336347
30
0
41
1
10
25.5037876163813
20
4.52566821020704
30
0
41
1
10
26.3221336888509
20
3.95711826590525
30
0
41
1
10
26.7304988382995
20
3.66709850996565
30
0
41
1
10
27.5469532475353
20
3.07727781690667
30
0
41
1
10
27.9550404284623
20
2.77748018127872
30
0
41
1
10
29.1809562627489
20
1.86593274927128
30
0
41
1
10
30.0004152092247
20
1.24211013796719
30
0
41
1
10
30.9309054962776
20
0.52952175139751
30
0
41
1
10
31.034480438754
20
0.450142334880496
30
0
41
1
10
31.241271026237
20
0.291583356847838
30
0
41
1
10
31.5510899900768
20
0.0539135709945526
30
0
41
1
10
31.8599097767456
20
-0.183115133233855
30
0
41
1
10
32.4764893643551
20
-0.655991562331565
30
0
41
1
10
32.8861306546614
20
-0.969667638112867
30
0
41
1
10
33.7039895566559
20
-1.59213278136178
30
0
41
1
10
34.1122064023398
20
-1.90092539990511
30
0
41
1
10
34.9285604704003
20
-2.51191062538001
30
0
41
1
10
35.3366980251465
20
-2.81410122067319
30
0
41
1
10
36.154199700244
20
-3.41015755816102
30
0
41
1
10
36.5635517872088
20
-3.70404228894
30
0
41
1
10
37.3847961329363
20
-4.28178742968157
30
0
41
1
10
37.7966897351669
20
-4.56564540950035
30
0
41
1
10
38.3140503074086
20
-4.91299836349384
30
0
41
1
10
38.4175181016889
20
-4.98200768667741
30
0
41
1
10
38.6241122498388
20
-5.11884600106774
30
0
41
1
10
38.9336552307135
20
-5.32244343144029
30
0
41
1
10
39.2422566834625
20
-5.52097642345049
30
0
41
1
10
39.8584703725163
20
-5.91106259413064
30
0
41
1
10
40.2679654524868
20
-6.16182331831979
30
0
41
1
10
41.4944888075473
20
-6.88463333685905
30
0
41
1
10
42.3094778286352
20
-7.32731061289778
30
0
41
1
10
43.5359861664453
20
-7.92495367659126
30
0
41
1
10
43.9454997977217
20
-8.1130892127922
30
0
41
1
10
44.5618280659774
20
-8.37761281584491
30
0
41
1
10
44.8705073547332
20
-8.50545104465218
30
0
41
1
10
45.2317636765004
20
-8.64661044680571
30
0
41
1
10
45.3868541901674
20
-8.70537082387389
30
0
41
1
10
45.4903097743186
20
-8.74415549062633
30
0
41
1
10
45.5420830055488
20
-8.76335855054205
30
0
41
1
10
46.42141505298
20
-9.08598360800161
30
0
41
1
10
47.2411052088398
20
-9.33379230955558
30
0
41
1
10
48.8412768636114
20
-9.70786442312465
30
0
41
1
10
49.6219847399233
20
-9.83876078558407
30
0
41
1
10
50.4052292162743
20
-9.91635209439434
30
0
0
SPLINE
5
18A
100
AcDbEntity
8
1
62
256
6
ByLayer
370
18
48
1
60
0
100
AcDbSpline
70
4
71
3
72
8
73
4
40
0
40
0
40
0
40
0
40
1
40
1
40
1
40
1
41
1
10
53.1392909689199
20
-9.96776973455692
30
0
41
1
10
53.3624635242507
20
-9.95401517276824
30
0
41
1
10
53.5851091540211
20
-9.93591117495475
30
0
41
1
10
53.8073414168434
20
-9.91352799262393
30
0
0
SPLINE
5
18B
100
AcDbEntity
8
1
62
256
6
ByLayer
370
18
48
1
60
0
100
AcDbSpline
70
4
71
2
72
6
73
3
40
0
40
0
40
0
40
1
40
1
40
1
41
1
10
60.7517362537229
20
-8.37570662072224
30
0
41
1
10
60.7534771790924
20
-8.36935799348026
30
0
41
1
10
60.755218104462
20
-8.36300936623826
30
0
0
SPLINE
5
18C
100
AcDbEntity
8
1
62
256
6
ByLayer
370
18
48
1
60
0
100
AcDbSpline
70
4
71
2
72
6
73
3
40
0
40
0
40
0
40
1
40
1
40
1
41
1
10
60.7709258847888
20
-8.30572785156772
30
0
41
1
10
60.8501847981236
20
-8.0166946137399
30
0
41
1
10
60.9294437114585
20
-7.72766137591208
30
0
0
SPLINE
5
18D
100
AcDbEntity
8
1
62
256
6
ByLayer
370
18
48
1
60
0
100
AcDbSpline
70
4
71
2
72
6
73
3
40
0
40
0
40
0
40
1
40
1
40
1
41
1
10
24.7804464303677
20
-8.72056676167858
30
0
41
1
10
25.6689352629449
20
-8.64961512139499
30
0
41
1
10
26.5508950922622
20
-8.51797174996483
30
0
0
SPLINE
5
18E
100
AcDbEntity
8
1
62
256
6
ByLayer
370
18
48
1
60
0
100
AcDbSpline
70
4
71
2
72
6
73
3
40
0
40
0
40
0
40
1
40
1
40
1
41
1
10
26.6517771500836
20
-8.50271206881212
30
0
41
1
10
26.6887030221067
20
-8.49705267295965
30
0
41
1
10
26.7256174395622
20
-8.4912867987511
30
0
0
SPLINE
5
18F
100
AcDbEntity
8
1
62
256
6
ByLayer
370
18
48
1
60
0
100
AcDbSpline
70
4
71
3
72
13
73
9
40
0
40
0
40
0
40
0
40
0.197298492284264
40
0.408232065923031
40
0.592604776554532
40
0.766248924484267
40
0.930313867118767
40
1
40
1
40
1
40
1
41
1
10
59.3217491800875
20
6.94203048771357
30
0
41
1
10
59.0870602133716
20
7.01357111820482
30
0
41
1
10
58.6066082836526
20
7.15668357457596
30
0
41
1
10
57.9183055711341
20
7.34981542806168
30
0
41
1
10
57.28320611766
20
7.52126601599289
30
0
41
1
10
56.6896888709322
20
7.67130163940979
30
0
41
1
10
56.2213434281089
20
7.78313534370355
30
0
41
1
10
55.951560075099
20
7.84480807209221
30
0
41
1
10
55.8710845497197
20
7.86295991303453
30
0
0
SPLINE
5
190
100
AcDbEntity
8
1
62
256
6
ByLayer
370
18
48
1
60
0
100
AcDbSpline
70
4
71
3
72
17
73
13
40
0
40
0
40
0
40
0
40
0.190736699642229
40
0.328539692925647
40
0.415442518877847
40
0.487938575088341
40
0.53641476367639
40
0.585119898060299
40
0.649387301271444
40
0.739992326162154
40
0.8568866638433
40
1
40
1
40
1
40
1
41
1
10
30.2421760358347
20
4.56014493427253
30
0
41
1
10
30.0237243185449
20
4.62059591356098
30
0
41
1
10
29.6512442363399
20
4.73175699855523
30
0
41
1
10
29.1809394031469
20
4.89067876361099
30
0
41
1
10
28.8573702268451
20
5.00832922098124
30
0
41
1
10
28.6363408306656
20
5.09249259480688
30
0
41
1
10
28.4549982777575
20
5.16388252664038
30
0
41
1
10
28.2842044814809
20
5.23285779841126
30
0
41
1
10
28.0614244392129
20
5.32552095994606
30
0
41
1
10
27.7578610717053
20
5.45700836124749
30
0
41
1
10
27.3620365830197
20
5.63755568983208
30
0
41
1
10
27.0665270128578
20
5.78078589746968
30
0
41
1
10
26.9030943682634
20
5.86252742013147
30
0
0
SPLINE
5
191
100
AcDbEntity
8
1
62
256
6
ByLayer
370
18
48
1
60
0
100
AcDbSpline
70
4
71
2
72
6
73
3
40
0
40
0
40
0
40
1
40
1
40
1
41
1
10
57.4580142520377
20
-8.77111441228021
30
0
41
1
10
58.0490663674472
20
-8.74414069846335
30
0
41
1
10
58.6405361920754
20
-8.69172472301827
30
0
0
SPLINE
5
192
100
AcDbEntity
8
1
62
256
6
ByLayer
370
18
48
1
60
0
100
AcDbSpline
70
4
71
3
72
16
73
12
40
0
40
0
40
0
40
0
40
0.154097273667872
40
0.265445852546152
40
0.339063549574833
40
0.41399075328106
40
0.481219108849288
40
0.564032366074041
40
0.678096715882043
40
0.823498181717428
40
1
40
1
40
1
40
1
41
1
10
46.564210145102
20
4.67793289118447
30
0
41
1
10
46.3828526494694
20
4.72307906650474
30
0
41
1
10
46.0656750997424
20
4.80770401546457
30
0
41
1
10
45.6576063576235
20
4.928186907851
30
0
41
1
10
45.3295624560344
20
5.03203184216335
30
0
41
1
10
45.0614543347529
20
5.12144312930366
30
0
41
1
10
44.7859868478847
20
5.21761423429274
30
0
41
1
10
44.4649136420504
20
5.33493816449334
30
0
41
1
10
44.0481931128361
20
5.49601219710937
30
0
41
1
10
43.5169430299161
20
5.71599981451311
30
0
41
1
10
43.1237405242357
20
5.8919001494574
30
0
41
1
10
42.9079090975678
20
5.99240725915138
30
0
0
SPLINE
5
193
100
AcDbEntity
8
1
62
256
6
ByLayer
370
18
48
1
60
0
100
AcDbSpline
70
4
71
2
72
6
73
3
40
0
40
0
40
0
40
1
40
1
40
1
41
1
10
60.9390412010388
20
3.63261220568754
30
0
41
1
10
60.8526845150365
20
4.21879947631251
30
0
41
1
10
60.7663278290343
20
4.80498674693752
30
0
0
SPLINE
5
194
100
AcDbEntity
8
1
62
256
6
ByLayer
370
18
48
1
60
0
100
AcDbSpline
70
4
71
3
72
17
73
13
40
0
40
0
40
0
40
0
40
0.205904297332904
40
0.364763720982443
40
0.476576586403859
40
0.55115422182996
40
0.635701049596421
40
0.736416880380849
40
0.821100951249071
40
0.885515459646188
40
0.938187035507625
40
1
40
1
40
1
40
1
41
1
10
40.55937595891
20
-8.77125735046391
30
0
41
1
10
40.8335520147844
20
-8.75954042170019
30
0
41
1
10
41.3192347785758
20
-8.73252681951914
30
0
41
1
10
41.9537329842889
20
-8.68269146234275
30
0
41
1
10
42.4133596698049
20
-8.63887725362969
30
0
41
1
10
42.7738775900922
20
-8.60036547920006
30
0
41
1
10
43.1196622545855
20
-8.56005007486488
30
0
41
1
10
43.4788898904677
20
-8.51410123170689
30
0
41
1
10
43.8114217175778
20
-8.46782729072828
30
0
41
1
10
44.0802778372444
20
-8.42801412380467
30
0
41
1
10
44.3191735258505
20
-8.39097113894024
30
0
41
1
10
44.4716953655477
20
-8.36629180745473
30
0
41
1
10
44.5540092710015
20
-8.35267588982774
30
0
0
LINE
5
79
100
AcDbEntity
8
80
62
256
6
ByLayer
370
18
48
1
60
0
100
AcDbLine
10
0
20
0
30
0
11
-5
21
0
31
0
39
0
210
0
220
0
230
1
0
LINE
5
7A
100
AcDbEntity
8
4
62
256
6
ByLayer
370
18
48
0.05
60
0
100
AcDbLine
10
0
20
0
30
0
11
60.963091
21
0
31
0
39
0
210
0
220
0
230
1
0
LINE
5
7C
100
AcDbEntity
8
81
62
256
6
ByLayer
370
18
48
1
60
0
100
AcDbLine
10
60.963091
20
0
30
0
11
65.963091
21
0
31
0
39
0
210
0
220
0
230
1
0
LINE
5
7D
100
AcDbEntity
8
SK4
62
256
6
ByLayer
370
18
48
0.05
60
0
100
AcDbLine
10
-53.036909
20
0
30
0
11
60.963091
21
0
31
0
39
0
210
0
220
0
230
1
0
LINE
5
7F
100
AcDbEntity
8
1
62
256
6
ByLayer
370
18
48
1
60
0
100
AcDbLine
10
60.832099
20
1.458347
30
0
11
60.95001
21
2.421286
31
0
39
0
210
0
220
0
230
1
0
LINE
5
80
100
AcDbEntity
8
1
62
256
6
ByLayer
370
18
48
1
60
0
100
AcDbLine
10
60.711013
20
0.491013
30
0
11
60.78354
21
1.070415
31
0
39
0
210
0
220
0
230
1
0
LINE
5
81
100
AcDbEntity
8
1
62
256
6
ByLayer
370
18
48
1
60
0
100
AcDbLine
10
60.794701
20
1.159584
30
0
11
60.832099
21
1.458347
31
0
39
0
210
0
220
0
230
1
0
LINE
5
82
100
AcDbEntity
8
1
62
256
6
ByLayer
370
18
48
1
60
0
100
AcDbLine
10
60.813418
20
1.452988
30
0
11
60.832099
21
1.458347
31
0
39
0
210
0
220
0
230
1
0
LINE
5
83
100
AcDbEntity
8
1
62
256
6
ByLayer
370
18
48
1
60
0
100
AcDbLine
10
59.907217
20
-1.747985
30
0
11
60.465738
21
-0.444747
31
0
39
0
210
0
220
0
230
1
0
LINE
5
84
100
AcDbEntity
8
1
62
256
6
ByLayer
370
18
48
1
60
0
100
AcDbLine
10
60.810138
20
-3.253884
30
0
11
60.861806
21
-4.862801
31
0
39
0
210
0
220
0
230
1
0
LINE
5
85
100
AcDbEntity
8
1
62
256
6
ByLayer
370
18
48
1
60
0
100
AcDbLine
10
60.942999
20
-7.391158
30
0
11
60.95001
21
-7.609482
31
0
39
0
210
0
220
0
230
1
0
LINE
5
86
100
AcDbEntity
8
1
62
256
6
ByLayer
370
18
48
1
60
0
100
AcDbLine
10
60.707755
20
0.368341
30
0
11
60.72603
21
1.0566
31
0
39
0
210
0
220
0
230
1
0
LINE
5
87
100
AcDbEntity
8
1
62
256
6
ByLayer
370
18
48
1
60
0
100
AcDbLine
10
60.816516
20
4.464397
30
0
11
60.95001
21
9.491913
31
0
39
0
210
0
220
0
230
1
0
LINE
5
88
100
AcDbEntity
8
1
62
256
6
ByLayer
370
18
48
1
60
0
100
AcDbLine
10
60.630543
20
-0.43322
30
0
11
60.695339
21
-0.221433
31
0
39
0
210
0
220
0
230
1
0
LINE
5
89
100
AcDbEntity
8
1
62
256
6
ByLayer
370
18
48
1
60
0
100
AcDbLine
10
60.785987
20
-8.207626
30
0
11
60.767704
21
-7.631202
31
0
39
0
210
0
220
0
230
1
0
LINE
5
8A
100
AcDbEntity
8
1
62
256
6
ByLayer
370
13
48
1
60
0
100
AcDbLine
10
60.432327
20
0.985328
30
0
11
60.707755
21
0.368341
31
0
39
0
210
0
220
0
230
1
0
LINE
5
8B
100
AcDbEntity
8
1
62
256
6
ByLayer
370
18
48
1
60
0
100
AcDbLine
10
15.478092
20
9.599206
30
0
11
15.547683
21
9.580623
31
0
39
0
210
0
220
0
230
1
0
LINE
5
8C
100
AcDbEntity
8
1
62
256
6
ByLayer
370
13
48
1
60
0
100
AcDbLine
10
56.425855
20
-5.593331
30
0
11
56.07066
21
-6.171087
31
0
39
0
210
0
220
0
230
1
0
LINE
5
8D
100
AcDbEntity
8
1
62
256
6
ByLayer
370
18
48
1
60
0
100
AcDbLine
10
20.963091
20
-8.929376
30
0
11
20.963091
21
-9.591755
31
0
39
0
210
0
220
0
230
1
0
LINE
5
8E
100
AcDbEntity
8
1
62
256
6
ByLayer
370
13
48
1
60
0
100
AcDbLine
10
15.227578
20
-8.330078
30
0
11
20.963091
21
-8.929376
31
0
39
0
210
0
220
0
230
1
0
LINE
5
8F
100
AcDbEntity
8
1
62
256
6
ByLayer
370
18
48
1
60
0
100
AcDbLine
10
20.963091
20
-8.929376
30
0
11
20.963091
21
-8.674616
31
0
39
0
210
0
220
0
230
1
0
LINE
5
90
100
AcDbEntity
8
1
62
256
6
ByLayer
370
13
48
1
60
0
100
AcDbLine
10
14.992593
20
-8.050765
30
0
11
20.963091
21
-8.674616
31
0
39
0
210
0
220
0
230
1
0
LINE
5
91
100
AcDbEntity
8
1
62
256
6
ByLayer
370
18
48
1
60
0
100
AcDbLine
10
20.963091
20
-8.674616
30
0
11
20.963091
21
-8.601924
31
0
39
0
210
0
220
0
230
1
0
LINE
5
92
100
AcDbEntity
8
1
62
256
6
ByLayer
370
13
48
1
60
0
100
AcDbLine
10
60.364148
20
-0.161551
30
0
11
60.630543
21
-0.43322
31
0
39
0
210
0
220
0
230
1
0
LINE
5
93
100
AcDbEntity
8
1
62
256
6
ByLayer
370
18
48
1
60
0
100
AcDbLine
10
60.653054
20
-2.577595
30
0
11
60.792709
21
-2.908243
31
0
39
0
210
0
220
0
230
1
0
LINE
5
94
100
AcDbEntity
8
1
62
256
6
ByLayer
370
18
48
1
60
0
100
AcDbLine
10
60.792709
20
-2.908243
30
0
11
60.95001
21
-7.357877
31
0
39
0
210
0
220
0
230
1
0
LINE
5
95
100
AcDbEntity
8
1
62
256
6
ByLayer
370
18
48
1
60
0
100
AcDbLine
10
60.785987
20
-6.370945
30
0
11
60.653054
21
-2.577595
31
0
39
0
210
0
220
0
230
1
0
LINE
5
96
100
AcDbEntity
8
1
62
256
6
ByLayer
370
18
48
1
60
0
100
AcDbLine
10
59.384177
20
-1.166215
30
0
11
60.653054
21
-2.577595
31
0
39
0
210
0
220
0
230
1
0
LINE
5
97
100
AcDbEntity
8
1
62
256
6
ByLayer
370
18
48
1
60
0
100
AcDbLine
10
15.170433
20
-7.996655
30
0
11
20.963091
21
-8.601924
31
0
39
0
210
0
220
0
230
1
0
LINE
5
98
100
AcDbEntity
8
1
62
256
6
ByLayer
370
18
48
1
60
0
100
AcDbLine
10
20.963091
20
-8.601924
30
0
11
20.963091
21
-5.52956
31
0
39
0
210
0
220
0
230
1
0
LINE
5
99
100
AcDbEntity
8
1
62
256
6
ByLayer
370
13
48
1
60
0
100
AcDbLine
10
12.318015
20
-4.244429
30
0
11
20.456813
21
-5.094844
31
0
39
0
210
0
220
0
230
1
0
LINE
5
9A
100
AcDbEntity
8
1
62
256
6
ByLayer
370
13
48
1
60
0
100
AcDbLine
10
12.489861
20
-3.840016
30
0
11
19.348411
21
-4.556659
31
0
39
0
210
0
220
0
230
1
0
LINE
5
9B
100
AcDbEntity
8
1
62
256
6
ByLayer
370
18
48
1
60
0
100
AcDbLine
10
60.7891
20
1.071767
30
0
11
60.95001
21
3.594159
31
0
39
0
210
0
220
0
230
1
0
LINE
5
9C
100
AcDbEntity
8
1
62
256
6
ByLayer
370
13
48
1
60
0
100
AcDbLine
10
57.789255
20
2.464321
30
0
11
59.486491
21
0.733482
31
0
39
0
210
0
220
0
230
1
0
LINE
5
9D
100
AcDbEntity
8
1
62
256
6
ByLayer
370
18
48
1
60
0
100
AcDbLine
10
60.7891
20
1.071767
30
0
11
59.693854
21
0.806304
31
0
39
0
210
0
220
0
230
1
0
LINE
5
9E
100
AcDbEntity
8
1
62
256
6
ByLayer
370
18
48
1
60
0
100
AcDbLine
10
20.963091
20
9.169815
30
0
11
20.963091
21
9.169829
31
0
39
0
210
0
220
0
230
1
0
LINE
5
9F
100
AcDbEntity
8
1
62
256
6
ByLayer
370
18
48
1
60
0
100
AcDbLine
10
20.963091
20
9.169815
30
0
11
20.963091
21
8.489189
31
0
39
0
210
0
220
0
230
1
0
LINE
5
A0
100
AcDbEntity
8
1
62
256
6
ByLayer
370
18
48
1
60
0
100
AcDbLine
10
20.963091
20
1.691883
30
0
11
20.963091
21
2.526527
31
0
39
0
210
0
220
0
230
1
0
LINE
5
A1
100
AcDbEntity
8
1
62
256
6
ByLayer
370
18
48
1
60
0
100
AcDbLine
10
20.963091
20
2.526527
30
0
11
20.963091
21
6.876771
31
0
39
0
210
0
220
0
230
1
0
LINE
5
A2
100
AcDbEntity
8
1
62
256
6
ByLayer
370
18
48
1
60
0
100
AcDbLine
10
20.963091
20
-2.099583
30
0
11
20.963091
21
-0.936338
31
0
39
0
210
0
220
0
230
1
0
LINE
5
A3
100
AcDbEntity
8
1
62
256
6
ByLayer
370
18
48
1
60
0
100
AcDbLine
10
20.963091
20
-2.507621
30
0
11
20.963091
21
-2.099583
31
0
39
0
210
0
220
0
230
1
0
LINE
5
A4
100
AcDbEntity
8
1
62
256
6
ByLayer
370
18
48
1
60
0
100
AcDbLine
10
20.963091
20
-0.936338
30
0
11
20.963091
21
1.691883
31
0
39
0
210
0
220
0
230
1
0
LINE
5
A5
100
AcDbEntity
8
1
62
256
6
ByLayer
370
18
48
1
60
0
100
AcDbLine
10
20.963091
20
-2.507621
30
0
11
20.963091
21
-3.068589
31
0
39
0
210
0
220
0
230
1
0
LINE
5
A6
100
AcDbEntity
8
1
62
256
6
ByLayer
370
18
48
1
60
0
100
AcDbLine
10
20.963091
20
7.296659
30
0
11
20.963091
21
7.296665
31
0
39
0
210
0
220
0
230
1
0
LINE
5
A7
100
AcDbEntity
8
1
62
256
6
ByLayer
370
18
48
1
60
0
100
AcDbLine
10
20.963091
20
7.296659
30
0
11
20.963091
21
6.876771
31
0
39
0
210
0
220
0
230
1
0
LINE
5
A8
100
AcDbEntity
8
1
62
256
6
ByLayer
370
13
48
1
60
0
100
AcDbLine
10
20.502321
20
-9.733975
30
0
11
20.502321
21
-9.730733
31
0
39
0
210
0
220
0
230
1
0
LINE
5
A9
100
AcDbEntity
8
1
62
256
6
ByLayer
370
13
48
1
60
0
100
AcDbLine
10
20.502321
20
8.329255
30
0
11
20.502321
21
7.260223
31
0
39
0
210
0
220
0
230
1
0
LINE
5
AA
100
AcDbEntity
8
1
62
256
6
ByLayer
370
13
48
1
60
0
100
AcDbLine
10
20.336999
20
7.258015
30
0
11
20.963091
21
6.876771
31
0
39
0
210
0
220
0
230
1
0
LINE
5
AB
100
AcDbEntity
8
1
62
256
6
ByLayer
370
13
48
1
60
0
100
AcDbLine
10
13.304404
20
7.190095
30
0
11
20.963091
21
2.526527
31
0
39
0
210
0
220
0
230
1
0
LINE
5
AC
100
AcDbEntity
8
1
62
256
6
ByLayer
370
13
48
1
60
0
100
AcDbLine
10
20.502321
20
-3.59831
30
0
11
20.502321
21
-5.132139
31
0
39
0
210
0
220
0
230
1
0
LINE
5
AD
100
AcDbEntity
8
1
62
256
6
ByLayer
370
13
48
1
60
0
100
AcDbLine
10
14.792886
20
1.657611
30
0
11
20.963091
21
-2.099583
31
0
39
0
210
0
220
0
230
1
0
LINE
5
AE
100
AcDbEntity
8
1
62
256
6
ByLayer
370
13
48
1
60
0
100
AcDbLine
10
20.002321
20
-4.814697
30
0
11
20.002321
21
-2.493119
31
0
39
0
210
0
220
0
230
1
0
LINE
5
AF
100
AcDbEntity
8
1
62
256
6
ByLayer
370
13
48
1
60
0
100
AcDbLine
10
20.002321
20
7.305913
30
0
11
20.002321
21
8.742791
31
0
39
0
210
0
220
0
230
1
0
LINE
5
B0
100
AcDbEntity
8
1
62
256
6
ByLayer
370
13
48
1
60
0
100
AcDbLine
10
20.002321
20
-9.6
30
0
11
20.002321
21
-9.501867
31
0
39
0
210
0
220
0
230
1
0
LINE
5
B1
100
AcDbEntity
8
1
62
256
6
ByLayer
370
18
48
1
60
0
100
AcDbLine
10
15.464286
20
2.412023
30
0
11
20.963091
21
-0.936338
31
0
39
0
210
0
220
0
230
1
0
LINE
5
B2
100
AcDbEntity
8
1
62
256
6
ByLayer
370
13
48
1
60
0
100
AcDbLine
10
13.067401
20
6.499769
30
0
11
20.963091
21
1.691883
31
0
39
0
210
0
220
0
230
1
0
LINE
5
B3
100
AcDbEntity
8
1
62
256
6
ByLayer
370
13
48
1
60
0
100
AcDbLine
10
15.004491
20
1.120721
30
0
11
20.963091
21
-2.507621
31
0
39
0
210
0
220
0
230
1
0
LINE
5
B4
100
AcDbEntity
8
1
62
256
6
ByLayer
370
13
48
1
60
0
100
AcDbLine
10
0.96077
20
-9.6
30
0
11
0.96077
21
0
31
0
39
0
210
0
220
0
230
1
0
LINE
5
B5
100
AcDbEntity
8
1
62
256
6
ByLayer
370
13
48
1
60
0
100
AcDbLine
10
0.96077
20
0
30
0
11
0.96077
21
9.6
31
0
39
0
210
0
220
0
230
1
0
LINE
5
B6
100
AcDbEntity
8
1
62
256
6
ByLayer
370
13
48
1
60
0
100
AcDbLine
10
0.46077
20
9.733975
30
0
11
0.46077
21
0
31
0
39
0
210
0
220
0
230
1
0
LINE
5
B7
100
AcDbEntity
8
1
62
256
6
ByLayer
370
13
48
1
60
0
100
AcDbLine
10
0.46077
20
0
30
0
11
0.46077
21
-9.733975
31
0
39
0
210
0
220
0
230
1
0
LINE
5
B8
100
AcDbEntity
8
1
62
256
6
ByLayer
370
18
48
1
60
0
100
AcDbLine
10
0
20
10
30
0
11
0
21
0
31
0
39
0
210
0
220
0
230
1
0
LINE
5
B9
100
AcDbEntity
8
1
62
256
6
ByLayer
370
18
48
1
60
0
100
AcDbLine
10
0
20
0
30
0
11
0
21
-10
31
0
39
0
210
0
220
0
230
1
0
LINE
5
BA
100
AcDbEntity
8
SK1
62
256
6
ByLayer
370
18
48
1
60
0
100
AcDbLine
10
-53.036909
20
-9
30
0
11
-53.036909
21
9
31
0
39
0
210
0
220
0
230
1
0
LINE
5
BC
100
AcDbEntity
8
SK1
62
256
6
ByLayer
370
18
48
1
60
0
100
AcDbLine
10
0
20
10
30
0
11
0
21
0
31
0
39
0
210
0
220
0
230
1
0
LINE
5
BD
100
AcDbEntity
8
SK1
62
256
6
ByLayer
370
18
48
1
60
0
100
AcDbLine
10
0
20
0
30
0
11
0
21
-10
31
0
39
0
210
0
220
0
230
1
0
LINE
5
BE
100
AcDbEntity
8
SK1
62
256
6
ByLayer
370
18
48
1
60
0
100
AcDbLine
10
-52.036909
20
10
30
0
11
-52.036909
21
-10
31
0
39
0
210
0
220
0
230
1
0
LINE
5
BF
100
AcDbEntity
8
SK1
62
256
6
ByLayer
370
18
48
1
60
0
100
AcDbLine
10
-33.536909
20
8.2
30
0
11
-35.336909
21
10
31
0
39
0
210
0
220
0
230
1
0
LINE
5
C0
100
AcDbEntity
8
SK1
62
256
6
ByLayer
370
18
48
1
60
0
100
AcDbLine
10
-20.736909
20
10
30
0
11
-22.536909
21
8.2
31
0
39
0
210
0
220
0
230
1
0
LINE
5
C1
100
AcDbEntity
8
SK1
62
256
6
ByLayer
370
18
48
1
60
0
100
AcDbLine
10
-33.536909
20
8.2
30
0
11
-22.536909
21
8.2
31
0
39
0
210
0
220
0
230
1
0
LINE
5
C2
100
AcDbEntity
8
1
62
256
6
ByLayer
370
18
48
1
60
0
100
AcDbLine
10
20.502321
20
-9.733975
30
0
11
20.573048
21
-9.774809
31
0
39
0
210
0
220
0
230
1
0
LINE
5
C3
100
AcDbEntity
8
1
62
256
6
ByLayer
370
18
48
1
60
0
100
AcDbLine
10
15.122499
20
9.6
30
0
11
0.96077
21
9.6
31
0
39
0
210
0
220
0
230
1
0
LINE
5
C4
100
AcDbEntity
8
1
62
256
6
ByLayer
370
18
48
1
60
0
100
AcDbLine
10
0.96077
20
-9.6
30
0
11
20.002321
21
-9.6
31
0
39
0
210
0
220
0
230
1
0
LINE
5
C5
100
AcDbEntity
8
1
62
256
6
ByLayer
370
18
48
1
60
0
100
AcDbLine
10
0.46077
20
9.733975
30
0
11
0
21
10
31
0
39
0
210
0
220
0
230
1
0
LINE
5
C6
100
AcDbEntity
8
1
62
256
6
ByLayer
370
18
48
1
60
0
100
AcDbLine
10
0
20
-10
30
0
11
0.46077
21
-9.733975
31
0
39
0
210
0
220
0
230
1
0
LINE
5
C7
100
AcDbEntity
8
SK1
62
256
6
ByLayer
370
18
48
1
60
0
100
AcDbLine
10
-53.036909
20
-9
30
0
11
-52.036909
21
-10
31
0
39
0
210
0
220
0
230
1
0
LINE
5
C8
100
AcDbEntity
8
SK1
62
256
6
ByLayer
370
18
48
1
60
0
100
AcDbLine
10
-52.036909
20
10
30
0
11
-53.036909
21
9
31
0
39
0
210
0
220
0
230
1
0
LINE
5
C9
100
AcDbEntity
8
SK1
62
256
6
ByLayer
370
18
48
1
60
0
100
AcDbLine
10
0
20
10
30
0
11
-20.736909
21
10
31
0
39
0
210
0
220
0
230
1
0
LINE
5
CA
100
AcDbEntity
8
SK1
62
256
6
ByLayer
370
18
48
1
60
0
100
AcDbLine
10
-35.336909
20
10
30
0
11
-52.036909
21
10
31
0
39
0
210
0
220
0
230
1
0
LINE
5
CB
100
AcDbEntity
8
SK1
62
256
6
ByLayer
370
18
48
1
60
0
100
AcDbLine
10
-52.036909
20
-10
30
0
11
0
21
-10
31
0
39
0
210
0
220
0
230
1
0
LINE
5
CC
100
AcDbEntity
8
SK2
62
256
6
ByLayer
370
18
48
1
60
0
100
AcDbLine
10
-60.286909
20
10
30
0
11
-60.286909
21
-28.930932
31
0
39
0
210
0
220
0
230
1
0
LINE
5
CE
100
AcDbEntity
8
SK2
62
256
6
ByLayer
370
18
48
1
60
0
100
AcDbLine
10
-53.624409
20
10
30
0
11
-62.286909
21
10
31
0
39
0
210
0
220
0
230
1
0
LINE
5
CF
100
AcDbEntity
8
SK2
62
256
6
ByLayer
370
18
48
1
60
0
100
AcDbLine
10
-53.624409
20
-10
30
0
11
-62.286909
21
-10
31
0
39
0
210
0
220
0
230
1
0
LINE
5
D0
100
AcDbEntity
8
1
62
256
6
ByLayer
370
18
48
1
60
1
100
AcDbLine
10
-60.286909
20
10
30
0
11
-59.826126
21
6.500002
31
0
39
0
210
0
220
0
230
1
0
LINE
5
D1
100
AcDbEntity
8
1
62
256
6
ByLayer
370
18
48
1
60
1
100
AcDbLine
10
-59.826126
20
6.500002
30
0
11
-60.747693
21
6.499998
31
0
39
0
210
0
220
0
230
1
0
LINE
5
D2
100
AcDbEntity
8
1
62
256
6
ByLayer
370
18
48
1
60
1
100
AcDbLine
10
-60.747693
20
6.499998
30
0
11
-60.286909
21
10
31
0
39
0
210
0
220
0
230
1
0
LINE
5
D3
100
AcDbEntity
8
1
62
256
6
ByLayer
370
18
48
1
60
1
100
AcDbLine
10
-60.286909
20
-10
30
0
11
-60.747693
21
-6.500002
31
0
39
0
210
0
220
0
230
1
0
LINE
5
D4
100
AcDbEntity
8
1
62
256
6
ByLayer
370
18
48
1
60
1
100
AcDbLine
10
-60.747693
20
-6.500002
30
0
11
-59.826126
21
-6.499998
31
0
39
0
210
0
220
0
230
1
0
LINE
5
D5
100
AcDbEntity
8
1
62
256
6
ByLayer
370
18
48
1
60
1
100
AcDbLine
10
-59.826126
20
-6.499998
30
0
11
-60.286909
21
-10
31
0
39
0
210
0
220
0
230
1
0
LINE
5
D6
100
AcDbEntity
8
SK2
62
256
6
ByLayer
370
13
48
1
60
0
100
AcDbLine
10
11.931545
20
-9.6
30
0
11
11.931545
21
35.689532
31
0
39
0
210
0
220
0
230
1
0
LINE
5
D7
100
AcDbEntity
8
SK2
62
256
6
ByLayer
370
13
48
1
60
0
100
AcDbLine
10
18.414821
20
9.6
30
0
11
9.931545
21
9.6
31
0
39
0
210
0
220
0
230
1
0
LINE
5
D8
100
AcDbEntity
8
SK2
62
256
6
ByLayer
370
13
48
1
60
0
100
AcDbLine
10
18.414821
20
-9.6
30
0
11
9.931545
21
-9.6
31
0
39
0
210
0
220
0
230
1
0
LINE
5
D9
100
AcDbEntity
8
1
62
256
6
ByLayer
370
18
48
1
60
1
100
AcDbLine
10
11.931545
20
9.6
30
0
11
12.392329
21
6.100002
31
0
39
0
210
0
220
0
230
1
0
LINE
5
DA
100
AcDbEntity
8
1
62
256
6
ByLayer
370
18
48
1
60
1
100
AcDbLine
10
12.392329
20
6.100002
30
0
11
11.470762
21
6.099998
31
0
39
0
210
0
220
0
230
1
0
LINE
5
DB
100
AcDbEntity
8
1
62
256
6
ByLayer
370
18
48
1
60
1
100
AcDbLine
10
11.470762
20
6.099998
30
0
11
11.931545
21
9.6
31
0
39
0
210
0
220
0
230
1
0
LINE
5
DC
100
AcDbEntity
8
1
62
256
6
ByLayer
370
18
48
1
60
1
100
AcDbLine
10
11.931545
20
-9.6
30
0
11
11.470762
21
-6.100002
31
0
39
0
210
0
220
0
230
1
0
LINE
5
DD
100
AcDbEntity
8
1
62
256
6
ByLayer
370
18
48
1
60
1
100
AcDbLine
10
11.470762
20
-6.100002
30
0
11
12.392329
21
-6.099998
31
0
39
0
210
0
220
0
230
1
0
LINE
5
DE
100
AcDbEntity
8
1
62
256
6
ByLayer
370
18
48
1
60
1
100
AcDbLine
10
12.392329
20
-6.099998
30
0
11
11.931545
21
-9.6
31
0
39
0
210
0
220
0
230
1
0
LINE
5
DF
100
AcDbEntity
8
2
62
256
6
ByLayer
370
18
48
1
60
0
100
AcDbLine
10
72.963091
20
-10
30
0
11
72.963091
21
28.930932
31
0
39
0
210
0
220
0
230
1
0
LINE
5
E1
100
AcDbEntity
8
2
62
256
6
ByLayer
370
18
48
1
60
0
100
AcDbLine
10
62.550591
20
10
30
0
11
74.963091
21
10
31
0
39
0
210
0
220
0
230
1
0
LINE
5
E2
100
AcDbEntity
8
2
62
256
6
ByLayer
370
18
48
1
60
0
100
AcDbLine
10
62.550591
20
-10
30
0
11
74.963091
21
-10
31
0
39
0
210
0
220
0
230
1
0
LINE
5
E3
100
AcDbEntity
8
1
62
256
6
ByLayer
370
18
48
1
60
1
100
AcDbLine
10
72.963091
20
10
30
0
11
73.423874
21
6.500002
31
0
39
0
210
0
220
0
230
1
0
LINE
5
E4
100
AcDbEntity
8
1
62
256
6
ByLayer
370
18
48
1
60
1
100
AcDbLine
10
73.423874
20
6.500002
30
0
11
72.502307
21
6.499998
31
0
39
0
210
0
220
0
230
1
0
LINE
5
E5
100
AcDbEntity
8
1
62
256
6
ByLayer
370
18
48
1
60
1
100
AcDbLine
10
72.502307
20
6.499998
30
0
11
72.963091
21
10
31
0
39
0
210
0
220
0
230
1
0
LINE
5
E6
100
AcDbEntity
8
1
62
256
6
ByLayer
370
18
48
1
60
1
100
AcDbLine
10
72.963091
20
-10
30
0
11
72.502307
21
-6.500002
31
0
39
0
210
0
220
0
230
1
0
LINE
5
E7
100
AcDbEntity
8
1
62
256
6
ByLayer
370
18
48
1
60
1
100
AcDbLine
10
72.502307
20
-6.500002
30
0
11
73.423874
21
-6.499998
31
0
39
0
210
0
220
0
230
1
0
LINE
5
E8
100
AcDbEntity
8
1
62
256
6
ByLayer
370
18
48
1
60
1
100
AcDbLine
10
73.423874
20
-6.499998
30
0
11
72.963091
21
-10
31
0
39
0
210
0
220
0
230
1
0
LINE
5
E9
100
AcDbEntity
8
2
62
256
6
ByLayer
370
18
48
1
60
0
100
AcDbLine
10
60.963091
20
-57.729228
30
0
11
-53.036909
21
-57.729228
31
0
39
0
210
0
220
0
230
1
0
LINE
5
EA
100
AcDbEntity
8
2
62
256
6
ByLayer
370
18
48
1
60
0
100
AcDbLine
10
-53.036909
20
-10.5875
30
0
11
-53.036909
21
-59.729228
31
0
39
0
210
0
220
0
230
1
0
LINE
5
EB
100
AcDbEntity
8
2
62
256
6
ByLayer
370
18
48
1
60
0
100
AcDbLine
10
60.963091
20
-11.5875
30
0
11
60.963091
21
-59.729228
31
0
39
0
210
0
220
0
230
1
0
LINE
5
EC
100
AcDbEntity
8
1
62
256
6
ByLayer
370
18
48
1
60
1
100
AcDbLine
10
-53.036909
20
-57.729228
30
0
11
-49.536911
21
-57.268444
31
0
39
0
210
0
220
0
230
1
0
LINE
5
ED
100
AcDbEntity
8
1
62
256
6
ByLayer
370
18
48
1
60
1
100
AcDbLine
10
-49.536911
20
-57.268444
30
0
11
-49.536908
21
-58.190012
31
0
39
0
210
0
220
0
230
1
0
LINE
5
EE
100
AcDbEntity
8
1
62
256
6
ByLayer
370
18
48
1
60
1
100
AcDbLine
10
-49.536908
20
-58.190012
30
0
11
-53.036909
21
-57.729228
31
0
39
0
210
0
220
0
230
1
0
LINE
5
EF
100
AcDbEntity
8
1
62
256
6
ByLayer
370
18
48
1
60
1
100
AcDbLine
10
60.963091
20
-57.729228
30
0
11
57.463092
21
-58.190012
31
0
39
0
210
0
220
0
230
1
0
LINE
5
F0
100
AcDbEntity
8
1
62
256
6
ByLayer
370
18
48
1
60
1
100
AcDbLine
10
57.463092
20
-58.190012
30
0
11
57.463089
21
-57.268444
31
0
39
0
210
0
220
0
230
1
0
LINE
5
F1
100
AcDbEntity
8
1
62
256
6
ByLayer
370
18
48
1
60
1
100
AcDbLine
10
57.463089
20
-57.268444
30
0
11
60.963091
21
-57.729228
31
0
39
0
210
0
220
0
230
1
0
LINE
5
199
100
AcDbEntity
8
1
62
256
6
ByLayer
370
18
48
1
60
1
100
AcDbLine
10
-60.286909
20
10
30
0
11
-59.826126
21
6.500002
31
0
39
0
210
0
220
0
230
1
0
LINE
5
19A
100
AcDbEntity
8
1
62
256
6
ByLayer
370
18
48
1
60
1
100
AcDbLine
10
-59.826126
20
6.500002
30
0
11
-60.747693
21
6.499998
31
0
39
0
210
0
220
0
230
1
0
LINE
5
19B
100
AcDbEntity
8
1
62
256
6
ByLayer
370
18
48
1
60
1
100
AcDbLine
10
-60.747693
20
6.499998
30
0
11
-60.286909
21
10
31
0
39
0
210
0
220
0
230
1
0
LINE
5
19D
100
AcDbEntity
8
1
62
256
6
ByLayer
370
18
48
1
60
1
100
AcDbLine
10
-60.286909
20
-10
30
0
11
-60.747693
21
-6.500002
31
0
39
0
210
0
220
0
230
1
0
LINE
5
19E
100
AcDbEntity
8
1
62
256
6
ByLayer
370
18
48
1
60
1
100
AcDbLine
10
-60.747693
20
-6.500002
30
0
11
-59.826126
21
-6.499998
31
0
39
0
210
0
220
0
230
1
0
LINE
5
19F
100
AcDbEntity
8
1
62
256
6
ByLayer
370
18
48
1
60
1
100
AcDbLine
10
-59.826126
20
-6.499998
30
0
11
-60.286909
21
-10
31
0
39
0
210
0
220
0
230
1
0
LINE
5
1A3
100
AcDbEntity
8
1
62
256
6
ByLayer
370
18
48
1
60
1
100
AcDbLine
10
11.931545
20
9.6
30
0
11
12.392329
21
6.100002
31
0
39
0
210
0
220
0
230
1
0
LINE
5
1A4
100
AcDbEntity
8
1
62
256
6
ByLayer
370
18
48
1
60
1
100
AcDbLine
10
12.392329
20
6.100002
30
0
11
11.470762
21
6.099998
31
0
39
0
210
0
220
0
230
1
0
LINE
5
1A5
100
AcDbEntity
8
1
62
256
6
ByLayer
370
18
48
1
60
1
100
AcDbLine
10
11.470762
20
6.099998
30
0
11
11.931545
21
9.6
31
0
39
0
210
0
220
0
230
1
0
LINE
5
1A7
100
AcDbEntity
8
1
62
256
6
ByLayer
370
18
48
1
60
1
100
AcDbLine
10
11.931545
20
-9.6
30
0
11
11.470762
21
-6.100002
31
0
39
0
210
0
220
0
230
1
0
LINE
5
1A8
100
AcDbEntity
8
1
62
256
6
ByLayer
370
18
48
1
60
1
100
AcDbLine
10
11.470762
20
-6.100002
30
0
11
12.392329
21
-6.099998
31
0
39
0
210
0
220
0
230
1
0
LINE
5
1A9
100
AcDbEntity
8
1
62
256
6
ByLayer
370
18
48
1
60
1
100
AcDbLine
10
12.392329
20
-6.099998
30
0
11
11.931545
21
-9.6
31
0
39
0
210
0
220
0
230
1
0
LINE
5
1AD
100
AcDbEntity
8
1
62
256
6
ByLayer
370
18
48
1
60
1
100
AcDbLine
10
72.963091
20
10
30
0
11
73.423874
21
6.500002
31
0
39
0
210
0
220
0
230
1
0
LINE
5
1AE
100
AcDbEntity
8
1
62
256
6
ByLayer
370
18
48
1
60
1
100
AcDbLine
10
73.423874
20
6.500002
30
0
11
72.502307
21
6.499998
31
0
39
0
210
0
220
0
230
1
0
LINE
5
1AF
100
AcDbEntity
8
1
62
256
6
ByLayer
370
18
48
1
60
1
100
AcDbLine
10
72.502307
20
6.499998
30
0
11
72.963091
21
10
31
0
39
0
210
0
220
0
230
1
0
LINE
5
1B1
100
AcDbEntity
8
1
62
256
6
ByLayer
370
18
48
1
60
1
100
AcDbLine
10
72.963091
20
-10
30
0
11
72.502307
21
-6.500002
31
0
39
0
210
0
220
0
230
1
0
LINE
5
1B2
100
AcDbEntity
8
1
62
256
6
ByLayer
370
18
48
1
60
1
100
AcDbLine
10
72.502307
20
-6.500002
30
0
11
73.423874
21
-6.499998
31
0
39
0
210
0
220
0
230
1
0
LINE
5
1B3
100
AcDbEntity
8
1
62
256
6
ByLayer
370
18
48
1
60
1
100
AcDbLine
10
73.423874
20
-6.499998
30
0
11
72.963091
21
-10
31
0
39
0
210
0
220
0
230
1
0
LINE
5
1B6
100
AcDbEntity
8
1
62
256
6
ByLayer
370
18
48
1
60
1
100
AcDbLine
10
-53.036909
20
-57.729228
30
0
11
-49.536911
21
-57.268444
31
0
39
0
210
0
220
0
230
1
0
LINE
5
1B7
100
AcDbEntity
8
1
62
256
6
ByLayer
370
18
48
1
60
1
100
AcDbLine
10
-49.536911
20
-57.268444
30
0
11
-49.536908
21
-58.190012
31
0
39
0
210
0
220
0
230
1
0
LINE
5
1B8
100
AcDbEntity
8
1
62
256
6
ByLayer
370
18
48
1
60
1
100
AcDbLine
10
-49.536908
20
-58.190012
30
0
11
-53.036909
21
-57.729228
31
0
39
0
210
0
220
0
230
1
0
LINE
5
1BA
100
AcDbEntity
8
1
62
256
6
ByLayer
370
18
48
1
60
1
100
AcDbLine
10
60.963091
20
-57.729228
30
0
11
57.463092
21
-58.190012
31
0
39
0
210
0
220
0
230
1
0
LINE
5
1BB
100
AcDbEntity
8
1
62
256
6
ByLayer
370
18
48
1
60
1
100
AcDbLine
10
57.463092
20
-58.190012
30
0
11
57.463089
21
-57.268444
31
0
39
0
210
0
220
0
230
1
0
LINE
5
1BC
100
AcDbEntity
8
1
62
256
6
ByLayer
370
18
48
1
60
1
100
AcDbLine
10
57.463089
20
-57.268444
30
0
11
60.963091
21
-57.729228
31
0
39
0
210
0
220
0
230
1
0
MTEXT
5
195
100
AcDbEntity
8
SK2
62
256
6
ByLayer
370
18
48
1
60
0
100
AcDbMText
10
-61.851543
20
-26.996089
30
0
210
0
220
0
230
1
1
%%c
40
3.5
41
0
44
1.084337
50
90
71
7
72
5
7
iso_b_vert
0
MTEXT
5
198
100
AcDbEntity
8
SK2
62
256
6
ByLayer
370
18
48
1
60
0
100
AcDbMText
10
-61.851543
20
-20.023432
30
0
210
0
220
0
230
1
1
\W0.6740;20
40
3.5
41
0
44
1.084337
50
90
71
7
72
5
7
iso_b_vert
0
MTEXT
5
1A1
100
AcDbEntity
8
SK2
62
256
6
ByLayer
370
18
48
1
60
0
100
AcDbMText
10
10.366912
20
21.534844
30
0
210
0
220
0
230
1
1
%%c
40
3.5
41
0
44
1.084337
50
90
71
7
72
5
7
iso_b_vert
0
MTEXT
5
1A2
100
AcDbEntity
8
SK2
62
256
6
ByLayer
370
18
48
1
60
0
100
AcDbMText
10
10.366912
20
28.5075
30
0
210
0
220
0
230
1
1
\W0.6563;19.2
40
3.5
41
0
44
1.084337
50
90
71
7
72
5
7
iso_b_vert
0
MTEXT
5
1AB
100
AcDbEntity
8
2
62
256
6
ByLayer
370
18
48
1
60
0
100
AcDbMText
10
71.398457
20
17.934844
30
0
210
0
220
0
230
1
1
%%c
40
3.5
41
0
44
1.084337
50
90
71
7
72
5
7
iso_b_vert
0
MTEXT
5
1AC
100
AcDbEntity
8
2
62
256
6
ByLayer
370
18
48
1
60
0
100
AcDbMText
10
71.398457
20
24.9075
30
0
210
0
220
0
230
1
1
\W0.6740;20
40
3.5
41
0
44
1.084337
50
90
71
7
72
5
7
iso_b_vert
0
MTEXT
5
1B5
100
AcDbEntity
8
2
62
256
6
ByLayer
370
18
48
1
60
0
100
AcDbMText
10
1.440991
20
-56.696594
30
0
210
0
220
0
230
1
1
\W0.5601;114
40
3.5
41
0
44
1.084337
50
0
71
7
72
5
7
iso_b_vert
0
MTEXT
5
1BE
100
AcDbEntity
8
SK6
62
256
6
ByLayer
370
18
48
1
60
0
100
AcDbMText
10
-19.772591
20
-62.095935
30
0
210
0
220
0
230
1
1
\W0.7300;1K335-2000-050-XD 1730
40
3
41
0
44
1.084337
50
0
71
7
72
5
7
iso_b_vert
0
HATCH
5
19C
100
AcDbEntity
8
SK2
62
256
6
ByLayer
370
13
48
1
60
0
100
AcDbHatch
10
0
20
0
30
0
210
0
220
0
230
1
2
ANSI31
70
0
71
0
91
1
92
5
93
3
72
1
10
-60.2869094067022
20
10
11
-59.8261256651494
21
6.50000169255318
72
1
10
-59.8261256651494
20
6.50000169255318
11
-60.747693148255
21
6.49999830744682
72
1
10
-60.747693148255
20
6.49999830744682
11
-60.2869094067022
21
10
97
0
75
0
76
1
52
0
41
0.0062
77
0
78
1
53
45
43
0
44
0
45
-0.0139193969876572
46
0.0139193969876572
79
0
47
0
98
1
10
0
20
0
0
HATCH
5
1A0
100
AcDbEntity
8
SK2
62
256
6
ByLayer
370
13
48
1
60
0
100
AcDbHatch
10
0
20
0
30
0
210
0
220
0
230
1
2
ANSI31
70
0
71
0
91
1
92
5
93
3
72
1
10
-60.2869094067022
20
-10
11
-60.747693148255
21
-6.50000169255318
72
1
10
-60.747693148255
20
-6.50000169255318
11
-59.8261256651494
21
-6.49999830744682
72
1
10
-59.8261256651494
20
-6.49999830744682
11
-60.2869094067022
21
-10
97
0
75
0
76
1
52
0
41
0.0062
77
0
78
1
53
45
43
0
44
0
45
-0.0139193969876572
46
0.0139193969876572
79
0
47
0
98
1
10
0
20
0
0
HATCH
5
1A6
100
AcDbEntity
8
SK2
62
256
6
ByLayer
370
13
48
1
60
0
100
AcDbHatch
10
0
20
0
30
0
210
0
220
0
230
1
2
ANSI31
70
0
71
0
91
1
92
5
93
3
72
1
10
11.9315452966489
20
9.59999999999994
11
12.3923290382017
21
6.10000169255312
72
1
10
12.3923290382017
20
6.10000169255312
11
11.4707615550961
21
6.09999830744675
72
1
10
11.4707615550961
20
6.09999830744675
11
11.9315452966489
21
9.59999999999994
97
0
75
0
76
1
52
0
41
0.0062
77
0
78
1
53
45
43
0
44
0
45
-0.0139193969876572
46
0.0139193969876572
79
0
47
0
98
1
10
0
20
0
0
HATCH
5
1AA
100
AcDbEntity
8
SK2
62
256
6
ByLayer
370
13
48
1
60
0
100
AcDbHatch
10
0
20
0
30
0
210
0
220
0
230
1
2
ANSI31
70
0
71
0
91
1
92
5
93
3
72
1
10
11.9315452966489
20
-9.60000000000008
11
11.4707615550961
21
-6.10000169255326
72
1
10
11.4707615550961
20
-6.10000169255326
11
12.3923290382017
21
-6.0999983074469
72
1
10
12.3923290382017
20
-6.0999983074469
11
11.9315452966489
21
-9.60000000000008
97
0
75
0
76
1
52
0
41
0.0062
77
0
78
1
53
45
43
0
44
0
45
-0.0139193969876572
46
0.0139193969876572
79
0
47
0
98
1
10
0
20
0
0
HATCH
5
1B0
100
AcDbEntity
8
2
62
256
6
ByLayer
370
13
48
1
60
0
100
AcDbHatch
10
0
20
0
30
0
210
0
220
0
230
1
2
ANSI31
70
0
71
0
91
1
92
5
93
3
72
1
10
72.9630905932978
20
9.99999999999977
11
73.4238743348506
21
6.50000169255296
72
1
10
73.4238743348506
20
6.50000169255296
11
72.502306851745
21
6.49999830744659
72
1
10
72.502306851745
20
6.49999830744659
11
72.9630905932978
21
9.99999999999977
97
0
75
0
76
1
52
0
41
0.0062
77
0
78
1
53
45
43
0
44
0
45
-0.0139193969876572
46
0.0139193969876572
79
0
47
0
98
1
10
0
20
0
0
HATCH
5
1B4
100
AcDbEntity
8
2
62
256
6
ByLayer
370
13
48
1
60
0
100
AcDbHatch
10
0
20
0
30
0
210
0
220
0
230
1
2
ANSI31
70
0
71
0
91
1
92
5
93
3
72
1
10
72.9630905932978
20
-10.0000000000002
11
72.502306851745
21
-6.50000169255341
72
1
10
72.502306851745
20
-6.50000169255341
11
73.4238743348506
21
-6.49999830744704
72
1
10
73.4238743348506
20
-6.49999830744704
11
72.9630905932978
21
-10.0000000000002
97
0
75
0
76
1
52
0
41
0.0062
77
0
78
1
53
45
43
0
44
0
45
-0.0139193969876572
46
0.0139193969876572
79
0
47
0
98
1
10
0
20
0
0
HATCH
5
1B9
100
AcDbEntity
8
2
62
256
6
ByLayer
370
13
48
1
60
0
100
AcDbHatch
10
0
20
0
30
0
210
0
220
0
230
1
2
ANSI31
70
0
71
0
91
1
92
5
93
3
72
1
10
-53.0369094067022
20
-57.729227903667
11
-49.5369110992554
21
-57.2684441621142
72
1
10
-49.5369110992554
20
-57.2684441621142
11
-49.536907714149
21
-58.1900116452197
72
1
10
-49.536907714149
20
-58.1900116452197
11
-53.0369094067022
21
-57.729227903667
97
0
75
0
76
1
52
0
41
0.0062
77
0
78
1
53
45
43
0
44
0
45
-0.0139193969876572
46
0.0139193969876572
79
0
47
0
98
1
10
0
20
0
0
HATCH
5
1BD
100
AcDbEntity
8
2
62
256
6
ByLayer
370
13
48
1
60
0
100
AcDbHatch
10
0
20
0
30
0
210
0
220
0
230
1
2
ANSI31
70
0
71
0
91
1
92
5
93
3
72
1
10
60.9630905932978
20
-57.729227903667
11
57.463092285851
21
-58.1900116452197
72
1
10
57.463092285851
20
-58.1900116452197
11
57.4630889007446
21
-57.2684441621142
72
1
10
57.4630889007446
20
-57.2684441621142
11
60.9630905932978
21
-57.729227903667
97
0
75
0
76
1
52
0
41
0.0062
77
0
78
1
53
45
43
0
44
0
45
-0.0139193969876572
46
0.0139193969876572
79
0
47
0
98
1
10
0
20
0
0
DIMENSION
5
1C1
100
AcDbEntity
8
SK2
62
256
6
ByLayer
370
18
48
1
60
0
100
AcDbDimension
2
_U0
10
20.963091
20
-25.729228
30
0
11
40.963091
21
-25.729228
31
0
70
32
71
1
72
1
41
1
210
0
220
0
230
1
3
Standard
100
AcDbAlignedDimension
13
60.963091
23
-10
33
0
14
20.963091
24
-10
34
0
50
0
100
AcDbRotatedDimension
1001
ACAD
1000
DSTYLE
1002
{
1070
   371
1070
    13
1070
   372
1070
    13
1070
   170
1070
     0
1070
   144
1040
1.0
1070
   277
1070
     2
1070
   284
1070
     8
1070
   278
1070
    46
1070
   146
1040
1.0
1070
   345
1005
16
1070
   347
1005
16
1070
   346
1005
16
1070
   344
1005
0
1070
   343
1005
0
1070
   172
1070
     1
1070
    76
1070
     0
1070
    75
1070
     0
1070
   282
1070
     0
1070
   281
1070
     0
1070
    71
1070
     0
1070
    74
1070
     0
1070
   279
1070
     0
1070
   173
1070
     1
1070
   340
1005
196
1070
   271
1070
     2
1070
   272
1070
     2
1070
    77
1070
     1
1070
    73
1070
     1
1070
   171
1070
     3
1070
   274
1070
     4
1070
   177
1070
     2
1070
   176
1070
     2
1070
   178
1070
     2
1070
    78
1070
     8
1070
    48
1040
-0.1
1070
    41
1040
3.5
1070
   147
1040
1.75
1070
    42
1040
1.5875
1070
    44
1040
2.0
1070
   140
1040
3.5
1002
}
1001
ACAD_DSTYLE_DIM_LINETYPE
1070
   380
1005
16
1001
ACAD_DSTYLE_DIM_EXT1_LINETYPE
1070
   381
1005
16
1001
ACAD_DSTYLE_DIM_EXT2_LINETYPE
1070
   382
1005
16
0
DIMENSION
5
1DA
100
AcDbEntity
8
SK2
62
256
6
ByLayer
370
18
48
1
60
0
100
AcDbDimension
2
_U1
10
0.96077
20
-40.729228
30
0
11
30.96193
21
-40.729228
31
0
70
32
71
1
72
1
41
1
210
0
220
0
230
1
3
Standard
100
AcDbAlignedDimension
13
60.963091
23
-10
33
0
14
0.96077
24
-9.6
34
0
50
0
100
AcDbRotatedDimension
1001
ACAD
1000
DSTYLE
1002
{
1070
   371
1070
    13
1070
   372
1070
    13
1070
   170
1070
     0
1070
   144
1040
1.0
1070
   277
1070
     2
1070
   284
1070
     8
1070
   278
1070
    46
1070
   146
1040
1.0
1070
   345
1005
16
1070
   347
1005
16
1070
   346
1005
16
1070
   344
1005
0
1070
   343
1005
0
1070
   172
1070
     1
1070
    76
1070
     0
1070
    75
1070
     0
1070
   282
1070
     0
1070
   281
1070
     0
1070
    71
1070
     0
1070
    74
1070
     0
1070
   279
1070
     0
1070
   173
1070
     1
1070
   340
1005
196
1070
   271
1070
     2
1070
   272
1070
     2
1070
    77
1070
     1
1070
    73
1070
     1
1070
   171
1070
     3
1070
   274
1070
     4
1070
   177
1070
     2
1070
   176
1070
     2
1070
   178
1070
     2
1070
    78
1070
     8
1070
    48
1040
-0.1
1070
    41
1040
3.5
1070
   147
1040
1.75
1070
    42
1040
1.5875
1070
    44
1040
2.0
1070
   140
1040
3.5
1002
}
1001
ACAD_DSTYLE_DIM_LINETYPE
1070
   380
1005
16
1001
ACAD_DSTYLE_DIM_EXT1_LINETYPE
1070
   381
1005
16
1001
ACAD_DSTYLE_DIM_EXT2_LINETYPE
1070
   382
1005
16
0
ENDSEC
0
SECTION
2
OBJECTS
0
DICTIONARY
5
262
330
0
100
AcDbDictionary
280
0
281
1
3
ACAD_GROUP
350
263
3
ACAD_MLINESTYLE
350
264
0
DICTIONARY
5
263
330
0
100
AcDbDictionary
280
0
281
1
0
DICTIONARY
5
264
330
0
100
AcDbDictionary
280
0
281
1
3
Standard
350
18
0
MLINESTYLE
5
18
330
264
100
AcDbMlineStyle
2
Standard
70
0
3

62
256
51
90
52
90
71
2
49
-0.5
62
256
6
ByLayer
49
0.5
62
256
6
ByLayer
0
RASTERVARIABLES
5
250
330

100
AcDbRasterVariables
90
0
70
1
71
1
72
1
0
ENDSEC
0
EOF
