0
SECTION
2
HEADER
9
$ACADVER
1
AC1015
9
$DWGCODEPAGE
3
ANSI_1252
9
$HANDSEED
5
227
9
$ANGBASE
50
0
9
$ANGDIR
70
0
9
$ATTMODE
70
1
9
$AUNITS
70
0
9
$AUPREC
70
0
9
$CECOLOR
62
256
9
$CELTSCALE
40
1
9
$CELTYPE
6
ByLayer
9
$CELWEIGHT
370
18
9
$CLAYER
8
0
9
$CMLJUST
70
0
9
$CMLSCALE
40
1
9
$CMLSTYLE
2
Standard
9
$DIMSTYLE
2
Standard
9
$TEXTSIZE
40
0.2
9
$TEXTSTYLE
7
Standard
9
$LUNITS
70
2
9
$LUPREC
70
4
9
$EXTNAMES
290
1
9
$INSUNITS
70
4
9
$LTSCALE
40
1
9
$LWDISPLAY
290
1
9
$PDMODE
70
0
9
$PDSIZE
40
0
9
$PLINEGEN
70
0
0
ENDSEC
0
SECTION
2
CLASSES
0
CLASS
1
RASTERVARIABLES
2
AcDbRasterVariables
3
ISM
90
0
280
0
281
0
0
ENDSEC
0
SECTION
2
TABLES
0
TABLE
2
VPORT
5
21d
100
AcDbSymbolTable
0
VPORT
5
1
100
AcDbSymbolTableRecord
100
AcDbViewportTableRecord
2
*Active
70
0
10
0
20
0
11
1
21
1
12
-1
22
1
13
0
23
0
14
0.5
24
0.5
15
10
25
10
16
0
26
0
36
1
17
0
27
0
37
0
0
ENDTAB
0
TABLE
2
LTYPE
5
21e
100
AcDbSymbolTable
0
LTYPE
5
14
100
AcDbSymbolTableRecord
100
AcDbLinetypeTableRecord
70
0
2
ByBlock
3

72
65
73
0
40
0
0
LTYPE
5
15
100
AcDbSymbolTableRecord
100
AcDbLinetypeTableRecord
70
0
2
ByLayer
3

72
65
73
0
40
0
0
LTYPE
5
16
100
AcDbSymbolTableRecord
100
AcDbLinetypeTableRecord
70
0
2
Continuous
3
Solid line
72
65
73
0
40
0
0
LTYPE
5
6E
100
AcDbSymbolTableRecord
100
AcDbLinetypeTableRecord
70
0
2
CENTER
3
____ _ ____ _ ____ _ ____
72
65
73
4
40
47.5
49
22
74
0
49
-8.5
74
0
49
8.5
74
0
49
-8.5
74
0
0
LTYPE
5
6F
100
AcDbSymbolTableRecord
100
AcDbLinetypeTableRecord
70
0
2
DASHED
3
__ __ __ __ __ __ __ __ __
72
65
73
2
40
25.72
49
12.86
74
0
49
-12.86
74
0
0
ENDTAB
0
TABLE
2
LAYER
5
21f
100
AcDbSymbolTable
0
LAYER
5
10
100
AcDbSymbolTableRecord
100
AcDbLayerTableRecord
2
0
70
0
62
7
6
Continuous
290
1
370
-3
390
0
0
LAYER
5
71
100
AcDbSymbolTableRecord
100
AcDbLayerTableRecord
2
81
70
0
62
-3
6
Continuous
290
1
370
-3
390
0
0
LAYER
5
73
100
AcDbSymbolTableRecord
100
AcDbLayerTableRecord
2
80
70
0
62
-6
6
Continuous
290
1
370
-3
390
0
0
LAYER
5
75
100
AcDbSymbolTableRecord
100
AcDbLayerTableRecord
2
1
70
0
62
4
6
Continuous
290
1
370
-3
390
0
0
LAYER
5
79
100
AcDbSymbolTableRecord
100
AcDbLayerTableRecord
2
4
70
0
62
-2
6
CENTER
290
1
370
-3
390
0
0
LAYER
5
D3
100
AcDbSymbolTableRecord
100
AcDbLayerTableRecord
2
2
70
0
62
7
6
Continuous
290
1
370
-3
390
0
0
LAYER
5
194
100
AcDbSymbolTableRecord
100
AcDbLayerTableRecord
2
Defpoints
70
0
62
7
6
Continuous
290
0
370
-3
390
0
0
LAYER
5
209
100
AcDbSymbolTableRecord
100
AcDbLayerTableRecord
2
SK4
70
0
62
2
6
CENTER
290
1
370
-3
390
0
0
LAYER
5
20a
100
AcDbSymbolTableRecord
100
AcDbLayerTableRecord
2
SK1
70
0
62
4
6
Continuous
290
1
370
-3
390
0
0
LAYER
5
20b
100
AcDbSymbolTableRecord
100
AcDbLayerTableRecord
2
SK2
70
0
62
7
6
Continuous
290
1
370
-3
390
0
0
LAYER
5
20c
100
AcDbSymbolTableRecord
100
AcDbLayerTableRecord
2
SK6
70
0
62
5
6
Continuous
290
1
370
-3
390
0
0
ENDTAB
0
TABLE
2
STYLE
5
220
100
AcDbSymbolTable
0
STYLE
5
11
100
AcDbSymbolTableRecord
100
AcDbTextStyleTableRecord
2
Standard
3
txt
70
0
71
0
40
0
41
1
42
0
50
0
0
STYLE
5
170
100
AcDbSymbolTableRecord
100
AcDbTextStyleTableRecord
2
iso_b_vert
3
simplex.shx
70
0
71
0
40
0
41
1
42
0
50
0
0
STYLE
5
171
100
AcDbSymbolTableRecord
100
AcDbTextStyleTableRecord
2
DWGDirectTextStyle
3
simplex
70
0
71
0
40
0
41
1
42
0
50
0
0
ENDTAB
0
TABLE
2
DIMSTYLE
5
221
100
AcDbSymbolTable
100
AcDbDimStyleTable
0
DIMSTYLE
105
27
100
AcDbSymbolTableRecord
100
AcDbDimStyleTableRecord
2
Standard
70
0
3
<>
41
0.18
42
0.0625
44
0.18
140
0.18
147
0.09
73
0
74
0
77
1
271
2
275
0
278
52
280
0
340
11
0
ENDTAB
0
TABLE
2
VIEW
5
222
100
AcDbSymbolTable
0
ENDTAB
0
TABLE
2
UCS
5
223
100
AcDbSymbolTable
0
ENDTAB
0
TABLE
2
APPID
5
224
100
AcDbSymbolTable
0
APPID
5
12
100
AcDbSymbolTableRecord
100
AcDbRegAppTableRecord
2
ACAD
70
0
0
APPID
5
190
100
AcDbSymbolTableRecord
100
AcDbRegAppTableRecord
2
ACAD_DSTYLE_DIMBREAK
70
0
0
APPID
5
1C8
100
AcDbSymbolTableRecord
100
AcDbRegAppTableRecord
2
ACAD_DSTYLE_DIM_LINETYPE
70
0
0
APPID
5
1C9
100
AcDbSymbolTableRecord
100
AcDbRegAppTableRecord
2
ACAD_DSTYLE_DIM_EXT1_LINETYPE
70
0
0
APPID
5
1CA
100
AcDbSymbolTableRecord
100
AcDbRegAppTableRecord
2
ACAD_DSTYLE_DIM_EXT2_LINETYPE
70
0
0
APPID
5
205
100
AcDbSymbolTableRecord
100
AcDbRegAppTableRecord
2
ACAD_MLEADERVER
70
0
0
ENDTAB
0
TABLE
2
BLOCK_RECORD
5
225
100
AcDbSymbolTable
0
BLOCK_RECORD
5
1F
100
AcDbSymbolTableRecord
100
AcDbBlockTableRecord
2
*Model_Space
340
0
70
0
0
BLOCK_RECORD
5
1B
100
AcDbSymbolTableRecord
100
AcDbBlockTableRecord
2
*Paper_Space
340
0
70
0
0
BLOCK_RECORD
5
23
100
AcDbSymbolTableRecord
100
AcDbBlockTableRecord
2
*Paper_Space0
340
0
70
0
0
BLOCK_RECORD
5
195
100
AcDbSymbolTableRecord
100
AcDbBlockTableRecord
2
*D1
340
0
70
0
0
BLOCK_RECORD
5
1A1
100
AcDbSymbolTableRecord
100
AcDbBlockTableRecord
2
_U0
340
0
70
0
0
ENDTAB
0
ENDSEC
0
SECTION
2
BLOCKS
0
BLOCK
5
20
100
AcDbEntity
8
0
100
AcDbBlockBegin
2
*Model_Space
70
0
10
0
20
0
30
0
3
*Model_Space
0
ENDBLK
5
21
100
AcDbEntity
8
0
100
AcDbBlockEnd
0
BLOCK
5
1C
100
AcDbEntity
8
0
100
AcDbBlockBegin
2
*Paper_Space
70
0
10
0
20
0
30
0
3
*Paper_Space
0
ENDBLK
5
1D
100
AcDbEntity
8
0
100
AcDbBlockEnd
0
BLOCK
5
24
100
AcDbEntity
8
0
100
AcDbBlockBegin
2
*Paper_Space0
70
0
10
0
20
0
30
0
3
*Paper_Space0
0
ENDBLK
5
25
100
AcDbEntity
8
0
100
AcDbBlockEnd
0
BLOCK
5
196
100
AcDbEntity
8
0
100
AcDbBlockBegin
2
*D1
70
1
10
0
20
0
30
0
3
*D1
0
LINE
5
198
100
AcDbEntity
8
0
62
256
6
ByLayer
370
-2
48
1
60
0
100
AcDbLine
10
22
20
-6.5876
30
0
11
22
21
-21.941594
31
0
39
0
210
0
220
0
230
1
0
LINE
5
199
100
AcDbEntity
8
0
62
256
6
ByLayer
370
-2
48
1
60
0
100
AcDbLine
10
0
20
-6.5876
30
0
11
0
21
-21.941594
31
0
39
0
210
0
220
0
230
1
0
LINE
5
19A
100
AcDbEntity
8
0
62
256
6
ByLayer
370
-2
48
1
60
0
100
AcDbLine
10
18.5
20
-19.941594
30
0
11
3.5
21
-19.941594
31
0
39
0
210
0
220
0
230
1
0
SOLID
5
19B
100
AcDbEntity
8
0
62
256
6
ByLayer
370
-1
48
1
60
0
100
AcDbTrace
10
18.5
20
-20.524927
30
0
11
18.5
21
-19.358261
31
0
12
22
22
-19.941594
32
0
13
22
23
-19.941594
33
0
39
0
210
0
220
0
230
1
0
SOLID
5
19C
100
AcDbEntity
8
0
62
256
6
ByLayer
370
-1
48
1
60
0
100
AcDbTrace
10
3.5
20
-19.358261
30
0
11
3.5
21
-20.524927
31
0
12
0
22
-19.941594
32
0
13
0
23
-19.941594
33
0
39
0
210
0
220
0
230
1
0
MTEXT
5
19D
100
AcDbEntity
8
0
62
256
6
ByLayer
370
18
48
1
60
0
100
AcDbMText
10
11
20
-12.941594
30
0
210
0
220
0
230
1
1
\A1;22
40
3.5
41
0
44
1
50
0
71
5
72
5
7
iso_b_vert
0
POINT
5
19E
100
AcDbEntity
8
Defpoints
62
0
6
ByLayer
370
-1
48
1
60
0
100
AcDbPoint
10
22
20
-5.0001
30
0
39
0
210
0
220
0
230
1
50
360
0
POINT
5
19F
100
AcDbEntity
8
Defpoints
62
0
6
ByLayer
370
-1
48
1
60
0
100
AcDbPoint
10
0
20
-5.0001
30
0
39
0
210
0
220
0
230
1
50
360
0
POINT
5
1A0
100
AcDbEntity
8
Defpoints
62
0
6
ByLayer
370
-1
48
1
60
0
100
AcDbPoint
10
0
20
-19.941594
30
0
39
0
210
0
220
0
230
1
50
360
0
ENDBLK
5
197
100
AcDbEntity
8
0
100
AcDbBlockEnd
0
BLOCK
5
1A8
100
AcDbEntity
8
0
100
AcDbBlockBegin
2
_U0
70
0
10
0
20
0
30
0
3
_U0
0
MTEXT
5
1A2
100
AcDbEntity
8
SK2
62
256
6
ByLayer
370
18
48
1
60
0
100
AcDbMText
10
9.095034
20
-18.90896
30
0
210
0
220
0
230
1
1
\W0.6740;22
40
3.5
41
0
44
1.084337
50
0
71
7
72
5
7
iso_b_vert
0
LINE
5
1A3
100
AcDbEntity
8
SK2
62
256
6
ByLayer
370
13
48
1
60
0
100
AcDbLine
10
22
20
-6.5876
30
0
11
22
21
-21.941594
31
0
39
0
210
0
220
0
230
1
0
LINE
5
1A4
100
AcDbEntity
8
SK2
62
256
6
ByLayer
370
13
48
1
60
0
100
AcDbLine
10
0
20
-6.5876
30
0
11
0
21
-21.941594
31
0
39
0
210
0
220
0
230
1
0
LINE
5
1A5
100
AcDbEntity
8
SK2
62
256
6
ByLayer
370
13
48
1
60
0
100
AcDbLine
10
22
20
-19.941594
30
0
11
0
21
-19.941594
31
0
39
0
210
0
220
0
230
1
0
SOLID
5
1A6
100
AcDbEntity
8
SK2
62
256
6
ByLayer
370
18
48
1
60
0
100
AcDbTrace
10
22
20
-19.941594
30
0
11
18.500002
21
-20.402378
31
0
12
18.499998
22
-19.48081
32
0
13
18.499998
23
-19.48081
33
0
39
0
210
0
220
0
230
1
0
SOLID
5
1A7
100
AcDbEntity
8
SK2
62
256
6
ByLayer
370
18
48
1
60
0
100
AcDbTrace
10
0
20
-19.941594
30
0
11
3.499998
21
-19.48081
31
0
12
3.500002
22
-20.402378
32
0
13
3.500002
23
-20.402378
33
0
39
0
210
0
220
0
230
1
0
ENDBLK
5
1A9
100
AcDbEntity
8
0
100
AcDbBlockEnd
0
ENDSEC
0
SECTION
2
ENTITIES
0
ELLIPSE
5
E5
100
AcDbEntity
8
1
62
256
6
ByLayer
370
18
48
1
60
0
100
AcDbEllipse
10
21.758561
20
-0.194885
30
0
11
0.0243602487341863
21
-0.857191107205639
31
0
210
0
220
0
230
1
40
0.078685
41
0.877066919018432
42
1.48608946147132
0
ELLIPSE
5
E6
100
AcDbEntity
8
1
62
256
6
ByLayer
370
18
48
1
60
0
100
AcDbEllipse
10
21.67231
20
-0.628393
30
0
11
0.34449925867205
21
-0.57909062860483
31
0
210
0
220
0
230
1
40
0.509734
41
2.85031253024671
42
-2.50795076513583
0
ELLIPSE
5
E7
100
AcDbEntity
8
1
62
256
6
ByLayer
370
18
48
1
60
0
100
AcDbEllipse
10
21.71798
20
-0.636055
30
0
11
0.0370246215692311
21
-0.573536687506713
31
0
210
0
220
0
230
1
40
0.179179
41
0.790755841236039
42
1.37432726204354
0
ELLIPSE
5
E8
100
AcDbEntity
8
1
62
256
6
ByLayer
370
18
48
1
60
0
100
AcDbEllipse
10
21.419658
20
-0.586003
30
0
11
0.279743093416933
21
-0.558484532563952
31
0
210
0
220
0
230
1
40
0.659977
41
0.350925936091778
42
0.383834286539475
0
ELLIPSE
5
E9
100
AcDbEntity
8
SK1
62
256
6
ByLayer
370
18
48
1
60
0
100
AcDbEllipse
10
2.420656
20
0
30
0
11
13.9354973916927
21
1.00833007113495
31
0
210
0
220
0
230
1
40
0.351424
41
-1.81346256208189
42
-1.77075251689728
0
ELLIPSE
5
EA
100
AcDbEntity
8
SK1
62
256
6
ByLayer
370
18
48
1
60
0
100
AcDbEllipse
10
4.944725
20
0
30
0
11
9.85474209744889
21
1.74040155827494
31
0
210
0
220
0
230
1
40
0.475641
41
-2.73863295910408
42
-2.31969541269038
0
ELLIPSE
5
EB
100
AcDbEntity
8
SK1
62
256
6
ByLayer
370
18
48
1
60
0
100
AcDbEllipse
10
3.513321
20
-5E-06
30
0
11
20.2322704812773
21
-4.99559836069719
31
0
210
0
220
0
230
1
40
0.010387
41
-1.77102554069469
42
-1.74276526828273
0
ELLIPSE
5
EC
100
AcDbEntity
8
SK1
62
256
6
ByLayer
370
18
48
1
60
0
100
AcDbEllipse
10
4.604307
20
0
30
0
11
9.20404762014685
21
-4.97109781877815
31
0
210
0
220
0
230
1
40
0.058325
41
-2.6242030540515
42
-2.20663685933541
0
ELLIPSE
5
ED
100
AcDbEntity
8
SK1
62
256
6
ByLayer
370
18
48
1
60
0
100
AcDbEllipse
10
2.428687
20
0
30
0
11
13.9856129438027
21
-0.37434127813487
31
0
210
0
220
0
230
1
40
0.356507
41
1.7548712931715
42
1.79464956373054
0
POINT
5
70
100
AcDbEntity
8
81
62
256
6
ByLayer
370
18
48
1
60
0
100
AcDbPoint
10
22
20
0
30
0
39
0
210
0
220
0
230
1
50
360
0
POINT
5
72
100
AcDbEntity
8
80
62
256
6
ByLayer
370
18
48
1
60
0
100
AcDbPoint
10
0
20
0
30
0
39
0
210
0
220
0
230
1
50
360
0
POINT
5
74
100
AcDbEntity
8
1
62
256
6
ByLayer
370
18
48
1
60
1
100
AcDbPoint
10
22
20
-5.0001
30
0
39
0
210
0
220
0
230
1
50
360
0
POINT
5
76
100
AcDbEntity
8
1
62
256
6
ByLayer
370
18
48
1
60
1
100
AcDbPoint
10
0
20
-5.0001
30
0
39
0
210
0
220
0
230
1
50
360
0
SPLINE
5
EE
100
AcDbEntity
8
1
62
256
6
ByLayer
370
18
48
1
60
0
100
AcDbSpline
70
4
71
2
72
6
73
3
40
0
40
0
40
0
40
1
40
1
40
1
41
1
10
0.307832047313355
20
-4.99434496649863
30
0
41
1
10
0.307816591627983
20
-4.9950043637711
30
0
41
1
10
0.307801135946505
20
-4.99566369983489
30
0
0
SPLINE
5
EF
100
AcDbEntity
8
1
62
256
6
ByLayer
370
18
48
1
60
0
100
AcDbSpline
70
4
71
2
72
6
73
3
40
0
40
0
40
0
40
1
40
1
40
1
41
1
10
0.848342304090124
20
4.99920257285319
30
0
41
1
10
0.848364529669539
20
4.99920241713386
30
0
41
1
10
0.848386755244007
20
4.99920212604667
30
0
0
SPLINE
5
F0
100
AcDbEntity
8
1
62
256
6
ByLayer
370
18
48
1
60
0
100
AcDbSpline
70
4
71
2
72
6
73
3
40
0
40
0
40
0
40
1
40
1
40
1
41
1
10
11.1944048306178
20
-4.99923538244326
30
0
41
1
10
11.1943768185795
20
-4.99923640516667
30
0
41
1
10
11.1943488065326
20
-4.99923725308309
30
0
0
SPLINE
5
F1
100
AcDbEntity
8
1
62
256
6
ByLayer
370
18
48
1
60
0
100
AcDbSpline
70
4
71
2
72
6
73
3
40
0
40
0
40
0
40
1
40
1
40
1
41
1
10
11.3098259337042
20
4.99921957946228
30
0
41
1
10
11.3098471713673
20
4.99921913139841
30
0
41
1
10
11.3098684090283
20
4.99921855843479
30
0
0
SPLINE
5
F2
100
AcDbEntity
8
1
62
256
6
ByLayer
370
18
48
1
60
0
100
AcDbSpline
70
4
71
3
72
16
73
12
40
0
40
0
40
0
40
0
40
0.183164850902668
40
0.328171724935421
40
0.450212381353386
40
0.579036793086207
40
0.710891023995727
40
0.824965713741313
40
0.881080180495572
40
0.974904765724934
40
1
40
1
40
1
40
1
41
1
10
2.8654226757499
20
-4.39117103758485
30
0
41
1
10
3.10088453578641
20
-4.38348603074428
30
0
41
1
10
3.51997425316773
20
-4.36210172193992
30
0
41
1
10
4.08990898742815
20
-4.31329782996329
30
0
41
1
10
4.58319832738073
20
-4.25820434314244
30
0
41
1
10
5.0651019027523
20
-4.19228070716952
30
0
41
1
10
5.53824355169365
20
-4.11557405851264
30
0
41
1
10
5.92098778018246
20
-4.0445206410956
30
0
41
1
10
6.25659138870026
20
-3.97688836314128
30
0
41
1
10
6.47785581409957
20
-3.92929008775857
30
0
41
1
10
6.62812190637663
20
-3.89536849041002
30
0
41
1
10
6.65982939356752
20
-3.88814101147454
30
0
0
SPLINE
5
F3
100
AcDbEntity
8
1
62
256
6
ByLayer
370
18
48
1
60
0
100
AcDbSpline
70
4
71
1
72
4
73
2
40
0
40
0
40
1
40
1
41
1
10
20.3350577637559
20
3.04179750481313
30
0
41
1
10
20.2186964949233
20
3.08816068873082
30
0
0
SPLINE
5
F4
100
AcDbEntity
8
1
62
256
6
ByLayer
370
18
48
1
60
0
100
AcDbSpline
70
4
71
3
72
9
73
5
40
0
40
0
40
0
40
0
40
0.974084445852666
40
1
40
1
40
1
40
1
41
1
10
17.8442658976393
20
3.86487496363406
30
0
41
1
10
17.5820316660915
20
3.92729399981906
30
0
41
1
10
17.3124832072374
20
3.98604996541053
30
0
41
1
10
17.0428104009511
20
4.03953419919716
30
0
41
1
10
17.0358215784912
20
4.04091671584305
30
0
0
SPLINE
5
F5
100
AcDbEntity
8
1
62
256
6
ByLayer
370
18
48
1
60
0
100
AcDbSpline
70
4
71
2
72
6
73
3
40
0
40
0
40
0
40
1
40
1
40
1
41
1
10
11.9626992446922
20
2.26265837779533
30
0
41
1
10
11.2750935657523
20
2.44656562623817
30
0
41
1
10
10.5814044504784
20
2.749571736642
30
0
0
SPLINE
5
F6
100
AcDbEntity
8
1
62
256
6
ByLayer
370
18
48
1
60
0
100
AcDbSpline
70
4
71
2
72
6
73
3
40
0
40
0
40
0
40
1
40
1
40
1
41
1
10
1.24259043571777
20
2.37220905020752
30
0
41
1
10
0.635994416628819
20
2.51068172639612
30
0
41
1
10
2.84E-14
20
2.75319786955958
30
0
0
SPLINE
5
F7
100
AcDbEntity
8
1
62
256
6
ByLayer
370
18
48
1
60
0
100
AcDbSpline
70
4
71
3
72
13
73
9
40
0
40
0
40
0
40
0
40
0.265922946938398
40
0.477419760642289
40
0.634782332213981
40
0.770710387716578
40
0.916790529232148
40
1
40
1
40
1
40
1
41
1
10
8.83099189062253
20
3.40999032280124
30
0
41
1
10
8.61619396432292
20
3.47776983696556
30
0
41
1
10
8.23118343570872
20
3.59387068081764
30
0
41
1
10
7.71946299691828
20
3.73554375936135
30
0
41
1
10
7.31524319411417
20
3.83912696050024
30
0
41
1
10
6.96506123640339
20
3.9229422155754
30
0
41
1
10
6.67255472738574
20
3.98797377405452
30
0
41
1
10
6.48864256688941
20
4.02624086724643
30
0
41
1
10
6.42186411859134
20
4.03978333564328
30
0
0
SPLINE
5
F8
100
AcDbEntity
8
1
62
256
6
ByLayer
370
18
48
1
60
0
100
AcDbSpline
70
4
71
3
72
16
73
12
40
0
40
0
40
0
40
0
40
0.17692256801268
40
0.30857087815668
40
0.419579851004945
40
0.483523885127903
40
0.553606629597774
40
0.645572894701446
40
0.769085113410393
40
0.924208059806552
40
1
40
1
40
1
40
1
41
1
10
13.7650364527343
20
-4.39110401097489
30
0
41
1
10
13.9726819312444
20
-4.38386694566859
30
0
41
1
10
14.3331232042876
20
-4.36447148569121
30
0
41
1
10
14.8202266288633
20
-4.32156377881708
30
0
41
1
10
15.1724119087019
20
-4.28161420489965
30
0
41
1
10
15.4563425799161
20
-4.24416045949246
30
0
41
1
10
15.7186677102118
20
-4.20585186933658
30
0
41
1
10
16.0502493312758
20
-4.15176899568303
30
0
41
1
10
16.480257323065
20
-4.07195523768104
30
0
41
1
10
16.8911346613235
20
-3.98345684019338
30
0
41
1
10
17.1588310758682
20
-3.92010499121804
30
0
41
1
10
17.2466932478643
20
-3.89868600127929
30
0
0
SPLINE
5
F9
100
AcDbEntity
8
1
62
256
6
ByLayer
370
18
48
1
60
0
100
AcDbSpline
70
4
71
3
72
12
73
8
40
0
40
0
40
0
40
0
40
0.251026501993952
40
0.251026501993952
40
0.502053003987916
40
0.502053003987916
40
1
40
1
40
1
40
1
41
1
10
-4.4157389E-09
20
-4.94580593345313
30
0
41
1
10
-4.4157389E-09
20
-4.95028975578353
30
0
41
1
10
0
20
-4.9547737941657
30
0
41
1
10
0
20
-4.96374230458795
30
0
41
1
10
0
20
-4.96822677625957
30
0
41
1
10
0
20
-4.98160748518902
30
0
41
1
10
0
20
-4.99050435772142
30
0
41
1
10
0
20
-4.99940208197839
30
0
0
SPLINE
5
FA
100
AcDbEntity
8
1
62
256
6
ByLayer
370
18
48
1
60
0
100
AcDbSpline
70
4
71
3
72
8
73
4
40
0
40
0
40
0
40
0
40
1
40
1
40
1
40
1
41
1
10
-4.4180126E-09
20
-4.9994020827979
30
0
41
1
10
-4.4180126E-09
20
-4.99959339476931
30
0
41
1
10
0
20
-4.99978474259703
30
0
41
1
10
0
20
-4.99997612645015
30
0
0
SPLINE
5
FB
100
AcDbEntity
8
1
62
256
6
ByLayer
370
18
48
1
60
0
100
AcDbSpline
70
4
71
3
72
9
73
5
40
0
40
0
40
0
40
0
40
0.151862976269005
40
1
40
1
40
1
40
1
41
1
10
-8.8360252E-09
20
-4.9994020827979
30
0
41
1
10
0.0158544797414493
20
-4.99945804545297
30
0
41
1
10
0.120249677970207
20
-4.99957373259522
30
0
41
1
10
0.224613594284591
20
-4.99802404307223
30
0
41
1
10
0.313105598279805
20
-4.99551471564388
30
0
0
SPLINE
5
FC
100
AcDbEntity
8
1
62
256
6
ByLayer
370
18
48
1
60
0
100
AcDbSpline
70
4
71
3
72
8
73
4
40
0
40
0
40
0
40
0
40
1
40
1
40
1
40
1
41
1
10
0
20
-4.62412269133443
30
0
41
1
10
0
20
-4.73133242590845
30
0
41
1
10
0
20
-4.83856017332874
30
0
41
1
10
0
20
-4.94580593192717
30
0
0
SPLINE
5
FD
100
AcDbEntity
8
1
62
256
6
ByLayer
370
18
48
1
60
0
100
AcDbSpline
70
4
71
3
72
16
73
12
40
0
40
0
40
0
40
0
40
0.0194972848203562
40
0.152703551770863
40
0.285909818721369
40
0.419116085671875
40
0.552322352622382
40
0.685528619572888
40
0.818734886523394
40
0.951941153473901
40
1
40
1
40
1
40
1
41
1
10
-8.8314778E-09
20
-4.94580593345313
30
0
41
1
10
0.0157926763030503
20
-4.94674011884592
30
0
41
1
10
0.139475994693527
20
-4.9537621017387
30
0
41
1
10
0.370968094621304
20
-4.96258795649098
30
0
41
1
10
0.694323488775211
20
-4.96434960712739
30
0
41
1
10
1.01749204370282
20
-4.95549091764789
30
0
41
1
10
1.34047366741376
20
-4.93622272493045
30
0
41
1
10
1.66329068947553
20
-4.90641237511545
30
0
41
1
10
1.98595093219856
20
-4.86622375998337
30
0
41
1
10
2.23975907935318
20
-4.8265211654726
30
0
41
1
10
2.38602334654448
20
-4.80051062997194
30
0
41
1
10
2.42480024145269
20
-4.79339495766715
30
0
0
SPLINE
5
FE
100
AcDbEntity
8
1
62
256
6
ByLayer
370
18
48
1
60
0
100
AcDbSpline
70
4
71
3
72
12
73
8
40
0
40
0
40
0
40
0
40
0.25106911934157
40
0.25106911934157
40
0.502138238683175
40
0.502138238683175
40
1
40
1
40
1
40
1
41
1
10
-4.128367E-09
20
1.06677758528878
30
0
41
1
10
-4.128367E-09
20
1.03502315053475
30
0
41
1
10
2.84E-14
20
1.00326880641145
30
0
41
1
10
2.84E-14
20
0.939760299864901
30
0
41
1
10
0
20
0.908006137339072
30
0
41
1
10
0
20
0.813284791305108
30
0
41
1
10
0
20
0.750317873891731
30
0
41
1
10
0
20
0.687351313407305
30
0
0
SPLINE
5
FF
100
AcDbEntity
8
1
62
256
6
ByLayer
370
18
48
1
60
0
100
AcDbSpline
70
4
71
3
72
22
73
18
40
0
40
0
40
0
40
0
40
0.0303475906568059
40
0.0658775875758074
40
0.101407584494809
40
0.172467578332811
40
0.314587566008816
40
0.385647559846819
40
0.456707553684822
40
0.527767547522824
40
0.598827541360827
40
0.66988753519883
40
0.740947529036832
40
0.812007522874835
40
0.883067516712837
40
0.95412751055084
40
1
40
1
40
1
40
1
41
1
10
12.3698789154741
20
4.94535873757337
30
0
41
1
10
12.4620170424098
20
4.93972487789165
30
0
41
1
10
12.6619703644048
20
4.9246113654182
30
0
41
1
10
12.9695445128829
20
4.89181690699098
30
0
41
1
10
13.4001988724116
20
4.8316486189606
30
0
41
1
10
14.1530573566812
20
4.6888602795004
30
0
41
1
10
15.0137038450225
20
4.44243853704486
30
0
41
1
10
15.8787601511038
20
4.11754509153434
30
0
41
1
10
16.5307085108064
20
3.83569008520038
30
0
41
1
10
17.1869451761328
20
3.51729993728085
30
0
41
1
10
17.8484856837958
20
3.16399075712442
30
0
41
1
10
18.5165898367188
20
2.77763179211644
30
0
41
1
10
19.1922725806561
20
2.36021015776458
30
0
41
1
10
19.8769116597612
20
1.91405125781949
30
0
41
1
10
20.5715239187135
20
1.44194625195567
30
0
41
1
10
21.1943997408973
20
1.00560532338895
30
0
41
1
10
21.5878441047752
20
0.725355743183144
30
0
41
1
10
21.7431913137464
20
0.614192692811855
30
0
0
SPLINE
5
100
100
AcDbEntity
8
1
62
256
6
ByLayer
370
18
48
1
60
0
100
AcDbSpline
70
4
71
3
72
8
73
4
40
0
40
0
40
0
40
0
40
1
40
1
40
1
40
1
41
1
10
2.84E-14
20
1.90694925974154
30
0
41
1
10
2.84E-14
20
1.62687832584419
30
0
41
1
10
2.84E-14
20
1.34682109845829
30
0
41
1
10
2.84E-14
20
1.06677758453793
30
0
0
SPLINE
5
101
100
AcDbEntity
8
1
62
256
6
ByLayer
370
18
48
1
60
0
100
AcDbSpline
70
4
71
3
72
44
73
40
40
0
40
0
40
0
40
0
40
0.004192265128998
40
0.0283084632559247
40
0.0524246613828513
40
0.076540859509778
40
0.100657057636705
40
0.124773255763631
40
0.148889453890558
40
0.173005652017485
40
0.221238048271338
40
0.245354246398265
40
0.269470444525191
40
0.293586642652118
40
0.317702840779045
40
0.341819038905971
40
0.365935237032898
40
0.390051435159825
40
0.414167633286752
40
0.462400029540605
40
0.486516227667532
40
0.510632425794458
40
0.558864822048312
40
0.582981020175238
40
0.607097218302165
40
0.655329614556018
40
0.679445812682945
40
0.703562010809872
40
0.751794407063725
40
0.775910605190652
40
0.800026803317578
40
0.824143001444505
40
0.848259199571432
40
0.872375397698358
40
0.896491595825285
40
0.944723992079139
40
0.968840190206065
40
0.992956388332992
40
1
40
1
40
1
40
1
41
1
10
-8.2567908E-09
20
1.06677758528878
30
0
41
1
10
0.0186745918234976
20
1.0528854080344
30
0
41
1
10
0.144767017200906
20
0.958996647759534
30
0
41
1
10
0.378170829576561
20
0.78415489088502
30
0
41
1
10
0.700023863082009
20
0.541128145586299
30
0
41
1
10
1.02164853521367
20
0.296950921926936
30
0
41
1
10
1.34305168057443
20
0.0521913552278477
30
0
41
1
10
1.66426340624426
20
-0.19250035946564
30
0
41
1
10
1.98530153356211
20
-0.436610952297798
30
0
41
1
10
2.41316558003433
20
-0.760549152604455
30
0
41
1
10
2.84080238864434
20
-1.08106521911572
30
0
41
1
10
3.26834383846369
20
-1.39575686257419
30
0
41
1
10
3.58897925397287
20
-1.62845349417293
30
0
41
1
10
3.90962141561244
20
-1.85728603243226
30
0
41
1
10
4.23029766012849
20
-2.08149647508523
30
0
41
1
10
4.5510416543716
20
-2.30075377031508
30
0
41
1
10
4.87187635481459
20
-2.51452557557767
30
0
41
1
10
5.19282058877377
20
-2.72237331702647
30
0
41
1
10
5.62090913648737
20
-2.99056849125725
30
0
41
1
10
6.04931985593782
20
-3.24489377886144
30
0
41
1
10
6.47807612664334
20
-3.48323671034993
30
0
41
1
10
6.90708566770735
20
-3.71052750826561
30
0
41
1
10
7.33650423007964
20
-3.92008333046758
30
0
41
1
10
7.76637451978661
20
-4.11043366083499
30
0
41
1
10
8.19657136128876
20
-4.28763488212695
30
0
41
1
10
8.62726166530319
20
-4.44402004385663
30
0
41
1
10
9.05828756247737
20
-4.5785163106477
30
0
41
1
10
9.48949634930733
20
-4.69821477730207
30
0
41
1
10
9.92091573654986
20
-4.79473733172608
30
0
41
1
10
10.3523895509609
20
-4.86757570587608
30
0
41
1
10
10.675992393491
20
-4.91031707445069
30
0
41
1
10
10.9995525159889
20
-4.94082789454575
30
0
41
1
10
11.3230257430298
20
-4.95911878913142
30
0
41
1
10
11.646355109738
20
-4.96523784868188
30
0
41
1
10
12.0772123967621
20
-4.95726808567298
30
0
41
1
10
12.5076301439062
20
-4.92467602279828
30
0
41
1
10
12.9374081892028
20
-4.86820042990885
30
0
41
1
10
13.1833846236044
20
-4.82688540016744
30
0
41
1
10
13.321958025528
20
-4.80032596130519
30
0
41
1
10
13.3532784808076
20
-4.7941559364105
30
0
0
SPLINE
5
102
100
AcDbEntity
8
1
62
256
6
ByLayer
370
18
48
1
60
0
100
AcDbSpline
70
4
71
3
72
49
73
45
40
0
40
0
40
0
40
0
40
0.009470226706453
40
0.0258992994958185
40
0.042328372285184
40
0.0587574450745494
40
0.0751865178639149
40
0.0916155906532804
40
0.108044663442646
40
0.124473736232011
40
0.140902809021377
40
0.157331881810742
40
0.173760954600108
40
0.190190027389473
40
0.223048172968204
40
0.23947724575757
40
0.255906318546935
40
0.288764464125666
40
0.305193536915031
40
0.321622609704397
40
0.354480755283128
40
0.370909828072493
40
0.387338900861859
40
0.42019704644059
40
0.436626119229955
40
0.453055192019321
40
0.469484264808686
40
0.485913337598052
40
0.502342410387417
40
0.518771483176783
40
0.551629628755514
40
0.617345919912975
40
0.650204065491706
40
0.683062211070437
40
0.715920356649168
40
0.748778502227899
40
0.78163664780663
40
0.814494793385361
40
0.847352938964092
40
0.880211084542823
40
0.913069230121554
40
0.945927375700285
40
0.978785521279016
40
1
40
1
40
1
40
1
41
1
10
1.75899118298287
20
4.95202508696971
30
0
41
1
10
1.82107886952687
20
4.94895300057999
30
0
41
1
10
1.9909195252701
20
4.93879747685341
30
0
41
1
10
2.26868354024509
20
4.91435943008059
30
0
41
1
10
2.59236926821265
20
4.87443301660886
30
0
41
1
10
2.91631109013852
20
4.82310647314452
30
0
41
1
10
3.24049754402853
20
4.7604240818693
30
0
41
1
10
3.56490391317945
20
4.68645831324699
30
0
41
1
10
3.88950512765518
20
4.60151494831439
30
0
41
1
10
4.21428369138837
20
4.5057089446089
30
0
41
1
10
4.53922005819254
20
4.39924116012676
30
0
41
1
10
4.86428919878418
20
4.28230618136252
30
0
41
1
10
5.18946524795999
20
4.15526361740706
30
0
41
1
10
5.62315135218319
20
3.97287476973756
30
0
41
1
10
6.05698095647125
20
3.77129580062288
30
0
41
1
10
6.4908488442598
20
3.55216682149981
30
0
41
1
10
6.9247123784632
20
3.32197368786547
30
0
41
1
10
7.35854251043486
20
3.07568893878249
30
0
41
1
10
7.79223374030522
20
2.81530965292566
30
0
41
1
10
8.2258016995616
20
2.54623337224268
30
0
41
1
10
8.6591518390394
20
2.26485173790542
30
0
41
1
10
9.09217171143101
20
1.97342013409673
30
0
41
1
10
9.52493916343724
20
1.6760283920903
30
0
41
1
10
9.95729422102607
20
1.37061217476364
30
0
41
1
10
10.3890263117513
20
1.05962613844113
30
0
41
1
10
10.7124668098901
20
0.82418668147983
30
0
41
1
10
11.0355191478881
20
0.587083964177538
30
0
41
1
10
11.3581665583894
20
0.348913030531435
30
0
41
1
10
11.6803830252215
20
0.110259977105528
30
0
41
1
10
12.1093887531498
20
-0.207831827042526
30
0
41
1
10
12.8588070119718
20
-0.762452383197598
30
0
41
1
10
13.7140007428023
20
-1.38426054655071
30
0
41
1
10
14.5715882044684
20
-1.9795518882087
30
0
41
1
10
15.2168570697839
20
-2.40911685383219
30
0
41
1
10
15.8651630658801
20
-2.81818131310655
30
0
41
1
10
16.5174188732034
20
-3.20314697936937
30
0
41
1
10
17.1747243355816
20
-3.56043804453438
30
0
41
1
10
17.8378929150183
20
-3.88613101880759
30
0
41
1
10
18.5079523797653
20
-4.17660126347593
30
0
41
1
10
19.1857439851094
20
-4.42790364500743
30
0
41
1
10
19.8725063870945
20
-4.63638066910701
30
0
41
1
10
20.5690498947379
20
-4.7979842618717
30
0
41
1
10
21.193325932902
20
-4.89608198739006
30
0
41
1
10
21.5874080766656
20
-4.93260498317738
30
0
41
1
10
21.742974859667
20
-4.94298708174034
30
0
0
SPLINE
5
103
100
AcDbEntity
8
1
62
256
6
ByLayer
370
18
48
1
60
0
100
AcDbSpline
70
4
71
3
72
54
73
50
40
0
40
0
40
0
40
0
40
0.0077402706681148
40
0.0229580828202247
40
0.0381758949723347
40
0.0533937071244446
40
0.0686115192765546
40
0.0838293314286645
40
0.0990471435807745
40
0.114264955732885
40
0.129482767884994
40
0.144700580037104
40
0.159918392189214
40
0.175136204341324
40
0.190354016493434
40
0.205571828645544
40
0.220789640797654
40
0.236007452949764
40
0.251225265101874
40
0.281660889406094
40
0.296878701558204
40
0.312096513710314
40
0.342532138014534
40
0.357749950166644
40
0.372967762318754
40
0.403403386622974
40
0.418621198775084
40
0.433839010927194
40
0.464274635231413
40
0.479492447383523
40
0.494710259535633
40
0.509928071687743
40
0.525145883839853
40
0.540363695991963
40
0.555581508144073
40
0.586017132448293
40
0.646888381056733
40
0.677324005360953
40
0.707759629665173
40
0.738195253969393
40
0.768630878273613
40
0.799066502577832
40
0.829502126882052
40
0.859937751186272
40
0.890373375490492
40
0.920808999794712
40
0.951244624098932
40
0.981680248403152
40
1
40
1
40
1
40
1
41
1
10
0.169067117375477
20
4.97838971222166
30
0
41
1
10
0.22359862003384
20
4.9821230813254
30
0
41
1
10
0.385379229959085
20
4.99172394191669
30
0
41
1
10
0.654598331738612
20
5.00040325595225
30
0
41
1
10
0.976872343705253
20
4.99930745863617
30
0
41
1
10
1.29944639188176
20
4.98659432572242
30
0
41
1
10
1.62231629580271
20
4.96229056510217
30
0
41
1
10
1.94546785476811
20
4.92637730780734
30
0
41
1
10
2.26889532771176
20
4.87895819593388
30
0
41
1
10
2.59258393983572
20
4.82013333844168
30
0
41
1
10
2.91652614396176
20
4.74997220571768
30
0
41
1
10
3.2407102642579
20
4.66861194372058
30
0
41
1
10
3.56511610091866
20
4.57623668637336
30
0
41
1
10
3.88971976558798
20
4.47310722758419
30
0
41
1
10
4.21449933990917
20
4.35936614332644
30
0
41
1
10
4.53943339466309
20
4.23530413264481
30
0
41
1
10
4.86450136327625
20
4.10120840211977
30
0
41
1
10
5.18967943613347
20
3.95742176486331
30
0
41
1
10
5.62336757442876
20
3.75321298238455
30
0
41
1
10
6.05719297535185
20
3.53092627844487
30
0
41
1
10
6.4910632063424
20
3.2922481114847
30
0
41
1
10
6.92493082654636
20
3.04321715040783
30
0
41
1
10
7.35875595360872
20
2.7795020647051
30
0
41
1
10
7.79244693495053
20
2.50310080596557
30
0
41
1
10
8.22601581814675
20
2.2189088602461
30
0
41
1
10
8.65936190696351
20
1.92403713519945
30
0
41
1
10
9.09238638389709
20
1.62071127229658
30
0
41
1
10
9.52516388683506
20
1.31248129675632
30
0
41
1
10
9.95751044003879
20
0.998021543126953
30
0
41
1
10
10.3892388463892
20
0.679726123901048
30
0
41
1
10
10.7126777042471
20
0.439677555848391
30
0
41
1
10
11.0357266936961
20
0.198886386138469
30
0
41
1
10
11.3583720740608
20
-0.0420682673305635
30
0
41
1
10
11.6805938657599
20
-0.282606174335086
30
0
41
1
10
12.1096135526972
20
-0.601990540144442
30
0
41
1
10
12.8590239253467
20
-1.15565251310855
30
0
41
1
10
13.7142307896489
20
-1.76921602771048
30
0
41
1
10
14.5717984403385
20
-2.34914820620821
30
0
41
1
10
15.2170713015244
20
-2.76374497758618
30
0
41
1
10
15.8653697650438
20
-3.15448017133409
30
0
41
1
10
16.5176553695065
20
-3.517846501029
30
0
41
1
10
17.1749223086835
20
-3.85026708201684
30
0
41
1
10
17.8381241957308
20
-4.14812849946551
30
0
41
1
10
18.5081556927469
20
-4.40780914970509
30
0
41
1
10
19.1859837280221
20
-4.62566238624228
30
0
41
1
10
19.8726654532176
20
-4.7981015489448
30
0
41
1
10
20.5693230268372
20
-4.92154835141102
30
0
41
1
10
21.1833165131991
20
-4.98313374854359
30
0
41
1
10
21.5666859721134
20
-4.99710032954042
30
0
41
1
10
21.7115381688197
20
-4.99884018589398
30
0
0
SPLINE
5
104
100
AcDbEntity
8
1
62
256
6
ByLayer
370
18
48
1
60
0
100
AcDbSpline
70
4
71
3
72
41
73
37
40
0
40
0
40
0
40
0
40
0.0046912279727752
40
0.0315489146367552
40
0.0584066013007352
40
0.0852642879647152
40
0.112121974628695
40
0.138979661292675
40
0.165837347956655
40
0.192695034620635
40
0.246410407948595
40
0.273268094612575
40
0.300125781276555
40
0.326983467940535
40
0.353841154604515
40
0.380698841268495
40
0.407556527932475
40
0.434414214596455
40
0.461271901260435
40
0.514987274588395
40
0.541844961252375
40
0.568702647916355
40
0.622418021244315
40
0.649275707908295
40
0.676133394572275
40
0.729848767900235
40
0.756706454564215
40
0.783564141228195
40
0.837279514556155
40
0.864137201220135
40
0.890994887884115
40
0.917852574548095
40
0.944710261212075
40
0.971567947876055
40
0.998425634540035
40
1
40
1
40
1
40
1
41
1
10
-8.264692E-09
20
0.687351313628426
30
0
41
1
10
0.0187642550004341
20
0.673091111704991
30
0
41
1
10
0.144946892342517
20
0.577139479074276
30
0
41
1
10
0.378441814619976
20
0.398920588544371
30
0
41
1
10
0.700295060680844
20
0.152281850393507
30
0
41
1
10
1.02191636460674
20
-0.094549780460369
30
0
41
1
10
1.34332061425638
20
-0.341001633071158
30
0
41
1
10
1.66453385585038
20
-0.586453265531588
30
0
41
1
10
1.98557192945589
20
-0.830353303840155
30
0
41
1
10
2.41343439882038
20
-1.15273502508489
30
0
41
1
10
2.84107424329619
20
-1.46977751546859
30
0
41
1
10
3.26861372932316
20
-1.77916944500947
30
0
41
1
10
3.58924778163637
20
-2.00693682878767
30
0
41
1
10
3.90989015905205
20
-2.22989555860116
30
0
41
1
10
4.23056792402255
20
-2.44738794614602
30
0
41
1
10
4.55131137260815
20
-2.65901817290694
30
0
41
1
10
4.87214497130469
20
-2.86428960936544
30
0
41
1
10
5.19308920133255
20
-3.06274558599273
30
0
41
1
10
5.62118238146445
20
-3.31739303925693
30
0
41
1
10
6.04958843071768
20
-3.55650176246172
30
0
41
1
10
6.47834693109584
20
-3.77818545124987
30
0
41
1
10
6.90735596199247
20
-3.98774854006038
30
0
41
1
10
7.3367726081442
20
-4.17826107582906
30
0
41
1
10
7.76664615580802
20
-4.34832638590015
30
0
41
1
10
8.19684279165853
20
-4.5043271870274
30
0
41
1
10
8.6275301279951
20
-4.63852996762333
30
0
41
1
10
9.05855938500491
20
-4.7499053985938
30
0
41
1
10
9.48976838892733
20
-4.8457508000576
30
0
41
1
10
9.92118347816708
20
-4.91781001398931
30
0
41
1
10
10.3526600677261
20
-4.96559667438001
30
0
41
1
10
10.6762635602387
20
-4.98918882312708
30
0
41
1
10
10.999822057692
20
-5.00044867130723
30
0
41
1
10
11.3232932330143
20
-4.99939069009648
30
0
41
1
10
11.6466258799543
20
-4.98605349350612
30
0
41
1
10
11.8683723845746
20
-4.96849174203018
30
0
41
1
10
11.9823602027473
20
-4.95718268636864
30
0
41
1
10
11.98867190804
20
-4.95654949163827
30
0
0
SPLINE
5
105
100
AcDbEntity
8
1
62
256
6
ByLayer
370
18
48
1
60
0
100
AcDbSpline
70
4
71
3
72
8
73
4
40
0
40
0
40
0
40
0
40
1
40
1
40
1
40
1
41
1
10
-4.132346E-09
20
0.687351313628426
30
0
41
1
10
-4.132346E-09
20
0.674192162967557
30
0
41
1
10
2.84E-14
20
0.66103302051684
30
0
41
1
10
2.84E-14
20
0.647873886301511
30
0
0
SPLINE
5
106
100
AcDbEntity
8
1
62
256
6
ByLayer
370
18
48
1
60
0
100
AcDbSpline
70
4
71
3
72
25
73
21
40
0
40
0
40
0
40
0
40
0.0040737401981202
40
0.0360173346257545
40
0.0679609290533892
40
0.131848117908658
40
0.163791712336293
40
0.195735306763927
40
0.259622495619196
40
0.387396873329734
40
0.451284062185003
40
0.515171251040272
40
0.579058439895541
40
0.64294562875081
40
0.706832817606079
40
0.770720006461348
40
0.834607195316618
40
0.898494384171887
40
0.962381573027156
40
1
40
1
40
1
40
1
41
1
10
11.3098140747919
20
4.99921966085557
30
0
41
1
10
11.3235928835429
20
4.99912509899787
30
0
41
1
10
11.4454136974631
20
4.99802386748868
30
0
41
1
10
11.6752352927689
20
4.99152381595835
30
0
41
1
10
12.1071391080324
20
4.96456437444451
30
0
41
1
10
12.5386910381965
20
4.91558176136326
30
0
41
1
10
12.9697486098115
20
4.84507354817239
30
0
41
1
10
13.400403834765
20
4.76038846519475
30
0
41
1
10
14.1532567698433
20
4.57542229361758
30
0
41
1
10
15.0139378166805
20
4.28272397934248
30
0
41
1
10
15.8789558241203
20
3.91411488811707
30
0
41
1
10
16.5309154626866
20
3.60121937259959
30
0
41
1
10
17.1871379444629
20
3.2536971161604
30
0
41
1
10
17.84871623274
20
2.87346160795818
30
0
41
1
10
18.5167844200219
20
2.4625801288943
30
0
41
1
10
19.1924965031419
20
2.02340303882798
30
0
41
1
10
19.8770637754517
20
1.55849173652265
30
0
41
1
10
20.5717886645994
20
1.07097394432014
30
0
41
1
10
21.1813401072292
20
0.633783391763217
30
0
41
1
10
21.5609332548349
20
0.358872838212619
30
0
41
1
10
21.7024162675884
20
0.256200731301334
30
0
0
SPLINE
5
107
100
AcDbEntity
8
1
62
256
6
ByLayer
370
18
48
1
60
0
100
AcDbSpline
70
4
71
3
72
8
73
4
40
0
40
0
40
0
40
0
40
1
40
1
40
1
40
1
41
1
10
21.6317683128598
20
4.99314301853602
30
0
41
1
10
21.6707210628878
20
4.87774286941851
30
0
41
1
10
21.7124389281377
20
4.7633727462985
30
0
41
1
10
21.7574938795171
20
4.65024571461865
30
0
0
SPLINE
5
108
100
AcDbEntity
8
1
62
256
6
ByLayer
370
18
48
1
60
0
100
AcDbSpline
70
4
71
3
72
19
73
15
40
0
40
0
40
0
40
0
40
0.0393083541126579
40
0.0393083541126579
40
0.359538902741783
40
0.359538902741783
40
0.519654177056345
40
0.519654177056345
40
0.559682995634986
40
0.559682995634986
40
0.599711814213627
40
0.679769451370901
40
0.679769451370901
40
1
40
1
40
1
40
1
41
1
10
17.4131101701167
20
3.9663273342133
30
0
41
1
10
17.4680309190576
20
3.99015212458986
30
0
41
1
10
17.5229389905923
20
4.01361311710423
30
0
41
1
10
18.0250894583182
20
4.22484102316577
30
0
41
1
10
18.4718302979195
20
4.38851826304
30
0
41
1
10
19.1456574611594
20
4.59331268340517
30
0
41
1
10
19.3708919822257
20
4.6547820448707
30
0
41
1
10
19.6537099874402
20
4.7226845963435
30
0
41
1
10
19.7103660667605
20
4.73582477790617
30
0
41
1
10
19.8236798276591
20
4.76116972763555
30
0
41
1
10
19.9935468718895
20
4.79776182892698
30
0
41
1
10
20.1631577153596
20
4.83007302894217
30
0
41
1
10
20.7281905805578
20
4.92823407173904
30
0
41
1
10
21.179188698373
20
4.97624797052168
30
0
41
1
10
21.6317683128719
20
4.99314301854142
30
0
0
SPLINE
5
109
100
AcDbEntity
8
1
62
256
6
ByLayer
370
18
48
1
60
0
100
AcDbSpline
70
4
71
3
72
8
73
4
40
0
40
0
40
0
40
0
40
1
40
1
40
1
40
1
41
1
10
21.6317683128726
20
4.99314301854079
30
0
41
1
10
21.6532072996305
20
4.99300709604989
30
0
41
1
10
21.6746470800779
20
4.99292375072341
30
0
41
1
10
21.6960872674902
20
4.99289297435584
30
0
0
SPLINE
5
10A
100
AcDbEntity
8
1
62
256
6
ByLayer
370
18
48
1
60
0
100
AcDbSpline
70
4
71
3
72
46
73
42
40
0
40
0
40
0
40
0
40
0.0971888153726827
40
0.0971888153726827
40
0.145783223059022
40
0.145783223059022
40
0.170080426902192
40
0.170080426902192
40
0.194377630745362
40
0.194377630745362
40
0.242972038431701
40
0.242972038431701
40
0.267269242274872
40
0.267269242274872
40
0.291566446118042
40
0.291566446118042
40
0.388755261490727
40
0.388755261490727
40
0.413052465333896
40
0.413052465333896
40
0.437349669177065
40
0.437349669177065
40
0.485944076863393
40
0.485944076863393
40
0.534538484549721
40
0.534538484549721
40
0.558835688392885
40
0.558835688392885
40
0.583132892236049
40
0.583132892236049
40
0.68032170760872
40
0.68032170760872
40
0.777510522981391
40
0.777510522981391
40
0.826104930667726
40
0.826104930667726
40
0.874699338354062
40
0.874699338354062
40
0.971888153726716
40
0.971888153726716
40
1
40
1
40
1
40
1
41
1
10
21.7574938493727
20
4.65024570316109
30
0
41
1
10
21.7875129125618
20
4.57485236574945
30
0
41
1
10
21.8118241196549
20
4.49796793442908
30
0
41
1
10
21.8372287174228
20
4.37975144254341
30
0
41
1
10
21.8438393492525
20
4.33986068258926
30
0
41
1
10
21.8504673422891
20
4.27916561198199
30
0
41
1
10
21.8521163072043
20
4.25885719448468
30
0
41
1
10
21.8542114131454
20
4.21839327751209
30
0
41
1
10
21.8546628155814
20
4.19819253544412
30
0
41
1
10
21.8541487486155
20
4.1376881382746
30
0
41
1
10
21.8513187523884
20
4.09748211597869
30
0
41
1
10
21.8429614115118
20
4.03738841863233
30
0
41
1
10
21.8394893407033
20
4.0173931226301
30
0
41
1
10
21.8310971427334
20
3.9774783556567
30
0
41
1
10
21.8261673656214
20
3.95755462781554
30
0
41
1
10
21.79825157547
20
3.85981556330066
30
0
41
1
10
21.7652268588197
20
3.78626140742176
30
0
41
1
10
21.711507144965
20
3.69971335661177
30
0
41
1
10
21.7000989407462
20
3.68262091504894
30
0
41
1
10
21.6763926425091
20
3.64941545062345
30
0
41
1
10
21.6640728137187
20
3.6332586537564
30
0
41
1
10
21.6258227135895
20
3.58602150798421
30
0
41
1
10
21.5986053774251
20
3.55617101272904
30
0
41
1
10
21.5412174149306
20
3.49929203601133
30
0
41
1
10
21.5110456481382
20
3.47226464431645
30
0
41
1
10
21.4638563890216
20
3.43356930396825
30
0
41
1
10
21.4477684790762
20
3.42095328069809
30
0
41
1
10
21.4152137307479
20
3.39646569129496
30
0
41
1
10
21.3987414289519
20
3.38458659130731
30
0
41
1
10
21.3154965991309
20
3.32684371720859
30
0
41
1
10
21.2461113661272
20
3.28586811459741
30
0
41
1
10
21.1033830797461
20
3.21132168906078
30
0
41
1
10
21.030024894726
20
3.17777917628351
30
0
41
1
10
20.9177252799968
20
3.13169806725679
30
0
41
1
10
20.8798544475172
20
3.1170309799798
30
0
41
1
10
20.8039586230823
20
3.08914204477847
30
0
41
1
10
20.7658815744801
20
3.07589663944916
30
0
41
1
10
20.6513139300625
20
3.03798201296587
30
0
41
1
10
20.5744891849919
20
3.01512166340228
30
0
41
1
10
20.4749926719852
20
2.98808619452359
30
0
41
1
10
20.4526408068759
20
2.982179324729
30
0
41
1
10
20.430261204198
20
2.97642260849329
30
0
0
SPLINE
5
10B
100
AcDbEntity
8
1
62
256
6
ByLayer
370
18
48
1
60
0
100
AcDbSpline
70
4
71
3
72
9
73
5
40
0
40
0
40
0
40
0
40
0.653769798012584
40
1
40
1
40
1
40
1
41
1
10
21.7574938540746
20
4.65024570245717
30
0
41
1
10
20.9216625693831
20
4.62272918231059
30
0
41
1
10
19.6431830690568
20
4.42263997274813
30
0
41
1
10
18.3647035687306
20
4.01584526050379
30
0
41
1
10
17.9220553530959
20
3.85231125229572
30
0
0
SPLINE
5
10C
100
AcDbEntity
8
1
62
256
6
ByLayer
370
18
48
1
60
0
100
AcDbSpline
70
4
71
3
72
8
73
4
40
0
40
0
40
0
40
0
40
1
40
1
40
1
40
1
41
1
10
21.6960872674928
20
4.99289297435476
30
0
41
1
10
21.7336793067435
20
4.98996959970162
30
0
41
1
10
21.7712834473435
20
4.98721090276993
30
0
41
1
10
21.8088995815578
20
4.98461541740642
30
0
0
SPLINE
5
10D
100
AcDbEntity
8
1
62
256
6
ByLayer
370
13
48
1
60
0
100
AcDbSpline
70
4
71
3
72
10
73
6
40
0
40
0
40
0
40
0
40
0.019365405987682
40
0.346243603991788
40
1
40
1
40
1
40
1
41
1
10
4.20645980183346
20
-4.32316687166787
30
0
41
1
10
4.17930653455568
20
-4.32803874203086
30
0
41
1
10
3.69381993394458
20
-4.41341683786325
30
0
41
1
10
2.2916666666668
20
-4.57043773995846
30
0
41
1
10
0.916666666666771
20
-4.46299141234374
30
0
41
1
10
1.137E-13
20
-4.27878790394214
30
0
0
SPLINE
5
10E
100
AcDbEntity
8
1
62
256
6
ByLayer
370
18
48
1
60
0
100
AcDbSpline
70
4
71
3
72
31
73
27
40
0
40
0
40
0
40
0
40
0.0223704689633216
40
0.0223704689633216
40
0.0798780884360671
40
0.0798780884360671
40
0.194893327381557
40
0.194893327381557
40
0.309908566327047
40
0.309908566327047
40
0.367416185799792
40
0.396169995536166
40
0.396169995536166
40
0.424923805272539
40
0.424923805272539
40
0.539939044218032
40
0.539939044218032
40
0.654954283163524
40
0.654954283163524
40
0.769969522109016
40
0.769969522109016
40
0.827477141581761
40
0.827477141581761
40
0.884984761054508
40
0.884984761054508
40
1
40
1
40
1
40
1
41
1
10
5.89290142668526
20
-4.05795891334878
30
0
41
1
10
5.84883336241651
20
-4.07414288823583
30
0
41
1
10
5.8047497574444
20
-4.09008902959488
30
0
41
1
10
5.64727511901202
20
-4.14617117911223
30
0
41
1
10
5.53369729527572
20
-4.18498821218526
30
0
41
1
10
5.19334602437087
20
-4.29627434975774
30
0
41
1
10
4.96685626856635
20
-4.36358997185295
30
0
41
1
10
4.51403637320684
20
-4.48459303568157
30
0
41
1
10
4.28773478052275
20
-4.53822923052462
30
0
41
1
10
3.9480651145079
20
-4.60794836725356
30
0
41
1
10
3.77816913006711
20
-4.64013448843673
30
0
41
1
10
3.60807658893884
20
-4.66826329873459
30
0
41
1
10
3.49462612767016
20
-4.68610809534559
30
0
41
1
10
3.43786989774867
20
-4.69457660853706
30
0
41
1
10
3.15449811017649
20
-4.7345594780659
30
0
41
1
10
2.92864210713765
20
-4.75908921427899
30
0
41
1
10
2.47791648444655
20
-4.79316429802131
30
0
41
1
10
2.25304945050726
20
-4.80270105600547
30
0
41
1
10
1.80354684953417
20
-4.80705330616254
30
0
41
1
10
1.57892632158661
20
-4.80182931802514
30
0
41
1
10
1.24170420153325
20
-4.78279383367467
30
0
41
1
10
1.12924935489536
20
-4.77457403567678
30
0
41
1
10
0.904131192301008
20
-4.75451342079975
30
0
41
1
10
0.791469491630949
20
-4.74267092399589
30
0
41
1
10
0.453102609973996
20
-4.70145499854695
30
0
41
1
10
0.226998084319803
20
-4.66644159429023
30
0
41
1
10
8.53E-14
20
-4.62412269133443
30
0
0
SPLINE
5
10F
100
AcDbEntity
8
1
62
256
6
ByLayer
370
13
48
1
60
0
100
AcDbSpline
70
4
71
3
72
9
73
5
40
0
40
0
40
0
40
0
40
0.0947687110554428
40
1
40
1
40
1
40
1
41
1
10
3.03789764404445
20
-4.38439880116616
30
0
41
1
10
2.9419317626963
20
-4.38890835110456
30
0
41
1
10
1.92929921468146
20
-4.4234557195368
30
0
41
1
10
0.916666666666657
20
-4.31926591684476
30
0
41
1
10
-2.84E-14
20
-4.11650098584448
30
0
0
SPLINE
5
110
100
AcDbEntity
8
1
62
256
6
ByLayer
370
18
48
1
60
0
100
AcDbSpline
70
4
71
3
72
11
73
7
40
0
40
0
40
0
40
0
40
0.167285605814087
40
0.375464204360565
40
0.583642802907043
40
1
40
1
40
1
40
1
41
1
10
6.60490564159994
20
-3.87787094754856
30
0
41
1
10
6.23660376106668
20
-3.94644360042906
30
0
41
1
10
5.40996854719995
20
-4.06391279389254
30
0
41
1
10
4.125
20
-4.11360098824983
30
0
41
1
10
2.29166666666669
20
-3.97725345274438
30
0
41
1
10
0.916666666666686
20
-3.64678097824412
30
0
41
1
10
0
20
-3.33280427467579
30
0
0
SPLINE
5
111
100
AcDbEntity
8
1
62
256
6
ByLayer
370
18
48
1
60
0
100
AcDbSpline
70
4
71
3
72
10
73
6
40
0
40
0
40
0
40
0
40
0.0383772981875565
40
0.358918198791704
40
1
40
1
40
1
40
1
41
1
10
4.28962418651864
20
-2.53750617712572
30
0
41
1
10
4.2347494576791
20
-2.52558270441631
30
0
41
1
10
3.72154139550622
20
-2.41148988249501
30
0
41
1
10
2.29166666666669
20
-2.02753064623113
30
0
41
1
10
0.916666666666686
20
-1.5108455804654
30
0
41
1
10
2.84E-14
20
-1.1327255577807
30
0
0
SPLINE
5
112
100
AcDbEntity
8
1
62
256
6
ByLayer
370
18
48
1
60
0
100
AcDbSpline
70
4
71
3
72
45
73
41
40
0
40
0
40
0
40
0
40
0.0624999999999985
40
0.0624999999999985
40
0.124999999999997
40
0.124999999999997
40
0.15625
40
0.15625
40
0.187500000000003
40
0.187500000000003
40
0.249999999999998
40
0.249999999999998
40
0.374999999999988
40
0.374999999999988
40
0.437499999999992
40
0.437499999999992
40
0.499999999999996
40
0.499999999999996
40
0.5625
40
0.5625
40
0.625000000000004
40
0.625000000000004
40
0.687500000000008
40
0.687500000000008
40
0.71875000000001
40
0.71875000000001
40
0.750000000000012
40
0.781250000000014
40
0.781250000000014
40
0.812500000000016
40
0.812500000000016
40
0.874999999999995
40
0.874999999999995
40
0.906249999999996
40
0.906249999999996
40
0.937499999999997
40
0.937499999999997
40
0.968749999999999
40
0.968749999999999
40
1
40
1
40
1
40
1
41
1
10
21.2199139209588
20
-0.265688678186336
30
0
41
1
10
21.218618903723
20
-0.284188349833983
30
0
41
1
10
21.2195465097955
20
-0.302521917139274
30
0
41
1
10
21.2246972185821
20
-0.338902291664795
30
0
41
1
10
21.228932846181
20
-0.356948549097353
30
0
41
1
10
21.237286825861
20
-0.383813150018085
30
0
41
1
10
21.2404076155687
20
-0.392733698872036
30
0
41
1
10
21.2472650983591
20
-0.410506001901524
30
0
41
1
10
21.2510122144649
20
-0.419379680654942
30
0
41
1
10
21.2630292968337
20
-0.445722095859793
30
0
41
1
10
21.2720422961598
20
-0.462872808677105
30
0
41
1
10
21.3015273631688
20
-0.513242046429724
30
0
41
1
10
21.324413487648
20
-0.545398301488149
30
0
41
1
10
21.3624110499089
20
-0.591608415019323
30
0
41
1
10
21.375698721026
20
-0.606668946896349
30
0
41
1
10
21.4034172522263
20
-0.636050361168003
30
0
41
1
10
21.4178561770133
20
-0.65037416875407
30
0
41
1
10
21.4475330966848
20
-0.67791408718324
30
0
41
1
10
21.4628027467016
20
-0.691166945466421
30
0
41
1
10
21.4941467248665
20
-0.716449393767022
30
0
41
1
10
21.5102205811282
20
-0.728482433684803
30
0
41
1
10
21.5431572788078
20
-0.75096519145734
30
0
41
1
10
21.5600182636112
20
-0.761422895323875
30
0
41
1
10
21.5859439511589
20
-0.775402527192426
30
0
41
1
10
21.5947125520596
20
-0.779782026671199
30
0
41
1
10
21.6122844831006
20
-0.787734041768488
30
0
41
1
10
21.6299246518724
20
-0.794900212397778
30
0
41
1
10
21.6476758837976
20
-0.800159770328662
30
0
41
1
10
21.6654787439429
20
-0.804249855920119
30
0
41
1
10
21.6744609818631
20
-0.80571198733702
30
0
41
1
10
21.701009408257
20
-0.807914680101362
30
0
41
1
10
21.7181430580983
20
-0.806482339601672
30
0
41
1
10
21.7431385515285
20
-0.799421205287416
30
0
41
1
10
21.7513450520584
20
-0.796243409895482
30
0
41
1
10
21.7671727017521
20
-0.788526928548976
30
0
41
1
10
21.7748570405215
20
-0.783974918885377
30
0
41
1
10
21.7899203355847
20
-0.773655306050927
30
0
41
1
10
21.7973103080103
20
-0.76787880062065
30
0
41
1
10
21.811886049804
20
-0.755304582090474
30
0
41
1
10
21.8189906097081
20
-0.748581433607143
30
0
41
1
10
21.8259954902522
20
-0.741507159787574
30
0
0
SPLINE
5
113
100
AcDbEntity
8
1
62
256
6
ByLayer
370
18
48
1
60
0
100
AcDbSpline
70
4
71
3
72
18
73
14
40
0
40
0
40
0
40
0
40
0.250000000000023
40
0.250000000000023
40
0.375000000000019
40
0.375000000000019
40
0.500000000000015
40
0.500000000000015
40
0.625000000000011
40
0.625000000000011
40
0.750000000000008
40
0.750000000000008
40
1
40
1
40
1
40
1
41
1
10
19.1430927633919
20
-0.410276680179436
30
0
41
1
10
19.1496711472206
20
-0.380077346021153
30
0
41
1
10
19.1586096919489
20
-0.34970570351291
30
0
41
1
10
19.1749643633101
20
-0.303561793421466
30
0
41
1
10
19.180934556159
20
-0.288045190634193
30
0
41
1
10
19.19376433638
20
-0.25704180279476
30
0
41
1
10
19.2006221311547
20
-0.241552401704581
30
0
41
1
10
19.2152164395667
20
-0.210588651578035
30
0
41
1
10
19.2229794864631
20
-0.195066306603621
30
0
41
1
10
19.2392573825872
20
-0.164329046108435
30
0
41
1
10
19.2477692020868
20
-0.149113098898425
30
0
41
1
10
19.2744424383513
20
-0.103938751057342
30
0
41
1
10
19.2937280035208
20
-0.0744462457291206
30
0
41
1
10
19.314728951295
20
-0.0457075031740715
30
0
0
SPLINE
5
114
100
AcDbEntity
8
1
62
256
6
ByLayer
370
18
48
1
60
0
100
AcDbSpline
70
4
71
3
72
10
73
6
40
0
40
0
40
0
40
0
40
0.0739660986716617
40
0.0739660986716617
40
1
40
1
40
1
40
1
41
1
10
20.3316709224219
20
3.04202171335359
30
0
41
1
10
20.3414501789565
20
3.03808177053787
30
0
41
1
10
20.3512329452483
20
3.03411672215836
30
0
41
1
10
20.4835401386639
20
2.98017382568702
30
0
41
1
10
20.6066070467926
20
2.92631556926665
30
0
41
1
10
20.73018170314
20
2.86882535080574
30
0
0
SPLINE
5
115
100
AcDbEntity
8
1
62
256
6
ByLayer
370
18
48
1
60
0
100
AcDbSpline
70
4
71
3
72
16
73
12
40
0
40
0
40
0
40
0
40
0.124999999999996
40
0.124999999999996
40
0.249999999999992
40
0.249999999999992
40
0.499999999999995
40
0.499999999999995
40
0.749999999999997
40
0.749999999999997
40
1
40
1
40
1
40
1
41
1
10
21.1616138501578
20
2.62152182874632
30
0
41
1
10
21.173068117717
20
2.59697930804052
30
0
41
1
10
21.1849101875048
20
2.57126667238441
30
0
41
1
10
21.2093376962253
20
2.51759843471933
30
0
41
1
10
21.2219437008887
20
2.48959605112259
30
0
41
1
10
21.2606025933012
20
2.40286546779754
30
0
41
1
10
21.2875382541931
20
2.34133004819066
30
0
41
1
10
21.3435808042614
20
2.2113239360603
30
0
41
1
10
21.3723822735583
20
2.14356130747757
30
0
41
1
10
21.4314004945839
20
2.00299585608985
30
0
41
1
10
21.4616228575267
20
1.93017916853961
30
0
41
1
10
21.4925417833319
20
1.85488781195761
30
0
0
SPLINE
5
116
100
AcDbEntity
8
1
62
256
6
ByLayer
370
18
48
1
60
0
100
AcDbSpline
70
4
71
3
72
8
73
4
40
0
40
0
40
0
40
0
40
1
40
1
40
1
40
1
41
1
10
20.7301817079102
20
2.86882534593295
30
0
41
1
10
20.8744923139152
20
2.7906839282675
30
0
41
1
10
21.0182970305309
20
2.70819793227028
30
0
41
1
10
21.1616138501577
20
2.62152182874635
30
0
0
SPLINE
5
117
100
AcDbEntity
8
1
62
256
6
ByLayer
370
18
48
1
60
0
100
AcDbSpline
70
4
71
3
72
10
73
6
40
0
40
0
40
0
40
0
40
0.511443047533165
40
0.986542952779928
40
1
40
1
40
1
40
1
41
1
10
20.7301817103981
20
2.8688253485505
30
0
41
1
10
20.2367878069321
20
3.08820150617458
30
0
41
1
10
19.2850605701327
20
3.46903687318053
30
0
41
1
10
18.3203511937011
20
3.75184031489658
30
0
41
1
10
17.8490357207355
20
3.86375240128262
30
0
41
1
10
17.8360535811032
20
3.86681496371429
30
0
0
SPLINE
5
118
100
AcDbEntity
8
1
62
256
6
ByLayer
370
18
48
1
60
0
100
AcDbSpline
70
4
71
3
72
8
73
4
40
0
40
0
40
0
40
0
40
1
40
1
40
1
40
1
41
1
10
21.0005073226238
20
-2.22884132326834
30
0
41
1
10
21.0067121016688
20
-2.44936887906925
30
0
41
1
10
21.017395579984
20
-2.66981151500653
30
0
41
1
10
21.0329289588391
20
-2.89016219279534
30
0
0
SPLINE
5
119
100
AcDbEntity
8
1
62
256
6
ByLayer
370
18
48
1
60
0
100
AcDbSpline
70
4
71
3
72
20
73
16
40
0
40
0
40
0
40
0
40
0.12500000000002
40
0.12500000000002
40
0.250000000000039
40
0.250000000000039
40
0.312500000000043
40
0.312500000000043
40
0.375000000000047
40
0.375000000000047
40
0.500000000000043
40
0.500000000000043
40
0.750000000000021
40
0.750000000000021
40
1
40
1
40
1
40
1
41
1
10
19.1966998835582
20
-0.608690171162635
30
0
41
1
10
19.2599493045566
20
-0.686917574062647
30
0
41
1
10
19.3256017402754
20
-0.763815999426129
30
0
41
1
10
19.4612127246351
20
-0.915231371881333
30
0
41
1
10
19.5311719434978
20
-0.989747948309628
30
0
41
1
10
19.6390399231722
20
-1.09990285767165
30
0
41
1
10
19.6754933822012
20
-1.13635919290593
30
0
41
1
10
19.7493005247945
20
-1.20872058006424
30
0
41
1
10
19.7864478069904
20
-1.24442398818178
30
0
41
1
10
19.8985667051077
20
-1.35020826916198
30
0
41
1
10
19.9742134430243
20
-1.41896697746813
30
0
41
1
10
20.2035065959256
20
-1.6206350866924
30
0
41
1
10
20.3594879252098
20
-1.7489717719366
30
0
41
1
10
20.6764309577103
20
-1.99589153650271
30
0
41
1
10
20.8373956687502
20
-2.11446872527776
30
0
41
1
10
21.0005073226238
20
-2.22884132326834
30
0
0
SPLINE
5
11A
100
AcDbEntity
8
1
62
256
6
ByLayer
370
18
48
1
60
0
100
AcDbSpline
70
4
71
3
72
16
73
12
40
0
40
0
40
0
40
0
40
0.250000000000022
40
0.250000000000022
40
0.375000000000033
40
0.375000000000033
40
0.500000000000044
40
0.500000000000044
40
0.750000000000022
40
0.750000000000022
40
1
40
1
40
1
40
1
41
1
10
19.1966998835582
20
-0.608690171162635
30
0
41
1
10
19.1847594855132
20
-0.593922188880555
30
0
41
1
10
19.1743149189477
20
-0.578522295027824
30
0
41
1
10
19.1612850108653
20
-0.554306091154302
30
0
41
1
10
19.1573827061165
20
-0.54604728536566
30
0
41
1
10
19.1505494792473
20
-0.529117381559587
30
0
41
1
10
19.1476913024266
20
-0.520624145736861
30
0
41
1
10
19.1407605976951
20
-0.495078521846977
30
0
41
1
10
19.1383248766591
20
-0.477951764369436
30
0
41
1
10
19.137700108482
20
-0.443491971106766
30
0
41
1
10
19.1395154225814
20
-0.42668887952874
30
0
41
1
10
19.143092763391
20
-0.410276680179066
30
0
0
SPLINE
5
11B
100
AcDbEntity
8
1
62
256
6
ByLayer
370
13
48
1
60
0
100
AcDbSpline
70
4
71
3
72
13
73
9
40
0
40
0
40
0
40
0
40
0.176573991424117
40
0.368034147350535
40
0.559494303276953
40
0.750954459203371
40
0.942414615129789
40
1
40
1
40
1
40
1
41
1
10
19.1430927633918
20
-0.410276680179436
30
0
41
1
10
18.7203951755946
20
-0.236581589727791
30
0
41
1
10
17.839364254464
20
0.131949178255184
30
0
41
1
10
16.5
20
0.683853176678696
30
0
41
1
10
15.125
20
1.23072496584885
30
0
41
1
10
13.7500000000001
20
1.72912689720093
30
0
41
1
10
12.695480623086
20
2.06164021692106
30
0
41
1
10
12.0992945795052
20
2.22624412880893
30
0
41
1
10
11.9614418692578
20
2.26299361174443
30
0
0
SPLINE
5
11C
100
AcDbEntity
8
1
62
256
6
ByLayer
370
18
48
1
60
0
100
AcDbSpline
70
4
71
3
72
18
73
14
40
0
40
0
40
0
40
0
40
0.0513086648949064
40
0.154739187576527
40
0.232312079587743
40
0.309884971598958
40
0.387457863610173
40
0.465030755621389
40
0.56846127830301
40
0.67189180098463
40
0.775322323666251
40
0.878752846347872
40
1
40
1
40
1
40
1
41
1
10
14.4320947279526
20
-2.30126098387777
30
0
41
1
10
14.2047298186351
20
-2.24728966340371
30
0
41
1
10
13.5190315759842
20
-2.07265128028209
30
0
41
1
10
12.4895833333334
20
-1.76006050091101
30
0
41
1
10
11.34375
20
-1.36017755686908
30
0
41
1
10
10.3125000000001
20
-0.967438330985658
30
0
41
1
10
9.28125
20
-0.551810886141226
30
0
41
1
10
8.13541666666668
20
-0.0756581865610997
30
0
41
1
10
6.87500000000006
20
0.453881598561623
30
0
41
1
10
5.50000000000006
20
1.01190725862267
30
0
41
1
10
4.12500000000003
20
1.53015395966668
30
0
41
1
10
2.67104887754835
20
2.01057132173611
30
0
41
1
10
1.67543108842998
20
2.27562984269545
30
0
41
1
10
1.13814663264486
20
2.39586854353178
30
0
0
SPLINE
5
11D
100
AcDbEntity
8
1
62
256
6
ByLayer
370
18
48
1
60
0
100
AcDbSpline
70
4
71
3
72
18
73
14
40
0
40
0
40
0
40
0
40
0.250000000000053
40
0.250000000000053
40
0.375000000000056
40
0.375000000000056
40
0.500000000000058
40
0.500000000000058
40
0.750000000000025
40
0.750000000000025
40
0.875000000000013
40
0.875000000000013
40
1
40
1
40
1
40
1
41
1
10
21.4925417845044
20
1.85488781216421
30
0
41
1
10
21.5005573550829
20
1.83536864004981
30
0
41
1
10
21.5083551685233
20
1.81664161990042
30
0
41
1
10
21.5196899204516
20
1.78986786355267
30
0
41
1
10
21.523396594563
20
1.7811905199533
30
0
41
1
10
21.5305788590748
20
1.76454493074516
30
0
41
1
10
21.5340659581283
20
1.75654936898036
30
0
41
1
10
21.5441907001344
20
1.73362130621197
30
0
41
1
10
21.5505010253302
20
1.71971837185478
30
0
41
1
10
21.5590909915158
20
1.70161789317359
30
0
41
1
10
21.5617727114953
20
1.69612240925588
30
0
41
1
10
21.5666609254613
20
1.68647920250888
30
0
41
1
10
21.5688783046307
20
1.68230800164741
30
0
41
1
10
21.5708283902819
20
1.67890357169341
30
0
0
SPLINE
5
11E
100
AcDbEntity
8
1
62
256
6
ByLayer
370
13
48
1
60
0
100
AcDbSpline
70
4
71
3
72
9
73
5
40
0
40
0
40
0
40
0
40
0.945193207859456
40
1
40
1
40
1
40
1
41
1
10
21.4925417850108
20
1.85488781293333
30
0
41
1
10
20.7450278566739
20
2.28762367591204
30
0
41
1
10
19.9541695198585
20
2.71168087408159
30
0
41
1
10
19.1633111830431
20
3.07351873449511
30
0
41
1
10
19.1199667745647
20
3.0931612133223
30
0
0
SPLINE
5
11F
100
AcDbEntity
8
1
62
256
6
ByLayer
370
18
48
1
60
0
100
AcDbSpline
70
4
71
3
72
28
73
24
40
0
40
0
40
0
40
0
40
0.125
40
0.125
40
0.25
40
0.25
40
0.375000000000001
40
0.375000000000001
40
0.406250000000001
40
0.406250000000001
40
0.437500000000002
40
0.437500000000002
40
0.500000000000004
40
0.500000000000004
40
0.625000000000001
40
0.625000000000001
40
0.749999999999999
40
0.749999999999999
40
0.812499999999997
40
0.812499999999997
40
0.874999999999995
40
0.874999999999995
40
1
40
1
40
1
40
1
41
1
10
21.0329289625456
20
-2.89016219299867
30
0
41
1
10
21.0438898435717
20
-2.95676385858812
30
0
41
1
10
21.0562411476766
20
-3.02084156575697
30
0
41
1
10
21.0833758535072
20
-3.14458214143997
30
0
41
1
10
21.0981615244193
20
-3.20424088704956
30
0
41
1
10
21.1299719606124
20
-3.3194938796957
30
0
41
1
10
21.1469977505185
20
-3.37508626678996
30
0
41
1
10
21.1696219280797
20
-3.44214080422515
30
0
41
1
10
21.1742140771099
20
-3.45542952137438
30
0
41
1
10
21.1835323692219
20
-3.4817637240165
30
0
41
1
10
21.1882651039306
20
-3.49482637028837
30
0
41
1
10
21.2025803510526
20
-3.53342892506694
30
0
41
1
10
21.2122979324799
20
-3.55843888143889
30
0
41
1
10
21.2419454904658
20
-3.63140778607388
30
0
41
1
10
21.2623686315235
20
-3.67731263901061
30
0
41
1
10
21.3044328042492
20
-3.76404966951051
30
0
41
1
10
21.3260742899763
20
-3.8048799558571
30
0
41
1
10
21.3594130460152
20
-3.86247453269502
30
0
41
1
10
21.3706723851572
20
-3.88106286439495
30
0
41
1
10
21.3934813633164
20
-3.91703039044143
30
0
41
1
10
21.405043270757
20
-3.93442700453613
30
0
41
1
10
21.4400797255136
20
-3.9846845760658
30
0
41
1
10
21.4638062465523
20
-4.01548568392062
30
0
41
1
10
21.4878901788328
20
-4.04366695155861
30
0
0
SPLINE
5
120
100
AcDbEntity
8
1
62
256
6
ByLayer
370
18
48
1
60
0
100
AcDbSpline
70
4
71
3
72
17
73
13
40
0
40
0
40
0
40
0
40
0.0331986864667874
40
0.145100997868342
40
0.257003309269897
40
0.368905620671451
40
0.480807932073006
40
0.592710243474561
40
0.704612554876115
40
0.81651486627767
40
0.928417177679225
40
1
40
1
40
1
40
1
41
1
10
21.0329289633976
20
-2.8901621923678
30
0
41
1
10
20.8969526422651
20
-2.83378479269467
30
0
41
1
10
20.3026429877992
20
-2.57953072020865
30
0
41
1
10
19.2500000000001
20
-2.0709594546816
30
0
41
1
10
17.8750000000001
20
-1.32327913629976
30
0
41
1
10
16.5
20
-0.514861825214979
30
0
41
1
10
15.125
20
0.31119171765306
30
0
41
1
10
13.7500000000001
20
1.12487630650051
30
0
41
1
10
12.375
20
1.89215470337248
30
0
41
1
10
11.0000000000001
20
2.58016215802775
30
0
41
1
10
9.79014194923451
20
3.08932778556906
30
0
41
1
10
9.03861723180222
20
3.34628220062572
30
0
41
1
10
8.74542584770336
20
3.43664081185349
30
0
0
SPLINE
5
121
100
AcDbEntity
8
1
62
256
6
ByLayer
370
18
48
1
60
0
100
AcDbSpline
70
4
71
3
72
20
73
16
40
0
40
0
40
0
40
0
40
0.0428151781907159
40
0.122580580008156
40
0.202345981825596
40
0.282111383643037
40
0.341935435006117
40
0.401759486369197
40
0.461583537732278
40
0.521407589095358
40
0.601172990912798
40
0.680938392730239
40
0.760703794547679
40
0.840469196365119
40
1
40
1
40
1
40
1
41
1
10
17.2380501905697
20
-3.8976699333752
30
0
41
1
10
16.9920334603799
20
-3.95389397497834
30
0
41
1
10
16.2876833968566
20
-4.09123390172013
30
0
41
1
10
15.1250000000001
20
-4.19556663275392
30
0
41
1
10
13.75
20
-4.1348807702644
30
0
41
1
10
12.4895833333334
20
-3.9128793920907
30
0
41
1
10
11.34375
20
-3.58664663341037
30
0
41
1
10
10.3125000000001
20
-3.19882959870364
30
0
41
1
10
9.28125
20
-2.73180342923087
30
0
41
1
10
8.13541666666668
20
-2.14260483711766
30
0
41
1
10
6.87500000000006
20
-1.41054109897973
30
0
41
1
10
5.50000000000006
20
-0.549762900633027
30
0
41
1
10
4.12500000000003
20
0.333169307442887
30
0
41
0.999999999999999
10
2.29166666666674
20
1.4921799071202
30
0
41
1
10
0.916666666666714
20
2.2821219989697
30
0
41
1
10
2.84E-14
20
2.72528122154051
30
0
0
SPLINE
5
122
100
AcDbEntity
8
1
62
256
6
ByLayer
370
18
48
1
60
0
100
AcDbSpline
70
4
71
3
72
18
73
14
40
0
40
0
40
0
40
0
40
0.249999999999995
40
0.249999999999995
40
0.374999999999993
40
0.374999999999993
40
0.49999999999999
40
0.49999999999999
40
0.749999999999991
40
0.749999999999991
40
0.874999999999996
40
0.874999999999996
40
1
40
1
40
1
40
1
41
1
10
21.4878901773569
20
-4.04366695202256
30
0
41
1
10
21.4959450545251
20
-4.05309240039219
30
0
41
1
10
21.5037820966722
20
-4.06394601591526
30
0
41
1
10
21.5151749484937
20
-4.08260441387648
30
0
41
1
10
21.518903597382
20
-4.08921431271168
30
0
41
1
10
21.5261280716124
20
-4.10310620598193
30
0
41
1
10
21.5296360400196
20
-4.11040710596558
30
0
41
1
10
21.5398221910917
20
-4.13345959440437
30
0
41
1
10
21.5461719971416
20
-4.15032904821081
30
0
41
1
10
21.5548155224593
20
-4.17863296992042
30
0
41
1
10
21.5575207178393
20
-4.18849936883916
30
0
41
1
10
21.562445296697
20
-4.20889784701012
30
0
41
1
10
21.5646783771039
20
-4.21947073472884
30
0
41
1
10
21.5666402716602
20
-4.23048569801134
30
0
0
SPLINE
5
123
100
AcDbEntity
8
1
62
256
6
ByLayer
370
13
48
1
60
0
100
AcDbSpline
70
4
71
3
72
17
73
13
40
0
40
0
40
0
40
0
40
0.0661906598291839
40
0.171664287555467
40
0.277137915281751
40
0.382611543008034
40
0.488085170734318
40
0.593558798460601
40
0.699032426186885
40
0.804506053913168
40
0.909979681639452
40
1
40
1
40
1
40
1
41
1
10
21.4878901766925
20
-4.04366695227998
30
0
41
1
10
21.200260117795
20
-3.96965033111869
30
0
41
1
10
20.4542967255641
20
-3.74920135080927
30
0
41
1
10
19.25
20
-3.27482864441319
30
0
41
1
10
17.875
20
-2.60591689140455
30
0
41
1
10
16.5
20
-1.81158662036896
30
0
41
1
10
15.125
20
-0.954616125175249
30
0
41
1
10
13.75
20
-0.0548087094205414
30
0
41
1
10
12.375
20
0.851188191105109
30
0
41
1
10
11.0000000000001
20
1.72040804272456
30
0
41
1
10
9.69215201653069
20
2.47611888604345
30
0
41
1
10
8.84263736639471
20
2.90779307055601
30
0
41
1
10
8.45145604959211
20
3.09054495405701
30
0
0
SPLINE
5
124
100
AcDbEntity
8
1
62
256
6
ByLayer
370
18
48
1
60
0
100
AcDbSpline
70
4
71
3
72
8
73
4
40
0
40
0
40
0
40
0
40
1
40
1
40
1
40
1
41
1
10
13.8759067777885
20
-4.3866910333638
30
0
41
1
10
13.8402131710257
20
-4.38831699487608
30
0
41
1
10
13.8045195642628
20
-4.38974501089999
30
0
41
1
10
13.7688259575
20
-4.39097425223588
30
0
0
SPLINE
5
125
100
AcDbEntity
8
1
62
256
6
ByLayer
370
13
48
1
60
0
100
AcDbSpline
70
4
71
3
72
18
73
14
40
0
40
0
40
0
40
0
40
0.001367216021794
40
0.101230494419615
40
0.17612795321798
40
0.251025412016345
40
0.325922870814711
40
0.400820329613076
40
0.500683608010897
40
0.600546886408718
40
0.700410164806538
40
0.800273443204359
40
1
40
1
40
1
40
1
41
1
10
13.768824958084
20
-4.39097428665448
30
0
41
1
10
13.762549972056
20
-4.39119038834957
30
0
41
1
10
13.2979416526947
20
-4.4067359832157
30
0
41
1
10
12.4895833333333
20
-4.37514390758454
30
0
41
1
10
11.34375
20
-4.18849605266701
30
0
41
1
10
10.3125
20
-3.91682510197447
30
0
41
1
10
9.28125
20
-3.54632150258192
30
0
41
1
10
8.13541666666665
20
-3.0369618183548
30
0
41
1
10
6.87500000000003
20
-2.36735391818857
30
0
41
1
10
5.50000000000003
20
-1.5283080820256
30
0
41
1
10
4.125
20
-0.625086628832037
30
0
41
0.999999999999999
10
2.29166666666671
20
0.616608927546963
30
0
41
1
10
0.916666666666686
20
1.53186302707707
30
0
41
1
10
0
20
2.07542087876689
30
0
0
SPLINE
5
126
100
AcDbEntity
8
1
62
256
6
ByLayer
370
13
48
1
60
0
100
AcDbSpline
70
4
71
3
72
14
73
10
40
0
40
0
40
0
40
0
40
0.145991880323337
40
0.315200385842272
40
0.484408891361208
40
0.653617396880142
40
0.822825902399078
40
0.992034407918013
40
1
40
1
40
1
40
1
41
1
10
11.1886598994894
20
2.5257593221481
30
0
41
1
10
11.5841065996596
20
2.46327825764558
30
0
41
1
10
12.4378866331632
20
2.30140301770544
30
0
41
1
10
13.7500000000001
20
1.97024162983368
30
0
41
1
10
15.125
20
1.54544514576372
30
0
41
1
10
16.5
20
1.05843215300658
30
0
41
1
10
17.8750000000001
20
0.53013044377829
30
0
41
1
10
18.8132429837656
20
0.154646634320699
30
0
41
1
10
19.2931526341979
20
-0.0370882692659791
30
0
41
1
10
19.3147289512968
20
-0.0457075031748104
30
0
0
SPLINE
5
127
100
AcDbEntity
8
1
62
256
6
ByLayer
370
18
48
1
60
0
100
AcDbSpline
70
4
71
3
72
28
73
24
40
0
40
0
40
0
40
0
40
0.124999999999989
40
0.124999999999989
40
0.249999999999978
40
0.249999999999978
40
0.312499999999973
40
0.312499999999973
40
0.374999999999968
40
0.374999999999968
40
0.500000000000007
40
0.500000000000007
40
0.562500000000026
40
0.562500000000026
40
0.625000000000046
40
0.625000000000046
40
0.750000000000031
40
0.750000000000031
40
0.875000000000015
40
0.875000000000015
40
0.937500000000008
40
0.937500000000008
40
1
40
1
40
1
40
1
41
1
10
19.3147289512946
20
-0.0457075031739578
30
0
41
1
10
19.3324794573759
20
-0.02141538055605
30
0
41
1
10
19.3516695043118
20
0.0013084444772176
30
0
41
1
10
19.3926877907156
20
0.043888182006242
30
0
41
1
10
19.4145191574303
20
0.0637408128575316
30
0
41
1
10
19.4492511706305
20
0.0913793869484039
30
0
41
1
10
19.4612036322108
20
0.100262727438548
30
0
41
1
10
19.4855748552411
20
0.117149841425118
30
0
41
1
10
19.4979602643397
20
0.125135398062383
30
0
41
1
10
19.5357071062779
20
0.147763153860495
30
0
41
1
10
19.5616568487587
20
0.161081160656977
30
0
41
1
10
19.6017741991629
20
0.178482238032842
30
0
41
1
10
19.6153460575007
20
0.183851990433141
30
0
41
1
10
19.6428977989993
20
0.193729190599583
30
0
41
1
10
19.6569142281884
20
0.198244779969997
30
0
41
1
10
19.699075580805
20
0.210349552474639
30
0
41
1
10
19.7274620997021
20
0.216557639034988
30
0
41
1
10
19.7848219640475
20
0.225508676871328
30
0
41
1
10
19.8137953990647
20
0.228250270988156
30
0
41
1
10
19.8577250649161
20
0.229873732871113
30
0
41
1
10
19.8724720444588
20
0.229998229432027
30
0
41
1
10
19.9019584304502
20
0.229432729210202
30
0
41
1
10
19.9167049110066
20
0.228744670847789
30
0
41
1
10
19.9314576208355
20
0.227666677868314
30
0
0
SPLINE
5
128
100
AcDbEntity
8
1
62
256
6
ByLayer
370
13
48
1
60
0
100
AcDbSpline
70
4
71
3
72
18
73
14
40
0
40
0
40
0
40
0
40
0.148758604103833
40
0.252682162313821
40
0.356605720523809
40
0.460529278733798
40
0.564452836943786
40
0.642395505601277
40
0.720338174258768
40
0.798280842916259
40
0.87622351157375
40
0.980147069783739
40
1
40
1
40
1
40
1
41
1
10
0.781792943141284
20
2.51738572543579
30
0
41
1
10
1.43786196209425
20
2.4087949030901
30
0
41
0.999999999999999
10
2.55226431438052
20
2.16216194405883
30
0
41
1
10
4.12500000000003
20
1.6917575637315
30
0
41
1
10
5.50000000000006
20
1.2086811475732
30
0
41
1
10
6.87500000000006
20
0.67569780912217
30
0
41
1
10
8.13541666666668
20
0.160161553548875
30
0
41
1
10
9.28125
20
-0.31110031888079
30
0
41
1
10
10.3125000000001
20
-0.728477329413607
30
0
41
1
10
11.34375
20
-1.12847258561129
30
0
41
1
10
12.4895833333334
20
-1.54281577638244
30
0
41
1
10
13.3792239043054
20
-1.82922989874407
30
0
41
1
10
13.9251144752775
20
-1.98544126542473
30
0
41
1
10
14.0126717129162
20
-2.00997790687342
30
0
0
SPLINE
5
129
100
AcDbEntity
8
1
62
256
6
ByLayer
370
13
48
1
60
0
100
AcDbSpline
70
4
71
3
72
9
73
5
40
0
40
0
40
0
40
0
40
0.774073037546259
40
1
40
1
40
1
40
1
41
1
10
2.84E-14
20
-0.751774858147797
30
0
41
1
10
0.916666666666686
20
-1.12378179483082
30
0
41
1
10
2.10087877870768
20
-1.57518632756847
30
0
41
1
10
3.28509089074876
20
-1.93771013165303
30
0
41
1
10
3.55263633612307
20
-2.01453179559311
30
0
0
SPLINE
5
12A
100
AcDbEntity
8
1
62
256
6
ByLayer
370
18
48
1
60
0
100
AcDbSpline
70
4
71
3
72
8
73
4
40
0
40
0
40
0
40
0
40
1
40
1
40
1
40
1
41
1
10
21.7432965007271
20
0.612990790217623
30
0
41
1
10
21.7639553768506
20
0.490720871937839
30
0
41
1
10
21.7856674308878
20
0.368440028504153
30
0
41
1
10
21.8085847369253
20
0.24618771173499
30
0
0
SPLINE
5
12B
100
AcDbEntity
8
1
62
256
6
ByLayer
370
18
48
1
60
0
100
AcDbSpline
70
4
71
3
72
8
73
4
40
0
40
0
40
0
40
0
40
1
40
1
40
1
40
1
41
1
10
21.7431913141662
20
0.614192692984318
30
0
41
1
10
21.743226382184
20
0.613792060220561
30
0
41
1
10
21.7432614443692
20
0.613391425964494
30
0
41
1
10
21.7432965007246
20
0.61299079021731
30
0
0
SPLINE
5
12C
100
AcDbEntity
8
1
62
256
6
ByLayer
370
18
48
1
60
0
100
AcDbSpline
70
4
71
3
72
8
73
4
40
0
40
0
40
0
40
0
40
1
40
1
40
1
40
1
41
1
10
21.7024162684391
20
0.256200740988135
30
0
41
1
10
21.7377943709723
20
0.252850926778649
30
0
41
1
10
21.773183893332
20
0.249513291237889
30
0
41
1
10
21.8085847369235
20
0.246187711734962
30
0
0
SPLINE
5
12D
100
AcDbEntity
8
1
62
256
6
ByLayer
370
18
48
1
60
0
100
AcDbSpline
70
4
71
3
72
48
73
44
40
0
40
0
40
0
40
0
40
0.062499999999978
40
0.062499999999978
40
0.124999999999956
40
0.124999999999956
40
0.156249999999945
40
0.156249999999945
40
0.187499999999935
40
0.218749999999924
40
0.218749999999924
40
0.234374999999918
40
0.234374999999918
40
0.249999999999912
40
0.312499999999896
40
0.312499999999896
40
0.328124999999892
40
0.328124999999892
40
0.343749999999888
40
0.343749999999888
40
0.374999999999888
40
0.374999999999888
40
0.43749999999988
40
0.43749999999988
40
0.453124999999883
40
0.453124999999883
40
0.468749999999886
40
0.468749999999886
40
0.499999999999893
40
0.499999999999893
40
0.562499999999906
40
0.562499999999906
40
0.62499999999992
40
0.62499999999992
40
0.656249999999926
40
0.656249999999926
40
0.687499999999933
40
0.687499999999933
40
0.749999999999946
40
0.749999999999946
40
0.874999999999973
40
0.874999999999973
40
1
40
1
40
1
40
1
41
1
10
21.7625801233046
20
0.221310875751953
30
0
41
1
10
21.7855279573088
20
0.214207224580122
30
0
41
1
10
21.8050342281656
20
0.207330693433647
30
0
41
1
10
21.8357499888003
20
0.194125205802493
30
0
41
1
10
21.8469764553653
20
0.187795119189531
30
0
41
1
10
21.8558949732948
20
0.178822756398375
30
0
41
1
10
21.8575006940177
20
0.175951952370099
30
0
41
1
10
21.8577742463096
20
0.170491199931178
30
0
41
1
10
21.8551180087054
20
0.165303449106006
30
0
41
1
10
21.8461729142991
20
0.160701702165852
30
0
41
1
10
21.8369131184957
20
0.157488095114502
30
0
41
1
10
21.833390972903
20
0.156454114873498
30
0
41
1
10
21.8255058752865
20
0.154480242645661
30
0
41
1
10
21.8037804853962
20
0.149799632428596
30
0
41
1
10
21.772162504864
20
0.146367833070798
30
0
41
1
10
21.7330647211585
20
0.143880261545803
30
0
41
1
10
21.7248708639014
20
0.143429997810813
30
0
41
1
10
21.7077443245438
20
0.142622737365116
30
0
41
1
10
21.6987849849279
20
0.142265013863437
30
0
41
1
10
21.6710916334182
20
0.141338284762014
30
0
41
1
10
21.6515127735966
20
0.140912332886273
30
0
41
1
10
21.5898172336222
20
0.140142909531249
30
0
41
1
10
21.5447578662281
20
0.140305074120533
30
0
41
1
10
21.484500399756
20
0.141183623587523
30
0
41
1
10
21.4722509050522
20
0.141393355667532
30
0
41
1
10
21.4473755204342
20
0.141877495064307
30
0
41
1
10
21.4347307323522
20
0.1421524072571
30
0
41
1
10
21.3964889999699
20
0.143063694260007
30
0
41
1
10
21.3705367622269
20
0.143786976466117
30
0
41
1
10
21.2914963551699
20
0.146256160355534
30
0
41
1
10
21.2372331766881
20
0.14829920309819
30
0
41
1
10
21.1262886888829
20
0.152996795267342
30
0
41
1
10
21.0696030708476
20
0.155652434297281
30
0
41
1
10
20.9831180539117
20
0.160004241170384
30
0
41
1
10
20.9540455127187
20
0.161516598303763
30
0
41
1
10
20.8954584461666
20
0.164653083307627
30
0
41
1
10
20.8659051614329
20
0.166279469816402
30
0
41
1
10
20.7770896455259
20
0.17128570269648
30
0
41
1
10
20.71758001005
20
0.174796377786833
30
0
41
1
10
20.5383268800461
20
0.185747478552514
30
0
41
1
10
20.4178683725311
20
0.193601649969736
30
0
41
1
10
20.175603323744
20
0.210090039092705
30
0
41
1
10
20.0537908584305
20
0.218727684773881
30
0
41
1
10
19.9314576208354
20
0.227666677868314
30
0
0
SPLINE
5
12E
100
AcDbEntity
8
1
62
256
6
ByLayer
370
18
48
1
60
0
100
AcDbSpline
70
4
71
3
72
8
73
4
40
0
40
0
40
0
40
0
40
1
40
1
40
1
40
1
41
1
10
21.7441054191901
20
-4.94479226400782
30
0
41
1
10
21.7643320211534
20
-4.96134120218619
30
0
41
1
10
21.7856039747729
20
-4.97679799319809
30
0
41
1
10
21.8080744495372
20
-4.99098919034205
30
0
0
SPLINE
5
12F
100
AcDbEntity
8
1
62
256
6
ByLayer
370
18
48
1
60
0
100
AcDbSpline
70
4
71
3
72
8
73
4
40
0
40
0
40
0
40
0
40
1
40
1
40
1
40
1
41
1
10
21.7429748596341
20
-4.94298708154233
30
0
41
1
10
21.7433523977828
20
-4.94358947247389
30
0
41
1
10
21.7437292501265
20
-4.9441911989089
30
0
41
1
10
21.7441054191898
20
-4.9447922640079
30
0
0
SPLINE
5
130
100
AcDbEntity
8
1
62
256
6
ByLayer
370
18
48
1
60
0
100
AcDbSpline
70
4
71
3
72
8
73
4
40
0
40
0
40
0
40
0
40
1
40
1
40
1
40
1
41
1
10
21.7115381696704
20
-4.99884018539518
30
0
41
1
10
21.7437065603271
20
-4.99608871520891
30
0
41
1
10
21.7758853448313
20
-4.99347202754038
30
0
41
1
10
21.8080744495353
20
-4.99098919034222
30
0
0
SPLINE
5
131
100
AcDbEntity
8
1
62
256
6
ByLayer
370
18
48
1
60
0
100
AcDbSpline
70
4
71
3
72
8
73
4
40
0
40
0
40
0
40
0
40
1
40
1
40
1
40
1
41
1
10
21.5708283953404
20
1.67890356696498
30
0
41
1
10
21.5924179715098
20
1.64119543765034
30
0
41
1
10
21.6144885405641
20
1.60214195784505
30
0
41
1
10
21.6370692785097
20
1.56166154150685
30
0
0
SPLINE
5
132
100
AcDbEntity
8
1
62
256
6
ByLayer
370
13
48
1
60
0
100
AcDbSpline
70
4
71
3
72
8
73
4
40
0
40
0
40
0
40
0
40
1
40
1
40
1
40
1
41
1
10
21.570828396784
20
1.6789035691132
30
0
41
1
10
21.0990788633533
20
1.96511106123072
30
0
41
1
10
20.6273293299226
20
2.23989093368044
30
0
41
1
10
20.1555797964919
20
2.4969818545251
30
0
0
SPLINE
5
133
100
AcDbEntity
8
1
62
256
6
ByLayer
370
18
48
1
60
0
100
AcDbSpline
70
4
71
3
72
8
73
4
40
0
40
0
40
0
40
0
40
1
40
1
40
1
40
1
41
1
10
21.779001787831
20
1.20940825102579
30
0
41
1
10
21.76830063937
20
1.01057845397534
30
0
41
1
10
21.7564856352934
20
0.812223917028547
30
0
41
1
10
21.7430981560508
20
0.614540324053138
30
0
0
SPLINE
5
134
100
AcDbEntity
8
1
62
256
6
ByLayer
370
18
48
1
60
0
100
AcDbSpline
70
4
71
3
72
8
73
4
40
0
40
0
40
0
40
0
40
1
40
1
40
1
40
1
41
1
10
21.7790017878228
20
1.20940825102704
30
0
41
1
10
21.731551689499
20
1.32752770570417
30
0
41
1
10
21.684241010073
20
1.44494467807135
30
0
41
1
10
21.6370692785092
20
1.56166154150907
30
0
0
SPLINE
5
135
100
AcDbEntity
8
1
62
256
6
ByLayer
370
18
48
1
60
0
100
AcDbSpline
70
4
71
3
72
33
73
29
40
0
40
0
40
0
40
0
40
0.168144951124345
40
0.168144951124345
40
0.18916307001489
40
0.18916307001489
40
0.210181188905434
40
0.210181188905434
40
0.252217426686523
40
0.252217426686523
40
0.336289902248704
40
0.336289902248704
40
0.420362377810885
40
0.420362377810885
40
0.504434853373067
40
0.504434853373067
40
0.588507328935248
40
0.588507328935248
40
0.67257980449743
40
0.67257980449743
40
0.693597923387974
40
0.693597923387974
40
0.714616042278519
40
0.756652280059611
40
0.756652280059611
40
0.840724755621793
40
0.840724755621793
40
1
40
1
40
1
40
1
41
1
10
21.6370692784952
20
1.5616615415145
30
0
41
1
10
21.1831011890914
20
1.86112975476502
30
0
41
1
10
20.7308091126089
20
2.14993624346585
30
0
41
1
10
20.2201564734651
20
2.45816462854756
30
0
41
1
10
20.1633918363114
20
2.49217937884549
30
0
41
1
10
20.049798396544
20
2.5597246283229
30
0
41
1
10
19.9929636191436
20
2.5932582383652
30
0
41
1
10
19.8227373998858
20
2.6928753707185
30
0
41
1
10
19.709494366984
20
2.75805243462673
30
0
41
1
10
19.3703053714743
20
2.94973541548629
30
0
41
1
10
19.1448575828773
20
3.07236033278588
30
0
41
1
10
18.6946833449843
20
3.30682715041195
30
0
41
1
10
18.4700065763249
20
3.41870262546786
30
0
41
1
10
18.0211342217392
20
3.63138684000498
30
0
41
1
10
17.7969680230111
20
3.73224048242383
30
0
41
1
10
17.3484688596657
20
3.92222018672987
30
0
41
1
10
17.1240943704709
20
4.01128466367877
30
0
41
1
10
16.6739474267226
20
4.17647244541382
30
0
41
1
10
16.4481294734454
20
4.25259063334079
30
0
41
1
10
16.1643834287517
20
4.33916344227652
30
0
41
1
10
16.1075298748037
20
4.35606041657212
30
0
41
1
10
15.9938367455602
20
4.38894248840438
30
0
41
1
10
15.8234783435084
20
4.4368531567454
30
0
41
1
10
15.6536368434993
20
4.48052843625666
30
0
41
1
10
15.3145316397411
20
4.56229730725491
30
0
41
1
10
15.0892309015287
20
4.6093968405078
30
0
41
1
10
14.4385010134882
20
4.72430546056702
30
0
41
1
10
14.0143315264477
20
4.77291140261053
30
0
41
1
10
13.5895723047957
20
4.79380209485581
30
0
0
SPLINE
5
136
100
AcDbEntity
8
1
62
256
6
ByLayer
370
13
48
1
60
0
100
AcDbSpline
70
4
71
3
72
18
73
14
40
0
40
0
40
0
40
0
40
0.0902302072259686
40
0.181207186503372
40
0.249439920961424
40
0.317672655419476
40
0.385905389877529
40
0.454138124335581
40
0.545115103612984
40
0.636092082890388
40
0.727069062167791
40
0.818046041445194
40
1
40
1
40
1
40
1
41
1
10
15.1137135011641
20
-4.3030033689343
30
0
41
1
10
14.6591423341094
20
-4.39515949493222
30
0
41
1
10
13.7462378337214
20
-4.51817653829983
30
0
41
1
10
12.4895833333335
20
-4.50458456438759
30
0
41
1
10
11.3437500000001
20
-4.34598419577179
30
0
41
1
10
10.3125000000001
20
-4.09572297983746
30
0
41
1
10
9.28125000000011
20
-3.74213913640384
30
0
41
1
10
8.1354166666668
20
-3.24603507195556
30
0
41
1
10
6.87500000000014
20
-2.58371232477788
30
0
41
1
10
5.50000000000017
20
-1.74296014683117
30
0
41
1
10
4.12500000000014
20
-0.828538718867321
30
0
41
1
10
2.29166666666686
20
0.44013411675752
30
0
41
1
10
0.916666666666799
20
1.38783087361654
30
0
41
1
10
1.421E-13
20
1.95671425646589
30
0
0
SPLINE
5
137
100
AcDbEntity
8
1
62
256
6
ByLayer
370
18
48
1
60
0
100
AcDbSpline
70
4
71
3
72
80
73
76
40
0
40
0
40
0
40
0
40
0.0023211541940041
40
0.0023211541940041
40
0.0125015505797793
40
0.0125015505797793
40
0.0226819469655544
40
0.0226819469655544
40
0.0634035325086549
40
0.0634035325086549
40
0.104125118051755
40
0.104125118051755
40
0.185568289137958
40
0.185568289137958
40
0.226289874681059
40
0.226289874681059
40
0.236470271066835
40
0.236470271066835
40
0.24665066745261
40
0.24665066745261
40
0.26701146022416
40
0.26701146022416
40
0.307733045767261
40
0.307733045767261
40
0.348454631310361
40
0.348454631310361
40
0.368815424081912
40
0.368815424081912
40
0.389176216853462
40
0.389176216853462
40
0.429897802396564
40
0.429897802396564
40
0.450258595168115
40
0.450258595168115
40
0.46043899155389
40
0.46043899155389
40
0.470619387939666
40
0.470619387939666
40
0.511340973482767
40
0.511340973482767
40
0.531701766254318
40
0.531701766254318
40
0.552062559025868
40
0.552062559025868
40
0.592784144568969
40
0.592784144568969
40
0.613144937340519
40
0.613144937340519
40
0.633505730112069
40
0.633505730112069
40
0.67422731565517
40
0.67422731565517
40
0.684407712040946
40
0.684407712040946
40
0.694588108426722
40
0.694588108426722
40
0.714948901198273
40
0.714948901198273
40
0.755670486741377
40
0.755670486741377
40
0.796392072284481
40
0.796392072284481
40
0.837113657827584
40
0.837113657827584
40
0.877835243370688
40
0.877835243370688
40
0.89819603614224
40
0.89819603614224
40
0.908376432528016
40
0.908376432528016
40
0.918556828913793
40
0.918556828913793
40
0.959278414456896
40
0.959278414456896
40
1
40
1
40
1
40
1
41
1
10
16.5952428380848
20
-4.05230868189454
30
0
41
1
10
16.582345917946
20
-4.05743643541854
30
0
41
1
10
16.5694447786862
20
-4.06254101636375
30
0
41
1
10
16.4999367907628
20
-4.08990843951693
30
0
41
1
10
16.4432491819389
20
-4.11174598981663
30
0
41
1
10
16.3296929577187
20
-4.1545123998248
30
0
41
1
10
16.2729071892551
20
-4.17541012438565
30
0
41
1
10
15.9893974445499
20
-4.27730362193071
30
0
41
1
10
15.7634697820407
20
-4.35069233893862
30
0
41
1
10
15.3128869053166
20
-4.48134948329124
30
0
41
1
10
15.0882278262088
20
-4.53864997315901
30
0
41
1
10
14.4151836315132
20
-4.68629067219931
30
0
41
1
10
13.9677251156576
20
-4.75231941777361
30
0
41
1
10
13.293248412451
20
-4.79976067968272
30
0
41
1
10
13.0678895443843
20
-4.80684032930083
30
0
41
1
10
12.7848215344826
20
-4.80513145583873
30
0
41
1
10
12.72814039695
20
-4.80425868801132
30
0
41
1
10
12.6146307476147
20
-4.80142854510288
30
0
41
1
10
12.5578622922991
20
-4.79947142266903
30
0
41
1
10
12.3878709292549
20
-4.79197855318043
30
0
41
1
10
12.2748137655827
20
-4.78481939092202
30
0
41
1
10
11.9363157800511
20
-4.75681521617688
30
0
41
1
10
11.7115973455772
20
-4.72926577791469
30
0
41
1
10
11.2626249914798
20
-4.65837904331246
30
0
41
1
10
11.0384295389291
20
-4.6148889486152
30
0
41
1
10
10.7023110691975
20
-4.53720249586797
30
0
41
1
10
10.5903051861404
20
-4.50920542147165
30
0
41
1
10
10.3662253731446
20
-4.44920443105619
30
0
41
1
10
10.254139741217
20
-4.41725396848668
30
0
41
1
10
9.9175996379127
20
-4.31559980987751
30
0
41
1
10
9.69289405204424
20
-4.2399761406088
30
0
41
1
10
9.35461985931701
20
-4.11455789327917
30
0
41
1
10
9.24165893182845
20
-4.07072475064086
30
0
41
1
10
9.0717804891371
20
-4.00218359483986
30
0
41
1
10
9.01508125799612
20
-3.97887822102325
30
0
41
1
10
8.90152442720682
20
-3.93135636978343
30
0
41
1
10
8.84468839770676
20
-3.90714448485636
30
0
41
1
10
8.56105666127715
20
-3.78416817036148
30
0
41
1
10
8.3351737522363
20
-3.67933418064206
30
0
41
1
10
7.99749001758454
20
-3.51267164845632
30
0
41
1
10
7.88512241762345
20
-3.45553643608031
30
0
41
1
10
7.66058742518999
20
-3.33847242713873
30
0
41
1
10
7.54842030186183
20
-3.27854669815645
30
0
41
1
10
7.21215616264445
20
-3.09452307568623
30
0
41
1
10
6.98829711552997
20
-2.96618442053841
30
0
41
1
10
6.65238537015333
20
-2.76564542352486
30
0
41
1
10
6.54038728374343
20
-2.69747772511542
30
0
41
1
10
6.31616699243085
20
-2.55881673121536
30
0
41
1
10
6.20395294544647
20
-2.48829792543512
30
0
41
1
10
5.86687568186534
20
-2.2731358439207
30
0
41
1
10
5.64155574215164
20
-2.12496061708779
30
0
41
1
10
5.35849852113813
20
-1.93455650250846
30
0
41
1
10
5.3018179813426
20
-1.8962131322192
30
0
41
1
10
5.18830707886065
20
-1.81900804583
30
0
41
1
10
5.13147795900682
20
-1.78014536165068
30
0
41
1
10
4.96133856776135
20
-1.66322129830985
30
0
41
1
10
4.8481713094834
20
-1.58469740200434
30
0
41
1
10
4.50927670464904
20
-1.347644520405
30
0
41
1
10
4.28419538179196
20
-1.18757262170192
30
0
41
1
10
3.83498497280507
20
-0.864373134116619
30
0
41
1
10
3.61087732721987
20
-0.701210302663867
30
0
41
1
10
3.16275450217279
20
-0.373040623724734
30
0
41
1
10
2.93877021305713
20
-0.207983310070489
30
0
41
1
10
2.49019766887477
20
0.123082995930929
30
0
41
1
10
2.26556694268948
20
0.2890163440359
30
0
41
1
10
1.9274360117517
20
0.537614346455683
30
0
41
1
10
1.81453444662981
20
0.620442724036963
30
0
41
1
10
1.64479470498998
20
0.744488226301911
30
0
41
1
10
1.5881501180782
20
0.785803649362805
30
0
41
1
10
1.47471549134684
20
0.868346113137534
30
0
41
1
10
1.41791600632655
20
0.90957987345675
30
0
41
1
10
1.13419882071489
20
1.11497851740919
30
0
41
1
10
0.90755807407632
20
1.2772170604687
30
0
41
1
10
0.454142137363164
20
1.59637942087664
30
0
41
1
10
0.227362012738041
20
1.75329074782468
30
0
41
1
10
1.137E-13
20
1.90694925974154
30
0
0
SPLINE
5
138
100
AcDbEntity
8
1
62
256
6
ByLayer
370
18
48
1
60
0
100
AcDbSpline
70
4
71
3
72
8
73
4
40
0
40
0
40
0
40
0
40
1
40
1
40
1
40
1
41
1
10
21.566640276365
20
-4.23048569378093
30
0
41
1
10
21.5882751628949
20
-4.35198023232351
30
0
41
1
10
21.610410504802
20
-4.47288672402016
30
0
41
1
10
21.6330795784504
20
-4.59316607494114
30
0
0
SPLINE
5
139
100
AcDbEntity
8
1
62
256
6
ByLayer
370
13
48
1
60
0
100
AcDbSpline
70
4
71
3
72
17
73
13
40
0
40
0
40
0
40
0
40
0.0779676605508982
40
0.191817435027125
40
0.305667209503352
40
0.419516983979579
40
0.533366758455807
40
0.647216532932034
40
0.761066307408261
40
0.874916081884488
40
0.988765856360715
40
1
40
1
40
1
40
1
41
1
10
21.5666402777318
20
-4.23048569331721
30
0
41
1
10
21.2527601851546
20
-4.15827672819262
30
0
41
1
10
20.480546759244
20
-3.94705218708961
30
0
41
1
10
19.2500000000001
20
-3.47934673756902
30
0
41
1
10
17.8750000000001
20
-2.8207632074116
30
0
41
1
10
16.5000000000001
20
-2.02779159918336
30
0
41
1
10
15.1250000000001
20
-1.16307084005948
30
0
41
1
10
13.7500000000002
20
-0.24676687070388
30
0
41
1
10
12.3750000000001
20
0.683814411322004
30
0
41
1
10
11.0000000000001
20
1.58456512849259
30
0
41
1
10
10.0381072226536
20
2.16649948891734
30
0
41
1
10
9.53454777864044
20
2.45119390827409
30
0
41
1
10
9.48932166796055
20
2.47659648277187
30
0
0
SPLINE
5
13A
100
AcDbEntity
8
1
62
256
6
ByLayer
370
18
48
1
60
0
100
AcDbSpline
70
4
71
3
72
8
73
4
40
0
40
0
40
0
40
0
40
1
40
1
40
1
40
1
41
1
10
9.48932157416243
20
2.47659653545637
30
0
41
1
10
9.47707804391911
20
2.48347347405721
30
0
41
1
10
9.46483451367578
20
2.4903381996161
30
0
41
1
10
9.45259098343246
20
2.49719059918894
30
0
0
SPLINE
5
13B
100
AcDbEntity
8
1
62
256
6
ByLayer
370
18
48
1
60
0
100
AcDbSpline
70
4
71
3
72
8
73
4
40
0
40
0
40
0
40
0
40
1
40
1
40
1
40
1
41
1
10
21.7785381954208
20
-4.71884674510068
30
0
41
1
10
21.76767928421
20
-4.79197388027666
30
0
41
1
10
21.7556655392411
20
-4.86615615439439
30
0
41
1
10
21.7420075278947
20
-4.94184074819555
30
0
0
SPLINE
5
13C
100
AcDbEntity
8
1
62
256
6
ByLayer
370
18
48
1
60
0
100
AcDbSpline
70
4
71
3
72
8
73
4
40
0
40
0
40
0
40
0
40
1
40
1
40
1
40
1
41
1
10
21.778538195408
20
-4.71884674510125
30
0
41
1
10
21.7299013724677
20
-4.67930032971293
30
0
41
1
10
21.681415377555
20
-4.63740348893256
30
0
41
1
10
21.63307957845
20
-4.59316607494742
30
0
0
SPLINE
5
13D
100
AcDbEntity
8
1
62
256
6
ByLayer
370
18
48
1
60
0
100
AcDbSpline
70
4
71
3
72
96
73
92
40
0
40
0
40
0
40
0
40
0.0364126281444716
40
0.0364126281444716
40
0.0728252562889432
40
0.0728252562889432
40
0.0819284133250611
40
0.0819284133250611
40
0.091031570361179
40
0.091031570361179
40
0.109237884433413
40
0.109237884433413
40
0.127444198505647
40
0.127444198505647
40
0.145650512577882
40
0.145650512577882
40
0.182063140722352
40
0.182063140722352
40
0.200269454794587
40
0.200269454794587
40
0.218475768866823
40
0.218475768866823
40
0.254888397011295
40
0.254888397011295
40
0.273094711083531
40
0.273094711083531
40
0.291301025155766
40
0.291301025155766
40
0.300404182191884
40
0.300404182191884
40
0.309507339228002
40
0.327713653300239
40
0.327713653300239
40
0.364126281444714
40
0.364126281444714
40
0.400538909589188
40
0.400538909589188
40
0.436951537733663
40
0.436951537733663
40
0.473364165878137
40
0.473364165878137
40
0.491570479950374
40
0.500673636986493
40
0.500673636986493
40
0.509776794022612
40
0.509776794022612
40
0.546189422167087
40
0.546189422167087
40
0.582602050311562
40
0.582602050311562
40
0.6008083643838
40
0.6008083643838
40
0.619014678456038
40
0.619014678456038
40
0.655427306600514
40
0.655427306600514
40
0.673633620672752
40
0.673633620672752
40
0.69183993474499
40
0.69183993474499
40
0.710046248817228
40
0.710046248817228
40
0.719149405853346
40
0.719149405853346
40
0.728252562889465
40
0.728252562889465
40
0.746458876961704
40
0.746458876961704
40
0.764665191033943
40
0.764665191033943
40
0.801077819178421
40
0.801077819178421
40
0.81928413325066
40
0.81928413325066
40
0.8374904473229
40
0.8374904473229
40
0.873903075467378
40
0.873903075467378
40
0.892109389539618
40
0.892109389539618
40
0.910315703611858
40
0.910315703611858
40
0.919418860647978
40
0.919418860647978
40
0.928522017684097
40
0.928522017684097
40
0.946728331756336
40
0.946728331756336
40
0.983140959900814
40
0.983140959900814
40
1
40
1
40
1
40
1
41
1
10
21.6330795784374
20
-4.59316607494614
30
0
41
1
10
21.40622208176
20
-4.54529176403867
30
0
41
1
10
21.1795569033393
20
-4.48965199077713
30
0
41
1
10
20.7262500684564
20
-4.36320522366967
30
0
41
1
10
20.4996636784087
20
-4.2923701843215
30
0
41
1
10
20.216040110247
20
-4.19445414849039
30
0
41
1
10
20.159292775204
20
-4.17440288852379
30
0
41
1
10
20.0457341284882
20
-4.13336942430968
30
0
41
1
10
19.9889418513373
20
-4.11239346401049
30
0
41
1
10
19.8188630299309
20
-4.04824296662605
30
0
41
1
10
19.705741827066
20
-4.00379225840788
30
0
41
1
10
19.479848005194
20
-3.91173835869884
30
0
41
1
10
19.3670748769238
20
-3.86413637228236
30
0
41
1
10
19.1416981936529
20
-3.76600772585667
30
0
41
1
10
19.0290927763399
20
-3.71548615689585
30
0
41
1
10
18.6915248949425
20
-3.55957532283605
30
0
41
1
10
18.4668208003766
20
-3.44982476229356
30
0
41
1
10
18.1302316024241
20
-3.2764825612318
30
0
41
1
10
18.0181101625516
20
-3.2172547139356
30
0
41
1
10
17.7939933377593
20
-3.09591620747588
30
0
41
1
10
17.6820031168472
20
-3.03380074104706
30
0
41
1
10
17.345979228939
20
-2.84333179772639
30
0
41
1
10
17.1218998896789
20
-2.71081199128298
30
0
41
1
10
16.7845567679774
20
-2.50490693243935
30
0
41
1
10
16.6719018781593
20
-2.43509933424633
30
0
41
1
10
16.4459835406366
20
-2.29341008567414
30
0
41
1
10
16.3327117002057
20
-2.22154369663099
30
0
41
1
10
16.1622990859648
20
-2.11223211984941
30
0
41
1
10
16.1054345609349
20
-2.07555680492044
30
0
41
1
10
15.9919019832241
20
-2.00194282046908
30
0
41
1
10
15.8217648282596
20
-1.89104198775459
30
0
41
1
10
15.6520928201157
20
-1.77873129183476
30
0
41
1
10
15.313288140801
20
-1.55235152627321
30
0
41
1
10
15.0881463793565
20
-1.39907795283617
30
0
41
1
10
14.638803197985
20
-1.08853577244929
30
0
41
1
10
14.4146034565099
20
-0.931253510341605
30
0
41
1
10
13.9663093412685
20
-0.613858889694285
30
0
41
1
10
13.7421905457715
20
-0.453794835761698
30
0
41
1
10
13.2932145327398
20
-0.132043120497144
30
0
41
1
10
13.0683687770864
20
0.0296653418218398
30
0
41
1
10
12.7299554097351
20
0.27266818114299
30
0
41
1
10
12.5604613694036
20
0.394278275373722
30
0
41
1
10
12.3904105988893
20
0.515884604451514
30
0
41
1
10
12.2769050033065
20
0.596935111651163
30
0
41
1
10
12.2200857334745
20
0.637448393540325
30
0
41
1
10
11.9365741770401
20
0.839234971025149
30
0
41
1
10
11.710888825304
20
0.998715648850123
30
0
41
1
10
11.2604935237493
20
1.31261278857201
30
0
41
1
10
11.0358432811414
20
1.46705871453798
30
0
41
1
10
10.6992992922913
20
1.69431049726978
30
0
41
1
10
10.5871965894221
20
1.76932712119464
30
0
41
1
10
10.3630194265867
20
1.91778836797565
30
0
41
1
10
10.2509368603294
20
1.9912347890052
30
0
41
1
10
9.91461057490096
20
2.20906596605917
30
0
41
1
10
9.69030556229154
20
2.35095313388265
30
0
41
1
10
9.35325588905803
20
2.5579447378563
30
0
41
1
10
9.24080905360336
20
2.62596003293436
30
0
41
1
10
9.01555036796785
20
2.75992538722716
30
0
41
1
10
8.90273578101929
20
2.82588205707793
30
0
41
1
10
8.67665206678129
20
2.95557918293176
30
0
41
1
10
8.56338341739357
20
3.01931822497033
30
0
41
1
10
8.39305628789811
20
3.1131319605262
30
0
41
1
10
8.33619314123558
20
3.14411224654157
30
0
41
1
10
8.22269062801539
20
3.20524830707569
30
0
41
1
10
8.16600497971339
20
3.23542938293991
30
0
41
1
10
7.99613288378217
20
3.32479583455165
30
0
41
1
10
7.88312835201219
20
3.38280553430198
30
0
41
1
10
7.65742292618495
20
3.4957698317674
30
0
41
1
10
7.54472839552488
20
3.55072074198361
30
0
41
1
10
7.20708409180753
20
3.71080338689384
30
0
41
1
10
6.98256943867156
20
3.8111791745398
30
0
41
1
10
6.64625532494625
20
3.95166720976795
30
0
41
1
10
6.53421440995146
20
3.99683011583431
30
0
41
1
10
6.31010174840247
20
4.08388186711065
30
0
41
1
10
6.19804002896552
20
4.12575398173044
30
0
41
1
10
5.86175039362121
20
4.24615265201481
30
0
41
1
10
5.63741135588748
20
4.31947716173141
30
0
41
1
10
5.30008009990797
20
4.41838957774297
30
0
41
1
10
5.18749047683616
20
4.44954379479461
30
0
41
1
10
4.96189695601799
20
4.50823848771
30
0
41
1
10
4.84889881071001
20
4.53576110466179
30
0
41
1
10
4.67903369616297
20
4.5741750056516
30
0
41
1
10
4.62235046414017
20
4.58650140802516
30
0
41
1
10
4.50884803135409
20
4.61017454193063
30
0
41
1
10
4.45199375143611
20
4.62152611014156
30
0
41
1
10
4.28174231273931
20
4.65400144931616
30
0
41
1
10
4.1685067104373
20
4.67358308859849
30
0
41
1
10
3.82938769504375
20
4.72622949710299
30
0
41
1
10
3.6040947304858
20
4.7532270717567
30
0
41
1
10
3.27517442619978
20
4.78098171106339
30
0
41
1
10
3.1711964753332
20
4.78799656212877
30
0
41
1
10
3.067292638004
20
4.7932653051773
30
0
0
SPLINE
5
13E
100
AcDbEntity
8
1
62
256
6
ByLayer
370
18
48
1
60
0
100
AcDbSpline
70
4
71
3
72
8
73
4
40
0
40
0
40
0
40
0
40
1
40
1
40
1
40
1
41
1
10
21.742007527889
20
-4.94184074819671
30
0
41
1
10
21.7423301010765
20
-4.94222298147906
30
0
41
1
10
21.7426525450782
20
-4.94260509255733
30
0
41
1
10
21.7429748600279
20
-4.94298708155972
30
0
0
SPLINE
5
13F
100
AcDbEntity
8
1
62
256
6
ByLayer
370
18
48
1
60
0
100
AcDbSpline
70
4
71
3
72
8
73
4
40
0
40
0
40
0
40
0
40
1
40
1
40
1
40
1
41
1
10
21.6505772000799
20
-4.99929857306338
30
0
41
1
10
21.6708968241969
20
-4.99909295494538
30
0
41
1
10
21.691217284237
20
-4.99894015186774
30
0
41
1
10
21.7115381705283
20
-4.99884018538202
30
0
0
SPLINE
5
140
100
AcDbEntity
8
1
62
256
6
ByLayer
370
18
48
1
60
0
100
AcDbSpline
70
4
71
3
72
14
73
10
40
0
40
0
40
0
40
0
40
0.0792553319597451
40
0.181560295075329
40
0.317966912562774
40
0.454373530050219
40
0.590780147537665
40
0.72718676502511
40
1
40
1
40
1
40
1
41
1
10
10.0801561194533
20
0.867948697091634
30
0
41
1
10
9.81385407963552
20
1.04984942234304
30
0
41
1
10
9.20380203981779
20
1.46187391824211
30
0
41
1
10
8.13541666666668
20
2.15292545472508
30
0
41
1
10
6.87500000000006
20
2.89714328358375
30
0
41
1
10
5.50000000000006
20
3.58864532040556
30
0
41
1
10
4.125
20
4.12766518607614
30
0
41
0.999999999999999
10
2.29166666666674
20
4.61762705768462
30
0
41
1
10
0.916666666666686
20
4.69850670636001
30
0
41
1
10
0
20
4.62100070267587
30
0
0
SPLINE
5
141
100
AcDbEntity
8
1
62
256
6
ByLayer
370
18
48
1
60
0
100
AcDbSpline
70
4
71
3
72
8
73
4
40
0
40
0
40
0
40
0
40
1
40
1
40
1
40
1
41
1
10
21.6395460375296
20
0.261743658873741
30
0
41
1
10
21.6605021081572
20
0.259891544105102
30
0
41
1
10
21.681458983572
20
0.25804389672868
30
0
41
1
10
21.7024162692966
20
0.256200750716204
30
0
0
SPLINE
5
142
100
AcDbEntity
8
1
62
256
6
ByLayer
370
18
48
1
60
0
100
AcDbSpline
70
4
71
3
72
8
73
4
40
0
40
0
40
0
40
0
40
1
40
1
40
1
40
1
41
1
10
21.6395460375292
20
0.261743658874167
30
0
41
1
10
21.6776582242102
20
0.248429096601342
30
0
41
1
10
21.7184799011585
20
0.234962165861731
30
0
41
1
10
21.7625801531326
20
0.221310864281349
30
0
0
SPLINE
5
143
100
AcDbEntity
8
1
62
256
6
ByLayer
370
13
48
1
60
0
100
AcDbSpline
70
4
71
3
72
18
73
14
40
0
40
0
40
0
40
0
40
0.0128199508909691
40
0.114182046050497
40
0.215544141210026
40
0.316906236369554
40
0.418268331529083
40
0.519630426688611
40
0.620992521848139
40
0.722354617007668
40
0.823716712167196
40
0.925078807326725
40
1
40
1
40
1
40
1
41
1
10
20.7989055654615
20
0.868193982092066
30
0
41
1
10
20.740937043641
20
0.906722533556547
30
0
41
1
10
20.2246351884871
20
1.24906219705122
30
0
41
1
10
19.25
20
1.87971221598758
30
0
41
1
10
17.875
20
2.69392512529924
30
0
41
1
10
16.5
20
3.40209663453106
30
0
41
1
10
15.125
20
3.97344413553426
30
0
41
1
10
13.7500000000001
20
4.38837168370853
30
0
41
1
10
12.375
20
4.62687646997253
30
0
41
1
10
11.0000000000001
20
4.68325908358255
30
0
41
1
10
9.62500000000003
20
4.55129265511397
30
0
41
1
10
8.36955896288245
20
4.26722906236853
30
0
41
1
10
7.57245125909824
20
4.00091877679699
30
0
41
1
10
7.23367688864741
20
3.87373016384771
30
0
0
SPLINE
5
144
100
AcDbEntity
8
1
62
256
6
ByLayer
370
18
48
1
60
0
100
AcDbSpline
70
4
71
3
72
8
73
4
40
0
40
0
40
0
40
0
40
1
40
1
40
1
40
1
41
1
10
21.7430981560508
20
0.614540324053138
30
0
41
1
10
21.743129209891
20
0.614424447829606
30
0
41
1
10
21.7431602625577
20
0.614308570836528
30
0
41
1
10
21.7431913140581
20
0.614192693048125
30
0
0
SPLINE
5
145
100
AcDbEntity
8
1
62
256
6
ByLayer
370
18
48
1
60
0
100
AcDbSpline
70
4
71
3
72
74
73
70
40
0
40
0
40
0
40
0
40
0.0312499999999964
40
0.0312499999999964
40
0.0624999999999929
40
0.0624999999999929
40
0.0703124999999923
40
0.0703124999999923
40
0.0781249999999917
40
0.0937499999999905
40
0.0937499999999905
40
0.124999999999989
40
0.124999999999989
40
0.156249999999987
40
0.156249999999987
40
0.187499999999985
40
0.187499999999985
40
0.218749999999984
40
0.218749999999984
40
0.234374999999982
40
0.234374999999982
40
0.242187499999982
40
0.242187499999982
40
0.249999999999982
40
0.249999999999982
40
0.31249999999998
40
0.31249999999998
40
0.374999999999979
40
0.374999999999979
40
0.406249999999978
40
0.406249999999978
40
0.414062499999978
40
0.414062499999978
40
0.421874999999977
40
0.421874999999977
40
0.437499999999978
40
0.437499999999978
40
0.499999999999978
40
0.499999999999978
40
0.531249999999979
40
0.531249999999979
40
0.56249999999998
40
0.56249999999998
40
0.57812499999998
40
0.58593749999998
40
0.58593749999998
40
0.593749999999981
40
0.593749999999981
40
0.624999999999983
40
0.624999999999983
40
0.687499999999986
40
0.687499999999986
40
0.74999999999999
40
0.74999999999999
40
0.765624999999991
40
0.765624999999991
40
0.781249999999991
40
0.781249999999991
40
0.812499999999992
40
0.812499999999992
40
0.874999999999994
40
0.874999999999994
40
0.937499999999995
40
0.937499999999995
40
0.945312499999996
40
0.945312499999996
40
0.953124999999996
40
0.968749999999998
40
1
40
1
40
1
40
1
41
1
10
1.705E-13
20
4.97027480419726
30
0
41
1
10
0.227463327770522
20
4.98878377183135
30
0
41
1
10
0.454487292038493
20
4.99859489277563
30
0
41
1
10
0.908494365462786
20
5.00107580077741
30
0
41
1
10
1.13547641649416
20
4.99373052543939
30
0
41
1
10
1.4197254136534
20
4.97372483048827
30
0
41
1
10
1.47658437304261
20
4.96918373948134
30
0
41
1
10
1.59010486562877
20
4.95904530620513
30
0
41
1
10
1.76018424619514
20
4.94224476271205
30
0
41
1
10
1.92972328216697
20
4.92071863901666
30
0
41
1
10
2.26824080689101
20
4.87150144389162
30
0
41
1
10
2.49317367779699
20
4.83048042234006
30
0
41
1
10
2.94233110190891
20
4.73242781444475
30
0
41
1
10
3.16655032343357
20
4.67539315288587
30
0
41
1
10
3.61507543644513
20
4.54578874341973
30
0
41
1
10
3.83937672999448
20
4.47324872300959
30
0
41
1
10
4.28891121348485
20
4.31291866427554
30
0
41
1
10
4.51414181436917
20
4.22515984234698
30
0
41
1
10
4.85331213890237
20
4.08240325679296
30
0
41
1
10
4.96658916597235
20
4.03296601190908
30
0
41
1
10
5.13691489907882
20
3.95605456958054
30
0
41
1
10
5.19380717840372
20
3.92993494204916
30
0
41
1
10
5.30744845187741
20
3.87691689277307
30
0
41
1
10
5.36419848515916
20
3.85001907944752
30
0
41
1
10
5.87437097473389
20
3.60450915797873
30
0
41
1
10
6.32374229495886
20
3.36193762510172
30
0
41
1
10
7.22099501467019
20
2.83604558227856
30
0
41
1
10
7.66889173427057
20
2.55273312905089
30
0
41
1
10
8.3444660163068
20
2.10243769208358
30
0
41
1
10
8.57026849513946
20
1.94809445707528
30
0
41
1
10
8.8538043258871
20
1.75039090616642
30
0
41
1
10
8.91057596481323
20
1.71061149226034
30
0
41
1
10
9.02426239897943
20
1.63058870849804
30
0
41
1
10
9.08110251653153
20
1.59039770795837
30
0
41
1
10
9.25132618486819
20
1.46953181723558
30
0
41
1
10
9.36453952309446
20
1.38847533009428
30
0
41
1
10
9.92953990664535
20
0.98117722087224
30
0
41
1
10
10.3781666962203
20
0.64894906768285
30
0
41
1
10
11.0509344230177
20
0.147672790117497
30
0
41
1
10
11.2751540877058
20
-0.019918936966377
30
0
41
1
10
11.7242787341875
20
-0.355076121924896
30
0
41
1
10
11.9491875066949
20
-0.522637673350943
30
0
41
1
10
12.2877224077242
20
-0.773075795649987
30
0
41
1
10
12.4572831799136
20
-0.898068062211848
30
0
41
1
10
12.6274076731632
20
-1.02255288888648
30
0
41
1
10
12.7409627899814
20
-1.10541179549369
30
0
41
1
10
12.7978567913876
20
-1.1468097179411
30
0
41
1
10
13.0819017395419
20
-1.35284116649453
30
0
41
1
10
13.3080332511605
20
-1.51478489237883
30
0
41
1
10
13.9843531599902
20
-1.99062326825873
30
0
41
1
10
14.4324143224355
20
-2.2945840608142
30
0
41
1
10
15.3294649662902
20
-2.86831429125476
30
0
41
1
10
15.7784711854109
20
-3.13810693368859
30
0
41
1
10
16.344437669921
20
-3.44896255215264
30
0
41
1
10
16.4578660131233
20
-3.50981243866082
30
0
41
1
10
16.6852956014658
20
-3.62873277754309
30
0
41
1
10
16.7987970464267
20
-3.68654048279191
30
0
41
1
10
17.1384528489087
20
-3.85473589548073
30
0
41
1
10
17.3639219348327
20
-3.95997820969544
30
0
41
1
10
18.0387195300389
20
-4.25439523751652
30
0
41
1
10
18.4864589953969
20
-4.42228367200181
30
0
41
1
10
19.3841956509167
20
-4.69728061628942
30
0
41
1
10
19.8341116334385
20
-4.80441834484108
30
0
41
1
10
20.3451684718781
20
-4.88798976460438
30
0
41
1
10
20.4020520342591
20
-4.89676515210667
30
0
41
1
10
20.5157229540357
20
-4.91324093562969
30
0
41
1
10
20.6861443315869
20
-4.93635363853767
30
0
41
1
10
21.0833414953005
20
-4.97906753894515
30
0
41
1
10
21.4235090676622
20
-4.99638951062437
30
0
41
1
10
21.6505772000799
20
-4.99929857306338
30
0
0
SPLINE
5
146
100
AcDbEntity
8
1
62
256
6
ByLayer
370
18
48
1
60
0
100
AcDbSpline
70
4
71
3
72
45
73
41
40
0
40
0
40
0
40
0
40
0.0679209396015388
40
0.0679209396015388
40
0.135841879203078
40
0.135841879203078
40
0.152822114103462
40
0.152822114103462
40
0.169802349003846
40
0.203762818804614
40
0.203762818804614
40
0.27168375840615
40
0.27168375840615
40
0.339604698007686
40
0.339604698007686
40
0.407525637609222
40
0.407525637609222
40
0.475446577210759
40
0.475446577210759
40
0.492426812111142
40
0.492426812111142
40
0.509407047011525
40
0.509407047011525
40
0.543367516812291
40
0.543367516812291
40
0.679209396015359
40
0.679209396015359
40
0.747130335616894
40
0.747130335616894
40
0.815051275218428
40
0.815051275218428
40
0.849011745019195
40
0.849011745019195
40
0.86599197991958
40
0.86599197991958
40
0.882972214819964
40
0.882972214819964
40
0.950893154421502
40
0.950893154421502
40
1
40
1
40
1
40
1
41
1
10
1.421E-13
20
0.647805457118238
30
0
41
1
10
0.227576324401923
20
0.474646023673728
30
0
41
1
10
0.454672559240748
20
0.300650272470762
30
0
41
1
10
0.908834607721587
20
-0.047798431395023
30
0
41
1
10
1.13589797561173
20
-0.222254021306071
30
0
41
1
10
1.42030226960486
20
-0.439834669874813
30
0
41
1
10
1.47717270452861
20
-0.483295790466542
30
0
41
1
10
1.59071877462696
20
-0.569945580291659
30
0
41
1
10
1.76082983888264
20
-0.699576128583288
30
0
41
1
10
1.93038593665778
20
-0.828097271914544
30
0
41
1
10
2.26893248063871
20
-1.08346122902819
30
0
41
1
10
2.49387867098957
20
-1.25146835550683
30
0
41
1
10
2.94311995776107
20
-1.58197981803616
30
0
41
1
10
3.16741224395704
20
-1.74446963386563
30
0
41
1
10
3.61620972583739
20
-2.06292436280464
30
0
41
1
10
3.84071020852556
20
-2.21889881302306
30
0
41
1
10
4.29086967169673
20
-2.52304008810125
30
0
41
1
10
4.51652330428959
20
-2.67123555258343
30
0
41
1
10
4.79987790926222
20
-2.85092493879296
30
0
41
1
10
4.85661319228367
20
-2.88658496858252
30
0
41
1
10
4.97022708203076
20
-2.95733001135176
30
0
41
1
10
5.02715481064405
20
-2.99244433258517
30
0
41
1
10
5.1976640102352
20
-3.09657422898877
30
0
41
1
10
5.31104413857037
20
-3.16441651323402
30
0
41
1
10
5.87676853340679
20
-3.49562067769026
30
0
41
1
10
6.32556213359774
20
-3.73518240133126
30
0
41
1
10
6.99854629467811
20
-4.0523148277573
30
0
41
1
10
7.22284274564865
20
-4.15097448379134
30
0
41
1
10
7.67226796424339
20
-4.33349645535549
30
0
41
1
10
7.89739657871954
20
-4.41735732400531
30
0
41
1
10
8.23637660302285
20
-4.53140783619216
30
0
41
1
10
8.34958339876746
20
-4.56746866521664
30
0
41
1
10
8.51979654931185
20
-4.61855185308909
30
0
41
1
10
8.57660156664033
20
-4.63507801276396
30
0
41
1
10
8.69036116458918
20
-4.66711247560644
30
0
41
1
10
8.74721139355665
20
-4.68259091211442
30
0
41
1
10
9.03099958120359
20
-4.75719212675878
30
0
41
1
10
9.25690889287637
20
-4.80804694394985
30
0
41
1
10
9.64504521369
20
-4.88044033294588
30
0
41
1
10
9.80758191820254
20
-4.9062188277604
30
0
41
1
10
9.96995392006679
20
-4.92738241344875
30
0
0
SPLINE
5
147
100
AcDbEntity
8
1
62
256
6
ByLayer
370
18
48
1
60
0
100
AcDbSpline
70
4
71
3
72
10
73
6
40
0
40
0
40
0
40
0
40
0.670322607890846
40
0.670322607890846
40
1
40
1
40
1
40
1
41
1
10
10.089179472428
20
-4.94209582560617
30
0
41
1
10
10.3361108913733
20
-4.97085562958759
30
0
41
1
10
10.5827558017532
20
-4.98892395420862
30
0
41
1
10
10.9511563010964
20
-4.99984528942124
30
0
41
1
10
11.0726803616115
20
-5.00084826519924
30
0
41
1
10
11.1943413109845
20
-4.99923906057444
30
0
0
SPLINE
5
148
100
AcDbEntity
8
1
62
256
6
ByLayer
370
18
48
1
60
0
100
AcDbSpline
70
4
71
3
72
51
73
47
40
0
40
0
40
0
40
0
40
0.0030813651056705
40
0.0030813651056705
40
0.0937103319142567
40
0.0937103319142567
40
0.13902481531855
40
0.13902481531855
40
0.161682057020696
40
0.173010677871769
40
0.173010677871769
40
0.184339298722842
40
0.184339298722842
40
0.274968265531425
40
0.274968265531425
40
0.365597232340008
40
0.365597232340008
40
0.4109117157443
40
0.4109117157443
40
0.433568957446446
40
0.433568957446446
40
0.444897578297518
40
0.444897578297518
40
0.45622619914859
40
0.45622619914859
40
0.546855165957164
40
0.546855165957164
40
0.637484132765738
40
0.637484132765738
40
0.682798616170026
40
0.682798616170026
40
0.705455857872168
40
0.705455857872168
40
0.716784478723239
40
0.716784478723239
40
0.728113099574311
40
0.728113099574311
40
0.818742066382874
40
0.818742066382874
40
0.909371033191438
40
0.909371033191438
40
0.954685516595719
40
0.954685516595719
40
0.97734275829786
40
0.97734275829786
40
1
40
1
40
1
40
1
41
1
10
6.72622667849541
20
3.98465849630926
30
0
41
1
10
6.74149312146102
20
3.99135997531178
30
0
41
1
10
6.75675796108655
20
3.99803131331828
30
0
41
1
10
7.22094650335944
20
4.20000065049433
30
0
41
1
10
7.66860570528453
20
4.36919457137537
30
0
41
1
10
8.34258503839905
20
4.58053541663398
30
0
41
1
10
8.56764937204028
20
4.64390441309709
30
0
41
1
10
8.90640868899271
20
4.72789704632373
30
0
41
1
10
9.07608029944859
20
4.7671249568572
30
0
41
1
10
9.24630390627351
20
4.80209381849753
30
0
41
1
10
9.35992208325226
20
4.82444776714763
30
0
41
1
10
9.41678801741526
20
4.8351420560505
30
0
41
1
10
9.92758193039691
20
4.92674377420479
30
0
41
1
10
10.3774974343058
20
4.97582353179828
30
0
41
1
10
11.2751579145956
20
5.01021500390951
30
0
41
1
10
11.7228177850589
20
4.99560007975907
30
0
41
1
10
12.3970165808321
20
4.92590197746222
30
0
41
1
10
12.6222038406989
20
4.89471569317405
30
0
41
1
10
12.9612483487181
20
4.83594710888528
30
0
41
1
10
13.07447434447
20
4.8143565919024
30
0
41
1
10
13.2447045110501
20
4.77895477018484
30
0
41
1
10
13.3015490527004
20
4.76664330586351
30
0
41
1
10
13.4152115551701
20
4.74105116223967
30
0
41
1
10
13.471974556747
20
4.72778368566171
30
0
41
1
10
13.9822815190118
20
4.60419063149297
30
0
41
1
10
14.4318927135217
20
4.46462541655586
30
0
41
1
10
15.3292138844852
20
4.13151182596889
30
0
41
1
10
15.7769422871389
20
3.93792280958263
30
0
41
1
10
16.4515754159129
20
3.61040292477455
30
0
41
1
10
16.6769497394479
20
3.49503203311883
30
0
41
1
10
17.0163091061474
20
3.31305149443452
30
0
41
1
10
17.1296462507256
20
3.25090434605363
30
0
41
1
10
17.300053885147
20
3.15550074472529
30
0
41
1
10
17.3569274213196
20
3.12333282610555
30
0
41
1
10
17.4704503083078
20
3.0584921981432
30
0
41
1
10
17.5271459915782
20
3.0257937424152
30
0
41
1
10
18.0368727842932
20
2.72908182296447
30
0
41
1
10
18.4861986359095
20
2.44814120377228
30
0
41
1
10
19.3834126147046
20
1.85998187544661
30
0
41
1
10
19.8312275778863
20
1.55267149439516
30
0
41
1
10
20.5061522580579
20
1.07747004191975
30
0
41
1
10
20.7316668093951
20
0.916701940905511
30
0
41
1
10
21.0713396875721
20
0.672723648294181
30
0
41
1
10
21.1848354705181
20
0.59089938389954
30
0
41
1
10
21.4122364887861
20
0.426545505089649
30
0
41
1
10
21.5258908784348
20
0.34419769200224
30
0
41
1
10
21.6395460375296
20
0.261743658873741
30
0
0
SPLINE
5
149
100
AcDbEntity
8
SK1
62
256
6
ByLayer
370
18
48
1
60
0
100
AcDbSpline
70
4
71
3
72
8
73
4
40
0
40
0
40
0
40
0
40
1
40
1
40
1
40
1
41
1
10
-4.4180126E-09
20
-4.9994020827979
30
0
41
1
10
-4.4180126E-09
20
-4.99959339476931
30
0
41
1
10
0
20
-4.99978474259703
30
0
41
1
10
0
20
-4.99997612645015
30
0
0
SPLINE
5
14A
100
AcDbEntity
8
SK1
62
256
6
ByLayer
370
18
48
1
60
0
100
AcDbSpline
70
4
71
3
72
12
73
8
40
0
40
0
40
0
40
0
40
0.251026501993952
40
0.251026501993952
40
0.502053003987916
40
0.502053003987916
40
1
40
1
40
1
40
1
41
1
10
-4.4157389E-09
20
-4.94580593345313
30
0
41
1
10
-4.4157389E-09
20
-4.95028975578353
30
0
41
1
10
0
20
-4.9547737941657
30
0
41
1
10
0
20
-4.96374230458795
30
0
41
1
10
0
20
-4.96822677625957
30
0
41
1
10
0
20
-4.98160748518902
30
0
41
1
10
0
20
-4.99050435772142
30
0
41
1
10
0
20
-4.99940208197839
30
0
0
SPLINE
5
14B
100
AcDbEntity
8
SK1
62
256
6
ByLayer
370
18
48
1
60
0
100
AcDbSpline
70
4
71
3
72
12
73
8
40
0
40
0
40
0
40
0
40
0.0250554157609651
40
0.278086757046806
40
0.531118098332647
40
0.784149439618488
40
1
40
1
40
1
40
1
41
1
10
-1.28082427463733
20
-4.91173290326785
30
0
41
1
10
-1.27011385678369
20
-4.91315777406283
30
0
41
1
10
-1.15124410966894
20
-4.92878105243554
30
0
41
1
10
-0.924294302009486
20
-4.95456469330207
30
0
41
1
10
-0.600130380649176
20
-4.98076430309996
30
0
41
1
10
-0.292033983616307
20
-4.99556056871367
30
0
41
1
10
-0.0920421919742012
20
-4.99907719531095
30
0
41
1
10
-8.8470529E-09
20
-4.99940208279784
30
0
0
SPLINE
5
14C
100
AcDbEntity
8
SK1
62
256
6
ByLayer
370
18
48
1
60
0
100
AcDbSpline
70
4
71
3
72
15
73
11
40
0
40
0
40
0
40
0
40
0.125281863810136
40
0.250478605093338
40
0.375592584037425
40
0.50062610892057
40
0.625581435886857
40
0.750460768771961
40
0.875266258757777
40
1
40
1
40
1
40
1
41
1
10
-1.10577126269575
20
-4.81928796318874
30
0
41
1
10
-1.11318221445305
20
-4.82282991431779
30
0
41
1
10
-1.12799908261044
20
-4.8299114100038
30
0
41
1
10
-1.15011519582367
20
-4.84086200432788
30
0
41
1
10
-1.17214157439258
20
-4.85204558328232
30
0
41
1
10
-1.1940707993472
20
-4.86348439743747
30
0
41
1
10
-1.21590534953214
20
-4.87516829137661
30
0
41
1
10
-1.23764264837217
20
-4.88710286407397
30
0
41
1
10
-1.25929043995382
20
-4.89926307121223
30
0
41
1
10
-1.27364770576662
20
-4.90757708941175
30
0
41
1
10
-1.28082427463727
20
-4.91173290326785
30
0
0
SPLINE
5
14D
100
AcDbEntity
8
SK1
62
256
6
ByLayer
370
18
48
1
60
0
100
AcDbSpline
70
4
71
3
72
8
73
4
40
0
40
0
40
0
40
0
40
1
40
1
40
1
40
1
41
1
10
0
20
-4.62412269133443
30
0
41
1
10
0
20
-4.73133242590845
30
0
41
1
10
0
20
-4.83856017332874
30
0
41
1
10
0
20
-4.94580593192717
30
0
0
SPLINE
5
14E
100
AcDbEntity
8
SK1
62
256
6
ByLayer
370
18
48
1
60
0
100
AcDbSpline
70
4
71
3
72
11
73
7
40
0
40
0
40
0
40
0
40
0.163774294947903
40
0.456813493734673
40
0.749852692521442
40
1
40
1
40
1
40
1
41
1
10
-1.1057712637174
20
-4.8192879630158
30
0
41
1
10
-1.04534180630776
20
-4.82951788927966
30
0
41
1
10
-0.876816483641562
20
-4.85655243226915
30
0
41
1
10
-0.600317395590395
20
-4.89399174280229
30
0
41
1
10
-0.292156810982675
20
-4.92574903096718
30
0
41
1
10
-0.0921036103554229
20
-4.94035772509363
30
0
41
1
10
-8.8425907E-09
20
-4.94580593345245
30
0
0
SPLINE
5
14F
100
AcDbEntity
8
SK1
62
256
6
ByLayer
370
18
48
1
60
0
100
AcDbSpline
70
4
71
3
72
8
73
4
40
0
40
0
40
0
40
0
40
1
40
1
40
1
40
1
41
1
10
-1.19748870444531
20
-4.83951334772408
30
0
41
0.999983941664783
10
-1.16695319306899
20
-4.83250422307268
30
0
41
0.999983941664783
10
-1.13638022172355
20
-4.82576231987407
30
0
41
1
10
-1.10577126326191
20
-4.8192879629195
30
0
0
SPLINE
5
150
100
AcDbEntity
8
SK1
62
256
6
ByLayer
370
18
48
1
60
0
100
AcDbSpline
70
4
71
3
72
24
73
20
40
0
40
0
40
0
40
0
40
0.0586172652681569
40
0.117255009565695
40
0.175914357721142
40
0.234596415600725
40
0.29330226988774
40
0.352032987883154
40
0.410789617326973
40
0.469573186240003
40
0.528384705912822
40
0.587225185485292
40
0.646095618474661
40
0.704996975592474
40
0.763930204713782
40
0.822896230877073
40
0.881895956303903
40
0.940930260437511
40
1
40
1
40
1
40
1
41
1
10
-0.751741704182649
20
-4.48400834478417
30
0
41
1
10
-0.758963284915836
20
-4.48986547117462
30
0
41
1
10
-0.773408969375481
20
-4.50158177025134
30
0
41
1
10
-0.794942584025478
20
-4.51949695957222
30
0
41
1
10
-0.816382026993949
20
-4.53766273268553
30
0
41
1
10
-0.837717343128134
20
-4.55610152067123
30
0
41
1
10
-0.858951191263202
20
-4.57480477309934
30
0
41
1
10
-0.8800828481032
20
-4.59377224103659
30
0
41
1
10
-0.901112496778126
20
-4.6130014456464
30
0
41
1
10
-0.922040077639991
20
-4.63249050233975
30
0
41
1
10
-0.942865597763785
20
-4.65223736683998
30
0
41
1
10
-0.963589046972032
20
-4.67224005259109
30
0
41
1
10
-0.984210403491744
20
-4.69249659912003
30
0
41
1
10
-1.00472971258773
20
-4.71300491107976
30
0
41
1
10
-1.02514676644054
20
-4.73376338945258
30
0
41
1
10
-1.04546230119334
20
-4.75476856262134
30
0
41
1
10
-1.06567352464719
20
-4.77602393916425
30
0
41
1
10
-1.08579082192759
20
-4.7975069412264
30
0
41
1
10
-1.0991097843993
20
-4.81202617032369
30
0
41
1
10
-1.10577126371726
20
-4.81928796301583
30
0
0
SPLINE
5
151
100
AcDbEntity
8
SK1
62
256
6
ByLayer
370
18
48
1
60
0
100
AcDbSpline
70
4
71
3
72
8
73
4
40
0
40
0
40
0
40
0
40
1
40
1
40
1
40
1
41
1
10
-1.15838916888353
20
-4.61810040478423
30
0
41
1
10
-1.02378019576091
20
-4.56915128552066
30
0
41
1
10
-0.888251981524434
20
-4.52450110694147
30
0
41
1
10
-0.751800534937018
20
-4.48416853454276
30
0
0
SPLINE
5
152
100
AcDbEntity
8
SK1
62
256
6
ByLayer
370
18
48
1
60
0
100
AcDbSpline
70
4
71
3
72
8
73
4
40
0
40
0
40
0
40
0
40
1
40
1
40
1
40
1
41
1
10
5.68E-14
20
-4.62412269133443
30
0
41
1
10
-0.25284119807165
20
-4.58538744395744
30
0
41
1
10
-0.503576243781311
20
-4.53925320353841
30
0
41
1
10
-0.751710830183981
20
-4.48398345105215
30
0
0
SPLINE
5
153
100
AcDbEntity
8
SK1
62
256
6
ByLayer
370
18
48
1
60
0
100
AcDbSpline
70
4
71
3
72
8
73
4
40
0
40
0
40
0
40
0
40
1
40
1
40
1
40
1
41
1
10
-1.09483277678385
20
2.5201874430565
30
0
41
1
10
-0.967205652998132
20
2.45574402617265
30
0
41
1
10
-0.838650275866371
20
2.39020758911687
30
0
41
1
10
-0.709160364552503
20
2.32357073619246
30
0
0
SPLINE
5
154
100
AcDbEntity
8
SK1
62
256
6
ByLayer
370
18
48
1
60
0
100
AcDbSpline
70
4
71
3
72
8
73
4
40
0
40
0
40
0
40
0
40
1
40
1
40
1
40
1
41
1
10
-1.1548855715136
20
1.91675228785104
30
0
41
0.999985399019426
10
-1.12657273274258
20
1.89273368779025
30
0
41
0.999985399019426
10
-1.09822598446599
20
1.86871885275987
30
0
41
1
10
-1.06984656835482
20
1.84470883468035
30
0
0
SPLINE
5
155
100
AcDbEntity
8
SK1
62
256
6
ByLayer
370
18
48
1
60
0
100
AcDbSpline
70
4
71
3
72
8
73
4
40
0
40
0
40
0
40
0
40
1
40
1
40
1
40
1
41
1
10
2.84E-14
20
1.90694925974154
30
0
41
1
10
2.84E-14
20
1.62687832584419
30
0
41
1
10
2.84E-14
20
1.34682109845829
30
0
41
1
10
2.84E-14
20
1.06677758453793
30
0
0
SPLINE
5
156
100
AcDbEntity
8
SK1
62
256
6
ByLayer
370
18
48
1
60
0
100
AcDbSpline
70
4
71
3
72
8
73
4
40
0
40
0
40
0
40
0
40
1
40
1
40
1
40
1
41
1
10
8.53E-14
20
1.90694925974151
30
0
41
1
10
-0.238767169000084
20
2.04599524188669
30
0
41
1
10
-0.475297843895504
20
2.18487281272428
30
0
41
1
10
-0.709044351710872
20
2.32354073167079
30
0
0
SPLINE
5
157
100
AcDbEntity
8
SK1
62
256
6
ByLayer
370
18
48
1
60
0
100
AcDbSpline
70
4
71
3
72
25
73
21
40
0
40
0
40
0
40
0
40
0.0553640583904644
40
0.110744471687269
40
0.166142493378314
40
0.221559351732145
40
0.276996249582364
40
0.332454364143456
40
0.387934846857342
40
0.443438823269869
40
0.498967392936516
40
0.554521629355956
40
0.61010257864339
40
0.665711258701221
40
0.721348665488973
40
0.777015774142871
40
0.832713538943572
40
0.888442893301071
40
0.944204749756447
40
1
40
1
40
1
40
1
41
1
10
-0.709086494499871
20
2.32348564202684
30
0
41
1
10
-0.716065733535714
20
2.31435795051283
30
0
41
1
10
-0.730026273320448
20
2.29609987110481
30
0
41
1
10
-0.750832510343685
20
2.26883199949808
30
0
41
1
10
-0.771543912213076
20
2.24164685050991
30
0
41
1
10
-0.792150602276053
20
2.21455339193193
30
0
41
1
10
-0.812655217698023
20
2.18754938404132
30
0
41
1
10
-0.833057040373575
20
2.16063555227373
30
0
41
1
10
-0.853356251219111
20
2.1338117882589
30
0
41
1
10
-0.873552789527736
20
2.1070781688984
30
0
41
1
10
-0.893646659240119
20
2.08043468332372
30
0
41
1
10
-0.91363784503136
20
2.05388130806625
30
0
41
1
10
-0.93352634074617
20
2.02741798310152
30
0
41
1
10
-0.953312123591445
20
2.00104464519924
30
0
41
1
10
-0.972995237153668
20
1.97476114017942
30
0
41
1
10
-0.992575471429831
20
1.94856751572388
30
0
41
1
10
-1.01205356160219
20
1.92246292790205
30
0
41
1
10
-1.03142671097811
20
1.89644972607186
30
0
41
1
10
-1.05070531398206
20
1.8705181969849
30
0
41
1
10
-1.06346487890011
20
1.85331367367848
30
0
41
1
10
-1.06984657109945
20
1.8447088370024
30
0
0
SPLINE
5
158
100
AcDbEntity
8
SK1
62
256
6
ByLayer
370
18
48
1
60
0
100
AcDbSpline
70
4
71
3
72
12
73
8
40
0
40
0
40
0
40
0
40
0.25106911934157
40
0.25106911934157
40
0.502138238683175
40
0.502138238683175
40
1
40
1
40
1
40
1
41
1
10
-4.128367E-09
20
1.06677758528878
30
0
41
1
10
-4.128367E-09
20
1.03502315053475
30
0
41
1
10
2.84E-14
20
1.00326880641145
30
0
41
1
10
2.84E-14
20
0.939760299864901
30
0
41
1
10
0
20
0.908006137339072
30
0
41
1
10
0
20
0.813284791305108
30
0
41
1
10
0
20
0.750317873891731
30
0
41
1
10
0
20
0.687351313407305
30
0
0
SPLINE
5
159
100
AcDbEntity
8
SK1
62
256
6
ByLayer
370
18
48
1
60
0
100
AcDbSpline
70
4
71
3
72
11
73
7
40
0
40
0
40
0
40
0
40
0.147527220209987
40
0.449163219110124
40
0.75079921801026
40
1
40
1
40
1
40
1
41
1
10
-1.06984657110019
20
1.84470883700294
30
0
41
1
10
-1.01716742704497
20
1.80746057561484
30
0
41
1
10
-0.85681134863222
20
1.69352733418191
30
0
41
1
10
-0.588924685892238
20
1.50055961761544
30
0
41
1
10
-0.284994410069657
20
1.27813907920608
30
0
41
1
10
-0.0887519047410024
20
1.13280079715509
30
0
41
1
10
-8.2567908E-09
20
1.06677758528878
30
0
0
SPLINE
5
15A
100
AcDbEntity
8
SK1
62
256
6
ByLayer
370
18
48
1
60
0
100
AcDbSpline
70
4
71
3
72
16
73
12
40
0
40
0
40
0
40
0
40
0.111392163185899
40
0.22270923184498
40
0.33395333715946
40
0.445126570129986
40
0.556230981373965
40
0.667268580956504
40
0.778241338253879
40
0.889151181848749
40
1
40
1
40
1
40
1
41
1
10
-1.069846564865
20
1.84470883259419
30
0
41
1
10
-1.07656992742147
20
1.83619560334753
30
0
41
1
10
-1.09001212000976
20
1.8191748840095
30
0
41
1
10
-1.11007894580786
20
1.79372144578235
30
0
41
1
10
-1.13006628704133
20
1.76833645414345
30
0
41
1
10
-1.14996776304321
20
1.74302507599643
30
0
41
1
10
-1.16978494679466
20
1.71778638223103
30
0
41
1
10
-1.18951785475431
20
1.69262057941614
30
0
41
1
10
-1.20916478280526
20
1.66752928746331
30
0
41
1
10
-1.22873245475935
20
1.64250721316901
30
0
41
1
10
-1.24171140233426
20
1.62588135624395
30
0
41
1
10
-1.24819909029284
20
1.61757071540413
30
0
0
SPLINE
5
15B
100
AcDbEntity
8
SK1
62
256
6
ByLayer
370
18
48
1
60
0
100
AcDbSpline
70
4
71
3
72
42
73
38
40
0
40
0
40
0
40
0
40
0.0312500000000029
40
0.0312500000000029
40
0.0625000000000059
40
0.0625000000000059
40
0.125000000000012
40
0.125000000000012
40
0.140625000000011
40
0.140625000000011
40
0.15625000000001
40
0.187500000000008
40
0.218750000000006
40
0.218750000000006
40
0.250000000000004
40
0.250000000000004
40
0.312500000000006
40
0.312500000000006
40
0.343750000000006
40
0.343750000000006
40
0.375000000000007
40
0.375000000000007
40
0.50000000000001
40
0.50000000000001
40
0.531250000000007
40
0.531250000000007
40
0.562500000000003
40
0.625000000000002
40
0.687500000000001
40
0.687500000000001
40
0.75
40
0.75
40
0.812499999999998
40
0.812499999999998
40
0.874999999999997
40
0.874999999999997
40
1
40
1
40
1
40
1
41
1
10
-4.24829621973686
20
-4.99999466020392
30
0
41
1
10
-4.22079150422132
20
-4.99995129163707
30
0
41
1
10
-4.19181830111441
20
-4.99965021708749
30
0
41
1
10
-4.13150071347033
20
-4.9987133183414
30
0
41
1
10
-4.10015301786081
20
-4.99807642190174
30
0
41
1
10
-4.0031132107525
20
-4.9958436900036
30
0
41
1
10
-3.93445501368009
20
-4.9939350167634
30
0
41
1
10
-3.84482253511851
20
-4.99140273236438
30
0
41
1
10
-3.82668534873605
20
-4.99088763866067
30
0
41
1
10
-3.79023719590217
20
-4.9898533163462
30
0
41
1
10
-3.73524195801815
20
-4.98829371475807
30
0
41
1
10
-3.64208177979208
20
-4.98569793300015
30
0
41
1
10
-3.56613538428235
20
-4.98369585221457
30
0
41
1
10
-3.48954865181386
20
-4.9817574249999
30
0
41
1
10
-3.45090178581518
20
-4.98081927520923
30
0
41
1
10
-3.33453091402222
20
-4.97814015649618
30
0
41
1
10
-3.25626329971399
20
-4.97653294176391
30
0
41
1
10
-3.13798705936182
20
-4.97445729040058
30
0
41
1
10
-3.09838692356135
20
-4.97382040033008
30
0
41
1
10
-3.01904851311934
20
-4.9726658790575
30
0
41
1
10
-2.97934016862467
20
-4.97214856785669
30
0
41
1
10
-2.78061544023385
20
-4.96986760229208
30
0
41
1
10
-2.62105673473846
20
-4.96903452819308
30
0
41
1
10
-2.42100470921784
20
-4.96916900137674
30
0
41
1
10
-2.38093880013781
20
-4.96925398829057
30
0
41
1
10
-2.30091471308538
20
-4.96953453042974
30
0
41
1
10
-2.18101811932695
20
-4.97012072858718
30
0
41
1
10
-1.98186306139445
20
-4.9718753884855
30
0
41
1
10
-1.82321797189792
20
-4.97397683287585
30
0
41
1
10
-1.66489894509348
20
-4.97634692430736
30
0
41
1
10
-1.58596162766071
20
-4.97766554030432
30
0
41
1
10
-1.42891407706611
20
-4.98046640238795
30
0
41
1
10
-1.35074420865652
20
-4.98194952047874
30
0
41
1
10
-1.19508794396705
20
-4.98497165689767
30
0
41
1
10
-1.1175542255593
20
-4.98651159296929
30
0
41
1
10
-0.886455727730493
20
-4.99102287199926
30
0
41
1
10
-0.734309108527071
20
-4.99389179146547
30
0
41
1
10
-0.583957568822456
20
-4.99607859825662
30
0
0
SPLINE
5
15C
100
AcDbEntity
8
SK1
62
256
6
ByLayer
370
18
48
1
60
0
100
AcDbSpline
70
4
71
3
72
14
73
10
40
0
40
0
40
0
40
0
40
0.25
40
0.25
40
0.5
40
0.5
40
0.75
40
0.75
40
1
40
1
40
1
40
1
41
1
10
-1.29956064138736
20
-4.91712965166587
30
0
41
1
10
-1.1912985144495
20
-4.93111616997206
30
0
41
1
10
-1.08301136245524
20
-4.94333245697297
30
0
41
1
10
-0.866631845911911
20
-4.96427160227998
30
0
41
1
10
-0.758598591420736
20
-4.97299779774008
30
0
41
1
10
-0.542350467821791
20
-4.98685608829726
30
0
41
1
10
-0.434112213482422
20
-4.99198878146547
30
0
41
1
10
-0.217243964227265
20
-4.99866684031397
30
0
41
1
10
-0.10859029695726
20
-5.00021469334163
30
0
41
1
10
1.137E-13
20
-4.99997612645012
30
0
0
SPLINE
5
15D
100
AcDbEntity
8
SK1
62
256
6
ByLayer
370
13
48
1
60
0
100
AcDbSpline
70
4
71
3
72
9
73
5
40
0
40
0
40
0
40
0
40
0.499840827409296
40
1
40
1
40
1
40
1
41
1
10
-1.29956065519514
20
-4.91712965568883
30
0
41
1
10
-1.29644160810881
20
-4.91621928259462
30
0
41
1
10
-1.29020152743658
20
-4.91439795659588
30
0
41
1
10
-1.28395068482558
20
-4.91262144343125
30
0
41
1
10
-1.28082426855724
20
-4.91173290407673
30
0
0
SPLINE
5
15E
100
AcDbEntity
8
SK1
62
256
6
ByLayer
370
18
48
1
60
0
100
AcDbSpline
70
4
71
3
72
10
73
6
40
0
40
0
40
0
40
0
40
0.5
40
0.5
40
1
40
1
40
1
40
1
41
1
10
-1.2823518888946
20
-4.91205625279096
30
0
41
1
10
-1.27841644571063
20
-4.90136755687163
30
0
41
1
10
-1.26927430854386
20
-4.88986754481707
30
0
41
1
10
-1.24068036822018
20
-4.86543743559142
30
0
41
1
10
-1.22133797100514
20
-4.85262761318097
30
0
41
1
10
-1.19748870444252
20
-4.83951334772343
30
0
0
SPLINE
5
15F
100
AcDbEntity
8
SK1
62
256
6
ByLayer
370
18
48
1
60
0
100
AcDbSpline
70
4
71
3
72
15
73
11
40
0
40
0
40
0
40
0
40
0.499999999999993
40
0.499999999999993
40
0.624999999999992
40
0.624999999999992
40
0.687499999999992
40
0.687499999999992
40
0.749999999999992
40
1
40
1
40
1
40
1
41
1
10
-1.19748870444158
20
-4.83951334772323
30
0
41
1
10
-1.2207583231058
20
-4.81025589370742
30
0
41
1
10
-1.22970316457594
20
-4.77699182973012
30
0
41
1
10
-1.22176063744729
20
-4.73027465159603
30
0
41
1
10
-1.21920847407984
20
-4.72067395316608
30
0
41
1
10
-1.21388732364778
20
-4.70588327304867
30
0
41
1
10
-1.21186138464594
20
-4.7008827276799
30
0
41
1
10
-1.20734193479629
20
-4.69083161862631
30
0
41
1
10
-1.19485874638272
20
-4.66553375024074
30
0
41
1
10
-1.17656803630595
20
-4.63942181917864
30
0
41
1
10
-1.15838916888356
20
-4.61810040478423
30
0
0
SPLINE
5
160
100
AcDbEntity
8
SK1
62
256
6
ByLayer
370
18
48
1
60
0
100
AcDbSpline
70
4
71
3
72
28
73
24
40
0
40
0
40
0
40
0
40
0.249999999999949
40
0.249999999999949
40
0.374999999999924
40
0.374999999999924
40
0.499999999999899
40
0.499999999999899
40
0.562499999999897
40
0.562499999999897
40
0.624999999999895
40
0.624999999999895
40
0.687499999999894
40
0.687499999999894
40
0.749999999999892
40
0.749999999999892
40
0.781249999999914
40
0.781249999999914
40
0.812499999999936
40
0.812499999999936
40
0.87499999999998
40
0.87499999999998
40
1
40
1
40
1
40
1
41
1
10
-3.79607751914207
20
-3.43910274440705
30
0
41
1
10
-3.81338060446671
20
-3.42552723369789
30
0
41
1
10
-3.82993779659216
20
-3.41144483098793
30
0
41
1
10
-3.85262328686636
20
-3.38892183758881
30
0
41
1
10
-3.85983998768663
20
-3.38115265058798
30
0
41
1
10
-3.87294313225129
20
-3.3650423172769
30
0
41
1
10
-3.87889422672976
20
-3.35666266028571
30
0
41
1
10
-3.88590527081701
20
-3.34344324751268
30
0
41
1
10
-3.88790200154082
20
-3.33895576471886
30
0
41
1
10
-3.89088265044637
20
-3.32974460098308
30
0
41
1
10
-3.89187118262674
20
-3.3249704867676
30
0
41
1
10
-3.8921569216354
20
-3.31545025840265
30
0
41
1
10
-3.89142920918897
20
-3.31059414285238
30
0
41
1
10
-3.88761633709208
20
-3.30148799502501
30
0
41
1
10
-3.88445168014422
20
-3.29716954792036
30
0
41
1
10
-3.87826554033362
20
-3.2917017728769
30
0
41
1
10
-3.87593551019481
20
-3.29000669087148
30
0
41
1
10
-3.87097637691926
20
-3.28696548075206
30
0
41
1
10
-3.86835285144676
20
-3.28561461074921
30
0
41
1
10
-3.86013651889837
20
-3.28197045532983
30
0
41
1
10
-3.85416549690973
20
-3.28008033418902
30
0
41
1
10
-3.83604811149274
20
-3.27568020712903
30
0
41
1
10
-3.82338774061921
20
-3.27426500720387
30
0
41
1
10
-3.81064969205673
20
-3.27359248925237
30
0
0
SPLINE
5
161
100
AcDbEntity
8
SK1
62
256
6
ByLayer
370
18
48
1
60
0
100
AcDbSpline
70
4
71
3
72
32
73
28
40
0
40
0
40
0
40
0
40
0.124999999999996
40
0.124999999999996
40
0.187499999999993
40
0.187499999999993
40
0.249999999999991
40
0.249999999999991
40
0.312499999999989
40
0.312499999999989
40
0.374999999999987
40
0.374999999999987
40
0.499999999999982
40
0.499999999999982
40
0.562499999999984
40
0.562499999999984
40
0.624999999999987
40
0.624999999999987
40
0.687499999999989
40
0.687499999999989
40
0.749999999999992
40
0.749999999999992
40
0.812499999999994
40
0.812499999999994
40
0.874999999999997
40
0.874999999999997
40
1
40
1
40
1
40
1
41
1
10
-3.8106496920567
20
-3.27359248925242
30
0
41
1
10
-3.76085653030191
20
-3.27096360972047
30
0
41
1
10
-3.71144070359355
20
-3.26654371658407
30
0
41
1
10
-3.63813533061887
20
-3.25599600764937
30
0
41
1
10
-3.61382915381046
20
-3.25181878088145
30
0
41
1
10
-3.56559522122313
20
-3.24181745990737
30
0
41
1
10
-3.54193350921227
20
-3.23604747503975
30
0
41
1
10
-3.4956915816951
20
-3.22266298774468
30
0
41
1
10
-3.47311062344548
20
-3.21504993716573
30
0
41
1
10
-3.42925619375799
20
-3.19756887566567
30
0
41
1
10
-3.40798143494305
20
-3.18770339819099
30
0
41
1
10
-3.34658508618568
20
-3.15386334453353
30
0
41
1
10
-3.31112455367537
20
-3.12683096837475
30
0
41
1
10
-3.26740670241864
20
-3.07849844710518
30
0
41
1
10
-3.2547830735468
20
-3.06149258842453
30
0
41
1
10
-3.23317349646661
20
-3.02599976631311
30
0
41
1
10
-3.22415984402411
20
-3.00748181665807
30
0
41
1
10
-3.20935376075471
20
-2.9689992975137
30
0
41
1
10
-3.20370035824396
20
-2.94939962930715
30
0
41
1
10
-3.19527068602937
20
-2.90978722470305
30
0
41
1
10
-3.19248248845307
20
-2.88973477197746
30
0
41
1
10
-3.1892586080246
20
-2.84917934543134
30
0
41
1
10
-3.18882536254566
20
-2.8286587441176
30
0
41
1
10
-3.18994992173299
20
-2.78726871107398
30
0
41
1
10
-3.19150014536174
20
-2.76657114570142
30
0
41
1
10
-3.19857687073215
20
-2.70442461461957
30
0
41
1
10
-3.20650109967693
20
-2.66291934920881
30
0
41
1
10
-3.2167498213602
20
-2.62126530495956
30
0
0
SPLINE
5
162
100
AcDbEntity
8
SK1
62
256
6
ByLayer
370
18
48
1
60
0
100
AcDbSpline
70
4
71
3
72
17
73
13
40
0
40
0
40
0
40
0
40
0.250000000000004
40
0.250000000000004
40
0.500000000000009
40
0.500000000000009
40
0.562500000000009
40
0.562500000000009
40
0.625000000000009
40
0.750000000000006
40
0.750000000000006
40
1
40
1
40
1
40
1
41
1
10
-3.21674982136022
20
-2.62126530495954
30
0
41
1
10
-3.32943962115434
20
-2.45469736768172
30
0
41
1
10
-3.43102226604842
20
-2.27928656606471
30
0
41
1
10
-3.6139810109018
20
-1.91047376550316
30
0
41
1
10
-3.69536816133956
20
-1.71708350300597
30
0
41
1
10
-3.7854378873086
20
-1.46359259848143
30
0
41
1
10
-3.80287501516389
20
-1.41228008386531
30
0
41
1
10
-3.83656251620653
20
-1.30855743227599
30
0
41
1
10
-3.88506372060374
20
-1.15209900550877
30
0
41
1
10
-3.92773278370311
20
-0.993066506247317
30
0
41
1
10
-4.00583883921681
20
-0.671653992121549
30
0
41
1
10
-4.04831643574806
20
-0.45293440398973
30
0
41
1
10
-4.08205078219191
20
-0.229783653936266
30
0
0
SPLINE
5
163
100
AcDbEntity
8
SK1
62
256
6
ByLayer
370
18
48
1
60
0
100
AcDbSpline
70
4
71
3
72
14
73
10
40
0
40
0
40
0
40
0
40
0.250000000000005
40
0.250000000000005
40
0.375000000000008
40
0.375000000000008
40
0.50000000000001
40
0.50000000000001
40
1
40
1
40
1
40
1
41
1
10
-4.08205078219189
20
-0.229783653936266
30
0
41
1
10
-4.08682111898253
20
-0.198228152049864
30
0
41
1
10
-4.08913596633562
20
-0.166688364032467
30
0
41
1
10
-4.08860550749787
20
-0.119405434060184
30
0
41
1
10
-4.08776055107484
20
-0.103648925904423
30
0
41
1
10
-4.08466647071845
20
-0.0721455189185463
30
0
41
1
10
-4.08240937329339
20
-0.0563573145429928
30
0
41
1
10
-4.06749973533508
20
0.0221108593330825
30
0
41
1
10
-4.04462717451014
20
0.080739936405422
30
0
41
1
10
-4.01196840331215
20
0.135664956186218
30
0
0
SPLINE
5
164
100
AcDbEntity
8
SK1
62
256
6
ByLayer
370
18
48
1
60
0
100
AcDbSpline
70
4
71
3
72
44
73
40
40
0
40
0
40
0
40
0
40
0.0312499999999996
40
0.0312499999999996
40
0.0624999999999992
40
0.0624999999999992
40
0.0937499999999988
40
0.0937499999999988
40
0.109374999999999
40
0.109374999999999
40
0.124999999999998
40
0.124999999999998
40
0.187500000000002
40
0.187500000000002
40
0.250000000000006
40
0.250000000000006
40
0.281250000000008
40
0.281250000000008
40
0.312500000000009
40
0.312500000000009
40
0.375000000000013
40
0.375000000000013
40
0.437500000000017
40
0.437500000000017
40
0.468750000000019
40
0.468750000000019
40
0.500000000000021
40
0.500000000000021
40
0.562500000000019
40
0.562500000000019
40
0.625000000000017
40
0.625000000000017
40
0.750000000000008
40
0.750000000000008
40
0.812500000000006
40
0.812500000000006
40
0.875000000000004
40
0.875000000000004
40
1
40
1
40
1
40
1
41
1
10
-4.01196840331218
20
0.135664956186218
30
0
41
1
10
-3.99195277748498
20
0.169326928273961
30
0
41
1
10
-3.96999835823328
20
0.20115799938813
30
0
41
1
10
-3.92286739793198
20
0.261781589095676
30
0
41
1
10
-3.8976878030702
20
0.290571205586474
30
0
41
1
10
-3.8445605300397
20
0.345543817454825
30
0
41
1
10
-3.81661114211974
20
0.371725188035697
30
0
41
1
10
-3.7728592809662
20
0.409278639743377
30
0
41
1
10
-3.75796987884499
20
0.42150924588131
30
0
41
1
10
-3.72761355805329
20
0.445427836248086
30
0
41
1
10
-3.71211184403035
20
0.457140553168699
30
0
41
1
10
-3.63370683878554
20
0.514076267810964
30
0
41
1
10
-3.56834293501328
20
0.55439484233662
30
0
41
1
10
-3.43370492198022
20
0.627323613273774
30
0
41
1
10
-3.36441529688952
20
0.65990265557167
30
0
41
1
10
-3.25809260266314
20
0.704085036970383
30
0
41
1
10
-3.22225032729895
20
0.718024779969454
30
0
41
1
10
-3.14982648134475
20
0.744456679395313
30
0
41
1
10
-3.11321406117804
20
0.756956237233254
30
0
41
1
10
-3.00298769671625
20
0.792238570103166
30
0
41
1
10
-2.92878548250002
20
0.812896365657139
30
0
41
1
10
-2.779146788746
20
0.849313539840949
30
0
41
1
10
-2.70370905788559
20
0.865067786418962
30
0
41
1
10
-2.58971955752438
20
0.885407265957866
30
0
41
1
10
-2.55156303673993
20
0.891639027463668
30
0
41
1
10
-2.47518600551862
20
0.903018850109163
30
0
41
1
10
-2.43694493754825
20
0.908171132947359
30
0
41
1
10
-2.32207098909737
20
0.922088319303327
30
0
41
1
10
-2.24528772565412
20
0.929317429610535
30
0
41
1
10
-2.09134630662234
20
0.939956035667876
30
0
41
1
10
-2.01411881875839
20
0.943365175402334
30
0
41
1
10
-1.78241879302851
20
0.948103563937877
30
0
41
1
10
-1.62815731616087
20
0.943986888585528
30
0
41
1
10
-1.39705343374879
20
0.927574783486676
30
0
41
1
10
-1.32008723330196
20
0.920386267200712
30
0
41
1
10
-1.16688176624663
20
0.902700971349134
30
0
41
1
10
-1.09056262621146
20
0.89219906839088
30
0
41
1
10
-0.862441187119373
20
0.855785533496174
30
0
41
1
10
-0.711473076965689
20
0.824978188090654
30
0
41
1
10
-0.561607000599537
20
0.787639044778842
30
0
0
SPLINE
5
165
100
AcDbEntity
8
SK1
62
256
6
ByLayer
370
18
48
1
60
0
100
AcDbSpline
70
4
71
3
72
10
73
6
40
0
40
0
40
0
40
0
40
0.5
40
0.5
40
1
40
1
40
1
40
1
41
1
10
-1.2495882756277
20
1.61874604293104
30
0
41
1
10
-1.24338389949114
20
1.67120009453797
30
0
41
1
10
-1.23230332666722
20
1.72242919661397
30
0
41
1
10
-1.20044244311566
20
1.8223971119474
30
0
41
1
10
-1.17978301387308
20
1.87064742076299
30
0
41
1
10
-1.15488557151195
20
1.91675228784962
30
0
0
SPLINE
5
166
100
AcDbEntity
8
SK1
62
256
6
ByLayer
370
18
48
1
60
0
100
AcDbSpline
70
4
71
3
72
15
73
11
40
0
40
0
40
0
40
0
40
0.500000000000013
40
0.500000000000013
40
0.625000000000016
40
0.625000000000016
40
0.687500000000015
40
0.687500000000015
40
0.750000000000013
40
1
40
1
40
1
40
1
41
1
10
-1.1548855715113
20
1.91675228784908
30
0
41
1
10
-1.1730932020622
20
2.02170609975013
30
0
41
1
10
-1.17776746565525
20
2.12499611202975
30
0
41
1
10
-1.16544907165007
20
2.25203401156307
30
0
41
1
10
-1.16207045279953
20
2.27733774001857
30
0
41
1
10
-1.15558409040508
20
2.31513728773481
30
0
41
1
10
-1.1531806334155
20
2.32773092475995
30
0
41
1
10
-1.14793206022338
20
2.35268633066428
30
0
41
1
10
-1.13369398424132
20
2.41457938959599
30
0
41
1
10
-1.11397310582078
20
2.47405292904125
30
0
41
1
10
-1.09483277678388
20
2.52018744305642
30
0
0
SPLINE
5
167
100
AcDbEntity
8
SK1
62
256
6
ByLayer
370
18
48
1
60
0
100
AcDbSpline
70
4
71
3
72
34
73
30
40
0
40
0
40
0
40
0
40
0.250000000000027
40
0.250000000000027
40
0.375000000000041
40
0.375000000000041
40
0.500000000000054
40
0.500000000000054
40
0.562500000000053
40
0.562500000000053
40
0.625000000000051
40
0.625000000000051
40
0.656250000000048
40
0.656250000000048
40
0.687500000000045
40
0.687500000000045
40
0.718750000000042
40
0.718750000000042
40
0.750000000000039
40
0.750000000000039
40
0.781250000000036
40
0.781250000000036
40
0.812500000000033
40
0.812500000000033
40
0.875000000000022
40
0.875000000000022
40
0.937500000000011
40
0.937500000000011
40
1
40
1
40
1
40
1
41
1
10
-3.53846217058509
20
4.05492396089744
30
0
41
1
10
-3.55460779994283
20
4.06590685518185
30
0
41
1
10
-3.56999910663541
20
4.07712938604425
30
0
41
1
10
-3.59096984555856
20
4.0947083310237
30
0
41
1
10
-3.59761691483095
20
4.10070880062358
30
0
41
1
10
-3.60970361233683
20
4.11306220167938
30
0
41
1
10
-3.61516374329901
20
4.11941481760792
30
0
41
1
10
-3.62159097960509
20
4.12925847901556
30
0
41
1
10
-3.62342539875468
20
4.13257794458556
30
0
41
1
10
-3.62620433838592
20
4.13933290963905
30
0
41
1
10
-3.62715794150381
20
4.14280433621394
30
0
41
1
10
-3.62750553093284
20
4.14800543148624
30
0
41
1
10
-3.62744111910911
20
4.14973427812367
30
0
41
1
10
-3.62686729999928
20
4.15318116445044
30
0
41
1
10
-3.62634931882764
20
4.15491130760952
30
0
41
1
10
-3.62481217873972
20
4.15824288656762
30
0
41
1
10
-3.62379439381453
20
4.15985513430994
30
0
41
1
10
-3.62120670555419
20
4.16296235473649
30
0
41
1
10
-3.61961125226068
20
4.16447381590581
30
0
41
1
10
-3.61596204299499
20
4.16725551056081
30
0
41
1
10
-3.61391194789596
20
4.1685331447197
30
0
41
1
10
-3.60940156390095
20
4.17088350216122
30
0
41
1
10
-3.60692336601397
20
4.17196040270755
30
0
41
1
10
-3.59920426345332
20
4.17481924664403
30
0
41
1
10
-3.59360068338924
20
4.17628377807799
30
0
41
1
10
-3.5818731037262
20
4.17860422755524
30
0
41
1
10
-3.57589005204656
20
4.17943413133477
30
0
41
1
10
-3.56377106634267
20
4.18067195960126
30
0
41
1
10
-3.55763382472529
20
4.18107621508949
30
0
41
1
10
-3.5514407074827
20
4.18132649479932
30
0
0
SPLINE
5
168
100
AcDbEntity
8
SK1
62
256
6
ByLayer
370
18
48
1
60
0
100
AcDbSpline
70
4
71
3
72
36
73
32
40
0
40
0
40
0
40
0
40
0.124999999999987
40
0.124999999999987
40
0.187499999999981
40
0.187499999999981
40
0.249999999999975
40
0.249999999999975
40
0.374999999999983
40
0.374999999999983
40
0.406249999999989
40
0.406249999999989
40
0.437499999999995
40
0.437499999999995
40
0.499999999999989
40
0.562499999999984
40
0.562499999999984
40
0.593749999999981
40
0.593749999999981
40
0.624999999999978
40
0.687499999999973
40
0.687499999999973
40
0.718749999999974
40
0.718749999999974
40
0.749999999999974
40
0.749999999999974
40
0.874999999999987
40
0.874999999999987
40
0.937499999999994
40
0.937499999999994
40
1
40
1
40
1
40
1
41
1
10
-3.5514407074827
20
4.18132649479932
30
0
41
1
10
-3.51105461092675
20
4.18295860026933
30
0
41
1
10
-3.47097145995855
20
4.1855770625809
30
0
41
1
10
-3.41146494757456
20
4.19149272453802
30
0
41
1
10
-3.39173321862057
20
4.19379808349788
30
0
41
1
10
-3.35251772020737
20
4.19919782364607
30
0
41
1
10
-3.33300407641036
20
4.20230121422117
30
0
41
1
10
-3.27580244509008
20
4.21284881467395
30
0
41
1
10
-3.2391694403982
20
4.22154919496313
30
0
41
1
10
-3.19590433528001
20
4.23512619280646
30
0
41
1
10
-3.1873788380953
20
4.23797763972328
30
0
41
1
10
-3.17060476794543
20
4.24397246105181
30
0
41
1
10
-3.16232462671582
20
4.24712907713933
30
0
41
1
10
-3.13819276246895
20
4.25696349291991
30
0
41
1
10
-3.10799985581494
20
4.27099526818131
30
0
41
1
10
-3.08188518702178
20
4.28684249063838
30
0
41
1
10
-3.06386938160676
20
4.29939383776326
30
0
41
1
10
-3.05810654727549
20
4.30370523571833
30
0
41
1
10
-3.04725039414385
20
4.31242967553746
30
0
41
1
10
-3.031936174028
20
4.32568580914915
30
0
41
1
10
-3.01936824700783
20
4.33939416371459
30
0
41
1
10
-3.00844498135069
20
4.35333827883247
30
0
41
1
10
-3.00507834725903
20
4.35802570968792
30
0
41
1
10
-2.9988667952382
20
4.36746951209909
30
0
41
1
10
-2.99601900307459
20
4.3722337093547
30
0
41
1
10
-2.9831516759879
20
4.39593994893329
30
0
41
1
10
-2.97703962322942
20
4.41473234699626
30
0
41
1
10
-2.97229628418023
20
4.44252042856746
30
0
41
1
10
-2.97146450214814
20
4.45171720538636
30
0
41
1
10
-2.97109815876269
20
4.46996281231466
30
0
41
1
10
-2.97156655325611
20
4.47902135516745
30
0
41
1
10
-2.97259700038205
20
4.48794861005027
30
0
0
SPLINE
5
169
100
AcDbEntity
8
SK1
62
256
6
ByLayer
370
18
48
1
60
0
100
AcDbSpline
70
4
71
3
72
18
73
14
40
0
40
0
40
0
40
0
40
0.271568628101073
40
0.271568628101073
40
0.543137256202146
40
0.543137256202146
40
0.611029413227417
40
0.611029413227417
40
0.678921570252688
40
0.678921570252688
40
0.814705884303229
40
0.814705884303229
40
1
40
1
40
1
40
1
41
1
10
-2.97259700038208
20
4.48794861005027
30
0
41
1
10
-3.09565840544522
20
4.57241165500005
30
0
41
1
10
-3.20896611701744
20
4.64850492978206
30
0
41
1
10
-3.41756797605268
20
4.78111724761624
30
0
41
1
10
-3.51287044254656
20
4.83764931193318
30
0
41
1
10
-3.62155185948251
20
4.89387839091191
30
0
41
1
10
-3.64276493506429
20
4.90440004063052
30
0
41
1
10
-3.68416059481882
20
4.92392871187292
30
0
41
1
10
-3.70436642009776
20
4.93294382545668
30
0
41
1
10
-3.76306906430264
20
4.95745631191218
30
0
41
1
10
-3.79977576432333
20
4.97048561095235
30
0
41
1
10
-3.88122209882954
20
4.99321257741374
30
0
41
1
10
-3.92402815658898
20
4.99998300957566
30
0
41
1
10
-3.96291795809827
20
5.00000776939112
30
0
0
SPLINE
5
16A
100
AcDbEntity
8
SK1
62
256
6
ByLayer
370
18
48
1
60
0
100
AcDbSpline
70
4
71
3
72
40
73
36
40
0
40
0
40
0
40
0
40
0.0009157618289093
40
0.0009157618289093
40
0.0675213777069653
40
0.0675213777069653
40
0.0841727816764793
40
0.0841727816764793
40
0.100824185645993
40
0.134126993585027
40
0.134126993585027
40
0.200732609463099
40
0.200732609463099
40
0.267338225341172
40
0.267338225341172
40
0.300641033280211
40
0.300641033280211
40
0.333943841219251
40
0.333943841219251
40
0.400549457097329
40
0.400549457097329
40
0.433852265036365
40
0.433852265036365
40
0.467155072975402
40
0.467155072975402
40
0.600366304731547
40
0.600366304731547
40
0.666971920609622
40
0.666971920609622
40
0.733577536487698
40
0.800183152365773
40
0.800183152365773
40
0.866788768243849
40
0.866788768243849
40
1
40
1
40
1
40
1
41
1
10
-3.80572162323537
20
4.96199304448515
30
0
41
1
10
-3.8049267319555
20
4.96191303199854
30
0
41
1
10
-3.8041310257741
20
4.96183301716968
30
0
41
1
10
-3.74540183184095
20
4.95593321262254
30
0
41
1
10
-3.68320623441727
20
4.95011041076299
30
0
41
1
10
-3.60123057837805
20
4.94308635770852
30
0
41
1
10
-3.58463677531401
20
4.9416952765572
30
0
41
1
10
-3.55130051242682
20
4.93896311564424
30
0
41
1
10
-3.50097779250771
20
4.93493159978357
30
0
41
1
10
-3.44977011593181
20
4.93111048184306
30
0
41
1
10
-3.34631671361731
20
4.92376941260454
30
0
41
1
10
-3.27597110755454
20
4.91927794274346
30
0
41
1
10
-3.1330216802582
20
4.91117276186534
30
0
41
1
10
-3.06041386778486
20
4.90755849029063
30
0
41
1
10
-2.9500232826872
20
4.90282803354555
30
0
41
1
10
-2.91300461894986
20
4.90136772001617
30
0
41
1
10
-2.83891168352554
20
4.89869362964754
30
0
41
1
10
-2.80178596511087
20
4.897477573852
30
0
41
1
10
-2.69018617401164
20
4.89418748137106
30
0
41
1
10
-2.61549021353648
20
4.89247168465232
30
0
41
1
10
-2.50304536117233
20
4.89059217774246
30
0
41
1
10
-2.46549671798368
20
4.89008133454098
30
0
41
1
10
-2.39027051249488
20
4.88928672374041
30
0
41
1
10
-2.35257094080953
20
4.88900296847532
30
0
41
1
10
-2.16426270880268
20
4.88814137747849
30
0
41
1
10
-2.01391470458742
20
4.88923324189727
30
0
41
1
10
-1.78878912105705
20
4.89313960585295
30
0
41
1
10
-1.7137927385362
20
4.89482051616852
30
0
41
1
10
-1.56456219677779
20
4.8988376565807
30
0
41
1
10
-1.41593198287512
20
4.90351228119007
30
0
41
1
10
-1.26845501443086
20
4.90930342840173
30
0
41
1
10
-1.12153730779943
20
4.91554429701833
30
0
41
1
10
-1.04844114352986
20
4.91888631150061
30
0
41
1
10
-0.830699178446991
20
4.92936888943876
30
0
41
1
10
-0.68739331856483
20
4.93697906955069
30
0
41
1
10
-0.545830939496057
20
4.94466327670321
30
0
0
SPLINE
5
16B
100
AcDbEntity
8
SK1
62
256
6
ByLayer
370
18
48
1
60
0
100
AcDbSpline
70
4
71
3
72
8
73
4
40
0
40
0
40
0
40
0
40
1
40
1
40
1
40
1
41
1
10
-4.132346E-09
20
0.687351313628426
30
0
41
1
10
-4.132346E-09
20
0.674192162967557
30
0
41
1
10
2.84E-14
20
0.66103302051684
30
0
41
1
10
2.84E-14
20
0.647873886301511
30
0
0
SPLINE
5
16C
100
AcDbEntity
8
SK1
62
256
6
ByLayer
370
18
48
1
60
0
100
AcDbSpline
70
4
71
3
72
12
73
8
40
0
40
0
40
0
40
0
40
0.0107990277856026
40
0.269391340655735
40
0.527983653525867
40
0.786575966395999
40
1
40
1
40
1
40
1
41
1
10
-1.24819909029313
20
1.6175707154043
30
0
41
1
10
-1.2436990539465
20
1.61430383856077
30
0
41
1
10
-1.13144357073369
20
1.53278125680936
30
0
41
1
10
-0.911526227985291
20
1.37167109336016
30
0
41
1
10
-0.588653164279378
20
1.13176269761746
30
0
41
1
10
-0.284816159856803
20
0.903382509892793
30
0
41
1
10
-0.0886627782156211
20
0.754732003438875
30
0
41
1
10
-8.264692E-09
20
0.687351313628426
30
0
0
SPLINE
5
16D
100
AcDbEntity
8
SK1
62
256
6
ByLayer
370
13
48
1
60
0
100
AcDbSpline
70
4
71
3
72
8
73
4
40
0
40
0
40
0
40
0
40
1
40
1
40
1
40
1
41
1
10
-1.2673199879807
20
1.5938257053979
30
0
41
1
10
-1.26140941597572
20
1.60213988020135
30
0
41
1
10
-1.25549884397071
20
1.61044669688141
30
0
41
1
10
-1.24958827196573
20
1.61874604038999
30
0
0
SPLINE
5
16E
100
AcDbEntity
8
SK1
62
256
6
ByLayer
370
18
48
1
60
0
100
AcDbSpline
70
4
71
3
72
14
73
10
40
0
40
0
40
0
40
0
40
0.25
40
0.25
40
0.5
40
0.5
40
0.75
40
0.75
40
1
40
1
40
1
40
1
41
1
10
0
20
0.647873886301312
30
0
41
1
10
-0.105987864268116
20
0.728138419624173
30
0
41
1
10
-0.212058935473351
20
0.808102960745032
30
0
41
1
10
-0.4235386309484
20
0.967744616496759
30
0
41
1
10
-0.52899616479155
20
1.04736300757133
30
0
41
1
10
-0.739801271124293
20
1.20560660385991
30
0
41
1
10
-0.845139335843015
20
1.28424410343007
30
0
41
1
10
-1.05609022104772
20
1.44004936146561
30
0
41
1
10
-1.16166985380824
20
1.51726025739285
30
0
41
1
10
-1.26732203803934
20
1.59382283634358
30
0
0
LINE
5
77
100
AcDbEntity
8
80
62
256
6
ByLayer
370
18
48
1
60
0
100
AcDbLine
10
0
20
0
30
0
11
-5
21
0
31
0
39
0
210
0
220
0
230
1
0
LINE
5
78
100
AcDbEntity
8
4
62
256
6
ByLayer
370
18
48
0.05
60
0
100
AcDbLine
10
0
20
0
30
0
11
22
21
0
31
0
39
0
210
0
220
0
230
1
0
LINE
5
7A
100
AcDbEntity
8
81
62
256
6
ByLayer
370
18
48
1
60
0
100
AcDbLine
10
22
20
0
30
0
11
27
21
0
31
0
39
0
210
0
220
0
230
1
0
LINE
5
7B
100
AcDbEntity
8
SK4
62
256
6
ByLayer
370
18
48
0.05
60
0
100
AcDbLine
10
-50
20
0
30
0
11
22
21
0
31
0
39
0
210
0
220
0
230
1
0
LINE
5
7D
100
AcDbEntity
8
SK1
62
256
6
ByLayer
370
18
48
1
60
0
100
AcDbLine
10
-6.2E-05
20
-2.554654
30
0
11
0.011739
21
-2.54777
31
0
39
0
210
0
220
0
230
1
0
LINE
5
7F
100
AcDbEntity
8
SK1
62
256
6
ByLayer
370
18
48
1
60
0
100
AcDbLine
10
0.001695
20
2.752252
30
0
11
-3.435894
21
4.790647
31
0
39
0
210
0
220
0
230
1
0
LINE
5
80
100
AcDbEntity
8
SK1
62
256
6
ByLayer
370
18
48
1
60
0
100
AcDbLine
10
-50
20
-4.4
30
0
11
-49.4
21
-5
31
0
39
0
210
0
220
0
230
1
0
LINE
5
81
100
AcDbEntity
8
SK1
62
256
6
ByLayer
370
18
48
1
60
0
100
AcDbLine
10
-49.4
20
5
30
0
11
-50
21
4.4
31
0
39
0
210
0
220
0
230
1
0
LINE
5
82
100
AcDbEntity
8
SK1
62
256
6
ByLayer
370
18
48
1
60
0
100
AcDbLine
10
-3.958708
20
5
30
0
11
-25
21
5
31
0
39
0
210
0
220
0
230
1
0
LINE
5
83
100
AcDbEntity
8
SK1
62
256
6
ByLayer
370
18
48
1
60
0
100
AcDbLine
10
-35
20
5
30
0
11
-49.4
21
5
31
0
39
0
210
0
220
0
230
1
0
LINE
5
84
100
AcDbEntity
8
SK1
62
256
6
ByLayer
370
18
48
1
60
0
100
AcDbLine
10
-49.4
20
-5
30
0
11
-4.246097
21
-5
31
0
39
0
210
0
220
0
230
1
0
LINE
5
85
100
AcDbEntity
8
1
62
256
6
ByLayer
370
18
48
1
60
0
100
AcDbLine
10
0
20
-4.278788
30
0
11
0
21
-4.116501
31
0
39
0
210
0
220
0
230
1
0
LINE
5
86
100
AcDbEntity
8
1
62
256
6
ByLayer
370
18
48
1
60
0
100
AcDbLine
10
0
20
-4.624123
30
0
11
0
21
-4.278788
31
0
39
0
210
0
220
0
230
1
0
LINE
5
87
100
AcDbEntity
8
1
62
256
6
ByLayer
370
18
48
1
60
0
100
AcDbLine
10
0
20
-4.116501
30
0
11
0
21
-3.332804
31
0
39
0
210
0
220
0
230
1
0
LINE
5
88
100
AcDbEntity
8
1
62
256
6
ByLayer
370
18
48
1
60
0
100
AcDbLine
10
0
20
-3.332804
30
0
11
0
21
-1.132726
31
0
39
0
210
0
220
0
230
1
0
LINE
5
89
100
AcDbEntity
8
1
62
256
6
ByLayer
370
18
48
1
60
0
100
AcDbLine
10
0
20
-1.132726
30
0
11
0
21
-0.751775
31
0
39
0
210
0
220
0
230
1
0
LINE
5
8A
100
AcDbEntity
8
1
62
256
6
ByLayer
370
18
48
1
60
0
100
AcDbLine
10
0
20
2.753223
30
0
11
0
21
2.725281
31
0
39
0
210
0
220
0
230
1
0
LINE
5
8B
100
AcDbEntity
8
1
62
256
6
ByLayer
370
18
48
1
60
0
100
AcDbLine
10
0
20
2.075421
30
0
11
0
21
2.725281
31
0
39
0
210
0
220
0
230
1
0
LINE
5
8C
100
AcDbEntity
8
1
62
256
6
ByLayer
370
18
48
1
60
0
100
AcDbLine
10
0
20
1.956714
30
0
11
0
21
2.075421
31
0
39
0
210
0
220
0
230
1
0
LINE
5
8D
100
AcDbEntity
8
1
62
256
6
ByLayer
370
18
48
1
60
0
100
AcDbLine
10
0
20
2.753229
30
0
11
0
21
4.621001
31
0
39
0
210
0
220
0
230
1
0
LINE
5
8E
100
AcDbEntity
8
1
62
256
6
ByLayer
370
18
48
1
60
0
100
AcDbLine
10
0
20
-0.751775
30
0
11
0
21
0.64639
31
0
39
0
210
0
220
0
230
1
0
LINE
5
8F
100
AcDbEntity
8
1
62
256
6
ByLayer
370
18
48
1
60
0
100
AcDbLine
10
0
20
1.906949
30
0
11
0
21
1.956714
31
0
39
0
210
0
220
0
230
1
0
LINE
5
90
100
AcDbEntity
8
1
62
256
6
ByLayer
370
18
48
1
60
0
100
AcDbLine
10
0
20
4.621001
30
0
11
0
21
4.970275
31
0
39
0
210
0
220
0
230
1
0
LINE
5
91
100
AcDbEntity
8
1
62
256
6
ByLayer
370
18
48
1
60
0
100
AcDbLine
10
0
20
0.647806
30
0
11
0
21
0.647874
31
0
39
0
210
0
220
0
230
1
0
LINE
5
92
100
AcDbEntity
8
1
62
256
6
ByLayer
370
18
48
1
60
0
100
AcDbLine
10
21.912912
20
-0.362647
30
0
11
21.879521
21
-0.450171
31
0
39
0
210
0
220
0
230
1
0
LINE
5
93
100
AcDbEntity
8
1
62
256
6
ByLayer
370
18
48
1
60
0
100
AcDbLine
10
21.99494
20
0.289082
30
0
11
21.990168
21
0.25117
31
0
39
0
210
0
220
0
230
1
0
LINE
5
94
100
AcDbEntity
8
1
62
256
6
ByLayer
370
18
48
1
60
0
100
AcDbLine
10
21.979207
20
0.164083
30
0
11
21.912912
21
-0.362647
31
0
39
0
210
0
220
0
230
1
0
LINE
5
95
100
AcDbEntity
8
1
62
256
6
ByLayer
370
18
48
1
60
0
100
AcDbLine
10
21.912912
20
-0.362647
30
0
11
21.877859
21
-0.387403
31
0
39
0
210
0
220
0
230
1
0
LINE
5
96
100
AcDbEntity
8
1
62
256
6
ByLayer
370
18
48
1
60
0
100
AcDbLine
10
21.985399
20
0.288424
30
0
11
21.99494
21
0.289082
31
0
39
0
210
0
220
0
230
1
0
LINE
5
97
100
AcDbEntity
8
1
62
256
6
ByLayer
370
18
48
1
60
0
100
AcDbLine
10
21.986195
20
0.282208
30
0
11
21.99494
21
0.289082
31
0
39
0
210
0
220
0
230
1
0
LINE
5
98
100
AcDbEntity
8
1
62
256
6
ByLayer
370
18
48
1
60
0
100
AcDbLine
10
21.872855
20
-0.19855
30
0
11
21.891581
21
-0.02095
31
0
39
0
210
0
220
0
230
1
0
LINE
5
99
100
AcDbEntity
8
1
62
256
6
ByLayer
370
18
48
1
60
0
100
AcDbLine
10
21.8089
20
4.984615
30
0
11
21.99494
21
4.800668
31
0
39
0
210
0
220
0
230
1
0
LINE
5
9A
100
AcDbEntity
8
1
62
256
6
ByLayer
370
18
48
1
60
0
100
AcDbLine
10
21.891621
20
0.91119
30
0
11
21.99494
21
4.800668
31
0
39
0
210
0
220
0
230
1
0
LINE
5
9B
100
AcDbEntity
8
1
62
256
6
ByLayer
370
18
48
1
60
0
100
AcDbLine
10
21.868151
20
-0.021102
30
0
11
21.99494
21
-4.805208
31
0
39
0
210
0
220
0
230
1
0
LINE
5
9C
100
AcDbEntity
8
1
62
256
6
ByLayer
370
18
48
1
60
0
100
AcDbLine
10
21.845923
20
-0.059777
30
0
11
21.857512
21
-0.021119
31
0
39
0
210
0
220
0
230
1
0
LINE
5
9D
100
AcDbEntity
8
1
62
256
6
ByLayer
370
18
48
1
60
0
100
AcDbLine
10
21.844476
20
-0.058769
30
0
11
21.845923
21
-0.059777
31
0
39
0
210
0
220
0
230
1
0
LINE
5
9E
100
AcDbEntity
8
1
62
256
6
ByLayer
370
18
48
1
60
0
100
AcDbLine
10
21.844562
20
-0.021182
30
0
11
21.844476
21
-0.058769
31
0
39
0
210
0
220
0
230
1
0
LINE
5
9F
100
AcDbEntity
8
1
62
256
6
ByLayer
370
18
48
1
60
0
100
AcDbLine
10
21.827828
20
-0.265498
30
0
11
21.822521
21
-0.021295
31
0
39
0
210
0
220
0
230
1
0
LINE
5
A0
100
AcDbEntity
8
1
62
256
6
ByLayer
370
18
48
1
60
0
100
AcDbLine
10
21.808074
20
-4.990989
30
0
11
21.99494
21
-4.805208
31
0
39
0
210
0
220
0
230
1
0
LINE
5
A1
100
AcDbEntity
8
1
62
256
6
ByLayer
370
18
48
1
60
0
100
AcDbLine
10
21.99494
20
-4.805208
30
0
11
21.912912
21
-4.689803
31
0
39
0
210
0
220
0
230
1
0
LINE
5
A2
100
AcDbEntity
8
1
62
256
6
ByLayer
370
13
48
1
60
0
100
AcDbLine
10
21.607421
20
-0.02235
30
0
11
21.827828
21
-0.265498
31
0
39
0
210
0
220
0
230
1
0
LINE
5
A3
100
AcDbEntity
8
1
62
256
6
ByLayer
370
18
48
1
60
0
100
AcDbLine
10
21.912912
20
-4.689803
30
0
11
21.778538
21
-4.718847
31
0
39
0
210
0
220
0
230
1
0
LINE
5
A4
100
AcDbEntity
8
1
62
256
6
ByLayer
370
18
48
1
60
0
100
AcDbLine
10
21.912912
20
-4.689803
30
0
11
21.817074
21
-1.034712
31
0
39
0
210
0
220
0
230
1
0
LINE
5
A5
100
AcDbEntity
8
1
62
256
6
ByLayer
370
18
48
1
60
0
100
AcDbLine
10
21.000507
20
-2.228841
30
0
11
21.80906
21
-1.046983
31
0
39
0
210
0
220
0
230
1
0
LINE
5
A6
100
AcDbEntity
8
1
62
256
6
ByLayer
370
13
48
1
60
0
100
AcDbLine
10
21.80906
20
-1.046983
30
0
11
19.1967
21
-0.60869
31
0
39
0
210
0
220
0
230
1
0
LINE
5
A7
100
AcDbEntity
8
1
62
256
6
ByLayer
370
18
48
1
60
0
100
AcDbLine
10
21.99494
20
0.213896
30
0
11
21.912912
21
0.854726
31
0
39
0
210
0
220
0
230
1
0
LINE
5
A8
100
AcDbEntity
8
1
62
256
6
ByLayer
370
18
48
1
60
0
100
AcDbLine
10
21.912912
20
0.854726
30
0
11
21.779002
21
1.209408
31
0
39
0
210
0
220
0
230
1
0
LINE
5
A9
100
AcDbEntity
8
1
62
256
6
ByLayer
370
18
48
1
60
0
100
AcDbLine
10
21.808585
20
0.246188
30
0
11
21.99494
21
0.213896
31
0
39
0
210
0
220
0
230
1
0
LINE
5
AA
100
AcDbEntity
8
1
62
256
6
ByLayer
370
13
48
1
60
0
100
AcDbLine
10
19.931458
20
0.227667
30
0
11
21.427092
21
-0.023266
31
0
39
0
210
0
220
0
230
1
0
LINE
5
AB
100
AcDbEntity
8
1
62
256
6
ByLayer
370
18
48
1
60
0
100
AcDbLine
10
21.920813
20
-0.020803
30
0
11
21.427092
21
-0.023266
31
0
39
0
210
0
220
0
230
1
0
LINE
5
AC
100
AcDbEntity
8
1
62
256
6
ByLayer
370
18
48
1
60
0
100
AcDbLine
10
21.920813
20
-0.020803
30
0
11
21.99494
21
0.213896
31
0
39
0
210
0
220
0
230
1
0
LINE
5
AD
100
AcDbEntity
8
SK1
62
256
6
ByLayer
370
18
48
1
60
0
100
AcDbLine
10
0
20
4.970253
30
0
11
0
21
4.621001
31
0
39
0
210
0
220
0
230
1
0
LINE
5
AE
100
AcDbEntity
8
SK1
62
256
6
ByLayer
370
18
48
1
60
0
100
AcDbLine
10
0
20
2.753229
30
0
11
0
21
4.621001
31
0
39
0
210
0
220
0
230
1
0
LINE
5
AF
100
AcDbEntity
8
SK1
62
256
6
ByLayer
370
13
48
1
60
0
100
AcDbLine
10
-0.545831
20
4.944663
30
0
11
0
21
4.621001
31
0
39
0
210
0
220
0
230
1
0
LINE
5
B0
100
AcDbEntity
8
SK1
62
256
6
ByLayer
370
18
48
1
60
0
100
AcDbLine
10
0
20
2.725281
30
0
11
0
21
2.753257
31
0
39
0
210
0
220
0
230
1
0
LINE
5
B1
100
AcDbEntity
8
SK1
62
256
6
ByLayer
370
18
48
1
60
0
100
AcDbLine
10
0
20
-4.278788
30
0
11
0
21
-4.624123
31
0
39
0
210
0
220
0
230
1
0
LINE
5
B2
100
AcDbEntity
8
SK1
62
256
6
ByLayer
370
18
48
1
60
0
100
AcDbLine
10
0
20
-4.278788
30
0
11
0
21
-4.116501
31
0
39
0
210
0
220
0
230
1
0
LINE
5
B3
100
AcDbEntity
8
SK1
62
256
6
ByLayer
370
13
48
1
60
0
100
AcDbLine
10
-3.796078
20
-3.439103
30
0
11
0
21
-4.278788
31
0
39
0
210
0
220
0
230
1
0
LINE
5
B4
100
AcDbEntity
8
SK1
62
256
6
ByLayer
370
18
48
1
60
0
100
AcDbLine
10
0
20
2.075421
30
0
11
0
21
2.725281
31
0
39
0
210
0
220
0
230
1
0
LINE
5
B5
100
AcDbEntity
8
SK1
62
256
6
ByLayer
370
18
48
1
60
0
100
AcDbLine
10
-2.972597
20
4.487949
30
0
11
0
21
2.725281
31
0
39
0
210
0
220
0
230
1
0
LINE
5
B6
100
AcDbEntity
8
SK1
62
256
6
ByLayer
370
18
48
1
60
0
100
AcDbLine
10
0
20
1.956714
30
0
11
0
21
2.075421
31
0
39
0
210
0
220
0
230
1
0
LINE
5
B7
100
AcDbEntity
8
SK1
62
256
6
ByLayer
370
13
48
1
60
0
100
AcDbLine
10
-3.551441
20
4.181326
30
0
11
0
21
2.075421
31
0
39
0
210
0
220
0
230
1
0
LINE
5
B8
100
AcDbEntity
8
SK1
62
256
6
ByLayer
370
18
48
1
60
0
100
AcDbLine
10
0
20
-4.116501
30
0
11
0
21
-3.332804
31
0
39
0
210
0
220
0
230
1
0
LINE
5
B9
100
AcDbEntity
8
SK1
62
256
6
ByLayer
370
13
48
1
60
0
100
AcDbLine
10
-3.81065
20
-3.273592
30
0
11
0
21
-4.116501
31
0
39
0
210
0
220
0
230
1
0
LINE
5
BA
100
AcDbEntity
8
SK1
62
256
6
ByLayer
370
18
48
1
60
0
100
AcDbLine
10
0
20
1.956714
30
0
11
0
21
1.906949
31
0
39
0
210
0
220
0
230
1
0
LINE
5
BB
100
AcDbEntity
8
SK1
62
256
6
ByLayer
370
13
48
1
60
0
100
AcDbLine
10
-3.538462
20
4.054924
30
0
11
0
21
1.956714
31
0
39
0
210
0
220
0
230
1
0
LINE
5
BC
100
AcDbEntity
8
SK1
62
256
6
ByLayer
370
18
48
1
60
0
100
AcDbLine
10
0
20
0.647804
30
0
11
0
21
-0.751775
31
0
39
0
210
0
220
0
230
1
0
LINE
5
BD
100
AcDbEntity
8
SK1
62
256
6
ByLayer
370
18
48
1
60
0
100
AcDbLine
10
-3.21675
20
-2.621265
30
0
11
0
21
-3.332804
31
0
39
0
210
0
220
0
230
1
0
LINE
5
BE
100
AcDbEntity
8
SK1
62
256
6
ByLayer
370
18
48
1
60
0
100
AcDbLine
10
0
20
-3.332804
30
0
11
0
21
-1.132726
31
0
39
0
210
0
220
0
230
1
0
LINE
5
BF
100
AcDbEntity
8
SK1
62
256
6
ByLayer
370
13
48
1
60
0
100
AcDbLine
10
-4.082051
20
-0.229784
30
0
11
0
21
-1.132726
31
0
39
0
210
0
220
0
230
1
0
LINE
5
C0
100
AcDbEntity
8
SK1
62
256
6
ByLayer
370
18
48
1
60
0
100
AcDbLine
10
0
20
-1.132726
30
0
11
0
21
-0.751775
31
0
39
0
210
0
220
0
230
1
0
LINE
5
C1
100
AcDbEntity
8
SK1
62
256
6
ByLayer
370
13
48
1
60
0
100
AcDbLine
10
-4.011968
20
0.135665
30
0
11
0
21
-0.751775
31
0
39
0
210
0
220
0
230
1
0
LINE
5
C2
100
AcDbEntity
8
SK1
62
256
6
ByLayer
370
18
48
1
60
0
100
AcDbLine
10
-50
20
-4.4
30
0
11
-50
21
4.4
31
0
39
0
210
0
220
0
230
1
0
LINE
5
C3
100
AcDbEntity
8
SK1
62
256
6
ByLayer
370
18
48
1
60
0
100
AcDbLine
10
-49.4
20
5
30
0
11
-49.4
21
-5
31
0
39
0
210
0
220
0
230
1
0
LINE
5
C4
100
AcDbEntity
8
SK1
62
256
6
ByLayer
370
18
48
1
60
0
100
AcDbLine
10
0
20
0.647806
30
0
11
0
21
0.647874
31
0
39
0
210
0
220
0
230
1
0
LINE
5
C5
100
AcDbEntity
8
SK1
62
256
6
ByLayer
370
18
48
1
60
0
100
AcDbLine
10
-33.5
20
3.5
30
0
11
-35
21
5
31
0
39
0
210
0
220
0
230
1
0
LINE
5
C6
100
AcDbEntity
8
SK1
62
256
6
ByLayer
370
18
48
1
60
0
100
AcDbLine
10
-25
20
5
30
0
11
-26.5
21
3.5
31
0
39
0
210
0
220
0
230
1
0
LINE
5
C7
100
AcDbEntity
8
SK1
62
256
6
ByLayer
370
18
48
1
60
0
100
AcDbLine
10
-33.5
20
3.5
30
0
11
-26.5
21
3.5
31
0
39
0
210
0
220
0
230
1
0
LINE
5
C8
100
AcDbEntity
8
SK2
62
256
6
ByLayer
370
18
48
1
60
0
100
AcDbLine
10
-57.65
20
5
30
0
11
-57.65
21
-23.056066
31
0
39
0
210
0
220
0
230
1
0
LINE
5
CA
100
AcDbEntity
8
SK2
62
256
6
ByLayer
370
18
48
1
60
0
100
AcDbLine
10
-50.9875
20
5
30
0
11
-59.65
21
5
31
0
39
0
210
0
220
0
230
1
0
LINE
5
CB
100
AcDbEntity
8
SK2
62
256
6
ByLayer
370
18
48
1
60
0
100
AcDbLine
10
-50.9875
20
-5
30
0
11
-59.65
21
-5
31
0
39
0
210
0
220
0
230
1
0
LINE
5
CC
100
AcDbEntity
8
1
62
256
6
ByLayer
370
18
48
1
60
1
100
AcDbLine
10
-57.65
20
5
30
0
11
-57.189216
21
1.500002
31
0
39
0
210
0
220
0
230
1
0
LINE
5
CD
100
AcDbEntity
8
1
62
256
6
ByLayer
370
18
48
1
60
1
100
AcDbLine
10
-57.189216
20
1.500002
30
0
11
-58.110784
21
1.499998
31
0
39
0
210
0
220
0
230
1
0
LINE
5
CE
100
AcDbEntity
8
1
62
256
6
ByLayer
370
18
48
1
60
1
100
AcDbLine
10
-58.110784
20
1.499998
30
0
11
-57.65
21
5
31
0
39
0
210
0
220
0
230
1
0
LINE
5
CF
100
AcDbEntity
8
1
62
256
6
ByLayer
370
18
48
1
60
1
100
AcDbLine
10
-57.65
20
-5
30
0
11
-58.110784
21
-1.500002
31
0
39
0
210
0
220
0
230
1
0
LINE
5
D0
100
AcDbEntity
8
1
62
256
6
ByLayer
370
18
48
1
60
1
100
AcDbLine
10
-58.110784
20
-1.500002
30
0
11
-57.189216
21
-1.499998
31
0
39
0
210
0
220
0
230
1
0
LINE
5
D1
100
AcDbEntity
8
1
62
256
6
ByLayer
370
18
48
1
60
1
100
AcDbLine
10
-57.189216
20
-1.499998
30
0
11
-57.65
21
-5
31
0
39
0
210
0
220
0
230
1
0
LINE
5
D2
100
AcDbEntity
8
2
62
256
6
ByLayer
370
18
48
1
60
0
100
AcDbLine
10
34
20
-5.0001
30
0
11
34
21
23.056166
31
0
39
0
210
0
220
0
230
1
0
LINE
5
D4
100
AcDbEntity
8
2
62
256
6
ByLayer
370
18
48
1
60
0
100
AcDbLine
10
23.5875
20
5.0001
30
0
11
36
21
5.0001
31
0
39
0
210
0
220
0
230
1
0
LINE
5
D5
100
AcDbEntity
8
2
62
256
6
ByLayer
370
18
48
1
60
0
100
AcDbLine
10
23.5875
20
-5.0001
30
0
11
36
21
-5.0001
31
0
39
0
210
0
220
0
230
1
0
LINE
5
D6
100
AcDbEntity
8
1
62
256
6
ByLayer
370
18
48
1
60
1
100
AcDbLine
10
34
20
5.0001
30
0
11
34.460784
21
1.500102
31
0
39
0
210
0
220
0
230
1
0
LINE
5
D7
100
AcDbEntity
8
1
62
256
6
ByLayer
370
18
48
1
60
1
100
AcDbLine
10
34.460784
20
1.500102
30
0
11
33.539216
21
1.500098
31
0
39
0
210
0
220
0
230
1
0
LINE
5
D8
100
AcDbEntity
8
1
62
256
6
ByLayer
370
18
48
1
60
1
100
AcDbLine
10
33.539216
20
1.500098
30
0
11
34
21
5.0001
31
0
39
0
210
0
220
0
230
1
0
LINE
5
D9
100
AcDbEntity
8
1
62
256
6
ByLayer
370
18
48
1
60
1
100
AcDbLine
10
34
20
-5.0001
30
0
11
33.539216
21
-1.500102
31
0
39
0
210
0
220
0
230
1
0
LINE
5
DA
100
AcDbEntity
8
1
62
256
6
ByLayer
370
18
48
1
60
1
100
AcDbLine
10
33.539216
20
-1.500102
30
0
11
34.460784
21
-1.500098
31
0
39
0
210
0
220
0
230
1
0
LINE
5
DB
100
AcDbEntity
8
1
62
256
6
ByLayer
370
18
48
1
60
1
100
AcDbLine
10
34.460784
20
-1.500098
30
0
11
34
21
-5.0001
31
0
39
0
210
0
220
0
230
1
0
LINE
5
DC
100
AcDbEntity
8
2
62
256
6
ByLayer
370
18
48
1
60
0
100
AcDbLine
10
22
20
-35.941594
30
0
11
-50
21
-35.941594
31
0
39
0
210
0
220
0
230
1
0
LINE
5
DD
100
AcDbEntity
8
2
62
256
6
ByLayer
370
18
48
1
60
0
100
AcDbLine
10
-50
20
-5.9875
30
0
11
-50
21
-37.941594
31
0
39
0
210
0
220
0
230
1
0
LINE
5
DE
100
AcDbEntity
8
2
62
256
6
ByLayer
370
18
48
1
60
0
100
AcDbLine
10
22
20
-6.5876
30
0
11
22
21
-37.941594
31
0
39
0
210
0
220
0
230
1
0
LINE
5
DF
100
AcDbEntity
8
1
62
256
6
ByLayer
370
18
48
1
60
1
100
AcDbLine
10
-50
20
-35.941594
30
0
11
-46.500002
21
-35.48081
31
0
39
0
210
0
220
0
230
1
0
LINE
5
E0
100
AcDbEntity
8
1
62
256
6
ByLayer
370
18
48
1
60
1
100
AcDbLine
10
-46.500002
20
-35.48081
30
0
11
-46.499998
21
-36.402378
31
0
39
0
210
0
220
0
230
1
0
LINE
5
E1
100
AcDbEntity
8
1
62
256
6
ByLayer
370
18
48
1
60
1
100
AcDbLine
10
-46.499998
20
-36.402378
30
0
11
-50
21
-35.941594
31
0
39
0
210
0
220
0
230
1
0
LINE
5
E2
100
AcDbEntity
8
1
62
256
6
ByLayer
370
18
48
1
60
1
100
AcDbLine
10
22
20
-35.941594
30
0
11
18.500002
21
-36.402378
31
0
39
0
210
0
220
0
230
1
0
LINE
5
E3
100
AcDbEntity
8
1
62
256
6
ByLayer
370
18
48
1
60
1
100
AcDbLine
10
18.500002
20
-36.402378
30
0
11
18.499998
21
-35.48081
31
0
39
0
210
0
220
0
230
1
0
LINE
5
E4
100
AcDbEntity
8
1
62
256
6
ByLayer
370
18
48
1
60
1
100
AcDbLine
10
18.499998
20
-35.48081
30
0
11
22
21
-35.941594
31
0
39
0
210
0
220
0
230
1
0
LINE
5
173
100
AcDbEntity
8
1
62
256
6
ByLayer
370
18
48
1
60
1
100
AcDbLine
10
-57.65
20
5
30
0
11
-57.189216
21
1.500002
31
0
39
0
210
0
220
0
230
1
0
LINE
5
174
100
AcDbEntity
8
1
62
256
6
ByLayer
370
18
48
1
60
1
100
AcDbLine
10
-57.189216
20
1.500002
30
0
11
-58.110784
21
1.499998
31
0
39
0
210
0
220
0
230
1
0
LINE
5
175
100
AcDbEntity
8
1
62
256
6
ByLayer
370
18
48
1
60
1
100
AcDbLine
10
-58.110784
20
1.499998
30
0
11
-57.65
21
5
31
0
39
0
210
0
220
0
230
1
0
LINE
5
177
100
AcDbEntity
8
1
62
256
6
ByLayer
370
18
48
1
60
1
100
AcDbLine
10
-57.65
20
-5
30
0
11
-58.110784
21
-1.500002
31
0
39
0
210
0
220
0
230
1
0
LINE
5
178
100
AcDbEntity
8
1
62
256
6
ByLayer
370
18
48
1
60
1
100
AcDbLine
10
-58.110784
20
-1.500002
30
0
11
-57.189216
21
-1.499998
31
0
39
0
210
0
220
0
230
1
0
LINE
5
179
100
AcDbEntity
8
1
62
256
6
ByLayer
370
18
48
1
60
1
100
AcDbLine
10
-57.189216
20
-1.499998
30
0
11
-57.65
21
-5
31
0
39
0
210
0
220
0
230
1
0
LINE
5
17D
100
AcDbEntity
8
1
62
256
6
ByLayer
370
18
48
1
60
1
100
AcDbLine
10
34
20
5.0001
30
0
11
34.460784
21
1.500102
31
0
39
0
210
0
220
0
230
1
0
LINE
5
17E
100
AcDbEntity
8
1
62
256
6
ByLayer
370
18
48
1
60
1
100
AcDbLine
10
34.460784
20
1.500102
30
0
11
33.539216
21
1.500098
31
0
39
0
210
0
220
0
230
1
0
LINE
5
17F
100
AcDbEntity
8
1
62
256
6
ByLayer
370
18
48
1
60
1
100
AcDbLine
10
33.539216
20
1.500098
30
0
11
34
21
5.0001
31
0
39
0
210
0
220
0
230
1
0
LINE
5
181
100
AcDbEntity
8
1
62
256
6
ByLayer
370
18
48
1
60
1
100
AcDbLine
10
34
20
-5.0001
30
0
11
33.539216
21
-1.500102
31
0
39
0
210
0
220
0
230
1
0
LINE
5
182
100
AcDbEntity
8
1
62
256
6
ByLayer
370
18
48
1
60
1
100
AcDbLine
10
33.539216
20
-1.500102
30
0
11
34.460784
21
-1.500098
31
0
39
0
210
0
220
0
230
1
0
LINE
5
183
100
AcDbEntity
8
1
62
256
6
ByLayer
370
18
48
1
60
1
100
AcDbLine
10
34.460784
20
-1.500098
30
0
11
34
21
-5.0001
31
0
39
0
210
0
220
0
230
1
0
LINE
5
186
100
AcDbEntity
8
1
62
256
6
ByLayer
370
18
48
1
60
1
100
AcDbLine
10
-50
20
-35.941594
30
0
11
-46.500002
21
-35.48081
31
0
39
0
210
0
220
0
230
1
0
LINE
5
187
100
AcDbEntity
8
1
62
256
6
ByLayer
370
18
48
1
60
1
100
AcDbLine
10
-46.500002
20
-35.48081
30
0
11
-46.499998
21
-36.402378
31
0
39
0
210
0
220
0
230
1
0
LINE
5
188
100
AcDbEntity
8
1
62
256
6
ByLayer
370
18
48
1
60
1
100
AcDbLine
10
-46.499998
20
-36.402378
30
0
11
-50
21
-35.941594
31
0
39
0
210
0
220
0
230
1
0
LINE
5
18A
100
AcDbEntity
8
1
62
256
6
ByLayer
370
18
48
1
60
1
100
AcDbLine
10
22
20
-35.941594
30
0
11
18.500002
21
-36.402378
31
0
39
0
210
0
220
0
230
1
0
LINE
5
18B
100
AcDbEntity
8
1
62
256
6
ByLayer
370
18
48
1
60
1
100
AcDbLine
10
18.500002
20
-36.402378
30
0
11
18.499998
21
-35.48081
31
0
39
0
210
0
220
0
230
1
0
LINE
5
18C
100
AcDbEntity
8
1
62
256
6
ByLayer
370
18
48
1
60
1
100
AcDbLine
10
18.499998
20
-35.48081
30
0
11
22
21
-35.941594
31
0
39
0
210
0
220
0
230
1
0
MTEXT
5
16F
100
AcDbEntity
8
SK2
62
256
6
ByLayer
370
18
48
1
60
0
100
AcDbMText
10
-59.214634
20
-21.121222
30
0
210
0
220
0
230
1
1
%%c
40
3.5
41
0
44
1.084337
50
90
71
7
72
5
7
iso_b_vert
0
MTEXT
5
172
100
AcDbEntity
8
SK2
62
256
6
ByLayer
370
18
48
1
60
0
100
AcDbMText
10
-59.214634
20
-14.148566
30
0
210
0
220
0
230
1
1
\W0.5321;10
40
3.5
41
0
44
1.084337
50
90
71
7
72
5
7
iso_b_vert
0
MTEXT
5
17B
100
AcDbEntity
8
2
62
256
6
ByLayer
370
18
48
1
60
0
100
AcDbMText
10
32.435366
20
12.934944
30
0
210
0
220
0
230
1
1
%%c
40
3.5
41
0
44
1.084337
50
90
71
7
72
5
7
iso_b_vert
0
MTEXT
5
17C
100
AcDbEntity
8
2
62
256
6
ByLayer
370
18
48
1
60
0
100
AcDbMText
10
32.435366
20
19.9076
30
0
210
0
220
0
230
1
1
\W0.5321;10
40
3.5
41
0
44
1.084337
50
90
71
7
72
5
7
iso_b_vert
0
MTEXT
5
185
100
AcDbEntity
8
2
62
256
6
ByLayer
370
18
48
1
60
0
100
AcDbMText
10
-15.904966
20
-34.90896
30
0
210
0
220
0
230
1
1
\W0.6740;72
40
3.5
41
0
44
1.084337
50
0
71
7
72
5
7
iso_b_vert
0
MTEXT
5
18E
100
AcDbEntity
8
SK6
62
256
6
ByLayer
370
18
48
1
60
0
100
AcDbMText
10
-32.948935
20
-62.118303
30
0
210
0
220
0
230
1
1
\W0.7215;1K334-1000-XB 1730
40
3
41
0
44
1.084337
50
0
71
7
72
5
7
iso_b_vert
0
HATCH
5
176
100
AcDbEntity
8
SK2
62
256
6
ByLayer
370
13
48
1
60
0
100
AcDbHatch
10
0
20
0
30
0
210
0
220
0
230
1
2
ANSI31
70
0
71
0
91
1
92
5
93
3
72
1
10
-57.65
20
5
11
-57.1892162584473
21
1.50000169255318
72
1
10
-57.1892162584473
20
1.50000169255318
11
-58.1107837415528
21
1.49999830744682
72
1
10
-58.1107837415528
20
1.49999830744682
11
-57.65
21
5
97
0
75
0
76
1
52
0
41
0.0062
77
0
78
1
53
45
43
0
44
0
45
-0.0139193969876572
46
0.0139193969876572
79
0
47
0
98
1
10
0
20
0
0
HATCH
5
17A
100
AcDbEntity
8
SK2
62
256
6
ByLayer
370
13
48
1
60
0
100
AcDbHatch
10
0
20
0
30
0
210
0
220
0
230
1
2
ANSI31
70
0
71
0
91
1
92
5
93
3
72
1
10
-57.65
20
-5
11
-58.1107837415528
21
-1.50000169255318
72
1
10
-58.1107837415528
20
-1.50000169255318
11
-57.1892162584473
21
-1.49999830744682
72
1
10
-57.1892162584473
20
-1.49999830744682
11
-57.65
21
-5
97
0
75
0
76
1
52
0
41
0.0062
77
0
78
1
53
45
43
0
44
0
45
-0.0139193969876572
46
0.0139193969876572
79
0
47
0
98
1
10
0
20
0
0
HATCH
5
180
100
AcDbEntity
8
2
62
256
6
ByLayer
370
13
48
1
60
0
100
AcDbHatch
10
0
20
0
30
0
210
0
220
0
230
1
2
ANSI31
70
0
71
0
91
1
92
5
93
3
72
1
10
34
20
5.00009999999992
11
34.4607837415528
21
1.5001016925531
72
1
10
34.4607837415528
20
1.5001016925531
11
33.5392162584472
21
1.50009830744673
72
1
10
33.5392162584472
20
1.50009830744673
11
34
21
5.00009999999992
97
0
75
0
76
1
52
0
41
0.0062
77
0
78
1
53
45
43
0
44
0
45
-0.0139193969876572
46
0.0139193969876572
79
0
47
0
98
1
10
0
20
0
0
HATCH
5
184
100
AcDbEntity
8
2
62
256
6
ByLayer
370
13
48
1
60
0
100
AcDbHatch
10
0
20
0
30
0
210
0
220
0
230
1
2
ANSI31
70
0
71
0
91
1
92
5
93
3
72
1
10
34
20
-5.00010000000006
11
33.5392162584472
21
-1.50010169255324
72
1
10
33.5392162584472
20
-1.50010169255324
11
34.4607837415528
21
-1.50009830744688
72
1
10
34.4607837415528
20
-1.50009830744688
11
34
21
-5.00010000000006
97
0
75
0
76
1
52
0
41
0.0062
77
0
78
1
53
45
43
0
44
0
45
-0.0139193969876572
46
0.0139193969876572
79
0
47
0
98
1
10
0
20
0
0
HATCH
5
189
100
AcDbEntity
8
2
62
256
6
ByLayer
370
13
48
1
60
0
100
AcDbHatch
10
0
20
0
30
0
210
0
220
0
230
1
2
ANSI31
70
0
71
0
91
1
92
5
93
3
72
1
10
-50
20
-35.9415939378972
11
-46.5000016925532
21
-35.4808101963444
72
1
10
-46.5000016925532
20
-35.4808101963444
11
-46.4999983074468
21
-36.40237767945
72
1
10
-46.4999983074468
20
-36.40237767945
11
-50
21
-35.9415939378972
97
0
75
0
76
1
52
0
41
0.0062
77
0
78
1
53
45
43
0
44
0
45
-0.0139193969876572
46
0.0139193969876572
79
0
47
0
98
1
10
0
20
0
0
HATCH
5
18D
100
AcDbEntity
8
2
62
256
6
ByLayer
370
13
48
1
60
0
100
AcDbHatch
10
0
20
0
30
0
210
0
220
0
230
1
2
ANSI31
70
0
71
0
91
1
92
5
93
3
72
1
10
22
20
-35.9415939378972
11
18.5000016925532
21
-36.40237767945
72
1
10
18.5000016925532
20
-36.40237767945
11
18.4999983074468
21
-35.4808101963444
72
1
10
18.4999983074468
20
-35.4808101963444
11
22
21
-35.9415939378972
97
0
75
0
76
1
52
0
41
0.0062
77
0
78
1
53
45
43
0
44
0
45
-0.0139193969876572
46
0.0139193969876572
79
0
47
0
98
1
10
0
20
0
0
DIMENSION
5
191
100
AcDbEntity
8
SK2
62
256
6
ByLayer
370
18
48
1
60
0
100
AcDbDimension
2
_U0
10
0
20
-19.941594
30
0
11
11
21
-19.941594
31
0
70
32
71
1
72
1
41
1
210
0
220
0
230
1
3
Standard
100
AcDbAlignedDimension
13
22
23
-5.0001
33
0
14
0
24
-5.0001
34
0
50
0
100
AcDbRotatedDimension
1001
ACAD
1000
DSTYLE
1002
{
1070
   371
1070
    13
1070
   372
1070
    13
1070
   170
1070
     0
1070
   144
1040
1.0
1070
   277
1070
     2
1070
   284
1070
     8
1070
   278
1070
    46
1070
   146
1040
1.0
1070
   345
1005
16
1070
   347
1005
16
1070
   346
1005
16
1070
   344
1005
0
1070
   343
1005
0
1070
   172
1070
     1
1070
    76
1070
     0
1070
    75
1070
     0
1070
   282
1070
     0
1070
   281
1070
     0
1070
    71
1070
     0
1070
    74
1070
     0
1070
   279
1070
     0
1070
   173
1070
     1
1070
   340
1005
170
1070
   271
1070
     2
1070
   272
1070
     2
1070
    77
1070
     1
1070
    73
1070
     1
1070
   171
1070
     3
1070
   274
1070
     4
1070
   177
1070
     2
1070
   176
1070
     2
1070
   178
1070
     2
1070
    78
1070
     8
1070
    48
1040
-0.1
1070
    41
1040
3.5
1070
   147
1040
1.75
1070
    42
1040
1.5875
1070
    44
1040
2.0
1070
   140
1040
3.5
1002
}
1001
ACAD_DSTYLE_DIM_LINETYPE
1070
   380
1005
16
1001
ACAD_DSTYLE_DIM_EXT1_LINETYPE
1070
   381
1005
16
1001
ACAD_DSTYLE_DIM_EXT2_LINETYPE
1070
   382
1005
16
0
ENDSEC
0
SECTION
2
OBJECTS
0
DICTIONARY
5
21a
330
0
100
AcDbDictionary
280
0
281
1
3
ACAD_GROUP
350
21b
3
ACAD_MLINESTYLE
350
21c
0
DICTIONARY
5
21b
330
0
100
AcDbDictionary
280
0
281
1
0
DICTIONARY
5
21c
330
0
100
AcDbDictionary
280
0
281
1
3
Standard
350
18
0
MLINESTYLE
5
18
330
21c
100
AcDbMlineStyle
2
Standard
70
0
3

62
256
51
90
52
90
71
2
49
-0.5
62
256
6
ByLayer
49
0.5
62
256
6
ByLayer
0
RASTERVARIABLES
5
208
330

100
AcDbRasterVariables
90
0
70
1
71
1
72
1
0
ENDSEC
0
EOF
