0
SECTION
2
HEADER
9
$ACADVER
1
AC1015
9
$DWGCODEPAGE
3
ANSI_1252
9
$HANDSEED
5
212
9
$ANGBASE
50
0
9
$ANGDIR
70
0
9
$ATTMODE
70
1
9
$AUNITS
70
0
9
$AUPREC
70
0
9
$CECOLOR
62
256
9
$CELTSCALE
40
1
9
$CELTYPE
6
ByLayer
9
$CELWEIGHT
370
18
9
$CLAYER
8
0
9
$CMLJUST
70
0
9
$CMLSCALE
40
1
9
$CMLSTYLE
2
Standard
9
$DIMSTYLE
2
Standard
9
$TEXTSIZE
40
0.2
9
$TEXTSTYLE
7
Standard
9
$LUNITS
70
2
9
$LUPREC
70
4
9
$EXTNAMES
290
1
9
$INSUNITS
70
4
9
$LTSCALE
40
1
9
$LWDISPLAY
290
1
9
$PDMODE
70
0
9
$PDSIZE
40
0
9
$PLINEGEN
70
0
0
ENDSEC
0
SECTION
2
CLASSES
0
CLASS
1
RASTERVARIABLES
2
AcDbRasterVariables
3
ISM
90
0
280
0
281
0
0
ENDSEC
0
SECTION
2
TABLES
0
TABLE
2
VPORT
5
208
100
AcDbSymbolTable
0
VPORT
5
1
100
AcDbSymbolTableRecord
100
AcDbViewportTableRecord
2
*Active
70
0
10
0
20
0
11
1
21
1
12
-1
22
1
13
0
23
0
14
0.5
24
0.5
15
10
25
10
16
0
26
0
36
1
17
0
27
0
37
0
0
ENDTAB
0
TABLE
2
LTYPE
5
209
100
AcDbSymbolTable
0
LTYPE
5
14
100
AcDbSymbolTableRecord
100
AcDbLinetypeTableRecord
70
0
2
ByBlock
3

72
65
73
0
40
0
0
LTYPE
5
15
100
AcDbSymbolTableRecord
100
AcDbLinetypeTableRecord
70
0
2
ByLayer
3

72
65
73
0
40
0
0
LTYPE
5
16
100
AcDbSymbolTableRecord
100
AcDbLinetypeTableRecord
70
0
2
Continuous
3
Solid line
72
65
73
0
40
0
0
LTYPE
5
6E
100
AcDbSymbolTableRecord
100
AcDbLinetypeTableRecord
70
0
2
CENTER
3
____ _ ____ _ ____ _ ____
72
65
73
4
40
47.5
49
22
74
0
49
-8.5
74
0
49
8.5
74
0
49
-8.5
74
0
0
LTYPE
5
6F
100
AcDbSymbolTableRecord
100
AcDbLinetypeTableRecord
70
0
2
DASHED
3
__ __ __ __ __ __ __ __ __
72
65
73
2
40
25.72
49
12.86
74
0
49
-12.86
74
0
0
ENDTAB
0
TABLE
2
LAYER
5
20a
100
AcDbSymbolTable
0
LAYER
5
10
100
AcDbSymbolTableRecord
100
AcDbLayerTableRecord
2
0
70
0
62
7
6
Continuous
290
1
370
-3
390
0
0
LAYER
5
71
100
AcDbSymbolTableRecord
100
AcDbLayerTableRecord
2
81
70
0
62
-3
6
Continuous
290
1
370
-3
390
0
0
LAYER
5
73
100
AcDbSymbolTableRecord
100
AcDbLayerTableRecord
2
80
70
0
62
-6
6
Continuous
290
1
370
-3
390
0
0
LAYER
5
75
100
AcDbSymbolTableRecord
100
AcDbLayerTableRecord
2
1
70
0
62
4
6
Continuous
290
1
370
-3
390
0
0
LAYER
5
79
100
AcDbSymbolTableRecord
100
AcDbLayerTableRecord
2
4
70
0
62
-2
6
CENTER
290
1
370
-3
390
0
0
LAYER
5
D9
100
AcDbSymbolTableRecord
100
AcDbLayerTableRecord
2
2
70
0
62
7
6
Continuous
290
1
370
-3
390
0
0
LAYER
5
17E
100
AcDbSymbolTableRecord
100
AcDbLayerTableRecord
2
Defpoints
70
0
62
7
6
Continuous
290
0
370
-3
390
0
0
LAYER
5
1f4
100
AcDbSymbolTableRecord
100
AcDbLayerTableRecord
2
SK4
70
0
62
2
6
CENTER
290
1
370
-3
390
0
0
LAYER
5
1f5
100
AcDbSymbolTableRecord
100
AcDbLayerTableRecord
2
SK1
70
0
62
4
6
Continuous
290
1
370
-3
390
0
0
LAYER
5
1f6
100
AcDbSymbolTableRecord
100
AcDbLayerTableRecord
2
SK2
70
0
62
7
6
Continuous
290
1
370
-3
390
0
0
LAYER
5
1f7
100
AcDbSymbolTableRecord
100
AcDbLayerTableRecord
2
SK6
70
0
62
5
6
Continuous
290
1
370
-3
390
0
0
ENDTAB
0
TABLE
2
STYLE
5
20b
100
AcDbSymbolTable
0
STYLE
5
11
100
AcDbSymbolTableRecord
100
AcDbTextStyleTableRecord
2
Standard
3
txt
70
0
71
0
40
0
41
1
42
0
50
0
0
STYLE
5
15A
100
AcDbSymbolTableRecord
100
AcDbTextStyleTableRecord
2
iso_b_vert
3
simplex.shx
70
0
71
0
40
0
41
1
42
0
50
0
0
STYLE
5
15B
100
AcDbSymbolTableRecord
100
AcDbTextStyleTableRecord
2
DWGDirectTextStyle
3
simplex
70
0
71
0
40
0
41
1
42
0
50
0
0
ENDTAB
0
TABLE
2
DIMSTYLE
5
20c
100
AcDbSymbolTable
100
AcDbDimStyleTable
0
DIMSTYLE
105
27
100
AcDbSymbolTableRecord
100
AcDbDimStyleTableRecord
2
Standard
70
0
3
<>
41
0.18
42
0.0625
44
0.18
140
0.18
147
0.09
73
0
74
0
77
1
271
2
275
0
278
52
280
0
340
11
0
ENDTAB
0
TABLE
2
VIEW
5
20d
100
AcDbSymbolTable
0
ENDTAB
0
TABLE
2
UCS
5
20e
100
AcDbSymbolTable
0
ENDTAB
0
TABLE
2
APPID
5
20f
100
AcDbSymbolTable
0
APPID
5
12
100
AcDbSymbolTableRecord
100
AcDbRegAppTableRecord
2
ACAD
70
0
0
APPID
5
17A
100
AcDbSymbolTableRecord
100
AcDbRegAppTableRecord
2
ACAD_DSTYLE_DIMBREAK
70
0
0
APPID
5
1B3
100
AcDbSymbolTableRecord
100
AcDbRegAppTableRecord
2
ACAD_DSTYLE_DIM_LINETYPE
70
0
0
APPID
5
1B4
100
AcDbSymbolTableRecord
100
AcDbRegAppTableRecord
2
ACAD_DSTYLE_DIM_EXT1_LINETYPE
70
0
0
APPID
5
1B5
100
AcDbSymbolTableRecord
100
AcDbRegAppTableRecord
2
ACAD_DSTYLE_DIM_EXT2_LINETYPE
70
0
0
APPID
5
1F0
100
AcDbSymbolTableRecord
100
AcDbRegAppTableRecord
2
ACAD_MLEADERVER
70
0
0
ENDTAB
0
TABLE
2
BLOCK_RECORD
5
210
100
AcDbSymbolTable
0
BLOCK_RECORD
5
1F
100
AcDbSymbolTableRecord
100
AcDbBlockTableRecord
2
*Model_Space
340
0
70
0
0
BLOCK_RECORD
5
1B
100
AcDbSymbolTableRecord
100
AcDbBlockTableRecord
2
*Paper_Space
340
0
70
0
0
BLOCK_RECORD
5
23
100
AcDbSymbolTableRecord
100
AcDbBlockTableRecord
2
*Paper_Space0
340
0
70
0
0
BLOCK_RECORD
5
17F
100
AcDbSymbolTableRecord
100
AcDbBlockTableRecord
2
*D1
340
0
70
0
0
BLOCK_RECORD
5
18C
100
AcDbSymbolTableRecord
100
AcDbBlockTableRecord
2
_U0
340
0
70
0
0
ENDTAB
0
ENDSEC
0
SECTION
2
BLOCKS
0
BLOCK
5
20
100
AcDbEntity
8
0
100
AcDbBlockBegin
2
*Model_Space
70
0
10
0
20
0
30
0
3
*Model_Space
0
ENDBLK
5
21
100
AcDbEntity
8
0
100
AcDbBlockEnd
0
BLOCK
5
1C
100
AcDbEntity
8
0
100
AcDbBlockBegin
2
*Paper_Space
70
0
10
0
20
0
30
0
3
*Paper_Space
0
ENDBLK
5
1D
100
AcDbEntity
8
0
100
AcDbBlockEnd
0
BLOCK
5
24
100
AcDbEntity
8
0
100
AcDbBlockBegin
2
*Paper_Space0
70
0
10
0
20
0
30
0
3
*Paper_Space0
0
ENDBLK
5
25
100
AcDbEntity
8
0
100
AcDbBlockEnd
0
BLOCK
5
180
100
AcDbEntity
8
0
100
AcDbBlockBegin
2
*D1
70
1
10
0
20
0
30
0
3
*D1
0
LINE
5
182
100
AcDbEntity
8
0
62
256
6
ByLayer
370
-2
48
1
60
0
100
AcDbLine
10
13
20
-4.5876
30
0
11
13
21
-19.596235
31
0
39
0
210
0
220
0
230
1
0
LINE
5
183
100
AcDbEntity
8
0
62
256
6
ByLayer
370
-2
48
1
60
0
100
AcDbLine
10
0
20
-4.5876
30
0
11
0
21
-19.596235
31
0
39
0
210
0
220
0
230
1
0
LINE
5
184
100
AcDbEntity
8
0
62
256
6
ByLayer
370
-2
48
1
60
0
100
AcDbLine
10
16.5
20
-17.596235
30
0
11
20
21
-17.596235
31
0
39
0
210
0
220
0
230
1
0
LINE
5
185
100
AcDbEntity
8
0
62
256
6
ByLayer
370
-2
48
1
60
0
100
AcDbLine
10
-3.5
20
-17.596235
30
0
11
-7
21
-17.596235
31
0
39
0
210
0
220
0
230
1
0
SOLID
5
186
100
AcDbEntity
8
0
62
256
6
ByLayer
370
-1
48
1
60
0
100
AcDbTrace
10
16.5
20
-17.012902
30
0
11
16.5
21
-18.179568
31
0
12
13
22
-17.596235
32
0
13
13
23
-17.596235
33
0
39
0
210
0
220
0
230
1
0
SOLID
5
187
100
AcDbEntity
8
0
62
256
6
ByLayer
370
-1
48
1
60
0
100
AcDbTrace
10
-3.5
20
-18.179568
30
0
11
-3.5
21
-17.012902
31
0
12
0
22
-17.596235
32
0
13
0
23
-17.596235
33
0
39
0
210
0
220
0
230
1
0
MTEXT
5
188
100
AcDbEntity
8
0
62
256
6
ByLayer
370
18
48
1
60
0
100
AcDbMText
10
6.5
20
-10.596235
30
0
210
0
220
0
230
1
1
\A1;13
40
3.5
41
0
44
1
50
0
71
5
72
5
7
iso_b_vert
0
POINT
5
189
100
AcDbEntity
8
Defpoints
62
0
6
ByLayer
370
-1
48
1
60
0
100
AcDbPoint
10
13
20
-3.0001
30
0
39
0
210
0
220
0
230
1
50
360
0
POINT
5
18A
100
AcDbEntity
8
Defpoints
62
0
6
ByLayer
370
-1
48
1
60
0
100
AcDbPoint
10
0
20
-3.0001
30
0
39
0
210
0
220
0
230
1
50
360
0
POINT
5
18B
100
AcDbEntity
8
Defpoints
62
0
6
ByLayer
370
-1
48
1
60
0
100
AcDbPoint
10
0
20
-17.596235
30
0
39
0
210
0
220
0
230
1
50
360
0
ENDBLK
5
181
100
AcDbEntity
8
0
100
AcDbBlockEnd
0
BLOCK
5
193
100
AcDbEntity
8
0
100
AcDbBlockBegin
2
_U0
70
0
10
0
20
0
30
0
3
_U0
0
MTEXT
5
18D
100
AcDbEntity
8
SK2
62
256
6
ByLayer
370
18
48
1
60
0
100
AcDbMText
10
5.032467
20
-16.563601
30
0
210
0
220
0
230
1
1
\W0.5321;13
40
3.5
41
0
44
1.084337
50
0
71
7
72
5
7
iso_b_vert
0
LINE
5
18E
100
AcDbEntity
8
SK2
62
256
6
ByLayer
370
13
48
1
60
0
100
AcDbLine
10
13
20
-4.5876
30
0
11
13
21
-19.596235
31
0
39
0
210
0
220
0
230
1
0
LINE
5
18F
100
AcDbEntity
8
SK2
62
256
6
ByLayer
370
13
48
1
60
0
100
AcDbLine
10
0
20
-4.5876
30
0
11
0
21
-19.596235
31
0
39
0
210
0
220
0
230
1
0
LINE
5
190
100
AcDbEntity
8
SK2
62
256
6
ByLayer
370
13
48
1
60
0
100
AcDbLine
10
13
20
-17.596235
30
0
11
0
21
-17.596235
31
0
39
0
210
0
220
0
230
1
0
SOLID
5
191
100
AcDbEntity
8
SK2
62
256
6
ByLayer
370
18
48
1
60
0
100
AcDbTrace
10
13
20
-17.596235
30
0
11
9.500002
21
-18.057019
31
0
12
9.499998
22
-17.135451
32
0
13
9.499998
23
-17.135451
33
0
39
0
210
0
220
0
230
1
0
SOLID
5
192
100
AcDbEntity
8
SK2
62
256
6
ByLayer
370
18
48
1
60
0
100
AcDbTrace
10
0
20
-17.596235
30
0
11
3.499998
21
-17.135451
31
0
12
3.500002
22
-18.057019
32
0
13
3.500002
23
-18.057019
33
0
39
0
210
0
220
0
230
1
0
ENDBLK
5
194
100
AcDbEntity
8
0
100
AcDbBlockEnd
0
ENDSEC
0
SECTION
2
ENTITIES
0
ELLIPSE
5
EB
100
AcDbEntity
8
1
62
256
6
ByLayer
370
18
48
1
60
0
100
AcDbEllipse
10
12.860124
20
-0.12327
30
0
11
0.0146699904129632
21
-0.514277660990463
31
0
210
0
220
0
230
1
40
0.078653
41
0.748046428840874
42
1.48475870228645
0
ELLIPSE
5
EC
100
AcDbEntity
8
1
62
256
6
ByLayer
370
18
48
1
60
0
100
AcDbEllipse
10
12.803823
20
-0.355574
30
0
11
0.206396804238988
21
-0.347752472218908
31
0
210
0
220
0
230
1
40
0.510311
41
2.8520202317129
42
-2.43480107423157
0
ELLIPSE
5
ED
100
AcDbEntity
8
1
62
256
6
ByLayer
370
18
48
1
60
0
100
AcDbEllipse
10
12.833052
20
-0.360533
30
0
11
0.0224055500261205
21
-0.344296165757702
31
0
210
0
220
0
230
1
40
0.178887
41
0.754751679321637
42
1.14383536380643
0
ELLIPSE
5
EE
100
AcDbEntity
8
SK1
62
256
6
ByLayer
370
18
48
1
60
0
100
AcDbEllipse
10
2.972264
20
0
30
0
11
5.91815623538783
21
1.20483788752303
31
0
210
0
220
0
230
1
40
0.464237
41
-2.74928180977807
42
-2.32539653424906
0
ELLIPSE
5
EF
100
AcDbEntity
8
SK1
62
256
6
ByLayer
370
18
48
1
60
0
100
AcDbEllipse
10
2.091884
20
0
30
0
11
12.0464896910144
21
-2.98780550562267
31
0
210
0
220
0
230
1
40
0.022432
41
-1.7683160054845
42
-1.73976569587872
0
ELLIPSE
5
F0
100
AcDbEntity
8
SK1
62
256
6
ByLayer
370
18
48
1
60
0
100
AcDbEllipse
10
2.760103
20
0
30
0
11
5.51513673727697
21
-2.96762888403813
31
0
210
0
220
0
230
1
40
0.079694
41
-2.61250529180128
42
-2.19100164270633
0
ELLIPSE
5
F1
100
AcDbEntity
8
SK1
62
256
6
ByLayer
370
18
48
1
60
0
100
AcDbEllipse
10
1.459377
20
0
30
0
11
8.40305939769276
21
-0.394196133305734
31
0
210
0
220
0
230
1
40
0.353917
41
1.76193035584068
42
1.80160316344783
0
POINT
5
70
100
AcDbEntity
8
81
62
256
6
ByLayer
370
18
48
1
60
0
100
AcDbPoint
10
13
20
0
30
0
39
0
210
0
220
0
230
1
50
360
0
POINT
5
72
100
AcDbEntity
8
80
62
256
6
ByLayer
370
18
48
1
60
0
100
AcDbPoint
10
0
20
0
30
0
39
0
210
0
220
0
230
1
50
360
0
POINT
5
74
100
AcDbEntity
8
1
62
256
6
ByLayer
370
18
48
1
60
1
100
AcDbPoint
10
13
20
-3.0001
30
0
39
0
210
0
220
0
230
1
50
360
0
POINT
5
76
100
AcDbEntity
8
1
62
256
6
ByLayer
370
18
48
1
60
1
100
AcDbPoint
10
0
20
-3.0001
30
0
39
0
210
0
220
0
230
1
50
360
0
SPLINE
5
F2
100
AcDbEntity
8
1
62
256
6
ByLayer
370
18
48
1
60
0
100
AcDbSpline
70
4
71
3
72
12
73
8
40
0
40
0
40
0
40
0
40
0.250733449759433
40
0.250733449759433
40
0.507996910186077
40
0.507996910186077
40
1
40
1
40
1
40
1
41
1
10
0
20
-2.8337456714676
30
0
41
1
10
0
20
-2.84738962529019
30
0
41
1
10
-2.84E-14
20
-2.86103748821654
30
0
41
1
10
-2.84E-14
20
-2.8886965735893
30
0
41
1
10
-2.84E-14
20
-2.90270800234393
30
0
41
1
10
-2.84E-14
20
-2.94352754980028
30
0
41
1
10
-2.84E-14
20
-2.97034660405751
30
0
41
1
10
-2.84E-14
20
-2.99718070705151
30
0
0
SPLINE
5
F3
100
AcDbEntity
8
1
62
256
6
ByLayer
370
18
48
1
60
0
100
AcDbSpline
70
4
71
3
72
11
73
7
40
0
40
0
40
0
40
0
40
0.0402730725416736
40
0.618157604225866
40
0.907099870067963
40
1
40
1
40
1
40
1
41
1
10
-9.687426E-09
20
-2.99718070873234
30
0
41
1
10
0.0116825894126009
20
-2.9968403436589
30
0
41
1
10
0.191011349097522
20
-2.9910834146803
30
0
41
1
10
0.454410244343364
20
-2.97065966927033
30
0
41
1
10
0.733486768902537
20
-2.93136925662304
30
0
41
1
10
0.844594779644325
20
-2.91267336451435
30
0
41
1
10
0.871631148419112
20
-2.9079437853066
30
0
0
SPLINE
5
F4
100
AcDbEntity
8
1
62
256
6
ByLayer
370
18
48
1
60
0
100
AcDbSpline
70
4
71
3
72
12
73
8
40
0
40
0
40
0
40
0
40
0.248531306742182
40
0.248531306742182
40
0.506135580133877
40
0.506135580133877
40
1
40
1
40
1
40
1
41
1
10
0
20
1.00337826733912
30
0
41
1
10
0
20
0.942276567137981
30
0
41
1
10
0
20
0.88117642501382
30
0
41
1
10
0
20
0.756748773634826
30
0
41
1
10
0
20
0.693421379940645
30
0
41
1
10
0
20
0.508691159035322
30
0
41
1
10
1.137E-13
20
0.387292813120212
30
0
41
1
10
1.137E-13
20
0.265900631775167
30
0
0
SPLINE
5
F5
100
AcDbEntity
8
1
62
256
6
ByLayer
370
18
48
1
60
0
100
AcDbSpline
70
4
71
3
72
33
73
29
40
0
40
0
40
0
40
0
40
0.0012908222652709
40
0.0183635222802603
40
0.0354362222952497
40
0.0695816223252284
40
0.103727022355207
40
0.120799722370196
40
0.137872422385186
40
0.172017822415165
40
0.206163222445143
40
0.240308622475122
40
0.274454022505101
40
0.342744822565058
40
0.376890222595037
40
0.411035622625015
40
0.479326422684973
40
0.513471822714952
40
0.54761722274493
40
0.581762622774909
40
0.615908022804888
40
0.650053422834867
40
0.684198822864845
40
0.752489622924803
40
0.889071223044717
40
0.923216623074696
40
0.957362023104675
40
1
40
1
40
1
40
1
41
1
10
8.242E-13
20
0.265900631774628
30
0
41
1
10
0.0032128162002607
20
0.263445486984096
30
0
41
1
10
0.0489194598002882
20
0.228513831287529
30
0
41
1
10
0.137131098135967
20
0.160992617248212
30
0
41
1
10
0.30716237892122
20
0.030611850095255
30
0
41
1
10
0.51975732426439
20
-0.13258290478052
30
0
41
1
10
0.732393396929012
20
-0.295322122869635
30
0
41
1
10
0.902510464753789
20
-0.424843380817862
30
0
41
1
10
1.07262633068362
20
-0.553726213606438
30
0
41
1
10
1.28525903610188
20
-0.713449322612746
30
0
41
1
10
1.54038303159979
20
-0.902051614540312
30
0
41
1
10
1.79544503736758
20
-1.08679152409357
30
0
41
1
10
2.13541705043792
20
-1.32687485354066
30
0
41
1
10
2.47518648390084
20
-1.5560147680352
30
0
41
1
10
2.81464496237362
20
-1.77130462000125
30
0
41
1
10
3.15386403062897
20
-1.97641822207771
30
0
41
1
10
3.49265740572858
20
-2.16486564219699
30
0
41
1
10
3.83071471876221
20
-2.33443876623198
30
0
41
1
10
4.08380948696026
20
-2.45165181538548
30
0
41
1
10
4.33640161579129
20
-2.55837894201016
30
0
41
1
10
4.58850166727592
20
-2.65428868413423
30
0
41
1
10
4.84010249101513
20
-2.73902228364466
30
0
41
1
10
5.1748912026859
20
-2.83662399880686
30
0
41
1
10
5.75915913272402
20
-2.96612926177863
30
0
41
1
10
6.34194921071307
20
-3.01176847987159
30
0
41
1
10
6.84285683819547
20
-2.98945509654698
30
0
41
1
10
7.11450012383781
20
-2.96400663891168
30
0
41
1
10
7.30296455035071
20
-2.93594055402457
30
0
41
1
10
7.4077918020497
20
-2.91717249492638
30
0
0
SPLINE
5
F6
100
AcDbEntity
8
1
62
256
6
ByLayer
370
18
48
1
60
0
100
AcDbSpline
70
4
71
3
72
8
73
4
40
0
40
0
40
0
40
0
40
1
40
1
40
1
40
1
41
1
10
3.979E-13
20
0.265900631774628
30
0
41
1
10
3.979E-13
20
0.256003409873728
30
0
41
1
10
-2.84E-14
20
0.246106198886451
30
0
41
1
10
-2.84E-14
20
0.236208998816721
30
0
0
SPLINE
5
F7
100
AcDbEntity
8
1
62
256
6
ByLayer
370
18
48
1
60
0
100
AcDbSpline
70
4
71
3
72
41
73
37
40
0
40
0
40
0
40
0
40
0.0023208477355518
40
0.0225408251675244
40
0.042760802599497
40
0.0629807800314696
40
0.0832007574634421
40
0.103420734895415
40
0.123640712327387
40
0.14386068975936
40
0.164080667191332
40
0.204520622055278
40
0.22474059948725
40
0.244960576919223
40
0.285400531783168
40
0.305620509215141
40
0.325840486647113
40
0.346060464079086
40
0.366280441511058
40
0.386500418943031
40
0.406720396375004
40
0.447160351238949
40
0.467380328670921
40
0.487600306102894
40
0.528040260966839
40
0.608920170694729
40
0.649360125558675
40
0.68980008042262
40
0.730240035286565
40
0.77067999015051
40
0.811119945014455
40
0.8515598998784
40
0.891999854742346
40
0.932439809606291
40
0.972879764470236
40
1
40
1
40
1
40
1
41
1
10
-9.7230384E-09
20
2.99246201662919
30
0
41
1
10
0.0095957379166691
20
2.99295782798632
30
0
41
1
10
0.102797819342527
20
2.99752459432216
30
0
41
1
10
0.279700505041802
20
3.0016040291429
30
0
41
1
10
0.530910255161814
20
2.99566176458185
30
0
41
1
10
0.782394569509364
20
2.97806842674035
30
0
41
1
10
1.03416503915935
20
2.94870531473336
30
0
41
1
10
1.28624479007729
20
2.90770670526598
30
0
41
1
10
1.5386563622811
20
2.85518286167928
30
0
41
1
10
1.79142020824472
20
2.79133230001696
30
0
41
1
10
2.12894326525699
20
2.6913079981729
30
0
41
1
10
2.46724525389175
20
2.56932529957118
30
0
41
1
10
2.80603946123904
20
2.42697560379293
30
0
41
1
10
3.14507127693375
20
2.27159207463006
30
0
41
1
10
3.48433168413217
20
2.09746870546152
30
0
41
1
10
3.82354354211486
20
1.9069881566335
30
0
41
1
10
4.07786366177393
20
1.7565440081695
30
0
41
1
10
4.33201487668706
20
1.59913311286593
30
0
41
1
10
4.5858990647599
20
1.43550430640661
30
0
41
1
10
4.83940487749936
20
1.2664269366872
30
0
41
1
10
5.17676979334902
20
1.03472293869132
30
0
41
1
10
5.5129926853885
20
0.795116667128411
30
0
41
1
10
5.84777548788236
20
0.550821442244001
30
0
41
1
10
6.18146269408382
20
0.304486395031319
30
0
41
1
10
6.76270354609861
20
-0.129548585515039
30
0
41
1
10
7.42433776398923
20
-0.623491999826342
30
0
41
1
10
8.09014627309207
20
-1.09763693154349
30
0
41
1
10
8.59332804516416
20
-1.43889542225438
30
0
41
1
10
9.10212928818416
20
-1.76106384597458
30
0
41
1
10
9.61843178460333
20
-2.05926160898559
30
0
41
1
10
10.1442287337662
20
-2.32806015896224
30
0
41
1
10
10.6816384378796
20
-2.56174089743496
30
0
41
1
10
11.2328237365149
20
-2.75402210809767
30
0
41
1
10
11.8002151523681
20
-2.89804417092048
30
0
41
1
10
12.3224774222444
20
-2.97645713075539
30
0
41
1
10
12.6595254340422
20
-2.99591058063339
30
0
41
1
10
12.7966408630994
20
-2.99856374771255
30
0
0
SPLINE
5
F8
100
AcDbEntity
8
1
62
256
6
ByLayer
370
18
48
1
60
0
100
AcDbSpline
70
4
71
3
72
22
73
18
40
0
40
0
40
0
40
0
40
0.004009916373324
40
0.0467781586097959
40
0.0895464008462677
40
0.175082885319211
40
0.260619369792155
40
0.346155854265098
40
0.38892409650157
40
0.431692338738042
40
0.517228823210986
40
0.602765307683929
40
0.688301792156873
40
0.773838276629816
40
0.85937476110276
40
0.944911245575704
40
1
40
1
40
1
40
1
41
1
10
6.58831841130799
20
2.99952490629161
30
0
41
1
10
6.59615851033991
20
2.99948164429412
30
0
41
1
10
6.6876224498788
20
2.99878784080721
30
0
41
1
10
6.86281056728981
20
2.99323373514503
30
0
41
1
10
7.19799720211867
20
2.96779190905161
30
0
41
1
10
7.61820934420237
20
2.9080596109379
30
0
41
1
10
8.12532168306373
20
2.79237452451403
30
0
41
1
10
8.55107120967284
20
2.65989128997495
30
0
41
1
10
8.89408847056418
20
2.53280208329204
30
0
41
1
10
9.23888975253885
20
2.39181013330588
30
0
41
1
10
9.6735691916991
20
2.18999430047947
30
0
41
1
10
10.2021781938849
20
1.90903425446251
30
0
41
1
10
10.7389789634877
20
1.59176786020859
30
0
41
1
10
11.2853246527995
20
1.24112583610005
30
0
41
1
10
11.8426686329038
20
0.861054226345772
30
0
41
1
10
12.3451239697179
20
0.504558750562779
30
0
41
1
10
12.6640506932187
20
0.274058160533343
30
0
41
1
10
12.7900619761892
20
0.182621178206603
30
0
0
SPLINE
5
F9
100
AcDbEntity
8
1
62
256
6
ByLayer
370
18
48
1
60
0
100
AcDbSpline
70
4
71
3
72
8
73
4
40
0
40
0
40
0
40
0
40
1
40
1
40
1
40
1
41
1
10
12.7371842178073
20
2.99410653116286
30
0
41
1
10
12.7596553256772
20
2.92496031120894
30
0
41
1
10
12.7837354580497
20
2.85639178340349
30
0
41
1
10
12.8097669467168
20
2.78852385799002
30
0
0
SPLINE
5
FA
100
AcDbEntity
8
1
62
256
6
ByLayer
370
18
48
1
60
0
100
AcDbSpline
70
4
71
3
72
19
73
15
40
0
40
0
40
0
40
0
40
0.0388467143883746
40
0.0388467143883746
40
0.118942821522673
40
0.118942821522673
40
0.158990875089822
40
0.158990875089822
40
0.199038928656973
40
0.359231142925576
40
0.359231142925576
40
0.679615571462788
40
0.679615571462788
40
1
40
1
40
1
40
1
41
1
10
10.2599768972208
20
2.38505053460006
30
0
41
1
10
10.2921537519629
20
2.39895993210138
30
0
41
1
10
10.324354665901
20
2.41267369559517
30
0
41
1
10
10.4230305679315
20
2.45405472427476
30
0
41
1
10
10.489594710605
20
2.48107224481063
30
0
41
1
10
10.58965539578
20
2.52027564754172
30
0
41
1
10
10.623036926169
20
2.53311943050761
30
0
41
1
10
10.6896749210891
20
2.55828260935942
30
0
41
1
10
10.8560824575746
20
2.61992876676766
30
0
41
1
10
11.0216411346273
20
2.67524326230733
30
0
41
1
10
11.418015145877
20
2.79563260932088
30
0
41
1
10
11.6809846014025
20
2.85941544374481
30
0
41
1
10
12.2077298683697
20
2.95275843502748
30
0
41
1
10
12.4715206180198
20
2.9822930633039
30
0
41
1
10
12.7371842178069
20
2.99410653116303
30
0
0
SPLINE
5
FB
100
AcDbEntity
8
1
62
256
6
ByLayer
370
18
48
1
60
0
100
AcDbSpline
70
4
71
3
72
8
73
4
40
0
40
0
40
0
40
0
40
1
40
1
40
1
40
1
41
1
10
12.7371842178073
20
2.99410653116286
30
0
41
1
10
12.753346965513
20
2.9940245769273
30
0
41
1
10
12.7695104235648
20
2.99399225836453
30
0
41
1
10
12.7856741346001
20
2.99400944883084
30
0
0
SPLINE
5
FC
100
AcDbEntity
8
1
62
256
6
ByLayer
370
18
48
1
60
0
100
AcDbSpline
70
4
71
3
72
39
73
35
40
0
40
0
40
0
40
0
40
0.0983308087984349
40
0.0983308087984349
40
0.147496213197654
40
0.147496213197654
40
0.172078915397264
40
0.172078915397264
40
0.196661617596873
40
0.245827021996094
40
0.245827021996094
40
0.270409724195704
40
0.270409724195704
40
0.294992426395313
40
0.294992426395313
40
0.39332323519374
40
0.39332323519374
40
0.417905937393346
40
0.417905937393346
40
0.442488639592952
40
0.491654043992174
40
0.540819448391395
40
0.540819448391395
40
0.589984852790617
40
0.589984852790617
40
0.688315661589071
40
0.688315661589071
40
0.786646470387526
40
0.786646470387526
40
0.88497727918598
40
0.88497727918598
40
0.983308087984435
40
0.983308087984435
40
1
40
1
40
1
40
1
41
1
10
12.8097669160309
20
2.78852384671166
30
0
41
1
10
12.8268067851932
20
2.74409710820765
30
0
41
1
10
12.840471852876
20
2.69883806578682
30
0
41
1
10
12.8544960040638
20
2.62935299628833
30
0
41
1
10
12.8580841646344
20
2.60592333620983
30
0
41
1
10
12.8615581081576
20
2.57030821533399
30
0
41
1
10
12.8623926376949
20
2.55838034708984
30
0
41
1
10
12.8633671855771
20
2.53463326245515
30
0
41
1
10
12.8637963445027
20
2.49908278439688
30
0
41
1
10
12.8610104619378
20
2.46375070443412
30
0
41
1
10
12.8558866050847
20
2.42857744329967
30
0
41
1
10
12.8537885531031
20
2.41687952243336
30
0
41
1
10
12.848774062497
20
2.39353927378804
30
0
41
1
10
12.8458441949552
20
2.38185886948335
30
0
41
1
10
12.8293194352306
20
2.3244774820848
30
0
41
1
10
12.8100375871519
20
2.2812964560737
30
0
41
1
10
12.7789643942748
20
2.23045266174268
30
0
41
1
10
12.7723818829452
20
2.22041434387802
30
0
41
1
10
12.7586193881744
20
2.20076871523966
30
0
41
1
10
12.7371781814948
20
2.17207708107515
30
0
41
1
10
12.6977796854684
20
2.12782596030837
30
0
41
1
10
12.6628994204027
20
2.09569946401379
30
0
41
1
10
12.6265539591803
20
2.06500021272464
30
0
41
1
10
12.6075705803303
20
2.05031290415712
30
0
41
1
10
12.5494628711184
20
2.00867438899073
30
0
41
1
10
12.5091113322746
20
1.98399598032347
30
0
41
1
10
12.4261195392694
20
1.93901010599714
30
0
41
1
10
12.383470519179
20
1.91871938133525
30
0
41
1
10
12.2964291443705
20
1.88146731782112
30
0
41
1
10
12.2518958570435
20
1.86447151619549
30
0
41
1
10
12.1624984034329
20
1.83346445963906
30
0
41
1
10
12.1175431048555
20
1.81940698332153
30
0
41
1
10
12.0647223703025
20
1.80428293162277
30
0
41
1
10
12.0570514067163
20
1.80212029965887
30
0
41
1
10
12.0493748951777
20
1.79998893624571
30
0
0
SPLINE
5
FD
100
AcDbEntity
8
1
62
256
6
ByLayer
370
13
48
1
60
0
100
AcDbSpline
70
4
71
3
72
11
73
7
40
0
40
0
40
0
40
0
40
0.273147234088554
40
0.629798247168258
40
0.986449260247962
40
1
40
1
40
1
40
1
41
1
10
12.8097669207653
20
2.7885238460116
30
0
41
1
10
12.6023446138435
20
2.78018891145521
30
0
41
1
10
12.1240889735884
20
2.73663352944368
30
0
41
1
10
11.375
20
2.58583696351513
30
0
41
1
10
10.8230431844719
20
2.41141317243702
30
0
41
1
10
10.5419197022771
20
2.30724722207486
30
0
41
1
10
10.5316295534156
20
2.30341390021249
30
0
0
SPLINE
5
FE
100
AcDbEntity
8
1
62
256
6
ByLayer
370
18
48
1
60
0
100
AcDbSpline
70
4
71
3
72
8
73
4
40
0
40
0
40
0
40
0
40
1
40
1
40
1
40
1
41
1
10
12.785674134611
20
2.99400944882481
30
0
41
1
10
12.8189069264524
20
2.98889895118461
30
0
41
1
10
12.8521734351471
20
2.98401858025994
30
0
41
1
10
12.8854726536203
20
2.97936146232095
30
0
0
SPLINE
5
FF
100
AcDbEntity
8
1
62
256
6
ByLayer
370
13
48
1
60
0
100
AcDbSpline
70
4
71
3
72
11
73
7
40
0
40
0
40
0
40
0
40
0.102589890593613
40
0.32694241794521
40
0.551294945296806
40
1
40
1
40
1
40
1
41
1
10
3.62153263701239
20
-2.2425011007004
30
0
41
1
10
3.49768842467495
20
-2.28685612676458
30
0
41
1
10
3.10301087900419
20
-2.41881823382181
30
0
41
1
10
2.43750000000008
20
-2.58835459708183
30
0
41
1
10
1.35416666666674
20
-2.73736380619224
30
0
41
1
10
0.541666666666742
20
-2.69724137146483
30
0
41
1
10
8.53E-14
20
-2.60422654202
30
0
0
SPLINE
5
100
100
AcDbEntity
8
1
62
256
6
ByLayer
370
18
48
1
60
0
100
AcDbSpline
70
4
71
3
72
26
73
22
40
0
40
0
40
0
40
0
40
0.0592110295894925
40
0.0592110295894925
40
0.176809650890803
40
0.176809650890803
40
0.294408272192114
40
0.294408272192114
40
0.412006893493425
40
0.412006893493425
40
0.470806204144083
40
0.470806204144083
40
0.52960551479474
40
0.52960551479474
40
0.647204136096055
40
0.647204136096055
40
0.76480275739737
40
0.76480275739737
40
0.882401378698685
40
0.882401378698685
40
1
40
1
40
1
40
1
41
1
10
3.39723329921978
20
-2.42336817885908
30
0
41
1
10
3.33055317108014
20
-2.44877412702277
30
0
41
1
10
3.26389970675865
20
-2.47324517487289
30
0
41
1
10
3.06488879153548
20
-2.54345297332927
30
0
41
1
10
2.93258339108692
20
-2.58629295398262
30
0
41
1
10
2.66760211696859
20
-2.6645365139841
30
0
41
1
10
2.53493593633362
20
-2.6999501771553
30
0
41
1
10
2.26902529981993
20
-2.76274563776966
30
0
41
1
10
2.13577296415835
20
-2.79014230478839
30
0
41
1
10
1.93514071720006
20
-2.82480781650784
30
0
41
1
10
1.86804900510359
20
-2.83531287908892
30
0
41
1
10
1.73410681673175
20
-2.85417975109891
30
0
41
1
10
1.66723114102703
20
-2.86255011387482
30
0
41
1
10
1.46684656875723
20
-2.88438982691167
30
0
41
1
10
1.33358798169545
20
-2.89457028210035
30
0
41
1
10
1.06735055487056
20
-2.90605249997054
30
0
41
1
10
0.934388604653009
20
-2.90728233273291
30
0
41
1
10
0.668221012985356
20
-2.90118282895889
30
0
41
1
10
0.53501270778051
20
-2.89389344743017
30
0
41
1
10
0.268047343466804
20
-2.87039448791217
30
0
41
1
10
0.134271137891915
20
-2.85425361662615
30
0
41
1
10
8.53E-14
20
-2.8337456714676
30
0
0
SPLINE
5
101
100
AcDbEntity
8
1
62
256
6
ByLayer
370
13
48
1
60
0
100
AcDbSpline
70
4
71
3
72
8
73
4
40
0
40
0
40
0
40
0
40
1
40
1
40
1
40
1
41
1
10
1.52913990958413
20
-2.63440336699509
30
0
41
1
10
1.01942660638943
20
-2.65111407308348
30
0
41
1
10
0.509713303194701
20
-2.6093529748284
30
0
41
1
10
-2.84E-14
20
-2.51097758870566
30
0
0
SPLINE
5
102
100
AcDbEntity
8
1
62
256
6
ByLayer
370
18
48
1
60
0
100
AcDbSpline
70
4
71
3
72
11
73
7
40
0
40
0
40
0
40
0
40
0.13808093053082
40
0.353560697898115
40
0.56904046526541
40
1
40
1
40
1
40
1
41
1
10
3.77065563939954
20
-2.3252443526923
30
0
41
1
10
3.59710375959966
20
-2.3577305847696
30
0
41
1
10
3.1527185464665
20
-2.42555721249838
30
0
41
1
10
2.4375
20
-2.46882218595442
30
0
41
1
10
1.35416666666663
20
-2.41338241868766
30
0
41
1
10
0.541666666666629
20
-2.23755169029539
30
0
41
1
10
0
20
-2.06475428757571
30
0
0
SPLINE
5
103
100
AcDbEntity
8
1
62
256
6
ByLayer
370
13
48
1
60
0
100
AcDbSpline
70
4
71
3
72
9
73
5
40
0
40
0
40
0
40
0
40
0.327877931785378
40
1
40
1
40
1
40
1
41
1
10
2.41771558597461
20
-1.53184154394035
30
0
41
1
10
2.15347705731639
20
-1.47532054596405
30
0
41
1
10
1.3475718619915
20
-1.26913278769581
30
0
41
1
10
0.541666666666629
20
-0.979306479264522
30
0
41
1
10
0
20
-0.761411389276248
30
0
0
SPLINE
5
104
100
AcDbEntity
8
1
62
256
6
ByLayer
370
18
48
1
60
0
100
AcDbSpline
70
4
71
3
72
36
73
32
40
0
40
0
40
0
40
0
40
0.0625000000000127
40
0.0625000000000127
40
0.125000000000025
40
0.125000000000025
40
0.187500000000038
40
0.187500000000038
40
0.250000000000051
40
0.250000000000051
40
0.375000000000064
40
0.375000000000064
40
0.500000000000076
40
0.500000000000076
40
0.625000000000089
40
0.625000000000089
40
0.687500000000085
40
0.687500000000085
40
0.750000000000082
40
0.750000000000082
40
0.812500000000078
40
0.812500000000078
40
0.843750000000065
40
0.843750000000065
40
0.875000000000052
40
0.875000000000052
40
0.906250000000039
40
0.906250000000039
40
0.937500000000026
40
0.937500000000026
40
1
40
1
40
1
40
1
41
1
10
12.5316248954865
20
-0.159524837162195
30
0
41
1
10
12.5315903926536
20
-0.171031590967829
30
0
41
1
10
12.5327784308555
20
-0.182390265048241
30
0
41
1
10
12.5369740011505
20
-0.204878777436818
30
0
41
1
10
12.5399881440549
20
-0.216007891951961
30
0
41
1
10
12.547489334029
20
-0.238072169960645
30
0
41
1
10
12.5519790781825
20
-0.249007054536833
30
0
41
1
10
12.5622113296727
20
-0.270701803694152
30
0
41
1
10
12.5679029926601
20
-0.281349941868939
30
0
41
1
10
12.5863054068893
20
-0.31261754002935
30
0
41
1
10
12.6003659541896
20
-0.332653278758897
30
0
41
1
10
12.6311824902518
20
-0.371384899594773
30
0
41
1
10
12.6479500911753
20
-0.39008022187582
30
0
41
1
10
12.6837884386714
20
-0.426090596533015
30
0
41
1
10
12.7027033470941
20
-0.443261741655704
30
0
41
1
10
12.7323395221321
20
-0.46737298897321
30
0
41
1
10
12.7424333543145
20
-0.475134589388375
30
0
41
1
10
12.7630489036213
20
-0.489908201024292
30
0
41
1
10
12.7736017118119
20
-0.49694797114492
30
0
41
1
10
12.7949900816727
20
-0.509709015197501
30
0
41
1
10
12.8058142991263
20
-0.515454770096284
30
0
41
1
10
12.8222050853982
20
-0.522162684832466
30
0
41
1
10
12.8276807050596
20
-0.524059416703835
30
0
41
1
10
12.8384232762456
20
-0.526823853649603
30
0
41
1
10
12.8437132142542
20
-0.527701230015907
30
0
41
1
10
12.8540744700357
20
-0.528082891072501
30
0
41
1
10
12.8590150136791
20
-0.527564035366595
30
0
41
1
10
12.868251549003
20
-0.525089936018134
30
0
41
1
10
12.872584451302
20
-0.523136821248926
30
0
41
1
10
12.8849231906384
20
-0.515337438340993
30
0
41
1
10
12.8918216632772
20
-0.507976920663992
30
0
41
1
10
12.8983916203078
20
-0.499460347887719
30
0
0
SPLINE
5
105
100
AcDbEntity
8
1
62
256
6
ByLayer
370
18
48
1
60
0
100
AcDbSpline
70
4
71
3
72
18
73
14
40
0
40
0
40
0
40
0
40
0.250000000000012
40
0.250000000000012
40
0.37500000000001
40
0.37500000000001
40
0.500000000000009
40
0.500000000000009
40
0.750000000000004
40
0.750000000000004
40
0.875000000000002
40
0.875000000000002
40
1
40
1
40
1
40
1
41
1
10
11.2959125565315
20
-0.246936882969578
30
0
41
1
10
11.296766020435
20
-0.228138128754637
30
0
41
1
10
11.2995830453261
20
-0.209286059351257
30
0
41
1
10
11.3059894182932
20
-0.18062440227024
30
0
41
1
10
11.3085109247928
20
-0.170968767323387
30
0
41
1
10
11.3141862415801
20
-0.151742895821968
30
0
41
1
10
11.3173365317786
20
-0.14217283859594
30
0
41
1
10
11.3276544335222
20
-0.113559244301086
30
0
41
1
10
11.3356772992509
20
-0.0946085714525964
30
0
41
1
10
11.3494101607442
20
-0.0663339578239572
30
0
41
1
10
11.3542920030409
20
-0.0569045498246794
30
0
41
1
10
11.3645422393791
20
-0.0383149615449554
30
0
41
1
10
11.3699135367777
20
-0.0291441901490543
30
0
41
1
10
11.3755406226995
20
-0.0201030073336597
30
0
0
SPLINE
5
106
100
AcDbEntity
8
1
62
256
6
ByLayer
370
18
48
1
60
0
100
AcDbSpline
70
4
71
3
72
18
73
14
40
0
40
0
40
0
40
0
40
0.125000000000002
40
0.125000000000002
40
0.250000000000004
40
0.250000000000004
40
0.500000000000006
40
0.500000000000006
40
0.625000000000007
40
0.625000000000007
40
0.750000000000008
40
0.750000000000008
40
1
40
1
40
1
40
1
41
1
10
12.5031238783139
20
1.579336191744
30
0
41
1
10
12.5101478873129
20
1.56441267987927
30
0
41
1
10
12.5174225577321
20
1.54873026157793
30
0
41
1
10
12.5324495017637
20
1.51591942607675
30
0
41
1
10
12.540215065795
20
1.49876117489743
30
0
41
1
10
12.5641057773558
20
1.44540867620356
30
0
41
1
10
12.5807795823897
20
1.40744405527292
30
0
41
1
10
12.6068274743301
20
1.34716846063094
30
0
41
1
10
12.6156608658093
20
1.32657181611651
30
0
41
1
10
12.6335385027774
20
1.28459358669284
30
0
41
1
10
12.6425947117307
20
1.26318432741931
30
0
41
1
10
12.670103754819
20
1.19773818810535
30
0
41
1
10
12.6888954935595
20
1.15248835668845
30
0
41
1
10
12.7081284014783
20
1.10565956551244
30
0
0
SPLINE
5
107
100
AcDbEntity
8
1
62
256
6
ByLayer
370
18
48
1
60
0
100
AcDbSpline
70
4
71
3
72
8
73
4
40
0
40
0
40
0
40
0
40
1
40
1
40
1
40
1
41
1
10
12.3209515076072
20
1.68453332258568
30
0
41
1
10
12.3818310306418
20
1.65075213699146
30
0
41
1
10
12.4425530514671
20
1.615669038319
30
0
41
1
10
12.5031238783139
20
1.579336191744
30
0
0
SPLINE
5
108
100
AcDbEntity
8
1
62
256
6
ByLayer
370
18
48
1
60
0
100
AcDbSpline
70
4
71
3
72
11
73
7
40
0
40
0
40
0
40
0
40
0.070742003531116
40
0.501444356747263
40
0.93214670996341
40
1
40
1
40
1
40
1
41
1
10
12.3209515064518
20
1.68453332136676
30
0
41
1
10
12.2764676709679
20
1.70470177166115
30
0
41
1
10
11.9611505021506
20
1.84548557925404
30
0
41
1
10
11.375
20
2.07656708252674
30
0
41
1
10
10.7906659724959
20
2.25379886769545
30
0
41
1
10
10.477165278325
20
2.3276069506328
30
0
41
1
10
10.4344979174874
20
2.3372586187385
30
0
0
SPLINE
5
109
100
AcDbEntity
8
1
62
256
6
ByLayer
370
18
48
1
60
0
100
AcDbSpline
70
4
71
3
72
8
73
4
40
0
40
0
40
0
40
0
40
1
40
1
40
1
40
1
41
1
10
12.4098686237689
20
-1.31881650130825
30
0
41
1
10
12.4137675929393
20
-1.45883059088666
30
0
41
1
10
12.4206711528797
20
-1.59875521845169
30
0
41
1
10
12.430841158371
20
-1.73858258724903
30
0
0
SPLINE
5
10A
100
AcDbEntity
8
1
62
256
6
ByLayer
370
18
48
1
60
0
100
AcDbSpline
70
4
71
3
72
18
73
14
40
0
40
0
40
0
40
0
40
0.250000000000009
40
0.250000000000009
40
0.312500000000007
40
0.312500000000007
40
0.375000000000005
40
0.375000000000005
40
0.499999999999999
40
0.499999999999999
40
0.75
40
0.75
40
1
40
1
40
1
40
1
41
1
10
11.330848751198
20
-0.343792263581349
30
0
41
1
10
11.4065637450569
20
-0.437885513299904
30
0
41
1
10
11.4878985421694
20
-0.528629393005758
30
0
41
1
10
11.5951135712198
20
-0.638753541473307
30
0
41
1
10
11.6168368237336
20
-0.660611345763698
30
0
41
1
10
11.660817579662
20
-0.704008543918235
30
0
41
1
10
11.6831169668861
20
-0.725587078433733
30
0
41
1
10
11.7503695348302
20
-0.789476955558115
30
0
41
1
10
11.79571630524
20
-0.830992877977366
30
0
41
1
10
11.9330962491924
20
-0.952720331868903
30
0
41
1
10
12.0264577464532
20
-1.03013535869294
30
0
41
1
10
12.2160795104436
20
-1.17886266631396
30
0
41
1
10
12.3123544897472
20
-1.25014397289814
30
0
41
1
10
12.4098686237685
20
-1.31881650130532
30
0
0
SPLINE
5
10B
100
AcDbEntity
8
1
62
256
6
ByLayer
370
18
48
1
60
0
100
AcDbSpline
70
4
71
3
72
16
73
12
40
0
40
0
40
0
40
0
40
0.249999999999935
40
0.249999999999935
40
0.374999999999946
40
0.374999999999946
40
0.499999999999958
40
0.499999999999958
40
0.749999999999979
40
0.749999999999979
40
1
40
1
40
1
40
1
41
1
10
11.3308487511983
20
-0.343792263581236
30
0
41
1
10
11.3250294832759
20
-0.33656048818392
30
0
41
1
10
11.3198084248131
20
-0.329077462281504
30
0
41
1
10
11.312995116777
20
-0.317424576433581
30
0
41
1
10
11.3108941085029
20
-0.313468719006039
30
0
41
1
10
11.307058082494
20
-0.305402768215771
30
0
41
1
10
11.3053150905179
20
-0.301268509413319
30
0
41
1
10
11.3007569896079
20
-0.288836386679918
30
0
41
1
10
11.2985973801663
20
-0.280506609824926
30
0
41
1
10
11.295983203647
20
-0.263760898998129
30
0
41
1
10
11.29553466665
20
-0.255291368078929
30
0
41
1
10
11.2959125565315
20
-0.246936882969578
30
0
0
SPLINE
5
10C
100
AcDbEntity
8
1
62
256
6
ByLayer
370
13
48
1
60
0
100
AcDbSpline
70
4
71
3
72
13
73
9
40
0
40
0
40
0
40
0
40
0.169260440963222
40
0.35677305859962
40
0.544285676236017
40
0.731798293872415
40
0.919310911508813
40
1
40
1
40
1
40
1
41
1
10
11.2959125565315
20
-0.246936882969578
30
0
41
1
10
11.0514417043543
20
-0.146658428704882
30
0
41
1
10
10.5361375188438
20
0.0660328880614713
30
0
41
1
10
9.75
20
0.390439442562609
30
0
41
1
10
8.9375
20
0.71523604117877
30
0
41
1
10
8.12500000000003
20
1.01390257750614
30
0
41
1
10
7.46679027039096
20
1.22383239285477
30
0
41
1
10
7.07941387411517
20
1.3312356472444
30
0
41
1
10
6.96287081117276
20
1.36200819887574
30
0
0
SPLINE
5
10D
100
AcDbEntity
8
1
62
256
6
ByLayer
370
13
48
1
60
0
100
AcDbSpline
70
4
71
3
72
17
73
13
40
0
40
0
40
0
40
0
40
0.0453043789668268
40
0.146827929165912
40
0.248351479364997
40
0.349875029564082
40
0.451398579763167
40
0.552922129962252
40
0.654445680161337
40
0.755969230360423
40
0.857492780559508
40
1
40
1
40
1
40
1
41
1
10
8.48757408097299
20
-1.38606416414203
30
0
41
1
10
8.36671605398203
20
-1.35747219384837
30
0
41
1
10
7.9750246936577
20
-1.25881249694203
30
0
41
1
10
7.3125
20
-1.06178300054663
30
0
41
1
10
6.5
20
-0.779710678216844
30
0
41
1
10
5.6875
20
-0.462069842824491
30
0
41
1
10
4.87499999999997
20
-0.124024629842211
30
0
41
1
10
4.06249999999997
20
0.216697889982555
30
0
41
1
10
3.24999999999997
20
0.546981527025764
30
0
41
1
10
2.4375
20
0.85927658782532
30
0
41
1
10
1.51566828601722
20
1.17513585290726
30
0
41
1
10
0.864669905367776
20
1.35263571599461
30
0
41
1
10
0.484504858051707
20
1.43740292041744
30
0
0
SPLINE
5
10E
100
AcDbEntity
8
1
62
256
6
ByLayer
370
18
48
1
60
0
100
AcDbSpline
70
4
71
3
72
14
73
10
40
0
40
0
40
0
40
0
40
0.25
40
0.25
40
0.5
40
0.5
40
0.75
40
0.75
40
1
40
1
40
1
40
1
41
1
10
12.7081284040819
20
1.10565956598055
30
0
41
1
10
12.71295272317
20
1.09391313328575
30
0
41
1
10
12.717647887148
20
1.08264015320029
30
0
41
1
10
12.7267522144209
20
1.06114264704144
30
0
41
1
10
12.7311066514231
20
1.05104860311977
30
0
41
1
10
12.7392510908063
20
1.03261542642014
30
0
41
1
10
12.7430615303533
20
1.02422551947333
30
0
41
1
10
12.7499878434983
20
1.00963909103277
30
0
41
1
10
12.7530049244794
20
1.00365259092746
30
0
41
1
10
12.7553793033341
20
0.999502698280281
30
0
0
SPLINE
5
10F
100
AcDbEntity
8
1
62
256
6
ByLayer
370
13
48
1
60
0
100
AcDbSpline
70
4
71
3
72
10
73
6
40
0
40
0
40
0
40
0
40
0.350108373620089
40
0.896492417822813
40
1
40
1
40
1
40
1
41
1
10
12.7081284052116
20
1.10565956769145
30
0
41
1
10
12.5345856034744
20
1.20648198410854
30
0
41
1
10
12.0902094684039
20
1.45794327830569
30
0
41
1
10
11.5945263747869
20
1.7076614861025
30
0
41
1
10
11.2723860829072
20
1.85533420329156
30
0
41
1
10
11.2210791243608
20
1.87845038733525
30
0
0
SPLINE
5
110
100
AcDbEntity
8
1
62
256
6
ByLayer
370
18
48
1
60
0
100
AcDbSpline
70
4
71
3
72
22
73
18
40
0
40
0
40
0
40
0
40
0.125000000000004
40
0.125000000000004
40
0.250000000000007
40
0.250000000000007
40
0.375000000000011
40
0.375000000000011
40
0.437500000000011
40
0.437500000000011
40
0.50000000000001
40
0.50000000000001
40
0.750000000000009
40
0.750000000000009
40
0.875000000000004
40
0.875000000000004
40
1
40
1
40
1
40
1
41
1
10
12.4308411632879
20
-1.73858258749775
30
0
41
1
10
12.4375153770557
20
-1.77856409552359
30
0
41
1
10
12.4450217364613
20
-1.81702025436991
30
0
41
1
10
12.461489469861
20
-1.8912655034309
30
0
41
1
10
12.4704522047535
20
-1.92705209402513
30
0
41
1
10
12.4897167546787
20
-1.9961707072556
30
0
41
1
10
12.5000191843629
20
-2.02950160322015
30
0
41
1
10
12.5164355595073
20
-2.07773323745633
30
0
41
1
10
12.5220859945296
20
-2.09356128781832
30
0
41
1
10
12.5336154293572
20
-2.12439236060177
30
0
41
1
10
12.5394837617865
20
-2.13937225880167
30
0
41
1
10
12.5693163418418
20
-2.2122077382366
30
0
41
1
10
12.5947347490043
20
-2.26394946205167
30
0
41
1
10
12.6349297692492
20
-2.33286984681382
30
0
41
1
10
12.6486942667726
20
-2.35440466415216
30
0
41
1
10
12.6768367519492
20
-2.39446379981933
30
0
41
1
10
12.6911265714848
20
-2.41286789642911
30
0
41
1
10
12.7056283815059
20
-2.42969550300691
30
0
0
SPLINE
5
111
100
AcDbEntity
8
1
62
256
6
ByLayer
370
18
48
1
60
0
100
AcDbSpline
70
4
71
3
72
17
73
13
40
0
40
0
40
0
40
0
40
0.0327993901610772
40
0.142314377356436
40
0.251829364551796
40
0.361344351747155
40
0.470859338942514
40
0.580374326137873
40
0.689889313333233
40
0.799404300528592
40
0.908919287723951
40
1
40
1
40
1
40
1
41
1
10
12.4308411644229
20
-1.73858258666297
30
0
41
1
10
12.3497274429486
20
-1.70499700748206
30
0
41
1
10
11.9977803881409
20
-1.55469030837136
30
0
41
1
10
11.375
20
-1.25615001651923
30
0
41
1
10
10.5625
20
-0.813541457553754
30
0
41
1
10
9.75
20
-0.339177431394319
30
0
41
1
10
8.9375
20
0.148943189429701
30
0
41
1
10
8.12500000000003
20
0.631291426583033
30
0
41
1
10
7.31250000000003
20
1.08808558512118
30
0
41
1
10
6.5
20
1.50119771482693
30
0
41
1
10
5.73308842813972
20
1.83201711579667
30
0
41
1
10
5.23701018961276
20
2.0041015678492
30
0
41
1
10
5.0117652844192
20
2.07256661707552
30
0
0
SPLINE
5
112
100
AcDbEntity
8
1
62
256
6
ByLayer
370
18
48
1
60
0
100
AcDbSpline
70
4
71
3
72
19
73
15
40
0
40
0
40
0
40
0
40
0.0398504206828814
40
0.119862885625975
40
0.199875350569068
40
0.279887815512161
40
0.359900280455254
40
0.439912745398348
40
0.519925210341441
40
0.599937675284534
40
0.679950140227627
40
0.75996260517072
40
0.839975070113813
40
1
40
1
40
1
40
1
41
1
10
10.1546677830494
20
-2.3373666320835
30
0
41
1
10
10.0197785220329
20
-2.36787600237344
30
0
41
1
10
9.6140559276831
20
-2.44674169654829
30
0
41
1
10
8.93749999999997
20
-2.513857358959
30
0
41
1
10
8.12500000000003
20
-2.48796530796756
30
0
41
1
10
7.3125
20
-2.35704391753319
30
0
41
1
10
6.49999999999997
20
-2.12212659650487
30
0
41
1
10
5.68749999999997
20
-1.7948073941003
30
0
41
1
10
4.87499999999997
20
-1.39142641207235
30
0
41
1
10
4.06249999999997
20
-0.927931787262708
30
0
41
1
10
3.24999999999997
20
-0.425730503771433
30
0
41
1
10
2.4375
20
0.0950799602189818
30
0
41
1
10
1.35416666666666
20
0.785088874254882
30
0
41
1
10
0.541666666666657
20
1.26304193471705
30
0
41
1
10
0
20
1.53692161317468
30
0
0
SPLINE
5
113
100
AcDbEntity
8
1
62
256
6
ByLayer
370
18
48
1
60
0
100
AcDbSpline
70
4
71
3
72
16
73
12
40
0
40
0
40
0
40
0
40
0.25
40
0.25
40
0.5
40
0.5
40
0.75
40
0.75
40
0.875
40
0.875
40
1
40
1
40
1
40
1
41
1
10
12.7056283846059
20
-2.42969550204015
30
0
41
1
10
12.7104780563943
20
-2.43532269779672
30
0
41
1
10
12.7151986252105
20
-2.44180799841072
30
0
41
1
10
12.7243533578296
20
-2.45668232199031
30
0
41
1
10
12.7287371608054
20
-2.4649984551036
30
0
41
1
10
12.7369352098613
20
-2.48339594176741
30
0
41
1
10
12.7407716428569
20
-2.49349687126178
30
0
41
1
10
12.7460021008073
20
-2.51044923127623
30
0
41
1
10
12.7476421770838
20
-2.51636467682485
30
0
41
1
10
12.7506310670815
20
-2.52859509765315
30
0
41
1
10
12.7519886476005
20
-2.53493597464575
30
0
41
1
10
12.7531842844993
20
-2.54154386874868
30
0
0
SPLINE
5
114
100
AcDbEntity
8
1
62
256
6
ByLayer
370
13
48
1
60
0
100
AcDbSpline
70
4
71
3
72
17
73
13
40
0
40
0
40
0
40
0
40
0.0672442584918242
40
0.1726929493955
40
0.278141640299175
40
0.38359033120285
40
0.489039022106526
40
0.594487713010201
40
0.699936403913876
40
0.805385094817552
40
0.910833785721227
40
1
40
1
40
1
40
1
41
1
10
12.7056283860082
20
-2.429695501499
30
0
41
1
10
12.5329189240055
20
-2.38537987659205
30
0
41
1
10
12.0893761286694
20
-2.253698250719
30
0
41
1
10
11.375
20
-1.97895747450599
30
0
41
1
10
10.5624999999999
20
-1.57673933994536
30
0
41
1
10
9.74999999999997
20
-1.11896898415844
30
0
41
1
10
8.93749999999994
20
-0.614628831865218
30
0
41
1
10
8.12499999999997
20
-0.0822618193717233
30
0
41
1
10
7.31249999999997
20
0.454370261149848
30
0
41
1
10
6.49999999999997
20
0.970973163746322
30
0
41
1
10
5.72931974552219
20
1.42215757999259
30
0
41
1
10
5.22947282437772
20
1.68204710662121
30
0
41
1
10
5.00045923656665
20
1.79248734059618
30
0
0
SPLINE
5
115
100
AcDbEntity
8
1
62
256
6
ByLayer
370
13
48
1
60
0
100
AcDbSpline
70
4
71
3
72
16
73
12
40
0
40
0
40
0
40
0
40
0.0940439654242115
40
0.194705747043744
40
0.295367528663276
40
0.396029310282808
40
0.49669109190234
40
0.597352873521872
40
0.698014655141404
40
0.798676436760936
40
1
40
1
40
1
40
1
41
1
10
8.07158374238773
20
-2.63420424882037
30
0
41
1
10
7.81855582825847
20
-2.64338753583348
30
0
41
1
10
7.29469458079589
20
-2.62788313739821
30
0
41
1
10
6.49999999999997
20
-2.49688501834251
30
0
41
1
10
5.68749999999994
20
-2.25637388066912
30
0
41
1
10
4.87499999999994
20
-1.91850789205446
30
0
41
1
10
4.06249999999991
20
-1.49645165344441
30
0
41
1
10
3.24999999999997
20
-1.01174450586259
30
0
41
1
10
2.43749999999997
20
-0.485440732158622
30
0
41
1
10
1.3541666666666
20
0.248428928900608
30
0
41
1
10
0.541666666666629
20
0.795649531092522
30
0
41
1
10
-2.84E-14
20
1.12548877457209
30
0
0
SPLINE
5
116
100
AcDbEntity
8
1
62
256
6
ByLayer
370
13
48
1
60
0
100
AcDbSpline
70
4
71
3
72
14
73
10
40
0
40
0
40
0
40
0
40
0.165269446196037
40
0.332193343332737
40
0.499117240469437
40
0.666041137606138
40
0.832965034742838
40
0.999888931879538
40
1
40
1
40
1
40
1
41
1
10
6.50805301944391
20
1.51626580324822
30
0
41
1
10
6.77620201296258
20
1.47413484436197
30
0
41
1
10
7.31518433981466
20
1.37062677212435
30
0
41
1
10
8.12500000000003
20
1.1622053717395
30
0
41
1
10
8.9375
20
0.906601601464132
30
0
41
1
10
9.75
20
0.616254441632435
30
0
41
1
10
10.5625
20
0.304955734678828
30
0
41
1
10
11.1043468742332
20
0.0884471667021387
30
0
41
1
10
11.375360415133
20
-0.0200308759326902
30
0
41
1
10
11.3755406226995
20
-0.0201030073336597
30
0
0
SPLINE
5
117
100
AcDbEntity
8
1
62
256
6
ByLayer
370
18
48
1
60
0
100
AcDbSpline
70
4
71
3
72
24
73
20
40
0
40
0
40
0
40
0
40
0.124999999999974
40
0.124999999999974
40
0.249999999999948
40
0.249999999999948
40
0.312499999999952
40
0.312499999999952
40
0.374999999999957
40
0.374999999999957
40
0.499999999999965
40
0.499999999999965
40
0.624999999999974
40
0.624999999999974
40
0.749999999999983
40
0.749999999999983
40
0.874999999999991
40
0.874999999999991
40
1
40
1
40
1
40
1
41
1
10
11.3755406226995
20
-0.0201030073336597
30
0
41
1
10
11.3854066815907
20
-0.0042509767822878
30
0
41
1
10
11.3963176758742
20
0.0106236097176406
30
0
41
1
10
11.4200290232796
20
0.0386040569345596
30
0
41
1
10
11.4328319408919
20
0.051707622424118
30
0
41
1
10
11.4534600480309
20
0.0700381930650735
30
0
41
1
10
11.4605907578135
20
0.0759354092829483
30
0
41
1
10
11.4751040575214
20
0.0871009054256149
30
0
41
1
10
11.4825122070533
20
0.0923937375010553
30
0
41
1
10
11.5051851561996
20
0.107427829398972
30
0
41
1
10
11.5208963297471
20
0.116328212548211
30
0
41
1
10
11.5535384560225
20
0.131916907965291
30
0
41
1
10
11.5705301988732
20
0.138604436168038
30
0
41
1
10
11.6048292186476
20
0.149452627082383
30
0
41
1
10
11.622245915353
20
0.153674361028578
30
0
41
1
10
11.6576368065266
20
0.15984208764641
30
0
41
1
10
11.6756855062436
20
0.161789167983869
30
0
41
1
10
11.7120077215147
20
0.163448780578335
30
0
41
1
10
11.7302138271925
20
0.163169257067921
30
0
41
1
10
11.7484807433667
20
0.16186400886815
30
0
0
SPLINE
5
118
100
AcDbEntity
8
1
62
256
6
ByLayer
370
13
48
1
60
0
100
AcDbSpline
70
4
71
3
72
17
73
13
40
0
40
0
40
0
40
0
40
0.17415488286387
40
0.276014525793566
40
0.377874168723263
40
0.479733811652959
40
0.581593454582655
40
0.683453097512352
40
0.785312740442048
40
0.887172383371745
40
0.989032026301441
40
1
40
1
40
1
40
1
41
1
10
0.235825266444749
20
1.51590197596201
30
0
41
1
10
0.698883510963128
20
1.44102857811683
30
0
41
1
10
1.43277508881491
20
1.27441633487282
30
0
41
1
10
2.4375
20
0.960697856485751
30
0
41
1
10
3.24999999999997
20
0.668304605164082
30
0
41
1
10
4.06249999999997
20
0.351561746569587
30
0
41
1
10
4.87499999999997
20
0.0184879445639865
30
0
41
1
10
5.6875
20
-0.317418831158904
30
0
41
1
10
6.5
20
-0.639149542244695
30
0
41
1
10
7.3125
20
-0.931929063592094
30
0
41
1
10
7.88332927504871
20
-1.11251695181616
30
0
41
1
10
8.1833252167641
20
-1.19777088981559
30
0
41
1
10
8.21248782514613
20
-1.20596492908177
30
0
0
SPLINE
5
119
100
AcDbEntity
8
1
62
256
6
ByLayer
370
13
48
1
60
0
100
AcDbSpline
70
4
71
3
72
9
73
5
40
0
40
0
40
0
40
0
40
0.862070963041391
40
1
40
1
40
1
40
1
41
1
10
0
20
-0.53163024666938
30
0
41
1
10
0.541666666666657
20
-0.747491862520547
30
0
41
1
10
1.16999854407459
20
-0.979458142164162
30
0
41
1
10
1.79833042148252
20
-1.16927890223047
30
0
41
1
10
1.88499563222376
20
-1.19459017658468
30
0
0
SPLINE
5
11A
100
AcDbEntity
8
1
62
256
6
ByLayer
370
18
48
1
60
0
100
AcDbSpline
70
4
71
3
72
43
73
39
40
0
40
0
40
0
40
0
40
0.0624999999999894
40
0.0624999999999894
40
0.124999999999979
40
0.124999999999979
40
0.156249999999973
40
0.156249999999973
40
0.187499999999968
40
0.218749999999962
40
0.218749999999962
40
0.249999999999956
40
0.249999999999956
40
0.312499999999945
40
0.312499999999945
40
0.343749999999943
40
0.343749999999943
40
0.37499999999994
40
0.37499999999994
40
0.437499999999943
40
0.437499999999943
40
0.46874999999994
40
0.46874999999994
40
0.499999999999937
40
0.499999999999937
40
0.562499999999941
40
0.562499999999941
40
0.624999999999944
40
0.624999999999944
40
0.687499999999948
40
0.687499999999948
40
0.718749999999956
40
0.718749999999956
40
0.749999999999963
40
0.749999999999963
40
0.874999999999981
40
0.874999999999981
40
1
40
1
40
1
40
1
41
1
10
12.8137499513863
20
0.162350241173755
30
0
41
1
10
12.82673730316
20
0.158150706113929
30
0
41
1
10
12.8377022528977
20
0.154086172640177
30
0
41
1
10
12.854799676895
20
0.14627973108179
30
0
41
1
10
12.8609407896683
20
0.142537236576516
30
0
41
1
10
12.8655955466073
20
0.137227704719663
30
0
41
1
10
12.8663651299847
20
0.135523456204538
30
0
41
1
10
12.8662242590642
20
0.132281761492862
30
0
41
1
10
12.8644112511109
20
0.129198403756249
30
0
41
1
10
12.8590369504947
20
0.126452269834516
30
0
41
1
10
12.8517534732327
20
0.123886918500233
30
0
41
1
10
12.8471185711593
20
0.122689261812667
30
0
41
1
10
12.8305412839843
20
0.119457252512433
30
0
41
1
10
12.8159230457555
20
0.117761079414379
30
0
41
1
10
12.7889854679546
20
0.115860881858168
30
0
41
1
10
12.7791705283563
20
0.115334917657435
30
0
41
1
10
12.7579191780882
20
0.114491428796725
30
0
41
1
10
12.7466412527036
20
0.114180167276174
30
0
41
1
10
12.7111558271416
20
0.113542047614459
30
0
41
1
10
12.6852698792581
20
0.113507773892508
30
0
41
1
10
12.6437648090633
20
0.113925967707303
30
0
41
1
10
12.6294811363011
20
0.114144093610662
30
0
41
1
10
12.6001020123569
20
0.114722794437313
30
0
41
1
10
12.5850432260002
20
0.115082977027811
30
0
41
1
10
12.5393079535951
20
0.116339317790335
30
0
41
1
10
12.5079104095286
20
0.117413008390884
30
0
41
1
10
12.4437180083707
20
0.11992402339817
30
0
41
1
10
12.4109206369657
20
0.121362002124585
30
0
41
1
10
12.3442037263527
20
0.124529990154827
30
0
41
1
10
12.3102828941779
20
0.126260335941566
30
0
41
1
10
12.2587066845845
20
0.129036709894621
30
0
41
1
10
12.2413822838351
20
0.129993393558379
30
0
41
1
10
12.2066942572945
20
0.131952222773236
30
0
41
1
10
12.1893114682253
20
0.132955358967564
30
0
41
1
10
12.1022227908671
20
0.138077934464832
30
0
41
1
10
12.0320009627351
20
0.142513006512473
30
0
41
1
10
11.8907817064567
20
0.151857633757004
30
0
41
1
10
11.8197807958079
20
0.156769319418856
30
0
41
1
10
11.7484807433667
20
0.161864008867525
30
0
0
SPLINE
5
11B
100
AcDbEntity
8
1
62
256
6
ByLayer
370
18
48
1
60
0
100
AcDbSpline
70
4
71
3
72
8
73
4
40
0
40
0
40
0
40
0
40
1
40
1
40
1
40
1
41
1
10
12.776424195237
20
0.935305313475965
30
0
41
1
10
12.7711605691661
20
0.939950146670412
30
0
41
1
10
12.7658882801305
20
0.944577218917175
30
0
41
1
10
12.7606072899071
20
0.949186451848618
30
0
0
SPLINE
5
11C
100
AcDbEntity
8
1
62
256
6
ByLayer
370
18
48
1
60
0
100
AcDbSpline
70
4
71
3
72
8
73
4
40
0
40
0
40
0
40
0
40
1
40
1
40
1
40
1
41
1
10
12.7606072899105
20
0.949186451845122
30
0
41
1
10
12.7707555746034
20
0.94484573091853
30
0
41
1
10
12.7809013680407
20
0.940588181462402
30
0
41
1
10
12.7910446403223
20
0.936414801708253
30
0
0
SPLINE
5
11D
100
AcDbEntity
8
1
62
256
6
ByLayer
370
18
48
1
60
0
100
AcDbSpline
70
4
71
3
72
8
73
4
40
0
40
0
40
0
40
0
40
1
40
1
40
1
40
1
41
1
10
12.7553793046727
20
0.999502697030408
30
0
41
1
10
12.7670337614098
20
0.979129464079477
30
0
41
1
10
12.7789181990817
20
0.958111400400099
30
0
41
1
10
12.7910446403223
20
0.936414801708253
30
0
0
SPLINE
5
11E
100
AcDbEntity
8
1
62
256
6
ByLayer
370
18
48
1
60
0
100
AcDbSpline
70
4
71
3
72
8
73
4
40
0
40
0
40
0
40
0
40
1
40
1
40
1
40
1
41
1
10
12.8202894958469
20
0.500229659105912
30
0
41
1
10
12.8400594248061
20
0.391339493876075
30
0
41
1
10
12.8615027340341
20
0.282236949102952
30
0
41
1
10
12.8850346915403
20
0.173014033072008
30
0
0
SPLINE
5
11F
100
AcDbEntity
8
1
62
256
6
ByLayer
370
18
48
1
60
0
100
AcDbSpline
70
4
71
3
72
8
73
4
40
0
40
0
40
0
40
0
40
1
40
1
40
1
40
1
41
1
10
12.7764241952264
20
0.935305313472242
30
0
41
1
10
12.792576180248
20
0.790893779906639
30
0
41
1
10
12.807059765455
20
0.645806009642058
30
0
41
1
10
12.8202894958469
20
0.500229659105912
30
0
0
SPLINE
5
120
100
AcDbEntity
8
1
62
256
6
ByLayer
370
18
48
1
60
0
100
AcDbSpline
70
4
71
3
72
42
73
38
40
0
40
0
40
0
40
0
40
0.0770920899868133
40
0.0770920899868133
40
0.154184179973627
40
0.154184179973627
40
0.173457202470331
40
0.173457202470331
40
0.192730224967035
40
0.192730224967035
40
0.231276269960445
40
0.231276269960445
40
0.308368359947266
40
0.308368359947266
40
0.385460449934087
40
0.385460449934087
40
0.462552539920908
40
0.462552539920908
40
0.539644629907729
40
0.539644629907729
40
0.616736719894551
40
0.616736719894551
40
0.636009742391254
40
0.636009742391254
40
0.655282764887957
40
0.655282764887957
40
0.693828809881364
40
0.693828809881364
40
0.770920899868179
40
0.770920899868179
40
0.848012989854995
40
0.848012989854995
40
0.886559034848403
40
0.886559034848403
40
0.92510507984181
40
0.92510507984181
40
1
40
1
40
1
40
1
41
1
10
12.7764241952446
20
0.935305313472867
30
0
41
1
10
12.6427859077674
20
1.02438545105033
30
0
41
1
10
12.5095078626166
20
1.11206993195034
30
0
41
1
10
12.242756119476
20
1.28347890483178
30
0
41
1
10
12.1092215234213
20
1.36712716304893
30
0
41
1
10
11.9418458740976
20
1.46882709251241
30
0
41
1
10
11.9083512492853
20
1.48902830821979
30
0
41
1
10
11.8413230848151
20
1.52915366530462
30
0
41
1
10
11.8077762162098
20
1.54908554999008
30
0
41
1
10
11.707292853902
20
1.60833907838526
30
0
41
1
10
11.6404538449416
20
1.64715543901977
30
0
41
1
10
11.4403945089831
20
1.76155688653594
30
0
41
1
10
11.3076857211718
20
1.83515210968531
30
0
41
1
10
11.0431915784127
20
1.97643564884396
30
0
41
1
10
10.9113459386929
20
2.04406795926059
30
0
41
1
10
10.6475854831865
20
2.17254014240888
30
0
41
1
10
10.5156324590114
20
2.23335290780076
30
0
41
1
10
10.2510942385612
20
2.34771285173554
30
0
41
1
10
10.1185599314525
20
2.40130057218605
30
0
41
1
10
9.85278856548959
20
2.50114258155224
30
0
41
1
10
9.71955445895188
20
2.54741027434457
30
0
41
1
10
9.55239533663686
20
2.60048618836794
30
0
41
1
10
9.51893215962994
20
2.61086203207148
30
0
41
1
10
9.4519372130512
20
2.63112569272641
30
0
41
1
10
9.41839903267291
20
2.64101501961005
30
0
41
1
10
9.31790370420717
20
2.66987141814627
30
0
41
1
10
9.25099100064955
20
2.68805034860654
30
0
41
1
10
9.05043933969586
20
2.73934214710974
30
0
41
1
10
8.91698591532614
20
2.76919959212105
30
0
41
1
10
8.65003072481318
20
2.82039396822057
30
0
41
1
10
8.51654787054656
20
2.84169366261301
30
0
41
1
10
8.31600694453746
20
2.86697829734152
30
0
41
1
10
8.24905536297192
20
2.87429979187334
30
0
41
1
10
8.11528036431665
20
2.88665373091226
30
0
41
1
10
8.04846768620331
20
2.89168600345675
30
0
41
1
10
7.85197208260433
20
2.90312744313565
30
0
41
1
10
7.72241382193863
20
2.90636429089798
30
0
41
1
10
7.59281738982179
20
2.90528169399704
30
0
0
SPLINE
5
121
100
AcDbEntity
8
1
62
256
6
ByLayer
370
18
48
1
60
0
100
AcDbSpline
70
4
71
3
72
8
73
4
40
0
40
0
40
0
40
0
40
1
40
1
40
1
40
1
41
1
10
12.7900619761858
20
0.182621178168574
30
0
41
1
10
12.821686936643
20
0.179402399243884
30
0
41
1
10
12.853344776893
20
0.176200152509011
30
0
41
1
10
12.8850346915307
20
0.173014033072377
30
0
0
SPLINE
5
122
100
AcDbEntity
8
1
62
256
6
ByLayer
370
13
48
1
60
0
100
AcDbSpline
70
4
71
3
72
17
73
13
40
0
40
0
40
0
40
0
40
0.0806916523787786
40
0.172622487140901
40
0.264553321903023
40
0.356484156665145
40
0.448414991427267
40
0.540345826189389
40
0.632276660951511
40
0.724207495713634
40
0.816138330475756
40
1
40
1
40
1
40
1
41
1
10
8.83816623772
20
-2.5873989808735
30
0
41
1
10
8.60044415848006
20
-2.63466410855483
30
0
41
1
10
8.09188874590677
20
-2.70526641768214
30
0
41
1
10
7.31250000000011
20
-2.70804125832706
30
0
41
1
10
6.50000000000009
20
-2.59406156218793
30
0
41
1
10
5.68750000000009
20
-2.36931461189377
30
0
41
1
10
4.87500000000009
20
-2.04234280277993
30
0
41
1
10
4.06250000000009
20
-1.62584539089366
30
0
41
1
10
3.25000000000008
20
-1.14112095744093
30
0
41
1
10
2.43750000000011
20
-0.609256573376399
30
0
41
1
10
1.35416666666677
20
0.139156761523026
30
0
41
1
10
0.541666666666742
20
0.704548155117038
30
0
41
1
10
1.137E-13
20
1.04888300320752
30
0
0
SPLINE
5
123
100
AcDbEntity
8
1
62
256
6
ByLayer
370
18
48
1
60
0
100
AcDbSpline
70
4
71
3
72
70
73
66
40
0
40
0
40
0
40
0
40
0.0002856648611219
40
0.0002856648611219
40
0.0104868315462122
40
0.0104868315462122
40
0.0206879982313026
40
0.0206879982313026
40
0.0614926649716641
40
0.0614926649716641
40
0.102297331712026
40
0.102297331712026
40
0.183906665192749
40
0.183906665192749
40
0.22471133193311
40
0.22471133193311
40
0.245113665303291
40
0.245113665303291
40
0.26551599867347
40
0.26551599867347
40
0.306320665413832
40
0.306320665413832
40
0.347125332154194
40
0.347125332154194
40
0.428734665634918
40
0.428734665634918
40
0.469539332375281
40
0.469539332375281
40
0.479740499060371
40
0.479740499060371
40
0.489941665745462
40
0.489941665745462
40
0.510343999115643
40
0.510343999115643
40
0.551148665856007
40
0.551148665856007
40
0.59195333259637
40
0.59195333259637
40
0.612355665966551
40
0.612355665966551
40
0.632757999336732
40
0.632757999336732
40
0.673562666077093
40
0.673562666077093
40
0.693964999447273
40
0.693964999447273
40
0.704166166132363
40
0.704166166132363
40
0.714367332817454
40
0.714367332817454
40
0.755171999557817
40
0.755171999557817
40
0.795976666298181
40
0.795976666298181
40
0.836781333038544
40
0.836781333038544
40
0.877585999778908
40
0.877585999778908
40
0.918390666519271
40
0.918390666519271
40
0.938792999889453
40
0.938792999889453
40
0.959195333259635
40
0.959195333259635
40
1
40
1
40
1
40
1
41
1
10
9.78253046628831
20
-2.43225193687849
30
0
41
1
10
9.7815923781184
20
-2.432630861576
30
0
41
1
10
9.78065426272229
20
-2.43300959238053
30
0
41
1
10
9.74621480072901
20
-2.44690577917433
30
0
41
1
10
9.71267884807116
20
-2.46017614052099
30
0
41
1
10
9.6455308483194
20
-2.48621461424437
30
0
41
1
10
9.61189818456276
20
-2.49899010574086
30
0
41
1
10
9.44406527570442
20
-2.56138912780784
30
0
41
1
10
9.31050272804768
20
-2.60672530284796
30
0
41
1
10
9.04436933425541
20
-2.68792578838773
30
0
41
1
10
8.9118023622606
20
-2.72375953448008
30
0
41
1
10
8.514587687486
20
-2.81735083007524
30
0
41
1
10
8.25056039945099
20
-2.86102910839469
30
0
41
1
10
7.8526949580878
20
-2.89664872988519
30
0
41
1
10
7.71975978711444
20
-2.90354639785423
30
0
41
1
10
7.5194755818371
20
-2.90622084847283
30
0
41
1
10
7.45252055384751
20
-2.90583150590342
30
0
41
1
10
7.31845085758098
20
-2.90243155835483
30
0
41
1
10
7.25158991316133
20
-2.8994292361202
30
0
41
1
10
7.05145037874053
20
-2.88652094091506
30
0
41
1
10
6.91864742288811
20
-2.87260979591852
30
0
41
1
10
6.65339912892088
20
-2.83553972556837
30
0
41
1
10
6.52098521854657
20
-2.81230384571478
30
0
41
1
10
6.12378064198845
20
-2.72853537820893
30
0
41
1
10
5.8590955088053
20
-2.654067375604
30
0
41
1
10
5.45985051522231
20
-2.51426561638843
30
0
41
1
10
5.32639070712378
20
-2.462970318891
30
0
41
1
10
5.1587728492822
20
-2.39293962932476
30
0
41
1
10
5.12524282705584
20
-2.37865109879135
30
0
41
1
10
5.05832147228972
20
-2.34958252674477
30
0
41
1
10
5.02490656353746
20
-2.33479248512233
30
0
41
1
10
4.92477386605134
20
-2.2897003248637
30
0
41
1
10
4.8581660325747
20
-2.25868113665192
30
0
41
1
10
4.65861823391688
20
-2.16304952430977
30
0
41
1
10
4.52598810787933
20
-2.09578277949552
30
0
41
1
10
4.26112034553236
20
-1.9544649058563
30
0
41
1
10
4.12888005693364
20
-1.8804123955226
30
0
41
1
10
3.93040102757465
20
-1.76462505049639
30
0
41
1
10
3.86421651285607
20
-1.72526432763993
30
0
41
1
10
3.73171794450335
20
-1.64516620260315
30
0
41
1
10
3.66540739161041
20
-1.60441840793052
30
0
41
1
10
3.46623870376607
20
-1.48005459543262
30
0
41
1
10
3.33314587674656
20
-1.39431316126024
30
0
41
1
10
3.13270178148193
20
-1.26162655066997
30
0
41
1
10
3.06575574347698
20
-1.21670771216049
30
0
41
1
10
2.96509590937941
20
-1.1483380934738
30
0
41
1
10
2.9314898197367
20
-1.12537839256851
30
0
41
1
10
2.86441064162244
20
-1.07931645399597
30
0
41
1
10
2.83090990950862
20
-1.05619588792427
30
0
41
1
10
2.66356542979776
20
-0.940198698723378
30
0
41
1
10
2.53022874531823
20
-0.846093679453844
30
0
41
1
10
2.2644072515383
20
-0.655524239459567
30
0
41
1
10
2.13190477378237
20
-0.559087350858022
30
0
41
1
10
1.86723865943637
20
-0.364529796734246
30
0
41
1
10
1.73502618595361
20
-0.266491924015242
30
0
41
1
10
1.4702475385414
20
-0.069736480151164
30
0
41
1
10
1.33771602044797
20
0.029040570534562
30
0
41
1
10
1.07192178097193
20
0.226842748500303
30
0
41
1
10
0.938650960313169
20
0.325857093067071
30
0
41
1
10
0.737710901761488
20
0.473871312569713
30
0
41
1
10
0.670546138173364
20
0.523119570937752
30
0
41
1
10
0.536416768285733
20
0.620929110022956
30
0
41
1
10
0.469380514725202
20
0.669545863618936
30
0
41
1
10
0.268286256373614
20
0.814422067333652
30
0
41
1
10
0.134251178523982
20
0.909708917496545
30
0
41
1
10
8.53E-14
20
1.00337826733912
30
0
0
SPLINE
5
124
100
AcDbEntity
8
1
62
256
6
ByLayer
370
18
48
1
60
0
100
AcDbSpline
70
4
71
3
72
8
73
4
40
0
40
0
40
0
40
0
40
1
40
1
40
1
40
1
41
1
10
12.7505141444739
20
-2.99880485227581
30
0
41
1
10
12.765889146498
20
-2.99867466289399
30
0
41
1
10
12.781264880402
20
-2.99859435298742
30
0
41
1
10
12.7966408630501
20
-2.998563747731
30
0
0
SPLINE
5
125
100
AcDbEntity
8
1
62
256
6
ByLayer
370
13
48
1
60
0
100
AcDbSpline
70
4
71
3
72
14
73
10
40
0
40
0
40
0
40
0
40
0.0187911575109323
40
0.158963849295085
40
0.299136541079237
40
0.43930923286339
40
0.579481924647542
40
0.719654616431695
40
1
40
1
40
1
40
1
41
1
10
5.79642146882031
20
0.554718423870497
30
0
41
1
10
5.76011431254688
20
0.579400010681155
30
0
41
1
10
5.45297382294007
20
0.78764156394007
30
0
41
1
10
4.87499999999997
20
1.16953867087472
30
0
41
1
10
4.06249999999997
20
1.66035311561916
30
0
41
1
10
3.24999999999997
20
2.0836695733679
30
0
41
1
10
2.4375
20
2.41750836689025
30
0
41
1
10
1.35416666666663
20
2.73324794962099
30
0
41
1
10
0.541666666666629
20
2.81323992558921
30
0
41
1
10
-2.84E-14
20
2.78610856716796
30
0
0
SPLINE
5
126
100
AcDbEntity
8
1
62
256
6
ByLayer
370
18
48
1
60
0
100
AcDbSpline
70
4
71
3
72
8
73
4
40
0
40
0
40
0
40
0
40
1
40
1
40
1
40
1
41
1
10
12.7765910101845
20
-2.78114356014123
30
0
41
1
10
12.7710624312399
20
-2.77458141431566
30
0
41
1
10
12.7655239900678
20
-2.76801267492607
30
0
41
1
10
12.759975638772
20
-2.76143730995068
30
0
0
SPLINE
5
127
100
AcDbEntity
8
1
62
256
6
ByLayer
370
18
48
1
60
0
100
AcDbSpline
70
4
71
3
72
8
73
4
40
0
40
0
40
0
40
0
40
1
40
1
40
1
40
1
41
1
10
12.7599756387758
20
-2.7614373099581
30
0
41
1
10
12.769739451457
20
-2.75295089042783
30
0
41
1
10
12.779501905645
20
-2.74443023783792
30
0
41
1
10
12.7892629846619
20
-2.73587493191241
30
0
0
SPLINE
5
128
100
AcDbEntity
8
1
62
256
6
ByLayer
370
18
48
1
60
0
100
AcDbSpline
70
4
71
3
72
8
73
4
40
0
40
0
40
0
40
0
40
1
40
1
40
1
40
1
41
1
10
12.7531842861105
20
-2.54154386729206
30
0
41
1
10
12.7649637330287
20
-2.60661770820693
30
0
41
1
10
12.7769855796251
20
-2.67140000451869
30
0
41
1
10
12.7892629846619
20
-2.73587493191241
30
0
0
SPLINE
5
129
100
AcDbEntity
8
1
62
256
6
ByLayer
370
13
48
1
60
0
100
AcDbSpline
70
4
71
3
72
17
73
13
40
0
40
0
40
0
40
0
40
0.0776967021922735
40
0.189293527539511
40
0.300890352886748
40
0.412487178233985
40
0.524084003581222
40
0.63568082892846
40
0.747277654275697
40
0.858874479622934
40
0.970471304970171
40
1
40
1
40
1
40
1
41
1
10
12.7531842865808
20
-2.54154386713304
30
0
41
1
10
12.5646228577206
20
-2.49841298008892
30
0
41
1
10
12.105228095527
20
-2.37205444321768
30
0
41
1
10
11.3750000000001
20
-2.10133710754195
30
0
41
1
10
10.5625000000001
20
-1.70548236426978
30
0
41
1
10
9.75000000000011
20
-1.24876416143533
30
0
41
1
10
8.93750000000009
20
-0.740220923091528
30
0
41
1
10
8.12500000000014
20
-0.198511811262534
30
0
41
1
10
7.31250000000011
20
0.352160561026551
30
0
41
1
10
6.50000000000009
20
0.887004312604802
30
0
41
1
10
5.88667040852329
20
1.26243274483176
30
0
41
1
10
5.54417415037977
20
1.4573836565356
30
0
41
1
10
5.4725112255696
20
1.49747433675529
30
0
0
SPLINE
5
12A
100
AcDbEntity
8
1
62
256
6
ByLayer
370
18
48
1
60
0
100
AcDbSpline
70
4
71
3
72
8
73
4
40
0
40
0
40
0
40
0
40
1
40
1
40
1
40
1
41
1
10
12.8222220650048
20
-2.90858004489274
30
0
41
1
10
12.841260579418
20
-2.9356725318043
30
0
41
1
10
12.8618685460682
20
-2.96116920758541
30
0
41
1
10
12.8844177454815
20
-2.98463042396767
30
0
0
SPLINE
5
12B
100
AcDbEntity
8
1
62
256
6
ByLayer
370
18
48
1
60
0
100
AcDbSpline
70
4
71
3
72
8
73
4
40
0
40
0
40
0
40
0
40
1
40
1
40
1
40
1
41
1
10
12.776591010174
20
-2.78114356013219
30
0
41
1
10
12.793476404089
20
-2.82522374218098
30
0
41
1
10
12.8085278158172
20
-2.86755246418031
30
0
41
1
10
12.8222220650048
20
-2.90858004489274
30
0
0
SPLINE
5
12C
100
AcDbEntity
8
1
62
256
6
ByLayer
370
18
48
1
60
0
100
AcDbSpline
70
4
71
3
72
74
73
70
40
0
40
0
40
0
40
0
40
0.0347511829586633
40
0.0347511829586633
40
0.0521267744379955
40
0.0521267744379955
40
0.0695023659173277
40
0.0781901616569939
40
0.0781901616569939
40
0.08687795739666
40
0.08687795739666
40
0.104253548875993
40
0.104253548875993
40
0.139004731834661
40
0.139004731834661
40
0.173755914793329
40
0.173755914793329
40
0.208507097751997
40
0.208507097751997
40
0.243258280710666
40
0.243258280710666
40
0.278009463669334
40
0.278009463669334
40
0.286697259409001
40
0.286697259409001
40
0.295385055148668
40
0.312760646628002
40
0.347511829586668
40
0.347511829586668
40
0.417014195504003
40
0.417014195504003
40
0.486516561421338
40
0.486516561421338
40
0.556018927338673
40
0.556018927338673
40
0.590770110297341
40
0.590770110297341
40
0.625521293256009
40
0.625521293256009
40
0.660272476214677
40
0.660272476214677
40
0.67764806769401
40
0.67764806769401
40
0.686335863433677
40
0.686335863433677
40
0.695023659173344
40
0.695023659173344
40
0.72977484213201
40
0.72977484213201
40
0.764526025090677
40
0.764526025090677
40
0.781901616570011
40
0.781901616570011
40
0.799277208049344
40
0.799277208049344
40
0.834028391008012
40
0.834028391008012
40
0.86877957396668
40
0.86877957396668
40
0.886155165446014
40
0.886155165446014
40
0.894842961185682
40
0.894842961185682
40
0.903530756925349
40
0.938281939884017
40
0.938281939884017
40
0.973033122842685
40
0.973033122842685
40
1
40
1
40
1
40
1
41
1
10
12.7765910101935
20
-2.78114356013211
30
0
41
1
10
12.6424913349176
20
-2.75338192726494
30
0
41
1
10
12.508835981498
20
-2.72075457952684
30
0
41
1
10
12.3082267261425
20
-2.66497626902074
30
0
41
1
10
12.2413353245481
20
-2.64524661921064
30
0
41
1
10
12.1073789273386
20
-2.60360919977583
30
0
41
1
10
12.006786867639
20
-2.57074653137511
30
0
41
1
10
11.9060046382208
20
-2.53546299475545
30
0
41
1
10
11.8387738932477
20
-2.51140480946822
30
0
41
1
10
11.8051289498226
20
-2.4991045868903
30
0
41
1
10
11.7043735584475
20
-2.46149480171292
30
0
41
1
10
11.6373645723579
20
-2.43544786685544
30
0
41
1
10
11.4368215814217
20
-2.3544060459131
30
0
41
1
10
11.3038294085784
20
-2.2964632630775
30
0
41
1
10
11.0387667254387
20
-2.17313867477367
30
0
41
1
10
10.9066403261004
20
-2.10779939936157
30
0
41
1
10
10.6422752577844
20
-1.97066292147912
30
0
41
1
10
10.5099929003148
20
-1.89891184877612
30
0
41
1
10
10.2446739797612
20
-1.74971353586096
30
0
41
1
10
10.1116902918805
20
-1.67221705429816
30
0
41
1
10
9.84489677466158
20
-1.51162119243119
30
0
41
1
10
9.71109545678749
20
-1.42850977548912
30
0
41
1
10
9.54313717523252
20
-1.32126116030267
30
0
41
1
10
9.50948314619765
20
-1.29962711693341
30
0
41
1
10
9.44228160379191
20
-1.25615053114103
30
0
41
1
10
9.34160759829729
20
-1.19060357022934
30
0
41
1
10
9.10752677871747
20
-1.03543794910504
30
0
41
1
10
8.90805221344098
20
-0.898970126965935
30
0
41
1
10
8.50995933288797
20
-0.622378635711328
30
0
41
1
10
8.24571707650202
20
-0.433097768807869
30
0
41
1
10
7.71563655308753
20
-0.0501185648369074
30
0
41
1
10
7.44975364754464
20
0.143556943779004
30
0
41
1
10
6.91255869347586
20
0.529910248311069
30
0
41
1
10
6.64657632641914
20
0.71883986856372
30
0
41
1
10
6.24866238956494
20
0.992267677113119
30
0
41
1
10
6.11621775633827
20
1.08176730664999
30
0
41
1
10
5.85128536776031
20
1.25699661712656
30
0
41
1
10
5.71875848311538
20
1.34273507553257
30
0
41
1
10
5.45325313615763
20
1.50994044671865
30
0
41
1
10
5.32028727668754
20
1.59140632206731
30
0
41
1
10
5.12022753289801
20
1.70988582855628
30
0
41
1
10
5.05344088636807
20
1.74875370166094
30
0
41
1
10
4.95305295591194
20
1.80606165033447
30
0
41
1
10
4.91955509385994
20
1.8249994996745
30
0
41
1
10
4.85247825720361
20
1.86254117809651
30
0
41
1
10
4.8189002294942
20
1.88114456685878
30
0
41
1
10
4.6513146989891
20
1.97302299259584
30
0
41
1
10
4.51782091754564
20
2.04310601014115
30
0
41
1
10
4.25164552738474
20
2.17586314389391
30
0
41
1
10
4.11896251663728
20
2.23852687662901
30
0
41
1
10
3.9201708161302
20
2.32657486681612
30
0
41
1
10
3.85393679186902
20
2.35495136922216
30
0
41
1
10
3.72143787221401
20
2.4098078038345
30
0
41
1
10
3.65517795123714
20
2.43628061063453
30
0
41
1
10
3.45632783606652
20
2.51270513696397
30
0
41
1
10
3.32366894755998
20
2.55965969608573
30
0
41
1
10
3.05778354157761
20
2.64506487136796
30
0
41
1
10
2.92458442087909
20
2.68342555759267
30
0
41
1
10
2.7240006738329
20
2.73465606591336
30
0
41
1
10
2.65700904002213
20
2.75068820323574
30
0
41
1
10
2.55630191009541
20
2.77308064294101
30
0
41
1
10
2.52267018963991
20
2.78027314099083
30
0
41
1
10
2.45553058331396
20
2.79405218601164
30
0
41
1
10
2.28791482915994
20
2.82700653960069
30
0
41
1
10
2.12139964043433
20
2.85246440410577
30
0
41
1
10
1.85595095169364
20
2.88342095917076
30
0
41
1
10
1.72365641569272
20
2.89414479585378
30
0
41
1
10
1.48895401565107
20
2.90502905727999
30
0
41
1
10
1.38651240430286
20
2.90696154072978
30
0
41
1
10
1.28408761300011
20
2.9060100619395
30
0
0
SPLINE
5
12D
100
AcDbEntity
8
1
62
256
6
ByLayer
370
18
48
1
60
0
100
AcDbSpline
70
4
71
3
72
8
73
4
40
0
40
0
40
0
40
0
40
1
40
1
40
1
40
1
41
1
10
12.7966408630748
20
-2.99856374772756
30
0
41
1
10
12.825869875007
20
-2.99372458788065
30
0
41
1
10
12.8551291245964
20
-2.98908202437389
30
0
41
1
10
12.8844177454716
20
-2.98463042396935
30
0
0
SPLINE
5
12E
100
AcDbEntity
8
1
62
256
6
ByLayer
370
18
48
1
60
0
100
AcDbSpline
70
4
71
3
72
8
73
4
40
0
40
0
40
0
40
0
40
1
40
1
40
1
40
1
41
1
10
12.742598860165
20
0.186801161734962
30
0
41
1
10
12.7646233875314
20
0.178746806088213
30
0
41
1
10
12.788227425784
20
0.170602901872883
30
0
41
1
10
12.8137499815814
20
0.162350229662394
30
0
0
SPLINE
5
12F
100
AcDbEntity
8
1
62
256
6
ByLayer
370
13
48
1
60
0
100
AcDbSpline
70
4
71
3
72
18
73
14
40
0
40
0
40
0
40
0
40
0.0170282537541206
40
0.116472991254954
40
0.215917728755786
40
0.315362466256619
40
0.414807203757452
40
0.514251941258285
40
0.613696678759118
40
0.713141416259951
40
0.812586153760784
40
0.912030891261617
40
1
40
1
40
1
40
1
41
1
10
12.3266270822662
20
0.489212550342927
30
0
41
1
10
12.2802513881775
20
0.520073642562949
30
0
41
1
10
11.9630423607554
20
0.730528319246787
30
0
41
1
10
11.375
20
1.11118577933621
30
0
41
1
10
10.5625
20
1.59521711733356
30
0
41
1
10
9.74999999999997
20
2.01770404023912
30
0
41
1
10
8.93749999999997
20
2.35858100914973
30
0
41
1
10
8.125
20
2.60994287612243
30
0
41
1
10
7.31249999999997
20
2.76389477252482
30
0
41
1
10
6.49999999999997
20
2.81212704619847
30
0
41
1
10
5.68749999999997
20
2.74590424495457
30
0
41
1
10
4.90625336612007
20
2.58117501593199
30
0
41
1
10
4.39584006557348
20
2.41668984968598
30
0
41
1
10
4.15626009836029
20
2.32794304436692
30
0
0
SPLINE
5
130
100
AcDbEntity
8
1
62
256
6
ByLayer
370
18
48
1
60
0
100
AcDbSpline
70
4
71
3
72
63
73
59
40
0
40
0
40
0
40
0
40
0.0312499999999988
40
0.0312499999999988
40
0.0624999999999977
40
0.0624999999999977
40
0.0703124999999979
40
0.0703124999999979
40
0.0781249999999982
40
0.0937499999999986
40
0.125
40
0.125
40
0.1875
40
0.1875
40
0.21875
40
0.21875
40
0.234375
40
0.2421875
40
0.2421875
40
0.25
40
0.25
40
0.312500000000001
40
0.312500000000001
40
0.375000000000002
40
0.375000000000002
40
0.406250000000001
40
0.406250000000001
40
0.421875000000001
40
0.421875000000001
40
0.437500000000001
40
0.437500000000001
40
0.5
40
0.5
40
0.562499999999998
40
0.562499999999998
40
0.593749999999998
40
0.593749999999998
40
0.609374999999998
40
0.609374999999998
40
0.624999999999998
40
0.624999999999998
40
0.687499999999998
40
0.687499999999998
40
0.749999999999997
40
0.749999999999997
40
0.781249999999998
40
0.781249999999998
40
0.812499999999998
40
0.812499999999998
40
0.874999999999999
40
0.874999999999999
40
0.937499999999999
40
0.937499999999999
40
0.953124999999999
40
0.953124999999999
40
0.96875
40
0.96875
40
1
40
1
40
1
40
1
41
1
10
1.421E-13
20
2.9947250549549
30
0
41
1
10
0.133968302668052
20
3.0006495391755
30
0
41
1
10
0.267683506974862
20
3.00156414099919
30
0
41
1
10
0.535032910696088
20
2.99345050079131
30
0
41
1
10
0.668663487059092
20
2.98445140814928
30
0
41
1
10
0.835954439001654
20
2.96693855044322
30
0
41
1
10
0.869437991215079
20
2.96312053372361
30
0
41
1
10
0.936290039104733
20
2.95487814380078
30
0
41
1
10
1.03644431146188
20
2.94160033806739
30
0
41
1
10
1.26935874861459
20
2.90430180171043
30
0
41
1
10
1.46796230332706
20
2.86170924523717
30
0
41
1
10
1.86455885579906
20
2.76291669773369
30
0
41
1
10
2.12816144939393
20
2.67884446586558
30
0
41
1
10
2.52528293530219
20
2.5272850512998
30
0
41
1
10
2.65793663352619
20
2.47253407750119
30
0
41
1
10
2.85766502952876
20
2.38420109109663
30
0
41
1
10
2.95771612376802
20
2.33848074261221
30
0
41
1
10
3.05810658244562
20
2.29044419940038
30
0
41
1
10
3.12511541181414
20
2.25790565341117
30
0
41
1
10
3.15865016401918
20
2.24138427445408
30
0
41
1
10
3.45985376878892
20
2.09090365965332
30
0
41
1
10
3.72496299177013
20
1.94360607891494
30
0
41
1
10
4.25354823856858
20
1.62615064040742
30
0
41
1
10
4.51704248192809
20
1.45598832058576
30
0
41
1
10
4.91412696204051
20
1.18707964999879
30
0
41
1
10
5.04680170788961
20
1.09515518181408
30
0
41
1
10
5.24668566018929
20
0.954270727566609
30
0
41
1
10
5.31345848568606
20
0.906810626626793
30
0
41
1
10
5.44735737177777
20
0.81096778703224
30
0
41
1
10
5.51424873904199
20
0.762752825022375
30
0
41
1
10
5.84782831782695
20
0.520961155377051
30
0
41
1
10
6.11269087708524
20
0.324750114813099
30
0
41
1
10
6.64174447731878
20
-0.0687002919364943
30
0
41
1
10
6.90582169389918
20
-0.266094184749306
30
0
41
1
10
7.30378921971098
20
-0.559756391234288
30
0
41
1
10
7.43676312360947
20
-0.657226212303101
30
0
41
1
10
7.63709132574468
20
-0.802274541105476
30
0
41
1
10
7.70410561462481
20
-0.85049627337682
30
0
41
1
10
7.83766936650568
20
-0.94587183794718
30
0
41
1
10
7.90429322679717
20
-0.993080358309641
30
0
41
1
10
8.23679410761068
20
-1.22654068456311
30
0
41
1
10
8.50083721693025
20
-1.40502442216848
30
0
41
1
10
9.02910487366378
20
-1.74097665938845
30
0
41
1
10
9.29333747411224
20
-1.89844964100533
30
0
41
1
10
9.69238362041139
20
-2.1159633361957
30
0
41
1
10
9.82585831385464
20
-2.18537163010919
30
0
41
1
10
10.0939915280196
20
-2.31740100187139
30
0
41
1
10
10.2273513153086
20
-2.37937687527594
30
0
41
1
10
10.6260147397483
20
-2.55286876684724
30
0
41
1
10
10.8898976204256
20
-2.65194986765343
30
0
41
1
10
11.417851411525
20
-2.81474920668907
30
0
41
1
10
11.6819274824959
20
-2.87848106523964
30
0
41
1
10
12.0146761396306
20
-2.93437867917575
30
0
41
1
10
12.0813584634073
20
-2.94436879532193
30
0
41
1
10
12.2150498939402
20
-2.96192671105112
30
0
41
1
10
12.2820970072596
20
-2.9694953603798
30
0
41
1
10
12.4829312521228
20
-2.98843707058697
30
0
41
1
10
12.6166894877989
20
-2.99608727838697
30
0
41
1
10
12.7505141444747
20
-2.99880485227544
30
0
0
SPLINE
5
131
100
AcDbEntity
8
1
62
256
6
ByLayer
370
18
48
1
60
0
100
AcDbSpline
70
4
71
3
72
8
73
4
40
0
40
0
40
0
40
0
40
1
40
1
40
1
40
1
41
1
10
12.742598860165
20
0.186801161734962
30
0
41
1
10
12.7584193001344
20
0.185403462721069
30
0
41
1
10
12.7742404968269
20
0.184010121719638
30
0
41
1
10
12.7900619761824
20
0.182621178130404
30
0
0
SPLINE
5
132
100
AcDbEntity
8
1
62
256
6
ByLayer
370
18
48
1
60
0
100
AcDbSpline
70
4
71
3
72
45
73
41
40
0
40
0
40
0
40
0
40
0.122575304379912
40
0.122575304379912
40
0.1378972174274
40
0.1378972174274
40
0.153219130474888
40
0.183862956569862
40
0.183862956569862
40
0.245150608759811
40
0.245150608759811
40
0.367725913139709
40
0.367725913139709
40
0.429013565329658
40
0.429013565329658
40
0.459657391424631
40
0.459657391424631
40
0.490301217519605
40
0.490301217519605
40
0.55158886970955
40
0.55158886970955
40
0.612876521899494
40
0.612876521899494
40
0.643520347994466
40
0.643520347994466
40
0.674164174089438
40
0.674164174089438
40
0.735451826279378
40
0.735451826279378
40
0.85802713065926
40
0.85802713065926
40
0.919314782849201
40
0.919314782849201
40
0.949958608944171
40
0.949958608944171
40
0.965280521991655
40
0.965280521991655
40
0.98060243503914
40
0.98060243503914
40
1
40
1
40
1
40
1
41
1
10
1.137E-13
20
0.236069073364803
30
0
41
1
10
0.268185617940191
20
0.0309164659337
30
0
41
1
10
0.535247461434011
20
-0.175087686083572
30
0
41
1
10
0.836632044537652
20
-0.404928531077843
30
0
41
1
10
0.870139777405626
20
-0.430443994660664
30
0
41
1
10
0.937029246017772
20
-0.481281570015284
30
0
41
1
10
1.03723397176506
20
-0.557292627776491
30
0
41
1
10
1.13709354255641
20
-0.632536644263695
30
0
41
1
10
1.33646096475115
20
-0.781879967114264
30
0
41
1
10
1.4689044378807
20
-0.879912295781196
30
0
41
1
10
1.86567805393039
20
-1.16846283810023
30
0
41
1
10
2.12946963024873
20
-1.35338098406456
30
0
41
1
10
2.5272804294988
20
-1.61575689358486
30
0
41
1
10
2.66023127389306
20
-1.70072987847149
30
0
41
1
10
2.86054261611792
20
-1.82399204072019
30
0
41
1
10
2.92746058862934
20
-1.86437907700235
30
0
41
1
10
3.06164952425689
20
-1.94367379074666
30
0
41
1
10
3.12874326827216
20
-1.98247360454565
30
0
41
1
10
3.32971776227009
20
-2.09606180286315
30
0
41
1
10
3.46344457348025
20
-2.16815082026835
30
0
41
1
10
3.73083864388008
20
-2.30469185471335
30
0
41
1
10
3.86450615121888
20
-2.36914000738969
30
0
41
1
10
4.06536476118083
20
-2.45965534379187
30
0
41
1
10
4.13242236643856
20
-2.48881448833498
30
0
41
1
10
4.2660463998445
20
-2.54472896710541
30
0
41
1
10
4.332692819794
20
-2.57152314318341
30
0
41
1
10
4.5322461451988
20
-2.6483881595901
30
0
41
1
10
4.66476699228448
20
-2.69494632116269
30
0
41
1
10
5.06166345347364
20
-2.82015934799725
30
0
41
1
10
5.32540366382403
20
-2.88424808385113
30
0
41
1
10
5.72302091743467
20
-2.9503425395099
30
0
41
1
10
5.85588815295358
20
-2.96737570276215
30
0
41
1
10
6.05603892999474
20
-2.98527042506404
30
0
41
1
10
6.12289716676483
20
-2.98995869943408
30
0
41
1
10
6.22343852677901
20
-2.99504740193745
30
0
41
1
10
6.25701996862821
20
-2.99642004874499
30
0
41
1
10
6.324065136466
20
-2.99850641868451
30
0
41
1
10
6.35754607901401
20
-2.99922152258964
30
0
41
1
10
6.43332670834857
20
-3.00010276568489
30
0
41
1
10
6.47560158707194
20
-3.00007317391348
30
0
41
1
10
6.51782073107006
20
-2.99952359287966
30
0
0
SPLINE
5
133
100
AcDbEntity
8
1
62
256
6
ByLayer
370
18
48
1
60
0
100
AcDbSpline
70
4
71
3
72
43
73
39
40
0
40
0
40
0
40
0
40
0.018426776360695
40
0.018426776360695
40
0.107660705782441
40
0.107660705782441
40
0.196894635204187
40
0.196894635204187
40
0.208048876381905
40
0.208048876381905
40
0.219203117559624
40
0.241511599915063
40
0.241511599915063
40
0.28612856462594
40
0.28612856462594
40
0.375362494047692
40
0.375362494047692
40
0.464596423469443
40
0.464596423469443
40
0.475750664647163
40
0.475750664647163
40
0.486904905824882
40
0.509213388180321
40
0.553830352891198
40
0.553830352891198
40
0.643064282312953
40
0.643064282312953
40
0.732298211734707
40
0.732298211734707
40
0.743452452912428
40
0.743452452912428
40
0.754606694090149
40
0.77691517644559
40
0.821532141156473
40
0.821532141156473
40
0.910766070578236
40
0.910766070578236
40
1
40
1
40
1
40
1
41
1
10
3.82657367009074
20
2.38661328099224
30
0
41
1
10
3.88132739243545
20
2.41071669587475
30
0
41
1
10
3.93602044209291
20
2.43417421081045
30
0
41
1
10
4.25530599941439
20
2.56738968578841
30
0
41
1
10
4.51887396432264
20
2.66241685362104
30
0
41
1
10
5.04757582030666
20
2.81907624726335
30
0
41
1
10
5.31274219173886
20
2.8805693344157
30
0
41
1
10
5.61407207547742
20
2.92941893264123
30
0
41
1
10
5.64759265577592
20
2.93456361964945
30
0
41
1
10
5.71450998051873
20
2.94425542415482
30
0
41
1
10
5.81478041291831
20
2.95791014078108
30
0
41
1
10
5.91476542727841
20
2.96893060681683
30
0
41
1
10
6.11443110549831
20
2.98749084718949
30
0
41
1
10
6.24713798538559
20
2.99522692625436
30
0
41
1
10
6.64457179706326
20
3.00466276005594
30
0
41
1
10
6.90854399846225
20
2.99259650725529
30
0
41
1
10
7.43766523826693
20
2.93152175691401
30
0
41
1
10
7.70282613314686
20
2.8825629655212
30
0
41
1
10
8.0039349284109
20
2.80679731865538
30
0
41
1
10
8.03742018272558
20
2.79809331905716
30
0
41
1
10
8.1042640715479
20
2.78016927145893
30
0
41
1
10
8.20441789922867
20
2.75248953366687
30
0
41
1
10
8.4374084104723
20
2.68242793397059
30
0
41
1
10
8.63618901981118
20
2.61326149308871
30
0
41
1
10
9.03320375101737
20
2.4634106230047
30
0
41
1
10
9.297181577972
20
2.34817317697565
30
0
41
1
10
9.82682973318219
20
2.08988637898534
30
0
41
1
10
10.0924066306303
20
1.94676000534272
30
0
41
1
10
10.3937950405964
20
1.77116446990502
30
0
41
1
10
10.4273033556057
20
1.75146097404666
30
0
41
1
10
10.4941801818562
20
1.71178779262527
30
0
41
1
10
10.5943645263011
20
1.65183298605669
30
0
41
1
10
10.8272887093778
20
1.50892706162625
30
0
41
1
10
11.0257661748416
20
1.38163644252072
30
0
41
1
10
11.4218607320851
20
1.12161338110454
30
0
41
1
10
11.6847875712793
20
0.941025544048756
30
0
41
1
10
12.2119226604078
20
0.570154929584874
30
0
41
1
10
12.4761394728373
20
0.379877066458022
30
0
41
1
10
12.7425988601646
20
0.18680116173482
30
0
0
SPLINE
5
134
100
AcDbEntity
8
SK1
62
256
6
ByLayer
370
18
48
1
60
0
100
AcDbSpline
70
4
71
3
72
12
73
8
40
0
40
0
40
0
40
0
40
0.250733449759433
40
0.250733449759433
40
0.507996910186077
40
0.507996910186077
40
1
40
1
40
1
40
1
41
1
10
0
20
-2.8337456714676
30
0
41
1
10
0
20
-2.84738962529019
30
0
41
1
10
-2.84E-14
20
-2.86103748821654
30
0
41
1
10
-2.84E-14
20
-2.8886965735893
30
0
41
1
10
-2.84E-14
20
-2.90270800234393
30
0
41
1
10
-2.84E-14
20
-2.94352754980028
30
0
41
1
10
-2.84E-14
20
-2.97034660405751
30
0
41
1
10
-2.84E-14
20
-2.99718070705151
30
0
0
SPLINE
5
135
100
AcDbEntity
8
SK1
62
256
6
ByLayer
370
18
48
1
60
0
100
AcDbSpline
70
4
71
3
72
11
73
7
40
0
40
0
40
0
40
0
40
0.0616201540198251
40
0.389654001938294
40
0.717687849856764
40
1
40
1
40
1
40
1
41
1
10
-0.765674606026948
20
-2.96969479608598
30
0
41
1
10
-0.749963430018767
20
-2.97127229419451
30
0
41
1
10
-0.650608726218252
20
-2.98085638043096
30
0
41
1
10
-0.46754682223272
20
-2.99394656799322
30
0
41
1
10
-0.228030243702136
20
-3.0009657587415
30
0
41
1
10
-0.0721351190919393
20
-2.999282319136
30
0
41
1
10
-9.6873407E-09
20
-2.99718070873234
30
0
0
SPLINE
5
136
100
AcDbEntity
8
SK1
62
256
6
ByLayer
370
18
48
1
60
0
100
AcDbSpline
70
4
71
3
72
26
73
22
40
0
40
0
40
0
40
0
40
0.0526264868714021
40
0.105244510869731
40
0.157855862639748
40
0.210462243441804
40
0.263065313505279
40
0.315666692933258
40
0.368267962576721
40
0.420870664879315
40
0.473476304693488
40
0.526086350068774
40
0.578702233013396
40
0.631325350229817
40
0.683957063825186
40
0.736598701997715
40
0.789251559699559
40
0.841916899277423
40
0.894595953222938
40
0.947289929337179
40
1
40
1
40
1
40
1
41
1
10
-0.451052305051888
20
-2.76017105097964
30
0
41
1
10
-0.456869235359363
20
-2.76303396064608
30
0
41
1
10
-0.468502160552873
20
-2.76875931959404
30
0
41
1
10
-0.485831119055462
20
-2.77770347325424
30
0
41
1
10
-0.503069824167
20
-2.78690393572634
30
0
41
1
10
-0.520209788981305
20
-2.79638382444327
30
0
41
1
10
-0.53725330811352
20
-2.80613355393399
30
0
41
1
10
-0.554199786869162
20
-2.81615231802399
30
0
41
1
10
-0.571049405125422
20
-2.82643697697082
30
0
41
1
10
-0.587802135699775
20
-2.83698503457725
30
0
41
1
10
-0.604458007235706
20
-2.84779384055238
30
0
41
1
10
-0.621017034102266
20
-2.85886080322143
30
0
41
1
10
-0.637479233784802
20
-2.87018333540704
30
0
41
1
10
-0.653844627299719
20
-2.88175885728552
30
0
41
1
10
-0.670113220014827
20
-2.8935848381949
30
0
41
1
10
-0.686285077850954
20
-2.90565862560965
30
0
41
1
10
-0.702360041457695
20
-2.91797808671848
30
0
41
1
10
-0.718338793735427
20
-2.93053921168331
30
0
41
1
10
-0.734218875629807
20
-2.94334506242495
30
0
41
1
10
-0.750009560978498
20
-2.95637237008049
30
0
41
1
10
-0.760452392825442
20
-2.96525353538439
30
0
41
1
10
-0.765674606026948
20
-2.96969479608598
30
0
0
SPLINE
5
137
100
AcDbEntity
8
SK1
62
256
6
ByLayer
370
18
48
1
60
0
100
AcDbSpline
70
4
71
3
72
8
73
4
40
0
40
0
40
0
40
0
40
1
40
1
40
1
40
1
41
1
10
-0.674159669354594
20
-2.82693774913378
30
0
41
1
10
-0.599982379349683
20
-2.80342138779704
30
0
41
1
10
-0.525613156366973
20
-2.78116773427322
30
0
41
1
10
-0.451052808378762
20
-2.76017147299296
30
0
0
SPLINE
5
138
100
AcDbEntity
8
SK1
62
256
6
ByLayer
370
18
48
1
60
0
100
AcDbSpline
70
4
71
3
72
8
73
4
40
0
40
0
40
0
40
0
40
1
40
1
40
1
40
1
41
1
10
2.84E-14
20
-2.8337456714676
30
0
41
1
10
-0.151684196971786
20
-2.81373562925373
30
0
41
1
10
-0.302095599394676
20
-2.78941605185756
30
0
41
1
10
-0.45105230906114
20
-2.7601710529795
30
0
0
SPLINE
5
139
100
AcDbEntity
8
SK1
62
256
6
ByLayer
370
18
48
1
60
0
100
AcDbSpline
70
4
71
3
72
8
73
4
40
0
40
0
40
0
40
0
40
1
40
1
40
1
40
1
41
1
10
-0.637762139083719
20
1.36712826343839
30
0
41
1
10
-0.567044476413514
20
1.33159853674786
30
0
41
1
10
-0.496130677299732
20
1.29571902463476
30
0
41
1
10
-0.425021490254324
20
1.25949106197888
30
0
0
SPLINE
5
13A
100
AcDbEntity
8
SK1
62
256
6
ByLayer
370
18
48
1
60
0
100
AcDbSpline
70
4
71
3
72
12
73
8
40
0
40
0
40
0
40
0
40
0.248531306742182
40
0.248531306742182
40
0.506135580133877
40
0.506135580133877
40
1
40
1
40
1
40
1
41
1
10
0
20
1.00337826733912
30
0
41
1
10
0
20
0.942276567137981
30
0
41
1
10
0
20
0.88117642501382
30
0
41
1
10
0
20
0.756748773634826
30
0
41
1
10
0
20
0.693421379940645
30
0
41
1
10
0
20
0.508691159035322
30
0
41
1
10
1.137E-13
20
0.387292813120212
30
0
41
1
10
1.137E-13
20
0.265900631775167
30
0
0
SPLINE
5
13B
100
AcDbEntity
8
SK1
62
256
6
ByLayer
370
18
48
1
60
0
100
AcDbSpline
70
4
71
3
72
8
73
4
40
0
40
0
40
0
40
0
40
1
40
1
40
1
40
1
41
1
10
8.53E-14
20
1.00337826733909
30
0
41
1
10
-0.143067182028659
20
1.08864554857968
30
0
41
1
10
-0.284817425023931
20
1.17401066427121
30
0
41
1
10
-0.425020771940979
20
1.25949069775672
30
0
0
SPLINE
5
13C
100
AcDbEntity
8
SK1
62
256
6
ByLayer
370
18
48
1
60
0
100
AcDbSpline
70
4
71
3
72
26
73
22
40
0
40
0
40
0
40
0
40
0.0525640864425053
40
0.105123069341209
40
0.157679376824728
40
0.210235380391983
40
0.262793399925615
40
0.315355735062715
40
0.367924642010646
40
0.420502311608775
40
0.473090870469081
40
0.525692382359085
40
0.578308849562281
40
0.630942214215469
40
0.683594359622527
40
0.736267111544513
40
0.788962239465621
40
0.841681457835108
40
0.894426427284764
40
0.947198755822256
40
1
40
1
40
1
40
1
41
1
10
-0.42502077006651
20
1.25949070025382
30
0
41
1
10
-0.430977432834993
20
1.25168827456815
30
0
41
1
10
-0.442890180028655
20
1.23608418074866
30
0
41
1
10
-0.460627114059605
20
1.21276490907587
30
0
41
1
10
-0.47826574616056
20
1.18951238457967
30
0
41
1
10
-0.495796692639914
20
1.16633347637546
30
0
41
1
10
-0.513222475942513
20
1.14322735224417
30
0
41
1
10
-0.53054239913439
20
1.12019515494367
30
0
41
1
10
-0.547756617060998
20
1.09723742369579
30
0
41
1
10
-0.564865064277939
20
1.07435480662926
30
0
41
1
10
-0.581867738322387
20
1.05154787550737
30
0
41
1
10
-0.598764623365355
20
1.02881717604595
30
0
41
1
10
-0.615555709014046
20
1.00616321571076
30
0
41
1
10
-0.632240990907292
20
0.983586462415417
30
0
41
1
10
-0.648820448990961
20
0.961087362153393
30
0
41
1
10
-0.665294133352006
20
0.938666269973083
30
0
41
1
10
-0.681661841920857
20
0.916323708856851
30
0
41
1
10
-0.697924324059301
20
0.894059402939746
30
0
41
1
10
-0.71407878509811
20
0.871875888426729
30
0
41
1
10
-0.730135675755406
20
0.849765027709338
30
0
41
1
10
-0.740746207125369
20
0.835098085461993
30
0
41
1
10
-0.746052925874295
20
0.827762605767361
30
0
0
SPLINE
5
13D
100
AcDbEntity
8
SK1
62
256
6
ByLayer
370
18
48
1
60
0
100
AcDbSpline
70
4
71
3
72
8
73
4
40
0
40
0
40
0
40
0
40
1
40
1
40
1
40
1
41
1
10
3.979E-13
20
0.265900631774628
30
0
41
1
10
3.979E-13
20
0.256003409873728
30
0
41
1
10
-2.84E-14
20
0.246106198886451
30
0
41
1
10
-2.84E-14
20
0.236208998816721
30
0
0
SPLINE
5
13E
100
AcDbEntity
8
SK1
62
256
6
ByLayer
370
18
48
1
60
0
100
AcDbSpline
70
4
71
3
72
11
73
7
40
0
40
0
40
0
40
0
40
0.330017161262434
40
0.671462528782029
40
0.842185212541827
40
1
40
1
40
1
40
1
41
1
10
-0.746052925874267
20
0.827762605767361
30
0
41
1
10
-0.66406942203875
20
0.767301635570021
30
0
41
1
10
-0.497194632956365
20
0.643121557384916
30
0
41
1
10
-0.287745541893543
20
0.485059543161583
30
0
41
1
10
-0.121045610301877
20
0.358314797811971
30
0
41
1
10
-0.039280599548789
20
0.295917773548808
30
0
41
1
10
8.811E-13
20
0.265900631774571
30
0
0
SPLINE
5
13F
100
AcDbEntity
8
SK1
62
256
6
ByLayer
370
18
48
1
60
0
100
AcDbSpline
70
4
71
3
72
34
73
30
40
0
40
0
40
0
40
0
40
0.0217148092811189
40
0.0217148092811189
40
0.0580877068517818
40
0.0580877068517818
40
0.0944606044224448
40
0.130833501993108
40
0.130833501993108
40
0.167206399563771
40
0.167206399563771
40
0.239952194705086
40
0.239952194705086
40
0.312697989846402
40
0.312697989846402
40
0.458189580129023
40
0.458189580129023
40
0.530935375270334
40
0.530935375270334
40
0.603681170411644
40
0.676426965552955
40
0.676426965552955
40
0.749172760694266
40
0.749172760694266
40
0.821918555835576
40
0.821918555835576
40
0.894664350976887
40
0.894664350976887
40
1
40
1
40
1
40
1
41
1
10
-2.35632304942888
20
-2.9999921170641
30
0
41
1
10
-2.34381917080029
20
-2.99997448713088
30
0
41
1
10
-2.3311375702263
20
-2.99993366939339
30
0
41
1
10
-2.29677774251874
20
-2.99977806475874
30
0
41
1
10
-2.2748393053659
20
-2.99962986912937
30
0
41
1
10
-2.23059550739009
20
-2.999272828079
30
0
41
1
10
-2.18587079476325
20
-2.998854420323
30
0
41
1
10
-2.14029464465045
20
-2.99837030699166
30
0
41
1
10
-2.09433378834569
20
-2.99787441830472
30
0
41
1
10
-2.07114116155716
20
-2.9976203673331
30
0
41
1
10
-2.00130494207997
20
-2.99686767306417
30
0
41
1
10
-1.95433464848287
20
-2.99637915637806
30
0
41
1
10
-1.85969324013306
20
-2.99551098070643
30
0
41
1
10
-1.81199688227855
20
-2.99513079738475
30
0
41
1
10
-1.66888257481821
20
-2.99422113532387
30
0
41
1
10
-1.57312391702825
20
-2.99392698903822
30
0
41
1
10
-1.42904911043348
20
-2.99397958979424
30
0
41
1
10
-1.3809615791717
20
-2.99407735780261
30
0
41
1
10
-1.28512552254483
20
-2.99441128026976
30
0
41
1
10
-1.18950395500502
20
-2.99488341985776
30
0
41
1
10
-1.09428829751946
20
-2.99556471190059
30
0
41
1
10
-0.999267661755397
20
-2.99630650662328
30
0
41
1
10
-0.951890078344178
20
-2.9967073722195
30
0
41
1
10
-0.857630640149125
20
-2.99751284785441
30
0
41
1
10
-0.810712943671859
20
-2.99791772389076
30
0
41
1
10
-0.717287038726539
20
-2.9986692350623
30
0
41
1
10
-0.670750421703985
20
-2.99901599959574
30
0
41
1
10
-0.557563846681148
20
-2.99970586263487
30
0
41
1
10
-0.491216662443634
20
-2.99997956313419
30
0
41
1
10
-0.425444327143708
20
-2.999999272237
30
0
0
SPLINE
5
140
100
AcDbEntity
8
SK1
62
256
6
ByLayer
370
18
48
1
60
0
100
AcDbSpline
70
4
71
3
72
8
73
4
40
0
40
0
40
0
40
0
40
1
40
1
40
1
40
1
41
1
10
8.53E-14
20
-2.99618405505822
30
0
41
1
10
-0.0469912650177662
20
-2.99789495921044
30
0
41
1
10
-0.093939095335287
20
-2.99902624751394
30
0
41
1
10
-0.140980422758048
20
-2.99958651717603
30
0
0
SPLINE
5
141
100
AcDbEntity
8
SK1
62
256
6
ByLayer
370
18
48
1
60
0
100
AcDbSpline
70
4
71
3
72
12
73
8
40
0
40
0
40
0
40
0
40
0.314393461187747
40
0.314393461187747
40
0.657196730593874
40
0.657196730593874
40
1
40
1
40
1
40
1
41
1
10
-0.210800376739286
20
-3.00000016609121
30
0
41
1
10
-0.270492838058601
20
-3.00000021959786
30
0
41
1
10
-0.330446987141414
20
-2.99910671611755
30
0
41
1
10
-0.45564822687308
20
-2.99541130190028
30
0
41
1
10
-0.520826505831394
20
-2.99243328242545
30
0
41
1
10
-0.650791268211947
20
-2.98430710050499
30
0
41
1
10
-0.71561361385065
20
-2.97916003130311
30
0
41
1
10
-0.7803646248598
20
-2.97291630229677
30
0
0
SPLINE
5
142
100
AcDbEntity
8
SK1
62
256
6
ByLayer
370
13
48
1
60
0
100
AcDbSpline
70
4
71
3
72
8
73
4
40
0
40
0
40
0
40
0
40
1
40
1
40
1
40
1
41
1
10
-0.780362265154309
20
-2.97291581213634
30
0
41
1
10
-0.775819792159638
20
-2.97195515457509
30
0
41
1
10
-0.771277319164938
20
-2.97096905738752
30
0
41
1
10
-0.766734846170237
20
-2.96995754588787
30
0
0
SPLINE
5
143
100
AcDbEntity
8
SK1
62
256
6
ByLayer
370
18
48
1
60
0
100
AcDbSpline
70
4
71
3
72
20
73
16
40
0
40
0
40
0
40
0
40
0.249999999999997
40
0.249999999999997
40
0.374999999999997
40
0.374999999999997
40
0.437499999999997
40
0.437499999999997
40
0.499999999999998
40
0.499999999999998
40
0.749999999999999
40
0.749999999999999
40
0.875
40
0.875
40
1
40
1
40
1
40
1
41
1
10
-0.766734848481661
20
-2.96995754566396
30
0
41
1
10
-0.779828144850768
20
-2.96278333224944
30
0
41
1
10
-0.788326403924259
20
-2.95427550856152
30
0
41
1
10
-0.793296654292732
20
-2.93939293365369
30
0
41
1
10
-0.793652436493318
20
-2.93407818729642
30
0
41
1
10
-0.792067262977582
20
-2.9255553791896
30
0
41
1
10
-0.791180542965662
20
-2.92261584008875
30
0
41
1
10
-0.788705862268927
20
-2.91662855809165
30
0
41
1
10
-0.787117953339617
20
-2.91357313652785
30
0
41
1
10
-0.777442426812001
20
-2.89800279710406
30
0
41
1
10
-0.764168475731964
20
-2.88460854640042
30
0
41
1
10
-0.73601663495802
20
-2.86340254014579
30
0
41
1
10
-0.725192862376019
20
-2.85611717446116
30
0
41
1
10
-0.701340724539563
20
-2.84155684599173
30
0
41
1
10
-0.688276896436292
20
-2.83424809917989
30
0
41
1
10
-0.674159669357607
20
-2.82693774913534
30
0
0
SPLINE
5
144
100
AcDbEntity
8
SK1
62
256
6
ByLayer
370
18
48
1
60
0
100
AcDbSpline
70
4
71
3
72
26
73
22
40
0
40
0
40
0
40
0
40
0.250000000000027
40
0.250000000000027
40
0.375000000000011
40
0.375000000000011
40
0.499999999999995
40
0.499999999999995
40
0.562499999999982
40
0.562499999999982
40
0.62499999999997
40
0.62499999999997
40
0.687499999999957
40
0.687499999999957
40
0.749999999999944
40
0.749999999999944
40
0.812499999999931
40
0.812499999999931
40
0.874999999999919
40
0.874999999999919
40
1
40
1
40
1
40
1
41
1
10
-2.2824318671245
20
-2.16371397383725
30
0
41
1
10
-2.29282701023365
20
-2.15594214661132
30
0
41
1
10
-2.3027745542955
20
-2.14787554327938
30
0
41
1
10
-2.31640405741976
20
-2.13496391396313
30
0
41
1
10
-2.32073961067923
20
-2.1305087113706
30
0
41
1
10
-2.32860959820286
20
-2.12126758806485
30
0
41
1
10
-2.33218330441318
20
-2.11645962757416
30
0
41
1
10
-2.33639141729384
20
-2.10886767538273
30
0
41
1
10
-2.33758908844109
20
-2.10628982276674
30
0
41
1
10
-2.33937320648718
20
-2.10099652586425
30
0
41
1
10
-2.33996172777273
20
-2.09825374070036
30
0
41
1
10
-2.34011864732921
20
-2.09278564538045
30
0
41
1
10
-2.33967144226943
20
-2.08999555963507
30
0
41
1
10
-2.33735805586511
20
-2.08476821367546
30
0
41
1
10
-2.33544480674098
20
-2.08229191447799
30
0
41
1
10
-2.33047049138924
20
-2.07811357352676
30
0
41
1
10
-2.32739545946745
20
-2.07636861041678
30
0
41
1
10
-2.32080807732254
20
-2.0735870460415
30
0
41
1
10
-2.31722140212287
20
-2.07250564172514
30
0
41
1
10
-2.30634276154834
20
-2.06998801382804
30
0
41
1
10
-2.29873989798503
20
-2.06917768371849
30
0
41
1
10
-2.29109337921275
20
-2.06879333647868
30
0
0
SPLINE
5
145
100
AcDbEntity
8
SK1
62
256
6
ByLayer
370
18
48
1
60
0
100
AcDbSpline
70
4
71
3
72
28
73
24
40
0
40
0
40
0
40
0
40
0.124999999999992
40
0.124999999999992
40
0.249999999999983
40
0.249999999999983
40
0.374999999999975
40
0.374999999999975
40
0.499999999999967
40
0.499999999999967
40
0.562499999999971
40
0.562499999999971
40
0.624999999999975
40
0.624999999999975
40
0.687499999999979
40
0.687499999999979
40
0.749999999999983
40
0.749999999999983
40
0.812499999999988
40
0.812499999999988
40
0.874999999999992
40
0.874999999999992
40
1
40
1
40
1
40
1
41
1
10
-2.2910933792127
20
-2.06879333647868
30
0
41
1
10
-2.26119291011929
20
-2.06729040905401
30
0
41
1
10
-2.23151738676017
20
-2.06476080636014
30
0
41
1
10
-2.17281659655711
20
-2.05670572548649
30
0
41
1
10
-2.14359706986585
20
-2.05112504734353
30
0
41
1
10
-2.08802581664037
20
-2.03577431643524
30
0
41
1
10
-2.06150530912282
20
-2.02602893537519
30
0
41
1
10
-2.01227944107163
20
-2.00011694243474
30
0
41
1
10
-1.99091044616964
20
-1.98455890909673
30
0
41
1
10
-1.96456661348134
20
-1.95671144975
30
0
41
1
10
-1.956946213745
20
-1.94689410573915
30
0
41
1
10
-1.94390618403955
20
-1.92640105985689
30
0
41
1
10
-1.93846435811551
20
-1.91570179488969
30
0
41
1
10
-1.92952050407379
20
-1.89345107395721
30
0
41
1
10
-1.926099508161
20
-1.88210060587133
30
0
41
1
10
-1.92099673547776
20
-1.85915654914641
30
0
41
1
10
-1.91930569346758
20
-1.84753502082813
30
0
41
1
10
-1.91734195331779
20
-1.82401699394137
30
0
41
1
10
-1.91707068807386
20
-1.81211124920361
30
0
41
1
10
-1.91772850787282
20
-1.7880792852325
30
0
41
1
10
-1.91865312779029
20
-1.77605555280442
30
0
41
1
10
-1.92288922453713
20
-1.73993463123932
30
0
41
1
10
-1.9276458217918
20
-1.71578630261001
30
0
41
1
10
-1.93380257265935
20
-1.69152766473076
30
0
0
SPLINE
5
146
100
AcDbEntity
8
SK1
62
256
6
ByLayer
370
18
48
1
60
0
100
AcDbSpline
70
4
71
3
72
16
73
12
40
0
40
0
40
0
40
0
40
0.250000000000002
40
0.250000000000002
40
0.500000000000004
40
0.500000000000004
40
0.625000000000003
40
0.625000000000003
40
0.750000000000002
40
0.750000000000002
40
1
40
1
40
1
40
1
41
1
10
-1.93380257265935
20
-1.69152766473076
30
0
41
1
10
-2.00149255139476
20
-1.59516248721602
30
0
41
1
10
-2.06260544269514
20
-1.49331835001911
30
0
41
1
10
-2.1728444910602
20
-1.27840370425736
30
0
41
1
10
-2.22197711087213
20
-1.16534046093005
30
0
41
1
10
-2.28736315600304
20
-0.986888957251864
30
0
41
1
10
-2.30781915463822
20
-0.925731495930222
30
0
41
1
10
-2.34549992226218
20
-0.802182637300945
30
0
41
1
10
-2.36279659664632
20
-0.739626788776235
30
0
41
1
10
-2.41037631897453
20
-0.549657847859862
30
0
41
1
10
-2.43637811491911
20
-0.41995572410184
30
0
41
1
10
-2.45716817665087
20
-0.287174467007418
30
0
0
SPLINE
5
147
100
AcDbEntity
8
SK1
62
256
6
ByLayer
370
18
48
1
60
0
100
AcDbSpline
70
4
71
3
72
14
73
10
40
0
40
0
40
0
40
0
40
0.249999999999988
40
0.249999999999988
40
0.374999999999982
40
0.374999999999982
40
0.499999999999975
40
0.499999999999975
40
1
40
1
40
1
40
1
41
1
10
-2.45716817665087
20
-0.287174467007418
30
0
41
1
10
-2.4601587937685
20
-0.268074095613969
30
0
41
1
10
-2.46164101002628
20
-0.24896645407668
30
0
41
1
10
-2.46139620288503
20
-0.220295096696674
30
0
41
1
10
-2.46090258857745
20
-0.210736331236859
30
0
41
1
10
-2.45904755354783
20
-0.191615717937253
30
0
41
1
10
-2.45767873722471
20
-0.18201654634737
30
0
41
1
10
-2.44862024910989
20
-0.134441157100412
30
0
41
1
10
-2.43462743856003
20
-0.0988968396549694
30
0
41
1
10
-2.41460715986719
20
-0.0656076606433658
30
0
0
SPLINE
5
148
100
AcDbEntity
8
SK1
62
256
6
ByLayer
370
18
48
1
60
0
100
AcDbSpline
70
4
71
3
72
38
73
34
40
0
40
0
40
0
40
0
40
0.0625000000000007
40
0.0625000000000007
40
0.093750000000001
40
0.093750000000001
40
0.125000000000001
40
0.125000000000001
40
0.187499999999994
40
0.187499999999994
40
0.249999999999988
40
0.249999999999988
40
0.281249999999988
40
0.281249999999988
40
0.312499999999989
40
0.312499999999989
40
0.374999999999991
40
0.374999999999991
40
0.437499999999993
40
0.437499999999993
40
0.499999999999995
40
0.499999999999995
40
0.562499999999997
40
0.562499999999997
40
0.624999999999998
40
0.624999999999998
40
0.750000000000002
40
0.750000000000002
40
0.812500000000004
40
0.812500000000004
40
0.875000000000006
40
0.875000000000006
40
1
40
1
40
1
40
1
41
1
10
-2.41460715986719
20
-0.0656076606433658
30
0
41
1
10
-2.39032810902936
20
-0.0252371102643281
30
0
41
1
10
-2.36146266629638
20
0.0107959942363038
30
0
41
1
10
-2.31328873439
20
0.0602369177030653
30
0
41
1
10
-2.29640272003363
20
0.0759345155173889
30
0
41
1
10
-2.26117594176733
20
0.105954959308946
30
0
41
1
10
-2.242778811503
20
0.120316891759415
30
0
41
1
10
-2.18600546124452
20
0.161282308147093
30
0
41
1
10
-2.14658894304563
20
0.185456266229096
30
0
41
1
10
-2.06543547694417
20
0.22917537203918
30
0
41
1
10
-2.02368926873052
20
0.248701843671853
30
0
41
1
10
-1.95965316693034
20
0.275173122774106
30
0
41
1
10
-1.93806968382856
20
0.28352314549403
30
0
41
1
10
-1.89446419410896
20
0.299351912964965
30
0
41
1
10
-1.87242020701811
20
0.306836304981061
30
0
41
1
10
-1.80605462393632
20
0.327957156278671
30
0
41
1
10
-1.76138871007319
20
0.340313105654474
30
0
41
1
10
-1.67133113250915
20
0.362070679288564
30
0
41
1
10
-1.62593873217995
20
0.371469235254949
30
0
41
1
10
-1.53450099268144
20
0.38761598157879
30
0
41
1
10
-1.48847888689019
20
0.394354268559226
30
0
41
1
10
-1.39633617786308
20
0.405331685175895
30
0
41
1
10
-1.35015046281919
20
0.409581986286355
30
0
41
1
10
-1.25756538616073
20
0.41577290077916
30
0
41
1
10
-1.21112918302737
20
0.417713227360508
30
0
41
1
10
-1.07177558940242
20
0.420215861598337
30
0
41
1
10
-0.979018113314652
20
0.417483239058299
30
0
41
1
10
-0.840085347104292
20
0.407198910373609
30
0
41
1
10
-0.793803408646369
20
0.402731509870932
30
0
41
1
10
-0.701682177989255
20
0.391798855518573
30
0
41
1
10
-0.655795072070475
20
0.385330629856469
30
0
41
1
10
-0.518645008269857
20
0.362966619335964
30
0
41
1
10
-0.427892225266135
20
0.344118416329508
30
0
41
1
10
-0.337812640741021
20
0.321346864881804
30
0
0
SPLINE
5
149
100
AcDbEntity
8
SK1
62
256
6
ByLayer
370
18
48
1
60
0
100
AcDbSpline
70
4
71
3
72
16
73
12
40
0
40
0
40
0
40
0
40
0.125
40
0.125
40
0.25
40
0.25
40
0.5
40
0.5
40
0.75
40
0.75
40
1
40
1
40
1
40
1
41
1
10
-9.3792E-12
20
0.236208998804244
30
0
41
1
10
-0.0316864217165858
20
0.260554309677644
30
0
41
1
10
-0.0633658547451716
20
0.284850930268107
30
0
41
1
10
-0.1268082904935
20
0.333220643757329
30
0
41
1
10
-0.158586066052607
20
0.357274633161353
30
0
41
1
10
-0.253967038534938
20
0.429205914632064
30
0
41
1
10
-0.317546427915232
20
0.476945555611934
30
0
41
1
10
-0.444481568204367
20
0.572262862104452
30
0
41
1
10
-0.507859961866785
20
0.619810859168183
30
0
41
1
10
-0.634488509828543
20
0.714615302765225
30
0
41
1
10
-0.697732199831052
20
0.761879740632537
30
0
41
1
10
-0.760992492170061
20
0.808892923305621
30
0
0
SPLINE
5
14A
100
AcDbEntity
8
SK1
62
256
6
ByLayer
370
13
48
1
60
0
100
AcDbSpline
70
4
71
3
72
8
73
4
40
0
40
0
40
0
40
0
40
1
40
1
40
1
40
1
41
1
10
-0.760990433891209
20
0.808896013856497
30
0
41
1
10
-0.756350558543375
20
0.815475954586191
30
0
41
1
10
-0.751710683195569
20
0.822049600724853
30
0
41
1
10
-0.747070807847734
20
0.828616798811623
30
0
0
SPLINE
5
14B
100
AcDbEntity
8
SK1
62
256
6
ByLayer
370
18
48
1
60
0
100
AcDbSpline
70
4
71
3
72
22
73
18
40
0
40
0
40
0
40
0
40
0.250000000000016
40
0.250000000000016
40
0.375000000000024
40
0.375000000000024
40
0.437500000000026
40
0.437500000000026
40
0.500000000000029
40
0.500000000000029
40
0.750000000000027
40
0.750000000000027
40
0.81250000000002
40
0.81250000000002
40
0.875000000000013
40
0.875000000000013
40
1
40
1
40
1
40
1
41
1
10
-0.747070801635402
20
0.828616794430729
30
0
41
1
10
-0.757711692507399
20
0.876582014218968
30
0
41
1
10
-0.763969097319603
20
0.924393971720832
30
0
41
1
10
-0.765960344023199
20
0.99590912034239
30
0
41
1
10
-0.765387213164416
20
1.0197138697404
30
0
41
1
10
-0.762517732596791
20
1.055375950685
30
0
41
1
10
-0.761219641242718
20
1.06729361320515
30
0
41
1
10
-0.757959545270751
20
1.09086422628607
30
0
41
1
10
-0.75599931540836
20
1.10252733223237
30
0
41
1
10
-0.744563547262572
20
1.16024365126952
30
0
41
1
10
-0.730204309077152
20
1.20450549519779
30
0
41
1
10
-0.705797460931734
20
1.25756722053268
30
0
41
1
10
-0.700591951145356
20
1.26806590382461
30
0
41
1
10
-0.689528941237171
20
1.28883751183878
30
0
41
1
10
-0.683674439004989
20
1.29909996346669
30
0
41
1
10
-0.665348154006239
20
1.32921917877954
30
0
41
1
10
-0.652054660497441
20
1.34852609953984
30
0
41
1
10
-0.63776213909216
20
1.36712826342748
30
0
0
SPLINE
5
14C
100
AcDbEntity
8
SK1
62
256
6
ByLayer
370
18
48
1
60
0
100
AcDbSpline
70
4
71
3
72
26
73
22
40
0
40
0
40
0
40
0
40
0.250000000000014
40
0.250000000000014
40
0.374999999999985
40
0.374999999999985
40
0.499999999999956
40
0.499999999999956
40
0.562499999999961
40
0.562499999999961
40
0.624999999999967
40
0.624999999999967
40
0.687499999999972
40
0.687499999999972
40
0.749999999999978
40
0.749999999999978
40
0.812499999999984
40
0.812499999999984
40
0.874999999999989
40
0.874999999999989
40
1
40
1
40
1
40
1
41
1
10
-2.12031175968502
20
2.34001289875582
30
0
41
1
10
-2.12999852079742
20
2.34706256964526
30
0
41
1
10
-2.13923285577667
20
2.35427117150525
30
0
41
1
10
-2.15181611064591
20
2.36557162600593
30
0
41
1
10
-2.15580450509717
20
2.36942997400959
30
0
41
1
10
-2.1630603245851
20
2.37737884034766
30
0
41
1
10
-2.16633854227337
20
2.38146759502044
30
0
41
1
10
-2.17020168576366
20
2.38780717786267
30
0
41
1
10
-2.17130522263076
20
2.38994568600765
30
0
41
1
10
-2.17298011651687
20
2.39429904036177
30
0
41
1
10
-2.17355675294328
20
2.39653692119322
30
0
41
1
10
-2.17384687967171
20
2.40100661142031
30
0
41
1
10
-2.17355247715136
20
2.40326911945357
30
0
41
1
10
-2.17172769664123
20
2.40756841374738
30
0
41
1
10
-2.17017295812912
20
2.4096209796071
30
0
41
1
10
-2.16581428622393
20
2.41321841025629
30
0
41
1
10
-2.16303694480146
20
2.41474791304995
30
0
41
1
10
-2.15687246375794
20
2.41721757900578
30
0
41
1
10
-2.15351133319365
20
2.41816765771111
30
0
41
1
10
-2.14296526166501
20
2.42042419401915
30
0
41
1
10
-2.13565849503593
20
2.42111334505722
30
0
41
1
10
-2.12822801388049
20
2.42143914635739
30
0
0
SPLINE
5
14D
100
AcDbEntity
8
SK1
62
256
6
ByLayer
370
18
48
1
60
0
100
AcDbSpline
70
4
71
3
72
30
73
26
40
0
40
0
40
0
40
0
40
0.125000000000019
40
0.125000000000019
40
0.187500000000011
40
0.187500000000011
40
0.250000000000003
40
0.250000000000003
40
0.374999999999987
40
0.374999999999987
40
0.437499999999979
40
0.437499999999979
40
0.499999999999971
40
0.562499999999963
40
0.562499999999963
40
0.593749999999958
40
0.593749999999958
40
0.624999999999954
40
0.687499999999962
40
0.687499999999962
40
0.74999999999997
40
0.74999999999997
40
0.874999999999985
40
0.874999999999985
40
1
40
1
40
1
40
1
41
1
10
-2.12822801388049
20
2.42143914635739
30
0
41
1
10
-2.10400910474473
20
2.42250106306506
30
0
41
1
10
-2.0799731029297
20
2.42420146170574
30
0
41
1
10
-2.04429240946723
20
2.42804068234955
30
0
41
1
10
-2.03246151005473
20
2.42953659910111
30
0
41
1
10
-2.0089494564676
20
2.43304048329867
30
0
41
1
10
-1.99725111124261
20
2.4350541931654
30
0
41
1
10
-1.96296334066673
20
2.44189891022668
30
0
41
1
10
-1.94100935463194
20
2.44754562559598
30
0
41
1
10
-1.90990387511374
20
2.45812849544424
30
0
41
1
10
-1.89978852276173
20
2.46203413982494
30
0
41
1
10
-1.88052482844603
20
2.47055551197963
30
0
41
1
10
-1.86245236511238
20
2.47967780799908
30
0
41
1
10
-1.8468284606785
20
2.48999161567187
30
0
41
1
10
-1.83605270594981
20
2.49816624468548
30
0
41
1
10
-1.83260661136626
20
2.50097495910254
30
0
41
1
10
-1.82611707182036
20
2.50665941853302
30
0
41
1
10
-1.81696373168731
20
2.51529983766972
30
0
41
1
10
-1.80945493364172
20
2.52424615384015
30
0
41
1
10
-1.80075595284907
20
2.53639160437567
30
0
41
1
10
-1.79704752442305
20
2.54260761636294
30
0
41
1
10
-1.78783470954724
20
2.56122530357089
30
0
41
1
10
-1.78419345645304
20
2.5735521495894
30
0
41
1
10
-1.78043957733556
20
2.59791699005717
30
0
41
1
10
-1.78034688596355
20
2.60998962778561
30
0
41
1
10
-1.78159407618594
20
2.62179479891657
30
0
0
SPLINE
5
14E
100
AcDbEntity
8
SK1
62
256
6
ByLayer
370
18
48
1
60
0
100
AcDbSpline
70
4
71
3
72
18
73
14
40
0
40
0
40
0
40
0
40
0.250000000000001
40
0.250000000000001
40
0.500000000000002
40
0.500000000000002
40
0.562500000000003
40
0.562500000000003
40
0.625000000000003
40
0.625000000000003
40
0.750000000000003
40
0.750000000000003
40
1
40
1
40
1
40
1
41
1
10
-1.78159407618594
20
2.62179479891657
30
0
41
1
10
-1.85539269975919
20
2.67774487152872
30
0
41
1
10
-1.92332149909558
20
2.7289059375187
30
0
41
1
10
-2.04834311246722
20
2.81995147119829
30
0
41
1
10
-2.10544095250904
20
2.85984352872055
30
0
41
1
10
-2.17053111297614
20
2.9013465109899
30
0
41
1
10
-2.18323450653955
20
2.90922761652448
30
0
41
1
10
-2.20802162183458
20
2.92411140301957
30
0
41
1
10
-2.2201182702471
20
2.93112041283118
30
0
41
1
10
-2.25525527620309
20
2.95063979996903
30
0
41
1
10
-2.27722058553209
20
2.96169197529551
30
0
41
1
10
-2.33903736618876
20
2.98877259716909
30
0
41
1
10
-2.37483245288519
20
2.99875028785618
30
0
41
1
10
-2.40574213359994
20
2.99989037850256
30
0
0
SPLINE
5
14F
100
AcDbEntity
8
SK1
62
256
6
ByLayer
370
18
48
1
60
0
100
AcDbSpline
70
4
71
3
72
10
73
6
40
0
40
0
40
0
40
0
40
0.460688883561707
40
0.460688883561707
40
1
40
1
40
1
40
1
41
1
10
-2.40684817081629
20
2.99942635221367
30
0
41
1
10
-2.40430702401579
20
2.99921289350795
30
0
41
1
10
-2.4006420132647
20
2.99894575529424
30
0
41
1
10
-2.39013638103378
20
2.9982713502456
30
0
41
1
10
-2.38303422775073
20
2.99785989215317
30
0
41
1
10
-2.3747022330206
20
2.9974285510294
30
0
0
SPLINE
5
150
100
AcDbEntity
8
SK1
62
256
6
ByLayer
370
18
48
1
60
0
100
AcDbSpline
70
4
71
3
72
36
73
32
40
0
40
0
40
0
40
0
40
0.062499999999995
40
0.062499999999995
40
0.12499999999999
40
0.12499999999999
40
0.156249999999992
40
0.156249999999992
40
0.187499999999993
40
0.187499999999993
40
0.249999999999997
40
0.249999999999997
40
0.3125
40
0.3125
40
0.343749999999997
40
0.343749999999997
40
0.374999999999994
40
0.374999999999994
40
0.437499999999988
40
0.437499999999988
40
0.499999999999982
40
0.499999999999982
40
0.624999999999979
40
0.624999999999979
40
0.687499999999983
40
0.687499999999983
40
0.749999999999986
40
0.749999999999986
40
0.874999999999993
40
0.874999999999993
40
1
40
1
40
1
40
1
41
1
10
-2.3747022330206
20
2.9974285510294
30
0
41
1
10
-2.3461212303788
20
2.99594893393919
30
0
41
1
10
-2.3139870626637
20
2.9940318144545
30
0
41
1
10
-2.24464667719747
20
2.98988769693489
30
0
41
1
10
-2.20741336464513
20
2.98765338762155
30
0
41
1
10
-2.14850868277782
20
2.98429481067069
30
0
41
1
10
-2.12848646518447
20
2.98318029570453
30
0
41
1
10
-2.0880675799099
20
2.98100242056634
30
0
41
1
10
-2.0676209488752
20
2.97993612656143
30
0
41
1
10
-2.00565485296539
20
2.97682987472774
30
0
41
1
10
-1.96351364291667
20
2.97488380031075
30
0
41
1
10
-1.87786876339388
20
2.97132801744266
30
0
41
1
10
-1.83436268960045
20
2.96971762650341
30
0
41
1
10
-1.76821122952506
20
2.96759279169458
30
0
41
1
10
-1.74602992642494
20
2.96693353851302
30
0
41
1
10
-1.70163138237012
20
2.96572183586858
30
0
41
1
10
-1.67938383523969
20
2.96516837830026
30
0
41
1
10
-1.61250557258702
20
2.963666271184
30
0
41
1
10
-1.56773969167173
20
2.96287618439681
30
0
41
1
10
-1.47788227824546
20
2.96171624149031
30
0
41
1
10
-1.43272902228489
20
2.96134623130456
30
0
41
1
10
-1.29729547458376
20
2.96085015162726
30
0
41
1
10
-1.20717669816878
20
2.96133884040987
30
0
41
1
10
-1.07222464207501
20
2.96310361065528
30
0
41
1
10
-1.0272706635229
20
2.96386355874972
30
0
41
1
10
-0.937818708380576
20
2.96567279386429
30
0
41
1
10
-0.89327137657429
20
2.96672260026472
30
0
41
1
10
-0.760144061363491
20
2.97022425203898
30
0
41
1
10
-0.671932544473947
20
2.9730375664987
30
0
41
1
10
-0.49789280748081
20
2.97904383403784
30
0
41
1
10
-0.411983839370407
20
2.98223744398419
30
0
41
1
10
-0.327119063095097
20
2.98530248279701
30
0
0
SPLINE
5
151
100
AcDbEntity
8
1
62
256
6
ByLayer
370
18
48
1
60
0
100
AcDbSpline
70
4
71
2
72
6
73
3
40
0
40
0
40
0
40
1
40
1
40
1
41
1
10
6.51884534853141
20
-2.99950878400074
30
0
41
1
10
6.51879439670731
20
-2.99950860540369
30
0
41
1
10
6.51874344497588
20
-2.99950799312279
30
0
0
SPLINE
5
152
100
AcDbEntity
8
1
62
256
6
ByLayer
370
18
48
1
60
0
100
AcDbSpline
70
4
71
3
72
14
73
10
40
0
40
0
40
0
40
0
40
0.228893556408563
40
0.376993306576118
40
0.486140446076625
40
0.639656833847756
40
0.794494133802955
40
0.906824169839737
40
1
40
1
40
1
40
1
41
1
10
1.51966201573711
20
-2.63470735661605
30
0
41
1
10
1.69514317498997
20
-2.6290892698338
30
0
41
1
10
1.98382902213069
20
-2.61300659653108
30
0
41
1
10
2.35584699649584
20
-2.57750124733278
30
0
41
1
10
2.66908856572198
20
-2.5395215598046
30
0
41
1
10
2.98862912322446
20
-2.49247191803295
30
0
41
1
10
3.31055956191349
20
-2.43546686096761
30
0
41
1
10
3.58510269393821
20
-2.3799657857748
30
0
41
1
10
3.74217694315078
20
-2.34525859872792
30
0
41
1
10
3.81343996431624
20
-2.32893523732909
30
0
0
SPLINE
5
153
100
AcDbEntity
8
1
62
256
6
ByLayer
370
18
48
1
60
0
100
AcDbSpline
70
4
71
1
72
4
73
2
40
0
40
0
40
1
40
1
41
1
10
12.0446555866419
20
1.80811835294219
30
0
41
1
10
11.9556006967814
20
1.84295232120738
30
0
0
SPLINE
5
154
100
AcDbEntity
8
1
62
256
6
ByLayer
370
18
48
1
60
0
100
AcDbSpline
70
4
71
3
72
8
73
4
40
0
40
0
40
0
40
0
40
1
40
1
40
1
40
1
41
1
10
10.501192999074
20
2.32185105816342
30
0
41
1
10
10.3620380586812
20
2.35465799153133
30
0
41
1
10
10.2226721045228
20
2.38503978399322
30
0
41
1
10
10.0832084490104
20
2.41297726324802
30
0
0
SPLINE
5
155
100
AcDbEntity
8
1
62
256
6
ByLayer
370
18
48
1
60
0
100
AcDbSpline
70
4
71
2
72
6
73
3
40
0
40
0
40
0
40
1
40
1
40
1
41
1
10
6.97731401698459
20
1.35818667181698
30
0
41
1
10
6.56595360938965
20
1.46758379884469
30
0
41
1
10
6.14957692793544
20
1.64943623573981
30
0
0
SPLINE
5
156
100
AcDbEntity
8
1
62
256
6
ByLayer
370
18
48
1
60
0
100
AcDbSpline
70
4
71
2
72
6
73
3
40
0
40
0
40
0
40
1
40
1
40
1
41
1
10
0.52502324601852
20
1.42829697465029
30
0
41
1
10
0.263649230442894
20
1.48927835235733
30
0
41
1
10
2.84E-14
20
1.57971014093943
30
0
0
SPLINE
5
157
100
AcDbEntity
8
1
62
256
6
ByLayer
370
18
48
1
60
0
100
AcDbSpline
70
4
71
3
72
10
73
6
40
0
40
0
40
0
40
0
40
0.434586940149469
40
0.778945672735337
40
1
40
1
40
1
40
1
41
1
10
5.0994170940007
20
2.04543826052796
30
0
41
1
10
4.89610134864378
20
2.10965042316107
30
0
41
1
10
4.53424389237261
20
2.21593058621275
30
0
41
1
10
4.08007018604886
20
2.33209177294316
30
0
41
1
10
3.82153586654823
20
2.38945017105652
30
0
41
1
10
3.72006571598814
20
2.41058516981985
30
0
0
SPLINE
5
158
100
AcDbEntity
8
1
62
256
6
ByLayer
370
18
48
1
60
0
100
AcDbSpline
70
4
71
3
72
14
73
10
40
0
40
0
40
0
40
0
40
0.239910791780026
40
0.378245947227407
40
0.491675958008068
40
0.582045259479715
40
0.710488680772173
40
0.887626839550016
40
1
40
1
40
1
40
1
41
1
10
8.05868407772593
20
-2.63465798047827
30
0
41
1
10
8.22544871096807
20
-2.6288444460441
30
0
41
1
10
8.48785756364686
20
-2.61289308279865
30
0
41
1
10
8.82758507399316
20
-2.57810750185155
30
0
41
1
10
9.06390307440674
20
-2.54764306866008
30
0
41
1
10
9.29418360085282
20
-2.51310678758242
30
0
41
1
10
9.56864757587979
20
-2.46593047685914
30
0
41
1
10
9.85843410420705
20
-2.40762268442239
30
0
41
1
10
10.0590698239703
20
-2.3617964554384
30
0
41
1
10
10.1369349959399
20
-2.34318656898455
30
0
0
LINE
5
77
100
AcDbEntity
8
80
62
256
6
ByLayer
370
18
48
1
60
0
100
AcDbLine
10
0
20
0
30
0
11
-5
21
0
31
0
39
0
210
0
220
0
230
1
0
LINE
5
78
100
AcDbEntity
8
4
62
256
6
ByLayer
370
18
48
0.05
60
0
100
AcDbLine
10
0
20
0
30
0
11
13
21
0
31
0
39
0
210
0
220
0
230
1
0
LINE
5
7A
100
AcDbEntity
8
81
62
256
6
ByLayer
370
18
48
1
60
0
100
AcDbLine
10
13
20
0
30
0
11
18
21
0
31
0
39
0
210
0
220
0
230
1
0
LINE
5
7B
100
AcDbEntity
8
SK4
62
256
6
ByLayer
370
18
48
0.05
60
0
100
AcDbLine
10
-44
20
0
30
0
11
13
21
0
31
0
39
0
210
0
220
0
230
1
0
LINE
5
7D
100
AcDbEntity
8
1
62
256
6
ByLayer
370
18
48
1
60
0
100
AcDbLine
10
0
20
-2.604227
30
0
11
0
21
-2.510978
31
0
39
0
210
0
220
0
230
1
0
LINE
5
7E
100
AcDbEntity
8
1
62
256
6
ByLayer
370
18
48
1
60
0
100
AcDbLine
10
0
20
-2.833746
30
0
11
0
21
-2.604227
31
0
39
0
210
0
220
0
230
1
0
LINE
5
7F
100
AcDbEntity
8
1
62
256
6
ByLayer
370
18
48
1
60
0
100
AcDbLine
10
0
20
-2.510978
30
0
11
0
21
-2.064754
31
0
39
0
210
0
220
0
230
1
0
LINE
5
80
100
AcDbEntity
8
1
62
256
6
ByLayer
370
18
48
1
60
0
100
AcDbLine
10
0
20
-2.064754
30
0
11
0
21
-0.761411
31
0
39
0
210
0
220
0
230
1
0
LINE
5
81
100
AcDbEntity
8
1
62
256
6
ByLayer
370
18
48
1
60
0
100
AcDbLine
10
0
20
-0.761411
30
0
11
0
21
-0.53163
31
0
39
0
210
0
220
0
230
1
0
LINE
5
82
100
AcDbEntity
8
1
62
256
6
ByLayer
370
18
48
1
60
0
100
AcDbLine
10
0
20
1.57971
30
0
11
0
21
1.536922
31
0
39
0
210
0
220
0
230
1
0
LINE
5
83
100
AcDbEntity
8
1
62
256
6
ByLayer
370
18
48
1
60
0
100
AcDbLine
10
0
20
1.125489
30
0
11
0
21
1.536922
31
0
39
0
210
0
220
0
230
1
0
LINE
5
84
100
AcDbEntity
8
1
62
256
6
ByLayer
370
18
48
1
60
0
100
AcDbLine
10
0
20
1.048883
30
0
11
0
21
1.125489
31
0
39
0
210
0
220
0
230
1
0
LINE
5
85
100
AcDbEntity
8
1
62
256
6
ByLayer
370
18
48
1
60
0
100
AcDbLine
10
0
20
1.579706
30
0
11
0
21
2.786109
31
0
39
0
210
0
220
0
230
1
0
LINE
5
86
100
AcDbEntity
8
1
62
256
6
ByLayer
370
18
48
1
60
0
100
AcDbLine
10
0
20
-0.53163
30
0
11
0
21
0.236066
31
0
39
0
210
0
220
0
230
1
0
LINE
5
87
100
AcDbEntity
8
1
62
256
6
ByLayer
370
18
48
1
60
0
100
AcDbLine
10
0
20
1.003378
30
0
11
0
21
1.048883
31
0
39
0
210
0
220
0
230
1
0
LINE
5
88
100
AcDbEntity
8
1
62
256
6
ByLayer
370
18
48
1
60
0
100
AcDbLine
10
0
20
2.786109
30
0
11
0
21
2.994717
31
0
39
0
210
0
220
0
230
1
0
LINE
5
89
100
AcDbEntity
8
1
62
256
6
ByLayer
370
18
48
1
60
0
100
AcDbLine
10
0
20
0.236069
30
0
11
0
21
0.236209
31
0
39
0
210
0
220
0
230
1
0
LINE
5
8A
100
AcDbEntity
8
1
62
256
6
ByLayer
370
18
48
1
60
0
100
AcDbLine
10
12.946199
20
-0.244327
30
0
11
12.928261
21
-0.29106
31
0
39
0
210
0
220
0
230
1
0
LINE
5
8B
100
AcDbEntity
8
1
62
256
6
ByLayer
370
18
48
1
60
0
100
AcDbLine
10
12.996698
20
0.147337
30
0
11
12.946199
21
-0.244327
31
0
39
0
210
0
220
0
230
1
0
LINE
5
8C
100
AcDbEntity
8
1
62
256
6
ByLayer
370
18
48
1
60
0
100
AcDbLine
10
12.946199
20
-0.244327
30
0
11
12.927339
21
-0.256179
31
0
39
0
210
0
220
0
230
1
0
LINE
5
8D
100
AcDbEntity
8
1
62
256
6
ByLayer
370
18
48
1
60
0
100
AcDbLine
10
12.994773
20
0.147201
30
0
11
12.996698
21
0.147337
31
0
39
0
210
0
220
0
230
1
0
LINE
5
8E
100
AcDbEntity
8
1
62
256
6
ByLayer
370
18
48
1
60
0
100
AcDbLine
10
12.994289
20
0.145629
30
0
11
12.996698
21
0.147337
31
0
39
0
210
0
220
0
230
1
0
LINE
5
8F
100
AcDbEntity
8
1
62
256
6
ByLayer
370
18
48
1
60
0
100
AcDbLine
10
12.924173
20
-0.136734
30
0
11
12.9396
21
0.009802
31
0
39
0
210
0
220
0
230
1
0
LINE
5
90
100
AcDbEntity
8
1
62
256
6
ByLayer
370
18
48
1
60
0
100
AcDbLine
10
12.920441
20
-0.000778
30
0
11
12.920569
21
-0.000774
31
0
39
0
210
0
220
0
230
1
0
LINE
5
91
100
AcDbEntity
8
1
62
256
6
ByLayer
370
18
48
1
60
0
100
AcDbLine
10
12.885473
20
2.979361
30
0
11
12.996698
21
2.869427
31
0
39
0
210
0
220
0
230
1
0
LINE
5
92
100
AcDbEntity
8
1
62
256
6
ByLayer
370
18
48
1
60
0
100
AcDbLine
10
12.89811
20
-0.001885
30
0
11
12.92039
21
-0.002703
31
0
39
0
210
0
220
0
230
1
0
LINE
5
93
100
AcDbEntity
8
1
62
256
6
ByLayer
370
18
48
1
60
0
100
AcDbLine
10
12.92039
20
-0.002703
30
0
11
12.920719
21
0.009683
31
0
39
0
210
0
220
0
230
1
0
LINE
5
94
100
AcDbEntity
8
1
62
256
6
ByLayer
370
18
48
1
60
0
100
AcDbLine
10
12.935378
20
0.561446
30
0
11
12.996698
21
2.869427
31
0
39
0
210
0
220
0
230
1
0
LINE
5
95
100
AcDbEntity
8
1
62
256
6
ByLayer
370
18
48
1
60
0
100
AcDbLine
10
12.920569
20
-0.000774
30
0
11
12.996698
21
-2.873034
31
0
39
0
210
0
220
0
230
1
0
LINE
5
96
100
AcDbEntity
8
1
62
256
6
ByLayer
370
18
48
1
60
0
100
AcDbLine
10
12.909991
20
-0.03586
30
0
11
12.919992
21
-0.002688
31
0
39
0
210
0
220
0
230
1
0
LINE
5
97
100
AcDbEntity
8
1
62
256
6
ByLayer
370
18
48
1
60
0
100
AcDbLine
10
12.920429
20
-0.001239
30
0
11
12.920569
21
-0.000774
31
0
39
0
210
0
220
0
230
1
0
LINE
5
98
100
AcDbEntity
8
1
62
256
6
ByLayer
370
18
48
1
60
0
100
AcDbLine
10
12.909123
20
-0.035241
30
0
11
12.909991
21
-0.03586
31
0
39
0
210
0
220
0
230
1
0
LINE
5
99
100
AcDbEntity
8
1
62
256
6
ByLayer
370
18
48
1
60
0
100
AcDbLine
10
12.909198
20
-0.002291
30
0
11
12.909123
21
-0.035241
31
0
39
0
210
0
220
0
230
1
0
LINE
5
9A
100
AcDbEntity
8
1
62
256
6
ByLayer
370
18
48
1
60
0
100
AcDbLine
10
12.901685
20
-0.166313
30
0
11
12.89811
21
-0.001885
31
0
39
0
210
0
220
0
230
1
0
LINE
5
9B
100
AcDbEntity
8
1
62
256
6
ByLayer
370
13
48
1
60
0
100
AcDbLine
10
12.743242
20
0.008417
30
0
11
12.901685
21
-0.166313
31
0
39
0
210
0
220
0
230
1
0
LINE
5
9C
100
AcDbEntity
8
1
62
256
6
ByLayer
370
18
48
1
60
0
100
AcDbLine
10
12.884418
20
-2.98463
30
0
11
12.996698
21
-2.873034
31
0
39
0
210
0
220
0
230
1
0
LINE
5
9D
100
AcDbEntity
8
1
62
256
6
ByLayer
370
18
48
1
60
0
100
AcDbLine
10
12.996698
20
-2.873034
30
0
11
12.946199
21
-2.753662
31
0
39
0
210
0
220
0
230
1
0
LINE
5
9E
100
AcDbEntity
8
1
62
256
6
ByLayer
370
18
48
1
60
0
100
AcDbLine
10
12.946199
20
-2.753662
30
0
11
12.789263
21
-2.735875
31
0
39
0
210
0
220
0
230
1
0
LINE
5
9F
100
AcDbEntity
8
1
62
256
6
ByLayer
370
18
48
1
60
0
100
AcDbLine
10
12.946199
20
-2.753662
30
0
11
12.890232
21
-0.619407
31
0
39
0
210
0
220
0
230
1
0
LINE
5
A0
100
AcDbEntity
8
1
62
256
6
ByLayer
370
18
48
1
60
0
100
AcDbLine
10
12.409869
20
-1.318817
30
0
11
12.890232
21
-0.619407
31
0
39
0
210
0
220
0
230
1
0
LINE
5
A1
100
AcDbEntity
8
1
62
256
6
ByLayer
370
18
48
1
60
0
100
AcDbLine
10
12.890232
20
-0.619407
30
0
11
12.891569
21
-0.608587
31
0
39
0
210
0
220
0
230
1
0
LINE
5
A2
100
AcDbEntity
8
1
62
256
6
ByLayer
370
13
48
1
60
0
100
AcDbLine
10
12.891569
20
-0.608587
30
0
11
11.330849
21
-0.343792
31
0
39
0
210
0
220
0
230
1
0
LINE
5
A3
100
AcDbEntity
8
1
62
256
6
ByLayer
370
18
48
1
60
0
100
AcDbLine
10
12.996698
20
0.15344
30
0
11
12.946199
21
0.533313
31
0
39
0
210
0
220
0
230
1
0
LINE
5
A4
100
AcDbEntity
8
1
62
256
6
ByLayer
370
18
48
1
60
0
100
AcDbLine
10
12.946199
20
0.533313
30
0
11
12.791045
21
0.936415
31
0
39
0
210
0
220
0
230
1
0
LINE
5
A5
100
AcDbEntity
8
1
62
256
6
ByLayer
370
18
48
1
60
0
100
AcDbLine
10
12.885035
20
0.173014
30
0
11
12.996698
21
0.15344
31
0
39
0
210
0
220
0
230
1
0
LINE
5
A6
100
AcDbEntity
8
1
62
256
6
ByLayer
370
13
48
1
60
0
100
AcDbLine
10
11.748481
20
0.161864
30
0
11
12.656692
21
0.007775
31
0
39
0
210
0
220
0
230
1
0
LINE
5
A7
100
AcDbEntity
8
1
62
256
6
ByLayer
370
18
48
1
60
0
100
AcDbLine
10
12.952434
20
0.009897
30
0
11
12.656692
21
0.007775
31
0
39
0
210
0
220
0
230
1
0
LINE
5
A8
100
AcDbEntity
8
1
62
256
6
ByLayer
370
18
48
1
60
0
100
AcDbLine
10
12.952434
20
0.009897
30
0
11
12.996698
21
0.15344
31
0
39
0
210
0
220
0
230
1
0
LINE
5
A9
100
AcDbEntity
8
SK1
62
256
6
ByLayer
370
18
48
1
60
0
100
AcDbLine
10
0
20
2.994717
30
0
11
0
21
2.786109
31
0
39
0
210
0
220
0
230
1
0
LINE
5
AB
100
AcDbEntity
8
SK1
62
256
6
ByLayer
370
18
48
1
60
0
100
AcDbLine
10
0
20
1.579706
30
0
11
0
21
2.786109
31
0
39
0
210
0
220
0
230
1
0
LINE
5
AC
100
AcDbEntity
8
SK1
62
256
6
ByLayer
370
13
48
1
60
0
100
AcDbLine
10
-0.327119
20
2.985302
30
0
11
0
21
2.786109
31
0
39
0
210
0
220
0
230
1
0
LINE
5
AD
100
AcDbEntity
8
SK1
62
256
6
ByLayer
370
18
48
1
60
0
100
AcDbLine
10
0
20
1.536922
30
0
11
0
21
1.579709
31
0
39
0
210
0
220
0
230
1
0
LINE
5
AE
100
AcDbEntity
8
SK1
62
256
6
ByLayer
370
18
48
1
60
0
100
AcDbLine
10
0
20
-2.604227
30
0
11
0
21
-2.833746
31
0
39
0
210
0
220
0
230
1
0
LINE
5
AF
100
AcDbEntity
8
SK1
62
256
6
ByLayer
370
18
48
1
60
0
100
AcDbLine
10
0
20
-2.604227
30
0
11
0
21
-2.510978
31
0
39
0
210
0
220
0
230
1
0
LINE
5
B0
100
AcDbEntity
8
SK1
62
256
6
ByLayer
370
13
48
1
60
0
100
AcDbLine
10
-2.282432
20
-2.163714
30
0
11
0
21
-2.604227
31
0
39
0
210
0
220
0
230
1
0
LINE
5
B1
100
AcDbEntity
8
SK1
62
256
6
ByLayer
370
18
48
1
60
0
100
AcDbLine
10
0
20
1.125489
30
0
11
0
21
1.536922
31
0
39
0
210
0
220
0
230
1
0
LINE
5
B2
100
AcDbEntity
8
SK1
62
256
6
ByLayer
370
18
48
1
60
0
100
AcDbLine
10
-1.781594
20
2.621795
30
0
11
0
21
1.536922
31
0
39
0
210
0
220
0
230
1
0
LINE
5
B3
100
AcDbEntity
8
SK1
62
256
6
ByLayer
370
18
48
1
60
0
100
AcDbLine
10
0
20
1.048883
30
0
11
0
21
1.125489
31
0
39
0
210
0
220
0
230
1
0
LINE
5
B4
100
AcDbEntity
8
SK1
62
256
6
ByLayer
370
13
48
1
60
0
100
AcDbLine
10
-2.128228
20
2.421439
30
0
11
0
21
1.125489
31
0
39
0
210
0
220
0
230
1
0
LINE
5
B5
100
AcDbEntity
8
SK1
62
256
6
ByLayer
370
18
48
1
60
0
100
AcDbLine
10
0
20
-2.510978
30
0
11
0
21
-2.064754
31
0
39
0
210
0
220
0
230
1
0
LINE
5
B6
100
AcDbEntity
8
SK1
62
256
6
ByLayer
370
13
48
1
60
0
100
AcDbLine
10
-2.291093
20
-2.068793
30
0
11
0
21
-2.510978
31
0
39
0
210
0
220
0
230
1
0
LINE
5
B7
100
AcDbEntity
8
SK1
62
256
6
ByLayer
370
18
48
1
60
0
100
AcDbLine
10
0
20
1.048883
30
0
11
0
21
1.003378
31
0
39
0
210
0
220
0
230
1
0
LINE
5
B8
100
AcDbEntity
8
SK1
62
256
6
ByLayer
370
13
48
1
60
0
100
AcDbLine
10
-2.120312
20
2.340013
30
0
11
0
21
1.048883
31
0
39
0
210
0
220
0
230
1
0
LINE
5
B9
100
AcDbEntity
8
SK1
62
256
6
ByLayer
370
18
48
1
60
0
100
AcDbLine
10
-1.933803
20
-1.691528
30
0
11
0
21
-2.064754
31
0
39
0
210
0
220
0
230
1
0
LINE
5
BA
100
AcDbEntity
8
SK1
62
256
6
ByLayer
370
18
48
1
60
0
100
AcDbLine
10
0
20
-2.064754
30
0
11
0
21
-0.761411
31
0
39
0
210
0
220
0
230
1
0
LINE
5
BB
100
AcDbEntity
8
SK1
62
256
6
ByLayer
370
13
48
1
60
0
100
AcDbLine
10
-2.457168
20
-0.287174
30
0
11
0
21
-0.761411
31
0
39
0
210
0
220
0
230
1
0
LINE
5
BC
100
AcDbEntity
8
SK1
62
256
6
ByLayer
370
18
48
1
60
0
100
AcDbLine
10
0
20
-0.761411
30
0
11
0
21
-0.53163
31
0
39
0
210
0
220
0
230
1
0
LINE
5
BD
100
AcDbEntity
8
SK1
62
256
6
ByLayer
370
13
48
1
60
0
100
AcDbLine
10
-2.414607
20
-0.065608
30
0
11
0
21
-0.53163
31
0
39
0
210
0
220
0
230
1
0
LINE
5
BE
100
AcDbEntity
8
SK1
62
256
6
ByLayer
370
18
48
1
60
0
100
AcDbLine
10
0
20
0.221686
30
0
11
0
21
-0.53163
31
0
39
0
210
0
220
0
230
1
0
LINE
5
BF
100
AcDbEntity
8
SK1
62
256
6
ByLayer
370
18
48
1
60
0
100
AcDbLine
10
-44
20
-2.6
30
0
11
-44
21
2.6
31
0
39
0
210
0
220
0
230
1
0
LINE
5
C0
100
AcDbEntity
8
SK1
62
256
6
ByLayer
370
18
48
1
60
0
100
AcDbLine
10
-43.6
20
3
30
0
11
-43.6
21
-3
31
0
39
0
210
0
220
0
230
1
0
LINE
5
C1
100
AcDbEntity
8
SK1
62
256
6
ByLayer
370
18
48
1
60
0
100
AcDbLine
10
0
20
0.236069
30
0
11
0
21
0.236209
31
0
39
0
210
0
220
0
230
1
0
LINE
5
C2
100
AcDbEntity
8
SK1
62
256
6
ByLayer
370
18
48
1
60
0
100
AcDbLine
10
-2.405742
20
2.99989
30
0
11
-2.410078
21
3
31
0
39
0
210
0
220
0
230
1
0
LINE
5
C3
100
AcDbEntity
8
SK1
62
256
6
ByLayer
370
18
48
1
60
0
100
AcDbLine
10
-28.1
20
2.1
30
0
11
-29
21
3
31
0
39
0
210
0
220
0
230
1
0
LINE
5
C4
100
AcDbEntity
8
SK1
62
256
6
ByLayer
370
18
48
1
60
0
100
AcDbLine
10
-23.9
20
2.1
30
0
11
-23
21
3
31
0
39
0
210
0
220
0
230
1
0
LINE
5
C5
100
AcDbEntity
8
SK1
62
256
6
ByLayer
370
18
48
1
60
0
100
AcDbLine
10
-28.1
20
2.1
30
0
11
-23.9
21
2.1
31
0
39
0
210
0
220
0
230
1
0
LINE
5
C6
100
AcDbEntity
8
SK1
62
256
6
ByLayer
370
18
48
1
60
0
100
AcDbLine
10
-3.5E-05
20
-1.474304
30
0
11
0.011415
21
-1.467494
31
0
39
0
210
0
220
0
230
1
0
LINE
5
C7
100
AcDbEntity
8
SK1
62
256
6
ByLayer
370
18
48
1
60
0
100
AcDbLine
10
0.012977
20
1.571808
30
0
11
-2.182194
21
2.908522
31
0
39
0
210
0
220
0
230
1
0
LINE
5
C8
100
AcDbEntity
8
SK1
62
256
6
ByLayer
370
18
48
1
60
0
100
AcDbLine
10
-44
20
-2.6
30
0
11
-43.6
21
-3
31
0
39
0
210
0
220
0
230
1
0
LINE
5
C9
100
AcDbEntity
8
SK1
62
256
6
ByLayer
370
18
48
1
60
0
100
AcDbLine
10
-43.6
20
3
30
0
11
-44
21
2.6
31
0
39
0
210
0
220
0
230
1
0
LINE
5
CA
100
AcDbEntity
8
SK1
62
256
6
ByLayer
370
18
48
1
60
0
100
AcDbLine
10
-2.40786
20
3
30
0
11
-23
21
3
31
0
39
0
210
0
220
0
230
1
0
LINE
5
CB
100
AcDbEntity
8
SK1
62
256
6
ByLayer
370
18
48
1
60
0
100
AcDbLine
10
-29
20
3
30
0
11
-43.6
21
3
31
0
39
0
210
0
220
0
230
1
0
LINE
5
CC
100
AcDbEntity
8
SK1
62
256
6
ByLayer
370
18
48
1
60
0
100
AcDbLine
10
-43.6
20
-3
30
0
11
-2.352272
21
-3
31
0
39
0
210
0
220
0
230
1
0
LINE
5
CD
100
AcDbEntity
8
SK1
62
256
6
ByLayer
370
18
48
1
60
0
100
AcDbLine
10
-0.426357
20
-3
30
0
11
-0.210855
21
-3
31
0
39
0
210
0
220
0
230
1
0
LINE
5
CE
100
AcDbEntity
8
SK2
62
256
6
ByLayer
370
18
48
1
60
0
100
AcDbLine
10
-51.85
20
11.75
30
0
11
-51.85
21
-19.315466
31
0
39
0
210
0
220
0
230
1
0
LINE
5
D0
100
AcDbEntity
8
SK2
62
256
6
ByLayer
370
18
48
1
60
0
100
AcDbLine
10
-45.1875
20
3
30
0
11
-53.85
21
3
31
0
39
0
210
0
220
0
230
1
0
LINE
5
D1
100
AcDbEntity
8
SK2
62
256
6
ByLayer
370
18
48
1
60
0
100
AcDbLine
10
-45.1875
20
-3
30
0
11
-53.85
21
-3
31
0
39
0
210
0
220
0
230
1
0
LINE
5
D2
100
AcDbEntity
8
1
62
256
6
ByLayer
370
18
48
1
60
1
100
AcDbLine
10
-51.85
20
3
30
0
11
-52.310784
21
6.499998
31
0
39
0
210
0
220
0
230
1
0
LINE
5
D3
100
AcDbEntity
8
1
62
256
6
ByLayer
370
18
48
1
60
1
100
AcDbLine
10
-52.310784
20
6.499998
30
0
11
-51.389216
21
6.500002
31
0
39
0
210
0
220
0
230
1
0
LINE
5
D4
100
AcDbEntity
8
1
62
256
6
ByLayer
370
18
48
1
60
1
100
AcDbLine
10
-51.389216
20
6.500002
30
0
11
-51.85
21
3
31
0
39
0
210
0
220
0
230
1
0
LINE
5
D5
100
AcDbEntity
8
1
62
256
6
ByLayer
370
18
48
1
60
1
100
AcDbLine
10
-51.85
20
-3
30
0
11
-51.389216
21
-6.499998
31
0
39
0
210
0
220
0
230
1
0
LINE
5
D6
100
AcDbEntity
8
1
62
256
6
ByLayer
370
18
48
1
60
1
100
AcDbLine
10
-51.389216
20
-6.499998
30
0
11
-52.310784
21
-6.500002
31
0
39
0
210
0
220
0
230
1
0
LINE
5
D7
100
AcDbEntity
8
1
62
256
6
ByLayer
370
18
48
1
60
1
100
AcDbLine
10
-52.310784
20
-6.500002
30
0
11
-51.85
21
-3
31
0
39
0
210
0
220
0
230
1
0
LINE
5
D8
100
AcDbEntity
8
2
62
256
6
ByLayer
370
18
48
1
60
0
100
AcDbLine
10
25
20
19.315566
30
0
11
25
21
-11.7501
31
0
39
0
210
0
220
0
230
1
0
LINE
5
DA
100
AcDbEntity
8
2
62
256
6
ByLayer
370
18
48
1
60
0
100
AcDbLine
10
14.5875
20
3.0001
30
0
11
27
21
3.0001
31
0
39
0
210
0
220
0
230
1
0
LINE
5
DB
100
AcDbEntity
8
2
62
256
6
ByLayer
370
18
48
1
60
0
100
AcDbLine
10
14.5875
20
-3.0001
30
0
11
27
21
-3.0001
31
0
39
0
210
0
220
0
230
1
0
LINE
5
DC
100
AcDbEntity
8
1
62
256
6
ByLayer
370
18
48
1
60
1
100
AcDbLine
10
25
20
3.0001
30
0
11
24.539216
21
6.500098
31
0
39
0
210
0
220
0
230
1
0
LINE
5
DD
100
AcDbEntity
8
1
62
256
6
ByLayer
370
18
48
1
60
1
100
AcDbLine
10
24.539216
20
6.500098
30
0
11
25.460784
21
6.500102
31
0
39
0
210
0
220
0
230
1
0
LINE
5
DE
100
AcDbEntity
8
1
62
256
6
ByLayer
370
18
48
1
60
1
100
AcDbLine
10
25.460784
20
6.500102
30
0
11
25
21
3.0001
31
0
39
0
210
0
220
0
230
1
0
LINE
5
DF
100
AcDbEntity
8
1
62
256
6
ByLayer
370
18
48
1
60
1
100
AcDbLine
10
25
20
-3.0001
30
0
11
25.460784
21
-6.500098
31
0
39
0
210
0
220
0
230
1
0
LINE
5
E0
100
AcDbEntity
8
1
62
256
6
ByLayer
370
18
48
1
60
1
100
AcDbLine
10
25.460784
20
-6.500098
30
0
11
24.539216
21
-6.500102
31
0
39
0
210
0
220
0
230
1
0
LINE
5
E1
100
AcDbEntity
8
1
62
256
6
ByLayer
370
18
48
1
60
1
100
AcDbLine
10
24.539216
20
-6.500102
30
0
11
25
21
-3.0001
31
0
39
0
210
0
220
0
230
1
0
LINE
5
E2
100
AcDbEntity
8
2
62
256
6
ByLayer
370
18
48
1
60
0
100
AcDbLine
10
13
20
-33.596235
30
0
11
-44
21
-33.596235
31
0
39
0
210
0
220
0
230
1
0
LINE
5
E3
100
AcDbEntity
8
2
62
256
6
ByLayer
370
18
48
1
60
0
100
AcDbLine
10
-44
20
-4.1875
30
0
11
-44
21
-35.596235
31
0
39
0
210
0
220
0
230
1
0
LINE
5
E4
100
AcDbEntity
8
2
62
256
6
ByLayer
370
18
48
1
60
0
100
AcDbLine
10
13
20
-4.5876
30
0
11
13
21
-35.596235
31
0
39
0
210
0
220
0
230
1
0
LINE
5
E5
100
AcDbEntity
8
1
62
256
6
ByLayer
370
18
48
1
60
1
100
AcDbLine
10
-44
20
-33.596235
30
0
11
-40.500002
21
-33.135451
31
0
39
0
210
0
220
0
230
1
0
LINE
5
E6
100
AcDbEntity
8
1
62
256
6
ByLayer
370
18
48
1
60
1
100
AcDbLine
10
-40.500002
20
-33.135451
30
0
11
-40.499998
21
-34.057019
31
0
39
0
210
0
220
0
230
1
0
LINE
5
E7
100
AcDbEntity
8
1
62
256
6
ByLayer
370
18
48
1
60
1
100
AcDbLine
10
-40.499998
20
-34.057019
30
0
11
-44
21
-33.596235
31
0
39
0
210
0
220
0
230
1
0
LINE
5
E8
100
AcDbEntity
8
1
62
256
6
ByLayer
370
18
48
1
60
1
100
AcDbLine
10
13
20
-33.596235
30
0
11
9.500002
21
-34.057019
31
0
39
0
210
0
220
0
230
1
0
LINE
5
E9
100
AcDbEntity
8
1
62
256
6
ByLayer
370
18
48
1
60
1
100
AcDbLine
10
9.500002
20
-34.057019
30
0
11
9.499998
21
-33.135451
31
0
39
0
210
0
220
0
230
1
0
LINE
5
EA
100
AcDbEntity
8
1
62
256
6
ByLayer
370
18
48
1
60
1
100
AcDbLine
10
9.499998
20
-33.135451
30
0
11
13
21
-33.596235
31
0
39
0
210
0
220
0
230
1
0
LINE
5
15D
100
AcDbEntity
8
1
62
256
6
ByLayer
370
18
48
1
60
1
100
AcDbLine
10
-51.85
20
3
30
0
11
-52.310784
21
6.499998
31
0
39
0
210
0
220
0
230
1
0
LINE
5
15E
100
AcDbEntity
8
1
62
256
6
ByLayer
370
18
48
1
60
1
100
AcDbLine
10
-52.310784
20
6.499998
30
0
11
-51.389216
21
6.500002
31
0
39
0
210
0
220
0
230
1
0
LINE
5
15F
100
AcDbEntity
8
1
62
256
6
ByLayer
370
18
48
1
60
1
100
AcDbLine
10
-51.389216
20
6.500002
30
0
11
-51.85
21
3
31
0
39
0
210
0
220
0
230
1
0
LINE
5
161
100
AcDbEntity
8
1
62
256
6
ByLayer
370
18
48
1
60
1
100
AcDbLine
10
-51.85
20
-3
30
0
11
-51.389216
21
-6.499998
31
0
39
0
210
0
220
0
230
1
0
LINE
5
162
100
AcDbEntity
8
1
62
256
6
ByLayer
370
18
48
1
60
1
100
AcDbLine
10
-51.389216
20
-6.499998
30
0
11
-52.310784
21
-6.500002
31
0
39
0
210
0
220
0
230
1
0
LINE
5
163
100
AcDbEntity
8
1
62
256
6
ByLayer
370
18
48
1
60
1
100
AcDbLine
10
-52.310784
20
-6.500002
30
0
11
-51.85
21
-3
31
0
39
0
210
0
220
0
230
1
0
LINE
5
167
100
AcDbEntity
8
1
62
256
6
ByLayer
370
18
48
1
60
1
100
AcDbLine
10
25
20
3.0001
30
0
11
24.539216
21
6.500098
31
0
39
0
210
0
220
0
230
1
0
LINE
5
168
100
AcDbEntity
8
1
62
256
6
ByLayer
370
18
48
1
60
1
100
AcDbLine
10
24.539216
20
6.500098
30
0
11
25.460784
21
6.500102
31
0
39
0
210
0
220
0
230
1
0
LINE
5
169
100
AcDbEntity
8
1
62
256
6
ByLayer
370
18
48
1
60
1
100
AcDbLine
10
25.460784
20
6.500102
30
0
11
25
21
3.0001
31
0
39
0
210
0
220
0
230
1
0
LINE
5
16B
100
AcDbEntity
8
1
62
256
6
ByLayer
370
18
48
1
60
1
100
AcDbLine
10
25
20
-3.0001
30
0
11
25.460784
21
-6.500098
31
0
39
0
210
0
220
0
230
1
0
LINE
5
16C
100
AcDbEntity
8
1
62
256
6
ByLayer
370
18
48
1
60
1
100
AcDbLine
10
25.460784
20
-6.500098
30
0
11
24.539216
21
-6.500102
31
0
39
0
210
0
220
0
230
1
0
LINE
5
16D
100
AcDbEntity
8
1
62
256
6
ByLayer
370
18
48
1
60
1
100
AcDbLine
10
24.539216
20
-6.500102
30
0
11
25
21
-3.0001
31
0
39
0
210
0
220
0
230
1
0
LINE
5
170
100
AcDbEntity
8
1
62
256
6
ByLayer
370
18
48
1
60
1
100
AcDbLine
10
-44
20
-33.596235
30
0
11
-40.500002
21
-33.135451
31
0
39
0
210
0
220
0
230
1
0
LINE
5
171
100
AcDbEntity
8
1
62
256
6
ByLayer
370
18
48
1
60
1
100
AcDbLine
10
-40.500002
20
-33.135451
30
0
11
-40.499998
21
-34.057019
31
0
39
0
210
0
220
0
230
1
0
LINE
5
172
100
AcDbEntity
8
1
62
256
6
ByLayer
370
18
48
1
60
1
100
AcDbLine
10
-40.499998
20
-34.057019
30
0
11
-44
21
-33.596235
31
0
39
0
210
0
220
0
230
1
0
LINE
5
174
100
AcDbEntity
8
1
62
256
6
ByLayer
370
18
48
1
60
1
100
AcDbLine
10
13
20
-33.596235
30
0
11
9.500002
21
-34.057019
31
0
39
0
210
0
220
0
230
1
0
LINE
5
175
100
AcDbEntity
8
1
62
256
6
ByLayer
370
18
48
1
60
1
100
AcDbLine
10
9.500002
20
-34.057019
30
0
11
9.499998
21
-33.135451
31
0
39
0
210
0
220
0
230
1
0
LINE
5
176
100
AcDbEntity
8
1
62
256
6
ByLayer
370
18
48
1
60
1
100
AcDbLine
10
9.499998
20
-33.135451
30
0
11
13
21
-33.596235
31
0
39
0
210
0
220
0
230
1
0
MTEXT
5
159
100
AcDbEntity
8
SK2
62
256
6
ByLayer
370
18
48
1
60
0
100
AcDbMText
10
-53.414634
20
-17.380622
30
0
210
0
220
0
230
1
1
%%c
40
3.5
41
0
44
1.084337
50
90
71
7
72
5
7
iso_b_vert
0
MTEXT
5
15C
100
AcDbEntity
8
SK2
62
256
6
ByLayer
370
18
48
1
60
0
100
AcDbMText
10
-53.414634
20
-10.407966
30
0
210
0
220
0
230
1
1
\W0.5404;6
40
3.5
41
0
44
1.084337
50
90
71
7
72
5
7
iso_b_vert
0
MTEXT
5
165
100
AcDbEntity
8
2
62
256
6
ByLayer
370
18
48
1
60
0
100
AcDbMText
10
23.435366
20
10.934944
30
0
210
0
220
0
230
1
1
%%c
40
3.5
41
0
44
1.084337
50
90
71
7
72
5
7
iso_b_vert
0
MTEXT
5
166
100
AcDbEntity
8
2
62
256
6
ByLayer
370
18
48
1
60
0
100
AcDbMText
10
23.435366
20
17.9076
30
0
210
0
220
0
230
1
1
\W0.5404;6
40
3.5
41
0
44
1.084337
50
90
71
7
72
5
7
iso_b_vert
0
MTEXT
5
16F
100
AcDbEntity
8
2
62
256
6
ByLayer
370
18
48
1
60
0
100
AcDbMText
10
-17.404966
20
-32.563601
30
0
210
0
220
0
230
1
1
\W0.6740;57
40
3.5
41
0
44
1.084337
50
0
71
7
72
5
7
iso_b_vert
0
MTEXT
5
178
100
AcDbEntity
8
SK6
62
256
6
ByLayer
370
18
48
1
60
0
100
AcDbMText
10
-34.895504
20
-62.115913
30
0
210
0
220
0
230
1
1
\W0.7356;1K334-0600-XB 1730
40
3
41
0
44
1.084337
50
0
71
7
72
5
7
iso_b_vert
0
HATCH
5
160
100
AcDbEntity
8
SK2
62
256
6
ByLayer
370
13
48
1
60
0
100
AcDbHatch
10
0
20
0
30
0
210
0
220
0
230
1
2
ANSI31
70
0
71
0
91
1
92
5
93
3
72
1
10
-51.85
20
3
11
-52.3107837415528
21
6.49999830744682
72
1
10
-52.3107837415528
20
6.49999830744682
11
-51.3892162584472
21
6.50000169255318
72
1
10
-51.3892162584472
20
6.50000169255318
11
-51.85
21
3
97
0
75
0
76
1
52
0
41
0.0062
77
0
78
1
53
45
43
0
44
0
45
-0.0139193969876572
46
0.0139193969876572
79
0
47
0
98
1
10
0
20
0
0
HATCH
5
164
100
AcDbEntity
8
SK2
62
256
6
ByLayer
370
13
48
1
60
0
100
AcDbHatch
10
0
20
0
30
0
210
0
220
0
230
1
2
ANSI31
70
0
71
0
91
1
92
5
93
3
72
1
10
-51.85
20
-3
11
-51.3892162584472
21
-6.49999830744682
72
1
10
-51.3892162584472
20
-6.49999830744682
11
-52.3107837415528
21
-6.50000169255318
72
1
10
-52.3107837415528
20
-6.50000169255318
11
-51.85
21
-3
97
0
75
0
76
1
52
0
41
0.0062
77
0
78
1
53
45
43
0
44
0
45
-0.0139193969876572
46
0.0139193969876572
79
0
47
0
98
1
10
0
20
0
0
HATCH
5
16A
100
AcDbEntity
8
2
62
256
6
ByLayer
370
13
48
1
60
0
100
AcDbHatch
10
0
20
0
30
0
210
0
220
0
230
1
2
ANSI31
70
0
71
0
91
1
92
5
93
3
72
1
10
25
20
3.00009999999997
11
24.5392162584472
21
6.50009830744679
72
1
10
24.5392162584472
20
6.50009830744679
11
25.4607837415528
21
6.50010169255316
72
1
10
25.4607837415528
20
6.50010169255316
11
25
21
3.00009999999997
97
0
75
0
76
1
52
0
41
0.0062
77
0
78
1
53
45
43
0
44
0
45
-0.0139193969876572
46
0.0139193969876572
79
0
47
0
98
1
10
0
20
0
0
HATCH
5
16E
100
AcDbEntity
8
2
62
256
6
ByLayer
370
13
48
1
60
0
100
AcDbHatch
10
0
20
0
30
0
210
0
220
0
230
1
2
ANSI31
70
0
71
0
91
1
92
5
93
3
72
1
10
25
20
-3.00010000000003
11
25.4607837415528
21
-6.50009830744685
72
1
10
25.4607837415528
20
-6.50009830744685
11
24.5392162584472
21
-6.50010169255322
72
1
10
24.5392162584472
20
-6.50010169255322
11
25
21
-3.00010000000003
97
0
75
0
76
1
52
0
41
0.0062
77
0
78
1
53
45
43
0
44
0
45
-0.0139193969876572
46
0.0139193969876572
79
0
47
0
98
1
10
0
20
0
0
HATCH
5
173
100
AcDbEntity
8
2
62
256
6
ByLayer
370
13
48
1
60
0
100
AcDbHatch
10
0
20
0
30
0
210
0
220
0
230
1
2
ANSI31
70
0
71
0
91
1
92
5
93
3
72
1
10
-44
20
-33.5962348702419
11
-40.5000016925532
21
-33.1354511286891
72
1
10
-40.5000016925532
20
-33.1354511286891
11
-40.4999983074468
21
-34.0570186117947
72
1
10
-40.4999983074468
20
-34.0570186117947
11
-44
21
-33.5962348702419
97
0
75
0
76
1
52
0
41
0.0062
77
0
78
1
53
45
43
0
44
0
45
-0.0139193969876572
46
0.0139193969876572
79
0
47
0
98
1
10
0
20
0
0
HATCH
5
177
100
AcDbEntity
8
2
62
256
6
ByLayer
370
13
48
1
60
0
100
AcDbHatch
10
0
20
0
30
0
210
0
220
0
230
1
2
ANSI31
70
0
71
0
91
1
92
5
93
3
72
1
10
13
20
-33.5962348702419
11
9.50000169255318
21
-34.0570186117947
72
1
10
9.50000169255318
20
-34.0570186117947
11
9.49999830744682
21
-33.1354511286891
72
1
10
9.49999830744682
20
-33.1354511286891
11
13
21
-33.5962348702419
97
0
75
0
76
1
52
0
41
0.0062
77
0
78
1
53
45
43
0
44
0
45
-0.0139193969876572
46
0.0139193969876572
79
0
47
0
98
1
10
0
20
0
0
DIMENSION
5
17B
100
AcDbEntity
8
SK2
62
256
6
ByLayer
370
18
48
1
60
0
100
AcDbDimension
2
_U0
10
0
20
-17.596235
30
0
11
6.5
21
-17.596235
31
0
70
32
71
1
72
1
41
1
210
0
220
0
230
1
3
Standard
100
AcDbAlignedDimension
13
13
23
-3.0001
33
0
14
0
24
-3.0001
34
0
50
0
100
AcDbRotatedDimension
1001
ACAD
1000
DSTYLE
1002
{
1070
   371
1070
    13
1070
   372
1070
    13
1070
   170
1070
     0
1070
   144
1040
1.0
1070
   277
1070
     2
1070
   284
1070
     8
1070
   278
1070
    46
1070
   146
1040
1.0
1070
   345
1005
16
1070
   347
1005
16
1070
   346
1005
16
1070
   344
1005
0
1070
   343
1005
0
1070
   172
1070
     1
1070
    76
1070
     0
1070
    75
1070
     0
1070
   282
1070
     0
1070
   281
1070
     0
1070
    71
1070
     0
1070
    74
1070
     0
1070
   279
1070
     0
1070
   173
1070
     1
1070
   340
1005
15A
1070
   271
1070
     2
1070
   272
1070
     2
1070
    77
1070
     1
1070
    73
1070
     1
1070
   171
1070
     3
1070
   274
1070
     4
1070
   177
1070
     2
1070
   176
1070
     2
1070
   178
1070
     2
1070
    78
1070
     8
1070
    48
1040
-0.1
1070
    41
1040
3.5
1070
   147
1040
1.75
1070
    42
1040
1.5875
1070
    44
1040
2.0
1070
   140
1040
3.5
1002
}
1001
ACAD_DSTYLE_DIM_LINETYPE
1070
   380
1005
16
1001
ACAD_DSTYLE_DIM_EXT1_LINETYPE
1070
   381
1005
16
1001
ACAD_DSTYLE_DIM_EXT2_LINETYPE
1070
   382
1005
16
0
ENDSEC
0
SECTION
2
OBJECTS
0
DICTIONARY
5
205
330
0
100
AcDbDictionary
280
0
281
1
3
ACAD_GROUP
350
206
3
ACAD_MLINESTYLE
350
207
0
DICTIONARY
5
206
330
0
100
AcDbDictionary
280
0
281
1
0
DICTIONARY
5
207
330
0
100
AcDbDictionary
280
0
281
1
3
Standard
350
18
0
MLINESTYLE
5
18
330
207
100
AcDbMlineStyle
2
Standard
70
0
3

62
256
51
90
52
90
71
2
49
-0.5
62
256
6
ByLayer
49
0.5
62
256
6
ByLayer
0
RASTERVARIABLES
5
1f3
330

100
AcDbRasterVariables
90
0
70
1
71
1
72
1
0
ENDSEC
0
EOF
