0
SECTION
2
HEADER
9
$ACADVER
1
AC1015
9
$DWGCODEPAGE
3
ANSI_1252
9
$HANDSEED
5
1e1
9
$ANGBASE
50
0
9
$ANGDIR
70
0
9
$ATTMODE
70
1
9
$AUNITS
70
0
9
$AUPREC
70
0
9
$CECOLOR
62
256
9
$CELTSCALE
40
1
9
$CELTYPE
6
ByLayer
9
$CELWEIGHT
370
18
9
$CLAYER
8
0
9
$CMLJUST
70
0
9
$CMLSCALE
40
1
9
$CMLSTYLE
2
Standard
9
$DIMSTYLE
2
Standard
9
$TEXTSIZE
40
0.2
9
$TEXTSTYLE
7
Standard
9
$LUNITS
70
2
9
$LUPREC
70
4
9
$EXTNAMES
290
1
9
$INSUNITS
70
4
9
$LTSCALE
40
1
9
$LWDISPLAY
290
1
9
$PDMODE
70
0
9
$PDSIZE
40
0
9
$PLINEGEN
70
0
0
ENDSEC
0
SECTION
2
CLASSES
0
CLASS
1
RASTERVARIABLES
2
AcDbRasterVariables
3
ISM
90
0
280
0
281
0
0
ENDSEC
0
SECTION
2
TABLES
0
TABLE
2
VPORT
5
1d7
100
AcDbSymbolTable
0
VPORT
5
1
100
AcDbSymbolTableRecord
100
AcDbViewportTableRecord
2
*Active
70
0
10
0
20
0
11
1
21
1
12
-1
22
1
13
0
23
0
14
0.5
24
0.5
15
10
25
10
16
0
26
0
36
1
17
0
27
0
37
0
0
ENDTAB
0
TABLE
2
LTYPE
5
1d8
100
AcDbSymbolTable
0
LTYPE
5
14
100
AcDbSymbolTableRecord
100
AcDbLinetypeTableRecord
70
0
2
ByBlock
3

72
65
73
0
40
0
0
LTYPE
5
15
100
AcDbSymbolTableRecord
100
AcDbLinetypeTableRecord
70
0
2
ByLayer
3

72
65
73
0
40
0
0
LTYPE
5
16
100
AcDbSymbolTableRecord
100
AcDbLinetypeTableRecord
70
0
2
Continuous
3
Solid line
72
65
73
0
40
0
0
LTYPE
5
6E
100
AcDbSymbolTableRecord
100
AcDbLinetypeTableRecord
70
0
2
CENTER
3
____ _ ____ _ ____ _ ____
72
65
73
4
40
47.5
49
22
74
0
49
-8.5
74
0
49
8.5
74
0
49
-8.5
74
0
0
LTYPE
5
6F
100
AcDbSymbolTableRecord
100
AcDbLinetypeTableRecord
70
0
2
DASHED
3
__ __ __ __ __ __ __ __ __
72
65
73
2
40
25.72
49
12.86
74
0
49
-12.86
74
0
0
ENDTAB
0
TABLE
2
LAYER
5
1d9
100
AcDbSymbolTable
0
LAYER
5
10
100
AcDbSymbolTableRecord
100
AcDbLayerTableRecord
2
0
70
0
62
7
6
Continuous
290
1
370
-3
390
0
0
LAYER
5
71
100
AcDbSymbolTableRecord
100
AcDbLayerTableRecord
2
81
70
0
62
-3
6
Continuous
290
1
370
-3
390
0
0
LAYER
5
73
100
AcDbSymbolTableRecord
100
AcDbLayerTableRecord
2
80
70
0
62
-6
6
Continuous
290
1
370
-3
390
0
0
LAYER
5
75
100
AcDbSymbolTableRecord
100
AcDbLayerTableRecord
2
1
70
0
62
4
6
Continuous
290
1
370
-3
390
0
0
LAYER
5
79
100
AcDbSymbolTableRecord
100
AcDbLayerTableRecord
2
4
70
0
62
-2
6
CENTER
290
1
370
-3
390
0
0
LAYER
5
BD
100
AcDbSymbolTableRecord
100
AcDbLayerTableRecord
2
2
70
0
62
7
6
Continuous
290
1
370
-3
390
0
0
LAYER
5
14D
100
AcDbSymbolTableRecord
100
AcDbLayerTableRecord
2
Defpoints
70
0
62
7
6
Continuous
290
0
370
-3
390
0
0
LAYER
5
1c3
100
AcDbSymbolTableRecord
100
AcDbLayerTableRecord
2
SK4
70
0
62
2
6
CENTER
290
1
370
-3
390
0
0
LAYER
5
1c4
100
AcDbSymbolTableRecord
100
AcDbLayerTableRecord
2
SK1
70
0
62
4
6
Continuous
290
1
370
-3
390
0
0
LAYER
5
1c5
100
AcDbSymbolTableRecord
100
AcDbLayerTableRecord
2
SK2
70
0
62
7
6
Continuous
290
1
370
-3
390
0
0
LAYER
5
1c6
100
AcDbSymbolTableRecord
100
AcDbLayerTableRecord
2
SK6
70
0
62
5
6
Continuous
290
1
370
-3
390
0
0
ENDTAB
0
TABLE
2
STYLE
5
1da
100
AcDbSymbolTable
0
STYLE
5
11
100
AcDbSymbolTableRecord
100
AcDbTextStyleTableRecord
2
Standard
3
txt
70
0
71
0
40
0
41
1
42
0
50
0
0
STYLE
5
129
100
AcDbSymbolTableRecord
100
AcDbTextStyleTableRecord
2
iso_b_vert
3
simplex.shx
70
0
71
0
40
0
41
1
42
0
50
0
0
STYLE
5
12A
100
AcDbSymbolTableRecord
100
AcDbTextStyleTableRecord
2
DWGDirectTextStyle
3
simplex
70
0
71
0
40
0
41
1
42
0
50
0
0
ENDTAB
0
TABLE
2
DIMSTYLE
5
1db
100
AcDbSymbolTable
100
AcDbDimStyleTable
0
DIMSTYLE
105
27
100
AcDbSymbolTableRecord
100
AcDbDimStyleTableRecord
2
Standard
70
0
3
<>
41
0.18
42
0.0625
44
0.18
140
0.18
147
0.09
73
0
74
0
77
1
271
2
275
0
278
52
280
0
340
11
0
ENDTAB
0
TABLE
2
VIEW
5
1dc
100
AcDbSymbolTable
0
ENDTAB
0
TABLE
2
UCS
5
1dd
100
AcDbSymbolTable
0
ENDTAB
0
TABLE
2
APPID
5
1de
100
AcDbSymbolTable
0
APPID
5
12
100
AcDbSymbolTableRecord
100
AcDbRegAppTableRecord
2
ACAD
70
0
0
APPID
5
149
100
AcDbSymbolTableRecord
100
AcDbRegAppTableRecord
2
ACAD_DSTYLE_DIMBREAK
70
0
0
APPID
5
182
100
AcDbSymbolTableRecord
100
AcDbRegAppTableRecord
2
ACAD_DSTYLE_DIM_LINETYPE
70
0
0
APPID
5
183
100
AcDbSymbolTableRecord
100
AcDbRegAppTableRecord
2
ACAD_DSTYLE_DIM_EXT1_LINETYPE
70
0
0
APPID
5
184
100
AcDbSymbolTableRecord
100
AcDbRegAppTableRecord
2
ACAD_DSTYLE_DIM_EXT2_LINETYPE
70
0
0
APPID
5
1BF
100
AcDbSymbolTableRecord
100
AcDbRegAppTableRecord
2
ACAD_MLEADERVER
70
0
0
ENDTAB
0
TABLE
2
BLOCK_RECORD
5
1df
100
AcDbSymbolTable
0
BLOCK_RECORD
5
1F
100
AcDbSymbolTableRecord
100
AcDbBlockTableRecord
2
*Model_Space
340
0
70
0
0
BLOCK_RECORD
5
1B
100
AcDbSymbolTableRecord
100
AcDbBlockTableRecord
2
*Paper_Space
340
0
70
0
0
BLOCK_RECORD
5
23
100
AcDbSymbolTableRecord
100
AcDbBlockTableRecord
2
*Paper_Space0
340
0
70
0
0
BLOCK_RECORD
5
14E
100
AcDbSymbolTableRecord
100
AcDbBlockTableRecord
2
*D1
340
0
70
0
0
BLOCK_RECORD
5
15B
100
AcDbSymbolTableRecord
100
AcDbBlockTableRecord
2
_U0
340
0
70
0
0
ENDTAB
0
ENDSEC
0
SECTION
2
BLOCKS
0
BLOCK
5
20
100
AcDbEntity
8
0
100
AcDbBlockBegin
2
*Model_Space
70
0
10
0
20
0
30
0
3
*Model_Space
0
ENDBLK
5
21
100
AcDbEntity
8
0
100
AcDbBlockEnd
0
BLOCK
5
1C
100
AcDbEntity
8
0
100
AcDbBlockBegin
2
*Paper_Space
70
0
10
0
20
0
30
0
3
*Paper_Space
0
ENDBLK
5
1D
100
AcDbEntity
8
0
100
AcDbBlockEnd
0
BLOCK
5
24
100
AcDbEntity
8
0
100
AcDbBlockBegin
2
*Paper_Space0
70
0
10
0
20
0
30
0
3
*Paper_Space0
0
ENDBLK
5
25
100
AcDbEntity
8
0
100
AcDbBlockEnd
0
BLOCK
5
14F
100
AcDbEntity
8
0
100
AcDbBlockBegin
2
*D1
70
1
10
0
20
0
30
0
3
*D1
0
LINE
5
151
100
AcDbEntity
8
0
62
256
6
ByLayer
370
-2
48
1
60
0
100
AcDbLine
10
15.935334
20
-3.3376
30
0
11
15.935334
21
-19.1
31
0
39
0
210
0
220
0
230
1
0
LINE
5
152
100
AcDbEntity
8
0
62
256
6
ByLayer
370
-2
48
1
60
0
100
AcDbLine
10
8.935334
20
-3.3376
30
0
11
8.935334
21
-19.1
31
0
39
0
210
0
220
0
230
1
0
LINE
5
153
100
AcDbEntity
8
0
62
256
6
ByLayer
370
-2
48
1
60
0
100
AcDbLine
10
19.435334
20
-17.1
30
0
11
22.935334
21
-17.1
31
0
39
0
210
0
220
0
230
1
0
LINE
5
154
100
AcDbEntity
8
0
62
256
6
ByLayer
370
-2
48
1
60
0
100
AcDbLine
10
5.435334
20
-17.1
30
0
11
1.935334
21
-17.1
31
0
39
0
210
0
220
0
230
1
0
SOLID
5
155
100
AcDbEntity
8
0
62
256
6
ByLayer
370
-1
48
1
60
0
100
AcDbTrace
10
19.435334
20
-16.516667
30
0
11
19.435334
21
-17.683333
31
0
12
15.935334
22
-17.1
32
0
13
15.935334
23
-17.1
33
0
39
0
210
0
220
0
230
1
0
SOLID
5
156
100
AcDbEntity
8
0
62
256
6
ByLayer
370
-1
48
1
60
0
100
AcDbTrace
10
5.435334
20
-17.683333
30
0
11
5.435334
21
-16.516667
31
0
12
8.935334
22
-17.1
32
0
13
8.935334
23
-17.1
33
0
39
0
210
0
220
0
230
1
0
MTEXT
5
157
100
AcDbEntity
8
0
62
256
6
ByLayer
370
18
48
1
60
0
100
AcDbMText
10
12.435334
20
-10.1
30
0
210
0
220
0
230
1
1
\A1;7
40
3.5
41
0
44
1
50
0
71
5
72
5
7
iso_b_vert
0
POINT
5
158
100
AcDbEntity
8
Defpoints
62
0
6
ByLayer
370
-1
48
1
60
0
100
AcDbPoint
10
15.935334
20
-1.7501
30
0
39
0
210
0
220
0
230
1
50
360
0
POINT
5
159
100
AcDbEntity
8
Defpoints
62
0
6
ByLayer
370
-1
48
1
60
0
100
AcDbPoint
10
8.935334
20
-1.7501
30
0
39
0
210
0
220
0
230
1
50
360
0
POINT
5
15A
100
AcDbEntity
8
Defpoints
62
0
6
ByLayer
370
-1
48
1
60
0
100
AcDbPoint
10
8.935334
20
-17.1
30
0
39
0
210
0
220
0
230
1
50
360
0
ENDBLK
5
150
100
AcDbEntity
8
0
100
AcDbBlockEnd
0
BLOCK
5
162
100
AcDbEntity
8
0
100
AcDbBlockBegin
2
_U0
70
0
10
0
20
0
30
0
3
_U0
0
MTEXT
5
15C
100
AcDbEntity
8
SK2
62
256
6
ByLayer
370
18
48
1
60
0
100
AcDbMText
10
11.838101
20
-16.067366
30
0
210
0
220
0
230
1
1
\W0.5404;7
40
3.5
41
0
44
1.084337
50
0
71
7
72
5
7
iso_b_vert
0
LINE
5
15D
100
AcDbEntity
8
SK2
62
256
6
ByLayer
370
13
48
1
60
0
100
AcDbLine
10
15.935334
20
-3.3376
30
0
11
15.935334
21
-19.1
31
0
39
0
210
0
220
0
230
1
0
LINE
5
15E
100
AcDbEntity
8
SK2
62
256
6
ByLayer
370
13
48
1
60
0
100
AcDbLine
10
8.935334
20
-3.3376
30
0
11
8.935334
21
-19.1
31
0
39
0
210
0
220
0
230
1
0
LINE
5
15F
100
AcDbEntity
8
SK2
62
256
6
ByLayer
370
13
48
1
60
0
100
AcDbLine
10
24.685334
20
-17.1
30
0
11
0.185334
21
-17.1
31
0
39
0
210
0
220
0
230
1
0
SOLID
5
160
100
AcDbEntity
8
SK2
62
256
6
ByLayer
370
18
48
1
60
0
100
AcDbTrace
10
15.935334
20
-17.1
30
0
11
19.435332
21
-16.639216
31
0
12
19.435335
22
-17.560784
32
0
13
19.435335
23
-17.560784
33
0
39
0
210
0
220
0
230
1
0
SOLID
5
161
100
AcDbEntity
8
SK2
62
256
6
ByLayer
370
18
48
1
60
0
100
AcDbTrace
10
8.935334
20
-17.1
30
0
11
5.435335
21
-17.560784
31
0
12
5.435332
22
-16.639216
32
0
13
5.435332
23
-16.639216
33
0
39
0
210
0
220
0
230
1
0
ENDBLK
5
163
100
AcDbEntity
8
0
100
AcDbBlockEnd
0
ENDSEC
0
SECTION
2
ENTITIES
0
ARC
5
CF
100
AcDbEntity
8
1
62
256
6
ByLayer
370
18
48
1
60
0
100
AcDbCircle
39
0
10
2.433013
20
2.75
30
0
40
1
210
0
220
0
230
1
100
AcDbArc
50
240
51
270
0
ARC
5
D0
100
AcDbEntity
8
1
62
256
6
ByLayer
370
18
48
1
60
0
100
AcDbCircle
39
0
10
2.433013
20
-2.75
30
0
40
1
210
0
220
0
230
1
100
AcDbArc
50
90
51
120
0
ELLIPSE
5
D1
100
AcDbEntity
8
1
62
256
6
ByLayer
370
18
48
1
60
0
100
AcDbEllipse
10
10.523796
20
0
30
0
11
3.16126326521444
21
0.606788224099351
31
0
210
0
220
0
230
1
40
0.519234
41
-2.75564892009847
42
-2.32070729422542
0
ELLIPSE
5
D2
100
AcDbEntity
8
1
62
256
6
ByLayer
370
18
48
1
60
0
100
AcDbEllipse
10
10.520025
20
1.3E-05
30
0
11
9.12595550874253
21
-1.74254471280574
31
0
210
0
220
0
230
1
40
0.017651
41
1.748697054832
42
1.7684211917948
0
ELLIPSE
5
D3
100
AcDbEntity
8
1
62
256
6
ByLayer
370
18
48
1
60
0
100
AcDbEllipse
10
10.676426
20
0
30
0
11
3.4821123944819
21
-1.74942987334435
31
0
210
0
220
0
230
1
40
0.012827
41
2.22606876651388
42
2.6618927721579
0
ELLIPSE
5
D4
100
AcDbEntity
8
1
62
256
6
ByLayer
370
18
48
1
60
0
100
AcDbEllipse
10
10.301545
20
1E-06
30
0
11
7.86732916952682
21
0.348779819169541
31
0
210
0
220
0
230
1
40
0.217976
41
-1.77605669026011
42
-1.77144236692448
0
POINT
5
70
100
AcDbEntity
8
81
62
256
6
ByLayer
370
18
48
1
60
0
100
AcDbPoint
10
15.935334
20
0
30
0
39
0
210
0
220
0
230
1
50
360
0
POINT
5
72
100
AcDbEntity
8
80
62
256
6
ByLayer
370
18
48
1
60
0
100
AcDbPoint
10
0
20
0
30
0
39
0
210
0
220
0
230
1
50
360
0
POINT
5
74
100
AcDbEntity
8
1
62
256
6
ByLayer
370
18
48
1
60
1
100
AcDbPoint
10
15.935334
20
-1.7501
30
0
39
0
210
0
220
0
230
1
50
360
0
POINT
5
76
100
AcDbEntity
8
1
62
256
6
ByLayer
370
18
48
1
60
1
100
AcDbPoint
10
8.935334
20
-1.7501
30
0
39
0
210
0
220
0
230
1
50
360
0
SPLINE
5
D5
100
AcDbEntity
8
1
62
256
6
ByLayer
370
18
48
1
60
0
100
AcDbSpline
70
4
71
3
72
8
73
4
40
0
40
0
40
0
40
0
40
1
40
1
40
1
40
1
41
1
10
15.7672678149929
20
1.74509348558391
30
0
41
1
10
15.7784165676547
20
1.70483494028184
30
0
41
1
10
15.7903765116116
20
1.66482534858665
30
0
41
1
10
15.803332397427
20
1.62512141180216
30
0
0
SPLINE
5
D6
100
AcDbEntity
8
1
62
256
6
ByLayer
370
18
48
1
60
0
100
AcDbSpline
70
4
71
3
72
19
73
15
40
0
40
0
40
0
40
0
40
0.0258835070437533
40
0.0258835070437533
40
0.0954632565406307
40
0.0954632565406307
40
0.165043006037508
40
0.443362004025008
40
0.443362004025008
40
0.721681002012508
40
0.721681002012508
40
0.860840501006255
40
0.860840501006255
40
1
40
1
40
1
40
1
41
1
10
14.2340196066653
20
1.26881752474361
30
0
41
1
10
14.2473124161573
20
1.27595173884572
30
0
41
1
10
14.260615057532
20
1.28302543468939
30
0
41
1
10
14.3097162922289
20
1.30888868170956
30
0
41
1
10
14.3456282171732
20
1.32731973163419
30
0
41
1
10
14.4171987118862
20
1.36304212285018
30
0
41
1
10
14.5956941909261
20
1.44960988831886
30
0
41
1
10
14.7724123696983
20
1.52227940425078
30
0
41
1
10
15.0549696828222
20
1.61968693541459
30
0
41
1
10
15.196158488882
20
1.65896306890079
30
0
41
1
10
15.4093540113817
20
1.70288089679693
30
0
41
1
10
15.4806550889338
20
1.71501128864978
30
0
41
1
10
15.6239858589909
20
1.73405359492693
30
0
41
1
10
15.6956441305924
20
1.74091274561937
30
0
41
1
10
15.7672678150098
20
1.74509348559198
30
0
0
SPLINE
5
D7
100
AcDbEntity
8
1
62
256
6
ByLayer
370
18
48
1
60
0
100
AcDbSpline
70
4
71
3
72
8
73
4
40
0
40
0
40
0
40
0
40
1
40
1
40
1
40
1
41
1
10
15.7672678150124
20
1.74509348559096
30
0
41
1
10
15.7817371864033
20
1.74501553502097
30
0
41
1
10
15.7962072717462
20
1.7450218886224
30
0
41
1
10
15.8106780685623
20
1.74511225352936
30
0
0
SPLINE
5
D8
100
AcDbEntity
8
1
62
256
6
ByLayer
370
18
48
1
60
0
100
AcDbSpline
70
4
71
3
72
37
73
33
40
0
40
0
40
0
40
0
40
0.0624999999999953
40
0.0624999999999953
40
0.124999999999991
40
0.124999999999991
40
0.156249999999988
40
0.156249999999988
40
0.187499999999986
40
0.218749999999984
40
0.218749999999984
40
0.249999999999981
40
0.249999999999981
40
0.312499999999983
40
0.312499999999983
40
0.343749999999984
40
0.343749999999984
40
0.374999999999984
40
0.374999999999984
40
0.437499999999986
40
0.437499999999986
40
0.499999999999987
40
0.499999999999987
40
0.562499999999989
40
0.562499999999989
40
0.62499999999999
40
0.62499999999999
40
0.749999999999993
40
0.749999999999993
40
0.874999999999997
40
0.874999999999997
40
1
40
1
40
1
40
1
41
1
10
15.8033323687945
20
1.6251214026004
30
0
41
1
10
15.8101297364811
20
1.60428322113032
30
0
41
1
10
15.8157132457031
20
1.58321936031243
30
0
41
1
10
15.8240324493458
20
1.54056217135525
30
0
41
1
10
15.8267721270399
20
1.51896958480961
30
0
41
1
10
15.8282555269359
20
1.48609245780381
30
0
41
1
10
15.8283040526493
20
1.4750515473452
30
0
41
1
10
15.8274437932784
20
1.45319610036751
30
0
41
1
10
15.8256331778158
20
1.43147012294571
30
0
41
1
10
15.8218253961381
20
1.41001622483822
30
0
41
1
10
15.8169625449251
20
1.38870606167978
30
0
41
1
10
15.8139936798978
20
1.3780937421881
30
0
41
1
10
15.803470512757
20
1.34667423908871
30
0
41
1
10
15.7944769752815
20
1.32676831278974
30
0
41
1
10
15.7782508745895
20
1.29834835765243
30
0
41
1
10
15.7723857039002
20
1.28911512712045
30
0
41
1
10
15.7597761108882
20
1.27111112233658
30
0
41
1
10
15.7530030336694
20
1.26231148162543
30
0
41
1
10
15.7318191923745
20
1.23703562329513
30
0
41
1
10
15.7164626368285
20
1.22152625642582
30
0
41
1
10
15.6837805956435
20
1.19264751535718
30
0
41
1
10
15.666452719887
20
1.17928073893111
30
0
41
1
10
15.6301755238644
20
1.15430950327766
30
0
41
1
10
15.6114865267963
20
1.1428832316943
30
0
41
1
10
15.5733857142123
20
1.12174261960814
30
0
41
1
10
15.5539487535688
20
1.11201503161468
30
0
41
1
10
15.4947104760304
20
1.08485406098529
30
0
41
1
10
15.4539939785762
20
1.06941584196042
30
0
41
1
10
15.3708581975312
20
1.04225160791557
30
0
41
1
10
15.3289078687471
20
1.03069347104468
30
0
41
1
10
15.2447299871304
20
1.01051973694928
30
0
41
1
10
15.2024474713687
20
1.00189997570232
30
0
41
1
10
15.160015840938
20
0.994410355478578
30
0
0
SPLINE
5
D9
100
AcDbEntity
8
1
62
256
6
ByLayer
370
18
48
1
60
0
100
AcDbSpline
70
4
71
3
72
10
73
6
40
0
40
0
40
0
40
0
40
0.519406824071878
40
0.825249240702193
40
1
40
1
40
1
40
1
41
1
10
15.8033323736972
20
1.62512140195434
30
0
41
1
10
15.5556661757086
20
1.6116558780802
30
0
41
1
10
15.1621666443866
20
1.54136556818736
30
0
41
1
10
14.6853415691074
20
1.37469261933978
30
0
41
1
10
14.4561826918168
20
1.27374231413893
30
0
41
1
10
14.3728571478595
20
1.23442490611799
30
0
0
SPLINE
5
DA
100
AcDbEntity
8
1
62
256
6
ByLayer
370
18
48
1
60
0
100
AcDbSpline
70
4
71
3
72
23
73
19
40
0
40
0
40
0
40
0
40
0.0623748719579462
40
0.124743820157044
40
0.187112252571036
40
0.249485391976861
40
0.311868281105002
40
0.374265787667348
40
0.436682609260042
40
0.49912327813886
40
0.56159216586578
40
0.624093487825767
40
0.686631307613492
40
0.749209541290025
40
0.811831961510453
40
0.874502201523254
40
0.937223759043261
40
1
40
1
40
1
40
1
41
1
10
8.71527061522866
20
-1.58211079288912
30
0
41
1
10
8.71071557437824
20
-1.58420515852424
30
0
41
1
10
8.70160592527085
20
-1.58839369089199
30
0
41
1
10
8.68806856116689
20
-1.59506166511628
30
0
41
1
10
8.67462586736335
20
-1.60200624716663
30
0
41
1
10
8.66128696755365
20
-1.60925171080709
30
0
41
1
10
8.64804955823271
20
-1.61678689967368
30
0
41
1
10
8.63491439050685
20
-1.62461018293337
30
0
41
1
10
8.62188138927417
20
-1.63271740720449
30
0
41
1
10
8.60895069510082
20
-1.64110512824965
30
0
41
1
10
8.59612237955386
20
-1.64976973241082
30
0
41
1
10
8.5833965430046
20
-1.6587077162489
30
0
41
1
10
8.57077320939533
20
-1.66791544473412
30
0
41
1
10
8.55825265083882
20
-1.67738983726991
30
0
41
1
10
8.54583419457401
20
-1.68712586110871
30
0
41
1
10
8.53352067620816
20
-1.69712587905181
30
0
41
1
10
8.52130180287347
20
-1.70736472527531
30
0
41
1
10
8.51324846240101
20
-1.7143985252535
30
0
41
1
10
8.50922003761474
20
-1.71791695766927
30
0
0
SPLINE
5
DB
100
AcDbEntity
8
1
62
256
6
ByLayer
370
18
48
1
60
0
100
AcDbSpline
70
4
71
3
72
8
73
4
40
0
40
0
40
0
40
0
40
1
40
1
40
1
40
1
41
1
10
15.8106780685846
20
1.74511225351512
30
0
41
1
10
15.8285402299786
20
1.74215851347935
30
0
41
1
10
15.8464241454036
20
1.73934532531555
30
0
41
1
10
15.8643292260126
20
1.7366688841808
30
0
0
SPLINE
5
DC
100
AcDbEntity
8
1
62
256
6
ByLayer
370
18
48
1
60
0
100
AcDbSpline
70
4
71
3
72
9
73
5
40
0
40
0
40
0
40
0
40
0.233801978035577
40
1
40
1
40
1
40
1
41
1
10
10.0773362058884
20
-1.55219187860942
30
0
41
1
10
9.98833539716944
20
-1.56318575804866
30
0
41
1
10
9.60766792178376
20
-1.59454709776051
30
0
41
1
10
9.22700044639811
20
-1.55711734533392
30
0
41
1
10
8.93533377973145
20
-1.4897629290667
30
0
0
SPLINE
5
DD
100
AcDbEntity
8
1
62
256
6
ByLayer
370
18
48
1
60
0
100
AcDbSpline
70
4
71
3
72
22
73
18
40
0
40
0
40
0
40
0
40
0.0190667962831346
40
0.0190667962831346
40
0.141683446747743
40
0.141683446747743
40
0.264300097212352
40
0.264300097212352
40
0.509533398141568
40
0.509533398141568
40
0.632150048606176
40
0.632150048606176
40
0.754766699070784
40
0.754766699070784
40
0.877383349535392
40
0.877383349535392
40
1
40
1
40
1
40
1
41
1
10
10.6835612616432
20
-1.49597591472278
30
0
41
1
10
10.6724366267376
20
-1.49997389017386
30
0
41
1
10
10.6613179057079
20
-1.50391326811354
30
0
41
1
10
10.5787349961447
20
-1.53275286726554
30
0
41
1
10
10.5074787602361
20
-1.55532332827272
30
0
41
1
10
10.3652229565665
20
-1.59562866218053
30
0
41
1
10
10.2942361143695
20
-1.61332733648464
30
0
41
1
10
10.0813042409445
20
-1.65913389416488
30
0
41
1
10
9.93935647303221
20
-1.68012449041635
30
0
41
1
10
9.72511510079585
20
-1.69642207642437
30
0
41
1
10
9.65344737057961
20
-1.69929840313222
30
0
41
1
10
9.50956294079256
20
-1.69960783274439
30
0
41
1
10
9.43783375906011
20
-1.69701855523221
30
0
41
1
10
9.29442179523477
20
-1.68671647278902
30
0
41
1
10
9.22273769806779
20
-1.67902437696347
30
0
41
1
10
9.07922917549848
20
-1.65832644324075
30
0
41
1
10
9.00740121424778
20
-1.64531028334127
30
0
41
1
10
8.93533377973145
20
-1.6298512367276
30
0
0
SPLINE
5
DE
100
AcDbEntity
8
1
62
256
6
ByLayer
370
18
48
1
60
0
100
AcDbSpline
70
4
71
3
72
9
73
5
40
0
40
0
40
0
40
0
40
0.0534135851085935
40
1
40
1
40
1
40
1
41
1
10
9.85970791634981
20
-1.53839447437289
30
0
41
1
10
9.8432498708103
20
-1.53879813724998
30
0
41
1
10
9.53512515860413
20
-1.54401076862143
30
0
41
1
10
9.22700044639797
20
-1.50515511901699
30
0
41
1
10
8.93533377973134
20
-1.43121197498326
30
0
0
SPLINE
5
DF
100
AcDbEntity
8
1
62
256
6
ByLayer
370
18
48
1
60
0
100
AcDbSpline
70
4
71
3
72
12
73
8
40
0
40
0
40
0
40
0
40
0.499999999999925
40
0.499999999999925
40
0.749999999999963
40
0.749999999999963
40
1
40
1
40
1
40
1
41
1
10
14.9300415551974
20
-0.530196388257053
30
0
41
1
10
14.9392840721923
20
-0.51781105186322
30
0
41
1
10
14.9490631307173
20
-0.50578515455004
30
0
41
1
10
14.9647049804044
20
-0.489064582908441
30
0
41
1
10
14.9700863945357
20
-0.48370534516252
30
0
41
1
10
14.9811116461583
20
-0.473604961886394
30
0
41
1
10
14.986771865689
20
-0.468845044704352
30
0
41
1
10
14.992612584146
20
-0.464400760609351
30
0
0
SPLINE
5
E0
100
AcDbEntity
8
1
62
256
6
ByLayer
370
18
48
1
60
0
100
AcDbSpline
70
4
71
3
72
10
73
6
40
0
40
0
40
0
40
0
40
0.0810460385512989
40
0.54052301927565
40
1
40
1
40
1
40
1
41
1
10
10.8396729233825
20
-0.849594724032897
30
0
41
1
10
10.7882265421654
20
-0.839082072167514
30
0
41
1
10
10.4451134942817
20
-0.765248883774746
30
0
41
1
10
9.81033377973137
20
-0.583727083991079
30
0
41
1
10
9.22700044639805
20
-0.369767362145922
30
0
41
1
10
8.93533377973137
20
-0.256925869196778
30
0
0
SPLINE
5
E1
100
AcDbEntity
8
1
62
256
6
ByLayer
370
18
48
1
60
0
100
AcDbSpline
70
4
71
3
72
10
73
6
40
0
40
0
40
0
40
0
40
0.307154008844844
40
0.653577004422422
40
1
40
1
40
1
40
1
41
1
10
11.4611476291877
20
-1.34673991911762
30
0
41
1
10
11.2025430127023
20
-1.41871297156709
30
0
41
1
10
10.6522717295502
20
-1.51458227404291
30
0
41
1
10
9.81033377973137
20
-1.45186316154195
30
0
41
1
10
9.22700044639802
20
-1.26458572894325
30
0
41
1
10
8.93533377973137
20
-1.14012961475797
30
0
0
SPLINE
5
E2
100
AcDbEntity
8
1
62
256
6
ByLayer
370
18
48
1
60
0
100
AcDbSpline
70
4
71
3
72
8
73
4
40
0
40
0
40
0
40
0
40
1
40
1
40
1
40
1
41
1
10
8.59971121043046
20
-1.61468999142178
30
0
41
1
10
8.63817677314472
20
-1.60343877296705
30
0
41
1
10
8.67669650336896
20
-1.59258002235433
30
0
41
1
10
8.715270031241
20
-1.5821110597667
30
0
0
SPLINE
5
E3
100
AcDbEntity
8
1
62
256
6
ByLayer
370
18
48
1
60
0
100
AcDbSpline
70
4
71
3
72
8
73
4
40
0
40
0
40
0
40
0
40
1
40
1
40
1
40
1
41
1
10
8.93533377973128
20
-1.62985123672752
30
0
41
1
10
8.86135195672796
20
-1.61597281976765
30
0
41
1
10
8.78796296907413
20
-1.60017155982319
30
0
41
1
10
8.71527061412269
20
-1.58211079341234
30
0
0
SPLINE
5
E4
100
AcDbEntity
8
1
62
256
6
ByLayer
370
18
48
1
60
0
100
AcDbSpline
70
4
71
3
72
14
73
10
40
0
40
0
40
0
40
0
40
0.038085818727553
40
0.038085818727553
40
0.278564364045665
40
0.278564364045665
40
0.519042909363777
40
0.519042909363777
40
1
40
1
40
1
40
1
41
1
10
15.1835523947184
20
1.01812624380881
30
0
41
1
10
15.1875193452296
20
1.01692021729863
30
0
41
1
10
15.1914955408482
20
1.01567843759923
30
0
41
1
10
15.2206443861597
20
1.00633888510524
30
0
41
1
10
15.2461745280183
20
0.996858598886092
30
0
41
1
10
15.2979280539102
20
0.975217082066166
30
0
41
1
10
15.3242223316701
20
0.963012819688345
30
0
41
1
10
15.4029782429303
20
0.923117013832979
30
0
41
1
10
15.4556321099789
20
0.892060898825491
30
0
41
1
10
15.5084184839486
20
0.857063934629991
30
0
0
SPLINE
5
E5
100
AcDbEntity
8
1
62
256
6
ByLayer
370
18
48
1
60
0
100
AcDbSpline
70
4
71
3
72
12
73
8
40
0
40
0
40
0
40
0
40
0.500000000000003
40
0.500000000000003
40
0.750000000000001
40
0.750000000000001
40
1
40
1
40
1
40
1
41
1
10
15.5176794679011
20
-1.27891387330678
30
0
41
1
10
15.5194227261646
20
-1.31765811672247
30
0
41
1
10
15.5232676115515
20
-1.35150920823185
30
0
41
1
10
15.532044168668
20
-1.39527955278618
30
0
41
1
10
15.5354747879218
20
-1.40869365879561
30
0
41
1
10
15.5433626408763
20
-1.4331316368943
30
0
41
1
10
15.5478077505771
20
-1.44410368698078
30
0
41
1
10
15.5527188175944
20
-1.45375169221896
30
0
0
SPLINE
5
E6
100
AcDbEntity
8
1
62
256
6
ByLayer
370
18
48
1
60
0
100
AcDbSpline
70
4
71
3
72
22
73
18
40
0
40
0
40
0
40
0
40
0.0625000000000087
40
0.0625000000000087
40
0.125000000000018
40
0.125000000000018
40
0.250000000000024
40
0.250000000000024
40
0.50000000000005
40
0.50000000000005
40
0.562500000000046
40
0.562500000000046
40
0.625000000000043
40
0.625000000000043
40
0.750000000000025
40
0.750000000000025
40
1
40
1
40
1
40
1
41
1
10
14.9052607451191
20
-0.713350095621308
30
0
41
1
10
14.9158142595348
20
-0.730392912834844
30
0
41
1
10
14.9266436890169
20
-0.747147978962062
30
0
41
1
10
14.9488335641151
20
-0.780104315907749
30
0
41
1
10
14.96022856431
20
-0.796351322144972
30
0
41
1
10
14.9948461438821
20
-0.843827936903125
30
0
41
1
10
15.0185296157962
20
-0.873863193210838
30
0
41
1
10
15.0911664147156
20
-0.959732685044543
30
0
41
1
10
15.141691718014
20
-1.01136911561969
30
0
41
1
10
15.2070744076659
20
-1.06997018257013
30
0
41
1
10
15.2202635829251
20
-1.08138960927599
30
0
41
1
10
15.2468619105593
20
-1.10364103587392
30
0
41
1
10
15.260256114813
20
-1.11445890155395
30
0
41
1
10
15.3004504372705
20
-1.14581778429149
30
0
41
1
10
15.3273616631539
20
-1.16535002878899
30
0
41
1
10
15.4084095669193
20
-1.22019368108988
30
0
41
1
10
15.4628580305193
20
-1.25178115552643
30
0
41
1
10
15.5176794678989
20
-1.27891387330698
30
0
0
SPLINE
5
E7
100
AcDbEntity
8
1
62
256
6
ByLayer
370
18
48
1
60
0
100
AcDbSpline
70
4
71
3
72
18
73
14
40
0
40
0
40
0
40
0
40
0.125
40
0.125
40
0.25
40
0.25
40
0.375
40
0.375
40
0.5
40
0.5
40
0.75
40
0.75
40
1
40
1
40
1
40
1
41
1
10
14.9052607451191
20
-0.713350095621308
30
0
41
1
10
14.9010725229589
20
-0.706586556774027
30
0
41
1
10
14.8975374319072
20
-0.699514191847527
30
0
41
1
10
14.8918281935377
20
-0.684719792266606
30
0
41
1
10
14.8896440647842
20
-0.676939755339561
30
0
41
1
10
14.8867969720708
20
-0.660930013104888
30
0
41
1
10
14.8861485900597
20
-0.652850900328673
30
0
41
1
10
14.8862836454272
20
-0.636553871728864
30
0
41
1
10
14.8870836558143
20
-0.628260348458582
30
0
41
1
10
14.8914278313707
20
-0.60377540867043
30
0
41
1
10
14.8967912367028
20
-0.588102405396171
30
0
41
1
10
14.9111988129045
20
-0.557792874645884
30
0
41
1
10
14.920020177395
20
-0.543627707813329
30
0
41
1
10
14.9300415551909
20
-0.530196388254353
30
0
0
SPLINE
5
E8
100
AcDbEntity
8
1
62
256
6
ByLayer
370
18
48
1
60
0
100
AcDbSpline
70
4
71
3
72
13
73
9
40
0
40
0
40
0
40
0
40
0.200417516766178
40
0.435899584964885
40
0.612511136113914
40
0.789122687262944
40
0.906863721362297
40
1
40
1
40
1
40
1
41
1
10
14.9300415551974
20
-0.530196388257053
30
0
41
1
10
14.6818056300421
20
-0.427520597587289
30
0
41
1
10
14.1419030382201
20
-0.180713885989121
30
0
41
1
10
13.383250446398
20
0.200352889410567
30
0
41
1
10
12.6540837797314
20
0.526342787776628
30
0
41
1
10
12.070750446398
20
0.739994948473594
30
0
41
1
10
11.5908090811611
20
0.867269825159411
30
0
41
1
10
11.3296177159241
20
0.914032936183503
30
0
41
1
10
11.2142596840205
20
0.930139017914939
30
0
0
SPLINE
5
E9
100
AcDbEntity
8
1
62
256
6
ByLayer
370
18
48
1
60
0
100
AcDbSpline
70
4
71
3
72
8
73
4
40
0
40
0
40
0
40
0
40
1
40
1
40
1
40
1
41
1
10
8.93533377973137
20
1.31867644963296
30
0
41
1
10
8.93533377973137
20
1.31875969521536
30
0
41
1
10
8.93533377973137
20
1.30276141201199
30
0
41
1
10
8.93533377973137
20
1.27206609605662
30
0
0
SPLINE
5
EA
100
AcDbEntity
8
1
62
256
6
ByLayer
370
18
48
1
60
0
100
AcDbSpline
70
4
71
3
72
20
73
16
40
0
40
0
40
0
40
0
40
0.249999999999998
40
0.249999999999998
40
0.374999999999997
40
0.374999999999997
40
0.437499999999997
40
0.437499999999997
40
0.499999999999997
40
0.499999999999997
40
0.750000000000003
40
0.750000000000003
40
0.875000000000001
40
0.875000000000001
40
1
40
1
40
1
40
1
41
1
10
15.5527188175984
20
-1.45375169221791
30
0
41
1
10
15.5658240007256
20
-1.46357110373214
30
0
41
1
10
15.5806436272793
20
-1.46712229656572
30
0
41
1
10
15.6051239058597
20
-1.46421973906297
30
0
41
1
10
15.6136635449518
20
-1.46186455160634
30
0
41
1
10
15.6270346994018
20
-1.45627814058372
30
0
41
1
10
15.6315952738309
20
-1.45406707003664
30
0
41
1
10
15.6408359898052
20
-1.44899589955296
30
0
41
1
10
15.64551977181
20
-1.44613533514811
30
0
41
1
10
15.6692464368189
20
-1.43025560328621
30
0
41
1
10
15.6892009082323
20
-1.41256553592211
30
0
41
1
10
15.7204840972748
20
-1.37910555877932
30
0
41
1
10
15.7311445506859
20
-1.36678149536434
30
0
41
1
10
15.7528991599789
20
-1.33982163025937
30
0
41
1
10
15.7639263948699
20
-1.32526966941825
30
0
41
1
10
15.7751021322603
20
-1.30965588892312
30
0
0
SPLINE
5
EB
100
AcDbEntity
8
1
62
256
6
ByLayer
370
18
48
1
60
0
100
AcDbSpline
70
4
71
3
72
19
73
15
40
0
40
0
40
0
40
0
40
0.0744077962899148
40
0.206635253962784
40
0.338862711635654
40
0.438033304890306
40
0.537203898144957
40
0.603317626981392
40
0.669431355817827
40
0.719016652445153
40
0.768601949072479
40
0.818187245699805
40
0.867772542327131
40
1
40
1
40
1
40
1
41
1
10
15.5527188176011
20
-1.4537516922187
30
0
41
1
10
15.3885904716445
20
-1.46002431442048
30
0
41
1
10
14.9327954590213
20
-1.45031687118163
30
0
41
1
10
14.1853337797314
20
-1.31139321823522
30
0
41
1
10
13.383250446398
20
-1.00996808582735
30
0
41
1
10
12.6540837797314
20
-0.646946406854255
30
0
41
1
10
12.070750446398
20
-0.314628215656086
30
0
41
1
10
11.5603337797314
20
-0.0116649237170918
30
0
41
1
10
11.1592921130647
20
0.226635193982446
30
0
41
1
10
10.7947087797314
20
0.436753246131787
30
0
41
1
10
10.4665837797313
20
0.61936979452247
30
0
41
1
10
10.1384587797314
20
0.78823466700635
30
0
41
1
10
9.62804211306468
20
1.03624482479117
30
0
41
1
10
9.22700044639805
20
1.18724337111232
30
0
41
1
10
8.93533377973137
20
1.27206609605662
30
0
0
SPLINE
5
EC
100
AcDbEntity
8
1
62
256
6
ByLayer
370
18
48
1
60
0
100
AcDbSpline
70
4
71
3
72
12
73
8
40
0
40
0
40
0
40
0
40
0.235950727318556
40
0.438845663635147
40
0.641740599951739
40
0.844635536268331
40
1
40
1
40
1
40
1
41
1
10
15.569111598813
20
0.482676636974361
30
0
41
1
10
15.3995189924525
20
0.598807658255225
30
0
41
1
10
15.0840930527586
20
0.80555606345223
30
0
41
1
10
14.6228337797314
20
1.06487777309596
30
0
41
1
10
14.1853337797314
20
1.26425813656303
30
0
41
1
10
13.7819969154794
20
1.39303533314481
30
0
41
1
10
13.5244933845607
20
1.44259295225851
30
0
41
1
10
13.4128231869754
20
1.4576956417271
30
0
0
SPLINE
5
ED
100
AcDbEntity
8
1
62
256
6
ByLayer
370
18
48
1
60
0
100
AcDbSpline
70
4
71
3
72
14
73
10
40
0
40
0
40
0
40
0
40
0.25
40
0.25
40
0.5
40
0.5
40
0.75
40
0.75
40
1
40
1
40
1
40
1
41
1
10
15.7751021329195
20
-1.30965588895484
30
0
41
1
10
15.7779766790971
20
-1.30563997951134
30
0
41
1
10
15.7807707550454
20
-1.30215047228728
30
0
41
1
10
15.7861806860664
20
-1.29633732177314
30
0
41
1
10
15.7887563030973
20
-1.29405907950039
30
0
41
1
10
15.7935637441374
20
-1.29097532075357
30
0
41
1
10
15.7958085656934
20
-1.29015227727351
30
0
41
1
10
15.7998485246163
20
-1.29044170111126
30
0
41
1
10
15.8015712397136
20
-1.29154258449856
30
0
41
1
10
15.8028991641853
20
-1.29391333679604
30
0
0
SPLINE
5
EE
100
AcDbEntity
8
1
62
256
6
ByLayer
370
18
48
1
60
0
100
AcDbSpline
70
4
71
3
72
18
73
14
40
0
40
0
40
0
40
0
40
0.0518341664953757
40
0.209861805412813
40
0.328382534600891
40
0.446903263788969
40
0.525917083247688
40
0.604930902706407
40
0.664191267300446
40
0.723451631894485
40
0.782711996488524
40
0.841972361082563
40
1
40
1
40
1
40
1
41
1
10
14.47233987559
20
-1.53884723150475
30
0
41
1
10
14.3766711769704
20
-1.5402278884159
30
0
41
1
10
13.9893358116842
20
-1.53168492358085
30
0
41
1
10
13.383250446398
20
-1.42780462308471
30
0
41
1
10
12.6540837797313
20
-1.17201691737006
30
0
41
0.999999999999999
10
12.070750446398
20
-0.894545388321888
30
0
41
1
10
11.5603337797314
20
-0.61152777757431
30
0
41
1
10
11.1592921130647
20
-0.370949687863003
30
0
41
1
10
10.7947087797314
20
-0.144749598689515
30
0
41
1
10
10.4665837797313
20
0.0609528235490586
30
0
41
1
10
10.1384587797314
20
0.266043306907534
30
0
41
1
10
9.62804211306462
20
0.57855903992899
30
0
41
0.999999999999999
10
9.22700044639803
20
0.80541382821275
30
0
41
1
10
8.93533377973134
20
0.948475541460056
30
0
0
SPLINE
5
EF
100
AcDbEntity
8
1
62
256
6
ByLayer
370
13
48
1
60
0
100
AcDbSpline
70
4
71
3
72
11
73
7
40
0
40
0
40
0
40
0
40
0.409896979330538
40
0.664311651321444
40
0.91872632331235
40
1
40
1
40
1
40
1
41
1
10
15.7652063684613
20
-0.126165943038245
30
0
41
1
10
15.5302488388846
20
0.0497549091590201
30
0
41
1
10
15.1494579759746
20
0.33903718449082
30
0
41
1
10
14.6228337797313
20
0.70902855637749
30
0
41
1
10
14.2845801332696
20
0.924083543454287
30
0
41
1
10
14.0921598201412
20
1.03231908817477
30
0
41
1
10
14.0455728403461
20
1.0576715813327
30
0
0
SPLINE
5
F0
100
AcDbEntity
8
1
62
256
6
ByLayer
370
18
48
1
60
0
100
AcDbSpline
70
4
71
3
72
15
73
11
40
0
40
0
40
0
40
0
40
0.249999999999999
40
0.499999999999997
40
0.499999999999997
40
0.624999999999997
40
0.624999999999997
40
0.749999999999996
40
0.749999999999996
40
1
40
1
40
1
40
1
41
1
10
15.508418483951
20
0.857063934630247
30
0
41
1
10
15.5081070466911
20
0.83748939224833
30
0
41
1
10
15.5103067267728
20
0.792069211850105
30
0
41
1
10
15.517916171717
20
0.734629723555116
30
0
41
1
10
15.5256630853233
20
0.687018053866268
30
0
41
1
10
15.5285988976766
20
0.670326717006674
30
0
41
1
10
15.5350850908859
20
0.635818377076873
30
0
41
1
10
15.5386356353283
20
0.617989449484639
30
0
41
1
10
15.5501813175859
20
0.562831289065429
30
0
41
1
10
15.5590670211699
20
0.523837190191898
30
0
41
1
10
15.5691115988037
20
0.482676636980699
30
0
0
SPLINE
5
F1
100
AcDbEntity
8
1
62
256
6
ByLayer
370
18
48
1
60
0
100
AcDbSpline
70
4
71
3
72
18
73
14
40
0
40
0
40
0
40
0
40
0.249999999999997
40
0.249999999999997
40
0.374999999999996
40
0.374999999999996
40
0.499999999999995
40
0.499999999999995
40
0.624999999999993
40
0.624999999999993
40
0.749999999999992
40
0.749999999999992
40
1
40
1
40
1
40
1
41
1
10
15.5691115988107
20
0.482676636970979
30
0
41
1
10
15.5819489392837
20
0.435501457188877
30
0
41
1
10
15.5958875200312
20
0.386895019081123
30
0
41
1
10
15.6183225647069
20
0.312000527283232
30
0
41
1
10
15.6260475266999
20
0.28673624840448
30
0
41
1
10
15.6418767364317
20
0.235943451274693
30
0
41
1
10
15.6499943700817
20
0.210370026304474
30
0
41
1
10
15.6666243229909
20
0.158879039078528
30
0
41
1
10
15.6751491776613
20
0.132925505862147
30
0
41
1
10
15.6924421602357
20
0.081112453891393
30
0
41
1
10
15.7012254171775
20
0.0552049308601568
30
0
41
1
10
15.7279720766024
20
-0.0225205316218648
30
0
41
1
10
15.7463303822918
20
-0.074341350008666
30
0
41
1
10
15.7652063695252
20
-0.126165942364111
30
0
0
SPLINE
5
F2
100
AcDbEntity
8
1
62
256
6
ByLayer
370
18
48
1
60
0
100
AcDbSpline
70
4
71
3
72
14
73
10
40
0
40
0
40
0
40
0
40
0.25
40
0.25
40
0.5
40
0.5
40
0.75
40
0.75
40
1
40
1
40
1
40
1
41
1
10
15.7652063688242
20
-0.126165942577558
30
0
41
1
10
15.7681850384362
20
-0.1343438472164
30
0
41
1
10
15.7710692067342
20
-0.142498821450431
30
0
41
1
10
15.7766321101078
20
-0.158758923938763
30
0
41
1
10
15.7793116467132
20
-0.166864246281705
30
0
41
1
10
15.7844142391508
20
-0.18301265790393
30
0
41
1
10
15.7868027599103
20
-0.19094798392149
30
0
41
1
10
15.7910539351835
20
-0.206144930163703
30
0
41
1
10
15.7928803716903
20
-0.213267400989025
30
0
41
1
10
15.7942705218812
20
-0.219665149238807
30
0
0
SPLINE
5
F3
100
AcDbEntity
8
1
62
256
6
ByLayer
370
18
48
1
60
0
100
AcDbSpline
70
4
71
3
72
9
73
5
40
0
40
0
40
0
40
0
40
0.532789905103508
40
1
40
1
40
1
40
1
41
1
10
8.93533377973137
20
-0.131201428809931
30
0
41
1
10
9.22700044639805
20
-0.244308729985391
30
0
41
1
10
9.77443324096271
20
-0.451429347027357
30
0
41
1
10
10.3218660355274
20
-0.625001015118187
30
0
41
1
10
10.5776321634254
20
-0.694555145051481
30
0
0
SPLINE
5
F4
100
AcDbEntity
8
1
62
256
6
ByLayer
370
13
48
1
60
0
100
AcDbSpline
70
4
71
3
72
13
73
9
40
0
40
0
40
0
40
0
40
0.086621597855123
40
0.20304659527212
40
0.377684091397616
40
0.552321587523111
40
0.785171582357105
40
1
40
1
40
1
40
1
41
1
10
11.2348285196722
20
0.934746702062768
30
0
41
1
10
11.3433302730253
20
0.922624352675882
30
0
41
1
10
11.5976653597116
20
0.884978846997853
30
0
41
0.999999999999999
10
12.0707504463981
20
0.775716546246969
30
0
41
1
10
12.6540837797314
20
0.581451533194638
30
0
41
1
10
13.383250446398
20
0.2757954019674
30
0
41
1
10
14.1627600478696
20
-0.100219983017837
30
0
41
1
10
14.7235196493411
20
-0.353788857245973
30
0
41
1
10
14.992612584146
20
-0.464400760609379
30
0
0
SPLINE
5
F5
100
AcDbEntity
8
1
62
256
6
ByLayer
370
18
48
1
60
0
100
AcDbSpline
70
4
71
3
72
18
73
14
40
0
40
0
40
0
40
0
40
0.25000000000005
40
0.25000000000005
40
0.375000000000075
40
0.375000000000075
40
0.5000000000001
40
0.5000000000001
40
0.75000000000005
40
0.75000000000005
40
0.875000000000025
40
0.875000000000025
40
1
40
1
40
1
40
1
41
1
10
14.992612584146
20
-0.464400760609379
30
0
41
1
10
15.0050464123643
20
-0.454939736511619
30
0
41
1
10
15.0182187974373
20
-0.447021879200918
30
0
41
1
10
15.0391383756929
20
-0.437342957847818
30
0
41
1
10
15.0463065880809
20
-0.434485295152143
30
0
41
1
10
15.0610606185861
20
-0.429513690235069
30
0
41
1
10
15.0686330434727
20
-0.427410494969052
30
0
41
1
10
15.0914766328834
20
-0.422329621652608
30
0
41
1
10
15.1070410179982
20
-0.420511241667185
30
0
41
1
10
15.1309740936981
20
-0.419949597275718
30
0
41
1
10
15.139080819639
20
-0.420129132430446
30
0
41
1
10
15.1552670024516
20
-0.421183449289401
30
0
41
1
10
15.1633647758801
20
-0.422055021616302
30
0
41
1
10
15.171472941459
20
-0.423249051828066
30
0
0
SPLINE
5
F6
100
AcDbEntity
8
1
62
256
6
ByLayer
370
18
48
1
60
0
100
AcDbSpline
70
4
71
3
72
10
73
6
40
0
40
0
40
0
40
0
40
0.105347881790427
40
0.105347881790427
40
1
40
1
40
1
40
1
41
1
10
15.3153841286506
20
-0.446928922418977
30
0
41
1
10
15.3103555479339
20
-0.446005296370544
30
0
41
1
10
15.3053240575121
20
-0.445092388376793
30
0
41
1
10
15.2575367769749
20
-0.436524583572918
30
0
41
1
10
15.2145833725744
20
-0.429597609550342
30
0
41
1
10
15.171472941459
20
-0.423249051828833
30
0
0
SPLINE
5
F7
100
AcDbEntity
8
1
62
256
6
ByLayer
370
18
48
1
60
0
100
AcDbSpline
70
4
71
3
72
30
73
26
40
0
40
0
40
0
40
0
40
0.125000000000009
40
0.125000000000009
40
0.250000000000017
40
0.250000000000017
40
0.312500000000038
40
0.312500000000038
40
0.375000000000058
40
0.437500000000079
40
0.437500000000079
40
0.500000000000099
40
0.500000000000099
40
0.625000000000113
40
0.625000000000113
40
0.656250000000111
40
0.656250000000111
40
0.687500000000109
40
0.750000000000086
40
0.750000000000086
40
0.812500000000065
40
0.812500000000065
40
0.875000000000043
40
0.875000000000043
40
1
40
1
40
1
40
1
41
1
10
7.59614987299955
20
1.60534163534666
30
0
41
1
10
7.62236468567224
20
1.60563784636048
30
0
41
1
10
7.64845857640157
20
1.60631680681505
30
0
41
1
10
7.70032206603511
20
1.60868047832028
30
0
41
1
10
7.72609274284207
20
1.61036330550456
30
0
41
1
10
7.76440726085005
20
1.61390092076576
30
0
41
1
10
7.77707704456591
20
1.61524738344192
30
0
41
1
10
7.80194252029023
20
1.61828796185009
30
0
41
1
10
7.82639889203278
20
1.62168200100189
30
0
41
1
10
7.8499124450662
20
1.62585159790194
30
0
41
1
10
7.87287899774083
20
1.63044400019086
30
0
41
1
10
7.88415574760739
20
1.63297060605262
30
0
41
1
10
7.91628005846735
20
1.64103521693076
30
0
41
1
10
7.93556328958766
20
1.64707843172189
30
0
41
1
10
7.95684490049604
20
1.655266093644
30
0
41
1
10
7.96097256915382
20
1.65694039700665
30
0
41
1
10
7.96884835874795
20
1.66030266539903
30
0
41
1
10
7.98011849685344
20
1.66537485459929
30
0
41
1
10
7.98984427888669
20
1.67049459902287
30
0
41
1
10
8.0015759935981
20
1.67729968291744
30
0
41
1
10
8.00682614474556
20
1.68069327756919
30
0
41
1
10
8.01620041614495
20
1.68739465207011
30
0
41
1
10
8.02026755270327
20
1.69066010816377
30
0
41
1
10
8.03090183493453
20
1.7001564858096
30
0
41
1
10
8.03591689698649
20
1.70608564515098
30
0
41
1
10
8.03938659619678
20
1.7115257728185
30
0
0
SPLINE
5
F8
100
AcDbEntity
8
1
62
256
6
ByLayer
370
18
48
1
60
0
100
AcDbSpline
70
4
71
3
72
24
73
20
40
0
40
0
40
0
40
0
40
0.25000000000008
40
0.25000000000008
40
0.375000000000064
40
0.375000000000064
40
0.500000000000048
40
0.500000000000048
40
0.625000000000031
40
0.625000000000031
40
0.687500000000026
40
0.687500000000026
40
0.750000000000021
40
0.750000000000021
40
0.812500000000016
40
0.812500000000016
40
0.875000000000011
40
0.875000000000011
40
1
40
1
40
1
40
1
41
1
10
7.71366514082899
20
-1.18004628862829
30
0
41
1
10
7.70793760410459
20
-1.17505161307679
30
0
41
1
10
7.70248827857091
20
-1.16988338356779
30
0
41
1
10
7.69511000260664
20
-1.16165793841091
30
0
41
1
10
7.69277919239522
20
-1.15882818556892
30
0
41
1
10
7.68858275117549
20
-1.152953103806
30
0
41
1
10
7.68670380192566
20
-1.14989794604031
30
0
41
1
10
7.68389222589553
20
-1.14357203531176
30
0
41
1
10
7.68291228496204
20
-1.14030249498185
30
0
41
1
10
7.68310630520483
20
-1.13518558024185
30
0
41
1
10
7.68347343686565
20
-1.13348648267868
30
0
41
1
10
7.68502281433896
20
-1.13028357947601
30
0
41
1
10
7.6862039010085
20
-1.12880947663132
30
0
41
1
10
7.68924814224934
20
-1.12629740110472
30
0
41
1
10
7.69108791715479
20
-1.12527101796152
30
0
41
1
10
7.69501396726093
20
-1.12365470469985
30
0
41
1
10
7.69709732599438
20
-1.12305314023067
30
0
41
1
10
7.70357881701023
20
-1.12165868317385
30
0
41
1
10
7.70800187031253
20
-1.1212954123236
30
0
41
1
10
7.71247177316113
20
-1.12119279274822
30
0
0
SPLINE
5
F9
100
AcDbEntity
8
1
62
256
6
ByLayer
370
18
48
1
60
0
100
AcDbSpline
70
4
71
3
72
26
73
22
40
0
40
0
40
0
40
0
40
0.25000000000008
40
0.25000000000008
40
0.3125000000001
40
0.3125000000001
40
0.375000000000121
40
0.375000000000121
40
0.50000000000012
40
0.50000000000012
40
0.56250000000012
40
0.56250000000012
40
0.62500000000012
40
0.62500000000012
40
0.750000000000086
40
0.750000000000086
40
0.81250000000007
40
0.81250000000007
40
0.875000000000053
40
0.875000000000053
40
1
40
1
40
1
40
1
41
1
10
7.7124717731611
20
-1.12119279274822
30
0
41
1
10
7.75304775839695
20
-1.12026125340233
30
0
41
1
10
7.79327658832989
20
-1.11728315983498
30
0
41
1
10
7.84282917401097
20
-1.10915762569914
30
0
41
1
10
7.85273451985759
20
-1.10729849869989
30
0
41
1
10
7.87226989280001
20
-1.1030906438958
30
0
41
1
10
7.88189530960588
20
-1.10074482224221
30
0
41
1
10
7.91030055079085
20
-1.09289820761867
30
0
41
1
10
7.92861163755302
20
-1.08659372417114
30
0
41
1
10
7.95492644716302
20
-1.07510794863472
30
0
41
1
10
7.96350554433116
20
-1.07093991409633
30
0
41
1
10
7.98023581526647
20
-1.06183699687529
30
0
41
1
10
7.98841911732566
20
-1.05687381046747
30
0
41
1
10
8.01166154130351
20
-1.04112084730221
30
0
41
1
10
8.02560631837599
20
-1.02937933863626
30
0
41
1
10
8.0442886218253
20
-1.0098821642724
30
0
41
1
10
8.05016415186736
20
-1.00304231577695
30
0
41
1
10
8.06109587054075
20
-0.988856959939
30
0
41
1
10
8.06612246379126
20
-0.981557499053906
30
0
41
1
10
8.080025624684
20
-0.959079470227124
30
0
41
1
10
8.08773116296348
20
-0.943323071641402
30
0
41
1
10
8.09417138336542
20
-0.926878669968488
30
0
0
SPLINE
5
FA
100
AcDbEntity
8
1
62
256
6
ByLayer
370
18
48
1
60
0
100
AcDbSpline
70
4
71
3
72
36
73
32
40
0
40
0
40
0
40
0
40
0.0625000000000245
40
0.0625000000000245
40
0.0937500000000317
40
0.0937500000000317
40
0.125000000000039
40
0.125000000000039
40
0.187500000000041
40
0.187500000000041
40
0.250000000000044
40
0.250000000000044
40
0.312500000000046
40
0.312500000000046
40
0.375000000000048
40
0.375000000000048
40
0.43750000000005
40
0.43750000000005
40
0.500000000000052
40
0.500000000000052
40
0.562500000000055
40
0.562500000000055
40
0.625000000000057
40
0.625000000000057
40
0.750000000000044
40
0.750000000000044
40
0.812500000000029
40
0.812500000000029
40
0.875000000000013
40
0.875000000000013
40
1
40
1
40
1
40
1
41
1
10
7.69657575470177
20
0.182847701707942
30
0
41
1
10
7.70589317087726
20
0.205899777712403
30
0
41
1
10
7.71769391359089
20
0.22724893221482
30
0
41
1
10
7.73836848921337
20
0.257247660375896
30
0
41
1
10
7.745760005889
20
0.266906661749289
30
0
41
1
10
7.76145917878381
20
0.285602943968229
30
0
41
1
10
7.76979487070693
20
0.294667645354423
30
0
41
1
10
7.79589049508016
20
0.320811574785608
30
0
41
1
10
7.81446187515763
20
0.336612497686758
30
0
41
1
10
7.85341262204932
20
0.365728551969966
30
0
41
1
10
7.87379711603808
20
0.379036401918398
30
0
41
1
10
7.91607149584425
20
0.403600169914512
30
0
41
1
10
7.9380184169446
20
0.414870961074541
30
0
41
1
10
7.98260651468271
20
0.435369577890668
30
0
41
1
10
8.00531666378853
20
0.444641133494173
30
0
41
1
10
8.05145693521331
20
0.461508265330735
30
0
41
1
10
8.07492662556814
20
0.469111946719778
30
0
41
1
10
8.12223828456479
20
0.482740124774949
30
0
41
1
10
8.14609810317364
20
0.488773446086355
30
0
41
1
10
8.19418946842612
20
0.49942875395368
30
0
41
1
10
8.21844987862747
20
0.504054257658311
30
0
41
1
10
8.26715960315093
20
0.5119600123422
30
0
41
1
10
8.29160304145597
20
0.515241104066689
30
0
41
1
10
8.36518523876538
20
0.523183890711408
30
0
41
1
10
8.41461426568972
20
0.525947449969294
30
0
41
1
10
8.48861422357822
20
0.52649814043636
30
0
41
1
10
8.51328284438259
20
0.526082837209486
30
0
41
1
10
8.56262398177668
20
0.524066010347809
30
0
41
1
10
8.58730376168333
20
0.522462246574975
30
0
41
1
10
8.66102789033931
20
0.515895894121485
30
0
41
1
10
8.70986414416265
20
0.509183052122353
30
0
41
1
10
8.75838546340427
20
0.500095836725535
30
0
0
SPLINE
5
FB
100
AcDbEntity
8
1
62
256
6
ByLayer
370
18
48
1
60
0
100
AcDbSpline
70
4
71
3
72
18
73
14
40
0
40
0
40
0
40
0
40
0.249999999999994
40
0.249999999999994
40
0.374999999999991
40
0.374999999999991
40
0.499999999999988
40
0.499999999999988
40
0.749999999999993
40
0.749999999999993
40
0.874999999999997
40
0.874999999999997
40
1
40
1
40
1
40
1
41
1
10
7.70402614610293
20
0.0552344429285938
30
0
41
1
10
7.69943191290719
20
0.0652700570132936
30
0
41
1
10
7.69559521813747
20
0.0755241361454466
30
0
41
1
10
7.69120579434099
20
0.0912993720922941
30
0
41
1
10
7.68997127715596
20
0.0966237675397394
30
0
41
1
10
7.68801497484432
20
0.107420622473086
30
0
41
1
10
7.68729280758839
20
0.112921466035516
30
0
41
1
10
7.68601920917487
20
0.129335311179631
30
0
41
1
10
7.68633303277593
20
0.140225390201891
30
0
41
1
10
7.68873153657756
20
0.156475072984051
30
0
41
1
10
7.68986201597613
20
0.161900510412011
30
0
41
1
10
7.69275033728493
20
0.172519739289413
30
0
41
1
10
7.69450797660076
20
0.177731843722455
30
0
41
1
10
7.6965757547018
20
0.182847701707942
30
0
0
SPLINE
5
FC
100
AcDbEntity
8
1
62
256
6
ByLayer
370
18
48
1
60
0
100
AcDbSpline
70
4
71
3
72
20
73
16
40
0
40
0
40
0
40
0
40
0.125000000000001
40
0.125000000000001
40
0.250000000000002
40
0.250000000000002
40
0.375000000000003
40
0.375000000000003
40
0.500000000000004
40
0.500000000000004
40
0.625000000000004
40
0.625000000000004
40
0.750000000000005
40
0.750000000000005
40
1
40
1
40
1
40
1
41
1
10
8.09417138336539
20
-0.926878669968488
30
0
41
1
10
8.07917562271606
20
-0.889918402191512
30
0
41
1
10
8.06426559123662
20
-0.85214970157503
30
0
41
1
10
8.03434782683226
20
-0.775081102093139
30
0
41
1
10
8.01932579305893
20
-0.735740068115064
30
0
41
1
10
7.98908786261978
20
-0.655967510597378
30
0
41
1
10
7.97385940284562
20
-0.615502701783441
30
0
41
1
10
7.94296051237723
20
-0.53349389325129
30
0
41
1
10
7.92735818857866
20
-0.492130451106334
30
0
41
1
10
7.89565996237255
20
-0.40884253433083
30
0
41
1
10
7.87956063084485
20
-0.366907313960866
30
0
41
1
10
7.84664038303515
20
-0.282543710483509
30
0
41
1
10
7.82979473919826
20
-0.240056193881458
30
0
41
1
10
7.77822295094393
20
-0.112995223185038
30
0
41
1
10
7.74237364501795
20
-0.028531592408541
30
0
41
1
10
7.70402614610293
20
0.0552344429285938
30
0
0
SPLINE
5
FD
100
AcDbEntity
8
1
62
256
6
ByLayer
370
18
48
1
60
0
100
AcDbSpline
70
4
71
3
72
8
73
4
40
0
40
0
40
0
40
0
40
1
40
1
40
1
40
1
41
1
10
8.93533377973142
20
0.92111442136013
30
0
41
1
10
8.85475002384936
20
0.960796773669074
30
0
41
1
10
8.77471484845677
20
1.00014376517612
30
0
41
1
10
8.69533669089373
20
1.03908910545707
30
0
0
SPLINE
5
FE
100
AcDbEntity
8
1
62
256
6
ByLayer
370
18
48
1
60
0
100
AcDbSpline
70
4
71
3
72
8
73
4
40
0
40
0
40
0
40
0
40
1
40
1
40
1
40
1
41
1
10
15.795178772574
20
-1.35025293115277
30
0
41
1
10
15.7925573515172
20
-1.35041223860688
30
0
41
1
10
15.7899325195593
20
-1.35056414326209
30
0
41
1
10
15.7873042712086
20
-1.35070863319075
30
0
0
SPLINE
5
FF
100
AcDbEntity
8
1
62
256
6
ByLayer
370
18
48
1
60
0
100
AcDbSpline
70
4
71
3
72
8
73
4
40
0
40
0
40
0
40
0
40
1
40
1
40
1
40
1
41
1
10
15.7873042712125
20
-1.35070863319166
30
0
41
1
10
15.7982986967849
20
-1.34156151872381
30
0
41
1
10
15.8092902624405
20
-1.33250695007783
30
0
41
1
10
15.8202789050664
20
-1.32354696956145
30
0
0
SPLINE
5
100
100
AcDbEntity
8
1
62
256
6
ByLayer
370
18
48
1
60
0
100
AcDbSpline
70
4
71
3
72
8
73
4
40
0
40
0
40
0
40
0
40
1
40
1
40
1
40
1
41
1
10
15.8028991710746
20
-1.29391332818128
30
0
41
1
10
15.8085895694473
20
-1.30408750665518
30
0
41
1
10
15.8143810805462
20
-1.31397037257932
30
0
41
1
10
15.8202789050664
20
-1.32354696956145
30
0
0
SPLINE
5
101
100
AcDbEntity
8
1
62
256
6
ByLayer
370
18
48
1
60
0
100
AcDbSpline
70
4
71
3
72
18
73
14
40
0
40
0
40
0
40
0
40
0.121244824784627
40
0.269974854943164
40
0.381522377562067
40
0.49306990018097
40
0.567434915260238
40
0.641799930339507
40
0.697573691648958
40
0.753347452958409
40
0.809121214267861
40
0.864894975577312
40
1
40
1
40
1
40
1
41
1
10
14.8986343927514
20
-1.53144247521331
30
0
41
1
10
14.6608675217447
20
-1.56763696559844
30
0
41
1
10
14.1314339840714
20
-1.60033319311159
30
0
41
1
10
13.3832504463981
20
-1.4895675885941
30
0
41
1
10
12.6540837797314
20
-1.24501348530501
30
0
41
1
10
12.0707504463981
20
-0.971909219019153
30
0
41
1
10
11.5603337797315
20
-0.689121326308793
30
0
41
1
10
11.1592921130648
20
-0.446467700976001
30
0
41
1
10
10.7947087797315
20
-0.216650514193503
30
0
41
1
10
10.4665837797314
20
-0.006407892362347
30
0
41
1
10
10.1384587797315
20
0.204436543961521
30
0
41
1
10
9.65476139767767
20
0.510710486009543
30
0
41
1
10
9.28043901562393
20
0.733340136264957
30
0
41
1
10
9.01549163357018
20
0.874336736203901
30
0
0
SPLINE
5
102
100
AcDbEntity
8
1
62
256
6
ByLayer
370
18
48
1
60
0
100
AcDbSpline
70
4
71
3
72
8
73
4
40
0
40
0
40
0
40
0
40
1
40
1
40
1
40
1
41
1
10
15.7951787725726
20
-1.35025293115396
30
0
41
1
10
15.7680901336166
20
-1.36166754753918
30
0
41
1
10
15.741012619269
20
-1.37282229819024
30
0
41
1
10
15.7139415738339
20
-1.38371526022678
30
0
0
SPLINE
5
103
100
AcDbEntity
8
1
62
256
6
ByLayer
370
18
48
1
60
0
100
AcDbSpline
70
4
71
3
72
62
73
58
40
0
40
0
40
0
40
0
40
0.011450693970066
40
0.011450693970066
40
0.0444023375043991
40
0.0444023375043991
40
0.0773539810387323
40
0.0773539810387323
40
0.110305624573066
40
0.110305624573066
40
0.126781446340231
40
0.126781446340231
40
0.143257268107397
40
0.143257268107397
40
0.209160555176061
40
0.209160555176061
40
0.242112198710393
40
0.242112198710393
40
0.275063842244725
40
0.275063842244725
40
0.340967129313389
40
0.340967129313389
40
0.406870416382053
40
0.406870416382053
40
0.439822059916385
40
0.439822059916385
40
0.472773703450718
40
0.472773703450718
40
0.538676990519379
40
0.538676990519379
40
0.555152812286545
40
0.555152812286545
40
0.571628634053711
40
0.571628634053711
40
0.604580277588041
40
0.604580277588041
40
0.670483564656701
40
0.670483564656701
40
0.686959386423866
40
0.686959386423866
40
0.703435208191031
40
0.703435208191031
40
0.736386851725361
40
0.736386851725361
40
0.802290138794021
40
0.802290138794021
40
0.835241782328351
40
0.835241782328351
40
0.868193425862681
40
0.868193425862681
40
0.90114506939701
40
0.90114506939701
40
0.93409671293134
40
0.93409671293134
40
0.96704835646567
40
0.96704835646567
40
1
40
1
40
1
40
1
41
1
10
15.4401577485068
20
-1.48489651861854
30
0
41
1
10
15.4152624430376
20
-1.49326755687721
30
0
41
1
10
15.3903593380848
20
-1.50141186895408
30
0
41
1
10
15.293748337743
20
-1.53210808582133
30
0
41
1
10
15.2218742328569
20
-1.55301199794863
30
0
41
1
10
15.0784566148347
20
-1.59072459023727
30
0
41
1
10
15.0068615276555
20
-1.60755588181863
30
0
41
1
10
14.8637283216887
20
-1.63709779644503
30
0
41
1
10
14.7921907403391
20
-1.64980696781598
30
0
41
1
10
14.6847968161906
20
-1.66565613371569
30
0
41
1
10
14.6489837862847
20
-1.67040363449564
30
0
41
1
10
14.5772979968756
20
-1.67882946177406
30
0
41
1
10
14.5414055363683
20
-1.68250904525507
30
0
41
1
10
14.3621494120369
20
-1.69821679219547
30
0
41
1
10
14.2191448917696
20
-1.70222992190637
30
0
41
1
10
14.0042113577765
20
-1.69509009864902
30
0
41
1
10
13.9324854721204
20
-1.69050744295882
30
0
41
1
10
13.7888397382206
20
-1.67698509299822
30
0
41
1
10
13.7173083762597
20
-1.66808418933942
30
0
41
1
10
13.5033154381284
20
-1.63522386524045
30
0
41
1
10
13.3614597743019
20
-1.60511854664799
30
0
41
1
10
13.0780358422677
20
-1.52919705431211
30
0
41
1
10
12.9364581347965
20
-1.48338910244183
30
0
41
1
10
12.7231364733227
20
-1.40328427068567
30
0
41
1
10
12.6518654581346
20
-1.37468013445954
30
0
41
1
10
12.508777650385
20
-1.31399023677216
30
0
41
1
10
12.4368535199231
20
-1.28183985183173
30
0
41
1
10
12.2216735336608
20
-1.18094582115666
30
0
41
1
10
12.0786301880394
20
-1.10760909370404
30
0
41
1
10
11.8995999279434
20
-1.00882678897278
30
0
41
1
10
11.8637803651365
20
-0.988719940517996
30
0
41
1
10
11.7920850065629
20
-0.947855484671805
30
0
41
1
10
11.7561859998453
20
-0.927086055758565
30
0
41
1
10
11.6485448374148
20
-0.863964631779226
30
0
41
1
10
11.5769156069225
20
-0.820824579744652
30
0
41
1
10
11.3621800749517
20
-0.688512188328616
30
0
41
1
10
11.2192485568862
20
-0.596396542149847
30
0
41
1
10
11.0399139582805
20
-0.477445306288189
30
0
41
1
10
11.0040029723706
20
-0.453470274633787
30
0
41
1
10
10.9323680055159
20
-0.405415643403615
30
0
41
1
10
10.8966064508565
20
-0.381312294017363
30
0
41
1
10
10.7894616126639
20
-0.308815066408925
30
0
41
1
10
10.718215678485
20
-0.260237648827626
30
0
41
1
10
10.5048599357954
20
-0.114016231891839
30
0
41
1
10
10.3631577497819
20
-0.0158454994567592
30
0
41
1
10
10.1505725321421
20
0.13121975915567
30
0
41
1
10
10.079696960779
20
0.180197467110219
30
0
41
1
10
9.93776833687866
20
0.277842801721931
30
0
41
1
10
9.86672605074619
20
0.326525256782503
30
0
41
1
10
9.72415975756098
20
0.423139468820068
30
0
41
1
10
9.65260491352291
20
0.471119003974735
30
0
41
1
10
9.50903935111424
20
0.565972442206572
30
0
41
1
10
9.43735723012759
20
0.612629161283877
30
0
41
1
10
9.29403263942925
20
0.704156015254142
30
0
41
1
10
9.22238911586157
20
0.749028051837342
30
0
41
1
10
9.07900427379434
20
0.836697056878819
30
0
41
1
10
9.00726896987771
20
0.879481178062179
30
0
41
1
10
8.93533377973145
20
0.921114421360102
30
0
0
SPLINE
5
104
100
AcDbEntity
8
1
62
256
6
ByLayer
370
18
48
1
60
0
100
AcDbSpline
70
4
71
3
72
8
73
4
40
0
40
0
40
0
40
0
40
1
40
1
40
1
40
1
41
1
10
15.8271048980929
20
-0.634325810354397
30
0
41
1
10
15.83790277265
20
-0.695895312308238
30
0
41
1
10
15.8497383293144
20
-0.757033553793235
30
0
41
1
10
15.862901156516
20
-0.817505478969792
30
0
0
SPLINE
5
105
100
AcDbEntity
8
1
62
256
6
ByLayer
370
18
48
1
60
0
100
AcDbSpline
70
4
71
3
72
8
73
4
40
0
40
0
40
0
40
0
40
1
40
1
40
1
40
1
41
1
10
15.7921204139534
20
-0.314595419646736
30
0
41
1
10
15.8055587953082
20
-0.421413524988537
30
0
41
1
10
15.8169973998756
20
-0.527979229054949
30
0
41
1
10
15.8271048980931
20
-0.634325810354397
30
0
0
SPLINE
5
106
100
AcDbEntity
8
1
62
256
6
ByLayer
370
18
48
1
60
0
100
AcDbSpline
70
4
71
3
72
8
73
4
40
0
40
0
40
0
40
0
40
1
40
1
40
1
40
1
41
1
10
15.8225634945016
20
-0.817719591068396
30
0
41
1
10
15.8359931463843
20
-0.817603873166348
30
0
41
1
10
15.8494391593294
20
-0.817532845830186
30
0
41
1
10
15.862901156516
20
-0.817505478969792
30
0
0
SPLINE
5
107
100
AcDbEntity
8
1
62
256
6
ByLayer
370
18
48
1
60
0
100
AcDbSpline
70
4
71
3
72
8
73
4
40
0
40
0
40
0
40
0
40
1
40
1
40
1
40
1
41
1
10
15.792120413955
20
-0.314595419645286
30
0
41
1
10
15.7896133952104
20
-0.310987063072105
30
0
41
1
10
15.7871025019599
20
-0.307383877922177
30
0
41
1
10
15.7845877235084
20
-0.303785878468602
30
0
0
SPLINE
5
108
100
AcDbEntity
8
1
62
256
6
ByLayer
370
18
48
1
60
0
100
AcDbSpline
70
4
71
3
72
8
73
4
40
0
40
0
40
0
40
0
40
1
40
1
40
1
40
1
41
1
10
15.7845877235083
20
-0.303785878468147
30
0
41
1
10
15.7941254620448
20
-0.304555763641787
30
0
41
1
10
15.8036737009731
20
-0.305181271696455
30
0
41
1
10
15.8132326932006
20
-0.305658925234752
30
0
0
SPLINE
5
109
100
AcDbEntity
8
1
62
256
6
ByLayer
370
18
48
1
60
0
100
AcDbSpline
70
4
71
3
72
8
73
4
40
0
40
0
40
0
40
0
40
1
40
1
40
1
40
1
41
1
10
15.7942705256886
20
-0.219665150801205
30
0
41
1
10
15.8004418735509
20
-0.248055677148273
30
0
41
1
10
15.8067594149804
20
-0.276714435332394
30
0
41
1
10
15.8132326932006
20
-0.305658925234752
30
0
0
SPLINE
5
10A
100
AcDbEntity
8
1
62
256
6
ByLayer
370
18
48
1
60
0
100
AcDbSpline
70
4
71
3
72
10
73
6
40
0
40
0
40
0
40
0
40
0.479202609693871
40
0.764855484490327
40
1
40
1
40
1
40
1
41
1
10
15.7942705268777
20
-0.219665149298379
30
0
41
1
10
15.5496249444956
20
-0.0332650378777259
30
0
41
1
10
15.1591460287802
20
0.271964832567619
30
0
41
1
10
14.6486196304821
20
0.645185860513493
30
0
41
1
10
14.3827388145661
20
0.824538680167024
30
0
41
1
10
14.2626913319833
20
0.900579259578052
30
0
0
SPLINE
5
10B
100
AcDbEntity
8
1
62
256
6
ByLayer
370
18
48
1
60
0
100
AcDbSpline
70
4
71
3
72
17
73
13
40
0
40
0
40
0
40
0
40
0.0559221277077757
40
0.252491712252192
40
0.399918900660505
40
0.547346089068818
40
0.645630881341026
40
0.743915673613234
40
0.817629267817391
40
0.891342862021547
40
0.965056456225703
40
1
40
1
40
1
40
1
41
1
10
14.4342627371675
20
0.30396146671572
30
0
41
1
10
14.3512864180221
20
0.368647268736368
30
0
41
1
10
13.97664343221
20
0.657086710192971
30
0
41
1
10
13.383250446398
20
1.07204072848509
30
0
41
1
10
12.6540837797313
20
1.44444761438572
30
0
41
0.999999999999999
10
12.070750446398
20
1.60424954473257
30
0
41
1
10
11.5603337797314
20
1.63793707900209
30
0
41
1
10
11.1592921130647
20
1.59896518986886
30
0
41
1
10
10.7947087797314
20
1.51187543376716
30
0
41
1
10
10.4665837797313
20
1.39274933434873
30
0
41
1
10
10.1959851330661
20
1.26427033282215
30
0
41
1
10
10.0347614864009
20
1.17644278029184
30
0
41
1
10
9.98291283973572
20
1.14712145897963
30
0
0
SPLINE
5
10C
100
AcDbEntity
8
1
62
256
6
ByLayer
370
18
48
1
60
0
100
AcDbSpline
70
4
71
3
72
8
73
4
40
0
40
0
40
0
40
0
40
1
40
1
40
1
40
1
41
1
10
9.18794982506284
20
0.291962570453421
30
0
41
1
10
9.103744476619
20
0.347002753290212
30
0
41
1
10
9.01953912817515
20
0.401525494741293
30
0
41
1
10
8.93533377973134
20
0.455236014414538
30
0
0
SPLINE
5
10D
100
AcDbEntity
8
1
62
256
6
ByLayer
370
18
48
1
60
0
100
AcDbSpline
70
4
71
3
72
18
73
14
40
0
40
0
40
0
40
0
40
0.249999999999993
40
0.249999999999993
40
0.37499999999999
40
0.37499999999999
40
0.499999999999987
40
0.499999999999987
40
0.749999999999981
40
0.749999999999981
40
0.87499999999999
40
0.87499999999999
40
1
40
1
40
1
40
1
41
1
10
8.50849979697685
20
-1.71808842905247
30
0
41
1
10
8.50272859819626
20
-1.71208271093403
30
0
41
1
10
8.49987090252384
20
-1.70522779473123
30
0
41
1
10
8.50067459398193
20
-1.69364691234725
30
0
41
1
10
8.50179438780543
20
-1.68957001875103
30
0
41
1
10
8.5059158870389
20
-1.68097636677459
30
0
41
1
10
8.50888482605876
20
-1.67653657283216
30
0
41
1
10
8.5204512765541
20
-1.66291319222029
30
0
41
1
10
8.53170905681088
20
-1.65339905080717
30
0
41
1
10
8.55395349412601
20
-1.63873208438957
30
0
41
1
10
8.56217603778595
20
-1.63383905531154
30
0
41
1
10
8.57994223317203
20
-1.62418378739548
30
0
41
1
10
8.58951047859364
20
-1.61940495485379
30
0
41
1
10
8.59971121043762
20
-1.61468999142039
30
0
0
SPLINE
5
10E
100
AcDbEntity
8
1
62
256
6
ByLayer
370
18
48
1
60
0
100
AcDbSpline
70
4
71
3
72
9
73
5
40
0
40
0
40
0
40
0
40
0.543164179907929
40
1
40
1
40
1
40
1
41
1
10
8.93533377973137
20
1.27206609605662
30
0
41
1
10
8.93533377973137
20
1.24614610700937
30
0
41
1
10
8.93533377973139
20
1.16988878175104
30
0
41
1
10
8.93533377973137
20
1.0478763190587
30
0
41
1
10
8.93533377973137
20
0.984922096056238
30
0
0
SPLINE
5
10F
100
AcDbEntity
8
1
62
256
6
ByLayer
370
18
48
1
60
0
100
AcDbSpline
70
4
71
3
72
40
73
36
40
0
40
0
40
0
40
0
40
0.11628922231898
40
0.11628922231898
40
0.145361527898724
40
0.145361527898724
40
0.174433833478469
40
0.174433833478469
40
0.23257844463796
40
0.23257844463796
40
0.290723055797452
40
0.290723055797452
40
0.348867666956944
40
0.348867666956944
40
0.407012278116436
40
0.407012278116436
40
0.436084583696183
40
0.436084583696183
40
0.465156889275931
40
0.465156889275931
40
0.581446111594914
40
0.581446111594914
40
0.697735333913898
40
0.697735333913898
40
0.726807639493645
40
0.726807639493645
40
0.755879945073391
40
0.755879945073391
40
0.814024556232888
40
0.814024556232888
40
0.930313778551879
40
0.930313778551879
40
0.988458389711372
40
0.988458389711372
40
1
40
1
40
1
40
1
41
1
10
15.7921204139553
20
-0.314595419647048
30
0
41
1
10
15.6484130058618
20
-0.197716741559987
30
0
41
1
10
15.5054155306976
20
-0.0787143769333909
30
0
41
1
10
15.3256753931582
20
0.070361246600811
30
0
41
1
10
15.2896251182471
20
0.10023718809839
30
0
41
1
10
15.2176699752265
20
0.159729155800221
30
0
41
1
10
15.1817829959431
20
0.189330103372896
30
0
41
1
10
15.0743268472442
20
0.277625378948073
30
0
41
1
10
15.002953214054
20
0.335799983195329
30
0
41
1
10
14.8604917620782
20
0.450506720916621
30
0
41
1
10
14.789409809985
20
0.507047598320781
30
0
41
1
10
14.6473159328637
20
0.618254171243422
30
0
41
1
10
14.5763210791432
20
0.672937702644816
30
0
41
1
10
14.4340730214447
20
0.780013014318087
30
0
41
1
10
14.362806668236
20
0.832389215908279
30
0
41
1
10
14.2553218087235
20
0.908774938360722
30
0
41
1
10
14.2193572800189
20
0.93389999394023
30
0
41
1
10
14.1473393332902
20
0.983235512212303
30
0
41
1
10
14.1114070015298
20
1.00736514045281
30
0
41
1
10
13.9320705223074
20
1.12532924999454
30
0
41
1
10
13.7896749206083
20
1.21118651646529
30
0
41
1
10
13.5052834462501
20
1.3647966936833
30
0
41
1
10
13.3632489064983
20
1.43248610649152
30
0
41
1
10
13.1842369569815
20
1.50408853392381
30
0
41
1
10
13.1483598465925
20
1.51775733782429
30
0
41
1
10
13.0764096664966
20
1.54374913339043
30
0
41
1
10
13.0404970755803
20
1.55601351181468
30
0
41
1
10
12.9330684608042
20
1.59054161800847
30
0
41
1
10
12.8617756749055
20
1.61057049340656
30
0
41
1
10
12.6482821617844
20
1.6616709064092
30
0
41
1
10
12.5063575370667
20
1.6839002474527
30
0
41
1
10
12.2927107242026
20
1.69838838471395
30
0
41
1
10
12.2213290181248
20
1.70023360575561
30
0
41
1
10
12.1354328676956
20
1.69868179599604
30
0
41
1
10
12.1211945941553
20
1.69830312973707
30
0
41
1
10
12.1069429654743
20
1.69780349636673
30
0
0
SPLINE
5
110
100
AcDbEntity
8
1
62
256
6
ByLayer
370
18
48
1
60
0
100
AcDbSpline
70
4
71
3
72
8
73
4
40
0
40
0
40
0
40
0
40
1
40
1
40
1
40
1
41
1
10
15.783215993749
20
-0.814786927930186
30
0
41
1
10
15.7963311388668
20
-0.815726214773548
30
0
41
1
10
15.8094469737262
20
-0.816703840722766
30
0
41
1
10
15.8225634944703
20
-0.817719591380268
30
0
0
SPLINE
5
111
100
AcDbEntity
8
1
62
256
6
ByLayer
370
18
48
1
60
0
100
AcDbSpline
70
4
71
3
72
12
73
8
40
0
40
0
40
0
40
0
40
0.231530256337666
40
0.448487979723245
40
0.665445703108824
40
0.882403426494403
40
1
40
1
40
1
40
1
41
1
10
8.50922003761386
20
-1.71791695766916
30
0
41
1
10
8.58338935794617
20
-1.72888633039702
30
0
41
1
10
8.72688626058181
20
-1.74466419285929
30
0
41
1
10
8.93922367401646
20
-1.75225838522161
30
0
41
1
10
9.14630336313471
20
-1.7446414328586
30
0
41
1
10
9.32115197766029
20
-1.72558979662602
30
0
41
1
10
9.42685596631463
20
-1.70831489121397
30
0
41
1
10
9.46396950654963
20
-1.7015486855135
30
0
0
SPLINE
5
112
100
AcDbEntity
8
1
62
256
6
ByLayer
370
18
48
1
60
0
100
AcDbSpline
70
4
71
3
72
8
73
4
40
0
40
0
40
0
40
0
40
1
40
1
40
1
40
1
41
1
10
8.57230582220052
20
1.10147478363356
30
0
41
1
10
8.61325651041068
20
1.08069570833621
30
0
41
1
10
8.65426680320155
20
1.05990050900317
30
0
41
1
10
8.69533636839304
20
1.0390892754948
30
0
0
SPLINE
5
113
100
AcDbEntity
8
1
62
256
6
ByLayer
370
18
48
1
60
0
100
AcDbSpline
70
4
71
3
72
17
73
13
40
0
40
0
40
0
40
0
40
0.250000000000003
40
0.250000000000003
40
0.375000000000002
40
0.375000000000002
40
0.500000000000002
40
0.625000000000002
40
0.625000000000002
40
0.750000000000001
40
0.750000000000001
40
1
40
1
40
1
40
1
41
1
10
8.49384589063891
20
0.78813485483721
30
0
41
1
10
8.48612913375908
20
0.817021417483602
30
0
41
1
10
8.48148589762909
20
0.845704220630097
30
0
41
1
10
8.4799294796415
20
0.888449141667195
30
0
41
1
10
8.48031847359556
20
0.902675658558422
30
0
41
1
10
8.48309456135257
20
0.93094127229611
30
0
41
1
10
8.48781449631792
20
0.958507276770348
30
0
41
1
10
8.49637239343613
20
0.984733761754569
30
0
41
1
10
8.506846693478
20
1.01031389671974
30
0
41
1
10
8.51305863721271
20
1.02280867850158
30
0
41
1
10
8.53449455842579
20
1.05917347374952
30
0
41
1
10
8.55203951950682
20
1.08120280863605
30
0
41
1
10
8.5723058222126
20
1.10147478362259
30
0
0
SPLINE
5
114
100
AcDbEntity
8
1
62
256
6
ByLayer
370
18
48
1
60
0
100
AcDbSpline
70
4
71
3
72
24
73
20
40
0
40
0
40
0
40
0
40
0.250000000000064
40
0.250000000000064
40
0.375000000000094
40
0.375000000000094
40
0.500000000000124
40
0.500000000000124
40
0.562500000000109
40
0.562500000000109
40
0.625000000000093
40
0.625000000000093
40
0.687500000000078
40
0.687500000000078
40
0.750000000000062
40
0.750000000000062
40
0.875000000000031
40
0.875000000000031
40
1
40
1
40
1
40
1
41
1
10
7.59768439311654
20
1.57259208453061
30
0
41
1
10
7.59140319455787
20
1.57555619150961
30
0
41
1
10
7.5853980808503
20
1.57858428550887
30
0
41
1
10
7.57721291873602
20
1.58334971996274
30
0
41
1
10
7.57461885397439
20
1.58498024280479
30
0
41
1
10
7.56995928401244
20
1.58833227306758
30
0
41
1
10
7.5678597379773
20
1.5900688410328
30
0
41
1
10
7.56552472465307
20
1.59277175200069
30
0
41
1
10
7.56488615527192
20
1.59368627399897
30
0
41
1
10
7.56404915745264
20
1.59556098802287
30
0
41
1
10
7.56385760368914
20
1.59651276010331
30
0
41
1
10
7.56420721245669
20
1.59839523098748
30
0
41
1
10
7.56476155755118
20
1.59932151625165
30
0
41
1
10
7.56681059284654
20
1.60101309866775
30
0
41
1
10
7.56827557678255
20
1.60175061800771
30
0
41
1
10
7.57355264170508
20
1.60357793189533
30
0
41
1
10
7.57797858187115
20
1.60425818120578
30
0
41
1
10
7.58689948112979
20
1.60511123258931
30
0
41
1
10
7.59153027999631
20
1.60528943685742
30
0
41
1
10
7.59614987299631
20
1.60534163537306
30
0
0
SPLINE
5
115
100
AcDbEntity
8
1
62
256
6
ByLayer
370
18
48
1
60
0
100
AcDbSpline
70
4
71
3
72
14
73
10
40
0
40
0
40
0
40
0
40
0.296666740450789
40
0.296666740450789
40
0.593333480901578
40
0.593333480901578
40
0.890000221352368
40
0.890000221352368
40
1
40
1
40
1
40
1
41
1
10
8.03938659619678
20
1.7115257728185
30
0
41
1
10
8.04594520753966
20
1.71904512101653
30
0
41
1
10
8.05043660069938
20
1.72549742687357
30
0
41
1
10
8.05653312789642
20
1.73620549371219
30
0
41
1
10
8.05812584342593
20
1.7404619596351
30
0
41
1
10
8.05909464112256
20
1.74671855152039
30
0
41
1
10
8.05846289163767
20
1.74869671888194
30
0
41
1
10
8.05639307354903
20
1.74984706440864
30
0
41
1
10
8.05571200067172
20
1.75000182077471
30
0
41
1
10
8.05491656657989
20
1.75000018649536
30
0
0
SPLINE
5
116
100
AcDbEntity
8
1
62
256
6
ByLayer
370
18
48
1
60
0
100
AcDbSpline
70
4
71
3
72
18
73
14
40
0
40
0
40
0
40
0
40
0.0315352199225521
40
0.0315352199225521
40
0.273651414941887
40
0.273651414941887
40
0.394709512451572
40
0.394709512451572
40
0.515767609961258
40
0.515767609961258
40
0.757883804980629
40
0.757883804980629
40
1
40
1
40
1
40
1
41
1
10
8.20692352250217
20
-1.74999625470687
30
0
41
1
10
8.21272973450485
20
-1.74999304127533
30
0
41
1
10
8.2185490909892
20
-1.74998795335412
30
0
41
1
10
8.26915871582571
20
-1.74993136639517
30
0
41
1
10
8.31482638333861
20
-1.7498017707058
30
0
41
1
10
8.38356858440707
20
-1.74966041287107
30
0
41
1
10
8.4065431617845
20
-1.74962054945277
30
0
41
1
10
8.45260924501139
20
-1.74956757554796
30
0
41
1
10
8.47574289516569
20
-1.74955445520794
30
0
41
1
10
8.54495027468107
20
-1.74956020578654
30
0
41
1
10
8.59081552422711
20
-1.74962760956089
30
0
41
1
10
8.68202220063813
20
-1.74981450128007
30
0
41
1
10
8.72736323333754
20
-1.74993421016058
30
0
41
1
10
8.77243974548159
20
-1.74998137148339
30
0
0
SPLINE
5
117
100
AcDbEntity
8
1
62
256
6
ByLayer
370
18
48
1
60
0
100
AcDbSpline
70
4
71
3
72
12
73
8
40
0
40
0
40
0
40
0
40
0.25
40
0.25
40
0.5
40
0.5
40
1
40
1
40
1
40
1
41
1
10
8.93533377973142
20
-1.7497842697459
30
0
41
1
10
8.89825443686522
20
-1.75022855038566
30
0
41
1
10
8.86111220469408
20
-1.74998709752279
30
0
41
1
10
8.78703753815267
20
-1.74814112906515
30
0
41
1
10
8.75008700344193
20
-1.74653554283077
30
0
41
1
10
8.63961971057645
20
-1.73962577792403
30
0
41
1
10
8.5665233824258
20
-1.73222294670646
30
0
41
1
10
8.49388229677396
20
-1.72185627428206
30
0
0
SPLINE
5
118
100
AcDbEntity
8
1
62
256
6
ByLayer
370
13
48
1
60
0
100
AcDbSpline
70
4
71
3
72
8
73
4
40
0
40
0
40
0
40
0
40
1
40
1
40
1
40
1
41
1
10
8.49388544533954
20
-1.72185543107864
30
0
41
1
10
8.4987568931644
20
-1.72063885621463
30
0
41
1
10
8.50362834098922
20
-1.71938315995695
30
0
41
1
10
8.50849978881408
20
-1.71808842789298
30
0
0
SPLINE
5
119
100
AcDbEntity
8
1
62
256
6
ByLayer
370
18
48
1
60
0
100
AcDbSpline
70
4
71
3
72
23
73
19
40
0
40
0
40
0
40
0
40
0.0623133137885156
40
0.124634970142683
40
0.186968928253063
40
0.249319011807249
40
0.311688912618838
40
0.374082194196883
40
0.436502295252199
40
0.498952533137654
40
0.56143610721984
40
0.623956102180124
40
0.686515491242866
40
0.74911713932969
40
0.811763806138434
40
0.874458149145701
40
0.937202726533013
40
1
40
1
40
1
40
1
41
1
10
8.69533669103114
20
1.03908910563715
30
0
41
1
10
8.69092978856526
20
1.03356347303568
30
0
41
1
10
8.68211539363324
20
1.0225114680558
30
0
41
1
10
8.66900477642994
20
1.00607394963785
30
0
41
1
10
8.65597487364764
20
0.989738822360778
30
0
41
1
10
8.64303378162288
20
0.973516449606393
30
0
41
1
10
8.63017946852051
20
0.957404362219364
30
0
41
1
10
8.61741261026273
20
0.94140348639948
30
0
41
1
10
8.60473314978336
20
0.925513793142471
30
0
41
1
10
8.59214122093465
20
0.909735465879891
30
0
41
1
10
8.57963689611003
20
0.894068581012306
30
0
41
1
10
8.56722027246678
20
0.878513216377996
30
0
41
1
10
8.55489138053463
20
0.863069335811446
30
0
41
1
10
8.54265046478523
20
0.847737141626766
30
0
41
1
10
8.53049695277272
20
0.832515777892638
30
0
41
1
10
8.51843330290168
20
0.817408168831349
30
0
41
1
10
8.50645062970881
20
0.802402941614048
30
0
41
1
10
8.49854190683462
20
0.792499910128186
30
0
41
1
10
8.49458588555783
20
0.787546315990937
30
0
0
SPLINE
5
11A
100
AcDbEntity
8
1
62
256
6
ByLayer
370
18
48
1
60
0
100
AcDbSpline
70
4
71
3
72
60
73
56
40
0
40
0
40
0
40
0
40
0.0631306297969076
40
0.0631306297969076
40
0.0811473484546591
40
0.0811473484546591
40
0.0991640671124105
40
0.0991640671124105
40
0.135197504427911
40
0.135197504427911
40
0.207264379058915
40
0.207264379058915
40
0.243297816374418
40
0.243297816374418
40
0.26131453503217
40
0.26131453503217
40
0.279331253689921
40
0.279331253689921
40
0.351398128320933
40
0.351398128320933
40
0.387431565636438
40
0.387431565636438
40
0.423465002951943
40
0.423465002951943
40
0.441481721609694
40
0.441481721609694
40
0.459498440267446
40
0.459498440267446
40
0.495531877582947
40
0.495531877582947
40
0.56759875221395
40
0.56759875221395
40
0.603632189529452
40
0.603632189529452
40
0.621648908187203
40
0.621648908187203
40
0.639665626844954
40
0.639665626844954
40
0.71173250147596
40
0.71173250147596
40
0.783799376106966
40
0.783799376106966
40
0.801816094764719
40
0.801816094764719
40
0.819832813422472
40
0.819832813422472
40
0.855866250737978
40
0.855866250737978
40
0.92793312536899
40
0.92793312536899
40
0.963966562684495
40
0.963966562684495
40
0.981983281342248
40
0.981983281342248
40
1
40
1
40
1
40
1
41
1
10
9.84744962684246
20
1.16663047783865
30
0
41
1
10
9.97193416322298
20
1.24605336006829
30
0
41
1
10
10.0963586748505
20
1.31889256565299
30
0
41
1
10
10.257415773957
20
1.40299408150912
30
0
41
1
10
10.2932451470824
20
1.42106234416801
30
0
41
1
10
10.3650872071122
20
1.45594488709659
30
0
41
1
10
10.4011463212456
20
1.4727773247541
30
0
41
1
10
10.5089054420107
20
1.52099686337775
30
0
41
1
10
10.5803993442906
20
1.55022227128799
30
0
41
1
10
10.7942635959335
20
1.62915081375064
30
0
41
1
10
10.9359623272711
20
1.67017404359046
30
0
41
1
10
11.148952159474
20
1.71375401662317
30
0
41
1
10
11.2200333476748
20
1.72527873655704
30
0
41
1
10
11.3270614863758
20
1.73785573268944
30
0
41
1
10
11.3628058620741
20
1.7412604735982
30
0
41
1
10
11.434485607462
20
1.74644130590994
30
0
41
1
10
11.4704667695136
20
1.74821090240059
30
0
41
1
10
11.6496280741038
20
1.75302037138454
30
0
41
1
10
11.7915360393101
20
1.74394806052661
30
0
41
1
10
12.004431890471
20
1.71200091829681
30
0
41
1
10
12.0753949389507
20
1.69830184814413
30
0
41
1
10
12.2176256142732
20
1.66479004677367
30
0
41
1
10
12.2889011750189
20
1.64493576182721
30
0
41
1
10
12.3962512623391
20
1.61065811987839
30
0
41
1
10
12.4321074060997
20
1.59847889949387
30
0
41
1
10
12.5040051884881
20
1.57258488789324
30
0
41
1
10
12.5400892552491
20
1.55885413693892
30
0
41
1
10
12.6478676455017
20
1.51570148111224
30
0
41
1
10
12.7193183579903
20
1.48424397732106
30
0
41
1
10
12.9329032687415
20
1.38220639733717
30
0
41
1
10
13.0742643941909
20
1.30393694253874
30
0
41
1
10
13.2869936623537
20
1.17283763225848
30
0
41
1
10
13.3580263125375
20
1.12685388377355
30
0
41
1
10
13.4650547260227
20
1.05466359811246
30
0
41
1
10
13.5008103368586
20
1.03006400176494
30
0
41
1
10
13.5725278690937
20
0.979824359723466
30
0
41
1
10
13.6085364149033
20
0.954149248904372
30
0
41
1
10
13.7878873611925
20
0.824220260510373
30
0
41
1
10
13.9301035223936
20
0.714744147500085
30
0
41
1
10
14.2143923523381
20
0.487625592874366
30
0
41
1
10
14.356374440154
20
0.369885694374318
30
0
41
1
10
14.535052941908
20
0.218971735254911
30
0
41
1
10
14.5708513548048
20
0.18860428692625
30
0
41
1
10
14.6426180875557
20
0.127545634217768
30
0
41
1
10
14.6786326283505
20
0.096814799773
30
0
41
1
10
14.786208483387
20
0.0048891344173683
30
0
41
1
10
14.8575300303065
20
-0.0562318088507254
30
0
41
1
10
15.0708713203031
20
-0.238467396995674
30
0
41
1
10
15.2122793733214
20
-0.358445016229552
30
0
41
1
10
15.4252775690103
20
-0.533705538475658
30
0
41
1
10
15.4964230151701
20
-0.591341558081183
30
0
41
1
10
15.6036046102525
20
-0.676328521812934
30
0
41
1
10
15.6394088484359
20
-0.704413211521683
30
0
41
1
10
15.7112091624131
20
-0.760048583030738
30
0
41
1
10
15.7472344495688
20
-0.787620602278508
30
0
41
1
10
15.783215993749
20
-0.814786927930186
30
0
0
SPLINE
5
11B
100
AcDbEntity
8
1
62
256
6
ByLayer
370
18
48
1
60
0
100
AcDbSpline
70
4
71
3
72
24
73
20
40
0
40
0
40
0
40
0
40
0.0028705998986103
40
0.0538542414001571
40
0.104837882901704
40
0.15582152440325
40
0.181313345154024
40
0.206805165904797
40
0.257788807406344
40
0.308772448907891
40
0.410739731910985
40
0.512707014914078
40
0.614674297917171
40
0.716641580920265
40
0.767625222421812
40
0.818608863923359
40
0.869592505424905
40
0.920576146926452
40
1
40
1
40
1
40
1
41
1
10
11.6060526107072
20
1.74979351675145
30
0
41
1
10
11.6098714305725
20
1.74979525365856
30
0
41
1
10
11.6815168484992
20
1.74965540409042
30
0
41
1
10
11.8210603636193
20
1.74306537317585
30
0
41
1
10
12.0249019534145
20
1.71635208803372
30
0
41
1
10
12.1949938771665
20
1.68000333661297
30
0
41
1
10
12.3312162724169
20
1.64244909616241
30
0
41
1
10
12.4675507142202
20
1.59947748171862
30
0
41
1
10
12.6381553450915
20
1.53557562984531
30
0
41
1
10
12.9115940393117
20
1.41279153414896
30
0
41
1
10
13.2539326097107
20
1.22288057433664
30
0
41
1
10
13.6672390296277
20
0.944128466831415
30
0
41
1
10
14.0873557074143
20
0.62172497178571
30
0
41
1
10
14.4465494164236
20
0.323397778730083
30
0
41
1
10
14.7418225045961
20
0.0720635481447403
30
0
41
1
10
14.9679122845727
20
-0.121281303090143
30
0
41
1
10
15.199326366836
20
-0.317693560081835
30
0
41
1
10
15.4809640412166
20
-0.551856129873585
30
0
41
1
10
15.6911221212589
20
-0.718483888852603
30
0
41
1
10
15.8225634945328
20
-0.817719590750755
30
0
0
SPLINE
5
11C
100
AcDbEntity
8
1
62
256
6
ByLayer
370
18
48
1
60
0
100
AcDbSpline
70
4
71
3
72
31
73
27
40
0
40
0
40
0
40
0
40
0.0003596084870388
40
0.0372045303948582
40
0.0740494523026777
40
0.110894374210497
40
0.147739296118317
40
0.184584218026136
40
0.221429139933956
40
0.239851600887865
40
0.258274061841775
40
0.295118983749595
40
0.331963905657414
40
0.405653749473053
40
0.442498671380873
40
0.479343593288692
40
0.553033437104331
40
0.58987835901215
40
0.62672328091997
40
0.700413124735609
40
0.737258046643428
40
0.774102968551248
40
0.847792812366887
40
0.921482656182526
40
0.995172499998165
40
1
40
1
40
1
40
1
41
1
10
8.49458588555802
20
0.787546315990824
30
0
41
1
10
8.49526564603764
20
0.787113266211577
30
0
41
1
10
8.56559202706066
20
0.742301601628554
30
0
41
1
10
8.7054468409037
20
0.651259083847606
30
0
41
1
10
8.91376850426786
20
0.510998098456469
30
0
41
1
10
9.12156831050899
20
0.367445018862071
30
0
41
1
10
9.32879028202683
20
0.221669976129334
30
0
41
1
10
9.53529450733046
20
0.0747431576273243
30
0
41
1
10
9.70669551215093
20
-0.0476707009038932
30
0
41
1
10
9.8433295020819
20
-0.144936874150062
30
0
41
1
10
9.97961477616599
20
-0.241641548625125
30
0
41
1
10
10.1494262714944
20
-0.361125692337197
30
0
41
1
10
10.420151101082
20
-0.548351685318181
30
0
41
1
10
10.6897472056336
20
-0.728029641425763
30
0
41
1
10
10.9588892197945
20
-0.897009367333197
30
0
41
1
10
11.2279572295432
20
-1.05783039408112
30
0
41
1
10
11.4972036861774
20
-1.20489252929522
30
0
41
1
10
11.7671390698383
20
-1.33552649740483
30
0
41
1
10
12.0377078150274
20
-1.45432476417159
30
0
41
1
10
12.309504167008
20
-1.5540618716885
30
0
41
1
10
12.5831265881755
20
-1.63251121019795
30
0
41
1
10
12.858181169296
20
-1.69603493140244
30
0
41
1
10
13.2049887548167
20
-1.74610332362397
30
0
41
1
10
13.6275893035065
20
-1.75600083853007
30
0
41
1
10
13.9246623593914
20
-1.72608455781707
30
0
41
1
10
14.0800699023416
20
-1.70005410088038
30
0
41
1
10
14.0896331745129
20
-1.69841350807138
30
0
0
SPLINE
5
11D
100
AcDbEntity
8
1
62
256
6
ByLayer
370
13
48
1
60
0
100
AcDbSpline
70
4
71
3
72
8
73
4
40
0
40
0
40
0
40
0
40
1
40
1
40
1
40
1
41
1
10
8.48007061783838
20
0.769332554671564
30
0
41
1
10
8.4846623767024
20
0.775618594495143
30
0
41
1
10
8.48925413556643
20
0.78188617746676
30
0
41
1
10
8.49384589443045
20
0.788134852509927
30
0
0
SPLINE
5
11E
100
AcDbEntity
8
1
62
256
6
ByLayer
370
18
48
1
60
0
100
AcDbSpline
70
4
71
3
72
10
73
6
40
0
40
0
40
0
40
0
40
0.5
40
0.5
40
1
40
1
40
1
40
1
41
1
10
8.93533377968913
20
0.468273781679159
30
0
41
1
10
8.85926436026739
20
0.520154322423167
30
0
41
1
10
8.78284339399116
20
0.5705810687883
30
0
41
1
10
8.63084633947406
20
0.670636632353677
30
0
41
1
10
8.55525486242078
20
0.720232158540227
30
0
41
1
10
8.48006811631473
20
0.769329025223243
30
0
0
SPLINE
5
11F
100
AcDbEntity
8
1
62
256
6
ByLayer
370
18
48
1
60
0
100
AcDbSpline
70
4
71
3
72
8
73
4
40
0
40
0
40
0
40
0
40
1
40
1
40
1
40
1
41
1
10
8.93533377973137
20
0.468273781656535
30
0
41
1
10
8.93533377973137
20
0.467824398274985
30
0
41
1
10
8.93533377973134
20
0.467375014985293
30
0
41
1
10
8.93533377973134
20
0.466925631787518
30
0
0
SPLINE
5
120
100
AcDbEntity
8
1
62
256
6
ByLayer
370
18
48
1
60
0
100
AcDbSpline
70
4
71
3
72
42
73
38
40
0
40
0
40
0
40
0
40
0.0981113504121139
40
0.0981113504121139
40
0.147167025618171
40
0.147167025618171
40
0.196222700824228
40
0.196222700824228
40
0.245278376030285
40
0.245278376030285
40
0.269806213633313
40
0.269806213633313
40
0.294334051236342
40
0.294334051236342
40
0.392445401648459
40
0.392445401648459
40
0.490556752060576
40
0.490556752060576
40
0.588668102472693
40
0.588668102472693
40
0.613195940075723
40
0.613195940075723
40
0.637723777678753
40
0.686779452884813
40
0.735835128090873
40
0.735835128090873
40
0.760362965693903
40
0.760362965693903
40
0.784890803296934
40
0.784890803296934
40
0.883002153709051
40
0.883002153709051
40
0.93205782891511
40
0.93205782891511
40
0.981113504121168
40
0.981113504121168
40
1
40
1
40
1
40
1
41
1
10
8.93533377973148
20
0.466925631787518
30
0
41
1
10
9.07782132336871
20
0.368967782864132
30
0
41
1
10
9.21987383272739
20
0.268925866606026
30
0
41
1
10
9.43334022186696
20
0.11720715199732
30
0
41
1
10
9.50457414268618
20
0.0663496239550057
30
0
41
1
10
9.6466828473543
20
-0.0351657184822614
30
0
41
1
10
9.71764245227894
20
-0.0858827364767478
30
0
41
1
10
9.85957486715051
20
-0.186946614005308
30
0
41
1
10
9.93054412726113
20
-0.237301784499067
30
0
41
1
10
10.0371560536052
20
-0.312349745092291
30
0
41
1
10
10.0727195637631
20
-0.337285300709567
30
0
41
1
10
10.1439218828047
20
-0.386964141618478
30
0
41
1
10
10.179558364582
20
-0.41170562426214
30
0
41
1
10
10.3572347090956
20
-0.53434107471071
30
0
41
1
10
10.4983747945079
20
-0.629425811159308
30
0
41
1
10
10.7799283139914
20
-0.812102101978411
30
0
41
1
10
10.9203054834078
20
-0.899735705535619
30
0
41
1
10
11.2015982380998
20
-1.06581230085448
30
0
41
1
10
11.3425206548362
20
-1.14424792317598
30
0
41
1
10
11.5199863703942
20
-1.23532810026367
30
0
41
1
10
11.555575701781
20
-1.25320992204092
30
0
41
1
10
11.626769051433
20
-1.2881714032055
30
0
41
1
10
11.7334573012635
20
-1.33935274417524
30
0
41
1
10
11.9109574401006
20
-1.41818082577771
30
0
41
1
10
12.0530034462618
20
-1.47405221975148
30
0
41
1
10
12.159679232872
20
-1.51317007109782
30
0
41
1
10
12.1952611536156
20
-1.52574518228252
30
0
41
1
10
12.2664901611393
20
-1.54995111815825
30
0
41
1
10
12.3021517438703
20
-1.56158586840593
30
0
41
1
10
12.4801907601294
20
-1.61720564524489
30
0
41
1
10
12.6221044941488
20
-1.65366163477427
30
0
41
1
10
12.8352363149421
20
-1.69571955651981
30
0
41
1
10
12.9063242170712
20
-1.7076330717293
30
0
41
1
10
13.0487707957789
20
-1.72716336845806
30
0
41
1
10
13.1198599406165
20
-1.73474177643098
30
0
41
1
10
13.2182104073924
20
-1.74219798607865
30
0
41
1
10
13.2455403245994
20
-1.7439456508433
30
0
41
1
10
13.2728665584694
20
-1.7453677533573
30
0
0
SPLINE
5
121
100
AcDbEntity
8
1
62
256
6
ByLayer
370
18
48
1
60
0
100
AcDbSpline
70
4
71
3
72
11
73
7
40
0
40
0
40
0
40
0
40
0.31604753608138
40
0.503914821359263
40
0.689776490121727
40
1
40
1
40
1
40
1
41
1
10
9.82298991793562
20
-1.53908706197194
30
0
41
1
10
9.94149704630573
20
-1.53727667204089
30
0
41
1
10
10.1305869150325
20
-1.53070591523868
30
0
41
1
10
10.3896596794964
20
-1.5135837095965
30
0
41
1
10
10.6468926198439
20
-1.49086468052917
30
0
41
1
10
10.8333412864857
20
-1.46889571530036
30
0
41
1
10
10.949935007061
20
-1.45300655643481
30
0
0
SPLINE
5
122
100
AcDbEntity
8
1
62
256
6
ByLayer
370
18
48
1
60
0
100
AcDbSpline
70
4
71
3
72
8
73
4
40
0
40
0
40
0
40
0
40
1
40
1
40
1
40
1
41
1
10
11.4473967435176
20
-1.35054158246143
30
0
41
1
10
11.5156691317813
20
-1.33153233870456
30
0
41
1
10
11.5839495030901
20
-1.3126970821763
30
0
41
1
10
11.6522542420204
20
-1.29401258198104
30
0
0
SPLINE
5
123
100
AcDbEntity
8
1
62
256
6
ByLayer
370
18
48
1
60
0
100
AcDbSpline
70
4
71
3
72
12
73
8
40
0
40
0
40
0
40
0
40
0.0609737314300391
40
0.305817368363913
40
0.447857039934482
40
0.6780961736407
40
1
40
1
40
1
40
1
41
1
10
15.191383855431
20
1.01765007610356
30
0
41
1
10
15.1631799685096
20
1.02387013797724
30
0
41
1
10
15.0218096244804
20
1.05557660611069
30
0
41
1
10
14.8157646477283
20
1.10881955930421
30
0
41
1
10
14.5322308069929
20
1.1820259743952
30
0
41
1
10
14.2141255764828
20
1.26801861760688
30
0
41
1
10
13.9613102657154
20
1.3362179170044
30
0
41
1
10
13.814063468707
20
1.3763612521162
30
0
0
SPLINE
5
124
100
AcDbEntity
8
1
62
256
6
ByLayer
370
18
48
1
60
0
100
AcDbSpline
70
4
71
3
72
15
73
11
40
0
40
0
40
0
40
0
40
0.173937903565608
40
0.291779774508739
40
0.383941463581976
40
0.475863204399849
40
0.557796245534164
40
0.647212488671605
40
0.793821367443382
40
1
40
1
40
1
40
1
41
1
10
11.2718360570194
20
0.92172343662935
30
0
41
1
10
11.1360710896585
20
0.94230076709141
30
0
41
1
10
10.9086190422645
20
0.978165707380924
30
0
41
1
10
10.6109729487083
20
1.02974508109742
30
0
41
1
10
10.3758697303431
20
1.07000741712542
30
0
41
1
10
10.1686545587371
20
1.10692143289748
30
0
41
1
10
9.96379140613658
20
1.14337917276288
30
0
41
1
10
9.71607153070755
20
1.18742682398388
30
0
41
1
10
9.37158232623872
20
1.24768422551557
30
0
41
1
10
9.09631177140309
20
1.29298790229396
30
0
41
1
10
8.93533377973139
20
1.31867656252646
30
0
0
SPLINE
5
125
100
AcDbEntity
8
1
62
256
6
ByLayer
370
18
48
1
60
0
100
AcDbSpline
70
4
71
2
72
6
73
3
40
0
40
0
40
0
40
1
40
1
40
1
41
1
10
14.4726417539893
20
-1.53884286331666
30
0
41
1
10
15.042181374996
20
-1.53298405922502
30
0
41
1
10
15.6070286868715
20
-1.45915091383728
30
0
0
SPLINE
5
126
100
AcDbEntity
8
1
62
256
6
ByLayer
370
18
48
1
60
0
100
AcDbSpline
70
4
71
3
72
8
73
4
40
0
40
0
40
0
40
0
40
1
40
1
40
1
40
1
41
1
10
13.4497671029982
20
1.45246646258647
30
0
41
1
10
13.3721888424002
20
1.46406517069514
30
0
41
1
10
13.2946045416923
20
1.47453619841062
30
0
41
1
10
13.2170182840126
20
1.48390259104082
30
0
0
SPLINE
5
127
100
AcDbEntity
8
1
62
256
6
ByLayer
370
18
48
1
60
0
100
AcDbSpline
70
4
71
2
72
6
73
3
40
0
40
0
40
0
40
1
40
1
40
1
41
1
10
8.93801716427134
20
-1.74975090407349
30
0
41
1
10
8.9379981475135
20
-1.74975120617688
30
0
41
1
10
8.93797913086706
20
-1.7497512043762
30
0
0
LINE
5
77
100
AcDbEntity
8
80
62
256
6
ByLayer
370
18
48
1
60
0
100
AcDbLine
10
0
20
0
30
0
11
-5
21
0
31
0
39
0
210
0
220
0
230
1
0
LINE
5
78
100
AcDbEntity
8
4
62
256
6
ByLayer
370
18
48
0.05
60
0
100
AcDbLine
10
0
20
0
30
0
11
15.935334
21
0
31
0
39
0
210
0
220
0
230
1
0
LINE
5
7A
100
AcDbEntity
8
81
62
256
6
ByLayer
370
18
48
1
60
0
100
AcDbLine
10
15.935334
20
0
30
0
11
20.935334
21
0
31
0
39
0
210
0
220
0
230
1
0
LINE
5
7B
100
AcDbEntity
8
SK4
62
256
6
ByLayer
370
18
48
0.05
60
0
100
AcDbLine
10
-41.064666
20
0
30
0
11
15.935334
21
0
31
0
39
0
210
0
220
0
230
1
0
LINE
5
7D
100
AcDbEntity
8
1
62
256
6
ByLayer
370
18
48
1
60
0
100
AcDbLine
10
15.933291
20
-0.97718
30
0
11
15.895235
21
-1.166654
31
0
39
0
210
0
220
0
230
1
0
LINE
5
7E
100
AcDbEntity
8
1
62
256
6
ByLayer
370
18
48
1
60
0
100
AcDbLine
10
15.925241
20
-0.794187
30
0
11
15.933291
21
-0.97718
31
0
39
0
210
0
220
0
230
1
0
LINE
5
7F
100
AcDbEntity
8
1
62
256
6
ByLayer
370
18
48
1
60
0
100
AcDbLine
10
15.864329
20
1.736669
30
0
11
15.933291
21
1.668523
31
0
39
0
210
0
220
0
230
1
0
LINE
5
80
100
AcDbEntity
8
1
62
256
6
ByLayer
370
18
48
1
60
0
100
AcDbLine
10
15.861947
20
-0.057595
30
0
11
15.887325
21
-0.061386
31
0
39
0
210
0
220
0
230
1
0
LINE
5
81
100
AcDbEntity
8
1
62
256
6
ByLayer
370
18
48
1
60
0
100
AcDbLine
10
15.887325
20
-0.061386
30
0
11
15.933291
21
1.668523
31
0
39
0
210
0
220
0
230
1
0
LINE
5
82
100
AcDbEntity
8
1
62
256
6
ByLayer
370
18
48
1
60
0
100
AcDbLine
10
15.895235
20
-1.166654
30
0
11
15.820279
21
-1.323547
31
0
39
0
210
0
220
0
230
1
0
LINE
5
83
100
AcDbEntity
8
1
62
256
6
ByLayer
370
18
48
1
60
0
100
AcDbLine
10
15.895235
20
-1.166654
30
0
11
15.879814
21
-0.811185
31
0
39
0
210
0
220
0
230
1
0
LINE
5
84
100
AcDbEntity
8
1
62
256
6
ByLayer
370
18
48
1
60
0
100
AcDbLine
10
15.517679
20
-1.278914
30
0
11
15.777588
21
-0.810514
31
0
39
0
210
0
220
0
230
1
0
LINE
5
85
100
AcDbEntity
8
1
62
256
6
ByLayer
370
13
48
1
60
0
100
AcDbLine
10
15.314849
20
-0.44793
30
0
11
14.905261
21
-0.71335
31
0
39
0
210
0
220
0
230
1
0
LINE
5
86
100
AcDbEntity
8
1
62
256
6
ByLayer
370
18
48
1
60
0
100
AcDbLine
10
8.039387
20
1.711526
30
0
11
8.935334
21
1.272066
31
0
39
0
210
0
220
0
230
1
0
LINE
5
87
100
AcDbEntity
8
1
62
256
6
ByLayer
370
13
48
1
60
0
100
AcDbLine
10
7.59615
20
1.605342
30
0
11
8.935334
21
0.948476
31
0
39
0
210
0
220
0
230
1
0
LINE
5
88
100
AcDbEntity
8
1
62
256
6
ByLayer
370
18
48
1
60
0
100
AcDbLine
10
8.935334
20
-1.489763
30
0
11
8.935334
21
-1.629851
31
0
39
0
210
0
220
0
230
1
0
LINE
5
89
100
AcDbEntity
8
1
62
256
6
ByLayer
370
13
48
1
60
0
100
AcDbLine
10
7.713665
20
-1.180046
30
0
11
8.935334
21
-1.489763
31
0
39
0
210
0
220
0
230
1
0
LINE
5
8A
100
AcDbEntity
8
1
62
256
6
ByLayer
370
18
48
1
60
0
100
AcDbLine
10
8.935334
20
-1.489763
30
0
11
8.935334
21
-1.431212
31
0
39
0
210
0
220
0
230
1
0
LINE
5
8B
100
AcDbEntity
8
1
62
256
6
ByLayer
370
13
48
1
60
0
100
AcDbLine
10
7.712472
20
-1.121193
30
0
11
8.935334
21
-1.431212
31
0
39
0
210
0
220
0
230
1
0
LINE
5
8C
100
AcDbEntity
8
1
62
256
6
ByLayer
370
18
48
1
60
0
100
AcDbLine
10
8.935334
20
-1.431212
30
0
11
8.935334
21
-1.14013
31
0
39
0
210
0
220
0
230
1
0
LINE
5
8D
100
AcDbEntity
8
1
62
256
6
ByLayer
370
18
48
1
60
0
100
AcDbLine
10
15.906659
20
-0.334378
30
0
11
15.933291
21
-0.791185
31
0
39
0
210
0
220
0
230
1
0
LINE
5
8E
100
AcDbEntity
8
1
62
256
6
ByLayer
370
18
48
1
60
0
100
AcDbLine
10
15.871271
20
-0.081716
30
0
11
15.906659
21
-0.334378
31
0
39
0
210
0
220
0
230
1
0
LINE
5
8F
100
AcDbEntity
8
1
62
256
6
ByLayer
370
18
48
1
60
0
100
AcDbLine
10
15.895235
20
-0.49533
30
0
11
15.871271
21
-0.081716
31
0
39
0
210
0
220
0
230
1
0
LINE
5
90
100
AcDbEntity
8
1
62
256
6
ByLayer
370
18
48
1
60
0
100
AcDbLine
10
15.508418
20
0.857064
30
0
11
15.871271
21
-0.081716
31
0
39
0
210
0
220
0
230
1
0
LINE
5
91
100
AcDbEntity
8
1
62
256
6
ByLayer
370
18
48
1
60
0
100
AcDbLine
10
15.862901
20
-0.817505
30
0
11
15.933291
21
-0.791185
31
0
39
0
210
0
220
0
230
1
0
LINE
5
92
100
AcDbEntity
8
1
62
256
6
ByLayer
370
18
48
1
60
0
100
AcDbLine
10
15.933291
20
-0.791185
30
0
11
15.895235
21
-0.49533
31
0
39
0
210
0
220
0
230
1
0
LINE
5
93
100
AcDbEntity
8
1
62
256
6
ByLayer
370
18
48
1
60
0
100
AcDbLine
10
15.895235
20
-0.49533
30
0
11
15.813233
21
-0.305659
31
0
39
0
210
0
220
0
230
1
0
LINE
5
94
100
AcDbEntity
8
1
62
256
6
ByLayer
370
18
48
1
60
0
100
AcDbLine
10
8.935334
20
-0.131201
30
0
11
8.935334
21
0.455236
31
0
39
0
210
0
220
0
230
1
0
LINE
5
95
100
AcDbEntity
8
1
62
256
6
ByLayer
370
13
48
1
60
0
100
AcDbLine
10
8.758385
20
0.500096
30
0
11
8.935334
21
0.455236
31
0
39
0
210
0
220
0
230
1
0
LINE
5
96
100
AcDbEntity
8
1
62
256
6
ByLayer
370
18
48
1
60
0
100
AcDbLine
10
8.935334
20
-0.256926
30
0
11
8.935334
21
-0.131201
31
0
39
0
210
0
220
0
230
1
0
LINE
5
97
100
AcDbEntity
8
1
62
256
6
ByLayer
370
13
48
1
60
0
100
AcDbLine
10
7.696576
20
0.182848
30
0
11
8.935334
21
-0.131201
31
0
39
0
210
0
220
0
230
1
0
LINE
5
98
100
AcDbEntity
8
1
62
256
6
ByLayer
370
18
48
1
60
0
100
AcDbLine
10
8.094171
20
-0.926879
30
0
11
8.935334
21
-1.14013
31
0
39
0
210
0
220
0
230
1
0
LINE
5
99
100
AcDbEntity
8
1
62
256
6
ByLayer
370
18
48
1
60
0
100
AcDbLine
10
8.935334
20
-1.14013
30
0
11
8.935334
21
-0.256926
31
0
39
0
210
0
220
0
230
1
0
LINE
5
9A
100
AcDbEntity
8
1
62
256
6
ByLayer
370
13
48
1
60
0
100
AcDbLine
10
7.704026
20
0.055234
30
0
11
8.935334
21
-0.256926
31
0
39
0
210
0
220
0
230
1
0
LINE
5
9B
100
AcDbEntity
8
1
62
256
6
ByLayer
370
18
48
1
60
0
100
AcDbLine
10
8.935334
20
0.466923
30
0
11
8.935334
21
0.466926
31
0
39
0
210
0
220
0
230
1
0
LINE
5
9C
100
AcDbEntity
8
1
62
256
6
ByLayer
370
18
48
1
60
0
100
AcDbLine
10
8.935334
20
0.466923
30
0
11
8.935334
21
0.455236
31
0
39
0
210
0
220
0
230
1
0
LINE
5
9D
100
AcDbEntity
8
1
62
256
6
ByLayer
370
13
48
1
60
0
100
AcDbLine
10
2.433013
20
-1.75
30
0
11
2.433013
21
0
31
0
39
0
210
0
220
0
230
1
0
LINE
5
9E
100
AcDbEntity
8
1
62
256
6
ByLayer
370
13
48
1
60
0
100
AcDbLine
10
2.433013
20
0
30
0
11
2.433013
21
1.75
31
0
39
0
210
0
220
0
230
1
0
LINE
5
9F
100
AcDbEntity
8
1
62
256
6
ByLayer
370
13
48
1
60
0
100
AcDbLine
10
1.933013
20
1.883975
30
0
11
1.933013
21
0
31
0
39
0
210
0
220
0
230
1
0
LINE
5
A0
100
AcDbEntity
8
1
62
256
6
ByLayer
370
13
48
1
60
0
100
AcDbLine
10
1.933013
20
0
30
0
11
1.933013
21
-1.883975
31
0
39
0
210
0
220
0
230
1
0
LINE
5
A1
100
AcDbEntity
8
1
62
256
6
ByLayer
370
18
48
1
60
0
100
AcDbLine
10
0
20
3
30
0
11
0
21
0
31
0
39
0
210
0
220
0
230
1
0
LINE
5
A2
100
AcDbEntity
8
1
62
256
6
ByLayer
370
18
48
1
60
0
100
AcDbLine
10
0
20
0
30
0
11
0
21
-3
31
0
39
0
210
0
220
0
230
1
0
LINE
5
A3
100
AcDbEntity
8
SK1
62
256
6
ByLayer
370
18
48
1
60
0
100
AcDbLine
10
-41.064666
20
-2.6
30
0
11
-41.064666
21
2.6
31
0
39
0
210
0
220
0
230
1
0
LINE
5
A5
100
AcDbEntity
8
SK1
62
256
6
ByLayer
370
18
48
1
60
0
100
AcDbLine
10
0
20
3
30
0
11
0
21
0
31
0
39
0
210
0
220
0
230
1
0
LINE
5
A6
100
AcDbEntity
8
SK1
62
256
6
ByLayer
370
18
48
1
60
0
100
AcDbLine
10
0
20
0
30
0
11
0
21
-3
31
0
39
0
210
0
220
0
230
1
0
LINE
5
A7
100
AcDbEntity
8
SK1
62
256
6
ByLayer
370
18
48
1
60
0
100
AcDbLine
10
-40.664666
20
3
30
0
11
-40.664666
21
-3
31
0
39
0
210
0
220
0
230
1
0
LINE
5
A8
100
AcDbEntity
8
1
62
256
6
ByLayer
370
18
48
1
60
0
100
AcDbLine
10
8.939435
20
1.316685
30
0
11
8.055974
21
1.750021
31
0
39
0
210
0
220
0
230
1
0
LINE
5
A9
100
AcDbEntity
8
1
62
256
6
ByLayer
370
18
48
1
60
0
100
AcDbLine
10
8.052531
20
1.75
30
0
11
2.433013
21
1.75
31
0
39
0
210
0
220
0
230
1
0
LINE
5
AA
100
AcDbEntity
8
1
62
256
6
ByLayer
370
18
48
1
60
0
100
AcDbLine
10
2.433013
20
-1.75
30
0
11
8.207872
21
-1.75
31
0
39
0
210
0
220
0
230
1
0
LINE
5
AB
100
AcDbEntity
8
1
62
256
6
ByLayer
370
18
48
1
60
0
100
AcDbLine
10
8.808066
20
-1.75
30
0
11
8.899418
21
-1.75
31
0
39
0
210
0
220
0
230
1
0
LINE
5
AC
100
AcDbEntity
8
1
62
256
6
ByLayer
370
18
48
1
60
0
100
AcDbLine
10
1.933013
20
1.883975
30
0
11
0
21
3
31
0
39
0
210
0
220
0
230
1
0
LINE
5
AD
100
AcDbEntity
8
1
62
256
6
ByLayer
370
18
48
1
60
0
100
AcDbLine
10
0
20
-3
30
0
11
1.933013
21
-1.883975
31
0
39
0
210
0
220
0
230
1
0
LINE
5
AE
100
AcDbEntity
8
SK1
62
256
6
ByLayer
370
18
48
1
60
0
100
AcDbLine
10
-41.064666
20
-2.6
30
0
11
-40.664666
21
-3
31
0
39
0
210
0
220
0
230
1
0
LINE
5
AF
100
AcDbEntity
8
SK1
62
256
6
ByLayer
370
18
48
1
60
0
100
AcDbLine
10
-40.664666
20
3
30
0
11
-41.064666
21
2.6
31
0
39
0
210
0
220
0
230
1
0
LINE
5
B0
100
AcDbEntity
8
SK1
62
256
6
ByLayer
370
18
48
1
60
0
100
AcDbLine
10
0
20
3
30
0
11
-40.664666
21
3
31
0
39
0
210
0
220
0
230
1
0
LINE
5
B1
100
AcDbEntity
8
SK1
62
256
6
ByLayer
370
18
48
1
60
0
100
AcDbLine
10
-40.664666
20
-3
30
0
11
0
21
-3
31
0
39
0
210
0
220
0
230
1
0
LINE
5
B2
100
AcDbEntity
8
SK2
62
256
6
ByLayer
370
18
48
1
60
0
100
AcDbLine
10
-48.914666
20
11.75
30
0
11
-48.914666
21
-19.315466
31
0
39
0
210
0
220
0
230
1
0
LINE
5
B4
100
AcDbEntity
8
SK2
62
256
6
ByLayer
370
18
48
1
60
0
100
AcDbLine
10
-42.252166
20
3
30
0
11
-50.914666
21
3
31
0
39
0
210
0
220
0
230
1
0
LINE
5
B5
100
AcDbEntity
8
SK2
62
256
6
ByLayer
370
18
48
1
60
0
100
AcDbLine
10
-42.252166
20
-3
30
0
11
-50.914666
21
-3
31
0
39
0
210
0
220
0
230
1
0
LINE
5
B6
100
AcDbEntity
8
1
62
256
6
ByLayer
370
18
48
1
60
1
100
AcDbLine
10
-48.914666
20
3
30
0
11
-49.37545
21
6.499998
31
0
39
0
210
0
220
0
230
1
0
LINE
5
B7
100
AcDbEntity
8
1
62
256
6
ByLayer
370
18
48
1
60
1
100
AcDbLine
10
-49.37545
20
6.499998
30
0
11
-48.453882
21
6.500002
31
0
39
0
210
0
220
0
230
1
0
LINE
5
B8
100
AcDbEntity
8
1
62
256
6
ByLayer
370
18
48
1
60
1
100
AcDbLine
10
-48.453882
20
6.500002
30
0
11
-48.914666
21
3
31
0
39
0
210
0
220
0
230
1
0
LINE
5
B9
100
AcDbEntity
8
1
62
256
6
ByLayer
370
18
48
1
60
1
100
AcDbLine
10
-48.914666
20
-3
30
0
11
-48.453882
21
-6.499998
31
0
39
0
210
0
220
0
230
1
0
LINE
5
BA
100
AcDbEntity
8
1
62
256
6
ByLayer
370
18
48
1
60
1
100
AcDbLine
10
-48.453882
20
-6.499998
30
0
11
-49.37545
21
-6.500002
31
0
39
0
210
0
220
0
230
1
0
LINE
5
BB
100
AcDbEntity
8
1
62
256
6
ByLayer
370
18
48
1
60
1
100
AcDbLine
10
-49.37545
20
-6.500002
30
0
11
-48.914666
21
-3
31
0
39
0
210
0
220
0
230
1
0
LINE
5
BC
100
AcDbEntity
8
2
62
256
6
ByLayer
370
18
48
1
60
0
100
AcDbLine
10
27.935334
20
22.099032
30
0
11
27.935334
21
-10.5001
31
0
39
0
210
0
220
0
230
1
0
LINE
5
BE
100
AcDbEntity
8
2
62
256
6
ByLayer
370
18
48
1
60
0
100
AcDbLine
10
17.522834
20
1.7501
30
0
11
29.935334
21
1.7501
31
0
39
0
210
0
220
0
230
1
0
LINE
5
BF
100
AcDbEntity
8
2
62
256
6
ByLayer
370
18
48
1
60
0
100
AcDbLine
10
17.522834
20
-1.7501
30
0
11
29.935334
21
-1.7501
31
0
39
0
210
0
220
0
230
1
0
LINE
5
C0
100
AcDbEntity
8
1
62
256
6
ByLayer
370
18
48
1
60
1
100
AcDbLine
10
27.935334
20
1.7501
30
0
11
27.47455
21
5.250098
31
0
39
0
210
0
220
0
230
1
0
LINE
5
C1
100
AcDbEntity
8
1
62
256
6
ByLayer
370
18
48
1
60
1
100
AcDbLine
10
27.47455
20
5.250098
30
0
11
28.396118
21
5.250102
31
0
39
0
210
0
220
0
230
1
0
LINE
5
C2
100
AcDbEntity
8
1
62
256
6
ByLayer
370
18
48
1
60
1
100
AcDbLine
10
28.396118
20
5.250102
30
0
11
27.935334
21
1.7501
31
0
39
0
210
0
220
0
230
1
0
LINE
5
C3
100
AcDbEntity
8
1
62
256
6
ByLayer
370
18
48
1
60
1
100
AcDbLine
10
27.935334
20
-1.7501
30
0
11
28.396118
21
-5.250098
31
0
39
0
210
0
220
0
230
1
0
LINE
5
C4
100
AcDbEntity
8
1
62
256
6
ByLayer
370
18
48
1
60
1
100
AcDbLine
10
28.396118
20
-5.250098
30
0
11
27.47455
21
-5.250102
31
0
39
0
210
0
220
0
230
1
0
LINE
5
C5
100
AcDbEntity
8
1
62
256
6
ByLayer
370
18
48
1
60
1
100
AcDbLine
10
27.47455
20
-5.250102
30
0
11
27.935334
21
-1.7501
31
0
39
0
210
0
220
0
230
1
0
LINE
5
C6
100
AcDbEntity
8
2
62
256
6
ByLayer
370
18
48
1
60
0
100
AcDbLine
10
15.935334
20
-33.1
30
0
11
-41.064666
21
-33.1
31
0
39
0
210
0
220
0
230
1
0
LINE
5
C7
100
AcDbEntity
8
2
62
256
6
ByLayer
370
18
48
1
60
0
100
AcDbLine
10
-41.064666
20
-4.1875
30
0
11
-41.064666
21
-35.1
31
0
39
0
210
0
220
0
230
1
0
LINE
5
C8
100
AcDbEntity
8
2
62
256
6
ByLayer
370
18
48
1
60
0
100
AcDbLine
10
15.935334
20
-3.3376
30
0
11
15.935334
21
-35.1
31
0
39
0
210
0
220
0
230
1
0
LINE
5
C9
100
AcDbEntity
8
1
62
256
6
ByLayer
370
18
48
1
60
1
100
AcDbLine
10
-41.064666
20
-33.1
30
0
11
-37.564668
21
-32.639216
31
0
39
0
210
0
220
0
230
1
0
LINE
5
CA
100
AcDbEntity
8
1
62
256
6
ByLayer
370
18
48
1
60
1
100
AcDbLine
10
-37.564668
20
-32.639216
30
0
11
-37.564665
21
-33.560784
31
0
39
0
210
0
220
0
230
1
0
LINE
5
CB
100
AcDbEntity
8
1
62
256
6
ByLayer
370
18
48
1
60
1
100
AcDbLine
10
-37.564665
20
-33.560784
30
0
11
-41.064666
21
-33.1
31
0
39
0
210
0
220
0
230
1
0
LINE
5
CC
100
AcDbEntity
8
1
62
256
6
ByLayer
370
18
48
1
60
1
100
AcDbLine
10
15.935334
20
-33.1
30
0
11
12.435335
21
-33.560784
31
0
39
0
210
0
220
0
230
1
0
LINE
5
CD
100
AcDbEntity
8
1
62
256
6
ByLayer
370
18
48
1
60
1
100
AcDbLine
10
12.435335
20
-33.560784
30
0
11
12.435332
21
-32.639216
31
0
39
0
210
0
220
0
230
1
0
LINE
5
CE
100
AcDbEntity
8
1
62
256
6
ByLayer
370
18
48
1
60
1
100
AcDbLine
10
12.435332
20
-32.639216
30
0
11
15.935334
21
-33.1
31
0
39
0
210
0
220
0
230
1
0
LINE
5
12C
100
AcDbEntity
8
1
62
256
6
ByLayer
370
18
48
1
60
1
100
AcDbLine
10
-48.914666
20
3
30
0
11
-49.37545
21
6.499998
31
0
39
0
210
0
220
0
230
1
0
LINE
5
12D
100
AcDbEntity
8
1
62
256
6
ByLayer
370
18
48
1
60
1
100
AcDbLine
10
-49.37545
20
6.499998
30
0
11
-48.453882
21
6.500002
31
0
39
0
210
0
220
0
230
1
0
LINE
5
12E
100
AcDbEntity
8
1
62
256
6
ByLayer
370
18
48
1
60
1
100
AcDbLine
10
-48.453882
20
6.500002
30
0
11
-48.914666
21
3
31
0
39
0
210
0
220
0
230
1
0
LINE
5
130
100
AcDbEntity
8
1
62
256
6
ByLayer
370
18
48
1
60
1
100
AcDbLine
10
-48.914666
20
-3
30
0
11
-48.453882
21
-6.499998
31
0
39
0
210
0
220
0
230
1
0
LINE
5
131
100
AcDbEntity
8
1
62
256
6
ByLayer
370
18
48
1
60
1
100
AcDbLine
10
-48.453882
20
-6.499998
30
0
11
-49.37545
21
-6.500002
31
0
39
0
210
0
220
0
230
1
0
LINE
5
132
100
AcDbEntity
8
1
62
256
6
ByLayer
370
18
48
1
60
1
100
AcDbLine
10
-49.37545
20
-6.500002
30
0
11
-48.914666
21
-3
31
0
39
0
210
0
220
0
230
1
0
LINE
5
136
100
AcDbEntity
8
1
62
256
6
ByLayer
370
18
48
1
60
1
100
AcDbLine
10
27.935334
20
1.7501
30
0
11
27.47455
21
5.250098
31
0
39
0
210
0
220
0
230
1
0
LINE
5
137
100
AcDbEntity
8
1
62
256
6
ByLayer
370
18
48
1
60
1
100
AcDbLine
10
27.47455
20
5.250098
30
0
11
28.396118
21
5.250102
31
0
39
0
210
0
220
0
230
1
0
LINE
5
138
100
AcDbEntity
8
1
62
256
6
ByLayer
370
18
48
1
60
1
100
AcDbLine
10
28.396118
20
5.250102
30
0
11
27.935334
21
1.7501
31
0
39
0
210
0
220
0
230
1
0
LINE
5
13A
100
AcDbEntity
8
1
62
256
6
ByLayer
370
18
48
1
60
1
100
AcDbLine
10
27.935334
20
-1.7501
30
0
11
28.396118
21
-5.250098
31
0
39
0
210
0
220
0
230
1
0
LINE
5
13B
100
AcDbEntity
8
1
62
256
6
ByLayer
370
18
48
1
60
1
100
AcDbLine
10
28.396118
20
-5.250098
30
0
11
27.47455
21
-5.250102
31
0
39
0
210
0
220
0
230
1
0
LINE
5
13C
100
AcDbEntity
8
1
62
256
6
ByLayer
370
18
48
1
60
1
100
AcDbLine
10
27.47455
20
-5.250102
30
0
11
27.935334
21
-1.7501
31
0
39
0
210
0
220
0
230
1
0
LINE
5
13F
100
AcDbEntity
8
1
62
256
6
ByLayer
370
18
48
1
60
1
100
AcDbLine
10
-41.064666
20
-33.1
30
0
11
-37.564668
21
-32.639216
31
0
39
0
210
0
220
0
230
1
0
LINE
5
140
100
AcDbEntity
8
1
62
256
6
ByLayer
370
18
48
1
60
1
100
AcDbLine
10
-37.564668
20
-32.639216
30
0
11
-37.564665
21
-33.560784
31
0
39
0
210
0
220
0
230
1
0
LINE
5
141
100
AcDbEntity
8
1
62
256
6
ByLayer
370
18
48
1
60
1
100
AcDbLine
10
-37.564665
20
-33.560784
30
0
11
-41.064666
21
-33.1
31
0
39
0
210
0
220
0
230
1
0
LINE
5
143
100
AcDbEntity
8
1
62
256
6
ByLayer
370
18
48
1
60
1
100
AcDbLine
10
15.935334
20
-33.1
30
0
11
12.435335
21
-33.560784
31
0
39
0
210
0
220
0
230
1
0
LINE
5
144
100
AcDbEntity
8
1
62
256
6
ByLayer
370
18
48
1
60
1
100
AcDbLine
10
12.435335
20
-33.560784
30
0
11
12.435332
21
-32.639216
31
0
39
0
210
0
220
0
230
1
0
LINE
5
145
100
AcDbEntity
8
1
62
256
6
ByLayer
370
18
48
1
60
1
100
AcDbLine
10
12.435332
20
-32.639216
30
0
11
15.935334
21
-33.1
31
0
39
0
210
0
220
0
230
1
0
MTEXT
5
128
100
AcDbEntity
8
SK2
62
256
6
ByLayer
370
18
48
1
60
0
100
AcDbMText
10
-50.4793
20
-17.380622
30
0
210
0
220
0
230
1
1
%%c
40
3.5
41
0
44
1.084337
50
90
71
7
72
5
7
iso_b_vert
0
MTEXT
5
12B
100
AcDbEntity
8
SK2
62
256
6
ByLayer
370
18
48
1
60
0
100
AcDbMText
10
-50.4793
20
-10.407966
30
0
210
0
220
0
230
1
1
\W0.5404;6
40
3.5
41
0
44
1.084337
50
90
71
7
72
5
7
iso_b_vert
0
MTEXT
5
134
100
AcDbEntity
8
2
62
256
6
ByLayer
370
18
48
1
60
0
100
AcDbMText
10
26.3707
20
9.684944
30
0
210
0
220
0
230
1
1
%%c
40
3.5
41
0
44
1.084337
50
90
71
7
72
5
7
iso_b_vert
0
MTEXT
5
135
100
AcDbEntity
8
2
62
256
6
ByLayer
370
18
48
1
60
0
100
AcDbMText
10
26.3707
20
16.6576
30
0
210
0
220
0
230
1
1
\W0.7121;3.5
40
3.5
41
0
44
1.084337
50
90
71
7
72
5
7
iso_b_vert
0
MTEXT
5
13E
100
AcDbEntity
8
2
62
256
6
ByLayer
370
18
48
1
60
0
100
AcDbMText
10
-14.469632
20
-32.067366
30
0
210
0
220
0
230
1
1
\W0.6740;57
40
3.5
41
0
44
1.084337
50
0
71
7
72
5
7
iso_b_vert
0
MTEXT
5
147
100
AcDbEntity
8
SK6
62
256
6
ByLayer
370
18
48
1
60
0
100
AcDbMText
10
-31.946212
20
-62.114886
30
0
210
0
220
0
230
1
1
\W0.7425;1K333-0350-XA 1730
40
3
41
0
44
1.084337
50
0
71
7
72
5
7
iso_b_vert
0
HATCH
5
12F
100
AcDbEntity
8
SK2
62
256
6
ByLayer
370
13
48
1
60
0
100
AcDbHatch
10
0
20
0
30
0
210
0
220
0
230
1
2
ANSI31
70
0
71
0
91
1
92
5
93
3
72
1
10
-48.9146662202686
20
2.99999999999997
11
-49.3754499618214
21
6.49999830744679
72
1
10
-49.3754499618214
20
6.49999830744679
11
-48.4538824787158
21
6.50000169255316
72
1
10
-48.4538824787158
20
6.50000169255316
11
-48.9146662202686
21
2.99999999999997
97
0
75
0
76
1
52
0
41
0.0062
77
0
78
1
53
45
43
0
44
0
45
-0.0139193969876572
46
0.0139193969876572
79
0
47
0
98
1
10
0
20
0
0
HATCH
5
133
100
AcDbEntity
8
SK2
62
256
6
ByLayer
370
13
48
1
60
0
100
AcDbHatch
10
0
20
0
30
0
210
0
220
0
230
1
2
ANSI31
70
0
71
0
91
1
92
5
93
3
72
1
10
-48.9146662202686
20
-3.00000000000003
11
-48.4538824787158
21
-6.49999830744684
72
1
10
-48.4538824787158
20
-6.49999830744684
11
-49.3754499618214
21
-6.50000169255321
72
1
10
-49.3754499618214
20
-6.50000169255321
11
-48.9146662202686
21
-3.00000000000003
97
0
75
0
76
1
52
0
41
0.0062
77
0
78
1
53
45
43
0
44
0
45
-0.0139193969876572
46
0.0139193969876572
79
0
47
0
98
1
10
0
20
0
0
HATCH
5
139
100
AcDbEntity
8
2
62
256
6
ByLayer
370
13
48
1
60
0
100
AcDbHatch
10
0
20
0
30
0
210
0
220
0
230
1
2
ANSI31
70
0
71
0
91
1
92
5
93
3
72
1
10
27.9353337797314
20
1.75009999999992
11
27.4745500381786
21
5.25009830744673
72
1
10
27.4745500381786
20
5.25009830744673
11
28.3961175212841
21
5.2501016925531
72
1
10
28.3961175212841
20
5.2501016925531
11
27.9353337797314
21
1.75009999999992
97
0
75
0
76
1
52
0
41
0.0062
77
0
78
1
53
45
43
0
44
0
45
-0.0139193969876572
46
0.0139193969876572
79
0
47
0
98
1
10
0
20
0
0
HATCH
5
13D
100
AcDbEntity
8
2
62
256
6
ByLayer
370
13
48
1
60
0
100
AcDbHatch
10
0
20
0
30
0
210
0
220
0
230
1
2
ANSI31
70
0
71
0
91
1
92
5
93
3
72
1
10
27.9353337797314
20
-1.75010000000009
11
28.3961175212841
21
-5.2500983074469
72
1
10
28.3961175212841
20
-5.2500983074469
11
27.4745500381786
21
-5.25010169255327
72
1
10
27.4745500381786
20
-5.25010169255327
11
27.9353337797314
21
-1.75010000000009
97
0
75
0
76
1
52
0
41
0.0062
77
0
78
1
53
45
43
0
44
0
45
-0.0139193969876572
46
0.0139193969876572
79
0
47
0
98
1
10
0
20
0
0
HATCH
5
142
100
AcDbEntity
8
2
62
256
6
ByLayer
370
13
48
1
60
0
100
AcDbHatch
10
0
20
0
30
0
210
0
220
0
230
1
2
ANSI31
70
0
71
0
91
1
92
5
93
3
72
1
10
-41.0646662202686
20
-33.1000000000001
11
-37.5646679128218
21
-32.6392162584473
72
1
10
-37.5646679128218
20
-32.6392162584473
11
-37.5646645277155
21
-33.5607837415528
72
1
10
-37.5646645277155
20
-33.5607837415528
11
-41.0646662202686
21
-33.1000000000001
97
0
75
0
76
1
52
0
41
0.0062
77
0
78
1
53
45
43
0
44
0
45
-0.0139193969876572
46
0.0139193969876572
79
0
47
0
98
1
10
0
20
0
0
HATCH
5
146
100
AcDbEntity
8
2
62
256
6
ByLayer
370
13
48
1
60
0
100
AcDbHatch
10
0
20
0
30
0
210
0
220
0
230
1
2
ANSI31
70
0
71
0
91
1
92
5
93
3
72
1
10
15.9353337797314
20
-33.1000000000001
11
12.4353354722845
21
-33.5607837415528
72
1
10
12.4353354722845
20
-33.5607837415528
11
12.4353320871782
21
-32.6392162584473
72
1
10
12.4353320871782
20
-32.6392162584473
11
15.9353337797314
21
-33.1000000000001
97
0
75
0
76
1
52
0
41
0.0062
77
0
78
1
53
45
43
0
44
0
45
-0.0139193969876572
46
0.0139193969876572
79
0
47
0
98
1
10
0
20
0
0
DIMENSION
5
14A
100
AcDbEntity
8
SK2
62
256
6
ByLayer
370
18
48
1
60
0
100
AcDbDimension
2
_U0
10
8.935334
20
-17.1
30
0
11
12.435334
21
-17.1
31
0
70
32
71
1
72
1
41
1
210
0
220
0
230
1
3
Standard
100
AcDbAlignedDimension
13
15.935334
23
-1.7501
33
0
14
8.935334
24
-1.7501
34
0
50
0
100
AcDbRotatedDimension
1001
ACAD
1000
DSTYLE
1002
{
1070
   371
1070
    13
1070
   372
1070
    13
1070
   170
1070
     0
1070
   144
1040
1.0
1070
   277
1070
     2
1070
   284
1070
     8
1070
   278
1070
    46
1070
   146
1040
1.0
1070
   345
1005
16
1070
   347
1005
16
1070
   346
1005
16
1070
   344
1005
0
1070
   343
1005
0
1070
   172
1070
     1
1070
    76
1070
     0
1070
    75
1070
     0
1070
   282
1070
     0
1070
   281
1070
     0
1070
    71
1070
     0
1070
    74
1070
     0
1070
   279
1070
     0
1070
   173
1070
     1
1070
   340
1005
129
1070
   271
1070
     2
1070
   272
1070
     2
1070
    77
1070
     1
1070
    73
1070
     1
1070
   171
1070
     3
1070
   274
1070
     4
1070
   177
1070
     2
1070
   176
1070
     2
1070
   178
1070
     2
1070
    78
1070
     8
1070
    48
1040
-0.1
1070
    41
1040
3.5
1070
   147
1040
1.75
1070
    42
1040
1.5875
1070
    44
1040
2.0
1070
   140
1040
3.5
1002
}
1001
ACAD_DSTYLE_DIM_LINETYPE
1070
   380
1005
16
1001
ACAD_DSTYLE_DIM_EXT1_LINETYPE
1070
   381
1005
16
1001
ACAD_DSTYLE_DIM_EXT2_LINETYPE
1070
   382
1005
16
0
ENDSEC
0
SECTION
2
OBJECTS
0
DICTIONARY
5
1d4
330
0
100
AcDbDictionary
280
0
281
1
3
ACAD_GROUP
350
1d5
3
ACAD_MLINESTYLE
350
1d6
0
DICTIONARY
5
1d5
330
0
100
AcDbDictionary
280
0
281
1
0
DICTIONARY
5
1d6
330
0
100
AcDbDictionary
280
0
281
1
3
Standard
350
18
0
MLINESTYLE
5
18
330
1d6
100
AcDbMlineStyle
2
Standard
70
0
3

62
256
51
90
52
90
71
2
49
-0.5
62
256
6
ByLayer
49
0.5
62
256
6
ByLayer
0
RASTERVARIABLES
5
1c2
330

100
AcDbRasterVariables
90
0
70
1
71
1
72
1
0
ENDSEC
0
EOF
