0
SECTION
2
HEADER
9
$ACADVER
1
AC1015
9
$DWGCODEPAGE
3
ANSI_1252
9
$HANDSEED
5
1df
9
$ANGBASE
50
0
9
$ANGDIR
70
0
9
$ATTMODE
70
1
9
$AUNITS
70
0
9
$AUPREC
70
0
9
$CECOLOR
62
256
9
$CELTSCALE
40
1
9
$CELTYPE
6
ByLayer
9
$CELWEIGHT
370
18
9
$CLAYER
8
0
9
$CMLJUST
70
0
9
$CMLSCALE
40
1
9
$CMLSTYLE
2
Standard
9
$DIMSTYLE
2
Standard
9
$TEXTSIZE
40
0.2
9
$TEXTSTYLE
7
Standard
9
$LUNITS
70
2
9
$LUPREC
70
4
9
$EXTNAMES
290
1
9
$INSUNITS
70
4
9
$LTSCALE
40
1
9
$LWDISPLAY
290
1
9
$PDMODE
70
0
9
$PDSIZE
40
0
9
$PLINEGEN
70
0
0
ENDSEC
0
SECTION
2
CLASSES
0
CLASS
1
RASTERVARIABLES
2
AcDbRasterVariables
3
ISM
90
0
280
0
281
0
0
ENDSEC
0
SECTION
2
TABLES
0
TABLE
2
VPORT
5
1d5
100
AcDbSymbolTable
0
VPORT
5
1
100
AcDbSymbolTableRecord
100
AcDbViewportTableRecord
2
*Active
70
0
10
0
20
0
11
1
21
1
12
-1
22
1
13
0
23
0
14
0.5
24
0.5
15
10
25
10
16
0
26
0
36
1
17
0
27
0
37
0
0
ENDTAB
0
TABLE
2
LTYPE
5
1d6
100
AcDbSymbolTable
0
LTYPE
5
14
100
AcDbSymbolTableRecord
100
AcDbLinetypeTableRecord
70
0
2
ByBlock
3

72
65
73
0
40
0
0
LTYPE
5
15
100
AcDbSymbolTableRecord
100
AcDbLinetypeTableRecord
70
0
2
ByLayer
3

72
65
73
0
40
0
0
LTYPE
5
16
100
AcDbSymbolTableRecord
100
AcDbLinetypeTableRecord
70
0
2
Continuous
3
Solid line
72
65
73
0
40
0
0
LTYPE
5
6E
100
AcDbSymbolTableRecord
100
AcDbLinetypeTableRecord
70
0
2
CENTER
3
____ _ ____ _ ____ _ ____
72
65
73
4
40
47.5
49
22
74
0
49
-8.5
74
0
49
8.5
74
0
49
-8.5
74
0
0
LTYPE
5
6F
100
AcDbSymbolTableRecord
100
AcDbLinetypeTableRecord
70
0
2
DASHED
3
__ __ __ __ __ __ __ __ __
72
65
73
2
40
25.72
49
12.86
74
0
49
-12.86
74
0
0
ENDTAB
0
TABLE
2
LAYER
5
1d7
100
AcDbSymbolTable
0
LAYER
5
10
100
AcDbSymbolTableRecord
100
AcDbLayerTableRecord
2
0
70
0
62
7
6
Continuous
290
1
370
-3
390
0
0
LAYER
5
71
100
AcDbSymbolTableRecord
100
AcDbLayerTableRecord
2
81
70
0
62
-3
6
Continuous
290
1
370
-3
390
0
0
LAYER
5
73
100
AcDbSymbolTableRecord
100
AcDbLayerTableRecord
2
80
70
0
62
-6
6
Continuous
290
1
370
-3
390
0
0
LAYER
5
75
100
AcDbSymbolTableRecord
100
AcDbLayerTableRecord
2
1
70
0
62
4
6
Continuous
290
1
370
-3
390
0
0
LAYER
5
79
100
AcDbSymbolTableRecord
100
AcDbLayerTableRecord
2
4
70
0
62
-2
6
CENTER
290
1
370
-3
390
0
0
LAYER
5
B7
100
AcDbSymbolTableRecord
100
AcDbLayerTableRecord
2
2
70
0
62
7
6
Continuous
290
1
370
-3
390
0
0
LAYER
5
14B
100
AcDbSymbolTableRecord
100
AcDbLayerTableRecord
2
Defpoints
70
0
62
7
6
Continuous
290
0
370
-3
390
0
0
LAYER
5
1c1
100
AcDbSymbolTableRecord
100
AcDbLayerTableRecord
2
SK4
70
0
62
2
6
CENTER
290
1
370
-3
390
0
0
LAYER
5
1c2
100
AcDbSymbolTableRecord
100
AcDbLayerTableRecord
2
SK1
70
0
62
4
6
Continuous
290
1
370
-3
390
0
0
LAYER
5
1c3
100
AcDbSymbolTableRecord
100
AcDbLayerTableRecord
2
SK2
70
0
62
7
6
Continuous
290
1
370
-3
390
0
0
LAYER
5
1c4
100
AcDbSymbolTableRecord
100
AcDbLayerTableRecord
2
SK6
70
0
62
5
6
Continuous
290
1
370
-3
390
0
0
ENDTAB
0
TABLE
2
STYLE
5
1d8
100
AcDbSymbolTable
0
STYLE
5
11
100
AcDbSymbolTableRecord
100
AcDbTextStyleTableRecord
2
Standard
3
txt
70
0
71
0
40
0
41
1
42
0
50
0
0
STYLE
5
127
100
AcDbSymbolTableRecord
100
AcDbTextStyleTableRecord
2
iso_b_vert
3
simplex.shx
70
0
71
0
40
0
41
1
42
0
50
0
0
STYLE
5
128
100
AcDbSymbolTableRecord
100
AcDbTextStyleTableRecord
2
DWGDirectTextStyle
3
simplex
70
0
71
0
40
0
41
1
42
0
50
0
0
ENDTAB
0
TABLE
2
DIMSTYLE
5
1d9
100
AcDbSymbolTable
100
AcDbDimStyleTable
0
DIMSTYLE
105
27
100
AcDbSymbolTableRecord
100
AcDbDimStyleTableRecord
2
Standard
70
0
3
<>
41
0.18
42
0.0625
44
0.18
140
0.18
147
0.09
73
0
74
0
77
1
271
2
275
0
278
52
280
0
340
11
0
ENDTAB
0
TABLE
2
VIEW
5
1da
100
AcDbSymbolTable
0
ENDTAB
0
TABLE
2
UCS
5
1db
100
AcDbSymbolTable
0
ENDTAB
0
TABLE
2
APPID
5
1dc
100
AcDbSymbolTable
0
APPID
5
12
100
AcDbSymbolTableRecord
100
AcDbRegAppTableRecord
2
ACAD
70
0
0
APPID
5
147
100
AcDbSymbolTableRecord
100
AcDbRegAppTableRecord
2
ACAD_DSTYLE_DIMBREAK
70
0
0
APPID
5
180
100
AcDbSymbolTableRecord
100
AcDbRegAppTableRecord
2
ACAD_DSTYLE_DIM_LINETYPE
70
0
0
APPID
5
181
100
AcDbSymbolTableRecord
100
AcDbRegAppTableRecord
2
ACAD_DSTYLE_DIM_EXT1_LINETYPE
70
0
0
APPID
5
182
100
AcDbSymbolTableRecord
100
AcDbRegAppTableRecord
2
ACAD_DSTYLE_DIM_EXT2_LINETYPE
70
0
0
APPID
5
1BD
100
AcDbSymbolTableRecord
100
AcDbRegAppTableRecord
2
ACAD_MLEADERVER
70
0
0
ENDTAB
0
TABLE
2
BLOCK_RECORD
5
1dd
100
AcDbSymbolTable
0
BLOCK_RECORD
5
1F
100
AcDbSymbolTableRecord
100
AcDbBlockTableRecord
2
*Model_Space
340
0
70
0
0
BLOCK_RECORD
5
1B
100
AcDbSymbolTableRecord
100
AcDbBlockTableRecord
2
*Paper_Space
340
0
70
0
0
BLOCK_RECORD
5
23
100
AcDbSymbolTableRecord
100
AcDbBlockTableRecord
2
*Paper_Space0
340
0
70
0
0
BLOCK_RECORD
5
14C
100
AcDbSymbolTableRecord
100
AcDbBlockTableRecord
2
*D1
340
0
70
0
0
BLOCK_RECORD
5
159
100
AcDbSymbolTableRecord
100
AcDbBlockTableRecord
2
_U0
340
0
70
0
0
ENDTAB
0
ENDSEC
0
SECTION
2
BLOCKS
0
BLOCK
5
20
100
AcDbEntity
8
0
100
AcDbBlockBegin
2
*Model_Space
70
0
10
0
20
0
30
0
3
*Model_Space
0
ENDBLK
5
21
100
AcDbEntity
8
0
100
AcDbBlockEnd
0
BLOCK
5
1C
100
AcDbEntity
8
0
100
AcDbBlockBegin
2
*Paper_Space
70
0
10
0
20
0
30
0
3
*Paper_Space
0
ENDBLK
5
1D
100
AcDbEntity
8
0
100
AcDbBlockEnd
0
BLOCK
5
24
100
AcDbEntity
8
0
100
AcDbBlockBegin
2
*Paper_Space0
70
0
10
0
20
0
30
0
3
*Paper_Space0
0
ENDBLK
5
25
100
AcDbEntity
8
0
100
AcDbBlockEnd
0
BLOCK
5
14D
100
AcDbEntity
8
0
100
AcDbBlockBegin
2
*D1
70
1
10
0
20
0
30
0
3
*D1
0
LINE
5
14F
100
AcDbEntity
8
0
62
256
6
ByLayer
370
-2
48
1
60
0
100
AcDbLine
10
9.600397
20
-2.0876
30
0
11
9.600397
21
-19.1
31
0
39
0
210
0
220
0
230
1
0
LINE
5
150
100
AcDbEntity
8
0
62
256
6
ByLayer
370
-2
48
1
60
0
100
AcDbLine
10
7.600397
20
-2.0876
30
0
11
7.600397
21
-19.1
31
0
39
0
210
0
220
0
230
1
0
LINE
5
151
100
AcDbEntity
8
0
62
256
6
ByLayer
370
-2
48
1
60
0
100
AcDbLine
10
13.100397
20
-17.1
30
0
11
16.600397
21
-17.1
31
0
39
0
210
0
220
0
230
1
0
LINE
5
152
100
AcDbEntity
8
0
62
256
6
ByLayer
370
-2
48
1
60
0
100
AcDbLine
10
4.100397
20
-17.1
30
0
11
0.600397
21
-17.1
31
0
39
0
210
0
220
0
230
1
0
SOLID
5
153
100
AcDbEntity
8
0
62
256
6
ByLayer
370
-1
48
1
60
0
100
AcDbTrace
10
13.100397
20
-16.516667
30
0
11
13.100397
21
-17.683333
31
0
12
9.600397
22
-17.1
32
0
13
9.600397
23
-17.1
33
0
39
0
210
0
220
0
230
1
0
SOLID
5
154
100
AcDbEntity
8
0
62
256
6
ByLayer
370
-1
48
1
60
0
100
AcDbTrace
10
4.100397
20
-17.683333
30
0
11
4.100397
21
-16.516667
31
0
12
7.600397
22
-17.1
32
0
13
7.600397
23
-17.1
33
0
39
0
210
0
220
0
230
1
0
MTEXT
5
155
100
AcDbEntity
8
0
62
256
6
ByLayer
370
18
48
1
60
0
100
AcDbMText
10
8.600397
20
-10.1
30
0
210
0
220
0
230
1
1
\A1;2
40
3.5
41
0
44
1
50
0
71
5
72
5
7
iso_b_vert
0
POINT
5
156
100
AcDbEntity
8
Defpoints
62
0
6
ByLayer
370
-1
48
1
60
0
100
AcDbPoint
10
9.600397
20
-0.5001
30
0
39
0
210
0
220
0
230
1
50
360
0
POINT
5
157
100
AcDbEntity
8
Defpoints
62
0
6
ByLayer
370
-1
48
1
60
0
100
AcDbPoint
10
7.600397
20
-0.5001
30
0
39
0
210
0
220
0
230
1
50
360
0
POINT
5
158
100
AcDbEntity
8
Defpoints
62
0
6
ByLayer
370
-1
48
1
60
0
100
AcDbPoint
10
7.600397
20
-17.1
30
0
39
0
210
0
220
0
230
1
50
360
0
ENDBLK
5
14E
100
AcDbEntity
8
0
100
AcDbBlockEnd
0
BLOCK
5
160
100
AcDbEntity
8
0
100
AcDbBlockBegin
2
_U0
70
0
10
0
20
0
30
0
3
_U0
0
MTEXT
5
15A
100
AcDbEntity
8
SK2
62
256
6
ByLayer
370
18
48
1
60
0
100
AcDbMText
10
8.003164
20
-16.067366
30
0
210
0
220
0
230
1
1
\W0.5404;2
40
3.5
41
0
44
1.084337
50
0
71
7
72
5
7
iso_b_vert
0
LINE
5
15B
100
AcDbEntity
8
SK2
62
256
6
ByLayer
370
13
48
1
60
0
100
AcDbLine
10
9.600397
20
-2.0876
30
0
11
9.600397
21
-19.1
31
0
39
0
210
0
220
0
230
1
0
LINE
5
15C
100
AcDbEntity
8
SK2
62
256
6
ByLayer
370
13
48
1
60
0
100
AcDbLine
10
7.600397
20
-2.0876
30
0
11
7.600397
21
-19.1
31
0
39
0
210
0
220
0
230
1
0
LINE
5
15D
100
AcDbEntity
8
SK2
62
256
6
ByLayer
370
13
48
1
60
0
100
AcDbLine
10
18.350397
20
-17.1
30
0
11
-1.149603
21
-17.1
31
0
39
0
210
0
220
0
230
1
0
SOLID
5
15E
100
AcDbEntity
8
SK2
62
256
6
ByLayer
370
18
48
1
60
0
100
AcDbTrace
10
9.600397
20
-17.1
30
0
11
13.100396
21
-16.639216
31
0
12
13.100399
22
-17.560784
32
0
13
13.100399
23
-17.560784
33
0
39
0
210
0
220
0
230
1
0
SOLID
5
15F
100
AcDbEntity
8
SK2
62
256
6
ByLayer
370
18
48
1
60
0
100
AcDbTrace
10
7.600397
20
-17.1
30
0
11
4.100399
21
-17.560784
31
0
12
4.100396
22
-16.639216
32
0
13
4.100396
23
-16.639216
33
0
39
0
210
0
220
0
230
1
0
ENDBLK
5
161
100
AcDbEntity
8
0
100
AcDbBlockEnd
0
ENDSEC
0
SECTION
2
ENTITIES
0
ARC
5
C9
100
AcDbEntity
8
1
62
256
6
ByLayer
370
18
48
1
60
0
100
AcDbCircle
39
0
10
4.598076
20
1.5
30
0
40
1
210
0
220
0
230
1
100
AcDbArc
50
240
51
270
0
ARC
5
CA
100
AcDbEntity
8
1
62
256
6
ByLayer
370
18
48
1
60
0
100
AcDbCircle
39
0
10
4.598076
20
-1.5
30
0
40
1
210
0
220
0
230
1
100
AcDbArc
50
90
51
120
0
ELLIPSE
5
CB
100
AcDbEntity
8
1
62
256
6
ByLayer
370
18
48
1
60
0
100
AcDbEllipse
10
8.047833
20
0
30
0
11
0.89279914972274
21
-0.487416091901299
31
0
210
0
220
0
230
1
40
0.124854
41
2.26608675773818
42
2.72006242174623
0
ELLIPSE
5
CC
100
AcDbEntity
8
1
62
256
6
ByLayer
370
18
48
1
60
0
100
AcDbEllipse
10
8.047833
20
0
30
0
11
0.890810963344648
21
0.160129615184007
31
0
210
0
220
0
230
1
40
0.531723
41
-2.74729603350778
42
-2.29332036953672
0
POINT
5
70
100
AcDbEntity
8
81
62
256
6
ByLayer
370
18
48
1
60
0
100
AcDbPoint
10
9.600397
20
0
30
0
39
0
210
0
220
0
230
1
50
360
0
POINT
5
72
100
AcDbEntity
8
80
62
256
6
ByLayer
370
18
48
1
60
0
100
AcDbPoint
10
0
20
0
30
0
39
0
210
0
220
0
230
1
50
360
0
POINT
5
74
100
AcDbEntity
8
1
62
256
6
ByLayer
370
18
48
1
60
1
100
AcDbPoint
10
9.600397
20
-0.5001
30
0
39
0
210
0
220
0
230
1
50
360
0
POINT
5
76
100
AcDbEntity
8
1
62
256
6
ByLayer
370
18
48
1
60
1
100
AcDbPoint
10
7.600397
20
-0.5001
30
0
39
0
210
0
220
0
230
1
50
360
0
SPLINE
5
CD
100
AcDbEntity
8
1
62
256
6
ByLayer
370
18
48
1
60
0
100
AcDbSpline
70
4
71
3
72
8
73
4
40
0
40
0
40
0
40
0
40
1
40
1
40
1
40
1
41
1
10
9.59861770835889
20
0.499998476040389
30
0
41
1
10
9.5978340767906
20
0.488503898141232
30
0
41
1
10
9.59705749910336
20
0.476998042890187
30
0
41
1
10
9.59628783115861
20
0.465481774183189
30
0
0
SPLINE
5
CE
100
AcDbEntity
8
1
62
256
6
ByLayer
370
18
48
1
60
0
100
AcDbSpline
70
4
71
3
72
14
73
10
40
0
40
0
40
0
40
0
40
0.25
40
0.25
40
0.5
40
0.5
40
0.75
40
0.75
40
1
40
1
40
1
40
1
41
1
10
9.59628782498481
20
0.465481776490094
30
0
41
1
10
9.5955185995941
20
0.453971311362039
30
0
41
1
10
9.59494188815901
20
0.442433896761912
30
0
41
1
10
9.59415239509639
20
0.419308120066376
30
0
41
1
10
9.59393962778574
20
0.407674392922757
30
0
41
1
10
9.59389407522434
20
0.384543778849718
30
0
41
1
10
9.59406033732887
20
0.373378197416656
30
0
41
1
10
9.59474200723446
20
0.35178531039881
30
0
41
1
10
9.5952653966992
20
0.341276012335442
30
0
41
1
10
9.59593974305693
20
0.331465241256041
30
0
0
SPLINE
5
CF
100
AcDbEntity
8
1
62
256
6
ByLayer
370
18
48
1
60
0
100
AcDbSpline
70
4
71
3
72
9
73
5
40
0
40
0
40
0
40
0
40
0.562188642393686
40
1
40
1
40
1
40
1
41
1
10
9.5962878229553
20
0.46548177668754
30
0
41
1
10
9.51432431170105
20
0.464283977226671
30
0
41
1
10
9.36853070245041
20
0.440724839116115
30
0
41
1
10
9.22273709319978
20
0.384849014980091
30
0
41
1
10
9.15890699520344
20
0.355007548731635
30
0
0
SPLINE
5
D0
100
AcDbEntity
8
1
62
256
6
ByLayer
370
18
48
1
60
0
100
AcDbSpline
70
4
71
3
72
18
73
14
40
0
40
0
40
0
40
0
40
0.125
40
0.125
40
0.25
40
0.25
40
0.375
40
0.375
40
0.5
40
0.5
40
0.75
40
0.75
40
1
40
1
40
1
40
1
41
1
10
9.59593974305693
20
0.331465241256041
30
0
41
1
10
9.58806115747916
20
0.32573249135686
30
0
41
1
10
9.57974154383911
20
0.320856076945517
30
0
41
1
10
9.56252361979551
20
0.312226892211783
30
0
41
1
10
9.55362144053157
20
0.308481633979198
30
0
41
1
10
9.53539393813693
20
0.301812727612372
30
0
41
1
10
9.5261406797853
20
0.298919499517524
30
0
41
1
10
9.50759114875856
20
0.293819628217534
30
0
41
1
10
9.49826454769402
20
0.291604468974242
30
0
41
1
10
9.47016528751305
20
0.285730496116884
30
0
41
1
10
9.45127519210064
20
0.282830136885224
30
0
41
1
10
9.41327777782593
20
0.278432341395842
30
0
41
1
10
9.39416892447741
20
0.276944815510831
30
0
41
1
10
9.37497010668218
20
0.276038318926482
30
0
0
SPLINE
5
D1
100
AcDbEntity
8
1
62
256
6
ByLayer
370
18
48
1
60
0
100
AcDbSpline
70
4
71
3
72
11
73
7
40
0
40
0
40
0
40
0
40
0.0308773357760627
40
0.589732773368102
40
0.869160492164122
40
1
40
1
40
1
40
1
41
1
10
7.60039727986268
20
-0.499887247910209
30
0
41
1
10
7.60191627392686
20
-0.499939052569033
30
0
41
1
10
7.63092705182513
20
-0.500848567656675
30
0
41
1
10
7.67366140227
20
-0.499939376370548
30
0
41
1
10
7.72127953481655
20
-0.495302692251982
30
0
41
1
10
7.7414331913254
20
-0.492608486560528
30
0
41
1
10
7.74786001591679
20
-0.491674587792602
30
0
0
SPLINE
5
D2
100
AcDbEntity
8
1
62
256
6
ByLayer
370
18
48
1
60
0
100
AcDbSpline
70
4
71
3
72
9
73
5
40
0
40
0
40
0
40
0
40
0.442448928944558
40
1
40
1
40
1
40
1
41
1
10
8.04878670673372
20
-0.423496122876571
30
0
41
1
10
7.98265690088667
20
-0.439606578530402
30
0
41
1
10
7.8331937617063
20
-0.459931929077186
30
0
41
1
10
7.68373062252593
20
-0.44248617620309
30
0
41
1
10
7.60039728919259
20
-0.421977919372296
30
0
0
SPLINE
5
D3
100
AcDbEntity
8
1
62
256
6
ByLayer
370
18
48
1
60
0
100
AcDbSpline
70
4
71
3
72
8
73
4
40
0
40
0
40
0
40
0
40
1
40
1
40
1
40
1
41
1
10
8.01989205257109
20
-0.42520874548859
30
0
41
1
10
7.97189065535684
20
-0.43377158487084
30
0
41
1
10
7.92388925814259
20
-0.438610961300583
30
0
41
1
10
7.87588786092837
20
-0.439656803658437
30
0
0
SPLINE
5
D4
100
AcDbEntity
8
1
62
256
6
ByLayer
370
13
48
1
60
0
100
AcDbSpline
70
4
71
3
72
9
73
5
40
0
40
0
40
0
40
0
40
0.0925312210317481
40
1
40
1
40
1
40
1
41
1
10
7.87588886068673
20
-0.439656781875357
30
0
41
1
10
7.86739167018862
20
-0.439841925846991
30
0
41
1
10
7.77556114635724
20
-0.440558116215414
30
0
41
1
10
7.68373062252579
20
-0.427345047271331
30
0
41
1
10
7.60039728919244
20
-0.404906220229805
30
0
0
SPLINE
5
D5
100
AcDbEntity
8
1
62
256
6
ByLayer
370
18
48
1
60
0
100
AcDbSpline
70
4
71
3
72
10
73
6
40
0
40
0
40
0
40
0
40
0.5
40
0.5
40
1
40
1
40
1
40
1
41
1
10
9.30747444869351
20
-0.151025906468476
30
0
41
1
10
9.31242078078196
20
-0.147721023268275
30
0
41
1
10
9.31764734036463
20
-0.144771922482391
30
0
41
1
10
9.32859339304827
20
-0.140064587806791
30
0
41
1
10
9.33430560030581
20
-0.13831270824906
30
0
41
1
10
9.34016223256617
20
-0.137261268811471
30
0
0
SPLINE
5
D6
100
AcDbEntity
8
1
62
256
6
ByLayer
370
13
48
1
60
0
100
AcDbSpline
70
4
71
3
72
10
73
6
40
0
40
0
40
0
40
0
40
0.209898319774954
40
0.604949159887477
40
1
40
1
40
1
40
1
41
1
10
8.23322723059638
20
-0.233905209367151
30
0
41
1
10
8.18895058346172
20
-0.223178093537825
30
0
41
1
10
8.06134060299379
20
-0.1874937433887
30
0
41
1
10
7.85039728919247
20
-0.108534729436286
30
0
41
1
10
7.68373062252582
20
-0.0352576068203518
30
0
41
1
10
7.60039728919247
20
0.0012760093079294
30
0
0
SPLINE
5
D7
100
AcDbEntity
8
1
62
256
6
ByLayer
370
18
48
1
60
0
100
AcDbSpline
70
4
71
3
72
10
73
6
40
0
40
0
40
0
40
0
40
0.284150449091338
40
0.642075224545669
40
1
40
1
40
1
40
1
41
1
10
8.29886807731452
20
-0.392479894836867
30
0
41
1
10
8.2327111479405
20
-0.409015342797318
30
0
41
1
10
8.08322088523315
20
-0.432701223539198
30
0
41
1
10
7.85039728919247
20
-0.415112817510845
30
0
41
1
10
7.68373062252582
20
-0.360301700191286
30
0
41
1
10
7.60039728919247
20
-0.321534736238903
30
0
0
SPLINE
5
D8
100
AcDbEntity
8
1
62
256
6
ByLayer
370
18
48
1
60
0
100
AcDbSpline
70
4
71
3
72
8
73
4
40
0
40
0
40
0
40
0
40
1
40
1
40
1
40
1
41
1
10
7.52262740952364
20
0.397837065670444
30
0
41
1
10
7.52956192122511
20
0.393832723964607
30
0
41
1
10
7.53649879717653
20
0.389833005907207
30
0
41
1
10
7.54343802419976
20
0.385837885726346
30
0
0
SPLINE
5
D9
100
AcDbEntity
8
1
62
256
6
ByLayer
370
18
48
1
60
0
100
AcDbSpline
70
4
71
3
72
8
73
4
40
0
40
0
40
0
40
0
40
1
40
1
40
1
40
1
41
1
10
7.52262740952364
20
-0.461205116335123
30
0
41
1
10
7.52956189658946
20
-0.459325256793335
30
0
41
1
10
7.53649877256944
20
-0.457464942947752
30
0
41
1
10
7.54343802419851
20
-0.455624066265756
30
0
0
SPLINE
5
DA
100
AcDbEntity
8
1
62
256
6
ByLayer
370
18
48
1
60
0
100
AcDbSpline
70
4
71
3
72
8
73
4
40
0
40
0
40
0
40
0
40
1
40
1
40
1
40
1
41
1
10
7.60039728919253
20
-0.468584345222041
30
0
41
1
10
7.58126512316488
20
-0.464747158429276
30
0
41
1
10
7.56227093212627
20
-0.460453022626297
30
0
41
1
10
7.54343824094829
20
-0.455624027556553
30
0
0
SPLINE
5
DB
100
AcDbEntity
8
1
62
256
6
ByLayer
370
18
48
1
60
0
100
AcDbSpline
70
4
71
3
72
10
73
6
40
0
40
0
40
0
40
0
40
0.317113807202224
40
0.317113807202224
40
1
40
1
40
1
40
1
41
1
10
9.36490046433701
20
0.297434529744919
30
0
41
1
10
9.38285013523722
20
0.293460012775682
30
0
41
1
10
9.40093237943677
20
0.288571646231219
30
0
41
1
10
9.45745153925819
20
0.270724372900531
30
0
41
1
10
9.49567132889135
20
0.254944308998915
30
0
41
1
10
9.53352251828093
20
0.235645945275707
30
0
0
SPLINE
5
DC
100
AcDbEntity
8
1
62
256
6
ByLayer
370
18
48
1
60
0
100
AcDbSpline
70
4
71
3
72
15
73
11
40
0
40
0
40
0
40
0
40
0.125
40
0.125
40
0.25
40
0.25
40
0.5
40
0.75
40
0.75
40
1
40
1
40
1
40
1
41
1
10
9.53361552651825
20
-0.348113940633596
30
0
41
1
10
9.53371506913061
20
-0.35261391755958
30
0
41
1
10
9.53385484908051
20
-0.356921050152124
30
0
41
1
10
9.53421628520454
20
-0.365142909506602
30
0
41
1
10
9.53443896440811
20
-0.369070918917657
30
0
41
1
10
9.53522562252726
20
-0.380143621027514
30
0
41
1
10
9.53658260719067
20
-0.392971710068025
30
0
41
1
10
9.53853161603172
20
-0.402080732963015
30
0
41
1
10
9.54077955224764
20
-0.409311909104787
30
0
41
1
10
9.54205562872849
20
-0.411978654892522
30
0
41
1
10
9.54346001159738
20
-0.413639676325261
30
0
0
SPLINE
5
DD
100
AcDbEntity
8
1
62
256
6
ByLayer
370
18
48
1
60
0
100
AcDbSpline
70
4
71
3
72
12
73
8
40
0
40
0
40
0
40
0
40
0.25
40
0.25
40
0.5
40
0.5
40
1
40
1
40
1
40
1
41
1
10
9.28975363621882
20
-0.239112433493403
30
0
41
1
10
9.3099206843641
20
-0.252030652115849
30
0
41
1
10
9.33036731216922
20
-0.263992673809781
30
0
41
1
10
9.37155119062894
20
-0.286065360860107
30
0
41
1
10
9.39203549864243
20
-0.296044314514347
30
0
41
1
10
9.45320002715269
20
-0.323147922053067
30
0
41
1
10
9.49359710125458
20
-0.337490891031109
30
0
41
1
10
9.533615526517
20
-0.348113940633539
30
0
0
SPLINE
5
DE
100
AcDbEntity
8
1
62
256
6
ByLayer
370
18
48
1
60
0
100
AcDbSpline
70
4
71
3
72
24
73
20
40
0
40
0
40
0
40
0
40
0.125000000000013
40
0.125000000000013
40
0.250000000000026
40
0.250000000000026
40
0.312500000000032
40
0.312500000000032
40
0.375000000000038
40
0.375000000000038
40
0.437500000000044
40
0.437500000000044
40
0.50000000000005
40
0.50000000000005
40
0.625000000000007
40
0.625000000000007
40
0.749999999999964
40
0.749999999999964
40
1
40
1
40
1
40
1
41
1
10
9.28975363622288
20
-0.239112433493659
30
0
41
1
10
9.28607390289483
20
-0.23675534091069
30
0
41
1
10
9.2827302538023
20
-0.234024354209083
30
0
41
1
10
9.27691702395182
20
-0.227562457781062
30
0
41
1
10
9.2745306185968
20
-0.223893934306687
30
0
41
1
10
9.27204676346994
20
-0.217813875649256
30
0
41
1
10
9.27139140638596
20
-0.215653225883301
30
0
41
1
10
9.27051345164227
20
-0.211272915432033
30
0
41
1
10
9.2702823008955
20
-0.209047108250417
30
0
41
1
10
9.27022037486663
20
-0.204526387108416
30
0
41
1
10
9.27039473347708
20
-0.202210227679331
30
0
41
1
10
9.27111341407868
20
-0.197656432441192
30
0
41
1
10
9.2716535380701
20
-0.195410328983172
30
0
41
1
10
9.27375101356532
20
-0.18875374116152
30
0
41
1
10
9.27577111774474
20
-0.184486888203367
30
0
41
1
10
9.28057564495478
20
-0.176509997381913
30
0
41
1
10
9.28341477485603
20
-0.172712225782192
30
0
41
1
10
9.29264122881696
20
-0.162180408236907
30
0
41
1
10
9.29971212304372
20
-0.156212290045886
30
0
41
1
10
9.30747444869351
20
-0.151025906468476
30
0
0
SPLINE
5
DF
100
AcDbEntity
8
1
62
256
6
ByLayer
370
13
48
1
60
0
100
AcDbSpline
70
4
71
3
72
12
73
8
40
0
40
0
40
0
40
0
40
0.187896883335651
40
0.414740930004537
40
0.641584976673423
40
0.868429023342309
40
1
40
1
40
1
40
1
41
1
10
9.30747444869351
20
-0.151025906468476
30
0
41
1
10
9.23844872885982
20
-0.125391331762103
30
0
41
1
10
9.08608967569282
20
-0.063274072483182
30
0
41
1
10
8.85039728919247
20
0.0426267794803152
30
0
41
1
10
8.60039728919247
20
0.147241337397247
30
0
41
1
10
8.38539676401896
20
0.219451801181748
30
0
41
1
10
8.25372957217883
20
0.24867787633849
30
0
41
1
10
8.205395713672
20
0.257218451387786
30
0
0
SPLINE
5
E0
100
AcDbEntity
8
1
62
256
6
ByLayer
370
18
48
1
60
0
100
AcDbSpline
70
4
71
3
72
10
73
6
40
0
40
0
40
0
40
0
40
0.279973602257895
40
0.642515886421843
40
1
40
1
40
1
40
1
41
1
10
9.54346001214046
20
0.121730998787399
30
0
41
1
10
9.47910577115781
20
0.1632535027328
30
0
41
1
10
9.33141819684181
20
0.251646123420613
30
0
41
1
10
9.10155995140846
20
0.360387463100381
30
0
41
1
10
8.93605594695774
20
0.403977257177786
30
0
41
1
10
8.85388527584036
20
0.415289637967078
30
0
0
SPLINE
5
E1
100
AcDbEntity
8
1
62
256
6
ByLayer
370
18
48
1
60
0
100
AcDbSpline
70
4
71
3
72
14
73
10
40
0
40
0
40
0
40
0
40
0.25
40
0.25
40
0.5
40
0.5
40
0.75
40
0.75
40
1
40
1
40
1
40
1
41
1
10
9.54346001200398
20
-0.413639676084983
30
0
41
1
10
9.54486967149035
20
-0.412993425591082
30
0
41
1
10
9.54636295022365
20
-0.411542879969033
30
0
41
1
10
9.54951216077808
20
-0.407077317478951
30
0
41
1
10
9.55116775650797
20
-0.404056756229238
30
0
41
1
10
9.55459388136069
20
-0.396552298488246
30
0
41
1
10
9.55637625969243
20
-0.392042032264271
30
0
41
1
10
9.56002710289863
20
-0.38165317780431
30
0
41
1
10
9.56189634223173
20
-0.375777730699554
30
0
41
1
10
9.56380928621056
20
-0.36922302133442
30
0
0
SPLINE
5
E2
100
AcDbEntity
8
1
62
256
6
ByLayer
370
18
48
1
60
0
100
AcDbSpline
70
4
71
3
72
15
73
11
40
0
40
0
40
0
40
0
40
0.0993600055561115
40
0.228022861905238
40
0.356685718254365
40
0.485348574603492
40
0.614011430952619
40
0.742674287301746
40
0.871337143650873
40
1
40
1
40
1
40
1
41
1
10
9.54346001214046
20
-0.413639676166326
30
0
41
1
10
9.47910577115781
20
-0.424073974864257
30
0
41
1
10
9.33141819684181
20
-0.431773649679457
30
0
41
1
10
9.10039728919247
20
-0.390004861098646
30
0
41
1
10
8.85039728919247
20
-0.285729850589661
30
0
41
1
10
8.60039728919247
20
-0.142313556296557
30
0
41
1
10
8.35039728919247
20
0.0230867235133587
30
0
41
1
10
8.10039728919244
20
0.189251483661138
30
0
41
1
10
7.85039728919247
20
0.325334139099596
30
0
41
1
10
7.68373062252582
20
0.382858921707111
30
0
41
1
10
7.60039728919247
20
0.400965838527554
30
0
0
SPLINE
5
E3
100
AcDbEntity
8
1
62
256
6
ByLayer
370
13
48
1
60
0
100
AcDbSpline
70
4
71
3
72
9
73
5
40
0
40
0
40
0
40
0
40
0.498490850295179
40
1
40
1
40
1
40
1
41
1
10
9.56380928791117
20
-0.0222962168401182
30
0
41
1
10
9.49267195500494
20
0.0285623122814513
30
0
41
1
10
9.34996656158773
20
0.125119667482437
30
0
41
1
10
9.20726116817056
20
0.212694777476145
30
0
41
1
10
9.13569310765962
20
0.252558020857663
30
0
0
SPLINE
5
E4
100
AcDbEntity
8
1
62
256
6
ByLayer
370
18
48
1
60
0
100
AcDbSpline
70
4
71
3
72
9
73
5
40
0
40
0
40
0
40
0
40
0.680385928941547
40
1
40
1
40
1
40
1
41
1
10
9.13569369906077
20
0.252557691448516
30
0
41
1
10
9.12392822910468
20
0.259111034545043
30
0
41
1
10
9.10663588154773
20
0.268581708583497
30
0
41
1
10
9.08934353399081
20
0.277798312957202
30
0
41
1
10
9.08381665638998
20
0.280716746883172
30
0
0
SPLINE
5
E5
100
AcDbEntity
8
1
62
256
6
ByLayer
370
18
48
1
60
0
100
AcDbSpline
70
4
71
3
72
14
73
10
40
0
40
0
40
0
40
0
40
0.25
40
0.25
40
0.5
40
0.5
40
0.75
40
0.75
40
1
40
1
40
1
40
1
41
1
10
9.56380928741788
20
-0.369223021341924
30
0
41
1
10
9.564128552315
20
-0.368129247542782
30
0
41
1
10
9.56443382018668
20
-0.367221390590231
30
0
41
1
10
9.56501628605744
20
-0.365778581754654
30
0
41
1
10
9.56529670508672
20
-0.365240151279608
30
0
41
1
10
9.56580758577192
20
-0.364613969115482
30
0
41
1
10
9.56603742288681
20
-0.364521229203064
30
0
41
1
10
9.56644150985937
20
-0.364814154572997
30
0
41
1
10
9.56661618166368
20
-0.36520829104262
30
0
41
1
10
9.56675004767627
20
-0.365867523228872
30
0
0
SPLINE
5
E6
100
AcDbEntity
8
1
62
256
6
ByLayer
370
13
48
1
60
0
100
AcDbSpline
70
4
71
3
72
14
73
10
40
0
40
0
40
0
40
0
40
0.0689662091284387
40
0.246901521398775
40
0.424836833669112
40
0.602772145939449
40
0.780707458209786
40
0.958642770480122
40
1
40
1
40
1
40
1
41
1
10
9.19729515652483
20
-0.439855192192823
30
0
41
1
10
9.16499586741404
20
-0.439999812273555
30
0
41
1
10
9.0493632449699
20
-0.434635707193848
30
0
41
1
10
8.85039728919244
20
-0.387706488350545
30
0
41
1
10
8.60039728919245
20
-0.268939732086977
30
0
41
1
10
8.35039728919241
20
-0.116415297552493
30
0
41
1
10
8.10039728919242
20
0.06160134612864
30
0
41
1
10
7.91436158470327
20
0.187471139097909
30
0
41
1
10
7.81165921354745
20
0.246670221257375
30
0
41
1
10
7.79229017572493
20
0.257452609973768
30
0
0
SPLINE
5
E7
100
AcDbEntity
8
1
62
256
6
ByLayer
370
18
48
1
60
0
100
AcDbSpline
70
4
71
3
72
8
73
4
40
0
40
0
40
0
40
0
40
1
40
1
40
1
40
1
41
1
10
7.79229017572186
20
0.257452609975502
30
0
41
1
10
7.76612164410324
20
0.272020152392116
30
0
41
1
10
7.73995311248462
20
0.285890060122171
30
0
41
1
10
7.71378458086599
20
0.29902221862082
30
0
0
SPLINE
5
E8
100
AcDbEntity
8
1
62
256
6
ByLayer
370
18
48
1
60
0
100
AcDbSpline
70
4
71
3
72
8
73
4
40
0
40
0
40
0
40
0
40
1
40
1
40
1
40
1
41
1
10
9.5950947074484
20
-0.165798978446276
30
0
41
1
10
9.5953410965148
20
-0.16114171327041
30
0
41
1
10
9.59562385766264
20
-0.156359523643403
30
0
41
1
10
9.59593974305693
20
-0.151499011049737
30
0
0
SPLINE
5
E9
100
AcDbEntity
8
1
62
256
6
ByLayer
370
18
48
1
60
0
100
AcDbSpline
70
4
71
3
72
10
73
6
40
0
40
0
40
0
40
0
40
0.427413032692509
40
0.854826065385018
40
1
40
1
40
1
40
1
41
1
10
7.60039728919247
20
0.0275430514214179
30
0
41
1
10
7.68373062252582
20
-0.0079713130162133
30
0
41
1
10
7.85039728919247
20
-0.080482435938734
30
0
41
1
10
8.04536872655919
20
-0.156312774578993
30
0
41
1
10
8.15700683059256
20
-0.19150639268895
30
0
41
1
10
8.18531160129265
20
-0.199840281883184
30
0
0
SPLINE
5
EA
100
AcDbEntity
8
1
62
256
6
ByLayer
370
18
48
1
60
0
100
AcDbSpline
70
4
71
3
72
12
73
8
40
0
40
0
40
0
40
0
40
0.100275141622115
40
0.32753234657805
40
0.554789551533985
40
0.782046756489921
40
1
40
1
40
1
40
1
41
1
10
8.24008709942134
20
0.255908841454385
30
0
41
1
10
8.27685716267842
20
0.250137969155702
30
0
41
1
10
8.39696055926876
20
0.227147520698509
30
0
41
1
10
8.60039728919247
20
0.166479935972177
30
0
41
1
10
8.85039728919247
20
0.0679981684742472
30
0
41
1
10
9.09698560365035
20
-0.0406005565119756
30
0
41
1
10
9.26024058477492
20
-0.107508800037437
30
0
41
1
10
9.34016223256617
20
-0.137261268811471
30
0
0
SPLINE
5
EB
100
AcDbEntity
8
1
62
256
6
ByLayer
370
18
48
1
60
0
100
AcDbSpline
70
4
71
3
72
8
73
4
40
0
40
0
40
0
40
0
40
1
40
1
40
1
40
1
41
1
10
9.34016223256617
20
-0.137261268811471
30
0
41
1
10
9.34786518082106
20
-0.13587830809459
30
0
41
1
10
9.35562796267951
20
-0.135610649879624
30
0
41
1
10
9.3634603293919
20
-0.136332139018549
30
0
0
SPLINE
5
EC
100
AcDbEntity
8
1
62
256
6
ByLayer
370
18
48
1
60
0
100
AcDbSpline
70
4
71
3
72
10
73
6
40
0
40
0
40
0
40
0
40
0.407562932356342
40
0.407562932356342
40
1
40
1
40
1
40
1
41
1
10
9.46479326295884
20
-0.148478475723636
30
0
41
1
10
9.45117249693266
20
-0.146401479753649
30
0
41
1
10
9.43748083880917
20
-0.144532108511498
30
0
41
1
10
9.40375333225734
20
-0.140336488385458
30
0
41
1
10
9.3836552780451
20
-0.138192424250803
30
0
41
1
10
9.36346032939281
20
-0.136332139020425
30
0
0
SPLINE
5
ED
100
AcDbEntity
8
1
62
256
6
ByLayer
370
18
48
1
60
0
100
AcDbSpline
70
4
71
3
72
14
73
10
40
0
40
0
40
0
40
0
40
0.25
40
0.25
40
0.5
40
0.5
40
0.75
40
0.75
40
1
40
1
40
1
40
1
41
1
10
9.59628782498481
20
-0.224888470962611
30
0
41
1
10
9.59551859959413
20
-0.216958719079315
30
0
41
1
10
9.59494188815904
20
-0.210080458339093
30
0
41
1
10
9.59415239509639
20
-0.19831178874324
30
0
41
1
10
9.59393962778574
20
-0.193406874059889
30
0
41
1
10
9.59389407522431
20
-0.185733501512743
30
0
41
1
10
9.59406033732884
20
-0.183066112010294
30
0
41
1
10
9.59474200723443
20
-0.17989097341399
30
0
41
1
10
9.59526539669918
20
-0.179400867968894
30
0
41
1
10
9.59593974305693
20
-0.179966230206418
30
0
0
SPLINE
5
EE
100
AcDbEntity
8
1
62
256
6
ByLayer
370
18
48
1
60
0
100
AcDbSpline
70
4
71
3
72
14
73
10
40
0
40
0
40
0
40
0
40
0.25
40
0.25
40
0.5
40
0.5
40
0.75
40
0.75
40
1
40
1
40
1
40
1
41
1
10
9.53352251828079
20
0.235645945275763
30
0
41
1
10
9.53366923578233
20
0.229870014492093
30
0
41
1
10
9.53399073267281
20
0.223072589244197
30
0
41
1
10
9.53499793685415
20
0.20734911871989
30
0
41
1
10
9.53567200909947
20
0.198606177974312
30
0
41
1
10
9.53734365486409
20
0.179462081900056
30
0
41
1
10
9.53834151929271
20
0.169057018272696
30
0
41
1
10
9.54066348386061
20
0.146569793759681
30
0
41
1
10
9.54199147946372
20
0.134460277682507
30
0
41
1
10
9.54346001159735
20
0.121730998714924
30
0
0
SPLINE
5
EF
100
AcDbEntity
8
1
62
256
6
ByLayer
370
18
48
1
60
0
100
AcDbSpline
70
4
71
3
72
14
73
10
40
0
40
0
40
0
40
0
40
0.25
40
0.25
40
0.5
40
0.5
40
0.75
40
0.75
40
1
40
1
40
1
40
1
41
1
10
9.54346001200398
20
0.121730998582848
30
0
41
1
10
9.54486967149037
20
0.110605229080505
30
0
41
1
10
9.54636295022371
20
0.0991814274620424
30
0
41
1
10
9.54951216077814
20
0.0757541084789182
30
0
41
1
10
9.55116775650797
20
0.0637559333528657
30
0
41
1
10
9.55459388136069
20
0.0395190378419272
30
0
41
1
10
9.55637625969243
20
0.0271966908766217
30
0
41
1
10
9.56002710289863
20
0.0025004787237322
30
0
41
1
10
9.56189634223173
20
-0.0098811509380425
30
0
41
1
10
9.56380928621053
20
-0.0222962176895578
30
0
0
SPLINE
5
F0
100
AcDbEntity
8
1
62
256
6
ByLayer
370
18
48
1
60
0
100
AcDbSpline
70
4
71
3
72
14
73
10
40
0
40
0
40
0
40
0
40
0.25
40
0.25
40
0.5
40
0.5
40
0.75
40
0.75
40
1
40
1
40
1
40
1
41
1
10
9.56380928741788
20
-0.0222962175257635
30
0
41
1
10
9.56412855231497
20
-0.0243683458526789
30
0
41
1
10
9.56443382018665
20
-0.0264148310730832
30
0
41
1
10
9.56501628605739
20
-0.0304563668764217
30
0
41
1
10
9.56529670508675
20
-0.0324759035035527
30
0
41
1
10
9.56580758577195
20
-0.0363228232576205
30
0
41
1
10
9.56603742288681
20
-0.0381427848122371
30
0
41
1
10
9.5664415098594
20
-0.041558002351735
30
0
41
1
10
9.5666161816637
20
-0.0431606828388169
30
0
41
1
10
9.56675004767629
20
-0.0445577281761871
30
0
0
SPLINE
5
F1
100
AcDbEntity
8
1
62
256
6
ByLayer
370
18
48
1
60
0
100
AcDbSpline
70
4
71
3
72
8
73
4
40
0
40
0
40
0
40
0
40
1
40
1
40
1
40
1
41
1
10
9.56675004875362
20
-0.365867521873525
30
0
41
1
10
9.56779765222629
20
-0.371044003565288
30
0
41
1
10
9.56885843053411
20
-0.376134636327237
30
0
41
1
10
9.56993293199127
20
-0.381135859145502
30
0
0
SPLINE
5
F2
100
AcDbEntity
8
1
62
256
6
ByLayer
370
18
48
1
60
0
100
AcDbSpline
70
4
71
3
72
14
73
10
40
0
40
0
40
0
40
0
40
0.0760111591167049
40
0.231342791700075
40
0.386674424283445
40
0.542006056866815
40
0.697337689450185
40
0.852669322033555
40
1
40
1
40
1
40
1
41
1
10
9.47273418518171
20
-0.400987361227465
30
0
41
1
10
9.431955219852
20
-0.414075604076828
30
0
41
1
10
9.30784292118898
20
-0.445611137576009
30
0
41
1
10
9.10039728919259
20
-0.459981185335266
30
0
41
1
10
8.85039728919259
20
-0.40708694316703
30
0
41
1
10
8.60039728919259
20
-0.291298385250997
30
0
41
1
10
8.35039728919256
20
-0.13854468100601
30
0
41
1
10
8.10468969381736
20
0.0400138959997776
30
0
41
1
10
7.94231543177551
20
0.154151488760078
30
0
41
1
10
7.86327450306695
20
0.204127085846551
30
0
0
SPLINE
5
F3
100
AcDbEntity
8
1
62
256
6
ByLayer
370
18
48
1
60
0
100
AcDbSpline
70
4
71
3
72
8
73
4
40
0
40
0
40
0
40
0
40
1
40
1
40
1
40
1
41
1
10
9.59320537259345
20
-0.280406567064347
30
0
41
1
10
9.58543041806624
20
-0.315154506747262
30
0
41
1
10
9.57766794970485
20
-0.348747508397423
30
0
41
1
10
9.5699329319913
20
-0.381135859150618
30
0
0
SPLINE
5
F4
100
AcDbEntity
8
1
62
256
6
ByLayer
370
18
48
1
60
0
100
AcDbSpline
70
4
71
3
72
8
73
4
40
0
40
0
40
0
40
0
40
1
40
1
40
1
40
1
41
1
10
7.60039728919242
20
0.361369825028248
30
0
41
1
10
7.58126604564637
20
0.369741102549824
30
0
41
1
10
7.56227188908906
20
0.377908683608354
30
0
41
1
10
7.54343824092953
20
0.385837766518705
30
0
0
SPLINE
5
F5
100
AcDbEntity
8
1
62
256
6
ByLayer
370
18
48
1
60
0
100
AcDbSpline
70
4
71
3
72
8
73
4
40
0
40
0
40
0
40
0
40
1
40
1
40
1
40
1
41
1
10
9.59861770835883
20
-0.2512031983388
30
0
41
1
10
9.59681609647254
20
-0.260984852521659
30
0
41
1
10
9.59501198706161
20
-0.270719330444621
30
0
41
1
10
9.59320537672085
20
-0.280406567816954
30
0
0
SPLINE
5
F6
100
AcDbEntity
8
1
62
256
6
ByLayer
370
18
48
1
60
0
100
AcDbSpline
70
4
71
3
72
8
73
4
40
0
40
0
40
0
40
0
40
1
40
1
40
1
40
1
41
1
10
9.56675004875362
20
-0.0445577289832499
30
0
41
1
10
9.56779765222629
20
-0.0554989359680178
30
0
41
1
10
9.56885843053414
20
-0.0665064209377135
30
0
41
1
10
9.5699329319913
20
-0.0775829329966768
30
0
0
SPLINE
5
F7
100
AcDbEntity
8
1
62
256
6
ByLayer
370
18
48
1
60
0
100
AcDbSpline
70
4
71
3
72
8
73
4
40
0
40
0
40
0
40
0
40
1
40
1
40
1
40
1
41
1
10
9.59320537259345
20
-0.218705276889551
30
0
41
1
10
9.58543041806624
20
-0.172076375892516
30
0
41
1
10
9.57766794970485
20
-0.125002952282472
30
0
41
1
10
9.56993293199127
20
-0.0775829329983253
30
0
0
SPLINE
5
F8
100
AcDbEntity
8
1
62
256
6
ByLayer
370
18
48
1
60
0
100
AcDbSpline
70
4
71
3
72
8
73
4
40
0
40
0
40
0
40
0
40
1
40
1
40
1
40
1
41
1
10
9.59861770835892
20
-0.248795277700083
30
0
41
1
10
9.59783407679063
20
-0.240791289741878
30
0
41
1
10
9.59705749910339
20
-0.232822528357957
30
0
41
1
10
9.59628783115861
20
-0.224888477003816
30
0
0
SPLINE
5
F9
100
AcDbEntity
8
1
62
256
6
ByLayer
370
18
48
1
60
0
100
AcDbSpline
70
4
71
3
72
14
73
10
40
0
40
0
40
0
40
0
40
0.0427611528638738
40
0.231819929125156
40
0.420878705386439
40
0.609937481647721
40
0.798996257909003
40
0.988055034170285
40
1
40
1
40
1
40
1
41
1
10
9.15694207609619
20
0.0845701406477701
30
0
41
1
10
9.13809381379497
20
0.0980298857530784
30
0
41
1
10
9.03591221816035
20
0.17037188277925
30
0
41
1
10
8.85039728919244
20
0.292669667171822
30
0
41
1
10
8.60039728919245
20
0.415175328847454
30
0
41
1
10
8.35039728919244
20
0.472526235874909
30
0
41
1
10
8.10039728919242
20
0.461611232800408
30
0
41
1
10
7.92846552011253
20
0.404473167569592
30
0
41
1
10
7.83986708436595
20
0.364688527203384
30
0
41
1
10
7.83460198195272
20
0.362288435665647
30
0
0
SPLINE
5
FA
100
AcDbEntity
8
1
62
256
6
ByLayer
370
18
48
1
60
0
100
AcDbSpline
70
4
71
3
72
18
73
14
40
0
40
0
40
0
40
0
40
0.0968904353637746
40
0.0968904353637746
40
0.225906087454668
40
0.225906087454668
40
0.483937391636454
40
0.483937391636454
40
0.741968695818241
40
0.741968695818241
40
0.87098434790912
40
0.87098434790912
40
1
40
1
40
1
40
1
41
1
10
9.11394345921769
20
0.362352201689589
30
0
41
1
10
9.12965492470536
20
0.370794324351749
30
0
41
1
10
9.14541745217426
20
0.378938033404694
30
0
41
1
10
9.18213929494775
20
0.397094740939508
30
0
41
1
10
9.20300501637703
20
0.406794239658467
30
0
41
1
10
9.26540235449858
20
0.433853155692645
30
0
41
1
10
9.30673350129575
20
0.449179773371299
30
0
41
1
10
9.38949953103014
20
0.474076575129828
30
0
41
1
10
9.43093469007857
20
0.483649249553167
30
0
41
1
10
9.49364596755402
20
0.493359510316083
30
0
41
1
10
9.51467484819693
20
0.495820231176538
30
0
41
1
10
9.55664319288678
20
0.499115307973199
30
0
41
1
10
9.57761961245259
20
0.499957842301882
30
0
41
1
10
9.5986177083725
20
0.499998476037177
30
0
0
SPLINE
5
FB
100
AcDbEntity
8
1
62
256
6
ByLayer
370
18
48
1
60
0
100
AcDbSpline
70
4
71
1
72
4
73
2
40
0
40
0
40
1
40
1
41
1
10
7.60039728452756
20
-0.499887247910209
30
0
41
1
10
7.60039728919247
20
-0.499900810552816
30
0
0
SPLINE
5
FC
100
AcDbEntity
8
1
62
256
6
ByLayer
370
18
48
1
60
0
100
AcDbSpline
70
4
71
3
72
8
73
4
40
0
40
0
40
0
40
0
40
1
40
1
40
1
40
1
41
1
10
7.60039728919247
20
-0.499448661404671
30
0
41
1
10
7.60039728919247
20
-0.499594853393717
30
0
41
1
10
7.60039728919242
20
-0.499741048422038
30
0
41
1
10
7.60039728919242
20
-0.499887246489578
30
0
0
SPLINE
5
FD
100
AcDbEntity
8
1
62
256
6
ByLayer
370
18
48
1
60
0
100
AcDbSpline
70
4
71
3
72
20
73
16
40
0
40
0
40
0
40
0
40
0.117721007307573
40
0.117721007307573
40
0.243760863406491
40
0.243760863406491
40
0.369800719505409
40
0.369800719505409
40
0.495840575604328
40
0.495840575604328
40
0.621880431703246
40
0.621880431703246
40
0.747920287802164
40
0.747920287802164
40
1
40
1
40
1
40
1
41
1
10
8.0878347184763
20
-0.439183411056632
30
0
41
1
10
8.06889911661645
20
-0.445844519673955
30
0
41
1
10
8.04995052307135
20
-0.451902262552522
30
0
41
1
10
8.0106147006972
20
-0.463099679642994
30
0
41
1
10
7.99022233188748
20
-0.46812932203585
30
0
41
1
10
7.94920698281862
20
-0.476709705596051
30
0
41
1
10
7.92856299119057
20
-0.480272721838048
30
0
41
1
10
7.88747134539247
20
-0.485926326210915
30
0
41
1
10
7.86696384660192
20
-0.488019493847645
30
0
41
1
10
7.82598151479067
20
-0.490705897618938
30
0
41
1
10
7.80550766262013
20
-0.491298586367776
30
0
41
1
10
7.76457659038033
20
-0.490896207755242
30
0
41
1
10
7.74412353165846
20
-0.489879516671806
30
0
41
1
10
7.68268328529757
20
-0.484599784921642
30
0
41
1
10
7.64161078047519
20
-0.478116538367658
30
0
41
1
10
7.60039728919253
20
-0.468584345222041
30
0
0
SPLINE
5
FE
100
AcDbEntity
8
1
62
256
6
ByLayer
370
18
48
1
60
0
100
AcDbSpline
70
4
71
3
72
49
73
45
40
0
40
0
40
0
40
0
40
0.0237712069674435
40
0.0237712069674435
40
0.0888531265029436
40
0.0888531265029436
40
0.153935046038444
40
0.153935046038444
40
0.219016965573944
40
0.219016965573944
40
0.251557925341694
40
0.251557925341694
40
0.284098885109444
40
0.349180804644951
40
0.349180804644951
40
0.414262724180458
40
0.414262724180458
40
0.446803683948215
40
0.446803683948215
40
0.479344643715972
40
0.479344643715972
40
0.544426563251479
40
0.544426563251479
40
0.609508482786986
40
0.609508482786986
40
0.642049442554736
40
0.642049442554736
40
0.674590402322486
40
0.674590402322486
40
0.739672321857993
40
0.739672321857993
40
0.772213281625743
40
0.772213281625743
40
0.804754241393493
40
0.804754241393493
40
0.837295201161243
40
0.837295201161243
40
0.869836160928993
40
0.869836160928993
40
0.902377120696743
40
0.902377120696743
40
0.934918080464493
40
0.934918080464493
40
1
40
1
40
1
40
1
41
1
10
9.4920680124865
20
-0.416643927157139
30
0
41
1
10
9.47706296636301
20
-0.422767888973908
30
0
41
1
10
9.4620154616554
20
-0.428505372405624
30
0
41
1
10
9.40559710638996
20
-0.44856281749
30
0
41
1
10
9.36375242594681
20
-0.460543511889938
30
0
41
1
10
9.28092805410822
20
-0.478709029343094
30
0
41
1
10
9.23980177207895
20
-0.484907391168861
30
0
41
1
10
9.15777839614037
20
-0.491460527223097
30
0
41
1
10
9.11688871391561
20
-0.491785012418632
30
0
41
1
10
9.05530903103923
20
-0.487718920036713
30
0
41
1
10
9.03470486044196
20
-0.485605754518815
30
0
41
1
10
8.99346329569465
20
-0.479886611110601
30
0
41
1
10
8.9319451230763
20
-0.469117388896308
30
0
41
1
10
8.87111613737449
20
-0.451805521447653
30
0
41
1
10
8.78989114962724
20
-0.423145028408413
30
0
41
1
10
8.74921577961467
20
-0.406008703179907
30
0
41
1
10
8.68753038454432
20
-0.376734124979805
30
0
41
1
10
8.66679945928826
20
-0.366359330499364
30
0
41
1
10
8.62532657832804
20
-0.344643675971639
30
0
41
1
10
8.60464204792305
20
-0.333333469530203
30
0
41
1
10
8.54267516107225
20
-0.2981374713533
30
0
41
1
10
8.50149941552056
20
-0.272978160061427
30
0
41
1
10
8.4192693716503
20
-0.21935341330618
30
0
41
1
10
8.37823329723383
20
-0.190808100846738
30
0
41
1
10
8.31637675422795
20
-0.145980809581061
30
0
41
1
10
8.29565133423682
20
-0.130663736207708
30
0
41
1
10
8.25451145369374
20
-0.0998023011962346
30
0
41
1
10
8.23405247957692
20
-0.0842273500049089
30
0
41
1
10
8.17288767523894
20
-0.0372270781616351
30
0
41
1
10
8.1323926806725
20
-0.0055280030443896
30
0
41
1
10
8.07157691130166
20
0.0419235302841514
30
0
41
1
10
8.05129294020037
20
0.0577247420381184
30
0
41
1
10
8.01061470069723
20
0.0891829632006989
30
0
41
1
10
7.99022233188748
20
0.10484243955176
30
0
41
1
10
7.94920698281862
20
0.135860560575765
30
0
41
1
10
7.92856299119057
20
0.151227483710756
30
0
41
1
10
7.88747134539247
20
0.181170291625108
30
0
41
1
10
7.86696384660317
20
0.195798085003275
30
0
41
1
10
7.82598151479189
20
0.22429908041201
30
0
41
1
10
7.80550766262013
20
0.238173111366905
30
0
41
1
10
7.76457659038036
20
0.265101945049565
30
0
41
1
10
7.74412353165854
20
0.278150075268513
30
0
41
1
10
7.6826832852976
20
0.316025021346917
30
0
41
1
10
7.64161078047516
20
0.339582542343067
30
0
41
1
10
7.60039728919253
20
0.361369825028191
30
0
0
SPLINE
5
FF
100
AcDbEntity
8
1
62
256
6
ByLayer
370
18
48
1
60
0
100
AcDbSpline
70
4
71
3
72
9
73
5
40
0
40
0
40
0
40
0
40
0.13260414315265
40
1
40
1
40
1
40
1
41
1
10
7.88861632785449
20
0.0322780854654638
30
0
41
1
10
7.87587664830048
20
0.0415256028011868
30
0
41
1
10
7.77980363541318
20
0.111131734140571
30
0
41
1
10
7.68373062252579
20
0.178796061763222
30
0
41
1
10
7.60039728919244
20
0.231415296364105
30
0
0
SPLINE
5
100
100
AcDbEntity
8
1
62
256
6
ByLayer
370
18
48
1
60
0
100
AcDbSpline
70
4
71
3
72
9
73
5
40
0
40
0
40
0
40
0
40
0.495305819716161
40
1
40
1
40
1
40
1
41
1
10
9.56675004912591
20
-0.0445577284815784
30
0
41
1
10
9.49463246248146
20
0.0081217218073846
30
0
41
1
10
9.34903032381536
20
0.109510922568262
30
0
41
1
10
9.20342818514919
20
0.202825679944766
30
0
41
1
10
9.12994363312754
20
0.245813373467286
30
0
0
SPLINE
5
101
100
AcDbEntity
8
1
62
256
6
ByLayer
370
18
48
1
60
0
100
AcDbSpline
70
4
71
3
72
8
73
4
40
0
40
0
40
0
40
0
40
1
40
1
40
1
40
1
41
1
10
9.5986177083588
20
-0.248795277698491
30
0
41
1
10
9.59681609647251
20
-0.238807841539483
30
0
41
1
10
9.59501198706161
20
-0.228777860471922
30
0
41
1
10
9.59320537672085
20
-0.218705276503186
30
0
0
SPLINE
5
102
100
AcDbEntity
8
1
62
256
6
ByLayer
370
18
48
1
60
0
100
AcDbSpline
70
4
71
3
72
15
73
11
40
0
40
0
40
0
40
0
40
0.125375266821569
40
0.250577867759388
40
0.375642552283714
40
0.500602411297648
40
0.625489183031976
40
0.750332752745474
40
0.875161034130536
40
1
40
1
40
1
40
1
41
1
10
7.54343824146511
20
-0.455624027326877
30
0
41
1
10
7.54104309319106
20
-0.456660867459306
30
0
41
1
10
7.53625609522334
20
-0.458733119795596
30
0
41
1
10
7.52919918672268
20
-0.462209303847516
30
0
41
1
10
7.52224024393666
20
-0.465942785036731
30
0
41
1
10
7.51538791986519
20
-0.469954086113631
30
0
41
1
10
7.50863945029781
20
-0.474227731181031
30
0
41
1
10
7.50199817378623
20
-0.478764715912973
30
0
41
1
10
7.49545429611848
20
-0.483536256465669
30
0
41
1
10
7.49118140967175
20
-0.486922540237714
30
0
41
1
10
7.48904487501949
20
-0.488615754581588
30
0
0
SPLINE
5
103
100
AcDbEntity
8
1
62
256
6
ByLayer
370
18
48
1
60
0
100
AcDbSpline
70
4
71
3
72
14
73
10
40
0
40
0
40
0
40
0
40
0.25
40
0.25
40
0.5
40
0.5
40
0.75
40
0.75
40
1
40
1
40
1
40
1
41
1
10
7.48988517651489
20
0.338498696867788
30
0
41
1
10
7.48943879578746
20
0.344480778283838
30
0
41
1
10
7.48973680243179
20
0.350267583528875
30
0
41
1
10
7.49199665351077
20
0.361454731779958
30
0
41
1
10
7.494005113936
20
0.366914871992037
30
0
41
1
10
7.49964499066374
20
0.377001083868038
30
0
41
1
10
7.50325961747689
20
0.381666481789296
30
0
41
1
10
7.51199511217217
20
0.390337995959868
30
0
41
1
10
7.51707248272155
20
0.394286299061264
30
0
41
1
10
7.52262740951758
20
0.397837065667744
30
0
0
SPLINE
5
104
100
AcDbEntity
8
1
62
256
6
ByLayer
370
18
48
1
60
0
100
AcDbSpline
70
4
71
3
72
18
73
14
40
0
40
0
40
0
40
0
40
0.25
40
0.25
40
0.5
40
0.5
40
0.625
40
0.625
40
0.75
40
0.75
40
0.875
40
0.875
40
1
40
1
40
1
40
1
41
1
10
7.25808540532307
20
0.490358330462641
30
0
41
1
10
7.25645625165956
20
0.49073662812458
30
0
41
1
10
7.25490606752319
20
0.491115028979635
30
0
41
1
10
7.25210303610555
20
0.491885032044081
30
0
41
1
10
7.25081387037858
20
0.492278699402732
30
0
41
1
10
7.24957554517559
20
0.492888361399792
30
0
41
1
10
7.24927430046182
20
0.493098237341883
30
0
41
1
10
7.24928240967765
20
0.493515301568436
30
0
41
1
10
7.24964562506563
20
0.493718429768592
30
0
41
1
10
7.25129879927147
20
0.494024053994991
30
0
41
1
10
7.25247676185782
20
0.494116417092783
30
0
41
1
10
7.25490857372205
20
0.494228213901238
30
0
41
1
10
7.25618372941329
20
0.494250929749285
30
0
41
1
10
7.25745843029961
20
0.494257957550218
30
0
0
SPLINE
5
105
100
AcDbEntity
8
1
62
256
6
ByLayer
370
18
48
1
60
0
100
AcDbSpline
70
4
71
3
72
20
73
16
40
0
40
0
40
0
40
0
40
0.250000000000113
40
0.250000000000113
40
0.375000000000094
40
0.375000000000094
40
0.500000000000075
40
0.500000000000075
40
0.625000000000056
40
0.625000000000056
40
0.750000000000038
40
0.750000000000038
40
0.875000000000019
40
0.875000000000019
40
1
40
1
40
1
40
1
41
1
10
7.25745843035315
20
0.494257957341773
30
0
41
1
10
7.26869354184885
20
0.494319899834011
30
0
41
1
10
7.27982527258291
20
0.494498819523528
30
0
41
1
10
7.2962636596439
20
0.49501845205873
30
0
41
1
10
7.3017035371528
20
0.495234803925371
30
0
41
1
10
7.31216398496701
20
0.495744835995595
30
0
41
1
10
7.31721901597237
20
0.496039643337241
30
0
41
1
10
7.32690330167099
20
0.496695372374148
30
0
41
1
10
7.33158554503993
20
0.49706145382055
30
0
41
1
10
7.34014718347288
20
0.497800278925439
30
0
41
1
10
7.3440070695957
20
0.498169533451005
30
0
41
1
10
7.35092127219787
20
0.498849803916386
30
0
41
1
10
7.35398358245214
20
0.499161041838477
30
0
41
1
10
7.35919078338617
20
0.499647198439106
30
0
41
1
10
7.36137066106207
20
0.49982557743246
30
0
41
1
10
7.36320620229606
20
0.499920799488962
30
0
0
SPLINE
5
106
100
AcDbEntity
8
1
62
256
6
ByLayer
370
18
48
1
60
0
100
AcDbSpline
70
4
71
3
72
10
73
6
40
0
40
0
40
0
40
0
40
0.5
40
0.5
40
1
40
1
40
1
40
1
41
1
10
7.59970708362863
20
-0.499932884166867
30
0
41
1
10
7.578528001584
20
-0.500196602334142
30
0
41
1
10
7.55752627059141
20
-0.499686263765852
30
0
41
1
10
7.5159392056874
20
-0.497016902467578
30
0
41
1
10
7.49535577367266
20
-0.494850061343527
30
0
41
1
10
7.47480823144019
20
-0.491835071325823
30
0
0
SPLINE
5
107
100
AcDbEntity
8
1
62
256
6
ByLayer
370
13
48
1
60
0
100
AcDbSpline
70
4
71
3
72
8
73
4
40
0
40
0
40
0
40
0
40
1
40
1
40
1
40
1
41
1
10
7.47481109921944
20
-0.49183397331521
30
0
41
1
10
7.47735185079282
20
-0.491243875350534
30
0
41
1
10
7.47989260236622
20
-0.490622058185892
30
0
41
1
10
7.4824333539396
20
-0.489968642116565
30
0
0
SPLINE
5
108
100
AcDbEntity
8
1
62
256
6
ByLayer
370
18
48
1
60
0
100
AcDbSpline
70
4
71
3
72
10
73
6
40
0
40
0
40
0
40
0
40
0.5
40
0.5
40
1
40
1
40
1
40
1
41
1
10
7.48243732033455
20
-0.489967757100743
30
0
41
1
10
7.50226388007408
20
-0.492921786378474
30
0
41
1
10
7.52204994559534
20
-0.495239017387235
30
0
41
1
10
7.56139387708288
20
-0.498575963384439
30
0
41
1
10
7.58095352525697
20
-0.499593024395608
30
0
41
1
10
7.60039728919253
20
-0.499900810552816
30
0
0
SPLINE
5
109
100
AcDbEntity
8
1
62
256
6
ByLayer
370
18
48
1
60
0
100
AcDbSpline
70
4
71
3
72
8
73
4
40
0
40
0
40
0
40
0
40
1
40
1
40
1
40
1
41
1
10
7.48988517701071
20
-0.487940384018344
30
0
41
1
10
7.52672786930472
20
-0.494247588612666
30
0
41
1
10
7.56346847918741
20
-0.49809504407898
30
0
41
1
10
7.60039728919253
20
-0.499448661404671
30
0
0
SPLINE
5
10A
100
AcDbEntity
8
1
62
256
6
ByLayer
370
18
48
1
60
0
100
AcDbSpline
70
4
71
3
72
14
73
10
40
0
40
0
40
0
40
0
40
0.25
40
0.25
40
0.5
40
0.5
40
0.75
40
0.75
40
1
40
1
40
1
40
1
41
1
10
7.48988517651489
20
-0.487940380883998
30
0
41
1
10
7.48943879578746
20
-0.486166006446069
30
0
41
1
10
7.48973680243176
20
-0.484216337204742
30
0
41
1
10
7.49199665351074
20
-0.479993823423428
30
0
41
1
10
7.494005113936
20
-0.477690030181151
30
0
41
1
10
7.49964499066374
20
-0.473009503162615
30
0
41
1
10
7.50325961747686
20
-0.47062409218708
30
0
41
1
10
7.5119951121722
20
-0.465838694548523
30
0
41
1
10
7.51707248272152
20
-0.463469093002942
30
0
41
1
10
7.52262740951755
20
-0.461205116337652
30
0
0
SPLINE
5
10B
100
AcDbEntity
8
1
62
256
6
ByLayer
370
18
48
1
60
0
100
AcDbSpline
70
4
71
3
72
18
73
14
40
0
40
0
40
0
40
0
40
0.249999999999996
40
0.249999999999996
40
0.499999999999993
40
0.499999999999993
40
0.624999999999995
40
0.624999999999995
40
0.749999999999996
40
0.749999999999996
40
0.874999999999998
40
0.874999999999998
40
1
40
1
40
1
40
1
41
1
10
7.25808540532293
20
-0.329804993495486
30
0
41
1
10
7.25645625165942
20
-0.328350128196206
30
0
41
1
10
7.25490606751177
20
-0.326846006739572
30
0
41
1
10
7.25210303609205
20
-0.323660816169593
30
0
41
1
10
7.25081387037844
20
-0.321971580185362
30
0
41
1
10
7.24957554517545
20
-0.319223736871038
30
0
41
1
10
7.24927430046165
20
-0.318255622311454
30
0
41
1
10
7.24928240967748
20
-0.316278955108629
30
0
41
1
10
7.24964562506545
20
-0.315286573199444
30
0
41
1
10
7.25129879927132
20
-0.313764516401534
30
0
41
1
10
7.25247676185768
20
-0.31329132632564
30
0
41
1
10
7.25490857372191
20
-0.312718646116764
30
0
41
1
10
7.25618372941312
20
-0.312600770076386
30
0
41
1
10
7.25745843029944
20
-0.312564471333928
30
0
0
SPLINE
5
10C
100
AcDbEntity
8
1
62
256
6
ByLayer
370
18
48
1
60
0
100
AcDbSpline
70
4
71
3
72
20
73
16
40
0
40
0
40
0
40
0
40
0.25
40
0.25
40
0.375
40
0.375
40
0.5
40
0.5
40
0.625
40
0.625
40
0.75
40
0.75
40
0.875
40
0.875
40
1
40
1
40
1
40
1
41
1
10
7.25745843035301
20
-0.312564471358087
30
0
41
1
10
7.26869354184868
20
-0.312244537058575
30
0
41
1
10
7.27982527258277
20
-0.311339782866327
30
0
41
1
10
7.29626365964378
20
-0.308489928245962
30
0
41
1
10
7.30170353715269
20
-0.307279639470693
30
0
41
1
10
7.3121639849669
20
-0.304268419952479
30
0
41
1
10
7.31721901597226
20
-0.30246312275213
30
0
41
1
10
7.32690330167088
20
-0.298105591599722
30
0
41
1
10
7.33158554503981
20
-0.295513899486508
30
0
41
1
10
7.34014718347271
20
-0.289595924100524
30
0
41
1
10
7.34400706959559
20
-0.286299199383905
30
0
41
1
10
7.35092127219775
20
-0.279026116318761
30
0
41
1
10
7.35398358245203
20
-0.275022497978654
30
0
41
1
10
7.35919078338605
20
-0.266649510268309
30
0
41
1
10
7.36137066106198
20
-0.262252224434917
30
0
41
1
10
7.36320620229597
20
-0.257667258943002
30
0
0
SPLINE
5
10D
100
AcDbEntity
8
1
62
256
6
ByLayer
370
18
48
1
60
0
100
AcDbSpline
70
4
71
3
72
20
73
16
40
0
40
0
40
0
40
0
40
0.125
40
0.125
40
0.25
40
0.25
40
0.375
40
0.375
40
0.5
40
0.5
40
0.625
40
0.625
40
0.75
40
0.75
40
1
40
1
40
1
40
1
41
1
10
7.36320620229597
20
-0.257667258943002
30
0
41
1
10
7.36142410604398
20
-0.244361718208268
30
0
41
1
10
7.3592389386082
20
-0.23077098790651
30
0
41
1
10
7.35428703623958
20
-0.203005813176844
30
0
41
1
10
7.3515175331176
20
-0.188842993052702
30
0
41
1
10
7.34551542831767
20
-0.160155531159091
30
0
41
1
10
7.34226947020176
20
-0.145575425063242
30
0
41
1
10
7.33536962573845
20
-0.116243025229693
30
0
41
1
10
7.33171157807016
20
-0.101470253840063
30
0
41
1
10
7.32395252900295
20
-0.07172360363856
30
0
41
1
10
7.3198498865228
20
-0.056749662176145
30
0
41
1
10
7.31122756097966
20
-0.0269225107970783
30
0
41
1
10
7.30669834281872
20
-0.0120312043199533
30
0
41
1
10
7.29233212366074
20
0.0325362538678746
30
0
41
1
10
7.28183764802264
20
0.0617804365562904
30
0
41
1
10
7.27002353262151
20
0.0902344043007872
30
0
0
SPLINE
5
10E
100
AcDbEntity
8
1
62
256
6
ByLayer
370
18
48
1
60
0
100
AcDbSpline
70
4
71
3
72
10
73
6
40
0
40
0
40
0
40
0
40
0.499999999999999
40
0.499999999999999
40
1
40
1
40
1
40
1
41
1
10
7.27002353262077
20
0.0902344043010999
30
0
41
1
10
7.26823213396727
20
0.0945489380408731
30
0
41
1
10
7.26699197060469
20
0.0989835918732069
30
0
41
1
10
7.26589117151025
20
0.108154182418787
30
0
41
1
10
7.26606271446212
20
0.112787360005314
30
0
41
1
10
7.26702058579247
20
0.117310037668403
30
0
0
SPLINE
5
10F
100
AcDbEntity
8
1
62
256
6
ByLayer
370
18
48
1
60
0
100
AcDbSpline
70
4
71
3
72
26
73
22
40
0
40
0
40
0
40
0
40
0.0625000000000194
40
0.0625000000000194
40
0.125000000000039
40
0.125000000000039
40
0.250000000000112
40
0.250000000000112
40
0.312500000000125
40
0.312500000000125
40
0.375000000000138
40
0.375000000000138
40
0.50000000000011
40
0.50000000000011
40
0.625000000000083
40
0.625000000000083
40
0.750000000000055
40
0.750000000000055
40
0.875000000000028
40
0.875000000000028
40
1
40
1
40
1
40
1
41
1
10
7.26702058579363
20
0.117310037668233
30
0
41
1
10
7.26845304687828
20
0.124073534544436
30
0
41
1
10
7.27063291130003
20
0.130491201743325
30
0
41
1
10
7.27626251306023
20
0.142745722864674
30
0
41
1
10
7.27973918554318
20
0.148616669614825
30
0
41
1
10
7.29169349526995
20
0.165232495927199
30
0
41
1
10
7.30135392245214
20
0.17467696462711
30
0
41
1
10
7.31749714979577
20
0.187292388461032
30
0
41
1
10
7.32314508120822
20
0.191212363722713
30
0
41
1
10
7.33475078856185
20
0.198493762592733
30
0
41
1
10
7.34072980349771
20
0.201871086769842
30
0
41
1
10
7.35912171479458
20
0.21133428604665
30
0
41
1
10
7.37187664536174
20
0.21670464646698
30
0
41
1
10
7.39807637993746
20
0.225972988032083
30
0
41
1
10
7.41142725116879
20
0.229834059149454
30
0
41
1
10
7.43854245283231
20
0.2362588117131
30
0
41
1
10
7.45234082013076
20
0.238822890284524
30
0
41
1
10
7.48009581978528
20
0.242698532580221
30
0
41
1
10
7.4941017361752
20
0.244017782171341
30
0
41
1
10
7.52217650500438
20
0.24541095163201
30
0
41
1
10
7.53622645648727
20
0.245486392519041
30
0
41
1
10
7.5502896549086
20
0.244907574833974
30
0
0
SPLINE
5
110
100
AcDbEntity
8
1
62
256
6
ByLayer
370
18
48
1
60
0
100
AcDbSpline
70
4
71
2
72
6
73
3
40
0
40
0
40
0
40
1
40
1
40
1
41
0.500000679817197
10
7.55028965490863
20
0.24490757483398
30
0
41
0.499999320182803
10
7.57498806674603
20
0.243891029583307
30
0
41
0.500000679817197
10
7.59970708362824
20
0.24287183170102
30
0
0
SPLINE
5
111
100
AcDbEntity
8
1
62
256
6
ByLayer
370
18
48
1
60
0
100
AcDbSpline
70
4
71
3
72
15
73
11
40
0
40
0
40
0
40
0
40
0.125375266812342
40
0.250577867744929
40
0.375642552267199
40
0.500602411281762
40
0.625489183018524
40
0.750332752735928
40
0.875161034125624
40
1
40
1
40
1
40
1
41
1
10
7.54343824094104
20
0.385837766529818
30
0
41
1
10
7.54104309269118
20
0.383616712042965
30
0
41
1
10
7.53625609477169
20
0.379177661888917
30
0
41
1
10
7.52919918634123
20
0.372740114206664
30
0
41
1
10
7.52224024362368
20
0.366469846604502
30
0
41
1
10
7.51538791961863
20
0.360381223139797
30
0
41
1
10
7.50863945011588
20
0.354467445835098
30
0
41
1
10
7.50199817366695
20
0.348731954682535
30
0
41
1
10
7.4954542960601
20
0.343157002423823
30
0
41
1
10
7.49118140965231
20
0.339584727239014
30
0
41
1
10
7.48904487501952
20
0.337798513209037
30
0
0
SPLINE
5
112
100
AcDbEntity
8
1
62
256
6
ByLayer
370
18
48
1
60
0
100
AcDbSpline
70
4
71
3
72
8
73
4
40
0
40
0
40
0
40
0
40
1
40
1
40
1
40
1
41
1
10
7.48988517701068
20
0.338498686300795
30
0
41
1
10
7.52672786930469
20
0.317234731847719
30
0
41
1
10
7.56346847918738
20
0.294318520889334
30
0
41
1
10
7.60039728919253
20
0.270053520697019
30
0
0
SPLINE
5
113
100
AcDbEntity
8
1
62
256
6
ByLayer
370
18
48
1
60
0
100
AcDbSpline
70
4
71
3
72
8
73
4
40
0
40
0
40
0
40
0
40
1
40
1
40
1
40
1
41
1
10
7.6003972891925
20
0.270053520697047
30
0
41
1
10
7.6003972891925
20
0.26962177919512
30
0
41
1
10
7.60039728919247
20
0.26919003987291
30
0
41
1
10
7.60039728919247
20
0.268758302730419
30
0
0
SPLINE
5
114
100
AcDbEntity
8
1
62
256
6
ByLayer
370
18
48
1
60
0
100
AcDbSpline
70
4
71
3
72
33
73
29
40
0
40
0
40
0
40
0
40
0.101130161740232
40
0.101130161740232
40
0.151695242610343
40
0.151695242610343
40
0.202260323480454
40
0.303390485220676
40
0.303390485220676
40
0.353955566090781
40
0.353955566090781
40
0.404520646960887
40
0.404520646960887
40
0.505650808701088
40
0.505650808701088
40
0.606780970441289
40
0.606780970441289
40
0.657346051311389
40
0.657346051311389
40
0.70791113218149
40
0.70791113218149
40
0.809041293921701
40
0.809041293921701
40
0.910171455661912
40
0.910171455661912
40
0.960736536532018
40
0.960736536532018
40
1
40
1
40
1
40
1
41
1
10
7.60039728919259
20
0.242840389165025
30
0
41
1
10
7.64236767064995
20
0.214182193116585
30
0
41
1
10
7.68415858028521
20
0.184068466373503
30
0
41
1
10
7.74702921520668
20
0.137224612810371
30
0
41
1
10
7.76798229152303
20
0.121359997594624
30
0
41
1
10
7.80964404887345
20
0.0894780977569383
30
0
41
1
10
7.87190771222956
20
0.0413277967815588
30
0
41
1
10
7.93384456855574
20
-0.0073363260415249
30
0
41
1
10
7.99603804941725
20
-0.0557294918745015
30
0
41
1
10
8.01681170368042
20
-0.0718157083084918
30
0
41
1
10
8.05851531243431
20
-0.103806117678431
30
0
41
1
10
8.07948935465362
20
-0.119743866144859
30
0
41
1
10
8.14243630765895
20
-0.166945616450249
30
0
41
1
10
8.18397832679165
20
-0.197275775527856
30
0
41
1
10
8.26679992820786
20
-0.255056683004938
30
0
41
1
10
8.3080787116896
20
-0.282503753404541
30
0
41
1
10
8.37030209456711
20
-0.320885932805226
30
0
41
1
10
8.39109485339822
20
-0.333214643555436
30
0
41
1
10
8.43286828124212
20
-0.356845823598718
30
0
41
1
10
8.4539062604664
20
-0.368173216184857
30
0
41
1
10
8.51662970139563
20
-0.400090848235123
30
0
41
1
10
8.55813428843805
20
-0.418743868354198
30
0
41
1
10
8.64102673143833
20
-0.450655663965989
30
0
41
1
10
8.68239621131437
20
-0.463929297994838
30
0
41
1
10
8.74476747541735
20
-0.479437081655675
30
0
41
1
10
8.76561327539625
20
-0.483864542344946
30
0
41
1
10
8.80282509440167
20
-0.490338451233043
30
0
41
1
10
8.8190972810327
20
-0.49268665398904
30
0
41
1
10
8.83531173455685
20
-0.494549632926521
30
0
0
SPLINE
5
115
100
AcDbEntity
8
1
62
256
6
ByLayer
370
18
48
1
60
0
100
AcDbSpline
70
4
71
3
72
23
73
19
40
0
40
0
40
0
40
0
40
0.0032696626630236
40
0.06244797945689
40
0.0920371378538231
40
0.121626296250756
40
0.180804613044623
40
0.239982929838489
40
0.299161246632355
40
0.417517880220088
40
0.535874513807821
40
0.595052830601687
40
0.654231147395554
40
0.772587780983286
40
0.831766097777153
40
0.890944414571019
40
0.950122731364885
40
1
40
1
40
1
40
1
41
1
10
7.60039727986265
20
0.268758303748825
30
0
41
1
10
7.60191627392686
20
0.267756496465353
30
0
41
1
10
7.63092705182515
20
0.248580295225963
30
0
41
1
10
7.67366140227006
20
0.219135883790244
30
0
41
1
10
7.72858046109303
20
0.179572586550023
30
0
41
1
10
7.78348116280242
20
0.13900656911008
30
0
41
1
10
7.85208238111431
20
0.0867586102646385
30
0
41
1
10
7.93434284109472
20
0.0226699161537169
30
0
41
1
10
8.04371551182751
20
-0.0630167544919971
30
0
41
1
10
8.17999148569217
20
-0.168009088400225
30
0
41
1
10
8.31658382123314
20
-0.264217219834251
30
0
41
1
10
8.42666731790086
20
-0.332440031842964
30
0
41
1
10
8.53740032587072
20
-0.393567538947366
30
0
41
1
10
8.64928627833839
20
-0.442388133018369
30
0
41
1
10
8.76289371203652
20
-0.47624945202395
30
0
41
1
10
8.84888133004739
20
-0.493198616783928
30
0
41
1
10
8.93139430359727
20
-0.50086287812556
30
0
41
1
10
8.98564174805247
20
-0.500544806100521
30
0
41
1
10
9.01064603464792
20
-0.499260171887471
30
0
0
SPLINE
5
116
100
AcDbEntity
8
1
62
256
6
ByLayer
370
18
48
1
60
0
100
AcDbSpline
70
4
71
3
72
8
73
4
40
0
40
0
40
0
40
0
40
1
40
1
40
1
40
1
41
1
10
7.60039728452759
20
0.268758303748797
30
0
41
1
10
7.60039728452759
20
0.265363821537448
30
0
41
1
10
7.60039728919247
20
0.261969407749632
30
0
41
1
10
7.60039728919247
20
0.258575062169029
30
0
0
SPLINE
5
117
100
AcDbEntity
8
1
62
256
6
ByLayer
370
18
48
1
60
0
100
AcDbSpline
70
4
71
3
72
10
73
6
40
0
40
0
40
0
40
0
40
0.5
40
0.5
40
1
40
1
40
1
40
1
41
1
10
7.48243732036298
20
0.33128971703951
30
0
41
1
10
7.5022638801002
20
0.320188969336726
30
0
41
1
10
7.52204994559548
20
0.308636254570416
30
0
41
1
10
7.56139387708296
20
0.284442114960768
30
0
41
1
10
7.580953525257
20
0.271801053476906
30
0
41
1
10
7.60039728919253
20
0.258575062169029
30
0
0
SPLINE
5
118
100
AcDbEntity
8
1
62
256
6
ByLayer
370
13
48
1
60
0
100
AcDbSpline
70
4
71
3
72
8
73
4
40
0
40
0
40
0
40
0
40
1
40
1
40
1
40
1
41
1
10
7.47481109921949
20
0.323856110464277
30
0
41
1
10
7.47735185079279
20
0.32635391646059
30
0
41
1
10
7.47989260236608
20
0.328830836424572
30
0
41
1
10
7.4824333539394
20
0.331286391177258
30
0
0
SPLINE
5
119
100
AcDbEntity
8
1
62
256
6
ByLayer
370
18
48
1
60
0
100
AcDbSpline
70
4
71
3
72
10
73
6
40
0
40
0
40
0
40
0
40
0.5
40
0.5
40
1
40
1
40
1
40
1
41
1
10
7.59970708362795
20
0.242871831700739
30
0
41
1
10
7.57852800158341
20
0.256941177502597
30
0
41
1
10
7.55752627059087
20
0.270776024830298
30
0
41
1
10
7.515939205687
20
0.297840050138603
30
0
41
1
10
7.49535577366157
20
0.311088428435227
30
0
41
1
10
7.47480823142814
20
0.323851462541626
30
0
0
SPLINE
5
11A
100
AcDbEntity
8
1
62
256
6
ByLayer
370
18
48
1
60
0
100
AcDbSpline
70
4
71
2
72
6
73
3
40
0
40
0
40
0
40
1
40
1
40
1
41
0.499997796561142
10
7.59970708362822
20
0.242871831701019
30
0
41
0.500002203438858
10
7.60005218442891
20
0.242857602736859
30
0
41
0.499997796561142
10
7.60039728919245
20
0.242843373257849
30
0
0
SPLINE
5
11B
100
AcDbEntity
8
1
62
256
6
ByLayer
370
18
48
1
60
0
100
AcDbSpline
70
4
71
3
72
29
73
25
40
0
40
0
40
0
40
0
40
0.107683241107228
40
0.107683241107228
40
0.215366482214456
40
0.215366482214456
40
0.323049723321684
40
0.323049723321684
40
0.430732964428912
40
0.430732964428912
40
0.484574584982525
40
0.484574584982525
40
0.538416205536139
40
0.646099446643379
40
0.646099446643379
40
0.753782687750618
40
0.753782687750618
40
0.807624308304238
40
0.807624308304238
40
0.861465928857857
40
0.861465928857857
40
0.969149169965108
40
0.969149169965108
40
1
40
1
40
1
40
1
41
1
10
9.56993293197755
20
-0.0775829329909357
30
0
41
1
10
9.52922362428004
20
-0.0455702012616541
30
0
41
1
10
9.48824619263425
20
-0.0137749769060633
30
0
41
1
10
9.40559710638991
20
0.0491432162083072
30
0
41
1
10
9.36375242594627
20
0.0803820342907215
30
0
41
1
10
9.28092805410765
20
0.140937537085705
30
0
41
1
10
9.23980177207892
20
0.170376365059923
30
0
41
1
10
9.15777839614032
20
0.227147385290777
30
0
41
1
10
9.11688871391556
20
0.254475895487531
30
0
41
1
10
9.05530903103917
20
0.293334626400508
30
0
41
1
10
9.03470486044191
20
0.305950067651736
30
0
41
1
10
8.99346329569454
20
0.330273499875176
30
0
41
1
10
8.93194512307628
20
0.365167875708693
30
0
41
1
10
8.87111613737443
20
0.394882422451332
30
0
41
1
10
8.78989114962715
20
0.429191239036555
30
0
41
1
10
8.74921577961462
20
0.44367071878122
30
0
41
1
10
8.68753038454429
20
0.461237564870515
30
0
41
1
10
8.6667994592882
20
0.466421702266984
30
0
41
1
10
8.62532657832796
20
0.475327163783476
30
0
41
1
10
8.60464204792297
20
0.479037334959401
30
0
41
1
10
8.54267516107217
20
0.487962409359085
30
0
41
1
10
8.5014994155205
20
0.491000148097413
30
0
41
1
10
8.44860509960651
20
0.491053263586338
30
0
41
1
10
8.43683228564177
20
0.490810013105005
30
0
41
1
10
8.42505935395386
20
0.49031471849193
30
0
0
SPLINE
5
11C
100
AcDbEntity
8
1
62
256
6
ByLayer
370
18
48
1
60
0
100
AcDbSpline
70
4
71
3
72
47
73
43
40
0
40
0
40
0
40
0
40
0.0257175606611268
40
0.0257175606611268
40
0.0593135068452225
40
0.126505399213414
40
0.126505399213414
40
0.160101345397513
40
0.160101345397513
40
0.193697291581612
40
0.193697291581612
40
0.260889183949804
40
0.260889183949804
40
0.328081076317995
40
0.328081076317995
40
0.361677022502091
40
0.361677022502091
40
0.395272968686187
40
0.395272968686187
40
0.462464861054385
40
0.462464861054385
40
0.529656753422583
40
0.529656753422583
40
0.563252699606683
40
0.563252699606683
40
0.596848645790782
40
0.596848645790782
40
0.66404053815898
40
0.66404053815898
40
0.731232430527179
40
0.731232430527179
40
0.764828376711278
40
0.764828376711278
40
0.798424322895377
40
0.798424322895377
40
0.865616215263582
40
0.865616215263582
40
0.932808107631788
40
0.932808107631788
40
0.966404053815894
40
0.966404053815894
40
1
40
1
40
1
40
1
41
1
10
7.7408136015076
20
0.344324330708759
30
0
41
1
10
7.75684965790666
20
0.353419142786464
30
0
41
1
10
7.77286721698655
20
0.362181968072804
30
0
41
1
10
7.80964404887342
20
0.38149975164049
30
0
41
1
10
7.87190771222953
20
0.412434959357853
30
0
41
1
10
7.93384456855574
20
0.437581228424591
30
0
41
1
10
7.99603804941731
20
0.458456616132253
30
0
41
1
10
8.01681170368045
20
0.464705980890272
30
0
41
1
10
8.05851531243434
20
0.475734090036411
30
0
41
1
10
8.07948935465362
20
0.480523567536693
30
0
41
1
10
8.14243630765895
20
0.492572705359862
30
0
41
1
10
8.18397832679167
20
0.497453437877624
30
0
41
1
10
8.26679992820789
20
0.50100835077356
30
0
41
1
10
8.30807871168963
20
0.499673586075488
30
0
41
1
10
8.37030209456717
20
0.492888314171068
30
0
41
1
10
8.39109485339827
20
0.4898298486155
30
0
41
1
10
8.43286828124218
20
0.48211839603897
30
0
41
1
10
8.45390626046643
20
0.477445857009229
30
0
41
1
10
8.51662970139569
20
0.461261058581527
30
0
41
1
10
8.55813428843808
20
0.447570540310267
30
0
41
1
10
8.6410267314383
20
0.414892480471479
30
0
41
1
10
8.6823962113144
20
0.39589580562145
30
0
41
1
10
8.7447674754174
20
0.363600635270359
30
0
41
1
10
8.76561327539628
20
0.352197781194292
30
0
41
1
10
8.80750683275488
20
0.3281530581163
30
0
41
1
10
8.82846546381887
20
0.315563118553683
30
0
41
1
10
8.8909611812054
20
0.276590929204303
30
0
41
1
10
8.93234096418081
20
0.248887201138274
30
0
41
1
10
9.01516216446231
20
0.190810013875819
30
0
41
1
10
9.0566018659826
20
0.160441475873995
30
0
41
1
10
9.11920101499553
20
0.113310032583939
30
0
41
1
10
9.14019538325653
20
0.0972897533057164
30
0
41
1
10
9.18213929494812
20
0.064995132681247
30
0
41
1
10
9.2030050163774
20
0.0487871084158655
30
0
41
1
10
9.26540235449895
20
0.0001306333531943
30
0
41
1
10
9.30673350129615
20
-0.0323517249576355
30
0
41
1
10
9.38949953103057
20
-0.0965845186049705
30
0
41
1
10
9.43093469007897
20
-0.128334874768228
30
0
41
1
10
9.49364596755447
20
-0.174783886937433
30
0
41
1
10
9.51467484819739
20
-0.190092203699322
30
0
41
1
10
9.55664319288721
20
-0.219970910170588
30
0
41
1
10
9.57761961245302
20
-0.234569289978594
30
0
41
1
10
9.59861770837296
20
-0.248795277707416
30
0
0
SPLINE
5
11D
100
AcDbEntity
8
1
62
256
6
ByLayer
370
18
48
1
60
0
100
AcDbSpline
70
4
71
3
72
20
73
16
40
0
40
0
40
0
40
0
40
0.0603412558815439
40
0.12779011966734
40
0.195238983453137
40
0.330136711024729
40
0.397585574810525
40
0.465034438596322
40
0.532483302382118
40
0.599932166167914
40
0.667381029953711
40
0.734829893739507
40
0.802278757525304
40
0.8697276213111
40
1
40
1
40
1
40
1
41
1
10
8.27063438620968
20
0.499880180867137
30
0
41
1
10
8.29510530771287
20
0.500725575288783
30
0
41
1
10
8.34700478254427
20
0.500212621487947
30
0
41
1
10
8.42666731790078
20
0.491823535841888
30
0
41
1
10
8.53740032587064
20
0.468972848820073
30
0
41
1
10
8.64928627833848
20
0.429779740527749
30
0
41
1
10
8.76289371203669
20
0.375471964105714
30
0
41
1
10
8.84888133004759
20
0.327463304248454
30
0
41
1
10
8.93595614951892
20
0.272715632182269
30
0
41
1
10
9.0243726750117
20
0.212058740881247
30
0
41
1
10
9.11448187524377
20
0.146275631553181
30
0
41
1
10
9.20639003145678
20
0.0761479755341554
30
0
41
1
10
9.30049095751482
20
0.00246144603895
30
0
41
1
10
9.42710053672866
20
-0.0966870138772151
30
0
41
1
10
9.52577175709646
20
-0.171216203181587
30
0
41
1
10
9.5932053684806
20
-0.218705277516591
30
0
0
SPLINE
5
11E
100
AcDbEntity
8
1
62
256
6
ByLayer
370
18
48
1
60
0
100
AcDbSpline
70
4
71
1
72
4
73
2
40
0
40
0
40
1
40
1
41
1
10
7.86234547578619
20
-0.439851155424748
30
0
41
1
10
8.18261318453995
20
-0.415145968849174
30
0
0
SPLINE
5
11F
100
AcDbEntity
8
1
62
256
6
ByLayer
370
18
48
1
60
0
100
AcDbSpline
70
4
71
3
72
8
73
4
40
0
40
0
40
0
40
0
40
1
40
1
40
1
40
1
41
1
10
8.28267452719993
20
-0.396406029833543
30
0
41
1
10
8.33461674170661
20
-0.384052106459592
30
0
41
1
10
8.38655591713882
20
-0.371619998893493
30
0
41
1
10
8.43850170987912
20
-0.35907294756916
30
0
0
SPLINE
5
120
100
AcDbEntity
8
1
62
256
6
ByLayer
370
18
48
1
60
0
100
AcDbSpline
70
4
71
3
72
11
73
7
40
0
40
0
40
0
40
0
40
0.0886115629181739
40
0.312998022962027
40
0.511592831773782
40
1
40
1
40
1
40
1
41
1
10
9.36519734334107
20
0.297720461103751
30
0
41
1
10
9.35301151801124
20
0.300386231267794
30
0
41
1
10
9.31007749957735
20
0.309924809153841
30
0
41
1
10
9.24217934154353
20
0.326546857408118
30
0
41
1
10
9.11721319248517
20
0.356770164184582
30
0
41
1
10
9.02401441832214
20
0.379469672518923
30
0
41
1
10
8.95759316867313
20
0.395659757745932
30
0
0
SPLINE
5
121
100
AcDbEntity
8
1
62
256
6
ByLayer
370
18
48
1
60
0
100
AcDbSpline
70
4
71
3
72
11
73
7
40
0
40
0
40
0
40
0
40
0.250686904118702
40
0.467173299624579
40
0.641935424015706
40
1
40
1
40
1
40
1
41
1
10
8.23165831388624
20
0.252363520666762
30
0
41
1
10
8.18897237001175
20
0.260675189617672
30
0
41
1
10
8.10934954158705
20
0.277234183141104
30
0
41
1
10
8.00041401645709
20
0.302544610629866
30
0
41
1
10
7.87167029585297
20
0.335150038558567
30
0
41
1
10
7.78626002691888
20
0.353379706571985
30
0
41
1
10
7.73077936051851
20
0.364275661311893
30
0
0
SPLINE
5
122
100
AcDbEntity
8
1
62
256
6
ByLayer
370
18
48
1
60
0
100
AcDbSpline
70
4
71
1
72
4
73
2
40
0
40
0
40
1
40
1
41
1
10
8.85707815917573
20
0.414844881127806
30
0
41
1
10
8.76769536634623
20
0.42183878432985
30
0
0
SPLINE
5
123
100
AcDbEntity
8
1
62
256
6
ByLayer
370
18
48
1
60
0
100
AcDbSpline
70
4
71
1
72
4
73
2
40
0
40
0
40
1
40
1
41
1
10
9.21139649397324
20
-0.439687872977288
30
0
41
1
10
9.42932174231913
20
-0.424836093433697
30
0
0
SPLINE
5
124
100
AcDbEntity
8
1
62
256
6
ByLayer
370
18
48
1
60
0
100
AcDbSpline
70
4
71
2
72
6
73
3
40
0
40
0
40
0
40
1
40
1
40
1
41
1
10
7.80965740591853
20
0.237135275865114
30
0
41
1
10
7.80965375286891
20
0.236037772057728
30
0
41
1
10
7.80965009982486
20
0.234940906891637
30
0
0
SPLINE
5
125
100
AcDbEntity
8
1
62
256
6
ByLayer
370
18
48
1
60
0
100
AcDbSpline
70
4
71
2
72
6
73
3
40
0
40
0
40
0
40
1
40
1
40
1
41
1
10
9.12550000475261
20
0.248407825910334
30
0
41
1
10
9.12554118964428
20
0.248342760573138
30
0
41
1
10
9.12558237231792
20
0.248271176645773
30
0
0
LINE
5
77
100
AcDbEntity
8
80
62
256
6
ByLayer
370
18
48
1
60
0
100
AcDbLine
10
0
20
0
30
0
11
-5
21
0
31
0
39
0
210
0
220
0
230
1
0
LINE
5
78
100
AcDbEntity
8
4
62
256
6
ByLayer
370
18
48
0.05
60
0
100
AcDbLine
10
0
20
0
30
0
11
9.600397
21
0
31
0
39
0
210
0
220
0
230
1
0
LINE
5
7A
100
AcDbEntity
8
81
62
256
6
ByLayer
370
18
48
1
60
0
100
AcDbLine
10
9.600397
20
0
30
0
11
14.600397
21
0
31
0
39
0
210
0
220
0
230
1
0
LINE
5
7B
100
AcDbEntity
8
SK4
62
256
6
ByLayer
370
18
48
0.05
60
0
100
AcDbLine
10
-40.399603
20
0
30
0
11
9.600397
21
0
31
0
39
0
210
0
220
0
230
1
0
LINE
5
7D
100
AcDbEntity
8
1
62
256
6
ByLayer
370
18
48
1
60
0
100
AcDbLine
10
9.58089
20
-0.048024
30
0
11
9.585836
21
-0.048756
31
0
39
0
210
0
220
0
230
1
0
LINE
5
7E
100
AcDbEntity
8
1
62
256
6
ByLayer
370
18
48
1
60
0
100
AcDbLine
10
9.585836
20
-0.048756
30
0
11
9.59594
21
0.331465
31
0
39
0
210
0
220
0
230
1
0
LINE
5
7F
100
AcDbEntity
8
1
62
256
6
ByLayer
370
18
48
1
60
0
100
AcDbLine
10
9.592554
20
-0.083624
30
0
11
9.59594
21
-0.151499
31
0
39
0
210
0
220
0
230
1
0
LINE
5
80
100
AcDbEntity
8
1
62
256
6
ByLayer
370
18
48
1
60
0
100
AcDbLine
10
9.533616
20
-0.348114
30
0
11
9.561559
21
-0.222717
31
0
39
0
210
0
220
0
230
1
0
LINE
5
81
100
AcDbEntity
8
1
62
256
6
ByLayer
370
18
48
1
60
0
100
AcDbLine
10
9.589284
20
-0.098299
30
0
11
9.592554
21
-0.083624
31
0
39
0
210
0
220
0
230
1
0
LINE
5
82
100
AcDbEntity
8
1
62
256
6
ByLayer
370
18
48
1
60
0
100
AcDbLine
10
9.586488
20
-0.081548
30
0
11
9.592554
21
-0.083624
31
0
39
0
210
0
220
0
230
1
0
LINE
5
83
100
AcDbEntity
8
1
62
256
6
ByLayer
370
13
48
1
60
0
100
AcDbLine
10
9.428701
20
-0.146117
30
0
11
9.289754
21
-0.239112
31
0
39
0
210
0
220
0
230
1
0
LINE
5
84
100
AcDbEntity
8
1
62
256
6
ByLayer
370
18
48
1
60
0
100
AcDbLine
10
7.363206
20
0.499921
30
0
11
7.600397
21
0.400966
31
0
39
0
210
0
220
0
230
1
0
LINE
5
85
100
AcDbEntity
8
1
62
256
6
ByLayer
370
13
48
1
60
0
100
AcDbLine
10
7.257458
20
0.494258
30
0
11
7.279766
21
0.484952
31
0
39
0
210
0
220
0
230
1
0
LINE
5
86
100
AcDbEntity
8
1
62
256
6
ByLayer
370
18
48
1
60
0
100
AcDbLine
10
7.600397
20
-0.421978
30
0
11
7.600397
21
-0.468584
31
0
39
0
210
0
220
0
230
1
0
LINE
5
87
100
AcDbEntity
8
1
62
256
6
ByLayer
370
13
48
1
60
0
100
AcDbLine
10
7.258085
20
-0.329805
30
0
11
7.600397
21
-0.421978
31
0
39
0
210
0
220
0
230
1
0
LINE
5
88
100
AcDbEntity
8
1
62
256
6
ByLayer
370
18
48
1
60
0
100
AcDbLine
10
7.600397
20
-0.421978
30
0
11
7.600397
21
-0.404906
31
0
39
0
210
0
220
0
230
1
0
LINE
5
89
100
AcDbEntity
8
1
62
256
6
ByLayer
370
13
48
1
60
0
100
AcDbLine
10
7.257458
20
-0.312564
30
0
11
7.600397
21
-0.404906
31
0
39
0
210
0
220
0
230
1
0
LINE
5
8A
100
AcDbEntity
8
1
62
256
6
ByLayer
370
18
48
1
60
0
100
AcDbLine
10
7.600397
20
-0.404906
30
0
11
7.600397
21
-0.321535
31
0
39
0
210
0
220
0
230
1
0
LINE
5
8B
100
AcDbEntity
8
1
62
256
6
ByLayer
370
18
48
1
60
0
100
AcDbLine
10
7.600397
20
0.361371
30
0
11
7.600397
21
0.400966
31
0
39
0
210
0
220
0
230
1
0
LINE
5
8C
100
AcDbEntity
8
1
62
256
6
ByLayer
370
18
48
1
60
0
100
AcDbLine
10
9.592333
20
-0.116551
30
0
11
9.59594
21
-0.179966
31
0
39
0
210
0
220
0
230
1
0
LINE
5
8D
100
AcDbEntity
8
1
62
256
6
ByLayer
370
18
48
1
60
0
100
AcDbLine
10
9.533523
20
0.235646
30
0
11
9.592333
21
-0.116551
31
0
39
0
210
0
220
0
230
1
0
LINE
5
8E
100
AcDbEntity
8
1
62
256
6
ByLayer
370
18
48
1
60
0
100
AcDbLine
10
7.600397
20
0.001276
30
0
11
7.600397
21
0.027543
31
0
39
0
210
0
220
0
230
1
0
LINE
5
8F
100
AcDbEntity
8
1
62
256
6
ByLayer
370
13
48
1
60
0
100
AcDbLine
10
7.267021
20
0.11731
30
0
11
7.600397
21
0.027543
31
0
39
0
210
0
220
0
230
1
0
LINE
5
90
100
AcDbEntity
8
1
62
256
6
ByLayer
370
18
48
1
60
0
100
AcDbLine
10
7.600397
20
0.027543
30
0
11
7.600397
21
0.231415
31
0
39
0
210
0
220
0
230
1
0
LINE
5
91
100
AcDbEntity
8
1
62
256
6
ByLayer
370
13
48
1
60
0
100
AcDbLine
10
7.55029
20
0.244908
30
0
11
7.600397
21
0.231415
31
0
39
0
210
0
220
0
230
1
0
LINE
5
92
100
AcDbEntity
8
1
62
256
6
ByLayer
370
18
48
1
60
0
100
AcDbLine
10
7.363206
20
-0.257667
30
0
11
7.600397
21
-0.321535
31
0
39
0
210
0
220
0
230
1
0
LINE
5
93
100
AcDbEntity
8
1
62
256
6
ByLayer
370
18
48
1
60
0
100
AcDbLine
10
7.600397
20
-0.321535
30
0
11
7.600397
21
0.001276
31
0
39
0
210
0
220
0
230
1
0
LINE
5
94
100
AcDbEntity
8
1
62
256
6
ByLayer
370
13
48
1
60
0
100
AcDbLine
10
7.270024
20
0.090234
30
0
11
7.600397
21
0.001276
31
0
39
0
210
0
220
0
230
1
0
LINE
5
95
100
AcDbEntity
8
1
62
256
6
ByLayer
370
18
48
1
60
0
100
AcDbLine
10
7.600397
20
0.242843
30
0
11
7.600397
21
0.231415
31
0
39
0
210
0
220
0
230
1
0
LINE
5
96
100
AcDbEntity
8
1
62
256
6
ByLayer
370
18
48
1
60
0
100
AcDbLine
10
7.600397
20
-0.499932
30
0
11
7.599707
21
-0.499933
31
0
39
0
210
0
220
0
230
1
0
LINE
5
97
100
AcDbEntity
8
1
62
256
6
ByLayer
370
18
48
1
60
0
100
AcDbLine
10
7.363206
20
0.499921
30
0
11
7.362139
21
0.5
31
0
39
0
210
0
220
0
230
1
0
LINE
5
98
100
AcDbEntity
8
1
62
256
6
ByLayer
370
13
48
1
60
0
100
AcDbLine
10
4.598076
20
-0.5
30
0
11
4.598076
21
0
31
0
39
0
210
0
220
0
230
1
0
LINE
5
99
100
AcDbEntity
8
1
62
256
6
ByLayer
370
13
48
1
60
0
100
AcDbLine
10
4.598076
20
0
30
0
11
4.598076
21
0.5
31
0
39
0
210
0
220
0
230
1
0
LINE
5
9A
100
AcDbEntity
8
1
62
256
6
ByLayer
370
13
48
1
60
0
100
AcDbLine
10
4.098076
20
0.633975
30
0
11
4.098076
21
0
31
0
39
0
210
0
220
0
230
1
0
LINE
5
9B
100
AcDbEntity
8
1
62
256
6
ByLayer
370
13
48
1
60
0
100
AcDbLine
10
4.098076
20
0
30
0
11
4.098076
21
-0.633975
31
0
39
0
210
0
220
0
230
1
0
LINE
5
9C
100
AcDbEntity
8
1
62
256
6
ByLayer
370
18
48
1
60
0
100
AcDbLine
10
0
20
3
30
0
11
0
21
0
31
0
39
0
210
0
220
0
230
1
0
LINE
5
9D
100
AcDbEntity
8
1
62
256
6
ByLayer
370
18
48
1
60
0
100
AcDbLine
10
0
20
0
30
0
11
0
21
-3
31
0
39
0
210
0
220
0
230
1
0
LINE
5
9E
100
AcDbEntity
8
SK1
62
256
6
ByLayer
370
18
48
1
60
0
100
AcDbLine
10
-40.399603
20
-2.6
30
0
11
-40.399603
21
2.6
31
0
39
0
210
0
220
0
230
1
0
LINE
5
A0
100
AcDbEntity
8
SK1
62
256
6
ByLayer
370
18
48
1
60
0
100
AcDbLine
10
0
20
3
30
0
11
0
21
0
31
0
39
0
210
0
220
0
230
1
0
LINE
5
A1
100
AcDbEntity
8
SK1
62
256
6
ByLayer
370
18
48
1
60
0
100
AcDbLine
10
0
20
0
30
0
11
0
21
-3
31
0
39
0
210
0
220
0
230
1
0
LINE
5
A2
100
AcDbEntity
8
SK1
62
256
6
ByLayer
370
18
48
1
60
0
100
AcDbLine
10
-39.999603
20
3
30
0
11
-39.999603
21
-3
31
0
39
0
210
0
220
0
230
1
0
LINE
5
A3
100
AcDbEntity
8
1
62
256
6
ByLayer
370
18
48
1
60
0
100
AcDbLine
10
7.524036
20
-0.5
30
0
11
7.600422
21
-0.5
31
0
39
0
210
0
220
0
230
1
0
LINE
5
A4
100
AcDbEntity
8
1
62
256
6
ByLayer
370
18
48
1
60
0
100
AcDbLine
10
7.36192
20
0.5
30
0
11
4.598076
21
0.5
31
0
39
0
210
0
220
0
230
1
0
LINE
5
A5
100
AcDbEntity
8
1
62
256
6
ByLayer
370
18
48
1
60
0
100
AcDbLine
10
4.598076
20
-0.5
30
0
11
7.524036
21
-0.5
31
0
39
0
210
0
220
0
230
1
0
LINE
5
A6
100
AcDbEntity
8
1
62
256
6
ByLayer
370
18
48
1
60
0
100
AcDbLine
10
4.098076
20
0.633975
30
0
11
0
21
3
31
0
39
0
210
0
220
0
230
1
0
LINE
5
A7
100
AcDbEntity
8
1
62
256
6
ByLayer
370
18
48
1
60
0
100
AcDbLine
10
0
20
-3
30
0
11
4.098076
21
-0.633975
31
0
39
0
210
0
220
0
230
1
0
LINE
5
A8
100
AcDbEntity
8
SK1
62
256
6
ByLayer
370
18
48
1
60
0
100
AcDbLine
10
-40.399603
20
-2.6
30
0
11
-39.999603
21
-3
31
0
39
0
210
0
220
0
230
1
0
LINE
5
A9
100
AcDbEntity
8
SK1
62
256
6
ByLayer
370
18
48
1
60
0
100
AcDbLine
10
-39.999603
20
3
30
0
11
-40.399603
21
2.6
31
0
39
0
210
0
220
0
230
1
0
LINE
5
AA
100
AcDbEntity
8
SK1
62
256
6
ByLayer
370
18
48
1
60
0
100
AcDbLine
10
0
20
3
30
0
11
-39.999603
21
3
31
0
39
0
210
0
220
0
230
1
0
LINE
5
AB
100
AcDbEntity
8
SK1
62
256
6
ByLayer
370
18
48
1
60
0
100
AcDbLine
10
-39.999603
20
-3
30
0
11
0
21
-3
31
0
39
0
210
0
220
0
230
1
0
LINE
5
AC
100
AcDbEntity
8
SK2
62
256
6
ByLayer
370
18
48
1
60
0
100
AcDbLine
10
-48.249603
20
11.75
30
0
11
-48.249603
21
-19.315466
31
0
39
0
210
0
220
0
230
1
0
LINE
5
AE
100
AcDbEntity
8
SK2
62
256
6
ByLayer
370
18
48
1
60
0
100
AcDbLine
10
-41.587103
20
3
30
0
11
-50.249603
21
3
31
0
39
0
210
0
220
0
230
1
0
LINE
5
AF
100
AcDbEntity
8
SK2
62
256
6
ByLayer
370
18
48
1
60
0
100
AcDbLine
10
-41.587103
20
-3
30
0
11
-50.249603
21
-3
31
0
39
0
210
0
220
0
230
1
0
LINE
5
B0
100
AcDbEntity
8
1
62
256
6
ByLayer
370
18
48
1
60
1
100
AcDbLine
10
-48.249603
20
3
30
0
11
-48.710386
21
6.499998
31
0
39
0
210
0
220
0
230
1
0
LINE
5
B1
100
AcDbEntity
8
1
62
256
6
ByLayer
370
18
48
1
60
1
100
AcDbLine
10
-48.710386
20
6.499998
30
0
11
-47.788819
21
6.500002
31
0
39
0
210
0
220
0
230
1
0
LINE
5
B2
100
AcDbEntity
8
1
62
256
6
ByLayer
370
18
48
1
60
1
100
AcDbLine
10
-47.788819
20
6.500002
30
0
11
-48.249603
21
3
31
0
39
0
210
0
220
0
230
1
0
LINE
5
B3
100
AcDbEntity
8
1
62
256
6
ByLayer
370
18
48
1
60
1
100
AcDbLine
10
-48.249603
20
-3
30
0
11
-47.788819
21
-6.499998
31
0
39
0
210
0
220
0
230
1
0
LINE
5
B4
100
AcDbEntity
8
1
62
256
6
ByLayer
370
18
48
1
60
1
100
AcDbLine
10
-47.788819
20
-6.499998
30
0
11
-48.710386
21
-6.500002
31
0
39
0
210
0
220
0
230
1
0
LINE
5
B5
100
AcDbEntity
8
1
62
256
6
ByLayer
370
18
48
1
60
1
100
AcDbLine
10
-48.710386
20
-6.500002
30
0
11
-48.249603
21
-3
31
0
39
0
210
0
220
0
230
1
0
LINE
5
B6
100
AcDbEntity
8
2
62
256
6
ByLayer
370
18
48
1
60
0
100
AcDbLine
10
21.600397
20
15.9407
30
0
11
21.600397
21
-9.2501
31
0
39
0
210
0
220
0
230
1
0
LINE
5
B8
100
AcDbEntity
8
2
62
256
6
ByLayer
370
18
48
1
60
0
100
AcDbLine
10
11.187897
20
0.5001
30
0
11
23.600397
21
0.5001
31
0
39
0
210
0
220
0
230
1
0
LINE
5
B9
100
AcDbEntity
8
2
62
256
6
ByLayer
370
18
48
1
60
0
100
AcDbLine
10
11.187897
20
-0.5001
30
0
11
23.600397
21
-0.5001
31
0
39
0
210
0
220
0
230
1
0
LINE
5
BA
100
AcDbEntity
8
1
62
256
6
ByLayer
370
18
48
1
60
1
100
AcDbLine
10
21.600397
20
0.5001
30
0
11
21.139614
21
4.000098
31
0
39
0
210
0
220
0
230
1
0
LINE
5
BB
100
AcDbEntity
8
1
62
256
6
ByLayer
370
18
48
1
60
1
100
AcDbLine
10
21.139614
20
4.000098
30
0
11
22.061181
21
4.000102
31
0
39
0
210
0
220
0
230
1
0
LINE
5
BC
100
AcDbEntity
8
1
62
256
6
ByLayer
370
18
48
1
60
1
100
AcDbLine
10
22.061181
20
4.000102
30
0
11
21.600397
21
0.5001
31
0
39
0
210
0
220
0
230
1
0
LINE
5
BD
100
AcDbEntity
8
1
62
256
6
ByLayer
370
18
48
1
60
1
100
AcDbLine
10
21.600397
20
-0.5001
30
0
11
22.061181
21
-4.000098
31
0
39
0
210
0
220
0
230
1
0
LINE
5
BE
100
AcDbEntity
8
1
62
256
6
ByLayer
370
18
48
1
60
1
100
AcDbLine
10
22.061181
20
-4.000098
30
0
11
21.139614
21
-4.000102
31
0
39
0
210
0
220
0
230
1
0
LINE
5
BF
100
AcDbEntity
8
1
62
256
6
ByLayer
370
18
48
1
60
1
100
AcDbLine
10
21.139614
20
-4.000102
30
0
11
21.600397
21
-0.5001
31
0
39
0
210
0
220
0
230
1
0
LINE
5
C0
100
AcDbEntity
8
2
62
256
6
ByLayer
370
18
48
1
60
0
100
AcDbLine
10
9.600397
20
-33.1
30
0
11
-40.399603
21
-33.1
31
0
39
0
210
0
220
0
230
1
0
LINE
5
C1
100
AcDbEntity
8
2
62
256
6
ByLayer
370
18
48
1
60
0
100
AcDbLine
10
-40.399603
20
-4.1875
30
0
11
-40.399603
21
-35.1
31
0
39
0
210
0
220
0
230
1
0
LINE
5
C2
100
AcDbEntity
8
2
62
256
6
ByLayer
370
18
48
1
60
0
100
AcDbLine
10
9.600397
20
-2.0876
30
0
11
9.600397
21
-35.1
31
0
39
0
210
0
220
0
230
1
0
LINE
5
C3
100
AcDbEntity
8
1
62
256
6
ByLayer
370
18
48
1
60
1
100
AcDbLine
10
-40.399603
20
-33.1
30
0
11
-36.899604
21
-32.639216
31
0
39
0
210
0
220
0
230
1
0
LINE
5
C4
100
AcDbEntity
8
1
62
256
6
ByLayer
370
18
48
1
60
1
100
AcDbLine
10
-36.899604
20
-32.639216
30
0
11
-36.899601
21
-33.560784
31
0
39
0
210
0
220
0
230
1
0
LINE
5
C5
100
AcDbEntity
8
1
62
256
6
ByLayer
370
18
48
1
60
1
100
AcDbLine
10
-36.899601
20
-33.560784
30
0
11
-40.399603
21
-33.1
31
0
39
0
210
0
220
0
230
1
0
LINE
5
C6
100
AcDbEntity
8
1
62
256
6
ByLayer
370
18
48
1
60
1
100
AcDbLine
10
9.600397
20
-33.1
30
0
11
6.100399
21
-33.560784
31
0
39
0
210
0
220
0
230
1
0
LINE
5
C7
100
AcDbEntity
8
1
62
256
6
ByLayer
370
18
48
1
60
1
100
AcDbLine
10
6.100399
20
-33.560784
30
0
11
6.100396
21
-32.639216
31
0
39
0
210
0
220
0
230
1
0
LINE
5
C8
100
AcDbEntity
8
1
62
256
6
ByLayer
370
18
48
1
60
1
100
AcDbLine
10
6.100396
20
-32.639216
30
0
11
9.600397
21
-33.1
31
0
39
0
210
0
220
0
230
1
0
LINE
5
12A
100
AcDbEntity
8
1
62
256
6
ByLayer
370
18
48
1
60
1
100
AcDbLine
10
-48.249603
20
3
30
0
11
-48.710386
21
6.499998
31
0
39
0
210
0
220
0
230
1
0
LINE
5
12B
100
AcDbEntity
8
1
62
256
6
ByLayer
370
18
48
1
60
1
100
AcDbLine
10
-48.710386
20
6.499998
30
0
11
-47.788819
21
6.500002
31
0
39
0
210
0
220
0
230
1
0
LINE
5
12C
100
AcDbEntity
8
1
62
256
6
ByLayer
370
18
48
1
60
1
100
AcDbLine
10
-47.788819
20
6.500002
30
0
11
-48.249603
21
3
31
0
39
0
210
0
220
0
230
1
0
LINE
5
12E
100
AcDbEntity
8
1
62
256
6
ByLayer
370
18
48
1
60
1
100
AcDbLine
10
-48.249603
20
-3
30
0
11
-47.788819
21
-6.499998
31
0
39
0
210
0
220
0
230
1
0
LINE
5
12F
100
AcDbEntity
8
1
62
256
6
ByLayer
370
18
48
1
60
1
100
AcDbLine
10
-47.788819
20
-6.499998
30
0
11
-48.710386
21
-6.500002
31
0
39
0
210
0
220
0
230
1
0
LINE
5
130
100
AcDbEntity
8
1
62
256
6
ByLayer
370
18
48
1
60
1
100
AcDbLine
10
-48.710386
20
-6.500002
30
0
11
-48.249603
21
-3
31
0
39
0
210
0
220
0
230
1
0
LINE
5
134
100
AcDbEntity
8
1
62
256
6
ByLayer
370
18
48
1
60
1
100
AcDbLine
10
21.600397
20
0.5001
30
0
11
21.139614
21
4.000098
31
0
39
0
210
0
220
0
230
1
0
LINE
5
135
100
AcDbEntity
8
1
62
256
6
ByLayer
370
18
48
1
60
1
100
AcDbLine
10
21.139614
20
4.000098
30
0
11
22.061181
21
4.000102
31
0
39
0
210
0
220
0
230
1
0
LINE
5
136
100
AcDbEntity
8
1
62
256
6
ByLayer
370
18
48
1
60
1
100
AcDbLine
10
22.061181
20
4.000102
30
0
11
21.600397
21
0.5001
31
0
39
0
210
0
220
0
230
1
0
LINE
5
138
100
AcDbEntity
8
1
62
256
6
ByLayer
370
18
48
1
60
1
100
AcDbLine
10
21.600397
20
-0.5001
30
0
11
22.061181
21
-4.000098
31
0
39
0
210
0
220
0
230
1
0
LINE
5
139
100
AcDbEntity
8
1
62
256
6
ByLayer
370
18
48
1
60
1
100
AcDbLine
10
22.061181
20
-4.000098
30
0
11
21.139614
21
-4.000102
31
0
39
0
210
0
220
0
230
1
0
LINE
5
13A
100
AcDbEntity
8
1
62
256
6
ByLayer
370
18
48
1
60
1
100
AcDbLine
10
21.139614
20
-4.000102
30
0
11
21.600397
21
-0.5001
31
0
39
0
210
0
220
0
230
1
0
LINE
5
13D
100
AcDbEntity
8
1
62
256
6
ByLayer
370
18
48
1
60
1
100
AcDbLine
10
-40.399603
20
-33.1
30
0
11
-36.899604
21
-32.639216
31
0
39
0
210
0
220
0
230
1
0
LINE
5
13E
100
AcDbEntity
8
1
62
256
6
ByLayer
370
18
48
1
60
1
100
AcDbLine
10
-36.899604
20
-32.639216
30
0
11
-36.899601
21
-33.560784
31
0
39
0
210
0
220
0
230
1
0
LINE
5
13F
100
AcDbEntity
8
1
62
256
6
ByLayer
370
18
48
1
60
1
100
AcDbLine
10
-36.899601
20
-33.560784
30
0
11
-40.399603
21
-33.1
31
0
39
0
210
0
220
0
230
1
0
LINE
5
141
100
AcDbEntity
8
1
62
256
6
ByLayer
370
18
48
1
60
1
100
AcDbLine
10
9.600397
20
-33.1
30
0
11
6.100399
21
-33.560784
31
0
39
0
210
0
220
0
230
1
0
LINE
5
142
100
AcDbEntity
8
1
62
256
6
ByLayer
370
18
48
1
60
1
100
AcDbLine
10
6.100399
20
-33.560784
30
0
11
6.100396
21
-32.639216
31
0
39
0
210
0
220
0
230
1
0
LINE
5
143
100
AcDbEntity
8
1
62
256
6
ByLayer
370
18
48
1
60
1
100
AcDbLine
10
6.100396
20
-32.639216
30
0
11
9.600397
21
-33.1
31
0
39
0
210
0
220
0
230
1
0
MTEXT
5
126
100
AcDbEntity
8
SK2
62
256
6
ByLayer
370
18
48
1
60
0
100
AcDbMText
10
-49.814236
20
-17.380622
30
0
210
0
220
0
230
1
1
%%c
40
3.5
41
0
44
1.084337
50
90
71
7
72
5
7
iso_b_vert
0
MTEXT
5
129
100
AcDbEntity
8
SK2
62
256
6
ByLayer
370
18
48
1
60
0
100
AcDbMText
10
-49.814236
20
-10.407966
30
0
210
0
220
0
230
1
1
\W0.5404;6
40
3.5
41
0
44
1.084337
50
90
71
7
72
5
7
iso_b_vert
0
MTEXT
5
132
100
AcDbEntity
8
2
62
256
6
ByLayer
370
18
48
1
60
0
100
AcDbMText
10
20.035764
20
8.434944
30
0
210
0
220
0
230
1
1
%%c
40
3.5
41
0
44
1.084337
50
90
71
7
72
5
7
iso_b_vert
0
MTEXT
5
133
100
AcDbEntity
8
2
62
256
6
ByLayer
370
18
48
1
60
0
100
AcDbMText
10
20.035764
20
15.4076
30
0
210
0
220
0
230
1
1
\W0.3580;1
40
3.5
41
0
44
1.084337
50
90
71
7
72
5
7
iso_b_vert
0
MTEXT
5
13C
100
AcDbEntity
8
2
62
256
6
ByLayer
370
18
48
1
60
0
100
AcDbMText
10
-17.304569
20
-32.067366
30
0
210
0
220
0
230
1
1
\W0.6740;50
40
3.5
41
0
44
1.084337
50
0
71
7
72
5
7
iso_b_vert
0
MTEXT
5
145
100
AcDbEntity
8
SK6
62
256
6
ByLayer
370
18
48
1
60
0
100
AcDbMText
10
-34.449839
20
-62.114886
30
0
210
0
220
0
230
1
1
\W0.7283;1K333-0100-XA 1730
40
3
41
0
44
1.084337
50
0
71
7
72
5
7
iso_b_vert
0
HATCH
5
12D
100
AcDbEntity
8
SK2
62
256
6
ByLayer
370
13
48
1
60
0
100
AcDbHatch
10
0
20
0
30
0
210
0
220
0
230
1
2
ANSI31
70
0
71
0
91
1
92
5
93
3
72
1
10
-48.2496027108075
20
3
11
-48.7103864523603
21
6.49999830744682
72
1
10
-48.7103864523603
20
6.49999830744682
11
-47.7888189692547
21
6.50000169255318
72
1
10
-47.7888189692547
20
6.50000169255318
11
-48.2496027108075
21
3
97
0
75
0
76
1
52
0
41
0.0062
77
0
78
1
53
45
43
0
44
0
45
-0.0139193969876572
46
0.0139193969876572
79
0
47
0
98
1
10
0
20
0
0
HATCH
5
131
100
AcDbEntity
8
SK2
62
256
6
ByLayer
370
13
48
1
60
0
100
AcDbHatch
10
0
20
0
30
0
210
0
220
0
230
1
2
ANSI31
70
0
71
0
91
1
92
5
93
3
72
1
10
-48.2496027108075
20
-3
11
-47.7888189692547
21
-6.49999830744682
72
1
10
-47.7888189692547
20
-6.49999830744682
11
-48.7103864523603
21
-6.50000169255318
72
1
10
-48.7103864523603
20
-6.50000169255318
11
-48.2496027108075
21
-3
97
0
75
0
76
1
52
0
41
0.0062
77
0
78
1
53
45
43
0
44
0
45
-0.0139193969876572
46
0.0139193969876572
79
0
47
0
98
1
10
0
20
0
0
HATCH
5
137
100
AcDbEntity
8
2
62
256
6
ByLayer
370
13
48
1
60
0
100
AcDbHatch
10
0
20
0
30
0
210
0
220
0
230
1
2
ANSI31
70
0
71
0
91
1
92
5
93
3
72
1
10
21.6003972891925
20
0.500099999999975
11
21.1396135476397
21
4.00009830744679
72
1
10
21.1396135476397
20
4.00009830744679
11
22.0611810307452
21
4.00010169255316
72
1
10
22.0611810307452
20
4.00010169255316
11
21.6003972891925
21
0.500099999999975
97
0
75
0
76
1
52
0
41
0.0062
77
0
78
1
53
45
43
0
44
0
45
-0.0139193969876572
46
0.0139193969876572
79
0
47
0
98
1
10
0
20
0
0
HATCH
5
13B
100
AcDbEntity
8
2
62
256
6
ByLayer
370
13
48
1
60
0
100
AcDbHatch
10
0
20
0
30
0
210
0
220
0
230
1
2
ANSI31
70
0
71
0
91
1
92
5
93
3
72
1
10
21.6003972891925
20
-0.500100000000032
11
22.0611810307452
21
-4.00009830744685
72
1
10
22.0611810307452
20
-4.00009830744685
11
21.1396135476397
21
-4.00010169255322
72
1
10
21.1396135476397
20
-4.00010169255322
11
21.6003972891925
21
-0.500100000000032
97
0
75
0
76
1
52
0
41
0.0062
77
0
78
1
53
45
43
0
44
0
45
-0.0139193969876572
46
0.0139193969876572
79
0
47
0
98
1
10
0
20
0
0
HATCH
5
140
100
AcDbEntity
8
2
62
256
6
ByLayer
370
13
48
1
60
0
100
AcDbHatch
10
0
20
0
30
0
210
0
220
0
230
1
2
ANSI31
70
0
71
0
91
1
92
5
93
3
72
1
10
-40.3996027108075
20
-33.1000000000001
11
-36.8996044033607
21
-32.6392162584473
72
1
10
-36.8996044033607
20
-32.6392162584473
11
-36.8996010182543
21
-33.5607837415528
72
1
10
-36.8996010182543
20
-33.5607837415528
11
-40.3996027108075
21
-33.1000000000001
97
0
75
0
76
1
52
0
41
0.0062
77
0
78
1
53
45
43
0
44
0
45
-0.0139193969876572
46
0.0139193969876572
79
0
47
0
98
1
10
0
20
0
0
HATCH
5
144
100
AcDbEntity
8
2
62
256
6
ByLayer
370
13
48
1
60
0
100
AcDbHatch
10
0
20
0
30
0
210
0
220
0
230
1
2
ANSI31
70
0
71
0
91
1
92
5
93
3
72
1
10
9.60039728919247
20
-33.1000000000001
11
6.10039898174566
21
-33.5607837415528
72
1
10
6.10039898174566
20
-33.5607837415528
11
6.10039559663929
21
-32.6392162584473
72
1
10
6.10039559663929
20
-32.6392162584473
11
9.60039728919247
21
-33.1000000000001
97
0
75
0
76
1
52
0
41
0.0062
77
0
78
1
53
45
43
0
44
0
45
-0.0139193969876572
46
0.0139193969876572
79
0
47
0
98
1
10
0
20
0
0
DIMENSION
5
148
100
AcDbEntity
8
SK2
62
256
6
ByLayer
370
18
48
1
60
0
100
AcDbDimension
2
_U0
10
7.600397
20
-17.1
30
0
11
8.600397
21
-17.1
31
0
70
32
71
1
72
1
41
1
210
0
220
0
230
1
3
Standard
100
AcDbAlignedDimension
13
9.600397
23
-0.5001
33
0
14
7.600397
24
-0.5001
34
0
50
0
100
AcDbRotatedDimension
1001
ACAD
1000
DSTYLE
1002
{
1070
   371
1070
    13
1070
   372
1070
    13
1070
   170
1070
     0
1070
   144
1040
1.0
1070
   277
1070
     2
1070
   284
1070
     8
1070
   278
1070
    46
1070
   146
1040
1.0
1070
   345
1005
16
1070
   347
1005
16
1070
   346
1005
16
1070
   344
1005
0
1070
   343
1005
0
1070
   172
1070
     1
1070
    76
1070
     0
1070
    75
1070
     0
1070
   282
1070
     0
1070
   281
1070
     0
1070
    71
1070
     0
1070
    74
1070
     0
1070
   279
1070
     0
1070
   173
1070
     1
1070
   340
1005
127
1070
   271
1070
     2
1070
   272
1070
     2
1070
    77
1070
     1
1070
    73
1070
     1
1070
   171
1070
     3
1070
   274
1070
     4
1070
   177
1070
     2
1070
   176
1070
     2
1070
   178
1070
     2
1070
    78
1070
     8
1070
    48
1040
-0.1
1070
    41
1040
3.5
1070
   147
1040
1.75
1070
    42
1040
1.5875
1070
    44
1040
2.0
1070
   140
1040
3.5
1002
}
1001
ACAD_DSTYLE_DIM_LINETYPE
1070
   380
1005
16
1001
ACAD_DSTYLE_DIM_EXT1_LINETYPE
1070
   381
1005
16
1001
ACAD_DSTYLE_DIM_EXT2_LINETYPE
1070
   382
1005
16
0
ENDSEC
0
SECTION
2
OBJECTS
0
DICTIONARY
5
1d2
330
0
100
AcDbDictionary
280
0
281
1
3
ACAD_GROUP
350
1d3
3
ACAD_MLINESTYLE
350
1d4
0
DICTIONARY
5
1d3
330
0
100
AcDbDictionary
280
0
281
1
0
DICTIONARY
5
1d4
330
0
100
AcDbDictionary
280
0
281
1
3
Standard
350
18
0
MLINESTYLE
5
18
330
1d4
100
AcDbMlineStyle
2
Standard
70
0
3

62
256
51
90
52
90
71
2
49
-0.5
62
256
6
ByLayer
49
0.5
62
256
6
ByLayer
0
RASTERVARIABLES
5
1c0
330

100
AcDbRasterVariables
90
0
70
1
71
1
72
1
0
ENDSEC
0
EOF
