0
SECTION
2
HEADER
9
$ACADVER
1
AC1015
9
$DWGCODEPAGE
3
ANSI_1252
9
$HANDSEED
5
212
9
$ANGBASE
50
0
9
$ANGDIR
70
0
9
$ATTMODE
70
1
9
$AUNITS
70
0
9
$AUPREC
70
0
9
$CECOLOR
62
256
9
$CELTSCALE
40
1
9
$CELTYPE
6
ByLayer
9
$CELWEIGHT
370
18
9
$CLAYER
8
0
9
$CMLJUST
70
0
9
$CMLSCALE
40
1
9
$CMLSTYLE
2
Standard
9
$DIMSTYLE
2
Standard
9
$TEXTSIZE
40
0.2
9
$TEXTSTYLE
7
Standard
9
$LUNITS
70
2
9
$LUPREC
70
4
9
$EXTNAMES
290
1
9
$INSUNITS
70
4
9
$LTSCALE
40
1
9
$LWDISPLAY
290
1
9
$PDMODE
70
0
9
$PDSIZE
40
0
9
$PLINEGEN
70
0
0
ENDSEC
0
SECTION
2
CLASSES
0
CLASS
1
RASTERVARIABLES
2
AcDbRasterVariables
3
ISM
90
0
280
0
281
0
0
ENDSEC
0
SECTION
2
TABLES
0
TABLE
2
VPORT
5
208
100
AcDbSymbolTable
0
VPORT
5
1
100
AcDbSymbolTableRecord
100
AcDbViewportTableRecord
2
*Active
70
0
10
0
20
0
11
1
21
1
12
-1
22
1
13
0
23
0
14
0.5
24
0.5
15
10
25
10
16
0
26
0
36
1
17
0
27
0
37
0
0
ENDTAB
0
TABLE
2
LTYPE
5
209
100
AcDbSymbolTable
0
LTYPE
5
14
100
AcDbSymbolTableRecord
100
AcDbLinetypeTableRecord
70
0
2
ByBlock
3

72
65
73
0
40
0
0
LTYPE
5
15
100
AcDbSymbolTableRecord
100
AcDbLinetypeTableRecord
70
0
2
ByLayer
3

72
65
73
0
40
0
0
LTYPE
5
16
100
AcDbSymbolTableRecord
100
AcDbLinetypeTableRecord
70
0
2
Continuous
3
Solid line
72
65
73
0
40
0
0
LTYPE
5
6E
100
AcDbSymbolTableRecord
100
AcDbLinetypeTableRecord
70
0
2
CENTER
3
____ _ ____ _ ____ _ ____
72
65
73
4
40
47.5
49
22
74
0
49
-8.5
74
0
49
8.5
74
0
49
-8.5
74
0
0
LTYPE
5
6F
100
AcDbSymbolTableRecord
100
AcDbLinetypeTableRecord
70
0
2
DASHED
3
__ __ __ __ __ __ __ __ __
72
65
73
2
40
25.72
49
12.86
74
0
49
-12.86
74
0
0
ENDTAB
0
TABLE
2
LAYER
5
20a
100
AcDbSymbolTable
0
LAYER
5
10
100
AcDbSymbolTableRecord
100
AcDbLayerTableRecord
2
0
70
0
62
7
6
Continuous
290
1
370
-3
390
0
0
LAYER
5
71
100
AcDbSymbolTableRecord
100
AcDbLayerTableRecord
2
81
70
0
62
-3
6
Continuous
290
1
370
-3
390
0
0
LAYER
5
73
100
AcDbSymbolTableRecord
100
AcDbLayerTableRecord
2
80
70
0
62
-6
6
Continuous
290
1
370
-3
390
0
0
LAYER
5
75
100
AcDbSymbolTableRecord
100
AcDbLayerTableRecord
2
1
70
0
62
4
6
Continuous
290
1
370
-3
390
0
0
LAYER
5
7C
100
AcDbSymbolTableRecord
100
AcDbLayerTableRecord
2
4
70
0
62
-2
6
CENTER
290
1
370
-3
390
0
0
LAYER
5
CD
100
AcDbSymbolTableRecord
100
AcDbLayerTableRecord
2
2
70
0
62
7
6
Continuous
290
1
370
-3
390
0
0
LAYER
5
17F
100
AcDbSymbolTableRecord
100
AcDbLayerTableRecord
2
Defpoints
70
0
62
7
6
Continuous
290
0
370
-3
390
0
0
LAYER
5
1f4
100
AcDbSymbolTableRecord
100
AcDbLayerTableRecord
2
SK4
70
0
62
2
6
CENTER
290
1
370
-3
390
0
0
LAYER
5
1f5
100
AcDbSymbolTableRecord
100
AcDbLayerTableRecord
2
SK1
70
0
62
4
6
Continuous
290
1
370
-3
390
0
0
LAYER
5
1f6
100
AcDbSymbolTableRecord
100
AcDbLayerTableRecord
2
SK2
70
0
62
7
6
Continuous
290
1
370
-3
390
0
0
LAYER
5
1f7
100
AcDbSymbolTableRecord
100
AcDbLayerTableRecord
2
SK6
70
0
62
5
6
Continuous
290
1
370
-3
390
0
0
ENDTAB
0
TABLE
2
STYLE
5
20b
100
AcDbSymbolTable
0
STYLE
5
11
100
AcDbSymbolTableRecord
100
AcDbTextStyleTableRecord
2
Standard
3
txt
70
0
71
0
40
0
41
1
42
0
50
0
0
STYLE
5
15B
100
AcDbSymbolTableRecord
100
AcDbTextStyleTableRecord
2
iso_b_vert
3
simplex.shx
70
0
71
0
40
0
41
1
42
0
50
0
0
STYLE
5
15C
100
AcDbSymbolTableRecord
100
AcDbTextStyleTableRecord
2
DWGDirectTextStyle
3
simplex
70
0
71
0
40
0
41
1
42
0
50
0
0
ENDTAB
0
TABLE
2
DIMSTYLE
5
20c
100
AcDbSymbolTable
100
AcDbDimStyleTable
0
DIMSTYLE
105
27
100
AcDbSymbolTableRecord
100
AcDbDimStyleTableRecord
2
Standard
70
0
3
<>
41
0.18
42
0.0625
44
0.18
140
0.18
147
0.09
73
0
74
0
77
1
271
2
275
0
278
52
280
0
340
11
0
ENDTAB
0
TABLE
2
VIEW
5
20d
100
AcDbSymbolTable
0
ENDTAB
0
TABLE
2
UCS
5
20e
100
AcDbSymbolTable
0
ENDTAB
0
TABLE
2
APPID
5
20f
100
AcDbSymbolTable
0
APPID
5
12
100
AcDbSymbolTableRecord
100
AcDbRegAppTableRecord
2
ACAD
70
0
0
APPID
5
17B
100
AcDbSymbolTableRecord
100
AcDbRegAppTableRecord
2
ACAD_DSTYLE_DIMBREAK
70
0
0
APPID
5
1B3
100
AcDbSymbolTableRecord
100
AcDbRegAppTableRecord
2
ACAD_DSTYLE_DIM_LINETYPE
70
0
0
APPID
5
1B4
100
AcDbSymbolTableRecord
100
AcDbRegAppTableRecord
2
ACAD_DSTYLE_DIM_EXT1_LINETYPE
70
0
0
APPID
5
1B5
100
AcDbSymbolTableRecord
100
AcDbRegAppTableRecord
2
ACAD_DSTYLE_DIM_EXT2_LINETYPE
70
0
0
APPID
5
1F0
100
AcDbSymbolTableRecord
100
AcDbRegAppTableRecord
2
ACAD_MLEADERVER
70
0
0
ENDTAB
0
TABLE
2
BLOCK_RECORD
5
210
100
AcDbSymbolTable
0
BLOCK_RECORD
5
1F
100
AcDbSymbolTableRecord
100
AcDbBlockTableRecord
2
*Model_Space
340
0
70
0
0
BLOCK_RECORD
5
1B
100
AcDbSymbolTableRecord
100
AcDbBlockTableRecord
2
*Paper_Space
340
0
70
0
0
BLOCK_RECORD
5
23
100
AcDbSymbolTableRecord
100
AcDbBlockTableRecord
2
*Paper_Space0
340
0
70
0
0
BLOCK_RECORD
5
180
100
AcDbSymbolTableRecord
100
AcDbBlockTableRecord
2
*D1
340
0
70
0
0
BLOCK_RECORD
5
18C
100
AcDbSymbolTableRecord
100
AcDbBlockTableRecord
2
_U0
340
0
70
0
0
ENDTAB
0
ENDSEC
0
SECTION
2
BLOCKS
0
BLOCK
5
20
100
AcDbEntity
8
0
100
AcDbBlockBegin
2
*Model_Space
70
0
10
0
20
0
30
0
3
*Model_Space
0
ENDBLK
5
21
100
AcDbEntity
8
0
100
AcDbBlockEnd
0
BLOCK
5
1C
100
AcDbEntity
8
0
100
AcDbBlockBegin
2
*Paper_Space
70
0
10
0
20
0
30
0
3
*Paper_Space
0
ENDBLK
5
1D
100
AcDbEntity
8
0
100
AcDbBlockEnd
0
BLOCK
5
24
100
AcDbEntity
8
0
100
AcDbBlockBegin
2
*Paper_Space0
70
0
10
0
20
0
30
0
3
*Paper_Space0
0
ENDBLK
5
25
100
AcDbEntity
8
0
100
AcDbBlockEnd
0
BLOCK
5
181
100
AcDbEntity
8
0
100
AcDbBlockBegin
2
*D1
70
1
10
0
20
0
30
0
3
*D1
0
LINE
5
183
100
AcDbEntity
8
0
62
256
6
ByLayer
370
-2
48
1
60
0
100
AcDbLine
10
24
20
-9.5876
30
0
11
24
21
-24.854669
31
0
39
0
210
0
220
0
230
1
0
LINE
5
184
100
AcDbEntity
8
0
62
256
6
ByLayer
370
-2
48
1
60
0
100
AcDbLine
10
0
20
-9.5876
30
0
11
0
21
-24.854669
31
0
39
0
210
0
220
0
230
1
0
LINE
5
185
100
AcDbEntity
8
0
62
256
6
ByLayer
370
-2
48
1
60
0
100
AcDbLine
10
20.5
20
-22.854669
30
0
11
3.5
21
-22.854669
31
0
39
0
210
0
220
0
230
1
0
SOLID
5
186
100
AcDbEntity
8
0
62
256
6
ByLayer
370
-1
48
1
60
0
100
AcDbTrace
10
20.5
20
-23.438002
30
0
11
20.5
21
-22.271335
31
0
12
24
22
-22.854669
32
0
13
24
23
-22.854669
33
0
39
0
210
0
220
0
230
1
0
SOLID
5
187
100
AcDbEntity
8
0
62
256
6
ByLayer
370
-1
48
1
60
0
100
AcDbTrace
10
3.5
20
-22.271335
30
0
11
3.5
21
-23.438002
31
0
12
0
22
-22.854669
32
0
13
0
23
-22.854669
33
0
39
0
210
0
220
0
230
1
0
MTEXT
5
188
100
AcDbEntity
8
0
62
256
6
ByLayer
370
18
48
1
60
0
100
AcDbMText
10
12
20
-15.854669
30
0
210
0
220
0
230
1
1
\A1;24
40
3.5
41
0
44
1
50
0
71
5
72
5
7
iso_b_vert
0
POINT
5
189
100
AcDbEntity
8
Defpoints
62
0
6
ByLayer
370
-1
48
1
60
0
100
AcDbPoint
10
24
20
-8.0001
30
0
39
0
210
0
220
0
230
1
50
360
0
POINT
5
18A
100
AcDbEntity
8
Defpoints
62
0
6
ByLayer
370
-1
48
1
60
0
100
AcDbPoint
10
0
20
-8.0001
30
0
39
0
210
0
220
0
230
1
50
360
0
POINT
5
18B
100
AcDbEntity
8
Defpoints
62
0
6
ByLayer
370
-1
48
1
60
0
100
AcDbPoint
10
0
20
-22.854669
30
0
39
0
210
0
220
0
230
1
50
360
0
ENDBLK
5
182
100
AcDbEntity
8
0
100
AcDbBlockEnd
0
BLOCK
5
193
100
AcDbEntity
8
0
100
AcDbBlockBegin
2
_U0
70
0
10
0
20
0
30
0
3
_U0
0
MTEXT
5
18D
100
AcDbEntity
8
SK2
62
256
6
ByLayer
370
18
48
1
60
0
100
AcDbMText
10
9.910767
20
-21.822035
30
0
210
0
220
0
230
1
1
\W0.7167;24
40
3.5
41
0
44
1.084337
50
0
71
7
72
5
7
iso_b_vert
0
LINE
5
18E
100
AcDbEntity
8
SK2
62
256
6
ByLayer
370
13
48
1
60
0
100
AcDbLine
10
24
20
-9.5876
30
0
11
24
21
-24.854669
31
0
39
0
210
0
220
0
230
1
0
LINE
5
18F
100
AcDbEntity
8
SK2
62
256
6
ByLayer
370
13
48
1
60
0
100
AcDbLine
10
0
20
-9.5876
30
0
11
0
21
-24.854669
31
0
39
0
210
0
220
0
230
1
0
LINE
5
190
100
AcDbEntity
8
SK2
62
256
6
ByLayer
370
13
48
1
60
0
100
AcDbLine
10
24
20
-22.854669
30
0
11
0
21
-22.854669
31
0
39
0
210
0
220
0
230
1
0
SOLID
5
191
100
AcDbEntity
8
SK2
62
256
6
ByLayer
370
18
48
1
60
0
100
AcDbTrace
10
24
20
-22.854669
30
0
11
20.500002
21
-23.315453
31
0
12
20.499998
22
-22.393885
32
0
13
20.499998
23
-22.393885
33
0
39
0
210
0
220
0
230
1
0
SOLID
5
192
100
AcDbEntity
8
SK2
62
256
6
ByLayer
370
18
48
1
60
0
100
AcDbTrace
10
0
20
-22.854669
30
0
11
3.499998
21
-22.393885
31
0
12
3.500002
22
-23.315453
32
0
13
3.500002
23
-23.315453
33
0
39
0
210
0
220
0
230
1
0
ENDBLK
5
194
100
AcDbEntity
8
0
100
AcDbBlockEnd
0
ENDSEC
0
SECTION
2
ENTITIES
0
ELLIPSE
5
DF
100
AcDbEntity
8
1
62
256
6
ByLayer
370
18
48
1
60
0
100
AcDbEllipse
10
23.618684
20
-0.322712
30
0
11
0.0387609412281648
21
-1.37164760029699
31
0
210
0
220
0
230
1
40
0.078733
41
0.845992160039185
42
1.48808525503182
0
ELLIPSE
5
E0
100
AcDbEntity
8
1
62
256
6
ByLayer
370
18
48
1
60
0
100
AcDbEllipse
10
23.476133
20
-0.991634
30
0
11
0.552407173496612
21
-0.925349664193714
31
0
210
0
220
0
230
1
40
0.508864
41
2.84775019139707
42
-2.48389945412067
0
ELLIPSE
5
E1
100
AcDbEntity
8
1
62
256
6
ByLayer
370
18
48
1
60
0
100
AcDbEllipse
10
23.55103
20
-1.003988
30
0
11
0.0584740283346272
21
-0.916970668987279
31
0
210
0
220
0
230
1
40
0.179612
41
0.765587517789918
42
1.31052622057606
0
ELLIPSE
5
E2
100
AcDbEntity
8
SK1
62
256
6
ByLayer
370
18
48
1
60
0
100
AcDbEllipse
10
7.569301
20
0
30
0
11
15.0942134153446
21
-7.66811947900985
31
0
210
0
220
0
230
1
40
0.151074
41
2.31225361426815
42
2.73042146043213
0
ELLIPSE
5
E3
100
AcDbEntity
8
SK1
62
256
6
ByLayer
370
18
48
1
60
0
100
AcDbEllipse
10
3.97674
20
0
30
0
11
22.8720616180692
21
3.72749199373045
31
0
210
0
220
0
230
1
40
0.309484
41
1.69493485456098
42
1.71861524386601
0
ELLIPSE
5
E4
100
AcDbEntity
8
SK1
62
256
6
ByLayer
370
18
48
1
60
0
100
AcDbEllipse
10
4.812688
20
0
30
0
11
27.6987125322682
21
-3.73949316704661
31
0
210
0
220
0
230
1
40
0.255326
41
-1.74456983416926
42
-1.71089794802358
0
ELLIPSE
5
E5
100
AcDbEntity
8
SK1
62
256
6
ByLayer
370
18
48
1
60
0
100
AcDbEllipse
10
7.355431
20
0
30
0
11
14.6008714417647
21
-3.69473420799433
31
0
210
0
220
0
230
1
40
0.485978
41
-2.53145862180901
42
-2.1142345199836
0
ELLIPSE
5
E6
100
AcDbEntity
8
SK1
62
256
6
ByLayer
370
18
48
1
60
0
100
AcDbEllipse
10
4.084273
20
0
30
0
11
23.4987487123677
21
-7.31423426763035
31
0
210
0
220
0
230
1
40
0.137908
41
1.78822839566875
42
1.82566210215816
0
POINT
5
70
100
AcDbEntity
8
81
62
256
6
ByLayer
370
18
48
1
60
0
100
AcDbPoint
10
24
20
0
30
0
39
0
210
0
220
0
230
1
50
360
0
POINT
5
72
100
AcDbEntity
8
80
62
256
6
ByLayer
370
18
48
1
60
0
100
AcDbPoint
10
0
20
0
30
0
39
0
210
0
220
0
230
1
50
360
0
POINT
5
74
100
AcDbEntity
8
1
62
256
6
ByLayer
370
18
48
1
60
1
100
AcDbPoint
10
24
20
-8.0001
30
0
39
0
210
0
220
0
230
1
50
360
0
POINT
5
76
100
AcDbEntity
8
1
62
256
6
ByLayer
370
18
48
1
60
1
100
AcDbPoint
10
0
20
-8.0001
30
0
39
0
210
0
220
0
230
1
50
360
0
SPLINE
5
E7
100
AcDbEntity
8
1
62
256
6
ByLayer
370
18
48
1
60
0
100
AcDbSpline
70
4
71
3
72
12
73
8
40
0
40
0
40
0
40
0
40
0.250802558464149
40
0.250802558464149
40
0.501605116928297
40
0.501605116928297
40
1
40
1
40
1
40
1
41
1
10
4.263E-13
20
-6.00565277064311
30
0
41
1
10
4.263E-13
20
-6.04211583685046
30
0
41
1
10
-5.68E-14
20
-6.07857905309569
30
0
41
1
10
-5.68E-14
20
-6.15150578565758
30
0
41
1
10
-2.84E-14
20
-6.18796930197485
30
0
41
1
10
-2.84E-14
20
-6.29689357175283
30
0
41
1
10
0
20
-6.36935476766257
30
0
41
1
10
0
20
-6.4418165560393
30
0
0
SPLINE
5
E8
100
AcDbEntity
8
1
62
256
6
ByLayer
370
18
48
1
60
0
100
AcDbSpline
70
4
71
3
72
8
73
4
40
0
40
0
40
0
40
0
40
1
40
1
40
1
40
1
41
1
10
4.832E-13
20
-6.44181655603975
30
0
41
1
10
4.832E-13
20
-6.45482295689928
30
0
41
1
10
-5.68E-14
20
-6.4678293860965
30
0
41
1
10
-5.68E-14
20
-6.48083584363127
30
0
0
SPLINE
5
E9
100
AcDbEntity
8
1
62
256
6
ByLayer
370
18
48
1
60
0
100
AcDbSpline
70
4
71
3
72
23
73
19
40
0
40
0
40
0
40
0
40
0.0786500168164485
40
0.121462087219895
40
0.164274157623342
40
0.207086228026789
40
0.249898298430236
40
0.292710368833683
40
0.33552243923713
40
0.421146580044023
40
0.46395865044747
40
0.506770720850917
40
0.592394861657811
40
0.763643143271598
40
0.806455213675045
40
0.849267284078492
40
0.934891424885386
40
1
40
1
40
1
40
1
41
1
10
9.948E-13
20
-6.44181655603975
30
0
41
1
10
0.208899597934817
20
-6.53683616604883
30
0
41
1
10
0.531535563903617
20
-6.67760813578053
30
0
41
1
10
0.967974351122962
20
-6.85498472709688
30
0
41
1
10
1.3092594864018
20
-6.98634710699002
30
0
41
1
10
1.65061791714834
20
-7.11020124139276
30
0
41
1
10
1.99205417153274
20
-7.22647088420766
30
0
41
1
10
2.33356605576489
20
-7.33500129206226
30
0
41
1
10
2.78902104452868
20
-7.46927696248281
30
0
41
1
10
3.24464433578936
20
-7.58764620385367
30
0
41
1
10
3.70044116819659
20
-7.68981128328656
30
0
41
1
10
4.15634840680201
20
-7.78079768001473
30
0
41
1
10
4.95450817897796
20
-7.91099737858795
30
0
41
1
10
5.75334604605214
20
-7.98182052128047
30
0
41
1
10
6.43859094894017
20
-7.99945842895607
30
0
41
1
10
6.89555955588122
20
-7.99968480067883
30
0
41
1
10
7.41224487598242
20
-7.98029364574373
30
0
41
1
10
7.81471914001523
20
-7.94738179929803
30
0
41
1
10
7.98856493274752
20
-7.92986894425655
30
0
0
SPLINE
5
EA
100
AcDbEntity
8
1
62
256
6
ByLayer
370
18
48
1
60
0
100
AcDbSpline
70
4
71
3
72
8
73
4
40
0
40
0
40
0
40
0
40
1
40
1
40
1
40
1
41
1
10
0
20
-4.7497261811894
30
0
41
1
10
0
20
-5.16835801374384
30
0
41
1
10
0
20
-5.58700021085932
30
0
41
1
10
0
20
-6.00565277064268
30
0
0
SPLINE
5
EB
100
AcDbEntity
8
1
62
256
6
ByLayer
370
18
48
1
60
0
100
AcDbSpline
70
4
71
3
72
26
73
22
40
0
40
0
40
0
40
0
40
0.0618060865199265
40
0.0954582511956051
40
0.129110415871284
40
0.162762580546962
40
0.196414745222641
40
0.230066909898319
40
0.263719074573998
40
0.331023403925355
40
0.364675568601034
40
0.398327733276712
40
0.46563206262807
40
0.600240721330784
40
0.633892886006462
40
0.667545050682141
40
0.734849380033498
40
0.869458038736213
40
0.903110203411891
40
0.93676236808757
40
1
40
1
40
1
40
1
41
1
10
8.811E-13
20
-6.00565277064311
30
0
41
1
10
0.208843927654698
20
-6.109704262446
30
0
41
1
10
0.531422996731891
20
-6.26484388283723
30
0
41
1
10
0.967803778055185
20
-6.46249987534048
30
0
41
1
10
1.30908750170966
20
-6.61022578277345
30
0
41
1
10
1.65044866132487
20
-6.75085106151687
30
0
41
1
10
1.99188937727652
20
-6.88424183574676
30
0
41
1
10
2.33340217993032
20
-7.01021453429021
30
0
41
1
10
2.78885444917302
20
-7.16819921109979
30
0
41
1
10
3.24447402726531
20
-7.31091951268522
30
0
41
1
10
3.70026925849894
20
-7.43818587457869
30
0
41
1
10
4.15617412727249
20
-7.55462299559935
30
0
41
1
10
4.95434851141778
20
-7.73034026945763
30
0
41
1
10
5.75317914265213
20
-7.84769670093169
30
0
41
1
10
6.43841741935515
20
-7.90616335512112
30
0
41
1
10
6.8953852806475
20
-7.93392992181998
30
0
41
1
10
7.69543327264284
20
-7.95208373110256
30
0
41
1
10
8.49573199433991
20
-7.90977268622507
30
0
41
1
10
9.18132159823699
20
-7.83133594286701
30
0
41
1
10
9.62443311884141
20
-7.76986023801399
30
0
41
1
10
9.95316023059061
20
-7.71244765021584
30
0
41
1
10
10.1676438597775
20
-7.67009515646382
30
0
0
SPLINE
5
EC
100
AcDbEntity
8
1
62
256
6
ByLayer
370
18
48
1
60
0
100
AcDbSpline
70
4
71
3
72
12
73
8
40
0
40
0
40
0
40
0
40
0.250743956872954
40
0.250743956872954
40
0.50148791374591
40
0.50148791374591
40
1
40
1
40
1
40
1
41
1
10
-4.220027E-09
20
5.24351047125901
30
0
41
1
10
-4.220027E-09
20
5.20593153361543
30
0
41
1
10
5.68E-14
20
5.16835270782789
30
0
41
1
10
5.68E-14
20
5.09319528107292
30
0
41
1
10
0
20
5.05561667984341
30
0
41
1
10
0
20
4.94332719384462
30
0
41
1
10
0
20
4.8686166402135
30
0
41
1
10
0
20
4.79390652988161
30
0
0
SPLINE
5
ED
100
AcDbEntity
8
1
62
256
6
ByLayer
370
18
48
1
60
0
100
AcDbSpline
70
4
71
3
72
27
73
23
40
0
40
0
40
0
40
0
40
0.0394364264729464
40
0.0619450114541867
40
0.084453596435427
40
0.129470766397908
40
0.219505106322869
40
0.264522276285349
40
0.30953944624783
40
0.35455661621031
40
0.399573786172791
40
0.444590956135271
40
0.489608126097752
40
0.579642466022713
40
0.624659635985194
40
0.669676805947674
40
0.759711145872636
40
0.782219730853876
40
0.804728315835116
40
0.849745485797597
40
0.939779825722558
40
1
40
1
40
1
40
1
41
1
10
8.24366465848573
20
7.92980117879446
30
0
41
1
10
8.44326390232555
20
7.91076532195112
30
0
41
1
10
8.75681110672969
20
7.8747352173568
30
0
41
1
10
9.18435490076874
20
7.81255928482273
30
0
41
1
10
9.64020381027299
20
7.73621431360732
30
0
41
1
10
10.4380799524955
20
7.57628842403994
30
0
41
1
10
11.3502177039921
20
7.33473249011902
30
0
41
1
10
12.2625460991978
20
7.03706250589659
30
0
41
1
10
12.9468626622564
20
6.78653658498129
30
0
41
1
10
13.6312231374934
20
6.50981748938887
30
0
41
1
10
14.315603174848
20
6.20798675711984
30
0
41
1
10
14.9999296708598
20
5.8822034368813
30
0
41
1
10
15.9124357717293
20
5.41744245960155
30
0
41
1
10
16.8256262351314
20
4.90963416363056
30
0
41
1
10
17.7405516599177
20
4.36372975912783
30
0
41
1
10
18.6569809071198
20
3.79424290019284
30
0
41
1
10
19.4613452474434
20
3.26758176935212
30
0
41
1
10
20.15322611278
20
2.79950484838594
30
0
41
1
10
20.6151626607314
20
2.4832650906865
30
0
41
1
10
21.4254675037005
20
1.91961014843744
30
0
41
1
10
22.4350464800394
20
1.19940270661596
30
0
41
1
10
23.2174456361724
20
0.633086221047705
30
0
41
1
10
23.5320227271803
20
0.40484562823022
30
0
0
SPLINE
5
EE
100
AcDbEntity
8
1
62
256
6
ByLayer
370
18
48
1
60
0
100
AcDbSpline
70
4
71
3
72
41
73
37
40
0
40
0
40
0
40
0
40
0.0126636422164022
40
0.027243107620928
40
0.0564020384299796
40
0.0709815038345054
40
0.0855609692390312
40
0.100140434643557
40
0.114719900048083
40
0.129299365452609
40
0.143878830857134
40
0.202196692475238
40
0.231355623284289
40
0.260514554093341
40
0.289673484902393
40
0.318832415711444
40
0.377150277329547
40
0.391729742734073
40
0.406309208138599
40
0.435468138947651
40
0.493786000565754
40
0.522944931374806
40
0.552103862183857
40
0.581262792992909
40
0.61042172380196
40
0.639580654611012
40
0.668739585420064
40
0.727057447038167
40
0.756216377847219
40
0.78537530865627
40
0.843693170274373
40
0.858272635678899
40
0.872852101083425
40
0.902011031892477
40
0.96032889351058
40
1
40
1
40
1
40
1
41
1
10
-8.3662712E-09
20
4.7939065304567
30
0
41
1
10
0.0991281129706465
20
4.73465578842303
30
0
41
1
10
0.312360097727833
20
4.60587085838256
30
0
41
1
10
0.753724675218393
20
4.33364126376938
30
0
41
1
10
1.20992285357016
20
4.04325180439136
30
0
41
1
10
1.66596705447103
20
3.74488687826045
30
0
41
1
10
2.0079199462341
20
3.51736163653746
30
0
41
1
10
2.3497899001348
20
3.28631845340459
30
0
41
1
10
2.6915805109812
20
3.05198414931323
30
0
41
1
10
3.03328972882935
20
2.81458666637886
30
0
41
1
10
3.71656259896176
20
2.33415145308604
30
0
41
1
10
4.51335255796499
20
1.75862309644921
30
0
41
1
10
5.42376445463975
20
1.08814895367371
30
0
41
1
10
6.10653960184976
20
0.580869083375887
30
0
41
1
10
6.78934603112396
20
0.0712139680277915
30
0
41
1
10
7.6998725007046
20
-0.608822645487123
30
0
41
1
10
8.49677288238166
20
-1.20085539414063
30
0
41
1
10
9.18001903059837
20
-1.70104928019427
30
0
41
1
10
9.63556766160355
20
-2.03225439037627
30
0
41
1
10
10.4329147747428
20
-2.60500843754429
30
0
41
1
10
11.3444455752314
20
-3.23995288837332
30
0
41
1
10
12.2561744256878
20
-3.84736036551607
30
0
41
1
10
12.9400472486435
20
-4.2872608817745
30
0
41
1
10
13.6239718307922
20
-4.70974588406204
30
0
41
1
10
14.3079274626193
20
-5.11310004783763
30
0
41
1
10
14.9918431528449
20
-5.49559071577036
30
0
41
1
10
15.9038327383166
20
-5.97573606777274
30
0
41
1
10
16.8166106593711
20
-6.40859752555383
30
0
41
1
10
17.7313308982166
20
-6.78897392010498
30
0
41
1
10
18.6477280900887
20
-7.13283871128166
30
0
41
1
10
19.4523510845218
20
-7.38393728492321
30
0
41
1
10
20.1447202048649
20
-7.56084320540907
30
0
41
1
10
20.6070586631858
20
-7.66841356772937
30
0
41
1
10
21.4183012339682
20
-7.82907474083819
30
0
41
1
10
22.435095022738
20
-7.95865514382368
30
0
41
1
10
23.2252572436101
20
-7.99453429214378
30
0
41
1
10
23.5463731046395
20
-7.9982405667389
30
0
0
SPLINE
5
EF
100
AcDbEntity
8
1
62
256
6
ByLayer
370
18
48
1
60
0
100
AcDbSpline
70
4
71
3
72
8
73
4
40
0
40
0
40
0
40
0
40
1
40
1
40
1
40
1
41
1
10
-4.1831356E-09
20
4.7939065304567
30
0
41
1
10
-4.1831356E-09
20
4.77668663338889
30
0
41
1
10
5.68E-14
20
4.75946675292266
30
0
41
1
10
5.68E-14
20
4.74224688916365
30
0
0
SPLINE
5
F0
100
AcDbEntity
8
1
62
256
6
ByLayer
370
18
48
1
60
0
100
AcDbSpline
70
4
71
3
72
27
73
23
40
0
40
0
40
0
40
0
40
0.0299189706295435
40
0.0523575037347286
40
0.0747960368399138
40
0.119673103050284
40
0.209427235471025
40
0.254304301681395
40
0.299181367891765
40
0.344058434102135
40
0.388935500312506
40
0.433812566522876
40
0.478689632733246
40
0.568443765153987
40
0.613320831364357
40
0.658197897574727
40
0.747952029995468
40
0.770390563100653
40
0.792829096205838
40
0.837706162416208
40
0.927460294836949
40
1
40
1
40
1
40
1
41
1
10
8.38665015462277
20
7.92349414712354
30
0
41
1
10
8.53855633549682
20
7.91624852294896
30
0
41
1
10
8.80440595978257
20
7.89962818902723
30
0
41
1
10
9.18423978332078
20
7.866076448613
30
0
41
1
10
9.64009223277981
20
7.81581429238975
30
0
41
1
10
10.4379798918321
20
7.70101844288712
30
0
41
1
10
11.3501104470241
20
7.50992048183494
30
0
41
1
10
12.2624334201304
20
7.26172521443638
30
0
41
1
10
12.9467551979381
20
7.04726258457163
30
0
41
1
10
13.6311183189741
20
6.80559612853187
30
0
41
1
10
14.315495412816
20
6.53765430513184
30
0
41
1
10
14.9998224249565
20
6.24465228516902
30
0
41
1
10
15.912329167184
20
5.82155666176664
30
0
41
1
10
16.8255061353234
20
5.35235865420353
30
0
41
1
10
17.7404527923998
20
4.84181663664012
30
0
41
1
10
18.6568731867523
20
4.30509924236793
30
0
41
1
10
19.4612107085502
20
3.80375852656229
30
0
41
1
10
20.1531313198866
20
3.35490213159173
30
0
41
1
10
20.6150783627812
20
3.05071937432677
30
0
41
1
10
21.4253705453812
20
2.50618643164356
30
0
41
1
10
22.4997443002931
20
1.75967987771239
30
0
41
1
10
23.3480128421577
20
1.15546550959573
30
0
41
1
10
23.7287072516552
20
0.882663671140705
30
0
0
SPLINE
5
F1
100
AcDbEntity
8
1
62
256
6
ByLayer
370
18
48
1
60
0
100
AcDbSpline
70
4
71
3
72
8
73
4
40
0
40
0
40
0
40
0
40
1
40
1
40
1
40
1
41
1
10
0
20
6.08306302865961
30
0
41
1
10
0
20
5.80320041834634
30
0
41
1
10
2.84E-14
20
5.52334956504015
30
0
41
1
10
2.84E-14
20
5.24351046990662
30
0
0
SPLINE
5
F2
100
AcDbEntity
8
1
62
256
6
ByLayer
370
18
48
1
60
0
100
AcDbSpline
70
4
71
3
72
41
73
37
40
0
40
0
40
0
40
0
40
0.0125646179338932
40
0.0270364053648872
40
0.0559799802268753
40
0.0704517676578693
40
0.0849235550888633
40
0.0993953425198574
40
0.113867129950851
40
0.128338917381845
40
0.142810704812839
40
0.200697854536816
40
0.229641429398804
40
0.258585004260792
40
0.28752857912278
40
0.316472153984768
40
0.374359303708744
40
0.388831091139738
40
0.403302878570732
40
0.43224645343272
40
0.490133603156696
40
0.519077178018684
40
0.548020752880672
40
0.57696432774266
40
0.605907902604648
40
0.634851477466636
40
0.663795052328624
40
0.721682202052601
40
0.750625776914589
40
0.779569351776577
40
0.837456501500553
40
0.851928288931547
40
0.866400076362541
40
0.895343651224529
40
0.953230800948505
40
1
40
1
40
1
40
1
41
1
10
-8.4400824E-09
20
5.24351047125901
30
0
41
1
10
0.0990852819097654
20
5.18836769795175
30
0
41
1
10
0.312275984044732
20
5.06827143397558
30
0
41
1
10
0.753603728253552
20
4.81339069919491
30
0
41
1
10
1.2098057503519
20
4.53986847023575
30
0
41
1
10
1.66585157330417
20
4.25734272402318
30
0
41
1
10
2.00780216723956
20
4.04118922899747
30
0
41
1
10
2.34966563962058
20
3.82100651570474
30
0
41
1
10
2.691450345714
20
3.59702920796275
30
0
41
1
10
3.03315826166525
20
3.36941700688755
30
0
41
1
10
3.71643330092419
20
2.90735038221035
30
0
41
1
10
4.5132274429165
20
2.34979418956235
30
0
41
1
10
5.42363834421991
20
1.69517400644978
30
0
41
1
10
6.10641648210543
20
1.19729106863417
30
0
41
1
10
6.78922109265076
20
0.694546480516209
30
0
41
1
10
7.69975260215887
20
0.0202844830534161
30
0
41
1
10
8.49664176924423
20
-0.571110690609686
30
0
41
1
10
9.1798854594752
20
-1.07394873627524
30
0
41
1
10
9.63543750257193
20
-1.40780289821475
30
0
41
1
10
10.4327971927541
20
-1.98741611401943
30
0
41
1
10
11.3443203455415
20
-2.63513399933461
30
0
41
1
10
12.2560432107415
20
-3.260339831366
30
0
41
1
10
12.9399218735529
20
-3.71593810717684
30
0
41
1
10
13.6238494734561
20
-4.15643308212017
30
0
41
1
10
14.3078018834144
20
-4.58003244820722
30
0
41
1
10
14.9917179085647
20
-4.98505675932893
30
0
41
1
10
15.9037078003047
20
-5.49791929968808
30
0
41
1
10
16.8164707204709
20
-5.9674069605999
30
0
41
1
10
17.731216893687
20
-6.38821912561764
30
0
41
1
10
18.6476014318879
20
-6.77463616003902
30
0
41
1
10
19.4521917543504
20
-7.06568100065064
30
0
41
1
10
20.1446104789189
20
-7.27876455618386
30
0
41
1
10
20.6069623049933
20
-7.41084774514374
30
0
41
1
10
21.4181889801934
20
-7.61539452049936
30
0
41
1
10
22.4944448102271
20
-7.81285737633249
30
0
41
1
10
23.3452306658193
20
-7.89548946354034
30
0
41
1
10
23.7272488556252
20
-7.91741501663478
30
0
0
SPLINE
5
F3
100
AcDbEntity
8
1
62
256
6
ByLayer
370
18
48
1
60
0
100
AcDbSpline
70
4
71
3
72
24
73
20
40
0
40
0
40
0
40
0
40
0.132838346737376
40
0.132838346737376
40
0.241233553395206
40
0.241233553395206
40
0.29543115672412
40
0.29543115672412
40
0.349628760053035
40
0.349628760053035
40
0.56641917336869
40
0.56641917336869
40
0.674814380026517
40
0.674814380026517
40
0.729011983355431
40
0.729011983355431
40
0.783209586684345
40
0.783209586684345
40
1
40
1
40
1
40
1
41
1
10
16.667614775286
20
6.3506117825963
30
0
41
1
10
16.9661861838856
20
6.48006904972905
30
0
41
1
10
17.2646049708798
20
6.60270134687005
30
0
41
1
10
17.8067867468686
20
6.81258871057622
30
0
41
1
10
18.0505018180657
20
6.90219765466765
30
0
41
1
10
18.4164688363833
20
7.02931958951262
30
0
41
1
10
18.5385238225861
20
7.07047742467236
30
0
41
1
10
18.7828094557799
20
7.15032139297349
30
0
41
1
10
18.9050139257274
20
7.1889978548833
30
0
41
1
10
19.5154340926452
20
7.3757700241934
30
0
41
1
10
20.0027261529901
20
7.50433783268628
30
0
41
1
10
20.7342554667633
20
7.6649868196825
30
0
41
1
10
20.9781986694279
20
7.71316829275554
30
0
41
1
10
21.3445389914317
20
7.77725216750747
30
0
41
1
10
21.4667317325084
20
7.79724829970414
30
0
41
1
10
21.7108871660973
20
7.83442638649251
30
0
41
1
10
21.8329017471867
20
7.85161787609934
30
0
41
1
10
22.4427707779159
20
7.93057000012504
30
0
41
1
10
22.9300224921919
20
7.97132584081521
30
0
41
1
10
23.4179951180334
20
7.98933730476509
30
0
0
SPLINE
5
F4
100
AcDbEntity
8
1
62
256
6
ByLayer
370
18
48
1
60
0
100
AcDbSpline
70
4
71
3
72
8
73
4
40
0
40
0
40
0
40
0
40
1
40
1
40
1
40
1
41
1
10
23.522156510481
20
7.98891105459381
30
0
41
1
10
23.6224422871774
20
7.98109400988201
30
0
41
1
10
23.7227822941309
20
7.97401541798473
30
0
41
1
10
23.8231760376195
20
7.96766855420208
30
0
0
SPLINE
5
F5
100
AcDbEntity
8
1
62
256
6
ByLayer
370
18
48
1
60
0
100
AcDbSpline
70
4
71
3
72
8
73
4
40
0
40
0
40
0
40
0
40
1
40
1
40
1
40
1
41
1
10
23.4179951180334
20
7.98933730476509
30
0
41
1
10
23.4527145941231
20
7.98910853930303
30
0
41
1
10
23.4874350578128
20
7.98896641732571
30
0
41
1
10
23.5221565104223
20
7.98891105461956
30
0
0
SPLINE
5
F6
100
AcDbEntity
8
1
62
256
6
ByLayer
370
18
48
1
60
0
100
AcDbSpline
70
4
71
3
72
8
73
4
40
0
40
0
40
0
40
0
40
1
40
1
40
1
40
1
41
1
10
23.4179951180324
20
7.98933730476455
30
0
41
1
10
23.4795317991315
20
7.8047349632331
30
0
41
1
10
23.5454485484539
20
7.62174622225285
30
0
41
1
10
23.6166626343605
20
7.44070899965726
30
0
0
SPLINE
5
F7
100
AcDbEntity
8
1
62
256
6
ByLayer
370
18
48
1
60
0
100
AcDbSpline
70
4
71
3
72
49
73
45
40
0
40
0
40
0
40
0
40
0.0490990335261619
40
0.0490990335261619
40
0.0981980670523238
40
0.0981980670523238
40
0.147297100578486
40
0.147297100578486
40
0.171846617341568
40
0.171846617341568
40
0.196396134104649
40
0.196396134104649
40
0.245495167630812
40
0.245495167630812
40
0.270044684393895
40
0.270044684393895
40
0.282319442775435
40
0.282319442775435
40
0.294594201156974
40
0.392792268209295
40
0.392792268209295
40
0.417341784972371
40
0.417341784972371
40
0.441891301735446
40
0.441891301735446
40
0.490990335261605
40
0.490990335261605
40
0.540089368787763
40
0.540089368787763
40
0.564638885550846
40
0.564638885550846
40
0.589188402313929
40
0.589188402313929
40
0.687386469366245
40
0.687386469366245
40
0.785584536418562
40
0.785584536418562
40
0.834683569944725
40
0.834683569944725
40
0.883782603470887
40
0.883782603470887
40
0.981980670523223
40
0.981980670523223
40
1
40
1
40
1
40
1
41
1
10
23.6166626398125
20
7.44070900170453
30
0
41
1
10
23.6404209919705
20
7.38030884057355
30
0
41
1
10
23.6618553897886
20
7.31931239873401
30
0
41
1
10
23.699504513087
20
7.19598025117429
30
0
41
1
10
23.7157216036522
20
7.13364515210424
30
0
41
1
10
23.7421651435408
20
7.00743787440851
30
0
41
1
10
23.7523955089966
20
6.94356670058463
30
0
41
1
10
23.7624498521335
20
6.8464023217285
30
0
41
1
10
23.7648983869528
20
6.81391727110218
30
0
41
1
10
23.7678690291833
20
6.74918710920915
30
0
41
1
10
23.768398273459
20
6.71687671355423
30
0
41
1
10
23.7669924465548
20
6.62011675099288
30
0
41
1
10
23.7620696168735
20
6.55583807667369
30
0
41
1
10
23.7481093087331
20
6.45979620018881
30
0
41
1
10
23.7423584686097
20
6.4278450102295
30
0
41
1
10
23.7319975890461
20
6.38001744133936
30
0
41
1
10
23.7282457458087
20
6.36405787812882
30
0
41
1
10
23.720203096596
20
6.33238370230632
30
0
41
1
10
23.6815878437222
20
6.19091316036599
30
0
41
1
10
23.6214531281321
20
6.05888439459935
30
0
41
1
10
23.5349217896115
20
5.9208358194185
30
0
41
1
10
23.5165653075645
20
5.89358044984883
30
0
41
1
10
23.4784561564194
20
5.84064109368069
30
0
41
1
10
23.4586637679385
20
5.81488102620446
30
0
41
1
10
23.3972460040169
20
5.73956342203138
30
0
41
1
10
23.3535856413511
20
5.69196308682197
30
0
41
1
10
23.2615944160558
20
5.60125439029036
30
0
41
1
10
23.2132617426295
20
5.55814777054874
30
0
41
1
10
23.137707155989
20
5.49642662050178
30
0
41
1
10
23.1119552311535
20
5.47630238599805
30
0
41
1
10
23.0598344718328
20
5.4372246016674
30
0
41
1
10
23.0334660138165
20
5.41826612032804
30
0
41
1
10
22.9002271344616
20
5.3261048479431
30
0
41
1
10
22.7892254225112
20
5.26068529044588
30
0
41
1
10
22.5609574182061
20
5.14164846605456
30
0
41
1
10
22.4436673947733
20
5.08807590783402
30
0
41
1
10
22.2641511421335
20
5.01446398199755
30
0
41
1
10
22.2036042665086
20
4.99102543741552
30
0
41
1
10
22.0822068183376
20
4.94643046859156
30
0
41
1
10
22.0213046729205
20
4.9252482278358
30
0
41
1
10
21.8380683906927
20
4.86460635020495
30
0
41
1
10
21.7152081005042
20
4.82803131354532
30
0
41
1
10
21.5691531875136
20
4.78830713480312
30
0
41
1
10
21.5464890498739
20
4.78224964379191
30
0
41
1
10
21.523807003947
20
4.77629033375013
30
0
0
SPLINE
5
F8
100
AcDbEntity
8
1
62
256
6
ByLayer
370
18
48
1
60
0
100
AcDbSpline
70
4
71
3
72
10
73
6
40
0
40
0
40
0
40
0
40
0.424459964084452
40
0.667781337136433
40
1
40
1
40
1
40
1
41
1
10
23.6166626389646
20
7.44070900182689
30
0
41
1
10
22.7444417593097
20
7.41287943594571
30
0
41
1
10
21.3722208796549
20
7.26114929094151
30
0
41
1
10
19.3173253572086
20
6.79677784690196
30
0
41
1
10
18.1346507144172
20
6.41591370715497
30
0
41
1
10
17.4519760716256
20
6.16108779142252
30
0
0
SPLINE
5
F9
100
AcDbEntity
8
1
62
256
6
ByLayer
370
18
48
1
60
0
100
AcDbSpline
70
4
71
3
72
47
73
43
40
0
40
0
40
0
40
0
40
0.0625000000000084
40
0.0625000000000084
40
0.125000000000017
40
0.125000000000017
40
0.156250000000021
40
0.156250000000021
40
0.187500000000025
40
0.187500000000025
40
0.250000000000026
40
0.250000000000026
40
0.375000000000028
40
0.375000000000028
40
0.437500000000029
40
0.437500000000029
40
0.50000000000003
40
0.50000000000003
40
0.562500000000031
40
0.562500000000031
40
0.625000000000032
40
0.625000000000032
40
0.687500000000032
40
0.687500000000032
40
0.718750000000025
40
0.718750000000025
40
0.750000000000017
40
0.750000000000017
40
0.78125000000001
40
0.78125000000001
40
0.812500000000003
40
0.812500000000003
40
0.843749999999995
40
0.843749999999995
40
0.874999999999988
40
0.874999999999988
40
0.937499999999988
40
0.937499999999988
40
0.953124999999988
40
0.953124999999988
40
0.968749999999988
40
1
40
1
40
1
40
1
41
1
10
22.7511112755585
20
-0.431142886911715
30
0
41
1
10
22.7497795772049
20
-0.461153903790063
30
0
41
1
10
22.7519123231343
20
-0.490847193640633
30
0
41
1
10
22.7613162131967
20
-0.549713464793768
30
0
41
1
10
22.7686067430517
20
-0.578885130572132
30
0
41
1
10
22.7826602186999
20
-0.62228944713371
30
0
41
1
10
22.7878685258852
20
-0.636698319842623
30
0
41
1
10
22.7992444887045
20
-0.665400333706657
30
0
41
1
10
22.8054226594037
20
-0.679715519050234
30
0
41
1
10
22.8252215413807
20
-0.722340850535744
30
0
41
1
10
22.8399820606617
20
-0.750101174892137
30
0
41
1
10
22.888077859495
20
-0.83167966788298
30
0
41
1
10
22.9251785115034
20
-0.883825696915068
30
0
41
1
10
22.9865345247232
20
-0.958995649350214
30
0
41
1
10
23.0079533677931
20
-0.983535833424042
30
0
41
1
10
23.052560688363
20
-1.03153075361064
30
0
41
1
10
23.0757988692416
20
-1.05503077084148
30
0
41
1
10
23.1236031957965
20
-1.10048614245545
30
0
41
1
10
23.1481844996501
20
-1.12246647102836
30
0
41
1
10
23.1986097248434
20
-1.16469365563614
30
0
41
1
10
23.2244531451269
20
-1.18494569572695
30
0
41
1
10
23.2773640861783
20
-1.22323312597058
30
0
41
1
10
23.3044292616281
20
-1.24128135893128
30
0
41
1
10
23.3459861574554
20
-1.26595724124721
30
0
41
1
10
23.3600335781517
20
-1.27379492378213
30
0
41
1
10
23.3882618146401
20
-1.28833571733497
30
0
41
1
10
23.4024434899377
20
-1.2950430504668
30
0
41
1
10
23.4309191504553
20
-1.30704546899617
30
0
41
1
10
23.445212816601
20
-1.31234169732653
30
0
41
1
10
23.4738979733508
20
-1.32112675091619
30
0
41
1
10
23.488371305623
20
-1.32462309775281
30
0
41
1
10
23.516837938008
20
-1.32919943711767
30
0
41
1
10
23.5308575099142
20
-1.33029682969507
30
0
41
1
10
23.5584331892668
20
-1.32975954674205
30
0
41
1
10
23.5720041570703
20
-1.32811904215958
30
0
41
1
10
23.6119820103936
20
-1.31868766289867
30
0
41
1
10
23.6363482601238
20
-1.30669058336332
30
0
41
1
10
23.665317609258
20
-1.28603626984724
30
0
41
1
10
23.6710542529136
20
-1.28160987198152
30
0
41
1
10
23.6823306112498
20
-1.27230380040439
30
0
41
1
10
23.6989287501986
20
-1.2576872591375
30
0
41
1
10
23.7148076200871
20
-1.24133405844225
30
0
41
1
10
23.7252298009914
20
-1.22981407608256
30
0
0
SPLINE
5
FA
100
AcDbEntity
8
1
62
256
6
ByLayer
370
18
48
1
60
0
100
AcDbSpline
70
4
71
3
72
18
73
14
40
0
40
0
40
0
40
0
40
0.249999999999999
40
0.249999999999999
40
0.374999999999999
40
0.374999999999999
40
0.499999999999999
40
0.499999999999999
40
0.625
40
0.625
40
0.75
40
0.75
40
1
40
1
40
1
40
1
41
1
10
19.4264805204319
20
-0.654340092582288
30
0
41
1
10
19.436740189145
20
-0.605967031901002
30
0
41
1
10
19.4508104273736
20
-0.557295017128524
30
0
41
1
10
19.4766685002126
20
-0.483303594184321
30
0
41
1
10
19.4861187858658
20
-0.458431444024967
30
0
41
1
10
19.5064230084587
20
-0.408788982044257
30
0
41
1
10
19.5172902675264
20
-0.383974004716833
30
0
41
1
10
19.5404461174919
20
-0.334340032651738
30
0
41
1
10
19.5527718554912
20
-0.309456736875347
30
0
41
1
10
19.5785795509745
20
-0.260268579720673
30
0
41
1
10
19.5920832511341
20
-0.235909686072347
30
0
41
1
10
19.63442543203
20
-0.163562970350768
30
0
41
1
10
19.6650728846219
20
-0.116293065637819
30
0
41
1
10
19.6984838534406
20
-0.0701900191883453
30
0
0
SPLINE
5
FB
100
AcDbEntity
8
1
62
256
6
ByLayer
370
18
48
1
60
0
100
AcDbSpline
70
4
71
2
72
6
73
3
40
0
40
0
40
0
40
1
40
1
40
1
41
0.500000298455393
10
23.7073183920473
20
-1.657823648683
30
0
41
0.499999701544607
10
23.7067036498519
20
-1.65873532647257
30
0
41
0.500000298455393
10
23.7060859319632
20
-1.65964351193191
30
0
0
SPLINE
5
FC
100
AcDbEntity
8
1
62
256
6
ByLayer
370
18
48
1
60
0
100
AcDbSpline
70
4
71
3
72
8
73
4
40
0
40
0
40
0
40
0
40
1
40
1
40
1
40
1
41
1
10
21.3597129412728
20
4.85533387426176
30
0
41
1
10
21.5528502975558
20
4.77686842615435
30
0
41
1
10
21.7468587180622
20
4.69231844913551
30
0
41
1
10
21.9416797891667
20
4.60209197211663
30
0
0
SPLINE
5
FD
100
AcDbEntity
8
1
62
256
6
ByLayer
370
18
48
1
60
0
100
AcDbSpline
70
4
71
3
72
13
73
9
40
0
40
0
40
0
40
0
40
0.121011903189453
40
0.309366495363141
40
0.434936223478934
40
0.623290815652623
40
0.748860543768415
40
1
40
1
40
1
40
1
41
1
10
11.9455542550573
20
-3.69518787382955
30
0
41
1
10
11.4637028367049
20
-3.58157756013733
30
0
41
1
10
10.2318514183524
20
-3.26248997168992
30
0
41
1
10
8.5
20
-2.72087051848618
30
0
41
1
10
6.5
20
-2.0128020055468
30
0
41
1
10
4.74999999999997
20
-1.33108228156959
30
0
41
1
10
2.50000000000006
20
-0.408070308619131
30
0
41
1
10
0.999999999999914
20
0.223650337049435
30
0
41
1
10
0
20
0.637533690692436
30
0
0
SPLINE
5
FE
100
AcDbEntity
8
1
62
256
6
ByLayer
370
18
48
1
60
0
100
AcDbSpline
70
4
71
3
72
15
73
11
40
0
40
0
40
0
40
0
40
0.0834302871636343
40
0.220915744089089
40
0.358401201014544
40
0.495886657939999
40
0.587543629223635
40
0.72502908614909
40
0.816686057432727
40
1
40
1
40
1
40
1
41
1
10
16.3653672927744
20
-6.24004517935239
30
0
41
1
10
15.9102448618496
20
-6.34269331948752
30
0
41
1
10
14.7051224309249
20
-6.56765329603596
30
0
41
1
10
12.75
20
-6.72148206607784
30
0
41
1
10
10.5
20
-6.58343039489327
30
0
41
1
10
8.49999999999997
20
-6.19060426003154
30
0
41
1
10
6.5
20
-5.58789898030162
30
0
41
1
10
4.74999999999997
20
-4.88838926168168
30
0
41
1
10
2.50000000000006
20
-3.80449988603431
30
0
41
1
10
0.999999999999886
20
-2.95729946289256
30
0
41
1
10
0
20
-2.35781983515193
30
0
0
SPLINE
5
FF
100
AcDbEntity
8
1
62
256
6
ByLayer
370
13
48
1
60
0
100
AcDbSpline
70
4
71
3
72
13
73
9
40
0
40
0
40
0
40
0
40
0.0306025674778416
40
0.23833058873259
40
0.376815936235755
40
0.584543957490504
40
0.723029304993669
40
1
40
1
40
1
40
1
41
1
10
10.8314708165476
20
-7.02569564707951
30
0
41
1
10
10.7209805443651
20
-7.02947304512133
30
0
41
1
10
9.86049027218249
20
-7.04967348438896
30
0
41
1
10
8.49999999999994
20
-6.96766604918125
30
0
41
1
10
6.49999999999994
20
-6.60772299681264
30
0
41
1
10
4.74999999999992
20
-6.09326263915375
30
0
41
1
10
2.5
20
-5.19780486289764
30
0
41
1
10
0.999999999999886
20
-4.43239870310916
30
0
41
1
10
-5.68E-14
20
-3.86944544370454
30
0
0
SPLINE
5
100
100
AcDbEntity
8
1
62
256
6
ByLayer
370
18
48
1
60
0
100
AcDbSpline
70
4
71
3
72
16
73
12
40
0
40
0
40
0
40
0
40
0.125
40
0.125
40
0.25
40
0.25
40
0.5
40
0.5
40
0.75
40
0.75
40
1
40
1
40
1
40
1
41
1
10
22.6614719366613
20
4.18975890906191
30
0
41
1
10
22.6796814690359
20
4.15057216691349
30
0
41
1
10
22.6985059095805
20
4.10953646456474
30
0
41
1
10
22.7373344359846
20
4.02391799813589
30
0
41
1
10
22.7573682140466
20
3.97926727780671
30
0
41
1
10
22.8187917318464
20
3.84104141672776
30
0
41
1
10
22.8615926009194
20
3.74300783186507
30
0
41
1
10
22.9506276266807
20
3.53601112685774
30
0
41
1
10
22.9963715164579
20
3.42818797417004
30
0
41
1
10
23.090128925359
20
3.20453785410885
30
0
41
1
10
23.1381435273681
20
3.08870706795986
30
0
41
1
10
23.1872669318271
20
2.96896610618941
30
0
0
SPLINE
5
101
100
AcDbEntity
8
1
62
256
6
ByLayer
370
18
48
1
60
0
100
AcDbSpline
70
4
71
3
72
8
73
4
40
0
40
0
40
0
40
0
40
1
40
1
40
1
40
1
41
1
10
21.941679789161
20
4.60209197212362
30
0
41
1
10
22.182464981207
20
4.47213387250096
30
0
41
1
10
22.4223846088541
20
4.33459237208004
30
0
41
1
10
22.6614719366612
20
4.18975890906194
30
0
0
SPLINE
5
102
100
AcDbEntity
8
1
62
256
6
ByLayer
370
18
48
1
60
0
100
AcDbSpline
70
4
71
3
72
10
73
6
40
0
40
0
40
0
40
0
40
0.201327682308462
40
0.522022176275176
40
1
40
1
40
1
40
1
41
1
10
21.941679789158
20
4.60209197212049
30
0
41
1
10
21.6277865261054
20
4.74120177365668
30
0
41
1
10
20.8138932630527
20
5.08745466951842
30
0
41
1
10
19.2547770031649
20
5.67319493640656
30
0
41
1
10
18.0095540063297
20
6.0328003117703
30
0
41
1
10
17.2643310094946
20
6.20528248694001
30
0
0
SPLINE
5
103
100
AcDbEntity
8
1
62
256
6
ByLayer
370
18
48
1
60
0
100
AcDbSpline
70
4
71
3
72
8
73
4
40
0
40
0
40
0
40
0
40
1
40
1
40
1
40
1
41
1
10
22.4042120753069
20
-3.57369348226871
30
0
41
1
10
22.4137237708901
20
-3.92419167341973
30
0
41
1
10
22.4303019138133
20
-4.27456910197353
30
0
41
1
10
22.4545327675313
20
-4.62481574893695
30
0
0
SPLINE
5
104
100
AcDbEntity
8
1
62
256
6
ByLayer
370
18
48
1
60
0
100
AcDbSpline
70
4
71
3
72
22
73
18
40
0
40
0
40
0
40
0
40
0.125000000000006
40
0.125000000000006
40
0.250000000000011
40
0.250000000000011
40
0.312500000000014
40
0.312500000000014
40
0.375000000000017
40
0.375000000000017
40
0.500000000000015
40
0.500000000000015
40
0.625000000000013
40
0.625000000000013
40
0.750000000000012
40
0.750000000000012
40
1
40
1
40
1
40
1
41
1
10
19.5111769801219
20
-0.967705906876915
30
0
41
1
10
19.6122782617177
20
-1.09365486247682
30
0
41
1
10
19.7173181540616
20
-1.21744530805563
30
0
41
1
10
19.934428693285
20
-1.46117307558865
30
0
41
1
10
20.0465007482922
20
-1.58110962583467
30
0
41
1
10
20.2193795730787
20
-1.75839990113306
30
0
41
1
10
20.2778340466978
20
-1.81709154375562
30
0
41
1
10
20.3961326661813
20
-1.93351068439944
30
0
41
1
10
20.4556814090644
20
-1.99094937798833
30
0
41
1
10
20.6354366361987
20
-2.16112517283298
30
0
41
1
10
20.7567488338781
20
-2.27172832808614
30
0
41
1
10
21.0019424234457
20
-2.48797628177829
30
0
41
1
10
21.1258248191798
20
-2.59361914286785
30
0
41
1
10
21.3758731925536
20
-2.80049771907716
30
0
41
1
10
21.5020398725011
20
-2.90173207879428
30
0
41
1
10
21.8836409915602
20
-3.19945030198798
30
0
41
1
10
22.1421580833721
20
-3.3899848713352
30
0
41
1
10
22.4042120753068
20
-3.57369348226874
30
0
0
SPLINE
5
105
100
AcDbEntity
8
1
62
256
6
ByLayer
370
18
48
1
60
0
100
AcDbSpline
70
4
71
3
72
18
73
14
40
0
40
0
40
0
40
0
40
0.249999999999984
40
0.249999999999984
40
0.374999999999977
40
0.374999999999977
40
0.49999999999997
40
0.49999999999997
40
0.749999999999985
40
0.749999999999985
40
0.874999999999992
40
0.874999999999992
40
1
40
1
40
1
40
1
41
1
10
19.5111769801219
20
-0.967705906876944
30
0
41
1
10
19.492420604212
20
-0.944339774228553
30
0
41
1
10
19.476023009966
20
-0.919991957430852
30
0
41
1
10
19.4555635685763
20
-0.881744747369595
30
0
41
1
10
19.4494355020555
20
-0.868707094377186
30
0
41
1
10
19.4386980545363
20
-0.841996713921844
30
0
41
1
10
19.434190009074
20
-0.828566935455683
30
0
41
1
10
19.4232548942285
20
-0.788236927319275
30
0
41
1
10
19.4193789584071
20
-0.761216072382325
30
0
41
1
10
19.4185179603933
20
-0.72046805695436
30
0
41
1
10
19.4190642518174
20
-0.706990201473019
30
0
41
1
10
19.421670224888
20
-0.680429982844061
30
0
41
1
10
19.4237292096172
20
-0.667312068331597
30
0
41
1
10
19.426480520431
20
-0.65434009258189
30
0
0
SPLINE
5
106
100
AcDbEntity
8
1
62
256
6
ByLayer
370
13
48
1
60
0
100
AcDbSpline
70
4
71
3
72
13
73
9
40
0
40
0
40
0
40
0
40
0.188065000779741
40
0.38248266166946
40
0.57690032255918
40
0.7713179834489
40
0.965735644338619
40
1
40
1
40
1
40
1
41
1
10
19.4264805204319
20
-0.654340092582288
30
0
41
1
10
18.7009870136213
20
-0.357188148080098
30
0
41
1
10
17.2254935068107
20
0.256461326959254
30
0
41
1
10
15
20
1.18025220634999
30
0
41
1
10
12.75
20
2.06327611948595
30
0
41
1
10
10.5
20
2.86906885542982
30
0
41
1
10
8.86781927820536
20
3.37092464818568
30
0
41
1
10
7.98563855641066
20
3.60885158101337
30
0
41
1
10
7.85345783461599
20
3.64373672722499
30
0
0
SPLINE
5
107
100
AcDbEntity
8
1
62
256
6
ByLayer
370
18
48
1
60
0
100
AcDbSpline
70
4
71
3
72
18
73
14
40
0
40
0
40
0
40
0
40
0.250000000000006
40
0.250000000000006
40
0.375000000000008
40
0.375000000000008
40
0.500000000000011
40
0.500000000000011
40
0.750000000000017
40
0.750000000000017
40
0.875000000000008
40
0.875000000000008
40
1
40
1
40
1
40
1
41
1
10
23.1872669315264
20
2.96896610613652
30
0
41
1
10
23.200070857125
20
2.93775592097128
30
0
41
1
10
23.2125238094751
20
2.907812292953
30
0
41
1
10
23.2306195336498
20
2.86500326120702
30
0
41
1
10
23.2365359072247
20
2.85112972646712
30
0
41
1
10
23.247997621587
20
2.82451696475985
30
0
41
1
10
23.2535612818343
20
2.81173419382148
30
0
41
1
10
23.2697112295228
20
2.77508023176932
30
0
41
1
10
23.2797713818556
20
2.75285673564394
30
0
41
1
10
23.2934532129329
20
2.72393216345202
30
0
41
1
10
23.2977205468651
20
2.71515550498142
30
0
41
1
10
23.3054936861198
20
2.69975808559332
30
0
41
1
10
23.3090162519886
20
2.69310104736326
30
0
41
1
10
23.312109616847
20
2.68767225582855
30
0
0
SPLINE
5
108
100
AcDbEntity
8
1
62
256
6
ByLayer
370
13
48
1
60
0
100
AcDbSpline
70
4
71
3
72
10
73
6
40
0
40
0
40
0
40
0
40
0.557653141516614
40
0.940084613534405
40
1
40
1
40
1
40
1
41
1
10
23.1872669314099
20
2.96896610593149
30
0
41
1
10
22.4581779542733
20
3.39113617573813
30
0
41
1
10
21.2290889771366
20
4.06905587839833
30
0
41
1
10
19.9216651990624
20
4.70923150886421
30
0
41
1
10
19.3433303981248
20
4.97168921044539
30
0
41
1
10
19.2649955971871
20
5.00685228348101
30
0
0
SPLINE
5
109
100
AcDbEntity
8
1
62
256
6
ByLayer
370
18
48
1
60
0
100
AcDbSpline
70
4
71
3
72
28
73
24
40
0
40
0
40
0
40
0
40
0.125000000000001
40
0.125000000000001
40
0.250000000000002
40
0.250000000000002
40
0.375000000000002
40
0.375000000000002
40
0.406250000000002
40
0.406250000000002
40
0.437500000000002
40
0.437500000000002
40
0.500000000000002
40
0.500000000000002
40
0.625000000000001
40
0.625000000000001
40
0.750000000000001
40
0.750000000000001
40
0.8125
40
0.8125
40
0.875
40
0.875
40
1
40
1
40
1
40
1
41
1
10
22.4545327675322
20
-4.62481574893761
30
0
41
1
10
22.4719357867212
20
-4.73132492640076
30
0
41
1
10
22.4915708451957
20
-4.83381083327092
30
0
41
1
10
22.5347476577122
20
-5.0317407936335
30
0
41
1
10
22.5582930325456
20
-5.12717832061608
30
0
41
1
10
22.6089822716195
20
-5.31156706553602
30
0
41
1
10
22.6361277662579
20
-5.40051534466699
30
0
41
1
10
22.6722172782548
20
-5.50781152169301
30
0
41
1
10
22.6795434104084
20
-5.52907567200731
30
0
41
1
10
22.6944111413506
20
-5.57121559211657
30
0
41
1
10
22.7019582922642
20
-5.59210480660073
30
0
41
1
10
22.7247773002671
20
-5.65380875465092
30
0
41
1
10
22.7402707753999
20
-5.69378962237414
30
0
41
1
10
22.7875496906063
20
-5.81044759801145
30
0
41
1
10
22.8201309688642
20
-5.88385098597644
30
0
41
1
10
22.8872603633432
20
-6.02256707613458
30
0
41
1
10
22.921809201671
20
-6.08787680790655
30
0
41
1
10
22.975049003774
20
-6.18001437885999
30
0
41
1
10
22.9930322312978
20
-6.20975352630785
30
0
41
1
10
23.0294680029979
20
-6.26730126381543
30
0
41
1
10
23.0479458626737
20
-6.29514559901824
30
0
41
1
10
23.1038923181409
20
-6.37551354923775
30
0
41
1
10
23.1417869374156
20
-6.42477438237847
30
0
41
1
10
23.1802601767257
20
-6.46985022418883
30
0
0
SPLINE
5
10A
100
AcDbEntity
8
1
62
256
6
ByLayer
370
18
48
1
60
0
100
AcDbSpline
70
4
71
3
72
18
73
14
40
0
40
0
40
0
40
0
40
0.0741643870759137
40
0.150647078354569
40
0.265371115272551
40
0.380095152190534
40
0.494819189108516
40
0.609543226026499
40
0.724267262944481
40
0.800749954223136
40
0.915473991141119
40
0.991956682419774
40
1
40
1
40
1
40
1
41
1
10
22.4545327675324
20
-4.62481574893744
30
0
41
1
10
21.9696885116883
20
-4.42364629911953
30
0
41
1
10
20.9848442558442
20
-3.98621344222121
30
0
41
1
10
19.25
20
-3.12633717541664
30
0
41
1
10
17.25
20
-2.0293115066055
30
0
41
1
10
15
20
-0.705580525318737
30
0
41
1
10
12.75
20
0.649145026068254
30
0
41
1
10
10.5
20
1.97514682046218
30
0
41
1
10
8.50000000000003
20
3.07677229323363
30
0
41
1
10
6.50000000000006
20
4.07416190752178
30
0
41
1
10
4.75
20
4.83266748573999
30
0
41
1
10
3.44741739963808
20
5.29363033643963
30
0
41
1
10
2.89483479927608
20
5.4675556396233
30
0
41
1
10
2.84225219891411
20
5.48390833885617
30
0
0
SPLINE
5
10B
100
AcDbEntity
8
1
62
256
6
ByLayer
370
18
48
1
60
0
100
AcDbSpline
70
4
71
3
72
20
73
16
40
0
40
0
40
0
40
0
40
0.249999999999971
40
0.249999999999971
40
0.37499999999997
40
0.37499999999997
40
0.499999999999969
40
0.499999999999969
40
0.749999999999961
40
0.749999999999961
40
0.812499999999972
40
0.812499999999972
40
0.874999999999983
40
0.874999999999983
40
1
40
1
40
1
40
1
41
1
10
23.1802601777303
20
-6.46985022387321
30
0
41
1
10
23.1931289266959
20
-6.48492786133812
30
0
41
1
10
23.2056467818017
20
-6.50228910957171
30
0
41
1
10
23.2238389165357
20
-6.53213587949779
30
0
41
1
10
23.2297917773229
20
-6.54270931165209
30
0
41
1
10
23.2413236437523
20
-6.5649318947913
30
0
41
1
10
23.2469220265872
20
-6.57661126562897
30
0
41
1
10
23.2631742583546
20
-6.61349013628717
30
0
41
1
10
23.2733003116139
20
-6.6404791263609
30
0
41
1
10
23.2847766241739
20
-6.67822040351953
30
0
41
1
10
23.2870093250835
20
-6.68596925576813
30
0
41
1
10
23.2912857842909
20
-6.70170301977052
30
0
41
1
10
23.2933369143973
20
-6.7097113989052
30
0
41
1
10
23.2992124394044
20
-6.73418794126616
30
0
41
1
10
23.3027614055435
20
-6.75110355072999
30
0
41
1
10
23.3058748496986
20
-6.76872668608863
30
0
0
SPLINE
5
10C
100
AcDbEntity
8
1
62
256
6
ByLayer
370
13
48
1
60
0
100
AcDbSpline
70
4
71
3
72
18
73
14
40
0
40
0
40
0
40
0
40
0.104384281751199
40
0.17619975780935
40
0.283922971896575
40
0.391646185983801
40
0.499369400071026
40
0.607092614158251
40
0.714815828245477
40
0.786631304303627
40
0.894354518390852
40
0.966169994449003
40
1
40
1
40
1
40
1
41
1
10
23.1802601781824
20
-6.4698502236991
30
0
41
1
10
22.4535067854549
20
-6.28252404884248
30
0
41
1
10
21.2267533927274
20
-5.89134501962101
30
0
41
1
10
19.25
20
-5.07469605470965
30
0
41
1
10
17.2499999999999
20
-4.08201350096448
30
0
41
1
10
15
20
-2.78527725530978
30
0
41
1
10
12.75
20
-1.36341485323604
30
0
41
1
10
10.4999999999999
20
0.114276986071331
30
0
41
1
10
8.5
20
1.42594196848634
30
0
41
1
10
6.5
20
2.68603450603393
30
0
41
1
10
4.74999999999994
20
3.71382904746926
30
0
41
1
10
3.26446577111321
20
4.49518205635789
30
0
41
1
10
2.52893154222633
20
4.84933654219577
30
0
41
1
10
2.29339731333946
20
4.95913535636086
30
0
0
SPLINE
5
10D
100
AcDbEntity
8
1
62
256
6
ByLayer
370
18
48
1
60
0
100
AcDbSpline
70
4
71
3
72
14
73
10
40
0
40
0
40
0
40
0
40
0.0158001955676907
40
0.189482513996922
40
0.363164832426153
40
0.478953044712307
40
0.652635363141538
40
0.768423575427692
40
1
40
1
40
1
40
1
41
1
10
12.9546865815061
20
-6.89075560821632
30
0
41
1
10
12.8864577210041
20
-6.90451896351604
30
0
41
1
10
12.0682288605021
20
-7.06425698110004
30
0
41
1
10
10.5000000000001
20
-7.24732008423558
30
0
41
1
10
8.50000000000011
20
-7.182266684187
30
0
41
1
10
6.50000000000011
20
-6.87011510313923
30
0
41
1
10
4.75000000000009
20
-6.38975531489288
30
0
41
1
10
2.50000000000014
20
-5.5265322495745
30
0
41
1
10
1.00000000000006
20
-4.772624622645
30
0
41
1
10
8.53E-14
20
-4.21254122825593
30
0
0
SPLINE
5
10E
100
AcDbEntity
8
1
62
256
6
ByLayer
370
18
48
1
60
0
100
AcDbSpline
70
4
71
3
72
57
73
53
40
0
40
0
40
0
40
0
40
0.0017825169140772
40
0.0017825169140772
40
0.0493166827753153
40
0.0493166827753153
40
0.14438501449779
40
0.14438501449779
40
0.191919180359026
40
0.191919180359026
40
0.203802721824336
40
0.203802721824336
40
0.215686263289645
40
0.215686263289645
40
0.239453346220261
40
0.239453346220261
40
0.334521677942723
40
0.334521677942723
40
0.382055843803954
40
0.382055843803954
40
0.405822926734569
40
0.405822926734569
40
0.429590009665184
40
0.429590009665184
40
0.524658341387646
40
0.524658341387646
40
0.548425424318261
40
0.548425424318261
40
0.572192507248876
40
0.572192507248876
40
0.595959590179492
40
0.595959590179492
40
0.6078431316448
40
0.6078431316448
40
0.619726673110108
40
0.667260838971344
40
0.667260838971344
40
0.71479500483258
40
0.71479500483258
40
0.762329170693815
40
0.762329170693815
40
0.786096253624433
40
0.786096253624433
40
0.809863336555051
40
0.809863336555051
40
0.857397502416288
40
0.857397502416288
40
0.904931668277525
40
0.904931668277525
40
0.952465834138763
40
0.952465834138763
40
1
40
1
40
1
40
1
41
1
10
15.3594360174893
20
-6.47940813891242
30
0
41
1
10
15.3503508921102
20
-6.48301764791722
30
0
41
1
10
15.3412658942266
20
-6.48661967445585
30
0
41
1
10
15.0899155501123
20
-6.58606921620611
30
0
41
1
10
14.8477385506049
20
-6.6765652180124
30
0
41
1
10
14.1207285985056
20
-6.93169039016811
30
0
41
1
10
13.6353473365278
20
-7.08028251948247
30
0
41
1
10
12.9039020510319
20
-7.26840206802652
30
0
41
1
10
12.6595016213566
20
-7.32536439381994
30
0
41
1
10
12.3530408159728
20
-7.38904099074509
30
0
41
1
10
12.2917010379923
20
-7.40139899728683
30
0
41
1
10
12.1689205896663
20
-7.42535023577474
30
0
41
1
10
12.1074438383241
20
-7.43695058986629
30
0
41
1
10
11.9231982082174
20
-7.47054798732373
30
0
41
1
10
11.8005841156335
20
-7.49134946474325
30
0
41
1
10
11.1883892176503
20
-7.5875950521152
30
0
41
1
10
10.7013730337314
20
-7.64002118791595
30
0
41
1
10
9.97314081869214
20
-7.68060289938418
30
0
41
1
10
9.73077749577106
20
-7.68776670696519
30
0
41
1
10
9.36752336487109
20
-7.68871716841238
30
0
41
1
10
9.2464791655579
20
-7.68742155034735
30
0
41
1
10
9.00432498103223
20
-7.68192466049516
30
0
41
1
10
8.88322344987301
20
-7.67769842633209
30
0
41
1
10
8.27752660405503
20
-7.64896578344536
30
0
41
1
10
7.79233138687982
20
-7.60181240547615
30
0
41
1
10
7.18327179700003
20
-7.51087517523408
30
0
41
1
10
7.0613301645644
20
-7.49108624896581
30
0
41
1
10
6.81713436423365
20
-7.44825724027254
30
0
41
1
10
6.69488384671024
20
-7.42518746499883
30
0
41
1
10
6.44998946200113
20
-7.37593309017478
30
0
41
1
10
6.32733800052892
20
-7.34980676202392
30
0
41
1
10
6.14302063911344
20
-7.30839073666289
30
0
41
1
10
6.08154741951293
20
-7.29421314707412
30
0
41
1
10
5.95876572646532
20
-7.2651614539694
30
0
41
1
10
5.65205787299425
20
-7.19075651220567
30
0
41
1
10
5.34654380187146
20
-7.10748237087984
30
0
41
1
10
4.85900483807779
20
-6.96285771252602
30
0
41
1
10
4.61589686488435
20
-6.88479087625453
30
0
41
1
10
4.13055465121272
20
-6.71754700864454
30
0
41
1
10
3.88828392138214
20
-6.62848066667257
30
0
41
1
10
3.52515093485158
20
-6.4869847673792
30
0
41
1
10
3.40414870921126
20
-6.43851325136967
30
0
41
1
10
3.16213758564766
20
-6.33913643728161
30
0
41
1
10
3.04113371238901
20
-6.28821517459616
30
0
41
1
10
2.67808086040549
20
-6.13170305999813
30
0
41
1
10
2.43600197201442
20
-6.02232693463336
30
0
41
1
10
1.95136932218281
20
-5.79363130537595
30
0
41
1
10
1.70882884671133
20
-5.67425212888529
30
0
41
1
10
1.22283307747415
20
-5.42571217628958
30
0
41
1
10
0.979357442165565
20
-5.29663032741766
30
0
41
1
10
0.490882745411113
20
-5.02983383471803
30
0
41
1
10
0.245911959032696
20
-4.89198320374118
30
0
41
1
10
5.68E-14
20
-4.74972618118943
30
0
0
SPLINE
5
10F
100
AcDbEntity
8
1
62
256
6
ByLayer
370
13
48
1
60
0
100
AcDbSpline
70
4
71
3
72
15
73
11
40
0
40
0
40
0
40
0
40
0.0136598795212182
40
0.127921147285401
40
0.299313048931676
40
0.470704950577951
40
0.642096852224225
40
0.8134887538705
40
0.984880655516775
40
1
40
1
40
1
40
1
41
1
10
6.57067572255446
20
4.06171055072252
30
0
41
1
10
6.63045048170298
20
4.05253840861724
30
0
41
1
10
7.19022524085153
20
3.96497314187053
30
0
41
1
10
8.50000000000003
20
3.72370567811853
30
0
41
1
10
10.5
20
3.23729624813896
30
0
41
1
10
12.75
20
2.5556758557085
30
0
41
1
10
15
20
1.76983789265517
30
0
41
1
10
17.25
20
0.906514663795661
30
0
41
1
10
18.8161612844802
20
0.282022757768857
30
0
41
1
10
19.6323225689604
20
-0.0437807890291424
30
0
41
1
10
19.6984838534406
20
-0.0701900191883453
30
0
0
SPLINE
5
110
100
AcDbEntity
8
1
62
256
6
ByLayer
370
18
48
1
60
0
100
AcDbSpline
70
4
71
3
72
30
73
26
40
0
40
0
40
0
40
0
40
0.124999999999988
40
0.124999999999988
40
0.249999999999976
40
0.249999999999976
40
0.28124999999998
40
0.28124999999998
40
0.312499999999984
40
0.312499999999984
40
0.374999999999963
40
0.374999999999963
40
0.499999999999951
40
0.499999999999951
40
0.562499999999962
40
0.562499999999962
40
0.624999999999972
40
0.624999999999972
40
0.749999999999993
40
0.749999999999993
40
0.875000000000014
40
0.875000000000014
40
0.937500000000007
40
0.937500000000007
40
1
40
1
40
1
40
1
41
1
10
19.6984838534406
20
-0.0701900191883453
30
0
41
1
10
19.7268464020211
20
-0.0310528622235893
30
0
41
1
10
19.7575404688867
20
0.0055650363859456
30
0
41
1
10
19.8231987542191
20
0.0741961305561176
30
0
41
1
10
19.8581680839866
20
0.106204008088668
30
0
41
1
10
19.904558015675
20
0.143348796397163
30
0
41
1
10
19.9139707169725
20
0.15063369586116
30
0
41
1
10
19.933068729815
20
0.16491275733199
30
0
41
1
10
19.9427677729113
20
0.171915766528372
30
0
41
1
10
19.9720664572359
20
0.192338228671844
30
0
41
1
10
19.9919234972033
20
0.205216540668431
30
0
41
1
10
20.0524543853636
20
0.241713264605551
30
0
41
1
10
20.0940842073308
20
0.263201136755953
30
0
41
1
10
20.1584691072106
20
0.291283967531569
30
0
41
1
10
20.1802551191035
20
0.299951329565715
30
0
41
1
10
20.2244913561971
20
0.315896151753293
30
0
41
1
10
20.2469910625601
20
0.323183423546197
30
0
41
1
10
20.314653385028
20
0.342713857685368
30
0
41
1
10
20.3602224146417
20
0.352734154234383
30
0
41
1
10
20.4523297712188
20
0.367184487922742
30
0
41
1
10
20.4988682463425
20
0.371612352210264
30
0
41
1
10
20.5694518341748
20
0.374233097927515
30
0
41
1
10
20.5931467425612
20
0.374433196261634
30
0
41
1
10
20.640501628841
20
0.373518638614342
30
0
41
1
10
20.66418573953
20
0.372407077937112
30
0
41
1
10
20.6878812888243
20
0.370665856472698
30
0
0
SPLINE
5
111
100
AcDbEntity
8
1
62
256
6
ByLayer
370
13
48
1
60
0
100
AcDbSpline
70
4
71
3
72
13
73
9
40
0
40
0
40
0
40
0
40
0.267813414104447
40
0.401720121156671
40
0.602580181735006
40
0.73648688878723
40
0.937346949365565
40
1
40
1
40
1
40
1
41
1
10
0
20
0.993156976769257
30
0
41
1
10
0.999999999999914
20
0.59336900922986
30
0
41
1
10
2.50000000000006
20
-0.0254263447885137
30
0
41
1
10
4.74999999999997
20
-0.946169867966689
30
0
41
1
10
6.5
20
-1.63732871537954
30
0
41
1
10
8.5
20
-2.36905480416127
30
0
41
1
10
9.98394291448741
20
-2.85879998156542
30
0
41
1
10
10.9678858289749
20
-3.14498955501907
30
0
41
1
10
11.2018287434624
20
-3.21072162915368
30
0
0
SPLINE
5
112
100
AcDbEntity
8
1
62
256
6
ByLayer
370
18
48
1
60
0
100
AcDbSpline
70
4
71
3
72
8
73
4
40
0
40
0
40
0
40
0
40
1
40
1
40
1
40
1
41
1
10
23.7287072351317
20
0.882663682989147
30
0
41
1
10
23.7587391635569
20
0.714262262507958
30
0
41
1
10
23.7900852110833
20
0.545880041274671
30
0
41
1
10
23.8229066775313
20
0.377555763043915
30
0
0
SPLINE
5
113
100
AcDbEntity
8
1
62
256
6
ByLayer
370
18
48
1
60
0
100
AcDbSpline
70
4
71
3
72
8
73
4
40
0
40
0
40
0
40
0
40
1
40
1
40
1
40
1
41
1
10
23.5320227271653
20
0.404845628060002
30
0
41
1
10
23.6289301921836
20
0.39569382846139
30
0
41
1
10
23.7258916320824
20
0.386597332823357
30
0
41
1
10
23.8229066775452
20
0.377555763044143
30
0
0
SPLINE
5
114
100
AcDbEntity
8
1
62
256
6
ByLayer
370
18
48
1
60
0
100
AcDbSpline
70
4
71
3
72
48
73
44
40
0
40
0
40
0
40
0
40
0.0624999999999979
40
0.0624999999999979
40
0.124999999999996
40
0.124999999999996
40
0.156249999999995
40
0.156249999999995
40
0.187499999999994
40
0.218749999999993
40
0.218749999999993
40
0.234374999999994
40
0.234374999999994
40
0.249999999999994
40
0.31249999999999
40
0.31249999999999
40
0.32812499999999
40
0.32812499999999
40
0.34374999999999
40
0.34374999999999
40
0.37499999999999
40
0.37499999999999
40
0.43749999999999
40
0.43749999999999
40
0.453124999999992
40
0.453124999999992
40
0.468749999999993
40
0.468749999999993
40
0.499999999999996
40
0.499999999999996
40
0.562499999999996
40
0.562499999999996
40
0.624999999999995
40
0.624999999999995
40
0.656249999999999
40
0.656249999999999
40
0.687500000000003
40
0.687500000000003
40
0.750000000000002
40
0.750000000000002
40
0.875000000000001
40
0.875000000000001
40
1
40
1
40
1
40
1
41
1
10
23.6246927206783
20
0.351010798170364
30
0
41
1
10
23.6610248316735
20
0.339959889437949
30
0
41
1
10
23.6918049383244
20
0.329281731465983
30
0
41
1
10
23.739995662688
20
0.308823008621545
30
0
41
1
10
23.7574332045084
20
0.299040638021239
30
0
41
1
10
23.7708420071209
20
0.285222920776022
30
0
41
1
10
23.7731129071681
20
0.280813929277059
30
0
41
1
10
23.7729494339371
20
0.272443523006927
30
0
41
1
10
23.7680897473668
20
0.264511681395931
30
0
41
1
10
23.7531653830506
20
0.257519748525539
30
0
41
1
10
23.7378968445823
20
0.252656375132347
30
0
41
1
10
23.7321096685049
20
0.251094772414746
30
0
41
1
10
23.7192047616923
20
0.248122986782192
30
0
41
1
10
23.6837403009917
20
0.241094696721177
30
0
41
1
10
23.632549316548
20
0.23603664125821
30
0
41
1
10
23.5695040257089
20
0.232463705137434
30
0
41
1
10
23.5563017411547
20
0.231823437907309
30
0
41
1
10
23.5287271043888
20
0.23068949069156
30
0
41
1
10
23.5143137285725
20
0.230194931603734
30
0
41
1
10
23.4697997059475
20
0.22893938467746
30
0
41
1
10
23.4383598996439
20
0.228401024746006
30
0
41
1
10
23.3393676835826
20
0.227577212439229
30
0
41
1
10
23.267168273469
20
0.228078659254067
30
0
41
1
10
23.1707101053063
20
0.229756851967352
30
0
41
1
10
23.1511059047042
20
0.230145418996585
30
0
41
1
10
23.111303364115
20
0.231023161568885
30
0
41
1
10
23.0910724701629
20
0.23151325637383
30
0
41
1
10
23.0298734366237
20
0.233117847422704
30
0
41
1
10
22.988351816104
20
0.234366718738642
30
0
41
1
10
22.8619184584264
20
0.23857677734361
30
0
41
1
10
22.7751518924331
20
0.24199801938235
30
0
41
1
10
22.5977985471329
20
0.249788034167779
30
0
41
1
10
22.5072050013182
20
0.254158485217062
30
0
41
1
10
22.3690116472014
20
0.261285385588906
30
0
41
1
10
22.3225610929615
20
0.26375678446388
30
0
41
1
10
22.2289608510438
20
0.268872988865951
30
0
41
1
10
22.181743901384
20
0.27152172135581
30
0
41
1
10
22.0397235999771
20
0.279671024128618
30
0
41
1
10
21.9445719087435
20
0.285371433971619
30
0
41
1
10
21.6579746254263
20
0.303120796199153
30
0
41
1
10
21.4654010605491
20
0.315809802773202
30
0
41
1
10
21.078125404107
20
0.342395622023616
30
0
41
1
10
20.8834144138257
20
0.356297484166618
30
0
41
1
10
20.6878812888243
20
0.370665856472669
30
0
0
SPLINE
5
115
100
AcDbEntity
8
1
62
256
6
ByLayer
370
18
48
1
60
0
100
AcDbSpline
70
4
71
3
72
8
73
4
40
0
40
0
40
0
40
0
40
1
40
1
40
1
40
1
41
1
10
23.7272488333047
20
-7.917415016717
30
0
41
1
10
23.7575565031121
20
-7.93868523109666
30
0
41
1
10
23.7892429855106
20
-7.95850530406017
30
0
41
1
10
23.8224841856078
20
-7.97667789786812
30
0
0
SPLINE
5
116
100
AcDbEntity
8
1
62
256
6
ByLayer
370
18
48
1
60
0
100
AcDbSpline
70
4
71
3
72
8
73
4
40
0
40
0
40
0
40
0
40
1
40
1
40
1
40
1
41
1
10
23.5463731046035
20
-7.99824056675879
30
0
41
1
10
23.6383569495786
20
-7.99036281989336
30
0
41
1
10
23.7303941061276
20
-7.98317694510439
30
0
41
1
10
23.8224841856243
20
-7.97667789786672
30
0
0
SPLINE
5
117
100
AcDbEntity
8
1
62
256
6
ByLayer
370
18
48
1
60
0
100
AcDbSpline
70
4
71
3
72
8
73
4
40
0
40
0
40
0
40
0
40
1
40
1
40
1
40
1
41
1
10
23.4300563931424
20
0.413834213064689
30
0
41
1
10
23.4640441619078
20
0.410830874086713
30
0
41
1
10
23.4980329392692
20
0.407834674488896
30
0
41
1
10
23.5320227271503
20
0.404845627889159
30
0
0
SPLINE
5
118
100
AcDbEntity
8
1
62
256
6
ByLayer
370
18
48
1
60
0
100
AcDbSpline
70
4
71
3
72
8
73
4
40
0
40
0
40
0
40
0
40
1
40
1
40
1
40
1
41
1
10
23.4300563931415
20
0.413834213065712
30
0
41
1
10
23.4903361142537
20
0.393158408854703
30
0
41
1
10
23.5549122559496
20
0.372234731085513
30
0
41
1
10
23.6246927148485
20
0.351010800414429
30
0
0
SPLINE
5
119
100
AcDbEntity
8
1
62
256
6
ByLayer
370
18
48
1
60
0
100
AcDbSpline
70
4
71
3
72
18
73
14
40
0
40
0
40
0
40
0
40
0.0496316770986128
40
0.118667964017939
40
0.22222239439693
40
0.32577682477592
40
0.42933125515491
40
0.5328856855339
40
0.63644011591289
40
0.705476402832217
40
0.809030833211207
40
0.878067120130534
40
1
40
1
40
1
40
1
41
1
10
22.0783823836719
20
1.3888945402704
30
0
41
1
10
21.7189215891146
20
1.62777715049202
30
0
41
1
10
20.8594607945573
20
2.1936792842601
30
0
41
1
10
19.25
20
3.21788464434806
30
0
41
1
10
17.25
20
4.3956982596408
30
0
41
1
10
15
20
5.53485710804881
30
0
41
1
10
12.75
20
6.45018076198005
30
0
41
1
10
10.4999999999999
20
7.09094552478615
30
0
41
1
10
8.5
20
7.39911824617167
30
0
41
1
10
6.5
20
7.48283228407058
30
0
41
1
10
4.74999999999997
20
7.34926362554367
30
0
41
1
10
2.61689283049108
20
6.9461428311973
30
0
41
1
10
1.23378566098208
20
6.52152332897853
30
0
41
1
10
0.350678491473161
20
6.18953904450626
30
0
0
SPLINE
5
11A
100
AcDbEntity
8
1
62
256
6
ByLayer
370
18
48
1
60
0
100
AcDbSpline
70
4
71
3
72
10
73
6
40
0
40
0
40
0
40
0
40
0.0869500651329217
40
0.391300043421948
40
1
40
1
40
1
40
1
41
1
10
4.92853657632111
20
1.38792139556796
30
0
41
1
10
4.78569105088076
20
1.48543547999881
30
0
41
1
10
4.14284552544038
20
1.92263005387602
30
0
41
1
10
2.50000000000003
20
3.01704564083738
30
0
41
1
10
0.999999999999943
20
3.93899872915713
30
0
41
1
10
0
20
4.49362466918527
30
0
0
SPLINE
5
11B
100
AcDbEntity
8
1
62
256
6
ByLayer
370
18
48
1
60
0
100
AcDbSpline
70
4
71
3
72
8
73
4
40
0
40
0
40
0
40
0
40
1
40
1
40
1
40
1
41
1
10
23.4475011228469
20
-7.99899920063993
30
0
41
1
10
23.4804574108533
20
-7.99865926457252
30
0
41
1
10
23.5134147375196
20
-7.99840633855032
30
0
41
1
10
23.5463731045671
20
-7.99824056676019
30
0
0
SPLINE
5
11C
100
AcDbEntity
8
1
62
256
6
ByLayer
370
18
48
1
60
0
100
AcDbSpline
70
4
71
3
72
8
73
4
40
0
40
0
40
0
40
0
40
1
40
1
40
1
40
1
41
1
10
23.7661697601608
20
1.63278390265771
30
0
41
1
10
23.7547459396741
20
1.38231296859343
30
0
41
1
10
23.7423588996658
20
1.13223219932092
30
0
41
1
10
23.7287072351625
20
0.882663682959276
30
0
0
SPLINE
5
11D
100
AcDbEntity
8
1
62
256
6
ByLayer
370
18
48
1
60
0
100
AcDbSpline
70
4
71
3
72
8
73
4
40
0
40
0
40
0
40
0
40
1
40
1
40
1
40
1
41
1
10
23.766169760164
20
1.63278390265725
30
0
41
1
10
23.6492459133655
20
1.92490263583647
30
0
41
1
10
23.5328621900533
20
2.21435092756153
30
0
41
1
10
23.4170135292192
20
2.50115380012144
30
0
0
SPLINE
5
11E
100
AcDbEntity
8
1
62
256
6
ByLayer
370
18
48
1
60
0
100
AcDbSpline
70
4
71
3
72
8
73
4
40
0
40
0
40
0
40
0
40
1
40
1
40
1
40
1
41
1
10
23.3121096180913
20
2.68767225466544
30
0
41
1
10
23.3462959916588
20
2.62768100429599
30
0
41
1
10
23.3812477258224
20
2.56555350249971
30
0
41
1
10
23.4170135292196
20
2.50115380011931
30
0
0
SPLINE
5
11F
100
AcDbEntity
8
1
62
256
6
ByLayer
370
18
48
1
60
0
100
AcDbSpline
70
4
71
3
72
8
73
4
40
0
40
0
40
0
40
0
40
1
40
1
40
1
40
1
41
1
10
23.312109618446
20
2.68767225519304
30
0
41
1
10
22.5554375241498
20
3.14698549639044
30
0
41
1
10
21.7987654298537
20
3.58660759008549
30
0
41
1
10
21.0420933355576
20
3.9985988648809
30
0
0
SPLINE
5
120
100
AcDbEntity
8
1
62
256
6
ByLayer
370
18
48
1
60
0
100
AcDbSpline
70
4
71
3
72
40
73
36
40
0
40
0
40
0
40
0
40
0.113730063702488
40
0.113730063702488
40
0.170595095553732
40
0.170595095553732
40
0.184811353516544
40
0.184811353516544
40
0.199027611479355
40
0.199027611479355
40
0.227460127404978
40
0.227460127404978
40
0.284325159256224
40
0.284325159256224
40
0.34119019110747
40
0.34119019110747
40
0.454920254809962
40
0.454920254809962
40
0.511785286661206
40
0.511785286661206
40
0.568650318512451
40
0.568650318512451
40
0.625515350363696
40
0.625515350363696
40
0.682380382214941
40
0.682380382214941
40
0.739245414066185
40
0.739245414066185
40
0.79611044591743
40
0.79611044591743
40
0.852975477768675
40
0.852975477768675
40
0.90984050961992
40
0.90984050961992
40
1
40
1
40
1
40
1
41
1
10
23.4170135292057
20
2.5011538001267
30
0
41
1
10
22.9263561370532
20
2.82520775982744
30
0
41
1
10
22.4363031240279
20
3.14090083419879
30
0
41
1
10
21.7005755891248
20
3.59976247990781
30
0
41
1
10
21.4552242131461
20
3.75026367056415
30
0
41
1
10
21.1482208127908
20
3.93504626690412
30
0
41
1
10
21.086804364623
20
3.97183542536962
30
0
41
1
10
20.9639350983669
20
4.04507147963463
30
0
41
1
10
20.9024584195652
20
4.08153256142549
30
0
41
1
10
20.7181843323754
20
4.19025851557185
30
0
41
1
10
20.5955370371608
20
4.26187027421599
30
0
41
1
10
20.2281238184833
20
4.47399745015423
30
0
41
1
10
19.9839171925953
20
4.61177469020609
30
0
41
1
10
19.4963018031259
20
4.8797908688812
30
0
41
1
10
19.2528755780253
20
5.01003330805742
30
0
41
1
10
18.5233273233628
20
5.3890058119355
30
0
41
1
10
18.0379762249934
20
5.62604038483011
30
0
41
1
10
17.3098615698777
20
5.95589347361562
30
0
41
1
10
17.0671140752555
20
6.06158298195388
30
0
41
1
10
16.5811449776388
20
6.2642748515261
30
0
41
1
10
16.3379352569028
20
6.3612629875042
30
0
41
1
10
15.8507606228947
20
6.54612818798583
30
0
41
1
10
15.6067952733918
20
6.63400743434016
30
0
41
1
10
15.1177741717477
20
6.80017346417793
30
0
41
1
10
14.8727157135073
20
6.87842658750768
30
0
41
1
10
14.3811390369932
20
7.02493037951496
30
0
41
1
10
14.1361150413472
20
7.09280473293347
30
0
41
1
10
13.6471970823256
20
7.21779126152566
30
0
41
1
10
13.4033303158254
20
7.27484725823354
30
0
41
1
10
12.9164070929684
20
7.37798673740264
30
0
41
1
10
12.6733326768149
20
7.42409973847361
30
0
41
1
10
12.1876832821722
20
7.50518481992148
30
0
41
1
10
11.9451378911179
20
7.54008945372183
30
0
41
1
10
11.3181642911485
20
7.61627447719391
30
0
41
1
10
10.9337721000479
20
7.64954411615889
30
0
41
1
10
10.548955228772
20
7.66876135854591
30
0
0
SPLINE
5
121
100
AcDbEntity
8
1
62
256
6
ByLayer
370
18
48
1
60
0
100
AcDbSpline
70
4
71
3
72
8
73
4
40
0
40
0
40
0
40
0
40
1
40
1
40
1
40
1
41
1
10
23.7653919243583
20
-7.64562524109806
30
0
41
1
10
23.7537889851833
20
-7.73519812812373
30
0
41
1
10
23.7411827443088
20
-7.82569513166141
30
0
41
1
10
23.7272488393124
20
-7.91741501399898
30
0
0
SPLINE
5
122
100
AcDbEntity
8
1
62
256
6
ByLayer
370
18
48
1
60
0
100
AcDbSpline
70
4
71
3
72
8
73
4
40
0
40
0
40
0
40
0
40
1
40
1
40
1
40
1
41
1
10
23.7653919243624
20
-7.64562524109778
30
0
41
1
10
23.6467511524663
20
-7.55521249628822
30
0
41
1
10
23.5286828436319
20
-7.45606641369329
30
0
41
1
10
23.4111817085464
20
-7.34826768560359
30
0
0
SPLINE
5
123
100
AcDbEntity
8
1
62
256
6
ByLayer
370
18
48
1
60
0
100
AcDbSpline
70
4
71
3
72
8
73
4
40
0
40
0
40
0
40
0
40
1
40
1
40
1
40
1
41
1
10
23.3058748477234
20
-6.76872668786262
30
0
41
1
10
23.3401645942503
20
-6.96285669452604
30
0
41
1
10
23.3752494261461
20
-7.15605742895843
30
0
41
1
10
23.411181708547
20
-7.34826768559441
30
0
0
SPLINE
5
124
100
AcDbEntity
8
1
62
256
6
ByLayer
370
18
48
1
60
0
100
AcDbSpline
70
4
71
3
72
17
73
13
40
0
40
0
40
0
40
0
40
0.118940172915295
40
0.196312220922764
40
0.312370292933969
40
0.428428364945174
40
0.544486436956379
40
0.660544508967583
40
0.776602580978788
40
0.853974628986258
40
0.970032700997462
40
1
40
1
40
1
40
1
41
1
10
23.3058748471505
20
-6.76872668805575
30
0
41
1
10
22.5372498981004
20
-6.59164573797906
30
0
41
1
10
21.2686249490502
20
-6.21353410669846
30
0
41
1
10
19.2500000000001
20
-5.40486737482235
30
0
41
1
10
17.2500000000001
20
-4.42651919912828
30
0
41
1
10
15.0000000000001
20
-3.13078194394015
30
0
41
1
10
12.7500000000001
20
-1.69473821724776
30
0
41
1
10
10.5000000000001
20
-0.188286624666091
30
0
41
1
10
8.50000000000006
20
1.16076646079051
30
0
41
1
10
6.50000000000017
20
2.46666775797533
30
0
41
1
10
5.05634286041115
20
3.3529322943111
30
0
41
1
10
4.11268572082213
20
3.89049948112483
30
0
41
1
10
3.91902858123313
20
3.99888602342267
30
0
0
SPLINE
5
125
100
AcDbEntity
8
1
62
256
6
ByLayer
370
18
48
1
60
0
100
AcDbSpline
70
4
71
3
72
76
73
72
40
0
40
0
40
0
40
0
40
0.0624999999999962
40
0.0624999999999962
40
0.0937499999999942
40
0.0937499999999942
40
0.101562499999994
40
0.101562499999994
40
0.109374999999993
40
0.109374999999993
40
0.124999999999991
40
0.124999999999991
40
0.156249999999986
40
0.156249999999986
40
0.187499999999981
40
0.187499999999981
40
0.249999999999971
40
0.249999999999971
40
0.281249999999967
40
0.281249999999967
40
0.312499999999962
40
0.312499999999962
40
0.343749999999957
40
0.343749999999957
40
0.359374999999955
40
0.367187499999954
40
0.367187499999954
40
0.374999999999953
40
0.374999999999953
40
0.406249999999955
40
0.406249999999955
40
0.437499999999956
40
0.437499999999956
40
0.468749999999957
40
0.468749999999957
40
0.499999999999958
40
0.499999999999958
40
0.562499999999959
40
0.562499999999959
40
0.59374999999996
40
0.59374999999996
40
0.609374999999962
40
0.609374999999962
40
0.624999999999963
40
0.624999999999963
40
0.632812499999963
40
0.632812499999963
40
0.640624999999964
40
0.640624999999964
40
0.656249999999965
40
0.687499999999967
40
0.687499999999967
40
0.749999999999972
40
0.749999999999972
40
0.812499999999977
40
0.812499999999977
40
0.874999999999981
40
0.874999999999981
40
0.890624999999982
40
0.890624999999982
40
0.898437499999983
40
0.898437499999983
40
0.906249999999983
40
0.906249999999983
40
0.937499999999989
40
0.937499999999989
40
0.968749999999994
40
0.968749999999994
40
0.984374999999997
40
0.984374999999997
40
1
40
1
40
1
40
1
41
1
10
23.4111817085281
20
-7.34826768560168
30
0
41
1
10
22.9207388937894
20
-7.24437339550119
30
0
41
1
10
22.4309630793068
20
-7.1180729938915
30
0
41
1
10
21.6955653589997
20
-6.89577247669473
30
0
41
1
10
21.4503096566072
20
-6.81618468757361
30
0
41
1
10
21.1433884817493
20
-6.70984410973327
30
0
41
1
10
21.0819866059688
20
-6.6882330211094
30
0
41
1
10
20.9591422612698
20
-6.64432479597841
30
0
41
1
10
20.8976854077671
20
-6.62202198654362
30
0
41
1
10
20.713545685834
20
-6.55419916668217
30
0
41
1
10
20.5910015975115
20
-6.50773264558799
30
0
41
1
10
20.2239299521919
20
-6.36465498031262
30
0
41
1
10
19.9799899272435
20
-6.26428967649406
30
0
41
1
10
19.4929495994165
20
-6.05467887794538
30
0
41
1
10
19.2498302938449
20
-5.94547145918091
30
0
41
1
10
18.5212166283396
20
-5.60507518702571
30
0
41
1
10
18.0365107136622
20
-5.36108750887033
30
0
41
1
10
17.3092303246753
20
-4.97069813815523
30
0
41
1
10
17.0667386721028
20
-4.83657195473401
30
0
41
1
10
16.5812052742832
20
-4.56095904184559
30
0
41
1
10
16.3381758786778
20
-4.41943538991706
30
0
41
1
10
15.8512566781247
20
-4.12919345126221
30
0
41
1
10
15.6073665705677
20
-3.98047742789427
30
0
41
1
10
15.2406073622451
20
-3.75217488611156
30
0
41
1
10
15.056996499489
20
-3.63671519262854
30
0
41
1
10
14.8729823472858
20
-3.51931897466579
30
0
41
1
10
14.7502080576958
20
-3.44063886647734
30
0
41
1
10
14.6887561293722
20
-3.40108057754654
30
0
41
1
10
14.3819074753061
20
-3.20272585548611
30
0
41
1
10
14.1372010230671
20
-3.04195489296805
30
0
41
1
10
13.6488942789305
20
-2.71686684509214
30
0
41
1
10
13.405323558456
20
-2.55249676626107
30
0
41
1
10
12.9189406920831
20
-2.22066698482865
30
0
41
1
10
12.6761090633365
20
-2.05324077989155
30
0
41
1
10
12.1908588939782
20
-1.71576268202654
30
0
41
1
10
11.948472347228
20
-1.54565220973632
30
0
41
1
10
11.2212916244082
20
-1.03236603446126
30
0
41
1
10
10.7364076694758
20
-0.686403937478417
30
0
41
1
10
10.007226749173
20
-0.163895698822302
30
0
41
1
10
9.76385553752357
20
0.0108689826559782
30
0
41
1
10
9.39806542087933
20
0.273593596205302
30
0
41
1
10
9.27601142810261
20
0.361262331032947
30
0
41
1
10
9.03155249204491
20
0.536592268267725
30
0
41
1
10
8.90915066179463
20
0.624259905973787
30
0
41
1
10
8.72526235313222
20
0.755738768845333
30
0
41
1
10
8.66391848105036
20
0.799560916729547
30
0
41
1
10
8.54112922901538
20
0.887189322404197
30
0
41
1
10
8.4796581323543
20
0.931013852768075
30
0
41
1
10
8.29546610593189
20
1.06217963468202
30
0
41
1
10
7.92766254103833
20
1.32349671621375
30
0
41
1
10
7.56141669565559
20
1.58150025591294
30
0
41
1
10
6.83047141641754
20
2.09230825390287
30
0
41
1
10
6.34518533872159
20
2.42581296294495
30
0
41
1
10
5.37540345785214
20
3.07515759242193
30
0
41
1
10
4.89101193829197
20
3.3910678281982
30
0
41
1
10
3.92029113290079
20
4.00185461594646
30
0
41
1
10
3.43403996656508
20
4.2967581066037
30
0
41
1
10
2.82321168060491
20
4.64918862127939
30
0
41
1
10
2.7008898963422
20
4.71886436040992
30
0
41
1
10
2.51712154067206
20
4.82211930295296
30
0
41
1
10
2.45581790839208
20
4.85632778491663
30
0
41
1
10
2.33310758431236
20
4.92431798942835
30
0
41
1
10
2.27167834453562
20
4.95811201344054
30
0
41
1
10
1.96456378486988
20
5.12582954231846
30
0
41
1
10
1.71907406191505
20
5.25595800675805
30
0
41
1
10
1.2281736235895
20
5.50764249016987
30
0
41
1
10
0.982762969309334
20
5.62920158093479
30
0
41
1
10
0.614475509333431
20
5.8046210309445
30
0
41
1
10
0.491688310400093
20
5.86193069915896
30
0
41
1
10
0.245969661927063
20
5.97423507836288
30
0
41
1
10
0.123033656122118
20
6.02924046611156
30
0
41
1
10
1.137E-13
20
6.08306302865955
30
0
0
SPLINE
5
126
100
AcDbEntity
8
1
62
256
6
ByLayer
370
18
48
1
60
0
100
AcDbSpline
70
4
71
3
72
24
73
20
40
0
40
0
40
0
40
0
40
0.222259275687585
40
0.222259275687585
40
0.333388913531378
40
0.333388913531378
40
0.444518551375171
40
0.444518551375171
40
0.555648189218964
40
0.555648189218964
40
0.666777827062756
40
0.666777827062756
40
0.722342645984653
40
0.722342645984653
40
0.777907464906549
40
0.777907464906549
40
0.889037102750342
40
0.889037102750342
40
1
40
1
40
1
40
1
41
1
10
1.137E-13
20
-6.48083584363124
30
0
41
1
10
0.49029738953314
20
-6.70141495225963
30
0
41
1
10
0.979189152779611
20
-6.90000018742202
30
0
41
1
10
1.71311634567823
20
-7.16292141518761
30
0
41
1
10
1.95785802959961
20
-7.24475579432678
30
0
41
1
10
2.44800965599137
20
-7.39649413554409
30
0
41
1
10
2.69272541859846
20
-7.466189898138
30
0
41
1
10
3.18165872192569
20
-7.59302831279595
30
0
41
1
10
3.42591467310322
20
-7.6502246021245
30
0
41
1
10
3.91448401661518
20
-7.75183843692491
30
0
41
1
10
4.15880274843215
20
-7.79622301182786
30
0
41
1
10
4.52565548788311
20
-7.85321601114228
30
0
41
1
10
4.64800272631717
20
-7.8706076206453
30
0
41
1
10
4.89287936523527
20
-7.90214587592311
30
0
41
1
10
5.01546100092185
20
-7.9162986788082
30
0
41
1
10
5.38319614563451
20
-7.9538285097025
30
0
41
1
10
5.62794911897146
20
-7.97224656086576
30
0
41
1
10
6.11667988918936
20
-7.99591513682719
30
0
41
1
10
6.360649702731
20
-8.00117418281528
30
0
41
1
10
6.60462777541125
20
-7.9998546468328
30
0
0
SPLINE
5
127
100
AcDbEntity
8
1
62
256
6
ByLayer
370
18
48
1
60
0
100
AcDbSpline
70
4
71
3
72
69
73
65
40
0
40
0
40
0
40
0
40
0.0625000000000017
40
0.0625000000000017
40
0.0937500000000019
40
0.0937500000000019
40
0.109375000000002
40
0.109375000000002
40
0.125000000000002
40
0.125000000000002
40
0.187500000000004
40
0.187500000000004
40
0.203125000000004
40
0.203125000000004
40
0.218750000000004
40
0.218750000000004
40
0.250000000000004
40
0.281250000000005
40
0.281250000000005
40
0.296875000000005
40
0.296875000000005
40
0.312500000000005
40
0.312500000000005
40
0.375000000000004
40
0.375000000000004
40
0.390625000000004
40
0.390625000000004
40
0.406250000000004
40
0.437500000000003
40
0.437500000000003
40
0.468750000000002
40
0.468750000000002
40
0.484375000000002
40
0.484375000000002
40
0.500000000000002
40
0.562500000000002
40
0.562500000000002
40
0.578125000000002
40
0.578125000000002
40
0.593750000000002
40
0.625000000000002
40
0.625000000000002
40
0.656250000000003
40
0.656250000000003
40
0.671875000000003
40
0.671875000000003
40
0.687500000000003
40
0.687500000000003
40
0.750000000000004
40
0.750000000000004
40
0.781250000000004
40
0.796875000000005
40
0.796875000000005
40
0.812500000000005
40
0.812500000000005
40
0.875000000000003
40
0.875000000000003
40
0.906250000000003
40
0.906250000000003
40
0.921875000000002
40
0.921875000000002
40
0.937500000000002
40
0.937500000000002
40
1
40
1
40
1
40
1
41
1
10
1.421E-13
20
6.56255577073927
30
0
41
1
10
0.488832604190293
20
6.76563821089968
30
0
41
1
10
0.976490902265823
20
6.94892886820082
30
0
41
1
10
1.70843478898416
20
7.19262255713036
30
0
41
1
10
1.95249113583173
20
7.26867364081718
30
0
41
1
10
2.31898061490065
20
7.37474688635908
30
0
41
1
10
2.44114521334083
20
7.4087331548298
30
0
41
1
10
2.68530773445687
20
7.47387807643153
30
0
41
1
10
2.80733906265914
20
7.50505121141299
30
0
41
1
10
3.41736363362753
20
7.65397082252304
30
0
41
1
10
3.90496683862068
20
7.75085149045105
30
0
41
1
10
4.51585710928401
20
7.84322934936574
30
0
41
1
10
4.6380931603652
20
7.86026872393978
30
0
41
1
10
4.88236684980416
20
7.89141607735377
30
0
41
1
10
5.00445172757299
20
7.90553150462065
30
0
41
1
10
5.37061811623846
20
7.9434933561169
30
0
41
1
10
5.8586058572202
20
7.98241104768857
30
0
41
1
10
6.34682873148773
20
7.99782490786529
30
0
41
1
10
6.71333379800183
20
8.00052809399449
30
0
41
1
10
6.83558508572432
20
7.99995094801511
30
0
41
1
10
7.0798715335323
20
7.9958444045219
30
0
41
1
10
7.20194922160451
20
7.99231654780914
30
0
41
1
10
7.81213010158157
20
7.96733327420688
30
0
41
1
10
8.29960447410451
20
7.92387406547269
30
0
41
1
10
8.91014129625842
20
7.84039918537971
30
0
41
1
10
9.03235421688146
20
7.82223617225839
30
0
41
1
10
9.27662556896939
20
7.78304576149739
30
0
41
1
10
9.64285410887913
20
7.71995896042225
30
0
41
1
10
10.0087717063995
20
7.64406545831193
30
0
41
1
10
10.4967556037419
20
7.53172528861629
30
0
41
1
10
10.7407930205962
20
7.46998008126323
30
0
41
1
10
11.1071883712836
20
7.36911019182156
30
0
41
1
10
11.2294218335047
20
7.33409739145466
30
0
41
1
10
11.4738122307651
20
7.2614024952988
30
0
41
1
10
12.0844678601525
20
7.07303297749195
30
0
41
1
10
12.694088836176
20
6.85187906599177
30
0
41
1
10
13.304573698042
20
6.60570999032228
30
0
41
1
10
13.4267401471558
20
6.5552149221927
30
0
41
1
10
13.6710997192452
20
6.45179905776905
30
0
41
1
10
14.0374143112551
20
6.29315133442836
30
0
41
1
10
14.4032764474443
20
6.12412484386135
30
0
41
1
10
14.8911007037509
20
5.88988687197593
30
0
41
1
10
15.1350185429552
20
5.76833477149188
30
0
41
1
10
15.5012096850162
20
5.57964232551024
30
0
41
1
10
15.6233254075079
20
5.51568438400292
30
0
41
1
10
15.8677091624722
20
5.38569274277333
30
0
41
1
10
15.9898360897469
20
5.31973383576215
30
0
41
1
10
16.6000421182132
20
4.98538418682861
30
0
41
1
10
17.087083279494
20
4.70322584738474
30
0
41
1
10
17.8180127145608
20
4.26032008998646
30
0
41
1
10
18.183567038946
20
4.03395124863618
30
0
41
1
10
18.5496518891225
20
3.80066639506958
30
0
41
1
10
18.7938722055959
20
3.64365503503126
30
0
41
1
10
18.9161207391167
20
3.56436793281904
30
0
41
1
10
19.5268624263939
20
3.16500678829615
30
0
41
1
10
20.0142498118717
20
2.8358805151226
30
0
41
1
10
20.7458389606643
20
2.33073445848876
30
0
41
1
10
20.9897875906036
20
2.16044857691691
30
0
41
1
10
21.356132101424
20
1.90254418751275
30
0
41
1
10
21.4783587626059
20
1.81613349827759
30
0
41
1
10
21.7225960239862
20
1.64283617724655
30
0
41
1
10
21.8446463240323
20
1.55592183952155
30
0
41
1
10
22.4546749245043
20
1.12018506147621
30
0
41
1
10
22.9419932925493
20
0.767882219745502
30
0
41
1
10
23.4300563931424
20
0.413834213064718
30
0
0
SPLINE
5
128
100
AcDbEntity
8
1
62
256
6
ByLayer
370
18
48
1
60
0
100
AcDbSpline
70
4
71
3
72
65
73
61
40
0
40
0
40
0
40
0
40
0.0624999999999969
40
0.0624999999999969
40
0.093749999999996
40
0.093749999999996
40
0.109374999999995
40
0.109374999999995
40
0.124999999999994
40
0.124999999999994
40
0.18749999999999
40
0.18749999999999
40
0.218749999999988
40
0.218749999999988
40
0.234374999999987
40
0.234374999999987
40
0.249999999999987
40
0.249999999999987
40
0.312499999999986
40
0.312499999999986
40
0.343749999999986
40
0.343749999999986
40
0.359374999999986
40
0.359374999999986
40
0.374999999999986
40
0.374999999999986
40
0.437499999999985
40
0.437499999999985
40
0.468749999999984
40
0.468749999999984
40
0.484374999999983
40
0.484374999999983
40
0.499999999999983
40
0.562499999999981
40
0.562499999999981
40
0.593749999999981
40
0.593749999999981
40
0.609374999999981
40
0.609374999999981
40
0.624999999999982
40
0.624999999999982
40
0.687499999999984
40
0.687499999999984
40
0.718749999999985
40
0.718749999999985
40
0.734374999999985
40
0.734374999999985
40
0.749999999999985
40
0.749999999999985
40
0.812499999999987
40
0.812499999999987
40
0.843749999999988
40
0.843749999999988
40
0.859374999999989
40
0.859374999999989
40
0.874999999999989
40
0.874999999999989
40
0.937499999999995
40
0.937499999999995
40
1
40
1
40
1
40
1
41
1
10
1.137E-13
20
4.74224483015317
30
0
41
1
10
0.489721657247344
20
4.44768999606873
30
0
41
1
10
0.978167608319637
20
4.13902605001874
30
0
41
1
10
1.7113495903937
20
3.65768734128028
30
0
41
1
10
1.95582982293962
20
3.4941907055846
30
0
41
1
10
2.32300164669303
20
3.24472295634956
30
0
41
1
10
2.44534252218415
20
3.1609456241105
30
0
41
1
10
2.68981246821306
20
2.9923342124539
30
0
41
1
10
2.8119681700627
20
2.90748290331419
30
0
41
1
10
3.42248572822035
20
2.48068177859048
30
0
41
1
10
3.9100762601949
20
2.13111901127672
30
0
41
1
10
4.64270795426921
20
1.59784674001469
30
0
41
1
10
4.88712354946026
20
1.41859487420831
30
0
41
1
10
5.25435527000698
20
1.14785155434547
30
0
41
1
10
5.37681693859582
20
1.05732967687447
30
0
41
1
10
5.62144935116672
20
0.876130109169509
30
0
41
1
10
5.7436828846291
20
0.785406165522716
30
0
41
1
10
6.35455662575089
20
0.331326252631669
30
0
41
1
10
6.84230436223658
20
-0.0334246761017596
30
0
41
1
10
7.57474432636835
20
-0.579763726112873
30
0
41
1
10
7.8190348469189
20
-0.761735483849748
30
0
41
1
10
8.18602025011853
20
-1.03403281897818
30
0
41
1
10
8.30845401272683
20
-1.12469726224762
30
0
41
1
10
8.55300886164139
20
-1.30531880803011
30
0
41
1
10
8.67519850788193
20
-1.39532726919054
30
0
41
1
10
9.28584576285675
20
-1.84367764088287
30
0
41
1
10
9.77341648489741
20
-2.19691082318076
30
0
41
1
10
10.5058651389812
20
-2.71539345278322
30
0
41
1
10
10.7501913478789
20
-2.88633616254782
30
0
41
1
10
11.1172439783923
20
-3.13953195963742
30
0
41
1
10
11.2397411488458
20
-3.22342882694366
30
0
41
1
10
11.4844534448716
20
-3.38972854762471
30
0
41
1
10
12.0957876318525
20
-3.80192342310932
30
0
41
1
10
12.7055124681677
20
-4.19564072782987
30
0
41
1
10
13.4378508397274
20
-4.64790407740983
30
0
41
1
10
13.6820787609067
20
-4.79528700302589
30
0
41
1
10
14.0489155129557
20
-5.01091434519006
30
0
41
1
10
14.1713462023735
20
-5.08192075796933
30
0
41
1
10
14.4159877453399
20
-5.22179276724975
30
0
41
1
10
14.5382111957673
20
-5.29066686046727
30
0
41
1
10
15.1489854536029
20
-5.62960524915744
30
0
41
1
10
15.6365322327857
20
-5.88334320542126
30
0
41
1
10
16.3688304505953
20
-6.23565409076463
30
0
41
1
10
16.6130888463384
20
-6.34837478806418
30
0
41
1
10
16.9800092032228
20
-6.51008599687827
30
0
41
1
10
17.102468100812
20
-6.56278689198612
30
0
41
1
10
17.3472876409222
20
-6.66554906466237
30
0
41
1
10
17.4696000749118
20
-6.71559270359768
30
0
41
1
10
18.0807959221648
20
-6.95907209490673
30
0
41
1
10
18.5685754984355
20
-7.13233089746791
30
0
41
1
10
19.300842029648
20
-7.35858219352076
30
0
41
1
10
19.5450306959789
20
-7.42838277969304
30
0
41
1
10
19.9117781109655
20
-7.52441024151
30
0
41
1
10
20.0341468053564
20
-7.55498281518533
30
0
41
1
10
20.2789125635551
20
-7.61316031000771
30
0
41
1
10
20.4011601201839
20
-7.6407308087835
30
0
41
1
10
21.0118593070155
20
-7.77099450978429
30
0
41
1
10
21.4987072246487
20
-7.85094514365704
30
0
41
1
10
22.4723540223176
20
-7.96193046190581
30
0
41
1
10
22.9591481701884
20
-7.99296497853453
30
0
41
1
10
23.4475011228458
20
-7.99899920064044
30
0
0
SPLINE
5
129
100
AcDbEntity
8
SK1
62
256
6
ByLayer
370
18
48
1
60
0
100
AcDbSpline
70
4
71
3
72
8
73
4
40
0
40
0
40
0
40
0
40
1
40
1
40
1
40
1
41
1
10
-1.77043687922469
20
6.86048267049966
30
0
41
1
10
-1.56959629960079
20
6.74116660293905
30
0
41
1
10
-1.36634773591928
20
6.62458486806494
30
0
41
1
10
-1.16065178254951
20
6.51078221206419
30
0
0
SPLINE
5
12A
100
AcDbEntity
8
SK1
62
256
6
ByLayer
370
18
48
1
60
0
100
AcDbSpline
70
4
71
3
72
8
73
4
40
0
40
0
40
0
40
0
40
1
40
1
40
1
40
1
41
1
10
-1.87194128659465
20
6.24425178219752
30
0
41
0.99995229981474
10
-1.82597590854025
20
6.20777762509073
30
0
41
0.99995229981474
10
-1.77990737806921
20
6.17165520840495
30
0
41
1
10
-1.73374228761375
20
6.13588970127805
30
0
0
SPLINE
5
12B
100
AcDbEntity
8
SK1
62
256
6
ByLayer
370
18
48
1
60
0
100
AcDbSpline
70
4
71
3
72
8
73
4
40
0
40
0
40
0
40
0
40
1
40
1
40
1
40
1
41
1
10
-2.0192405264271
20
5.90942080567837
30
0
41
0.999999984996576
10
-2.01843823668882
20
5.90879898114038
30
0
41
0.999999984996576
10
-2.01763591815074
20
5.90817726736371
30
0
41
1
10
-2.01683357084892
20
5.9075556643763
30
0
0
SPLINE
5
12C
100
AcDbEntity
8
SK1
62
256
6
ByLayer
370
18
48
1
60
0
100
AcDbSpline
70
4
71
3
72
8
73
4
40
0
40
0
40
0
40
0
40
1
40
1
40
1
40
1
41
1
10
4.832E-13
20
-6.44181655603975
30
0
41
1
10
4.832E-13
20
-6.45482295689928
30
0
41
1
10
-5.68E-14
20
-6.4678293860965
30
0
41
1
10
-5.68E-14
20
-6.48083584363127
30
0
0
SPLINE
5
12D
100
AcDbEntity
8
SK1
62
256
6
ByLayer
370
18
48
1
60
0
100
AcDbSpline
70
4
71
3
72
9
73
5
40
0
40
0
40
0
40
0
40
0.499828698968724
40
1
40
1
40
1
40
1
41
1
10
-2.02728907348899
20
-5.45171929385927
30
0
41
1
10
-2.02218679284607
20
-5.44665592020954
30
0
41
1
10
-2.01197873425832
20
-5.4365257022765
30
0
41
1
10
-2.00175134593127
20
-5.42645719333058
30
0
41
1
10
-1.99663589980554
20
-5.42142121411166
30
0
0
SPLINE
5
12E
100
AcDbEntity
8
SK1
62
256
6
ByLayer
370
18
48
1
60
0
100
AcDbSpline
70
4
71
2
72
6
73
3
40
0
40
0
40
0
40
1
40
1
40
1
41
0.49999853961691
10
-0.0007003139236868
20
-6.48072086394829
30
0
41
0.50000146038309
10
-0.0003502974308438
20
-6.48078101392133
30
0
41
0.49999853961691
10
-2.795809943E-07
20
-6.48084116172396
30
0
0
SPLINE
5
12F
100
AcDbEntity
8
SK1
62
256
6
ByLayer
370
18
48
1
60
0
100
AcDbSpline
70
4
71
3
72
8
73
4
40
0
40
0
40
0
40
0
40
1
40
1
40
1
40
1
41
1
10
0
20
6.08306302865961
30
0
41
1
10
0
20
5.80320041834634
30
0
41
1
10
2.84E-14
20
5.52334956504015
30
0
41
1
10
2.84E-14
20
5.24351046990662
30
0
0
SPLINE
5
130
100
AcDbEntity
8
SK1
62
256
6
ByLayer
370
18
48
1
60
0
100
AcDbSpline
70
4
71
3
72
10
73
6
40
0
40
0
40
0
40
0
40
0.5
40
0.5
40
1
40
1
40
1
40
1
41
1
10
1.137E-13
20
6.08306302865958
30
0
41
1
10
-0.195276657441809
20
6.15752500729374
30
0
41
1
10
-0.389658186851648
20
6.23044342529977
30
0
41
1
10
-0.776534237840394
20
6.37302630110912
30
0
41
1
10
-0.969035041570692
20
6.44270159186723
30
0
41
1
10
-1.16049247141046
20
6.51057768653274
30
0
0
SPLINE
5
131
100
AcDbEntity
8
SK1
62
256
6
ByLayer
370
18
48
1
60
0
100
AcDbSpline
70
4
71
3
72
29
73
25
40
0
40
0
40
0
40
0
40
0.0452369992982545
40
0.090490939005299
40
0.135762431833006
40
0.181052080315997
40
0.226360476957091
40
0.27168820437029
40
0.317035835421333
40
0.362403933365806
40
0.407793051985006
40
0.453203735719256
40
0.498636519799058
40
0.544091930373853
40
0.589570484638577
40
0.63507269095796
40
0.68059904898861
40
0.72615004979895
40
0.771726175987004
40
0.817327901796087
40
0.862955693228424
40
0.908610008156702
40
0.954291296433742
40
1
40
1
40
1
40
1
41
1
10
-1.16055415577193
20
6.51053399864347
30
0
41
1
10
-1.16960261103225
20
6.50413845638747
30
0
41
1
10
-1.18770291002991
20
6.49134497686464
30
0
41
1
10
-1.21471686646987
20
6.47242154212827
30
0
41
1
10
-1.24163716935155
20
6.45368807559675
30
0
41
1
10
-1.26845365517335
20
6.43516335021079
30
0
41
1
10
-1.29516904125893
20
6.41684144117329
30
0
41
1
10
-1.32178259160773
20
6.39872303580122
30
0
41
1
10
-1.34829449622544
20
6.38080703907778
30
0
41
1
10
-1.37470469695992
20
6.36309282433089
30
0
41
1
10
-1.40101320231719
20
6.34557962978605
30
0
41
1
10
-1.42722000304076
20
6.32826672038601
30
0
41
1
10
-1.4533250947751
20
6.31115334435853
30
0
41
1
10
-1.47932847187397
20
6.29423874506045
30
0
41
1
10
-1.50523012947701
20
6.27752215709768
30
0
41
1
10
-1.53103006138741
20
6.26100281003357
30
0
41
1
10
-1.5567282664764
20
6.2446799174692
30
0
41
1
10
-1.58232472515925
20
6.22855271708355
30
0
41
1
10
-1.60781948714242
20
6.21262032132171
30
0
41
1
10
-1.63321234369499
20
6.19688227507538
30
0
41
1
10
-1.65850405176713
20
6.18133647268033
30
0
41
1
10
-1.68369176157776
20
6.16598693851375
30
0
41
1
10
-1.70878609602221
20
6.15081476402295
30
0
41
1
10
-1.72542189071626
20
6.1408657165519
30
0
41
1
10
-1.73374228327702
20
6.13588970055224
30
0
0
SPLINE
5
132
100
AcDbEntity
8
SK1
62
256
6
ByLayer
370
18
48
1
60
0
100
AcDbSpline
70
4
71
3
72
12
73
8
40
0
40
0
40
0
40
0
40
0.250802558464149
40
0.250802558464149
40
0.501605116928297
40
0.501605116928297
40
1
40
1
40
1
40
1
41
1
10
4.263E-13
20
-6.00565277064311
30
0
41
1
10
4.263E-13
20
-6.04211583685046
30
0
41
1
10
-5.68E-14
20
-6.07857905309569
30
0
41
1
10
-5.68E-14
20
-6.15150578565758
30
0
41
1
10
-2.84E-14
20
-6.18796930197485
30
0
41
1
10
-2.84E-14
20
-6.29689357175283
30
0
41
1
10
0
20
-6.36935476766257
30
0
41
1
10
0
20
-6.4418165560393
30
0
0
SPLINE
5
133
100
AcDbEntity
8
SK1
62
256
6
ByLayer
370
18
48
1
60
0
100
AcDbSpline
70
4
71
3
72
11
73
7
40
0
40
0
40
0
40
0
40
0.288819806169696
40
0.459657453796402
40
0.630495101423109
40
1
40
1
40
1
40
1
41
1
10
-1.99663589980895
20
-5.42142121410973
30
0
41
1
10
-1.80440781970265
20
-5.52987323937782
30
0
41
1
10
-1.49849132348896
20
-5.69806647534989
30
0
41
1
10
-1.07888258983465
20
-5.91857760796748
30
0
41
1
10
-0.60557335597764
20
-6.15851577400375
30
0
41
1
10
-0.245947058480624
20
-6.32994561990134
30
0
41
1
10
9.948E-13
20
-6.44181655603975
30
0
0
SPLINE
5
134
100
AcDbEntity
8
SK1
62
256
6
ByLayer
370
18
48
1
60
0
100
AcDbSpline
70
4
71
3
72
8
73
4
40
0
40
0
40
0
40
0
40
1
40
1
40
1
40
1
41
1
10
-1.99892231019169
20
-5.42072626197566
30
0
41
0.999999986173202
10
-1.99816019991838
20
-5.42095773690743
30
0
41
0.999999986173202
10
-1.99739806311301
20
-5.42118938762247
30
0
41
1
10
-1.99663589980713
20
-5.42142121411118
30
0
0
SPLINE
5
135
100
AcDbEntity
8
SK1
62
256
6
ByLayer
370
18
48
1
60
0
100
AcDbSpline
70
4
71
3
72
18
73
14
40
0
40
0
40
0
40
0
40
0.0911585186037589
40
0.182263790381459
40
0.273316971816746
40
0.364319201048418
40
0.45527159810122
40
0.54617526511245
40
0.637031286555165
40
0.727840729456756
40
0.818604643614398
40
0.909324061806398
40
1
40
1
40
1
40
1
41
1
10
-1.71171756712062
20
-5.07570657200111
30
0
41
1
10
-1.72050860488213
20
-5.0859123969885
30
0
41
1
10
-1.73808554545047
20
-5.10631808561382
30
0
41
1
10
-1.76434748033097
20
-5.13714305811908
30
0
41
1
10
-1.79052371099283
20
-5.16811297906196
30
0
41
1
10
-1.81660739878203
20
-5.19924255996185
30
0
41
1
10
-1.84260037365939
20
-5.23052590426016
30
0
41
1
10
-1.86850218809877
20
-5.26196256114631
30
0
41
1
10
-1.89431283991615
20
-5.29355096812984
30
0
41
1
10
-1.9200328178803
20
-5.32528864813929
30
0
41
1
10
-1.94566020097633
20
-5.35717796819233
30
0
41
1
10
-1.9712022071663
20
-5.38920292467679
30
0
41
1
10
-1.98815935712304
20
-5.41068350057827
30
0
41
1
10
-1.99663589980889
20
-5.42142121410973
30
0
0
SPLINE
5
136
100
AcDbEntity
8
SK1
62
256
6
ByLayer
370
18
48
1
60
0
100
AcDbSpline
70
4
71
3
72
12
73
8
40
0
40
0
40
0
40
0
40
0.250743956872954
40
0.250743956872954
40
0.50148791374591
40
0.50148791374591
40
1
40
1
40
1
40
1
41
1
10
-4.220027E-09
20
5.24351047125901
30
0
41
1
10
-4.220027E-09
20
5.20593153361543
30
0
41
1
10
5.68E-14
20
5.16835270782789
30
0
41
1
10
5.68E-14
20
5.09319528107292
30
0
41
1
10
0
20
5.05561667984341
30
0
41
1
10
0
20
4.94332719384462
30
0
41
1
10
0
20
4.8686166402135
30
0
41
1
10
0
20
4.79390652988161
30
0
0
SPLINE
5
137
100
AcDbEntity
8
SK1
62
256
6
ByLayer
370
18
48
1
60
0
100
AcDbSpline
70
4
71
3
72
10
73
6
40
0
40
0
40
0
40
0
40
0.578783264598071
40
0.973960702533583
40
1
40
1
40
1
40
1
41
1
10
-1.73374228327702
20
6.13588970055224
30
0
41
1
10
-1.39906528023988
20
5.9783654226421
30
0
41
1
10
-0.836064508775507
20
5.69824540836655
30
0
41
1
10
-0.258334228019919
20
5.38702673402727
30
0
41
1
10
-0.0150400553687291
20
5.25188053199551
30
0
41
1
10
-8.4400824E-09
20
5.24351047125904
30
0
0
SPLINE
5
138
100
AcDbEntity
8
SK1
62
256
6
ByLayer
370
18
48
1
60
0
100
AcDbSpline
70
4
71
3
72
18
73
14
40
0
40
0
40
0
40
0
40
0.0911963719352513
40
0.182332234706421
40
0.273408635487355
40
0.364426606447898
40
0.455387164931472
40
0.546291313628983
40
0.637140040749184
40
0.727934320185472
40
0.818675111679185
40
0.909363360979504
40
1
40
1
40
1
40
1
41
1
10
-1.73374229105454
20
6.13588970394372
30
0
41
1
10
-1.74247566147108
20
6.1286721147323
30
0
41
1
10
-1.7599366076773
20
6.11424172520927
30
0
41
1
10
-1.78602767340072
20
6.09280550233865
30
0
41
1
10
-1.81203406679072
20
6.07153118622133
30
0
41
1
10
-1.83794923327102
20
6.05043276120585
30
0
41
1
10
-1.86377491320923
20
6.0295058343487
30
0
41
1
10
-1.88951066866804
20
6.00875083574155
30
0
41
1
10
-1.91515648806245
20
5.98816722115865
30
0
41
1
10
-1.9407128306344
20
5.96775348368109
30
0
41
1
10
-1.96617784885081
20
5.94751289409302
30
0
41
1
10
-1.9915584446023
20
5.9274305481477
30
0
41
1
10
-2.00841012472048
20
5.91417936771913
30
0
41
1
10
-2.01683356654309
20
5.90755566333843
30
0
0
SPLINE
5
139
100
AcDbEntity
8
SK1
62
256
6
ByLayer
370
18
48
1
60
0
100
AcDbSpline
70
4
71
3
72
8
73
4
40
0
40
0
40
0
40
0
40
1
40
1
40
1
40
1
41
1
10
-4.1831356E-09
20
4.7939065304567
30
0
41
1
10
-4.1831356E-09
20
4.77748771528502
30
0
41
1
10
0
20
4.76106891520189
30
0
41
1
10
0
20
4.74465013031153
30
0
0
SPLINE
5
13A
100
AcDbEntity
8
SK1
62
256
6
ByLayer
370
18
48
1
60
0
100
AcDbSpline
70
4
71
3
72
10
73
6
40
0
40
0
40
0
40
0
40
0.637937352778856
40
0.977678085073089
40
1
40
1
40
1
40
1
41
1
10
-2.01683356654306
20
5.90755566333843
30
0
41
1
10
-1.5876794533429
20
5.6914854858324
30
0
41
1
10
-0.930251779116787
20
5.3387003613077
30
0
41
1
10
-0.258246374429263
20
4.94803535708132
30
0
41
1
10
-0.0149966381041509
20
4.80287029803333
30
0
41
1
10
-8.3662712E-09
20
4.7939065304567
30
0
0
SPLINE
5
13B
100
AcDbEntity
8
SK1
62
256
6
ByLayer
370
18
48
1
60
0
100
AcDbSpline
70
4
71
3
72
9
73
5
40
0
40
0
40
0
40
0
40
0.499826615722402
40
1
40
1
40
1
40
1
41
1
10
-2.04780255237773
20
5.87983975128137
30
0
41
1
10
-2.04264766317181
20
5.8844453586299
30
0
41
1
10
-2.03233430841286
20
5.89365976859463
30
0
41
1
10
-2.02200168009506
20
5.90292263027089
30
0
41
1
10
-2.01683357442084
20
5.90755566714361
30
0
0
SPLINE
5
13C
100
AcDbEntity
8
SK1
62
256
6
ByLayer
370
18
48
1
60
0
100
AcDbSpline
70
4
71
3
72
8
73
4
40
0
40
0
40
0
40
0
40
1
40
1
40
1
40
1
41
1
10
0
20
-4.7497261811894
30
0
41
1
10
0
20
-5.16835801374384
30
0
41
1
10
0
20
-5.58700021085932
30
0
41
1
10
0
20
-6.00565277064268
30
0
0
SPLINE
5
13D
100
AcDbEntity
8
SK1
62
256
6
ByLayer
370
18
48
1
60
0
100
AcDbSpline
70
4
71
3
72
11
73
7
40
0
40
0
40
0
40
0
40
0.17034331861335
40
0.369617893674139
40
0.568892468734928
40
1
40
1
40
1
40
1
41
1
10
-1.71171756712323
20
-5.0757065719996
30
0
41
1
10
-1.61452567856773
20
-5.13264289716483
30
0
41
1
10
-1.40363728991619
20
-5.25475513176812
30
0
41
1
10
-1.07905074089302
20
-5.43777610662644
30
0
41
1
10
-0.605682492750077
20
-5.69655904295809
30
0
41
1
10
-0.246001259325737
20
-5.88308852706714
30
0
41
1
10
9.095E-13
20
-6.00565277064311
30
0
0
SPLINE
5
13E
100
AcDbEntity
8
SK1
62
256
6
ByLayer
370
18
48
1
60
0
100
AcDbSpline
70
4
71
3
72
8
73
4
40
0
40
0
40
0
40
0
40
1
40
1
40
1
40
1
41
1
10
-1.84618497902932
20
-5.03651831474272
30
0
41
0.999953873001926
10
-1.80145990326274
20
-5.04898061309716
30
0
41
0.999953873001926
10
-1.75663536500555
20
-5.06204396808984
30
0
41
1
10
-1.71171756712187
20
-5.07570657200074
30
0
0
SPLINE
5
13F
100
AcDbEntity
8
SK1
62
256
6
ByLayer
370
18
48
1
60
0
100
AcDbSpline
70
4
71
3
72
29
73
25
40
0
40
0
40
0
40
0
40
0.0453406037013598
40
0.0906879261629704
40
0.136042628695229
40
0.181405366318847
40
0.226776787106518
40
0.272157531556571
40
0.317548231998266
40
0.362949512028365
40
0.408361985978718
40
0.453786258414593
40
0.499222923569337
40
0.544672559574086
40
0.590135725346069
40
0.635612968395294
40
0.681104825709522
40
0.726611823922842
40
0.772134479480961
40
0.817673298803112
40
0.863228778440959
40
0.908801405234271
40
0.954391656463593
40
1
40
1
40
1
40
1
41
1
10
-1.13312488014253
20
-4.15184768953341
30
0
41
1
10
-1.14229617395975
20
-4.16520586782076
30
0
41
1
10
-1.16064012063484
20
-4.19192420386622
30
0
41
1
10
-1.18800952633228
20
-4.23223881446742
30
0
41
1
10
-1.21527404952289
20
-4.27272837080247
30
0
41
1
10
-1.24242303244989
20
-4.31340819810993
30
0
41
1
10
-1.26945932329104
20
-4.35427211206738
30
0
41
1
10
-1.29638215225566
20
-4.3953196944845
30
0
41
1
10
-1.32319172105014
20
-4.43654898338784
30
0
41
1
10
-1.34988797277242
20
-4.47795843256972
30
0
41
1
10
-1.3764709214222
20
-4.51954638730226
30
0
41
1
10
-1.40294056404048
20
-4.56131122341552
30
0
41
1
10
-1.42929690117472
20
-4.60325131567487
30
0
41
1
10
-1.45553993762658
20
-4.64536501546462
30
0
41
1
10
-1.48166969055583
20
-4.68765063548085
30
0
41
1
10
-1.5076861707135
20
-4.73010651569007
30
0
41
1
10
-1.53358939410174
20
-4.77273100652351
30
0
41
1
10
-1.55937935638073
20
-4.81552249992768
30
0
41
1
10
-1.58505612586379
20
-4.85847932439748
30
0
41
1
10
-1.61061949717643
20
-4.90160013323387
30
0
41
1
10
-1.63607028434234
20
-4.94488245479812
30
0
41
1
10
-1.66140549237389
20
-4.98832810506295
30
0
41
1
10
-1.68663634742427
20
-5.03192297552181
30
0
41
1
10
-1.70335605491823
20
-5.06111010975727
30
0
41
1
10
-1.71171756712323
20
-5.0757065719996
30
0
0
SPLINE
5
140
100
AcDbEntity
8
SK1
62
256
6
ByLayer
370
18
48
1
60
0
100
AcDbSpline
70
4
71
3
72
8
73
4
40
0
40
0
40
0
40
0
40
1
40
1
40
1
40
1
41
1
10
-1.73129838943885
20
-4.16298307443151
30
0
41
1
10
-1.53426688554964
20
-4.14884511080922
30
0
41
1
10
-1.33492747554618
20
-4.14517874238436
30
0
41
1
10
-1.13324514568222
20
-4.15214283600821
30
0
0
SPLINE
5
141
100
AcDbEntity
8
SK1
62
256
6
ByLayer
370
18
48
1
60
0
100
AcDbSpline
70
4
71
3
72
8
73
4
40
0
40
0
40
0
40
0
40
1
40
1
40
1
40
1
41
1
10
8.53E-14
20
-4.7497261811894
30
0
41
1
10
-0.381584153739198
20
-4.56199042257117
30
0
41
1
10
-0.759548476288444
20
-4.36350201697741
30
0
41
1
10
-1.13303811577876
20
-4.1517216414731
30
0
0
SPLINE
5
142
100
AcDbEntity
8
SK1
62
256
6
ByLayer
370
18
48
1
60
0
100
AcDbSpline
70
4
71
3
72
16
73
12
40
0
40
0
40
0
40
0
40
0.250000000000014
40
0.250000000000014
40
0.375000000000011
40
0.375000000000011
40
0.500000000000009
40
0.500000000000009
40
0.750000000000005
40
0.750000000000005
40
1
40
1
40
1
40
1
41
1
10
-2.01924051856992
20
5.9094208018868
30
0
41
1
10
-2.0149620540335
20
5.93959553188677
30
0
41
1
10
-2.00856766247671
20
5.96923238891031
30
0
41
1
10
-1.99591378076204
20
6.01291538329701
30
0
41
1
10
-1.99118480396271
20
6.02734757153604
30
0
41
1
10
-1.9807164181068
20
6.05595905775874
30
0
41
1
10
-1.97497112429724
20
6.07014993200406
30
0
41
1
10
-1.95630422149191
20
6.11219416460511
30
0
41
1
10
-1.94192866030664
20
6.1395825082453
30
0
41
1
10
-1.90955135373801
20
6.19300238125237
30
0
41
1
10
-1.89159122726966
20
6.21897256410611
30
0
41
1
10
-1.87194129274741
20
6.24425178707983
30
0
0
SPLINE
5
143
100
AcDbEntity
8
SK1
62
256
6
ByLayer
370
18
48
1
60
0
100
AcDbSpline
70
4
71
3
72
18
73
14
40
0
40
0
40
0
40
0
40
0.249999999999992
40
0.249999999999992
40
0.499999999999983
40
0.499999999999983
40
0.62499999999998
40
0.62499999999998
40
0.687499999999983
40
0.687499999999983
40
0.749999999999985
40
0.749999999999985
40
1
40
1
40
1
40
1
41
1
10
-1.87194128564502
20
6.2442517840953
30
0
41
1
10
-1.88673939554661
20
6.3011962814189
30
0
41
1
10
-1.89552054458019
20
6.35684877058489
30
0
41
1
10
-1.90146112259251
20
6.46558807073637
30
0
41
1
10
-1.89861966188181
20
6.51867485519995
30
0
41
1
10
-1.88564727016865
20
6.59638612471647
30
0
41
1
10
-1.87986839788977
20
6.62196997885246
30
0
41
1
10
-1.86899090077588
20
6.65986583296024
30
0
41
1
10
-1.86498811104246
20
6.67244042643063
30
0
41
1
10
-1.85629394433829
20
6.69727923712151
30
0
41
1
10
-1.85160240819312
20
6.70954995901354
30
0
41
1
10
-1.82645956947471
20
6.77018062010455
30
0
41
1
10
-1.80096910529031
20
6.81637669392978
30
0
41
1
10
-1.77043687922193
20
6.86048267050359
30
0
0
SPLINE
5
144
100
AcDbEntity
8
SK1
62
256
6
ByLayer
370
18
48
1
60
0
100
AcDbSpline
70
4
71
3
72
38
73
34
40
0
40
0
40
0
40
0
40
0.250000000000046
40
0.250000000000046
40
0.37500000000007
40
0.37500000000007
40
0.43750000000007
40
0.43750000000007
40
0.500000000000071
40
0.500000000000071
40
0.562500000000072
40
0.562500000000072
40
0.593750000000067
40
0.593750000000067
40
0.625000000000062
40
0.625000000000062
40
0.656250000000056
40
0.656250000000056
40
0.687500000000051
40
0.687500000000051
40
0.718750000000046
40
0.718750000000046
40
0.750000000000041
40
0.750000000000041
40
0.781250000000036
40
0.781250000000036
40
0.812500000000031
40
0.812500000000031
40
0.875000000000021
40
0.875000000000021
40
0.93750000000001
40
0.93750000000001
40
1
40
1
40
1
40
1
41
1
10
-5.80384652483318
20
7.94042031484292
30
0
41
1
10
-5.83044346774847
20
7.9440736580338
30
0
41
1
10
-5.85584225102531
20
7.94767417642663
30
0
41
1
10
-5.89055369706927
20
7.95306750890461
30
0
41
1
10
-5.90158070884993
20
7.95486965177656
30
0
41
1
10
-5.91663256606378
20
7.95757800415254
30
0
41
1
10
-5.92139346996234
20
7.95848072715339
30
0
41
1
10
-5.93023872388238
20
7.96029174806981
30
0
41
1
10
-5.93433844588526
20
7.96120339624557
30
0
41
1
10
-5.94151007266487
20
7.96302163864792
30
0
41
1
10
-5.94458869594968
20
7.96392777505801
30
0
41
1
10
-5.94810399830629
20
7.9652886101951
30
0
41
1
10
-5.9490901591553
20
7.96574252869962
30
0
41
1
10
-5.95059507598737
20
7.96665276064047
30
0
41
1
10
-5.95111504052377
20
7.9671119050598
30
0
41
1
10
-5.95153804812702
20
7.96801868246044
30
0
41
1
10
-5.95144487207398
20
7.96846595018539
30
0
41
1
10
-5.95051296002111
20
7.96934782685074
30
0
41
1
10
-5.94965957564332
20
7.96978657731324
30
0
41
1
10
-5.9470972289221
20
7.97062588933366
30
0
41
1
10
-5.94539807840064
20
7.97102651710088
30
0
41
1
10
-5.94109310754413
20
7.97178912797159
30
0
41
1
10
-5.93844650612491
20
7.97215509689823
30
0
41
1
10
-5.93239003869294
20
7.97282388352528
30
0
41
1
10
-5.92899806672253
20
7.9731271337848
30
0
41
1
10
-5.92156532297437
20
7.97368005426009
30
0
41
1
10
-5.91749868140437
20
7.97393046627698
30
0
41
1
10
-5.90486564534268
20
7.97459135212767
30
0
41
1
10
-5.89574235259394
20
7.97492436451179
30
0
41
1
10
-5.87667079876729
20
7.97545118706668
30
0
41
1
10
-5.86695186170792
20
7.97563863160298
30
0
41
1
10
-5.84727932998231
20
7.97591890304346
30
0
41
1
10
-5.83732372481703
20
7.97601080879272
30
0
41
1
10
-5.82728240517463
20
7.97606862306461
30
0
0
SPLINE
5
145
100
AcDbEntity
8
SK1
62
256
6
ByLayer
370
18
48
1
60
0
100
AcDbSpline
70
4
71
3
72
32
73
28
40
0
40
0
40
0
40
0
40
0.0981740318402632
40
0.0981740318402632
40
0.196348063680526
40
0.196348063680526
40
0.294522095520775
40
0.294522095520775
40
0.392696127361024
40
0.392696127361024
40
0.490870159201272
40
0.490870159201272
40
0.589044191041521
40
0.589044191041521
40
0.638131206961645
40
0.638131206961645
40
0.68721822288177
40
0.68721822288177
40
0.785392254722018
40
0.785392254722018
40
0.834479270642137
40
0.834479270642137
40
0.883566286562256
40
0.883566286562256
40
0.981740318402501
40
0.981740318402501
40
1
40
1
40
1
40
1
41
1
10
-5.82728240517463
20
7.97606862306461
30
0
41
1
10
-5.78169387011707
20
7.97633110529347
30
0
41
1
10
-5.73633596557193
20
7.97669864601025
30
0
41
1
10
-5.64618721508018
20
7.9776753338713
30
0
41
1
10
-5.60139562929723
20
7.97828458426872
30
0
41
1
10
-5.51252911075687
20
7.97977591848846
30
0
41
1
10
-5.46829771863963
20
7.98066329943447
30
0
41
1
10
-5.3825158949272
20
7.98269009977611
30
0
41
1
10
-5.34079297859606
20
7.98383207662556
30
0
41
1
10
-5.26022389032579
20
7.9863372979828
30
0
41
1
10
-5.22133952034596
20
7.98770309331462
30
0
41
1
10
-5.14734635235877
20
7.99055996997447
30
0
41
1
10
-5.11341670507278
20
7.99200460593522
30
0
41
1
10
-5.06736054748455
20
7.99405033457589
30
0
41
1
10
-5.05281486699144
20
7.99471160979155
30
0
41
1
10
-5.02537598800146
20
7.99596317022821
30
0
41
1
10
-5.01245418792126
20
7.99655459562925
30
0
41
1
10
-4.97694097968187
20
7.99814091279598
30
0
41
1
10
-4.95729446060892
20
7.99896088192597
30
0
41
1
10
-4.93306182181567
20
7.99970613615858
30
0
41
1
10
-4.92584800785912
20
7.99987404243885
30
0
41
1
10
-4.91310468913616
20
8.00002832729527
30
0
41
1
10
-4.90762664597244
20
8.00001436741158
30
0
41
1
10
-4.89353719325956
20
7.99969192320137
30
0
41
1
10
-4.88725532033803
20
7.99910263210589
30
0
41
1
10
-4.88272067642856
20
7.99794141476272
30
0
41
1
10
-4.88209481631878
20
7.99774582599423
30
0
41
1
10
-4.88155137509369
20
7.99753667749732
30
0
0
SPLINE
5
146
100
AcDbEntity
8
SK1
62
256
6
ByLayer
370
18
48
1
60
0
100
AcDbSpline
70
4
71
3
72
8
73
4
40
0
40
0
40
0
40
0
40
1
40
1
40
1
40
1
41
1
10
-5.12377161014209
20
-8.00000022580366
30
0
41
1
10
-5.13102472979597
20
-7.99999301565299
30
0
41
1
10
-5.14026986564991
20
-7.99948370083661
30
0
41
1
10
-5.15111087378943
20
-7.99848538574034
30
0
0
SPLINE
5
147
100
AcDbEntity
8
SK1
62
256
6
ByLayer
370
18
48
1
60
0
100
AcDbSpline
70
4
71
3
72
19
73
15
40
0
40
0
40
0
40
0
40
0.249999999999999
40
0.249999999999999
40
0.499999999999997
40
0.499999999999997
40
0.624999999999997
40
0.624999999999997
40
0.656249999999997
40
0.656249999999997
40
0.687499999999998
40
0.749999999999998
40
0.749999999999998
40
1
40
1
40
1
40
1
41
1
10
-5.15111087378943
20
-7.99848538574034
30
0
41
1
10
-5.33262564918195
20
-7.9930640927833
30
0
41
1
10
-5.50098910298914
20
-7.97302451549251
30
0
41
1
10
-5.81314425568769
20
-7.90049584399296
30
0
41
1
10
-5.95694472651431
20
-7.84802233966249
30
0
41
1
10
-6.15533842225102
20
-7.74194867878944
30
0
41
1
10
-6.21858240330246
20
-7.70202229430674
30
0
41
1
10
-6.29411455812371
20
-7.64600586634143
30
0
41
1
10
-6.30905565578044
20
-7.63448797577018
30
0
41
1
10
-6.33852590551152
20
-7.61087948155932
30
0
41
1
10
-6.38210650863067
20
-7.57461556484054
30
0
41
1
10
-6.42384192420022
20
-7.53578470508558
30
0
41
1
10
-6.55897744033641
20
-7.40057465999038
30
0
41
1
10
-6.65439375729105
20
-7.27398574481302
30
0
41
1
10
-6.73821777216423
20
-7.1276791316923
30
0
0
SPLINE
5
148
100
AcDbEntity
8
SK1
62
256
6
ByLayer
370
18
48
1
60
0
100
AcDbSpline
70
4
71
3
72
21
73
17
40
0
40
0
40
0
40
0
40
0.250000000000007
40
0.250000000000007
40
0.375000000000009
40
0.375000000000009
40
0.437500000000011
40
0.437500000000011
40
0.500000000000014
40
0.500000000000014
40
0.75000000000001
40
0.75000000000001
40
0.81250000000001
40
0.81250000000001
40
0.875000000000011
40
1
40
1
40
1
40
1
41
1
10
-6.73821777216421
20
-7.12767913169228
30
0
41
1
10
-6.75466432313891
20
-7.09897328678298
30
0
41
1
10
-6.76544644582958
20
-7.06933156409394
30
0
41
1
10
-6.77151021131982
20
-7.0233222024944
30
0
41
1
10
-6.7718401946201
20
-7.00772746653803
30
0
41
1
10
-6.76951791968196
20
-6.98392415794297
30
0
41
1
10
-6.76827481161035
20
-6.97595947840256
30
0
41
1
10
-6.76486429537044
20
-6.96009238172823
30
0
41
1
10
-6.7626953086081
20
-6.95217173635325
30
0
41
1
10
-6.74953558975272
20
-6.9126413520452
30
0
41
1
10
-6.73161905810201
20
-6.88124831730437
30
0
41
1
10
-6.69986870801472
20
-6.84244596333571
30
0
41
1
10
-6.69304515150654
20
-6.83470643741606
30
0
41
1
10
-6.67862590268675
20
-6.8194447196779
30
0
41
1
10
-6.65578710489473
20
-6.79681240585944
30
0
41
1
10
-6.62946072465181
20
-6.77494700903156
30
0
41
1
10
-6.61046154684593
20
-6.7607025703644
30
0
0
SPLINE
5
149
100
AcDbEntity
8
SK1
62
256
6
ByLayer
370
18
48
1
60
0
100
AcDbSpline
70
4
71
3
72
41
73
37
40
0
40
0
40
0
40
0
40
0.0312500000000011
40
0.0312500000000011
40
0.0625000000000022
40
0.0625000000000022
40
0.0937500000000034
40
0.0937500000000034
40
0.125000000000004
40
0.125000000000004
40
0.187500000000007
40
0.187500000000007
40
0.250000000000009
40
0.250000000000009
40
0.312500000000011
40
0.312500000000011
40
0.375000000000013
40
0.375000000000013
40
0.437500000000015
40
0.437500000000015
40
0.468750000000016
40
0.468750000000016
40
0.500000000000017
40
0.500000000000017
40
0.625000000000021
40
0.625000000000021
40
0.68750000000002
40
0.68750000000002
40
0.750000000000019
40
0.812500000000018
40
0.812500000000018
40
0.843750000000013
40
0.843750000000013
40
0.875000000000009
40
0.875000000000009
40
1
40
1
40
1
40
1
41
1
10
-6.61046154684573
20
-6.7607025703642
30
0
41
1
10
-6.5733735418381
20
-6.73289621905698
30
0
41
1
10
-6.53340994944037
20
-6.7063689436855
30
0
41
1
10
-6.44878450733071
20
-6.65550705542054
30
0
41
1
10
-6.40411706647322
20
-6.6311743991846
30
0
41
1
10
-6.31079404116969
20
-6.58445852867465
30
0
41
1
10
-6.2621354495374
20
-6.56207636980926
30
0
41
1
10
-6.16133901943408
20
-6.519090943218
30
0
41
1
10
-6.10917289893192
20
-6.49847852803538
30
0
41
1
10
-5.94817941367342
20
-6.43918696572513
30
0
41
1
10
-5.83737536106256
20
-6.40391415912407
30
0
41
1
10
-5.61062962918061
20
-6.34005646033694
30
0
41
1
10
-5.4946669365354
20
-6.31149266820887
30
0
41
1
10
-5.2585569380189
20
-6.26010287554655
30
0
41
1
10
-5.13837409913526
20
-6.23728076682386
30
0
41
1
10
-4.8945072735103
20
-6.19683121673398
30
0
41
1
10
-4.77178748291237
20
-6.17936316901788
30
0
41
1
10
-4.52499414219687
20
-6.14933365946234
30
0
41
1
10
-4.40091922715777
20
-6.13677595135152
30
0
41
1
10
-4.21389300706011
20
-6.12133314757978
30
0
41
1
10
-4.15139812308905
20
-6.11675251709556
30
0
41
1
10
-4.02611494697487
20
-6.10868991794666
30
0
41
1
10
-3.96330923230681
20
-6.1052079393541
30
0
41
1
10
-3.64940645247157
20
-6.09050488682681
30
0
41
1
10
-3.39803498145011
20
-6.08730913417852
30
0
41
1
10
-3.02064573242649
20
-6.09400946791777
30
0
41
1
10
-2.89473962194125
20
-6.09817412858837
30
0
41
1
10
-2.64378656208035
20
-6.11014646317514
30
0
41
1
10
-2.39345584035584
20
-6.12576271372794
30
0
41
1
10
-2.14433014871054
20
-6.14831753640564
30
0
41
1
10
-1.95792848691755
20
-6.16771967587079
30
0
41
1
10
-1.89586193368371
20
-6.17460268577443
30
0
41
1
10
-1.7720850242402
20
-6.18915302960099
30
0
41
1
10
-1.71034847048577
20
-6.19682294560081
30
0
41
1
10
-1.40241606487399
20
-6.23708694982108
30
0
41
1
10
-1.15846701872437
20
-6.27542514351924
30
0
41
1
10
-0.916838158784515
20
-6.31914108069302
30
0
0
SPLINE
5
14A
100
AcDbEntity
8
SK1
62
256
6
ByLayer
370
18
48
1
60
0
100
AcDbSpline
70
4
71
3
72
14
73
10
40
0
40
0
40
0
40
0
40
0.25
40
0.25
40
0.5
40
0.5
40
0.75
40
0.75
40
1
40
1
40
1
40
1
41
1
10
-2.02729544187568
20
-5.45172562208367
30
0
41
1
10
-1.85805556180867
20
-5.54620267727393
30
0
41
1
10
-1.68887582886737
20
-5.63848803440294
30
0
41
1
10
-1.35101172535366
20
-5.81900384441252
30
0
41
1
10
-1.18242953848787
20
-5.90731942970493
30
0
41
1
10
-0.845264211528701
20
-6.0793820126589
30
0
41
1
10
-0.67669088287397
20
-6.16313955741305
30
0
41
1
10
-0.339130596336531
20
-6.32572456538955
30
0
41
1
10
-0.170112149844925
20
-6.40452708566227
30
0
41
1
10
-0.0007003139340327
20
-6.48072086394862
30
0
0
SPLINE
5
14B
100
AcDbEntity
8
SK1
62
256
6
ByLayer
370
18
48
1
60
0
100
AcDbSpline
70
4
71
3
72
8
73
4
40
0
40
0
40
0
40
0
40
1
40
1
40
1
40
1
41
1
10
-2.02728287192238
20
-5.45171318228091
30
0
41
1
10
-2.0180877548751
20
-5.44128248060227
30
0
41
1
10
-2.00863190088091
20
-5.43095403697356
30
0
41
1
10
-1.99892231019013
20
-5.42072626197614
30
0
0
SPLINE
5
14C
100
AcDbEntity
8
SK1
62
256
6
ByLayer
370
18
48
1
60
0
100
AcDbSpline
70
4
71
3
72
10
73
6
40
0
40
0
40
0
40
0
40
0.5
40
0.5
40
1
40
1
40
1
40
1
41
1
10
-1.99892231019305
20
-5.42072626197435
30
0
41
1
10
-1.98908440009114
20
-5.35565426017729
30
0
41
1
10
-1.97103235229051
20
-5.29081697554886
30
0
41
1
10
-1.91943396839434
20
-5.16183702445957
30
0
41
1
10
-1.8860910067844
20
-5.09833176996355
30
0
41
1
10
-1.84618497902511
20
-5.03651831474392
30
0
0
SPLINE
5
14D
100
AcDbEntity
8
SK1
62
256
6
ByLayer
370
18
48
1
60
0
100
AcDbSpline
70
4
71
3
72
17
73
13
40
0
40
0
40
0
40
0
40
0.250000000000005
40
0.50000000000001
40
0.50000000000001
40
0.625000000000012
40
0.625000000000012
40
0.687500000000013
40
0.687500000000013
40
0.750000000000015
40
0.750000000000015
40
1
40
1
40
1
40
1
41
1
10
-1.84618497902764
20
-5.03651831474244
30
0
41
1
10
-1.85961823094465
20
-4.96617883954451
30
0
41
1
10
-1.87461429146916
20
-4.82387834396954
30
0
41
1
10
-1.86661048558591
20
-4.6783633685705
30
0
41
1
10
-1.85197098892922
20
-4.56803266638971
30
0
41
1
10
-1.84564877473184
20
-4.53105669109613
30
0
41
1
10
-1.8339732608473
20
-4.47529556633557
30
0
41
1
10
-1.82970684483081
20
-4.45662488745242
30
0
41
1
10
-1.82049419224549
20
-4.41941156695984
30
0
41
1
10
-1.81554757617255
20
-4.40085975867493
30
0
41
1
10
-1.78914917250751
20
-4.30837220071055
30
0
41
1
10
-1.76271723325368
20
-4.2352472029616
30
0
41
1
10
-1.73129838943515
20
-4.16298307442304
30
0
0
SPLINE
5
14E
100
AcDbEntity
8
SK1
62
256
6
ByLayer
370
18
48
1
60
0
100
AcDbSpline
70
4
71
3
72
36
73
32
40
0
40
0
40
0
40
0
40
0.250000000000016
40
0.250000000000016
40
0.375000000000011
40
0.375000000000011
40
0.43750000000001
40
0.43750000000001
40
0.500000000000008
40
0.500000000000008
40
0.562500000000007
40
0.562500000000007
40
0.625000000000005
40
0.625000000000005
40
0.656250000000005
40
0.656250000000005
40
0.687500000000004
40
0.687500000000004
40
0.718750000000004
40
0.718750000000004
40
0.750000000000003
40
0.750000000000003
40
0.781250000000003
40
0.781250000000003
40
0.812500000000002
40
0.812500000000002
40
0.875000000000002
40
0.875000000000002
40
0.937500000000001
40
0.937500000000001
40
1
40
1
40
1
40
1
41
1
10
-5.63983720335511
20
-1.03757649211553
30
0
41
1
10
-5.66568401535443
20
-1.00783806576442
30
0
41
1
10
-5.69033208976842
20
-0.977206766832069
30
0
41
1
10
-5.72395839545766
20
-0.928784785708274
30
0
41
1
10
-5.73461939047888
20
-0.912195342267381
30
0
41
1
10
-5.74920732732394
20
-0.886420236032109
30
0
41
1
10
-5.75381921841262
20
-0.877702834022273
30
0
41
1
10
-5.76238714530814
20
-0.859939873534216
30
0
41
1
10
-5.76635822733388
20
-0.850859964178568
30
0
41
1
10
-5.77332045908219
20
-0.832438654361226
30
0
41
1
10
-5.77631275912893
20
-0.823113898066651
30
0
41
1
10
-5.78091401037062
20
-0.804142521682991
30
0
41
1
10
-5.78253633355666
20
-0.794498985797048
30
0
41
1
10
-5.7833398470116
20
-0.779655559436549
30
0
41
1
10
-5.78332486656061
20
-0.774624397371383
30
0
41
1
10
-5.78259364996882
20
-0.764720633538644
30
0
41
1
10
-5.78188197493697
20
-0.759814324396132
30
0
41
1
10
-5.77961931192772
20
-0.750112478052046
30
0
41
1
10
-5.77805360849436
20
-0.745313735128889
30
0
41
1
10
-5.77409920421644
20
-0.736244937402518
30
0
41
1
10
-5.77170216975827
20
-0.731924795706362
30
0
41
1
10
-5.76603071557867
20
-0.723732508622589
30
0
41
1
10
-5.76275003869927
20
-0.719875302388601
30
0
41
1
10
-5.75564131105335
20
-0.712916795260753
30
0
41
1
10
-5.75178238650869
20
-0.709765679374613
30
0
41
1
10
-5.73940521817028
20
-0.701174902346906
30
0
41
1
10
-5.73045523721865
20
-0.696819449732317
30
0
41
1
10
-5.71179905875312
20
-0.689916440739268
30
0
41
1
10
-5.70204958762827
20
-0.687377385186039
30
0
41
1
10
-5.68248350567785
20
-0.683640598909875
30
0
41
1
10
-5.67258856092698
20
-0.682420082997055
30
0
41
1
10
-5.66261440705901
20
-0.681658206498895
30
0
0
SPLINE
5
14F
100
AcDbEntity
8
SK1
62
256
6
ByLayer
370
18
48
1
60
0
100
AcDbSpline
70
4
71
3
72
36
73
32
40
0
40
0
40
0
40
0
40
0.124999999999963
40
0.124999999999963
40
0.187499999999965
40
0.187499999999965
40
0.249999999999966
40
0.249999999999966
40
0.374999999999944
40
0.374999999999944
40
0.406249999999944
40
0.406249999999944
40
0.437499999999944
40
0.437499999999944
40
0.499999999999944
40
0.562499999999945
40
0.562499999999945
40
0.593749999999945
40
0.593749999999945
40
0.624999999999945
40
0.687499999999958
40
0.687499999999958
40
0.71874999999996
40
0.71874999999996
40
0.749999999999962
40
0.749999999999962
40
0.874999999999982
40
0.874999999999982
40
0.937499999999991
40
0.937499999999991
40
1
40
1
40
1
40
1
41
1
10
-5.66261440705901
20
-0.681658206498895
30
0
41
1
10
-5.59807882205172
20
-0.676728650953379
30
0
41
1
10
-5.53404187667104
20
-0.668906976200702
30
0
41
1
10
-5.43900460943505
20
-0.651265163915156
30
0
41
1
10
-5.4074964334537
20
-0.644392550815041
30
0
41
1
10
-5.34488860875337
20
-0.628274918898484
30
0
41
1
10
-5.31374873191581
20
-0.619004856307185
30
0
41
1
10
-5.22251211865765
20
-0.587427221847122
30
0
41
1
10
-5.16413158866951
20
-0.561307523007514
30
0
41
1
10
-5.0952620876588
20
-0.520128672472481
30
0
41
1
10
-5.08169545353113
20
-0.511462330091177
30
0
41
1
10
-5.05501207538663
20
-0.493194580969316
30
0
41
1
10
-5.041843514785
20
-0.483550704224768
30
0
41
1
10
-5.0035377864194
20
-0.453466131917764
30
0
41
1
10
-4.95565521747807
20
-0.410327641578476
30
0
41
1
10
-4.91432384440785
20
-0.360971645625455
30
0
41
1
10
-4.88584235336481
20
-0.321562728850182
30
0
41
1
10
-4.87674145477095
20
-0.307979753091331
30
0
41
1
10
-4.8596205681454
20
-0.280401432670686
30
0
41
1
10
-4.83548304717917
20
-0.238326776390323
30
0
41
1
10
-4.81571365578623
20
-0.194249892430889
30
0
41
1
10
-4.79855752666526
20
-0.148973501843557
30
0
41
1
10
-4.79327492016816
20
-0.133681199477678
30
0
41
1
10
-4.78353834182099
20
-0.102715968805939
30
0
41
1
10
-4.77908301311851
20
-0.0870271622711698
30
0
41
1
10
-4.7589791097038
20
-0.0085665241941513
30
0
41
1
10
-4.74951131495874
20
0.0549481052491956
30
0
41
1
10
-4.74231557762187
20
0.151006216648256
30
0
41
1
10
-4.74110336954737
20
0.183158749821729
30
0
41
1
10
-4.74073350197722
20
0.247693804272529
30
0
41
1
10
-4.74158059458327
20
0.28011174644692
30
0
41
1
10
-4.74331765734041
20
0.312446300439518
30
0
0
SPLINE
5
150
100
AcDbEntity
8
SK1
62
256
6
ByLayer
370
18
48
1
60
0
100
AcDbSpline
70
4
71
3
72
19
73
15
40
0
40
0
40
0
40
0
40
0.249999999999966
40
0.249999999999966
40
0.37499999999995
40
0.37499999999995
40
0.437499999999948
40
0.437499999999948
40
0.499999999999945
40
0.749999999999959
40
0.749999999999959
40
0.874999999999979
40
0.874999999999979
40
1
40
1
40
1
40
1
41
1
10
-6.33695050928122
20
4.20494063457832
30
0
41
1
10
-6.34335381345903
20
4.23236177909359
30
0
41
1
10
-6.34700216329009
20
4.2597902613237
30
0
41
1
10
-6.347671267978
20
4.3009668941541
30
0
41
1
10
-6.34709082373985
20
4.31469819822038
30
0
41
1
10
-6.34489546403722
20
4.33530798318139
30
0
41
1
10
-6.34393888874175
20
4.34219452075169
30
0
41
1
10
-6.34159292862137
20
4.35580676321729
30
0
41
1
10
-6.33463846692774
20
4.38952393316279
30
0
41
1
10
-6.32227441455063
20
4.42169216991465
30
0
41
1
10
-6.30214580395014
20
4.45881252994201
30
0
41
1
10
-6.29451441065575
20
4.47098021051897
30
0
41
1
10
-6.27777544537616
20
4.49438659825381
30
0
41
1
10
-6.26864887177217
20
4.50567442153385
30
0
41
1
10
-6.25880316952021
20
4.51657062102285
30
0
0
SPLINE
5
151
100
AcDbEntity
8
SK1
62
256
6
ByLayer
370
18
48
1
60
0
100
AcDbSpline
70
4
71
3
72
45
73
41
40
0
40
0
40
0
40
0
40
0.0312499999999995
40
0.0312499999999995
40
0.0624999999999991
40
0.0624999999999991
40
0.125000000000001
40
0.125000000000001
40
0.140625000000001
40
0.140625000000001
40
0.15625
40
0.15625
40
0.1875
40
0.1875
40
0.249999999999999
40
0.249999999999999
40
0.312499999999997
40
0.312499999999997
40
0.374999999999996
40
0.374999999999996
40
0.437499999999995
40
0.437499999999995
40
0.468749999999995
40
0.468749999999995
40
0.499999999999994
40
0.499999999999994
40
0.624999999999985
40
0.624999999999985
40
0.656249999999982
40
0.656249999999982
40
0.68749999999998
40
0.749999999999982
40
0.749999999999982
40
0.781249999999987
40
0.781249999999987
40
0.812499999999992
40
0.812499999999992
40
0.874999999999995
40
0.874999999999995
40
1
40
1
40
1
40
1
41
1
10
-6.25880316952023
20
4.51657062102285
30
0
41
1
10
-6.22263126770989
20
4.55660192076519
30
0
41
1
10
-6.18397246058595
20
4.59404072843697
30
0
41
1
10
-6.10249145561033
20
4.66464789363025
30
0
41
1
10
-6.05966557449932
20
4.69781210900638
30
0
41
1
10
-5.92578728855906
20
4.79185590522073
30
0
41
1
10
-5.82938056155021
20
4.84733794556985
30
0
41
1
10
-5.70172545083534
20
4.90972941562805
30
0
41
1
10
-5.67589915493465
20
4.92182146471163
30
0
41
1
10
-5.62395275031656
20
4.94517419609633
30
0
41
1
10
-5.59779275551887
20
4.9564544582681
30
0
41
1
10
-5.51879168326255
20
4.98919854021509
30
0
41
1
10
-5.46543099837336
20
5.00956909787683
30
0
41
1
10
-5.30351820811703
20
5.06688552681444
30
0
41
1
10
-5.1931483875243
20
5.10006635936352
30
0
41
1
10
-4.96842520675003
20
5.15840688431442
30
0
41
1
10
-4.85406487295532
20
5.18355036271961
30
0
41
1
10
-4.62186527989545
20
5.22700205388708
30
0
41
1
10
-4.50495890192673
20
5.24513030019142
30
0
41
1
10
-4.2700372141947
20
5.27522260100673
30
0
41
1
10
-4.15196856152687
20
5.28718967974888
30
0
41
1
10
-3.97404218147506
20
5.30102940060635
30
0
41
1
10
-3.91459572435937
20
5.30495490543345
30
0
41
1
10
-3.79543788162988
20
5.31148895790685
30
0
41
1
10
-3.73578320124167
20
5.31409357853374
30
0
41
1
10
-3.43768686796585
20
5.32392931547841
30
0
41
1
10
-3.19924152916985
20
5.32172553626816
30
0
41
1
10
-2.90122012171005
20
5.30774747217626
30
0
41
1
10
-2.84163208893745
20
5.30438514248365
30
0
41
1
10
-2.72271067570102
20
5.29656202740256
30
0
41
1
10
-2.54461763768234
20
5.28317443639699
30
0
41
1
10
-2.36737101895895
20
5.26492012193876
30
0
41
1
10
-2.19066863134538
20
5.24348560590894
30
0
41
1
10
-2.13185862093522
20
5.2358101183965
30
0
41
1
10
-2.01441767182951
20
5.21940188992585
30
0
41
1
10
-1.95578198103607
20
5.21066771709272
30
0
41
1
10
-1.78049200271676
20
5.18293934202708
30
0
41
1
10
-1.66433568984172
20
5.16240501059875
30
0
41
1
10
-1.31790659862054
20
5.09470862318653
30
0
41
1
10
-1.08967086559389
20
5.04146779187687
30
0
41
1
10
-0.864015443738992
20
4.98002497941417
30
0
0
SPLINE
5
152
100
AcDbEntity
8
SK1
62
256
6
ByLayer
370
18
48
1
60
0
100
AcDbSpline
70
4
71
3
72
14
73
10
40
0
40
0
40
0
40
0
40
0.25
40
0.25
40
0.5
40
0.5
40
0.75
40
0.75
40
1
40
1
40
1
40
1
41
1
10
-2.04781448254249
20
5.87982909836452
30
0
41
1
10
-1.8777301115241
20
5.79316383138095
30
0
41
1
10
-1.70766017465564
20
5.70434283706538
30
0
41
1
10
-1.36707595825112
20
5.52287769440181
30
0
41
1
10
-1.19656325779806
20
5.43023467070319
30
0
41
1
10
-0.85497945445448
20
5.24129844831353
30
0
41
1
10
-0.683864599375568
20
5.14505402103137
30
0
41
1
10
-0.341536978742738
20
4.94846157543921
30
0
41
1
10
-0.170411581116411
20
4.84802845198877
30
0
41
1
10
-8.4697E-12
20
4.74465013030346
30
0
0
SPLINE
5
153
100
AcDbEntity
8
SK1
62
256
6
ByLayer
370
18
48
1
60
0
100
AcDbSpline
70
4
71
3
72
8
73
4
40
0
40
0
40
0
40
0
40
1
40
1
40
1
40
1
41
1
10
-2.04779077833962
20
5.87985115389085
30
0
41
1
10
-2.0385488515783
20
5.88985871634432
30
0
41
1
10
-2.02902948720293
20
5.89971339420219
30
0
41
1
10
-2.01924052642517
20
5.90942080567686
30
0
0
SPLINE
5
154
100
AcDbEntity
8
SK1
62
256
6
ByLayer
370
18
48
1
60
0
100
AcDbSpline
70
4
71
3
72
21
73
17
40
0
40
0
40
0
40
0
40
0.250000000000002
40
0.250000000000002
40
0.500000000000005
40
0.500000000000005
40
0.562500000000005
40
0.562500000000005
40
0.593750000000006
40
0.593750000000006
40
0.625000000000006
40
0.750000000000004
40
0.750000000000004
40
0.875000000000002
40
0.875000000000002
40
1
40
1
40
1
40
1
41
1
10
-4.74331765734041
20
0.312446300439518
30
0
41
1
10
-4.93904818833931
20
0.628955357958233
30
0
41
1
10
-5.11769523837509
20
0.950356699725887
30
0
41
1
10
-5.4437013920726
20
1.60073343482617
30
0
41
1
10
-5.59107713810565
20
1.92970618953223
30
0
41
1
10
-5.75724861847687
20
2.34425874134865
30
0
41
1
10
-5.78957856604026
20
2.42733612393573
30
0
41
1
10
-5.83673809169227
20
2.5521765246902
30
0
41
1
10
-5.8522170066789
20
2.59377988674311
30
0
41
1
10
-5.88262502716012
20
2.67675314701086
30
0
41
1
10
-5.95732816313378
20
2.88375822829562
30
0
41
1
10
-6.02559518125989
20
3.08856947960797
30
0
41
1
10
-6.12717471753729
20
3.41317614515813
30
0
41
1
10
-6.17414063322468
20
3.57393420854055
30
0
41
1
10
-6.26087121728324
20
3.89206082538263
30
0
41
1
10
-6.30063610009142
20
4.04942988032889
30
0
41
1
10
-6.33695050928122
20
4.20494063457832
30
0
0
SPLINE
5
155
100
AcDbEntity
8
1
62
256
6
ByLayer
370
18
48
1
60
0
100
AcDbSpline
70
4
71
1
72
4
73
2
40
0
40
0
40
1
40
1
41
1
10
21.3657910355843
20
4.85633412100717
30
0
41
1
10
21.2088364633472
20
4.91653593483971
30
0
0
SPLINE
5
156
100
AcDbEntity
8
1
62
256
6
ByLayer
370
18
48
1
60
0
100
AcDbSpline
70
4
71
3
72
19
73
15
40
0
40
0
40
0
40
0
40
0.135787894293009
40
0.243402932130705
40
0.32333916117497
40
0.394315148232944
40
0.466090994136549
40
0.538260264550278
40
0.603031734841242
40
0.665661720939435
40
0.733573020810018
40
0.820704648232961
40
0.922800163594691
40
1
40
1
40
1
40
1
41
1
10
10.8244141558542
20
-7.02593528811269
30
0
41
1
10
11.0806446314089
20
-7.01720191546002
30
0
41
1
10
11.5383114049293
20
-6.99477148123293
30
0
41
1
10
12.1448859260337
20
-6.94833748141681
30
0
41
1
10
12.6240086639127
20
-6.90197163731884
30
0
41
1
10
13.0358276129983
20
-6.85533950513087
30
0
41
1
10
13.4353050424243
20
-6.80391752627702
30
0
41
1
10
13.8245441150772
20
-6.74781262225409
30
0
41
1
10
14.1973482287974
20
-6.68870732792462
30
0
41
1
10
14.5658742008688
20
-6.62529257828598
30
0
41
1
10
14.9706455558068
20
-6.55021097678008
30
0
41
1
10
15.4402313704816
20
-6.45587996209909
30
0
41
1
10
15.9211355604486
20
-6.34966179145906
30
0
41
1
10
16.2559737291291
20
-6.27092840874064
30
0
41
1
10
16.4017125813196
20
-6.23567111761491
30
0
0
SPLINE
5
157
100
AcDbEntity
8
1
62
256
6
ByLayer
370
18
48
1
60
0
100
AcDbSpline
70
4
71
3
72
9
73
5
40
0
40
0
40
0
40
0
40
0.684245593878875
40
1
40
1
40
1
40
1
41
1
10
17.3487677357194
20
6.18555693562928
30
0
41
1
10
17.0476503322802
20
6.25636889056113
30
0
41
1
10
16.6111578460032
20
6.35335935165662
30
0
41
1
10
16.1801623648056
20
6.44082160447789
30
0
41
1
10
16.0445758463792
20
6.46749352685924
30
0
0
SPLINE
5
158
100
AcDbEntity
8
1
62
256
6
ByLayer
370
18
48
1
60
0
100
AcDbSpline
70
4
71
3
72
14
73
10
40
0
40
0
40
0
40
0
40
0.213796165124978
40
0.381652117459201
40
0.50384638662127
40
0.59215959943477
40
0.693306877258533
40
0.810413545878525
40
1
40
1
40
1
40
1
41
1
10
7.9416380749272
20
3.62035097094963
30
0
41
1
10
7.78520185889104
20
3.66204062630862
30
0
41
1
10
7.50547502388764
20
3.7417887621618
30
0
41
1
10
7.13523646566836
20
3.85958384027819
30
0
41
1
10
6.85637407398519
20
3.95525898871475
30
0
41
1
10
6.62628500018519
20
4.03827975356515
30
0
41
1
10
6.38910687466924
20
4.1276972426914
30
0
41
1
10
6.08186256502381
20
4.24952250050126
30
0
41
1
10
5.86419182258874
20
4.34104548544153
30
0
41
1
10
5.73425874411521
20
4.39791722532198
30
0
0
SPLINE
5
159
100
AcDbEntity
8
1
62
256
6
ByLayer
370
18
48
1
60
0
100
AcDbSpline
70
4
71
3
72
10
73
6
40
0
40
0
40
0
40
0
40
0.359366202015372
40
0.692484473477792
40
1
40
1
40
1
40
1
41
1
10
2.92748819197465
20
5.45722789963952
30
0
41
1
10
2.57309978430402
20
5.56914087607282
30
0
41
1
10
1.89277238772655
20
5.77412402246298
30
0
41
1
10
0.915201503105777
20
6.04251339040653
30
0
41
1
10
0.295956617665212
20
6.19431267213741
30
0
41
1
10
2.84E-14
20
6.26283553733478
30
0
0
LINE
5
77
100
AcDbEntity
8
80
62
256
6
ByLayer
370
18
48
1
60
0
100
AcDbLine
10
0
20
0
30
0
11
-5
21
0
31
0
39
0
210
0
220
0
230
1
0
LINE
5
78
100
AcDbEntity
8
SK4
62
256
6
ByLayer
370
18
48
0.05
60
0
100
AcDbLine
10
-68
20
0
30
0
11
24
21
0
31
0
39
0
210
0
220
0
230
1
0
LINE
5
7A
100
AcDbEntity
8
81
62
256
6
ByLayer
370
18
48
1
60
0
100
AcDbLine
10
24
20
0
30
0
11
29
21
0
31
0
39
0
210
0
220
0
230
1
0
LINE
5
7B
100
AcDbEntity
8
4
62
256
6
ByLayer
370
18
48
0.05
60
0
100
AcDbLine
10
0
20
0
30
0
11
24
21
0
31
0
39
0
210
0
220
0
230
1
0
LINE
5
7D
100
AcDbEntity
8
1
62
256
6
ByLayer
370
18
48
1
60
0
100
AcDbLine
10
0
20
-4.212541
30
0
11
0
21
-3.869445
31
0
39
0
210
0
220
0
230
1
0
LINE
5
7E
100
AcDbEntity
8
1
62
256
6
ByLayer
370
18
48
1
60
0
100
AcDbLine
10
0
20
-2.35782
30
0
11
0
21
0.637534
31
0
39
0
210
0
220
0
230
1
0
LINE
5
7F
100
AcDbEntity
8
1
62
256
6
ByLayer
370
18
48
1
60
0
100
AcDbLine
10
0
20
-3.869445
30
0
11
0
21
-2.35782
31
0
39
0
210
0
220
0
230
1
0
LINE
5
80
100
AcDbEntity
8
1
62
256
6
ByLayer
370
18
48
1
60
0
100
AcDbLine
10
0
20
6.110225
30
0
11
0
21
6.263003
31
0
39
0
210
0
220
0
230
1
0
LINE
5
81
100
AcDbEntity
8
1
62
256
6
ByLayer
370
18
48
1
60
0
100
AcDbLine
10
0
20
-4.749726
30
0
11
0
21
-4.212541
31
0
39
0
210
0
220
0
230
1
0
LINE
5
82
100
AcDbEntity
8
1
62
256
6
ByLayer
370
18
48
1
60
0
100
AcDbLine
10
0
20
0.993157
30
0
11
0
21
4.493625
31
0
39
0
210
0
220
0
230
1
0
LINE
5
83
100
AcDbEntity
8
1
62
256
6
ByLayer
370
18
48
1
60
0
100
AcDbLine
10
0
20
6.263007
30
0
11
0
21
6.562556
31
0
39
0
210
0
220
0
230
1
0
LINE
5
84
100
AcDbEntity
8
1
62
256
6
ByLayer
370
18
48
1
60
0
100
AcDbLine
10
0
20
4.493625
30
0
11
0
21
4.742245
31
0
39
0
210
0
220
0
230
1
0
LINE
5
85
100
AcDbEntity
8
1
62
256
6
ByLayer
370
18
48
1
60
0
100
AcDbLine
10
23.863719
20
-0.574568
30
0
11
23.807309
21
-0.722361
31
0
39
0
210
0
220
0
230
1
0
LINE
5
86
100
AcDbEntity
8
1
62
256
6
ByLayer
370
18
48
1
60
0
100
AcDbLine
10
23.994989
20
0.468732
30
0
11
23.987346
21
0.407992
31
0
39
0
210
0
220
0
230
1
0
LINE
5
87
100
AcDbEntity
8
1
62
256
6
ByLayer
370
18
48
1
60
0
100
AcDbLine
10
23.970384
20
0.273178
30
0
11
23.863719
21
-0.574568
31
0
39
0
210
0
220
0
230
1
0
LINE
5
88
100
AcDbEntity
8
1
62
256
6
ByLayer
370
18
48
1
60
0
100
AcDbLine
10
23.863719
20
-0.574568
30
0
11
23.804681
21
-0.623157
31
0
39
0
210
0
220
0
230
1
0
LINE
5
89
100
AcDbEntity
8
1
62
256
6
ByLayer
370
18
48
1
60
0
100
AcDbLine
10
23.979705
20
0.467724
30
0
11
23.994989
21
0.468732
31
0
39
0
210
0
220
0
230
1
0
LINE
5
8A
100
AcDbEntity
8
1
62
256
6
ByLayer
370
18
48
1
60
0
100
AcDbLine
10
23.98117
20
0.456273
30
0
11
23.994989
21
0.468732
31
0
39
0
210
0
220
0
230
1
0
LINE
5
8B
100
AcDbEntity
8
1
62
256
6
ByLayer
370
18
48
1
60
0
100
AcDbLine
10
23.796761
20
-0.324334
30
0
11
23.828578
21
-0.02327
31
0
39
0
210
0
220
0
230
1
0
LINE
5
8C
100
AcDbEntity
8
1
62
256
6
ByLayer
370
18
48
1
60
0
100
AcDbLine
10
23.823176
20
7.967669
30
0
11
23.994989
21
7.797699
31
0
39
0
210
0
220
0
230
1
0
LINE
5
8D
100
AcDbEntity
8
1
62
256
6
ByLayer
370
18
48
1
60
0
100
AcDbLine
10
23.82699
20
1.471745
30
0
11
23.994989
21
7.797699
31
0
39
0
210
0
220
0
230
1
0
LINE
5
8E
100
AcDbEntity
8
1
62
256
6
ByLayer
370
18
48
1
60
0
100
AcDbLine
10
23.788787
20
-0.023407
30
0
11
23.994989
21
-7.805102
31
0
39
0
210
0
220
0
230
1
0
LINE
5
8F
100
AcDbEntity
8
1
62
256
6
ByLayer
370
18
48
1
60
0
100
AcDbLine
10
23.755913
20
-0.095668
30
0
11
23.777414
21
-0.023349
31
0
39
0
210
0
220
0
230
1
0
LINE
5
90
100
AcDbEntity
8
1
62
256
6
ByLayer
370
18
48
1
60
0
100
AcDbLine
10
23.753598
20
-0.094113
30
0
11
23.755913
21
-0.095668
31
0
39
0
210
0
220
0
230
1
0
LINE
5
91
100
AcDbEntity
8
1
62
256
6
ByLayer
370
18
48
1
60
0
100
AcDbLine
10
23.753759
20
-0.023389
30
0
11
23.753598
21
-0.094113
31
0
39
0
210
0
220
0
230
1
0
LINE
5
92
100
AcDbEntity
8
1
62
256
6
ByLayer
370
18
48
1
60
0
100
AcDbLine
10
23.729511
20
-0.432991
30
0
11
23.720613
21
-0.023451
31
0
39
0
210
0
220
0
230
1
0
LINE
5
93
100
AcDbEntity
8
1
62
256
6
ByLayer
370
18
48
1
60
0
100
AcDbLine
10
23.822484
20
-7.976678
30
0
11
23.994989
21
-7.805102
31
0
39
0
210
0
220
0
230
1
0
LINE
5
94
100
AcDbEntity
8
1
62
256
6
ByLayer
370
18
48
1
60
0
100
AcDbLine
10
23.994989
20
-7.805102
30
0
11
23.863719
21
-7.623578
31
0
39
0
210
0
220
0
230
1
0
LINE
5
95
100
AcDbEntity
8
1
62
256
6
ByLayer
370
13
48
1
60
0
100
AcDbLine
10
23.358986
20
-0.02403
30
0
11
23.729511
21
-0.432991
31
0
39
0
210
0
220
0
230
1
0
LINE
5
96
100
AcDbEntity
8
1
62
256
6
ByLayer
370
18
48
1
60
0
100
AcDbLine
10
23.863719
20
-7.623578
30
0
11
23.765392
21
-7.645625
31
0
39
0
210
0
220
0
230
1
0
LINE
5
97
100
AcDbEntity
8
1
62
256
6
ByLayer
370
18
48
1
60
0
100
AcDbLine
10
23.863719
20
-7.623578
30
0
11
23.707318
21
-1.657824
31
0
39
0
210
0
220
0
230
1
0
LINE
5
98
100
AcDbEntity
8
1
62
256
6
ByLayer
370
18
48
1
60
0
100
AcDbLine
10
22.404212
20
-3.573693
30
0
11
23.706086
21
-1.659644
31
0
39
0
210
0
220
0
230
1
0
LINE
5
99
100
AcDbEntity
8
1
62
256
6
ByLayer
370
13
48
1
60
0
100
AcDbLine
10
23.706086
20
-1.659644
30
0
11
19.511177
21
-0.967706
31
0
39
0
210
0
220
0
230
1
0
LINE
5
9A
100
AcDbEntity
8
1
62
256
6
ByLayer
370
18
48
1
60
0
100
AcDbLine
10
0
20
0.637534
30
0
11
0
21
0.993157
31
0
39
0
210
0
220
0
230
1
0
LINE
5
9B
100
AcDbEntity
8
1
62
256
6
ByLayer
370
18
48
1
60
0
100
AcDbLine
10
23.994989
20
0.348258
30
0
11
23.863719
21
1.374447
31
0
39
0
210
0
220
0
230
1
0
LINE
5
9C
100
AcDbEntity
8
1
62
256
6
ByLayer
370
18
48
1
60
0
100
AcDbLine
10
23.863719
20
1.374447
30
0
11
23.76617
21
1.632784
31
0
39
0
210
0
220
0
230
1
0
LINE
5
9D
100
AcDbEntity
8
1
62
256
6
ByLayer
370
18
48
1
60
0
100
AcDbLine
10
23.822907
20
0.377556
30
0
11
23.994989
21
0.348258
31
0
39
0
210
0
220
0
230
1
0
LINE
5
9E
100
AcDbEntity
8
1
62
256
6
ByLayer
370
13
48
1
60
0
100
AcDbLine
10
20.687881
20
0.370666
30
0
11
23.083784
21
-0.024531
31
0
39
0
210
0
220
0
230
1
0
LINE
5
9F
100
AcDbEntity
8
1
62
256
6
ByLayer
370
18
48
1
60
0
100
AcDbLine
10
23.873247
20
-0.023186
30
0
11
23.083784
21
-0.024531
31
0
39
0
210
0
220
0
230
1
0
LINE
5
A0
100
AcDbEntity
8
1
62
256
6
ByLayer
370
18
48
1
60
0
100
AcDbLine
10
23.873247
20
-0.023186
30
0
11
23.994989
21
0.348258
31
0
39
0
210
0
220
0
230
1
0
LINE
5
A1
100
AcDbEntity
8
SK1
62
256
6
ByLayer
370
18
48
1
60
0
100
AcDbLine
10
0
20
6.562536
30
0
11
0
21
6.263007
31
0
39
0
210
0
220
0
230
1
0
LINE
5
A3
100
AcDbEntity
8
SK1
62
256
6
ByLayer
370
18
48
1
60
0
100
AcDbLine
10
-5.151111
20
-7.998485
30
0
11
-0.737011
21
-6.351554
31
0
39
0
210
0
220
0
230
1
0
LINE
5
A4
100
AcDbEntity
8
SK1
62
256
6
ByLayer
370
18
48
1
60
0
100
AcDbLine
10
0
20
6.263002
30
0
11
0
21
6.089125
31
0
39
0
210
0
220
0
230
1
0
LINE
5
A5
100
AcDbEntity
8
SK1
62
256
6
ByLayer
370
13
48
1
60
0
100
AcDbLine
10
-5.827282
20
7.976069
30
0
11
-5.673952
21
7.921586
31
0
39
0
210
0
220
0
230
1
0
LINE
5
A6
100
AcDbEntity
8
SK1
62
256
6
ByLayer
370
13
48
1
60
0
100
AcDbLine
10
-6.738218
20
-7.127679
30
0
11
-4.005028
21
-6.107907
31
0
39
0
210
0
220
0
230
1
0
LINE
5
A7
100
AcDbEntity
8
SK1
62
256
6
ByLayer
370
13
48
1
60
0
100
AcDbLine
10
-6.610462
20
-6.760703
30
0
11
-5.318943
21
-6.278828
31
0
39
0
210
0
220
0
230
1
0
LINE
5
A8
100
AcDbEntity
8
SK1
62
256
6
ByLayer
370
18
48
1
60
0
100
AcDbLine
10
0
20
4.742221
30
0
11
0
21
4.493625
31
0
39
0
210
0
220
0
230
1
0
LINE
5
A9
100
AcDbEntity
8
SK1
62
256
6
ByLayer
370
18
48
1
60
0
100
AcDbLine
10
0
20
0.993157
30
0
11
0
21
4.493625
31
0
39
0
210
0
220
0
230
1
0
LINE
5
AA
100
AcDbEntity
8
SK1
62
256
6
ByLayer
370
13
48
1
60
0
100
AcDbLine
10
-0.864015
20
4.980025
30
0
11
0
21
4.493625
31
0
39
0
210
0
220
0
230
1
0
LINE
5
AB
100
AcDbEntity
8
SK1
62
256
6
ByLayer
370
18
48
1
60
0
100
AcDbLine
10
0
20
0.637534
30
0
11
0
21
0.993157
31
0
39
0
210
0
220
0
230
1
0
LINE
5
AC
100
AcDbEntity
8
SK1
62
256
6
ByLayer
370
13
48
1
60
0
100
AcDbLine
10
-6.258803
20
4.516571
30
0
11
0
21
0.993157
31
0
39
0
210
0
220
0
230
1
0
LINE
5
AD
100
AcDbEntity
8
SK1
62
256
6
ByLayer
370
18
48
1
60
0
100
AcDbLine
10
0
20
-4.212541
30
0
11
0
21
-4.749726
31
0
39
0
210
0
220
0
230
1
0
LINE
5
AE
100
AcDbEntity
8
SK1
62
256
6
ByLayer
370
13
48
1
60
0
100
AcDbLine
10
-5.639837
20
-1.037576
30
0
11
0
21
-4.212541
31
0
39
0
210
0
220
0
230
1
0
LINE
5
AF
100
AcDbEntity
8
SK1
62
256
6
ByLayer
370
18
48
1
60
0
100
AcDbLine
10
0
20
-4.212541
30
0
11
0
21
-3.869445
31
0
39
0
210
0
220
0
230
1
0
LINE
5
B0
100
AcDbEntity
8
SK1
62
256
6
ByLayer
370
13
48
1
60
0
100
AcDbLine
10
-5.662614
20
-0.681658
30
0
11
0
21
-3.869445
31
0
39
0
210
0
220
0
230
1
0
LINE
5
B1
100
AcDbEntity
8
SK1
62
256
6
ByLayer
370
18
48
1
60
0
100
AcDbLine
10
0
20
-3.869445
30
0
11
0
21
-2.35782
31
0
39
0
210
0
220
0
230
1
0
LINE
5
B2
100
AcDbEntity
8
SK1
62
256
6
ByLayer
370
18
48
1
60
0
100
AcDbLine
10
0
20
4.74465
30
0
11
0
21
4.742221
31
0
39
0
210
0
220
0
230
1
0
LINE
5
B3
100
AcDbEntity
8
SK1
62
256
6
ByLayer
370
18
48
1
60
0
100
AcDbLine
10
-49
20
6.2
30
0
11
-50.8
21
8
31
0
39
0
210
0
220
0
230
1
0
LINE
5
B4
100
AcDbEntity
8
SK1
62
256
6
ByLayer
370
18
48
1
60
0
100
AcDbLine
10
-39
20
6.2
30
0
11
-37.2
21
8
31
0
39
0
210
0
220
0
230
1
0
LINE
5
B5
100
AcDbEntity
8
SK1
62
256
6
ByLayer
370
18
48
1
60
0
100
AcDbLine
10
-49
20
6.2
30
0
11
-39
21
6.2
31
0
39
0
210
0
220
0
230
1
0
LINE
5
B6
100
AcDbEntity
8
SK1
62
256
6
ByLayer
370
18
48
1
60
0
100
AcDbLine
10
-4.743318
20
0.312446
30
0
11
0
21
-2.35782
31
0
39
0
210
0
220
0
230
1
0
LINE
5
B7
100
AcDbEntity
8
SK1
62
256
6
ByLayer
370
18
48
1
60
0
100
AcDbLine
10
0
20
-2.35782
30
0
11
0
21
0.637534
31
0
39
0
210
0
220
0
230
1
0
LINE
5
B8
100
AcDbEntity
8
SK1
62
256
6
ByLayer
370
13
48
1
60
0
100
AcDbLine
10
-6.336951
20
4.204941
30
0
11
0
21
0.637534
31
0
39
0
210
0
220
0
230
1
0
LINE
5
B9
100
AcDbEntity
8
SK1
62
256
6
ByLayer
370
18
48
1
60
0
100
AcDbLine
10
-67.2
20
8
30
0
11
-67.2
21
-8
31
0
39
0
210
0
220
0
230
1
0
LINE
5
BA
100
AcDbEntity
8
SK1
62
256
6
ByLayer
370
18
48
1
60
0
100
AcDbLine
10
-68
20
-7.2
30
0
11
-68
21
7.2
31
0
39
0
210
0
220
0
230
1
0
LINE
5
BB
100
AcDbEntity
8
SK1
62
256
6
ByLayer
370
18
48
1
60
0
100
AcDbLine
10
-5.111988
20
-7.999831
30
0
11
-0.708112
21
-6.356714
31
0
39
0
210
0
220
0
230
1
0
LINE
5
BC
100
AcDbEntity
8
SK1
62
256
6
ByLayer
370
18
48
1
60
0
100
AcDbLine
10
-5E-05
20
6.263021
30
0
11
-4.891704
21
8.001148
31
0
39
0
210
0
220
0
230
1
0
LINE
5
BD
100
AcDbEntity
8
SK1
62
256
6
ByLayer
370
18
48
1
60
0
100
AcDbLine
10
-4.917089
20
8
30
0
11
-37.2
21
8
31
0
39
0
210
0
220
0
230
1
0
LINE
5
BE
100
AcDbEntity
8
SK1
62
256
6
ByLayer
370
18
48
1
60
0
100
AcDbLine
10
-50.8
20
8
30
0
11
-67.2
21
8
31
0
39
0
210
0
220
0
230
1
0
LINE
5
BF
100
AcDbEntity
8
SK1
62
256
6
ByLayer
370
18
48
1
60
0
100
AcDbLine
10
-67.2
20
-8
30
0
11
-5.131965
21
-8
31
0
39
0
210
0
220
0
230
1
0
LINE
5
C0
100
AcDbEntity
8
SK1
62
256
6
ByLayer
370
18
48
1
60
0
100
AcDbLine
10
-68
20
-7.2
30
0
11
-67.2
21
-8
31
0
39
0
210
0
220
0
230
1
0
LINE
5
C1
100
AcDbEntity
8
SK1
62
256
6
ByLayer
370
18
48
1
60
0
100
AcDbLine
10
-67.2
20
8
30
0
11
-68
21
7.2
31
0
39
0
210
0
220
0
230
1
0
LINE
5
C2
100
AcDbEntity
8
SK2
62
256
6
ByLayer
370
18
48
1
60
0
100
AcDbLine
10
-75.45
20
8
30
0
11
-75.45
21
-26.056066
31
0
39
0
210
0
220
0
230
1
0
LINE
5
C4
100
AcDbEntity
8
SK2
62
256
6
ByLayer
370
18
48
1
60
0
100
AcDbLine
10
-68.7875
20
8
30
0
11
-77.45
21
8
31
0
39
0
210
0
220
0
230
1
0
LINE
5
C5
100
AcDbEntity
8
SK2
62
256
6
ByLayer
370
18
48
1
60
0
100
AcDbLine
10
-68.7875
20
-8
30
0
11
-77.45
21
-8
31
0
39
0
210
0
220
0
230
1
0
LINE
5
C6
100
AcDbEntity
8
1
62
256
6
ByLayer
370
18
48
1
60
1
100
AcDbLine
10
-75.45
20
8
30
0
11
-74.989216
21
4.500002
31
0
39
0
210
0
220
0
230
1
0
LINE
5
C7
100
AcDbEntity
8
1
62
256
6
ByLayer
370
18
48
1
60
1
100
AcDbLine
10
-74.989216
20
4.500002
30
0
11
-75.910784
21
4.499998
31
0
39
0
210
0
220
0
230
1
0
LINE
5
C8
100
AcDbEntity
8
1
62
256
6
ByLayer
370
18
48
1
60
1
100
AcDbLine
10
-75.910784
20
4.499998
30
0
11
-75.45
21
8
31
0
39
0
210
0
220
0
230
1
0
LINE
5
C9
100
AcDbEntity
8
1
62
256
6
ByLayer
370
18
48
1
60
1
100
AcDbLine
10
-75.45
20
-8
30
0
11
-75.910784
21
-4.500002
31
0
39
0
210
0
220
0
230
1
0
LINE
5
CA
100
AcDbEntity
8
1
62
256
6
ByLayer
370
18
48
1
60
1
100
AcDbLine
10
-75.910784
20
-4.500002
30
0
11
-74.989216
21
-4.499998
31
0
39
0
210
0
220
0
230
1
0
LINE
5
CB
100
AcDbEntity
8
1
62
256
6
ByLayer
370
18
48
1
60
1
100
AcDbLine
10
-74.989216
20
-4.499998
30
0
11
-75.45
21
-8
31
0
39
0
210
0
220
0
230
1
0
LINE
5
CC
100
AcDbEntity
8
2
62
256
6
ByLayer
370
18
48
1
60
0
100
AcDbLine
10
36
20
-8.0001
30
0
11
36
21
26.056166
31
0
39
0
210
0
220
0
230
1
0
LINE
5
CE
100
AcDbEntity
8
2
62
256
6
ByLayer
370
18
48
1
60
0
100
AcDbLine
10
25.5875
20
8.0001
30
0
11
38
21
8.0001
31
0
39
0
210
0
220
0
230
1
0
LINE
5
CF
100
AcDbEntity
8
2
62
256
6
ByLayer
370
18
48
1
60
0
100
AcDbLine
10
25.5875
20
-8.0001
30
0
11
38
21
-8.0001
31
0
39
0
210
0
220
0
230
1
0
LINE
5
D0
100
AcDbEntity
8
1
62
256
6
ByLayer
370
18
48
1
60
1
100
AcDbLine
10
36
20
8.0001
30
0
11
36.460784
21
4.500102
31
0
39
0
210
0
220
0
230
1
0
LINE
5
D1
100
AcDbEntity
8
1
62
256
6
ByLayer
370
18
48
1
60
1
100
AcDbLine
10
36.460784
20
4.500102
30
0
11
35.539216
21
4.500098
31
0
39
0
210
0
220
0
230
1
0
LINE
5
D2
100
AcDbEntity
8
1
62
256
6
ByLayer
370
18
48
1
60
1
100
AcDbLine
10
35.539216
20
4.500098
30
0
11
36
21
8.0001
31
0
39
0
210
0
220
0
230
1
0
LINE
5
D3
100
AcDbEntity
8
1
62
256
6
ByLayer
370
18
48
1
60
1
100
AcDbLine
10
36
20
-8.0001
30
0
11
35.539216
21
-4.500102
31
0
39
0
210
0
220
0
230
1
0
LINE
5
D4
100
AcDbEntity
8
1
62
256
6
ByLayer
370
18
48
1
60
1
100
AcDbLine
10
35.539216
20
-4.500102
30
0
11
36.460784
21
-4.500098
31
0
39
0
210
0
220
0
230
1
0
LINE
5
D5
100
AcDbEntity
8
1
62
256
6
ByLayer
370
18
48
1
60
1
100
AcDbLine
10
36.460784
20
-4.500098
30
0
11
36
21
-8.0001
31
0
39
0
210
0
220
0
230
1
0
LINE
5
D6
100
AcDbEntity
8
2
62
256
6
ByLayer
370
18
48
1
60
0
100
AcDbLine
10
24
20
-38.854669
30
0
11
-68
21
-38.854669
31
0
39
0
210
0
220
0
230
1
0
LINE
5
D7
100
AcDbEntity
8
2
62
256
6
ByLayer
370
18
48
1
60
0
100
AcDbLine
10
-68
20
-8.7875
30
0
11
-68
21
-40.854669
31
0
39
0
210
0
220
0
230
1
0
LINE
5
D8
100
AcDbEntity
8
2
62
256
6
ByLayer
370
18
48
1
60
0
100
AcDbLine
10
24
20
-9.5876
30
0
11
24
21
-40.854669
31
0
39
0
210
0
220
0
230
1
0
LINE
5
D9
100
AcDbEntity
8
1
62
256
6
ByLayer
370
18
48
1
60
1
100
AcDbLine
10
-68
20
-38.854669
30
0
11
-64.500002
21
-38.393885
31
0
39
0
210
0
220
0
230
1
0
LINE
5
DA
100
AcDbEntity
8
1
62
256
6
ByLayer
370
18
48
1
60
1
100
AcDbLine
10
-64.500002
20
-38.393885
30
0
11
-64.499998
21
-39.315453
31
0
39
0
210
0
220
0
230
1
0
LINE
5
DB
100
AcDbEntity
8
1
62
256
6
ByLayer
370
18
48
1
60
1
100
AcDbLine
10
-64.499998
20
-39.315453
30
0
11
-68
21
-38.854669
31
0
39
0
210
0
220
0
230
1
0
LINE
5
DC
100
AcDbEntity
8
1
62
256
6
ByLayer
370
18
48
1
60
1
100
AcDbLine
10
24
20
-38.854669
30
0
11
20.500002
21
-39.315453
31
0
39
0
210
0
220
0
230
1
0
LINE
5
DD
100
AcDbEntity
8
1
62
256
6
ByLayer
370
18
48
1
60
1
100
AcDbLine
10
20.500002
20
-39.315453
30
0
11
20.499998
21
-38.393885
31
0
39
0
210
0
220
0
230
1
0
LINE
5
DE
100
AcDbEntity
8
1
62
256
6
ByLayer
370
18
48
1
60
1
100
AcDbLine
10
20.499998
20
-38.393885
30
0
11
24
21
-38.854669
31
0
39
0
210
0
220
0
230
1
0
LINE
5
15E
100
AcDbEntity
8
1
62
256
6
ByLayer
370
18
48
1
60
1
100
AcDbLine
10
-75.45
20
8
30
0
11
-74.989216
21
4.500002
31
0
39
0
210
0
220
0
230
1
0
LINE
5
15F
100
AcDbEntity
8
1
62
256
6
ByLayer
370
18
48
1
60
1
100
AcDbLine
10
-74.989216
20
4.500002
30
0
11
-75.910784
21
4.499998
31
0
39
0
210
0
220
0
230
1
0
LINE
5
160
100
AcDbEntity
8
1
62
256
6
ByLayer
370
18
48
1
60
1
100
AcDbLine
10
-75.910784
20
4.499998
30
0
11
-75.45
21
8
31
0
39
0
210
0
220
0
230
1
0
LINE
5
162
100
AcDbEntity
8
1
62
256
6
ByLayer
370
18
48
1
60
1
100
AcDbLine
10
-75.45
20
-8
30
0
11
-75.910784
21
-4.500002
31
0
39
0
210
0
220
0
230
1
0
LINE
5
163
100
AcDbEntity
8
1
62
256
6
ByLayer
370
18
48
1
60
1
100
AcDbLine
10
-75.910784
20
-4.500002
30
0
11
-74.989216
21
-4.499998
31
0
39
0
210
0
220
0
230
1
0
LINE
5
164
100
AcDbEntity
8
1
62
256
6
ByLayer
370
18
48
1
60
1
100
AcDbLine
10
-74.989216
20
-4.499998
30
0
11
-75.45
21
-8
31
0
39
0
210
0
220
0
230
1
0
LINE
5
168
100
AcDbEntity
8
1
62
256
6
ByLayer
370
18
48
1
60
1
100
AcDbLine
10
36
20
8.0001
30
0
11
36.460784
21
4.500102
31
0
39
0
210
0
220
0
230
1
0
LINE
5
169
100
AcDbEntity
8
1
62
256
6
ByLayer
370
18
48
1
60
1
100
AcDbLine
10
36.460784
20
4.500102
30
0
11
35.539216
21
4.500098
31
0
39
0
210
0
220
0
230
1
0
LINE
5
16A
100
AcDbEntity
8
1
62
256
6
ByLayer
370
18
48
1
60
1
100
AcDbLine
10
35.539216
20
4.500098
30
0
11
36
21
8.0001
31
0
39
0
210
0
220
0
230
1
0
LINE
5
16C
100
AcDbEntity
8
1
62
256
6
ByLayer
370
18
48
1
60
1
100
AcDbLine
10
36
20
-8.0001
30
0
11
35.539216
21
-4.500102
31
0
39
0
210
0
220
0
230
1
0
LINE
5
16D
100
AcDbEntity
8
1
62
256
6
ByLayer
370
18
48
1
60
1
100
AcDbLine
10
35.539216
20
-4.500102
30
0
11
36.460784
21
-4.500098
31
0
39
0
210
0
220
0
230
1
0
LINE
5
16E
100
AcDbEntity
8
1
62
256
6
ByLayer
370
18
48
1
60
1
100
AcDbLine
10
36.460784
20
-4.500098
30
0
11
36
21
-8.0001
31
0
39
0
210
0
220
0
230
1
0
LINE
5
171
100
AcDbEntity
8
1
62
256
6
ByLayer
370
18
48
1
60
1
100
AcDbLine
10
-68
20
-38.854669
30
0
11
-64.500002
21
-38.393885
31
0
39
0
210
0
220
0
230
1
0
LINE
5
172
100
AcDbEntity
8
1
62
256
6
ByLayer
370
18
48
1
60
1
100
AcDbLine
10
-64.500002
20
-38.393885
30
0
11
-64.499998
21
-39.315453
31
0
39
0
210
0
220
0
230
1
0
LINE
5
173
100
AcDbEntity
8
1
62
256
6
ByLayer
370
18
48
1
60
1
100
AcDbLine
10
-64.499998
20
-39.315453
30
0
11
-68
21
-38.854669
31
0
39
0
210
0
220
0
230
1
0
LINE
5
175
100
AcDbEntity
8
1
62
256
6
ByLayer
370
18
48
1
60
1
100
AcDbLine
10
24
20
-38.854669
30
0
11
20.500002
21
-39.315453
31
0
39
0
210
0
220
0
230
1
0
LINE
5
176
100
AcDbEntity
8
1
62
256
6
ByLayer
370
18
48
1
60
1
100
AcDbLine
10
20.500002
20
-39.315453
30
0
11
20.499998
21
-38.393885
31
0
39
0
210
0
220
0
230
1
0
LINE
5
177
100
AcDbEntity
8
1
62
256
6
ByLayer
370
18
48
1
60
1
100
AcDbLine
10
20.499998
20
-38.393885
30
0
11
24
21
-38.854669
31
0
39
0
210
0
220
0
230
1
0
MTEXT
5
15A
100
AcDbEntity
8
SK2
62
256
6
ByLayer
370
18
48
1
60
0
100
AcDbMText
10
-77.014634
20
-24.121222
30
0
210
0
220
0
230
1
1
%%c
40
3.5
41
0
44
1.084337
50
90
71
7
72
5
7
iso_b_vert
0
MTEXT
5
15D
100
AcDbEntity
8
SK2
62
256
6
ByLayer
370
18
48
1
60
0
100
AcDbMText
10
-77.014634
20
-17.148566
30
0
210
0
220
0
230
1
1
\W0.5321;16
40
3.5
41
0
44
1.084337
50
90
71
7
72
5
7
iso_b_vert
0
MTEXT
5
166
100
AcDbEntity
8
2
62
256
6
ByLayer
370
18
48
1
60
0
100
AcDbMText
10
34.435366
20
15.934944
30
0
210
0
220
0
230
1
1
%%c
40
3.5
41
0
44
1.084337
50
90
71
7
72
5
7
iso_b_vert
0
MTEXT
5
167
100
AcDbEntity
8
2
62
256
6
ByLayer
370
18
48
1
60
0
100
AcDbMText
10
34.435366
20
22.9076
30
0
210
0
220
0
230
1
1
\W0.5321;16
40
3.5
41
0
44
1.084337
50
90
71
7
72
5
7
iso_b_vert
0
MTEXT
5
170
100
AcDbEntity
8
2
62
256
6
ByLayer
370
18
48
1
60
0
100
AcDbMText
10
-23.904966
20
-37.822035
30
0
210
0
220
0
230
1
1
\W0.6740;92
40
3.5
41
0
44
1.084337
50
0
71
7
72
5
7
iso_b_vert
0
MTEXT
5
179
100
AcDbEntity
8
SK6
62
256
6
ByLayer
370
18
48
1
60
0
100
AcDbMText
10
-40.90184
20
-62.021267
30
0
210
0
220
0
230
1
1
\W0.7215;1K324-1600-XB 1730
40
3
41
0
44
1.084337
50
0
71
7
72
5
7
iso_b_vert
0
HATCH
5
161
100
AcDbEntity
8
SK2
62
256
6
ByLayer
370
13
48
1
60
0
100
AcDbHatch
10
0
20
0
30
0
210
0
220
0
230
1
2
ANSI31
70
0
71
0
91
1
92
5
93
3
72
1
10
-75.45
20
8
11
-74.9892162584473
21
4.50000169255318
72
1
10
-74.9892162584473
20
4.50000169255318
11
-75.9107837415528
21
4.49999830744682
72
1
10
-75.9107837415528
20
4.49999830744682
11
-75.45
21
8
97
0
75
0
76
1
52
0
41
0.0062
77
0
78
1
53
45
43
0
44
0
45
-0.0139193969876572
46
0.0139193969876572
79
0
47
0
98
1
10
0
20
0
0
HATCH
5
165
100
AcDbEntity
8
SK2
62
256
6
ByLayer
370
13
48
1
60
0
100
AcDbHatch
10
0
20
0
30
0
210
0
220
0
230
1
2
ANSI31
70
0
71
0
91
1
92
5
93
3
72
1
10
-75.45
20
-8
11
-75.9107837415528
21
-4.50000169255318
72
1
10
-75.9107837415528
20
-4.50000169255318
11
-74.9892162584473
21
-4.49999830744682
72
1
10
-74.9892162584473
20
-4.49999830744682
11
-75.45
21
-8
97
0
75
0
76
1
52
0
41
0.0062
77
0
78
1
53
45
43
0
44
0
45
-0.0139193969876572
46
0.0139193969876572
79
0
47
0
98
1
10
0
20
0
0
HATCH
5
16B
100
AcDbEntity
8
2
62
256
6
ByLayer
370
13
48
1
60
0
100
AcDbHatch
10
0
20
0
30
0
210
0
220
0
230
1
2
ANSI31
70
0
71
0
91
1
92
5
93
3
72
1
10
36
20
8.00009999999989
11
36.4607837415528
21
4.50010169255307
72
1
10
36.4607837415528
20
4.50010169255307
11
35.5392162584472
21
4.50009830744671
72
1
10
35.5392162584472
20
4.50009830744671
11
36
21
8.00009999999989
97
0
75
0
76
1
52
0
41
0.0062
77
0
78
1
53
45
43
0
44
0
45
-0.0139193969876572
46
0.0139193969876572
79
0
47
0
98
1
10
0
20
0
0
HATCH
5
16F
100
AcDbEntity
8
2
62
256
6
ByLayer
370
13
48
1
60
0
100
AcDbHatch
10
0
20
0
30
0
210
0
220
0
230
1
2
ANSI31
70
0
71
0
91
1
92
5
93
3
72
1
10
36
20
-8.00010000000009
11
35.5392162584472
21
-4.50010169255327
72
1
10
35.5392162584472
20
-4.50010169255327
11
36.4607837415528
21
-4.5000983074469
72
1
10
36.4607837415528
20
-4.5000983074469
11
36
21
-8.00010000000009
97
0
75
0
76
1
52
0
41
0.0062
77
0
78
1
53
45
43
0
44
0
45
-0.0139193969876572
46
0.0139193969876572
79
0
47
0
98
1
10
0
20
0
0
HATCH
5
174
100
AcDbEntity
8
2
62
256
6
ByLayer
370
13
48
1
60
0
100
AcDbHatch
10
0
20
0
30
0
210
0
220
0
230
1
2
ANSI31
70
0
71
0
91
1
92
5
93
3
72
1
10
-68
20
-38.8546687736451
11
-64.5000016925532
21
-38.3938850320923
72
1
10
-64.5000016925532
20
-38.3938850320923
11
-64.4999983074468
21
-39.3154525151978
72
1
10
-64.4999983074468
20
-39.3154525151978
11
-68
21
-38.8546687736451
97
0
75
0
76
1
52
0
41
0.0062
77
0
78
1
53
45
43
0
44
0
45
-0.0139193969876572
46
0.0139193969876572
79
0
47
0
98
1
10
0
20
0
0
HATCH
5
178
100
AcDbEntity
8
2
62
256
6
ByLayer
370
13
48
1
60
0
100
AcDbHatch
10
0
20
0
30
0
210
0
220
0
230
1
2
ANSI31
70
0
71
0
91
1
92
5
93
3
72
1
10
24
20
-38.8546687736451
11
20.5000016925532
21
-39.3154525151978
72
1
10
20.5000016925532
20
-39.3154525151978
11
20.4999983074468
21
-38.3938850320923
72
1
10
20.4999983074468
20
-38.3938850320923
11
24
21
-38.8546687736451
97
0
75
0
76
1
52
0
41
0.0062
77
0
78
1
53
45
43
0
44
0
45
-0.0139193969876572
46
0.0139193969876572
79
0
47
0
98
1
10
0
20
0
0
DIMENSION
5
17C
100
AcDbEntity
8
SK2
62
256
6
ByLayer
370
18
48
1
60
0
100
AcDbDimension
2
_U0
10
0
20
-22.854669
30
0
11
12
21
-22.854669
31
0
70
32
71
1
72
1
41
1
210
0
220
0
230
1
3
Standard
100
AcDbAlignedDimension
13
24
23
-8.0001
33
0
14
0
24
-8.0001
34
0
50
0
100
AcDbRotatedDimension
1001
ACAD
1000
DSTYLE
1002
{
1070
   371
1070
    13
1070
   372
1070
    13
1070
   170
1070
     0
1070
   144
1040
1.0
1070
   277
1070
     2
1070
   284
1070
     8
1070
   278
1070
    46
1070
   146
1040
1.0
1070
   345
1005
16
1070
   347
1005
16
1070
   346
1005
16
1070
   344
1005
0
1070
   343
1005
0
1070
   172
1070
     1
1070
    76
1070
     0
1070
    75
1070
     0
1070
   282
1070
     0
1070
   281
1070
     0
1070
    71
1070
     0
1070
    74
1070
     0
1070
   279
1070
     0
1070
   173
1070
     1
1070
   340
1005
15B
1070
   271
1070
     2
1070
   272
1070
     2
1070
    77
1070
     1
1070
    73
1070
     1
1070
   171
1070
     3
1070
   274
1070
     4
1070
   177
1070
     2
1070
   176
1070
     2
1070
   178
1070
     2
1070
    78
1070
     8
1070
    48
1040
-0.1
1070
    41
1040
3.5
1070
   147
1040
1.75
1070
    42
1040
1.5875
1070
    44
1040
2.0
1070
   140
1040
3.5
1002
}
1001
ACAD_DSTYLE_DIM_LINETYPE
1070
   380
1005
16
1001
ACAD_DSTYLE_DIM_EXT1_LINETYPE
1070
   381
1005
16
1001
ACAD_DSTYLE_DIM_EXT2_LINETYPE
1070
   382
1005
16
0
ENDSEC
0
SECTION
2
OBJECTS
0
DICTIONARY
5
205
330
0
100
AcDbDictionary
280
0
281
1
3
ACAD_GROUP
350
206
3
ACAD_MLINESTYLE
350
207
0
DICTIONARY
5
206
330
0
100
AcDbDictionary
280
0
281
1
0
DICTIONARY
5
207
330
0
100
AcDbDictionary
280
0
281
1
3
Standard
350
18
0
MLINESTYLE
5
18
330
207
100
AcDbMlineStyle
2
Standard
70
0
3

62
256
51
90
52
90
71
2
49
-0.5
62
256
6
ByLayer
49
0.5
62
256
6
ByLayer
0
RASTERVARIABLES
5
1f3
330

100
AcDbRasterVariables
90
0
70
1
71
1
72
1
0
ENDSEC
0
EOF
