0
SECTION
2
HEADER
9
$ACADVER
1
AC1015
9
$DWGCODEPAGE
3
ANSI_1252
9
$HANDSEED
5
1eb
9
$ANGBASE
50
0
9
$ANGDIR
70
0
9
$ATTMODE
70
1
9
$AUNITS
70
0
9
$AUPREC
70
0
9
$CECOLOR
62
256
9
$CELTSCALE
40
1
9
$CELTYPE
6
ByLayer
9
$CELWEIGHT
370
18
9
$CLAYER
8
0
9
$CMLJUST
70
0
9
$CMLSCALE
40
1
9
$CMLSTYLE
2
Standard
9
$DIMSTYLE
2
Standard
9
$TEXTSIZE
40
0.2
9
$TEXTSTYLE
7
Standard
9
$LUNITS
70
2
9
$LUPREC
70
4
9
$EXTNAMES
290
1
9
$INSUNITS
70
4
9
$LTSCALE
40
1
9
$LWDISPLAY
290
1
9
$PDMODE
70
0
9
$PDSIZE
40
0
9
$PLINEGEN
70
0
0
ENDSEC
0
SECTION
2
CLASSES
0
CLASS
1
RASTERVARIABLES
2
AcDbRasterVariables
3
ISM
90
0
280
0
281
0
0
ENDSEC
0
SECTION
2
TABLES
0
TABLE
2
VPORT
5
1e1
100
AcDbSymbolTable
0
VPORT
5
1
100
AcDbSymbolTableRecord
100
AcDbViewportTableRecord
2
*Active
70
0
10
0
20
0
11
1
21
1
12
-1
22
1
13
0
23
0
14
0.5
24
0.5
15
10
25
10
16
0
26
0
36
1
17
0
27
0
37
0
0
ENDTAB
0
TABLE
2
LTYPE
5
1e2
100
AcDbSymbolTable
0
LTYPE
5
14
100
AcDbSymbolTableRecord
100
AcDbLinetypeTableRecord
70
0
2
ByBlock
3

72
65
73
0
40
0
0
LTYPE
5
15
100
AcDbSymbolTableRecord
100
AcDbLinetypeTableRecord
70
0
2
ByLayer
3

72
65
73
0
40
0
0
LTYPE
5
16
100
AcDbSymbolTableRecord
100
AcDbLinetypeTableRecord
70
0
2
Continuous
3
Solid line
72
65
73
0
40
0
0
LTYPE
5
6E
100
AcDbSymbolTableRecord
100
AcDbLinetypeTableRecord
70
0
2
CENTER
3
____ _ ____ _ ____ _ ____
72
65
73
4
40
47.5
49
22
74
0
49
-8.5
74
0
49
8.5
74
0
49
-8.5
74
0
0
LTYPE
5
6F
100
AcDbSymbolTableRecord
100
AcDbLinetypeTableRecord
70
0
2
DASHED
3
__ __ __ __ __ __ __ __ __
72
65
73
2
40
25.72
49
12.86
74
0
49
-12.86
74
0
0
ENDTAB
0
TABLE
2
LAYER
5
1e3
100
AcDbSymbolTable
0
LAYER
5
10
100
AcDbSymbolTableRecord
100
AcDbLayerTableRecord
2
0
70
0
62
7
6
Continuous
290
1
370
-3
390
0
0
LAYER
5
71
100
AcDbSymbolTableRecord
100
AcDbLayerTableRecord
2
81
70
0
62
-3
6
Continuous
290
1
370
-3
390
0
0
LAYER
5
73
100
AcDbSymbolTableRecord
100
AcDbLayerTableRecord
2
80
70
0
62
-6
6
Continuous
290
1
370
-3
390
0
0
LAYER
5
75
100
AcDbSymbolTableRecord
100
AcDbLayerTableRecord
2
1
70
0
62
4
6
Continuous
290
1
370
-3
390
0
0
LAYER
5
79
100
AcDbSymbolTableRecord
100
AcDbLayerTableRecord
2
4
70
0
62
-2
6
CENTER
290
1
370
-3
390
0
0
LAYER
5
BC
100
AcDbSymbolTableRecord
100
AcDbLayerTableRecord
2
2
70
0
62
7
6
Continuous
290
1
370
-3
390
0
0
LAYER
5
157
100
AcDbSymbolTableRecord
100
AcDbLayerTableRecord
2
Defpoints
70
0
62
7
6
Continuous
290
0
370
-3
390
0
0
LAYER
5
1cd
100
AcDbSymbolTableRecord
100
AcDbLayerTableRecord
2
SK4
70
0
62
2
6
CENTER
290
1
370
-3
390
0
0
LAYER
5
1ce
100
AcDbSymbolTableRecord
100
AcDbLayerTableRecord
2
SK1
70
0
62
4
6
Continuous
290
1
370
-3
390
0
0
LAYER
5
1cf
100
AcDbSymbolTableRecord
100
AcDbLayerTableRecord
2
SK2
70
0
62
7
6
Continuous
290
1
370
-3
390
0
0
LAYER
5
1d0
100
AcDbSymbolTableRecord
100
AcDbLayerTableRecord
2
SK6
70
0
62
5
6
Continuous
290
1
370
-3
390
0
0
ENDTAB
0
TABLE
2
STYLE
5
1e4
100
AcDbSymbolTable
0
STYLE
5
11
100
AcDbSymbolTableRecord
100
AcDbTextStyleTableRecord
2
Standard
3
txt
70
0
71
0
40
0
41
1
42
0
50
0
0
STYLE
5
133
100
AcDbSymbolTableRecord
100
AcDbTextStyleTableRecord
2
iso_b_vert
3
simplex.shx
70
0
71
0
40
0
41
1
42
0
50
0
0
STYLE
5
134
100
AcDbSymbolTableRecord
100
AcDbTextStyleTableRecord
2
DWGDirectTextStyle
3
simplex
70
0
71
0
40
0
41
1
42
0
50
0
0
ENDTAB
0
TABLE
2
DIMSTYLE
5
1e5
100
AcDbSymbolTable
100
AcDbDimStyleTable
0
DIMSTYLE
105
27
100
AcDbSymbolTableRecord
100
AcDbDimStyleTableRecord
2
Standard
70
0
3
<>
41
0.18
42
0.0625
44
0.18
140
0.18
147
0.09
73
0
74
0
77
1
271
2
275
0
278
52
280
0
340
11
0
ENDTAB
0
TABLE
2
VIEW
5
1e6
100
AcDbSymbolTable
0
ENDTAB
0
TABLE
2
UCS
5
1e7
100
AcDbSymbolTable
0
ENDTAB
0
TABLE
2
APPID
5
1e8
100
AcDbSymbolTable
0
APPID
5
12
100
AcDbSymbolTableRecord
100
AcDbRegAppTableRecord
2
ACAD
70
0
0
APPID
5
153
100
AcDbSymbolTableRecord
100
AcDbRegAppTableRecord
2
ACAD_DSTYLE_DIMBREAK
70
0
0
APPID
5
18C
100
AcDbSymbolTableRecord
100
AcDbRegAppTableRecord
2
ACAD_DSTYLE_DIM_LINETYPE
70
0
0
APPID
5
18D
100
AcDbSymbolTableRecord
100
AcDbRegAppTableRecord
2
ACAD_DSTYLE_DIM_EXT1_LINETYPE
70
0
0
APPID
5
18E
100
AcDbSymbolTableRecord
100
AcDbRegAppTableRecord
2
ACAD_DSTYLE_DIM_EXT2_LINETYPE
70
0
0
APPID
5
1C9
100
AcDbSymbolTableRecord
100
AcDbRegAppTableRecord
2
ACAD_MLEADERVER
70
0
0
ENDTAB
0
TABLE
2
BLOCK_RECORD
5
1e9
100
AcDbSymbolTable
0
BLOCK_RECORD
5
1F
100
AcDbSymbolTableRecord
100
AcDbBlockTableRecord
2
*Model_Space
340
0
70
0
0
BLOCK_RECORD
5
1B
100
AcDbSymbolTableRecord
100
AcDbBlockTableRecord
2
*Paper_Space
340
0
70
0
0
BLOCK_RECORD
5
23
100
AcDbSymbolTableRecord
100
AcDbBlockTableRecord
2
*Paper_Space0
340
0
70
0
0
BLOCK_RECORD
5
158
100
AcDbSymbolTableRecord
100
AcDbBlockTableRecord
2
*D1
340
0
70
0
0
BLOCK_RECORD
5
165
100
AcDbSymbolTableRecord
100
AcDbBlockTableRecord
2
_U0
340
0
70
0
0
ENDTAB
0
ENDSEC
0
SECTION
2
BLOCKS
0
BLOCK
5
20
100
AcDbEntity
8
0
100
AcDbBlockBegin
2
*Model_Space
70
0
10
0
20
0
30
0
3
*Model_Space
0
ENDBLK
5
21
100
AcDbEntity
8
0
100
AcDbBlockEnd
0
BLOCK
5
1C
100
AcDbEntity
8
0
100
AcDbBlockBegin
2
*Paper_Space
70
0
10
0
20
0
30
0
3
*Paper_Space
0
ENDBLK
5
1D
100
AcDbEntity
8
0
100
AcDbBlockEnd
0
BLOCK
5
24
100
AcDbEntity
8
0
100
AcDbBlockBegin
2
*Paper_Space0
70
0
10
0
20
0
30
0
3
*Paper_Space0
0
ENDBLK
5
25
100
AcDbEntity
8
0
100
AcDbBlockEnd
0
BLOCK
5
159
100
AcDbEntity
8
0
100
AcDbBlockBegin
2
*D1
70
1
10
0
20
0
30
0
3
*D1
0
LINE
5
15B
100
AcDbEntity
8
0
62
256
6
ByLayer
370
-2
48
1
60
0
100
AcDbLine
10
12
20
-7.5876
30
0
11
12
21
-22.998573
31
0
39
0
210
0
220
0
230
1
0
LINE
5
15C
100
AcDbEntity
8
0
62
256
6
ByLayer
370
-2
48
1
60
0
100
AcDbLine
10
0
20
-7.5876
30
0
11
0
21
-22.998573
31
0
39
0
210
0
220
0
230
1
0
LINE
5
15D
100
AcDbEntity
8
0
62
256
6
ByLayer
370
-2
48
1
60
0
100
AcDbLine
10
15.5
20
-20.998573
30
0
11
19
21
-20.998573
31
0
39
0
210
0
220
0
230
1
0
LINE
5
15E
100
AcDbEntity
8
0
62
256
6
ByLayer
370
-2
48
1
60
0
100
AcDbLine
10
-3.5
20
-20.998573
30
0
11
-7
21
-20.998573
31
0
39
0
210
0
220
0
230
1
0
SOLID
5
15F
100
AcDbEntity
8
0
62
256
6
ByLayer
370
-1
48
1
60
0
100
AcDbTrace
10
15.5
20
-20.41524
30
0
11
15.5
21
-21.581907
31
0
12
12
22
-20.998573
32
0
13
12
23
-20.998573
33
0
39
0
210
0
220
0
230
1
0
SOLID
5
160
100
AcDbEntity
8
0
62
256
6
ByLayer
370
-1
48
1
60
0
100
AcDbTrace
10
-3.5
20
-21.581907
30
0
11
-3.5
21
-20.41524
31
0
12
0
22
-20.998573
32
0
13
0
23
-20.998573
33
0
39
0
210
0
220
0
230
1
0
MTEXT
5
161
100
AcDbEntity
8
0
62
256
6
ByLayer
370
18
48
1
60
0
100
AcDbMText
10
6
20
-13.998573
30
0
210
0
220
0
230
1
1
\A1;12
40
3.5
41
0
44
1
50
0
71
5
72
5
7
iso_b_vert
0
POINT
5
162
100
AcDbEntity
8
Defpoints
62
0
6
ByLayer
370
-1
48
1
60
0
100
AcDbPoint
10
12
20
-6.0001
30
0
39
0
210
0
220
0
230
1
50
360
0
POINT
5
163
100
AcDbEntity
8
Defpoints
62
0
6
ByLayer
370
-1
48
1
60
0
100
AcDbPoint
10
0
20
-6.0001
30
0
39
0
210
0
220
0
230
1
50
360
0
POINT
5
164
100
AcDbEntity
8
Defpoints
62
0
6
ByLayer
370
-1
48
1
60
0
100
AcDbPoint
10
0
20
-20.998573
30
0
39
0
210
0
220
0
230
1
50
360
0
ENDBLK
5
15A
100
AcDbEntity
8
0
100
AcDbBlockEnd
0
BLOCK
5
16C
100
AcDbEntity
8
0
100
AcDbBlockBegin
2
_U0
70
0
10
0
20
0
30
0
3
_U0
0
MTEXT
5
166
100
AcDbEntity
8
SK2
62
256
6
ByLayer
370
18
48
1
60
0
100
AcDbMText
10
4.532467
20
-19.96594
30
0
210
0
220
0
230
1
1
\W0.5321;12
40
3.5
41
0
44
1.084337
50
0
71
7
72
5
7
iso_b_vert
0
LINE
5
167
100
AcDbEntity
8
SK2
62
256
6
ByLayer
370
13
48
1
60
0
100
AcDbLine
10
12
20
-7.5876
30
0
11
12
21
-22.998573
31
0
39
0
210
0
220
0
230
1
0
LINE
5
168
100
AcDbEntity
8
SK2
62
256
6
ByLayer
370
13
48
1
60
0
100
AcDbLine
10
0
20
-7.5876
30
0
11
0
21
-22.998573
31
0
39
0
210
0
220
0
230
1
0
LINE
5
169
100
AcDbEntity
8
SK2
62
256
6
ByLayer
370
13
48
1
60
0
100
AcDbLine
10
12
20
-20.998573
30
0
11
0
21
-20.998573
31
0
39
0
210
0
220
0
230
1
0
SOLID
5
16A
100
AcDbEntity
8
SK2
62
256
6
ByLayer
370
18
48
1
60
0
100
AcDbTrace
10
12
20
-20.998573
30
0
11
8.500002
21
-21.459357
31
0
12
8.499998
22
-20.53779
32
0
13
8.499998
23
-20.53779
33
0
39
0
210
0
220
0
230
1
0
SOLID
5
16B
100
AcDbEntity
8
SK2
62
256
6
ByLayer
370
18
48
1
60
0
100
AcDbTrace
10
0
20
-20.998573
30
0
11
3.499998
21
-20.53779
31
0
12
3.500002
22
-21.459357
32
0
13
3.500002
23
-21.459357
33
0
39
0
210
0
220
0
230
1
0
ENDBLK
5
16D
100
AcDbEntity
8
0
100
AcDbBlockEnd
0
ENDSEC
0
SECTION
2
ENTITIES
0
ELLIPSE
5
CE
100
AcDbEntity
8
SK1
62
256
6
ByLayer
370
18
48
1
60
0
100
AcDbEllipse
10
5.946805
20
0
30
0
11
11.8740001084927
21
-1.38879310764491
31
0
210
0
220
0
230
1
40
0.491583
41
-2.59773436238445
42
-2.17194071303341
0
ELLIPSE
5
CF
100
AcDbEntity
8
SK1
62
256
6
ByLayer
370
18
48
1
60
0
100
AcDbEllipse
10
-10.10177
20
2.5E-05
30
0
11
58.1731778348592
21
3.3909774858915
31
0
210
0
220
0
230
1
40
0.085088
41
1.39131711204382
42
1.40351364831504
0
ELLIPSE
5
D0
100
AcDbEntity
8
SK1
62
256
6
ByLayer
370
18
48
1
60
0
100
AcDbEllipse
10
10.302529
20
1.5E-05
30
0
11
59.3296481948977
21
-1.43870132720696
31
0
210
0
220
0
230
1
40
0.09818
41
-1.75327101899512
42
-1.74295554507601
0
POINT
5
70
100
AcDbEntity
8
81
62
256
6
ByLayer
370
18
48
1
60
0
100
AcDbPoint
10
12
20
0
30
0
39
0
210
0
220
0
230
1
50
360
0
POINT
5
72
100
AcDbEntity
8
80
62
256
6
ByLayer
370
18
48
1
60
0
100
AcDbPoint
10
0
20
0
30
0
39
0
210
0
220
0
230
1
50
360
0
POINT
5
74
100
AcDbEntity
8
1
62
256
6
ByLayer
370
18
48
1
60
1
100
AcDbPoint
10
12
20
-6.0001
30
0
39
0
210
0
220
0
230
1
50
360
0
POINT
5
76
100
AcDbEntity
8
1
62
256
6
ByLayer
370
18
48
1
60
1
100
AcDbPoint
10
0
20
-6.0001
30
0
39
0
210
0
220
0
230
1
50
360
0
SPLINE
5
D1
100
AcDbEntity
8
1
62
256
6
ByLayer
370
18
48
1
60
0
100
AcDbSpline
70
4
71
3
72
12
73
8
40
0
40
0
40
0
40
0
40
0.25063870266446
40
0.25063870266446
40
0.501277405328921
40
0.501277405328921
40
1
40
1
40
1
40
1
41
1
10
2.842E-13
20
-5.22268483656606
30
0
41
1
10
2.842E-13
20
-5.24381881936341
30
0
41
1
10
-2.84E-14
20
-5.26495289482551
30
0
41
1
10
-2.84E-14
20
-5.30722123107773
30
0
41
1
10
0
20
-5.32835549186802
30
0
41
1
10
0
20
-5.39154312551733
30
0
41
1
10
-2.84E-14
20
-5.43359677259906
30
0
41
1
10
-2.84E-14
20
-5.475650786561
30
0
0
SPLINE
5
D2
100
AcDbEntity
8
1
62
256
6
ByLayer
370
18
48
1
60
0
100
AcDbSpline
70
4
71
3
72
8
73
4
40
0
40
0
40
0
40
0
40
1
40
1
40
1
40
1
41
1
10
3.126E-13
20
-5.4756507865612
30
0
41
1
10
3.126E-13
20
-5.48123307254767
30
0
41
1
10
-2.84E-14
20
-5.48681536946503
30
0
41
1
10
-2.84E-14
20
-5.49239767731322
30
0
0
SPLINE
5
D3
100
AcDbEntity
8
1
62
256
6
ByLayer
370
18
48
1
60
0
100
AcDbSpline
70
4
71
3
72
15
73
11
40
0
40
0
40
0
40
0
40
0.210370048181625
40
0.317151159694065
40
0.423932271206506
40
0.637494494231387
40
0.744275605743828
40
0.851056717256268
40
0.957837828768709
40
1
40
1
40
1
40
1
41
1
10
6.253E-13
20
-5.4756507865612
30
0
41
1
10
0.326716161724733
20
-5.57085873195598
30
0
41
1
10
0.819324939204819
20
-5.69574912301351
30
0
41
1
10
1.47797172537383
20
-5.82333372844016
30
0
41
1
10
2.1417092099334
20
-5.92464125644432
30
0
41
1
10
2.80561529632078
20
-5.98469812637521
30
0
41
1
10
3.46964046887922
20
-6.00273697597859
30
0
41
1
10
3.96770536998352
20
-5.99515806798553
30
0
41
1
10
4.36532683821324
20
-5.97239350125798
30
0
41
1
10
4.59692122658308
20
-5.95238423271167
30
0
41
1
10
4.66247981373991
20
-5.94617930123897
30
0
0
SPLINE
5
D4
100
AcDbEntity
8
1
62
256
6
ByLayer
370
18
48
1
60
0
100
AcDbSpline
70
4
71
3
72
10
73
6
40
0
40
0
40
0
40
0
40
0.495822798418972
40
0.495822798418972
40
1
40
1
40
1
40
1
41
1
10
-2.84E-14
20
-4.3092045332256
30
0
41
1
10
-2.84E-14
20
-4.46017480883415
30
0
41
1
10
0
20
-4.61114732126009
30
0
41
1
10
0
20
-4.91564067975699
30
0
41
1
10
0
20
-5.06916160186901
30
0
41
1
10
0
20
-5.22268483656586
30
0
0
SPLINE
5
D5
100
AcDbEntity
8
1
62
256
6
ByLayer
370
18
48
1
60
0
100
AcDbSpline
70
4
71
3
72
18
73
14
40
0
40
0
40
0
40
0
40
0.152789443540475
40
0.230350607016543
40
0.307911770492612
40
0.463034097444749
40
0.540595260920818
40
0.618156424396886
40
0.695717587872955
40
0.773278751349023
40
0.850839914825092
40
0.92840107830116
40
1
40
1
40
1
40
1
41
1
10
5.684E-13
20
-5.22268483656606
30
0
41
1
10
0.326684365427866
20
-5.33372569971127
30
0
41
1
10
0.819256879456816
20
-5.48327713986731
30
0
41
1
10
1.47787953837417
20
-5.64556452888885
30
0
41
1
10
2.14162700203949
20
-5.78255262390934
30
0
41
1
10
2.80552404885904
20
-5.87916915274187
30
0
41
1
10
3.469539435218
20
-5.93480270338029
30
0
41
1
10
3.96761322732772
20
-5.9554698310807
30
0
41
1
10
4.46572078561638
20
-5.95523224373016
30
0
41
1
10
4.96382567498631
20
-5.93433964131285
30
0
41
1
10
5.46190214319574
20
-5.89285334302178
30
0
41
1
10
5.94725940723438
20
-5.83197994474995
30
0
41
1
10
6.26670308489258
20
-5.7792655509939
30
0
41
1
10
6.42009088536076
20
-5.75108640113965
30
0
0
SPLINE
5
D6
100
AcDbEntity
8
1
62
256
6
ByLayer
370
18
48
1
60
0
100
AcDbSpline
70
4
71
3
72
12
73
8
40
0
40
0
40
0
40
0
40
0.250976514278602
40
0.250976514278602
40
0.501953028557204
40
0.501953028557204
40
1
40
1
40
1
40
1
41
1
10
1.62E-12
20
5.62485948717577
30
0
41
1
10
1.62E-12
20
5.61369542373444
30
0
41
1
10
0
20
5.60253160023649
30
0
41
1
10
0
20
5.58020443312833
30
0
41
1
10
2.84E-14
20
5.56904108951784
30
0
41
1
10
2.84E-14
20
5.53572551477919
30
0
41
1
10
0
20
5.51357398860247
30
0
41
1
10
0
20
5.49142340732828
30
0
0
SPLINE
5
D7
100
AcDbEntity
8
1
62
256
6
ByLayer
370
18
48
1
60
0
100
AcDbSpline
70
4
71
3
72
10
73
6
40
0
40
0
40
0
40
0
40
0.496087106413275
40
0.496087106413275
40
1
40
1
40
1
40
1
41
1
10
2.84E-14
20
5.71994251193735
30
0
41
1
10
2.84E-14
20
5.70420505608587
30
0
41
1
10
2.84E-14
20
5.6884746951369
30
0
41
1
10
2.84E-14
20
5.65678012799651
30
0
41
1
10
2.84E-14
20
5.64081614739615
30
0
41
1
10
2.84E-14
20
5.62485948717665
30
0
0
SPLINE
5
D8
100
AcDbEntity
8
1
62
256
6
ByLayer
370
18
48
1
60
0
100
AcDbSpline
70
4
71
3
72
27
73
23
40
0
40
0
40
0
40
0
40
0.0825333142580664
40
0.103873177368071
40
0.125213040478075
40
0.167892766698084
40
0.253252219138102
40
0.274592082248106
40
0.295931945358111
40
0.338611671578119
40
0.381291397798128
40
0.423971124018137
40
0.466650850238146
40
0.509330576458155
40
0.594690028898172
40
0.637369755118181
40
0.68004948133819
40
0.765408933778208
40
0.808088659998217
40
0.850768386218225
40
0.936127838658243
40
1
40
1
40
1
40
1
41
1
10
3.2117E-12
20
5.62485948717577
30
0
41
1
10
0.318894130620976
20
5.5360573644885
30
0
41
1
10
0.720330863509844
20
5.40233965299882
30
0
41
1
10
1.20445073935304
20
5.20994506501447
30
0
41
1
10
1.53454413123885
20
5.07025038732598
30
0
41
1
10
2.11237257509862
20
4.80310880206019
30
0
41
1
10
2.69046809132516
20
4.49321806661058
30
0
41
1
10
3.18612869777553
20
4.20067873749031
30
0
41
1
10
3.51660331815887
20
3.99872988962665
30
0
41
1
10
3.9297622618588
20
3.73346274130714
30
0
41
1
10
4.42560337055784
20
3.39654106082111
30
0
41
1
10
4.92146248696378
20
3.04267932765683
30
0
41
1
10
5.41728406410621
20
2.67381280007703
30
0
41
1
10
6.07847340511177
20
2.16401619553594
30
0
41
1
10
6.74053645529278
20
1.63070381336038
30
0
41
1
10
7.4048901616427
20
1.0806167645438
30
0
41
1
10
8.0711154931661
20
0.521514917350515
30
0
41
1
10
8.74096856509698
20
-0.0472166989172536
30
0
41
1
10
9.41609206206962
20
-0.618439110549048
30
0
41
1
10
10.0949349300198
20
-1.18875774412962
30
0
41
1
10
10.8654346575288
20
-1.82353069762604
30
0
41
1
10
11.4731135659446
20
-2.30282488488859
30
0
41
1
10
11.7350323183197
20
-2.5041959884995
30
0
0
SPLINE
5
D9
100
AcDbEntity
8
1
62
256
6
ByLayer
370
18
48
1
60
0
100
AcDbSpline
70
4
71
3
72
27
73
23
40
0
40
0
40
0
40
0
40
0.0826970198631908
40
0.104075315434204
40
0.125453611005216
40
0.168210202147242
40
0.253723384431293
40
0.275101680002306
40
0.296479975573319
40
0.339236566715344
40
0.38199315785737
40
0.424749748999395
40
0.467506340141421
40
0.510262931283447
40
0.595776113567498
40
0.638532704709523
40
0.681289295851549
40
0.7668024781356
40
0.809559069277626
40
0.852315660419651
40
0.937828842703702
40
1
40
1
40
1
40
1
41
1
10
3.7232E-12
20
5.49142340732701
30
0
41
1
10
0.318953210839084
20
5.38169902678524
30
0
41
1
10
0.720457025925214
20
5.22224595849082
30
0
41
1
10
1.20463780218199
20
4.99972538358438
30
0
41
1
10
1.53472777935582
20
4.83972523332193
30
0
41
1
10
2.11254207813494
20
4.53829886888613
30
0
41
1
10
2.69064143132187
20
4.19653888280769
30
0
41
1
10
3.18630744800942
20
3.87840341280037
30
0
41
1
10
3.5167841192229
20
3.65984643101925
30
0
41
1
10
3.92993963148194
20
3.37500051763672
30
0
41
1
10
4.42577871036116
20
3.01636199419122
30
0
41
1
10
4.92164033239149
20
2.64270499285667
30
0
41
1
10
5.41746069602553
20
2.25592676030334
30
0
41
1
10
6.07865172247881
20
1.72511902184689
30
0
41
1
10
6.74073346683525
20
1.17510836081098
30
0
41
1
10
7.40504848310525
20
0.612802068787431
30
0
41
1
10
8.07129766453545
20
0.0446726422706547
30
0
41
1
10
8.74120440539286
20
-0.528345374938766
30
0
41
1
10
9.41621475730423
20
-1.09889886198505
30
0
41
1
10
10.0950959994352
20
-1.66516075901114
30
0
41
1
10
10.8584367450307
20
-2.28376643128013
30
0
41
1
10
11.458573491934
20
-2.74436637905012
30
0
41
1
10
11.7128677057144
20
-2.93380087689482
30
0
0
SPLINE
5
DA
100
AcDbEntity
8
1
62
256
6
ByLayer
370
18
48
1
60
0
100
AcDbSpline
70
4
71
3
72
8
73
4
40
0
40
0
40
0
40
0
40
1
40
1
40
1
40
1
41
1
10
1.8758E-12
20
5.49142340732701
30
0
41
1
10
1.8758E-12
20
5.48619204718639
30
0
41
1
10
0
20
5.48096071229915
30
0
41
1
10
0
20
5.47572940266522
30
0
0
SPLINE
5
DB
100
AcDbEntity
8
1
62
256
6
ByLayer
370
18
48
1
60
0
100
AcDbSpline
70
4
71
3
72
8
73
4
40
0
40
0
40
0
40
0
40
1
40
1
40
1
40
1
41
1
10
11.6248636808809
20
5.99295026329392
30
0
41
1
10
11.6441473938676
20
5.99279268937204
30
0
41
1
10
11.663431844294
20
5.9926791325594
30
0
41
1
10
11.6827167313098
20
5.99260965734697
30
0
0
SPLINE
5
DC
100
AcDbEntity
8
1
62
256
6
ByLayer
370
18
48
1
60
0
100
AcDbSpline
70
4
71
3
72
8
73
4
40
0
40
0
40
0
40
0
40
1
40
1
40
1
40
1
41
1
10
11.6827167313486
20
5.9926096573318
30
0
41
1
10
11.7255750145642
20
5.98882913349749
30
0
41
1
10
11.7684516372013
20
5.98527008968551
30
0
41
1
10
11.8113465091044
20
5.98193143611485
30
0
0
SPLINE
5
DD
100
AcDbEntity
8
1
62
256
6
ByLayer
370
18
48
1
60
0
100
AcDbSpline
70
4
71
3
72
8
73
4
40
0
40
0
40
0
40
0
40
1
40
1
40
1
40
1
41
1
10
11.6248636808808
20
5.99295026329384
30
0
41
1
10
11.6674476989203
20
5.85465556275804
30
0
41
1
10
11.7130686477348
20
5.71739554348986
30
0
41
1
10
11.7623831463091
20
5.58139391507726
30
0
0
SPLINE
5
DE
100
AcDbEntity
8
1
62
256
6
ByLayer
370
18
48
1
60
0
100
AcDbSpline
70
4
71
3
72
21
73
17
40
0
40
0
40
0
40
0
40
0.0044138289929608
40
0.0707862403934281
40
0.203531063194362
40
0.203531063194362
40
0.469020708796235
40
0.469020708796235
40
0.601765531597173
40
0.601765531597173
40
0.668137942997643
40
0.701324148697875
40
0.701324148697875
40
0.734510354398108
40
0.734510354398108
40
1
40
1
40
1
40
1
41
1
10
6.15393262886556
20
4.34386397878177
30
0
41
1
10
6.16201798480228
20
4.34822013086637
30
0
41
1
10
6.29166723160364
20
4.41795605201384
30
0
41
1
10
6.66359799553459
20
4.61268359725557
30
0
41
1
10
7.02560662762679
20
4.78707241151955
30
0
41
1
10
7.74840592807197
20
5.11365739612182
30
0
41
1
10
8.22866572354053
20
5.30175599063656
30
0
41
1
10
8.9515062837763
20
5.53619976884195
30
0
41
1
10
9.19285086642395
20
5.60640871337884
30
0
41
1
10
9.55605423311954
20
5.69939053003654
30
0
41
1
10
9.73795390125008
20
5.74279675701015
30
0
41
1
10
9.92041967185418
20
5.78148270859307
30
0
41
1
10
10.0422031420987
20
5.80621257883732
30
0
41
1
10
10.1032002181212
20
5.81805360046721
30
0
41
1
10
10.6519866327191
20
5.91963368742381
30
0
41
1
10
11.1377507098054
20
5.97443696001721
30
0
41
1
10
11.6248636808809
20
5.99295026329392
30
0
0
SPLINE
5
DF
100
AcDbEntity
8
1
62
256
6
ByLayer
370
18
48
1
60
0
100
AcDbSpline
70
4
71
3
72
48
73
44
40
0
40
0
40
0
40
0
40
0.0663371930040961
40
0.0663371930040961
40
0.132674386008192
40
0.132674386008192
40
0.149258684259217
40
0.149258684259217
40
0.165842982510241
40
0.19901157901229
40
0.232180175514338
40
0.232180175514338
40
0.265348772016387
40
0.265348772016387
40
0.331685965020487
40
0.331685965020487
40
0.348270263271512
40
0.348270263271512
40
0.364854561522537
40
0.364854561522537
40
0.398023158024587
40
0.398023158024587
40
0.464360351028696
40
0.464360351028696
40
0.480944649279723
40
0.480944649279723
40
0.49752894753075
40
0.49752894753075
40
0.530697544032815
40
0.530697544032815
40
0.597034737036935
40
0.597034737036935
40
0.663371930041054
40
0.663371930041054
40
0.696540526543114
40
0.696540526543114
40
0.729709123045174
40
0.729709123045174
40
0.796046316049283
40
0.796046316049283
40
0.928720702057501
40
0.928720702057501
40
1
40
1
40
1
40
1
41
1
10
11.7623831508892
20
5.58139391669721
30
0
41
1
10
11.7898405813461
20
5.50567815541834
30
0
41
1
10
11.8128643768216
20
5.42897827459254
30
0
41
1
10
11.8482808895091
20
5.27321876778322
30
0
41
1
10
11.8606950995626
20
5.19416391232861
30
0
41
1
10
11.8677805513946
20
5.09347365071923
30
0
41
1
10
11.8687700992493
20
5.07322784120998
30
0
41
1
10
11.8698351219837
20
5.03291495550116
30
0
41
1
10
11.8700729269626
20
4.97257821775753
30
0
41
1
10
11.8634625941214
20
4.87270022773887
30
0
41
1
10
11.8501681288245
20
4.79357854158437
30
0
41
1
10
11.8325520379715
20
4.71487826868699
30
0
41
1
10
11.8214951437817
20
4.67554759202392
30
0
41
1
10
11.7823698033593
20
4.56105059941399
30
0
41
1
10
11.7482697302655
20
4.48860525127589
30
0
41
1
10
11.6962015812519
20
4.40262605965444
30
0
41
1
10
11.6853153950741
20
4.38565929160018
30
0
41
1
10
11.6626109613139
20
4.35217756942907
30
0
41
1
10
11.6507565082266
20
4.3356159875797
30
0
41
1
10
11.6141252326639
20
4.28700420582976
30
0
41
1
10
11.5883121780914
20
4.25603736439717
30
0
41
1
10
11.5071904483316
20
4.16694851212298
30
0
41
1
10
11.4482199522963
20
4.11261670081009
30
0
41
1
10
11.3696271816064
20
4.04975266152621
30
0
41
1
10
11.3536629376969
20
4.03743415700527
30
0
41
1
10
11.3212676941013
20
4.01328026759066
30
0
41
1
10
11.3048092694446
20
4.00142633646732
30
0
41
1
10
11.2550404375238
20
3.96674069822788
30
0
41
1
10
11.2213095503069
20
3.94475523446997
30
0
41
1
10
11.1186920259518
20
3.88173887280854
30
0
41
1
10
11.0483911708856
20
3.84362604032611
30
0
41
1
10
10.904882528788
20
3.77339847330654
30
0
41
1
10
10.8316694495787
20
3.74129465853093
30
0
41
1
10
10.72009792568
20
3.69675377786089
30
0
41
1
10
10.6826136726826
20
3.68251292451814
30
0
41
1
10
10.6071130315149
20
3.65512921356509
30
0
41
1
10
10.5690417668613
20
3.64196918255766
30
0
41
1
10
10.454669270677
20
3.60417484394935
30
0
41
1
10
10.3781255773688
20
3.58117743095872
30
0
41
1
10
10.1477778491484
20
3.51752024742021
30
0
41
1
10
9.99326630596335
20
3.48212748982118
30
0
41
1
10
9.75470534828673
20
3.43544811362034
30
0
41
1
10
9.67113462579789
20
3.42059789431659
30
0
41
1
10
9.58739010843388
20
3.40704148300523
30
0
0
SPLINE
5
E0
100
AcDbEntity
8
1
62
256
6
ByLayer
370
13
48
1
60
0
100
AcDbSpline
70
4
71
3
72
10
73
6
40
0
40
0
40
0
40
0
40
0.535497039726823
40
0.826276962695033
40
1
40
1
40
1
40
1
41
1
10
11.7623831500845
20
5.58139391681118
30
0
41
1
10
10.841588766723
20
5.55163471626053
30
0
41
1
10
9.42079438336146
20
5.3189271782056
30
0
41
1
10
7.70128089392884
20
4.71376327794539
30
0
41
1
10
6.90256178785776
20
4.35833646897558
30
0
41
1
10
6.60384268178672
20
4.21584159388209
30
0
0
SPLINE
5
E1
100
AcDbEntity
8
1
62
256
6
ByLayer
370
18
48
1
60
0
100
AcDbSpline
70
4
71
3
72
14
73
10
40
0
40
0
40
0
40
0
40
0.25
40
0.25
40
0.5
40
0.5
40
0.75
40
0.75
40
1
40
1
40
1
40
1
41
1
10
8.61005633807622
20
-1.84669709065176
30
0
41
1
10
8.62955460688482
20
-1.82633144154005
30
0
41
1
10
8.64953895164439
20
-1.80643283592724
30
0
41
1
10
8.69079075968409
20
-1.76788797286596
30
0
41
1
10
8.7119655124402
20
-1.74933198461736
30
0
41
1
10
8.75553695263227
20
-1.71408004003735
30
0
41
1
10
8.77788529013483
20
-1.69742963101427
30
0
41
1
10
8.82353210993637
20
-1.66659354383287
30
0
41
1
10
8.84688760856795
20
-1.65235966480472
30
0
41
1
10
8.87088959415939
20
-1.639414643533
30
0
0
SPLINE
5
E2
100
AcDbEntity
8
1
62
256
6
ByLayer
370
18
48
1
60
0
100
AcDbSpline
70
4
71
3
72
18
73
14
40
0
40
0
40
0
40
0
40
0.249999999999966
40
0.249999999999966
40
0.374999999999972
40
0.374999999999972
40
0.499999999999978
40
0.499999999999978
40
0.624999999999983
40
0.624999999999983
40
0.749999999999989
40
0.749999999999989
40
1
40
1
40
1
40
1
41
1
10
11.3835145626563
20
-4.51236990248162
30
0
41
1
10
11.3933062756383
20
-4.49881787773052
30
0
41
1
10
11.402814580836
20
-4.48707330426902
30
0
41
1
10
11.4166051461172
20
-4.47246601025992
30
0
41
1
10
11.421099023361
20
-4.46813032667009
30
0
41
1
10
11.4297970249199
20
-4.46065215248467
30
0
41
1
10
11.4340123508654
20
-4.45749727187959
30
0
41
1
10
11.4421536107108
20
-4.45245225655864
30
0
41
1
10
11.4460797609051
20
-4.45056117655989
30
0
41
1
10
11.4536054175071
20
-4.44820656587882
30
0
41
1
10
11.4572131845741
20
-4.44774200869733
30
0
41
1
10
11.4674040298536
20
-4.44889127468923
30
0
41
1
10
11.4731660159974
20
-4.45294054302977
30
0
41
1
10
11.4775569714029
20
-4.46135183364706
30
0
0
SPLINE
5
E3
100
AcDbEntity
8
1
62
256
6
ByLayer
370
18
48
1
60
0
100
AcDbSpline
70
4
71
3
72
26
73
22
40
0
40
0
40
0
40
0
40
0.125
40
0.125
40
0.25
40
0.25
40
0.374999999999999
40
0.374999999999999
40
0.437499999999999
40
0.437499999999999
40
0.499999999999999
40
0.499999999999999
40
0.625
40
0.625
40
0.75
40
0.75
40
0.8125
40
0.8125
40
0.875
40
0.875
40
1
40
1
40
1
40
1
41
1
10
10.6297675324105
20
-4.98665667250302
30
0
41
1
10
10.6517617433495
20
-5.00425029504962
30
0
41
1
10
10.6752413533119
20
-5.0164812667671
30
0
41
1
10
10.7249627373007
20
-5.03097112784923
30
0
41
1
10
10.7512053043961
20
-5.03322715403928
30
0
41
1
10
10.806334561216
20
-5.02819328227531
30
0
41
1
10
10.8352216239884
20
-5.02090203752854
30
0
41
1
10
10.8805000567175
20
-5.00293300063188
30
0
41
1
10
10.8959466579829
20
-4.99575135883714
30
0
41
1
10
10.9272395980762
20
-4.97918393679368
30
0
41
1
10
10.943106896916
20
-4.9697935717503
30
0
41
1
10
10.9913505318227
20
-4.93840649035042
30
0
41
1
10
11.0243672572657
20
-4.91320054811186
30
0
41
1
10
11.0920350560656
20
-4.8545983472126
30
0
41
1
10
11.1266863501939
20
-4.82120098218505
30
0
41
1
10
11.17986435357
20
-4.76508597182385
30
0
41
1
10
11.1977908292476
20
-4.74537631691035
30
0
41
1
10
11.2340440181746
20
-4.7039512699148
30
0
41
1
10
11.2523871376088
20
-4.68221561704217
30
0
41
1
10
11.3079052540295
20
-4.61412901101187
30
0
41
1
10
11.3454490606435
20
-4.56505578604268
30
0
41
1
10
11.3835145606152
20
-4.51236990239943
30
0
0
SPLINE
5
E4
100
AcDbEntity
8
1
62
256
6
ByLayer
370
13
48
1
60
0
100
AcDbSpline
70
4
71
3
72
11
73
7
40
0
40
0
40
0
40
0
40
0.141151497573018
40
0.355863623179764
40
0.570575748786509
40
1
40
1
40
1
40
1
41
1
10
6.98609822692222
20
-5.27650157529211
30
0
41
1
10
6.65739881794812
20
-5.28116175766775
30
0
41
1
10
5.82869940897405
20
-5.26242312415946
30
0
41
1
10
4.49999999999994
20
-5.10982591270468
30
0
41
1
10
2.49999999999994
20
-4.66379874116481
30
0
41
1
10
1
20
-4.09981830636096
30
0
41
1
10
-5.68E-14
20
-3.64667075552282
30
0
0
SPLINE
5
E5
100
AcDbEntity
8
1
62
256
6
ByLayer
370
18
48
1
60
0
100
AcDbSpline
70
4
71
3
72
14
73
10
40
0
40
0
40
0
40
0
40
0.5
40
0.5
40
0.75
40
0.75
40
0.875
40
0.875
40
1
40
1
40
1
40
1
41
1
10
10.5173307475259
20
-4.42431630807997
30
0
41
1
10
10.5235230358232
20
-4.54762114153732
30
0
41
1
10
10.5361578982986
20
-4.65579305909625
30
0
41
1
10
10.564342510878
20
-4.79636520841325
30
0
41
1
10
10.5752829606281
20
-4.83959219244051
30
0
41
1
10
10.5940170041866
20
-4.89897532399451
30
0
41
1
10
10.6006584665488
20
-4.91788158478212
30
0
41
1
10
10.6146740877831
20
-4.95374060288225
30
0
41
1
10
10.6220426687469
20
-4.9706850446648
30
0
41
1
10
10.6297675324091
20
-4.98665667250339
30
0
0
SPLINE
5
E6
100
AcDbEntity
8
1
62
256
6
ByLayer
370
18
48
1
60
0
100
AcDbSpline
70
4
71
3
72
27
73
23
40
0
40
0
40
0
40
0
40
0.031249999999999
40
0.031249999999999
40
0.0624999999999979
40
0.0624999999999979
40
0.124999999999996
40
0.124999999999996
40
0.249999999999985
40
0.249999999999985
40
0.374999999999974
40
0.374999999999974
40
0.499999999999963
40
0.499999999999963
40
0.531249999999962
40
0.531249999999962
40
0.562499999999961
40
0.624999999999967
40
0.624999999999967
40
0.749999999999978
40
0.749999999999978
40
1
40
1
40
1
40
1
41
1
10
8.44776521266164
20
-2.57193814884676
30
0
41
1
10
8.46604442841294
20
-2.60004848637448
30
0
41
1
10
8.48455300063318
20
-2.62793337528467
30
0
41
1
10
8.52202183007353
20
-2.68325916406366
30
0
41
1
10
8.5409831970031
20
-2.71069949883497
30
0
41
1
10
8.59818382686538
20
-2.79187680119398
30
0
41
1
10
8.63685411262205
20
-2.84464347390963
30
0
41
1
10
8.75436044727201
20
-2.99917637491583
30
0
41
1
10
8.83468654308416
20
-3.09718916543289
30
0
41
1
10
8.99887227949557
20
-3.28431372441722
30
0
41
1
10
9.08273416594795
20
-3.37341983556601
30
0
41
1
10
9.25370318364946
20
-3.54345726534478
30
0
41
1
10
9.34081132752993
20
-3.62438603314965
30
0
41
1
10
9.45160921623489
20
-3.72072886699729
30
0
41
1
10
9.47388568337257
20
-3.73977336239165
30
0
41
1
10
9.51848145886839
20
-3.77726250464787
30
0
41
1
10
9.58546275294611
20
-3.83261850180494
30
0
41
1
10
9.65269977113491
20
-3.88541314935756
30
0
41
1
10
9.78749868553678
20
-3.98774844469199
30
0
41
1
10
9.87779705066211
20
-4.05164080566229
30
0
41
1
10
10.1498928759517
20
-4.23129129837022
30
0
41
1
10
10.3328834451563
20
-4.33509917107742
30
0
41
1
10
10.5173307475267
20
-4.42431630807985
30
0
0
SPLINE
5
E7
100
AcDbEntity
8
1
62
256
6
ByLayer
370
18
48
1
60
0
100
AcDbSpline
70
4
71
3
72
30
73
26
40
0
40
0
40
0
40
0
40
0.124999999999965
40
0.124999999999965
40
0.187499999999946
40
0.187499999999946
40
0.218749999999943
40
0.218749999999943
40
0.249999999999939
40
0.249999999999939
40
0.374999999999929
40
0.374999999999929
40
0.406249999999928
40
0.406249999999928
40
0.437499999999927
40
0.499999999999935
40
0.562499999999943
40
0.562499999999943
40
0.624999999999951
40
0.624999999999951
40
0.749999999999968
40
0.749999999999968
40
0.874999999999984
40
0.874999999999984
40
1
40
1
40
1
40
1
41
1
10
8.44776521266164
20
-2.57193814884673
30
0
41
1
10
8.4301931090657
20
-2.54491523003691
30
0
41
1
10
8.41568836643415
20
-2.51634766375787
30
0
41
1
10
8.39886512777093
20
-2.47098240640568
30
0
41
1
10
8.39408272808328
20
-2.45544018272432
30
0
41
1
10
8.38822142439432
20
-2.43145537477128
30
0
41
1
10
8.38649220880097
20
-2.42336336972932
30
0
41
1
10
8.38351728390325
20
-2.4071703845951
30
0
41
1
10
8.38226502442296
20
-2.39904385989073
30
0
41
1
10
8.3771539367724
20
-2.35826382345746
30
0
41
1
10
8.37672926817652
20
-2.32516974326037
30
0
41
1
10
8.38054216919483
20
-2.28324060714053
30
0
41
1
10
8.3815263903179
20
-2.27480812742351
30
0
41
1
10
8.3839011076156
20
-2.2580609077674
30
0
41
1
10
8.38807491481316
20
-2.23306574625386
30
0
41
1
10
8.3979332080458
20
-2.19200339190346
30
0
41
1
10
8.40865707104308
20
-2.15973722733611
30
0
41
1
10
8.42070356059148
20
-2.12774383260461
30
0
41
1
10
8.42737984600825
20
-2.11192111676448
30
0
41
1
10
8.44889318392214
20
-2.06556650321073
30
0
41
1
10
8.46529758625471
20
-2.03587763527435
30
0
41
1
10
8.5014847841735
20
-1.97849035356936
30
0
41
1
10
8.5212735824403
20
-1.95079547287347
30
0
41
1
10
8.56380968263451
20
-1.89715026115408
30
0
41
1
10
8.58639920070237
20
-1.87140655746509
30
0
41
1
10
8.61005633807551
20
-1.84669709065162
30
0
0
SPLINE
5
E8
100
AcDbEntity
8
1
62
256
6
ByLayer
370
13
48
1
60
0
100
AcDbSpline
70
4
71
3
72
12
73
8
40
0
40
0
40
0
40
0
40
0.128925560355191
40
0.303140448284153
40
0.477355336213114
40
0.651570224142076
40
1
40
1
40
1
40
1
41
1
10
8.61005633807622
20
-1.8466970906519
30
0
41
1
10
8.24003755871746
20
-1.69412539677279
30
0
41
1
10
7.37001877935873
20
-1.31731119577555
30
0
41
1
10
6.00000000000003
20
-0.676306051760719
30
0
41
1
10
4.5
20
0.0560827970272442
30
0
41
1
10
2.5
20
1.02306908582551
30
0
41
1
10
1.00000000000003
20
1.69140528226674
30
0
41
1
10
0
20
2.06865840280813
30
0
0
SPLINE
5
E9
100
AcDbEntity
8
1
62
256
6
ByLayer
370
18
48
1
60
0
100
AcDbSpline
70
4
71
3
72
13
73
9
40
0
40
0
40
0
40
0
40
0.153321088861219
40
0.294434240717683
40
0.435547392574146
40
0.57666054443061
40
0.717773696287073
40
1
40
1
40
1
40
1
41
1
10
10.6297675324109
20
-4.9866566725033
30
0
41
1
10
10.0865116882739
20
-5.00504681123581
30
0
41
1
10
9.04325584413692
20
-4.98010672084953
30
0
41
1
10
7.49999999999994
20
-4.7750068124877
30
0
41
1
10
6
20
-4.42535489477751
30
0
41
1
10
4.49999999999997
20
-3.93369689025704
30
0
41
1
10
2.5
20
-3.11158847638956
30
0
41
1
10
1
20
-2.33842283730391
30
0
41
1
10
0
20
-1.78240626805933
30
0
0
SPLINE
5
EA
100
AcDbEntity
8
1
62
256
6
ByLayer
370
18
48
1
60
0
100
AcDbSpline
70
4
71
3
72
8
73
4
40
0
40
0
40
0
40
0
40
1
40
1
40
1
40
1
41
1
10
11.4775569745306
20
-4.46135182974075
30
0
41
1
10
11.5001872809352
20
-4.50476978539834
30
0
41
1
10
11.5233056908625
20
-4.54680068413714
30
0
41
1
10
11.5469429522272
20
-4.58735716095583
30
0
0
SPLINE
5
EB
100
AcDbEntity
8
1
62
256
6
ByLayer
370
13
48
1
60
0
100
AcDbSpline
70
4
71
3
72
8
73
4
40
0
40
0
40
0
40
0
40
1
40
1
40
1
40
1
41
1
10
11.4775569754008
20
-4.46135183065786
30
0
41
1
10
11.4542432696827
20
-4.46981866746759
30
0
41
1
10
11.4309295639647
20
-4.4782329791403
30
0
41
1
10
11.4076158582466
20
-4.48659457676538
30
0
0
SPLINE
5
EC
100
AcDbEntity
8
1
62
256
6
ByLayer
370
13
48
1
60
0
100
AcDbSpline
70
4
71
3
72
12
73
8
40
0
40
0
40
0
40
0
40
0.123107675235916
40
0.298486140188733
40
0.47386460514155
40
0.649243070094367
40
1
40
1
40
1
40
1
41
1
10
8.55293151530071
20
-5.23416136890589
30
0
41
1
10
8.2019543435338
20
-5.29055230855715
30
0
41
1
10
7.35097717176694
20
-5.39424477214055
30
0
41
1
10
6.00000000000009
20
-5.42724948400061
30
0
41
1
10
4.50000000000009
20
-5.29235843554133
30
0
41
1
10
2.50000000000006
20
-4.88853212108208
30
0
41
1
10
1.00000000000011
20
-4.34595034165935
30
0
41
1
10
8.53E-14
20
-3.90156210088014
30
0
0
SPLINE
5
ED
100
AcDbEntity
8
1
62
256
6
ByLayer
370
18
48
1
60
0
100
AcDbSpline
70
4
71
3
72
8
73
4
40
0
40
0
40
0
40
0
40
1
40
1
40
1
40
1
41
1
10
11.7772201537582
20
-4.22027165423069
30
0
41
1
10
11.7001419512913
20
-4.34642861017394
30
0
41
1
10
11.623383838253
20
-4.46877909924157
30
0
41
1
10
11.5469429522268
20
-4.58735716096115
30
0
0
SPLINE
5
EE
100
AcDbEntity
8
1
62
256
6
ByLayer
370
18
48
1
60
0
100
AcDbSpline
70
4
71
3
72
8
73
4
40
0
40
0
40
0
40
0
40
1
40
1
40
1
40
1
41
1
10
11.5469429522129
20
-4.58735716096476
30
0
41
1
10
11.4392270105013
20
-4.63183989419855
30
0
41
1
10
11.3315338495428
20
-4.67516751025136
30
0
41
1
10
11.2238462555846
20
-4.71732441577603
30
0
0
SPLINE
5
EF
100
AcDbEntity
8
1
62
256
6
ByLayer
370
18
48
1
60
0
100
AcDbSpline
70
4
71
3
72
43
73
39
40
0
40
0
40
0
40
0
40
0.0031684726162389
40
0.0031684726162389
40
0.0387695985942321
40
0.0387695985942321
40
0.0565701615832273
40
0.0565701615832273
40
0.0743707245722224
40
0.0743707245722224
40
0.145572976528206
40
0.145572976528206
40
0.21677522848419
40
0.21677522848419
40
0.287977480440173
40
0.287977480440173
40
0.43038198435214
40
0.43038198435214
40
0.465983110330133
40
0.465983110330133
40
0.501584236308127
40
0.501584236308127
40
0.519384799297123
40
0.519384799297123
40
0.53718536228612
40
0.57278648826411
40
0.57278648826411
40
0.643988740220091
40
0.643988740220091
40
0.715190992176071
40
0.715190992176071
40
0.786393244132052
40
0.786393244132052
40
0.857595496088033
40
0.857595496088033
40
0.928797748044016
40
0.928797748044016
40
1
40
1
40
1
40
1
41
1
10
10.1283609784883
20
-5.10503525995259
30
0
41
1
10
10.1175884043054
20
-5.10843557518507
30
0
41
1
10
10.1068153035323
20
-5.11182368242072
30
0
41
1
10
9.97498841910476
20
-5.15313117399026
30
0
41
1
10
9.85386410272645
20
-5.18951356061802
30
0
41
1
10
9.67203057105905
20
-5.24169770777908
30
0
41
1
10
9.61138911038967
20
-5.25869498692956
30
0
41
1
10
9.49028349230977
20
-5.2918174438756
30
0
41
1
10
9.42979082195831
20
-5.30795040896109
30
0
41
1
10
9.12760630946661
20
-5.38646921994237
30
0
41
1
10
8.88673249541142
20
-5.44246174450561
30
0
41
1
10
8.40614136498073
20
-5.54070682131007
30
0
41
1
10
8.16647125890137
20
-5.58282427481498
30
0
41
1
10
7.68752557677951
20
-5.65353678751856
30
0
41
1
10
7.44824826151631
20
-5.68215168612852
30
0
41
1
10
6.73020398048644
20
-5.74740558592765
30
0
41
1
10
6.25123558959086
20
-5.76351362649209
30
0
41
1
10
5.6494488385575
20
-5.74765269048547
30
0
41
1
10
5.52894408769049
20
-5.74266482058539
30
0
41
1
10
5.28758545381856
20
-5.72896725468146
30
0
41
1
10
5.16672747737687
20
-5.72027444937433
30
0
41
1
10
4.9850966420517
20
-5.70463921695122
30
0
41
1
10
4.924459459145
20
-5.69899367200969
30
0
41
1
10
4.80331705425485
20
-5.68687632303332
30
0
41
1
10
4.62175992278628
20
-5.66745111321012
30
0
41
1
10
4.44065109730224
20
-5.64428532575377
30
0
41
1
10
4.07898233316575
20
-5.59291973627811
30
0
41
1
10
3.83862089076308
20
-5.55191974225014
30
0
41
1
10
3.35903864861541
20
-5.45605601293065
30
0
41
1
10
3.11983242008853
20
-5.40110323941533
30
0
41
1
10
2.64158216714054
20
-5.27884717000379
30
0
41
1
10
2.4025710161738
20
-5.21147652027401
30
0
41
1
10
1.92434071179113
20
-5.06408881138103
30
0
41
1
10
1.68512770770988
20
-4.98403723457497
30
0
41
1
10
1.20591205083994
20
-4.81136195677203
30
0
41
1
10
0.965879820486776
20
-4.71884806233277
30
0
41
1
10
0.484221473808247
20
-4.5226461485353
30
0
41
1
10
0.242625073889656
20
-4.41883073432476
30
0
41
1
10
5.68E-14
20
-4.3092045332256
30
0
0
SPLINE
5
F0
100
AcDbEntity
8
1
62
256
6
ByLayer
370
18
48
1
60
0
100
AcDbSpline
70
4
71
3
72
16
73
12
40
0
40
0
40
0
40
0
40
0.164600061446841
40
0.164600061446841
40
0.37345004608513
40
0.37345004608513
40
0.58230003072342
40
0.58230003072342
40
0.79115001536171
40
0.79115001536171
40
1
40
1
40
1
40
1
41
1
10
9.23623142569716
20
3.53790086727989
30
0
41
1
10
9.30156902695529
20
3.5206927265414
30
0
41
1
10
9.36772973867281
20
3.50046739695361
30
0
41
1
10
9.5196030650313
20
3.44810708086084
30
0
41
1
10
9.60579098417452
20
3.4142298209733
30
0
41
1
10
9.78056291154905
20
3.33769221115793
30
0
41
1
10
9.8682074777301
20
3.29544341099839
30
0
41
1
10
10.0438101521703
20
3.2037287764756
30
0
41
1
10
10.1317964300871
20
3.15424829524946
30
0
41
1
10
10.3081160965052
20
3.04848710665058
30
0
41
1
10
10.3964495552941
20
2.992205022277
30
0
41
1
10
10.4849495261497
20
2.93266080831054
30
0
0
SPLINE
5
F1
100
AcDbEntity
8
1
62
256
6
ByLayer
370
18
48
1
60
0
100
AcDbSpline
70
4
71
3
72
12
73
8
40
0
40
0
40
0
40
0
40
0.232222303253824
40
0.439339633398629
40
0.646456963543434
40
0.853574293688238
40
1
40
1
40
1
40
1
41
1
10
10.6818170388601
20
1.69791394033427
30
0
41
1
10
10.1212113592401
20
2.08041949620554
30
0
41
1
10
9.06060567962001
20
2.77313122551701
30
0
41
1
10
7.5
20
3.65368321076684
30
0
41
1
10
6.00000000000006
20
4.33321587997807
30
0
41
1
10
4.64651507865278
20
4.7670885486427
30
0
41
1
10
3.79303015730565
20
4.93556707843857
30
0
41
1
10
3.43954523595843
20
4.98653614396377
30
0
0
SPLINE
5
F2
100
AcDbEntity
8
1
62
256
6
ByLayer
370
13
48
1
60
0
100
AcDbSpline
70
4
71
3
72
11
73
7
40
0
40
0
40
0
40
0
40
0.382059999094353
40
0.626445898237735
40
0.870831797381118
40
1
40
1
40
1
40
1
41
1
10
11.3450207260334
20
-0.377425948159782
30
0
41
1
10
10.5633471506889
20
0.208757625530183
30
0
41
1
10
9.2816735753444
20
1.17578198414535
30
0
41
1
10
7.49999999999994
20
2.43490282320249
30
0
41
1
10
6.235729018999
20
3.23368992930398
30
0
41
1
10
5.47145803799788
20
3.655000372784
30
0
41
1
10
5.20718705699687
20
3.79267703469293
30
0
0
SPLINE
5
F3
100
AcDbEntity
8
1
62
256
6
ByLayer
370
13
48
1
60
0
100
AcDbSpline
70
4
71
3
72
12
73
8
40
0
40
0
40
0
40
0
40
0.338184797382117
40
0.507277196073175
40
0.676369594764234
40
0.845461993455292
40
1
40
1
40
1
40
1
41
1
10
0
20
2.23204295772007
30
0
41
1
10
1.00000000000003
20
1.88703175615237
30
0
41
1
10
2.5
20
1.26336956590043
30
0
41
1
10
4.5
20
0.339933917895848
30
0
41
1
10
6.00000000000003
20
-0.369387861743462
30
0
41
1
10
7.45696319805319
20
-1.04073220016463
30
0
41
1
10
8.41392639610638
20
-1.45308319204724
30
0
41
1
10
8.87088959415959
20
-1.63941464353309
30
0
0
SPLINE
5
F4
100
AcDbEntity
8
1
62
256
6
ByLayer
370
18
48
1
60
0
100
AcDbSpline
70
4
71
3
72
16
73
12
40
0
40
0
40
0
40
0
40
0.249999999999982
40
0.249999999999982
40
0.499999999999963
40
0.499999999999963
40
0.624999999999954
40
0.624999999999954
40
0.749999999999945
40
0.749999999999945
40
1
40
1
40
1
40
1
41
1
10
8.87088959415962
20
-1.63941464353309
30
0
41
1
10
8.91101053502024
20
-1.61777619177263
30
0
41
1
10
8.95238706907699
20
-1.59987769470905
30
0
41
1
10
9.03776792057045
20
-1.57113112543917
30
0
41
1
10
9.08177189257094
20
-1.56028519925587
30
0
41
1
10
9.14996541187736
20
-1.54926340928907
30
0
41
1
10
9.17288522694309
20
-1.54650038740209
30
0
41
1
10
9.21873248632295
20
-1.54274161959591
30
0
41
1
10
9.24171985791207
20
-1.54173600646163
30
0
41
1
10
9.31089725110971
20
-1.5412043651564
30
0
41
1
10
9.35730182500023
20
-1.54415241514783
30
0
41
1
10
9.40406333212093
20
-1.55018320088462
30
0
0
SPLINE
5
F5
100
AcDbEntity
8
1
62
256
6
ByLayer
370
18
48
1
60
0
100
AcDbSpline
70
4
71
3
72
10
73
6
40
0
40
0
40
0
40
0
40
0.264503155789154
40
0.264503155789154
40
1
40
1
40
1
40
1
41
1
10
10.044775231988
20
-1.64595519036234
30
0
41
1
10
9.98863025662297
20
-1.63626447330967
30
0
41
1
10
9.93238135518894
20
-1.62694916902169
30
0
41
1
10
9.71937836097595
20
-1.5929746864818
30
0
41
1
10
9.56200492288508
20
-1.57055277302797
30
0
41
1
10
9.40406333212388
20
-1.55018320088499
30
0
0
SPLINE
5
F6
100
AcDbEntity
8
1
62
256
6
ByLayer
370
18
48
1
60
0
100
AcDbSpline
70
4
71
3
72
18
73
14
40
0
40
0
40
0
40
0
40
0.250000000000001
40
0.250000000000001
40
0.500000000000002
40
0.500000000000002
40
0.562500000000002
40
0.562500000000002
40
0.625000000000002
40
0.625000000000002
40
0.750000000000001
40
0.750000000000001
40
1
40
1
40
1
40
1
41
1
10
10.4849495261497
20
2.93266080831054
30
0
41
1
10
10.4843441349356
20
2.86667568065113
30
0
41
1
10
10.488178734216
20
2.79079276950418
30
0
41
1
10
10.5044215741488
20
2.61991428332016
30
0
41
1
10
10.5168304364825
20
2.52491732240875
30
0
41
1
10
10.5377514049556
20
2.39411120233947
30
0
41
1
10
10.5422070349249
20
2.36734488300357
30
0
41
1
10
10.5516662927205
20
2.31259062817159
30
0
41
1
10
10.5566538486106
20
2.28469732528373
30
0
41
1
10
10.5723407687876
20
2.19970154565499
30
0
41
1
10
10.5837786600875
20
2.14119733634698
30
0
41
1
10
10.6209488973317
20
1.96032002293202
30
0
41
1
10
10.6495274801192
20
1.83260162672102
30
0
41
1
10
10.6818170388554
20
1.69791394033746
30
0
0
SPLINE
5
F7
100
AcDbEntity
8
1
62
256
6
ByLayer
370
18
48
1
60
0
100
AcDbSpline
70
4
71
3
72
20
73
16
40
0
40
0
40
0
40
0
40
0.249999999999995
40
0.249999999999995
40
0.312499999999995
40
0.312499999999995
40
0.374999999999994
40
0.374999999999994
40
0.499999999999994
40
0.499999999999994
40
0.624999999999994
40
0.624999999999994
40
0.749999999999994
40
0.749999999999994
40
1
40
1
40
1
40
1
41
1
10
10.6818170388589
20
1.6979139403326
30
0
41
1
10
10.7249073761958
20
1.53759143888087
30
0
41
1
10
10.7718135223441
20
1.37225391303886
30
0
41
1
10
10.8348561941784
20
1.15978606464
30
0
41
1
10
10.847694972248
20
1.11697415098243
30
0
41
1
10
10.8737131936902
20
1.03109761780584
30
0
41
1
10
10.8869030251612
20
0.987997423659891
30
0
41
1
10
10.9270033845488
20
0.858221181018365
30
0
41
1
10
10.9544440033706
20
0.771070165892439
30
0
41
1
10
11.0106992012528
20
0.595537053843259
30
0
41
1
10
11.0395551830175
20
0.507035651770167
30
0
41
1
10
11.0981247858948
20
0.33030380622958
30
0
41
1
10
11.1278903594861
20
0.241907310143802
30
0
41
1
10
11.2185811872187
20
-0.0233708323162887
30
0
41
1
10
11.2808936872936
20
-0.200340696498216
30
0
41
1
10
11.3450207218303
20
-0.377425950842849
30
0
0
SPLINE
5
F8
100
AcDbEntity
8
1
62
256
6
ByLayer
370
18
48
1
60
0
100
AcDbSpline
70
4
71
3
72
18
73
14
40
0
40
0
40
0
40
0
40
0.250000000000001
40
0.250000000000001
40
0.500000000000001
40
0.500000000000001
40
0.625000000000001
40
0.625000000000001
40
0.750000000000001
40
0.750000000000001
40
0.875
40
0.875
40
1
40
1
40
1
40
1
41
1
10
11.3450207246216
20
-0.377425950008899
30
0
41
1
10
11.3551471082418
20
-0.405390742748296
30
0
41
1
10
11.3649404503364
20
-0.433257207743566
30
0
41
1
10
11.3838015155224
20
-0.488775897606786
30
0
41
1
10
11.3928721198937
20
-0.516428974873406
30
0
41
1
10
11.4057968475914
20
-0.557707474875997
30
0
41
1
10
11.4099798906012
20
-0.571403771900322
30
0
41
1
10
11.4179304658791
20
-0.598224666376694
30
0
41
1
10
11.4217158436035
20
-0.611404772946912
30
0
41
1
10
11.4288396773411
20
-0.63722291725594
30
0
41
1
10
11.4321405449259
20
-0.649727195784834
30
0
41
1
10
11.4380965762075
20
-0.673635438231713
30
0
41
1
10
11.4407600073006
20
-0.68506677781852
30
0
41
1
10
11.443037998181
20
-0.6958575865836
30
0
0
SPLINE
5
F9
100
AcDbEntity
8
1
62
256
6
ByLayer
370
18
48
1
60
0
100
AcDbSpline
70
4
71
3
72
8
73
4
40
0
40
0
40
0
40
0
40
1
40
1
40
1
40
1
41
1
10
11.7437667764571
20
-2.59819714636623
30
0
41
1
10
11.7645980557237
20
-2.71170567395271
30
0
41
1
10
11.7864724167373
20
-2.82464468000063
30
0
41
1
10
11.8095325585178
20
-2.93688276381224
30
0
0
SPLINE
5
FA
100
AcDbEntity
8
1
62
256
6
ByLayer
370
18
48
1
60
0
100
AcDbSpline
70
4
71
3
72
8
73
4
40
0
40
0
40
0
40
0
40
1
40
1
40
1
40
1
41
1
10
11.7350323195051
20
-2.50419600085607
30
0
41
1
10
11.737982978277
20
-2.5355412076438
30
0
41
1
10
11.7408939691121
20
-2.5668747776574
30
0
41
1
10
11.7437667764571
20
-2.59819714636623
30
0
0
SPLINE
5
FB
100
AcDbEntity
8
1
62
256
6
ByLayer
370
18
48
1
60
0
100
AcDbSpline
70
4
71
3
72
8
73
4
40
0
40
0
40
0
40
0
40
1
40
1
40
1
40
1
41
1
10
11.7128677055557
20
-2.93380087850898
30
0
41
1
10
11.7450754639534
20
-2.93475754711181
30
0
41
1
10
11.7772971023661
20
-2.9357849495787
30
0
41
1
10
11.8095325585375
20
-2.93688276381081
30
0
0
SPLINE
5
FC
100
AcDbEntity
8
1
62
256
6
ByLayer
370
18
48
1
60
0
100
AcDbSpline
70
4
71
3
72
8
73
4
40
0
40
0
40
0
40
0
40
1
40
1
40
1
40
1
41
1
10
11.7734321096237
20
-1.70553962469947
30
0
41
1
10
11.7599637611614
20
-1.96117679612462
30
0
41
1
10
11.7448185950776
20
-2.21701190120277
30
0
41
1
10
11.727115009308
20
-2.47309201500838
30
0
0
SPLINE
5
FD
100
AcDbEntity
8
1
62
256
6
ByLayer
370
18
48
1
60
0
100
AcDbSpline
70
4
71
3
72
8
73
4
40
0
40
0
40
0
40
0
40
1
40
1
40
1
40
1
41
1
10
11.7734321096239
20
-1.7055396246995
30
0
41
1
10
11.6863713324793
20
-1.48046846457154
30
0
41
1
10
11.5997879679579
20
-1.25370122089146
30
0
41
1
10
11.513678185308
20
-1.02525150300747
30
0
0
SPLINE
5
FE
100
AcDbEntity
8
1
62
256
6
ByLayer
370
18
48
1
60
0
100
AcDbSpline
70
4
71
3
72
8
73
4
40
0
40
0
40
0
40
0
40
1
40
1
40
1
40
1
41
1
10
11.7271150093112
20
-2.47309201500812
30
0
41
1
10
11.729762314436
20
-2.48345960502507
30
0
41
1
10
11.7324013983615
20
-2.49382760220971
30
0
41
1
10
11.7350323220521
20
-2.50419600313265
30
0
0
SPLINE
5
FF
100
AcDbEntity
8
1
62
256
6
ByLayer
370
18
48
1
60
0
100
AcDbSpline
70
4
71
3
72
8
73
4
40
0
40
0
40
0
40
0
40
1
40
1
40
1
40
1
41
1
10
11.443037998626
20
-0.69585758677465
30
0
41
1
10
11.4659416517785
20
-0.804460708123656
30
0
41
1
10
11.4894715652773
20
-0.914227437151681
30
0
41
1
10
11.513678185308
20
-1.02525150300747
30
0
0
SPLINE
5
100
100
AcDbEntity
8
1
62
256
6
ByLayer
370
13
48
1
60
0
100
AcDbSpline
70
4
71
3
72
10
73
6
40
0
40
0
40
0
40
0
40
0.484976148929377
40
0.782746475777414
40
1
40
1
40
1
40
1
41
1
10
11.4430379987639
20
-0.695857586600738
30
0
41
1
10
10.628691999176
20
-0.073695584500939
30
0
41
1
10
9.314345999588
20
0.9467328897465
30
0
41
1
10
7.63519950674362
20
2.18139233882275
30
0
41
1
10
6.77039901348721
20
2.76467197190047
30
0
41
1
10
6.40559852023083
20
2.99825929320735
30
0
0
SPLINE
5
101
100
AcDbEntity
8
1
62
256
6
ByLayer
370
18
48
1
60
0
100
AcDbSpline
70
4
71
3
72
8
73
4
40
0
40
0
40
0
40
0
40
1
40
1
40
1
40
1
41
1
10
6.40559777933925
20
2.99825976761153
30
0
41
1
10
6.39481020462418
20
3.00516721578029
30
0
41
1
10
6.38402262990917
20
3.0120637694144
30
0
41
1
10
6.37323505519413
20
3.01894934837765
30
0
0
SPLINE
5
102
100
AcDbEntity
8
1
62
256
6
ByLayer
370
18
48
1
60
0
100
AcDbSpline
70
4
71
3
72
53
73
49
40
0
40
0
40
0
40
0
40
0.0624999999999977
40
0.0624999999999977
40
0.124999999999995
40
0.124999999999995
40
0.140624999999997
40
0.140624999999997
40
0.156249999999998
40
0.156249999999998
40
0.1875
40
0.1875
40
0.250000000000004
40
0.250000000000004
40
0.375000000000012
40
0.375000000000012
40
0.437500000000016
40
0.437500000000016
40
0.468750000000017
40
0.468750000000017
40
0.484375000000017
40
0.484375000000017
40
0.500000000000016
40
0.531250000000015
40
0.531250000000015
40
0.562500000000014
40
0.562500000000014
40
0.625000000000011
40
0.625000000000011
40
0.687500000000009
40
0.687500000000009
40
0.718750000000006
40
0.718750000000006
40
0.750000000000004
40
0.750000000000004
40
0.781250000000002
40
0.781250000000002
40
0.796875000000001
40
0.796875000000001
40
0.812500000000001
40
0.812500000000001
40
0.875000000000001
40
0.875000000000001
40
0.906250000000001
40
0.906250000000001
40
0.9375
40
0.9375
40
1
40
1
40
1
40
1
41
1
10
11.513678185308
20
-1.02525150300741
30
0
41
1
10
11.2729937553538
20
-0.830824946166189
30
0
41
1
10
11.0324739474484
20
-0.63528550479495
30
0
41
1
10
10.5510933447623
20
-0.242819638181089
30
0
41
1
10
10.3102348175724
20
-0.0458901781990164
30
0
41
1
10
10.0084782598279
20
0.200574822324199
30
0
41
1
10
9.94809245183694
20
0.249882651551474
30
0
41
1
10
9.82723888437636
20
0.348512788203322
30
0
41
1
10
9.76672791646592
20
0.39787054281058
30
0
41
1
10
9.58549097975555
20
0.545589023167452
30
0
41
1
10
9.46501227607388
20
0.643637140215532
30
0
41
1
10
9.1044636781308
20
0.936296893330791
30
0
41
1
10
8.86523822298585
20
1.12940699544137
30
0
41
1
10
8.1491159533623
20
1.70091832184431
30
0
41
1
10
7.67391175338418
20
2.07159285175726
30
0
41
1
10
6.95807110462431
20
2.60417103297709
30
0
41
1
10
6.7189077400883
20
2.77779466783557
30
0
41
1
10
6.35849042288436
20
3.03140753951035
30
0
41
1
10
6.23807522724184
20
3.11480644397838
30
0
41
1
10
6.0569356058399
20
3.23806276555035
30
0
41
1
10
5.99643975977614
20
3.27885991976186
30
0
41
1
10
5.87569288800282
20
3.35953106252234
30
0
41
1
10
5.69479148910824
20
3.47925729556499
30
0
41
1
10
5.51450144511151
20
3.59511657843015
30
0
41
1
10
5.27457301020814
20
3.74609109680594
30
0
41
1
10
5.15483494539393
20
3.81982729673135
30
0
41
1
10
4.79606349612834
20
4.03579288430484
30
0
41
1
10
4.55744644070919
20
4.17284847949583
30
0
41
1
10
4.0807576995569
20
4.43214128596566
30
0
41
1
10
3.84264029652832
20
4.55442814616225
30
0
41
1
10
3.48509987243838
20
4.72592478138111
30
0
41
1
10
3.36587673291044
20
4.78105083499196
30
0
41
1
10
3.12712432478077
20
4.88726081543504
30
0
41
1
10
3.00757295442094
20
4.93840875648175
30
0
41
1
10
2.76801855380813
20
5.0366001289093
30
0
41
1
10
2.64801675840641
20
5.08364210012977
30
0
41
1
10
2.46758601303409
20
5.15099240399425
30
0
41
1
10
2.40737099222883
20
5.17290682341283
30
0
41
1
10
2.2867816163029
20
5.21563933968159
30
0
41
1
10
2.22639836885071
20
5.23645936118763
30
0
41
1
10
1.92494126046287
20
5.33745991819919
30
0
41
1
10
1.6845380426617
20
5.40861254222997
30
0
41
1
10
1.32435140023063
20
5.50011782635525
30
0
41
1
10
1.20433993646466
20
5.5281177656066
30
0
41
1
10
0.964116748747699
20
5.57955678491629
30
0
41
1
10
0.843935736573485
20
5.60291643216988
30
0
41
1
10
0.483044309335838
20
5.6657136946888
30
0
41
1
10
0.241975813453337
20
5.69791030765569
30
0
41
1
10
1.137E-13
20
5.71994251193743
30
0
0
SPLINE
5
103
100
AcDbEntity
8
1
62
256
6
ByLayer
370
18
48
1
60
0
100
AcDbSpline
70
4
71
3
72
8
73
4
40
0
40
0
40
0
40
0
40
1
40
1
40
1
40
1
41
1
10
11.6604887839159
20
-2.93006543745676
30
0
41
1
10
11.6779477374453
20
-2.93129036709473
30
0
41
1
10
11.6954074890066
20
-2.93253551608169
30
0
41
1
10
11.7128677053955
20
-2.93380088008024
30
0
0
SPLINE
5
104
100
AcDbEntity
8
1
62
256
6
ByLayer
370
13
48
1
60
0
100
AcDbSpline
70
4
71
3
72
11
73
7
40
0
40
0
40
0
40
0
40
0.124125511912733
40
0.34309413393455
40
0.562062755956366
40
1
40
1
40
1
40
1
41
1
10
6.8502965682934
20
1.04192112479419
30
0
41
1
10
6.56686437886225
20
1.26339362120237
30
0
41
1
10
5.78343218943115
20
1.86851238077856
30
0
41
1
10
4.49999999999997
20
2.80715108115618
30
0
41
1
10
2.49999999999997
20
4.10184085717373
30
0
41
1
10
1.00000000000003
20
4.81233981122293
30
0
41
1
10
0
20
5.12807642430633
30
0
0
SPLINE
5
105
100
AcDbEntity
8
1
62
256
6
ByLayer
370
18
48
1
60
0
100
AcDbSpline
70
4
71
3
72
18
73
14
40
0
40
0
40
0
40
0
40
0.405206962113975
40
0.405206962113975
40
0.45585783237822
40
0.45585783237822
40
0.506508702642466
40
0.506508702642466
40
0.607810443170964
40
0.607810443170964
40
0.810413924227961
40
0.810413924227961
40
1
40
1
40
1
40
1
41
1
10
1.137E-13
20
-5.49239732113148
30
0
41
1
10
0.487223395885991
20
-5.63227773774835
30
0
41
1
10
0.97294672940501
20
-5.74424822040663
30
0
41
1
10
1.52040419950257
20
-5.83743300935063
30
0
41
1
10
1.58124757319001
20
-5.84733060555888
30
0
41
1
10
1.70297387374325
20
-5.86620993797644
30
0
41
1
10
1.76386380990959
20
-5.87519215558845
30
0
41
1
10
1.94626148260943
20
-5.90071388275294
30
0
41
1
10
2.06761150440559
20
-5.91584731754696
30
0
41
1
10
2.43104327944604
20
-5.95564270707234
30
0
41
1
10
2.67250709319507
20
-5.97470356523738
30
0
41
1
10
3.13896719627823
20
-5.99723490491402
30
0
41
1
10
3.36403089776437
20
-6.00161146284748
30
0
41
1
10
3.58892268666301
20
-5.99955069206737
30
0
0
SPLINE
5
106
100
AcDbEntity
8
1
62
256
6
ByLayer
370
18
48
1
60
0
100
AcDbSpline
70
4
71
3
72
41
73
37
40
0
40
0
40
0
40
0
40
0.0625000000000032
40
0.0625000000000032
40
0.125000000000006
40
0.125000000000006
40
0.140625000000006
40
0.140625000000006
40
0.156250000000006
40
0.187500000000005
40
0.187500000000005
40
0.250000000000001
40
0.250000000000001
40
0.374999999999993
40
0.374999999999993
40
0.406249999999991
40
0.406249999999991
40
0.421874999999991
40
0.421874999999991
40
0.437499999999991
40
0.499999999999989
40
0.499999999999989
40
0.624999999999986
40
0.624999999999986
40
0.687499999999984
40
0.687499999999984
40
0.718749999999983
40
0.718749999999983
40
0.734374999999984
40
0.734374999999984
40
0.749999999999984
40
0.812499999999989
40
0.812499999999989
40
0.874999999999993
40
0.874999999999993
40
1
40
1
40
1
40
1
41
1
10
1.137E-13
20
5.47572940266519
30
0
41
1
10
0.244837253216417
20
5.39022778879712
30
0
41
1
10
0.489048708177421
20
5.29499374826577
30
0
41
1
10
0.977343109325403
20
5.08578902054677
30
0
41
1
10
1.22142674794003
20
4.97180632225124
30
0
41
1
10
1.52718752553804
20
4.81794514927969
30
0
41
1
10
1.58840827169939
20
4.7865850401889
30
0
41
1
10
1.7107509937328
20
4.72283389969857
30
0
41
1
10
1.8940409547431
20
4.62570235027101
30
0
41
1
10
2.07674331486945
20
4.52415761394906
30
0
41
1
10
2.44157758766107
20
4.31542353103259
30
0
41
1
10
2.68404272519263
20
4.16875253101921
30
0
41
1
10
3.41073434858458
20
3.70770011324913
30
0
41
1
10
3.89419815456674
20
3.37219867543416
30
0
41
1
10
4.50284867590653
20
2.92255848422408
30
0
41
1
10
4.62479664405959
20
2.83111552449293
30
0
41
1
10
4.80815640523491
20
2.69176141689286
30
0
41
1
10
4.86940120734818
20
2.64490481614598
30
0
41
1
10
4.99167748845625
20
2.55076688211992
30
0
41
1
10
5.29695201801297
20
2.31427156707875
30
0
41
1
10
5.60039286709593
20
2.0723231265292
30
0
41
1
10
6.3267679095481
20
1.483170178677
30
0
41
1
10
6.80842967223128
20
1.07903479186001
30
0
41
1
10
7.53361952775913
20
0.463401233837999
30
0
41
1
10
7.77580409783599
20
0.25662394820165
30
0
41
1
10
8.14060434759273
20
-0.0549329849131652
30
0
41
1
10
8.26245864255338
20
-0.159017370332464
30
0
41
1
10
8.44573012724982
20
-0.315373125895803
30
0
41
1
10
8.50695753303748
20
-0.367576919960953
30
0
41
1
10
8.62929645254707
20
-0.471787578831453
30
0
41
1
10
8.93474311494282
20
-0.731726950866772
30
0
41
1
10
9.23839691452662
20
-0.988501697426557
30
0
41
1
10
9.72304592858379
20
-1.39415599487663
30
0
41
1
10
9.96477346431277
20
-1.59439100007265
30
0
41
1
10
10.6898233278449
20
-2.18550552975833
30
0
41
1
10
11.1730098669208
20
-2.56681833714342
30
0
41
1
10
11.6604887839165
20
-2.93006543745079
30
0
0
SPLINE
5
107
100
AcDbEntity
8
SK1
62
256
6
ByLayer
370
18
48
1
60
0
100
AcDbSpline
70
4
71
3
72
8
73
4
40
0
40
0
40
0
40
0
40
1
40
1
40
1
40
1
41
1
10
-1.13433666665361
20
5.99998880091638
30
0
41
1
10
-0.985732137468545
20
5.91478017770416
30
0
41
1
10
-0.835626212688396
20
5.83378063168556
30
0
41
1
10
-0.683993588487425
20
5.75706110069646
30
0
0
SPLINE
5
108
100
AcDbEntity
8
SK1
62
256
6
ByLayer
370
18
48
1
60
0
100
AcDbSpline
70
4
71
3
72
8
73
4
40
0
40
0
40
0
40
0
40
1
40
1
40
1
40
1
41
1
10
-1.30740959922809
20
5.93367925858755
30
0
41
0.999979109020227
10
-1.27625746513796
20
5.91453555503752
30
0
41
0.999979109020227
10
-1.24505850588713
20
5.89567981582432
30
0
41
1
10
-1.21381467680601
20
5.87711322269257
30
0
0
SPLINE
5
109
100
AcDbEntity
8
SK1
62
256
6
ByLayer
370
18
48
1
60
0
100
AcDbSpline
70
4
71
3
72
10
73
6
40
0
40
0
40
0
40
0
40
0.496087106413275
40
0.496087106413275
40
1
40
1
40
1
40
1
41
1
10
2.84E-14
20
5.71994251193735
30
0
41
1
10
2.84E-14
20
5.70420505608587
30
0
41
1
10
2.84E-14
20
5.6884746951369
30
0
41
1
10
2.84E-14
20
5.65678012799651
30
0
41
1
10
2.84E-14
20
5.64081614739615
30
0
41
1
10
2.84E-14
20
5.62485948717665
30
0
0
SPLINE
5
10A
100
AcDbEntity
8
SK1
62
256
6
ByLayer
370
18
48
1
60
0
100
AcDbSpline
70
4
71
3
72
8
73
4
40
0
40
0
40
0
40
0
40
1
40
1
40
1
40
1
41
1
10
8.53E-14
20
5.71994251193735
30
0
41
1
10
-0.174882988711005
20
5.73444053973532
30
0
41
1
10
-0.348418482332136
20
5.74512027270052
30
0
41
1
10
-0.520459663158135
20
5.75156568461594
30
0
0
SPLINE
5
10B
100
AcDbEntity
8
SK1
62
256
6
ByLayer
370
18
48
1
60
0
100
AcDbSpline
70
4
71
3
72
12
73
8
40
0
40
0
40
0
40
0
40
0.250976514278602
40
0.250976514278602
40
0.501953028557204
40
0.501953028557204
40
1
40
1
40
1
40
1
41
1
10
1.62E-12
20
5.62485948717577
30
0
41
1
10
1.62E-12
20
5.61369542373444
30
0
41
1
10
0
20
5.60253160023649
30
0
41
1
10
0
20
5.58020443312833
30
0
41
1
10
2.84E-14
20
5.56904108951784
30
0
41
1
10
2.84E-14
20
5.53572551477919
30
0
41
1
10
0
20
5.51357398860247
30
0
41
1
10
0
20
5.49142340732828
30
0
0
SPLINE
5
10C
100
AcDbEntity
8
SK1
62
256
6
ByLayer
370
18
48
1
60
0
100
AcDbSpline
70
4
71
3
72
11
73
7
40
0
40
0
40
0
40
0
40
0.158060390675796
40
0.565539115559297
40
0.973017840442798
40
1
40
1
40
1
40
1
41
1
10
-1.21381467680894
20
5.8771132226918
30
0
41
1
10
-1.14987161981193
20
5.86840183910317
30
0
41
1
10
-0.92108350003906
20
5.83461859532005
30
0
41
1
10
-0.52743498485583
20
5.76047952824865
30
0
41
1
10
-0.186744973376676
20
5.67653319068984
30
0
41
1
10
-0.0109196981410093
20
5.62790028435955
30
0
41
1
10
3.1832E-12
20
5.62485948717577
30
0
0
SPLINE
5
10D
100
AcDbEntity
8
SK1
62
256
6
ByLayer
370
18
48
1
60
0
100
AcDbSpline
70
4
71
3
72
17
73
13
40
0
40
0
40
0
40
0
40
0.100349076605693
40
0.200614712371308
40
0.300799193635934
40
0.400904757131099
40
0.500933590485938
40
0.600887832738869
40
0.700769574855659
40
0.800580860253531
40
0.900323685330441
40
1
40
1
40
1
40
1
41
1
10
-1.21381467680348
20
5.87711322269107
30
0
41
1
10
-1.22136931039347
20
5.87642441545151
30
0
41
1
10
-1.23647229585174
20
5.87504737371964
30
0
41
1
10
-1.25901275286711
20
5.87328506257711
30
0
41
1
10
-1.28145749708386
20
5.87174383686093
30
0
41
1
10
-1.30379905782277
20
5.87044381999218
30
0
41
1
10
-1.32603948099421
20
5.86937739530097
30
0
41
1
10
-1.34817808449483
20
5.86854483011675
30
0
41
1
10
-1.37021559246432
20
5.86794253883391
30
0
41
1
10
-1.3921498329685
20
5.86757443736576
30
0
41
1
10
-1.41398880390204
20
5.86741828524262
30
0
41
1
10
-1.42846950945119
20
5.86750535678198
30
0
41
1
10
-1.43570744741837
20
5.86754887803156
30
0
0
SPLINE
5
10E
100
AcDbEntity
8
SK1
62
256
6
ByLayer
370
18
48
1
60
0
100
AcDbSpline
70
4
71
3
72
8
73
4
40
0
40
0
40
0
40
0
40
1
40
1
40
1
40
1
41
1
10
1.8758E-12
20
5.49142340732701
30
0
41
1
10
1.8758E-12
20
5.48619204718639
30
0
41
1
10
0
20
5.48096071229915
30
0
41
1
10
0
20
5.47572940266522
30
0
0
SPLINE
5
10F
100
AcDbEntity
8
SK1
62
256
6
ByLayer
370
18
48
1
60
0
100
AcDbSpline
70
4
71
3
72
11
73
7
40
0
40
0
40
0
40
0
40
0.288322746355433
40
0.632816339745221
40
0.977309933135009
40
1
40
1
40
1
40
1
41
1
10
-1.43570744741837
20
5.86754887803156
30
0
41
1
10
-1.29774013243124
20
5.84298705638074
30
0
41
1
10
-0.994934291772438
20
5.78161444256355
30
0
41
1
10
-0.527258158197441
20
5.66187464828292
30
0
41
1
10
-0.186629223893959
20
5.55530841233488
30
0
41
1
10
-0.0108616253347975
20
5.49515995886955
30
0
41
1
10
3.7517E-12
20
5.49142340732701
30
0
0
SPLINE
5
110
100
AcDbEntity
8
SK1
62
256
6
ByLayer
370
18
48
1
60
0
100
AcDbSpline
70
4
71
3
72
8
73
4
40
0
40
0
40
0
40
0
40
1
40
1
40
1
40
1
41
1
10
-0.0007554418107247
20
5.47570788098321
30
0
41
1
10
-0.0005036286903533
20
5.47571504266531
30
0
41
1
10
-0.0002518147533124
20
5.47572221655955
30
0
41
1
10
1.137E-13
20
5.47572940266519
30
0
0
SPLINE
5
111
100
AcDbEntity
8
SK1
62
256
6
ByLayer
370
18
48
1
60
0
100
AcDbSpline
70
4
71
3
72
8
73
4
40
0
40
0
40
0
40
0
40
1
40
1
40
1
40
1
41
1
10
3.126E-13
20
-5.4756507865612
30
0
41
1
10
3.126E-13
20
-5.48123307254767
30
0
41
1
10
-2.84E-14
20
-5.48681536946503
30
0
41
1
10
-2.84E-14
20
-5.49239767731322
30
0
0
SPLINE
5
112
100
AcDbEntity
8
SK1
62
256
6
ByLayer
370
18
48
1
60
0
100
AcDbSpline
70
4
71
3
72
9
73
5
40
0
40
0
40
0
40
0
40
0.499876630943858
40
1
40
1
40
1
40
1
41
1
10
-1.55882148086269
20
-4.9524582213941
30
0
41
1
10
-1.55581194634615
20
-4.94996209830938
30
0
41
1
10
-1.54979139181285
20
-4.94496862005858
30
0
41
1
10
-1.54376244008006
20
-4.94000645756111
30
0
41
1
10
-1.54074722042759
20
-4.93752476413508
30
0
0
SPLINE
5
113
100
AcDbEntity
8
SK1
62
256
6
ByLayer
370
18
48
1
60
0
100
AcDbSpline
70
4
71
2
72
6
73
3
40
0
40
0
40
0
40
1
40
1
40
1
41
1
10
-0.0003988070100434
20
-5.4923851562798
30
0
41
0.92
10
-0.0001994036280018
20
-5.49239339920816
30
0
41
1
10
0
20
-5.4924016420054
30
0
0
SPLINE
5
114
100
AcDbEntity
8
SK1
62
256
6
ByLayer
370
18
48
1
60
0
100
AcDbSpline
70
4
71
3
72
12
73
8
40
0
40
0
40
0
40
0
40
0.25063870266446
40
0.25063870266446
40
0.501277405328921
40
0.501277405328921
40
1
40
1
40
1
40
1
41
1
10
2.842E-13
20
-5.22268483656606
30
0
41
1
10
2.842E-13
20
-5.24381881936341
30
0
41
1
10
-2.84E-14
20
-5.26495289482551
30
0
41
1
10
-2.84E-14
20
-5.30722123107773
30
0
41
1
10
0
20
-5.32835549186802
30
0
41
1
10
0
20
-5.39154312551733
30
0
41
1
10
-2.84E-14
20
-5.43359677259906
30
0
41
1
10
-2.84E-14
20
-5.475650786561
30
0
0
SPLINE
5
115
100
AcDbEntity
8
SK1
62
256
6
ByLayer
370
18
48
1
60
0
100
AcDbSpline
70
4
71
3
72
12
73
8
40
0
40
0
40
0
40
0
40
0.021745556707307
40
0.344613043484164
40
0.667480530261021
40
0.990348017037878
40
1
40
1
40
1
40
1
41
1
10
-1.54074722042844
20
-4.93752476413471
30
0
41
1
10
-1.52957918899247
20
-4.94204999639763
30
0
41
1
10
-1.35259405078722
20
-5.01355650236795
30
0
41
1
10
-1.00980344905864
20
-5.14567917334455
30
0
41
1
10
-0.512362948634348
20
-5.31939007285189
30
0
41
1
10
-0.175751841867566
20
-5.42433698020326
30
0
41
1
10
-0.0049576216824789
20
-5.47420609226754
30
0
41
1
10
6.537E-13
20
-5.4756507865612
30
0
0
SPLINE
5
116
100
AcDbEntity
8
SK1
62
256
6
ByLayer
370
18
48
1
60
0
100
AcDbSpline
70
4
71
3
72
8
73
4
40
0
40
0
40
0
40
0
40
1
40
1
40
1
40
1
41
1
10
-1.54234168900078
20
-4.93733775232926
30
0
41
0.999999994632917
10
-1.54181021067659
20
-4.93740000832261
30
0
41
0.999999994632917
10
-1.54127872114947
20
-4.93746234559153
30
0
41
1
10
-1.54074722042799
20
-4.93752476413502
30
0
0
SPLINE
5
117
100
AcDbEntity
8
SK1
62
256
6
ByLayer
370
18
48
1
60
0
100
AcDbSpline
70
4
71
3
72
16
73
12
40
0
40
0
40
0
40
0
40
0.111427643011095
40
0.222772323549837
40
0.334035732467785
40
0.445219527193821
40
0.556325332082169
40
0.667354738760773
40
0.778309306479805
40
0.889190562382216
40
1
40
1
40
1
40
1
41
1
10
-1.32715816398786
20
-4.70837679518073
30
0
41
1
10
-1.33520360448682
20
-4.71658341636677
30
0
41
1
10
-1.35128849532279
20
-4.73299054857117
30
0
41
1
10
-1.37530702877808
20
-4.75787369918029
30
0
41
1
10
-1.3992342905664
20
-4.78294200884858
30
0
41
1
10
-1.42306318868194
20
-4.80821369764143
30
0
41
1
10
-1.44679549018772
20
-4.83368166936634
30
0
41
1
10
-1.47043122528766
20
-4.85934404286786
30
0
41
1
10
-1.49396852587751
20
-4.88520343156449
30
0
41
1
10
-1.51741484431
20
-4.91123935453584
30
0
41
1
10
-1.53297144161257
20
-4.92876485343862
30
0
41
1
10
-1.54074722042844
20
-4.93752476413471
30
0
0
SPLINE
5
118
100
AcDbEntity
8
SK1
62
256
6
ByLayer
370
18
48
1
60
0
100
AcDbSpline
70
4
71
3
72
10
73
6
40
0
40
0
40
0
40
0
40
0.495822798418972
40
0.495822798418972
40
1
40
1
40
1
40
1
41
1
10
-2.84E-14
20
-4.3092045332256
30
0
41
1
10
-2.84E-14
20
-4.46017480883415
30
0
41
1
10
0
20
-4.61114732126009
30
0
41
1
10
0
20
-4.91564067975699
30
0
41
1
10
0
20
-5.06916160186901
30
0
41
1
10
0
20
-5.22268483656586
30
0
0
SPLINE
5
119
100
AcDbEntity
8
SK1
62
256
6
ByLayer
370
18
48
1
60
0
100
AcDbSpline
70
4
71
3
72
11
73
7
40
0
40
0
40
0
40
0
40
0.239067327879221
40
0.613896609427153
40
0.988725890975085
40
1
40
1
40
1
40
1
41
1
10
-1.3271581639907
20
-4.7083767951795
30
0
41
1
10
-1.22140109724168
20
-4.75421666620363
30
0
41
1
10
-0.949833025011117
20
-4.8690608643609
30
0
41
1
10
-0.512453490641263
20
-5.04183473427787
30
0
41
1
10
-0.175811953258034
20
-5.16283123546125
30
0
41
1
10
-0.0049880182766913
20
-5.22098939621597
30
0
41
1
10
5.684E-13
20
-5.22268483656606
30
0
0
SPLINE
5
11A
100
AcDbEntity
8
SK1
62
256
6
ByLayer
370
18
48
1
60
0
100
AcDbSpline
70
4
71
3
72
8
73
4
40
0
40
0
40
0
40
0
40
1
40
1
40
1
40
1
41
1
10
-1.43954483504382
20
-4.69635660897069
30
0
41
0.999974010690892
10
-1.40214098962026
20
-4.699963720781
30
0
41
0.999974010690892
10
-1.36467779229276
20
-4.70397055365246
30
0
41
1
10
-1.3271581639892
20
-4.70837679518056
30
0
0
SPLINE
5
11B
100
AcDbEntity
8
SK1
62
256
6
ByLayer
370
18
48
1
60
0
100
AcDbSpline
70
4
71
3
72
29
73
25
40
0
40
0
40
0
40
0
40
0.0453096873515257
40
0.0906283758153855
40
0.135956845576324
40
0.181295864120935
40
0.226646186136714
40
0.272008553422065
40
0.317383694806888
40
0.362772326084699
40
0.408175151418736
40
0.453592865470522
40
0.499026148831821
40
0.544475667260873
40
0.589942071861087
40
0.635425999260213
40
0.680928071789827
40
0.726448897665262
40
0.771989071165663
40
0.817549172814297
40
0.863129769558855
40
0.908731414951915
40
0.954354649331235
40
1
40
1
40
1
40
1
41
1
10
-0.823239495331478
20
-3.96512993966749
30
0
41
1
10
-0.831242781984628
20
-3.97562182170412
30
0
41
1
10
-0.847250945204451
20
-3.99660767006918
30
0
41
1
10
-0.871129129642895
20
-4.02837135260506
30
0
41
1
10
-0.894911999712576
20
-4.06034484952801
30
0
41
1
10
-0.918589777259285
20
-4.09254667236991
30
0
41
1
10
-0.942165087636596
20
-4.12496946351609
30
0
41
1
10
-0.965637230742658
20
-4.15761280893688
30
0
41
1
10
-0.989006396978368
20
-4.19047444302691
30
0
41
1
10
-1.01227253771705
20
-4.22355260729356
30
0
41
1
10
-1.03543566775892
20
-4.25684541683532
30
0
41
1
10
-1.05849577792145
20
-4.29035101530621
30
0
41
1
10
-1.08145286583633
20
-4.32406755150581
30
0
41
1
10
-1.10430692814956
20
-4.35799318834921
30
0
41
1
10
-1.12705796258507
20
-4.39212609926329
30
0
41
1
10
-1.14970596581111
20
-4.42646447140456
30
0
41
1
10
-1.17225093968904
20
-4.46100649621934
30
0
41
1
10
-1.1946928683347
20
-4.49575040405887
30
0
41
1
10
-1.21703180361132
20
-4.53069433513022
30
0
41
1
10
-1.23926754584463
20
-4.56583682140379
30
0
41
1
10
-1.26140083614021
20
-4.6011749869572
30
0
41
1
10
-1.28342890352735
20
-4.63671126895858
30
0
41
1
10
-1.30536209478106
20
-4.67242831714333
30
0
41
1
10
-1.31989163398359
20
-4.69639203353069
30
0
41
1
10
-1.32715816399067
20
-4.7083767951795
30
0
0
SPLINE
5
11C
100
AcDbEntity
8
SK1
62
256
6
ByLayer
370
18
48
1
60
0
100
AcDbSpline
70
4
71
3
72
11
73
7
40
0
40
0
40
0
40
0
40
0.25
40
0.25
40
0.5
40
1
40
1
40
1
40
1
41
1
10
-1.33199138800902
20
-4.02827473064582
30
0
41
1
10
-1.28998245892319
20
-4.02126381246413
30
0
41
1
10
-1.24780811674424
20
-4.01468289883402
30
0
41
1
10
-1.16331339252454
20
-4.00241379522899
30
0
41
1
10
-1.03634916949522
20
-3.98534700424696
30
0
41
1
10
-0.908719578237594
20
-3.97228453634588
30
0
41
1
10
-0.823337253604933
20
-3.96535719489529
30
0
0
SPLINE
5
11D
100
AcDbEntity
8
SK1
62
256
6
ByLayer
370
18
48
1
60
0
100
AcDbSpline
70
4
71
3
72
8
73
4
40
0
40
0
40
0
40
0
40
1
40
1
40
1
40
1
41
1
10
5.68E-14
20
-4.3092045332256
30
0
41
1
10
-0.27666728647668
20
-4.20213549707248
30
0
41
1
10
-0.551171916052056
20
-4.0877868705752
30
0
41
1
10
-0.823188465818617
20
-3.9650632671015
30
0
0
SPLINE
5
11E
100
AcDbEntity
8
SK1
62
256
6
ByLayer
370
18
48
1
60
0
100
AcDbSpline
70
4
71
3
72
14
73
10
40
0
40
0
40
0
40
0
40
0.25
40
0.25
40
0.5
40
0.5
40
0.75
40
0.75
40
1
40
1
40
1
40
1
41
1
10
-1.54234168899921
20
-4.93733775232917
30
0
41
1
10
-1.54017678859819
20
-4.91746276229318
30
0
41
1
10
-1.53635773165035
20
-4.89747500826309
30
0
41
1
10
-1.5254623949088
20
-4.85729006748014
30
0
41
1
10
-1.51836667827521
20
-4.83705123207602
30
0
41
1
10
-1.50102519760478
20
-4.79660458094404
30
0
41
1
10
-1.49078326307355
20
-4.77639530923054
30
0
41
1
10
-1.46732113614138
20
-4.73616216336782
30
0
41
1
10
-1.45413231740525
20
-4.71618568142114
30
0
41
1
10
-1.43954483503987
20
-4.69635660897106
30
0
0
SPLINE
5
11F
100
AcDbEntity
8
SK1
62
256
6
ByLayer
370
18
48
1
60
0
100
AcDbSpline
70
4
71
3
72
17
73
13
40
0
40
0
40
0
40
0
40
0.250000000000003
40
0.250000000000003
40
0.500000000000006
40
0.500000000000006
40
0.562500000000006
40
0.562500000000006
40
0.625000000000006
40
0.750000000000006
40
0.750000000000006
40
1
40
1
40
1
40
1
41
1
10
-1.43954483504251
20
-4.69635660896992
30
0
41
1
10
-1.45564543722918
20
-4.64498467625464
30
0
41
1
10
-1.46551561768064
20
-4.59222537073842
30
0
41
1
10
-1.47273366914928
20
-4.48390792889964
30
0
41
1
10
-1.47008369083059
20
-4.42834991537919
30
0
41
1
10
-1.45860047047492
20
-4.35712385497641
30
0
41
1
10
-1.45588866286971
20
-4.34276573883409
30
0
41
1
10
-1.44965541720285
20
-4.31398036380753
30
0
41
1
10
-1.43912536860722
20
-4.27083924268959
30
0
41
1
10
-1.42513673602659
20
-4.22781583507586
30
0
41
1
10
-1.3927137051279
20
-4.14195058464844
30
0
41
1
10
-1.36518452362131
20
-4.08494711008649
30
0
41
1
10
-1.33199138800478
20
-4.02827473063857
30
0
0
SPLINE
5
120
100
AcDbEntity
8
SK1
62
256
6
ByLayer
370
18
48
1
60
0
100
AcDbSpline
70
4
71
3
72
32
73
28
40
0
40
0
40
0
40
0
40
0.249999999999947
40
0.249999999999947
40
0.374999999999937
40
0.374999999999937
40
0.437499999999945
40
0.437499999999945
40
0.499999999999953
40
0.499999999999953
40
0.562499999999961
40
0.562499999999961
40
0.624999999999969
40
0.624999999999969
40
0.656249999999972
40
0.656249999999972
40
0.687499999999975
40
0.687499999999975
40
0.718749999999978
40
0.718749999999978
40
0.749999999999981
40
0.749999999999981
40
0.812499999999986
40
0.812499999999986
40
0.874999999999991
40
0.874999999999991
40
1
40
1
40
1
40
1
41
1
10
-4.56725881177536
20
-1.83191995628039
30
0
41
1
10
-4.58872730658831
20
-1.80985834659404
30
0
41
1
10
-4.60924925577314
20
-1.78702880743438
30
0
41
1
10
-4.63721855135671
20
-1.75053873253526
30
0
41
1
10
-4.64608398395211
20
-1.73796020463755
30
0
41
1
10
-4.65803077642255
20
-1.71840143452485
30
0
41
1
10
-4.66178994082995
20
-1.71175948353729
30
0
41
1
10
-4.66869694277437
20
-1.69814181359092
30
0
41
1
10
-4.6718556120741
20
-1.69114085712505
30
0
41
1
10
-4.67718491671152
20
-1.67689090702404
30
0
41
1
10
-4.67937439071451
20
-1.66962795987519
30
0
41
1
10
-4.68226258251269
20
-1.6546723277539
30
0
41
1
10
-4.68294016617332
20
-1.64701993809399
30
0
41
1
10
-4.68209133703508
20
-1.63563229317828
30
0
41
1
10
-4.68148445492554
20
-1.63180681159633
30
0
41
1
10
-4.67955026815349
20
-1.62443084196562
30
0
41
1
10
-4.67822562828977
20
-1.62085434360066
30
0
41
1
10
-4.67477266752599
20
-1.61395257029733
30
0
41
1
10
-4.67265971063597
20
-1.6106795607445
30
0
41
1
10
-4.6678322641221
20
-1.60467867489149
30
0
41
1
10
-4.66508162615739
20
-1.60189990975391
30
0
41
1
10
-4.65608386996587
20
-1.59433193163434
30
0
41
1
10
-4.64932241351158
20
-1.59043628880502
30
0
41
1
10
-4.63481783446264
20
-1.58412609924989
30
0
41
1
10
-4.6273197136249
20
-1.58182076559737
30
0
41
1
10
-4.60442415119419
20
-1.57647535589575
30
0
41
1
10
-4.58857059900888
20
-1.57497984294358
30
0
41
1
10
-4.57275187872452
20
-1.57453944105765
30
0
0
SPLINE
5
121
100
AcDbEntity
8
SK1
62
256
6
ByLayer
370
18
48
1
60
0
100
AcDbSpline
70
4
71
3
72
34
73
30
40
0
40
0
40
0
40
0
40
0.125000000000008
40
0.125000000000008
40
0.250000000000016
40
0.250000000000016
40
0.281250000000021
40
0.281250000000021
40
0.312500000000025
40
0.375000000000034
40
0.375000000000034
40
0.437500000000043
40
0.437500000000043
40
0.468750000000043
40
0.468750000000043
40
0.500000000000043
40
0.500000000000043
40
0.625000000000043
40
0.625000000000043
40
0.656250000000042
40
0.656250000000042
40
0.687500000000041
40
0.750000000000033
40
0.750000000000033
40
0.812500000000024
40
0.812500000000024
40
0.875000000000016
40
0.875000000000016
40
1
40
1
40
1
40
1
41
1
10
-4.57275187871656
20
-1.57453944109207
30
0
41
1
10
-4.4830807250741
20
-1.57204294676143
30
0
41
1
10
-4.39382749718325
20
-1.56636026218624
30
0
41
1
10
-4.21644228280456
20
-1.54642667489839
30
0
41
1
10
-4.12830655554876
20
-1.53220577015304
30
0
41
1
10
-4.01912131167907
20
-1.50687014459197
30
0
41
1
10
-3.99733574349855
20
-1.50141865864455
30
0
41
1
10
-3.9541645218782
20
-1.48975747591157
30
0
41
1
10
-3.88990318609609
20
-1.47110361472241
30
0
41
1
10
-3.82722853666672
20
-1.44872224724409
30
0
41
1
10
-3.74528689916721
20
-1.41504670563236
30
0
41
1
10
-3.70512798232826
20
-1.39629308938157
30
0
41
1
10
-3.64630298970974
20
-1.36480927747789
30
0
41
1
10
-3.62693061745861
20
-1.35375476114757
30
0
41
1
10
-3.58869574815228
20
-1.33043209130386
30
0
41
1
10
-3.56994403924847
20
-1.31822772799825
30
0
41
1
10
-3.47865374533217
20
-1.25479917411886
30
0
41
1
10
-3.41293796791479
20
-1.19598298953096
30
0
41
1
10
-3.3404515066363
20
-1.11162075793709
30
0
41
1
10
-3.32639986746341
20
-1.09415306338713
30
0
41
1
10
-3.29960677473639
20
-1.05858883592219
30
0
41
1
10
-3.26126935747487
20
-1.00418587737124
30
0
41
1
10
-3.2281926895042
20
-0.946762550071412
30
0
41
1
10
-3.18829834916753
20
-0.86774879098428
30
0
41
1
10
-3.17043887190314
20
-0.826974001023444
30
0
41
1
10
-3.1385871841764
20
-0.743357302048622
30
0
41
1
10
-3.12476724093315
20
-0.70099544158856
30
0
41
1
10
-3.08863118262968
20
-0.572481240886106
30
0
41
1
10
-3.07158780769816
20
-0.484912362263486
30
0
41
1
10
-3.05979581699481
20
-0.39586728752343
30
0
0
SPLINE
5
122
100
AcDbEntity
8
SK1
62
256
6
ByLayer
370
18
48
1
60
0
100
AcDbSpline
70
4
71
3
72
39
73
35
40
0
40
0
40
0
40
0
40
0.0625000000000011
40
0.0625000000000011
40
0.125000000000002
40
0.125000000000002
40
0.187500000000003
40
0.187500000000003
40
0.250000000000004
40
0.250000000000004
40
0.281250000000005
40
0.281250000000005
40
0.312500000000005
40
0.312500000000005
40
0.375000000000005
40
0.437500000000005
40
0.437500000000005
40
0.468750000000005
40
0.468750000000005
40
0.500000000000005
40
0.562500000000004
40
0.562500000000004
40
0.593750000000004
40
0.593750000000004
40
0.625000000000004
40
0.625000000000004
40
0.750000000000005
40
0.750000000000005
40
0.781250000000005
40
0.781250000000005
40
0.812500000000005
40
0.875000000000003
40
0.875000000000003
40
1
40
1
40
1
40
1
41
1
10
-3.05979581699481
20
-0.39586728752343
30
0
41
1
10
-3.0615846344262
20
-0.292586472278941
30
0
41
1
10
-3.06602489571765
20
-0.189483571335046
30
0
41
1
10
-3.07905405832742
20
0.0164471750832149
30
0
41
1
10
-3.08765087581872
20
0.119274465842409
30
0
41
1
10
-3.10830920529253
20
0.324701921642571
30
0
41
1
10
-3.12038968203316
20
0.427382938469918
30
0
41
1
10
-3.14743495873401
20
0.631394851458367
30
0
41
1
10
-3.1624132918036
20
0.732863168454884
30
0
41
1
10
-3.1868445584347
20
0.8842984195513
30
0
41
1
10
-3.19531694877375
20
0.93464871739971
30
0
41
1
10
-3.21289633248532
20
1.03509698496211
30
0
41
1
10
-3.22200867428686
20
1.08522281482129
30
0
41
1
10
-3.25023526668846
20
1.235016020926
30
0
41
1
10
-3.29019713465249
20
1.43299499320108
30
0
41
1
10
-3.33462897223694
20
1.62756828147536
30
0
41
1
10
-3.36962474182931
20
1.77223223322957
30
0
41
1
10
-3.3815764774221
20
1.82027000540072
30
0
41
1
10
-3.40600103672205
20
1.91575401944746
30
0
41
1
10
-3.44342017936367
20
2.05809739572175
30
0
41
1
10
-3.48320212752145
20
2.19781328924734
30
0
41
1
10
-3.52462336386139
20
2.33578525767118
30
0
41
1
10
-3.53870412435185
20
2.38148504821444
30
0
41
1
10
-3.56742926445091
20
2.47230173221146
30
0
41
1
10
-3.5820810110402
20
2.51743991081474
30
0
41
1
10
-3.65664567902911
20
2.74121616188745
30
0
41
1
10
-3.72051829307571
20
2.9143819602931
30
0
41
1
10
-3.80654106711148
20
3.12351776495171
30
0
41
1
10
-3.82406306590519
20
3.16499067057322
30
0
41
1
10
-3.85966010689162
20
3.24697292058124
30
0
41
1
10
-3.9139192136125
20
3.36858382879498
30
0
41
1
10
-3.97088270606804
20
3.48613094003991
30
0
41
1
10
-4.08878709339007
20
3.71583216976956
30
0
41
1
10
-4.17266270979013
20
3.86178623799091
30
0
41
1
10
-4.26313181904237
20
4.00048614550721
30
0
0
SPLINE
5
123
100
AcDbEntity
8
SK1
62
256
6
ByLayer
370
18
48
1
60
0
100
AcDbSpline
70
4
71
3
72
14
73
10
40
0
40
0
40
0
40
0
40
0.5
40
0.5
40
0.625000000000003
40
0.625000000000003
40
0.750000000000007
40
0.750000000000007
40
1
40
1
40
1
40
1
41
1
10
-4.2631318190424
20
4.00048614550721
30
0
41
1
10
-4.28270205165688
20
4.03048964035909
30
0
41
1
10
-4.29773678382378
20
4.06125666669143
30
0
41
1
10
-4.30984127620647
20
4.10082040583916
30
0
41
1
10
-4.31192526861736
20
4.10878886068232
30
0
41
1
10
-4.31538259831683
20
4.12484306056135
30
0
41
1
10
-4.31675438152638
20
4.13293623097618
30
0
41
1
10
-4.31971940183698
20
4.15711771058042
30
0
41
1
10
-4.3201869842334
20
4.17319778623531
30
0
41
1
10
-4.31910888185527
20
4.18923656933592
30
0
0
SPLINE
5
124
100
AcDbEntity
8
SK1
62
256
6
ByLayer
370
18
48
1
60
0
100
AcDbSpline
70
4
71
3
72
41
73
37
40
0
40
0
40
0
40
0
40
0.0625000000000009
40
0.0625000000000009
40
0.0937500000000012
40
0.0937500000000012
40
0.109375000000001
40
0.109375000000001
40
0.125000000000001
40
0.125000000000001
40
0.187500000000004
40
0.187500000000004
40
0.203125000000003
40
0.203125000000003
40
0.218750000000002
40
0.250000000000001
40
0.250000000000001
40
0.312499999999998
40
0.312499999999998
40
0.374999999999995
40
0.374999999999995
40
0.406249999999994
40
0.406249999999994
40
0.437499999999992
40
0.437499999999992
40
0.499999999999993
40
0.499999999999993
40
0.562499999999994
40
0.562499999999994
40
0.624999999999995
40
0.624999999999995
40
0.749999999999997
40
0.749999999999997
40
0.874999999999998
40
0.874999999999998
40
1
40
1
40
1
40
1
41
1
10
-4.31910888185524
20
4.18923656933589
30
0
41
1
10
-4.31452871383527
20
4.257375108796
30
0
41
1
10
-4.29724025082371
20
4.32154374868151
30
0
41
1
10
-4.25513654426894
20
4.41281779309665
30
0
41
1
10
-4.23839202776594
20
4.44240843605968
30
0
41
1
10
-4.20946342857772
20
4.48563470011064
30
0
41
1
10
-4.19917570243908
20
4.49985419067639
30
0
41
1
10
-4.17764372025755
20
4.52758825876859
30
0
41
1
10
-4.16637049352684
20
4.54114876655041
30
0
41
1
10
-4.10765677136931
20
4.60753942116935
30
0
41
1
10
-4.05324921954389
20
4.65618065135894
30
0
41
1
10
-3.9780630588933
20
4.71277009627036
30
0
41
1
10
-3.96263544347215
20
4.72389289342914
30
0
41
1
10
-3.93127611106684
20
4.74561231912301
30
0
41
1
10
-3.88345682424637
20
4.77742415749813
30
0
41
1
10
-3.83348285443898
20
4.80713094071871
30
0
41
1
10
-3.73104394797431
20
4.8641445454316
30
0
41
1
10
-3.65944909006924
20
4.89897320873237
30
0
41
1
10
-3.5110209139487
20
4.96374832907011
30
0
41
1
10
-3.43417735366668
20
4.99368413241325
30
0
41
1
10
-3.31560506035834
20
5.03562268834503
30
0
41
1
10
-3.27554441384598
20
5.04909670644949
30
0
41
1
10
-3.19481593929834
20
5.07501219407925
30
0
41
1
10
-3.15409509647733
20
5.08747261870531
30
0
41
1
10
-3.03094696877125
20
5.12350967331346
30
0
41
1
10
-2.94753812400373
20
5.14574838900953
30
0
41
1
10
-2.77842626364432
20
5.18724758868939
30
0
41
1
10
-2.69272173079804
20
5.20650556148706
30
0
41
1
10
-2.51922776487379
20
5.24245608069566
30
0
41
1
10
-2.43167773252432
20
5.25909715750836
30
0
41
1
10
-2.16708955060881
20
5.30549057735075
30
0
41
1
10
-1.98796443966168
20
5.33177859458496
30
0
41
1
10
-1.62491242226829
20
5.37675589121071
30
0
41
1
10
-1.4419633635388
20
5.3953160650417
30
0
41
1
10
-1.07325829716359
20
5.42552242498584
30
0
41
1
10
-0.887502353294053
20
5.43716617341411
30
0
41
1
10
-0.700231866278841
20
5.44538477952946
30
0
0
SPLINE
5
125
100
AcDbEntity
8
SK1
62
256
6
ByLayer
370
18
48
1
60
0
100
AcDbSpline
70
4
71
3
72
12
73
8
40
0
40
0
40
0
40
0
40
0.500000000000004
40
0.500000000000004
40
0.750000000000002
40
0.750000000000002
40
1
40
1
40
1
40
1
41
1
10
-0.000755441780484
20
5.47570788098221
30
0
41
1
10
-0.243563931268426
20
5.56091707526218
30
0
41
1
10
-0.484894557979743
20
5.63621793891437
30
0
41
1
10
-0.847482417808891
20
5.7333003723482
30
0
41
1
10
-0.968393464591884
20
5.76304480319439
30
0
41
1
10
-1.21062501646711
20
5.81725568825448
30
0
41
1
10
-1.33190322102351
20
5.84173737990332
30
0
41
1
10
-1.45338522807279
20
5.86360311125369
30
0
0
SPLINE
5
126
100
AcDbEntity
8
SK1
62
256
6
ByLayer
370
13
48
1
60
0
100
AcDbSpline
70
4
71
3
72
8
73
4
40
0
40
0
40
0
40
0
40
1
40
1
40
1
40
1
41
1
10
-1.45337255095043
20
5.86360638571404
30
0
41
1
10
-1.4478837023683
20
5.86517133139299
30
0
41
1
10
-1.44239485378614
20
5.86672296504068
30
0
41
1
10
-1.43690600520398
20
5.86826127608921
30
0
0
SPLINE
5
127
100
AcDbEntity
8
SK1
62
256
6
ByLayer
370
18
48
1
60
0
100
AcDbSpline
70
4
71
3
72
10
73
6
40
0
40
0
40
0
40
0
40
0.5
40
0.5
40
1
40
1
40
1
40
1
41
1
10
-1.43690600520998
20
5.86826127608984
30
0
41
1
10
-1.42626796826909
20
5.8816782011593
30
0
41
1
10
-1.41004003221656
20
5.89378485523
30
0
41
1
10
-1.36650042874697
20
5.91562172896698
30
0
41
1
10
-1.33935661209216
20
5.92524347718066
30
0
41
1
10
-1.30740959922267
20
5.93367925858422
30
0
0
SPLINE
5
128
100
AcDbEntity
8
SK1
62
256
6
ByLayer
370
18
48
1
60
0
100
AcDbSpline
70
4
71
3
72
16
73
12
40
0
40
0
40
0
40
0
40
0.249999999999998
40
0.249999999999998
40
0.499999999999995
40
0.499999999999995
40
0.624999999999996
40
0.624999999999996
40
0.749999999999998
40
0.749999999999998
40
1
40
1
40
1
40
1
41
1
10
-1.3074095992279
20
5.93367925858493
30
0
41
1
10
-1.31540970923496
20
5.94527566828077
30
0
41
1
10
-1.31791782514733
20
5.95530316518222
30
0
41
1
10
-1.31172331113427
20
5.97230189000209
30
0
41
1
10
-1.30302333368706
20
5.97927294336191
30
0
41
1
10
-1.28108742868713
20
5.98748849246468
30
0
41
1
10
-1.27225110361641
20
5.9898560008746
30
0
41
1
10
-1.25188021016714
20
5.99379507788518
30
0
41
1
10
-1.24032578385101
20
5.99537936797566
30
0
41
1
10
-1.20166911477634
20
5.99907211937744
30
0
41
1
10
-1.17058516491642
20
6.00012207185156
30
0
41
1
10
-1.13433666665375
20
5.99998880091633
30
0
0
SPLINE
5
129
100
AcDbEntity
8
SK1
62
256
6
ByLayer
370
18
48
1
60
0
100
AcDbSpline
70
4
71
3
72
16
73
12
40
0
40
0
40
0
40
0
40
0.204692097232094
40
0.204692097232094
40
0.337243414360078
40
0.337243414360078
40
0.469794731488063
40
0.469794731488063
40
0.734897365744031
40
0.734897365744031
40
1
40
1
40
1
40
1
41
1
10
-3.40588627710699
20
-5.89173682070538
30
0
41
1
10
-3.44430725603922
20
-5.91624794621981
30
0
41
1
10
-3.48386407738565
20
-5.93656608150602
30
0
41
1
10
-3.55118233275275
20
-5.96320994512757
30
0
41
1
10
-3.57822430785677
20
-5.9719474898173
30
0
41
1
10
-3.63325534800447
20
-5.98589040730823
30
0
41
1
10
-3.66126131327633
20
-5.99110755847133
30
0
41
1
10
-3.74690742255689
20
-6.00161072749248
30
0
41
1
10
-3.80616730888104
20
-6.00175311287828
30
0
41
1
10
-3.93003130026844
20
-5.98879362328938
30
0
41
1
10
-3.99463230792438
20
-5.97568944250366
30
0
41
1
10
-4.0625666963636
20
-5.95613740339047
30
0
0
SPLINE
5
12A
100
AcDbEntity
8
SK1
62
256
6
ByLayer
370
18
48
1
60
0
100
AcDbSpline
70
4
71
3
72
16
73
12
40
0
40
0
40
0
40
0
40
0.25
40
0.25
40
0.5
40
0.5
40
0.625
40
0.625
40
0.749999999999999
40
0.749999999999999
40
1
40
1
40
1
40
1
41
1
10
-4.06256669636358
20
-5.95613740339047
30
0
41
1
10
-4.07474727341295
20
-5.95263173969991
30
0
41
1
10
-4.08494408406511
20
-5.94885662338825
30
0
41
1
10
-4.10084339822433
20
-5.94070321808695
30
0
41
1
10
-4.10655032835299
20
-5.93632528695437
30
0
41
1
10
-4.11115015474246
20
-5.92924223609194
30
0
41
1
10
-4.11200377912445
20
-5.92681195864213
30
0
41
1
10
-4.11230577238015
20
-5.92186593124987
30
0
41
1
10
-4.11175955457256
20
-5.91934251815326
30
0
41
1
10
-4.10799731330368
20
-5.91162584607042
30
0
41
1
10
-4.10266423316153
20
-5.90628602028366
30
0
41
1
10
-4.094350532281
20
-5.90076480069098
30
0
0
SPLINE
5
12B
100
AcDbEntity
8
SK1
62
256
6
ByLayer
370
18
48
1
60
0
100
AcDbSpline
70
4
71
3
72
47
73
43
40
0
40
0
40
0
40
0
40
0.062500000000011
40
0.062500000000011
40
0.0937500000000153
40
0.0937500000000153
40
0.109375000000019
40
0.109375000000019
40
0.125000000000022
40
0.125000000000022
40
0.187500000000033
40
0.187500000000033
40
0.250000000000044
40
0.250000000000044
40
0.281250000000047
40
0.281250000000047
40
0.31250000000005
40
0.31250000000005
40
0.375000000000057
40
0.375000000000057
40
0.406250000000058
40
0.406250000000058
40
0.437500000000059
40
0.437500000000059
40
0.500000000000056
40
0.500000000000056
40
0.531250000000055
40
0.531250000000055
40
0.562500000000053
40
0.562500000000053
40
0.625000000000046
40
0.625000000000046
40
0.687500000000038
40
0.687500000000038
40
0.718750000000034
40
0.718750000000034
40
0.75000000000003
40
0.812500000000023
40
0.812500000000023
40
0.875000000000015
40
0.875000000000015
40
1
40
1
40
1
40
1
41
1
10
-4.09435053228103
20
-5.90076480069098
30
0
41
1
10
-4.07190939667618
20
-5.88586139733741
30
0
41
1
10
-4.04059031606599
20
-5.87012769690273
30
0
41
1
10
-3.9825459480198
20
-5.84575991962478
30
0
41
1
10
-3.96134170854683
20
-5.8375078541126
30
0
41
1
10
-3.92694653229216
20
-5.82498427594126
30
0
41
1
10
-3.91504951162494
20
-5.82078544398095
30
0
41
1
10
-3.89041873537977
20
-5.81234667554699
30
0
41
1
10
-3.87765366311339
20
-5.80809692219253
30
0
41
1
10
-3.81239201069496
20
-5.78695296768342
30
0
41
1
10
-3.75539467709169
20
-5.77028322356628
30
0
41
1
10
-3.63394971846688
20
-5.73763775379427
30
0
41
1
10
-3.56948352109265
20
-5.7216608730802
30
0
41
1
10
-3.46811401708734
20
-5.69833925017852
30
0
41
1
10
-3.43347248209358
20
-5.6906584079855
30
0
41
1
10
-3.36321509188059
20
-5.67563162493235
30
0
41
1
10
-3.32757258854412
20
-5.66827834092103
30
0
41
1
10
-3.21924117355522
20
-5.64670262412878
30
0
41
1
10
-3.14515529854412
20
-5.6329636354327
30
0
41
1
10
-3.03161443558389
20
-5.61335195256194
30
0
41
1
10
-2.99333221033885
20
-5.60697627141872
30
0
41
1
10
-2.91625954472403
20
-5.59460434435286
30
0
41
1
10
-2.87744832419301
20
-5.5886041251411
30
0
41
1
10
-2.7602399458678
20
-5.57116162689064
30
0
41
1
10
-2.68107071861334
20
-5.56027677742173
30
0
41
1
10
-2.5609125690429
20
-5.54508348792828
30
0
41
1
10
-2.52060278769184
20
-5.54020592079559
30
0
41
1
10
-2.43975836598577
20
-5.53085983150035
30
0
41
1
10
-2.39920023938467
20
-5.52638810419717
30
0
41
1
10
-2.27713393437279
20
-5.51357775869047
30
0
41
1
10
-2.19523479929575
20
-5.50584338278779
30
0
41
1
10
-2.03045056165854
20
-5.49200727746196
30
0
41
1
10
-1.94756522116464
20
-5.48590567343311
30
0
41
1
10
-1.82251894528622
20
-5.47800689241535
30
0
41
1
10
-1.78069151425629
20
-5.47558179175888
30
0
41
1
10
-1.69696006611582
20
-5.47116407187801
30
0
41
1
10
-1.57123555906429
20
-5.46518461727484
30
0
41
1
10
-1.4451339238625
20
-5.46115580526143
30
0
41
1
10
-1.27666535888687
20
-5.45754452159679
30
0
41
1
10
-1.19217910557552
20
-5.45661988389284
30
0
41
1
10
-0.939022312950613
20
-5.45653541643856
30
0
41
1
10
-0.770605721307277
20
-5.46005558943966
30
0
41
1
10
-0.602556495828026
20
-5.4671783154738
30
0
0
SPLINE
5
12C
100
AcDbEntity
8
SK1
62
256
6
ByLayer
370
18
48
1
60
0
100
AcDbSpline
70
4
71
3
72
12
73
8
40
0
40
0
40
0
40
0
40
0.5
40
0.5
40
0.75
40
0.75
40
1
40
1
40
1
40
1
41
1
10
-1.55882475817762
20
-4.9524609448986
30
0
41
1
10
-1.29858623821516
20
-5.05675827034955
30
0
41
1
10
-1.03885511961784
20
-5.15415317911754
30
0
41
1
10
-0.649575690930675
20
-5.28941147538902
30
0
41
1
10
-0.519856209153232
20
-5.33268154521699
30
0
41
1
10
-0.260327579248639
20
-5.4154475424329
30
0
41
1
10
-0.130480670460173
20
-5.4549184922007
30
0
41
1
10
-0.0003988070203604
20
-5.49238515628278
30
0
0
SPLINE
5
12D
100
AcDbEntity
8
SK1
62
256
6
ByLayer
370
18
48
1
60
0
100
AcDbSpline
70
4
71
3
72
8
73
4
40
0
40
0
40
0
40
0
40
1
40
1
40
1
40
1
41
1
10
-1.5588177206285
20
-4.95245522861796
30
0
41
1
10
-1.55346013878119
20
-4.9473855359243
30
0
41
1
10
-1.54796712634283
20
-4.94234642432954
30
0
41
1
10
-1.54234168900041
20
-4.93733775232929
30
0
0
SPLINE
5
12E
100
AcDbEntity
8
1
62
256
6
ByLayer
370
18
48
1
60
0
100
AcDbSpline
70
4
71
1
72
4
73
2
40
0
40
0
40
1
40
1
41
1
10
3.63465828051338
20
-5.9990469940052
30
0
41
1
10
3.63464085519399
20
-5.99904733656729
30
0
0
SPLINE
5
12F
100
AcDbEntity
8
1
62
256
6
ByLayer
370
18
48
1
60
0
100
AcDbSpline
70
4
71
3
72
14
73
10
40
0
40
0
40
0
40
0
40
0.204017560631529
40
0.35133468970771
40
0.443641558490117
40
0.534836343903786
40
0.695209361455185
40
0.906510887853468
40
1
40
1
40
1
40
1
41
1
10
6.98617681159215
20
-5.2765004609164
30
0
41
1
10
7.24660712814887
20
-5.27277389806954
30
0
41
1
10
7.69480674461767
20
-5.26160316587786
30
0
41
1
10
8.2608268672054
20
-5.23700211112436
30
0
41
1
10
8.68176715457224
20
-5.21359367759791
30
0
41
1
10
9.11926836796539
20
-5.18532951909313
30
0
41
1
10
9.71015613538145
20
-5.1390952205889
30
0
41
1
10
10.299519132813
20
-5.08531828028646
30
0
41
1
10
10.6827552512786
20
-5.03979273222672
30
0
41
1
10
10.8000509115433
20
-5.02510550102946
30
0
0
SPLINE
5
130
100
AcDbEntity
8
1
62
256
6
ByLayer
370
18
48
1
60
0
100
AcDbSpline
70
4
71
3
72
16
73
12
40
0
40
0
40
0
40
0
40
0.0616626216192515
40
0.184328936564959
40
0.26502297312374
40
0.333726360933094
40
0.393729428559856
40
0.486023989958897
40
0.620189236192049
40
0.793138928933591
40
1
40
1
40
1
40
1
41
1
10
9.23921937453855
20
3.53827161678001
30
0
41
1
10
9.14566054762872
20
3.56010077339658
30
0
41
1
10
8.86622968283424
20
3.62610432905384
30
0
41
1
10
8.46513457231168
20
3.72554885621761
30
0
41
1
10
8.05525073995719
20
3.82902657072873
30
0
41
1
10
7.74028013359367
20
3.91013712608583
30
0
41
1
10
7.4094714381994
20
3.99630710341199
30
0
41
1
10
6.97771311202052
20
4.11034007040016
30
0
41
1
10
6.379930493844
20
4.27095703112207
30
0
41
1
10
5.60741123770856
20
4.47939195607117
30
0
41
1
10
5.03748565093164
20
4.63437268079068
30
0
41
1
10
4.72699427087065
20
4.71912444613852
30
0
0
SPLINE
5
131
100
AcDbEntity
8
1
62
256
6
ByLayer
370
18
48
1
60
0
100
AcDbSpline
70
4
71
3
72
9
73
5
40
0
40
0
40
0
40
0
40
0.599111917248396
40
1
40
1
40
1
40
1
41
1
10
3.476683705791
20
4.98111196607934
30
0
41
1
10
3.29719827338687
20
5.00773378355311
30
0
41
1
10
2.99731225475651
20
5.04937464528794
30
0
41
1
10
2.69737667119534
20
5.08637608052166
30
0
41
1
10
2.57691434053783
20
5.10045199892315
30
0
0
LINE
5
77
100
AcDbEntity
8
80
62
256
6
ByLayer
370
18
48
1
60
0
100
AcDbLine
10
0
20
0
30
0
11
-5
21
0
31
0
39
0
210
0
220
0
230
1
0
LINE
5
78
100
AcDbEntity
8
4
62
256
6
ByLayer
370
18
48
0.05
60
0
100
AcDbLine
10
0
20
0
30
0
11
12
21
0
31
0
39
0
210
0
220
0
230
1
0
LINE
5
7A
100
AcDbEntity
8
81
62
256
6
ByLayer
370
18
48
1
60
0
100
AcDbLine
10
12
20
0
30
0
11
17
21
0
31
0
39
0
210
0
220
0
230
1
0
LINE
5
7B
100
AcDbEntity
8
SK4
62
256
6
ByLayer
370
18
48
0.05
60
0
100
AcDbLine
10
-61
20
0
30
0
11
12
21
0
31
0
39
0
210
0
220
0
230
1
0
LINE
5
7D
100
AcDbEntity
8
1
62
256
6
ByLayer
370
18
48
1
60
0
100
AcDbLine
10
0
20
2.068658
30
0
11
0
21
2.232043
31
0
39
0
210
0
220
0
230
1
0
LINE
5
7E
100
AcDbEntity
8
1
62
256
6
ByLayer
370
18
48
1
60
0
100
AcDbLine
10
0
20
-3.901562
30
0
11
0
21
-3.646671
31
0
39
0
210
0
220
0
230
1
0
LINE
5
7F
100
AcDbEntity
8
1
62
256
6
ByLayer
370
18
48
1
60
0
100
AcDbLine
10
0
20
-3.646671
30
0
11
0
21
-1.782406
31
0
39
0
210
0
220
0
230
1
0
LINE
5
80
100
AcDbEntity
8
1
62
256
6
ByLayer
370
18
48
1
60
0
100
AcDbLine
10
0
20
-1.782406
30
0
11
0
21
2.068658
31
0
39
0
210
0
220
0
230
1
0
LINE
5
81
100
AcDbEntity
8
1
62
256
6
ByLayer
370
18
48
1
60
0
100
AcDbLine
10
0
20
-4.309205
30
0
11
0
21
-3.901562
31
0
39
0
210
0
220
0
230
1
0
LINE
5
82
100
AcDbEntity
8
1
62
256
6
ByLayer
370
18
48
1
60
0
100
AcDbLine
10
0
20
2.232043
30
0
11
0
21
5.128076
31
0
39
0
210
0
220
0
230
1
0
LINE
5
83
100
AcDbEntity
8
1
62
256
6
ByLayer
370
18
48
1
60
0
100
AcDbLine
10
0
20
5.128076
30
0
11
0
21
5.475729
31
0
39
0
210
0
220
0
230
1
0
LINE
5
84
100
AcDbEntity
8
1
62
256
6
ByLayer
370
18
48
1
60
0
100
AcDbLine
10
11.994964
20
-3.280633
30
0
11
11.867756
21
-4.010854
31
0
39
0
210
0
220
0
230
1
0
LINE
5
85
100
AcDbEntity
8
1
62
256
6
ByLayer
370
18
48
1
60
0
100
AcDbLine
10
11.904107
20
-1.226958
30
0
11
11.916957
21
-1.517425
31
0
39
0
210
0
220
0
230
1
0
LINE
5
86
100
AcDbEntity
8
1
62
256
6
ByLayer
370
18
48
1
60
0
100
AcDbLine
10
11.976956
20
-2.873588
30
0
11
11.994964
21
-3.280633
31
0
39
0
210
0
220
0
230
1
0
LINE
5
87
100
AcDbEntity
8
1
62
256
6
ByLayer
370
18
48
1
60
0
100
AcDbLine
10
11.772605
20
-0.395668
30
0
11
11.83016
21
-0.404291
31
0
39
0
210
0
220
0
230
1
0
LINE
5
88
100
AcDbEntity
8
1
62
256
6
ByLayer
370
18
48
1
60
0
100
AcDbLine
10
11.811347
20
5.981931
30
0
11
11.994964
21
5.800347
31
0
39
0
210
0
220
0
230
1
0
LINE
5
89
100
AcDbEntity
8
1
62
256
6
ByLayer
370
18
48
1
60
0
100
AcDbLine
10
11.83016
20
-0.404291
30
0
11
11.994964
21
5.800347
31
0
39
0
210
0
220
0
230
1
0
LINE
5
8A
100
AcDbEntity
8
1
62
256
6
ByLayer
370
18
48
1
60
0
100
AcDbLine
10
11.867756
20
-4.010854
30
0
11
11.77722
21
-4.220272
31
0
39
0
210
0
220
0
230
1
0
LINE
5
8B
100
AcDbEntity
8
1
62
256
6
ByLayer
370
18
48
1
60
0
100
AcDbLine
10
11.867756
20
-4.010854
30
0
11
11.820714
21
-2.932681
31
0
39
0
210
0
220
0
230
1
0
LINE
5
8C
100
AcDbEntity
8
1
62
256
6
ByLayer
370
18
48
1
60
0
100
AcDbLine
10
10.517331
20
-4.424316
30
0
11
11.437315
21
-2.758845
31
0
39
0
210
0
220
0
230
1
0
LINE
5
8D
100
AcDbEntity
8
1
62
256
6
ByLayer
370
18
48
1
60
0
100
AcDbLine
10
11.899889
20
-1.259041
30
0
11
11.904107
21
-1.226958
31
0
39
0
210
0
220
0
230
1
0
LINE
5
8E
100
AcDbEntity
8
1
62
256
6
ByLayer
370
18
48
1
60
0
100
AcDbLine
10
11.89451
20
-1.220745
30
0
11
11.904107
21
-1.226958
31
0
39
0
210
0
220
0
230
1
0
LINE
5
8F
100
AcDbEntity
8
1
62
256
6
ByLayer
370
13
48
1
60
0
100
AcDbLine
10
9.88729
20
-1.629928
30
0
11
8.447765
21
-2.571938
31
0
39
0
210
0
220
0
230
1
0
LINE
5
90
100
AcDbEntity
8
1
62
256
6
ByLayer
370
18
48
1
60
0
100
AcDbLine
10
11.903511
20
-1.284833
30
0
11
11.994964
21
-2.866798
31
0
39
0
210
0
220
0
230
1
0
LINE
5
91
100
AcDbEntity
8
1
62
256
6
ByLayer
370
18
48
1
60
0
100
AcDbLine
10
11.782111
20
-0.42024
30
0
11
11.903511
21
-1.284833
31
0
39
0
210
0
220
0
230
1
0
LINE
5
92
100
AcDbEntity
8
1
62
256
6
ByLayer
370
18
48
1
60
0
100
AcDbLine
10
11.809533
20
-2.936883
30
0
11
11.994964
21
-2.866798
31
0
39
0
210
0
220
0
230
1
0
LINE
5
93
100
AcDbEntity
8
1
62
256
6
ByLayer
370
18
48
1
60
0
100
AcDbLine
10
11.994964
20
-2.866798
30
0
11
11.867756
21
-1.911076
31
0
39
0
210
0
220
0
230
1
0
LINE
5
94
100
AcDbEntity
8
1
62
256
6
ByLayer
370
18
48
1
60
0
100
AcDbLine
10
11.867756
20
-1.911076
30
0
11
11.773432
21
-1.70554
31
0
39
0
210
0
220
0
230
1
0
LINE
5
95
100
AcDbEntity
8
1
62
256
6
ByLayer
370
18
48
1
60
0
100
AcDbLine
10
11.867756
20
-1.911076
30
0
11
11.782111
21
-0.42024
31
0
39
0
210
0
220
0
230
1
0
LINE
5
96
100
AcDbEntity
8
1
62
256
6
ByLayer
370
18
48
1
60
0
100
AcDbLine
10
10.48495
20
2.932661
30
0
11
11.782111
21
-0.42024
31
0
39
0
210
0
220
0
230
1
0
LINE
5
97
100
AcDbEntity
8
SK1
62
256
6
ByLayer
370
13
48
1
60
0
100
AcDbLine
10
-4.062567
20
-5.956137
30
0
11
-3.78847
21
-5.782023
31
0
39
0
210
0
220
0
230
1
0
LINE
5
99
100
AcDbEntity
8
SK1
62
256
6
ByLayer
370
18
48
1
60
0
100
AcDbLine
10
0
20
5.475729
30
0
11
0
21
5.128076
31
0
39
0
210
0
220
0
230
1
0
LINE
5
9A
100
AcDbEntity
8
SK1
62
256
6
ByLayer
370
18
48
1
60
0
100
AcDbLine
10
0
20
2.232043
30
0
11
0
21
5.128076
31
0
39
0
210
0
220
0
230
1
0
LINE
5
9B
100
AcDbEntity
8
SK1
62
256
6
ByLayer
370
13
48
1
60
0
100
AcDbLine
10
-0.700232
20
5.445385
30
0
11
0
21
5.128076
31
0
39
0
210
0
220
0
230
1
0
LINE
5
9C
100
AcDbEntity
8
SK1
62
256
6
ByLayer
370
18
48
1
60
0
100
AcDbLine
10
0
20
2.068658
30
0
11
0
21
2.232043
31
0
39
0
210
0
220
0
230
1
0
LINE
5
9D
100
AcDbEntity
8
SK1
62
256
6
ByLayer
370
13
48
1
60
0
100
AcDbLine
10
-4.319109
20
4.189237
30
0
11
0
21
2.232043
31
0
39
0
210
0
220
0
230
1
0
LINE
5
9E
100
AcDbEntity
8
SK1
62
256
6
ByLayer
370
18
48
1
60
0
100
AcDbLine
10
0
20
-3.901562
30
0
11
0
21
-4.309205
31
0
39
0
210
0
220
0
230
1
0
LINE
5
9F
100
AcDbEntity
8
SK1
62
256
6
ByLayer
370
13
48
1
60
0
100
AcDbLine
10
-4.567259
20
-1.83192
30
0
11
0
21
-3.901562
31
0
39
0
210
0
220
0
230
1
0
LINE
5
A0
100
AcDbEntity
8
SK1
62
256
6
ByLayer
370
18
48
1
60
0
100
AcDbLine
10
0
20
-3.901562
30
0
11
0
21
-3.646671
31
0
39
0
210
0
220
0
230
1
0
LINE
5
A1
100
AcDbEntity
8
SK1
62
256
6
ByLayer
370
13
48
1
60
0
100
AcDbLine
10
-4.572752
20
-1.574539
30
0
11
0
21
-3.646671
31
0
39
0
210
0
220
0
230
1
0
LINE
5
A2
100
AcDbEntity
8
SK1
62
256
6
ByLayer
370
18
48
1
60
0
100
AcDbLine
10
0
20
-3.646671
30
0
11
0
21
-1.782406
31
0
39
0
210
0
220
0
230
1
0
LINE
5
A3
100
AcDbEntity
8
SK1
62
256
6
ByLayer
370
18
48
1
60
0
100
AcDbLine
10
-3.059796
20
-0.395867
30
0
11
0
21
-1.782406
31
0
39
0
210
0
220
0
230
1
0
LINE
5
A4
100
AcDbEntity
8
SK1
62
256
6
ByLayer
370
18
48
1
60
0
100
AcDbLine
10
0
20
-1.782406
30
0
11
0
21
2.068658
31
0
39
0
210
0
220
0
230
1
0
LINE
5
A5
100
AcDbEntity
8
SK1
62
256
6
ByLayer
370
13
48
1
60
0
100
AcDbLine
10
-4.263132
20
4.000486
30
0
11
0
21
2.068658
31
0
39
0
210
0
220
0
230
1
0
LINE
5
A6
100
AcDbEntity
8
SK1
62
256
6
ByLayer
370
18
48
1
60
0
100
AcDbLine
10
-61
20
-5.2
30
0
11
-61
21
5.2
31
0
39
0
210
0
220
0
230
1
0
LINE
5
A7
100
AcDbEntity
8
SK1
62
256
6
ByLayer
370
18
48
1
60
0
100
AcDbLine
10
-60.2
20
6
30
0
11
-60.2
21
-6
31
0
39
0
210
0
220
0
230
1
0
LINE
5
A8
100
AcDbEntity
8
SK1
62
256
6
ByLayer
370
18
48
1
60
0
100
AcDbLine
10
-42.5
20
4.4
30
0
11
-44.1
21
6
31
0
39
0
210
0
220
0
230
1
0
LINE
5
A9
100
AcDbEntity
8
SK1
62
256
6
ByLayer
370
18
48
1
60
0
100
AcDbLine
10
-34.5
20
4.4
30
0
11
-32.9
21
6
31
0
39
0
210
0
220
0
230
1
0
LINE
5
AA
100
AcDbEntity
8
SK1
62
256
6
ByLayer
370
18
48
1
60
0
100
AcDbLine
10
-42.5
20
4.4
30
0
11
-34.5
21
4.4
31
0
39
0
210
0
220
0
230
1
0
LINE
5
AB
100
AcDbEntity
8
SK1
62
256
6
ByLayer
370
18
48
1
60
0
100
AcDbLine
10
-3.40071
20
-5.888449
30
0
11
-2.94797
21
-5.600854
31
0
39
0
210
0
220
0
230
1
0
LINE
5
AC
100
AcDbEntity
8
SK1
62
256
6
ByLayer
370
18
48
1
60
0
100
AcDbLine
10
-61
20
-5.2
30
0
11
-60.2
21
-6
31
0
39
0
210
0
220
0
230
1
0
LINE
5
AD
100
AcDbEntity
8
SK1
62
256
6
ByLayer
370
18
48
1
60
0
100
AcDbLine
10
-60.2
20
6
30
0
11
-61
21
5.2
31
0
39
0
210
0
220
0
230
1
0
LINE
5
AE
100
AcDbEntity
8
SK1
62
256
6
ByLayer
370
18
48
1
60
0
100
AcDbLine
10
-1.138626
20
6
30
0
11
-32.9
21
6
31
0
39
0
210
0
220
0
230
1
0
LINE
5
AF
100
AcDbEntity
8
SK1
62
256
6
ByLayer
370
18
48
1
60
0
100
AcDbLine
10
-44.1
20
6
30
0
11
-60.2
21
6
31
0
39
0
210
0
220
0
230
1
0
LINE
5
B0
100
AcDbEntity
8
SK1
62
256
6
ByLayer
370
18
48
1
60
0
100
AcDbLine
10
-60.2
20
-6
30
0
11
-3.780977
21
-6
31
0
39
0
210
0
220
0
230
1
0
LINE
5
B1
100
AcDbEntity
8
SK2
62
256
6
ByLayer
370
18
48
1
60
0
100
AcDbLine
10
-68.45
20
6
30
0
11
-68.45
21
-24.056066
31
0
39
0
210
0
220
0
230
1
0
LINE
5
B3
100
AcDbEntity
8
SK2
62
256
6
ByLayer
370
18
48
1
60
0
100
AcDbLine
10
-61.7875
20
6
30
0
11
-70.45
21
6
31
0
39
0
210
0
220
0
230
1
0
LINE
5
B4
100
AcDbEntity
8
SK2
62
256
6
ByLayer
370
18
48
1
60
0
100
AcDbLine
10
-61.7875
20
-6
30
0
11
-70.45
21
-6
31
0
39
0
210
0
220
0
230
1
0
LINE
5
B5
100
AcDbEntity
8
1
62
256
6
ByLayer
370
18
48
1
60
1
100
AcDbLine
10
-68.45
20
6
30
0
11
-67.989216
21
2.500002
31
0
39
0
210
0
220
0
230
1
0
LINE
5
B6
100
AcDbEntity
8
1
62
256
6
ByLayer
370
18
48
1
60
1
100
AcDbLine
10
-67.989216
20
2.500002
30
0
11
-68.910784
21
2.499998
31
0
39
0
210
0
220
0
230
1
0
LINE
5
B7
100
AcDbEntity
8
1
62
256
6
ByLayer
370
18
48
1
60
1
100
AcDbLine
10
-68.910784
20
2.499998
30
0
11
-68.45
21
6
31
0
39
0
210
0
220
0
230
1
0
LINE
5
B8
100
AcDbEntity
8
1
62
256
6
ByLayer
370
18
48
1
60
1
100
AcDbLine
10
-68.45
20
-6
30
0
11
-68.910784
21
-2.500002
31
0
39
0
210
0
220
0
230
1
0
LINE
5
B9
100
AcDbEntity
8
1
62
256
6
ByLayer
370
18
48
1
60
1
100
AcDbLine
10
-68.910784
20
-2.500002
30
0
11
-67.989216
21
-2.499998
31
0
39
0
210
0
220
0
230
1
0
LINE
5
BA
100
AcDbEntity
8
1
62
256
6
ByLayer
370
18
48
1
60
1
100
AcDbLine
10
-67.989216
20
-2.499998
30
0
11
-68.45
21
-6
31
0
39
0
210
0
220
0
230
1
0
LINE
5
BB
100
AcDbEntity
8
2
62
256
6
ByLayer
370
18
48
1
60
0
100
AcDbLine
10
24
20
-6.0001
30
0
11
24
21
24.056166
31
0
39
0
210
0
220
0
230
1
0
LINE
5
BD
100
AcDbEntity
8
2
62
256
6
ByLayer
370
18
48
1
60
0
100
AcDbLine
10
13.5875
20
6.0001
30
0
11
26
21
6.0001
31
0
39
0
210
0
220
0
230
1
0
LINE
5
BE
100
AcDbEntity
8
2
62
256
6
ByLayer
370
18
48
1
60
0
100
AcDbLine
10
13.5875
20
-6.0001
30
0
11
26
21
-6.0001
31
0
39
0
210
0
220
0
230
1
0
LINE
5
BF
100
AcDbEntity
8
1
62
256
6
ByLayer
370
18
48
1
60
1
100
AcDbLine
10
24
20
6.0001
30
0
11
24.460784
21
2.500102
31
0
39
0
210
0
220
0
230
1
0
LINE
5
C0
100
AcDbEntity
8
1
62
256
6
ByLayer
370
18
48
1
60
1
100
AcDbLine
10
24.460784
20
2.500102
30
0
11
23.539216
21
2.500098
31
0
39
0
210
0
220
0
230
1
0
LINE
5
C1
100
AcDbEntity
8
1
62
256
6
ByLayer
370
18
48
1
60
1
100
AcDbLine
10
23.539216
20
2.500098
30
0
11
24
21
6.0001
31
0
39
0
210
0
220
0
230
1
0
LINE
5
C2
100
AcDbEntity
8
1
62
256
6
ByLayer
370
18
48
1
60
1
100
AcDbLine
10
24
20
-6.0001
30
0
11
23.539216
21
-2.500102
31
0
39
0
210
0
220
0
230
1
0
LINE
5
C3
100
AcDbEntity
8
1
62
256
6
ByLayer
370
18
48
1
60
1
100
AcDbLine
10
23.539216
20
-2.500102
30
0
11
24.460784
21
-2.500098
31
0
39
0
210
0
220
0
230
1
0
LINE
5
C4
100
AcDbEntity
8
1
62
256
6
ByLayer
370
18
48
1
60
1
100
AcDbLine
10
24.460784
20
-2.500098
30
0
11
24
21
-6.0001
31
0
39
0
210
0
220
0
230
1
0
LINE
5
C5
100
AcDbEntity
8
2
62
256
6
ByLayer
370
18
48
1
60
0
100
AcDbLine
10
12
20
-36.998573
30
0
11
-61
21
-36.998573
31
0
39
0
210
0
220
0
230
1
0
LINE
5
C6
100
AcDbEntity
8
2
62
256
6
ByLayer
370
18
48
1
60
0
100
AcDbLine
10
-61
20
-6.7875
30
0
11
-61
21
-38.998573
31
0
39
0
210
0
220
0
230
1
0
LINE
5
C7
100
AcDbEntity
8
2
62
256
6
ByLayer
370
18
48
1
60
0
100
AcDbLine
10
12
20
-7.5876
30
0
11
12
21
-38.998573
31
0
39
0
210
0
220
0
230
1
0
LINE
5
C8
100
AcDbEntity
8
1
62
256
6
ByLayer
370
18
48
1
60
1
100
AcDbLine
10
-61
20
-36.998573
30
0
11
-57.500002
21
-36.53779
31
0
39
0
210
0
220
0
230
1
0
LINE
5
C9
100
AcDbEntity
8
1
62
256
6
ByLayer
370
18
48
1
60
1
100
AcDbLine
10
-57.500002
20
-36.53779
30
0
11
-57.499998
21
-37.459357
31
0
39
0
210
0
220
0
230
1
0
LINE
5
CA
100
AcDbEntity
8
1
62
256
6
ByLayer
370
18
48
1
60
1
100
AcDbLine
10
-57.499998
20
-37.459357
30
0
11
-61
21
-36.998573
31
0
39
0
210
0
220
0
230
1
0
LINE
5
CB
100
AcDbEntity
8
1
62
256
6
ByLayer
370
18
48
1
60
1
100
AcDbLine
10
12
20
-36.998573
30
0
11
8.500002
21
-37.459357
31
0
39
0
210
0
220
0
230
1
0
LINE
5
CC
100
AcDbEntity
8
1
62
256
6
ByLayer
370
18
48
1
60
1
100
AcDbLine
10
8.500002
20
-37.459357
30
0
11
8.499998
21
-36.53779
31
0
39
0
210
0
220
0
230
1
0
LINE
5
CD
100
AcDbEntity
8
1
62
256
6
ByLayer
370
18
48
1
60
1
100
AcDbLine
10
8.499998
20
-36.53779
30
0
11
12
21
-36.998573
31
0
39
0
210
0
220
0
230
1
0
LINE
5
136
100
AcDbEntity
8
1
62
256
6
ByLayer
370
18
48
1
60
1
100
AcDbLine
10
-68.45
20
6
30
0
11
-67.989216
21
2.500002
31
0
39
0
210
0
220
0
230
1
0
LINE
5
137
100
AcDbEntity
8
1
62
256
6
ByLayer
370
18
48
1
60
1
100
AcDbLine
10
-67.989216
20
2.500002
30
0
11
-68.910784
21
2.499998
31
0
39
0
210
0
220
0
230
1
0
LINE
5
138
100
AcDbEntity
8
1
62
256
6
ByLayer
370
18
48
1
60
1
100
AcDbLine
10
-68.910784
20
2.499998
30
0
11
-68.45
21
6
31
0
39
0
210
0
220
0
230
1
0
LINE
5
13A
100
AcDbEntity
8
1
62
256
6
ByLayer
370
18
48
1
60
1
100
AcDbLine
10
-68.45
20
-6
30
0
11
-68.910784
21
-2.500002
31
0
39
0
210
0
220
0
230
1
0
LINE
5
13B
100
AcDbEntity
8
1
62
256
6
ByLayer
370
18
48
1
60
1
100
AcDbLine
10
-68.910784
20
-2.500002
30
0
11
-67.989216
21
-2.499998
31
0
39
0
210
0
220
0
230
1
0
LINE
5
13C
100
AcDbEntity
8
1
62
256
6
ByLayer
370
18
48
1
60
1
100
AcDbLine
10
-67.989216
20
-2.499998
30
0
11
-68.45
21
-6
31
0
39
0
210
0
220
0
230
1
0
LINE
5
140
100
AcDbEntity
8
1
62
256
6
ByLayer
370
18
48
1
60
1
100
AcDbLine
10
24
20
6.0001
30
0
11
24.460784
21
2.500102
31
0
39
0
210
0
220
0
230
1
0
LINE
5
141
100
AcDbEntity
8
1
62
256
6
ByLayer
370
18
48
1
60
1
100
AcDbLine
10
24.460784
20
2.500102
30
0
11
23.539216
21
2.500098
31
0
39
0
210
0
220
0
230
1
0
LINE
5
142
100
AcDbEntity
8
1
62
256
6
ByLayer
370
18
48
1
60
1
100
AcDbLine
10
23.539216
20
2.500098
30
0
11
24
21
6.0001
31
0
39
0
210
0
220
0
230
1
0
LINE
5
144
100
AcDbEntity
8
1
62
256
6
ByLayer
370
18
48
1
60
1
100
AcDbLine
10
24
20
-6.0001
30
0
11
23.539216
21
-2.500102
31
0
39
0
210
0
220
0
230
1
0
LINE
5
145
100
AcDbEntity
8
1
62
256
6
ByLayer
370
18
48
1
60
1
100
AcDbLine
10
23.539216
20
-2.500102
30
0
11
24.460784
21
-2.500098
31
0
39
0
210
0
220
0
230
1
0
LINE
5
146
100
AcDbEntity
8
1
62
256
6
ByLayer
370
18
48
1
60
1
100
AcDbLine
10
24.460784
20
-2.500098
30
0
11
24
21
-6.0001
31
0
39
0
210
0
220
0
230
1
0
LINE
5
149
100
AcDbEntity
8
1
62
256
6
ByLayer
370
18
48
1
60
1
100
AcDbLine
10
-61
20
-36.998573
30
0
11
-57.500002
21
-36.53779
31
0
39
0
210
0
220
0
230
1
0
LINE
5
14A
100
AcDbEntity
8
1
62
256
6
ByLayer
370
18
48
1
60
1
100
AcDbLine
10
-57.500002
20
-36.53779
30
0
11
-57.499998
21
-37.459357
31
0
39
0
210
0
220
0
230
1
0
LINE
5
14B
100
AcDbEntity
8
1
62
256
6
ByLayer
370
18
48
1
60
1
100
AcDbLine
10
-57.499998
20
-37.459357
30
0
11
-61
21
-36.998573
31
0
39
0
210
0
220
0
230
1
0
LINE
5
14D
100
AcDbEntity
8
1
62
256
6
ByLayer
370
18
48
1
60
1
100
AcDbLine
10
12
20
-36.998573
30
0
11
8.500002
21
-37.459357
31
0
39
0
210
0
220
0
230
1
0
LINE
5
14E
100
AcDbEntity
8
1
62
256
6
ByLayer
370
18
48
1
60
1
100
AcDbLine
10
8.500002
20
-37.459357
30
0
11
8.499998
21
-36.53779
31
0
39
0
210
0
220
0
230
1
0
LINE
5
14F
100
AcDbEntity
8
1
62
256
6
ByLayer
370
18
48
1
60
1
100
AcDbLine
10
8.499998
20
-36.53779
30
0
11
12
21
-36.998573
31
0
39
0
210
0
220
0
230
1
0
MTEXT
5
132
100
AcDbEntity
8
SK2
62
256
6
ByLayer
370
18
48
1
60
0
100
AcDbMText
10
-70.014634
20
-22.121222
30
0
210
0
220
0
230
1
1
%%c
40
3.5
41
0
44
1.084337
50
90
71
7
72
5
7
iso_b_vert
0
MTEXT
5
135
100
AcDbEntity
8
SK2
62
256
6
ByLayer
370
18
48
1
60
0
100
AcDbMText
10
-70.014634
20
-15.148566
30
0
210
0
220
0
230
1
1
\W0.5321;12
40
3.5
41
0
44
1.084337
50
90
71
7
72
5
7
iso_b_vert
0
MTEXT
5
13E
100
AcDbEntity
8
2
62
256
6
ByLayer
370
18
48
1
60
0
100
AcDbMText
10
22.435366
20
13.934944
30
0
210
0
220
0
230
1
1
%%c
40
3.5
41
0
44
1.084337
50
90
71
7
72
5
7
iso_b_vert
0
MTEXT
5
13F
100
AcDbEntity
8
2
62
256
6
ByLayer
370
18
48
1
60
0
100
AcDbMText
10
22.435366
20
20.9076
30
0
210
0
220
0
230
1
1
\W0.5321;12
40
3.5
41
0
44
1.084337
50
90
71
7
72
5
7
iso_b_vert
0
MTEXT
5
148
100
AcDbEntity
8
2
62
256
6
ByLayer
370
18
48
1
60
0
100
AcDbMText
10
-26.404966
20
-35.96594
30
0
210
0
220
0
230
1
1
\W0.6740;73
40
3.5
41
0
44
1.084337
50
0
71
7
72
5
7
iso_b_vert
0
MTEXT
5
151
100
AcDbEntity
8
SK6
62
256
6
ByLayer
370
18
48
1
60
0
100
AcDbMText
10
-42.988802
20
-62.11957
30
0
210
0
220
0
230
1
1
\W0.7021;1K313-1200-XB 1730
40
3
41
0
44
1.084337
50
0
71
7
72
5
7
iso_b_vert
0
HATCH
5
139
100
AcDbEntity
8
SK2
62
256
6
ByLayer
370
13
48
1
60
0
100
AcDbHatch
10
0
20
0
30
0
210
0
220
0
230
1
2
ANSI31
70
0
71
0
91
1
92
5
93
3
72
1
10
-68.45
20
6
11
-67.9892162584472
21
2.50000169255318
72
1
10
-67.9892162584472
20
2.50000169255318
11
-68.9107837415528
21
2.49999830744682
72
1
10
-68.9107837415528
20
2.49999830744682
11
-68.45
21
6
97
0
75
0
76
1
52
0
41
0.0062
77
0
78
1
53
45
43
0
44
0
45
-0.0139193969876572
46
0.0139193969876572
79
0
47
0
98
1
10
0
20
0
0
HATCH
5
13D
100
AcDbEntity
8
SK2
62
256
6
ByLayer
370
13
48
1
60
0
100
AcDbHatch
10
0
20
0
30
0
210
0
220
0
230
1
2
ANSI31
70
0
71
0
91
1
92
5
93
3
72
1
10
-68.45
20
-6
11
-68.9107837415528
21
-2.50000169255318
72
1
10
-68.9107837415528
20
-2.50000169255318
11
-67.9892162584472
21
-2.49999830744682
72
1
10
-67.9892162584472
20
-2.49999830744682
11
-68.45
21
-6
97
0
75
0
76
1
52
0
41
0.0062
77
0
78
1
53
45
43
0
44
0
45
-0.0139193969876572
46
0.0139193969876572
79
0
47
0
98
1
10
0
20
0
0
HATCH
5
143
100
AcDbEntity
8
2
62
256
6
ByLayer
370
13
48
1
60
0
100
AcDbHatch
10
0
20
0
30
0
210
0
220
0
230
1
2
ANSI31
70
0
71
0
91
1
92
5
93
3
72
1
10
24
20
6.00009999999997
11
24.4607837415528
21
2.50010169255316
72
1
10
24.4607837415528
20
2.50010169255316
11
23.5392162584472
21
2.50009830744679
72
1
10
23.5392162584472
20
2.50009830744679
11
24
21
6.00009999999997
97
0
75
0
76
1
52
0
41
0.0062
77
0
78
1
53
45
43
0
44
0
45
-0.0139193969876572
46
0.0139193969876572
79
0
47
0
98
1
10
0
20
0
0
HATCH
5
147
100
AcDbEntity
8
2
62
256
6
ByLayer
370
13
48
1
60
0
100
AcDbHatch
10
0
20
0
30
0
210
0
220
0
230
1
2
ANSI31
70
0
71
0
91
1
92
5
93
3
72
1
10
24
20
-6.00010000000003
11
23.5392162584472
21
-2.50010169255322
72
1
10
23.5392162584472
20
-2.50010169255322
11
24.4607837415528
21
-2.50009830744685
72
1
10
24.4607837415528
20
-2.50009830744685
11
24
21
-6.00010000000003
97
0
75
0
76
1
52
0
41
0.0062
77
0
78
1
53
45
43
0
44
0
45
-0.0139193969876572
46
0.0139193969876572
79
0
47
0
98
1
10
0
20
0
0
HATCH
5
14C
100
AcDbEntity
8
2
62
256
6
ByLayer
370
13
48
1
60
0
100
AcDbHatch
10
0
20
0
30
0
210
0
220
0
230
1
2
ANSI31
70
0
71
0
91
1
92
5
93
3
72
1
10
-61
20
-36.9985732458866
11
-57.5000016925532
21
-36.5377895043338
72
1
10
-57.5000016925532
20
-36.5377895043338
11
-57.4999983074468
21
-37.4593569874393
72
1
10
-57.4999983074468
20
-37.4593569874393
11
-61
21
-36.9985732458866
97
0
75
0
76
1
52
0
41
0.0062
77
0
78
1
53
45
43
0
44
0
45
-0.0139193969876572
46
0.0139193969876572
79
0
47
0
98
1
10
0
20
0
0
HATCH
5
150
100
AcDbEntity
8
2
62
256
6
ByLayer
370
13
48
1
60
0
100
AcDbHatch
10
0
20
0
30
0
210
0
220
0
230
1
2
ANSI31
70
0
71
0
91
1
92
5
93
3
72
1
10
12
20
-36.9985732458866
11
8.50000169255318
21
-37.4593569874393
72
1
10
8.50000169255318
20
-37.4593569874393
11
8.49999830744682
21
-36.5377895043338
72
1
10
8.49999830744682
20
-36.5377895043338
11
12
21
-36.9985732458866
97
0
75
0
76
1
52
0
41
0.0062
77
0
78
1
53
45
43
0
44
0
45
-0.0139193969876572
46
0.0139193969876572
79
0
47
0
98
1
10
0
20
0
0
DIMENSION
5
154
100
AcDbEntity
8
SK2
62
256
6
ByLayer
370
18
48
1
60
0
100
AcDbDimension
2
_U0
10
0
20
-20.998573
30
0
11
6
21
-20.998573
31
0
70
32
71
1
72
1
41
1
210
0
220
0
230
1
3
Standard
100
AcDbAlignedDimension
13
12
23
-6.0001
33
0
14
0
24
-6.0001
34
0
50
0
100
AcDbRotatedDimension
1001
ACAD
1000
DSTYLE
1002
{
1070
   371
1070
    13
1070
   372
1070
    13
1070
   170
1070
     0
1070
   144
1040
1.0
1070
   277
1070
     2
1070
   284
1070
     8
1070
   278
1070
    46
1070
   146
1040
1.0
1070
   345
1005
16
1070
   347
1005
16
1070
   346
1005
16
1070
   344
1005
0
1070
   343
1005
0
1070
   172
1070
     1
1070
    76
1070
     0
1070
    75
1070
     0
1070
   282
1070
     0
1070
   281
1070
     0
1070
    71
1070
     0
1070
    74
1070
     0
1070
   279
1070
     0
1070
   173
1070
     1
1070
   340
1005
133
1070
   271
1070
     2
1070
   272
1070
     2
1070
    77
1070
     1
1070
    73
1070
     1
1070
   171
1070
     3
1070
   274
1070
     4
1070
   177
1070
     2
1070
   176
1070
     2
1070
   178
1070
     2
1070
    78
1070
     8
1070
    48
1040
-0.1
1070
    41
1040
3.5
1070
   147
1040
1.75
1070
    42
1040
1.5875
1070
    44
1040
2.0
1070
   140
1040
3.5
1002
}
1001
ACAD_DSTYLE_DIM_LINETYPE
1070
   380
1005
16
1001
ACAD_DSTYLE_DIM_EXT1_LINETYPE
1070
   381
1005
16
1001
ACAD_DSTYLE_DIM_EXT2_LINETYPE
1070
   382
1005
16
0
ENDSEC
0
SECTION
2
OBJECTS
0
DICTIONARY
5
1de
330
0
100
AcDbDictionary
280
0
281
1
3
ACAD_GROUP
350
1df
3
ACAD_MLINESTYLE
350
1e0
0
DICTIONARY
5
1df
330
0
100
AcDbDictionary
280
0
281
1
0
DICTIONARY
5
1e0
330
0
100
AcDbDictionary
280
0
281
1
3
Standard
350
18
0
MLINESTYLE
5
18
330
1e0
100
AcDbMlineStyle
2
Standard
70
0
3

62
256
51
90
52
90
71
2
49
-0.5
62
256
6
ByLayer
49
0.5
62
256
6
ByLayer
0
RASTERVARIABLES
5
1cc
330

100
AcDbRasterVariables
90
0
70
1
71
1
72
1
0
ENDSEC
0
EOF
