0
SECTION
2
HEADER
9
$ACADVER
1
AC1015
9
$DWGCODEPAGE
3
ANSI_1252
9
$HANDSEED
5
20f
9
$ANGBASE
50
0
9
$ANGDIR
70
0
9
$ATTMODE
70
1
9
$AUNITS
70
0
9
$AUPREC
70
0
9
$CECOLOR
62
256
9
$CELTSCALE
40
1
9
$CELTYPE
6
ByLayer
9
$CELWEIGHT
370
18
9
$CLAYER
8
0
9
$CMLJUST
70
0
9
$CMLSCALE
40
1
9
$CMLSTYLE
2
Standard
9
$DIMSTYLE
2
Standard
9
$TEXTSIZE
40
0.2
9
$TEXTSTYLE
7
Standard
9
$LUNITS
70
2
9
$LUPREC
70
4
9
$EXTNAMES
290
1
9
$INSUNITS
70
4
9
$LTSCALE
40
1
9
$LWDISPLAY
290
1
9
$PDMODE
70
0
9
$PDSIZE
40
0
9
$PLINEGEN
70
0
0
ENDSEC
0
SECTION
2
CLASSES
0
CLASS
1
RASTERVARIABLES
2
AcDbRasterVariables
3
ISM
90
0
280
0
281
0
0
ENDSEC
0
SECTION
2
TABLES
0
TABLE
2
VPORT
5
205
100
AcDbSymbolTable
0
VPORT
5
1
100
AcDbSymbolTableRecord
100
AcDbViewportTableRecord
2
*Active
70
0
10
0
20
0
11
1
21
1
12
-1
22
1
13
0
23
0
14
0.5
24
0.5
15
10
25
10
16
0
26
0
36
1
17
0
27
0
37
0
0
ENDTAB
0
TABLE
2
LTYPE
5
206
100
AcDbSymbolTable
0
LTYPE
5
14
100
AcDbSymbolTableRecord
100
AcDbLinetypeTableRecord
70
0
2
ByBlock
3

72
65
73
0
40
0
0
LTYPE
5
15
100
AcDbSymbolTableRecord
100
AcDbLinetypeTableRecord
70
0
2
ByLayer
3

72
65
73
0
40
0
0
LTYPE
5
16
100
AcDbSymbolTableRecord
100
AcDbLinetypeTableRecord
70
0
2
Continuous
3
Solid line
72
65
73
0
40
0
0
LTYPE
5
6E
100
AcDbSymbolTableRecord
100
AcDbLinetypeTableRecord
70
0
2
CENTER
3
____ _ ____ _ ____ _ ____
72
65
73
4
40
47.5
49
22
74
0
49
-8.5
74
0
49
8.5
74
0
49
-8.5
74
0
0
LTYPE
5
6F
100
AcDbSymbolTableRecord
100
AcDbLinetypeTableRecord
70
0
2
DASHED
3
__ __ __ __ __ __ __ __ __
72
65
73
2
40
25.72
49
12.86
74
0
49
-12.86
74
0
0
ENDTAB
0
TABLE
2
LAYER
5
207
100
AcDbSymbolTable
0
LAYER
5
10
100
AcDbSymbolTableRecord
100
AcDbLayerTableRecord
2
0
70
0
62
7
6
Continuous
290
1
370
-3
390
0
0
LAYER
5
71
100
AcDbSymbolTableRecord
100
AcDbLayerTableRecord
2
81
70
0
62
-3
6
Continuous
290
1
370
-3
390
0
0
LAYER
5
73
100
AcDbSymbolTableRecord
100
AcDbLayerTableRecord
2
80
70
0
62
-6
6
Continuous
290
1
370
-3
390
0
0
LAYER
5
75
100
AcDbSymbolTableRecord
100
AcDbLayerTableRecord
2
1
70
0
62
4
6
Continuous
290
1
370
-3
390
0
0
LAYER
5
79
100
AcDbSymbolTableRecord
100
AcDbLayerTableRecord
2
4
70
0
62
-2
6
CENTER
290
1
370
-3
390
0
0
LAYER
5
C3
100
AcDbSymbolTableRecord
100
AcDbLayerTableRecord
2
2
70
0
62
7
6
Continuous
290
1
370
-3
390
0
0
LAYER
5
17B
100
AcDbSymbolTableRecord
100
AcDbLayerTableRecord
2
Defpoints
70
0
62
7
6
Continuous
290
0
370
-3
390
0
0
LAYER
5
1f1
100
AcDbSymbolTableRecord
100
AcDbLayerTableRecord
2
SK4
70
0
62
2
6
CENTER
290
1
370
-3
390
0
0
LAYER
5
1f2
100
AcDbSymbolTableRecord
100
AcDbLayerTableRecord
2
SK1
70
0
62
4
6
Continuous
290
1
370
-3
390
0
0
LAYER
5
1f3
100
AcDbSymbolTableRecord
100
AcDbLayerTableRecord
2
SK2
70
0
62
7
6
Continuous
290
1
370
-3
390
0
0
LAYER
5
1f4
100
AcDbSymbolTableRecord
100
AcDbLayerTableRecord
2
SK6
70
0
62
5
6
Continuous
290
1
370
-3
390
0
0
ENDTAB
0
TABLE
2
STYLE
5
208
100
AcDbSymbolTable
0
STYLE
5
11
100
AcDbSymbolTableRecord
100
AcDbTextStyleTableRecord
2
Standard
3
txt
70
0
71
0
40
0
41
1
42
0
50
0
0
STYLE
5
157
100
AcDbSymbolTableRecord
100
AcDbTextStyleTableRecord
2
iso_b_vert
3
simplex.shx
70
0
71
0
40
0
41
1
42
0
50
0
0
STYLE
5
158
100
AcDbSymbolTableRecord
100
AcDbTextStyleTableRecord
2
DWGDirectTextStyle
3
simplex
70
0
71
0
40
0
41
1
42
0
50
0
0
ENDTAB
0
TABLE
2
DIMSTYLE
5
209
100
AcDbSymbolTable
100
AcDbDimStyleTable
0
DIMSTYLE
105
27
100
AcDbSymbolTableRecord
100
AcDbDimStyleTableRecord
2
Standard
70
0
3
<>
41
0.18
42
0.0625
44
0.18
140
0.18
147
0.09
73
0
74
0
77
1
271
2
275
0
278
52
280
0
340
11
0
ENDTAB
0
TABLE
2
VIEW
5
20a
100
AcDbSymbolTable
0
ENDTAB
0
TABLE
2
UCS
5
20b
100
AcDbSymbolTable
0
ENDTAB
0
TABLE
2
APPID
5
20c
100
AcDbSymbolTable
0
APPID
5
12
100
AcDbSymbolTableRecord
100
AcDbRegAppTableRecord
2
ACAD
70
0
0
APPID
5
177
100
AcDbSymbolTableRecord
100
AcDbRegAppTableRecord
2
ACAD_DSTYLE_DIMBREAK
70
0
0
APPID
5
1B0
100
AcDbSymbolTableRecord
100
AcDbRegAppTableRecord
2
ACAD_DSTYLE_DIM_LINETYPE
70
0
0
APPID
5
1B1
100
AcDbSymbolTableRecord
100
AcDbRegAppTableRecord
2
ACAD_DSTYLE_DIM_EXT1_LINETYPE
70
0
0
APPID
5
1B2
100
AcDbSymbolTableRecord
100
AcDbRegAppTableRecord
2
ACAD_DSTYLE_DIM_EXT2_LINETYPE
70
0
0
APPID
5
1ED
100
AcDbSymbolTableRecord
100
AcDbRegAppTableRecord
2
ACAD_MLEADERVER
70
0
0
ENDTAB
0
TABLE
2
BLOCK_RECORD
5
20d
100
AcDbSymbolTable
0
BLOCK_RECORD
5
1F
100
AcDbSymbolTableRecord
100
AcDbBlockTableRecord
2
*Model_Space
340
0
70
0
0
BLOCK_RECORD
5
1B
100
AcDbSymbolTableRecord
100
AcDbBlockTableRecord
2
*Paper_Space
340
0
70
0
0
BLOCK_RECORD
5
23
100
AcDbSymbolTableRecord
100
AcDbBlockTableRecord
2
*Paper_Space0
340
0
70
0
0
BLOCK_RECORD
5
17C
100
AcDbSymbolTableRecord
100
AcDbBlockTableRecord
2
*D1
340
0
70
0
0
BLOCK_RECORD
5
189
100
AcDbSymbolTableRecord
100
AcDbBlockTableRecord
2
_U0
340
0
70
0
0
ENDTAB
0
ENDSEC
0
SECTION
2
BLOCKS
0
BLOCK
5
20
100
AcDbEntity
8
0
100
AcDbBlockBegin
2
*Model_Space
70
0
10
0
20
0
30
0
3
*Model_Space
0
ENDBLK
5
21
100
AcDbEntity
8
0
100
AcDbBlockEnd
0
BLOCK
5
1C
100
AcDbEntity
8
0
100
AcDbBlockBegin
2
*Paper_Space
70
0
10
0
20
0
30
0
3
*Paper_Space
0
ENDBLK
5
1D
100
AcDbEntity
8
0
100
AcDbBlockEnd
0
BLOCK
5
24
100
AcDbEntity
8
0
100
AcDbBlockBegin
2
*Paper_Space0
70
0
10
0
20
0
30
0
3
*Paper_Space0
0
ENDBLK
5
25
100
AcDbEntity
8
0
100
AcDbBlockEnd
0
BLOCK
5
17D
100
AcDbEntity
8
0
100
AcDbBlockBegin
2
*D1
70
1
10
0
20
0
30
0
3
*D1
0
LINE
5
17F
100
AcDbEntity
8
0
62
256
6
ByLayer
370
-2
48
1
60
0
100
AcDbLine
10
10.230078
20
-6.4376
30
0
11
10.230078
21
-21.673271
31
0
39
0
210
0
220
0
230
1
0
LINE
5
180
100
AcDbEntity
8
0
62
256
6
ByLayer
370
-2
48
1
60
0
100
AcDbLine
10
0.530078
20
-6.4376
30
0
11
0.530078
21
-21.673271
31
0
39
0
210
0
220
0
230
1
0
LINE
5
181
100
AcDbEntity
8
0
62
256
6
ByLayer
370
-2
48
1
60
0
100
AcDbLine
10
13.730078
20
-19.673271
30
0
11
17.230078
21
-19.673271
31
0
39
0
210
0
220
0
230
1
0
LINE
5
182
100
AcDbEntity
8
0
62
256
6
ByLayer
370
-2
48
1
60
0
100
AcDbLine
10
-2.969922
20
-19.673271
30
0
11
-6.469922
21
-19.673271
31
0
39
0
210
0
220
0
230
1
0
SOLID
5
183
100
AcDbEntity
8
0
62
256
6
ByLayer
370
-1
48
1
60
0
100
AcDbTrace
10
13.730078
20
-19.089938
30
0
11
13.730078
21
-20.256604
31
0
12
10.230078
22
-19.673271
32
0
13
10.230078
23
-19.673271
33
0
39
0
210
0
220
0
230
1
0
SOLID
5
184
100
AcDbEntity
8
0
62
256
6
ByLayer
370
-1
48
1
60
0
100
AcDbTrace
10
-2.969922
20
-20.256604
30
0
11
-2.969922
21
-19.089938
31
0
12
0.530078
22
-19.673271
32
0
13
0.530078
23
-19.673271
33
0
39
0
210
0
220
0
230
1
0
MTEXT
5
185
100
AcDbEntity
8
0
62
256
6
ByLayer
370
18
48
1
60
0
100
AcDbMText
10
5.380078
20
-12.673271
30
0
210
0
220
0
230
1
1
\A1;9.7
40
3.5
41
0
44
1
50
0
71
5
72
5
7
iso_b_vert
0
POINT
5
186
100
AcDbEntity
8
Defpoints
62
0
6
ByLayer
370
-1
48
1
60
0
100
AcDbPoint
10
10.230078
20
-4.8501
30
0
39
0
210
0
220
0
230
1
50
360
0
POINT
5
187
100
AcDbEntity
8
Defpoints
62
0
6
ByLayer
370
-1
48
1
60
0
100
AcDbPoint
10
0.530078
20
-4.8501
30
0
39
0
210
0
220
0
230
1
50
360
0
POINT
5
188
100
AcDbEntity
8
Defpoints
62
0
6
ByLayer
370
-1
48
1
60
0
100
AcDbPoint
10
0.530078
20
-19.673271
30
0
39
0
210
0
220
0
230
1
50
360
0
ENDBLK
5
17E
100
AcDbEntity
8
0
100
AcDbBlockEnd
0
BLOCK
5
190
100
AcDbEntity
8
0
100
AcDbBlockBegin
2
_U0
70
0
10
0
20
0
30
0
3
_U0
0
MTEXT
5
18A
100
AcDbEntity
8
SK2
62
256
6
ByLayer
370
18
48
1
60
0
100
AcDbMText
10
2.766112
20
-18.640637
30
0
210
0
220
0
230
1
1
\W0.7121;9.7
40
3.5
41
0
44
1.084337
50
0
71
7
72
5
7
iso_b_vert
0
LINE
5
18B
100
AcDbEntity
8
SK2
62
256
6
ByLayer
370
13
48
1
60
0
100
AcDbLine
10
10.230078
20
-6.4376
30
0
11
10.230078
21
-21.673271
31
0
39
0
210
0
220
0
230
1
0
LINE
5
18C
100
AcDbEntity
8
SK2
62
256
6
ByLayer
370
13
48
1
60
0
100
AcDbLine
10
0.530078
20
-6.4376
30
0
11
0.530078
21
-21.673271
31
0
39
0
210
0
220
0
230
1
0
LINE
5
18D
100
AcDbEntity
8
SK2
62
256
6
ByLayer
370
13
48
1
60
0
100
AcDbLine
10
10.230078
20
-19.673271
30
0
11
0.530078
21
-19.673271
31
0
39
0
210
0
220
0
230
1
0
SOLID
5
18E
100
AcDbEntity
8
SK2
62
256
6
ByLayer
370
18
48
1
60
0
100
AcDbTrace
10
10.230078
20
-19.673271
30
0
11
6.73008
21
-20.134055
31
0
12
6.730076
22
-19.212487
32
0
13
6.730076
23
-19.212487
33
0
39
0
210
0
220
0
230
1
0
SOLID
5
18F
100
AcDbEntity
8
SK2
62
256
6
ByLayer
370
18
48
1
60
0
100
AcDbTrace
10
0.530078
20
-19.673271
30
0
11
4.030076
21
-19.212487
31
0
12
4.03008
22
-20.134055
32
0
13
4.03008
23
-20.134055
33
0
39
0
210
0
220
0
230
1
0
ENDBLK
5
191
100
AcDbEntity
8
0
100
AcDbBlockEnd
0
ENDSEC
0
SECTION
2
ENTITIES
0
ELLIPSE
5
D5
100
AcDbEntity
8
SK1
62
256
6
ByLayer
370
18
48
1
60
0
100
AcDbEllipse
10
5.330771
20
0
30
0
11
9.88183503213177
21
-1.16084506396013
31
0
210
0
220
0
230
1
40
0.492153
41
-2.65581157952801
42
-2.18581652700542
0
POINT
5
70
100
AcDbEntity
8
81
62
256
6
ByLayer
370
18
48
1
60
0
100
AcDbPoint
10
10.230078
20
0
30
0
39
0
210
0
220
0
230
1
50
360
0
POINT
5
72
100
AcDbEntity
8
80
62
256
6
ByLayer
370
18
48
1
60
0
100
AcDbPoint
10
0
20
0
30
0
39
0
210
0
220
0
230
1
50
360
0
POINT
5
74
100
AcDbEntity
8
1
62
256
6
ByLayer
370
18
48
1
60
1
100
AcDbPoint
10
10.230078
20
-4.8501
30
0
39
0
210
0
220
0
230
1
50
360
0
POINT
5
76
100
AcDbEntity
8
1
62
256
6
ByLayer
370
18
48
1
60
1
100
AcDbPoint
10
0.530078
20
-4.8501
30
0
39
0
210
0
220
0
230
1
50
360
0
SPLINE
5
D6
100
AcDbEntity
8
1
62
256
6
ByLayer
370
18
48
1
60
0
100
AcDbSpline
70
4
71
3
72
39
73
35
40
0
40
0
40
0
40
0
40
0.124999999999999
40
0.124999999999999
40
0.156249999999999
40
0.156249999999999
40
0.187499999999999
40
0.249999999999999
40
0.249999999999999
40
0.281249999999999
40
0.281249999999999
40
0.312499999999999
40
0.374999999999998
40
0.374999999999998
40
0.406249999999998
40
0.406249999999998
40
0.437499999999998
40
0.499999999999997
40
0.499999999999997
40
0.531249999999998
40
0.531249999999998
40
0.562499999999998
40
0.624999999999998
40
0.624999999999998
40
0.687499999999999
40
0.687499999999999
40
0.749999999999999
40
0.749999999999999
40
0.781249999999999
40
0.781249999999999
40
0.8125
40
0.875
40
0.875
40
1
40
1
40
1
40
1
41
1
10
2.84E-14
20
2.04482183486891
30
0
41
1
10
0
20
2.12284355958059
30
0
41
1
10
0
20
2.20625205248243
30
0
41
1
10
2.84E-14
20
2.31722414888699
30
0
41
1
10
2.84E-14
20
2.33975327862174
30
0
41
1
10
2.84E-14
20
2.38526943278845
30
0
41
1
10
0
20
2.45431123809544
30
0
41
1
10
0
20
2.52564147223586
30
0
41
1
10
0
20
2.59850849905106
30
0
41
1
10
2.84E-14
20
2.62304434010247
30
0
41
1
10
2.84E-14
20
2.67240240950733
30
0
41
1
10
2.84E-14
20
2.74695191417106
30
0
41
1
10
2.84E-14
20
2.82302933121568
30
0
41
1
10
2.84E-14
20
2.90013315961122
30
0
41
1
10
2.84E-14
20
2.92598830390338
30
0
41
1
10
2.84E-14
20
2.97780480018849
30
0
41
1
10
2.84E-14
20
3.05577275146399
30
0
41
1
10
2.84E-14
20
3.13446603392896
30
0
41
1
10
2.84E-14
20
3.21364673769975
30
0
41
1
10
2.84E-14
20
3.24009583903449
30
0
41
1
10
2.84E-14
20
3.29291859466986
30
0
41
1
10
2.84E-14
20
3.37212014579814
30
0
41
1
10
2.84E-14
20
3.45122450856027
30
0
41
1
10
2.84E-14
20
3.55660988257279
30
0
41
1
10
5.68E-14
20
3.60901567334335
30
0
41
1
10
2.84E-14
20
3.71289590261219
30
0
41
1
10
0
20
3.7644285340927
30
0
41
1
10
2.84E-14
20
3.84111086532681
30
0
41
1
10
2.84E-14
20
3.86650637076141
30
0
41
1
10
2.84E-14
20
3.9167703097427
30
0
41
1
10
0
20
3.99146856811612
30
0
41
1
10
2.84E-14
20
4.06410586749951
30
0
41
1
10
2.84E-14
20
4.20666329801196
30
0
41
1
10
2.84E-14
20
4.29809829065405
30
0
41
1
10
2.84E-14
20
4.38578222035957
30
0
0
SPLINE
5
D7
100
AcDbEntity
8
1
62
256
6
ByLayer
370
18
48
1
60
0
100
AcDbSpline
70
4
71
3
72
9
73
5
40
0
40
0
40
0
40
0
40
0.5
40
1
40
1
40
1
40
1
41
1
10
2.84E-14
20
1.91270221092822
30
0
41
1
10
0
20
1.930796630309
30
0
41
1
10
0
20
1.97097246220105
30
0
41
1
10
2.84E-14
20
2.0188763796024
30
0
41
1
10
2.84E-14
20
2.04482183486849
30
0
0
SPLINE
5
D8
100
AcDbEntity
8
1
62
256
6
ByLayer
370
18
48
1
60
0
100
AcDbSpline
70
4
71
3
72
12
73
8
40
0
40
0
40
0
40
0
40
0.250874425952749
40
0.250874425952749
40
0.501748851908426
40
0.501748851908426
40
1
40
1
40
1
40
1
41
1
10
1.6769E-12
20
-4.02957176021027
30
0
41
1
10
1.6769E-12
20
-4.04839357844153
30
0
41
1
10
0
20
-4.0672155264366
30
0
41
1
10
0
20
-4.1048596819509
30
0
41
1
10
0
20
-4.12368188947073
30
0
41
1
10
0
20
-4.17988647934274
30
0
41
1
10
0
20
-4.21726924377003
30
0
41
1
10
0
20
-4.25465252002221
30
0
0
SPLINE
5
D9
100
AcDbEntity
8
1
62
256
6
ByLayer
370
18
48
1
60
0
100
AcDbSpline
70
4
71
3
72
10
73
6
40
0
40
0
40
0
40
0
40
0.688895148631681
40
0.688895148631681
40
1
40
1
40
1
40
1
41
1
10
2.5011E-12
20
-4.25465252002394
30
0
41
1
10
2.5011E-12
20
-4.29591078538283
30
0
41
1
10
0
20
-4.3371700432279
30
0
41
1
10
0
20
-4.39706341072957
30
0
41
1
10
0
20
-4.41569673033041
30
0
41
1
10
0
20
-4.43433025233512
30
0
0
SPLINE
5
DA
100
AcDbEntity
8
1
62
256
6
ByLayer
370
18
48
1
60
0
100
AcDbSpline
70
4
71
3
72
14
73
10
40
0
40
0
40
0
40
0
40
0.130563283248791
40
0.263256188217521
40
0.528641998154982
40
0.661334903123711
40
0.794027808092441
40
0.926720713061172
40
1
40
1
40
1
40
1
41
1
10
2.3874E-12
20
-4.25465252002303
30
0
41
1
10
0.15113308364306
20
-4.30639014003603
30
0
41
1
10
0.455903464179926
20
-4.40436214220594
30
0
41
1
10
1.06807172780478
20
-4.57439043695092
30
0
41
1
10
1.68291320848263
20
-4.70355926161017
30
0
41
1
10
2.29789718276541
20
-4.78923803369554
30
0
41
1
10
2.75919155780741
20
-4.83135998563426
30
0
41
1
10
3.15165508103314
20
-4.84839881992136
30
0
41
1
10
3.39036246359527
20
-4.84982471471992
30
0
41
1
10
3.47528714728969
20
-4.84919822675562
30
0
0
SPLINE
5
DB
100
AcDbEntity
8
1
62
256
6
ByLayer
370
18
48
1
60
0
100
AcDbSpline
70
4
71
3
72
8
73
4
40
0
40
0
40
0
40
0
40
1
40
1
40
1
40
1
41
1
10
0
20
-4.43433025233512
30
0
41
1
10
0.0065654847339829
20
-4.43424772818477
30
0
41
1
10
0.0131308111418207
20
-4.43417751445216
30
0
41
1
10
0.019695963031495
20
-4.43411956801356
30
0
0
SPLINE
5
DC
100
AcDbEntity
8
1
62
256
6
ByLayer
370
18
48
1
60
0
100
AcDbSpline
70
4
71
3
72
16
73
12
40
0
40
0
40
0
40
0
40
0.125000000000002
40
0.125000000000002
40
0.250000000000004
40
0.250000000000004
40
0.500000000000003
40
0.500000000000003
40
0.750000000000001
40
0.750000000000001
40
1
40
1
40
1
40
1
41
1
10
0
20
-2.91194829464868
30
0
41
1
10
0
20
-2.90280634706309
30
0
41
1
10
0
20
-2.89361837825618
30
0
41
1
10
0
20
-2.87515143660303
30
0
41
1
10
0
20
-2.86584380990098
30
0
41
1
10
0
20
-2.83810311362836
30
0
41
1
10
0
20
-2.8197031343523
30
0
41
1
10
2.84E-14
20
-2.78413192953849
30
0
41
1
10
0
20
-2.76692582547378
30
0
41
1
10
0
20
-2.73455836928991
30
0
41
1
10
0
20
-2.71960546118112
30
0
41
1
10
0
20
-2.70588692330929
30
0
0
SPLINE
5
DD
100
AcDbEntity
8
1
62
256
6
ByLayer
370
18
48
1
60
0
100
AcDbSpline
70
4
71
3
72
10
73
6
40
0
40
0
40
0
40
0
40
0.475697423034937
40
0.475697423034937
40
1
40
1
40
1
40
1
41
1
10
0
20
-3.26396599047101
30
0
41
1
10
0
20
-3.38535925116909
30
0
41
1
10
0
20
-3.5067551932857
30
0
41
1
10
0
20
-3.76195654069991
30
0
41
1
10
0
20
-3.89576252199697
30
0
41
1
10
0
20
-4.02957176020897
30
0
0
SPLINE
5
DE
100
AcDbEntity
8
1
62
256
6
ByLayer
370
18
48
1
60
0
100
AcDbSpline
70
4
71
3
72
18
73
14
40
0
40
0
40
0
40
0
40
0.0792982807066269
40
0.159914303487418
40
0.321146349049
40
0.40176237182979
40
0.482378394610581
40
0.562994417391372
40
0.643610440172163
40
0.724226462952954
40
0.804842485733745
40
0.966074531295326
40
1
40
1
40
1
40
1
41
1
10
1.7906E-12
20
-4.02957176020968
30
0
41
1
10
0.15108767211953
20
-4.08812924405294
30
0
41
1
10
0.455815643547254
20
-4.2002667733959
30
0
41
1
10
1.06795284761466
20
-4.39988500076248
30
0
41
1
10
1.68278375282932
20
-4.56022759742021
30
0
41
1
10
2.29775594196883
20
-4.6787370626206
30
0
41
1
10
2.75906227742971
20
-4.7457889169666
30
0
41
1
10
3.22037705453985
20
-4.79105396325682
30
0
41
1
10
3.68173415397882
20
-4.81439598711191
30
0
41
1
10
4.14302152402681
20
-4.8158930832702
30
0
41
1
10
4.75813927748874
20
-4.78782999816269
30
0
41
1
10
5.28466889258081
20
-4.72588433868401
30
0
41
1
10
5.65800524401709
20
-4.66085674478646
30
0
41
1
10
5.72292970669162
20
-4.6489154244577
30
0
0
SPLINE
5
DF
100
AcDbEntity
8
1
62
256
6
ByLayer
370
18
48
1
60
0
100
AcDbSpline
70
4
71
3
72
33
73
29
40
0
40
0
40
0
40
0
40
0.125
40
0.125
40
0.15625
40
0.15625
40
0.1875
40
0.1875
40
0.25
40
0.3125
40
0.3125
40
0.34375
40
0.34375
40
0.375
40
0.4375
40
0.4375
40
0.5
40
0.5
40
0.625
40
0.625
40
0.75
40
0.75
40
0.78125
40
0.78125
40
0.8125
40
0.875
40
0.875
40
1
40
1
40
1
40
1
41
1
10
0
20
-1.19866103209526
30
0
41
1
10
0
20
-1.04429939788028
30
0
41
1
10
0
20
-0.8902727724643
30
0
41
1
10
0
20
-0.698154475053286
30
0
41
1
10
0
20
-0.659751655402147
30
0
41
1
10
0
20
-0.582987965649551
30
0
41
1
10
0
20
-0.544635762073654
30
0
41
1
10
0
20
-0.43009466050151
30
0
41
1
10
0
20
-0.27844594686124
30
0
41
1
10
0
20
-0.128931730819545
30
0
41
1
10
0
20
-0.0176035832461139
30
0
41
1
10
2.84E-14
20
0.0193299154475142
30
0
41
1
10
0
20
0.0926640376796968
30
0
41
1
10
0
20
0.201947923908989
30
0
41
1
10
0
20
0.309091153559535
30
0
41
1
10
0
20
0.450041077860533
30
0
41
1
10
0
20
0.519666583730697
30
0
41
1
10
0
20
0.724225708878066
30
0
41
1
10
0
20
0.855275925335604
30
0
41
1
10
2.84E-14
20
1.10637742973512
30
0
41
1
10
0
20
1.22510318887868
30
0
41
1
10
0
20
1.36502354762038
30
0
41
1
10
0
20
1.39260699729763
30
0
41
1
10
0
20
1.44679281140978
30
0
41
1
10
0
20
1.52650020625868
30
0
41
1
10
2.84E-14
20
1.60154732634251
30
0
41
1
10
2.84E-14
20
1.7454886437794
30
0
41
1
10
2.84E-14
20
1.8332744912164
30
0
41
1
10
2.84E-14
20
1.91270221092813
30
0
0
SPLINE
5
E0
100
AcDbEntity
8
1
62
256
6
ByLayer
370
18
48
1
60
0
100
AcDbSpline
70
4
71
3
72
18
73
14
40
0
40
0
40
0
40
0
40
0.25
40
0.25
40
0.5
40
0.5
40
0.5625
40
0.5625
40
0.625
40
0.625
40
0.75
40
0.75
40
1
40
1
40
1
40
1
41
1
10
0
20
-2.70588692330929
30
0
41
1
10
0
20
-2.60132778354702
30
0
41
1
10
0
20
-2.49082181342757
30
0
41
1
10
0
20
-2.25849294451464
30
0
41
1
10
0
20
-2.13666820803414
30
0
41
1
10
0
20
-1.9771452447512
30
0
41
1
10
0
20
-1.94487648851933
30
0
41
1
10
0
20
-1.87959787246649
30
0
41
1
10
0
20
-1.84655195074245
30
0
41
1
10
2.84E-14
20
-1.7470922434479
30
0
41
1
10
0
20
-1.6801134287528
30
0
41
1
10
0
20
-1.47719156673912
30
0
41
1
10
0
20
-1.33927536652123
30
0
41
1
10
0
20
-1.19866103209563
30
0
0
SPLINE
5
E1
100
AcDbEntity
8
1
62
256
6
ByLayer
370
18
48
1
60
0
100
AcDbSpline
70
4
71
3
72
12
73
8
40
0
40
0
40
0
40
0
40
0.25134530182138
40
0.25134530182138
40
0.502690603644444
40
0.502690603644444
40
1
40
1
40
1
40
1
41
1
10
1.1369E-12
20
4.67508078192233
30
0
41
1
10
1.1369E-12
20
4.66912573339476
30
0
41
1
10
2.84E-14
20
4.66317102969836
30
0
41
1
10
2.84E-14
20
4.65126231196351
30
0
41
1
10
2.84E-14
20
4.64530829792443
30
0
41
1
10
2.84E-14
20
4.62757475608157
30
0
41
1
10
2.84E-14
20
4.61579623338059
30
0
41
1
10
2.84E-14
20
4.60401906059411
30
0
0
SPLINE
5
E2
100
AcDbEntity
8
1
62
256
6
ByLayer
370
18
48
1
60
0
100
AcDbSpline
70
4
71
3
72
27
73
23
40
0
40
0
40
0
40
0
40
0.019481478914238
40
0.042841756832643
40
0.089562312669453
40
0.183003424343073
40
0.206363702261478
40
0.229723980179883
40
0.276444536016693
40
0.323165091853503
40
0.369885647690313
40
0.416606203527123
40
0.463326759363933
40
0.556767871037553
40
0.603488426874363
40
0.650208982711173
40
0.696929538547983
40
0.743650094384792
40
0.790370650221602
40
0.837091206058412
40
0.930532317732032
40
1
40
1
40
1
40
1
41
1
10
1.5064E-12
20
4.67508078192247
30
0
41
1
10
0.0635773016464896
20
4.66222224251248
30
0
41
1
10
0.203403605644354
20
4.63201766838685
30
0
41
1
10
0.495783470761751
20
4.56013685215413
30
0
41
1
10
1.02983612577879
20
4.40237911911211
30
0
41
1
10
1.56425229179453
20
4.19377797166081
30
0
41
1
10
2.02253148431851
20
3.98189584165175
30
0
41
1
10
2.32810408234252
20
3.83208149000671
30
0
41
1
10
2.71014057927616
20
3.62868616713612
30
0
41
1
10
3.16858727281817
20
3.36096277212045
30
0
41
1
10
3.62702119322265
20
3.07138987105856
30
0
41
1
10
4.08538796415107
20
2.76204938278957
30
0
41
1
10
4.69658231481091
20
2.32538634145479
30
0
41
1
10
5.30884036974086
20
1.85617513377659
30
0
41
1
10
5.92413514849977
20
1.36187590848169
30
0
41
1
10
6.38749781652643
20
0.980425933889734
30
0
41
1
10
6.85331057838397
20
0.590451581158447
30
0
41
1
10
7.32218426247701
20
0.194055650965368
30
0
41
1
10
7.79469778415393
20
-0.206811896492155
30
0
41
1
10
8.42983806045794
20
-0.7441390484652
30
0
41
1
10
9.15253174206993
20
-1.34559765085035
30
0
41
1
10
9.7261234532736
20
-1.80118169975861
30
0
41
1
10
9.97327293666257
20
-1.99186217808605
30
0
0
SPLINE
5
E3
100
AcDbEntity
8
1
62
256
6
ByLayer
370
18
48
1
60
0
100
AcDbSpline
70
4
71
3
72
27
73
23
40
0
40
0
40
0
40
0
40
0.0194616903670721
40
0.0427678966854848
40
0.0893803093223104
40
0.182605134595961
40
0.205911340914374
40
0.229217547232787
40
0.275829959869612
40
0.322442372506438
40
0.369054785143264
40
0.415667197780089
40
0.462279610416915
40
0.555504435690566
40
0.602116848327391
40
0.648729260964217
40
0.695341673601042
40
0.741954086237868
40
0.788566498874693
40
0.835178911511519
40
0.92840373678517
40
1
40
1
40
1
40
1
41
1
10
2.558E-12
20
4.60401906059343
30
0
41
1
10
0.0636609594088213
20
4.58694673446723
30
0
41
1
10
0.203573218429142
20
4.54751622574611
30
0
41
1
10
0.496044339342575
20
4.4564040296687
30
0
41
1
10
1.03009423404598
20
4.2644270538282
30
0
41
1
10
1.56451967388267
20
4.02330977396861
30
0
41
1
10
2.02279555491455
20
3.78477172327945
30
0
41
1
10
2.32835693194704
20
3.61748013112296
30
0
41
1
10
2.71038096910377
20
3.39330430233554
30
0
41
1
10
3.16884314119463
20
3.10219973348529
30
0
41
1
10
3.62728804568525
20
2.79096939491302
30
0
41
1
10
4.08564747161802
20
2.46164988070734
30
0
41
1
10
4.69683732082405
20
2.0010575231031
30
0
41
1
10
5.3091215316939
20
1.51207183581036
30
0
41
1
10
5.92436439542624
20
1.00239501694475
30
0
41
1
10
6.38774677603891
20
0.61181043480596
30
0
41
1
10
6.85361254328214
20
0.215120315285418
30
0
41
1
10
7.32248814565668
20
-0.185514327108876
30
0
41
1
10
7.79487000467077
20
-0.588032061630003
30
0
41
1
10
8.43006228152356
20
-1.12398255624871
30
0
41
1
10
9.16085517070991
20
-1.72431748608207
30
0
41
1
10
9.74260551828024
20
-2.17424451948864
30
0
41
1
10
9.99794265955202
20
-2.3646642214014
30
0
0
SPLINE
5
E4
100
AcDbEntity
8
1
62
256
6
ByLayer
370
18
48
1
60
0
100
AcDbSpline
70
4
71
3
72
12
73
8
40
0
40
0
40
0
40
0
40
0.455498356304802
40
0.455498356304802
40
0.910996712611239
40
0.910996712611239
40
1
40
1
40
1
40
1
41
1
10
1.819E-12
20
4.60401906059312
30
0
41
1
10
1.819E-12
20
4.57821365209634
30
0
41
1
10
2.84E-14
20
4.55241061571544
30
0
41
1
10
2.84E-14
20
4.50080928716181
30
0
41
1
10
0
20
4.47501099496679
30
0
41
1
10
0
20
4.4441746138595
30
0
41
1
10
2.84E-14
20
4.43913424344262
30
0
41
1
10
2.84E-14
20
4.43409396359129
30
0
0
SPLINE
5
E5
100
AcDbEntity
8
1
62
256
6
ByLayer
370
18
48
1
60
0
100
AcDbSpline
70
4
71
3
72
10
73
6
40
0
40
0
40
0
40
0
40
0.5
40
0.5
40
1
40
1
40
1
40
1
41
1
10
2.84E-14
20
4.43409396359129
30
0
41
1
10
0.0796249279175356
20
4.42939340571237
30
0
41
1
10
0.159590068523698
20
4.42630037496485
30
0
41
1
10
0.319723171687912
20
4.42329040444918
30
0
41
1
10
0.399934201594249
20
4.4233817763963
30
0
41
1
10
0.480286888958005
20
4.42503833747497
30
0
0
SPLINE
5
E6
100
AcDbEntity
8
1
62
256
6
ByLayer
370
18
48
1
60
0
100
AcDbSpline
70
4
71
3
72
8
73
4
40
0
40
0
40
0
40
0
40
1
40
1
40
1
40
1
41
1
10
9.91551768716803
20
4.84386365170428
30
0
41
1
10
9.93484154143954
20
4.84370965131831
30
0
41
1
10
9.95416717771565
20
4.84361023628989
30
0
41
1
10
9.97349459887323
20
4.84356549460782
30
0
0
SPLINE
5
E7
100
AcDbEntity
8
1
62
256
6
ByLayer
370
18
48
1
60
0
100
AcDbSpline
70
4
71
3
72
8
73
4
40
0
40
0
40
0
40
0
40
1
40
1
40
1
40
1
41
1
10
9.97349459903322
20
4.84356549454938
30
0
41
1
10
9.99418867851492
20
4.84176682692464
30
0
41
1
10
10.014887962133
20
4.84003188303194
30
0
41
1
10
10.0355924310902
20
4.83836042861358
30
0
0
SPLINE
5
E8
100
AcDbEntity
8
1
62
256
6
ByLayer
370
18
48
1
60
0
100
AcDbSpline
70
4
71
3
72
20
73
16
40
0
40
0
40
0
40
0
40
0.0031898139943553
40
0.0696438263947332
40
0.202551851195492
40
0.202551851195492
40
0.468367900797006
40
0.468367900797006
40
0.601275925597766
40
0.667729937998146
40
0.700956944198334
40
0.700956944198334
40
0.734183950398521
40
0.734183950398521
40
1
40
1
40
1
40
1
41
1
10
5.50434192347495
20
3.51104965340187
30
0
41
1
10
5.50905838773164
20
3.51358448957501
30
0
41
1
10
5.61202276316271
20
3.56885671259482
30
0
41
1
10
5.9107848789489
20
3.72507725536363
30
0
41
1
10
6.20322377915704
20
3.8659182565265
30
0
41
1
10
6.78692087399162
20
4.12989486923914
30
0
41
1
10
7.17445821247395
20
4.28230558122013
30
0
41
1
10
7.75760128236911
20
4.47239819706377
30
0
41
1
10
8.04963739428362
20
4.55782288630834
30
0
41
1
10
8.39209428009369
20
4.64002761940083
30
0
41
1
10
8.539336462748
20
4.67144129853006
30
0
41
1
10
8.63761478777025
20
4.69152598904802
30
0
41
1
10
8.68683749258037
20
4.70114412318077
30
0
41
1
10
9.12986446255039
20
4.78370200875071
30
0
41
1
10
9.52219017476983
20
4.82837482948534
30
0
41
1
10
9.91551768716801
20
4.84386365170428
30
0
0
SPLINE
5
E9
100
AcDbEntity
8
1
62
256
6
ByLayer
370
18
48
1
60
0
100
AcDbSpline
70
4
71
3
72
8
73
4
40
0
40
0
40
0
40
0
40
1
40
1
40
1
40
1
41
1
10
9.91551768716803
20
4.84386365170428
30
0
41
1
10
9.94987207527987
20
4.73206585209775
30
0
41
1
10
9.98667722295912
20
4.62110015884701
30
0
41
1
10
10.0264601223751
20
4.51114550164789
30
0
0
SPLINE
5
EA
100
AcDbEntity
8
1
62
256
6
ByLayer
370
18
48
1
60
0
100
AcDbSpline
70
4
71
3
72
46
73
42
40
0
40
0
40
0
40
0
40
0.0663845292123754
40
0.0663845292123754
40
0.132769058424751
40
0.132769058424751
40
0.149365190727845
40
0.149365190727845
40
0.16596132303094
40
0.199153587637129
40
0.232345852243319
40
0.232345852243319
40
0.265538116849508
40
0.265538116849508
40
0.331922646061882
40
0.331922646061882
40
0.348518778364974
40
0.348518778364974
40
0.365114910668065
40
0.365114910668065
40
0.398307175274248
40
0.398307175274248
40
0.464691704486614
40
0.464691704486614
40
0.497883969092797
40
0.497883969092797
40
0.53107623369898
40
0.53107623369898
40
0.597460762911358
40
0.597460762911358
40
0.663845292123735
40
0.663845292123735
40
0.697037556729924
40
0.697037556729924
40
0.730229821336113
40
0.730229821336113
40
0.79661435054849
40
0.79661435054849
40
0.929383408973259
40
0.929383408973259
40
1
40
1
40
1
40
1
41
1
10
10.0264601215163
20
4.51114550134574
30
0
41
1
10
10.048513345356
20
4.45017847929634
30
0
41
1
10
10.0669984619671
20
4.38842346251965
30
0
41
1
10
10.0954293720791
20
4.2630275713818
30
0
41
1
10
10.105392117703
20
4.19939044082525
30
0
41
1
10
10.111085209817
20
4.11835104771606
30
0
41
1
10
10.1118814361984
20
4.10205146293296
30
0
41
1
10
10.1127407892986
20
4.06959412075952
30
0
41
1
10
10.1129393780803
20
4.02101597995204
30
0
41
1
10
10.1076535654231
20
3.94060805632426
30
0
41
1
10
10.0970127950871
20
3.87691603988381
30
0
41
1
10
10.08291458157
20
3.81356605288198
30
0
41
1
10
10.074063501892
20
3.7818936928692
30
0
41
1
10
10.0427182900856
20
3.68962642810436
30
0
41
1
10
10.0153962113486
20
3.63123832121161
30
0
41
1
10
9.97368588859007
20
3.5619270900653
30
0
41
1
10
9.96496561986709
20
3.54824869352169
30
0
41
1
10
9.94677942522299
20
3.52125437353999
30
0
41
1
10
9.93728744348442
20
3.50790426429282
30
0
41
1
10
9.90790612813402
20
3.46865009153916
30
0
41
1
10
9.88720062261922
20
3.44363932595019
30
0
41
1
10
9.8221281665347
20
3.37167063671075
30
0
41
1
10
9.77482205875233
20
3.32775892697552
30
0
41
1
10
9.6991659427604
20
3.26675939989849
30
0
41
1
10
9.67310802277376
20
3.24720648891241
30
0
41
1
10
9.61979773544351
20
3.20973511200316
30
0
41
1
10
9.59269833574987
20
3.19191719372077
30
0
41
1
10
9.51025281548783
20
3.14083364229353
30
0
41
1
10
9.45376798353726
20
3.10992042594052
30
0
41
1
10
9.33845694419006
20
3.052930944021
30
0
41
1
10
9.27962644581208
20
3.02686354301625
30
0
41
1
10
9.18996821930543
20
2.99068042338473
30
0
41
1
10
9.15984530817161
20
2.97910865245194
30
0
41
1
10
9.09917014227941
20
2.95685207384085
30
0
41
1
10
9.06857484134247
20
2.9461532642577
30
0
41
1
10
8.97653795868251
20
2.91538258458937
30
0
41
1
10
8.91494056041148
20
2.89665271361767
30
0
41
1
10
8.72956648137423
20
2.84479769002812
30
0
41
1
10
8.60521522913359
20
2.81595265238397
30
0
41
1
10
8.41388205050626
20
2.77804206608215
30
0
41
1
10
8.3472931937369
20
2.76604845150126
30
0
41
1
10
8.28056540003601
20
2.75508981005672
30
0
0
SPLINE
5
EB
100
AcDbEntity
8
1
62
256
6
ByLayer
370
13
48
1
60
0
100
AcDbSpline
70
4
71
3
72
10
73
6
40
0
40
0
40
0
40
0
40
0.535168505062126
40
0.827280237814837
40
1
40
1
40
1
40
1
41
1
10
10.0264601216673
20
4.51114550132431
30
0
41
1
10
9.28599937824677
20
4.48549919053934
30
0
41
1
10
8.14137196815949
20
4.2907560184768
30
0
41
1
10
6.75776897878961
20
3.80734984437791
30
0
41
1
10
6.11462673284035
20
3.52348443205878
30
0
41
1
10
5.87565115355767
20
3.41029022387511
30
0
0
SPLINE
5
EC
100
AcDbEntity
8
1
62
256
6
ByLayer
370
18
48
1
60
0
100
AcDbSpline
70
4
71
3
72
14
73
10
40
0
40
0
40
0
40
0
40
0.25
40
0.25
40
0.5
40
0.5
40
0.75
40
0.75
40
1
40
1
40
1
40
1
41
1
10
7.4872039985606
20
-1.49166561396041
30
0
41
1
10
7.50279761667872
20
-1.47516463914411
30
0
41
1
10
7.5187806203285
20
-1.45903502637168
30
0
41
1
10
7.55177616781828
20
-1.42777151496591
30
0
41
1
10
7.56871606560824
20
-1.41270947091624
30
0
41
1
10
7.60357602687648
20
-1.38407191598935
30
0
41
1
10
7.62146258673954
20
-1.37052920717949
30
0
41
1
10
7.65799995608785
20
-1.34541960984401
30
0
41
1
10
7.67669758382888
20
-1.33381249615601
30
0
41
1
10
7.69591685793097
20
-1.32323708342318
30
0
0
SPLINE
5
ED
100
AcDbEntity
8
1
62
256
6
ByLayer
370
18
48
1
60
0
100
AcDbSpline
70
4
71
3
72
8
73
4
40
0
40
0
40
0
40
0
40
1
40
1
40
1
40
1
41
1
10
0.019695963031495
20
-4.43411956801356
30
0
41
1
10
0.179002688989016
20
-4.43271346841794
30
0
41
1
10
0.338375213910524
20
-4.43432254775789
30
0
41
1
10
0.497810301998072
20
-4.43879852847399
30
0
0
SPLINE
5
EE
100
AcDbEntity
8
1
62
256
6
ByLayer
370
18
48
1
60
0
100
AcDbSpline
70
4
71
3
72
16
73
12
40
0
40
0
40
0
40
0
40
0.250000000000024
40
0.250000000000024
40
0.375000000000036
40
0.375000000000036
40
0.500000000000048
40
0.500000000000048
40
0.750000000000024
40
0.750000000000024
40
1
40
1
40
1
40
1
41
1
10
9.73509691997569
20
-3.64648350861609
30
0
41
1
10
9.74301918701855
20
-3.63551622548346
30
0
41
1
10
9.75071318434408
20
-3.62601009604268
30
0
41
1
10
9.76187420933096
20
-3.61418308590291
30
0
41
1
10
9.76551167474926
20
-3.61067172841766
30
0
41
1
10
9.77255276723682
20
-3.60461344725579
30
0
41
1
10
9.7759655020966
20
-3.60205644637483
30
0
41
1
10
9.7858536570543
20
-3.59591842015641
30
0
41
1
10
9.79200220576166
20
-3.59382561742712
30
0
41
1
10
9.8030151317756
20
-3.59503161854724
30
0
41
1
10
9.80768880153533
20
-3.59828792842544
30
0
41
1
10
9.81125600328329
20
-3.60506948332318
30
0
0
SPLINE
5
EF
100
AcDbEntity
8
1
62
256
6
ByLayer
370
18
48
1
60
0
100
AcDbSpline
70
4
71
3
72
24
73
20
40
0
40
0
40
0
40
0
40
0.125000000000007
40
0.125000000000007
40
0.250000000000013
40
0.250000000000013
40
0.37500000000002
40
0.37500000000002
40
0.437500000000023
40
0.437500000000023
40
0.500000000000027
40
0.500000000000027
40
0.750000000000022
40
0.750000000000022
40
0.812500000000018
40
0.812500000000018
40
0.875000000000014
40
0.875000000000014
40
1
40
1
40
1
40
1
41
1
10
9.12487320068198
20
-4.03082425657087
30
0
41
1
10
9.14270242300972
20
-4.04501531445513
30
0
41
1
10
9.16173096560632
20
-4.05487013609243
30
0
41
1
10
9.20201825162363
20
-4.06651631384995
30
0
41
1
10
9.22327763551704
20
-4.06830535428711
30
0
41
1
10
9.26793132539922
20
-4.06416445733194
30
0
41
1
10
9.29132593257941
20
-4.05823343095827
30
0
41
1
10
9.32799060273655
20
-4.04365045681431
30
0
41
1
10
9.34049771225762
20
-4.03782564348501
30
0
41
1
10
9.36583372678919
20
-4.02439425094741
30
0
41
1
10
9.37867983508761
20
-4.01678381815103
30
0
41
1
10
9.44377301581099
20
-3.97439796323653
30
0
41
1
10
9.49858698908082
20
-3.92672705188664
30
0
41
1
10
9.5703134213642
20
-3.85101734489115
30
0
41
1
10
9.5848204154324
20
-3.83506302354886
30
0
41
1
10
9.61415725471556
20
-3.80153245475992
30
0
41
1
10
9.6290004668648
20
-3.78393969446398
30
0
41
1
10
9.67392329065774
20
-3.72883382007453
30
0
41
1
10
9.70430003618372
20
-3.68911929134009
30
0
41
1
10
9.7350969204212
20
-3.64648350863436
30
0
0
SPLINE
5
F0
100
AcDbEntity
8
1
62
256
6
ByLayer
370
13
48
1
60
0
100
AcDbSpline
70
4
71
3
72
11
73
7
40
0
40
0
40
0
40
0
40
0.141310566646785
40
0.355982924985088
40
0.570655283323392
40
1
40
1
40
1
40
1
41
1
10
6.17822006203943
20
-4.2651632612592
30
0
41
1
10
5.91217267182813
20
-4.26894157763172
30
0
41
1
10
5.24195861495019
20
-4.25375784341779
30
0
41
1
10
4.16757789140556
20
-4.13022374114015
30
0
41
1
10
2.55091122473891
20
-3.76946250208738
30
0
41
1
10
1.33841122473893
20
-3.31335328764013
30
0
41
1
10
0.530077891405568
20
-2.94647403402118
30
0
0
SPLINE
5
F1
100
AcDbEntity
8
1
62
256
6
ByLayer
370
18
48
1
60
0
100
AcDbSpline
70
4
71
3
72
14
73
10
40
0
40
0
40
0
40
0
40
0.500000000000003
40
0.500000000000003
40
0.750000000000004
40
0.750000000000004
40
0.875000000000002
40
0.875000000000002
40
1
40
1
40
1
40
1
41
1
10
9.03324280276644
20
-3.57358759523575
30
0
41
1
10
9.03827003496522
20
-3.67396172074626
30
0
41
1
10
9.04856012207608
20
-3.76196588795037
30
0
41
1
10
9.07153052531089
20
-3.87626102776204
30
0
41
1
10
9.08044887305783
20
-3.91139423386298
30
0
41
1
10
9.09572248294415
20
-3.95963742522983
30
0
41
1
10
9.10113749325365
20
-3.97499312965752
30
0
41
1
10
9.11256568208353
20
-4.00411024932595
30
0
41
1
10
9.11857411582474
20
-4.01786441185843
30
0
41
1
10
9.12487320068038
20
-4.03082425657129
30
0
0
SPLINE
5
F2
100
AcDbEntity
8
1
62
256
6
ByLayer
370
18
48
1
60
0
100
AcDbSpline
70
4
71
3
72
26
73
22
40
0
40
0
40
0
40
0
40
0.0312499999999967
40
0.0312499999999967
40
0.0624999999999934
40
0.0624999999999934
40
0.124999999999995
40
0.124999999999995
40
0.249999999999998
40
0.249999999999998
40
0.375000000000001
40
0.375000000000001
40
0.500000000000004
40
0.500000000000004
40
0.562500000000001
40
0.562500000000001
40
0.624999999999998
40
0.624999999999998
40
0.750000000000002
40
0.750000000000002
40
1
40
1
40
1
40
1
41
1
10
7.36014085402613
20
-2.07359799967722
30
0
41
1
10
7.37490598563943
20
-2.09633670971121
30
0
41
1
10
7.38985604021718
20
-2.1188926442037
30
0
41
1
10
7.42012023903865
20
-2.16364465152412
30
0
41
1
10
7.43544887073455
20
-2.18586015368615
30
0
41
1
10
7.48169990407303
20
-2.25159237499983
30
0
41
1
10
7.51296659811152
20
-2.29431697812092
30
0
41
1
10
7.60797202441452
20
-2.41943508755873
30
0
41
1
10
7.67291169287859
20
-2.49878406875726
30
0
41
1
10
7.80563641219999
20
-2.65026862700313
30
0
41
1
10
7.87342329285914
20
-2.72239956527142
30
0
41
1
10
8.01160832331408
20
-2.86004154436472
30
0
41
1
10
8.08200730219755
20
-2.92555048334756
30
0
41
1
10
8.18945142540011
20
-3.01913492333387
30
0
41
1
10
8.22559163428315
20
-3.04955796164711
30
0
41
1
10
8.29791360010569
20
-3.1084340795905
30
0
41
1
10
8.33416497723789
20
-3.13694944336686
30
0
41
1
10
8.44317742510793
20
-3.21985878019458
30
0
41
1
10
8.51619621373868
20
-3.27162210872965
30
0
41
1
10
8.73620673133104
20
-3.4171726311246
30
0
41
1
10
8.88414653605031
20
-3.50128238169785
30
0
41
1
10
9.03324280276712
20
-3.57358759523567
30
0
0
SPLINE
5
F3
100
AcDbEntity
8
1
62
256
6
ByLayer
370
18
48
1
60
0
100
AcDbSpline
70
4
71
3
72
27
73
23
40
0
40
0
40
0
40
0
40
0.125000000000017
40
0.125000000000017
40
0.187500000000014
40
0.187500000000014
40
0.250000000000011
40
0.250000000000011
40
0.375000000000014
40
0.375000000000014
40
0.437500000000012
40
0.437500000000012
40
0.500000000000011
40
0.56250000000001
40
0.56250000000001
40
0.625000000000009
40
0.625000000000009
40
0.750000000000006
40
0.750000000000006
40
0.875000000000003
40
0.875000000000003
40
1
40
1
40
1
40
1
41
1
10
7.36014085402613
20
-2.07359799967716
30
0
41
1
10
7.34607535826484
20
-2.05193674815732
30
0
41
1
10
7.33444545987618
20
-2.02905098289511
30
0
41
1
10
7.32091345380022
20
-1.99273217545829
30
0
41
1
10
7.31705728615307
20
-1.98029305847754
30
0
41
1
10
7.31073097292841
20
-1.95470690040003
30
0
41
1
10
7.3082978424755
20
-1.9416754473217
30
0
41
1
10
7.30323724125157
20
-1.90248707604707
30
0
41
1
10
7.30277500640995
20
-1.87599092851744
30
0
41
1
10
7.30621861716315
20
-1.83571600463279
30
0
41
1
10
7.30806683851753
20
-1.82221221021743
30
0
41
1
10
7.31298886257457
20
-1.79561157451843
30
0
41
1
10
7.31914532952777
20
-1.76926579697567
30
0
41
1
10
7.32756493790984
20
-1.74338783449028
30
0
41
1
10
7.33703840673945
20
-1.71772821109178
30
0
41
1
10
7.34230811251877
20
-1.70500701001384
30
0
41
1
10
7.35930751519891
20
-1.66774570181042
30
0
41
1
10
7.37229338237608
20
-1.64387989545381
30
0
41
1
10
7.40096808349733
20
-1.59774367020683
30
0
41
1
10
7.41666176916652
20
-1.57547611251249
30
0
41
1
10
7.450411265116
20
-1.53233627608202
30
0
41
1
10
7.46838646503261
20
-1.51157804901717
30
0
41
1
10
7.48720399856009
20
-1.49166561396032
30
0
0
SPLINE
5
F4
100
AcDbEntity
8
1
62
256
6
ByLayer
370
13
48
1
60
0
100
AcDbSpline
70
4
71
3
72
12
73
8
40
0
40
0
40
0
40
0
40
0.128591331158265
40
0.302873064926612
40
0.477154798694959
40
0.651436532463306
40
1
40
1
40
1
40
1
41
1
10
7.4872039985606
20
-1.49166561396052
30
0
41
1
10
7.18899529617562
20
-1.36866765220509
30
0
41
1
10
6.48661992712394
20
-1.06443383023378
30
0
41
1
10
5.38007789140562
20
-0.546716193102981
30
0
41
1
10
4.16757789140561
20
0.0452873841288692
30
0
41
1
10
2.55091122473897
20
0.826934983078928
30
0
41
1
10
1.33841122473893
20
1.36717678140838
30
0
41
1
10
0.530077891405625
20
1.67211510021633
30
0
0
SPLINE
5
F5
100
AcDbEntity
8
1
62
256
6
ByLayer
370
18
48
1
60
0
100
AcDbSpline
70
4
71
3
72
13
73
9
40
0
40
0
40
0
40
0
40
0.153557503324402
40
0.294631252770336
40
0.435705002216268
40
0.576778751662201
40
0.717852501108134
40
1
40
1
40
1
40
1
41
1
10
9.12487320068243
20
-4.03082425657124
30
0
41
1
10
8.68494143092352
20
-4.04579053233118
30
0
41
1
10
7.84084299449791
20
-4.02561735934768
30
0
41
1
10
6.5925778914056
20
-3.85951755525829
30
0
41
1
10
5.38007789140562
20
-3.57667029456826
30
0
41
1
10
4.16757789140559
20
-3.17916038787317
30
0
41
1
10
2.55091122473897
20
-2.51455946893529
30
0
41
1
10
1.33841122473893
20
-1.88931247720598
30
0
41
1
10
0.530077891405597
20
-1.43924814280715
30
0
0
SPLINE
5
F6
100
AcDbEntity
8
1
62
256
6
ByLayer
370
18
48
1
60
0
100
AcDbSpline
70
4
71
3
72
8
73
4
40
0
40
0
40
0
40
0
40
1
40
1
40
1
40
1
41
1
10
9.81125600859588
20
-3.60506947668569
30
0
41
1
10
9.82970278925507
20
-3.64019484316489
30
0
41
1
10
9.84854839954022
20
-3.67418515865808
30
0
41
1
10
9.86781803667787
20
-3.70696873372808
30
0
0
SPLINE
5
F7
100
AcDbEntity
8
1
62
256
6
ByLayer
370
13
48
1
60
0
100
AcDbSpline
70
4
71
3
72
8
73
4
40
0
40
0
40
0
40
0
40
1
40
1
40
1
40
1
41
1
10
9.81125601007534
20
-3.60506947824405
30
0
41
1
10
9.79240367870167
20
-3.61192215873084
30
0
41
1
10
9.77355134732801
20
-3.61873232900624
30
0
41
1
10
9.75469901595434
20
-3.62549983700831
30
0
0
SPLINE
5
F8
100
AcDbEntity
8
1
62
256
6
ByLayer
370
13
48
1
60
0
100
AcDbSpline
70
4
71
3
72
12
73
8
40
0
40
0
40
0
40
0
40
0.123253330140798
40
0.298602664112639
40
0.473951998084479
40
0.649301332056319
40
1
40
1
40
1
40
1
41
1
10
7.44484610030415
20
-4.23084709549263
30
0
41
1
10
7.160756697338
20
-4.27651629179215
30
0
41
1
10
6.47250062770519
20
-4.36040204475387
30
0
41
1
10
5.3800778914057
20
-4.38700777320034
30
0
41
1
10
4.1675778914057
20
-4.27780427364925
30
0
41
1
10
2.55091122473902
20
-3.95114616759986
30
0
41
1
10
1.33841122473905
20
-3.51233414219584
30
0
41
1
10
0.53007789140571
20
-3.15253540536054
30
0
0
SPLINE
5
F9
100
AcDbEntity
8
1
62
256
6
ByLayer
370
18
48
1
60
0
100
AcDbSpline
70
4
71
3
72
8
73
4
40
0
40
0
40
0
40
0
40
1
40
1
40
1
40
1
41
1
10
10.0142809802581
20
-3.47471812242654
30
0
41
1
10
9.96530127308085
20
-3.55403552072758
30
0
41
1
10
9.91648063674347
20
-3.63144826197919
30
0
41
1
10
9.86781803667756
20
-3.70696873373188
30
0
0
SPLINE
5
FA
100
AcDbEntity
8
1
62
256
6
ByLayer
370
18
48
1
60
0
100
AcDbSpline
70
4
71
3
72
8
73
4
40
0
40
0
40
0
40
0
40
1
40
1
40
1
40
1
41
1
10
9.86781803666764
20
-3.70696873373447
30
0
41
1
10
9.78470683622407
20
-3.74133372289859
30
0
41
1
10
9.70161428753167
20
-3.77484249602651
30
0
41
1
10
9.61852758622507
20
-3.80748574935404
30
0
0
SPLINE
5
FB
100
AcDbEntity
8
1
62
256
6
ByLayer
370
18
48
1
60
0
100
AcDbSpline
70
4
71
3
72
42
73
38
40
0
40
0
40
0
40
0
40
0.0329166350634969
40
0.0329166350634969
40
0.0508255862660252
40
0.0508255862660252
40
0.0687345374685535
40
0.0687345374685535
40
0.140370342278663
40
0.140370342278663
40
0.212006147088774
40
0.212006147088774
40
0.283641951898884
40
0.283641951898884
40
0.426913561519106
40
0.426913561519106
40
0.498549366329218
40
0.498549366329218
40
0.516458317531746
40
0.516458317531746
40
0.534367268734273
40
0.534367268734273
40
0.570185171139329
40
0.570185171139329
40
0.606003073544385
40
0.606003073544385
40
0.641820975949441
40
0.641820975949441
40
0.713456780759553
40
0.713456780759553
40
0.785092585569665
40
0.785092585569665
40
0.856728390379777
40
0.856728390379777
40
0.928364195189888
40
0.928364195189888
40
1
40
1
40
1
40
1
41
1
10
8.67059607830768
20
-4.14170541792168
30
0
41
1
10
8.58061259788568
20
-4.16973812181052
30
0
41
1
10
8.49057792566427
20
-4.19671210668292
30
0
41
1
10
8.35145058352097
20
-4.23669570260171
30
0
41
1
10
8.30239987224209
20
-4.2504665710436
30
0
41
1
10
8.20443644934312
20
-4.27731193411594
30
0
41
1
10
8.15550114757224
20
-4.29039294750061
30
0
41
1
10
7.91104395037394
20
-4.35407845208175
30
0
41
1
10
7.71619690287787
20
-4.39949540279005
30
0
41
1
10
7.32745863251307
20
-4.47918376731988
30
0
41
1
10
7.13354417340543
20
-4.51351128839778
30
0
41
1
10
6.74620138856361
20
-4.57079206534632
30
0
41
1
10
6.55277157521294
20
-4.59372044000653
30
0
41
1
10
5.97217981570122
20
-4.64611097241493
30
0
41
1
10
5.58479352711674
20
-4.65905910753776
30
0
41
1
10
5.00060695618555
20
-4.64423833313211
30
0
41
1
10
4.80537680628748
20
-4.63358805594024
30
0
41
1
10
4.5604868177688
20
-4.61289898338106
30
0
41
1
10
4.511434557922
20
-4.60838865971115
30
0
41
1
10
4.41346022160667
20
-4.59864204539986
30
0
41
1
10
4.36452593879346
20
-4.59340524178688
30
0
41
1
10
4.2178750058188
20
-4.57660099553087
30
0
41
1
10
4.12031548728686
20
-4.56392623767096
30
0
41
1
10
3.92553544826939
20
-4.53571098389702
30
0
41
1
10
3.82830708234249
20
-4.52019005026824
30
0
41
1
10
3.6340441843895
20
-4.48657119905843
30
0
41
1
10
3.53700448765778
20
-4.46849113822688
30
0
41
1
10
3.24612008983271
20
-4.41038985774304
30
0
41
1
10
3.05252914435937
20
-4.36645442561385
30
0
41
1
10
2.66568028974558
20
-4.26802950214844
30
0
41
1
10
2.47241463477391
20
-4.21357493555197
30
0
41
1
10
2.08583249710114
20
-4.09393262753792
30
0
41
1
10
1.89249114361169
20
-4.02880384269884
30
0
41
1
10
1.50498751942482
20
-3.88928631515253
30
0
41
1
10
1.31085760179934
20
-3.8147857936608
30
0
41
1
10
0.921447159915999
20
-3.65614844407983
30
0
41
1
10
0.726170329747902
20
-3.57197969371291
30
0
41
1
10
0.530077891405682
20
-3.48299184713636
30
0
0
SPLINE
5
FC
100
AcDbEntity
8
1
62
256
6
ByLayer
370
18
48
1
60
0
100
AcDbSpline
70
4
71
3
72
14
73
10
40
0
40
0
40
0
40
0
40
0.162435126925072
40
0.162435126925072
40
0.371826345193808
40
0.371826345193808
40
0.581217563462544
40
0.581217563462544
40
1
40
1
40
1
40
1
41
1
10
7.99939389171391
20
2.85987626199173
30
0
41
1
10
8.05143479139969
20
2.84616282009918
30
0
41
1
10
8.10411965599477
20
2.83008375570668
30
0
41
1
10
8.22611339697244
20
2.78815635196733
30
0
41
1
10
8.29582577453101
20
2.7608257401439
30
0
41
1
10
8.43718467712989
20
2.69905937344564
30
0
41
1
10
8.50808966527313
20
2.66494696710063
30
0
41
1
10
8.72115385225604
20
2.55386266052861
30
0
41
1
10
8.86378506248445
20
2.46815035820802
30
0
41
1
10
9.00694569032376
20
2.37195072542477
30
0
0
SPLINE
5
FD
100
AcDbEntity
8
1
62
256
6
ByLayer
370
18
48
1
60
0
100
AcDbSpline
70
4
71
3
72
12
73
8
40
0
40
0
40
0
40
0
40
0.23132767736653
40
0.437219536791204
40
0.643111396215878
40
0.849003255640551
40
1
40
1
40
1
40
1
41
1
10
9.1673697740992
20
1.3702622384034
30
0
41
1
10
8.71327247986801
20
1.68007963094547
30
0
41
1
10
7.85500851897018
20
2.24063256677783
30
0
41
1
10
6.59257789140565
20
2.95298462713367
30
0
41
1
10
5.38007789140565
20
3.5023229971564
30
0
41
1
10
4.27533725466645
20
3.85646104070125
30
0
41
1
10
3.57476328459398
20
3.99349332650698
30
0
41
1
10
3.27835598118813
20
4.0350986639738
30
0
0
SPLINE
5
FE
100
AcDbEntity
8
1
62
256
6
ByLayer
370
13
48
1
60
0
100
AcDbSpline
70
4
71
3
72
11
73
7
40
0
40
0
40
0
40
0
40
0.384458180812871
40
0.629901491197988
40
0.875344801583105
40
1
40
1
40
1
40
1
41
1
10
9.70431704159543
20
-0.308000089840561
30
0
41
1
10
9.07123732486548
20
0.166621775988148
30
0
41
1
10
8.03399094146886
20
0.948921388540924
30
0
41
1
10
6.5925778914056
20
1.96750891304472
30
0
41
1
10
5.57897729718104
20
2.60803312436866
30
0
41
1
10
4.96954336962312
20
2.94466938323046
30
0
41
1
10
4.76427610873193
20
3.05209432916846
30
0
0
SPLINE
5
FF
100
AcDbEntity
8
1
62
256
6
ByLayer
370
13
48
1
60
0
100
AcDbSpline
70
4
71
3
72
12
73
8
40
0
40
0
40
0
40
0
40
0.338411177159874
40
0.507616765739811
40
0.676822354319748
40
0.846027942899686
40
1
40
1
40
1
40
1
41
1
10
0.530077891405625
20
1.80423472415703
30
0
41
1
10
1.33841122473893
20
1.52535066945998
30
0
41
1
10
2.55091122473897
20
1.02122373231927
30
0
41
1
10
4.16757789140561
20
0.274779916836479
30
0
41
1
10
5.38007789140562
20
-0.298588521057724
30
0
41
1
10
6.55619088024747
20
-0.840521768461912
30
0
41
1
10
7.32813720242265
20
-1.17319753886434
30
0
41
1
10
7.69591685793114
20
-1.32323708342324
30
0
0
SPLINE
5
100
100
AcDbEntity
8
1
62
256
6
ByLayer
370
18
48
1
60
0
100
AcDbSpline
70
4
71
3
72
16
73
12
40
0
40
0
40
0
40
0
40
0.249999999999977
40
0.249999999999977
40
0.499999999999955
40
0.499999999999955
40
0.624999999999944
40
0.624999999999944
40
0.749999999999933
40
0.749999999999933
40
1
40
1
40
1
40
1
41
1
10
7.69591685793114
20
-1.32323708342326
30
0
41
1
10
7.72852879375591
20
-1.30529237355475
30
0
41
1
10
7.76220270649185
20
-1.29044042123348
30
0
41
1
10
7.83177351625596
20
-1.2665678022644
30
0
41
1
10
7.86767010012559
20
-1.25754895133701
30
0
41
1
10
7.92337074936785
20
-1.24836948014965
30
0
41
1
10
7.94204615394292
20
-1.24607226635084
30
0
41
1
10
7.97945367458271
20
-1.24293288718718
30
0
41
1
10
7.99821377132207
20
-1.24208618101557
30
0
41
1
10
8.0546835353816
20
-1.24160201808755
30
0
41
1
10
8.09258199342696
20
-1.24401110707746
30
0
41
1
10
8.13079321331355
20
-1.24897195056016
30
0
0
SPLINE
5
101
100
AcDbEntity
8
1
62
256
6
ByLayer
370
18
48
1
60
0
100
AcDbSpline
70
4
71
3
72
10
73
6
40
0
40
0
40
0
40
0
40
0.260628798665505
40
0.260628798665505
40
1
40
1
40
1
40
1
41
1
10
8.64405112820003
20
-1.32607146583547
30
0
41
1
10
8.5997324165829
20
-1.31839539245584
30
0
41
1
10
8.55533325933862
20
-1.31100938742634
30
0
41
1
10
8.38470830494578
20
-1.2836472273336
30
0
41
1
10
8.25797967474725
20
-1.26548417210634
30
0
41
1
10
8.13079321331372
20
-1.24897195056087
30
0
0
SPLINE
5
102
100
AcDbEntity
8
1
62
256
6
ByLayer
370
18
48
1
60
0
100
AcDbSpline
70
4
71
3
72
18
73
14
40
0
40
0
40
0
40
0
40
0.250000000000001
40
0.250000000000001
40
0.500000000000002
40
0.500000000000002
40
0.562500000000002
40
0.562500000000002
40
0.625000000000003
40
0.625000000000003
40
0.750000000000003
40
0.750000000000003
40
1
40
1
40
1
40
1
41
1
10
9.00694569032379
20
2.37195072542477
30
0
41
1
10
9.00646690644834
20
2.31852309725764
30
0
41
1
10
9.00960539262348
20
2.25703206439172
30
0
41
1
10
9.02286226427435
20
2.11849081949202
30
0
41
1
10
9.03298118590615
20
2.0414394122908
30
0
41
1
10
9.05003250799746
20
1.93531098130757
30
0
41
1
10
9.05366367812383
20
1.91359286515666
30
0
41
1
10
9.06137198368816
20
1.86916251332914
30
0
41
1
10
9.0654359600108
20
1.84652742405902
30
0
41
1
10
9.07821684033337
20
1.77755195652574
30
0
41
1
10
9.08753436427048
20
1.730071487315
30
0
41
1
10
9.11780952374255
20
1.58326774596148
30
0
41
1
10
9.14108128836654
20
1.47959802717128
30
0
41
1
10
9.16736977409408
20
1.37026223840687
30
0
0
SPLINE
5
103
100
AcDbEntity
8
1
62
256
6
ByLayer
370
18
48
1
60
0
100
AcDbSpline
70
4
71
3
72
19
73
15
40
0
40
0
40
0
40
0
40
0.24999999999999
40
0.24999999999999
40
0.312499999999987
40
0.312499999999987
40
0.374999999999985
40
0.499999999999986
40
0.499999999999986
40
0.624999999999988
40
0.624999999999988
40
0.749999999999989
40
0.749999999999989
40
1
40
1
40
1
40
1
41
1
10
9.16736977409795
20
1.37026223840155
30
0
41
1
10
9.20229291985248
20
1.24058776879477
30
0
41
1
10
9.24029524195828
20
1.10686596168043
30
0
41
1
10
9.29135692266556
20
0.935035966175775
30
0
41
1
10
9.30175511812689
20
0.90041288271712
30
0
41
1
10
9.32282620948405
20
0.830963073851649
30
0
41
1
10
9.35487037658964
20
0.726396557919003
30
0
41
1
10
9.38819763424021
20
0.620681050659044
30
0
41
1
10
9.43374202770485
20
0.478734796304309
30
0
41
1
10
9.45710192419261
20
0.407168553819787
30
0
41
1
10
9.50451232345887
20
0.264257208660411
30
0
41
1
10
9.528604760478
20
0.192778220509695
30
0
41
1
10
9.60200499275658
20
-0.0217263550524649
30
0
41
1
10
9.65243018295934
20
-0.164819220724496
30
0
41
1
10
9.70431703622501
20
-0.308000093271943
30
0
0
SPLINE
5
104
100
AcDbEntity
8
1
62
256
6
ByLayer
370
18
48
1
60
0
100
AcDbSpline
70
4
71
3
72
18
73
14
40
0
40
0
40
0
40
0
40
0.249999999999999
40
0.249999999999999
40
0.499999999999997
40
0.499999999999997
40
0.624999999999998
40
0.624999999999998
40
0.749999999999999
40
0.749999999999999
40
0.874999999999999
40
0.874999999999999
40
1
40
1
40
1
40
1
41
1
10
9.70431703979111
20
-0.308000092204253
30
0
41
1
10
9.71251137796082
20
-0.33061308839271
30
0
41
1
10
9.72043739862622
20
-0.353147610059466
30
0
41
1
10
9.73570504857051
20
-0.398045728001819
30
0
41
1
10
9.74304899066698
20
-0.420410002900041
30
0
41
1
10
9.75351650530379
20
-0.453796021297734
30
0
41
1
10
9.75690469506094
20
-0.464873484820799
30
0
41
1
10
9.76334619386725
20
-0.486567962777144
30
0
41
1
10
9.76641388912981
20
-0.497229674264901
30
0
41
1
10
9.77218913551923
20
-0.518116541669571
30
0
41
1
10
9.77486619452529
20
-0.528233381882671
30
0
41
1
10
9.77969966973461
20
-0.547580348554334
30
0
41
1
10
9.78186272634628
20
-0.55683241357309
30
0
41
1
10
9.78371495239418
20
-0.56556812174631
30
0
0
SPLINE
5
105
100
AcDbEntity
8
1
62
256
6
ByLayer
370
18
48
1
60
0
100
AcDbSpline
70
4
71
3
72
8
73
4
40
0
40
0
40
0
40
0
40
1
40
1
40
1
40
1
41
1
10
0.530077891405682
20
-3.48299184713636
30
0
41
1
10
0.352235874397451
20
-3.41384853248584
30
0
41
1
10
0.175531772714976
20
-3.34087849049413
30
0
41
1
10
2.67448E-11
20
-3.26396599047027
30
0
0
SPLINE
5
106
100
AcDbEntity
8
1
62
256
6
ByLayer
370
18
48
1
60
0
100
AcDbSpline
70
4
71
3
72
8
73
4
40
0
40
0
40
0
40
0
40
1
40
1
40
1
40
1
41
1
10
9.98415263160365
20
-2.10228537389841
30
0
41
1
10
9.9998509754534
20
-2.19055663992876
30
0
41
1
10
10.0163097339052
20
-2.27842006657076
30
0
41
1
10
10.0336307142344
20
-2.36578601247311
30
0
0
SPLINE
5
107
100
AcDbEntity
8
1
62
256
6
ByLayer
370
18
48
1
60
0
100
AcDbSpline
70
4
71
3
72
10
73
6
40
0
40
0
40
0
40
0
40
0.848435268296524
40
0.848435268296524
40
1
40
1
40
1
40
1
41
1
10
9.97327292346392
20
-1.99186217942534
30
0
41
1
10
9.97640935281964
20
-2.02310786395219
30
0
41
1
10
9.97949438430555
20
-2.05433927014013
30
0
41
1
10
9.98307264366093
20
-2.09113332987747
30
0
41
1
10
9.98361341498742
20
-2.0967095738479
30
0
41
1
10
9.98415263160365
20
-2.10228537389841
30
0
0
SPLINE
5
108
100
AcDbEntity
8
1
62
256
6
ByLayer
370
18
48
1
60
0
100
AcDbSpline
70
4
71
3
72
8
73
4
40
0
40
0
40
0
40
0
40
1
40
1
40
1
40
1
41
1
10
9.99794265946201
20
-2.36466422231771
30
0
41
1
10
10.0098363758433
20
-2.36502629208269
30
0
41
1
10
10.0217323961419
20
-2.36540023353913
30
0
41
1
10
10.0336307142526
20
-2.36578601247189
30
0
0
SPLINE
5
109
100
AcDbEntity
8
1
62
256
6
ByLayer
370
18
48
1
60
0
100
AcDbSpline
70
4
71
3
72
8
73
4
40
0
40
0
40
0
40
0
40
1
40
1
40
1
40
1
41
1
10
9.78371495631171
20
-0.565568123422651
30
0
41
1
10
9.80241710967658
20
-0.653864390408131
30
0
41
1
10
9.82163192602678
20
-0.743112729103132
30
0
41
1
10
9.84140084303266
20
-0.833390083702938
30
0
0
SPLINE
5
10A
100
AcDbEntity
8
1
62
256
6
ByLayer
370
13
48
1
60
0
100
AcDbSpline
70
4
71
3
72
10
73
6
40
0
40
0
40
0
40
0
40
0.485512228735791
40
0.78303196462977
40
1
40
1
40
1
40
1
41
1
10
9.783714957526
20
-0.565568121889328
30
0
41
1
10
9.12416926881923
20
-0.0618240866320718
30
0
41
1
10
8.06045691344582
20
0.763681061790862
30
0
41
1
10
6.70200361470162
20
1.76247339419348
30
0
41
1
10
6.00309600466426
20
2.23393703325669
30
0
41
1
10
5.70835506129353
20
2.42269548916434
30
0
0
SPLINE
5
10B
100
AcDbEntity
8
1
62
256
6
ByLayer
370
18
48
1
60
0
100
AcDbSpline
70
4
71
3
72
8
73
4
40
0
40
0
40
0
40
0
40
1
40
1
40
1
40
1
41
1
10
10.0110535896463
20
-1.27848197778081
30
0
41
1
10
9.9979614049185
20
-1.5060280662191
30
0
41
1
10
9.98310742873011
20
-1.73376866748947
30
0
41
1
10
9.96545226151054
20
-1.96172946150901
30
0
0
SPLINE
5
10C
100
AcDbEntity
8
1
62
256
6
ByLayer
370
18
48
1
60
0
100
AcDbSpline
70
4
71
3
72
8
73
4
40
0
40
0
40
0
40
0
40
1
40
1
40
1
40
1
41
1
10
10.0110535896463
20
-1.27848197778078
30
0
41
1
10
9.95425357435778
20
-1.13101153407806
30
0
41
1
10
9.89770310755762
20
-0.982645959762465
30
0
41
1
10
9.84140084303255
20
-0.833390083702966
30
0
0
SPLINE
5
10D
100
AcDbEntity
8
1
62
256
6
ByLayer
370
18
48
1
60
0
100
AcDbSpline
70
4
71
3
72
51
73
47
40
0
40
0
40
0
40
0
40
0.0625000000000044
40
0.0625000000000044
40
0.125000000000009
40
0.125000000000009
40
0.14062500000001
40
0.14062500000001
40
0.156250000000012
40
0.156250000000012
40
0.187500000000013
40
0.187500000000013
40
0.250000000000012
40
0.250000000000012
40
0.312500000000011
40
0.312500000000011
40
0.37500000000001
40
0.37500000000001
40
0.437500000000009
40
0.437500000000009
40
0.468750000000009
40
0.468750000000009
40
0.484375000000009
40
0.484375000000009
40
0.500000000000009
40
0.562500000000007
40
0.562500000000007
40
0.625000000000004
40
0.625000000000004
40
0.687500000000002
40
0.687500000000002
40
0.75
40
0.75
40
0.781249999999999
40
0.781249999999999
40
0.796874999999999
40
0.796874999999999
40
0.812499999999999
40
0.812499999999999
40
0.843749999999999
40
0.843749999999999
40
0.874999999999999
40
0.874999999999999
40
0.9375
40
0.9375
40
1
40
1
40
1
40
1
41
1
10
9.84140084303249
20
-0.833390083702909
30
0
41
1
10
9.64674345285977
20
-0.676215764512762
30
0
41
1
10
9.4522478430124
20
-0.518096827532361
30
0
41
1
10
9.06298774948175
20
-0.200720751679739
30
0
41
1
10
8.86822330041366
20
-0.0414640787603275
30
0
41
1
10
8.62420956670013
20
0.157844913543215
30
0
41
1
10
8.57537867567987
20
0.197718384174237
30
0
41
1
10
8.4776498709582
20
0.277475869355783
30
0
41
1
10
8.4287165671318
20
0.317388709442383
30
0
41
1
10
8.28213212164457
20
0.436852126890784
30
0
41
1
10
8.18467754454261
20
0.51614157001913
30
0
41
1
10
7.89300336749255
20
0.75280653874546
30
0
41
1
10
7.69951434016212
20
0.908999078844602
30
0
41
1
10
7.31356445195843
20
1.21721963792609
30
0
41
1
10
7.12105146092108
20
1.36922810710129
30
0
41
1
10
6.73598488961247
20
1.66800983830387
30
0
41
1
10
6.54343081672695
20
1.81478458138273
30
0
41
1
10
6.15748536887628
20
2.10205092366164
30
0
41
1
10
5.9641048250993
20
2.24254661705632
30
0
41
1
10
5.67274742049221
20
2.44772670400866
30
0
41
1
10
5.57540935344412
20
2.51519331792306
30
0
41
1
10
5.42897502272442
20
2.61490536843292
30
0
41
1
10
5.38005917356708
20
2.64791635900832
30
0
41
1
10
5.28240454161448
20
2.71320522338993
30
0
41
1
10
5.03854520168142
20
2.87470967248791
30
0
41
1
10
4.79597908947972
20
3.0276063495354
30
0
41
1
10
4.40898552196063
20
3.26079091061126
30
0
41
1
10
4.21604982552364
20
3.37165242326981
30
0
41
1
10
3.83061345497552
20
3.58130607124687
30
0
41
1
10
3.63807300303375
20
3.68013408096871
30
0
41
1
10
3.25240167617872
20
3.86538749439396
30
0
41
1
10
3.05931838937283
20
3.9517284626188
30
0
41
1
10
2.76870333587868
20
4.07103692314172
30
0
41
1
10
2.67166298443925
20
4.10911671171593
30
0
41
1
10
2.52577116917533
20
4.1635869174826
30
0
41
1
10
2.47708563282816
20
4.1813005930247
30
0
41
1
10
2.37959171431697
20
4.21581404456973
30
0
41
1
10
2.3307698791217
20
4.23261748143247
30
0
41
1
10
2.18455214055643
20
4.28146505011972
30
0
41
1
10
2.08726684721762
20
4.31197437243995
30
0
41
1
10
1.89275890997783
20
4.36932841805444
30
0
41
1
10
1.7955522218781
20
4.39614562319647
30
0
41
1
10
1.50399451323494
20
4.47080792307162
30
0
41
1
10
1.30969050536794
20
4.51290774763658
30
0
41
1
10
0.920502208470651
20
4.58109575562258
30
0
41
1
10
0.725620838662906
20
4.60717608598495
30
0
41
1
10
0.53007789140571
20
4.62478619292332
30
0
0
SPLINE
5
10E
100
AcDbEntity
8
1
62
256
6
ByLayer
370
18
48
1
60
0
100
AcDbSpline
70
4
71
3
72
10
73
6
40
0
40
0
40
0
40
0
40
0.648442609077644
40
0.648442609077644
40
1
40
1
40
1
40
1
41
1
10
0.53007789140571
20
4.62478619292332
30
0
41
1
10
0.440820226876525
20
4.63209113950842
30
0
41
1
10
0.352025890041489
20
4.63808538208354
30
0
41
1
10
0.215790188766846
20
4.64535186421517
30
0
41
1
10
0.168022680307843
20
4.64754672998092
30
0
41
1
10
0.120388770491331
20
4.64936365961492
30
0
0
SPLINE
5
10F
100
AcDbEntity
8
1
62
256
6
ByLayer
370
18
48
1
60
0
100
AcDbSpline
70
4
71
3
72
8
73
4
40
0
40
0
40
0
40
0
40
1
40
1
40
1
40
1
41
1
10
9.9654522615144
20
-1.9617294615087
30
0
41
1
10
9.96806876879367
20
-1.97177310795692
30
0
41
1
10
9.97067562874088
20
-1.98181734989097
30
0
41
1
10
9.9732729260196
20
-1.9918621816683
30
0
0
SPLINE
5
110
100
AcDbEntity
8
1
62
256
6
ByLayer
370
13
48
1
60
0
100
AcDbSpline
70
4
71
3
72
11
73
7
40
0
40
0
40
0
40
0
40
0.124153741535456
40
0.343115306151592
40
0.562076870767728
40
1
40
1
40
1
40
1
41
1
10
6.06757942563897
20
0.842080116378668
30
0
41
1
10
5.83841224756117
20
1.02115127530459
30
0
41
1
10
5.20507840281675
20
1.51033733259396
30
0
41
1
10
4.16757789140559
20
2.2691137903854
30
0
41
1
10
2.55091122473894
20
3.31565469275031
30
0
41
1
10
1.33841122473896
20
3.88997468063266
30
0
41
1
10
0.530077891405597
20
4.14519510964763
30
0
0
SPLINE
5
111
100
AcDbEntity
8
1
62
256
6
ByLayer
370
18
48
1
60
0
100
AcDbSpline
70
4
71
3
72
18
73
14
40
0
40
0
40
0
40
0
40
0.399161708267615
40
0.399161708267615
40
0.44905692180107
40
0.44905692180107
40
0.498952135334525
40
0.498952135334525
40
0.598742562401439
40
0.598742562401439
40
0.798323416535264
40
0.798323416535264
40
1
40
1
40
1
40
1
41
1
10
0.53007789140571
20
-4.43974338822321
30
0
41
1
10
0.92341067766381
20
-4.55266297332639
30
0
41
1
10
1.31554218374023
20
-4.64299957932408
30
0
41
1
10
1.75749624911066
20
-4.71832601067655
30
0
41
1
10
1.80661395930184
20
-4.72632871108937
30
0
41
1
10
1.90488120111019
20
-4.74159469984872
30
0
41
1
10
1.95403784710447
20
-4.74885866809612
30
0
41
1
10
2.10128885342743
20
-4.76949827941408
30
0
41
1
10
2.19925554933036
20
-4.78173664812371
30
0
41
1
10
2.49265672244508
20
-4.81390397970031
30
0
41
1
10
2.6875939777492
20
-4.82929125945461
30
0
41
1
10
3.0787174492248
20
-4.84830450157077
30
0
41
1
10
3.27489614530012
20
-4.85179586673834
30
0
41
1
10
3.47093136503332
20
-4.84923448410808
30
0
0
SPLINE
5
112
100
AcDbEntity
8
1
62
256
6
ByLayer
370
18
48
1
60
0
100
AcDbSpline
70
4
71
3
72
8
73
4
40
0
40
0
40
0
40
0
40
1
40
1
40
1
40
1
41
1
10
9.94549177152268
20
-2.36090351348992
30
0
41
1
10
9.96297352844124
20
-2.36213202822094
30
0
41
1
10
9.98045715721241
20
-2.36338559130306
30
0
41
1
10
9.99794265936873
20
-2.36466422320828
30
0
0
SPLINE
5
113
100
AcDbEntity
8
1
62
256
6
ByLayer
370
18
48
1
60
0
100
AcDbSpline
70
4
71
2
72
6
73
3
40
0
40
0
40
0
40
1
40
1
40
1
41
0.499998942800169
10
0.527756813566491
20
-4.43959535512512
30
0
41
0.500001057199831
10
0.528917347545976
20
-4.43964334389191
30
0
41
0.499998942800169
10
0.530077891405756
20
-4.43969132728768
30
0
0
SPLINE
5
114
100
AcDbEntity
8
1
62
256
6
ByLayer
370
18
48
1
60
0
100
AcDbSpline
70
4
71
3
72
8
73
4
40
0
40
0
40
0
40
0
40
1
40
1
40
1
40
1
41
1
10
0.497810301998101
20
-4.43879852847425
30
0
41
1
10
0.507780547698843
20
-4.43891675391211
30
0
41
1
10
0.517762696348939
20
-4.4391820924628
30
0
41
1
10
0.527756813566299
20
-4.4395953551234
30
0
0
SPLINE
5
115
100
AcDbEntity
8
1
62
256
6
ByLayer
370
18
48
1
60
0
100
AcDbSpline
70
4
71
2
72
6
73
3
40
0
40
0
40
0
40
1
40
1
40
1
41
0.500002302113709
10
0.527756813566506
20
4.42612404812969
30
0
41
0.499997697886291
10
0.528917357693962
20
4.42617370099319
30
0
41
0.500002302113709
10
0.530077891405767
20
4.42622334829884
30
0
0
SPLINE
5
116
100
AcDbEntity
8
1
62
256
6
ByLayer
370
18
48
1
60
0
100
AcDbSpline
70
4
71
3
72
8
73
4
40
0
40
0
40
0
40
0
40
1
40
1
40
1
40
1
41
1
10
0.480286888957295
20
4.42503833746972
30
0
41
1
10
0.496068232216061
20
4.42508473718533
30
0
41
1
10
0.511891356562359
20
4.42544525845366
30
0
41
1
10
0.527756813566299
20
4.42612404812843
30
0
0
SPLINE
5
117
100
AcDbEntity
8
1
62
256
6
ByLayer
370
18
48
1
60
0
100
AcDbSpline
70
4
71
3
72
14
73
10
40
0
40
0
40
0
40
0
40
0.25
40
0.25
40
0.5
40
0.5
40
0.75
40
0.75
40
1
40
1
40
1
40
1
41
1
10
0.49781030200154
20
-4.43879852847661
30
0
41
1
10
0.500038403357593
20
-4.43815557913351
30
0
41
1
10
0.502347336614918
20
-4.43757633932941
30
0
41
1
10
0.507246343176888
20
-4.43663611174412
30
0
41
1
10
0.509887891153966
20
-4.43627400348851
30
0
41
1
10
0.515231640577554
20
-4.4359799107547
30
0
41
1
10
0.517986099642656
20
-4.43605597754802
30
0
41
1
10
0.523119519509322
20
-4.43665705658955
30
0
41
1
10
0.52554702652472
20
-4.43717589068404
30
0
41
1
10
0.527756813564565
20
-4.43781449563244
30
0
0
SPLINE
5
118
100
AcDbEntity
8
1
62
256
6
ByLayer
370
18
48
1
60
0
100
AcDbSpline
70
4
71
3
72
8
73
4
40
0
40
0
40
0
40
0
40
1
40
1
40
1
40
1
41
1
10
0.527756813566441
20
-4.43781449563053
30
0
41
1
10
0.528530514644643
20
-4.43803808701207
30
0
41
1
10
0.529304207226147
20
-4.43826159625317
30
0
41
1
10
0.53007789140571
20
-4.43848502326915
30
0
0
SPLINE
5
119
100
AcDbEntity
8
1
62
256
6
ByLayer
370
18
48
1
60
0
100
AcDbSpline
70
4
71
3
72
8
73
4
40
0
40
0
40
0
40
0
40
1
40
1
40
1
40
1
41
1
10
0.530077891405597
20
-4.43848502326915
30
0
41
1
10
0.530077891405597
20
-4.4389044781143
30
0
41
1
10
0.530077891405597
20
-4.43932393309896
30
0
41
1
10
0.530077891405597
20
-4.43974338822321
30
0
0
SPLINE
5
11A
100
AcDbEntity
8
1
62
256
6
ByLayer
370
18
48
1
60
0
100
AcDbSpline
70
4
71
3
72
18
73
14
40
0
40
0
40
0
40
0
40
0.25
40
0.25
40
0.5
40
0.5
40
0.625
40
0.625
40
0.75
40
0.75
40
0.875
40
0.875
40
1
40
1
40
1
40
1
41
1
10
0.480286888849719
20
4.42503833752897
30
0
41
1
10
0.48366490140117
20
4.42611072281318
30
0
41
1
10
0.487147362890141
20
4.42713840160698
30
0
41
1
10
0.494540836185195
20
4.42899554315599
30
0
41
1
10
0.498417786202765
20
4.42982679499272
30
0
41
1
10
0.504762475099
20
4.43065586461668
30
0
41
1
10
0.506948501039489
20
4.43085509449003
30
0
41
1
10
0.511413790656349
20
4.43101073352662
30
0
41
1
10
0.51371135957379
20
4.43096068104799
30
0
41
1
10
0.518099862883076
20
4.43057277434139
30
0
41
1
10
0.520260641730346
20
4.43022838904949
30
0
41
1
10
0.524212050686771
20
4.42934089839991
30
0
41
1
10
0.526042602700045
20
4.42879769292608
30
0
41
1
10
0.527756813566413
20
4.42819255748023
30
0
0
SPLINE
5
11B
100
AcDbEntity
8
1
62
256
6
ByLayer
370
18
48
1
60
0
100
AcDbSpline
70
4
71
3
72
8
73
4
40
0
40
0
40
0
40
0
40
1
40
1
40
1
40
1
41
1
10
0.527756813566469
20
4.4281925574802
30
0
41
1
10
0.528530515642075
20
4.42791943206743
30
0
41
1
10
0.529304208195953
20
4.42764617555207
30
0
41
1
10
0.53007789140571
20
4.42737278804108
30
0
0
SPLINE
5
11C
100
AcDbEntity
8
1
62
256
6
ByLayer
370
18
48
1
60
0
100
AcDbSpline
70
4
71
3
72
8
73
4
40
0
40
0
40
0
40
0
40
1
40
1
40
1
40
1
41
1
10
0.530077891405625
20
4.42737278804111
30
0
41
1
10
0.530077891405625
20
4.4270031241997
30
0
41
1
10
0.530077891405625
20
4.42663346065433
30
0
41
1
10
0.530077891405625
20
4.42626379740497
30
0
0
SPLINE
5
11D
100
AcDbEntity
8
1
62
256
6
ByLayer
370
18
48
1
60
0
100
AcDbSpline
70
4
71
3
72
41
73
37
40
0
40
0
40
0
40
0
40
0.0624999999999966
40
0.0624999999999966
40
0.124999999999993
40
0.124999999999993
40
0.140624999999993
40
0.140624999999993
40
0.156249999999993
40
0.187499999999992
40
0.187499999999992
40
0.249999999999991
40
0.249999999999991
40
0.374999999999988
40
0.374999999999988
40
0.406249999999989
40
0.406249999999989
40
0.421874999999989
40
0.421874999999989
40
0.437499999999989
40
0.499999999999991
40
0.499999999999991
40
0.624999999999998
40
0.624999999999998
40
0.687500000000002
40
0.687500000000002
40
0.718750000000003
40
0.718750000000003
40
0.734375000000004
40
0.734375000000004
40
0.750000000000004
40
0.812500000000003
40
0.812500000000003
40
0.875000000000002
40
0.875000000000002
40
1
40
1
40
1
40
1
41
1
10
0.530077891405739
20
4.42626379740494
30
0
41
1
10
0.727781397799163
20
4.35720161176539
30
0
41
1
10
0.924983338498123
20
4.28025696370756
30
0
41
1
10
1.31928407896825
20
4.11129822889154
30
0
41
1
10
1.51638146980042
20
4.01928480427597
30
0
41
1
10
1.76326903431331
20
3.89513444754297
30
0
41
1
10
1.81270074812252
20
3.86983223771406
30
0
41
1
10
1.91148849650494
20
3.81839323017994
30
0
41
1
10
2.05948852560766
20
3.74002027921813
30
0
41
1
10
2.20701193411651
20
3.65807256698386
30
0
41
1
10
2.50159810924782
20
3.48958847774631
30
0
41
1
10
2.69737869124245
20
3.37116446919779
30
0
41
1
10
3.2841540957937
20
2.99896701550546
30
0
41
1
10
3.67451034208977
20
2.72825514393344
30
0
41
1
10
4.16593310752341
20
2.36536226722538
30
0
41
1
10
4.26439413616873
20
2.2915567501741
30
0
41
1
10
4.41243871317681
20
2.17908004014484
30
0
41
1
10
4.46188910651216
20
2.14125947118163
30
0
41
1
10
4.56063018525208
20
2.06526596429498
30
0
41
1
10
4.80714689645282
20
1.87435323992045
30
0
41
1
10
5.05218178122269
20
1.67904226202415
30
0
41
1
10
5.63873660018362
20
1.20343783009892
30
0
41
1
10
6.02768560555114
20
0.877164906470625
30
0
41
1
10
6.61324729771792
20
0.380129809638987
30
0
41
1
10
6.8087923132403
20
0.213181381981712
30
0
41
1
10
7.10333502928987
20
-0.0383767660608214
30
0
41
1
10
7.20172059666339
20
-0.122418707280502
30
0
41
1
10
7.349695419863
20
-0.248668463492578
30
0
41
1
10
7.39912934800549
20
-0.290819323272956
30
0
41
1
10
7.49792283561265
20
-0.374979000958405
30
0
41
1
10
7.74458213007384
20
-0.584904141196631
30
0
41
1
10
7.98979131275649
20
-0.792290966505448
30
0
41
1
10
8.38114816505006
20
-1.11995788512115
30
0
41
1
10
8.57633859282836
20
-1.28171467294098
30
0
41
1
10
9.16178497154829
20
-1.7592664452655
30
0
41
1
10
9.55192005068437
20
-2.0673476760158
30
0
41
1
10
9.94549177152311
20
-2.36090351348466
30
0
0
SPLINE
5
11E
100
AcDbEntity
8
SK1
62
256
6
ByLayer
370
18
48
1
60
0
100
AcDbSpline
70
4
71
3
72
8
73
4
40
0
40
0
40
0
40
0
40
1
40
1
40
1
40
1
41
1
10
-0.646347201409498
20
4.99913672983229
30
0
41
1
10
-0.462196655221078
20
4.88852901121641
30
0
41
1
10
-0.275857287755542
20
4.78457922362193
30
0
41
1
10
-0.0873109881387109
20
4.6873424564946
30
0
0
SPLINE
5
11F
100
AcDbEntity
8
SK1
62
256
6
ByLayer
370
18
48
1
60
0
100
AcDbSpline
70
4
71
3
72
8
73
4
40
0
40
0
40
0
40
0
40
1
40
1
40
1
40
1
41
1
10
-0.80149474216006
20
4.97266252302518
30
0
41
0.999728475211161
10
-0.685346472984759
20
4.89508018110415
30
0
41
0.999728475211161
10
-0.568459953562452
20
4.82133810475577
30
0
41
1
10
-0.450930396655679
20
4.75149636238515
30
0
0
SPLINE
5
120
100
AcDbEntity
8
SK1
62
256
6
ByLayer
370
18
48
1
60
0
100
AcDbSpline
70
4
71
3
72
12
73
8
40
0
40
0
40
0
40
0
40
0.251345301821843
40
0.251345301821843
40
0.502690603644752
40
0.502690603644752
40
1
40
1
40
1
40
1
41
1
10
1.1369E-12
20
4.67508078192233
30
0
41
1
10
1.1369E-12
20
4.66912573339476
30
0
41
1
10
2.84E-14
20
4.66317102969836
30
0
41
1
10
2.84E-14
20
4.65126231196351
30
0
41
1
10
2.84E-14
20
4.64530829792443
30
0
41
1
10
2.84E-14
20
4.62757475608157
30
0
41
1
10
2.84E-14
20
4.61579623338059
30
0
41
1
10
2.84E-14
20
4.60401906059411
30
0
0
SPLINE
5
121
100
AcDbEntity
8
SK1
62
256
6
ByLayer
370
18
48
1
60
0
100
AcDbSpline
70
4
71
3
72
9
73
5
40
0
40
0
40
0
40
0
40
0.915803573785488
40
1
40
1
40
1
40
1
41
1
10
-0.450930391986134
20
4.7514963634375
30
0
41
1
10
-0.31330582235276
20
4.73271513107969
30
0
41
1
10
-0.162998702646576
20
4.70763528659285
30
0
41
1
10
-0.0126583600436447
20
4.67764094124499
30
0
41
1
10
1.5064E-12
20
4.67508078192247
30
0
0
SPLINE
5
122
100
AcDbEntity
8
SK1
62
256
6
ByLayer
370
18
48
1
60
0
100
AcDbSpline
70
4
71
3
72
16
73
12
40
0
40
0
40
0
40
0
40
0.111496007734398
40
0.222889092473221
40
0.334182226420802
40
0.445378307498026
40
0.556480168467051
40
0.66749058292484
40
0.778412265507824
40
0.889247872088562
40
1
40
1
40
1
40
1
41
1
10
-0.450930400195517
20
4.7514963644887
30
0
41
1
10
-0.457576897806234
20
4.75089281742865
30
0
41
1
10
-0.470863757584198
20
4.74968628044843
30
0
41
1
10
-0.490684916433423
20
4.74816595891539
30
0
41
1
10
-0.51041418799386
20
4.74685656334972
30
0
41
1
10
-0.530044483129871
20
4.74577705591153
30
0
41
1
10
-0.549577562633715
20
4.74492052542567
30
0
41
1
10
-0.569013465831858
20
4.74428530991622
30
0
41
1
10
-0.588350287698944
20
4.74387453241062
30
0
41
1
10
-0.607595616182067
20
4.74366691232512
30
0
41
1
10
-0.620350618771539
20
4.74371155338611
30
0
41
1
10
-0.626725717472453
20
4.74373386550781
30
0
0
SPLINE
5
123
100
AcDbEntity
8
SK1
62
256
6
ByLayer
370
18
48
1
60
0
100
AcDbSpline
70
4
71
3
72
8
73
4
40
0
40
0
40
0
40
0
40
1
40
1
40
1
40
1
41
1
10
-0.93717545072144
20
4.93838478088585
30
0
41
0.99978280574848
10
-0.834242139171286
20
4.87043978163324
30
0
41
0.99978280574848
10
-0.73073641390571
20
4.8055420477593
30
0
41
1
10
-0.626725717470265
20
4.7437338655082
30
0
0
SPLINE
5
124
100
AcDbEntity
8
SK1
62
256
6
ByLayer
370
18
48
1
60
0
100
AcDbSpline
70
4
71
3
72
12
73
8
40
0
40
0
40
0
40
0
40
0.455498356303935
40
0.455498356303935
40
0.910996712609157
40
0.910996712609157
40
1
40
1
40
1
40
1
41
1
10
1.819E-12
20
4.60401906059312
30
0
41
1
10
1.819E-12
20
4.57821365209634
30
0
41
1
10
2.84E-14
20
4.55241061571544
30
0
41
1
10
2.84E-14
20
4.50080928716181
30
0
41
1
10
0
20
4.47501099496679
30
0
41
1
10
0
20
4.44417461385939
30
0
41
1
10
2.84E-14
20
4.43913424344234
30
0
41
1
10
2.84E-14
20
4.4340939635909
30
0
0
SPLINE
5
125
100
AcDbEntity
8
SK1
62
256
6
ByLayer
370
18
48
1
60
0
100
AcDbSpline
70
4
71
3
72
10
73
6
40
0
40
0
40
0
40
0
40
0.210207216028917
40
0.939822517121203
40
1
40
1
40
1
40
1
41
1
10
-0.626725717472453
20
4.74373386550781
30
0
41
1
10
-0.582825748058212
20
4.73595276809263
30
0
41
1
10
-0.386539088368835
20
4.69926254026217
30
0
41
1
10
-0.177621566575482
20
4.65120785056388
30
0
41
1
10
-0.0125757613675432
20
4.60739157494757
30
0
41
1
10
2.5864E-12
20
4.60401906059343
30
0
0
SPLINE
5
126
100
AcDbEntity
8
SK1
62
256
6
ByLayer
370
18
48
1
60
0
100
AcDbSpline
70
4
71
3
72
25
73
21
40
0
40
0
40
0
40
0
40
0.0566258680382011
40
0.113146530707019
40
0.169563942331766
40
0.22588001251244
40
0.282096606206434
40
0.338215543838424
40
0.394238601437086
40
0.45016751079778
40
0.506003959670948
40
0.561749591975339
40
0.617406008035498
40
0.672974764842991
40
0.728457376340493
40
0.783855313728293
40
0.839170005768312
40
0.894402835815354
40
0.949555138288622
40
1
40
1
40
1
40
1
41
1
10
-0.626725717468332
20
4.74373386550707
30
0
41
1
10
-0.634346609928542
20
4.74201505253689
30
0
41
1
10
-0.649574235970078
20
4.73858061998425
30
0
41
1
10
-0.672294640133885
20
4.73378682998106
30
0
41
1
10
-0.694899038137805
20
4.72925835996605
30
0
41
1
10
-0.717380358416108
20
4.7250181279968
30
0
41
1
10
-0.739740512178457
20
4.72105688509336
30
0
41
1
10
-0.761979012614916
20
4.7173739590915
30
0
41
1
10
-0.784096016001627
20
4.71396636768381
30
0
41
1
10
-0.806091508889864
20
4.71083172858332
30
0
41
1
10
-0.827965525216257
20
4.70796748254025
30
0
41
1
10
-0.849718088159079
20
4.70537110176252
30
0
41
1
10
-0.871349225595679
20
4.70304003486785
30
0
41
1
10
-0.892858965763651
20
4.70097172258863
30
0
41
1
10
-0.914247338689876
20
4.69916359325651
30
0
41
1
10
-0.935514374308553
20
4.69761306850396
30
0
41
1
10
-0.956660107629631
20
4.69631754828055
30
0
41
1
10
-0.977684556828962
20
4.69527446868318
30
0
41
1
10
-0.998003084046672
20
4.69450333591627
30
0
41
1
10
-1.01128783101231
20
4.69414792955143
30
0
41
1
10
-1.01762130349937
20
4.69401219176694
30
0
0
SPLINE
5
127
100
AcDbEntity
8
SK1
62
256
6
ByLayer
370
18
48
1
60
0
100
AcDbSpline
70
4
71
3
72
8
73
4
40
0
40
0
40
0
40
0
40
1
40
1
40
1
40
1
41
1
10
-0.12582227370109
20
4.44288933194403
30
0
41
1
10
-0.0839671361120224
20
4.43950476839333
30
0
41
1
10
-0.0420260118060298
20
4.43657491655517
30
0
41
1
10
-1.705E-13
20
4.43409396359132
30
0
0
SPLINE
5
128
100
AcDbEntity
8
SK1
62
256
6
ByLayer
370
18
48
1
60
0
100
AcDbSpline
70
4
71
3
72
8
73
4
40
0
40
0
40
0
40
0
40
1
40
1
40
1
40
1
41
1
10
-0.873386121251031
20
-4.5541181711296
30
0
41
1
10
-0.875365245351929
20
-4.54331650689468
30
0
41
1
10
-0.87717705955663
20
-4.53255228229762
30
0
41
1
10
-0.878824684357056
20
-4.52182365001283
30
0
0
SPLINE
5
129
100
AcDbEntity
8
SK1
62
256
6
ByLayer
370
18
48
1
60
0
100
AcDbSpline
70
4
71
3
72
8
73
4
40
0
40
0
40
0
40
0
40
1
40
1
40
1
40
1
41
1
10
-1.16298393665295
20
-4.4621090977007
30
0
41
1
10
-1.16616416505269
20
-4.45115398707438
30
0
41
1
10
-1.16934439345243
20
-4.44019887644802
30
0
41
1
10
-1.17252462185218
20
-4.4292437658217
30
0
0
SPLINE
5
12A
100
AcDbEntity
8
SK1
62
256
6
ByLayer
370
18
48
1
60
0
100
AcDbSpline
70
4
71
3
72
10
73
6
40
0
40
0
40
0
40
0
40
0.688895148633268
40
0.688895148633268
40
1
40
1
40
1
40
1
41
1
10
2.5011E-12
20
-4.25465252002394
30
0
41
1
10
2.5011E-12
20
-4.29591078538283
30
0
41
1
10
0
20
-4.3371700432279
30
0
41
1
10
0
20
-4.39706341072957
30
0
41
1
10
0
20
-4.41569673033041
30
0
41
1
10
0
20
-4.43433025233512
30
0
0
SPLINE
5
12B
100
AcDbEntity
8
SK1
62
256
6
ByLayer
370
18
48
1
60
0
100
AcDbSpline
70
4
71
3
72
9
73
5
40
0
40
0
40
0
40
0
40
0.831159597735806
40
1
40
1
40
1
40
1
41
1
10
-1.17252462185343
20
-4.4292437658213
30
0
41
1
10
-1.0911592710616
20
-4.45603076134449
30
0
41
1
10
-0.99326089401373
20
-4.48712817231026
30
0
41
1
10
-0.895355307528092
20
-4.51684567320126
30
0
41
1
10
-0.878824684357141
20
-4.52182365001281
30
0
0
SPLINE
5
12C
100
AcDbEntity
8
SK1
62
256
6
ByLayer
370
18
48
1
60
0
100
AcDbSpline
70
4
71
3
72
10
73
6
40
0
40
0
40
0
40
0
40
0.5
40
0.5
40
1
40
1
40
1
40
1
41
1
10
-0.878824684357056
20
-4.52182365001283
30
0
41
1
10
-0.733680670282695
20
-4.49445849549321
30
0
41
1
10
-0.58766354541325
20
-4.47340088346152
30
0
41
1
10
-0.293928111434553
20
-4.44422026490776
30
0
41
1
10
-0.146912801062712
20
-4.43617685690046
30
0
41
1
10
0
20
-4.43433025233512
30
0
0
SPLINE
5
12D
100
AcDbEntity
8
SK1
62
256
6
ByLayer
370
18
48
1
60
0
100
AcDbSpline
70
4
71
3
72
12
73
8
40
0
40
0
40
0
40
0
40
0.250874425954941
40
0.250874425954941
40
0.501748851909884
40
0.501748851909884
40
1
40
1
40
1
40
1
41
1
10
1.6769E-12
20
-4.02957176021027
30
0
41
1
10
1.6769E-12
20
-4.04839357844153
30
0
41
1
10
0
20
-4.0672155264366
30
0
41
1
10
0
20
-4.1048596819509
30
0
41
1
10
0
20
-4.12368188947073
30
0
41
1
10
0
20
-4.17988647934274
30
0
41
1
10
0
20
-4.21726924377003
30
0
41
1
10
0
20
-4.25465252002221
30
0
0
SPLINE
5
12E
100
AcDbEntity
8
SK1
62
256
6
ByLayer
370
18
48
1
60
0
100
AcDbSpline
70
4
71
3
72
9
73
5
40
0
40
0
40
0
40
0
40
0.989611815272642
40
1
40
1
40
1
40
1
41
1
10
-0.711771785424702
20
-3.98817437142566
30
0
41
1
10
-0.477020258036191
20
-4.0834197390767
30
0
41
1
10
-0.239766577755319
20
-4.17249207023067
30
0
41
1
10
-0.0024651363630142
20
-4.25380862611522
30
0
41
1
10
2.3874E-12
20
-4.25465252002303
30
0
0
SPLINE
5
12F
100
AcDbEntity
8
SK1
62
256
6
ByLayer
370
18
48
1
60
0
100
AcDbSpline
70
4
71
3
72
8
73
4
40
0
40
0
40
0
40
0
40
1
40
1
40
1
40
1
41
1
10
-1.30882669393702
20
-4.41495694695269
30
0
41
0.999962362768472
10
-1.26347891111812
20
-4.41913569168474
30
0
41
0.999962362768472
10
-1.21804317701479
20
-4.42389814388655
30
0
41
1
10
-1.17252462185274
20
-4.42924376582164
30
0
0
SPLINE
5
130
100
AcDbEntity
8
SK1
62
256
6
ByLayer
370
18
48
1
60
0
100
AcDbSpline
70
4
71
3
72
27
73
23
40
0
40
0
40
0
40
0
40
0.0508026445895737
40
0.101514513589499
40
0.152136753778242
40
0.202670488129053
40
0.253116816291853
40
0.303476815056488
40
0.353751538797797
40
0.403942019903003
40
0.454049269182018
40
0.504074275497926
40
0.554018000688072
40
0.603881379947356
40
0.653665323403868
40
0.703370716301866
40
0.752998419190923
40
0.802549268125034
40
0.852024074871482
40
0.901423627128969
40
0.950748688754697
40
1
40
1
40
1
40
1
41
1
10
-0.711771793795549
20
-3.9881743681627
30
0
41
1
10
-0.71982745863005
20
-3.99481121353773
30
0
41
1
10
-0.735924394211224
20
-4.00807304538642
30
0
41
1
10
-0.759954693908327
20
-4.02829568105372
30
0
41
1
10
-0.783873003735835
20
-4.04873323168079
30
0
41
1
10
-0.807672673327204
20
-4.06940762367481
30
0
41
1
10
-0.831355480502936
20
-4.09030903044015
30
0
41
1
10
-0.854920950049632
20
-4.1114361475299
30
0
41
1
10
-0.878369208267429
20
-4.13278542885266
30
0
41
1
10
-0.90170022004321
20
-4.15435396312998
30
0
41
1
10
-0.924913992924871
20
-4.1761387037995
30
0
41
1
10
-0.948010520632863
20
-4.19813667653546
30
0
41
1
10
-0.970989804577016
20
-4.22034489808178
30
0
41
1
10
-0.993851845901276
20
-4.24276040243777
30
0
41
1
10
-1.01659664999306
20
-4.26538022993859
30
0
41
1
10
-1.03922420933651
20
-4.28820147211525
30
0
41
1
10
-1.06173456833201
20
-4.31122110576447
30
0
41
1
10
-1.08412758169783
20
-4.33443661173024
30
0
41
1
10
-1.10640381389834
20
-4.35784367168719
30
0
41
1
10
-1.12856118997166
20
-4.38144474490457
30
0
41
1
10
-1.15060746620969
20
-4.40521713290661
30
0
41
1
10
-1.16522254808643
20
-4.42123888376599
30
0
41
1
10
-1.17252462185343
20
-4.4292437658213
30
0
0
SPLINE
5
131
100
AcDbEntity
8
SK1
62
256
6
ByLayer
370
18
48
1
60
0
100
AcDbSpline
70
4
71
3
72
8
73
4
40
0
40
0
40
0
40
0
40
1
40
1
40
1
40
1
41
1
10
-1.08291378905705
20
-3.9571261290175
30
0
41
0.999732069427161
10
-0.959901130496952
20
-3.96321494874039
30
0
41
0.999732069427161
10
-0.836153975157683
20
-3.97356713560559
30
0
41
1
10
-0.71177178997786
20
-3.98817436861103
30
0
0
SPLINE
5
132
100
AcDbEntity
8
SK1
62
256
6
ByLayer
370
18
48
1
60
0
100
AcDbSpline
70
4
71
3
72
15
73
11
40
0
40
0
40
0
40
0
40
0.125341076142234
40
0.250580237754488
40
0.375719772864705
40
0.500761924046223
40
0.625708889323793
40
0.750562823051682
40
0.875325836764212
40
1
40
1
40
1
40
1
41
1
10
-0.542551760595899
20
-3.80679167151081
30
0
41
1
10
-0.549718498741044
20
-3.81410747985404
30
0
41
1
10
-0.564046147773638
20
-3.82873314807421
30
0
41
1
10
-0.585431233987379
20
-3.85093779059883
30
0
41
1
10
-0.606727159008841
20
-3.87332296624382
30
0
41
1
10
-0.627926811648422
20
-3.89590673743214
30
0
41
1
10
-0.64903258827087
20
-3.9186803259569
30
0
41
1
10
-0.670042029759543
20
-3.94164791993708
30
0
41
1
10
-0.690962589088002
20
-3.96478879306704
30
0
41
1
10
-0.704837034023825
20
-3.98038102997708
30
0
41
1
10
-0.711771785426549
20
-3.98817437142489
30
0
0
SPLINE
5
133
100
AcDbEntity
8
SK1
62
256
6
ByLayer
370
18
48
1
60
0
100
AcDbSpline
70
4
71
3
72
10
73
6
40
0
40
0
40
0
40
0
40
0.475697423042338
40
0.475697423042338
40
1
40
1
40
1
40
1
41
1
10
0
20
-3.26396599046021
30
0
41
1
10
0
20
-3.38535925116187
30
0
41
1
10
0
20
-3.50675519328209
30
0
41
1
10
0
20
-3.76195654069991
30
0
41
1
10
0
20
-3.89576252199697
30
0
41
1
10
0
20
-4.02957176020897
30
0
0
SPLINE
5
134
100
AcDbEntity
8
SK1
62
256
6
ByLayer
370
18
48
1
60
0
100
AcDbSpline
70
4
71
3
72
9
73
5
40
0
40
0
40
0
40
0
40
0.986119374390331
40
1
40
1
40
1
40
1
41
1
10
-0.54255175203258
20
-3.80679167492067
30
0
41
1
10
-0.36423682039046
20
-3.88404941127385
30
0
41
1
10
-0.18338865928564
20
-3.95843642717148
30
0
41
1
10
-0.0025107049045801
20
-4.02859867908447
30
0
41
1
10
1.7906E-12
20
-4.02957176020968
30
0
0
SPLINE
5
135
100
AcDbEntity
8
SK1
62
256
6
ByLayer
370
18
48
1
60
0
100
AcDbSpline
70
4
71
3
72
39
73
35
40
0
40
0
40
0
40
0
40
0.125
40
0.125
40
0.15625
40
0.15625
40
0.187499999999999
40
0.249999999999999
40
0.249999999999999
40
0.281249999999999
40
0.281249999999999
40
0.312499999999998
40
0.374999999999997
40
0.374999999999997
40
0.406249999999997
40
0.406249999999997
40
0.437499999999996
40
0.499999999999996
40
0.499999999999996
40
0.531249999999995
40
0.531249999999995
40
0.562499999999995
40
0.624999999999995
40
0.624999999999995
40
0.687499999999995
40
0.687499999999995
40
0.749999999999995
40
0.749999999999995
40
0.781249999999995
40
0.781249999999995
40
0.812499999999996
40
0.874999999999997
40
0.874999999999997
40
1
40
1
40
1
40
1
41
1
10
2.84E-14
20
2.04482183486891
30
0
41
1
10
0
20
2.12284355958059
30
0
41
1
10
0
20
2.20625205248243
30
0
41
1
10
2.84E-14
20
2.31722414888699
30
0
41
1
10
2.84E-14
20
2.33975327862174
30
0
41
1
10
2.84E-14
20
2.38526943278845
30
0
41
1
10
2.84E-14
20
2.45431123809544
30
0
41
1
10
2.84E-14
20
2.52564147223586
30
0
41
1
10
0
20
2.59850849905106
30
0
41
1
10
2.84E-14
20
2.62304434010247
30
0
41
1
10
0
20
2.67240240950733
30
0
41
1
10
0
20
2.74695191417106
30
0
41
1
10
0
20
2.82302933121568
30
0
41
1
10
2.84E-14
20
2.90013315961122
30
0
41
1
10
2.84E-14
20
2.92598830390338
30
0
41
1
10
2.84E-14
20
2.97780480018849
30
0
41
1
10
2.84E-14
20
3.05577275146399
30
0
41
1
10
2.84E-14
20
3.13446603392896
30
0
41
1
10
2.84E-14
20
3.21364673769975
30
0
41
1
10
2.84E-14
20
3.24009583903449
30
0
41
1
10
5.68E-14
20
3.29291859466986
30
0
41
1
10
2.84E-14
20
3.37212014579814
30
0
41
1
10
2.84E-14
20
3.45122450856027
30
0
41
1
10
2.84E-14
20
3.55660988257279
30
0
41
1
10
2.84E-14
20
3.60901567334335
30
0
41
1
10
2.84E-14
20
3.71289590261219
30
0
41
1
10
2.84E-14
20
3.7644285340927
30
0
41
1
10
2.84E-14
20
3.84111086532681
30
0
41
1
10
2.84E-14
20
3.86650637076141
30
0
41
1
10
2.84E-14
20
3.91677030974273
30
0
41
1
10
2.84E-14
20
3.99146856811615
30
0
41
1
10
2.84E-14
20
4.06410586749951
30
0
41
1
10
2.84E-14
20
4.20666329801199
30
0
41
1
10
2.84E-14
20
4.29809829065405
30
0
41
1
10
2.84E-14
20
4.38578222035957
30
0
0
SPLINE
5
136
100
AcDbEntity
8
SK1
62
256
6
ByLayer
370
18
48
1
60
0
100
AcDbSpline
70
4
71
3
72
8
73
4
40
0
40
0
40
0
40
0
40
1
40
1
40
1
40
1
41
1
10
-0.442222188481196
20
4.47637569540083
30
0
41
1
10
-0.33771688643867
20
4.46248256349568
30
0
41
1
10
-0.232285895388998
20
4.4514983800608
30
0
41
1
10
-0.12582227370109
20
4.44288933194403
30
0
0
SPLINE
5
137
100
AcDbEntity
8
SK1
62
256
6
ByLayer
370
18
48
1
60
0
100
AcDbSpline
70
4
71
3
72
8
73
4
40
0
40
0
40
0
40
0
40
1
40
1
40
1
40
1
41
1
10
-0.431617987551021
20
4.50894678639537
30
0
41
1
10
-0.435280430939088
20
4.49819843268654
30
0
41
1
10
-0.438814978063988
20
4.48734089490975
30
0
41
1
10
-0.442222188481111
20
4.4763756954008
30
0
0
SPLINE
5
138
100
AcDbEntity
8
SK1
62
256
6
ByLayer
370
18
48
1
60
0
100
AcDbSpline
70
4
71
3
72
9
73
5
40
0
40
0
40
0
40
0
40
0.5
40
1
40
1
40
1
40
1
41
1
10
2.84E-14
20
1.91270221092822
30
0
41
1
10
0
20
1.930796630309
30
0
41
1
10
0
20
1.97097246220105
30
0
41
1
10
2.84E-14
20
2.0188763796024
30
0
41
1
10
2.84E-14
20
2.04482183486849
30
0
0
SPLINE
5
139
100
AcDbEntity
8
SK1
62
256
6
ByLayer
370
18
48
1
60
0
100
AcDbSpline
70
4
71
3
72
8
73
4
40
0
40
0
40
0
40
0
40
1
40
1
40
1
40
1
41
1
10
-0.957637729861119
20
-3.77357710989588
30
0
41
0.999671642940367
10
-0.820160000980588
20
-3.77936900793514
30
0
41
0.999671642940367
10
-0.681752562893862
20
-3.79044416522894
30
0
41
1
10
-0.542551756779034
20
-3.80679167195905
30
0
0
SPLINE
5
13A
100
AcDbEntity
8
SK1
62
256
6
ByLayer
370
18
48
1
60
0
100
AcDbSpline
70
4
71
3
72
27
73
23
40
0
40
0
40
0
40
0
40
0.0497646330291229
40
0.0995483103483678
40
0.149352080343582
40
0.199176967925079
40
0.249023975041788
40
0.298894081182946
40
0.348788243867539
40
0.398707399121731
40
0.448652461944285
40
0.498624326760417
40
0.548623867863973
40
0.598651939848363
40
0.648709378026298
40
0.698796998838637
40
0.748915600252472
40
0.799065962148655
40
0.849248846699052
40
0.899464998733668
40
0.949715146097881
40
1
40
1
40
1
40
1
41
1
10
-0.13427031008419
20
-3.20431991984782
30
0
41
1
10
-0.141392443638665
20
-3.21366206217283
30
0
41
1
10
-0.155639436297321
20
-3.23234992194153
30
0
41
1
10
-0.176879695209181
20
-3.26066369516985
30
0
41
1
10
-0.198029603402347
20
-3.28918764607394
30
0
41
1
10
-0.219079540536995
20
-3.31793973937525
30
0
41
1
10
-0.240032101796714
20
-3.3469125137629
30
0
41
1
10
-0.260886606454875
20
-3.37610535075456
30
0
41
1
10
-0.281643251419268
20
-3.40551582261315
30
0
41
1
10
-0.302301997570851
20
-3.43514201197027
30
0
41
1
10
-0.322862868420003
20
-3.46498188958299
30
0
41
1
10
-0.343325869935455
20
-3.49503348111358
30
0
41
1
10
-0.363691012457536
20
-3.52529482157661
30
0
41
1
10
-0.38395830335125
20
-3.55576396957608
30
0
41
1
10
-0.404127754551695
20
-3.58643899485739
30
0
41
1
10
-0.424199359793875
20
-3.61731801281053
30
0
41
1
10
-0.444173178297035
20
-3.64839905773613
30
0
41
1
10
-0.464049022604058
20
-3.67968055462708
30
0
41
1
10
-0.48382762465269
20
-3.71115955615682
30
0
41
1
10
-0.50350627976735
20
-3.74283832788098
30
0
41
1
10
-0.523095119807124
20
-3.77469974655463
30
0
41
1
10
-0.536064715509468
20
-3.7960919038095
30
0
41
1
10
-0.542551752032551
20
-3.80679167492067
30
0
0
SPLINE
5
13B
100
AcDbEntity
8
SK1
62
256
6
ByLayer
370
18
48
1
60
0
100
AcDbSpline
70
4
71
3
72
8
73
4
40
0
40
0
40
0
40
0
40
1
40
1
40
1
40
1
41
1
10
2.66027E-11
20
-3.26396599047044
30
0
41
1
10
-0.0448207289394702
20
-3.24432695723516
30
0
41
1
10
-0.0895650709993276
20
-3.22443104033215
30
0
41
1
10
-0.134229600072302
20
-3.20426671809861
30
0
0
SPLINE
5
13C
100
AcDbEntity
8
SK1
62
256
6
ByLayer
370
18
48
1
60
0
100
AcDbSpline
70
4
71
3
72
8
73
4
40
0
40
0
40
0
40
0
40
1
40
1
40
1
40
1
41
1
10
-0.837428129740829
20
-3.30244215154769
30
0
41
1
10
-0.606774286496659
20
-3.25646817926673
30
0
41
1
10
-0.372447128059889
20
-3.22370507735832
30
0
41
1
10
-0.134349944017998
20
-3.20450065935233
30
0
0
SPLINE
5
13D
100
AcDbEntity
8
SK1
62
256
6
ByLayer
370
18
48
1
60
0
100
AcDbSpline
70
4
71
3
72
16
73
12
40
0
40
0
40
0
40
0
40
0.124999999999998
40
0.124999999999998
40
0.249999999999996
40
0.249999999999996
40
0.499999999999997
40
0.499999999999997
40
0.749999999999999
40
0.749999999999999
40
1
40
1
40
1
40
1
41
1
10
0
20
-2.91194829464868
30
0
41
1
10
0
20
-2.90280634706309
30
0
41
1
10
0
20
-2.89361837825618
30
0
41
1
10
0
20
-2.87515143660303
30
0
41
1
10
0
20
-2.86584380990098
30
0
41
1
10
0
20
-2.83810311362836
30
0
41
1
10
0
20
-2.8197031343523
30
0
41
1
10
0
20
-2.78413192953849
30
0
41
1
10
0
20
-2.76692582547378
30
0
41
1
10
2.84E-14
20
-2.73455836928991
30
0
41
1
10
0
20
-2.71960546118112
30
0
41
1
10
0
20
-2.70588692330929
30
0
0
SPLINE
5
13E
100
AcDbEntity
8
SK1
62
256
6
ByLayer
370
18
48
1
60
0
100
AcDbSpline
70
4
71
3
72
18
73
14
40
0
40
0
40
0
40
0
40
0.25
40
0.25
40
0.5
40
0.5
40
0.5625
40
0.5625
40
0.625
40
0.625
40
0.75
40
0.75
40
1
40
1
40
1
40
1
41
1
10
0
20
-2.70588692330929
30
0
41
1
10
0
20
-2.60132778354702
30
0
41
1
10
0
20
-2.49082181342757
30
0
41
1
10
0
20
-2.25849294451464
30
0
41
1
10
2.84E-14
20
-2.13666820803414
30
0
41
1
10
0
20
-1.9771452447512
30
0
41
1
10
0
20
-1.94487648851933
30
0
41
1
10
0
20
-1.87959787246649
30
0
41
1
10
0
20
-1.84655195074245
30
0
41
1
10
2.84E-14
20
-1.7470922434479
30
0
41
1
10
0
20
-1.6801134287528
30
0
41
1
10
0
20
-1.47719156673912
30
0
41
1
10
0
20
-1.33927536652123
30
0
41
1
10
0
20
-1.19866103209563
30
0
0
SPLINE
5
13F
100
AcDbEntity
8
SK1
62
256
6
ByLayer
370
18
48
1
60
0
100
AcDbSpline
70
4
71
3
72
33
73
29
40
0
40
0
40
0
40
0
40
0.125
40
0.125
40
0.15625
40
0.15625
40
0.187500000000001
40
0.187500000000001
40
0.250000000000001
40
0.312500000000001
40
0.312500000000001
40
0.343750000000001
40
0.343750000000001
40
0.375000000000001
40
0.437500000000001
40
0.437500000000001
40
0.500000000000001
40
0.500000000000001
40
0.625000000000001
40
0.625000000000001
40
0.750000000000001
40
0.750000000000001
40
0.781250000000001
40
0.781250000000001
40
0.812500000000001
40
0.875000000000001
40
0.875000000000001
40
1
40
1
40
1
40
1
41
1
10
0
20
-1.19866103209526
30
0
41
1
10
0
20
-1.04429939788028
30
0
41
1
10
0
20
-0.8902727724643
30
0
41
1
10
0
20
-0.698154475053286
30
0
41
1
10
0
20
-0.659751655402147
30
0
41
1
10
2.84E-14
20
-0.582987965649551
30
0
41
1
10
0
20
-0.544635762073654
30
0
41
1
10
0
20
-0.43009466050151
30
0
41
1
10
0
20
-0.27844594686124
30
0
41
1
10
0
20
-0.128931730819545
30
0
41
1
10
0
20
-0.0176035832461139
30
0
41
1
10
0
20
0.0193299154475142
30
0
41
1
10
0
20
0.0926640376796968
30
0
41
1
10
0
20
0.201947923908989
30
0
41
1
10
0
20
0.309091153559535
30
0
41
1
10
0
20
0.450041077860533
30
0
41
1
10
0
20
0.519666583730697
30
0
41
1
10
0
20
0.724225708878066
30
0
41
1
10
2.84E-14
20
0.855275925335604
30
0
41
1
10
2.84E-14
20
1.10637742973512
30
0
41
1
10
2.84E-14
20
1.22510318887868
30
0
41
1
10
2.84E-14
20
1.36502354762038
30
0
41
1
10
2.84E-14
20
1.39260699729763
30
0
41
1
10
2.84E-14
20
1.44679281140978
30
0
41
1
10
2.84E-14
20
1.52650020625868
30
0
41
1
10
0
20
1.60154732634251
30
0
41
1
10
2.84E-14
20
1.7454886437794
30
0
41
1
10
2.84E-14
20
1.8332744912164
30
0
41
1
10
2.84E-14
20
1.91270221092813
30
0
0
SPLINE
5
140
100
AcDbEntity
8
SK1
62
256
6
ByLayer
370
18
48
1
60
0
100
AcDbSpline
70
4
71
3
72
10
73
6
40
0
40
0
40
0
40
0
40
0.5
40
0.5
40
1
40
1
40
1
40
1
41
1
10
-1.08291377782382
20
-3.95712613190682
30
0
41
1
10
-1.06879819192363
20
-3.92602365062612
30
0
41
1
10
-1.05113983387628
20
-3.89507624871572
30
0
41
1
10
-1.00908227391727
20
-3.83361409932672
30
0
41
1
10
-0.98479432920837
20
-3.80328201013805
30
0
41
1
10
-0.957637735490891
20
-3.7735771096587
30
0
0
SPLINE
5
141
100
AcDbEntity
8
SK1
62
256
6
ByLayer
370
18
48
1
60
0
100
AcDbSpline
70
4
71
3
72
14
73
10
40
0
40
0
40
0
40
0
40
0.500000000000006
40
0.500000000000006
40
0.625000000000007
40
0.625000000000007
40
0.750000000000007
40
0.750000000000007
40
1
40
1
40
1
40
1
41
1
10
-0.957637728782032
20
-3.77357711242107
30
0
41
1
10
-0.964023843715239
20
-3.69810176132992
30
0
41
1
10
-0.95718040073487
20
-3.62058392626759
30
0
41
1
10
-0.931891098471709
20
-3.52139123443723
30
0
41
1
10
-0.925991154076485
20
-3.50143808543874
30
0
41
1
10
-0.912480179172007
20
-3.46130982853012
30
0
41
1
10
-0.904886135914552
20
-3.44119955437779
30
0
41
1
10
-0.879851065395314
20
-3.3812833548761
30
0
41
1
10
-0.860092252291679
20
-3.34167827475008
30
0
41
1
10
-0.83742812973685
20
-3.30244215154076
30
0
0
SPLINE
5
142
100
AcDbEntity
8
SK1
62
256
6
ByLayer
370
18
48
1
60
0
100
AcDbSpline
70
4
71
3
72
30
73
26
40
0
40
0
40
0
40
0
40
0.124999999999983
40
0.124999999999983
40
0.249999999999966
40
0.249999999999966
40
0.374999999999948
40
0.374999999999948
40
0.499999999999931
40
0.499999999999931
40
0.562499999999924
40
0.562499999999924
40
0.624999999999916
40
0.624999999999916
40
0.656249999999896
40
0.656249999999896
40
0.687499999999875
40
0.687499999999875
40
0.749999999999885
40
0.749999999999885
40
0.812499999999896
40
0.812499999999896
40
0.874999999999906
40
0.874999999999906
40
1
40
1
40
1
40
1
41
1
10
-3.67458571035982
20
-1.24415951595719
30
0
41
1
10
-3.68204673321242
20
-1.23536534651558
30
0
41
1
10
-3.68924658414392
20
-1.22639272851245
30
0
41
1
10
-3.70292813568
20
-1.20795947200668
30
0
41
1
10
-3.7094153130991
20
-1.19850248878277
30
0
41
1
10
-3.72130673537748
20
-1.1788565200722
30
0
41
1
10
-3.72674100922549
20
-1.16863336936444
30
0
41
1
10
-3.73548519596704
20
-1.14739271831635
30
0
41
1
10
-3.73885942328207
20
-1.13629501955339
30
0
41
1
10
-3.74052850534832
20
-1.11926423395536
30
0
41
1
10
-3.74049521240625
20
-1.1134154937034
30
0
41
1
10
-3.73873059036504
20
-1.10207778766164
30
0
41
1
10
-3.73694970660111
20
-1.09645265208718
30
0
41
1
10
-3.73291019416672
20
-1.08882598582261
30
0
41
1
10
-3.73134363483587
20
-1.08640830073546
30
0
41
1
10
-3.72777335804568
20
-1.08182057562865
30
0
41
1
10
-3.72576332618962
20
-1.07965184292922
30
0
41
1
10
-3.71933844943447
20
-1.07371474469787
30
0
41
1
10
-3.71440491136491
20
-1.0703906165449
30
0
41
1
10
-3.70404834635624
20
-1.06493594899771
30
0
41
1
10
-3.69862041187676
20
-1.06277610086121
30
0
41
1
10
-3.68742279268147
20
-1.05923374686444
30
0
41
1
10
-3.68165720405807
20
-1.05786179612346
30
0
41
1
10
-3.66435267080018
20
-1.05466905358622
30
0
41
1
10
-3.6526597378311
20
-1.05370053744056
30
0
41
1
10
-3.64087700751648
20
-1.05339755542974
30
0
0
SPLINE
5
143
100
AcDbEntity
8
SK1
62
256
6
ByLayer
370
18
48
1
60
0
100
AcDbSpline
70
4
71
3
72
33
73
29
40
0
40
0
40
0
40
0
40
0.125000000000017
40
0.125000000000017
40
0.250000000000034
40
0.250000000000034
40
0.312500000000037
40
0.312500000000037
40
0.37500000000004
40
0.37500000000004
40
0.500000000000034
40
0.500000000000034
40
0.531250000000033
40
0.531250000000033
40
0.562500000000031
40
0.625000000000028
40
0.687500000000025
40
0.687500000000025
40
0.718750000000023
40
0.718750000000023
40
0.750000000000022
40
0.750000000000022
40
0.875000000000016
40
0.875000000000016
40
0.906250000000011
40
0.906250000000011
40
0.937500000000006
40
1
40
1
40
1
40
1
41
1
10
-3.64087700751648
20
-1.05339755542974
30
0
41
1
10
-3.56715353140794
20
-1.051501824437
30
0
41
1
10
-3.49376388901197
20
-1.04716438789202
30
0
41
1
10
-3.34785000876349
20
-1.03214933296272
30
0
41
1
10
-3.27532378186567
20
-1.02148689881972
30
0
41
1
10
-3.16740781639081
20
-0.999072445461792
30
0
41
1
10
-3.13152653692495
20
-0.990507873015133
30
0
41
1
10
-3.06035269058046
20
-0.970885294237178
30
0
41
1
10
-3.02528964387261
20
-0.959892612466888
30
0
41
1
10
-2.92187422602044
20
-0.922902340438895
30
0
41
1
10
-2.85527985757403
20
-0.892930937331954
30
0
41
1
10
-2.77584457358708
20
-0.846787978439465
30
0
41
1
10
-2.76012106819988
20
-0.837103932067862
30
0
41
1
10
-2.72920921728155
20
-0.816879899141043
30
0
41
1
10
-2.68388019283626
20
-0.785420568712738
30
0
41
1
10
-2.61360103366673
20
-0.727276231090258
30
0
41
1
10
-2.56313504646889
20
-0.674483734771115
30
0
41
1
10
-2.52748620742025
20
-0.632474423727672
30
0
41
1
10
-2.51593795278697
20
-0.618025490823413
30
0
41
1
10
-2.49374286079745
20
-0.588532809363244
30
0
41
1
10
-2.48311828282931
20
-0.57352504264162
30
0
41
1
10
-2.43224600297558
20
-0.497237530937184
30
0
41
1
10
-2.39872354778555
20
-0.432225726972973
30
0
41
1
10
-2.36423446782328
20
-0.346775770257523
30
0
41
1
10
-2.35769955554534
20
-0.329447388695456
30
0
41
1
10
-2.34540288951129
20
-0.294566053585385
30
0
41
1
10
-2.32810818937679
20
-0.241894119987847
30
0
41
1
10
-2.31402070353352
20
-0.188242217767083
30
0
41
1
10
-2.30587866625848
20
-0.152089018883629
30
0
0
SPLINE
5
144
100
AcDbEntity
8
SK1
62
256
6
ByLayer
370
18
48
1
60
0
100
AcDbSpline
70
4
71
3
72
33
73
29
40
0
40
0
40
0
40
0
40
0.0624999999999999
40
0.0624999999999999
40
0.125
40
0.125
40
0.1875
40
0.1875
40
0.25
40
0.25
40
0.3125
40
0.3125
40
0.375
40
0.4375
40
0.4375
40
0.5
40
0.5
40
0.5625
40
0.5625
40
0.625
40
0.625
40
0.749999999999999
40
0.749999999999999
40
0.812499999999999
40
0.812499999999999
40
0.875
40
0.875
40
1
40
1
40
1
40
1
41
1
10
-2.30587866625845
20
-0.152089018883629
30
0
41
1
10
-2.30017927196462
20
-0.0699454175147025
30
0
41
1
10
-2.297320224278
20
0.0121301530524818
30
0
41
1
10
-2.29599773907074
20
0.176148440535798
30
0
41
1
10
-2.29754280540098
20
0.258091140459015
30
0
41
1
10
-2.30424566849959
20
0.421845002655118
30
0
41
1
10
-2.30941982296116
20
0.503751169667083
30
0
41
1
10
-2.32278635413314
20
0.666401220351247
30
0
41
1
10
-2.33098215285119
20
0.747259720390957
30
0
41
1
10
-2.35002425576434
20
0.908090966752638
30
0
41
1
10
-2.36087515453437
20
0.988081959695762
30
0
41
1
10
-2.38499805320072
20
1.14712805384536
30
0
41
1
10
-2.41145687304007
20
1.30468066457175
30
0
41
1
10
-2.44227085841933
20
1.45934555301076
30
0
41
1
10
-2.47519312301617
20
1.61259187970515
30
0
41
1
10
-2.49272358505968
20
1.68855478280403
30
0
41
1
10
-2.52971805282044
20
1.83838450400978
30
0
41
1
10
-2.54919824251866
20
1.91233312155066
30
0
41
1
10
-2.59014808245857
20
2.05832142998105
30
0
41
1
10
-2.6116275899011
20
2.130391584862
30
0
41
1
10
-2.67910695607901
20
2.34354683826652
30
0
41
1
10
-2.72790002416403
20
2.48089190133811
30
0
41
1
10
-2.80747581950732
20
2.67986086149227
30
0
41
1
10
-2.83508969286879
20
2.74503672748324
30
0
41
1
10
-2.89232234982217
20
2.87234946722782
30
0
41
1
10
-2.9219739285403
20
2.93457355683893
30
0
41
1
10
-3.01429371895526
20
3.11698701453744
30
0
41
1
10
-3.08030300358678
20
3.23292587822243
30
0
41
1
10
-3.1517323453979
20
3.34318288369423
30
0
0
SPLINE
5
145
100
AcDbEntity
8
SK1
62
256
6
ByLayer
370
18
48
1
60
0
100
AcDbSpline
70
4
71
3
72
14
73
10
40
0
40
0
40
0
40
0
40
0.500000000000025
40
0.500000000000025
40
0.625000000000021
40
0.625000000000021
40
0.750000000000016
40
0.750000000000016
40
1
40
1
40
1
40
1
41
1
10
-3.15173234539887
20
3.34318288369513
30
0
41
1
10
-3.16743100522251
20
3.36741504345179
30
0
41
1
10
-3.17945866039128
20
3.39225737768859
30
0
41
1
10
-3.18909947643138
20
3.42419012817592
30
0
41
1
10
-3.19075600156572
20
3.43062103029891
30
0
41
1
10
-3.19349666563116
20
3.44357612096138
30
0
41
1
10
-3.19457985883713
20
3.45010790392581
30
0
41
1
10
-3.19690424171736
20
3.46962499739226
30
0
41
1
10
-3.19723967853912
20
3.48260240629921
30
0
41
1
10
-3.1963331502576
20
3.49554553031302
30
0
0
SPLINE
5
146
100
AcDbEntity
8
SK1
62
256
6
ByLayer
370
18
48
1
60
0
100
AcDbSpline
70
4
71
3
72
42
73
38
40
0
40
0
40
0
40
0
40
0.062500000000009
40
0.062500000000009
40
0.0937500000000128
40
0.0937500000000128
40
0.109375000000015
40
0.109375000000015
40
0.125000000000017
40
0.125000000000017
40
0.187500000000023
40
0.187500000000023
40
0.203125000000024
40
0.203125000000024
40
0.218750000000025
40
0.218750000000025
40
0.250000000000025
40
0.250000000000025
40
0.312500000000023
40
0.312500000000023
40
0.375000000000022
40
0.375000000000022
40
0.43750000000002
40
0.43750000000002
40
0.500000000000018
40
0.500000000000018
40
0.562500000000017
40
0.562500000000017
40
0.625000000000015
40
0.625000000000015
40
0.750000000000012
40
0.750000000000012
40
0.812500000000011
40
0.812500000000011
40
0.875000000000009
40
0.875000000000009
40
1
40
1
40
1
40
1
41
1
10
-3.1963331502576
20
3.495545530313
30
0
41
1
10
-3.1926504076028
20
3.54812656486462
30
0
41
1
10
-3.17967248610356
20
3.59782077016064
30
0
41
1
10
-3.14828885998116
20
3.66871083101543
30
0
41
1
10
-3.13583161526037
20
3.69172950195551
30
0
41
1
10
-3.11433174479094
20
3.72540480130482
30
0
41
1
10
-3.10667177024513
20
3.73651882837206
30
0
41
1
10
-3.09057253760938
20
3.75829506314514
30
0
41
1
10
-3.08214081555792
20
3.7689530733598
30
0
41
1
10
-3.03820981911906
20
3.82118047973793
30
0
41
1
10
-2.99744774015906
20
3.85959533304197
30
0
41
1
10
-2.94104201790739
20
3.90441688831751
30
0
41
1
10
-2.92948511959622
20
3.91321944661894
30
0
41
1
10
-2.90584817436667
20
3.93051969499751
30
0
41
1
10
-2.89377453394675
20
3.93901141700707
30
0
41
1
10
-2.85705383784716
20
3.96389642726493
30
0
41
1
10
-2.83183019493367
20
3.97975981151379
30
0
41
1
10
-2.75422508222525
20
4.02548269455775
30
0
41
1
10
-2.69992405429318
20
4.0534899097529
30
0
41
1
10
-2.58725772019054
20
4.10569745870799
30
0
41
1
10
-2.52888457186035
20
4.12988967414535
30
0
41
1
10
-2.40872600874386
20
4.17518806445779
30
0
41
1
10
-2.34683863188968
20
4.19631345105554
30
0
41
1
10
-2.22129729765294
20
4.23562515107156
30
0
41
1
10
-2.15750392789533
20
4.25386690594868
30
0
41
1
10
-2.02813762725606
20
4.28799600233941
30
0
41
1
10
-1.96256346922135
20
4.30388132916039
30
0
41
1
10
-1.8298098035562
20
4.33362817157891
30
0
41
1
10
-1.76257224350181
20
4.34749780063615
30
0
41
1
10
-1.5594710998472
20
4.38627813462088
30
0
41
1
10
-1.4220026408924
20
4.40844653607337
30
0
41
1
10
-1.21300476508907
20
4.43724074180133
30
0
41
1
10
-1.14281308049055
20
4.44609372722496
30
0
41
1
10
-1.00198854739318
20
4.46234894710062
30
0
41
1
10
-0.931313797155781
20
4.46975802137933
30
0
41
1
10
-0.718509218700603
20
4.48995743207678
30
0
41
1
10
-0.575604403040956
20
4.50073763565308
30
0
41
1
10
-0.431617987551021
20
4.50894678639531
30
0
0
SPLINE
5
147
100
AcDbEntity
8
SK1
62
256
6
ByLayer
370
18
48
1
60
0
100
AcDbSpline
70
4
71
3
72
8
73
4
40
0
40
0
40
0
40
0
40
1
40
1
40
1
40
1
41
1
10
-1.09082744437455
20
4.72889051739119
30
0
41
1
10
-0.87079958752571
20
4.66596774759964
30
0
41
1
10
-0.651283152795287
20
4.59254289661376
30
0
41
1
10
-0.43161798755105
20
4.50894678639531
30
0
0
SPLINE
5
148
100
AcDbEntity
8
SK1
62
256
6
ByLayer
370
18
48
1
60
0
100
AcDbSpline
70
4
71
3
72
8
73
4
40
0
40
0
40
0
40
0
40
1
40
1
40
1
40
1
41
1
10
-1.09082736599942
20
4.72889050595864
30
0
41
1
10
-1.13032973953949
20
4.73955903813734
30
0
41
1
10
-1.16993174023281
20
4.7498812990676
30
0
41
1
10
-1.20963531502417
20
4.75986335061489
30
0
0
SPLINE
5
149
100
AcDbEntity
8
SK1
62
256
6
ByLayer
370
18
48
1
60
0
100
AcDbSpline
70
4
71
3
72
21
73
17
40
0
40
0
40
0
40
0
40
0.250000000000003
40
0.250000000000003
40
0.375000000000004
40
0.375000000000004
40
0.437500000000002
40
0.437500000000002
40
0.500000000000001
40
0.500000000000001
40
0.75000000000002
40
0.75000000000002
40
0.812500000000015
40
0.812500000000015
40
0.87500000000001
40
1
40
1
40
1
40
1
41
1
10
-1.20963531502625
20
4.7598633506156
30
0
41
1
10
-1.21624789425295
20
4.7814530835505
30
0
41
1
10
-1.21569258979042
20
4.80146057763875
30
0
41
1
10
-1.2033945409666
20
4.82917830378307
30
0
41
1
10
-1.19737633777078
20
4.83803506984313
30
0
41
1
10
-1.18529215195977
20
4.85075474597559
30
0
41
1
10
-1.18077825692984
20
4.85487245263019
30
0
41
1
10
-1.17084230627455
20
4.86283370172876
30
0
41
1
10
-1.16541370646291
20
4.86668422635753
30
0
41
1
10
-1.13601061571558
20
4.88531955907243
30
0
41
1
10
-1.10529498406604
20
4.89826015367532
30
0
41
1
10
-1.05817442578967
20
4.91241932112973
30
0
41
1
10
-1.04833145654211
20
4.91514306652519
30
0
41
1
10
-1.02796825443721
20
4.9203537619799
30
0
41
1
10
-0.996349649843467
20
4.92783174487394
30
0
41
1
10
-0.961627792818263
20
4.93437647862334
30
0
41
1
10
-0.937175450483124
20
4.93838478072854
30
0
0
SPLINE
5
14A
100
AcDbEntity
8
SK1
62
256
6
ByLayer
370
18
48
1
60
0
100
AcDbSpline
70
4
71
3
72
10
73
6
40
0
40
0
40
0
40
0
40
0.5
40
0.5
40
1
40
1
40
1
40
1
41
1
10
-0.937175450486393
20
4.938384780729
30
0
41
1
10
-0.920628578589515
20
4.94568153821322
30
0
41
1
10
-0.900937404356853
20
4.95212133371851
30
0
41
1
10
-0.855452357620038
20
4.9635100633036
30
0
41
1
10
-0.829777018439501
20
4.96842421754044
30
0
41
1
10
-0.801494747519115
20
4.97266252660489
30
0
0
SPLINE
5
14B
100
AcDbEntity
8
SK1
62
256
6
ByLayer
370
18
48
1
60
0
100
AcDbSpline
70
4
71
3
72
14
73
10
40
0
40
0
40
0
40
0
40
0.593746856925963
40
0.593746856925963
40
0.742183571157452
40
0.742183571157452
40
0.89062028538894
40
0.89062028538894
40
1
40
1
40
1
40
1
41
1
10
-0.801494740887961
20
4.97266252609106
30
0
41
1
10
-0.79947372521238
20
4.98390281392366
30
0
41
1
10
-0.785691876216362
20
4.99146697397364
30
0
41
1
10
-0.753206191179203
20
4.99680777053612
30
0
41
1
10
-0.745941519790364
20
4.99766999173551
30
0
41
1
10
-0.729843584241905
20
4.99899395769179
30
0
41
1
10
-0.721019779618274
20
4.99945315402056
30
0
41
1
10
-0.704527670673912
20
4.99991425377482
30
0
41
1
10
-0.697154321980292
20
5.00000600365314
30
0
41
1
10
-0.689410218441566
20
4.99999992362325
30
0
0
SPLINE
5
14C
100
AcDbEntity
8
SK1
62
256
6
ByLayer
370
18
48
1
60
0
100
AcDbSpline
70
4
71
3
72
16
73
12
40
0
40
0
40
0
40
0
40
0.214941946071252
40
0.214941946071252
40
0.345784955059377
40
0.345784955059377
40
0.476627964047501
40
0.476627964047501
40
0.738313982023751
40
0.738313982023751
40
1
40
1
40
1
40
1
41
1
10
-2.48254599631852
20
-4.92741095670357
30
0
41
1
10
-2.51170360707235
20
-4.94599538694493
30
0
41
1
10
-2.54217530884438
20
-4.96097074795955
30
0
41
1
10
-2.59345558974823
20
-4.97934924730203
30
0
41
1
10
-2.61340882224948
20
-4.98499005644479
30
0
41
1
10
-2.65424932007701
20
-4.99361611641527
30
0
41
1
10
-2.67514321253319
20
-4.99660805627752
30
0
41
1
10
-2.73933498839787
20
-5.00171282804638
30
0
41
1
10
-2.78413536879333
20
-4.9999581179637
30
0
41
1
10
-2.87839960794253
20
-4.98652067476792
30
0
41
1
10
-2.92786179738553
20
-4.97483616397207
30
0
41
1
10
-2.98011238835804
20
-4.95833390206241
30
0
0
SPLINE
5
14D
100
AcDbEntity
8
SK1
62
256
6
ByLayer
370
18
48
1
60
0
100
AcDbSpline
70
4
71
3
72
16
73
12
40
0
40
0
40
0
40
0
40
0.249999999999999
40
0.249999999999999
40
0.499999999999999
40
0.499999999999999
40
0.624999999999999
40
0.624999999999999
40
0.749999999999999
40
0.749999999999999
40
1
40
1
40
1
40
1
41
1
10
-2.98011238835804
20
-4.95833390206241
30
0
41
1
10
-2.98970389075549
20
-4.95530462561359
30
0
41
1
10
-2.99767571725792
20
-4.95206077201485
30
0
41
1
10
-3.00996685538644
20
-4.94509469620277
30
0
41
1
10
-3.0142895668067
20
-4.9413727402941
30
0
41
1
10
-3.01757169473129
20
-4.9353823712045
30
0
41
1
10
-3.01811740890946
20
-4.93333217181842
30
0
41
1
10
-3.01808180858171
20
-4.92916904046345
30
0
41
1
10
-3.01750431538136
20
-4.92704973693594
30
0
41
1
10
-3.01407185593388
20
-4.92058268701823
30
0
41
1
10
-3.0095219604982
20
-4.91612568703499
30
0
41
1
10
-3.00259964797502
20
-4.91153501315833
30
0
0
SPLINE
5
14E
100
AcDbEntity
8
SK1
62
256
6
ByLayer
370
18
48
1
60
0
100
AcDbSpline
70
4
71
3
72
35
73
31
40
0
40
0
40
0
40
0
40
0.0624999999999987
40
0.0624999999999987
40
0.124999999999997
40
0.124999999999997
40
0.156249999999997
40
0.156249999999997
40
0.187499999999996
40
0.187499999999996
40
0.25
40
0.25
40
0.312500000000004
40
0.312500000000004
40
0.375000000000008
40
0.375000000000008
40
0.500000000000009
40
0.500000000000009
40
0.562500000000006
40
0.562500000000006
40
0.625000000000003
40
0.6875
40
0.6875
40
0.749999999999997
40
0.749999999999997
40
0.874999999999998
40
0.874999999999998
40
0.937499999999999
40
0.937499999999999
40
1
40
1
40
1
40
1
41
1
10
-3.00259964797505
20
-4.9115350131583
30
0
41
1
10
-2.98784729711502
20
-4.90175168836825
30
0
41
1
10
-2.96871434345854
20
-4.89159558020253
30
0
41
1
10
-2.92291985938127
20
-4.8707802820492
30
0
41
1
10
-2.89625288069473
20
-4.8601202606506
30
0
41
1
10
-2.85123012089929
20
-4.84389836782702
30
0
41
1
10
-2.83534195939521
20
-4.83843874660639
30
0
41
1
10
-2.8021491467604
20
-4.82752328286841
30
0
41
1
10
-2.78495378543741
20
-4.82210193189559
30
0
41
1
10
-2.7317552695198
20
-4.80596078804561
30
0
41
1
10
-2.69414820548587
20
-4.7953641681157
30
0
41
1
10
-2.61536144622448
20
-4.77456305252184
30
0
41
1
10
-2.57417793373202
20
-4.76435836696592
30
0
41
1
10
-2.48870604147044
20
-4.74439806663048
30
0
41
1
10
-2.44429050866569
20
-4.73461830539785
30
0
41
1
10
-2.30838114314207
20
-4.70633773091797
30
0
41
1
10
-2.21394527233338
20
-4.68880535128284
30
0
41
1
10
-2.06774625280215
20
-4.66455556891529
30
0
41
1
10
-2.01839070110668
20
-4.6568395738793
30
0
41
1
10
-1.91883100144429
20
-4.64218493436493
30
0
41
1
10
-1.81833072005389
20
-4.62829247475034
30
0
41
1
10
-1.71609229075938
20
-4.61593168991556
30
0
41
1
10
-1.61303383411393
20
-4.60434793697058
30
0
41
1
10
-1.56103669540269
20
-4.59893958793927
30
0
41
1
10
-1.40448339856414
20
-4.58396299769308
30
0
41
1
10
-1.2992690649134
20
-4.57562506684758
30
0
41
1
10
-1.14026166778521
20
-4.56563741894132
30
0
41
1
10
-1.08706065114259
20
-4.56272878769343
30
0
41
1
10
-0.980265828696133
20
-4.55776834231543
30
0
41
1
10
-0.926817317651228
20
-4.55572367966263
30
0
41
1
10
-0.873386121251031
20
-4.55411817112949
30
0
0
SPLINE
5
14F
100
AcDbEntity
8
SK1
62
256
6
ByLayer
370
18
48
1
60
0
100
AcDbSpline
70
4
71
3
72
8
73
4
40
0
40
0
40
0
40
0
40
1
40
1
40
1
40
1
41
1
10
-1.16298393665295
20
-4.46210909770073
30
0
41
1
10
-1.06640384329066
20
-4.49415287399509
30
0
41
1
10
-0.969881356597199
20
-4.52482731685492
30
0
41
1
10
-0.873386121251059
20
-4.55411817112949
30
0
0
SPLINE
5
150
100
AcDbEntity
8
SK1
62
256
6
ByLayer
370
18
48
1
60
0
100
AcDbSpline
70
4
71
3
72
8
73
4
40
0
40
0
40
0
40
0
40
1
40
1
40
1
40
1
41
1
10
-1.16298390234468
20
-4.4621091059156
30
0
41
1
10
-1.21148844372777
20
-4.4466317581805
30
0
41
1
10
-1.26010222110483
20
-4.43091122459353
30
0
41
1
10
-1.30882662058332
20
-4.41495695371208
30
0
0
SPLINE
5
151
100
AcDbEntity
8
SK1
62
256
6
ByLayer
370
18
48
1
60
0
100
AcDbSpline
70
4
71
3
72
21
73
17
40
0
40
0
40
0
40
0
40
0.249999999999997
40
0.249999999999997
40
0.312499999999996
40
0.312499999999996
40
0.374999999999996
40
0.374999999999996
40
0.499999999999994
40
0.624999999999993
40
0.624999999999993
40
0.687499999999994
40
0.687499999999994
40
0.749999999999995
40
0.749999999999995
40
1
40
1
40
1
40
1
41
1
10
-1.30882662058437
20
-4.41495695371179
30
0
41
1
10
-1.32411648044428
20
-4.37994274938453
30
0
41
1
10
-1.33099266687398
20
-4.34331915491705
30
0
41
1
10
-1.32842391348007
20
-4.29546550077862
30
0
41
1
10
-1.32734846398822
20
-4.28579092920947
30
0
41
1
10
-1.32404276436336
20
-4.26623195906637
30
0
41
1
10
-1.32180096203712
20
-4.25631214479623
30
0
41
1
10
-1.31338930280276
20
-4.22656948997499
30
0
41
1
10
-1.29771759990828
20
-4.18692056762654
30
0
41
1
10
-1.27354131815881
20
-4.14736889261837
30
0
41
1
10
-1.25230229941926
20
-4.11777841830124
30
0
41
1
10
-1.24470414289777
20
-4.10792722343845
30
0
41
1
10
-1.2284775197154
20
-4.08825634501082
30
0
41
1
10
-1.2198523053882
20
-4.07844469663408
30
0
41
1
10
-1.17468654736891
20
-4.03000505737651
30
0
41
1
10
-1.13173892632219
20
-3.99279174755452
30
0
41
1
10
-1.08291378434649
20
-3.95712612925067
30
0
0
SPLINE
5
152
100
AcDbEntity
8
1
62
256
6
ByLayer
370
18
48
1
60
0
100
AcDbSpline
70
4
71
1
72
4
73
2
40
0
40
0
40
1
40
1
41
1
10
3.47096317624724
20
-4.84923239032528
30
0
41
1
10
3.47093457973466
20
-4.84922934284987
30
0
0
SPLINE
5
153
100
AcDbEntity
8
1
62
256
6
ByLayer
370
18
48
1
60
0
100
AcDbSpline
70
4
71
3
72
14
73
10
40
0
40
0
40
0
40
0
40
0.204133689778304
40
0.351402667183614
40
0.443501281025985
40
0.534478354741821
40
0.694669568835095
40
0.90611758517574
40
1
40
1
40
1
40
1
41
1
10
6.17834308637401
20
-4.26516151340965
30
0
41
1
10
6.38906688666771
20
-4.26213950801022
30
0
41
1
10
6.75159445691099
20
-4.25308859801089
30
0
41
1
10
7.20919191071803
20
-4.23317499297187
30
0
41
1
10
7.54914947886715
20
-4.21425557874605
30
0
41
1
10
7.90236221719414
20
-4.19142946714129
30
0
41
1
10
8.3799769716951
20
-4.15405752176665
30
0
41
1
10
8.85694920895986
20
-4.11053740075712
30
0
41
1
10
9.16740289956257
20
-4.0736294961026
30
0
41
1
10
9.26265134621536
20
-4.06169067670078
30
0
0
SPLINE
5
154
100
AcDbEntity
8
1
62
256
6
ByLayer
370
18
48
1
60
0
100
AcDbSpline
70
4
71
3
72
16
73
12
40
0
40
0
40
0
40
0
40
0.0621558738903853
40
0.184675946163554
40
0.265167397038709
40
0.33371256026518
40
0.39361226656249
40
0.485803627519119
40
0.619810784126227
40
0.792764967103636
40
1
40
1
40
1
40
1
41
1
10
8.00184135444843
20
2.86013489291656
30
0
41
1
10
7.92552810154751
20
2.8779654578349
30
0
41
1
10
7.6989814022719
20
2.93152374097207
30
0
41
1
10
7.37417913390254
20
3.0119047677301
30
0
41
1
10
7.0430546618299
20
3.09530983578725
30
0
41
1
10
6.78869168493577
20
3.16063942696098
30
0
41
1
10
6.5213601379898
20
3.2300940045242
30
0
41
1
10
6.17238047121316
20
3.32204277758734
30
0
41
1
10
5.68872729711362
20
3.45171670988285
30
0
41
1
10
5.06324555789845
20
3.62039244668009
30
0
41
1
10
4.601537024642
20
3.7459045417022
30
0
41
1
10
4.34981627737204
20
3.81462010857561
30
0
0
SPLINE
5
155
100
AcDbEntity
8
1
62
256
6
ByLayer
370
18
48
1
60
0
100
AcDbSpline
70
4
71
3
72
9
73
5
40
0
40
0
40
0
40
0
40
0.599505483796843
40
1
40
1
40
1
40
1
41
1
10
3.3390601652269
20
4.02634922219701
30
0
41
1
10
3.19432588782814
20
4.04781264207989
30
0
41
1
10
2.95266851604265
20
4.08136966561739
30
0
41
1
10
2.71097898235848
20
4.11120266811454
30
0
41
1
10
2.61400917088909
20
4.12254364805722
30
0
0
LINE
5
77
100
AcDbEntity
8
80
62
256
6
ByLayer
370
18
48
1
60
0
100
AcDbLine
10
0
20
0
30
0
11
-5
21
0
31
0
39
0
210
0
220
0
230
1
0
LINE
5
78
100
AcDbEntity
8
4
62
256
6
ByLayer
370
18
48
0.05
60
0
100
AcDbLine
10
0
20
0
30
0
11
10.230078
21
0
31
0
39
0
210
0
220
0
230
1
0
LINE
5
7A
100
AcDbEntity
8
81
62
256
6
ByLayer
370
18
48
1
60
0
100
AcDbLine
10
10.230078
20
0
30
0
11
15.230078
21
0
31
0
39
0
210
0
220
0
230
1
0
LINE
5
7B
100
AcDbEntity
8
SK4
62
256
6
ByLayer
370
18
48
0.05
60
0
100
AcDbLine
10
-55.769922
20
0
30
0
11
10.230078
21
0
31
0
39
0
210
0
220
0
230
1
0
LINE
5
7D
100
AcDbEntity
8
1
62
256
6
ByLayer
370
18
48
1
60
0
100
AcDbLine
10
0
20
4.385782
30
0
11
0
21
4.434094
31
0
39
0
210
0
220
0
230
1
0
LINE
5
7E
100
AcDbEntity
8
1
62
256
6
ByLayer
370
13
48
1
60
0
100
AcDbLine
10
0
20
4.385782
30
0
11
0.530078
21
4.145195
31
0
39
0
210
0
220
0
230
1
0
LINE
5
7F
100
AcDbEntity
8
1
62
256
6
ByLayer
370
13
48
1
60
0
100
AcDbLine
10
0
20
2.044822
30
0
11
0.530078
21
1.804235
31
0
39
0
210
0
220
0
230
1
0
LINE
5
80
100
AcDbEntity
8
1
62
256
6
ByLayer
370
18
48
1
60
0
100
AcDbLine
10
0
20
-3.263966
30
0
11
0
21
-2.911948
31
0
39
0
210
0
220
0
230
1
0
LINE
5
81
100
AcDbEntity
8
1
62
256
6
ByLayer
370
13
48
1
60
0
100
AcDbLine
10
0
20
-2.911948
30
0
11
0.530078
21
-3.152535
31
0
39
0
210
0
220
0
230
1
0
LINE
5
82
100
AcDbEntity
8
1
62
256
6
ByLayer
370
13
48
1
60
0
100
AcDbLine
10
0
20
1.912702
30
0
11
0.530078
21
1.672115
31
0
39
0
210
0
220
0
230
1
0
LINE
5
83
100
AcDbEntity
8
1
62
256
6
ByLayer
370
13
48
1
60
0
100
AcDbLine
10
0
20
-2.705887
30
0
11
0.530078
21
-2.946474
31
0
39
0
210
0
220
0
230
1
0
LINE
5
84
100
AcDbEntity
8
1
62
256
6
ByLayer
370
18
48
1
60
0
100
AcDbLine
10
0
20
-1.198661
30
0
11
0.530078
21
-1.439248
31
0
39
0
210
0
220
0
230
1
0
LINE
5
85
100
AcDbEntity
8
1
62
256
6
ByLayer
370
18
48
1
60
0
100
AcDbLine
10
10.225018
20
-2.635725
30
0
11
10.122203
21
-3.225248
31
0
39
0
210
0
220
0
230
1
0
LINE
5
86
100
AcDbEntity
8
1
62
256
6
ByLayer
370
18
48
1
60
0
100
AcDbLine
10
10.152535
20
-0.994812
30
0
11
10.161437
21
-1.196336
31
0
39
0
210
0
220
0
230
1
0
LINE
5
87
100
AcDbEntity
8
1
62
256
6
ByLayer
370
18
48
1
60
0
100
AcDbLine
10
10.210154
20
-2.299235
30
0
11
10.225018
21
-2.635725
31
0
39
0
210
0
220
0
230
1
0
LINE
5
88
100
AcDbEntity
8
1
62
256
6
ByLayer
370
18
48
1
60
0
100
AcDbLine
10
10.046609
20
-0.316053
30
0
11
10.092887
21
-0.32298
31
0
39
0
210
0
220
0
230
1
0
LINE
5
89
100
AcDbEntity
8
1
62
256
6
ByLayer
370
18
48
1
60
0
100
AcDbLine
10
10.092887
20
-0.32298
30
0
11
10.225018
21
4.651071
31
0
39
0
210
0
220
0
230
1
0
LINE
5
8A
100
AcDbEntity
8
1
62
256
6
ByLayer
370
18
48
1
60
0
100
AcDbLine
10
10.035592
20
4.83836
30
0
11
10.225018
21
4.651071
31
0
39
0
210
0
220
0
230
1
0
LINE
5
8B
100
AcDbEntity
8
1
62
256
6
ByLayer
370
18
48
1
60
0
100
AcDbLine
10
10.122203
20
-3.225248
30
0
11
10.014281
21
-3.474718
31
0
39
0
210
0
220
0
230
1
0
LINE
5
8C
100
AcDbEntity
8
1
62
256
6
ByLayer
370
18
48
1
60
0
100
AcDbLine
10
10.122203
20
-3.225248
30
0
11
10.083937
21
-2.346848
31
0
39
0
210
0
220
0
230
1
0
LINE
5
8D
100
AcDbEntity
8
1
62
256
6
ByLayer
370
18
48
1
60
0
100
AcDbLine
10
9.033243
20
-3.573588
30
0
11
9.775931
21
-2.230716
31
0
39
0
210
0
220
0
230
1
0
LINE
5
8E
100
AcDbEntity
8
1
62
256
6
ByLayer
370
18
48
1
60
0
100
AcDbLine
10
10.149618
20
-1.016986
30
0
11
10.152535
21
-0.994812
31
0
39
0
210
0
220
0
230
1
0
LINE
5
8F
100
AcDbEntity
8
1
62
256
6
ByLayer
370
18
48
1
60
0
100
AcDbLine
10
10.145901
20
-0.990508
30
0
11
10.152535
21
-0.994812
31
0
39
0
210
0
220
0
230
1
0
LINE
5
90
100
AcDbEntity
8
1
62
256
6
ByLayer
370
13
48
1
60
0
100
AcDbLine
10
8.523987
20
-1.313994
30
0
11
7.360141
21
-2.073598
31
0
39
0
210
0
220
0
230
1
0
LINE
5
91
100
AcDbEntity
8
1
62
256
6
ByLayer
370
18
48
1
60
0
100
AcDbLine
10
0.530078
20
1.672115
30
0
11
0.530078
21
1.804235
31
0
39
0
210
0
220
0
230
1
0
LINE
5
92
100
AcDbEntity
8
1
62
256
6
ByLayer
370
18
48
1
60
0
100
AcDbLine
10
10.152049
20
-1.034303
30
0
11
10.225018
21
-2.293659
31
0
39
0
210
0
220
0
230
1
0
LINE
5
93
100
AcDbEntity
8
1
62
256
6
ByLayer
370
18
48
1
60
0
100
AcDbLine
10
10.053918
20
-0.334953
30
0
11
10.152049
21
-1.034303
31
0
39
0
210
0
220
0
230
1
0
LINE
5
94
100
AcDbEntity
8
1
62
256
6
ByLayer
370
18
48
1
60
0
100
AcDbLine
10
10.033631
20
-2.365786
30
0
11
10.225018
21
-2.293659
31
0
39
0
210
0
220
0
230
1
0
LINE
5
95
100
AcDbEntity
8
1
62
256
6
ByLayer
370
18
48
1
60
0
100
AcDbLine
10
10.225018
20
-2.293659
30
0
11
10.122203
21
-1.520879
31
0
39
0
210
0
220
0
230
1
0
LINE
5
96
100
AcDbEntity
8
1
62
256
6
ByLayer
370
18
48
1
60
0
100
AcDbLine
10
0.530078
20
1.804235
30
0
11
0.530078
21
4.145195
31
0
39
0
210
0
220
0
230
1
0
LINE
5
97
100
AcDbEntity
8
1
62
256
6
ByLayer
370
18
48
1
60
0
100
AcDbLine
10
10.122203
20
-1.520879
30
0
11
10.011054
21
-1.278482
31
0
39
0
210
0
220
0
230
1
0
LINE
5
98
100
AcDbEntity
8
1
62
256
6
ByLayer
370
18
48
1
60
0
100
AcDbLine
10
10.122203
20
-1.520879
30
0
11
10.053918
21
-0.334953
31
0
39
0
210
0
220
0
230
1
0
LINE
5
99
100
AcDbEntity
8
1
62
256
6
ByLayer
370
18
48
1
60
0
100
AcDbLine
10
9.006946
20
2.371951
30
0
11
10.053918
21
-0.334953
31
0
39
0
210
0
220
0
230
1
0
LINE
5
9A
100
AcDbEntity
8
1
62
256
6
ByLayer
370
18
48
1
60
0
100
AcDbLine
10
0.530078
20
-3.152535
30
0
11
0.530078
21
-3.482992
31
0
39
0
210
0
220
0
230
1
0
LINE
5
9B
100
AcDbEntity
8
1
62
256
6
ByLayer
370
18
48
1
60
0
100
AcDbLine
10
0.530078
20
-3.152535
30
0
11
0.530078
21
-2.946474
31
0
39
0
210
0
220
0
230
1
0
LINE
5
9C
100
AcDbEntity
8
1
62
256
6
ByLayer
370
18
48
1
60
0
100
AcDbLine
10
0.530078
20
-2.946474
30
0
11
0.530078
21
-1.439248
31
0
39
0
210
0
220
0
230
1
0
LINE
5
9D
100
AcDbEntity
8
1
62
256
6
ByLayer
370
18
48
1
60
0
100
AcDbLine
10
0.530078
20
-1.439248
30
0
11
0.530078
21
1.672115
31
0
39
0
210
0
220
0
230
1
0
LINE
5
9E
100
AcDbEntity
8
1
62
256
6
ByLayer
370
18
48
1
60
0
100
AcDbLine
10
0.530078
20
4.426223
30
0
11
0.530078
21
4.145195
31
0
39
0
210
0
220
0
230
1
0
LINE
5
9F
100
AcDbEntity
8
1
62
256
6
ByLayer
370
18
48
1
60
0
100
AcDbLine
10
0.530078
20
4.426223
30
0
11
0.530078
21
4.426264
31
0
39
0
210
0
220
0
230
1
0
LINE
5
A0
100
AcDbEntity
8
1
62
256
6
ByLayer
370
13
48
1
60
0
100
AcDbLine
10
0.527757
20
-4.437814
30
0
11
0.527757
21
-4.439595
31
0
39
0
210
0
220
0
230
1
0
LINE
5
A1
100
AcDbEntity
8
1
62
256
6
ByLayer
370
13
48
1
60
0
100
AcDbLine
10
0.527757
20
4.428193
30
0
11
0.527757
21
4.426124
31
0
39
0
210
0
220
0
230
1
0
LINE
5
A2
100
AcDbEntity
8
SK1
62
256
6
ByLayer
370
13
48
1
60
0
100
AcDbLine
10
-2.980112
20
-4.958334
30
0
11
-2.758094
21
-4.817298
31
0
39
0
210
0
220
0
230
1
0
LINE
5
A4
100
AcDbEntity
8
SK1
62
256
6
ByLayer
370
18
48
1
60
0
100
AcDbLine
10
0
20
4.385782
30
0
11
0
21
4.434094
31
0
39
0
210
0
220
0
230
1
0
LINE
5
A5
100
AcDbEntity
8
SK1
62
256
6
ByLayer
370
13
48
1
60
0
100
AcDbLine
10
-0.125822
20
4.442889
30
0
11
0
21
4.385782
31
0
39
0
210
0
220
0
230
1
0
LINE
5
A6
100
AcDbEntity
8
SK1
62
256
6
ByLayer
370
13
48
1
60
0
100
AcDbLine
10
-3.196333
20
3.495546
30
0
11
0
21
2.044822
31
0
39
0
210
0
220
0
230
1
0
LINE
5
A7
100
AcDbEntity
8
SK1
62
256
6
ByLayer
370
18
48
1
60
0
100
AcDbLine
10
0
20
-3.263966
30
0
11
0
21
-2.911948
31
0
39
0
210
0
220
0
230
1
0
LINE
5
A8
100
AcDbEntity
8
SK1
62
256
6
ByLayer
370
13
48
1
60
0
100
AcDbLine
10
-3.674586
20
-1.24416
30
0
11
0
21
-2.911948
31
0
39
0
210
0
220
0
230
1
0
LINE
5
A9
100
AcDbEntity
8
SK1
62
256
6
ByLayer
370
13
48
1
60
0
100
AcDbLine
10
-3.640877
20
-1.053398
30
0
11
0
21
-2.705887
31
0
39
0
210
0
220
0
230
1
0
LINE
5
AA
100
AcDbEntity
8
SK1
62
256
6
ByLayer
370
18
48
1
60
0
100
AcDbLine
10
-2.305879
20
-0.152089
30
0
11
0
21
-1.198661
31
0
39
0
210
0
220
0
230
1
0
LINE
5
AB
100
AcDbEntity
8
SK1
62
256
6
ByLayer
370
13
48
1
60
0
100
AcDbLine
10
-3.151732
20
3.343183
30
0
11
0
21
1.912702
31
0
39
0
210
0
220
0
230
1
0
LINE
5
AC
100
AcDbEntity
8
SK1
62
256
6
ByLayer
370
18
48
1
60
0
100
AcDbLine
10
-55.769922
20
-4.4
30
0
11
-55.769922
21
4.4
31
0
39
0
210
0
220
0
230
1
0
LINE
5
AD
100
AcDbEntity
8
SK1
62
256
6
ByLayer
370
18
48
1
60
0
100
AcDbLine
10
-55.169922
20
5
30
0
11
-55.169922
21
-5
31
0
39
0
210
0
220
0
230
1
0
LINE
5
AE
100
AcDbEntity
8
SK1
62
256
6
ByLayer
370
18
48
1
60
0
100
AcDbLine
10
-39.269922
20
3.5
30
0
11
-40.769922
21
5
31
0
39
0
210
0
220
0
230
1
0
LINE
5
AF
100
AcDbEntity
8
SK1
62
256
6
ByLayer
370
18
48
1
60
0
100
AcDbLine
10
-32.269922
20
3.5
30
0
11
-30.769922
21
5
31
0
39
0
210
0
220
0
230
1
0
LINE
5
B0
100
AcDbEntity
8
SK1
62
256
6
ByLayer
370
18
48
1
60
0
100
AcDbLine
10
-39.269922
20
3.5
30
0
11
-32.269922
21
3.5
31
0
39
0
210
0
220
0
230
1
0
LINE
5
B1
100
AcDbEntity
8
1
62
256
6
ByLayer
370
18
48
1
60
0
100
AcDbLine
10
0.121445
20
4.649327
30
0
11
0.12072
21
4.649445
31
0
39
0
210
0
220
0
230
1
0
LINE
5
B2
100
AcDbEntity
8
SK1
62
256
6
ByLayer
370
18
48
1
60
0
100
AcDbLine
10
-2.479733
20
-4.925624
30
0
11
-2.071193
21
-4.666101
31
0
39
0
210
0
220
0
230
1
0
LINE
5
B3
100
AcDbEntity
8
SK1
62
256
6
ByLayer
370
18
48
1
60
0
100
AcDbLine
10
-55.769922
20
-4.4
30
0
11
-55.169922
21
-5
31
0
39
0
210
0
220
0
230
1
0
LINE
5
B4
100
AcDbEntity
8
SK1
62
256
6
ByLayer
370
18
48
1
60
0
100
AcDbLine
10
-55.169922
20
5
30
0
11
-55.769922
21
4.4
31
0
39
0
210
0
220
0
230
1
0
LINE
5
B5
100
AcDbEntity
8
SK1
62
256
6
ByLayer
370
18
48
1
60
0
100
AcDbLine
10
-0.685436
20
5
30
0
11
-30.769922
21
5
31
0
39
0
210
0
220
0
230
1
0
LINE
5
B6
100
AcDbEntity
8
SK1
62
256
6
ByLayer
370
18
48
1
60
0
100
AcDbLine
10
-40.769922
20
5
30
0
11
-55.169922
21
5
31
0
39
0
210
0
220
0
230
1
0
LINE
5
B7
100
AcDbEntity
8
SK1
62
256
6
ByLayer
370
18
48
1
60
0
100
AcDbLine
10
-55.169922
20
-5
30
0
11
-2.742108
21
-5
31
0
39
0
210
0
220
0
230
1
0
LINE
5
B8
100
AcDbEntity
8
SK2
62
256
6
ByLayer
370
18
48
1
60
0
100
AcDbLine
10
-63.419922
20
5
30
0
11
-63.419922
21
-23.056066
31
0
39
0
210
0
220
0
230
1
0
LINE
5
BA
100
AcDbEntity
8
SK2
62
256
6
ByLayer
370
18
48
1
60
0
100
AcDbLine
10
-56.757422
20
5
30
0
11
-65.419922
21
5
31
0
39
0
210
0
220
0
230
1
0
LINE
5
BB
100
AcDbEntity
8
SK2
62
256
6
ByLayer
370
18
48
1
60
0
100
AcDbLine
10
-56.757422
20
-5
30
0
11
-65.419922
21
-5
31
0
39
0
210
0
220
0
230
1
0
LINE
5
BC
100
AcDbEntity
8
1
62
256
6
ByLayer
370
18
48
1
60
1
100
AcDbLine
10
-63.419922
20
5
30
0
11
-62.959138
21
1.500002
31
0
39
0
210
0
220
0
230
1
0
LINE
5
BD
100
AcDbEntity
8
1
62
256
6
ByLayer
370
18
48
1
60
1
100
AcDbLine
10
-62.959138
20
1.500002
30
0
11
-63.880706
21
1.499998
31
0
39
0
210
0
220
0
230
1
0
LINE
5
BE
100
AcDbEntity
8
1
62
256
6
ByLayer
370
18
48
1
60
1
100
AcDbLine
10
-63.880706
20
1.499998
30
0
11
-63.419922
21
5
31
0
39
0
210
0
220
0
230
1
0
LINE
5
BF
100
AcDbEntity
8
1
62
256
6
ByLayer
370
18
48
1
60
1
100
AcDbLine
10
-63.419922
20
-5
30
0
11
-63.880706
21
-1.500002
31
0
39
0
210
0
220
0
230
1
0
LINE
5
C0
100
AcDbEntity
8
1
62
256
6
ByLayer
370
18
48
1
60
1
100
AcDbLine
10
-63.880706
20
-1.500002
30
0
11
-62.959138
21
-1.499998
31
0
39
0
210
0
220
0
230
1
0
LINE
5
C1
100
AcDbEntity
8
1
62
256
6
ByLayer
370
18
48
1
60
1
100
AcDbLine
10
-62.959138
20
-1.499998
30
0
11
-63.419922
21
-5
31
0
39
0
210
0
220
0
230
1
0
LINE
5
C2
100
AcDbEntity
8
2
62
256
6
ByLayer
370
18
48
1
60
0
100
AcDbLine
10
22.230078
20
-4.8501
30
0
11
22.230078
21
25.199032
31
0
39
0
210
0
220
0
230
1
0
LINE
5
C4
100
AcDbEntity
8
2
62
256
6
ByLayer
370
18
48
1
60
0
100
AcDbLine
10
11.817578
20
4.8501
30
0
11
24.230078
21
4.8501
31
0
39
0
210
0
220
0
230
1
0
LINE
5
C5
100
AcDbEntity
8
2
62
256
6
ByLayer
370
18
48
1
60
0
100
AcDbLine
10
11.817578
20
-4.8501
30
0
11
24.230078
21
-4.8501
31
0
39
0
210
0
220
0
230
1
0
LINE
5
C6
100
AcDbEntity
8
1
62
256
6
ByLayer
370
18
48
1
60
1
100
AcDbLine
10
22.230078
20
4.8501
30
0
11
22.690862
21
1.350102
31
0
39
0
210
0
220
0
230
1
0
LINE
5
C7
100
AcDbEntity
8
1
62
256
6
ByLayer
370
18
48
1
60
1
100
AcDbLine
10
22.690862
20
1.350102
30
0
11
21.769294
21
1.350098
31
0
39
0
210
0
220
0
230
1
0
LINE
5
C8
100
AcDbEntity
8
1
62
256
6
ByLayer
370
18
48
1
60
1
100
AcDbLine
10
21.769294
20
1.350098
30
0
11
22.230078
21
4.8501
31
0
39
0
210
0
220
0
230
1
0
LINE
5
C9
100
AcDbEntity
8
1
62
256
6
ByLayer
370
18
48
1
60
1
100
AcDbLine
10
22.230078
20
-4.8501
30
0
11
21.769294
21
-1.350102
31
0
39
0
210
0
220
0
230
1
0
LINE
5
CA
100
AcDbEntity
8
1
62
256
6
ByLayer
370
18
48
1
60
1
100
AcDbLine
10
21.769294
20
-1.350102
30
0
11
22.690862
21
-1.350098
31
0
39
0
210
0
220
0
230
1
0
LINE
5
CB
100
AcDbEntity
8
1
62
256
6
ByLayer
370
18
48
1
60
1
100
AcDbLine
10
22.690862
20
-1.350098
30
0
11
22.230078
21
-4.8501
31
0
39
0
210
0
220
0
230
1
0
LINE
5
CC
100
AcDbEntity
8
2
62
256
6
ByLayer
370
18
48
1
60
0
100
AcDbLine
10
10.230078
20
-35.673271
30
0
11
-55.769922
21
-35.673271
31
0
39
0
210
0
220
0
230
1
0
LINE
5
CD
100
AcDbEntity
8
2
62
256
6
ByLayer
370
18
48
1
60
0
100
AcDbLine
10
-55.769922
20
-5.9875
30
0
11
-55.769922
21
-37.673271
31
0
39
0
210
0
220
0
230
1
0
LINE
5
CE
100
AcDbEntity
8
2
62
256
6
ByLayer
370
18
48
1
60
0
100
AcDbLine
10
10.230078
20
-6.4376
30
0
11
10.230078
21
-37.673271
31
0
39
0
210
0
220
0
230
1
0
LINE
5
CF
100
AcDbEntity
8
1
62
256
6
ByLayer
370
18
48
1
60
1
100
AcDbLine
10
-55.769922
20
-35.673271
30
0
11
-52.269924
21
-35.212487
31
0
39
0
210
0
220
0
230
1
0
LINE
5
D0
100
AcDbEntity
8
1
62
256
6
ByLayer
370
18
48
1
60
1
100
AcDbLine
10
-52.269924
20
-35.212487
30
0
11
-52.26992
21
-36.134055
31
0
39
0
210
0
220
0
230
1
0
LINE
5
D1
100
AcDbEntity
8
1
62
256
6
ByLayer
370
18
48
1
60
1
100
AcDbLine
10
-52.26992
20
-36.134055
30
0
11
-55.769922
21
-35.673271
31
0
39
0
210
0
220
0
230
1
0
LINE
5
D2
100
AcDbEntity
8
1
62
256
6
ByLayer
370
18
48
1
60
1
100
AcDbLine
10
10.230078
20
-35.673271
30
0
11
6.73008
21
-36.134055
31
0
39
0
210
0
220
0
230
1
0
LINE
5
D3
100
AcDbEntity
8
1
62
256
6
ByLayer
370
18
48
1
60
1
100
AcDbLine
10
6.73008
20
-36.134055
30
0
11
6.730076
21
-35.212487
31
0
39
0
210
0
220
0
230
1
0
LINE
5
D4
100
AcDbEntity
8
1
62
256
6
ByLayer
370
18
48
1
60
1
100
AcDbLine
10
6.730076
20
-35.212487
30
0
11
10.230078
21
-35.673271
31
0
39
0
210
0
220
0
230
1
0
LINE
5
15A
100
AcDbEntity
8
1
62
256
6
ByLayer
370
18
48
1
60
1
100
AcDbLine
10
-63.419922
20
5
30
0
11
-62.959138
21
1.500002
31
0
39
0
210
0
220
0
230
1
0
LINE
5
15B
100
AcDbEntity
8
1
62
256
6
ByLayer
370
18
48
1
60
1
100
AcDbLine
10
-62.959138
20
1.500002
30
0
11
-63.880706
21
1.499998
31
0
39
0
210
0
220
0
230
1
0
LINE
5
15C
100
AcDbEntity
8
1
62
256
6
ByLayer
370
18
48
1
60
1
100
AcDbLine
10
-63.880706
20
1.499998
30
0
11
-63.419922
21
5
31
0
39
0
210
0
220
0
230
1
0
LINE
5
15E
100
AcDbEntity
8
1
62
256
6
ByLayer
370
18
48
1
60
1
100
AcDbLine
10
-63.419922
20
-5
30
0
11
-63.880706
21
-1.500002
31
0
39
0
210
0
220
0
230
1
0
LINE
5
15F
100
AcDbEntity
8
1
62
256
6
ByLayer
370
18
48
1
60
1
100
AcDbLine
10
-63.880706
20
-1.500002
30
0
11
-62.959138
21
-1.499998
31
0
39
0
210
0
220
0
230
1
0
LINE
5
160
100
AcDbEntity
8
1
62
256
6
ByLayer
370
18
48
1
60
1
100
AcDbLine
10
-62.959138
20
-1.499998
30
0
11
-63.419922
21
-5
31
0
39
0
210
0
220
0
230
1
0
LINE
5
164
100
AcDbEntity
8
1
62
256
6
ByLayer
370
18
48
1
60
1
100
AcDbLine
10
22.230078
20
4.8501
30
0
11
22.690862
21
1.350102
31
0
39
0
210
0
220
0
230
1
0
LINE
5
165
100
AcDbEntity
8
1
62
256
6
ByLayer
370
18
48
1
60
1
100
AcDbLine
10
22.690862
20
1.350102
30
0
11
21.769294
21
1.350098
31
0
39
0
210
0
220
0
230
1
0
LINE
5
166
100
AcDbEntity
8
1
62
256
6
ByLayer
370
18
48
1
60
1
100
AcDbLine
10
21.769294
20
1.350098
30
0
11
22.230078
21
4.8501
31
0
39
0
210
0
220
0
230
1
0
LINE
5
168
100
AcDbEntity
8
1
62
256
6
ByLayer
370
18
48
1
60
1
100
AcDbLine
10
22.230078
20
-4.8501
30
0
11
21.769294
21
-1.350102
31
0
39
0
210
0
220
0
230
1
0
LINE
5
169
100
AcDbEntity
8
1
62
256
6
ByLayer
370
18
48
1
60
1
100
AcDbLine
10
21.769294
20
-1.350102
30
0
11
22.690862
21
-1.350098
31
0
39
0
210
0
220
0
230
1
0
LINE
5
16A
100
AcDbEntity
8
1
62
256
6
ByLayer
370
18
48
1
60
1
100
AcDbLine
10
22.690862
20
-1.350098
30
0
11
22.230078
21
-4.8501
31
0
39
0
210
0
220
0
230
1
0
LINE
5
16D
100
AcDbEntity
8
1
62
256
6
ByLayer
370
18
48
1
60
1
100
AcDbLine
10
-55.769922
20
-35.673271
30
0
11
-52.269924
21
-35.212487
31
0
39
0
210
0
220
0
230
1
0
LINE
5
16E
100
AcDbEntity
8
1
62
256
6
ByLayer
370
18
48
1
60
1
100
AcDbLine
10
-52.269924
20
-35.212487
30
0
11
-52.26992
21
-36.134055
31
0
39
0
210
0
220
0
230
1
0
LINE
5
16F
100
AcDbEntity
8
1
62
256
6
ByLayer
370
18
48
1
60
1
100
AcDbLine
10
-52.26992
20
-36.134055
30
0
11
-55.769922
21
-35.673271
31
0
39
0
210
0
220
0
230
1
0
LINE
5
171
100
AcDbEntity
8
1
62
256
6
ByLayer
370
18
48
1
60
1
100
AcDbLine
10
10.230078
20
-35.673271
30
0
11
6.73008
21
-36.134055
31
0
39
0
210
0
220
0
230
1
0
LINE
5
172
100
AcDbEntity
8
1
62
256
6
ByLayer
370
18
48
1
60
1
100
AcDbLine
10
6.73008
20
-36.134055
30
0
11
6.730076
21
-35.212487
31
0
39
0
210
0
220
0
230
1
0
LINE
5
173
100
AcDbEntity
8
1
62
256
6
ByLayer
370
18
48
1
60
1
100
AcDbLine
10
6.730076
20
-35.212487
30
0
11
10.230078
21
-35.673271
31
0
39
0
210
0
220
0
230
1
0
MTEXT
5
156
100
AcDbEntity
8
SK2
62
256
6
ByLayer
370
18
48
1
60
0
100
AcDbMText
10
-64.984556
20
-21.121222
30
0
210
0
220
0
230
1
1
%%c
40
3.5
41
0
44
1.084337
50
90
71
7
72
5
7
iso_b_vert
0
MTEXT
5
159
100
AcDbEntity
8
SK2
62
256
6
ByLayer
370
18
48
1
60
0
100
AcDbMText
10
-64.984556
20
-14.148566
30
0
210
0
220
0
230
1
1
\W0.5321;10
40
3.5
41
0
44
1.084337
50
90
71
7
72
5
7
iso_b_vert
0
MTEXT
5
162
100
AcDbEntity
8
2
62
256
6
ByLayer
370
18
48
1
60
0
100
AcDbMText
10
20.665444
20
12.784944
30
0
210
0
220
0
230
1
1
%%c
40
3.5
41
0
44
1.084337
50
90
71
7
72
5
7
iso_b_vert
0
MTEXT
5
163
100
AcDbEntity
8
2
62
256
6
ByLayer
370
18
48
1
60
0
100
AcDbMText
10
20.665444
20
19.7576
30
0
210
0
220
0
230
1
1
\W0.7121;9.7
40
3.5
41
0
44
1.084337
50
90
71
7
72
5
7
iso_b_vert
0
MTEXT
5
16C
100
AcDbEntity
8
2
62
256
6
ByLayer
370
18
48
1
60
0
100
AcDbMText
10
-24.674888
20
-34.640637
30
0
210
0
220
0
230
1
1
\W0.6740;66
40
3.5
41
0
44
1.084337
50
0
71
7
72
5
7
iso_b_vert
0
MTEXT
5
175
100
AcDbEntity
8
SK6
62
256
6
ByLayer
370
18
48
1
60
0
100
AcDbMText
10
-41.641528
20
-62.11708
30
0
210
0
220
0
230
1
1
\W0.7162;1K313-0970-XB 1730
40
3
41
0
44
1.084337
50
0
71
7
72
5
7
iso_b_vert
0
HATCH
5
15D
100
AcDbEntity
8
SK2
62
256
6
ByLayer
370
13
48
1
60
0
100
AcDbHatch
10
0
20
0
30
0
210
0
220
0
230
1
2
ANSI31
70
0
71
0
91
1
92
5
93
3
72
1
10
-63.4199221085944
20
5
11
-62.9591383670417
21
1.50000169255318
72
1
10
-62.9591383670417
20
1.50000169255318
11
-63.8807058501472
21
1.49999830744682
72
1
10
-63.8807058501472
20
1.49999830744682
11
-63.4199221085944
21
5
97
0
75
0
76
1
52
0
41
0.0062
77
0
78
1
53
45
43
0
44
0
45
-0.0139193969876572
46
0.0139193969876572
79
0
47
0
98
1
10
0
20
0
0
HATCH
5
161
100
AcDbEntity
8
SK2
62
256
6
ByLayer
370
13
48
1
60
0
100
AcDbHatch
10
0
20
0
30
0
210
0
220
0
230
1
2
ANSI31
70
0
71
0
91
1
92
5
93
3
72
1
10
-63.4199221085944
20
-5
11
-63.8807058501472
21
-1.50000169255318
72
1
10
-63.8807058501472
20
-1.50000169255318
11
-62.9591383670417
21
-1.49999830744682
72
1
10
-62.9591383670417
20
-1.49999830744682
11
-63.4199221085944
21
-5
97
0
75
0
76
1
52
0
41
0.0062
77
0
78
1
53
45
43
0
44
0
45
-0.0139193969876572
46
0.0139193969876572
79
0
47
0
98
1
10
0
20
0
0
HATCH
5
167
100
AcDbEntity
8
2
62
256
6
ByLayer
370
13
48
1
60
0
100
AcDbHatch
10
0
20
0
30
0
210
0
220
0
230
1
2
ANSI31
70
0
71
0
91
1
92
5
93
3
72
1
10
22.2300778914056
20
4.85009999999994
11
22.6908616329584
21
1.35010169255313
72
1
10
22.6908616329584
20
1.35010169255313
11
21.7692941498528
21
1.35009830744676
72
1
10
21.7692941498528
20
1.35009830744676
11
22.2300778914056
21
4.85009999999994
97
0
75
0
76
1
52
0
41
0.0062
77
0
78
1
53
45
43
0
44
0
45
-0.0139193969876572
46
0.0139193969876572
79
0
47
0
98
1
10
0
20
0
0
HATCH
5
16B
100
AcDbEntity
8
2
62
256
6
ByLayer
370
13
48
1
60
0
100
AcDbHatch
10
0
20
0
30
0
210
0
220
0
230
1
2
ANSI31
70
0
71
0
91
1
92
5
93
3
72
1
10
22.2300778914056
20
-4.85010000000005
11
21.7692941498528
21
-1.35010169255324
72
1
10
21.7692941498528
20
-1.35010169255324
11
22.6908616329584
21
-1.35009830744687
72
1
10
22.6908616329584
20
-1.35009830744687
11
22.2300778914056
21
-4.85010000000005
97
0
75
0
76
1
52
0
41
0.0062
77
0
78
1
53
45
43
0
44
0
45
-0.0139193969876572
46
0.0139193969876572
79
0
47
0
98
1
10
0
20
0
0
HATCH
5
170
100
AcDbEntity
8
2
62
256
6
ByLayer
370
13
48
1
60
0
100
AcDbHatch
10
0
20
0
30
0
210
0
220
0
230
1
2
ANSI31
70
0
71
0
91
1
92
5
93
3
72
1
10
-55.7699221085944
20
-35.6732708361419
11
-52.2699238011476
21
-35.2124870945891
72
1
10
-52.2699238011476
20
-35.2124870945891
11
-52.2699204160412
21
-36.1340545776946
72
1
10
-52.2699204160412
20
-36.1340545776946
11
-55.7699221085944
21
-35.6732708361419
97
0
75
0
76
1
52
0
41
0.0062
77
0
78
1
53
45
43
0
44
0
45
-0.0139193969876572
46
0.0139193969876572
79
0
47
0
98
1
10
0
20
0
0
HATCH
5
174
100
AcDbEntity
8
2
62
256
6
ByLayer
370
13
48
1
60
0
100
AcDbHatch
10
0
20
0
30
0
210
0
220
0
230
1
2
ANSI31
70
0
71
0
91
1
92
5
93
3
72
1
10
10.2300778914056
20
-35.6732708361419
11
6.7300795839588
21
-36.1340545776946
72
1
10
6.7300795839588
20
-36.1340545776946
11
6.73007619885243
21
-35.2124870945891
72
1
10
6.73007619885243
20
-35.2124870945891
11
10.2300778914056
21
-35.6732708361419
97
0
75
0
76
1
52
0
41
0.0062
77
0
78
1
53
45
43
0
44
0
45
-0.0139193969876572
46
0.0139193969876572
79
0
47
0
98
1
10
0
20
0
0
DIMENSION
5
178
100
AcDbEntity
8
SK2
62
256
6
ByLayer
370
18
48
1
60
0
100
AcDbDimension
2
_U0
10
0.530078
20
-19.673271
30
0
11
5.380078
21
-19.673271
31
0
70
32
71
1
72
1
41
1
210
0
220
0
230
1
3
Standard
100
AcDbAlignedDimension
13
10.230078
23
-4.8501
33
0
14
0.530078
24
-4.8501
34
0
50
0
100
AcDbRotatedDimension
1001
ACAD
1000
DSTYLE
1002
{
1070
   371
1070
    13
1070
   372
1070
    13
1070
   170
1070
     0
1070
   144
1040
1.0
1070
   277
1070
     2
1070
   284
1070
     8
1070
   278
1070
    46
1070
   146
1040
1.0
1070
   345
1005
16
1070
   347
1005
16
1070
   346
1005
16
1070
   344
1005
0
1070
   343
1005
0
1070
   172
1070
     1
1070
    76
1070
     0
1070
    75
1070
     0
1070
   282
1070
     0
1070
   281
1070
     0
1070
    71
1070
     0
1070
    74
1070
     0
1070
   279
1070
     0
1070
   173
1070
     1
1070
   340
1005
157
1070
   271
1070
     2
1070
   272
1070
     2
1070
    77
1070
     1
1070
    73
1070
     1
1070
   171
1070
     3
1070
   274
1070
     4
1070
   177
1070
     2
1070
   176
1070
     2
1070
   178
1070
     2
1070
    78
1070
     8
1070
    48
1040
-0.1
1070
    41
1040
3.5
1070
   147
1040
1.75
1070
    42
1040
1.5875
1070
    44
1040
2.0
1070
   140
1040
3.5
1002
}
1001
ACAD_DSTYLE_DIM_LINETYPE
1070
   380
1005
16
1001
ACAD_DSTYLE_DIM_EXT1_LINETYPE
1070
   381
1005
16
1001
ACAD_DSTYLE_DIM_EXT2_LINETYPE
1070
   382
1005
16
0
ENDSEC
0
SECTION
2
OBJECTS
0
DICTIONARY
5
202
330
0
100
AcDbDictionary
280
0
281
1
3
ACAD_GROUP
350
203
3
ACAD_MLINESTYLE
350
204
0
DICTIONARY
5
203
330
0
100
AcDbDictionary
280
0
281
1
0
DICTIONARY
5
204
330
0
100
AcDbDictionary
280
0
281
1
3
Standard
350
18
0
MLINESTYLE
5
18
330
204
100
AcDbMlineStyle
2
Standard
70
0
3

62
256
51
90
52
90
71
2
49
-0.5
62
256
6
ByLayer
49
0.5
62
256
6
ByLayer
0
RASTERVARIABLES
5
1f0
330

100
AcDbRasterVariables
90
0
70
1
71
1
72
1
0
ENDSEC
0
EOF
