0
SECTION
2
HEADER
9
$ACADVER
1
AC1015
9
$DWGCODEPAGE
3
ANSI_1252
9
$HANDSEED
5
1ea
9
$ANGBASE
50
0
9
$ANGDIR
70
0
9
$ATTMODE
70
1
9
$AUNITS
70
0
9
$AUPREC
70
0
9
$CECOLOR
62
256
9
$CELTSCALE
40
1
9
$CELTYPE
6
ByLayer
9
$CELWEIGHT
370
18
9
$CLAYER
8
0
9
$CMLJUST
70
0
9
$CMLSCALE
40
1
9
$CMLSTYLE
2
Standard
9
$DIMSTYLE
2
Standard
9
$TEXTSIZE
40
0.2
9
$TEXTSTYLE
7
Standard
9
$LUNITS
70
2
9
$LUPREC
70
4
9
$EXTNAMES
290
1
9
$INSUNITS
70
4
9
$LTSCALE
40
1
9
$LWDISPLAY
290
1
9
$PDMODE
70
0
9
$PDSIZE
40
0
9
$PLINEGEN
70
0
0
ENDSEC
0
SECTION
2
CLASSES
0
CLASS
1
RASTERVARIABLES
2
AcDbRasterVariables
3
ISM
90
0
280
0
281
0
0
ENDSEC
0
SECTION
2
TABLES
0
TABLE
2
VPORT
5
1e0
100
AcDbSymbolTable
0
VPORT
5
1
100
AcDbSymbolTableRecord
100
AcDbViewportTableRecord
2
*Active
70
0
10
0
20
0
11
1
21
1
12
-1
22
1
13
0
23
0
14
0.5
24
0.5
15
10
25
10
16
0
26
0
36
1
17
0
27
0
37
0
0
ENDTAB
0
TABLE
2
LTYPE
5
1e1
100
AcDbSymbolTable
0
LTYPE
5
14
100
AcDbSymbolTableRecord
100
AcDbLinetypeTableRecord
70
0
2
ByBlock
3

72
65
73
0
40
0
0
LTYPE
5
15
100
AcDbSymbolTableRecord
100
AcDbLinetypeTableRecord
70
0
2
ByLayer
3

72
65
73
0
40
0
0
LTYPE
5
16
100
AcDbSymbolTableRecord
100
AcDbLinetypeTableRecord
70
0
2
Continuous
3
Solid line
72
65
73
0
40
0
0
LTYPE
5
6E
100
AcDbSymbolTableRecord
100
AcDbLinetypeTableRecord
70
0
2
CENTER
3
____ _ ____ _ ____ _ ____
72
65
73
4
40
47.5
49
22
74
0
49
-8.5
74
0
49
8.5
74
0
49
-8.5
74
0
0
LTYPE
5
6F
100
AcDbSymbolTableRecord
100
AcDbLinetypeTableRecord
70
0
2
DASHED
3
__ __ __ __ __ __ __ __ __
72
65
73
2
40
25.72
49
12.86
74
0
49
-12.86
74
0
0
ENDTAB
0
TABLE
2
LAYER
5
1e2
100
AcDbSymbolTable
0
LAYER
5
10
100
AcDbSymbolTableRecord
100
AcDbLayerTableRecord
2
0
70
0
62
7
6
Continuous
290
1
370
-3
390
0
0
LAYER
5
71
100
AcDbSymbolTableRecord
100
AcDbLayerTableRecord
2
81
70
0
62
-3
6
Continuous
290
1
370
-3
390
0
0
LAYER
5
73
100
AcDbSymbolTableRecord
100
AcDbLayerTableRecord
2
80
70
0
62
-6
6
Continuous
290
1
370
-3
390
0
0
LAYER
5
75
100
AcDbSymbolTableRecord
100
AcDbLayerTableRecord
2
1
70
0
62
4
6
Continuous
290
1
370
-3
390
0
0
LAYER
5
79
100
AcDbSymbolTableRecord
100
AcDbLayerTableRecord
2
4
70
0
62
-2
6
CENTER
290
1
370
-3
390
0
0
LAYER
5
C0
100
AcDbSymbolTableRecord
100
AcDbLayerTableRecord
2
2
70
0
62
7
6
Continuous
290
1
370
-3
390
0
0
LAYER
5
156
100
AcDbSymbolTableRecord
100
AcDbLayerTableRecord
2
Defpoints
70
0
62
7
6
Continuous
290
0
370
-3
390
0
0
LAYER
5
1cc
100
AcDbSymbolTableRecord
100
AcDbLayerTableRecord
2
SK4
70
0
62
2
6
CENTER
290
1
370
-3
390
0
0
LAYER
5
1cd
100
AcDbSymbolTableRecord
100
AcDbLayerTableRecord
2
SK1
70
0
62
4
6
Continuous
290
1
370
-3
390
0
0
LAYER
5
1ce
100
AcDbSymbolTableRecord
100
AcDbLayerTableRecord
2
SK2
70
0
62
7
6
Continuous
290
1
370
-3
390
0
0
LAYER
5
1cf
100
AcDbSymbolTableRecord
100
AcDbLayerTableRecord
2
SK6
70
0
62
5
6
Continuous
290
1
370
-3
390
0
0
ENDTAB
0
TABLE
2
STYLE
5
1e3
100
AcDbSymbolTable
0
STYLE
5
11
100
AcDbSymbolTableRecord
100
AcDbTextStyleTableRecord
2
Standard
3
txt
70
0
71
0
40
0
41
1
42
0
50
0
0
STYLE
5
132
100
AcDbSymbolTableRecord
100
AcDbTextStyleTableRecord
2
iso_b_vert
3
simplex.shx
70
0
71
0
40
0
41
1
42
0
50
0
0
STYLE
5
133
100
AcDbSymbolTableRecord
100
AcDbTextStyleTableRecord
2
DWGDirectTextStyle
3
simplex
70
0
71
0
40
0
41
1
42
0
50
0
0
ENDTAB
0
TABLE
2
DIMSTYLE
5
1e4
100
AcDbSymbolTable
100
AcDbDimStyleTable
0
DIMSTYLE
105
27
100
AcDbSymbolTableRecord
100
AcDbDimStyleTableRecord
2
Standard
70
0
3
<>
41
0.18
42
0.0625
44
0.18
140
0.18
147
0.09
73
0
74
0
77
1
271
2
275
0
278
52
280
0
340
11
0
ENDTAB
0
TABLE
2
VIEW
5
1e5
100
AcDbSymbolTable
0
ENDTAB
0
TABLE
2
UCS
5
1e6
100
AcDbSymbolTable
0
ENDTAB
0
TABLE
2
APPID
5
1e7
100
AcDbSymbolTable
0
APPID
5
12
100
AcDbSymbolTableRecord
100
AcDbRegAppTableRecord
2
ACAD
70
0
0
APPID
5
152
100
AcDbSymbolTableRecord
100
AcDbRegAppTableRecord
2
ACAD_DSTYLE_DIMBREAK
70
0
0
APPID
5
18B
100
AcDbSymbolTableRecord
100
AcDbRegAppTableRecord
2
ACAD_DSTYLE_DIM_LINETYPE
70
0
0
APPID
5
18C
100
AcDbSymbolTableRecord
100
AcDbRegAppTableRecord
2
ACAD_DSTYLE_DIM_EXT1_LINETYPE
70
0
0
APPID
5
18D
100
AcDbSymbolTableRecord
100
AcDbRegAppTableRecord
2
ACAD_DSTYLE_DIM_EXT2_LINETYPE
70
0
0
APPID
5
1C8
100
AcDbSymbolTableRecord
100
AcDbRegAppTableRecord
2
ACAD_MLEADERVER
70
0
0
ENDTAB
0
TABLE
2
BLOCK_RECORD
5
1e8
100
AcDbSymbolTable
0
BLOCK_RECORD
5
1F
100
AcDbSymbolTableRecord
100
AcDbBlockTableRecord
2
*Model_Space
340
0
70
0
0
BLOCK_RECORD
5
1B
100
AcDbSymbolTableRecord
100
AcDbBlockTableRecord
2
*Paper_Space
340
0
70
0
0
BLOCK_RECORD
5
23
100
AcDbSymbolTableRecord
100
AcDbBlockTableRecord
2
*Paper_Space0
340
0
70
0
0
BLOCK_RECORD
5
157
100
AcDbSymbolTableRecord
100
AcDbBlockTableRecord
2
*D1
340
0
70
0
0
BLOCK_RECORD
5
164
100
AcDbSymbolTableRecord
100
AcDbBlockTableRecord
2
_U0
340
0
70
0
0
ENDTAB
0
ENDSEC
0
SECTION
2
BLOCKS
0
BLOCK
5
20
100
AcDbEntity
8
0
100
AcDbBlockBegin
2
*Model_Space
70
0
10
0
20
0
30
0
3
*Model_Space
0
ENDBLK
5
21
100
AcDbEntity
8
0
100
AcDbBlockEnd
0
BLOCK
5
1C
100
AcDbEntity
8
0
100
AcDbBlockBegin
2
*Paper_Space
70
0
10
0
20
0
30
0
3
*Paper_Space
0
ENDBLK
5
1D
100
AcDbEntity
8
0
100
AcDbBlockEnd
0
BLOCK
5
24
100
AcDbEntity
8
0
100
AcDbBlockBegin
2
*Paper_Space0
70
0
10
0
20
0
30
0
3
*Paper_Space0
0
ENDBLK
5
25
100
AcDbEntity
8
0
100
AcDbBlockEnd
0
BLOCK
5
158
100
AcDbEntity
8
0
100
AcDbBlockBegin
2
*D1
70
1
10
0
20
0
30
0
3
*D1
0
LINE
5
15A
100
AcDbEntity
8
0
62
256
6
ByLayer
370
-2
48
1
60
0
100
AcDbLine
10
8
20
-5.5876
30
0
11
8
21
-20.680105
31
0
39
0
210
0
220
0
230
1
0
LINE
5
15B
100
AcDbEntity
8
0
62
256
6
ByLayer
370
-2
48
1
60
0
100
AcDbLine
10
0
20
-5.5876
30
0
11
0
21
-20.680105
31
0
39
0
210
0
220
0
230
1
0
LINE
5
15C
100
AcDbEntity
8
0
62
256
6
ByLayer
370
-2
48
1
60
0
100
AcDbLine
10
11.5
20
-18.680105
30
0
11
15
21
-18.680105
31
0
39
0
210
0
220
0
230
1
0
LINE
5
15D
100
AcDbEntity
8
0
62
256
6
ByLayer
370
-2
48
1
60
0
100
AcDbLine
10
-3.5
20
-18.680105
30
0
11
-7
21
-18.680105
31
0
39
0
210
0
220
0
230
1
0
SOLID
5
15E
100
AcDbEntity
8
0
62
256
6
ByLayer
370
-1
48
1
60
0
100
AcDbTrace
10
11.5
20
-18.096772
30
0
11
11.5
21
-19.263439
31
0
12
8
22
-18.680105
32
0
13
8
23
-18.680105
33
0
39
0
210
0
220
0
230
1
0
SOLID
5
15F
100
AcDbEntity
8
0
62
256
6
ByLayer
370
-1
48
1
60
0
100
AcDbTrace
10
-3.5
20
-19.263439
30
0
11
-3.5
21
-18.096772
31
0
12
0
22
-18.680105
32
0
13
0
23
-18.680105
33
0
39
0
210
0
220
0
230
1
0
MTEXT
5
160
100
AcDbEntity
8
0
62
256
6
ByLayer
370
18
48
1
60
0
100
AcDbMText
10
4
20
-11.680105
30
0
210
0
220
0
230
1
1
\A1;8
40
3.5
41
0
44
1
50
0
71
5
72
5
7
iso_b_vert
0
POINT
5
161
100
AcDbEntity
8
Defpoints
62
0
6
ByLayer
370
-1
48
1
60
0
100
AcDbPoint
10
8
20
-4.0001
30
0
39
0
210
0
220
0
230
1
50
360
0
POINT
5
162
100
AcDbEntity
8
Defpoints
62
0
6
ByLayer
370
-1
48
1
60
0
100
AcDbPoint
10
0
20
-4.0001
30
0
39
0
210
0
220
0
230
1
50
360
0
POINT
5
163
100
AcDbEntity
8
Defpoints
62
0
6
ByLayer
370
-1
48
1
60
0
100
AcDbPoint
10
0
20
-18.680105
30
0
39
0
210
0
220
0
230
1
50
360
0
ENDBLK
5
159
100
AcDbEntity
8
0
100
AcDbBlockEnd
0
BLOCK
5
16B
100
AcDbEntity
8
0
100
AcDbBlockBegin
2
_U0
70
0
10
0
20
0
30
0
3
_U0
0
MTEXT
5
165
100
AcDbEntity
8
SK2
62
256
6
ByLayer
370
18
48
1
60
0
100
AcDbMText
10
3.402767
20
-17.647472
30
0
210
0
220
0
230
1
1
\W0.5404;8
40
3.5
41
0
44
1.084337
50
0
71
7
72
5
7
iso_b_vert
0
LINE
5
166
100
AcDbEntity
8
SK2
62
256
6
ByLayer
370
13
48
1
60
0
100
AcDbLine
10
8
20
-5.5876
30
0
11
8
21
-20.680105
31
0
39
0
210
0
220
0
230
1
0
LINE
5
167
100
AcDbEntity
8
SK2
62
256
6
ByLayer
370
13
48
1
60
0
100
AcDbLine
10
0
20
-5.5876
30
0
11
0
21
-20.680105
31
0
39
0
210
0
220
0
230
1
0
LINE
5
168
100
AcDbEntity
8
SK2
62
256
6
ByLayer
370
13
48
1
60
0
100
AcDbLine
10
8
20
-18.680105
30
0
11
0
21
-18.680105
31
0
39
0
210
0
220
0
230
1
0
SOLID
5
169
100
AcDbEntity
8
SK2
62
256
6
ByLayer
370
18
48
1
60
0
100
AcDbTrace
10
8
20
-18.680105
30
0
11
4.500002
21
-19.140889
31
0
12
4.499998
22
-18.219322
32
0
13
4.499998
23
-18.219322
33
0
39
0
210
0
220
0
230
1
0
SOLID
5
16A
100
AcDbEntity
8
SK2
62
256
6
ByLayer
370
18
48
1
60
0
100
AcDbTrace
10
0
20
-18.680105
30
0
11
3.499998
21
-18.219322
31
0
12
3.500002
22
-19.140889
32
0
13
3.500002
23
-19.140889
33
0
39
0
210
0
220
0
230
1
0
ENDBLK
5
16C
100
AcDbEntity
8
0
100
AcDbBlockEnd
0
ENDSEC
0
SECTION
2
ENTITIES
0
ELLIPSE
5
D2
100
AcDbEntity
8
SK1
62
256
6
ByLayer
370
18
48
1
60
0
100
AcDbEllipse
10
3.959335
20
0
30
0
11
7.9054680343447
21
-0.928676059476213
31
0
210
0
220
0
230
1
40
0.492153
41
-2.59734966023359
42
-2.17244582877245
0
ELLIPSE
5
D3
100
AcDbEntity
8
SK1
62
256
6
ByLayer
370
18
48
1
60
0
100
AcDbEllipse
10
-6.739936
20
-2.2E-05
30
0
11
38.8131600610444
21
2.26064381137771
31
0
210
0
220
0
230
1
40
0.085021
41
1.39131095238147
42
1.40349405501395
0
ELLIPSE
5
D4
100
AcDbEntity
8
SK1
62
256
6
ByLayer
370
18
48
1
60
0
100
AcDbEllipse
10
6.866948
20
2E-06
30
0
11
39.545058141551
21
-0.95913844534116
31
0
210
0
220
0
230
1
40
0.0982
41
-1.75327160790854
42
-1.74294753058303
0
POINT
5
70
100
AcDbEntity
8
81
62
256
6
ByLayer
370
18
48
1
60
0
100
AcDbPoint
10
8
20
0
30
0
39
0
210
0
220
0
230
1
50
360
0
POINT
5
72
100
AcDbEntity
8
80
62
256
6
ByLayer
370
18
48
1
60
0
100
AcDbPoint
10
0
20
0
30
0
39
0
210
0
220
0
230
1
50
360
0
POINT
5
74
100
AcDbEntity
8
1
62
256
6
ByLayer
370
18
48
1
60
1
100
AcDbPoint
10
8
20
-4.0001
30
0
39
0
210
0
220
0
230
1
50
360
0
POINT
5
76
100
AcDbEntity
8
1
62
256
6
ByLayer
370
18
48
1
60
1
100
AcDbPoint
10
0
20
-4.0001
30
0
39
0
210
0
220
0
230
1
50
360
0
SPLINE
5
D5
100
AcDbEntity
8
1
62
256
6
ByLayer
370
18
48
1
60
0
100
AcDbSpline
70
4
71
3
72
12
73
8
40
0
40
0
40
0
40
0
40
0.251164602430339
40
0.251164602430339
40
0.502329204861764
40
0.502329204861764
40
1
40
1
40
1
40
1
41
1
10
1.279E-12
20
-3.4832643168123
30
0
41
1
10
1.279E-12
20
-3.49679268785243
30
0
41
1
10
0
20
-3.51032119656469
30
0
41
1
10
0
20
-3.53737848932676
30
0
41
1
10
0
20
-3.55090727337725
30
0
41
1
10
0
20
-3.5912431143916
30
0
41
1
10
0
20
-3.6180505741917
30
0
41
1
10
0
20
-3.64485857447028
30
0
0
SPLINE
5
D6
100
AcDbEntity
8
1
62
256
6
ByLayer
370
18
48
1
60
0
100
AcDbSpline
70
4
71
3
72
8
73
4
40
0
40
0
40
0
40
0
40
1
40
1
40
1
40
1
41
1
10
1.4211E-12
20
-3.64485857447113
30
0
41
1
10
1.4211E-12
20
-3.65037657623364
30
0
41
1
10
0
20
-3.65589461677988
30
0
41
1
10
0
20
-3.66141269610941
30
0
0
SPLINE
5
D7
100
AcDbEntity
8
1
62
256
6
ByLayer
370
18
48
1
60
0
100
AcDbSpline
70
4
71
3
72
15
73
11
40
0
40
0
40
0
40
0
40
0.0224179970895577
40
0.161936416112989
40
0.30145483513642
40
0.440973254159852
40
0.580491673183283
40
0.720010092206714
40
0.859528511230146
40
1
40
1
40
1
40
1
41
1
10
2.6148E-12
20
-3.64485857447104
30
0
41
1
10
0.0232247713428251
20
-3.65168035452115
30
0
41
1
10
0.190992019359669
20
-3.70028128267177
30
0
41
1
10
0.503341119335346
20
-3.78160036375021
30
0
41
1
10
0.937084622400789
20
-3.87180529212446
30
0
41
1
10
1.37083815332946
20
-3.93888529445275
30
0
41
1
10
1.8045663835407
20
-3.98246606822738
30
0
41
1
10
2.23819614246284
20
-4.00224371526181
30
0
41
1
10
2.67281767944039
20
-3.99802628574679
30
0
41
1
10
2.9631354915592
20
-3.97917886911622
30
0
41
1
10
3.10890405171071
20
-3.96569745838272
30
0
0
SPLINE
5
D8
100
AcDbEntity
8
1
62
256
6
ByLayer
370
18
48
1
60
0
100
AcDbSpline
70
4
71
3
72
10
73
6
40
0
40
0
40
0
40
0
40
0.496558978424901
40
0.496558978424901
40
1
40
1
40
1
40
1
41
1
10
0
20
-2.87316276522284
30
0
41
1
10
0
20
-2.97413928025978
30
0
41
1
10
0
20
-3.07511941358058
30
0
41
1
10
0
20
-3.27848649672299
30
0
41
1
10
0
20
-3.38087354764227
30
0
41
1
10
0
20
-3.48326431681142
30
0
0
SPLINE
5
D9
100
AcDbEntity
8
1
62
256
6
ByLayer
370
18
48
1
60
0
100
AcDbSpline
70
4
71
3
72
17
73
13
40
0
40
0
40
0
40
0
40
0.0162602311476524
40
0.117660588487391
40
0.21906094582713
40
0.320461303166869
40
0.421861660506608
40
0.523262017846347
40
0.624662375186086
40
0.827463089865564
40
0.928863447205303
40
1
40
1
40
1
40
1
41
1
10
1.9327E-12
20
-3.48326431681207
30
0
41
1
10
0.0231775672130539
20
-3.49115056318422
30
0
41
1
10
0.190895710468652
20
-3.54757674381705
30
0
41
1
10
0.503193643707164
20
-3.64395792320874
30
0
41
1
10
0.936943429741291
20
-3.75579582677619
30
0
41
1
10
1.3706987778065
20
-3.84517835720487
30
0
41
1
10
1.80442464166802
20
-3.91158262956233
30
0
41
1
10
2.23805449961066
20
-3.95477302297263
30
0
41
1
10
2.8162350024848
20
-3.98061804218889
30
0
41
1
10
3.39511631399489
20
-3.95892706364828
30
0
41
1
10
3.93270322586153
20
-3.89490265877973
30
0
41
1
10
4.18044808394518
20
-3.8539343030906
30
0
41
1
10
4.28272010242659
20
-3.83510661031878
30
0
0
SPLINE
5
DA
100
AcDbEntity
8
1
62
256
6
ByLayer
370
18
48
1
60
0
100
AcDbSpline
70
4
71
3
72
12
73
8
40
0
40
0
40
0
40
0
40
0.251076819316441
40
0.251076819316441
40
0.50215363863291
40
0.50215363863291
40
1
40
1
40
1
40
1
41
1
10
4.547E-13
20
3.75151086460252
30
0
41
1
10
4.547E-13
20
3.74437078945314
30
0
41
1
10
0
20
3.73723094002421
30
0
41
1
10
0
20
3.72295169261119
30
0
41
1
10
0
20
3.71581229462655
30
0
41
1
10
0
20
3.69451725189384
30
0
41
1
10
2.84E-14
20
3.68036226889106
30
0
41
1
10
2.84E-14
20
3.66620817337326
30
0
0
SPLINE
5
DB
100
AcDbEntity
8
1
62
256
6
ByLayer
370
18
48
1
60
0
100
AcDbSpline
70
4
71
3
72
10
73
6
40
0
40
0
40
0
40
0
40
0.496632103386476
40
0.496632103386476
40
1
40
1
40
1
40
1
41
1
10
0
20
3.81510453581063
30
0
41
1
10
0
20
3.80456250592806
30
0
41
1
10
0
20
3.79402766568228
30
0
41
1
10
0
20
3.77282957884762
30
0
41
1
10
2.84E-14
20
3.76216652858417
30
0
41
1
10
2.84E-14
20
3.75151086460278
30
0
0
SPLINE
5
DC
100
AcDbEntity
8
1
62
256
6
ByLayer
370
18
48
1
60
0
100
AcDbSpline
70
4
71
3
72
27
73
23
40
0
40
0
40
0
40
0
40
0.0025890040389209
40
0.0311104616504065
40
0.0596319192618921
40
0.0881533768733777
40
0.116674834484863
40
0.145196292096349
40
0.173717749707834
40
0.230760664930806
40
0.287803580153777
40
0.344846495376748
40
0.45893232582269
40
0.515975241045662
40
0.573018156268633
40
0.630061071491604
40
0.687103986714575
40
0.744146901937546
40
0.801189817160517
40
0.858232732383489
40
0.91527564760646
40
1
40
1
40
1
40
1
41
1
10
8.811E-13
20
3.75151086460252
30
0
41
1
10
0.0065221966146964
20
3.74969458319595
30
0
41
1
10
0.0848959160733784
20
3.72773835166248
30
0
41
1
10
0.235132280541649
20
3.6826388813769
30
0
41
1
10
0.450717872703933
20
3.610191012088
30
0
41
1
10
0.666298212374016
20
3.53002526618619
30
0
41
1
10
0.881851425849788
20
3.44237045584089
30
0
41
1
10
1.09734860777135
20
3.34747818486903
30
0
41
1
10
1.38457409635509
20
3.21164107183401
30
0
41
1
10
1.74338392161775
20
3.02463131152376
30
0
41
1
10
2.17335810865433
20
2.7752047818376
30
0
41
1
10
2.74590749248938
20
2.41184461200751
30
0
41
1
10
3.31892133569664
20
2.00605345100559
30
0
41
1
10
3.8954166650081
20
1.56564599629075
30
0
41
1
10
4.33020153575242
20
1.21995642908505
30
0
41
1
10
4.76824941633154
20
0.861076806976115
30
0
41
1
10
5.21030223664474
20
0.491256346249855
30
0
41
1
10
5.65731762476133
20
0.11289501584784
30
0
41
1
10
6.11003900846379
20
-0.271408653955973
30
0
41
1
10
6.56951439090793
20
-0.658860853910454
30
0
41
1
10
7.11197275316567
20
-1.10896620055402
30
0
41
1
10
7.50789949493984
20
-1.42620164308263
30
0
41
1
10
7.74845584163961
20
-1.61250762397626
30
0
0
SPLINE
5
DD
100
AcDbEntity
8
1
62
256
6
ByLayer
370
18
48
1
60
0
100
AcDbSpline
70
4
71
3
72
27
73
23
40
0
40
0
40
0
40
0
40
0.0025978641345906
40
0.0309690713622062
40
0.0593402785898218
40
0.0877114858174374
40
0.116082693045053
40
0.144453900272669
40
0.172825107500284
40
0.229567521955516
40
0.286309936410747
40
0.343052350865978
40
0.45653717977644
40
0.513279594231672
40
0.570022008686903
40
0.626764423142134
40
0.683506837597366
40
0.740249252052597
40
0.796991666507828
40
0.853734080963059
40
0.910476495418291
40
1
40
1
40
1
40
1
41
1
10
9.663E-13
20
3.66620817337295
30
0
41
1
10
0.0065791653479153
20
3.66396266456891
30
0
41
1
10
0.0850097682306057
20
3.63706458580271
30
0
41
1
10
0.235303546963649
20
3.58257391593133
30
0
41
1
10
0.450888665252819
20
3.49682276251085
30
0
41
1
10
0.666467943849824
20
3.40364859005771
30
0
41
1
10
0.882020421446668
20
3.30327851323753
30
0
41
1
10
1.09752035222124
20
3.19595632064133
30
0
41
1
10
1.38475149816424
20
3.0438983327679
30
0
41
1
10
1.74355800682827
20
2.83763079211104
30
0
41
1
10
2.17352860929026
20
2.56658076614045
30
0
41
1
10
2.74607549180712
20
2.17680382415281
30
0
41
1
10
3.31912042980301
20
1.74848277734739
30
0
41
1
10
3.89558087537105
20
1.28980019649518
30
0
41
1
10
4.33037563450245
20
0.932717009369412
30
0
41
1
10
4.76840996406253
20
0.564855217383013
30
0
41
1
10
5.2104944576393
20
0.188595467001221
30
0
41
1
10
5.65748114494934
20
-0.193543860997209
30
0
41
1
10
6.11022911809937
20
-0.578829410443262
30
0
41
1
10
6.56963839980062
20
-0.964347818784688
30
0
41
1
10
7.12660711520911
20
-1.42043539040566
30
0
41
1
10
7.53762335101763
20
-1.74153946950725
30
0
41
1
10
7.79354991230983
20
-1.93289375873741
30
0
0
SPLINE
5
DE
100
AcDbEntity
8
1
62
256
6
ByLayer
370
18
48
1
60
0
100
AcDbSpline
70
4
71
3
72
8
73
4
40
0
40
0
40
0
40
0
40
1
40
1
40
1
40
1
41
1
10
7.71392090733789
20
3.99380290521461
30
0
41
1
10
7.73322140504467
20
3.99366180327698
30
0
41
1
10
7.75252299760825
20
3.99358650522524
30
0
41
1
10
7.77182501212496
20
3.99357704232079
30
0
0
SPLINE
5
DF
100
AcDbEntity
8
1
62
256
6
ByLayer
370
18
48
1
60
0
100
AcDbSpline
70
4
71
3
72
8
73
4
40
0
40
0
40
0
40
0
40
1
40
1
40
1
40
1
41
1
10
7.77182501249771
20
3.99357704216024
30
0
41
1
10
7.78213290794983
20
3.9926998604935
30
0
41
1
10
7.79244244210699
20
3.9918417794799
30
0
41
1
10
7.80275361095369
20
3.99100274297723
30
0
0
SPLINE
5
E0
100
AcDbEntity
8
1
62
256
6
ByLayer
370
18
48
1
60
0
100
AcDbSpline
70
4
71
3
72
15
73
11
40
0
40
0
40
0
40
0
40
0.0660441169853472
40
0.199466385987442
40
0.199466385987442
40
0.466310923991628
40
0.466310923991628
40
0.733155461995814
40
0.733155461995814
40
1
40
1
40
1
40
1
41
1
10
4.10236492430707
20
2.89565017606793
30
0
41
1
10
4.1823218427827
20
2.9386212661652
30
0
41
1
10
4.42327225735161
20
3.06497030273513
30
0
41
1
10
4.6628849090302
20
3.18083191985812
30
0
41
1
10
5.14271485991509
20
3.39881066502147
30
0
41
1
10
5.46126265393116
20
3.52476581569556
30
0
41
1
10
6.10024164131849
20
3.73485624883955
30
0
41
1
10
6.42068470207872
20
3.81898237961951
30
0
41
1
10
7.0681823068667
20
3.94184977950155
30
0
41
1
10
7.39067023598886
20
3.9797399029801
30
0
41
1
10
7.71392090733789
20
3.99380290521461
30
0
0
SPLINE
5
E1
100
AcDbEntity
8
1
62
256
6
ByLayer
370
18
48
1
60
0
100
AcDbSpline
70
4
71
3
72
8
73
4
40
0
40
0
40
0
40
0
40
1
40
1
40
1
40
1
41
1
10
7.71392090733789
20
3.99380290521461
30
0
41
1
10
7.74166759625757
20
3.90165387607195
30
0
41
1
10
7.77140174779862
20
3.81016649077557
30
0
41
1
10
7.80355596753625
20
3.71948476761239
30
0
0
SPLINE
5
E2
100
AcDbEntity
8
1
62
256
6
ByLayer
370
18
48
1
60
0
100
AcDbSpline
70
4
71
3
72
46
73
42
40
0
40
0
40
0
40
0
40
0.0659685029506798
40
0.0659685029506798
40
0.13193700590136
40
0.13193700590136
40
0.148429131639029
40
0.148429131639029
40
0.164921257376699
40
0.197905508852038
40
0.230889760327378
40
0.230889760327378
40
0.247381886065048
40
0.247381886065048
40
0.263874011802718
40
0.263874011802718
40
0.329842514753393
40
0.329842514753393
40
0.362826766228732
40
0.362826766228732
40
0.395811017704071
40
0.395811017704071
40
0.46177952065475
40
0.46177952065475
40
0.494763772130086
40
0.494763772130086
40
0.527748023605422
40
0.527748023605422
40
0.593716526556102
40
0.593716526556102
40
0.659685029506781
40
0.659685029506781
40
0.72565353245746
40
0.72565353245746
40
0.758637783932799
40
0.758637783932799
40
0.791622035408139
40
0.791622035408139
40
0.923559041309497
40
0.923559041309497
40
1
40
1
40
1
40
1
41
1
10
7.8035559663212
20
3.71948476719211
30
0
41
1
10
7.82117963253415
20
3.6697687211103
30
0
41
1
10
7.83589600437728
20
3.61943103382836
30
0
41
1
10
7.85839929950535
20
3.51727399599412
30
0
41
1
10
7.86619903454201
20
3.46545738491071
30
0
41
1
10
7.87049689338784
20
3.39952090837267
30
0
41
1
10
7.87108074236482
20
3.38625596202024
30
0
41
1
10
7.87165906676842
20
3.35983983088764
30
0
41
1
10
7.87164949067255
20
3.32030888383855
30
0
41
1
10
7.86712341686575
20
3.25490348914173
30
0
41
1
10
7.85837448786975
20
3.20312439179105
30
0
41
1
10
7.84974796944189
20
3.16450960142851
30
0
41
1
10
7.84652808080665
20
3.15167461952262
30
0
41
1
10
7.83937276547468
20
3.12608073199794
30
0
41
1
10
7.83544437858322
20
3.11335581385541
30
0
41
1
10
7.81424768431444
20
3.0507031070735
30
0
41
1
10
7.79216448978809
20
3.00311318321641
30
0
41
1
10
7.7518364729398
20
2.93528679888524
30
0
41
1
10
7.73719228664018
20
2.91327157009366
30
0
41
1
10
7.70557288008933
20
2.8703926783196
30
0
41
1
10
7.68885959030561
20
2.8498809393935
30
0
41
1
10
7.63636134785526
20
2.79083987033911
30
0
41
1
10
7.59821680151381
20
2.75477064748881
30
0
41
1
10
7.53723498178414
20
2.70460628262924
30
0
41
1
10
7.51627641218715
20
2.68854537815022
30
0
41
1
10
7.47321838446624
20
2.65761732621633
30
0
41
1
10
7.45123915504189
20
2.64283910339807
30
0
41
1
10
7.38449491581991
20
2.60053301148079
30
0
41
1
10
7.33876705368255
20
2.57490076048194
30
0
41
1
10
7.24541624781946
20
2.52759321211323
30
0
41
1
10
7.19778981607925
20
2.50592519776049
30
0
41
1
10
7.1010132895513
20
2.46577059622152
30
0
41
1
10
7.05186140653132
20
2.44728774288282
30
0
41
1
10
6.97718686231985
20
2.42154022519929
30
0
41
1
10
6.9521660660796
20
2.4132996633885
30
0
41
1
10
6.90209984826515
20
2.39750333566263
30
0
41
1
10
6.87702240694102
20
2.38993648225491
30
0
41
1
10
6.7514349222827
20
2.35359895761107
30
0
41
1
10
6.65033356263348
20
2.32924738398594
30
0
41
1
10
6.48994526257292
20
2.29610345265587
30
0
41
1
10
6.43095621320794
20
2.28508485905024
30
0
41
1
10
6.37183399042834
20
2.27506151333998
30
0
0
SPLINE
5
E3
100
AcDbEntity
8
1
62
256
6
ByLayer
370
13
48
1
60
0
100
AcDbSpline
70
4
71
3
72
10
73
6
40
0
40
0
40
0
40
0
40
0.531099935010945
40
0.825573710633071
40
1
40
1
40
1
40
1
41
1
10
7.80355596653354
20
3.71948476716236
30
0
41
1
10
7.20237064435571
20
3.69612968294848
30
0
41
1
10
6.26785198884451
20
3.53544733974553
30
0
41
1
10
5.13588927797457
20
3.13995978457419
30
0
41
1
10
4.60511188928245
20
2.90565685894697
30
0
41
1
10
4.40766783392368
20
2.81211195781429
30
0
0
SPLINE
5
E4
100
AcDbEntity
8
1
62
256
6
ByLayer
370
18
48
1
60
0
100
AcDbSpline
70
4
71
3
72
12
73
8
40
0
40
0
40
0
40
0
40
0.500000000000036
40
0.500000000000036
40
0.750000000000018
40
0.750000000000018
40
1
40
1
40
1
40
1
41
1
10
5.72916168976454
20
-1.22665981767958
30
0
41
1
10
5.75384304866887
20
-1.19920531448096
30
0
41
1
10
5.77988593742344
20
-1.17279682522212
30
0
41
1
10
5.82132935286521
20
-1.13671885889786
30
0
41
1
10
5.83552437250279
20
-1.12529501908787
30
0
41
1
10
5.86453407018377
20
-1.1040258815774
30
0
41
1
10
5.87938881985392
20
-1.09414395239327
30
0
41
1
10
5.89467046194213
20
-1.08508192919379
30
0
0
SPLINE
5
E5
100
AcDbEntity
8
1
62
256
6
ByLayer
370
18
48
1
60
0
100
AcDbSpline
70
4
71
3
72
14
73
10
40
0
40
0
40
0
40
0
40
0.25
40
0.25
40
0.5
40
0.5
40
0.75
40
0.75
40
1
40
1
40
1
40
1
41
1
10
7.6006547154102
20
-3.00450894747036
30
0
41
1
10
7.60719719847225
20
-2.9954347132531
30
0
41
1
10
7.61355242155184
20
-2.9875651914472
30
0
41
1
10
7.62584744933443
20
-2.97449863062641
30
0
41
1
10
7.63169470049212
20
-2.96940474416925
30
0
41
1
10
7.64259525131959
20
-2.96259030939422
30
0
41
1
10
7.64768029868429
20
-2.96083063103731
30
0
41
1
10
7.6567985716182
20
-2.9617530251798
30
0
41
1
10
7.66067254862062
20
-2.96440193388653
30
0
41
1
10
7.66363626820612
20
-2.96995729099876
30
0
0
SPLINE
5
E6
100
AcDbEntity
8
1
62
256
6
ByLayer
370
18
48
1
60
0
100
AcDbSpline
70
4
71
3
72
24
73
20
40
0
40
0
40
0
40
0
40
0.125
40
0.125
40
0.250000000000001
40
0.250000000000001
40
0.375000000000001
40
0.375000000000001
40
0.437500000000001
40
0.437500000000001
40
0.500000000000001
40
0.500000000000001
40
0.749999999999999
40
0.749999999999999
40
0.812499999999998
40
0.812499999999998
40
0.874999999999998
40
0.874999999999998
40
1
40
1
40
1
40
1
41
1
10
7.0962225144595
20
-3.32412493556265
30
0
41
1
10
7.1109893953205
20
-3.33572603273234
30
0
41
1
10
7.12674363514688
20
-3.34374950139238
30
0
41
1
10
7.1600881831933
20
-3.35314356894418
30
0
41
1
10
7.17767901879756
20
-3.35451225688971
30
0
41
1
10
7.2146183581813
20
-3.35088084089685
30
0
41
1
10
7.23396710984932
20
-3.34587983875093
30
0
41
1
10
7.26428512393457
20
-3.33368640148114
30
0
41
1
10
7.27462607664557
20
-3.3288266614947
30
0
41
1
10
7.29557170713866
20
-3.31763824815459
30
0
41
1
10
7.30619090473564
20
-3.31130616010867
30
0
41
1
10
7.35999593296907
20
-3.27607160323947
30
0
41
1
10
7.40529160864156
20
-3.23653386756939
30
0
41
1
10
7.46454929256396
20
-3.17381366730734
30
0
41
1
10
7.47653376908659
20
-3.16059950714379
30
0
41
1
10
7.50076815200083
20
-3.13283321296711
30
0
41
1
10
7.51302920868588
20
-3.11826727258412
30
0
41
1
10
7.55013434196374
20
-3.07265076176938
30
0
41
1
10
7.57522224289281
20
-3.03978450450657
30
0
41
1
10
7.60065471748141
20
-3.00450894755843
30
0
0
SPLINE
5
E7
100
AcDbEntity
8
1
62
256
6
ByLayer
370
13
48
1
60
0
100
AcDbSpline
70
4
71
3
72
11
73
7
40
0
40
0
40
0
40
0
40
0.161864526766483
40
0.371398395074863
40
0.580932263383242
40
1
40
1
40
1
40
1
41
1
10
4.77249815542112
20
-3.51530715289894
30
0
41
1
10
4.51499877028076
20
-3.52225972202001
30
0
41
1
10
3.92416605180702
20
-3.51263226189127
30
0
41
1
10
2.99999999999994
20
-3.40637009445456
30
0
41
1
10
1.66666666666663
20
-3.10883505038853
30
0
41
1
10
0.666666666666629
20
-2.7326625010019
30
0
41
1
10
-2.84E-14
20
-2.43008167302605
30
0
0
SPLINE
5
E8
100
AcDbEntity
8
1
62
256
6
ByLayer
370
18
48
1
60
0
100
AcDbSpline
70
4
71
3
72
14
73
10
40
0
40
0
40
0
40
0
40
0.500000000000001
40
0.500000000000001
40
0.750000000000001
40
0.750000000000001
40
0.875
40
0.875
40
1
40
1
40
1
40
1
41
1
10
7.01962571634098
20
-2.94207578269848
30
0
41
1
10
7.0237352760337
20
-3.02620092204049
30
0
41
1
10
7.03229703655754
20
-3.09984624083151
30
0
41
1
10
7.05150144107779
20
-3.19533957055728
30
0
41
1
10
7.05896813009227
20
-3.2246633085654
30
0
41
1
10
7.07176858722744
20
-3.26488175571359
30
0
41
1
10
7.07630864483127
20
-3.27767444885407
30
0
41
1
10
7.08589460375768
20
-3.3019151417715
30
0
41
1
10
7.09093595504876
20
-3.31335563524459
30
0
41
1
10
7.09622251445762
20
-3.32412493556316
30
0
0
SPLINE
5
E9
100
AcDbEntity
8
1
62
256
6
ByLayer
370
18
48
1
60
0
100
AcDbSpline
70
4
71
3
72
24
73
20
40
0
40
0
40
0
40
0
40
0.0624999999999965
40
0.0624999999999965
40
0.124999999999993
40
0.124999999999993
40
0.249999999999991
40
0.249999999999991
40
0.374999999999989
40
0.374999999999989
40
0.499999999999987
40
0.499999999999987
40
0.562499999999989
40
0.562499999999989
40
0.62499999999999
40
0.62499999999999
40
0.749999999999993
40
0.749999999999993
40
1
40
1
40
1
40
1
41
1
10
5.63584612661677
20
-1.69341702859006
30
0
41
1
10
5.66014042307387
20
-1.73120685210824
30
0
41
1
10
5.68507279851352
20
-1.76841829422753
30
0
41
1
10
5.73602109173166
20
-1.84150052804748
30
0
41
1
10
5.7618556265756
20
-1.8771149807591
30
0
41
1
10
5.84036087866235
20
-1.98138280828877
30
0
41
1
10
5.89402945714318
20
-2.04747038823677
30
0
41
1
10
6.00372196400767
20
-2.17358925045559
30
0
41
1
10
6.05974748770501
20
-2.23361643070547
30
0
41
1
10
6.17395373466661
20
-2.34812913893728
30
0
41
1
10
6.2321351914525
20
-2.4026127808192
30
0
41
1
10
6.32092701573833
20
-2.48043080433433
30
0
41
1
10
6.35083389032832
20
-2.50576174257262
30
0
41
1
10
6.41074802686853
20
-2.55482876930412
30
0
41
1
10
6.44077795728347
20
-2.57858831088623
30
0
41
1
10
6.53107569577193
20
-2.64765803416026
30
0
41
1
10
6.59155095725262
20
-2.69076456011382
30
0
41
1
10
6.77374314265364
20
-2.81194311058039
30
0
41
1
10
6.89622151003448
20
-2.88192676829365
30
0
41
1
10
7.01962571634169
20
-2.94207578269837
30
0
0
SPLINE
5
EA
100
AcDbEntity
8
1
62
256
6
ByLayer
370
18
48
1
60
0
100
AcDbSpline
70
4
71
3
72
27
73
23
40
0
40
0
40
0
40
0
40
0.124999999999996
40
0.124999999999996
40
0.187499999999994
40
0.187499999999994
40
0.249999999999991
40
0.249999999999991
40
0.374999999999986
40
0.374999999999986
40
0.437499999999983
40
0.437499999999983
40
0.49999999999998
40
0.562499999999976
40
0.562499999999976
40
0.624999999999973
40
0.624999999999973
40
0.749999999999982
40
0.749999999999982
40
0.874999999999991
40
0.874999999999991
40
1
40
1
40
1
40
1
41
1
10
5.63584612661685
20
-1.69341702858992
30
0
41
1
10
5.62470108290438
20
-1.67608089227738
30
0
41
1
10
5.61544459525305
20
-1.65780695858646
30
0
41
1
10
5.60457465425108
20
-1.62888217854345
30
0
41
1
10
5.60145549248477
20
-1.6189874584764
30
0
41
1
10
5.59627954117457
20
-1.59866235305404
30
0
41
1
10
5.5942387184991
20
-1.58825793387149
30
0
41
1
10
5.58986452135193
20
-1.55703191697518
30
0
41
1
10
5.58920041546941
20
-1.5359428718254
30
0
41
1
10
5.59138371886093
20
-1.50392233098145
30
0
41
1
10
5.59265461454615
20
-1.49313601749978
30
0
41
1
10
5.5961672557454
20
-1.47184145073996
30
0
41
1
10
5.60064605398122
20
-1.45075212723211
30
0
41
1
10
5.60689123715355
20
-1.43003835835719
30
0
41
1
10
5.61395699397048
20
-1.40949936126253
30
0
41
1
10
5.61791784422695
20
-1.39927831945167
30
0
41
1
10
5.63080888219389
20
-1.36920070198707
30
0
41
1
10
5.64071680805256
20
-1.34993244790556
30
0
41
1
10
5.66266624380174
20
-1.31266863874984
30
0
41
1
10
5.67471173076001
20
-1.29467545504329
30
0
41
1
10
5.7006526856801
20
-1.25979312179166
30
0
41
1
10
5.71457215104903
20
-1.24288856002332
30
0
41
1
10
5.72916168976414
20
-1.22665981767949
30
0
0
SPLINE
5
EB
100
AcDbEntity
8
1
62
256
6
ByLayer
370
13
48
1
60
0
100
AcDbSpline
70
4
71
3
72
12
73
8
40
0
40
0
40
0
40
0
40
0.127271969137689
40
0.301817575310152
40
0.476363181482614
40
0.650908787655076
40
1
40
1
40
1
40
1
41
1
10
5.72916168976454
20
-1.22665981767966
30
0
41
1
10
5.48610779317636
20
-1.12629272222733
30
0
41
1
10
4.90972056325484
20
-0.876530761295925
30
0
41
1
10
4.00000000000003
20
-0.450899954035236
30
0
41
1
10
2.99999999999997
20
0.0373504197247882
30
0
41
1
10
1.66666666666671
20
0.68200823337392
30
0
41
1
10
0.666666666666686
20
1.12756847936089
30
0
41
1
10
0
20
1.37906399999639
30
0
0
SPLINE
5
EC
100
AcDbEntity
8
1
62
256
6
ByLayer
370
18
48
1
60
0
100
AcDbSpline
70
4
71
3
72
13
73
9
40
0
40
0
40
0
40
0
40
0.154479726675175
40
0.295399772229313
40
0.43631981778345
40
0.577239863337588
40
0.718159908891725
40
1
40
1
40
1
40
1
41
1
10
7.09622251446001
20
-3.32412493556308
30
0
41
1
10
6.73081500964
20
-3.33685660268486
30
0
41
1
10
6.03207417148667
20
-3.3204397215689
30
0
41
1
10
5
20
-3.18310726017617
30
0
41
1
10
4
20
-2.94983116827504
30
0
41
1
10
2.99999999999997
20
-2.62198794556861
30
0
41
1
10
1.66666666666668
20
-2.07386347518133
30
0
41
1
10
0.666666666666686
20
-1.5581958523062
30
0
41
1
10
0
20
-1.18700877205018
30
0
0
SPLINE
5
ED
100
AcDbEntity
8
1
62
256
6
ByLayer
370
18
48
1
60
0
100
AcDbSpline
70
4
71
3
72
8
73
4
40
0
40
0
40
0
40
0
40
1
40
1
40
1
40
1
41
1
10
7.66363626863517
20
-2.96995729046259
30
0
41
1
10
7.67902697389042
20
-2.99885280924906
30
0
41
1
10
7.69475127309533
20
-3.0267966468279
30
0
41
1
10
7.71083027873362
20
-3.05372857490704
30
0
0
SPLINE
5
EE
100
AcDbEntity
8
1
62
256
6
ByLayer
370
13
48
1
60
0
100
AcDbSpline
70
4
71
3
72
8
73
4
40
0
40
0
40
0
40
0
40
1
40
1
40
1
40
1
41
1
10
7.66363626875491
20
-2.96995729058861
30
0
41
1
10
7.64846869937227
20
-2.97548386407846
30
0
41
1
10
7.63330112998958
20
-2.98097709683407
30
0
41
1
10
7.61813356060691
20
-2.98643687243302
30
0
0
SPLINE
5
EF
100
AcDbEntity
8
1
62
256
6
ByLayer
370
13
48
1
60
0
100
AcDbSpline
70
4
71
3
72
12
73
8
40
0
40
0
40
0
40
0
40
0.0923279785125053
40
0.273862382810004
40
0.455396787107503
40
0.636931191405002
40
1
40
1
40
1
40
1
41
1
10
5.50859768907063
20
-3.51849916890203
30
0
41
1
10
5.33906512604705
20
-3.54209106031223
30
0
41
1
10
4.83619922969021
20
-3.59778528312782
30
0
41
1
10
4.00000000000011
20
-3.61815074045032
30
0
41
1
10
3.00000000000006
20
-3.528085997749
30
0
41
1
10
1.6666666666668
20
-3.25867724891742
30
0
41
1
10
0.666666666666771
20
-2.89677042240919
30
0
41
1
10
8.53E-14
20
-2.60002919586745
30
0
0
SPLINE
5
F0
100
AcDbEntity
8
1
62
256
6
ByLayer
370
18
48
1
60
0
100
AcDbSpline
70
4
71
3
72
8
73
4
40
0
40
0
40
0
40
0
40
1
40
1
40
1
40
1
41
1
10
7.79393985848026
20
-2.92254777104904
30
0
41
1
10
7.76617514901659
20
-2.96701587485379
30
0
41
1
10
7.73847203781668
20
-3.01074182091767
30
0
41
1
10
7.71083027873308
20
-3.05372857491344
30
0
0
SPLINE
5
F1
100
AcDbEntity
8
1
62
256
6
ByLayer
370
18
48
1
60
0
100
AcDbSpline
70
4
71
3
72
8
73
4
40
0
40
0
40
0
40
0
40
1
40
1
40
1
40
1
41
1
10
7.71083027871649
20
-3.05372857491776
30
0
41
1
10
7.64231337874455
20
-3.08214705734605
30
0
41
1
10
7.57381443779664
20
-3.10985716452331
30
0
41
1
10
7.50532242447142
20
-3.13685181335998
30
0
0
SPLINE
5
F2
100
AcDbEntity
8
1
62
256
6
ByLayer
370
18
48
1
60
0
100
AcDbSpline
70
4
71
3
72
38
73
34
40
0
40
0
40
0
40
0
40
0.031737497691702
40
0.031737497691702
40
0.0496682847714839
40
0.0496682847714839
40
0.0675990718512658
40
0.0675990718512658
40
0.139322220170393
40
0.139322220170393
40
0.211045368489521
40
0.211045368489521
40
0.282768516808649
40
0.282768516808649
40
0.426214813446906
40
0.426214813446906
40
0.497937961766036
40
0.497937961766036
40
0.515868748845819
40
0.515868748845819
40
0.533799535925602
40
0.569661110085171
40
0.641384258404309
40
0.641384258404309
40
0.713107406723448
40
0.713107406723448
40
0.784830555042586
40
0.784830555042586
40
0.856553703361724
40
0.856553703361724
40
0.928276851680862
40
0.928276851680862
40
1
40
1
40
1
40
1
41
1
10
6.7139706846848
20
-3.41640458278582
30
0
41
1
10
6.64241715325491
20
-3.43870429231458
30
0
41
1
10
6.57082433423852
20
-3.46019135370795
30
0
41
1
10
6.45870049392846
20
-3.49252362990975
30
0
41
1
10
6.41819419285224
20
-3.50393478699155
30
0
41
1
10
6.33729160840727
20
-3.52618307589142
30
0
41
1
10
6.29687857138481
20
-3.53702519694434
30
0
41
1
10
6.09499176891245
20
-3.58982176200857
30
0
41
1
10
5.93405128816994
20
-3.62754932446006
30
0
41
1
10
5.61303096261759
20
-3.69364909276766
30
0
41
1
10
5.45295650061237
20
-3.72198509643491
30
0
41
1
10
5.13308907738838
20
-3.76957340615076
30
0
41
1
10
4.97329721279027
20
-3.78883254759552
30
0
41
1
10
4.49378435774705
20
-3.83281355050769
30
0
41
1
10
4.17392834920742
20
-3.8438128134743
30
0
41
1
10
3.69167500539754
20
-3.83130457630716
30
0
41
1
10
3.53050706920834
20
-3.82236482839025
30
0
41
1
10
3.32830289341996
20
-3.80532720904483
30
0
41
1
10
3.28779933652663
20
-3.80162125950753
30
0
41
1
10
3.20688223204382
20
-3.79363103775071
30
0
41
1
10
3.0856246606088
20
-3.78077812559823
30
0
41
1
10
2.80347092883676
20
-3.74473918300475
30
0
41
1
10
2.56278846577595
20
-3.70355496491496
30
0
41
1
10
2.24256827685207
20
-3.63958710402929
30
0
41
1
10
2.08281835259257
20
-3.60301544498131
30
0
41
1
10
1.76351524499901
20
-3.52132431830347
30
0
41
1
10
1.60394013194551
20
-3.47630103176874
30
0
41
1
10
1.28463029382831
20
-3.37790674064766
30
0
41
1
10
1.12490585100224
20
-3.32448626984808
30
0
41
1
10
0.804905694464509
20
-3.20945017266163
30
0
41
1
10
0.644629079619818
20
-3.1478484747314
30
0
41
1
10
0.323152593555875
20
-3.01639630858381
30
0
41
1
10
0.161940298666451
20
-2.94657484273068
30
0
41
1
10
5.68E-14
20
-2.87316276522287
30
0
0
SPLINE
5
F3
100
AcDbEntity
8
1
62
256
6
ByLayer
370
18
48
1
60
0
100
AcDbSpline
70
4
71
3
72
16
73
12
40
0
40
0
40
0
40
0
40
0.152227566221171
40
0.152227566221171
40
0.364170674665875
40
0.364170674665875
40
0.470142228888228
40
0.470142228888228
40
0.57611378311058
40
0.57611378311058
40
1
40
1
40
1
40
1
41
1
10
6.17330424437992
20
2.35554974759486
30
0
41
1
10
6.21323435483438
20
2.34500998497339
30
0
41
1
10
6.25361828614189
20
2.33278404265013
30
0
41
1
10
6.3512568787059
20
2.29971292885981
30
0
41
1
10
6.40891563322441
20
2.27736634146731
30
0
41
1
10
6.49659645825554
20
2.23941498672372
30
0
41
1
10
6.52598979995739
20
2.22603622484735
30
0
41
1
10
6.58473185872697
20
2.19804550142814
30
0
41
1
10
6.61413274118797
20
2.18341135221149
30
0
41
1
10
6.76128026735987
20
2.10717829691672
30
0
41
1
10
6.87945275272153
20
2.03646735412389
30
0
41
1
10
6.99803277587074
20
1.95703603539735
30
0
0
SPLINE
5
F4
100
AcDbEntity
8
1
62
256
6
ByLayer
370
18
48
1
60
0
100
AcDbSpline
70
4
71
3
72
12
73
8
40
0
40
0
40
0
40
0
40
0.232065401693888
40
0.437108214395957
40
0.642151027098025
40
0.847193839800094
40
1
40
1
40
1
40
1
41
1
10
7.13178998393417
20
1.12448249377874
30
0
41
1
10
6.75452665595611
20
1.38203943020775
30
0
41
1
10
6.04392999464474
20
1.84639258999224
30
0
41
1
10
5
20
2.43545124038707
30
0
41
1
10
4.00000000000003
20
2.88851381295061
30
0
41
1
10
3.08491991146272
20
3.18185386141837
30
0
41
1
10
2.50317315625872
20
3.2951460859322
30
0
41
1
10
2.25475973438807
20
3.32957075186465
30
0
0
SPLINE
5
F5
100
AcDbEntity
8
1
62
256
6
ByLayer
370
13
48
1
60
0
100
AcDbSpline
70
4
71
3
72
11
73
7
40
0
40
0
40
0
40
0
40
0.385928953648033
40
0.630839959583803
40
0.875750965519573
40
1
40
1
40
1
40
1
41
1
10
7.57579261157923
20
-0.261074995428743
30
0
41
1
10
7.05052840771949
20
0.13268817492127
30
0
41
1
10
6.19193087052639
20
0.78039907261001
30
0
41
1
10
4.99999999999994
20
1.6226877653761
30
0
41
1
10
4.16422560104272
20
2.15083834080875
30
0
41
1
10
3.6617845354188
20
2.42838908398841
30
0
41
1
10
3.49267680312821
20
2.51690095739477
30
0
0
SPLINE
5
F6
100
AcDbEntity
8
1
62
256
6
ByLayer
370
13
48
1
60
0
100
AcDbSpline
70
4
71
3
72
12
73
8
40
0
40
0
40
0
40
0
40
0.339289534998198
40
0.508934302497297
40
0.678579069996397
40
0.848223837495496
40
1
40
1
40
1
40
1
41
1
10
0
20
1.48802863848005
30
0
41
1
10
0.666666666666686
20
1.2580211707841
30
0
41
1
10
1.66666666666671
20
0.842246377359174
30
0
41
1
10
2.99999999999997
20
0.226622611933522
30
0
41
1
10
4.00000000000003
20
-0.246258574619446
30
0
41
1
10
4.96489015398075
20
-0.690863862339427
30
0
41
1
10
5.59644697462818
20
-0.963188669557439
30
0
41
1
10
5.89467046194224
20
-1.08508192919382
30
0
0
SPLINE
5
F7
100
AcDbEntity
8
1
62
256
6
ByLayer
370
18
48
1
60
0
100
AcDbSpline
70
4
71
3
72
16
73
12
40
0
40
0
40
0
40
0
40
0.249999999999963
40
0.249999999999963
40
0.374999999999969
40
0.374999999999969
40
0.499999999999975
40
0.499999999999975
40
0.749999999999987
40
0.749999999999987
40
1
40
1
40
1
40
1
41
1
10
5.89467046194224
20
-1.08508192919385
30
0
41
1
10
5.92211322366649
20
-1.06880836591699
30
0
41
1
10
5.95059008638108
20
-1.05531039220605
30
0
41
1
10
5.99493066352113
20
-1.03899258793391
30
0
41
1
10
6.00998307807234
20
-1.03421102020701
30
0
41
1
10
6.04066083364091
20
-1.02595521594455
30
0
41
1
10
6.05634422336112
20
-1.02247120378445
30
0
41
1
10
6.10391456793923
20
-1.0140645456926
30
0
41
1
10
6.13585396707418
20
-1.01123439604703
30
0
41
1
10
6.2002896481531
20
-1.01048322803186
30
0
41
1
10
6.23278553628262
20
-1.01256456741328
30
0
41
1
10
6.26562340725886
20
-1.01694812363866
30
0
0
SPLINE
5
F8
100
AcDbEntity
8
1
62
256
6
ByLayer
370
18
48
1
60
0
100
AcDbSpline
70
4
71
3
72
10
73
6
40
0
40
0
40
0
40
0
40
0.242352796193224
40
0.242352796193224
40
1
40
1
40
1
40
1
41
1
10
6.67341770486138
20
-1.07951895598959
30
0
41
1
10
6.64066943008947
20
-1.07375924143307
30
0
41
1
10
6.60786750441406
20
-1.06819340139268
30
0
41
1
10
6.47232340904381
20
-1.04593676407308
30
0
41
1
10
6.36915969460671
20
-1.03076927353251
30
0
41
1
10
6.26562340726173
20
-1.01694812363905
30
0
0
SPLINE
5
F9
100
AcDbEntity
8
1
62
256
6
ByLayer
370
18
48
1
60
0
100
AcDbSpline
70
4
71
3
72
18
73
14
40
0
40
0
40
0
40
0
40
0.249999999999999
40
0.249999999999999
40
0.499999999999998
40
0.499999999999998
40
0.562499999999997
40
0.562499999999997
40
0.624999999999997
40
0.624999999999997
40
0.749999999999997
40
0.749999999999997
40
1
40
1
40
1
40
1
41
1
10
6.99803277586838
20
1.957036035398
30
0
41
1
10
6.99757561347442
20
1.91282386698504
30
0
41
1
10
7.0001537362611
20
1.86185014171113
30
0
41
1
10
7.0111579166005
20
1.7468755319062
30
0
41
1
10
7.01958448153027
20
1.68287351711612
30
0
41
1
10
7.03380355880728
20
1.59466016319078
30
0
41
1
10
7.03683232438243
20
1.57660548803813
30
0
41
1
10
7.04326320199962
20
1.53966445200516
30
0
41
1
10
7.04665608609687
20
1.52083252597922
30
0
41
1
10
7.05732555240874
20
1.46345415596181
30
0
41
1
10
7.06510558263386
20
1.42395013926875
30
0
41
1
10
7.09038881865115
20
1.30179164396526
30
0
41
1
10
7.10982798357321
20
1.21550420555369
30
0
41
1
10
7.13178998392857
20
1.12448249378255
30
0
0
SPLINE
5
FA
100
AcDbEntity
8
1
62
256
6
ByLayer
370
18
48
1
60
0
100
AcDbSpline
70
4
71
3
72
19
73
15
40
0
40
0
40
0
40
0
40
0.249999999999999
40
0.249999999999999
40
0.312499999999998
40
0.312499999999998
40
0.374999999999997
40
0.499999999999998
40
0.499999999999998
40
0.625
40
0.625
40
0.750000000000001
40
0.750000000000001
40
1
40
1
40
1
40
1
41
1
10
7.1317899839328
20
1.12448249377673
30
0
41
1
10
7.16071224041676
20
1.0173593931506
30
0
41
1
10
7.19216832139168
20
0.90691325082966
30
0
41
1
10
7.23441695865279
20
0.765014877813655
30
0
41
1
10
7.243019685306
20
0.736423933911738
30
0
41
1
10
7.26045090658084
20
0.679075885114116
30
0
41
1
10
7.28695741269718
20
0.592733469051382
30
0
41
1
10
7.31451870871638
20
0.505451607187666
30
0
41
1
10
7.35217803493785
20
0.388264472643243
30
0
41
1
10
7.37149112299284
20
0.329184787497695
30
0
41
1
10
7.41068358102166
20
0.211214696730423
30
0
41
1
10
7.43059752985144
20
0.15221405592564
30
0
41
1
10
7.49126077103674
20
-0.0248330935648369
30
0
41
1
10
7.53292692017382
20
-0.142924606456688
30
0
41
1
10
7.57579260559746
20
-0.261074999255214
30
0
0
SPLINE
5
FB
100
AcDbEntity
8
1
62
256
6
ByLayer
370
18
48
1
60
0
100
AcDbSpline
70
4
71
3
72
16
73
12
40
0
40
0
40
0
40
0
40
0.249999999999996
40
0.249999999999996
40
0.499999999999992
40
0.499999999999992
40
0.624999999999989
40
0.624999999999989
40
0.749999999999986
40
0.749999999999986
40
1
40
1
40
1
40
1
41
1
10
7.57579260956814
20
-0.261074998062128
30
0
41
1
10
7.58256276146781
20
-0.279736233692915
30
0
41
1
10
7.58911283254287
20
-0.298335401665554
30
0
41
1
10
7.60173386088536
20
-0.335398606956971
30
0
41
1
10
7.60780670650061
20
-0.353863179238601
30
0
41
1
10
7.61646658428145
20
-0.381433294691703
30
0
41
1
10
7.61927004685464
20
-0.390580854418829
30
0
41
1
10
7.62460218850214
20
-0.408499700695614
30
0
41
1
10
7.62714263878016
20
-0.417307502203187
30
0
41
1
10
7.63432063633201
20
-0.443195787670646
30
0
41
1
10
7.63841417759886
20
-0.459346279093097
30
0
41
1
10
7.64149763075281
20
-0.473803919866668
30
0
0
SPLINE
5
FC
100
AcDbEntity
8
1
62
256
6
ByLayer
370
18
48
1
60
0
100
AcDbSpline
70
4
71
3
72
8
73
4
40
0
40
0
40
0
40
0
40
1
40
1
40
1
40
1
41
1
10
7.75561961174279
20
-1.67995729373499
30
0
41
1
10
7.76982245438148
20
-1.76479265274287
30
0
41
1
10
7.78482154733928
20
-1.84921538275603
30
0
41
1
10
7.80074352682806
20
-1.93312184657765
30
0
0
SPLINE
5
FD
100
AcDbEntity
8
1
62
256
6
ByLayer
370
18
48
1
60
0
100
AcDbSpline
70
4
71
3
72
8
73
4
40
0
40
0
40
0
40
0
40
1
40
1
40
1
40
1
41
1
10
7.74845582848769
20
-1.61250762538964
30
0
41
1
10
7.75087753071247
20
-1.63499986337033
30
0
41
1
10
7.75326502040338
20
-1.65748305218875
30
0
41
1
10
7.75561961174253
20
-1.67995729373507
30
0
0
SPLINE
5
FE
100
AcDbEntity
8
1
62
256
6
ByLayer
370
18
48
1
60
0
100
AcDbSpline
70
4
71
3
72
8
73
4
40
0
40
0
40
0
40
0
40
1
40
1
40
1
40
1
41
1
10
7.79354991218167
20
-1.93289376004276
30
0
41
1
10
7.7959476653613
20
-1.93296920799017
30
0
41
1
10
7.79834553687897
20
-1.93304523797264
30
0
41
1
10
7.80074352682749
20
-1.93312184657768
30
0
0
SPLINE
5
FF
100
AcDbEntity
8
1
62
256
6
ByLayer
370
18
48
1
60
0
100
AcDbSpline
70
4
71
3
72
8
73
4
40
0
40
0
40
0
40
0
40
1
40
1
40
1
40
1
41
1
10
7.79124702566634
20
-0.963254656376222
30
0
41
1
10
7.77814270750395
20
-1.17490045583722
30
0
41
1
10
7.76310670207855
20
-1.38674459766722
30
0
41
1
10
7.74482424463264
20
-1.59879169618611
30
0
0
SPLINE
5
100
100
AcDbEntity
8
1
62
256
6
ByLayer
370
18
48
1
60
0
100
AcDbSpline
70
4
71
3
72
8
73
4
40
0
40
0
40
0
40
0
40
1
40
1
40
1
40
1
41
1
10
7.79124702565781
20
-0.963254656375142
30
0
41
1
10
7.75731961473403
20
-0.874783350333729
30
0
41
1
10
7.72349914865788
20
-0.785923612617665
30
0
41
1
10
7.68978541202199
20
-0.696676225602829
30
0
0
SPLINE
5
101
100
AcDbEntity
8
1
62
256
6
ByLayer
370
18
48
1
60
0
100
AcDbSpline
70
4
71
3
72
8
73
4
40
0
40
0
40
0
40
0
40
1
40
1
40
1
40
1
41
1
10
7.64149763799037
20
-0.473803922936355
30
0
41
1
10
7.65715131368191
20
-0.547274993726433
30
0
41
1
10
7.67323559488682
20
-0.621544186490837
30
0
41
1
10
7.68978541202202
20
-0.696676225602801
30
0
0
SPLINE
5
102
100
AcDbEntity
8
1
62
256
6
ByLayer
370
13
48
1
60
0
100
AcDbSpline
70
4
71
3
72
10
73
6
40
0
40
0
40
0
40
0
40
0.487105726271265
40
0.783850427165571
40
1
40
1
40
1
40
1
41
1
10
7.64149764023853
20
-0.473803920098618
30
0
41
1
10
7.09433176015907
20
-0.0559727677255921
30
0
41
1
10
6.21383254674626
20
0.627479431342863
30
0
41
1
10
5.09053251028809
20
1.45337713680743
30
0
41
1
10
4.51439835390948
20
1.84203846917416
30
0
41
1
10
4.27159753086411
20
1.99755275735075
30
0
0
SPLINE
5
103
100
AcDbEntity
8
1
62
256
6
ByLayer
370
18
48
1
60
0
100
AcDbSpline
70
4
71
3
72
49
73
45
40
0
40
0
40
0
40
0
40
0.0624999999999946
40
0.0624999999999946
40
0.124999999999989
40
0.124999999999989
40
0.140624999999988
40
0.140624999999988
40
0.156249999999986
40
0.156249999999986
40
0.187499999999984
40
0.187499999999984
40
0.249999999999982
40
0.249999999999982
40
0.374999999999978
40
0.374999999999978
40
0.437499999999975
40
0.437499999999975
40
0.468749999999974
40
0.468749999999974
40
0.484374999999974
40
0.484374999999974
40
0.499999999999973
40
0.562499999999977
40
0.562499999999977
40
0.62499999999998
40
0.62499999999998
40
0.687499999999983
40
0.687499999999983
40
0.749999999999987
40
0.749999999999987
40
0.781249999999988
40
0.781249999999988
40
0.796874999999988
40
0.796874999999988
40
0.812499999999988
40
0.812499999999988
40
0.874999999999992
40
0.874999999999992
40
0.937499999999995
40
0.937499999999995
40
0.968749999999997
40
0.968749999999997
40
1
40
1
40
1
40
1
41
1
10
7.68978541202188
20
-0.696676225602829
30
0
41
1
10
7.52896855005636
20
-0.566952806153978
30
0
41
1
10
7.36833067736728
20
-0.436380685893908
30
0
41
1
10
7.04687777402017
20
-0.174220275365627
30
0
41
1
10
6.8860582334234
20
-0.0426392584122937
30
0
41
1
10
6.68457471807409
20
0.122042735732208
30
0
41
1
10
6.64425504046113
20
0.154989488181684
30
0
41
1
10
6.56356070196961
20
0.220892889296863
30
0
41
1
10
6.52315732405256
20
0.253872952290322
30
0
41
1
10
6.40208551098308
20
0.352619838295766
30
0
41
1
10
6.32159579141199
20
0.41816068982007
30
0
41
1
10
6.08068352804034
20
0.613783514651658
30
0
41
1
10
5.92082264072639
20
0.742872236127937
30
0
41
1
10
5.44247310797778
20
1.12500678693715
30
0
41
1
10
5.1251991073816
20
1.3729079815098
30
0
41
1
10
4.64713371871625
20
1.72915945199895
30
0
41
1
10
4.48743135434242
20
1.84531441075839
30
0
41
1
10
4.24678681756859
20
2.01497985182689
30
0
41
1
10
4.16638992210017
20
2.07077346944337
30
0
41
1
10
4.04544924951875
20
2.15323257648424
30
0
41
1
10
4.00504679942804
20
2.18053412667226
30
0
41
1
10
3.92438550784874
20
2.23453235166846
30
0
41
1
10
3.72297524933037
20
2.3680980927376
30
0
41
1
10
3.5226730867611
20
2.4945018409033
30
0
41
1
10
3.20304865389085
20
2.68735087408575
30
0
41
1
10
3.04367450326896
20
2.77907353305875
30
0
41
1
10
2.7252675790682
20
2.95262741066102
30
0
41
1
10
2.56623369334395
20
3.03444713793959
30
0
41
1
10
2.24781198333398
20
3.1875270688551
30
0
41
1
10
2.08842184306826
20
3.25878142456025
30
0
41
1
10
1.84846803387063
20
3.35731475051824
30
0
41
1
10
1.76833796988035
20
3.38877267282584
30
0
41
1
10
1.64785416988158
20
3.43382627299229
30
0
41
1
10
1.60764518044587
20
3.44848715366507
30
0
41
1
10
1.52712177741085
20
3.47707512770302
30
0
41
1
10
1.48679187921445
20
3.49100684470992
30
0
41
1
10
1.28544622088452
20
3.55858295195912
30
0
41
1
10
1.1249429071928
20
3.60602969632345
30
0
41
1
10
0.803976734436247
20
3.68834213228882
30
0
41
1
10
0.643574131911237
20
3.72309658866104
30
0
41
1
10
0.40266275183771
20
3.76506492825226
30
0
41
1
10
0.322309202599172
20
3.77734618821501
30
0
41
1
10
0.161353604280464
20
3.79867521461921
30
0
41
1
10
0.0807512991351302
20
3.80773133641924
30
0
41
1
10
1.137E-13
20
3.81510453580953
30
0
0
SPLINE
5
104
100
AcDbEntity
8
1
62
256
6
ByLayer
370
13
48
1
60
0
100
AcDbSpline
70
4
71
3
72
11
73
7
40
0
40
0
40
0
40
0
40
0.124206808697904
40
0.343155106523428
40
0.562103404348952
40
1
40
1
40
1
40
1
41
1
10
4.56728830473435
20
0.694282826718393
30
0
41
1
10
4.3781922031562
20
0.842044120441926
30
0
41
1
10
3.85576276824477
20
1.24557157422356
30
0
41
1
10
2.99999999999997
20
1.87143405411589
30
0
41
1
10
1.66666666666668
20
2.73456057156875
30
0
41
1
10
0.666666666666629
20
3.20822654082292
30
0
41
1
10
0
20
3.41871761620425
30
0
0
SPLINE
5
105
100
AcDbEntity
8
1
62
256
6
ByLayer
370
18
48
1
60
0
100
AcDbSpline
70
4
71
3
72
17
73
13
40
0
40
0
40
0
40
0
40
0.396667993914483
40
0.396667993914483
40
0.446251493153791
40
0.446251493153791
40
0.495834992393099
40
0.495834992393099
40
0.595001990871714
40
0.793335987828939
40
0.793335987828939
40
1
40
1
40
1
40
1
41
1
10
1.137E-13
20
-3.66160945406798
30
0
41
1
10
0.32188243502705
20
-3.75407588265321
30
0
41
1
10
0.642786359512797
20
-3.82815618138542
30
0
41
1
10
1.00445546063261
20
-3.89007913396259
30
0
41
1
10
1.04465021630386
20
-3.8966621678785
30
0
41
1
10
1.12506483225894
20
-3.90923085950692
30
0
41
1
10
1.16529649688891
20
-3.91521793782897
30
0
41
1
10
1.28582016938566
20
-3.9322488978662
30
0
41
1
10
1.52637597750052
20
-3.96262153395912
30
0
41
1
10
1.76570384150881
20
-3.98198727680915
30
0
41
1
10
2.09083436752988
20
-3.998421078859
30
0
41
1
10
2.25638875946973
20
-4.00152405706712
30
0
41
1
10
2.42181726184859
20
-3.99940144237806
30
0
0
SPLINE
5
106
100
AcDbEntity
8
1
62
256
6
ByLayer
370
18
48
1
60
0
100
AcDbSpline
70
4
71
3
72
8
73
4
40
0
40
0
40
0
40
0
40
1
40
1
40
1
40
1
41
1
10
7.74482424462639
20
-1.59879169618668
30
0
41
1
10
7.74603720348611
20
-1.60336348975696
30
0
41
1
10
7.7472477284108
20
-1.60793546732782
30
0
41
1
10
7.74845583105099
20
-1.61250762759264
30
0
0
SPLINE
5
107
100
AcDbEntity
8
1
62
256
6
ByLayer
370
18
48
1
60
0
100
AcDbSpline
70
4
71
3
72
8
73
4
40
0
40
0
40
0
40
0
40
1
40
1
40
1
40
1
41
1
10
7.74119182559809
20
-1.92910475815557
30
0
41
1
10
7.75864359463725
20
-1.93033781191977
30
0
41
1
10
7.77609653656108
20
-1.93160084226008
30
0
41
1
10
7.7935499120523
20
-1.9328937613142
30
0
0
SPLINE
5
108
100
AcDbEntity
8
1
62
256
6
ByLayer
370
18
48
1
60
0
100
AcDbSpline
70
4
71
3
72
35
73
31
40
0
40
0
40
0
40
0
40
0.124999999999998
40
0.124999999999998
40
0.156249999999998
40
0.156249999999998
40
0.187499999999997
40
0.187499999999997
40
0.249999999999997
40
0.249999999999997
40
0.374999999999998
40
0.374999999999998
40
0.406249999999999
40
0.406249999999999
40
0.421874999999998
40
0.421874999999998
40
0.437499999999997
40
0.499999999999998
40
0.499999999999998
40
0.624999999999997
40
0.624999999999997
40
0.687499999999997
40
0.687499999999997
40
0.718749999999997
40
0.718749999999997
40
0.749999999999998
40
0.749999999999998
40
0.874999999999999
40
0.874999999999999
40
1
40
1
40
1
40
1
41
1
10
1.421E-13
20
3.65049517390207
30
0
41
1
10
0.32509214666436
20
3.5369892618325
30
0
41
1
10
0.648522566788614
20
3.39769030926559
30
0
41
1
10
1.05449073237312
20
3.19367686883126
30
0
41
1
10
1.13580552604336
20
3.15135198212235
30
0
41
1
10
1.29788962995986
20
3.06419749917435
30
0
41
1
10
1.37875769796062
20
3.01932031758648
30
0
41
1
10
1.62098109824837
20
2.88094565001791
30
0
41
1
10
1.7819578833161
20
2.7837124886378
30
0
41
1
10
2.26440749174358
20
2.47809401156863
30
0
41
1
10
2.58535453404156
20
2.25574531688977
30
0
41
1
10
2.98935169907591
20
1.95773961010258
30
0
41
1
10
3.0702931348888
20
1.89713410168451
30
0
41
1
10
3.19199122866388
20
1.80477466270293
30
0
41
1
10
3.23264108830361
20
1.77371840394929
30
0
41
1
10
3.31384358571319
20
1.71128899077658
30
0
41
1
10
3.51657150036584
20
1.55445073399486
30
0
41
1
10
3.7180705329005
20
1.39398789522417
30
0
41
1
10
4.20039061921395
20
1.00322945316077
30
0
41
1
10
4.52018717001286
20
0.735151160478637
30
0
41
1
10
5.00156317743262
20
0.326696547470277
30
0
41
1
10
5.16230576650753
20
0.189490580716665
30
0
41
1
10
5.4044069412804
20
-0.0172673035848163
30
0
41
1
10
5.48527195265566
20
-0.0863447698949926
30
0
41
1
10
5.6474257712544
20
-0.224711334847655
30
0
41
1
10
5.7288051231821
20
-0.294076843772587
30
0
41
1
10
6.13408369435274
20
-0.638700475948383
30
0
41
1
10
6.45519711637544
20
-0.909174064179183
30
0
41
1
10
7.09701838157548
20
-1.4334140504842
30
0
41
1
10
7.41774134136006
20
-1.68714565835683
30
0
41
1
10
7.74119182559855
20
-1.92910475814918
30
0
0
SPLINE
5
109
100
AcDbEntity
8
SK1
62
256
6
ByLayer
370
18
48
1
60
0
100
AcDbSpline
70
4
71
3
72
8
73
4
40
0
40
0
40
0
40
0
40
1
40
1
40
1
40
1
41
1
10
-0.758452005598315
20
3.99998715049909
30
0
41
1
10
-0.658188133511089
20
3.94468379341384
30
0
41
1
10
-0.557319771813582
20
3.89134693897617
30
0
41
1
10
-0.455845085737991
20
3.83998255598291
30
0
0
SPLINE
5
10A
100
AcDbEntity
8
SK1
62
256
6
ByLayer
370
18
48
1
60
0
100
AcDbSpline
70
4
71
3
72
8
73
4
40
0
40
0
40
0
40
0
40
1
40
1
40
1
40
1
41
1
10
-0.868154221355098
20
3.95534577591781
30
0
41
0.999992745108003
10
-0.84839152336115
20
3.94336598984391
30
0
41
0.999992745108003
10
-0.828611791211405
20
3.9314939979043
30
0
41
1
10
-0.808815455405295
20
3.91973005848905
30
0
0
SPLINE
5
10B
100
AcDbEntity
8
SK1
62
256
6
ByLayer
370
18
48
1
60
0
100
AcDbSpline
70
4
71
3
72
10
73
6
40
0
40
0
40
0
40
0
40
0.496632103386476
40
0.496632103386476
40
1
40
1
40
1
40
1
41
1
10
0
20
3.81510453581063
30
0
41
1
10
0
20
3.80456250592806
30
0
41
1
10
0
20
3.79402766568228
30
0
41
1
10
0
20
3.77282957884762
30
0
41
1
10
2.84E-14
20
3.76216652858417
30
0
41
1
10
2.84E-14
20
3.75151086460278
30
0
0
SPLINE
5
10C
100
AcDbEntity
8
SK1
62
256
6
ByLayer
370
18
48
1
60
0
100
AcDbSpline
70
4
71
3
72
8
73
4
40
0
40
0
40
0
40
0
40
1
40
1
40
1
40
1
41
1
10
8.53E-14
20
3.81510453581061
30
0
41
1
10
-0.117223016274068
20
3.82484154822046
30
0
41
1
10
-0.233556794457257
20
3.83205748359788
30
0
41
1
10
-0.348872503347366
20
3.83638709287371
30
0
0
SPLINE
5
10D
100
AcDbEntity
8
SK1
62
256
6
ByLayer
370
18
48
1
60
0
100
AcDbSpline
70
4
71
3
72
12
73
8
40
0
40
0
40
0
40
0
40
0.251076819316441
40
0.251076819316441
40
0.50215363863291
40
0.50215363863291
40
1
40
1
40
1
40
1
41
1
10
4.547E-13
20
3.75151086460252
30
0
41
1
10
4.547E-13
20
3.74437078945314
30
0
41
1
10
0
20
3.73723094002421
30
0
41
1
10
0
20
3.72295169261119
30
0
41
1
10
0
20
3.71581229462655
30
0
41
1
10
0
20
3.69451725189384
30
0
41
1
10
2.84E-14
20
3.68036226889106
30
0
41
1
10
2.84E-14
20
3.66620817337326
30
0
0
SPLINE
5
10E
100
AcDbEntity
8
SK1
62
256
6
ByLayer
370
18
48
1
60
0
100
AcDbSpline
70
4
71
3
72
10
73
6
40
0
40
0
40
0
40
0
40
0.225042262923262
40
0.491421606209967
40
1
40
1
40
1
40
1
41
1
10
-0.808815455408478
20
3.91973005848817
30
0
41
1
10
-0.748182062212834
20
3.91143993517989
30
0
41
1
10
-0.615754076530834
20
3.89118769422592
30
0
41
1
10
-0.346181868021915
20
3.84056822983121
30
0
41
1
10
-0.137179822739512
20
3.789712282952
30
0
41
1
10
9.095E-13
20
3.75151086460252
30
0
0
SPLINE
5
10F
100
AcDbEntity
8
SK1
62
256
6
ByLayer
370
18
48
1
60
0
100
AcDbSpline
70
4
71
3
72
15
73
11
40
0
40
0
40
0
40
0
40
0.12540310241576
40
0.250683186412056
40
0.375844266670097
40
0.500890303685634
40
0.625825167810521
40
0.750652633921479
40
0.875376382377624
40
1
40
1
40
1
40
1
41
1
10
-0.808815455402453
20
3.91973005848735
30
0
41
1
10
-0.814842712512046
20
3.91917926397519
30
0
41
1
10
-0.826891314089266
20
3.91807821527138
30
0
41
1
10
-0.844855866537557
20
3.91671488872163
30
0
41
1
10
-0.862729546071535
20
3.91556123644691
30
0
41
1
10
-0.880505103022529
20
3.9146364864057
30
0
41
1
10
-0.898184974221721
20
3.9139318139334
30
0
41
1
10
-0.915766612637526
20
3.91345208387966
30
0
41
1
10
-0.933257730747272
20
3.91317540845063
30
0
41
1
10
-0.944843808817723
20
3.91317385818181
30
0
41
1
10
-0.95063452153272
20
3.91317308335869
30
0
0
SPLINE
5
110
100
AcDbEntity
8
SK1
62
256
6
ByLayer
370
18
48
1
60
0
100
AcDbSpline
70
4
71
3
72
8
73
4
40
0
40
0
40
0
40
0
40
1
40
1
40
1
40
1
41
1
10
4.832E-13
20
3.66620817337295
30
0
41
1
10
4.832E-13
20
3.66098574283953
30
0
41
1
10
0
20
3.65576337057465
30
0
41
1
10
0
20
3.65054105657862
30
0
0
SPLINE
5
111
100
AcDbEntity
8
SK1
62
256
6
ByLayer
370
18
48
1
60
0
100
AcDbSpline
70
4
71
3
72
11
73
7
40
0
40
0
40
0
40
0
40
0.114298179288648
40
0.340911198664448
40
0.567524218040247
40
1
40
1
40
1
40
1
41
1
10
-0.950634521532663
20
3.91317308335869
30
0
41
1
10
-0.914445932089535
20
3.90678415464871
30
0
41
1
10
-0.806494801384019
20
3.88668190615638
30
0
41
1
10
-0.626725356934941
20
3.84804694492709
30
0
41
1
10
-0.346066022587394
20
3.77714551657218
30
0
41
1
10
-0.137122624871267
20
3.71300895206483
30
0
41
1
10
9.663E-13
20
3.66620817337295
30
0
0
SPLINE
5
112
100
AcDbEntity
8
SK1
62
256
6
ByLayer
370
18
48
1
60
0
100
AcDbSpline
70
4
71
3
72
8
73
4
40
0
40
0
40
0
40
0
40
1
40
1
40
1
40
1
41
1
10
1.4211E-12
20
-3.64485857447113
30
0
41
1
10
1.4211E-12
20
-3.65037657623364
30
0
41
1
10
0
20
-3.65589461677988
30
0
41
1
10
0
20
-3.66141269610941
30
0
0
SPLINE
5
113
100
AcDbEntity
8
SK1
62
256
6
ByLayer
370
18
48
1
60
0
100
AcDbSpline
70
4
71
3
72
12
73
8
40
0
40
0
40
0
40
0
40
0.251164602430339
40
0.251164602430339
40
0.502329204861764
40
0.502329204861764
40
1
40
1
40
1
40
1
41
1
10
1.279E-12
20
-3.4832643168123
30
0
41
1
10
1.279E-12
20
-3.49679268785243
30
0
41
1
10
0
20
-3.51032119656469
30
0
41
1
10
0
20
-3.53737848932676
30
0
41
1
10
0
20
-3.55090727337725
30
0
41
1
10
0
20
-3.5912431143916
30
0
41
1
10
0
20
-3.6180505741917
30
0
41
1
10
0
20
-3.64485857447028
30
0
0
SPLINE
5
114
100
AcDbEntity
8
SK1
62
256
6
ByLayer
370
18
48
1
60
0
100
AcDbSpline
70
4
71
3
72
9
73
5
40
0
40
0
40
0
40
0
40
0.219005959344639
40
1
40
1
40
1
40
1
41
1
10
-1.02087750389904
20
-3.28656753223103
30
0
41
1
10
-0.946380411640632
20
-3.31683586070736
30
0
41
1
10
-0.606186669022122
20
-3.45107705337722
30
0
41
1
10
-0.265853986819622
20
-3.56676964963404
30
0
41
1
10
2.5864E-12
20
-3.64485857447104
30
0
0
SPLINE
5
115
100
AcDbEntity
8
SK1
62
256
6
ByLayer
370
18
48
1
60
0
100
AcDbSpline
70
4
71
3
72
14
73
10
40
0
40
0
40
0
40
0
40
0.143310353329459
40
0.286464250484276
40
0.429464999927691
40
0.572315832554911
40
0.71501990289075
40
0.857580290269767
40
1
40
1
40
1
40
1
41
1
10
-0.884403926581683
20
-3.14058620074377
30
0
41
1
10
-0.891009584387177
20
-3.14732504797683
30
0
41
1
10
-0.904213688405122
20
-3.16079538544304
30
0
41
1
10
-0.923908353165416
20
-3.18127348244354
30
0
41
1
10
-0.943507258394447
20
-3.2019341913452
30
0
41
1
10
-0.963003761966007
20
-3.22279417979595
30
0
41
1
10
-0.982397756134219
20
-3.24385057846112
30
0
41
1
10
-1.00169628658654
20
-3.26508349926055
30
0
41
1
10
-1.01448586927916
20
-3.27940854504732
30
0
41
1
10
-1.02087750389904
20
-3.28656753223106
30
0
0
SPLINE
5
116
100
AcDbEntity
8
SK1
62
256
6
ByLayer
370
18
48
1
60
0
100
AcDbSpline
70
4
71
3
72
10
73
6
40
0
40
0
40
0
40
0
40
0.496558978424901
40
0.496558978424901
40
1
40
1
40
1
40
1
41
1
10
0
20
-2.87316276522284
30
0
41
1
10
0
20
-2.97413928025978
30
0
41
1
10
0
20
-3.07511941358058
30
0
41
1
10
0
20
-3.27848649672299
30
0
41
1
10
0
20
-3.38087354764227
30
0
41
1
10
0
20
-3.48326431681142
30
0
0
SPLINE
5
117
100
AcDbEntity
8
SK1
62
256
6
ByLayer
370
18
48
1
60
0
100
AcDbSpline
70
4
71
3
72
9
73
5
40
0
40
0
40
0
40
0
40
0.0982848386112083
40
1
40
1
40
1
40
1
41
1
10
-0.884403926584497
20
-3.14058620074255
30
0
41
1
10
-0.855438170121715
20
-3.15313768653516
30
0
41
1
10
-0.560715673586174
20
-3.27955981469987
30
0
41
1
10
-0.265897486657025
20
-3.39279178919855
30
0
41
1
10
1.9327E-12
20
-3.48326431681207
30
0
0
SPLINE
5
118
100
AcDbEntity
8
SK1
62
256
6
ByLayer
370
18
48
1
60
0
100
AcDbSpline
70
4
71
3
72
8
73
4
40
0
40
0
40
0
40
0
40
1
40
1
40
1
40
1
41
1
10
-0.955832376403606
20
-3.13263965462221
30
0
41
0.999990940036111
10
-0.932044262221224
20
-3.13513869847786
30
0
41
0.999990940036111
10
-0.908234563232672
20
-3.13778757118369
30
0
41
1
10
-0.884403926582991
20
-3.1405862007436
30
0
0
SPLINE
5
119
100
AcDbEntity
8
SK1
62
256
6
ByLayer
370
18
48
1
60
0
100
AcDbSpline
70
4
71
3
72
25
73
21
40
0
40
0
40
0
40
0
40
0.0553095968614986
40
0.110641260486735
40
0.165996380942525
40
0.221376319508886
40
0.27678240926006
40
0.332215955627714
40
0.387678236946678
40
0.443170504983657
40
0.49869398544917
40
0.554249878493366
40
0.609839359185751
40
0.66546357797954
40
0.721123661160888
40
0.776820712654264
40
0.832555821342244
40
0.888330052305705
40
0.944144442257616
40
1
40
1
40
1
40
1
41
1
10
-0.547910706433015
20
-2.6442797257819
30
0
41
1
10
-0.554431462652786
20
-2.65283890811131
30
0
41
1
10
-0.567475576665942
20
-2.66996068761063
30
0
41
1
10
-0.586909934398449
20
-2.69592689839513
30
0
41
1
10
-0.606252502979061
20
-2.72210394057214
30
0
41
1
10
-0.625493546720662
20
-2.74850980263366
30
0
41
1
10
-0.644635669693713
20
-2.7751368690119
30
0
41
1
10
-0.663678167199834
20
-2.80198441701998
30
0
41
1
10
-0.68262122160337
20
-2.82904990323686
30
0
41
1
10
-0.701464777181172
20
-2.85633129984254
30
0
41
1
10
-0.72020884224122
20
-2.8838264672612
30
0
41
1
10
-0.738853406617835
20
-2.91153332441314
30
0
41
1
10
-0.757398469421901
20
-2.93944979425262
30
0
41
1
10
-0.775844010641038
20
-2.96757385002635
30
0
41
1
10
-0.794190077252182
20
-2.99590338362012
30
0
41
1
10
-0.812436468445725
20
-3.02443668745983
30
0
41
1
10
-0.830583908759138
20
-3.05317066424922
30
0
41
1
10
-0.848629642513544
20
-3.08210752353904
30
0
41
1
10
-0.866583925017409
20
-3.11122973103355
30
0
41
1
10
-0.8784624663638
20
-3.13079830614902
30
0
41
1
10
-0.884403926584469
20
-3.14058620074255
30
0
0
SPLINE
5
11A
100
AcDbEntity
8
SK1
62
256
6
ByLayer
370
18
48
1
60
0
100
AcDbSpline
70
4
71
3
72
8
73
4
40
0
40
0
40
0
40
0
40
1
40
1
40
1
40
1
41
1
10
-0.891979064073212
20
-2.68187318175563
30
0
41
1
10
-0.778136692958299
20
-2.66618782099016
30
0
41
1
10
-0.663466292048014
20
-2.65366370278843
30
0
41
1
10
-0.547958039008279
20
-2.64433832674351
30
0
0
SPLINE
5
11B
100
AcDbEntity
8
SK1
62
256
6
ByLayer
370
18
48
1
60
0
100
AcDbSpline
70
4
71
3
72
8
73
4
40
0
40
0
40
0
40
0
40
1
40
1
40
1
40
1
41
1
10
5.68E-14
20
-2.87316276522287
30
0
41
1
10
-0.184068179604992
20
-2.80170722122952
30
0
41
1
10
-0.366802471264293
20
-2.72575165910246
30
0
41
1
10
-0.547895854004594
20
-2.64426030971779
30
0
0
SPLINE
5
11C
100
AcDbEntity
8
SK1
62
256
6
ByLayer
370
18
48
1
60
0
100
AcDbSpline
70
4
71
3
72
10
73
6
40
0
40
0
40
0
40
0
40
0.5
40
0.5
40
1
40
1
40
1
40
1
41
1
10
-1.02220229615347
20
-3.28641210390612
30
0
41
1
10
-1.01882702168427
20
-3.26100769834861
30
0
41
1
10
-1.01156659332136
20
-3.23535237688469
30
0
41
1
10
-0.989244992869573
20
-3.1837031419019
30
0
41
1
10
-0.97426440383893
20
-3.15795567169931
30
0
41
1
10
-0.955832376400622
20
-3.13263965462252
30
0
0
SPLINE
5
11D
100
AcDbEntity
8
SK1
62
256
6
ByLayer
370
18
48
1
60
0
100
AcDbSpline
70
4
71
3
72
17
73
13
40
0
40
0
40
0
40
0
40
0.249999999999999
40
0.249999999999999
40
0.499999999999998
40
0.499999999999998
40
0.562499999999998
40
0.562499999999998
40
0.624999999999998
40
0.750000000000001
40
0.750000000000001
40
1
40
1
40
1
40
1
41
1
10
-0.955832376403919
20
-3.1326396546213
30
0
41
1
10
-0.967257865652499
20
-3.09814006783711
30
0
41
1
10
-0.974736854768651
20
-3.06266161601207
30
0
41
1
10
-0.981406162212863
20
-2.98970767715542
30
0
41
1
10
-0.980599369528022
20
-2.95223236369191
30
0
41
1
10
-0.973979690933589
20
-2.9041025517366
30
0
41
1
10
-0.972369635388873
20
-2.89438952644409
30
0
41
1
10
-0.968596692850639
20
-2.8749545805768
30
0
41
1
10
-0.962118642486871
20
-2.84582100831426
30
0
41
1
10
-0.953225297492821
20
-2.81675218332595
30
0
41
1
10
-0.932299486847739
20
-2.75872532376468
30
0
41
1
10
-0.914171217091081
20
-2.72018743799839
30
0
41
1
10
-0.891979064069517
20
-2.68187318174921
30
0
0
SPLINE
5
11E
100
AcDbEntity
8
SK1
62
256
6
ByLayer
370
18
48
1
60
0
100
AcDbSpline
70
4
71
3
72
30
73
26
40
0
40
0
40
0
40
0
40
0.250000000000042
40
0.250000000000042
40
0.375000000000064
40
0.375000000000064
40
0.437500000000075
40
0.437500000000075
40
0.500000000000085
40
0.500000000000085
40
0.562500000000095
40
0.562500000000095
40
0.625000000000106
40
0.625000000000106
40
0.656250000000112
40
0.656250000000112
40
0.687500000000118
40
0.687500000000118
40
0.750000000000094
40
0.750000000000094
40
0.812500000000071
40
0.812500000000071
40
0.875000000000047
40
0.875000000000047
40
1
40
1
40
1
40
1
41
1
10
-3.04059498633214
20
-1.21999057311206
30
0
41
1
10
-3.05489102985303
20
-1.20528054068831
30
0
41
1
10
-3.06855601570402
20
-1.19005928977094
30
0
41
1
10
-3.08717900702268
20
-1.16573346216367
30
0
41
1
10
-3.09308211936988
20
-1.15734817729663
30
0
41
1
10
-3.10103753757124
20
-1.14431022475438
30
0
41
1
10
-3.10354081610376
20
-1.13988288404349
30
0
41
1
10
-3.10814058155029
20
-1.13080639131127
30
0
41
1
10
-3.11024413618065
20
-1.1261406847907
30
0
41
1
10
-3.11379419829115
20
-1.11664535232074
30
0
41
1
10
-3.1152532888658
20
-1.11180617474832
30
0
41
1
10
-3.11718151069687
20
-1.10184314790126
30
0
41
1
10
-3.11763709005106
20
-1.09674078678964
30
0
41
1
10
-3.1170811186191
20
-1.08915212885176
30
0
41
1
10
-3.11668070577485
20
-1.08660217654199
30
0
41
1
10
-3.11540037989286
20
-1.08168342853392
30
0
41
1
10
-3.1145225331156
20
-1.07929854720291
30
0
41
1
10
-3.11108827941163
20
-1.07239548136462
30
0
41
1
10
-3.10779073296592
20
-1.06833608195942
30
0
41
1
10
-3.09980656299001
20
-1.06159220655357
30
0
41
1
10
-3.09530552000598
20
-1.05898957282849
30
0
41
1
10
-3.08564956563401
20
-1.05477387820434
30
0
41
1
10
-3.08065018064002
20
-1.05323151673494
30
0
41
1
10
-3.06539656969343
20
-1.0496591837765
30
0
41
1
10
-3.05483329997318
20
-1.0486596988149
30
0
41
1
10
-3.04429231446144
20
-1.04836493934223
30
0
0
SPLINE
5
11F
100
AcDbEntity
8
SK1
62
256
6
ByLayer
370
18
48
1
60
0
100
AcDbSpline
70
4
71
3
72
32
73
28
40
0
40
0
40
0
40
0
40
0.125000000000019
40
0.125000000000019
40
0.250000000000037
40
0.250000000000037
40
0.312500000000047
40
0.312500000000047
40
0.375000000000056
40
0.437500000000065
40
0.437500000000065
40
0.468750000000063
40
0.468750000000063
40
0.500000000000062
40
0.500000000000062
40
0.625000000000044
40
0.625000000000044
40
0.656250000000037
40
0.656250000000037
40
0.68750000000003
40
0.750000000000024
40
0.750000000000024
40
0.812500000000018
40
0.812500000000018
40
0.875000000000012
40
0.875000000000012
40
1
40
1
40
1
40
1
41
1
10
-3.04429231445675
20
-1.04836493936278
30
0
41
1
10
-2.98455844710605
20
-1.04669459048006
30
0
41
1
10
-2.92510386586221
20
-1.04289717322908
30
0
41
1
10
-2.80694408937265
20
-1.02958153159145
30
0
41
1
10
-2.74823639084426
20
-1.02008336070867
30
0
41
1
10
-2.66096449545711
20
-0.999778355066667
30
0
41
1
10
-2.63213216072492
20
-0.992012357220233
30
0
41
1
10
-2.57554270819438
20
-0.974298353547255
30
0
41
1
10
-2.51989489240933
20
-0.954373307847163
30
0
41
1
10
-2.46641631417981
20
-0.929331699303305
30
0
41
1
10
-2.42725081119016
20
-0.908313229992132
30
0
41
1
10
-2.41435317651479
20
-0.900933436577333
30
0
41
1
10
-2.38889828922723
20
-0.885364034671767
30
0
41
1
10
-2.37642155477403
20
-0.877221395676798
30
0
41
1
10
-2.31566983342464
20
-0.834896437866604
30
0
41
1
10
-2.27194658170618
20
-0.795656475544206
30
0
41
1
10
-2.2237269276246
20
-0.739387216929885
30
0
41
1
10
-2.21438134053889
20
-0.727738599508996
30
0
41
1
10
-2.19656497488611
20
-0.704027490687793
30
0
41
1
10
-2.17107270635617
20
-0.667758126947433
30
0
41
1
10
-2.14907999057033
20
-0.629480317104452
30
0
41
1
10
-2.12255499749949
20
-0.576814841533121
30
0
41
1
10
-2.11067924829877
20
-0.549634363908837
30
0
41
1
10
-2.08950704564617
20
-0.493919959485538
30
0
41
1
10
-2.08032050768688
20
-0.465695212361794
30
0
41
1
10
-2.05629920215441
20
-0.38007231818986
30
0
41
1
10
-2.04496884239842
20
-0.321733537989957
30
0
41
1
10
-2.03712900090827
20
-0.262414502367506
30
0
0
SPLINE
5
120
100
AcDbEntity
8
SK1
62
256
6
ByLayer
370
18
48
1
60
0
100
AcDbSpline
70
4
71
3
72
34
73
30
40
0
40
0
40
0
40
0
40
0.0625000000000007
40
0.0625000000000007
40
0.125000000000001
40
0.125000000000001
40
0.187500000000002
40
0.187500000000002
40
0.250000000000003
40
0.250000000000003
40
0.312500000000003
40
0.312500000000003
40
0.375000000000004
40
0.437500000000005
40
0.437500000000005
40
0.500000000000006
40
0.500000000000006
40
0.562500000000006
40
0.562500000000006
40
0.625000000000007
40
0.625000000000007
40
0.750000000000011
40
0.750000000000011
40
0.78125000000001
40
0.78125000000001
40
0.81250000000001
40
0.875000000000007
40
0.875000000000007
40
1
40
1
40
1
40
1
41
1
10
-2.03712900090827
20
-0.262414502367506
30
0
41
1
10
-2.03834670284505
20
-0.193585319246694
30
0
41
1
10
-2.04132565955985
20
-0.124875240281739
30
0
41
1
10
-2.05004023797193
20
0.012360472114409
30
0
41
1
10
-2.0557811059634
20
0.0808857368079146
30
0
41
1
10
-2.06956561869055
20
0.217783724245606
30
0
41
1
10
-2.07762182341764
20
0.286209850670701
30
0
41
1
10
-2.09565155924446
20
0.422162582020718
30
0
41
1
10
-2.10563412490939
20
0.489780720733052
30
0
41
1
10
-2.12734024455497
20
0.624335259653407
30
0
41
1
10
-2.13907375384713
20
0.691318512162184
30
0
41
1
10
-2.16414458916489
20
0.824412329457203
30
0
41
1
10
-2.19076253116859
20
0.956343819273769
30
0
41
1
10
-2.22035361970401
20
1.08600696779772
30
0
41
1
10
-2.25142763641432
20
1.21454573779846
30
0
41
1
10
-2.26770779801512
20
1.27824774854142
30
0
41
1
10
-2.30162972781156
20
1.40394583560857
30
0
41
1
10
-2.31928922743359
20
1.4660172870102
30
0
41
1
10
-2.35606257746372
20
1.58861166660117
30
0
41
1
10
-2.37519693619265
20
1.64919494476681
30
0
41
1
10
-2.4347707504117
20
1.82814605664748
30
0
41
1
10
-2.47729545531433
20
1.94354794596973
30
0
41
1
10
-2.53456590875391
20
2.08292469474901
30
0
41
1
10
-2.54623096757089
20
2.11056338372413
30
0
41
1
10
-2.5699289412957
20
2.16519855818342
30
0
41
1
10
-2.6060506378586
20
2.24624397715175
30
0
41
1
10
-2.64397231664276
20
2.3245830364834
30
0
41
1
10
-2.72246315110539
20
2.47766947376312
30
0
41
1
10
-2.77830000696676
20
2.57494523377639
30
0
41
1
10
-2.83852636706149
20
2.66738948756154
30
0
0
SPLINE
5
121
100
AcDbEntity
8
SK1
62
256
6
ByLayer
370
18
48
1
60
0
100
AcDbSpline
70
4
71
3
72
12
73
8
40
0
40
0
40
0
40
0
40
0.499999999999985
40
0.499999999999985
40
0.749999999999992
40
0.749999999999992
40
1
40
1
40
1
40
1
41
1
10
-2.83852636706149
20
2.66738948756151
30
0
41
1
10
-2.8515646237089
20
2.68740251681538
30
0
41
1
10
-2.86157823247459
20
2.70792307871679
30
0
41
1
10
-2.87124823017768
20
2.73958484726902
30
0
41
1
10
-2.87357973953641
20
2.75034951709472
30
0
41
1
10
-2.87620750639928
20
2.77185070693633
30
0
41
1
10
-2.87651567512953
20
2.78257367591428
30
0
41
1
10
-2.87579384655612
20
2.79326876324828
30
0
0
SPLINE
5
122
100
AcDbEntity
8
SK1
62
256
6
ByLayer
370
18
48
1
60
0
100
AcDbSpline
70
4
71
3
72
41
73
37
40
0
40
0
40
0
40
0
40
0.0625000000000003
40
0.0625000000000003
40
0.0937500000000006
40
0.0937500000000006
40
0.109374999999999
40
0.109374999999999
40
0.124999999999998
40
0.124999999999998
40
0.1875
40
0.1875
40
0.203125
40
0.203125
40
0.218750000000001
40
0.249999999999997
40
0.249999999999997
40
0.312499999999994
40
0.312499999999994
40
0.374999999999992
40
0.374999999999992
40
0.406249999999991
40
0.406249999999991
40
0.43749999999999
40
0.43749999999999
40
0.499999999999993
40
0.499999999999993
40
0.562499999999996
40
0.562499999999996
40
0.624999999999999
40
0.624999999999999
40
0.75
40
0.75
40
0.875
40
0.875
40
1
40
1
40
1
40
1
41
1
10
-2.87579384655612
20
2.79326876324828
30
0
41
1
10
-2.87273145920625
20
2.83864311023964
30
0
41
1
10
-2.86122402258044
20
2.88137781210167
30
0
41
1
10
-2.83321188663729
20
2.9421679472097
30
0
41
1
10
-2.82207289279154
20
2.96187654470913
30
0
41
1
10
-2.80282979726633
20
2.99066791566494
30
0
41
1
10
-2.79598567799513
20
3.00014051682723
30
0
41
1
10
-2.78166057713554
20
3.01861698493028
30
0
41
1
10
-2.77416050700518
20
3.02765125873899
30
0
41
1
10
-2.73509781669489
20
3.07188303836117
30
0
41
1
10
-2.69889842411709
20
3.10429279411863
30
0
41
1
10
-2.64887066243781
20
3.14200059218189
30
0
41
1
10
-2.63860495655442
20
3.14941248563994
30
0
41
1
10
-2.61773431734298
20
3.16388811349449
30
0
41
1
10
-2.58590847174864
20
3.18509039476066
30
0
41
1
10
-2.55264690758079
20
3.20489023374293
30
0
41
1
10
-2.48446378531656
20
3.24289082180132
30
0
41
1
10
-2.43680771787433
20
3.26610543626134
30
0
41
1
10
-2.33800395855206
20
3.3092811112956
30
0
41
1
10
-2.28684945189246
20
3.32923508348171
30
0
41
1
10
-2.20791317498268
20
3.35718981569829
30
0
41
1
10
-2.1812397224175
20
3.36617240026928
30
0
41
1
10
-2.12748863494161
20
3.38344875925722
30
0
41
1
10
-2.10037527737291
20
3.39175535426034
30
0
41
1
10
-2.01837790868024
20
3.4157788795462
30
0
41
1
10
-1.96283929502596
20
3.43060375367523
30
0
41
1
10
-1.85023199903753
20
3.45826771656675
30
0
41
1
10
-1.79316230524944
20
3.47110513134186
30
0
41
1
10
-1.67763233501779
20
3.49506937487118
30
0
41
1
10
-1.61932624721282
20
3.50616288639318
30
0
41
1
10
-1.44312274341615
20
3.53708781095113
30
0
41
1
10
-1.3238357748256
20
3.55460879655047
30
0
41
1
10
-1.08203876774857
20
3.58458543587912
30
0
41
1
10
-0.960191265299926
20
3.59695342448796
30
0
41
1
10
-0.714624263713461
20
3.61707743723807
30
0
41
1
10
-0.590904808448784
20
3.62483184042779
30
0
41
1
10
-0.466175176572421
20
3.63030112256791
30
0
0
SPLINE
5
123
100
AcDbEntity
8
SK1
62
256
6
ByLayer
370
18
48
1
60
0
100
AcDbSpline
70
4
71
3
72
12
73
8
40
0
40
0
40
0
40
0
40
0.5
40
0.5
40
0.75
40
0.75
40
1
40
1
40
1
40
1
41
1
10
1.137E-13
20
3.65054105657862
30
0
41
1
10
-0.162277837554654
20
3.70717514369107
30
0
41
1
10
-0.323722876649896
20
3.75717722039761
30
0
41
1
10
-0.566238412848151
20
3.82171011268409
30
0
41
1
10
-0.647075006824082
20
3.84150617561261
30
0
41
1
10
-0.808612610359461
20
3.8777114640209
30
0
41
1
10
-0.889317669397201
20
3.89411735847514
30
0
41
1
10
-0.970000845539147
20
3.90879884518051
30
0
0
SPLINE
5
124
100
AcDbEntity
8
SK1
62
256
6
ByLayer
370
13
48
1
60
0
100
AcDbSpline
70
4
71
3
72
8
73
4
40
0
40
0
40
0
40
0
40
1
40
1
40
1
40
1
41
1
10
-0.96999676019766
20
3.90880001185823
30
0
41
1
10
-0.963918160143265
20
3.91050450001958
30
0
41
1
10
-0.957839560088871
20
3.91218537151286
30
0
41
1
10
-0.951760960034477
20
3.91384259587127
30
0
0
SPLINE
5
125
100
AcDbEntity
8
SK1
62
256
6
ByLayer
370
18
48
1
60
0
100
AcDbSpline
70
4
71
3
72
10
73
6
40
0
40
0
40
0
40
0
40
0.5
40
0.5
40
1
40
1
40
1
40
1
41
1
10
-0.951760960038939
20
3.91384259587213
30
0
41
1
10
-0.944400413928264
20
3.9222905664989
30
0
41
1
10
-0.93373381824199
20
3.92994322051413
30
0
41
1
10
-0.905687568416226
20
3.94379638088026
30
0
41
1
10
-0.888406070006937
20
3.94993461591548
30
0
41
1
10
-0.868154221349727
20
3.95534577591454
30
0
0
SPLINE
5
126
100
AcDbEntity
8
SK1
62
256
6
ByLayer
370
18
48
1
60
0
100
AcDbSpline
70
4
71
3
72
16
73
12
40
0
40
0
40
0
40
0
40
0.250000000000003
40
0.250000000000003
40
0.500000000000005
40
0.500000000000005
40
0.625000000000007
40
0.625000000000007
40
0.750000000000008
40
0.750000000000008
40
1
40
1
40
1
40
1
41
1
10
-0.868154221355553
20
3.95534577591528
30
0
41
1
10
-0.873955351463991
20
3.96316122909545
30
0
41
1
10
-0.876255409880429
20
3.96992703861687
30
0
41
1
10
-0.873444519734221
20
3.98140005663103
30
0
41
1
10
-0.868336311442874
20
3.98610718517673
30
0
41
1
10
-0.854617211992263
20
3.99164896659789
30
0
41
1
10
-0.849008948899751
20
3.99324353662109
30
0
41
1
10
-0.835928422093048
20
3.995891143059
30
0
41
1
10
-0.828441445768618
20
3.99695337003288
30
0
41
1
10
-0.803192830581509
20
3.99941982357132
30
0
41
1
10
-0.782650235945908
20
4.00010476989019
30
0
41
1
10
-0.758452005598315
20
3.99998715049907
30
0
0
SPLINE
5
127
100
AcDbEntity
8
SK1
62
256
6
ByLayer
370
18
48
1
60
0
100
AcDbSpline
70
4
71
3
72
16
73
12
40
0
40
0
40
0
40
0
40
0.204744531682429
40
0.204744531682429
40
0.337287109735358
40
0.337287109735358
40
0.469829687788286
40
0.469829687788286
40
0.734914843894143
40
0.734914843894143
40
1
40
1
40
1
40
1
41
1
10
-2.27051213348315
20
-3.92782153667181
30
0
41
1
10
-2.29613349382328
20
-3.94416753442488
30
0
41
1
10
-2.32251242523654
20
-3.95771651938756
30
0
41
1
10
-2.36739903408326
20
-3.97547998552383
30
0
41
1
10
-2.3854265862517
20
-3.98130405714954
30
0
41
1
10
-2.42211306561077
20
-3.99059754231919
30
0
41
1
10
-2.44078322929158
20
-3.99407479849196
30
0
41
1
10
-2.49787907368884
20
-4.00107452709798
30
0
41
1
10
-2.53738446123145
20
-4.00116806070537
30
0
41
1
10
-2.61995768226075
20
-3.99252599519554
30
0
41
1
10
-2.66302345098936
20
-3.98378885910427
30
0
41
1
10
-2.7083112536726
20
-3.97075332838071
30
0
0
SPLINE
5
128
100
AcDbEntity
8
SK1
62
256
6
ByLayer
370
18
48
1
60
0
100
AcDbSpline
70
4
71
3
72
14
73
10
40
0
40
0
40
0
40
0
40
0.500000000000012
40
0.500000000000012
40
0.625000000000009
40
0.625000000000009
40
0.750000000000006
40
0.750000000000006
40
1
40
1
40
1
40
1
41
1
10
-2.7083112536726
20
-3.97075332838071
30
0
41
1
10
-2.72455228118062
20
-3.96607855061453
30
0
41
1
10
-2.7355896330904
20
-3.96069210167332
30
0
41
1
10
-2.74070027650259
20
-3.95282119954112
30
0
41
1
10
-2.74126928600379
20
-3.95120084262425
30
0
41
1
10
-2.74147043015299
20
-3.94790314645863
30
0
41
1
10
-2.74110617362197
20
-3.9462206977465
30
0
41
1
10
-2.73859761869002
20
-3.94107572730951
30
0
41
1
10
-2.73504188966697
20
-3.93751549191677
30
0
41
1
10
-2.7294989860732
20
-3.93383432604628
30
0
0
SPLINE
5
129
100
AcDbEntity
8
SK1
62
256
6
ByLayer
370
18
48
1
60
0
100
AcDbSpline
70
4
71
3
72
43
73
39
40
0
40
0
40
0
40
0
40
0.0625000000000077
40
0.0625000000000077
40
0.0937500000000117
40
0.0937500000000117
40
0.109375000000012
40
0.109375000000012
40
0.125000000000011
40
0.125000000000011
40
0.187500000000006
40
0.187500000000006
40
0.250000000000001
40
0.250000000000001
40
0.281249999999998
40
0.281249999999998
40
0.312499999999995
40
0.312499999999995
40
0.37499999999999
40
0.37499999999999
40
0.406249999999987
40
0.406249999999987
40
0.437499999999984
40
0.437499999999984
40
0.499999999999986
40
0.499999999999986
40
0.562499999999988
40
0.562499999999988
40
0.624999999999989
40
0.687499999999991
40
0.687499999999991
40
0.749999999999993
40
0.749999999999993
40
0.812499999999995
40
0.812499999999995
40
0.874999999999996
40
0.874999999999996
40
1
40
1
40
1
40
1
41
1
10
-2.72949898607322
20
-3.93383432604628
30
0
41
1
10
-2.71453791796785
20
-3.92389834712054
30
0
41
1
10
-2.69365866374915
20
-3.9134089098969
30
0
41
1
10
-2.65496307972216
20
-3.89716335199699
30
0
41
1
10
-2.64082721879262
20
-3.89166186453858
30
0
41
1
10
-2.61789764986742
20
-3.88331266537222
30
0
41
1
10
-2.60996650241003
20
-3.88051339815797
30
0
41
1
10
-2.59354641546474
20
-3.87488746663769
30
0
41
1
10
-2.58503659193605
20
-3.87205425524007
30
0
41
1
10
-2.54152989866236
20
-3.85795805527687
30
0
41
1
10
-2.50353268543989
20
-3.8468447491891
30
0
41
1
10
-2.42257157733815
20
-3.82508088296578
30
0
41
1
10
-2.37959530243631
20
-3.81442955294921
30
0
41
1
10
-2.31201750669211
20
-3.79888173461708
30
0
41
1
10
-2.28892377806463
20
-3.79376115426669
30
0
41
1
10
-2.24208669504583
20
-3.78374325677467
30
0
41
1
10
-2.2183256232064
20
-3.77884105445719
30
0
41
1
10
-2.14610649186159
20
-3.76445722728832
30
0
41
1
10
-2.09671714406946
20
-3.75529792137823
30
0
41
1
10
-2.02102511697879
20
-3.74222353820326
30
0
41
1
10
-1.99550425477091
20
-3.73797311327763
30
0
41
1
10
-1.94412368897628
20
-3.7297252286977
30
0
41
1
10
-1.91825015188238
20
-3.72572512335145
30
0
41
1
10
-1.84011307412453
20
-3.71409693481294
30
0
41
1
10
-1.78733483177325
20
-3.70684049253532
30
0
41
1
10
-1.68053009660491
20
-3.6933356471873
30
0
41
1
10
-1.6265507342539
20
-3.68709525733203
30
0
41
1
10
-1.51804981052112
20
-3.67570867796079
30
0
41
1
10
-1.40885360839852
20
-3.66539653905988
30
0
41
1
10
-1.29834235738611
20
-3.65726160788736
30
0
41
1
10
-1.18719267210381
20
-3.65024105405911
30
0
41
1
10
-1.1313040690323
20
-3.64729023696256
30
0
41
1
10
-1.01943980096303
20
-3.64255384529085
30
0
41
1
10
-0.963395958779586
20
-3.64076361487326
30
0
41
1
10
-0.851086277032209
20
-3.63835683040926
30
0
41
1
10
-0.794763471139049
20
-3.63774079100668
30
0
41
1
10
-0.625996446989916
20
-3.63768567218651
30
0
41
1
10
-0.513721608875557
20
-3.64003329693946
30
0
41
1
10
-0.401691792975697
20
-3.6447826336638
30
0
0
SPLINE
5
12A
100
AcDbEntity
8
SK1
62
256
6
ByLayer
370
18
48
1
60
0
100
AcDbSpline
70
4
71
3
72
14
73
10
40
0
40
0
40
0
40
0
40
0.25
40
0.25
40
0.5
40
0.5
40
0.75
40
0.75
40
1
40
1
40
1
40
1
41
1
10
5.68E-14
20
-3.66141269610944
30
0
41
1
10
-0.087046716397623
20
-3.63667023155369
30
0
41
1
10
-0.174019646745933
20
-3.61065301876275
30
0
41
1
10
-0.347649110647666
20
-3.55595798323469
30
0
41
1
10
-0.434306406851704
20
-3.52727913673587
30
0
41
1
10
-0.607298067295176
20
-3.46721254783842
30
0
41
1
10
-0.693631492373413
20
-3.43582265920241
30
0
41
1
10
-0.866128548520805
20
-3.3703942388203
30
0
41
1
10
-0.952289112963285
20
-3.3363511041922
30
0
41
1
10
-1.03856276773311
20
-3.30112492572729
30
0
0
SPLINE
5
12B
100
AcDbEntity
8
SK1
62
256
6
ByLayer
370
13
48
1
60
0
100
AcDbSpline
70
4
71
3
72
8
73
4
40
0
40
0
40
0
40
0
40
1
40
1
40
1
40
1
41
1
10
-1.03856039323944
20
-3.30112277543108
30
0
41
1
10
-1.03310769421088
20
-3.29624229862989
30
0
41
1
10
-1.0276549951823
20
-3.29133870712025
30
0
41
1
10
-1.02220229615375
20
-3.28641210390708
30
0
0
SPLINE
5
12C
100
AcDbEntity
8
1
62
256
6
ByLayer
370
18
48
1
60
0
100
AcDbSpline
70
4
71
2
72
6
73
3
40
0
40
0
40
0
40
1
40
1
40
1
41
1
10
2.42308559937442
20
-3.99938636474448
30
0
41
1
10
2.42306620402127
20
-3.99938662187711
30
0
41
1
10
2.42304680866442
20
-3.99938673391654
30
0
0
SPLINE
5
12D
100
AcDbEntity
8
1
62
256
6
ByLayer
370
18
48
1
60
0
100
AcDbSpline
70
4
71
3
72
13
73
9
40
0
40
0
40
0
40
0
40
0.242177628967527
40
0.392994330352067
40
0.481508155633937
40
0.582241067790101
40
0.835701008649499
40
1
40
1
40
1
40
1
41
1
10
4.65836223252833
20
-3.51765899186725
30
0
41
1
10
4.8658160489552
20
-3.51466684810058
30
0
41
1
10
5.20219838765848
20
-3.50558040918241
30
0
41
1
10
5.61441047581383
20
-3.48585099654221
30
0
41
1
10
5.90464562776575
20
-3.46850570201522
30
0
41
1
10
6.2832695714911
20
-3.44203666245713
30
0
41
1
10
6.72656104695835
20
-3.40503484788044
30
0
41
1
10
7.07913755770491
20
-3.36412088273761
30
0
41
1
10
7.21735092195806
20
-3.34662819107319
30
0
0
SPLINE
5
12E
100
AcDbEntity
8
1
62
256
6
ByLayer
370
18
48
1
60
0
100
AcDbSpline
70
4
71
3
72
16
73
12
40
0
40
0
40
0
40
0
40
0.0651992306135386
40
0.187195557938516
40
0.266840506239686
40
0.334737031809252
40
0.394249834992606
40
0.486151739903716
40
0.619743483659086
40
0.792462796634635
40
1
40
1
40
1
40
1
41
1
10
6.17500130595676
20
2.35585233364699
30
0
41
1
10
6.10870883168633
20
2.37133250073222
30
0
41
1
10
5.91854219236717
20
2.41628435456263
30
0
41
1
10
5.6478581893885
20
2.4832373911575
30
0
41
1
10
5.37567752587185
20
2.55177959740885
30
0
41
1
10
5.16692320784708
20
2.60537494684533
30
0
41
1
10
4.94678954906695
20
2.66255241290383
30
0
41
1
10
4.65889520712804
20
2.73839592191848
30
0
41
1
10
4.25918116816902
20
2.84550782822004
30
0
41
1
10
3.74151503841748
20
2.98514724599667
30
0
41
1
10
3.35906463696531
20
3.08909717933514
30
0
41
1
10
3.15029861911216
20
3.14607873244938
30
0
0
SPLINE
5
12F
100
AcDbEntity
8
1
62
256
6
ByLayer
370
18
48
1
60
0
100
AcDbSpline
70
4
71
3
72
9
73
5
40
0
40
0
40
0
40
0
40
0.600154974943726
40
1
40
1
40
1
40
1
41
1
10
2.31668320484243
20
3.3207008640297
30
0
41
1
10
2.19766656666798
20
3.33835026300468
30
0
41
1
10
1.99916781225844
20
3.36591973836101
30
0
41
1
10
1.80064549054438
20
3.39044284242044
30
0
41
1
10
1.72112722346583
20
3.39975320767078
30
0
0
SPLINE
5
130
100
AcDbEntity
8
1
62
256
6
ByLayer
370
18
48
1
60
0
100
AcDbSpline
70
4
71
1
72
4
73
2
40
0
40
0
40
1
40
1
41
1
10
4.56698311121369
20
0.694521306039405
30
0
41
1
10
4.56698767834482
20
0.694511967668802
30
0
0
LINE
5
77
100
AcDbEntity
8
80
62
256
6
ByLayer
370
18
48
1
60
0
100
AcDbLine
10
0
20
0
30
0
11
-5
21
0
31
0
39
0
210
0
220
0
230
1
0
LINE
5
78
100
AcDbEntity
8
4
62
256
6
ByLayer
370
18
48
0.05
60
0
100
AcDbLine
10
0
20
0
30
0
11
8
21
0
31
0
39
0
210
0
220
0
230
1
0
LINE
5
7A
100
AcDbEntity
8
81
62
256
6
ByLayer
370
18
48
1
60
0
100
AcDbLine
10
8
20
0
30
0
11
13
21
0
31
0
39
0
210
0
220
0
230
1
0
LINE
5
7B
100
AcDbEntity
8
SK4
62
256
6
ByLayer
370
18
48
0.05
60
0
100
AcDbLine
10
-50
20
0
30
0
11
8
21
0
31
0
39
0
210
0
220
0
230
1
0
LINE
5
7D
100
AcDbEntity
8
1
62
256
6
ByLayer
370
18
48
1
60
0
100
AcDbLine
10
0
20
1.379064
30
0
11
0
21
1.488029
31
0
39
0
210
0
220
0
230
1
0
LINE
5
7E
100
AcDbEntity
8
1
62
256
6
ByLayer
370
18
48
1
60
0
100
AcDbLine
10
0
20
-3.661601
30
0
11
0
21
-3.661413
31
0
39
0
210
0
220
0
230
1
0
LINE
5
7F
100
AcDbEntity
8
1
62
256
6
ByLayer
370
18
48
1
60
0
100
AcDbLine
10
0
20
-2.600029
30
0
11
0
21
-2.430082
31
0
39
0
210
0
220
0
230
1
0
LINE
5
80
100
AcDbEntity
8
1
62
256
6
ByLayer
370
18
48
1
60
0
100
AcDbLine
10
0
20
-2.430082
30
0
11
0
21
-1.187009
31
0
39
0
210
0
220
0
230
1
0
LINE
5
81
100
AcDbEntity
8
1
62
256
6
ByLayer
370
18
48
1
60
0
100
AcDbLine
10
0
20
-1.187009
30
0
11
0
21
1.379064
31
0
39
0
210
0
220
0
230
1
0
LINE
5
82
100
AcDbEntity
8
1
62
256
6
ByLayer
370
18
48
1
60
0
100
AcDbLine
10
0
20
-2.873163
30
0
11
0
21
-2.600029
31
0
39
0
210
0
220
0
230
1
0
LINE
5
83
100
AcDbEntity
8
1
62
256
6
ByLayer
370
18
48
1
60
0
100
AcDbLine
10
0
20
1.488029
30
0
11
0
21
3.418718
31
0
39
0
210
0
220
0
230
1
0
LINE
5
84
100
AcDbEntity
8
1
62
256
6
ByLayer
370
18
48
1
60
0
100
AcDbLine
10
0
20
3.650541
30
0
11
0
21
3.650493
31
0
39
0
210
0
220
0
230
1
0
LINE
5
85
100
AcDbEntity
8
1
62
256
6
ByLayer
370
18
48
1
60
0
100
AcDbLine
10
0
20
3.418718
30
0
11
0
21
3.650493
31
0
39
0
210
0
220
0
230
1
0
LINE
5
86
100
AcDbEntity
8
1
62
256
6
ByLayer
370
18
48
1
60
0
100
AcDbLine
10
7.994916
20
-2.168383
30
0
11
7.910137
21
-2.654079
31
0
39
0
210
0
220
0
230
1
0
LINE
5
87
100
AcDbEntity
8
1
62
256
6
ByLayer
370
18
48
1
60
0
100
AcDbLine
10
7.93584
20
-0.829437
30
0
11
7.938197
21
-0.88287
31
0
39
0
210
0
220
0
230
1
0
LINE
5
88
100
AcDbEntity
8
1
62
256
6
ByLayer
370
18
48
1
60
0
100
AcDbLine
10
7.981536
20
-1.865133
30
0
11
7.994916
21
-2.168383
31
0
39
0
210
0
220
0
230
1
0
LINE
5
89
100
AcDbEntity
8
1
62
256
6
ByLayer
370
18
48
1
60
0
100
AcDbLine
10
7.845461
20
-0.234367
30
0
11
7.887544
21
-0.240663
31
0
39
0
210
0
220
0
230
1
0
LINE
5
8A
100
AcDbEntity
8
1
62
256
6
ByLayer
370
18
48
1
60
0
100
AcDbLine
10
7.802754
20
3.991003
30
0
11
7.994916
21
3.801037
31
0
39
0
210
0
220
0
230
1
0
LINE
5
8B
100
AcDbEntity
8
1
62
256
6
ByLayer
370
18
48
1
60
0
100
AcDbLine
10
7.887544
20
-0.240663
30
0
11
7.994916
21
3.801037
31
0
39
0
210
0
220
0
230
1
0
LINE
5
8C
100
AcDbEntity
8
1
62
256
6
ByLayer
370
18
48
1
60
0
100
AcDbLine
10
7.910137
20
-2.654079
30
0
11
7.79394
21
-2.922548
31
0
39
0
210
0
220
0
230
1
0
LINE
5
8D
100
AcDbEntity
8
1
62
256
6
ByLayer
370
18
48
1
60
0
100
AcDbLine
10
7.910137
20
-2.654079
30
0
11
7.87751
21
-1.904253
31
0
39
0
210
0
220
0
230
1
0
LINE
5
8E
100
AcDbEntity
8
1
62
256
6
ByLayer
370
18
48
1
60
0
100
AcDbLine
10
7.019626
20
-2.942076
30
0
11
7.629196
21
-1.840892
31
0
39
0
210
0
220
0
230
1
0
LINE
5
8F
100
AcDbEntity
8
1
62
256
6
ByLayer
370
18
48
1
60
0
100
AcDbLine
10
7.93527
20
-0.83377
30
0
11
7.93584
21
-0.829437
31
0
39
0
210
0
220
0
230
1
0
LINE
5
90
100
AcDbEntity
8
1
62
256
6
ByLayer
370
18
48
1
60
0
100
AcDbLine
10
7.934546
20
-0.828597
30
0
11
7.93584
21
-0.829437
31
0
39
0
210
0
220
0
230
1
0
LINE
5
91
100
AcDbEntity
8
1
62
256
6
ByLayer
370
13
48
1
60
0
100
AcDbLine
10
6.590988
20
-1.071245
30
0
11
5.635846
21
-1.693417
31
0
39
0
210
0
220
0
230
1
0
LINE
5
92
100
AcDbEntity
8
1
62
256
6
ByLayer
370
18
48
1
60
0
100
AcDbLine
10
7.935401
20
-0.834692
30
0
11
7.994916
21
-1.860102
31
0
39
0
210
0
220
0
230
1
0
LINE
5
93
100
AcDbEntity
8
1
62
256
6
ByLayer
370
18
48
1
60
0
100
AcDbLine
10
7.854478
20
-0.257685
30
0
11
7.935401
21
-0.834692
31
0
39
0
210
0
220
0
230
1
0
LINE
5
94
100
AcDbEntity
8
1
62
256
6
ByLayer
370
18
48
1
60
0
100
AcDbLine
10
7.800744
20
-1.933122
30
0
11
7.994916
21
-1.860102
31
0
39
0
210
0
220
0
230
1
0
LINE
5
95
100
AcDbEntity
8
1
62
256
6
ByLayer
370
18
48
1
60
0
100
AcDbLine
10
7.994916
20
-1.860102
30
0
11
7.910137
21
-1.222688
31
0
39
0
210
0
220
0
230
1
0
LINE
5
96
100
AcDbEntity
8
1
62
256
6
ByLayer
370
18
48
1
60
0
100
AcDbLine
10
7.910137
20
-1.222688
30
0
11
7.791247
21
-0.963255
31
0
39
0
210
0
220
0
230
1
0
LINE
5
97
100
AcDbEntity
8
1
62
256
6
ByLayer
370
18
48
1
60
0
100
AcDbLine
10
7.910137
20
-1.222688
30
0
11
7.854478
21
-0.257685
31
0
39
0
210
0
220
0
230
1
0
LINE
5
98
100
AcDbEntity
8
1
62
256
6
ByLayer
370
18
48
1
60
0
100
AcDbLine
10
6.998033
20
1.957036
30
0
11
7.854478
21
-0.257685
31
0
39
0
210
0
220
0
230
1
0
LINE
5
99
100
AcDbEntity
8
SK1
62
256
6
ByLayer
370
13
48
1
60
0
100
AcDbLine
10
-2.708311
20
-3.970753
30
0
11
-2.530367
21
-3.857715
31
0
39
0
210
0
220
0
230
1
0
LINE
5
9B
100
AcDbEntity
8
SK1
62
256
6
ByLayer
370
18
48
1
60
0
100
AcDbLine
10
0
20
3.650493
30
0
11
0
21
3.418718
31
0
39
0
210
0
220
0
230
1
0
LINE
5
9C
100
AcDbEntity
8
SK1
62
256
6
ByLayer
370
18
48
1
60
0
100
AcDbLine
10
0
20
1.488029
30
0
11
0
21
3.418718
31
0
39
0
210
0
220
0
230
1
0
LINE
5
9D
100
AcDbEntity
8
SK1
62
256
6
ByLayer
370
13
48
1
60
0
100
AcDbLine
10
-0.466175
20
3.630301
30
0
11
0
21
3.418718
31
0
39
0
210
0
220
0
230
1
0
LINE
5
9E
100
AcDbEntity
8
SK1
62
256
6
ByLayer
370
18
48
1
60
0
100
AcDbLine
10
0
20
1.379064
30
0
11
0
21
1.488029
31
0
39
0
210
0
220
0
230
1
0
LINE
5
9F
100
AcDbEntity
8
SK1
62
256
6
ByLayer
370
13
48
1
60
0
100
AcDbLine
10
-2.875794
20
2.793269
30
0
11
0
21
1.488029
31
0
39
0
210
0
220
0
230
1
0
LINE
5
A0
100
AcDbEntity
8
SK1
62
256
6
ByLayer
370
18
48
1
60
0
100
AcDbLine
10
0
20
-2.600029
30
0
11
0
21
-2.873163
31
0
39
0
210
0
220
0
230
1
0
LINE
5
A1
100
AcDbEntity
8
SK1
62
256
6
ByLayer
370
13
48
1
60
0
100
AcDbLine
10
-3.040595
20
-1.219991
30
0
11
0
21
-2.600029
31
0
39
0
210
0
220
0
230
1
0
LINE
5
A2
100
AcDbEntity
8
SK1
62
256
6
ByLayer
370
18
48
1
60
0
100
AcDbLine
10
0
20
-2.600029
30
0
11
0
21
-2.430082
31
0
39
0
210
0
220
0
230
1
0
LINE
5
A3
100
AcDbEntity
8
SK1
62
256
6
ByLayer
370
13
48
1
60
0
100
AcDbLine
10
-3.044292
20
-1.048365
30
0
11
0
21
-2.430082
31
0
39
0
210
0
220
0
230
1
0
LINE
5
A4
100
AcDbEntity
8
SK1
62
256
6
ByLayer
370
18
48
1
60
0
100
AcDbLine
10
0
20
-2.430082
30
0
11
0
21
-1.187009
31
0
39
0
210
0
220
0
230
1
0
LINE
5
A5
100
AcDbEntity
8
SK1
62
256
6
ByLayer
370
18
48
1
60
0
100
AcDbLine
10
-2.037129
20
-0.262415
30
0
11
0
21
-1.187009
31
0
39
0
210
0
220
0
230
1
0
LINE
5
A6
100
AcDbEntity
8
SK1
62
256
6
ByLayer
370
18
48
1
60
0
100
AcDbLine
10
0
20
-1.187009
30
0
11
0
21
1.379064
31
0
39
0
210
0
220
0
230
1
0
LINE
5
A7
100
AcDbEntity
8
SK1
62
256
6
ByLayer
370
13
48
1
60
0
100
AcDbLine
10
-2.838526
20
2.667389
30
0
11
0
21
1.379064
31
0
39
0
210
0
220
0
230
1
0
LINE
5
A8
100
AcDbEntity
8
SK1
62
256
6
ByLayer
370
18
48
1
60
0
100
AcDbLine
10
-50
20
-3.4
30
0
11
-50
21
3.4
31
0
39
0
210
0
220
0
230
1
0
LINE
5
A9
100
AcDbEntity
8
SK1
62
256
6
ByLayer
370
18
48
1
60
0
100
AcDbLine
10
-49.4
20
4
30
0
11
-49.4
21
-4
31
0
39
0
210
0
220
0
230
1
0
LINE
5
AA
100
AcDbEntity
8
SK1
62
256
6
ByLayer
370
18
48
1
60
0
100
AcDbLine
10
0
20
3.650493
30
0
11
0
21
3.650541
31
0
39
0
210
0
220
0
230
1
0
LINE
5
AB
100
AcDbEntity
8
SK1
62
256
6
ByLayer
370
18
48
1
60
0
100
AcDbLine
10
0
20
-3.661601
30
0
11
0
21
-3.661413
31
0
39
0
210
0
220
0
230
1
0
LINE
5
AC
100
AcDbEntity
8
SK1
62
256
6
ByLayer
370
18
48
1
60
0
100
AcDbLine
10
-35.85
20
4
30
0
11
-34.75
21
2.9
31
0
39
0
210
0
220
0
230
1
0
LINE
5
AD
100
AcDbEntity
8
SK1
62
256
6
ByLayer
370
18
48
1
60
0
100
AcDbLine
10
-29.25
20
2.9
30
0
11
-28.15
21
4
31
0
39
0
210
0
220
0
230
1
0
LINE
5
AE
100
AcDbEntity
8
SK1
62
256
6
ByLayer
370
18
48
1
60
0
100
AcDbLine
10
-34.75
20
2.9
30
0
11
-29.25
21
2.9
31
0
39
0
210
0
220
0
230
1
0
LINE
5
AF
100
AcDbEntity
8
SK1
62
256
6
ByLayer
370
18
48
1
60
0
100
AcDbLine
10
-2.267063
20
-3.925631
30
0
11
-1.965222
21
-3.733888
31
0
39
0
210
0
220
0
230
1
0
LINE
5
B0
100
AcDbEntity
8
SK1
62
256
6
ByLayer
370
18
48
1
60
0
100
AcDbLine
10
-50
20
-3.4
30
0
11
-49.4
21
-4
31
0
39
0
210
0
220
0
230
1
0
LINE
5
B1
100
AcDbEntity
8
SK1
62
256
6
ByLayer
370
18
48
1
60
0
100
AcDbLine
10
-49.4
20
4
30
0
11
-50
21
3.4
31
0
39
0
210
0
220
0
230
1
0
LINE
5
B2
100
AcDbEntity
8
SK1
62
256
6
ByLayer
370
18
48
1
60
0
100
AcDbLine
10
-0.762089
20
4
30
0
11
-28.15
21
4
31
0
39
0
210
0
220
0
230
1
0
LINE
5
B3
100
AcDbEntity
8
SK1
62
256
6
ByLayer
370
18
48
1
60
0
100
AcDbLine
10
-35.85
20
4
30
0
11
-49.4
21
4
31
0
39
0
210
0
220
0
230
1
0
LINE
5
B4
100
AcDbEntity
8
SK1
62
256
6
ByLayer
370
18
48
1
60
0
100
AcDbLine
10
-49.4
20
-4
30
0
11
-2.530116
21
-4
31
0
39
0
210
0
220
0
230
1
0
LINE
5
B5
100
AcDbEntity
8
SK2
62
256
6
ByLayer
370
18
48
1
60
0
100
AcDbLine
10
-57.65
20
4
30
0
11
-57.65
21
-20.315466
31
0
39
0
210
0
220
0
230
1
0
LINE
5
B7
100
AcDbEntity
8
SK2
62
256
6
ByLayer
370
18
48
1
60
0
100
AcDbLine
10
-50.9875
20
4
30
0
11
-59.65
21
4
31
0
39
0
210
0
220
0
230
1
0
LINE
5
B8
100
AcDbEntity
8
SK2
62
256
6
ByLayer
370
18
48
1
60
0
100
AcDbLine
10
-50.9875
20
-4
30
0
11
-59.65
21
-4
31
0
39
0
210
0
220
0
230
1
0
LINE
5
B9
100
AcDbEntity
8
1
62
256
6
ByLayer
370
18
48
1
60
1
100
AcDbLine
10
-57.65
20
4
30
0
11
-57.189216
21
0.500002
31
0
39
0
210
0
220
0
230
1
0
LINE
5
BA
100
AcDbEntity
8
1
62
256
6
ByLayer
370
18
48
1
60
1
100
AcDbLine
10
-57.189216
20
0.500002
30
0
11
-58.110784
21
0.499998
31
0
39
0
210
0
220
0
230
1
0
LINE
5
BB
100
AcDbEntity
8
1
62
256
6
ByLayer
370
18
48
1
60
1
100
AcDbLine
10
-58.110784
20
0.499998
30
0
11
-57.65
21
4
31
0
39
0
210
0
220
0
230
1
0
LINE
5
BC
100
AcDbEntity
8
1
62
256
6
ByLayer
370
18
48
1
60
1
100
AcDbLine
10
-57.65
20
-4
30
0
11
-58.110784
21
-0.500002
31
0
39
0
210
0
220
0
230
1
0
LINE
5
BD
100
AcDbEntity
8
1
62
256
6
ByLayer
370
18
48
1
60
1
100
AcDbLine
10
-58.110784
20
-0.500002
30
0
11
-57.189216
21
-0.499998
31
0
39
0
210
0
220
0
230
1
0
LINE
5
BE
100
AcDbEntity
8
1
62
256
6
ByLayer
370
18
48
1
60
1
100
AcDbLine
10
-57.189216
20
-0.499998
30
0
11
-57.65
21
-4
31
0
39
0
210
0
220
0
230
1
0
LINE
5
BF
100
AcDbEntity
8
2
62
256
6
ByLayer
370
18
48
1
60
0
100
AcDbLine
10
20
20
-4.0001
30
0
11
20
21
20.315566
31
0
39
0
210
0
220
0
230
1
0
LINE
5
C1
100
AcDbEntity
8
2
62
256
6
ByLayer
370
18
48
1
60
0
100
AcDbLine
10
9.5875
20
4.0001
30
0
11
22
21
4.0001
31
0
39
0
210
0
220
0
230
1
0
LINE
5
C2
100
AcDbEntity
8
2
62
256
6
ByLayer
370
18
48
1
60
0
100
AcDbLine
10
9.5875
20
-4.0001
30
0
11
22
21
-4.0001
31
0
39
0
210
0
220
0
230
1
0
LINE
5
C3
100
AcDbEntity
8
1
62
256
6
ByLayer
370
18
48
1
60
1
100
AcDbLine
10
20
20
4.0001
30
0
11
20.460784
21
0.500102
31
0
39
0
210
0
220
0
230
1
0
LINE
5
C4
100
AcDbEntity
8
1
62
256
6
ByLayer
370
18
48
1
60
1
100
AcDbLine
10
20.460784
20
0.500102
30
0
11
19.539216
21
0.500098
31
0
39
0
210
0
220
0
230
1
0
LINE
5
C5
100
AcDbEntity
8
1
62
256
6
ByLayer
370
18
48
1
60
1
100
AcDbLine
10
19.539216
20
0.500098
30
0
11
20
21
4.0001
31
0
39
0
210
0
220
0
230
1
0
LINE
5
C6
100
AcDbEntity
8
1
62
256
6
ByLayer
370
18
48
1
60
1
100
AcDbLine
10
20
20
-4.0001
30
0
11
19.539216
21
-0.500102
31
0
39
0
210
0
220
0
230
1
0
LINE
5
C7
100
AcDbEntity
8
1
62
256
6
ByLayer
370
18
48
1
60
1
100
AcDbLine
10
19.539216
20
-0.500102
30
0
11
20.460784
21
-0.500098
31
0
39
0
210
0
220
0
230
1
0
LINE
5
C8
100
AcDbEntity
8
1
62
256
6
ByLayer
370
18
48
1
60
1
100
AcDbLine
10
20.460784
20
-0.500098
30
0
11
20
21
-4.0001
31
0
39
0
210
0
220
0
230
1
0
LINE
5
C9
100
AcDbEntity
8
2
62
256
6
ByLayer
370
18
48
1
60
0
100
AcDbLine
10
8
20
-34.680105
30
0
11
-50
21
-34.680105
31
0
39
0
210
0
220
0
230
1
0
LINE
5
CA
100
AcDbEntity
8
2
62
256
6
ByLayer
370
18
48
1
60
0
100
AcDbLine
10
-50
20
-4.9875
30
0
11
-50
21
-36.680105
31
0
39
0
210
0
220
0
230
1
0
LINE
5
CB
100
AcDbEntity
8
2
62
256
6
ByLayer
370
18
48
1
60
0
100
AcDbLine
10
8
20
-5.5876
30
0
11
8
21
-36.680105
31
0
39
0
210
0
220
0
230
1
0
LINE
5
CC
100
AcDbEntity
8
1
62
256
6
ByLayer
370
18
48
1
60
1
100
AcDbLine
10
-50
20
-34.680105
30
0
11
-46.500002
21
-34.219322
31
0
39
0
210
0
220
0
230
1
0
LINE
5
CD
100
AcDbEntity
8
1
62
256
6
ByLayer
370
18
48
1
60
1
100
AcDbLine
10
-46.500002
20
-34.219322
30
0
11
-46.499998
21
-35.140889
31
0
39
0
210
0
220
0
230
1
0
LINE
5
CE
100
AcDbEntity
8
1
62
256
6
ByLayer
370
18
48
1
60
1
100
AcDbLine
10
-46.499998
20
-35.140889
30
0
11
-50
21
-34.680105
31
0
39
0
210
0
220
0
230
1
0
LINE
5
CF
100
AcDbEntity
8
1
62
256
6
ByLayer
370
18
48
1
60
1
100
AcDbLine
10
8
20
-34.680105
30
0
11
4.500002
21
-35.140889
31
0
39
0
210
0
220
0
230
1
0
LINE
5
D0
100
AcDbEntity
8
1
62
256
6
ByLayer
370
18
48
1
60
1
100
AcDbLine
10
4.500002
20
-35.140889
30
0
11
4.499998
21
-34.219322
31
0
39
0
210
0
220
0
230
1
0
LINE
5
D1
100
AcDbEntity
8
1
62
256
6
ByLayer
370
18
48
1
60
1
100
AcDbLine
10
4.499998
20
-34.219322
30
0
11
8
21
-34.680105
31
0
39
0
210
0
220
0
230
1
0
LINE
5
135
100
AcDbEntity
8
1
62
256
6
ByLayer
370
18
48
1
60
1
100
AcDbLine
10
-57.65
20
4
30
0
11
-57.189216
21
0.500002
31
0
39
0
210
0
220
0
230
1
0
LINE
5
136
100
AcDbEntity
8
1
62
256
6
ByLayer
370
18
48
1
60
1
100
AcDbLine
10
-57.189216
20
0.500002
30
0
11
-58.110784
21
0.499998
31
0
39
0
210
0
220
0
230
1
0
LINE
5
137
100
AcDbEntity
8
1
62
256
6
ByLayer
370
18
48
1
60
1
100
AcDbLine
10
-58.110784
20
0.499998
30
0
11
-57.65
21
4
31
0
39
0
210
0
220
0
230
1
0
LINE
5
139
100
AcDbEntity
8
1
62
256
6
ByLayer
370
18
48
1
60
1
100
AcDbLine
10
-57.65
20
-4
30
0
11
-58.110784
21
-0.500002
31
0
39
0
210
0
220
0
230
1
0
LINE
5
13A
100
AcDbEntity
8
1
62
256
6
ByLayer
370
18
48
1
60
1
100
AcDbLine
10
-58.110784
20
-0.500002
30
0
11
-57.189216
21
-0.499998
31
0
39
0
210
0
220
0
230
1
0
LINE
5
13B
100
AcDbEntity
8
1
62
256
6
ByLayer
370
18
48
1
60
1
100
AcDbLine
10
-57.189216
20
-0.499998
30
0
11
-57.65
21
-4
31
0
39
0
210
0
220
0
230
1
0
LINE
5
13F
100
AcDbEntity
8
1
62
256
6
ByLayer
370
18
48
1
60
1
100
AcDbLine
10
20
20
4.0001
30
0
11
20.460784
21
0.500102
31
0
39
0
210
0
220
0
230
1
0
LINE
5
140
100
AcDbEntity
8
1
62
256
6
ByLayer
370
18
48
1
60
1
100
AcDbLine
10
20.460784
20
0.500102
30
0
11
19.539216
21
0.500098
31
0
39
0
210
0
220
0
230
1
0
LINE
5
141
100
AcDbEntity
8
1
62
256
6
ByLayer
370
18
48
1
60
1
100
AcDbLine
10
19.539216
20
0.500098
30
0
11
20
21
4.0001
31
0
39
0
210
0
220
0
230
1
0
LINE
5
143
100
AcDbEntity
8
1
62
256
6
ByLayer
370
18
48
1
60
1
100
AcDbLine
10
20
20
-4.0001
30
0
11
19.539216
21
-0.500102
31
0
39
0
210
0
220
0
230
1
0
LINE
5
144
100
AcDbEntity
8
1
62
256
6
ByLayer
370
18
48
1
60
1
100
AcDbLine
10
19.539216
20
-0.500102
30
0
11
20.460784
21
-0.500098
31
0
39
0
210
0
220
0
230
1
0
LINE
5
145
100
AcDbEntity
8
1
62
256
6
ByLayer
370
18
48
1
60
1
100
AcDbLine
10
20.460784
20
-0.500098
30
0
11
20
21
-4.0001
31
0
39
0
210
0
220
0
230
1
0
LINE
5
148
100
AcDbEntity
8
1
62
256
6
ByLayer
370
18
48
1
60
1
100
AcDbLine
10
-50
20
-34.680105
30
0
11
-46.500002
21
-34.219322
31
0
39
0
210
0
220
0
230
1
0
LINE
5
149
100
AcDbEntity
8
1
62
256
6
ByLayer
370
18
48
1
60
1
100
AcDbLine
10
-46.500002
20
-34.219322
30
0
11
-46.499998
21
-35.140889
31
0
39
0
210
0
220
0
230
1
0
LINE
5
14A
100
AcDbEntity
8
1
62
256
6
ByLayer
370
18
48
1
60
1
100
AcDbLine
10
-46.499998
20
-35.140889
30
0
11
-50
21
-34.680105
31
0
39
0
210
0
220
0
230
1
0
LINE
5
14C
100
AcDbEntity
8
1
62
256
6
ByLayer
370
18
48
1
60
1
100
AcDbLine
10
8
20
-34.680105
30
0
11
4.500002
21
-35.140889
31
0
39
0
210
0
220
0
230
1
0
LINE
5
14D
100
AcDbEntity
8
1
62
256
6
ByLayer
370
18
48
1
60
1
100
AcDbLine
10
4.500002
20
-35.140889
30
0
11
4.499998
21
-34.219322
31
0
39
0
210
0
220
0
230
1
0
LINE
5
14E
100
AcDbEntity
8
1
62
256
6
ByLayer
370
18
48
1
60
1
100
AcDbLine
10
4.499998
20
-34.219322
30
0
11
8
21
-34.680105
31
0
39
0
210
0
220
0
230
1
0
MTEXT
5
131
100
AcDbEntity
8
SK2
62
256
6
ByLayer
370
18
48
1
60
0
100
AcDbMText
10
-59.214634
20
-18.380622
30
0
210
0
220
0
230
1
1
%%c
40
3.5
41
0
44
1.084337
50
90
71
7
72
5
7
iso_b_vert
0
MTEXT
5
134
100
AcDbEntity
8
SK2
62
256
6
ByLayer
370
18
48
1
60
0
100
AcDbMText
10
-59.214634
20
-11.407966
30
0
210
0
220
0
230
1
1
\W0.5404;8
40
3.5
41
0
44
1.084337
50
90
71
7
72
5
7
iso_b_vert
0
MTEXT
5
13D
100
AcDbEntity
8
2
62
256
6
ByLayer
370
18
48
1
60
0
100
AcDbMText
10
18.435366
20
11.934944
30
0
210
0
220
0
230
1
1
%%c
40
3.5
41
0
44
1.084337
50
90
71
7
72
5
7
iso_b_vert
0
MTEXT
5
13E
100
AcDbEntity
8
2
62
256
6
ByLayer
370
18
48
1
60
0
100
AcDbMText
10
18.435366
20
18.9076
30
0
210
0
220
0
230
1
1
\W0.5404;8
40
3.5
41
0
44
1.084337
50
90
71
7
72
5
7
iso_b_vert
0
MTEXT
5
147
100
AcDbEntity
8
2
62
256
6
ByLayer
370
18
48
1
60
0
100
AcDbMText
10
-22.904966
20
-33.647472
30
0
210
0
220
0
230
1
1
\W0.6740;58
40
3.5
41
0
44
1.084337
50
0
71
7
72
5
7
iso_b_vert
0
MTEXT
5
150
100
AcDbEntity
8
SK6
62
256
6
ByLayer
370
18
48
1
60
0
100
AcDbMText
10
-39.879625
20
-62.10892
30
0
210
0
220
0
230
1
1
\W0.7162;1K313-0800-XB 1730
40
3
41
0
44
1.084337
50
0
71
7
72
5
7
iso_b_vert
0
HATCH
5
138
100
AcDbEntity
8
SK2
62
256
6
ByLayer
370
13
48
1
60
0
100
AcDbHatch
10
0
20
0
30
0
210
0
220
0
230
1
2
ANSI31
70
0
71
0
91
1
92
5
93
3
72
1
10
-57.65
20
4
11
-57.1892162584472
21
0.500001692553184
72
1
10
-57.1892162584472
20
0.500001692553184
11
-58.1107837415528
21
0.499998307446816
72
1
10
-58.1107837415528
20
0.499998307446816
11
-57.65
21
4
97
0
75
0
76
1
52
0
41
0.0062
77
0
78
1
53
45
43
0
44
0
45
-0.0139193969876572
46
0.0139193969876572
79
0
47
0
98
1
10
0
20
0
0
HATCH
5
13C
100
AcDbEntity
8
SK2
62
256
6
ByLayer
370
13
48
1
60
0
100
AcDbHatch
10
0
20
0
30
0
210
0
220
0
230
1
2
ANSI31
70
0
71
0
91
1
92
5
93
3
72
1
10
-57.65
20
-4
11
-58.1107837415528
21
-0.500001692553184
72
1
10
-58.1107837415528
20
-0.500001692553184
11
-57.1892162584472
21
-0.499998307446816
72
1
10
-57.1892162584472
20
-0.499998307446816
11
-57.65
21
-4
97
0
75
0
76
1
52
0
41
0.0062
77
0
78
1
53
45
43
0
44
0
45
-0.0139193969876572
46
0.0139193969876572
79
0
47
0
98
1
10
0
20
0
0
HATCH
5
142
100
AcDbEntity
8
2
62
256
6
ByLayer
370
13
48
1
60
0
100
AcDbHatch
10
0
20
0
30
0
210
0
220
0
230
1
2
ANSI31
70
0
71
0
91
1
92
5
93
3
72
1
10
20
20
4.00009999999997
11
20.4607837415528
21
0.500101692553159
72
1
10
20.4607837415528
20
0.500101692553159
11
19.5392162584472
21
0.500098307446791
72
1
10
19.5392162584472
20
0.500098307446791
11
20
21
4.00009999999997
97
0
75
0
76
1
52
0
41
0.0062
77
0
78
1
53
45
43
0
44
0
45
-0.0139193969876572
46
0.0139193969876572
79
0
47
0
98
1
10
0
20
0
0
HATCH
5
146
100
AcDbEntity
8
2
62
256
6
ByLayer
370
13
48
1
60
0
100
AcDbHatch
10
0
20
0
30
0
210
0
220
0
230
1
2
ANSI31
70
0
71
0
91
1
92
5
93
3
72
1
10
20
20
-4.00010000000003
11
19.5392162584472
21
-0.500101692553216
72
1
10
19.5392162584472
20
-0.500101692553216
11
20.4607837415528
21
-0.500098307446848
72
1
10
20.4607837415528
20
-0.500098307446848
11
20
21
-4.00010000000003
97
0
75
0
76
1
52
0
41
0.0062
77
0
78
1
53
45
43
0
44
0
45
-0.0139193969876572
46
0.0139193969876572
79
0
47
0
98
1
10
0
20
0
0
HATCH
5
14B
100
AcDbEntity
8
2
62
256
6
ByLayer
370
13
48
1
60
0
100
AcDbHatch
10
0
20
0
30
0
210
0
220
0
230
1
2
ANSI31
70
0
71
0
91
1
92
5
93
3
72
1
10
-50
20
-34.6801053255527
11
-46.5000016925532
21
-34.219321584
72
1
10
-46.5000016925532
20
-34.219321584
11
-46.4999983074468
21
-35.1408890671055
72
1
10
-46.4999983074468
20
-35.1408890671055
11
-50
21
-34.6801053255527
97
0
75
0
76
1
52
0
41
0.0062
77
0
78
1
53
45
43
0
44
0
45
-0.0139193969876572
46
0.0139193969876572
79
0
47
0
98
1
10
0
20
0
0
HATCH
5
14F
100
AcDbEntity
8
2
62
256
6
ByLayer
370
13
48
1
60
0
100
AcDbHatch
10
0
20
0
30
0
210
0
220
0
230
1
2
ANSI31
70
0
71
0
91
1
92
5
93
3
72
1
10
8
20
-34.6801053255527
11
4.50000169255318
21
-35.1408890671055
72
1
10
4.50000169255318
20
-35.1408890671055
11
4.49999830744682
21
-34.219321584
72
1
10
4.49999830744682
20
-34.219321584
11
8
21
-34.6801053255527
97
0
75
0
76
1
52
0
41
0.0062
77
0
78
1
53
45
43
0
44
0
45
-0.0139193969876572
46
0.0139193969876572
79
0
47
0
98
1
10
0
20
0
0
DIMENSION
5
153
100
AcDbEntity
8
SK2
62
256
6
ByLayer
370
18
48
1
60
0
100
AcDbDimension
2
_U0
10
0
20
-18.680105
30
0
11
4
21
-18.680105
31
0
70
32
71
1
72
1
41
1
210
0
220
0
230
1
3
Standard
100
AcDbAlignedDimension
13
8
23
-4.0001
33
0
14
0
24
-4.0001
34
0
50
0
100
AcDbRotatedDimension
1001
ACAD
1000
DSTYLE
1002
{
1070
   371
1070
    13
1070
   372
1070
    13
1070
   170
1070
     0
1070
   144
1040
1.0
1070
   277
1070
     2
1070
   284
1070
     8
1070
   278
1070
    46
1070
   146
1040
1.0
1070
   345
1005
16
1070
   347
1005
16
1070
   346
1005
16
1070
   344
1005
0
1070
   343
1005
0
1070
   172
1070
     1
1070
    76
1070
     0
1070
    75
1070
     0
1070
   282
1070
     0
1070
   281
1070
     0
1070
    71
1070
     0
1070
    74
1070
     0
1070
   279
1070
     0
1070
   173
1070
     1
1070
   340
1005
132
1070
   271
1070
     2
1070
   272
1070
     2
1070
    77
1070
     1
1070
    73
1070
     1
1070
   171
1070
     3
1070
   274
1070
     4
1070
   177
1070
     2
1070
   176
1070
     2
1070
   178
1070
     2
1070
    78
1070
     8
1070
    48
1040
-0.1
1070
    41
1040
3.5
1070
   147
1040
1.75
1070
    42
1040
1.5875
1070
    44
1040
2.0
1070
   140
1040
3.5
1002
}
1001
ACAD_DSTYLE_DIM_LINETYPE
1070
   380
1005
16
1001
ACAD_DSTYLE_DIM_EXT1_LINETYPE
1070
   381
1005
16
1001
ACAD_DSTYLE_DIM_EXT2_LINETYPE
1070
   382
1005
16
0
ENDSEC
0
SECTION
2
OBJECTS
0
DICTIONARY
5
1dd
330
0
100
AcDbDictionary
280
0
281
1
3
ACAD_GROUP
350
1de
3
ACAD_MLINESTYLE
350
1df
0
DICTIONARY
5
1de
330
0
100
AcDbDictionary
280
0
281
1
0
DICTIONARY
5
1df
330
0
100
AcDbDictionary
280
0
281
1
3
Standard
350
18
0
MLINESTYLE
5
18
330
1df
100
AcDbMlineStyle
2
Standard
70
0
3

62
256
51
90
52
90
71
2
49
-0.5
62
256
6
ByLayer
49
0.5
62
256
6
ByLayer
0
RASTERVARIABLES
5
1cb
330

100
AcDbRasterVariables
90
0
70
1
71
1
72
1
0
ENDSEC
0
EOF
