0
SECTION
2
HEADER
9
$ACADVER
1
AC1015
9
$DWGCODEPAGE
3
ANSI_1252
9
$HANDSEED
5
1b5
9
$ANGBASE
50
0
9
$ANGDIR
70
0
9
$ATTMODE
70
1
9
$AUNITS
70
0
9
$AUPREC
70
0
9
$CECOLOR
62
256
9
$CELTSCALE
40
1
9
$CELTYPE
6
ByLayer
9
$CELWEIGHT
370
18
9
$CLAYER
8
0
9
$CMLJUST
70
0
9
$CMLSCALE
40
1
9
$CMLSTYLE
2
Standard
9
$DIMSTYLE
2
Standard
9
$TEXTSIZE
40
0.2
9
$TEXTSTYLE
7
Standard
9
$LUNITS
70
2
9
$LUPREC
70
4
9
$EXTNAMES
290
1
9
$INSUNITS
70
4
9
$LTSCALE
40
1
9
$LWDISPLAY
290
1
9
$PDMODE
70
0
9
$PDSIZE
40
0
9
$PLINEGEN
70
0
0
ENDSEC
0
SECTION
2
CLASSES
0
CLASS
1
RASTERVARIABLES
2
AcDbRasterVariables
3
ISM
90
0
280
0
281
0
0
ENDSEC
0
SECTION
2
TABLES
0
TABLE
2
VPORT
5
1ab
100
AcDbSymbolTable
0
VPORT
5
1
100
AcDbSymbolTableRecord
100
AcDbViewportTableRecord
2
*Active
70
0
10
0
20
0
11
1
21
1
12
-1
22
1
13
0
23
0
14
0.5
24
0.5
15
10
25
10
16
0
26
0
36
1
17
0
27
0
37
0
0
ENDTAB
0
TABLE
2
LTYPE
5
1ac
100
AcDbSymbolTable
0
LTYPE
5
14
100
AcDbSymbolTableRecord
100
AcDbLinetypeTableRecord
70
0
2
ByBlock
3

72
65
73
0
40
0
0
LTYPE
5
15
100
AcDbSymbolTableRecord
100
AcDbLinetypeTableRecord
70
0
2
ByLayer
3

72
65
73
0
40
0
0
LTYPE
5
16
100
AcDbSymbolTableRecord
100
AcDbLinetypeTableRecord
70
0
2
Continuous
3
Solid line
72
65
73
0
40
0
0
LTYPE
5
6E
100
AcDbSymbolTableRecord
100
AcDbLinetypeTableRecord
70
0
2
CENTER
3
____ _ ____ _ ____ _ ____
72
65
73
4
40
47.5
49
22
74
0
49
-8.5
74
0
49
8.5
74
0
49
-8.5
74
0
0
LTYPE
5
6F
100
AcDbSymbolTableRecord
100
AcDbLinetypeTableRecord
70
0
2
DASHED
3
__ __ __ __ __ __ __ __ __
72
65
73
2
40
25.72
49
12.86
74
0
49
-12.86
74
0
0
ENDTAB
0
TABLE
2
LAYER
5
1ad
100
AcDbSymbolTable
0
LAYER
5
10
100
AcDbSymbolTableRecord
100
AcDbLayerTableRecord
2
0
70
0
62
7
6
Continuous
290
1
370
-3
390
0
0
LAYER
5
71
100
AcDbSymbolTableRecord
100
AcDbLayerTableRecord
2
81
70
0
62
-3
6
Continuous
290
1
370
-3
390
0
0
LAYER
5
73
100
AcDbSymbolTableRecord
100
AcDbLayerTableRecord
2
80
70
0
62
-6
6
Continuous
290
1
370
-3
390
0
0
LAYER
5
75
100
AcDbSymbolTableRecord
100
AcDbLayerTableRecord
2
1
70
0
62
4
6
Continuous
290
1
370
-3
390
0
0
LAYER
5
79
100
AcDbSymbolTableRecord
100
AcDbLayerTableRecord
2
4
70
0
62
-2
6
CENTER
290
1
370
-3
390
0
0
LAYER
5
AF
100
AcDbSymbolTableRecord
100
AcDbLayerTableRecord
2
2
70
0
62
7
6
Continuous
290
1
370
-3
390
0
0
LAYER
5
121
100
AcDbSymbolTableRecord
100
AcDbLayerTableRecord
2
Defpoints
70
0
62
7
6
Continuous
290
0
370
-3
390
0
0
LAYER
5
197
100
AcDbSymbolTableRecord
100
AcDbLayerTableRecord
2
SK4
70
0
62
2
6
CENTER
290
1
370
-3
390
0
0
LAYER
5
198
100
AcDbSymbolTableRecord
100
AcDbLayerTableRecord
2
SK1
70
0
62
4
6
Continuous
290
1
370
-3
390
0
0
LAYER
5
199
100
AcDbSymbolTableRecord
100
AcDbLayerTableRecord
2
SK2
70
0
62
7
6
Continuous
290
1
370
-3
390
0
0
LAYER
5
19a
100
AcDbSymbolTableRecord
100
AcDbLayerTableRecord
2
SK6
70
0
62
5
6
Continuous
290
1
370
-3
390
0
0
ENDTAB
0
TABLE
2
STYLE
5
1ae
100
AcDbSymbolTable
0
STYLE
5
11
100
AcDbSymbolTableRecord
100
AcDbTextStyleTableRecord
2
Standard
3
txt
70
0
71
0
40
0
41
1
42
0
50
0
0
STYLE
5
FD
100
AcDbSymbolTableRecord
100
AcDbTextStyleTableRecord
2
iso_b_vert
3
simplex.shx
70
0
71
0
40
0
41
1
42
0
50
0
0
STYLE
5
FE
100
AcDbSymbolTableRecord
100
AcDbTextStyleTableRecord
2
DWGDirectTextStyle
3
simplex
70
0
71
0
40
0
41
1
42
0
50
0
0
ENDTAB
0
TABLE
2
DIMSTYLE
5
1af
100
AcDbSymbolTable
100
AcDbDimStyleTable
0
DIMSTYLE
105
27
100
AcDbSymbolTableRecord
100
AcDbDimStyleTableRecord
2
Standard
70
0
3
<>
41
0.18
42
0.0625
44
0.18
140
0.18
147
0.09
73
0
74
0
77
1
271
2
275
0
278
52
280
0
340
11
0
ENDTAB
0
TABLE
2
VIEW
5
1b0
100
AcDbSymbolTable
0
ENDTAB
0
TABLE
2
UCS
5
1b1
100
AcDbSymbolTable
0
ENDTAB
0
TABLE
2
APPID
5
1b2
100
AcDbSymbolTable
0
APPID
5
12
100
AcDbSymbolTableRecord
100
AcDbRegAppTableRecord
2
ACAD
70
0
0
APPID
5
11D
100
AcDbSymbolTableRecord
100
AcDbRegAppTableRecord
2
ACAD_DSTYLE_DIMBREAK
70
0
0
APPID
5
156
100
AcDbSymbolTableRecord
100
AcDbRegAppTableRecord
2
ACAD_DSTYLE_DIM_LINETYPE
70
0
0
APPID
5
157
100
AcDbSymbolTableRecord
100
AcDbRegAppTableRecord
2
ACAD_DSTYLE_DIM_EXT1_LINETYPE
70
0
0
APPID
5
158
100
AcDbSymbolTableRecord
100
AcDbRegAppTableRecord
2
ACAD_DSTYLE_DIM_EXT2_LINETYPE
70
0
0
APPID
5
193
100
AcDbSymbolTableRecord
100
AcDbRegAppTableRecord
2
ACAD_MLEADERVER
70
0
0
ENDTAB
0
TABLE
2
BLOCK_RECORD
5
1b3
100
AcDbSymbolTable
0
BLOCK_RECORD
5
1F
100
AcDbSymbolTableRecord
100
AcDbBlockTableRecord
2
*Model_Space
340
0
70
0
0
BLOCK_RECORD
5
1B
100
AcDbSymbolTableRecord
100
AcDbBlockTableRecord
2
*Paper_Space
340
0
70
0
0
BLOCK_RECORD
5
23
100
AcDbSymbolTableRecord
100
AcDbBlockTableRecord
2
*Paper_Space0
340
0
70
0
0
BLOCK_RECORD
5
122
100
AcDbSymbolTableRecord
100
AcDbBlockTableRecord
2
*D1
340
0
70
0
0
BLOCK_RECORD
5
12F
100
AcDbSymbolTableRecord
100
AcDbBlockTableRecord
2
_U0
340
0
70
0
0
ENDTAB
0
ENDSEC
0
SECTION
2
BLOCKS
0
BLOCK
5
20
100
AcDbEntity
8
0
100
AcDbBlockBegin
2
*Model_Space
70
0
10
0
20
0
30
0
3
*Model_Space
0
ENDBLK
5
21
100
AcDbEntity
8
0
100
AcDbBlockEnd
0
BLOCK
5
1C
100
AcDbEntity
8
0
100
AcDbBlockBegin
2
*Paper_Space
70
0
10
0
20
0
30
0
3
*Paper_Space
0
ENDBLK
5
1D
100
AcDbEntity
8
0
100
AcDbBlockEnd
0
BLOCK
5
24
100
AcDbEntity
8
0
100
AcDbBlockBegin
2
*Paper_Space0
70
0
10
0
20
0
30
0
3
*Paper_Space0
0
ENDBLK
5
25
100
AcDbEntity
8
0
100
AcDbBlockEnd
0
BLOCK
5
123
100
AcDbEntity
8
0
100
AcDbBlockBegin
2
*D1
70
1
10
0
20
0
30
0
3
*D1
0
LINE
5
125
100
AcDbEntity
8
0
62
256
6
ByLayer
370
-2
48
1
60
0
100
AcDbLine
10
10.600397
20
-2.0876
30
0
11
10.600397
21
-19.1
31
0
39
0
210
0
220
0
230
1
0
LINE
5
126
100
AcDbEntity
8
0
62
256
6
ByLayer
370
-2
48
1
60
0
100
AcDbLine
10
8.600397
20
-2.0876
30
0
11
8.600397
21
-19.1
31
0
39
0
210
0
220
0
230
1
0
LINE
5
127
100
AcDbEntity
8
0
62
256
6
ByLayer
370
-2
48
1
60
0
100
AcDbLine
10
14.100397
20
-17.1
30
0
11
17.600397
21
-17.1
31
0
39
0
210
0
220
0
230
1
0
LINE
5
128
100
AcDbEntity
8
0
62
256
6
ByLayer
370
-2
48
1
60
0
100
AcDbLine
10
5.100397
20
-17.1
30
0
11
1.600397
21
-17.1
31
0
39
0
210
0
220
0
230
1
0
SOLID
5
129
100
AcDbEntity
8
0
62
256
6
ByLayer
370
-1
48
1
60
0
100
AcDbTrace
10
14.100397
20
-16.516667
30
0
11
14.100397
21
-17.683333
31
0
12
10.600397
22
-17.1
32
0
13
10.600397
23
-17.1
33
0
39
0
210
0
220
0
230
1
0
SOLID
5
12A
100
AcDbEntity
8
0
62
256
6
ByLayer
370
-1
48
1
60
0
100
AcDbTrace
10
5.100397
20
-17.683333
30
0
11
5.100397
21
-16.516667
31
0
12
8.600397
22
-17.1
32
0
13
8.600397
23
-17.1
33
0
39
0
210
0
220
0
230
1
0
MTEXT
5
12B
100
AcDbEntity
8
0
62
256
6
ByLayer
370
18
48
1
60
0
100
AcDbMText
10
9.600397
20
-10.1
30
0
210
0
220
0
230
1
1
\A1;2
40
3.5
41
0
44
1
50
0
71
5
72
5
7
iso_b_vert
0
POINT
5
12C
100
AcDbEntity
8
Defpoints
62
0
6
ByLayer
370
-1
48
1
60
0
100
AcDbPoint
10
10.600397
20
-0.5001
30
0
39
0
210
0
220
0
230
1
50
360
0
POINT
5
12D
100
AcDbEntity
8
Defpoints
62
0
6
ByLayer
370
-1
48
1
60
0
100
AcDbPoint
10
8.600397
20
-0.5001
30
0
39
0
210
0
220
0
230
1
50
360
0
POINT
5
12E
100
AcDbEntity
8
Defpoints
62
0
6
ByLayer
370
-1
48
1
60
0
100
AcDbPoint
10
8.600397
20
-17.1
30
0
39
0
210
0
220
0
230
1
50
360
0
ENDBLK
5
124
100
AcDbEntity
8
0
100
AcDbBlockEnd
0
BLOCK
5
136
100
AcDbEntity
8
0
100
AcDbBlockBegin
2
_U0
70
0
10
0
20
0
30
0
3
_U0
0
MTEXT
5
130
100
AcDbEntity
8
SK2
62
256
6
ByLayer
370
18
48
1
60
0
100
AcDbMText
10
9.003164
20
-16.067366
30
0
210
0
220
0
230
1
1
\W0.5404;2
40
3.5
41
0
44
1.084337
50
0
71
7
72
5
7
iso_b_vert
0
LINE
5
131
100
AcDbEntity
8
SK2
62
256
6
ByLayer
370
13
48
1
60
0
100
AcDbLine
10
10.600397
20
-2.0876
30
0
11
10.600397
21
-19.1
31
0
39
0
210
0
220
0
230
1
0
LINE
5
132
100
AcDbEntity
8
SK2
62
256
6
ByLayer
370
13
48
1
60
0
100
AcDbLine
10
8.600397
20
-2.0876
30
0
11
8.600397
21
-19.1
31
0
39
0
210
0
220
0
230
1
0
LINE
5
133
100
AcDbEntity
8
SK2
62
256
6
ByLayer
370
13
48
1
60
0
100
AcDbLine
10
19.350397
20
-17.1
30
0
11
-0.149603
21
-17.1
31
0
39
0
210
0
220
0
230
1
0
SOLID
5
134
100
AcDbEntity
8
SK2
62
256
6
ByLayer
370
18
48
1
60
0
100
AcDbTrace
10
10.600397
20
-17.1
30
0
11
14.100396
21
-16.639216
31
0
12
14.100399
22
-17.560784
32
0
13
14.100399
23
-17.560784
33
0
39
0
210
0
220
0
230
1
0
SOLID
5
135
100
AcDbEntity
8
SK2
62
256
6
ByLayer
370
18
48
1
60
0
100
AcDbTrace
10
8.600397
20
-17.1
30
0
11
5.100399
21
-17.560784
31
0
12
5.100396
22
-16.639216
32
0
13
5.100396
23
-16.639216
33
0
39
0
210
0
220
0
230
1
0
ENDBLK
5
137
100
AcDbEntity
8
0
100
AcDbBlockEnd
0
ENDSEC
0
SECTION
2
ENTITIES
0
ARC
5
C1
100
AcDbEntity
8
1
62
256
6
ByLayer
370
18
48
1
60
0
100
AcDbCircle
39
0
10
4.598076
20
1.5
30
0
40
1
210
0
220
0
230
1
100
AcDbArc
50
240
51
270
0
ARC
5
C2
100
AcDbEntity
8
1
62
256
6
ByLayer
370
18
48
1
60
0
100
AcDbCircle
39
0
10
4.598076
20
-1.5
30
0
40
1
210
0
220
0
230
1
100
AcDbArc
50
90
51
120
0
ELLIPSE
5
C3
100
AcDbEntity
8
1
62
256
6
ByLayer
370
18
48
1
60
0
100
AcDbEllipse
10
10.570397
20
-0.131952
30
0
11
0.0470975403798836
21
-0.0887447932519976
31
0
210
0
220
0
230
1
40
0.994026
41
2.65119648392495
42
2.97821347031239
0
ELLIPSE
5
C4
100
AcDbEntity
8
1
62
256
6
ByLayer
370
18
48
1
60
0
100
AcDbEllipse
10
10.570397
20
-0.128823
30
0
11
0.0470970854200793
21
0.0887450093135929
31
0
210
0
220
0
230
1
40
0.994026
41
2.84092000388426
42
2.93385212081187
0
ELLIPSE
5
C5
100
AcDbEntity
8
1
62
256
6
ByLayer
370
18
48
1
60
0
100
AcDbEllipse
10
10.570397
20
-0.120045
30
0
11
0.0545407030127367
21
0.184696096075939
31
0
210
0
220
0
230
1
40
0.453811
41
1.41756983592922
42
1.59389764133538
0
ELLIPSE
5
C6
100
AcDbEntity
8
1
62
256
6
ByLayer
370
18
48
1
60
0
100
AcDbEllipse
10
9.258867
20
0
30
0
11
1.31584040887104
21
-0.477529001583448
31
0
210
0
220
0
230
1
40
0.112635
41
2.23251331103088
42
2.75243875578583
0
ELLIPSE
5
C7
100
AcDbEntity
8
1
62
256
6
ByLayer
370
18
48
1
60
0
100
AcDbEllipse
10
8.37819
20
0
30
0
11
1.27820256409241
21
0.472346887813957
31
0
210
0
220
0
230
1
40
0.128287
41
1.3488916657259
42
1.47057804592321
0
POINT
5
70
100
AcDbEntity
8
81
62
256
6
ByLayer
370
18
48
1
60
0
100
AcDbPoint
10
10.600397
20
0
30
0
39
0
210
0
220
0
230
1
50
360
0
POINT
5
72
100
AcDbEntity
8
80
62
256
6
ByLayer
370
18
48
1
60
0
100
AcDbPoint
10
0
20
0
30
0
39
0
210
0
220
0
230
1
50
360
0
POINT
5
74
100
AcDbEntity
8
1
62
256
6
ByLayer
370
18
48
1
60
1
100
AcDbPoint
10
10.600397
20
-0.5001
30
0
39
0
210
0
220
0
230
1
50
360
0
POINT
5
76
100
AcDbEntity
8
1
62
256
6
ByLayer
370
18
48
1
60
1
100
AcDbPoint
10
8.600397
20
-0.5001
30
0
39
0
210
0
220
0
230
1
50
360
0
SPLINE
5
C8
100
AcDbEntity
8
1
62
256
6
ByLayer
370
18
48
1
60
0
100
AcDbSpline
70
4
71
3
72
8
73
4
40
0
40
0
40
0
40
0
40
1
40
1
40
1
40
1
41
1
10
10.5978690944221
20
0.499999765698789
30
0
41
1
10
10.5971368959208
20
0.488504023624444
30
0
41
1
10
10.5964090527664
20
0.477001976061018
30
0
41
1
10
10.5956855031331
20
0.465493949310741
30
0
0
SPLINE
5
C9
100
AcDbEntity
8
1
62
256
6
ByLayer
370
18
48
1
60
0
100
AcDbSpline
70
4
71
3
72
18
73
14
40
0
40
0
40
0
40
0
40
0.114227646047906
40
0.114227646047906
40
0.261856371706588
40
0.261856371706588
40
0.409485097365271
40
0.409485097365271
40
0.557113823023953
40
0.557113823023953
40
0.704742548682636
40
0.704742548682636
40
1
40
1
40
1
40
1
41
1
10
9.75245664622625
20
0.309630119001497
30
0
41
1
10
9.78471425252661
20
0.323045202815166
30
0
41
1
10
9.81691038129887
20
0.335925375887541
30
0
41
1
10
9.89063516101658
20
0.364070425830164
30
0
41
1
10
9.93214965504524
20
0.378931048135513
30
0
41
1
10
10.0152614532381
20
0.406409724378136
30
0
41
1
10
10.0569227417174
20
0.419032750326579
30
0
41
1
10
10.1400917088584
20
0.441647715774366
30
0
41
1
10
10.1816224903726
20
0.451659740157197
30
0
41
1
10
10.2647608821274
20
0.468973559636112
30
0
41
1
10
10.3064199354612
20
0.476282077565713
30
0
41
1
10
10.4313840019229
20
0.493912274477111
30
0
41
1
10
10.5144852911338
20
0.499931752860448
30
0
41
1
10
10.5978690944467
20
0.499999765694667
30
0
0
SPLINE
5
CA
100
AcDbEntity
8
1
62
256
6
ByLayer
370
18
48
1
60
0
100
AcDbSpline
70
4
71
3
72
12
73
8
40
0
40
0
40
0
40
0
40
0.426238652858513
40
0.426238652858513
40
0.712907991017289
40
0.712907991017289
40
1
40
1
40
1
40
1
41
1
10
10.2241998287532
20
0.275276475990211
30
0
41
1
10
10.2251957007226
20
0.27517210578614
30
0
41
1
10
10.226208141514
20
0.275093967912397
30
0
41
1
10
10.2279272996869
20
0.275004154054386
30
0
41
1
10
10.2286259325619
20
0.274979068251184
30
0
41
1
10
10.2300378714454
20
0.274949658328211
30
0
41
1
10
10.2307514580065
20
0.274945359045944
30
0
41
1
10
10.2314716693215
20
0.274950756748552
30
0
0
SPLINE
5
CB
100
AcDbEntity
8
1
62
256
6
ByLayer
370
18
48
1
60
0
100
AcDbSpline
70
4
71
3
72
18
73
14
40
0
40
0
40
0
40
0
40
0.250000000000002
40
0.250000000000002
40
0.375000000000001
40
0.375000000000001
40
0.5
40
0.5
40
0.749999999999998
40
0.749999999999998
40
0.874999999999999
40
0.874999999999999
40
1
40
1
40
1
40
1
41
1
10
10.5956855031343
20
0.465493949310428
30
0
41
1
10
10.5949360313642
20
0.453572194082113
30
0
41
1
10
10.5943817113977
20
0.441603906657292
30
0
41
1
10
10.5938318300324
20
0.423584330864941
30
0
41
1
10
10.5936957855619
20
0.417566539424968
30
0
41
1
10
10.5935200977368
20
0.405507970564059
30
0
41
1
10
10.5934812390832
20
0.399472476694939
30
0
41
1
10
10.5935106296734
20
0.381738454277439
30
0
41
1
10
10.5937210028383
20
0.370270253235816
30
0
41
1
10
10.5943132722091
20
0.353582096101036
30
0
41
1
10
10.594558781445
20
0.348079046319924
30
0
41
1
10
10.5951340152823
20
0.337428262416808
30
0
41
1
10
10.5954635034647
20
0.332270801787814
30
0
41
1
10
10.5958329957592
20
0.327273783973709
30
0
0
SPLINE
5
CC
100
AcDbEntity
8
1
62
256
6
ByLayer
370
18
48
1
60
0
100
AcDbSpline
70
4
71
3
72
10
73
6
40
0
40
0
40
0
40
0
40
0.650505658197575
40
0.978852689222205
40
1
40
1
40
1
40
1
41
1
10
10.5956855031346
20
0.4654939493104
30
0
41
1
10
10.4305894318205
20
0.463944531288092
30
0
41
1
10
10.1821600271732
20
0.425948450303906
30
0
41
1
10
9.92836350867475
20
0.347219819003271
30
0
41
1
10
9.83966306149046
20
0.315597218727561
30
0
41
1
10
9.83429594763945
20
0.313668958320619
30
0
0
SPLINE
5
CD
100
AcDbEntity
8
1
62
256
6
ByLayer
370
18
48
1
60
0
100
AcDbSpline
70
4
71
3
72
12
73
8
40
0
40
0
40
0
40
0
40
0.5
40
0.5
40
0.75
40
0.75
40
1
40
1
40
1
40
1
41
1
10
10.2314716693215
20
0.274950756748552
30
0
41
1
10
10.2380172665006
20
0.274996493661632
30
0
41
1
10
10.2450081727905
20
0.275397872900953
30
0
41
1
10
10.2561314452368
20
0.27610201239284
30
0
41
1
10
10.2599309485806
20
0.276353813762626
30
0
41
1
10
10.2674978413901
20
0.276817784170959
30
0
41
1
10
10.2712952168043
20
0.27703208190664
30
0
41
1
10
10.2751074746348
20
0.277205374615676
30
0
0
SPLINE
5
CE
100
AcDbEntity
8
1
62
256
6
ByLayer
370
18
48
1
60
0
100
AcDbSpline
70
4
71
3
72
16
73
12
40
0
40
0
40
0
40
0
40
0.125
40
0.125
40
0.25
40
0.25
40
0.5
40
0.5
40
0.75
40
0.75
40
1
40
1
40
1
40
1
41
1
10
10.5958329957607
20
0.327273783974022
30
0
41
1
10
10.5830881021247
20
0.322140743152374
30
0
41
1
10
10.5701503969198
20
0.317910453848214
30
0
41
1
10
10.5440564229395
20
0.310473198663743
30
0
41
1
10
10.5308969470826
20
0.30728124846766
30
0
41
1
10
10.4911954462568
20
0.298749835829227
30
0
41
1
10
10.4644352095696
20
0.294432049423961
30
0
41
1
10
10.4105901881861
20
0.287316023440752
30
0
41
1
10
10.3834975992031
20
0.284546549289075
30
0
41
1
10
10.3293408166427
20
0.280106755590964
30
0
41
1
10
10.3022349727391
20
0.278438501503104
30
0
41
1
10
10.2751074746347
20
0.277205374614965
30
0
0
SPLINE
5
CF
100
AcDbEntity
8
1
62
256
6
ByLayer
370
13
48
1
60
0
100
AcDbSpline
70
4
71
3
72
10
73
6
40
0
40
0
40
0
40
0
40
0.181648163435515
40
0.45443210895701
40
1
40
1
40
1
40
1
41
1
10
9.5168735118751
20
-0.207048242144424
30
0
41
1
10
9.46138143764756
20
-0.196377457983971
30
0
41
1
10
9.32255603008664
20
-0.166870796126943
30
0
41
1
10
9.01706395585913
20
-0.0885953514038249
30
0
41
1
10
8.76706395585916
20
-0.0141999447930345
30
0
41
1
10
8.60039728919247
20
0.0339081989154408
30
0
0
SPLINE
5
D0
100
AcDbEntity
8
1
62
256
6
ByLayer
370
18
48
1
60
0
100
AcDbSpline
70
4
71
3
72
8
73
4
40
0
40
0
40
0
40
0
40
1
40
1
40
1
40
1
41
1
10
8.90857040185685
20
-0.393334404156633
30
0
41
1
10
8.80584603096872
20
-0.412203642085217
30
0
41
1
10
8.70312166008057
20
-0.42400381032482
30
0
41
1
10
8.60039728919247
20
-0.42727112440943
30
0
0
SPLINE
5
D1
100
AcDbEntity
8
1
62
256
6
ByLayer
370
18
48
1
60
0
100
AcDbSpline
70
4
71
3
72
20
73
16
40
0
40
0
40
0
40
0
40
0.125
40
0.125
40
0.25
40
0.25
40
0.375
40
0.375
40
0.5
40
0.5
40
0.625
40
0.625
40
0.75
40
0.75
40
1
40
1
40
1
40
1
41
1
10
10.4958865945759
20
-0.067394461685268
30
0
41
1
10
10.4960043420856
20
-0.0670788750879581
30
0
41
1
10
10.4963274620636
20
-0.0665369500021313
30
0
41
1
10
10.4973812511415
20
-0.0650420567018841
30
0
41
1
10
10.4981215528434
20
-0.0640774418970125
30
0
41
1
10
10.500027260812
20
-0.0618087268698844
30
0
41
1
10
10.5011803368703
20
-0.0605182638494455
30
0
41
1
10
10.5039361942423
20
-0.0576817891265193
30
0
41
1
10
10.5055618503002
20
-0.0561164549223179
30
0
41
1
10
10.5092088214075
20
-0.0529126135548665
30
0
41
1
10
10.5112344480884
20
-0.0512663804774434
30
0
41
1
10
10.5157559568508
20
-0.0479514896066178
30
0
41
1
10
10.5182567863527
20
-0.0462860835953904
30
0
41
1
10
10.5261377808252
20
-0.0416193967867287
30
0
41
1
10
10.5321123526703
20
-0.038840701824796
30
0
41
1
10
10.538275335864
20
-0.0367739256344919
30
0
0
SPLINE
5
D2
100
AcDbEntity
8
1
62
256
6
ByLayer
370
18
48
1
60
0
100
AcDbSpline
70
4
71
3
72
18
73
14
40
0
40
0
40
0
40
0
40
0.124999999999984
40
0.124999999999984
40
0.249999999999967
40
0.249999999999967
40
0.499999999999934
40
0.499999999999934
40
0.749999999999902
40
0.749999999999902
40
0.874999999999951
40
0.874999999999951
40
1
40
1
40
1
40
1
41
1
10
10.4731048593825
20
-0.149765401006931
30
0
41
1
10
10.4731570997451
20
-0.150177306037705
30
0
41
1
10
10.4733023192093
20
-0.150978578493408
30
0
41
1
10
10.4737872327764
20
-0.153225087271522
30
0
41
1
10
10.4741329922113
20
-0.15469055622367
30
0
41
1
10
10.4755062672437
20
-0.159778454621005
30
0
41
1
10
10.476886151454
20
-0.164137533828011
30
0
41
1
10
10.4808696686988
20
-0.173681018336197
30
0
41
1
10
10.4835307423111
20
-0.178983874387143
30
0
41
1
10
10.4886181477028
20
-0.186907066425221
30
0
41
1
10
10.4905179262506
20
-0.189579326072419
30
0
41
1
10
10.494670941756
20
-0.194794192993925
30
0
41
1
10
10.4968975921231
20
-0.197308526435648
30
0
41
1
10
10.499287126607
20
-0.199721494830925
30
0
0
SPLINE
5
D3
100
AcDbEntity
8
1
62
256
6
ByLayer
370
18
48
1
60
0
100
AcDbSpline
70
4
71
3
72
34
73
30
40
0
40
0
40
0
40
0
40
0.0624999999999944
40
0.0624999999999944
40
0.124999999999989
40
0.124999999999989
40
0.187499999999983
40
0.187499999999983
40
0.218749999999978
40
0.218749999999978
40
0.249999999999972
40
0.249999999999972
40
0.31249999999997
40
0.31249999999997
40
0.374999999999966
40
0.374999999999966
40
0.49999999999996
40
0.49999999999996
40
0.562499999999965
40
0.562499999999965
40
0.62499999999997
40
0.62499999999997
40
0.74999999999998
40
0.74999999999998
40
0.812499999999985
40
0.812499999999985
40
0.87499999999999
40
0.87499999999999
40
1
40
1
40
1
40
1
41
1
10
10.2067632487702
20
0.277551708329753
30
0
41
1
10
10.2047565052109
20
0.277971590773092
30
0
41
1
10
10.2033957666992
20
0.277623521164514
30
0
41
1
10
10.2020565101869
20
0.275284238319017
30
0
41
1
10
10.2020929735293
20
0.273263137568023
30
0
41
1
10
10.2036077694121
20
0.267640649710017
30
0
41
1
10
10.2050723534964
20
0.264040910722144
30
0
41
1
10
10.2083119913171
20
0.257478648741568
30
0
41
1
10
10.2095660745447
20
0.255096994981102
30
0
41
1
10
10.212424559733
20
0.24994309073719
30
0
41
1
10
10.2140339413642
20
0.247163332860424
30
0
41
1
10
10.2193000334428
20
0.238383671501793
30
0
41
1
10
10.2234123499231
20
0.231907943703618
30
0
41
1
10
10.2327378281528
20
0.217817156800294
30
0
41
1
10
10.237977105781
20
0.210165302561307
30
0
41
1
10
10.255095374305
20
0.185826259480791
30
0
41
1
10
10.2680909708599
20
0.168140284890171
30
0
41
1
10
10.2894876380181
20
0.13985646397083
30
0
41
1
10
10.2969763518353
20
0.130087318071332
30
0
41
1
10
10.3123975379553
20
0.110200297519469
30
0
41
1
10
10.3202871963945
20
0.100136394087997
30
0
41
1
10
10.344435208477
20
0.0696226073095829
30
0
41
1
10
10.3611682794112
20
0.0488535516419972
30
0
41
1
10
10.387101728532
20
0.0171393407503899
30
0
41
1
10
10.3959203702807
20
0.0064328666205711
30
0
41
1
10
10.4136515160632
20
-0.0149478847376088
30
0
41
1
10
10.4225472756714
20
-0.0256026718755322
30
0
41
1
10
10.4493189301418
20
-0.0574675588691207
30
0
41
1
10
10.467278619246
20
-0.0785788697494638
30
0
41
1
10
10.4853426712572
20
-0.099567142287043
30
0
0
SPLINE
5
D4
100
AcDbEntity
8
1
62
256
6
ByLayer
370
18
48
1
60
0
100
AcDbSpline
70
4
71
3
72
12
73
8
40
0
40
0
40
0
40
0
40
0.249999999999913
40
0.249999999999913
40
0.499999999999826
40
0.499999999999826
40
1
40
1
40
1
40
1
41
1
10
10.2067632487702
20
0.277551708329753
30
0
41
1
10
10.207164316869
20
0.277467790555392
30
0
41
1
10
10.2078922124988
20
0.277342561900298
30
0
41
1
10
10.2099207974262
20
0.277029618827527
30
0
41
1
10
10.2112419397286
20
0.276839241810961
30
0
41
1
10
10.2158441583638
20
0.276220725215069
30
0
41
1
10
10.2197771343807
20
0.275743654991658
30
0
41
1
10
10.2241998287533
20
0.275276475990211
30
0
0
SPLINE
5
D5
100
AcDbEntity
8
1
62
256
6
ByLayer
370
18
48
1
60
0
100
AcDbSpline
70
4
71
3
72
8
73
4
40
0
40
0
40
0
40
0
40
1
40
1
40
1
40
1
41
1
10
10.2241998287533
20
0.275276475990211
30
0
41
1
10
10.1981513278301
20
0.275503839473544
30
0
41
1
10
10.1721028269069
20
0.275410911124112
30
0
41
1
10
10.1460543259837
20
0.274994524273978
30
0
0
SPLINE
5
D6
100
AcDbEntity
8
1
62
256
6
ByLayer
370
18
48
1
60
0
100
AcDbSpline
70
4
71
3
72
20
73
16
40
0
40
0
40
0
40
0
40
0.249999999999968
40
0.249999999999968
40
0.374999999999973
40
0.374999999999973
40
0.499999999999979
40
0.499999999999979
40
0.624999999999984
40
0.624999999999984
40
0.749999999999989
40
0.749999999999989
40
0.874999999999995
40
0.874999999999995
40
1
40
1
40
1
40
1
41
1
10
10.4853426712572
20
-0.0995671422870146
30
0
41
1
10
10.4799888414528
20
-0.108284329908116
30
0
41
1
10
10.4760375699829
20
-0.117604005973675
30
0
41
1
10
10.4722494930019
20
-0.132424149138103
30
0
41
1
10
10.4713610698742
20
-0.137492793258161
30
0
41
1
10
10.4703777764539
20
-0.147542358318816
30
0
41
1
10
10.4702695433236
20
-0.152569806014554
30
0
41
1
10
10.4708224780342
20
-0.162629899736714
30
0
41
1
10
10.4714940862366
20
-0.167674455284782
30
0
41
1
10
10.4735574111021
20
-0.177416891595044
30
0
41
1
10
10.4749488434663
20
-0.182160810915491
30
0
41
1
10
10.4784396905537
20
-0.19140314001811
30
0
41
1
10
10.4805534279379
20
-0.195917673088161
30
0
41
1
10
10.4853807516995
20
-0.204469510420665
30
0
41
1
10
10.4881023526042
20
-0.208536811873927
30
0
41
1
10
10.4911343224452
20
-0.212400174638816
30
0
0
SPLINE
5
D7
100
AcDbEntity
8
1
62
256
6
ByLayer
370
18
48
1
60
0
100
AcDbSpline
70
4
71
3
72
14
73
10
40
0
40
0
40
0
40
0
40
0.25
40
0.25
40
0.5
40
0.5
40
0.75
40
0.75
40
1
40
1
40
1
40
1
41
1
10
10.5355259303086
20
-0.251369508443389
30
0
41
1
10
10.5374938149928
20
-0.265304809861704
30
0
41
1
10
10.5395820383579
20
-0.278642410721346
30
0
41
1
10
10.5439590244074
20
-0.303870672017467
30
0
41
1
10
10.5462393129515
20
-0.315720721061837
30
0
41
1
10
10.5509825549873
20
-0.337900364480532
30
0
41
1
10
10.5534320773167
20
-0.348160078375173
30
0
41
1
10
10.5584402052919
20
-0.366870437458544
30
0
41
1
10
10.5610053518119
20
-0.375352140061494
30
0
41
1
10
10.5636325238476
20
-0.382946881132966
30
0
0
SPLINE
5
D8
100
AcDbEntity
8
1
62
256
6
ByLayer
370
18
48
1
60
0
100
AcDbSpline
70
4
71
3
72
8
73
4
40
0
40
0
40
0
40
0
40
1
40
1
40
1
40
1
41
1
10
10.5061185282238
20
-0.227554592366346
30
0
41
1
10
10.5160246314635
20
-0.235597708794671
30
0
41
1
10
10.5258287409143
20
-0.243537674863461
30
0
41
1
10
10.5355259303086
20
-0.251369508443332
30
0
0
SPLINE
5
D9
100
AcDbEntity
8
1
62
256
6
ByLayer
370
18
48
1
60
0
100
AcDbSpline
70
4
71
3
72
8
73
4
40
0
40
0
40
0
40
0
40
1
40
1
40
1
40
1
41
1
10
10.4911343224504
20
-0.212400174641885
30
0
41
1
10
10.4955388303856
20
-0.217959773493021
30
0
41
1
10
10.5005208917906
20
-0.223009672889674
30
0
41
1
10
10.5061185282236
20
-0.227554592366573
30
0
0
SPLINE
5
DA
100
AcDbEntity
8
1
62
256
6
ByLayer
370
18
48
1
60
0
100
AcDbSpline
70
4
71
3
72
13
73
9
40
0
40
0
40
0
40
0
40
0.2066585814871
40
0.33888215123925
40
0.4711057209914
40
0.60332929074355
40
0.7355528604957
40
1
40
1
40
1
40
1
41
1
10
10.4911343224508
20
-0.212400174641061
30
0
41
1
10
10.360888644698
20
-0.160060363757196
30
0
41
1
10
10.1473096336119
20
-0.0667967840042536
30
0
41
1
10
9.85039728919247
20
0.0683798109837141
30
0
41
1
10
9.60039728919247
20
0.178427420718066
30
0
41
1
10
9.35039728919247
20
0.276169676874048
30
0
41
1
10
9.01706395585913
20
0.380325647758525
30
0
41
1
10
8.76706395585916
20
0.421970022609173
30
0
41
1
10
8.60039728919247
20
0.427271124409373
30
0
0
SPLINE
5
DB
100
AcDbEntity
8
1
62
256
6
ByLayer
370
18
48
1
60
0
100
AcDbSpline
70
4
71
3
72
12
73
8
40
0
40
0
40
0
40
0
40
0.250000000000025
40
0.250000000000025
40
0.50000000000005
40
0.50000000000005
40
1
40
1
40
1
40
1
41
1
10
10.5636325241205
20
-0.382946881109149
30
0
41
1
10
10.5639496248999
20
-0.383863973669605
30
0
41
1
10
10.5642523920924
20
-0.384953983923197
30
0
41
1
10
10.5648295686063
20
-0.387476121433423
30
0
41
1
10
10.565107194033
20
-0.388930608866161
30
0
41
1
10
10.5658601332366
20
-0.393675387104395
30
0
41
1
10
10.5662702098591
20
-0.397421101809613
30
0
41
1
10
10.5665303689499
20
-0.401478932516142
30
0
0
SPLINE
5
DC
100
AcDbEntity
8
1
62
256
6
ByLayer
370
13
48
1
60
0
100
AcDbSpline
70
4
71
3
72
13
73
9
40
0
40
0
40
0
40
0
40
0.281968802673366
40
0.434142461632825
40
0.586316120592284
40
0.738489779551743
40
0.890663438511202
40
1
40
1
40
1
40
1
41
1
10
10.5636325241888
20
-0.382946881055545
30
0
41
1
10
10.40922077919
20
-0.348547258742059
30
0
41
1
10
10.1714757008579
20
-0.276208040472881
30
0
41
1
10
9.85039728919241
20
-0.148551699849293
30
0
41
1
10
9.60039728919242
20
-0.0361252134854908
30
0
41
1
10
9.35039728919241
20
0.0808882977834457
30
0
41
1
10
9.12385573888053
20
0.181149338933722
30
0
41
1
10
8.98064752190194
20
0.237031227203772
30
0
41
1
10
8.92077263825678
20
0.258864429895795
30
0
0
SPLINE
5
DD
100
AcDbEntity
8
1
62
256
6
ByLayer
370
18
48
1
60
0
100
AcDbSpline
70
4
71
3
72
8
73
4
40
0
40
0
40
0
40
0
40
1
40
1
40
1
40
1
41
1
10
8.9207725389065
20
0.258864466123583
30
0
41
1
10
8.88794970434844
20
0.270833216635026
30
0
41
1
10
8.85512686979035
20
0.282341933084069
30
0
41
1
10
8.82230403523226
20
0.293354352781847
30
0
0
SPLINE
5
DE
100
AcDbEntity
8
1
62
256
6
ByLayer
370
18
48
1
60
0
100
AcDbSpline
70
4
71
3
72
18
73
14
40
0
40
0
40
0
40
0
40
0.250000000000006
40
0.250000000000006
40
0.375000000000006
40
0.375000000000006
40
0.500000000000006
40
0.500000000000006
40
0.750000000000005
40
0.750000000000005
40
0.875000000000003
40
0.875000000000003
40
1
40
1
40
1
40
1
41
1
10
10.5956855031343
20
-0.465493949310513
30
0
41
1
10
10.5949360313642
20
-0.453572194082199
30
0
41
1
10
10.5943817113977
20
-0.441603906657349
30
0
41
1
10
10.5938318300323
20
-0.423584330864998
30
0
41
1
10
10.5936957855619
20
-0.417566539425024
30
0
41
1
10
10.5935200977368
20
-0.405507970564116
30
0
41
1
10
10.5934812390832
20
-0.399472476694996
30
0
41
1
10
10.5935106296733
20
-0.381738454277496
30
0
41
1
10
10.5937210028383
20
-0.370270253235873
30
0
41
1
10
10.5943132722091
20
-0.353582096101064
30
0
41
1
10
10.594558781445
20
-0.348079046319953
30
0
41
1
10
10.5951340152823
20
-0.337428262416836
30
0
41
1
10
10.5954635034648
20
-0.332270801787843
30
0
41
1
10
10.5958329957593
20
-0.327273783973737
30
0
0
SPLINE
5
DF
100
AcDbEntity
8
1
62
256
6
ByLayer
370
13
48
1
60
0
100
AcDbSpline
70
4
71
3
72
10
73
6
40
0
40
0
40
0
40
0
40
0.550488066694521
40
0.825732100041781
40
1
40
1
40
1
40
1
41
1
10
8.60039728919247
20
0.0408827118092461
30
0
41
1
10
8.76706395585916
20
-0.0069690155808644
30
0
41
1
10
9.01706395585913
20
-0.0814888170284575
30
0
41
1
10
9.31982559003487
20
-0.160248177355641
30
0
41
1
10
9.45592055754389
20
-0.189991760688969
30
0
41
1
10
9.50868219171963
20
-0.200529958073247
30
0
0
SPLINE
5
E0
100
AcDbEntity
8
1
62
256
6
ByLayer
370
18
48
1
60
0
100
AcDbSpline
70
4
71
3
72
8
73
4
40
0
40
0
40
0
40
0
40
1
40
1
40
1
40
1
41
1
10
10.5926824356943
20
-0.499214403817405
30
0
41
1
10
10.5852409280648
20
-0.4875975232695
30
0
41
1
10
10.5778102107596
20
-0.474943644502701
30
0
41
1
10
10.5703959982118
20
-0.461276666434486
30
0
0
SPLINE
5
E1
100
AcDbEntity
8
1
62
256
6
ByLayer
370
18
48
1
60
0
100
AcDbSpline
70
4
71
3
72
8
73
4
40
0
40
0
40
0
40
0
40
1
40
1
40
1
40
1
41
1
10
10.5665303691885
20
-0.401478932412203
30
0
41
1
10
10.5678050357408
20
-0.421432107356566
30
0
41
1
10
10.5690934069698
20
-0.441364940136339
30
0
41
1
10
10.5703959982118
20
-0.461276666434458
30
0
0
SPLINE
5
E2
100
AcDbEntity
8
1
62
256
6
ByLayer
370
13
48
1
60
0
100
AcDbSpline
70
4
71
3
72
13
73
9
40
0
40
0
40
0
40
0
40
0.290740988303334
40
0.446673382262782
40
0.602605776222231
40
0.758538170181679
40
0.914470564141128
40
1
40
1
40
1
40
1
41
1
10
10.5665303692422
20
-0.401478932374403
30
0
41
1
10
10.4111526758923
20
-0.369325566921759
30
0
41
1
10
10.1724416492091
20
-0.298960990228522
30
0
41
1
10
9.85039728919259
20
-0.171081167986102
30
0
41
1
10
9.60039728919259
20
-0.0571857922051038
30
0
41
1
10
9.35039728919259
20
0.0627851560048782
30
0
41
1
10
9.13802201248501
20
0.160316234312745
30
0
41
1
10
9.00898006911075
20
0.21385642591332
30
0
41
1
10
8.96327145906983
20
0.232004352925486
30
0
0
SPLINE
5
E3
100
AcDbEntity
8
1
62
256
6
ByLayer
370
18
48
1
60
0
100
AcDbSpline
70
4
71
3
72
8
73
4
40
0
40
0
40
0
40
0
40
1
40
1
40
1
40
1
41
1
10
10.5978690944221
20
-0.499999765698874
30
0
41
1
10
10.5971368959208
20
-0.488504023624529
30
0
41
1
10
10.5964090527664
20
-0.477001976061104
30
0
41
1
10
10.5956855031331
20
-0.465493949310826
30
0
0
SPLINE
5
E4
100
AcDbEntity
8
1
62
256
6
ByLayer
370
18
48
1
60
0
100
AcDbSpline
70
4
71
3
72
8
73
4
40
0
40
0
40
0
40
0
40
1
40
1
40
1
40
1
41
1
10
10.597869094422
20
-0.499999765694753
30
0
41
1
10
10.5961417868431
20
-0.499796431594263
30
0
41
1
10
10.5944128536972
20
-0.499534641329973
30
0
41
1
10
10.5926824397279
20
-0.499214404090083
30
0
0
SPLINE
5
E5
100
AcDbEntity
8
1
62
256
6
ByLayer
370
18
48
1
60
0
100
AcDbSpline
70
4
71
3
72
34
73
30
40
0
40
0
40
0
40
0
40
0.0624999999999984
40
0.0624999999999984
40
0.124999999999997
40
0.124999999999997
40
0.250000000000002
40
0.250000000000002
40
0.312500000000005
40
0.312500000000005
40
0.375000000000007
40
0.375000000000007
40
0.43750000000001
40
0.43750000000001
40
0.500000000000013
40
0.500000000000013
40
0.625000000000009
40
0.625000000000009
40
0.687500000000008
40
0.687500000000008
40
0.750000000000006
40
0.750000000000006
40
0.812500000000005
40
0.812500000000005
40
0.875000000000003
40
0.875000000000003
40
0.937500000000002
40
0.937500000000002
40
1
40
1
40
1
40
1
41
1
10
10.570395998212
20
-0.461276666434458
30
0
41
1
10
10.5298320773288
20
-0.453597951233405
30
0
41
1
10
10.4891074500227
20
-0.444599384971553
30
0
41
1
10
10.4072846252701
20
-0.424326826404183
30
0
41
1
10
10.366126374219
20
-0.413042836546168
30
0
41
1
10
10.2425495194262
20
-0.376217517606364
30
0
41
1
10
10.1601279679563
20
-0.347769554990464
30
0
41
1
10
10.0362871216624
20
-0.299458812442765
30
0
41
1
10
9.99491354742133
20
-0.282350424143317
30
0
41
1
10
9.91243523577501
20
-0.24669538476229
30
0
41
1
10
9.87128884021433
20
-0.228142627517912
30
0
41
1
10
9.78907198932967
20
-0.189755406580389
30
0
41
1
10
9.74800192699084
20
-0.169919334481165
30
0
41
1
10
9.66579741587458
20
-0.129158221416503
30
0
41
1
10
9.62464679279688
20
-0.108219495000128
30
0
41
1
10
9.50164964893781
20
-0.0446692926662422
30
0
41
1
10
9.41998683010178
20
-0.0011895616424056
30
0
41
1
10
9.29684309233016
20
0.0635310513622187
30
0
41
1
10
9.25585496478988
20
0.0849265841831368
30
0
41
1
10
9.1739356369269
20
0.126919312683441
30
0
41
1
10
9.13297723467485
20
0.147529437017283
30
0
41
1
10
9.05092139896763
20
0.187733314438134
30
0
41
1
10
9.00981802741609
20
0.207333208626324
30
0
41
1
10
8.92742543279314
20
0.245341463342783
30
0
41
1
10
8.88634506384511
20
0.263656099217144
30
0
41
1
10
8.80438312050373
20
0.29876528823695
30
0
41
1
10
8.7634992476147
20
0.315552504007769
30
0
41
1
10
8.68184099201284
20
0.347568538226454
30
0
41
1
10
8.64107711916094
20
0.362794489069216
30
0
41
1
10
8.60039728919253
20
0.377171881006206
30
0
0
SPLINE
5
E6
100
AcDbEntity
8
1
62
256
6
ByLayer
370
18
48
1
60
0
100
AcDbSpline
70
4
71
3
72
8
73
4
40
0
40
0
40
0
40
0
40
1
40
1
40
1
40
1
41
1
10
8.95088207621603
20
0.0904013437653077
30
0
41
1
10
8.83405381387482
20
0.147283736451385
30
0
41
1
10
8.7172255515336
20
0.202133347160071
30
0
41
1
10
8.60039728919244
20
0.25088281826072
30
0
0
SPLINE
5
E7
100
AcDbEntity
8
1
62
256
6
ByLayer
370
18
48
1
60
0
100
AcDbSpline
70
4
71
3
72
8
73
4
40
0
40
0
40
0
40
0
40
1
40
1
40
1
40
1
41
1
10
8.49275351859316
20
0.41035651925867
30
0
41
1
10
8.50202474405808
20
0.406591170019084
30
0
41
1
10
8.51129903758792
20
0.402832160305536
30
0
41
1
10
8.52057639018392
20
0.399079471523834
30
0
0
SPLINE
5
E8
100
AcDbEntity
8
1
62
256
6
ByLayer
370
18
48
1
60
0
100
AcDbSpline
70
4
71
3
72
16
73
12
40
0
40
0
40
0
40
0
40
0.25000000000002
40
0.25000000000002
40
0.50000000000004
40
0.50000000000004
40
0.625000000000049
40
0.625000000000049
40
0.750000000000058
40
0.750000000000058
40
1
40
1
40
1
40
1
41
1
10
8.47478528461073
20
0.34204918566445
30
0
41
1
10
8.47216585498416
20
0.348523517543299
30
0
41
1
10
8.47043871333352
20
0.354919403527362
30
0
41
1
10
8.46909849045755
20
0.367556206410541
30
0
41
1
10
8.46953117496935
20
0.373832799061432
30
0
41
1
10
8.47188398394644
20
0.382609214679434
30
0
41
1
10
8.47294607580653
20
0.385451036174771
30
0
41
1
10
8.47561605992425
20
0.390975577191938
30
0
41
1
10
8.47723685411526
20
0.393674436921799
30
0
41
1
10
8.4827985089579
20
0.40140118418293
30
0
41
1
10
8.48741183083314
20
0.406065352287101
30
0
41
1
10
8.49275351860663
20
0.410356519249234
30
0
0
SPLINE
5
E9
100
AcDbEntity
8
1
62
256
6
ByLayer
370
18
48
1
60
0
100
AcDbSpline
70
4
71
3
72
18
73
14
40
0
40
0
40
0
40
0
40
0.249999999999722
40
0.249999999999722
40
0.374999999999768
40
0.374999999999768
40
0.499999999999814
40
0.499999999999814
40
0.62499999999986
40
0.62499999999986
40
0.749999999999907
40
0.749999999999907
40
1
40
1
40
1
40
1
41
1
10
8.06181822216061
20
0.498055879151735
30
0
41
1
10
8.05969935339155
20
0.498225887028212
30
0
41
1
10
8.05767818552491
20
0.498393509483805
30
0
41
1
10
8.05504440109618
20
0.498651141075953
30
0
41
1
10
8.05423290632831
20
0.49873815490858
30
0
41
1
10
8.05297803631453
20
0.498914615090172
30
0
41
1
10
8.05251002859032
20
0.499005553720338
30
0
41
1
10
8.05271063263561
20
0.499179623473793
30
0
41
1
10
8.05353195630332
20
0.49925206198634
30
0
41
1
10
8.05581331943677
20
0.499343297489815
30
0
41
1
10
8.05718577556675
20
0.499368788316559
30
0
41
1
10
8.06132495546734
20
0.499422530555535
30
0
41
1
10
8.06420685325489
20
0.499429298595459
30
0
41
1
10
8.0670679456303
20
0.499428707343497
30
0
0
SPLINE
5
EA
100
AcDbEntity
8
1
62
256
6
ByLayer
370
18
48
1
60
0
100
AcDbSpline
70
4
71
3
72
18
73
14
40
0
40
0
40
0
40
0
40
0.25
40
0.25
40
0.5
40
0.5
40
0.625
40
0.625
40
0.75
40
0.75
40
0.875
40
0.875
40
1
40
1
40
1
40
1
41
1
10
8.06706794563027
20
0.499428707343526
30
0
41
1
10
8.09209652484694
20
0.499423535124521
30
0
41
1
10
8.11699953152007
20
0.499470215761448
30
0
41
1
10
8.16640903639791
20
0.499669882355761
30
0
41
1
10
8.19091950589939
20
0.499835175723518
30
0
41
1
10
8.22717720216269
20
0.499989655701683
30
0
41
1
10
8.239241256529
20
0.500022113108088
30
0
41
1
10
8.26246272806259
20
0.499943733697421
30
0
41
1
10
8.2736825763688
20
0.499834421631874
30
0
41
1
10
8.29518913970145
20
0.499298217401332
30
0
41
1
10
8.30554647958778
20
0.498863619332269
30
0
41
1
10
8.32457132993426
20
0.497449811039104
30
0
41
1
10
8.33330101638541
20
0.496471499905226
30
0
41
1
10
8.34127976573103
20
0.495095043388744
30
0
0
SPLINE
5
EB
100
AcDbEntity
8
1
62
256
6
ByLayer
370
18
48
1
60
0
100
AcDbSpline
70
4
71
3
72
14
73
10
40
0
40
0
40
0
40
0
40
0.108173938713871
40
0.108173938713871
40
0.405449292475914
40
0.405449292475914
40
0.702724646237957
40
0.702724646237957
40
1
40
1
40
1
40
1
41
1
10
8.23801780173119
20
-0.499999779128785
30
0
41
1
10
8.24234203036232
20
-0.500001957527189
30
0
41
1
10
8.24662702374928
20
-0.499997183935136
30
0
41
1
10
8.26246272806247
20
-0.499943733697506
30
0
41
1
10
8.27368257636869
20
-0.49983442163196
30
0
41
1
10
8.29518913970134
20
-0.499298217401389
30
0
41
1
10
8.30554647958769
20
-0.498863619332354
30
0
41
1
10
8.32457132993414
20
-0.497449811039161
30
0
41
1
10
8.33330101638529
20
-0.496471499905311
30
0
41
1
10
8.34127976573092
20
-0.495095043388801
30
0
0
SPLINE
5
EC
100
AcDbEntity
8
1
62
256
6
ByLayer
370
18
48
1
60
0
100
AcDbSpline
70
4
71
3
72
34
73
30
40
0
40
0
40
0
40
0
40
0.0625000000000026
40
0.0625000000000026
40
0.125000000000005
40
0.125000000000005
40
0.187500000000008
40
0.187500000000008
40
0.250000000000011
40
0.250000000000011
40
0.312500000000014
40
0.312500000000014
40
0.375000000000016
40
0.375000000000016
40
0.500000000000022
40
0.500000000000022
40
0.625000000000027
40
0.625000000000027
40
0.687500000000023
40
0.687500000000023
40
0.750000000000018
40
0.750000000000018
40
0.812500000000014
40
0.812500000000014
40
0.875000000000009
40
0.875000000000009
40
0.937500000000005
40
0.937500000000005
40
1
40
1
40
1
40
1
41
1
10
8.34127976573095
20
-0.495095043388801
30
0
41
1
10
8.34065488115257
20
-0.493086325866017
30
0
41
1
10
8.33947783680591
20
-0.490479820277898
30
0
41
1
10
8.33632886847903
20
-0.484100283281663
30
0
41
1
10
8.3343470451226
20
-0.48031605814964
30
0
41
1
10
8.32974477887745
20
-0.471633917045608
30
0
41
1
10
8.32713019705932
20
-0.46674930577089
30
0
41
1
10
8.3213424946328
20
-0.455919685580767
30
0
41
1
10
8.3181602134311
20
-0.449958865714109
30
0
41
1
10
8.31130158676694
20
-0.437096352406741
30
0
41
1
10
8.3076225585595
20
-0.430190322998584
30
0
41
1
10
8.29974706645606
20
-0.415459446734843
30
0
41
1
10
8.29554767920288
20
-0.407629685942226
30
0
41
1
10
8.28221975981066
20
-0.383027090730565
30
0
41
1
10
8.27229260881751
20
-0.364994236488883
30
0
41
1
10
8.25016745546205
20
-0.326790707601248
30
0
41
1
10
8.23791171507722
20
-0.306525905770968
30
0
41
1
10
8.21749031930085
20
-0.275464399638764
30
0
41
1
10
8.21031444967241
20
-0.2649598915757
30
0
41
1
10
8.19522915205761
20
-0.243933440302669
30
0
41
1
10
8.18732586306785
20
-0.233417924679998
30
0
41
1
10
8.17068392185755
20
-0.212503661184968
30
0
41
1
10
8.16192742301163
20
-0.20208750973373
30
0
41
1
10
8.14362570067669
20
-0.181691758815248
30
0
41
1
10
8.13406606314015
20
-0.171692251872827
30
0
41
1
10
8.11403803695384
20
-0.152217358898895
30
0
41
1
10
8.10358734129696
20
-0.142763921621082
30
0
41
1
10
8.08192575038225
20
-0.124677105990145
30
0
41
1
10
8.0706921666343
20
-0.116021341305668
30
0
41
1
10
8.05903960060201
20
-0.107791982219908
30
0
0
SPLINE
5
ED
100
AcDbEntity
8
1
62
256
6
ByLayer
370
18
48
1
60
0
100
AcDbSpline
70
4
71
3
72
8
73
4
40
0
40
0
40
0
40
0
40
1
40
1
40
1
40
1
41
1
10
8.05903960059698
20
-0.107791982221158
30
0
41
1
10
8.05677118244944
20
-0.106189963623621
30
0
41
1
10
8.05463027434533
20
-0.104440053098926
30
0
41
1
10
8.05266471940234
20
-0.102486092215685
30
0
0
SPLINE
5
EE
100
AcDbEntity
8
1
62
256
6
ByLayer
370
18
48
1
60
0
100
AcDbSpline
70
4
71
3
72
30
73
26
40
0
40
0
40
0
40
0
40
0.0312499999999965
40
0.0312499999999965
40
0.062499999999993
40
0.062499999999993
40
0.0937499999999895
40
0.0937499999999895
40
0.124999999999986
40
0.124999999999986
40
0.187499999999989
40
0.187499999999989
40
0.249999999999993
40
0.249999999999993
40
0.312499999999996
40
0.312499999999996
40
0.375
40
0.375
40
0.500000000000007
40
0.500000000000007
40
0.625000000000013
40
0.625000000000013
40
0.75000000000002
40
0.75000000000002
40
1
40
1
40
1
40
1
41
1
10
8.05266471941798
20
-0.102486092193175
30
0
41
1
10
8.04848636691381
20
-0.0983323861949259
30
0
41
1
10
8.04473785992423
20
-0.0938554139220855
30
0
41
1
10
8.03839707341123
20
-0.0840265397434337
30
0
41
1
10
8.03583271111879
20
-0.0786561800702259
30
0
41
1
10
8.03249145782675
20
-0.0674667778982041
30
0
41
1
10
8.03169459759133
20
-0.061514979775211
30
0
41
1
10
8.03192117807555
20
-0.0498006634404362
30
0
41
1
10
8.03293079960346
20
-0.043878123027838
30
0
41
1
10
8.03790543807563
20
-0.0269519222687506
30
0
41
1
10
8.04377755335656
20
-0.0164373398137627
30
0
41
1
10
8.05744560561638
20
0.0026561039491071
30
0
41
1
10
8.06535930621311
20
0.0114243880165361
30
0
41
1
10
8.08225917861819
20
0.0278997263655469
30
0
41
1
10
8.0911885114254
20
0.0355352468133106
30
0
41
1
10
8.10965109507993
20
0.0500458607463372
30
0
41
1
10
8.11920122726653
20
0.0569213948334948
30
0
41
1
10
8.14843199256029
20
0.0766706741931671
30
0
41
1
10
8.16856464180754
20
0.0886164688825204
30
0
41
1
10
8.20957118026692
20
0.111092393684402
30
0
41
1
10
8.23046387010254
20
0.121604772992669
30
0
41
1
10
8.27273755078963
20
0.141615089432463
30
0
41
1
10
8.29406617847445
20
0.151082134749345
30
0
41
1
10
8.35847020537736
20
0.178289842644091
30
0
41
1
10
8.40195663760358
20
0.194856464339608
30
0
41
1
10
8.44578344524993
20
0.210412699974
30
0
0
SPLINE
5
EF
100
AcDbEntity
8
1
62
256
6
ByLayer
370
18
48
1
60
0
100
AcDbSpline
70
4
71
3
72
8
73
4
40
0
40
0
40
0
40
0
40
1
40
1
40
1
40
1
41
1
10
8.60039728919253
20
0.377171881006234
30
0
41
1
10
8.57368318518328
20
0.384670123746844
30
0
41
1
10
8.54707037053888
20
0.391983348983786
30
0
41
1
10
8.52057641998982
20
0.399079454306445
30
0
0
SPLINE
5
F0
100
AcDbEntity
8
1
62
256
6
ByLayer
370
18
48
1
60
0
100
AcDbSpline
70
4
71
3
72
14
73
10
40
0
40
0
40
0
40
0
40
0.142994184543584
40
0.285922955592422
40
0.42879875398432
40
0.571633359987822
40
0.714437982224993
40
0.857223408683588
40
1
40
1
40
1
40
1
41
1
10
8.52057642157956
20
0.399079456475505
30
0
41
1
10
8.51828745549327
20
0.396147319632689
30
0
41
1
10
8.5137105704211
20
0.390284387269588
30
0
41
1
10
8.50693174045119
20
0.381697825248096
30
0
41
1
10
8.50021869743057
20
0.373265500182527
30
0
41
1
10
8.49357705816698
20
0.365000170038144
30
0
41
1
10
8.48700694221617
20
0.356900746999116
30
0
41
1
10
8.48050237413827
20
0.348952573430893
30
0
41
1
10
8.47622558053519
20
0.343789775005632
30
0
41
1
10
8.47408724989455
20
0.341208455660166
30
0
0
SPLINE
5
F1
100
AcDbEntity
8
1
62
256
6
ByLayer
370
18
48
1
60
0
100
AcDbSpline
70
4
71
3
72
8
73
4
40
0
40
0
40
0
40
0
40
1
40
1
40
1
40
1
41
1
10
8.47478528303446
20
0.342049188835517
30
0
41
1
10
8.51668312671967
20
0.32585329647884
30
0
41
1
10
8.55852258465242
20
0.30862899772066
30
0
41
1
10
8.60039728919253
20
0.290504649422417
30
0
0
SPLINE
5
F2
100
AcDbEntity
8
1
62
256
6
ByLayer
370
18
48
1
60
0
100
AcDbSpline
70
4
71
3
72
8
73
4
40
0
40
0
40
0
40
0
40
1
40
1
40
1
40
1
41
1
10
8.60039728919247
20
0.290504649422417
30
0
41
1
10
8.60039728919247
20
0.290040931227821
30
0
41
1
10
8.60039728919247
20
0.289577214308167
30
0
41
1
10
8.60039728919247
20
0.289113498663483
30
0
0
SPLINE
5
F3
100
AcDbEntity
8
1
62
256
6
ByLayer
370
18
48
1
60
0
100
AcDbSpline
70
4
71
3
72
34
73
30
40
0
40
0
40
0
40
0
40
0.0624999999999939
40
0.0624999999999939
40
0.124999999999988
40
0.124999999999988
40
0.187499999999982
40
0.187499999999982
40
0.249999999999975
40
0.249999999999975
40
0.374999999999971
40
0.374999999999971
40
0.437499999999973
40
0.437499999999973
40
0.499999999999975
40
0.499999999999975
40
0.562499999999977
40
0.562499999999977
40
0.624999999999979
40
0.624999999999979
40
0.687499999999982
40
0.687499999999982
40
0.749999999999984
40
0.749999999999984
40
0.812499999999986
40
0.812499999999986
40
0.874999999999988
40
0.874999999999988
40
1
40
1
40
1
40
1
41
1
10
8.60039728919259
20
0.263935896694079
30
0
41
1
10
8.64208797806185
20
0.24510595059067
30
0
41
1
10
8.68373166085897
20
0.225524471316078
30
0
41
1
10
8.76705345835296
20
0.185075091041853
30
0
41
1
10
8.80871395574863
20
0.164217500135663
30
0
41
1
10
8.89181117063268
20
0.121705127465873
30
0
41
1
10
8.93329944917315
20
0.100027186228971
30
0
41
1
10
9.0163321803123
20
0.0561550560431954
30
0
41
1
10
9.05792209220982
20
0.0339362723022987
30
0
41
1
10
9.1827560097523
20
-0.0328013733318926
30
0
41
1
10
9.2656481831655
20
-0.0771473623674979
30
0
41
1
10
9.39059732867463
20
-0.141382021408873
30
0
41
1
10
9.43238464745406
20
-0.162433408745415
30
0
41
1
10
9.51576106767791
20
-0.203290794952096
30
0
41
1
10
9.55741199622412
20
-0.223130203400444
30
0
41
1
10
9.64073530967227
20
-0.261477898979734
30
0
41
1
10
9.68240378322116
20
-0.279991999183807
30
0
41
1
10
9.76588238598856
20
-0.315461141417302
30
0
41
1
10
9.8075064198043
20
-0.332335335104375
30
0
41
1
10
9.89063516101658
20
-0.364070425830249
30
0
41
1
10
9.93214965504524
20
-0.378931048135598
30
0
41
1
10
10.0152614532381
20
-0.406409724378221
30
0
41
1
10
10.0569227417174
20
-0.419032750326664
30
0
41
1
10
10.1400917088584
20
-0.441647715774451
30
0
41
1
10
10.1816224903726
20
-0.451659740157282
30
0
41
1
10
10.2647608821274
20
-0.468973559636197
30
0
41
1
10
10.3064199354612
20
-0.476282077565798
30
0
41
1
10
10.4313840019229
20
-0.493912274477196
30
0
41
1
10
10.5144852911338
20
-0.499931752860533
30
0
41
1
10
10.5978690944467
20
-0.499999765694753
30
0
0
SPLINE
5
F4
100
AcDbEntity
8
1
62
256
6
ByLayer
370
18
48
1
60
0
100
AcDbSpline
70
4
71
3
72
21
73
17
40
0
40
0
40
0
40
0
40
0.0362061551374177
40
0.08017405696766
40
0.124141958797902
40
0.212077762458387
40
0.300013566118872
40
0.387949369779356
40
0.475885173439841
40
0.563820977100326
40
0.65175678076081
40
0.695724682591052
40
0.739692584421295
40
0.82762838808178
40
0.915564191742264
40
1
40
1
40
1
40
1
41
1
10
8.60039727946469
20
0.28911349942635
30
0
41
1
10
8.62317502478174
20
0.279216930295803
30
0
41
1
10
8.67363425920306
20
0.256728918834824
30
0
41
1
10
8.75186297163248
20
0.220135408411068
30
0
41
1
10
8.86288351430184
20
0.165896223301644
30
0
41
1
10
9.0021215873534
20
0.0943578758640058
30
0
41
1
10
9.17031916968074
20
0.00502757858618
30
0
41
1
10
9.33996872873166
20
-0.0853227936052576
30
0
41
1
10
9.51126492812006
20
-0.173811920544779
30
0
41
1
10
9.68456527332359
20
-0.25743753379075
30
0
41
1
10
9.83114507855714
20
-0.32069528829328
30
0
41
1
10
9.94988606715401
20
-0.366027153842538
30
0
41
1
10
10.0697693507749
20
-0.407452547232197
30
0
41
1
10
10.2217464111278
20
-0.450635166006634
30
0
41
1
10
10.4057814838873
20
-0.485725873437246
30
0
41
1
10
10.5306775292351
20
-0.496972331534835
30
0
41
1
10
10.5926824316717
20
-0.499214403942148
30
0
0
SPLINE
5
F5
100
AcDbEntity
8
1
62
256
6
ByLayer
370
18
48
1
60
0
100
AcDbSpline
70
4
71
3
72
8
73
4
40
0
40
0
40
0
40
0
40
1
40
1
40
1
40
1
41
1
10
8.60039728433966
20
0.289113499416715
30
0
41
1
10
8.60039728433966
20
0.28474070945569
30
0
41
1
10
8.60039728919247
20
0.280367976906803
30
0
41
1
10
8.60039728919247
20
0.275995301627575
30
0
0
SPLINE
5
F6
100
AcDbEntity
8
1
62
256
6
ByLayer
370
18
48
1
60
0
100
AcDbSpline
70
4
71
3
72
8
73
4
40
0
40
0
40
0
40
0
40
1
40
1
40
1
40
1
41
1
10
8.46822429565958
20
0.333023021678031
30
0
41
1
10
8.51214586866351
20
0.31492478991521
30
0
41
1
10
8.55611513157316
20
0.295761955715847
30
0
41
1
10
8.60039728919253
20
0.275995301627575
30
0
0
SPLINE
5
F7
100
AcDbEntity
8
1
62
256
6
ByLayer
370
13
48
1
60
0
100
AcDbSpline
70
4
71
3
72
8
73
4
40
0
40
0
40
0
40
0
40
1
40
1
40
1
40
1
41
1
10
8.46245916578272
20
0.325019265058557
30
0
41
1
10
8.46438032934162
20
0.327711149851865
30
0
41
1
10
8.46630149290053
20
0.330378562305839
30
0
41
1
10
8.46822265645943
20
0.333020899955443
30
0
0
SPLINE
5
F8
100
AcDbEntity
8
1
62
256
6
ByLayer
370
18
48
1
60
0
100
AcDbSpline
70
4
71
3
72
10
73
6
40
0
40
0
40
0
40
0
40
0.5
40
0.5
40
1
40
1
40
1
40
1
41
1
10
8.60039728899164
20
0.267308803167225
30
0
41
1
10
8.57745933808297
20
0.277539952956659
30
0
41
1
10
8.55445935219177
20
0.287407571960813
30
0
41
1
10
8.50846747217724
20
0.306621888635277
30
0
41
1
10
8.48546457679333
20
0.315954050063084
30
0
41
1
10
8.46245661848087
20
0.325015296177668
30
0
0
SPLINE
5
F9
100
AcDbEntity
8
1
62
256
6
ByLayer
370
18
48
1
60
0
100
AcDbSpline
70
4
71
3
72
8
73
4
40
0
40
0
40
0
40
0
40
1
40
1
40
1
40
1
41
1
10
8.60039728919247
20
0.267308803446724
30
0
41
1
10
8.60039728919247
20
0.266184497403714
30
0
41
1
10
8.60039728919247
20
0.265060195152813
30
0
41
1
10
8.60039728919247
20
0.263935896694079
30
0
0
SPLINE
5
FA
100
AcDbEntity
8
1
62
256
6
ByLayer
370
18
48
1
60
0
100
AcDbSpline
70
4
71
3
72
12
73
8
40
0
40
0
40
0
40
0
40
0.388066736688802
40
0.605641009685678
40
0.743832882113001
40
0.911944551116494
40
1
40
1
40
1
40
1
41
1
10
8.90269501832051
20
-0.394405923235297
30
0
41
1
10
9.01030542049168
20
-0.385305914451209
30
0
41
1
10
9.17992280344342
20
-0.369450362307333
30
0
41
1
10
9.39304250315263
20
-0.343945249537228
30
0
41
1
10
9.54263632564349
20
-0.327967222341272
30
0
41
1
10
9.65549044865742
20
-0.316828144991689
30
0
41
1
10
9.72840473850815
20
-0.310281318199088
30
0
41
1
10
9.75343099550017
20
-0.308102298422369
30
0
0
SPLINE
5
FB
100
AcDbEntity
8
1
62
256
6
ByLayer
370
18
48
1
60
0
100
AcDbSpline
70
4
71
3
72
14
73
10
40
0
40
0
40
0
40
0
40
0.215583464354795
40
0.343611358221861
40
0.427528055877502
40
0.503696491503542
40
0.592746694673325
40
0.748516324832366
40
1
40
1
40
1
40
1
41
1
10
10.1820315099072
20
0.275364253514937
30
0
41
1
10
10.0917458903973
20
0.281581910466713
30
0
41
1
10
9.94652263697452
20
0.292430584997646
30
0
41
1
10
9.76405781512767
20
0.306899183775443
30
0
41
1
10
9.6390659297102
20
0.318417120923044
30
0
41
1
10
9.53149563429841
20
0.329158025022849
30
0
41
1
10
9.3926006286859
20
0.34407952128484
30
0
41
1
10
9.18023840198072
20
0.368643155345382
30
0
41
1
10
9.00533271259573
20
0.385567404564512
30
0
41
1
10
8.89749264374206
20
0.395341784817077
30
0
0
LINE
5
77
100
AcDbEntity
8
80
62
256
6
ByLayer
370
18
48
1
60
0
100
AcDbLine
10
0
20
0
30
0
11
-5
21
0
31
0
39
0
210
0
220
0
230
1
0
LINE
5
78
100
AcDbEntity
8
4
62
256
6
ByLayer
370
18
48
0.05
60
0
100
AcDbLine
10
0
20
0
30
0
11
10.600397
21
0
31
0
39
0
210
0
220
0
230
1
0
LINE
5
7A
100
AcDbEntity
8
81
62
256
6
ByLayer
370
18
48
1
60
0
100
AcDbLine
10
10.600397
20
0
30
0
11
15.600397
21
0
31
0
39
0
210
0
220
0
230
1
0
LINE
5
7B
100
AcDbEntity
8
SK4
62
256
6
ByLayer
370
18
48
0.05
60
0
100
AcDbLine
10
-39.399603
20
0
30
0
11
10.600397
21
0
31
0
39
0
210
0
220
0
230
1
0
LINE
5
7D
100
AcDbEntity
8
1
62
256
6
ByLayer
370
18
48
1
60
0
100
AcDbLine
10
10.586297
20
-0.031696
30
0
11
10.570397
21
-0.031617
31
0
39
0
210
0
220
0
230
1
0
LINE
5
7E
100
AcDbEntity
8
1
62
256
6
ByLayer
370
18
48
1
60
0
100
AcDbLine
10
10.586297
20
-0.031696
30
0
11
10.595833
21
0.327274
31
0
39
0
210
0
220
0
230
1
0
LINE
5
7F
100
AcDbEntity
8
1
62
256
6
ByLayer
370
13
48
1
60
0
100
AcDbLine
10
10.275107
20
0.277205
30
0
11
10.538275
21
-0.036774
31
0
39
0
210
0
220
0
230
1
0
LINE
5
80
100
AcDbEntity
8
1
62
256
6
ByLayer
370
18
48
1
60
0
100
AcDbLine
10
8.34128
20
0.495095
30
0
11
8.600397
21
0.427271
31
0
39
0
210
0
220
0
230
1
0
LINE
5
81
100
AcDbEntity
8
1
62
256
6
ByLayer
370
13
48
1
60
0
100
AcDbLine
10
8.067068
20
0.499429
30
0
11
8.077843
21
0.496608
31
0
39
0
210
0
220
0
230
1
0
LINE
5
82
100
AcDbEntity
8
1
62
256
6
ByLayer
370
18
48
1
60
0
100
AcDbLine
10
10.594578
20
-0.280039
30
0
11
10.595833
21
-0.327274
31
0
39
0
210
0
220
0
230
1
0
LINE
5
83
100
AcDbEntity
8
1
62
256
6
ByLayer
370
18
48
1
60
0
100
AcDbLine
10
10.535526
20
-0.25137
30
0
11
10.594578
21
-0.280039
31
0
39
0
210
0
220
0
230
1
0
LINE
5
84
100
AcDbEntity
8
1
62
256
6
ByLayer
370
18
48
1
60
0
100
AcDbLine
10
10.594578
20
-0.280039
30
0
11
10.506119
21
-0.206004
31
0
39
0
210
0
220
0
230
1
0
LINE
5
85
100
AcDbEntity
8
1
62
256
6
ByLayer
370
13
48
1
60
0
100
AcDbLine
10
10.506119
20
-0.227555
30
0
11
10.506119
21
-0.206004
31
0
39
0
210
0
220
0
230
1
0
LINE
5
86
100
AcDbEntity
8
1
62
256
6
ByLayer
370
18
48
1
60
0
100
AcDbLine
10
10.495887
20
-0.067394
30
0
11
10.206763
21
0.277552
31
0
39
0
210
0
220
0
230
1
0
LINE
5
87
100
AcDbEntity
8
1
62
256
6
ByLayer
370
18
48
1
60
0
100
AcDbLine
10
8.600397
20
0.37787
30
0
11
8.600397
21
0.427271
31
0
39
0
210
0
220
0
230
1
0
LINE
5
88
100
AcDbEntity
8
1
62
256
6
ByLayer
370
18
48
1
60
0
100
AcDbLine
10
8.34128
20
-0.495095
30
0
11
8.600397
21
-0.427271
31
0
39
0
210
0
220
0
230
1
0
LINE
5
89
100
AcDbEntity
8
1
62
256
6
ByLayer
370
18
48
1
60
0
100
AcDbLine
10
8.600397
20
-0.427271
30
0
11
8.600397
21
0.033908
31
0
39
0
210
0
220
0
230
1
0
LINE
5
8A
100
AcDbEntity
8
1
62
256
6
ByLayer
370
13
48
1
60
0
100
AcDbLine
10
8.05904
20
-0.107792
30
0
11
8.600397
21
0.033908
31
0
39
0
210
0
220
0
230
1
0
LINE
5
8B
100
AcDbEntity
8
1
62
256
6
ByLayer
370
13
48
1
60
0
100
AcDbLine
10
8.052665
20
-0.102486
30
0
11
8.600397
21
0.040883
31
0
39
0
210
0
220
0
230
1
0
LINE
5
8C
100
AcDbEntity
8
1
62
256
6
ByLayer
370
18
48
1
60
0
100
AcDbLine
10
8.600397
20
0.040883
30
0
11
8.600397
21
0.250883
31
0
39
0
210
0
220
0
230
1
0
LINE
5
8D
100
AcDbEntity
8
1
62
256
6
ByLayer
370
18
48
1
60
0
100
AcDbLine
10
8.600397
20
0.263914
30
0
11
8.600397
21
0.263936
31
0
39
0
210
0
220
0
230
1
0
LINE
5
8E
100
AcDbEntity
8
1
62
256
6
ByLayer
370
18
48
1
60
0
100
AcDbLine
10
8.600397
20
0.263914
30
0
11
8.600397
21
0.250883
31
0
39
0
210
0
220
0
230
1
0
LINE
5
8F
100
AcDbEntity
8
1
62
256
6
ByLayer
370
18
48
1
60
0
100
AcDbLine
10
8.600397
20
0.033908
30
0
11
8.600397
21
0.040883
31
0
39
0
210
0
220
0
230
1
0
LINE
5
90
100
AcDbEntity
8
1
62
256
6
ByLayer
370
13
48
1
60
0
100
AcDbLine
10
8.445783
20
0.210413
30
0
11
8.600397
21
0.250883
31
0
39
0
210
0
220
0
230
1
0
LINE
5
91
100
AcDbEntity
8
1
62
256
6
ByLayer
370
13
48
1
60
0
100
AcDbLine
10
4.598076
20
-0.5
30
0
11
4.598076
21
0
31
0
39
0
210
0
220
0
230
1
0
LINE
5
92
100
AcDbEntity
8
1
62
256
6
ByLayer
370
13
48
1
60
0
100
AcDbLine
10
4.598076
20
0
30
0
11
4.598076
21
0.5
31
0
39
0
210
0
220
0
230
1
0
LINE
5
93
100
AcDbEntity
8
1
62
256
6
ByLayer
370
13
48
1
60
0
100
AcDbLine
10
4.098076
20
0.633975
30
0
11
4.098076
21
0
31
0
39
0
210
0
220
0
230
1
0
LINE
5
94
100
AcDbEntity
8
1
62
256
6
ByLayer
370
13
48
1
60
0
100
AcDbLine
10
4.098076
20
0
30
0
11
4.098076
21
-0.633975
31
0
39
0
210
0
220
0
230
1
0
LINE
5
95
100
AcDbEntity
8
1
62
256
6
ByLayer
370
18
48
1
60
0
100
AcDbLine
10
0
20
3
30
0
11
0
21
0
31
0
39
0
210
0
220
0
230
1
0
LINE
5
96
100
AcDbEntity
8
1
62
256
6
ByLayer
370
18
48
1
60
0
100
AcDbLine
10
0
20
0
30
0
11
0
21
-3
31
0
39
0
210
0
220
0
230
1
0
LINE
5
97
100
AcDbEntity
8
SK1
62
256
6
ByLayer
370
18
48
1
60
0
100
AcDbLine
10
0
20
3
30
0
11
0
21
0
31
0
39
0
210
0
220
0
230
1
0
LINE
5
99
100
AcDbEntity
8
SK1
62
256
6
ByLayer
370
18
48
1
60
0
100
AcDbLine
10
0
20
0
30
0
11
0
21
-3
31
0
39
0
210
0
220
0
230
1
0
LINE
5
9A
100
AcDbEntity
8
SK1
62
256
6
ByLayer
370
18
48
1
60
0
100
AcDbLine
10
-38.999603
20
3
30
0
11
-38.999603
21
-3
31
0
39
0
210
0
220
0
230
1
0
LINE
5
9B
100
AcDbEntity
8
SK1
62
256
6
ByLayer
370
18
48
1
60
0
100
AcDbLine
10
-39.399603
20
-2.6
30
0
11
-39.399603
21
2.6
31
0
39
0
210
0
220
0
230
1
0
LINE
5
9C
100
AcDbEntity
8
1
62
256
6
ByLayer
370
18
48
1
60
0
100
AcDbLine
10
8.237757
20
0.5
30
0
11
4.598076
21
0.5
31
0
39
0
210
0
220
0
230
1
0
LINE
5
9D
100
AcDbEntity
8
1
62
256
6
ByLayer
370
18
48
1
60
0
100
AcDbLine
10
4.598076
20
-0.5
30
0
11
8.237757
21
-0.5
31
0
39
0
210
0
220
0
230
1
0
LINE
5
9E
100
AcDbEntity
8
1
62
256
6
ByLayer
370
18
48
1
60
0
100
AcDbLine
10
4.098076
20
0.633975
30
0
11
0
21
3
31
0
39
0
210
0
220
0
230
1
0
LINE
5
9F
100
AcDbEntity
8
1
62
256
6
ByLayer
370
18
48
1
60
0
100
AcDbLine
10
0
20
-3
30
0
11
4.098076
21
-0.633975
31
0
39
0
210
0
220
0
230
1
0
LINE
5
A0
100
AcDbEntity
8
SK1
62
256
6
ByLayer
370
18
48
1
60
0
100
AcDbLine
10
0
20
3
30
0
11
-38.999603
21
3
31
0
39
0
210
0
220
0
230
1
0
LINE
5
A1
100
AcDbEntity
8
SK1
62
256
6
ByLayer
370
18
48
1
60
0
100
AcDbLine
10
-38.999603
20
-3
30
0
11
0
21
-3
31
0
39
0
210
0
220
0
230
1
0
LINE
5
A2
100
AcDbEntity
8
SK1
62
256
6
ByLayer
370
18
48
1
60
0
100
AcDbLine
10
-39.399603
20
-2.6
30
0
11
-38.999603
21
-3
31
0
39
0
210
0
220
0
230
1
0
LINE
5
A3
100
AcDbEntity
8
SK1
62
256
6
ByLayer
370
18
48
1
60
0
100
AcDbLine
10
-38.999603
20
3
30
0
11
-39.399603
21
2.6
31
0
39
0
210
0
220
0
230
1
0
LINE
5
A4
100
AcDbEntity
8
SK2
62
256
6
ByLayer
370
18
48
1
60
0
100
AcDbLine
10
-47.249603
20
11.75
30
0
11
-47.249603
21
-19.315466
31
0
39
0
210
0
220
0
230
1
0
LINE
5
A6
100
AcDbEntity
8
SK2
62
256
6
ByLayer
370
18
48
1
60
0
100
AcDbLine
10
-40.587103
20
3
30
0
11
-49.249603
21
3
31
0
39
0
210
0
220
0
230
1
0
LINE
5
A7
100
AcDbEntity
8
SK2
62
256
6
ByLayer
370
18
48
1
60
0
100
AcDbLine
10
-40.587103
20
-3
30
0
11
-49.249603
21
-3
31
0
39
0
210
0
220
0
230
1
0
LINE
5
A8
100
AcDbEntity
8
1
62
256
6
ByLayer
370
18
48
1
60
1
100
AcDbLine
10
-47.249603
20
3
30
0
11
-47.710386
21
6.499998
31
0
39
0
210
0
220
0
230
1
0
LINE
5
A9
100
AcDbEntity
8
1
62
256
6
ByLayer
370
18
48
1
60
1
100
AcDbLine
10
-47.710386
20
6.499998
30
0
11
-46.788819
21
6.500002
31
0
39
0
210
0
220
0
230
1
0
LINE
5
AA
100
AcDbEntity
8
1
62
256
6
ByLayer
370
18
48
1
60
1
100
AcDbLine
10
-46.788819
20
6.500002
30
0
11
-47.249603
21
3
31
0
39
0
210
0
220
0
230
1
0
LINE
5
AB
100
AcDbEntity
8
1
62
256
6
ByLayer
370
18
48
1
60
1
100
AcDbLine
10
-47.249603
20
-3
30
0
11
-46.788819
21
-6.499998
31
0
39
0
210
0
220
0
230
1
0
LINE
5
AC
100
AcDbEntity
8
1
62
256
6
ByLayer
370
18
48
1
60
1
100
AcDbLine
10
-46.788819
20
-6.499998
30
0
11
-47.710386
21
-6.500002
31
0
39
0
210
0
220
0
230
1
0
LINE
5
AD
100
AcDbEntity
8
1
62
256
6
ByLayer
370
18
48
1
60
1
100
AcDbLine
10
-47.710386
20
-6.500002
30
0
11
-47.249603
21
-3
31
0
39
0
210
0
220
0
230
1
0
LINE
5
AE
100
AcDbEntity
8
2
62
256
6
ByLayer
370
18
48
1
60
0
100
AcDbLine
10
22.600397
20
15.9407
30
0
11
22.600397
21
-9.2501
31
0
39
0
210
0
220
0
230
1
0
LINE
5
B0
100
AcDbEntity
8
2
62
256
6
ByLayer
370
18
48
1
60
0
100
AcDbLine
10
12.187897
20
0.5001
30
0
11
24.600397
21
0.5001
31
0
39
0
210
0
220
0
230
1
0
LINE
5
B1
100
AcDbEntity
8
2
62
256
6
ByLayer
370
18
48
1
60
0
100
AcDbLine
10
12.046897
20
-0.5001
30
0
11
24.600397
21
-0.5001
31
0
39
0
210
0
220
0
230
1
0
LINE
5
B2
100
AcDbEntity
8
1
62
256
6
ByLayer
370
18
48
1
60
1
100
AcDbLine
10
22.600397
20
0.5001
30
0
11
22.139614
21
4.000098
31
0
39
0
210
0
220
0
230
1
0
LINE
5
B3
100
AcDbEntity
8
1
62
256
6
ByLayer
370
18
48
1
60
1
100
AcDbLine
10
22.139614
20
4.000098
30
0
11
23.061181
21
4.000102
31
0
39
0
210
0
220
0
230
1
0
LINE
5
B4
100
AcDbEntity
8
1
62
256
6
ByLayer
370
18
48
1
60
1
100
AcDbLine
10
23.061181
20
4.000102
30
0
11
22.600397
21
0.5001
31
0
39
0
210
0
220
0
230
1
0
LINE
5
B5
100
AcDbEntity
8
1
62
256
6
ByLayer
370
18
48
1
60
1
100
AcDbLine
10
22.600397
20
-0.5001
30
0
11
23.061181
21
-4.000098
31
0
39
0
210
0
220
0
230
1
0
LINE
5
B6
100
AcDbEntity
8
1
62
256
6
ByLayer
370
18
48
1
60
1
100
AcDbLine
10
23.061181
20
-4.000098
30
0
11
22.139614
21
-4.000102
31
0
39
0
210
0
220
0
230
1
0
LINE
5
B7
100
AcDbEntity
8
1
62
256
6
ByLayer
370
18
48
1
60
1
100
AcDbLine
10
22.139614
20
-4.000102
30
0
11
22.600397
21
-0.5001
31
0
39
0
210
0
220
0
230
1
0
LINE
5
B8
100
AcDbEntity
8
2
62
256
6
ByLayer
370
18
48
1
60
0
100
AcDbLine
10
10.600397
20
-33.1
30
0
11
-39.399603
21
-33.1
31
0
39
0
210
0
220
0
230
1
0
LINE
5
B9
100
AcDbEntity
8
2
62
256
6
ByLayer
370
18
48
1
60
0
100
AcDbLine
10
-39.399603
20
-4.1875
30
0
11
-39.399603
21
-35.1
31
0
39
0
210
0
220
0
230
1
0
LINE
5
BA
100
AcDbEntity
8
2
62
256
6
ByLayer
370
18
48
1
60
0
100
AcDbLine
10
10.600397
20
-2.0876
30
0
11
10.600397
21
-35.1
31
0
39
0
210
0
220
0
230
1
0
LINE
5
BB
100
AcDbEntity
8
1
62
256
6
ByLayer
370
18
48
1
60
1
100
AcDbLine
10
-39.399603
20
-33.1
30
0
11
-35.899604
21
-32.639216
31
0
39
0
210
0
220
0
230
1
0
LINE
5
BC
100
AcDbEntity
8
1
62
256
6
ByLayer
370
18
48
1
60
1
100
AcDbLine
10
-35.899604
20
-32.639216
30
0
11
-35.899601
21
-33.560784
31
0
39
0
210
0
220
0
230
1
0
LINE
5
BD
100
AcDbEntity
8
1
62
256
6
ByLayer
370
18
48
1
60
1
100
AcDbLine
10
-35.899601
20
-33.560784
30
0
11
-39.399603
21
-33.1
31
0
39
0
210
0
220
0
230
1
0
LINE
5
BE
100
AcDbEntity
8
1
62
256
6
ByLayer
370
18
48
1
60
1
100
AcDbLine
10
10.600397
20
-33.1
30
0
11
7.100399
21
-33.560784
31
0
39
0
210
0
220
0
230
1
0
LINE
5
BF
100
AcDbEntity
8
1
62
256
6
ByLayer
370
18
48
1
60
1
100
AcDbLine
10
7.100399
20
-33.560784
30
0
11
7.100396
21
-32.639216
31
0
39
0
210
0
220
0
230
1
0
LINE
5
C0
100
AcDbEntity
8
1
62
256
6
ByLayer
370
18
48
1
60
1
100
AcDbLine
10
7.100396
20
-32.639216
30
0
11
10.600397
21
-33.1
31
0
39
0
210
0
220
0
230
1
0
LINE
5
100
100
AcDbEntity
8
1
62
256
6
ByLayer
370
18
48
1
60
1
100
AcDbLine
10
-47.249603
20
3
30
0
11
-47.710386
21
6.499998
31
0
39
0
210
0
220
0
230
1
0
LINE
5
101
100
AcDbEntity
8
1
62
256
6
ByLayer
370
18
48
1
60
1
100
AcDbLine
10
-47.710386
20
6.499998
30
0
11
-46.788819
21
6.500002
31
0
39
0
210
0
220
0
230
1
0
LINE
5
102
100
AcDbEntity
8
1
62
256
6
ByLayer
370
18
48
1
60
1
100
AcDbLine
10
-46.788819
20
6.500002
30
0
11
-47.249603
21
3
31
0
39
0
210
0
220
0
230
1
0
LINE
5
104
100
AcDbEntity
8
1
62
256
6
ByLayer
370
18
48
1
60
1
100
AcDbLine
10
-47.249603
20
-3
30
0
11
-46.788819
21
-6.499998
31
0
39
0
210
0
220
0
230
1
0
LINE
5
105
100
AcDbEntity
8
1
62
256
6
ByLayer
370
18
48
1
60
1
100
AcDbLine
10
-46.788819
20
-6.499998
30
0
11
-47.710386
21
-6.500002
31
0
39
0
210
0
220
0
230
1
0
LINE
5
106
100
AcDbEntity
8
1
62
256
6
ByLayer
370
18
48
1
60
1
100
AcDbLine
10
-47.710386
20
-6.500002
30
0
11
-47.249603
21
-3
31
0
39
0
210
0
220
0
230
1
0
LINE
5
10A
100
AcDbEntity
8
1
62
256
6
ByLayer
370
18
48
1
60
1
100
AcDbLine
10
22.600397
20
0.5001
30
0
11
22.139614
21
4.000098
31
0
39
0
210
0
220
0
230
1
0
LINE
5
10B
100
AcDbEntity
8
1
62
256
6
ByLayer
370
18
48
1
60
1
100
AcDbLine
10
22.139614
20
4.000098
30
0
11
23.061181
21
4.000102
31
0
39
0
210
0
220
0
230
1
0
LINE
5
10C
100
AcDbEntity
8
1
62
256
6
ByLayer
370
18
48
1
60
1
100
AcDbLine
10
23.061181
20
4.000102
30
0
11
22.600397
21
0.5001
31
0
39
0
210
0
220
0
230
1
0
LINE
5
10E
100
AcDbEntity
8
1
62
256
6
ByLayer
370
18
48
1
60
1
100
AcDbLine
10
22.600397
20
-0.5001
30
0
11
23.061181
21
-4.000098
31
0
39
0
210
0
220
0
230
1
0
LINE
5
10F
100
AcDbEntity
8
1
62
256
6
ByLayer
370
18
48
1
60
1
100
AcDbLine
10
23.061181
20
-4.000098
30
0
11
22.139614
21
-4.000102
31
0
39
0
210
0
220
0
230
1
0
LINE
5
110
100
AcDbEntity
8
1
62
256
6
ByLayer
370
18
48
1
60
1
100
AcDbLine
10
22.139614
20
-4.000102
30
0
11
22.600397
21
-0.5001
31
0
39
0
210
0
220
0
230
1
0
LINE
5
113
100
AcDbEntity
8
1
62
256
6
ByLayer
370
18
48
1
60
1
100
AcDbLine
10
-39.399603
20
-33.1
30
0
11
-35.899604
21
-32.639216
31
0
39
0
210
0
220
0
230
1
0
LINE
5
114
100
AcDbEntity
8
1
62
256
6
ByLayer
370
18
48
1
60
1
100
AcDbLine
10
-35.899604
20
-32.639216
30
0
11
-35.899601
21
-33.560784
31
0
39
0
210
0
220
0
230
1
0
LINE
5
115
100
AcDbEntity
8
1
62
256
6
ByLayer
370
18
48
1
60
1
100
AcDbLine
10
-35.899601
20
-33.560784
30
0
11
-39.399603
21
-33.1
31
0
39
0
210
0
220
0
230
1
0
LINE
5
117
100
AcDbEntity
8
1
62
256
6
ByLayer
370
18
48
1
60
1
100
AcDbLine
10
10.600397
20
-33.1
30
0
11
7.100399
21
-33.560784
31
0
39
0
210
0
220
0
230
1
0
LINE
5
118
100
AcDbEntity
8
1
62
256
6
ByLayer
370
18
48
1
60
1
100
AcDbLine
10
7.100399
20
-33.560784
30
0
11
7.100396
21
-32.639216
31
0
39
0
210
0
220
0
230
1
0
LINE
5
119
100
AcDbEntity
8
1
62
256
6
ByLayer
370
18
48
1
60
1
100
AcDbLine
10
7.100396
20
-32.639216
30
0
11
10.600397
21
-33.1
31
0
39
0
210
0
220
0
230
1
0
MTEXT
5
FC
100
AcDbEntity
8
SK2
62
256
6
ByLayer
370
18
48
1
60
0
100
AcDbMText
10
-48.814236
20
-17.380622
30
0
210
0
220
0
230
1
1
%%c
40
3.5
41
0
44
1.084337
50
90
71
7
72
5
7
iso_b_vert
0
MTEXT
5
FF
100
AcDbEntity
8
SK2
62
256
6
ByLayer
370
18
48
1
60
0
100
AcDbMText
10
-48.814236
20
-10.407966
30
0
210
0
220
0
230
1
1
\W0.5404;6
40
3.5
41
0
44
1.084337
50
90
71
7
72
5
7
iso_b_vert
0
MTEXT
5
108
100
AcDbEntity
8
2
62
256
6
ByLayer
370
18
48
1
60
0
100
AcDbMText
10
21.035764
20
8.434944
30
0
210
0
220
0
230
1
1
%%c
40
3.5
41
0
44
1.084337
50
90
71
7
72
5
7
iso_b_vert
0
MTEXT
5
109
100
AcDbEntity
8
2
62
256
6
ByLayer
370
18
48
1
60
0
100
AcDbMText
10
21.035764
20
15.4076
30
0
210
0
220
0
230
1
1
\W0.3580;1
40
3.5
41
0
44
1.084337
50
90
71
7
72
5
7
iso_b_vert
0
MTEXT
5
112
100
AcDbEntity
8
2
62
256
6
ByLayer
370
18
48
1
60
0
100
AcDbMText
10
-16.304569
20
-32.067366
30
0
210
0
220
0
230
1
1
\W0.6740;50
40
3.5
41
0
44
1.084337
50
0
71
7
72
5
7
iso_b_vert
0
MTEXT
5
11B
100
AcDbEntity
8
SK6
62
256
6
ByLayer
370
18
48
1
60
0
100
AcDbMText
10
-33.451562
20
-62.114886
30
0
210
0
220
0
230
1
1
\W0.7283;1K232-0100-XA 1730
40
3
41
0
44
1.084337
50
0
71
7
72
5
7
iso_b_vert
0
HATCH
5
103
100
AcDbEntity
8
SK2
62
256
6
ByLayer
370
13
48
1
60
0
100
AcDbHatch
10
0
20
0
30
0
210
0
220
0
230
1
2
ANSI31
70
0
71
0
91
1
92
5
93
3
72
1
10
-47.2496027108076
20
3
11
-47.7103864523603
21
6.49999830744682
72
1
10
-47.7103864523603
20
6.49999830744682
11
-46.7888189692548
21
6.50000169255318
72
1
10
-46.7888189692548
20
6.50000169255318
11
-47.2496027108076
21
3
97
0
75
0
76
1
52
0
41
0.0062
77
0
78
1
53
45
43
0
44
0
45
-0.0139193969876572
46
0.0139193969876572
79
0
47
0
98
1
10
0
20
0
0
HATCH
5
107
100
AcDbEntity
8
SK2
62
256
6
ByLayer
370
13
48
1
60
0
100
AcDbHatch
10
0
20
0
30
0
210
0
220
0
230
1
2
ANSI31
70
0
71
0
91
1
92
5
93
3
72
1
10
-47.2496027108076
20
-3
11
-46.7888189692548
21
-6.49999830744682
72
1
10
-46.7888189692548
20
-6.49999830744682
11
-47.7103864523603
21
-6.50000169255318
72
1
10
-47.7103864523603
20
-6.50000169255318
11
-47.2496027108076
21
-3
97
0
75
0
76
1
52
0
41
0.0062
77
0
78
1
53
45
43
0
44
0
45
-0.0139193969876572
46
0.0139193969876572
79
0
47
0
98
1
10
0
20
0
0
HATCH
5
10D
100
AcDbEntity
8
2
62
256
6
ByLayer
370
13
48
1
60
0
100
AcDbHatch
10
0
20
0
30
0
210
0
220
0
230
1
2
ANSI31
70
0
71
0
91
1
92
5
93
3
72
1
10
22.6003972891925
20
0.500099999999975
11
22.1396135476397
21
4.00009830744679
72
1
10
22.1396135476397
20
4.00009830744679
11
23.0611810307452
21
4.00010169255316
72
1
10
23.0611810307452
20
4.00010169255316
11
22.6003972891925
21
0.500099999999975
97
0
75
0
76
1
52
0
41
0.0062
77
0
78
1
53
45
43
0
44
0
45
-0.0139193969876572
46
0.0139193969876572
79
0
47
0
98
1
10
0
20
0
0
HATCH
5
111
100
AcDbEntity
8
2
62
256
6
ByLayer
370
13
48
1
60
0
100
AcDbHatch
10
0
20
0
30
0
210
0
220
0
230
1
2
ANSI31
70
0
71
0
91
1
92
5
93
3
72
1
10
22.6003972891925
20
-0.500100000000032
11
23.0611810307452
21
-4.00009830744685
72
1
10
23.0611810307452
20
-4.00009830744685
11
22.1396135476397
21
-4.00010169255322
72
1
10
22.1396135476397
20
-4.00010169255322
11
22.6003972891925
21
-0.500100000000032
97
0
75
0
76
1
52
0
41
0.0062
77
0
78
1
53
45
43
0
44
0
45
-0.0139193969876572
46
0.0139193969876572
79
0
47
0
98
1
10
0
20
0
0
HATCH
5
116
100
AcDbEntity
8
2
62
256
6
ByLayer
370
13
48
1
60
0
100
AcDbHatch
10
0
20
0
30
0
210
0
220
0
230
1
2
ANSI31
70
0
71
0
91
1
92
5
93
3
72
1
10
-39.3996027108075
20
-33.1000000000001
11
-35.8996044033607
21
-32.6392162584473
72
1
10
-35.8996044033607
20
-32.6392162584473
11
-35.8996010182543
21
-33.5607837415528
72
1
10
-35.8996010182543
20
-33.5607837415528
11
-39.3996027108075
21
-33.1000000000001
97
0
75
0
76
1
52
0
41
0.0062
77
0
78
1
53
45
43
0
44
0
45
-0.0139193969876572
46
0.0139193969876572
79
0
47
0
98
1
10
0
20
0
0
HATCH
5
11A
100
AcDbEntity
8
2
62
256
6
ByLayer
370
13
48
1
60
0
100
AcDbHatch
10
0
20
0
30
0
210
0
220
0
230
1
2
ANSI31
70
0
71
0
91
1
92
5
93
3
72
1
10
10.6003972891925
20
-33.1000000000001
11
7.10039898174566
21
-33.5607837415528
72
1
10
7.10039898174566
20
-33.5607837415528
11
7.10039559663929
21
-32.6392162584473
72
1
10
7.10039559663929
20
-32.6392162584473
11
10.6003972891925
21
-33.1000000000001
97
0
75
0
76
1
52
0
41
0.0062
77
0
78
1
53
45
43
0
44
0
45
-0.0139193969876572
46
0.0139193969876572
79
0
47
0
98
1
10
0
20
0
0
DIMENSION
5
11E
100
AcDbEntity
8
SK2
62
256
6
ByLayer
370
18
48
1
60
0
100
AcDbDimension
2
_U0
10
8.600397
20
-17.1
30
0
11
9.600397
21
-17.1
31
0
70
32
71
1
72
1
41
1
210
0
220
0
230
1
3
Standard
100
AcDbAlignedDimension
13
10.600397
23
-0.5001
33
0
14
8.600397
24
-0.5001
34
0
50
0
100
AcDbRotatedDimension
1001
ACAD
1000
DSTYLE
1002
{
1070
   371
1070
    13
1070
   372
1070
    13
1070
   170
1070
     0
1070
   144
1040
1.0
1070
   277
1070
     2
1070
   284
1070
     8
1070
   278
1070
    46
1070
   146
1040
1.0
1070
   345
1005
16
1070
   347
1005
16
1070
   346
1005
16
1070
   344
1005
0
1070
   343
1005
0
1070
   172
1070
     1
1070
    76
1070
     0
1070
    75
1070
     0
1070
   282
1070
     0
1070
   281
1070
     0
1070
    71
1070
     0
1070
    74
1070
     0
1070
   279
1070
     0
1070
   173
1070
     1
1070
   340
1005
FD
1070
   271
1070
     2
1070
   272
1070
     2
1070
    77
1070
     1
1070
    73
1070
     1
1070
   171
1070
     3
1070
   274
1070
     4
1070
   177
1070
     2
1070
   176
1070
     2
1070
   178
1070
     2
1070
    78
1070
     8
1070
    48
1040
-0.1
1070
    41
1040
3.5
1070
   147
1040
1.75
1070
    42
1040
1.5875
1070
    44
1040
2.0
1070
   140
1040
3.5
1002
}
1001
ACAD_DSTYLE_DIM_LINETYPE
1070
   380
1005
16
1001
ACAD_DSTYLE_DIM_EXT1_LINETYPE
1070
   381
1005
16
1001
ACAD_DSTYLE_DIM_EXT2_LINETYPE
1070
   382
1005
16
0
ENDSEC
0
SECTION
2
OBJECTS
0
DICTIONARY
5
1a8
330
0
100
AcDbDictionary
280
0
281
1
3
ACAD_GROUP
350
1a9
3
ACAD_MLINESTYLE
350
1aa
0
DICTIONARY
5
1a9
330
0
100
AcDbDictionary
280
0
281
1
0
DICTIONARY
5
1aa
330
0
100
AcDbDictionary
280
0
281
1
3
Standard
350
18
0
MLINESTYLE
5
18
330
1aa
100
AcDbMlineStyle
2
Standard
70
0
3

62
256
51
90
52
90
71
2
49
-0.5
62
256
6
ByLayer
49
0.5
62
256
6
ByLayer
0
RASTERVARIABLES
5
196
330

100
AcDbRasterVariables
90
0
70
1
71
1
72
1
0
ENDSEC
0
EOF
