0
SECTION
2
HEADER
9
$ACADVER
1
AC1015
9
$DWGCODEPAGE
3
ANSI_1252
9
$HANDSEED
5
263
9
$ANGBASE
50
0
9
$ANGDIR
70
0
9
$ATTMODE
70
1
9
$AUNITS
70
0
9
$AUPREC
70
0
9
$CECOLOR
62
256
9
$CELTSCALE
40
1
9
$CELTYPE
6
ByLayer
9
$CELWEIGHT
370
18
9
$CLAYER
8
0
9
$CMLJUST
70
0
9
$CMLSCALE
40
1
9
$CMLSTYLE
2
Standard
9
$DIMSTYLE
2
Standard
9
$TEXTSIZE
40
0.2
9
$TEXTSTYLE
7
Standard
9
$LUNITS
70
2
9
$LUPREC
70
4
9
$EXTNAMES
290
1
9
$INSUNITS
70
4
9
$LTSCALE
40
1
9
$LWDISPLAY
290
1
9
$PDMODE
70
0
9
$PDSIZE
40
0
9
$PLINEGEN
70
0
0
ENDSEC
0
SECTION
2
CLASSES
0
CLASS
1
RASTERVARIABLES
2
AcDbRasterVariables
3
ISM
90
0
280
0
281
0
0
ENDSEC
0
SECTION
2
TABLES
0
TABLE
2
VPORT
5
259
100
AcDbSymbolTable
0
VPORT
5
1
100
AcDbSymbolTableRecord
100
AcDbViewportTableRecord
2
*Active
70
0
10
0
20
0
11
1
21
1
12
-1
22
1
13
0
23
0
14
0.5
24
0.5
15
10
25
10
16
0
26
0
36
1
17
0
27
0
37
0
0
ENDTAB
0
TABLE
2
LTYPE
5
25a
100
AcDbSymbolTable
0
LTYPE
5
14
100
AcDbSymbolTableRecord
100
AcDbLinetypeTableRecord
70
0
2
ByBlock
3

72
65
73
0
40
0
0
LTYPE
5
15
100
AcDbSymbolTableRecord
100
AcDbLinetypeTableRecord
70
0
2
ByLayer
3

72
65
73
0
40
0
0
LTYPE
5
16
100
AcDbSymbolTableRecord
100
AcDbLinetypeTableRecord
70
0
2
Continuous
3
Solid line
72
65
73
0
40
0
0
LTYPE
5
6E
100
AcDbSymbolTableRecord
100
AcDbLinetypeTableRecord
70
0
2
CENTER
3
____ _ ____ _ ____ _ ____
72
65
73
4
40
47.5
49
22
74
0
49
-8.5
74
0
49
8.5
74
0
49
-8.5
74
0
0
LTYPE
5
6F
100
AcDbSymbolTableRecord
100
AcDbLinetypeTableRecord
70
0
2
DASHED
3
__ __ __ __ __ __ __ __ __
72
65
73
2
40
25.72
49
12.86
74
0
49
-12.86
74
0
0
ENDTAB
0
TABLE
2
LAYER
5
25b
100
AcDbSymbolTable
0
LAYER
5
10
100
AcDbSymbolTableRecord
100
AcDbLayerTableRecord
2
0
70
0
62
7
6
Continuous
290
1
370
-3
390
0
0
LAYER
5
71
100
AcDbSymbolTableRecord
100
AcDbLayerTableRecord
2
81
70
0
62
-3
6
Continuous
290
1
370
-3
390
0
0
LAYER
5
73
100
AcDbSymbolTableRecord
100
AcDbLayerTableRecord
2
80
70
0
62
-6
6
Continuous
290
1
370
-3
390
0
0
LAYER
5
75
100
AcDbSymbolTableRecord
100
AcDbLayerTableRecord
2
1
70
0
62
4
6
Continuous
290
1
370
-3
390
0
0
LAYER
5
7B
100
AcDbSymbolTableRecord
100
AcDbLayerTableRecord
2
4
70
0
62
-2
6
CENTER
290
1
370
-3
390
0
0
LAYER
5
D9
100
AcDbSymbolTableRecord
100
AcDbLayerTableRecord
2
2
70
0
62
7
6
Continuous
290
1
370
-3
390
0
0
LAYER
5
1B7
100
AcDbSymbolTableRecord
100
AcDbLayerTableRecord
2
Defpoints
70
0
62
7
6
Continuous
290
0
370
-3
390
0
0
LAYER
5
245
100
AcDbSymbolTableRecord
100
AcDbLayerTableRecord
2
SK4
70
0
62
2
6
CENTER
290
1
370
-3
390
0
0
LAYER
5
246
100
AcDbSymbolTableRecord
100
AcDbLayerTableRecord
2
SK1
70
0
62
4
6
Continuous
290
1
370
-3
390
0
0
LAYER
5
247
100
AcDbSymbolTableRecord
100
AcDbLayerTableRecord
2
SK2
70
0
62
7
6
Continuous
290
1
370
-3
390
0
0
LAYER
5
248
100
AcDbSymbolTableRecord
100
AcDbLayerTableRecord
2
SK6
70
0
62
5
6
Continuous
290
1
370
-3
390
0
0
ENDTAB
0
TABLE
2
STYLE
5
25c
100
AcDbSymbolTable
0
STYLE
5
11
100
AcDbSymbolTableRecord
100
AcDbTextStyleTableRecord
2
Standard
3
txt
70
0
71
0
40
0
41
1
42
0
50
0
0
STYLE
5
189
100
AcDbSymbolTableRecord
100
AcDbTextStyleTableRecord
2
iso_b_vert
3
simplex.shx
70
0
71
0
40
0
41
1
42
0
50
0
0
STYLE
5
18A
100
AcDbSymbolTableRecord
100
AcDbTextStyleTableRecord
2
DWGDirectTextStyle
3
simplex
70
0
71
0
40
0
41
1
42
0
50
0
0
ENDTAB
0
TABLE
2
DIMSTYLE
5
25d
100
AcDbSymbolTable
100
AcDbDimStyleTable
0
DIMSTYLE
105
27
100
AcDbSymbolTableRecord
100
AcDbDimStyleTableRecord
2
Standard
70
0
3
<>
41
0.18
42
0.0625
44
0.18
140
0.18
147
0.09
73
0
74
0
77
1
271
2
275
0
278
52
280
0
340
11
0
ENDTAB
0
TABLE
2
VIEW
5
25e
100
AcDbSymbolTable
0
ENDTAB
0
TABLE
2
UCS
5
25f
100
AcDbSymbolTable
0
ENDTAB
0
TABLE
2
APPID
5
260
100
AcDbSymbolTable
0
APPID
5
12
100
AcDbSymbolTableRecord
100
AcDbRegAppTableRecord
2
ACAD
70
0
0
APPID
5
1B3
100
AcDbSymbolTableRecord
100
AcDbRegAppTableRecord
2
ACAD_DSTYLE_DIMBREAK
70
0
0
APPID
5
204
100
AcDbSymbolTableRecord
100
AcDbRegAppTableRecord
2
ACAD_DSTYLE_DIM_LINETYPE
70
0
0
APPID
5
205
100
AcDbSymbolTableRecord
100
AcDbRegAppTableRecord
2
ACAD_DSTYLE_DIM_EXT1_LINETYPE
70
0
0
APPID
5
206
100
AcDbSymbolTableRecord
100
AcDbRegAppTableRecord
2
ACAD_DSTYLE_DIM_EXT2_LINETYPE
70
0
0
APPID
5
241
100
AcDbSymbolTableRecord
100
AcDbRegAppTableRecord
2
ACAD_MLEADERVER
70
0
0
ENDTAB
0
TABLE
2
BLOCK_RECORD
5
261
100
AcDbSymbolTable
0
BLOCK_RECORD
5
1F
100
AcDbSymbolTableRecord
100
AcDbBlockTableRecord
2
*Model_Space
340
0
70
0
0
BLOCK_RECORD
5
1B
100
AcDbSymbolTableRecord
100
AcDbBlockTableRecord
2
*Paper_Space
340
0
70
0
0
BLOCK_RECORD
5
23
100
AcDbSymbolTableRecord
100
AcDbBlockTableRecord
2
*Paper_Space0
340
0
70
0
0
BLOCK_RECORD
5
1B8
100
AcDbSymbolTableRecord
100
AcDbBlockTableRecord
2
*D1
340
0
70
0
0
BLOCK_RECORD
5
1C5
100
AcDbSymbolTableRecord
100
AcDbBlockTableRecord
2
_U0
340
0
70
0
0
BLOCK_RECORD
5
1D1
100
AcDbSymbolTableRecord
100
AcDbBlockTableRecord
2
*D3
340
0
70
0
0
BLOCK_RECORD
5
1DD
100
AcDbSymbolTableRecord
100
AcDbBlockTableRecord
2
_U1
340
0
70
0
0
ENDTAB
0
ENDSEC
0
SECTION
2
BLOCKS
0
BLOCK
5
20
100
AcDbEntity
8
0
100
AcDbBlockBegin
2
*Model_Space
70
0
10
0
20
0
30
0
3
*Model_Space
0
ENDBLK
5
21
100
AcDbEntity
8
0
100
AcDbBlockEnd
0
BLOCK
5
1C
100
AcDbEntity
8
0
100
AcDbBlockBegin
2
*Paper_Space
70
0
10
0
20
0
30
0
3
*Paper_Space
0
ENDBLK
5
1D
100
AcDbEntity
8
0
100
AcDbBlockEnd
0
BLOCK
5
24
100
AcDbEntity
8
0
100
AcDbBlockBegin
2
*Paper_Space0
70
0
10
0
20
0
30
0
3
*Paper_Space0
0
ENDBLK
5
25
100
AcDbEntity
8
0
100
AcDbBlockEnd
0
BLOCK
5
1B9
100
AcDbEntity
8
0
100
AcDbBlockBegin
2
*D1
70
1
10
0
20
0
30
0
3
*D1
0
LINE
5
1BB
100
AcDbEntity
8
0
62
256
6
ByLayer
370
-2
48
1
60
0
100
AcDbLine
10
23.809501
20
-4.0875
30
0
11
23.809501
21
-19.1
31
0
39
0
210
0
220
0
230
1
0
LINE
5
1BC
100
AcDbEntity
8
0
62
256
6
ByLayer
370
-2
48
1
60
0
100
AcDbLine
10
8.809501
20
-4.0875
30
0
11
8.809501
21
-19.1
31
0
39
0
210
0
220
0
230
1
0
LINE
5
1BD
100
AcDbEntity
8
0
62
256
6
ByLayer
370
-2
48
1
60
0
100
AcDbLine
10
27.309501
20
-17.1
30
0
11
30.809501
21
-17.1
31
0
39
0
210
0
220
0
230
1
0
LINE
5
1BE
100
AcDbEntity
8
0
62
256
6
ByLayer
370
-2
48
1
60
0
100
AcDbLine
10
5.309501
20
-17.1
30
0
11
1.809501
21
-17.1
31
0
39
0
210
0
220
0
230
1
0
SOLID
5
1BF
100
AcDbEntity
8
0
62
256
6
ByLayer
370
-1
48
1
60
0
100
AcDbTrace
10
27.309501
20
-16.516667
30
0
11
27.309501
21
-17.683333
31
0
12
23.809501
22
-17.1
32
0
13
23.809501
23
-17.1
33
0
39
0
210
0
220
0
230
1
0
SOLID
5
1C0
100
AcDbEntity
8
0
62
256
6
ByLayer
370
-1
48
1
60
0
100
AcDbTrace
10
5.309501
20
-17.683333
30
0
11
5.309501
21
-16.516667
31
0
12
8.809501
22
-17.1
32
0
13
8.809501
23
-17.1
33
0
39
0
210
0
220
0
230
1
0
MTEXT
5
1C1
100
AcDbEntity
8
0
62
256
6
ByLayer
370
18
48
1
60
0
100
AcDbMText
10
16.309501
20
-10.1
30
0
210
0
220
0
230
1
1
\A1;15
40
3.5
41
0
44
1
50
0
71
5
72
5
7
iso_b_vert
0
POINT
5
1C2
100
AcDbEntity
8
Defpoints
62
0
6
ByLayer
370
-1
48
1
60
0
100
AcDbPoint
10
23.809501
20
-2.5
30
0
39
0
210
0
220
0
230
1
50
360
0
POINT
5
1C3
100
AcDbEntity
8
Defpoints
62
0
6
ByLayer
370
-1
48
1
60
0
100
AcDbPoint
10
8.809501
20
-2.5
30
0
39
0
210
0
220
0
230
1
50
360
0
POINT
5
1C4
100
AcDbEntity
8
Defpoints
62
0
6
ByLayer
370
-1
48
1
60
0
100
AcDbPoint
10
8.809501
20
-17.1
30
0
39
0
210
0
220
0
230
1
50
360
0
ENDBLK
5
1BA
100
AcDbEntity
8
0
100
AcDbBlockEnd
0
BLOCK
5
1CC
100
AcDbEntity
8
0
100
AcDbBlockBegin
2
_U0
70
0
10
0
20
0
30
0
3
_U0
0
MTEXT
5
1C6
100
AcDbEntity
8
SK2
62
256
6
ByLayer
370
18
48
1
60
0
100
AcDbMText
10
14.841968
20
-16.067366
30
0
210
0
220
0
230
1
1
\W0.5321;15
40
3.5
41
0
44
1.084337
50
0
71
7
72
5
7
iso_b_vert
0
LINE
5
1C7
100
AcDbEntity
8
SK2
62
256
6
ByLayer
370
13
48
1
60
0
100
AcDbLine
10
23.809501
20
-4.0875
30
0
11
23.809501
21
-19.1
31
0
39
0
210
0
220
0
230
1
0
LINE
5
1C8
100
AcDbEntity
8
SK2
62
256
6
ByLayer
370
13
48
1
60
0
100
AcDbLine
10
8.809501
20
-4.0875
30
0
11
8.809501
21
-19.1
31
0
39
0
210
0
220
0
230
1
0
LINE
5
1C9
100
AcDbEntity
8
SK2
62
256
6
ByLayer
370
13
48
1
60
0
100
AcDbLine
10
23.809501
20
-17.1
30
0
11
8.809501
21
-17.1
31
0
39
0
210
0
220
0
230
1
0
SOLID
5
1CA
100
AcDbEntity
8
SK2
62
256
6
ByLayer
370
18
48
1
60
0
100
AcDbTrace
10
23.809501
20
-17.1
30
0
11
20.309502
21
-17.560784
31
0
12
20.309499
22
-16.639216
32
0
13
20.309499
23
-16.639216
33
0
39
0
210
0
220
0
230
1
0
SOLID
5
1CB
100
AcDbEntity
8
SK2
62
256
6
ByLayer
370
18
48
1
60
0
100
AcDbTrace
10
8.809501
20
-17.1
30
0
11
12.309499
21
-16.639216
31
0
12
12.309502
22
-17.560784
32
0
13
12.309502
23
-17.560784
33
0
39
0
210
0
220
0
230
1
0
ENDBLK
5
1CD
100
AcDbEntity
8
0
100
AcDbBlockEnd
0
BLOCK
5
1D2
100
AcDbEntity
8
0
100
AcDbBlockBegin
2
*D3
70
1
10
0
20
0
30
0
3
*D3
0
LINE
5
1D4
100
AcDbEntity
8
0
62
256
6
ByLayer
370
-2
48
1
60
0
100
AcDbLine
10
23.809501
20
-4.0875
30
0
11
23.809501
21
-34.1
31
0
39
0
210
0
220
0
230
1
0
LINE
5
1D5
100
AcDbEntity
8
0
62
256
6
ByLayer
370
-2
48
1
60
0
100
AcDbLine
10
1.30718
20
-3.9875
30
0
11
1.30718
21
-34.1
31
0
39
0
210
0
220
0
230
1
0
LINE
5
1D6
100
AcDbEntity
8
0
62
256
6
ByLayer
370
-2
48
1
60
0
100
AcDbLine
10
20.309501
20
-32.1
30
0
11
4.80718
21
-32.1
31
0
39
0
210
0
220
0
230
1
0
SOLID
5
1D7
100
AcDbEntity
8
0
62
256
6
ByLayer
370
-1
48
1
60
0
100
AcDbTrace
10
20.309501
20
-32.683333
30
0
11
20.309501
21
-31.516667
31
0
12
23.809501
22
-32.1
32
0
13
23.809501
23
-32.1
33
0
39
0
210
0
220
0
230
1
0
SOLID
5
1D8
100
AcDbEntity
8
0
62
256
6
ByLayer
370
-1
48
1
60
0
100
AcDbTrace
10
4.80718
20
-31.516667
30
0
11
4.80718
21
-32.683333
31
0
12
1.30718
22
-32.1
32
0
13
1.30718
23
-32.1
33
0
39
0
210
0
220
0
230
1
0
MTEXT
5
1D9
100
AcDbEntity
8
0
62
256
6
ByLayer
370
18
48
1
60
0
100
AcDbMText
10
12.55834
20
-25.1
30
0
210
0
220
0
230
1
1
\A1;22.5
40
3.5
41
0
44
1
50
0
71
5
72
5
7
iso_b_vert
0
POINT
5
1DA
100
AcDbEntity
8
Defpoints
62
0
6
ByLayer
370
-1
48
1
60
0
100
AcDbPoint
10
23.809501
20
-2.5
30
0
39
0
210
0
220
0
230
1
50
360
0
POINT
5
1DB
100
AcDbEntity
8
Defpoints
62
0
6
ByLayer
370
-1
48
1
60
0
100
AcDbPoint
10
1.30718
20
-2.4
30
0
39
0
210
0
220
0
230
1
50
360
0
POINT
5
1DC
100
AcDbEntity
8
Defpoints
62
0
6
ByLayer
370
-1
48
1
60
0
100
AcDbPoint
10
1.30718
20
-32.1
30
0
39
0
210
0
220
0
230
1
50
360
0
ENDBLK
5
1D3
100
AcDbEntity
8
0
100
AcDbBlockEnd
0
BLOCK
5
1E4
100
AcDbEntity
8
0
100
AcDbBlockBegin
2
_U1
70
0
10
0
20
0
30
0
3
_U1
0
MTEXT
5
1DE
100
AcDbEntity
8
SK2
62
256
6
ByLayer
370
18
48
1
60
0
100
AcDbMText
10
8.636641
20
-31.067366
30
0
210
0
220
0
230
1
1
\W0.7346;22.5
40
3.5
41
0
44
1.084337
50
0
71
7
72
5
7
iso_b_vert
0
LINE
5
1DF
100
AcDbEntity
8
SK2
62
256
6
ByLayer
370
13
48
1
60
0
100
AcDbLine
10
23.809501
20
-4.0875
30
0
11
23.809501
21
-34.1
31
0
39
0
210
0
220
0
230
1
0
LINE
5
1E0
100
AcDbEntity
8
SK2
62
256
6
ByLayer
370
13
48
1
60
0
100
AcDbLine
10
1.30718
20
-3.9875
30
0
11
1.30718
21
-34.1
31
0
39
0
210
0
220
0
230
1
0
LINE
5
1E1
100
AcDbEntity
8
SK2
62
256
6
ByLayer
370
13
48
1
60
0
100
AcDbLine
10
23.809501
20
-32.1
30
0
11
1.30718
21
-32.1
31
0
39
0
210
0
220
0
230
1
0
SOLID
5
1E2
100
AcDbEntity
8
SK2
62
256
6
ByLayer
370
18
48
1
60
0
100
AcDbTrace
10
23.809501
20
-32.1
30
0
11
20.309502
21
-32.560784
31
0
12
20.309499
22
-31.639216
32
0
13
20.309499
23
-31.639216
33
0
39
0
210
0
220
0
230
1
0
SOLID
5
1E3
100
AcDbEntity
8
SK2
62
256
6
ByLayer
370
18
48
1
60
0
100
AcDbTrace
10
1.30718
20
-32.1
30
0
11
4.807178
21
-31.639216
31
0
12
4.807181
22
-32.560784
32
0
13
4.807181
23
-32.560784
33
0
39
0
210
0
220
0
230
1
0
ENDBLK
5
1E5
100
AcDbEntity
8
0
100
AcDbBlockEnd
0
ENDSEC
0
SECTION
2
ENTITIES
0
ARC
5
EB
100
AcDbEntity
8
1
62
256
6
ByLayer
370
18
48
1
60
0
100
AcDbCircle
39
0
10
8.373611
20
3.4
30
0
40
1
210
0
220
0
230
1
100
AcDbArc
50
270
51
285.278533
0
ARC
5
EC
100
AcDbEntity
8
1
62
256
6
ByLayer
370
18
48
1
60
0
100
AcDbCircle
39
0
10
1.30718
20
3.4
30
0
40
1
210
0
220
0
230
1
100
AcDbArc
50
240
51
270
0
ARC
5
ED
100
AcDbEntity
8
1
62
256
6
ByLayer
370
18
48
1
60
0
100
AcDbCircle
39
0
10
1.30718
20
-3.4
30
0
40
1
210
0
220
0
230
1
100
AcDbArc
50
90
51
120
0
ELLIPSE
5
EE
100
AcDbEntity
8
1
62
256
6
ByLayer
370
18
48
1
60
0
100
AcDbEllipse
10
23.698762
20
-0.104175
30
0
11
0.0126746033396476
21
-0.428198105323924
31
0
210
0
220
0
230
1
40
0.078331
41
0.216945408758717
42
1.47138734767407
0
ELLIPSE
5
EF
100
AcDbEntity
8
1
62
256
6
ByLayer
370
18
48
1
60
0
100
AcDbEllipse
10
23.680488
20
-0.084096
30
0
11
0.0357423693539202
21
-0.438301411873282
31
0
210
0
220
0
230
1
40
0.227316
41
-0.0746549656162131
42
0.0214508570565382
0
ELLIPSE
5
F0
100
AcDbEntity
8
1
62
256
6
ByLayer
370
18
48
1
60
0
100
AcDbEllipse
10
23.646529
20
-0.260233
30
0
11
0.169440539575021
21
-0.29225931193983
31
0
210
0
220
0
230
1
40
0.516006
41
2.86913973508741
42
-2.31455098088322
0
ELLIPSE
5
F1
100
AcDbEntity
8
1
62
256
6
ByLayer
370
18
48
1
60
0
100
AcDbEllipse
10
10.191612
20
14.73752
30
0
11
14.3532691539789
21
-16.1265609004409
31
0
210
0
220
0
230
1
40
0.006756
41
-0.345861645414317
42
-0.335511611804152
0
ELLIPSE
5
F2
100
AcDbEntity
8
1
62
256
6
ByLayer
370
18
48
1
60
0
100
AcDbEllipse
10
11.243108
20
0
30
0
11
4.63111538296567
21
1.64393180050899
31
0
210
0
220
0
230
1
40
0.377569
41
-2.69671056815342
42
-2.36530211589073
0
ELLIPSE
5
F3
100
AcDbEntity
8
1
62
256
6
ByLayer
370
18
48
1
60
0
100
AcDbEllipse
10
11.288214
20
0
30
0
11
4.7260476176548
21
-2.00349260632127
31
0
210
0
220
0
230
1
40
0.279593
41
-2.44518018770008
42
-2.11194289195499
0
POINT
5
70
100
AcDbEntity
8
81
62
256
6
ByLayer
370
18
48
1
60
0
100
AcDbPoint
10
23.809501
20
0
30
0
39
0
210
0
220
0
230
1
50
360
0
POINT
5
72
100
AcDbEntity
8
80
62
256
6
ByLayer
370
18
48
1
60
0
100
AcDbPoint
10
0
20
0
30
0
39
0
210
0
220
0
230
1
50
360
0
POINT
5
74
100
AcDbEntity
8
1
62
256
6
ByLayer
370
18
48
1
60
1
100
AcDbPoint
10
23.809501
20
-2.5
30
0
39
0
210
0
220
0
230
1
50
360
0
POINT
5
76
100
AcDbEntity
8
1
62
256
6
ByLayer
370
18
48
1
60
1
100
AcDbPoint
10
8.809501
20
-2.5
30
0
39
0
210
0
220
0
230
1
50
360
0
POINT
5
77
100
AcDbEntity
8
1
62
256
6
ByLayer
370
18
48
1
60
1
100
AcDbPoint
10
23.809501
20
-2.5
30
0
39
0
210
0
220
0
230
1
50
360
0
POINT
5
78
100
AcDbEntity
8
1
62
256
6
ByLayer
370
18
48
1
60
1
100
AcDbPoint
10
1.30718
20
-2.4
30
0
39
0
210
0
220
0
230
1
50
360
0
SPLINE
5
F4
100
AcDbEntity
8
1
62
256
6
ByLayer
370
18
48
1
60
0
100
AcDbSpline
70
4
71
3
72
10
73
6
40
0
40
0
40
0
40
0
40
0.5
40
0.5
40
1
40
1
40
1
40
1
41
1
10
23.752318120077
20
0.481909898731686
30
0
41
1
10
23.7530615441799
20
0.478787270944309
30
0
41
1
10
23.7535800449037
20
0.476210710324949
30
0
41
1
10
23.7541426458128
20
0.47220933489146
30
0
41
1
10
23.7541805688174
20
0.470818623127542
30
0
41
1
10
23.7539882143277
20
0.470021508486553
30
0
0
SPLINE
5
F5
100
AcDbEntity
8
1
62
256
6
ByLayer
370
18
48
1
60
0
100
AcDbSpline
70
4
71
3
72
10
73
6
40
0
40
0
40
0
40
0
40
0.5
40
0.5
40
1
40
1
40
1
40
1
41
1
10
23.7519332528352
20
-0.281332613680604
30
0
41
1
10
23.7528165998158
20
-0.278505102348277
30
0
41
1
10
23.75344163606
20
-0.276331863637637
30
0
41
1
10
23.7541363237054
20
-0.273392114803954
30
0
41
1
10
23.7541970924826
20
-0.272661070102259
30
0
41
1
10
23.7539882143279
20
-0.272629095579106
30
0
0
SPLINE
5
F6
100
AcDbEntity
8
1
62
256
6
ByLayer
370
13
48
1
60
0
100
AcDbSpline
70
4
71
3
72
8
73
4
40
0
40
0
40
0
40
0
40
1
40
1
40
1
40
1
41
1
10
23.7959363883081
20
0.051082086851153
30
0
41
1
10
23.7819536636449
20
-0.056821640639015
30
0
41
1
10
23.7679709389818
20
-0.164725368129211
30
0
41
1
10
23.7539882143186
20
-0.272629095619379
30
0
0
SPLINE
5
F7
100
AcDbEntity
8
1
62
256
6
ByLayer
370
18
48
1
60
0
100
AcDbSpline
70
4
71
3
72
26
73
22
40
0
40
0
40
0
40
0
40
0.125000000000013
40
0.125000000000013
40
0.250000000000026
40
0.250000000000026
40
0.312500000000024
40
0.312500000000024
40
0.375000000000022
40
0.375000000000022
40
0.500000000000018
40
0.500000000000018
40
0.625000000000014
40
0.625000000000014
40
0.75000000000001
40
0.75000000000001
40
0.812500000000007
40
0.812500000000007
40
0.875000000000005
40
0.875000000000005
40
1
40
1
40
1
40
1
41
1
10
23.7959363883216
20
1.9804498177898
30
0
41
1
10
23.7966466019952
20
2.00712863859548
30
0
41
1
10
23.7952731119786
20
2.0334842794592
30
0
41
1
10
23.7886421808441
20
2.08559316498759
30
0
41
1
10
23.7833942785191
20
2.11134788911903
30
0
41
1
10
23.7726087754218
20
2.14952807174208
30
0
41
1
10
23.7685068646753
20
2.16222101891705
30
0
41
1
10
23.7594421450662
20
2.18707406826797
30
0
41
1
10
23.7544726582263
20
2.19927051824615
30
0
41
1
10
23.7382876553162
20
2.23518798087955
30
0
41
1
10
23.7258066405057
20
2.25824291887895
30
0
41
1
10
23.6974399751215
20
2.30256082028177
30
0
41
1
10
23.6814099584173
20
2.32394658534599
30
0
41
1
10
23.646788031195
20
2.36356719508532
30
0
41
1
10
23.6281372748062
20
2.38194673436084
30
0
41
1
10
23.5981429149072
20
2.40736077912359
30
0
41
1
10
23.5878058501857
20
2.41547016804944
30
0
41
1
10
23.5664281913664
20
2.43093764641441
30
0
41
1
10
23.5553359841775
20
2.43832607376794
30
0
41
1
10
23.5213966673749
20
2.45903845279
30
0
41
1
10
23.4979245050046
20
2.47092227931412
30
0
41
1
10
23.4736078001131
20
2.48088488416658
30
0
0
SPLINE
5
F8
100
AcDbEntity
8
1
62
256
6
ByLayer
370
13
48
1
60
0
100
AcDbSpline
70
4
71
3
72
8
73
4
40
0
40
0
40
0
40
0
40
1
40
1
40
1
40
1
41
0.999998237555428
10
23.2778378607093
20
-2.479817459279
30
0
41
0.999998237555428
10
23.2726378734657
20
-2.46671816999182
30
0
41
0.999998237555428
10
23.2674378862221
20
-2.45361888070469
30
0
41
0.999998237555428
10
23.2622378989785
20
-2.44051959141754
30
0
0
SPLINE
5
F9
100
AcDbEntity
8
1
62
256
6
ByLayer
370
18
48
1
60
0
100
AcDbSpline
70
4
71
3
72
8
73
4
40
0
40
0
40
0
40
0
40
1
40
1
40
1
40
1
41
1
10
8.63668798950522
20
2.3894885050623
30
0
41
1
10
8.69631471176788
20
2.40250017803723
30
0
41
1
10
8.75391528081144
20
2.4204881378935
30
0
41
1
10
8.80950075481246
20
2.44342522545151
30
0
0
SPLINE
5
FA
100
AcDbEntity
8
1
62
256
6
ByLayer
370
13
48
1
60
0
100
AcDbSpline
70
4
71
3
72
8
73
4
40
0
40
0
40
0
40
0
40
1
40
1
40
1
40
1
41
1
10
23.2960749699999
20
-2.48049679248936
30
0
41
1
10
23.2920255589312
20
-2.47029591995892
30
0
41
1
10
23.2879761478625
20
-2.46009504742847
30
0
41
1
10
23.2839267367937
20
-2.44989417489802
30
0
0
SPLINE
5
FB
100
AcDbEntity
8
1
62
256
6
ByLayer
370
18
48
1
60
0
100
AcDbSpline
70
4
71
3
72
27
73
23
40
0
40
0
40
0
40
0
40
0.124999999999967
40
0.124999999999967
40
0.249999999999934
40
0.249999999999934
40
0.312499999999917
40
0.312499999999917
40
0.374999999999901
40
0.374999999999901
40
0.499999999999894
40
0.499999999999894
40
0.562499999999908
40
0.562499999999908
40
0.624999999999922
40
0.624999999999922
40
0.749999999999948
40
0.874999999999975
40
0.874999999999975
40
0.937499999999987
40
0.937499999999987
40
1
40
1
40
1
40
1
41
1
10
23.795936388322
20
-1.98471528043566
30
0
41
1
10
23.7966267227797
20
-2.01072822148362
30
0
41
1
10
23.795357402523
20
-2.03644171838465
30
0
41
1
10
23.7891713310127
20
-2.08731136810027
30
0
41
1
10
23.7842657852808
20
-2.11246923318325
30
0
41
1
10
23.774191815487
20
-2.14979106694349
30
0
41
1
10
23.7703607035639
20
-2.16220995548702
30
0
41
1
10
23.7618624050585
20
-2.18663484860784
30
0
41
1
10
23.7572032344754
20
-2.1986322740045
30
0
41
1
10
23.7420272116273
20
-2.23399603349958
30
0
41
1
10
23.7303219574484
20
-2.25673915230735
30
0
41
1
10
23.7103956173772
20
-2.28961177619041
30
0
41
1
10
23.7033554001224
20
-2.3003605459964
30
0
41
1
10
23.6884556596919
20
-2.32142842963782
30
0
41
1
10
23.6805819420195
20
-2.3317582026794
30
0
41
1
10
23.6560927066682
20
-2.36160314205935
30
0
41
1
10
23.6209124312914
20
-2.39869598742004
30
0
41
1
10
23.5807166825998
20
-2.43043122762066
30
0
41
1
10
23.5485373394596
20
-2.45206147646473
30
0
41
1
10
23.5375039777777
20
-2.45888046163535
30
0
41
1
10
23.5151047611422
20
-2.47155854595312
30
0
41
1
10
23.5036992790261
20
-2.47744455492745
30
0
41
1
10
23.4920871239447
20
-2.48287577211974
30
0
0
SPLINE
5
FC
100
AcDbEntity
8
1
62
256
6
ByLayer
370
13
48
1
60
0
100
AcDbSpline
70
4
71
3
72
8
73
4
40
0
40
0
40
0
40
0
40
1
40
1
40
1
40
1
41
1
10
23.7959363883317
20
-1.98471528046147
30
0
41
1
10
23.7819536636632
20
-1.94949139492559
30
0
41
1
10
23.7679709389946
20
-1.91426750938973
30
0
41
1
10
23.753988214326
20
-1.87904362385388
30
0
0
SPLINE
5
FD
100
AcDbEntity
8
1
62
256
6
ByLayer
370
18
48
1
60
0
100
AcDbSpline
70
4
71
3
72
10
73
6
40
0
40
0
40
0
40
0
40
0.5
40
0.5
40
1
40
1
40
1
40
1
41
1
10
8.37361086045752
20
2.36219422713182
30
0
41
1
10
8.41873634463866
20
2.36161035444741
30
0
41
1
10
8.46327957998224
20
2.3638105968416
30
0
41
1
10
8.55103531052563
20
2.37311652556704
30
0
41
1
10
8.59424801392851
20
2.3802273036695
30
0
41
1
10
8.63668798950519
20
2.3894885050623
30
0
0
SPLINE
5
FE
100
AcDbEntity
8
1
62
256
6
ByLayer
370
13
48
1
60
0
100
AcDbSpline
70
4
71
3
72
10
73
6
40
0
40
0
40
0
40
0
40
0.892472110854551
40
0.892472110854551
40
1
40
1
40
1
40
1
41
1
10
23.1801781818079
20
-2.19404088767482
30
0
41
1
10
23.1946474012568
20
-2.23946564659414
30
0
41
1
10
23.2091167116035
20
-2.28489188522391
30
0
41
1
10
23.2253294305456
20
-2.33579284860968
30
0
41
1
10
23.2270712244739
20
-2.34126633188981
30
0
41
1
10
23.2288133010454
20
-2.34673961657472
30
0
0
SPLINE
5
FF
100
AcDbEntity
8
1
62
256
6
ByLayer
370
18
48
1
60
0
100
AcDbSpline
70
4
71
3
72
37
73
33
40
0
40
0
40
0
40
0
40
0.0340010897313556
40
0.0684126222336631
40
0.103204896600333
40
0.138253724654914
40
0.173481243008925
40
0.20891258269382
40
0.244620840705831
40
0.280694420408102
40
0.317210777834201
40
0.35415253943341
40
0.391350774276249
40
0.428643671524268
40
0.466020069856573
40
0.503559007098855
40
0.541360078907908
40
0.612415491288591
40
0.687343253776332
40
0.765309603644305
40
0.846888319081282
40
0.858399878037937
40
0.870416180888355
40
0.882933491867391
40
0.895944286744736
40
0.909437287673981
40
0.923399791996355
40
0.937820926441035
40
0.952693264766203
40
0.968013224971523
40
0.983781005741121
40
1
40
1
40
1
40
1
41
1
10
23.752115552879
20
-1.92301600091727
30
0
41
1
10
23.7515425188248
20
-1.93045058438435
30
0
41
1
10
23.7503895333591
20
-1.94540949759022
30
0
41
1
10
23.7474075897514
20
-1.96783167964159
30
0
41
1
10
23.7434850468132
20
-1.99031875282856
30
0
41
1
10
23.7385281893841
20
-2.01276624496575
30
0
41
1
10
23.7325616636462
20
-2.0350903801565
30
0
41
1
10
23.7255750643882
20
-2.05724671908968
30
0
41
1
10
23.7175550365558
20
-2.07922435690705
30
0
41
1
10
23.708475346491
20
-2.10101829602698
30
0
41
1
10
23.6983104804441
20
-2.12259886445685
30
0
41
1
10
23.6870651788741
20
-2.14388621541599
30
0
41
1
10
23.6747791062485
20
-2.16476029493927
30
0
41
1
10
23.6614995233926
20
-2.18510601220871
30
0
41
1
10
23.6472550182338
20
-2.20485659088044
30
0
41
1
10
23.6320418058507
20
-2.22398955919877
30
0
41
1
10
23.611143948188
20
-2.24785656675257
30
0
41
1
10
23.5829034303927
20
-2.27593761706322
30
0
41
1
10
23.5455065487382
20
-2.30677388882518
30
0
41
1
10
23.5033935485505
20
-2.33504753657482
30
0
41
1
10
23.4706767089615
20
-2.35234015287028
30
0
41
1
10
23.4500029797539
20
-2.36167280280233
30
0
41
1
10
23.4428635536416
20
-2.36476173046441
30
0
41
1
10
23.4353756613886
20
-2.36785648201632
30
0
41
1
10
23.4275394909401
20
-2.37093957150927
30
0
41
1
10
23.4193575167099
20
-2.37399227888767
30
0
41
1
10
23.410833243618
20
-2.3769952943378
30
0
41
1
10
23.4019697963431
20
-2.37992860965755
30
0
41
1
10
23.3927693932283
20
-2.3827739340949
30
0
41
1
10
23.3832311238875
20
-2.38550688409939
30
0
41
1
10
23.3733583135856
20
-2.3881276714387
30
0
41
1
10
23.366635341189
20
-2.38971384944054
30
0
41
1
10
23.3632264370214
20
-2.39051812595429
30
0
0
SPLINE
5
100
100
AcDbEntity
8
1
62
256
6
ByLayer
370
18
48
1
60
0
100
AcDbSpline
70
4
71
3
72
8
73
4
40
0
40
0
40
0
40
0
40
1
40
1
40
1
40
1
41
1
10
23.4896954464414
20
-1.86665451046747
30
0
41
1
10
23.5771728169106
20
-1.88620021256031
30
0
41
1
10
23.6646321343769
20
-1.90479519139583
30
0
41
1
10
23.7520834250477
20
-1.92301543489606
30
0
0
SPLINE
5
101
100
AcDbEntity
8
1
62
256
6
ByLayer
370
18
48
1
60
0
100
AcDbSpline
70
4
71
3
72
10
73
6
40
0
40
0
40
0
40
0
40
0.5
40
0.5
40
1
40
1
40
1
40
1
41
1
10
23.7521281715997
20
-1.92302475768776
30
0
41
1
10
23.75294099011
20
-1.91618379405227
30
0
41
1
10
23.7535120998232
20
-1.90906846918543
30
0
41
1
10
23.754139767285
20
-1.89425375667804
30
0
41
1
10
23.7541888921805
20
-1.88668632949162
30
0
41
1
10
23.7539882143277
20
-1.87904362385658
30
0
0
SPLINE
5
102
100
AcDbEntity
8
1
62
256
6
ByLayer
370
18
48
1
60
0
100
AcDbSpline
70
4
71
3
72
19
73
15
40
0
40
0
40
0
40
0
40
0.25
40
0.25
40
0.375
40
0.375
40
0.5
40
0.5
40
0.625
40
0.625
40
0.75
40
0.875
40
0.875
40
1
40
1
40
1
40
1
41
1
10
22.4546864192771
20
-0.234867400108698
30
0
41
1
10
22.4429494335146
20
-0.218936914583935
30
0
41
1
10
22.434137897218
20
-0.201897135351686
30
0
41
1
10
22.4248464086327
20
-0.174516793980331
30
0
41
1
10
22.4224121274429
20
-0.165068872763868
30
0
41
1
10
22.4188582000461
20
-0.146094293802747
30
0
41
1
10
22.4177109871843
20
-0.136499038113129
30
0
41
1
10
22.4165177390373
20
-0.117068393547498
30
0
41
1
10
22.4164757692598
20
-0.107179772891158
30
0
41
1
10
22.4173835933697
20
-0.0874237825945841
30
0
41
1
10
22.4192673803883
20
-0.0677276908211297
30
0
41
1
10
22.4228657385832
20
-0.0480975640410293
30
0
41
1
10
22.4272647656269
20
-0.028482699953031
30
0
41
1
10
22.4298718891448
20
-0.018666580718417
30
0
41
1
10
22.4328337387683
20
-0.0089743348887339
30
0
0
SPLINE
5
103
100
AcDbEntity
8
1
62
256
6
ByLayer
370
18
48
1
60
0
100
AcDbSpline
70
4
71
3
72
26
73
22
40
0
40
0
40
0
40
0
40
0.125000000000015
40
0.125000000000015
40
0.25000000000003
40
0.25000000000003
40
0.375000000000045
40
0.375000000000045
40
0.50000000000006
40
0.50000000000006
40
0.625000000000075
40
0.625000000000075
40
0.75000000000009
40
0.75000000000009
40
0.812500000000068
40
0.812500000000068
40
0.875000000000045
40
0.875000000000045
40
0.937500000000023
40
0.937500000000023
40
1
40
1
40
1
40
1
41
1
10
23.4208237799176
20
-0.126701302313705
30
0
41
1
10
23.4221587574033
20
-0.142909075406237
30
0
41
1
10
23.425740859686
20
-0.158642764710322
30
0
41
1
10
23.4357976802284
20
-0.189534552027737
30
0
41
1
10
23.442303023317
20
-0.204685571737343
30
0
41
1
10
23.4575398674715
20
-0.234585703508259
30
0
41
1
10
23.4663275752011
20
-0.249390091732892
30
0
41
1
10
23.4853136495902
20
-0.27810223615225
30
0
41
1
10
23.4955486860006
20
-0.29208900946594
30
0
41
1
10
23.5172148654628
20
-0.319548671783764
30
0
41
1
10
23.5286484777139
20
-0.333018236013913
30
0
41
1
10
23.5525410617762
20
-0.359662701132805
30
0
41
1
10
23.5650009783413
20
-0.37283067228023
30
0
41
1
10
23.5843763476202
20
-0.39262747081284
30
0
41
1
10
23.5909650107992
20
-0.399250657139447
30
0
41
1
10
23.6042357715232
20
-0.412476821751284
30
0
41
1
10
23.6109262426186
20
-0.419087788780217
30
0
41
1
10
23.6243647067472
20
-0.432404899760115
30
0
41
1
10
23.6311129531687
20
-0.439109775149575
30
0
41
1
10
23.644592833185
20
-0.452775969706607
30
0
41
1
10
23.6513237595784
20
-0.459735796684839
30
0
41
1
10
23.6579988566694
20
-0.466958291029272
30
0
0
SPLINE
5
104
100
AcDbEntity
8
1
62
256
6
ByLayer
370
18
48
1
60
0
100
AcDbSpline
70
4
71
3
72
8
73
4
40
0
40
0
40
0
40
0
40
1
40
1
40
1
40
1
41
1
10
23.4105596493875
20
1.32956492309574
30
0
41
1
10
23.4116826654374
20
1.32801397090554
30
0
41
1
10
23.4128186741068
20
1.32642769860232
30
0
41
1
10
23.4139677361702
20
1.32480594097203
30
0
0
SPLINE
5
105
100
AcDbEntity
8
1
62
256
6
ByLayer
370
18
48
1
60
0
100
AcDbSpline
70
4
71
3
72
12
73
8
40
0
40
0
40
0
40
0
40
0.104677439602217
40
0.104677439602217
40
0.403118293068122
40
0.403118293068122
40
1
40
1
40
1
40
1
41
1
10
23.0605453039543
20
1.4872906754357
30
0
41
1
10
23.0726963619569
20
1.48248954572571
30
0
41
1
10
23.0848641608527
20
1.47760738800156
30
0
41
1
10
23.1317866217383
20
1.45849796070328
30
0
41
1
10
23.1666139039064
20
1.44371793547182
30
0
41
1
10
23.2710655922921
20
1.39768423862827
30
0
41
1
10
23.3407768911632
20
1.36469438831878
30
0
41
1
10
23.4105596493875
20
1.32956492309574
30
0
0
SPLINE
5
106
100
AcDbEntity
8
1
62
256
6
ByLayer
370
13
48
1
60
0
100
AcDbSpline
70
4
71
3
72
8
73
4
40
0
40
0
40
0
40
0
40
1
40
1
40
1
40
1
41
1
10
8.91806596565104
20
-1.12028032585459
30
0
41
1
10
8.88187756203789
20
-1.11163072227191
30
0
41
1
10
8.84568915842473
20
-1.10279534516491
30
0
41
1
10
8.80950075481158
20
-1.09377645868244
30
0
0
SPLINE
5
107
100
AcDbEntity
8
1
62
256
6
ByLayer
370
18
48
1
60
0
100
AcDbSpline
70
4
71
3
72
8
73
4
40
0
40
0
40
0
40
0
40
1
40
1
40
1
40
1
41
1
10
23.3376104975539
20
-1.04074926285565
30
0
41
1
10
23.3420263636498
20
-1.18070903922032
30
0
41
1
10
23.350027920611
20
-1.32040913066876
30
0
41
1
10
23.3619586729531
20
-1.45982465972421
30
0
0
SPLINE
5
108
100
AcDbEntity
8
1
62
256
6
ByLayer
370
18
48
1
60
0
100
AcDbSpline
70
4
71
3
72
16
73
12
40
0
40
0
40
0
40
0
40
0.25
40
0.25
40
0.5
40
0.5
40
0.625
40
0.625
40
0.75
40
0.75
40
1
40
1
40
1
40
1
41
1
10
22.4593966423599
20
-0.24096227716106
30
0
41
1
10
22.5217507010355
20
-0.31801408914771
30
0
41
1
10
22.5881041503837
20
-0.391973769799989
30
0
41
1
10
22.7270118618711
20
-0.535098968918561
30
0
41
1
10
22.7995789975588
20
-0.604254534192989
30
0
41
1
10
22.9122874602785
20
-0.705005253238767
30
0
41
1
10
22.9502247498164
20
-0.737837688507881
30
0
41
1
10
23.0265058238027
20
-0.801971487031409
30
0
41
1
10
23.0648917236412
20
-0.833309835219325
30
0
41
1
10
23.1807077500253
20
-0.925370122751957
30
0
41
1
10
23.2587920402417
20
-0.984149666767308
30
0
41
1
10
23.3376104975539
20
-1.04074926285565
30
0
0
SPLINE
5
109
100
AcDbEntity
8
1
62
256
6
ByLayer
370
18
48
1
60
0
100
AcDbSpline
70
4
71
3
72
8
73
4
40
0
40
0
40
0
40
0
40
1
40
1
40
1
40
1
41
1
10
22.4593966423599
20
-0.24096227716106
30
0
41
1
10
22.4577770090285
20
-0.238960872832479
30
0
41
1
10
22.4562049426997
20
-0.236928499872278
30
0
41
1
10
22.4546864192763
20
-0.234867400108214
30
0
0
SPLINE
5
10A
100
AcDbEntity
8
1
62
256
6
ByLayer
370
13
48
1
60
0
100
AcDbSpline
70
4
71
3
72
16
73
12
40
0
40
0
40
0
40
0
40
0.0139757047737102
40
0.141340864352062
40
0.268706023930413
40
0.396071183508764
40
0.523436343087116
40
0.650801502665467
40
0.778166662243818
40
0.969214401611345
40
1
40
1
40
1
40
1
41
1
10
22.4546864192771
20
-0.234867400108584
30
0
41
1
10
22.4375411977887
20
-0.227874518743306
30
0
41
1
10
22.2641459763001
20
-0.157072995795318
30
0
41
1
10
21.9345007548116
20
-0.0210772262078649
30
0
41
1
10
21.4657507548116
20
0.174799454287893
30
0
41
1
10
20.9970007548116
20
0.368422073965661
30
0
41
1
10
20.5282507548116
20
0.553178449608936
30
0
41
1
10
20.0595007548116
20
0.728851252034787
30
0
41
0.999999999999999
10
19.5126257548116
20
0.920530223381036
30
0
41
1
10
19.0842333640734
20
1.05235510662823
30
0
41
1
10
18.8120909733352
20
1.12587606825295
30
0
41
1
10
18.774323582597
20
1.13587856502213
30
0
0
SPLINE
5
10B
100
AcDbEntity
8
1
62
256
6
ByLayer
370
18
48
1
60
0
100
AcDbSpline
70
4
71
3
72
12
73
8
40
0
40
0
40
0
40
0
40
0.500000000000021
40
0.500000000000021
40
0.75000000000001
40
0.75000000000001
40
1
40
1
40
1
40
1
41
1
10
23.4139677363203
20
1.3248059410225
30
0
41
1
10
23.425184080776
20
1.30188990747484
30
0
41
1
10
23.4371774419369
20
1.27655579374519
30
0
41
1
10
23.4562237025624
20
1.23526766410001
30
0
41
1
10
23.4627582160242
20
1.22093433471531
30
0
41
1
10
23.4760841853228
20
1.19139067686027
30
0
41
1
10
23.482883929207
20
1.17616277276622
30
0
41
1
10
23.4898150539362
20
1.16049672977215
30
0
0
SPLINE
5
10C
100
AcDbEntity
8
1
62
256
6
ByLayer
370
18
48
1
60
0
100
AcDbSpline
70
4
71
3
72
11
73
7
40
0
40
0
40
0
40
0
40
0.311192234027977
40
0.58034397873175
40
0.849495723435522
40
1
40
1
40
1
40
1
41
1
10
23.4139677402426
20
1.32480593941301
30
0
41
1
10
23.2333120784323
20
1.41008469312564
30
0
41
1
10
22.8964064166219
20
1.55882389390899
30
0
41
1
10
22.4032507548116
20
1.74391102824063
30
0
41
1
10
22.0033788775121
20
1.86681670464139
30
0
41
1
10
21.7597570002126
20
1.92694556923391
30
0
41
1
10
21.6723851229131
20
1.94657452271653
30
0
0
SPLINE
5
10D
100
AcDbEntity
8
1
62
256
6
ByLayer
370
18
48
1
60
0
100
AcDbSpline
70
4
71
3
72
9
73
5
40
0
40
0
40
0
40
0
40
0.442382023687137
40
1
40
1
40
1
40
1
41
1
10
12.2527316904614
20
-1.48375972953718
30
0
41
1
10
12.0424880452448
20
-1.57429814282105
30
0
41
1
10
11.5672344545489
20
-1.76021539709441
30
0
41
1
10
11.0919808638531
20
-1.89576645916708
30
0
41
1
10
10.8269709183738
20
-1.95415370166444
30
0
0
SPLINE
5
10E
100
AcDbEntity
8
1
62
256
6
ByLayer
370
18
48
1
60
0
100
AcDbSpline
70
4
71
3
72
8
73
4
40
0
40
0
40
0
40
0
40
1
40
1
40
1
40
1
41
1
10
10.5451501442934
20
-2.00969570180882
30
0
41
1
10
9.9666003477995
20
-2.11015517317185
30
0
41
1
10
9.38805055130555
20
-2.1264645258301
30
0
41
1
10
8.80950075481158
20
-2.04780867305186
30
0
0
SPLINE
5
10F
100
AcDbEntity
8
1
62
256
6
ByLayer
370
13
48
1
60
0
100
AcDbSpline
70
4
71
3
72
14
73
10
40
0
40
0
40
0
40
0
40
0.010436395286528
40
0.124616811215005
40
0.238797227143483
40
0.391037781714786
40
0.54327833628609
40
0.695518890857393
40
1
40
1
40
1
40
1
41
1
10
14.9675182596737
20
-1.27165095259593
30
0
41
1
10
14.946095758053
20
-1.2670375347264
30
0
41
1
10
14.6902982564323
20
-1.21093299330542
30
0
41
1
10
14.2001257548115
20
-1.08039071155895
30
0
41
1
10
13.4188757548116
20
-0.814359484251582
30
0
41
1
10
12.5595007548116
20
-0.468388990738731
30
0
41
1
10
11.6220007548116
20
-0.0505870366280305
30
0
41
1
10
10.3720007548116
20
0.504973477357794
30
0
41
1
10
9.43450075481164
20
0.87183471743262
30
0
41
1
10
8.80950075481158
20
1.05034106829493
30
0
0
SPLINE
5
110
100
AcDbEntity
8
1
62
256
6
ByLayer
370
13
48
1
60
0
100
AcDbSpline
70
4
71
3
72
18
73
14
40
0
40
0
40
0
40
0
40
0.064743835662463
40
0.171372655292529
40
0.278001474922596
40
0.42017323442935
40
0.526802054059417
40
0.633430873689483
40
0.70451675344286
40
0.775602633196238
40
0.846688512949615
40
0.917774392702993
40
1
40
1
40
1
40
1
41
1
10
20.0176804498801
20
-1.14924294533313
30
0
41
1
10
19.8753705515239
20
-1.11539730703555
30
0
41
0.999999999999999
10
19.4986856531677
20
-1.0172226423596
30
0
41
1
10
18.8876257548116
20
-0.825627075964689
30
0
41
1
10
18.1063757548116
20
-0.542305489359592
30
0
41
1
10
17.3251257548116
20
-0.224976331834313
30
0
41
1
10
16.5438757548115
20
0.102383645210239
30
0
41
0.999999999999999
10
15.9188757548116
20
0.361372255104499
30
0
41
1
10
15.3720007548116
20
0.57725945450818
30
0
41
1
10
14.9032507548116
20
0.751193200220115
30
0
41
1
10
14.4345007548116
20
0.910462778023003
30
0
41
0.999999999999999
10
13.9412651265162
20
1.06006516156555
30
0
41
1
10
13.6042794982209
20
1.14662491475468
30
0
41
1
10
13.4235438699255
20
1.18790302690346
30
0
0
SPLINE
5
111
100
AcDbEntity
8
1
62
256
6
ByLayer
370
13
48
1
60
0
100
AcDbSpline
70
4
71
3
72
10
73
6
40
0
40
0
40
0
40
0
40
0.547261646260511
40
0.926066458135099
40
1
40
1
40
1
40
1
41
1
10
23.5492067686822
20
0.931493957899477
30
0
41
1
10
23.3234714307253
20
1.06211060134854
30
0
41
1
10
22.9414860927684
20
1.27267601872794
30
0
41
1
10
22.5290045320755
20
1.47440826030922
30
0
41
1
10
22.3422583093396
20
1.55911795270092
30
0
41
1
10
22.3117620866036
20
1.57276680673624
30
0
0
SPLINE
5
112
100
AcDbEntity
8
1
62
256
6
ByLayer
370
13
48
1
60
0
100
AcDbSpline
70
4
71
3
72
8
73
4
40
0
40
0
40
0
40
0
40
1
40
1
40
1
40
1
41
1
10
9.13492579610448
20
-2.19090464724525
30
0
41
1
10
9.02645078234016
20
-2.19678597757951
30
0
41
1
10
8.91797576857587
20
-2.19927943458336
30
0
41
1
10
8.80950075481155
20
-2.19826288763716
30
0
0
SPLINE
5
113
100
AcDbEntity
8
1
62
256
6
ByLayer
370
18
48
1
60
0
100
AcDbSpline
70
4
71
3
72
39
73
35
40
0
40
0
40
0
40
0
40
0.0983211839581092
40
0.0983211839581092
40
0.147481775937167
40
0.147481775937167
40
0.172062071926698
40
0.172062071926698
40
0.196642367916228
40
0.196642367916228
40
0.294963551874353
40
0.294963551874353
40
0.319543847863884
40
0.319543847863884
40
0.344124143853414
40
0.344124143853414
40
0.393284735832463
40
0.442445327811511
40
0.442445327811511
40
0.49160591979056
40
0.49160591979056
40
0.589927103748657
40
0.589927103748657
40
0.639087695727705
40
0.639087695727705
40
0.688248287706754
40
0.688248287706754
40
0.78656947166485
40
0.78656947166485
40
0.884890655622947
40
0.884890655622947
40
0.983211839581044
40
0.983211839581044
40
1
40
1
40
1
40
1
41
1
10
23.5277518990711
20
2.3175235270563
30
0
41
1
10
23.5401955357329
20
2.28285242310426
30
0
41
1
10
23.5500745621131
20
2.24761139166094
30
0
41
1
10
23.560099549596
20
2.19368458017271
30
0
41
1
10
23.5626375086722
20
2.17553037077769
30
0
41
1
10
23.5650599800257
20
2.14799138901483
30
0
41
1
10
23.5656362242531
20
2.1387346530627
30
0
41
1
10
23.5662854221263
20
2.12031158985135
30
0
41
1
10
23.5663609972879
20
2.11113078884705
30
0
41
1
10
23.5654619962018
20
2.06538435591335
30
0
41
1
10
23.5606717747416
20
2.02928959096818
30
0
41
1
10
23.5489409669492
20
1.98487984943929
30
0
41
1
10
23.5463066992372
20
1.97603345466871
30
0
41
1
10
23.5404416435543
20
1.9584142782856
30
0
41
1
10
23.5372172841503
20
1.94966883180049
30
0
41
1
10
23.5268077154569
20
1.92395053859636
30
0
41
1
10
23.5108823977107
20
1.8907812084264
30
0
41
1
10
23.4911403341892
20
1.85970453354955
30
0
41
1
10
23.4696100518846
20
1.8296083079166
30
0
41
1
10
23.4579018421661
20
1.81500947977747
30
0
41
1
10
23.4211235982949
20
1.77348861710848
30
0
41
1
10
23.3942070958271
20
1.74847860343323
30
0
41
1
10
23.3511451676293
20
1.71395659486421
30
0
41
1
10
23.3363386370936
20
1.70295332007254
30
0
41
1
10
23.3059283522879
20
1.68183472925847
30
0
41
1
10
23.2903355285083
20
1.67173188441134
30
0
41
1
10
23.2430754678645
20
1.64293000671168
30
0
41
1
10
23.2107358892665
20
1.62558319981636
30
0
41
1
10
23.1448205175791
20
1.59364210145932
30
0
41
1
10
23.1112415109451
20
1.5790549651727
30
0
41
1
10
23.0431146554541
20
1.55203788553896
30
0
41
1
10
23.0085652796808
20
1.53961134197405
30
0
41
1
10
22.9676567610402
20
1.52608698943547
30
0
41
1
10
22.961677448539
20
1.52413977302112
30
0
41
1
10
22.9556892417195
20
1.52221808712969
30
0
0
SPLINE
5
114
100
AcDbEntity
8
1
62
256
6
ByLayer
370
18
48
1
60
0
100
AcDbSpline
70
4
71
3
72
16
73
12
40
0
40
0
40
0
40
0
40
0.040333810291943
40
0.10431155627248
40
0.168289302253017
40
0.264255921223823
40
0.360222540194629
40
0.488178032155703
40
0.616133524116777
40
0.744089016077852
40
1
40
1
40
1
40
1
41
1
10
16.1362671610961
20
-1.93458980633847
30
0
41
1
10
16.0377616923346
20
-1.95309289315506
30
0
41
1
10
15.7830062235731
20
-1.99495566280098
30
0
41
1
10
15.3720007548115
20
-2.03722998207169
30
0
41
1
10
14.8251257548116
20
-2.05320119413966
30
0
41
1
10
14.2001257548115
20
-2.00954083607632
30
0
41
1
10
13.4188757548116
20
-1.86288382475069
30
0
41
1
10
12.5595007548116
20
-1.59726450693813
30
0
41
1
10
11.6220007548116
20
-1.19190097763021
30
0
41
1
10
10.3720007548116
20
-0.53889793333235
30
0
41
1
10
9.43450075481164
20
0.0242884653250428
30
0
41
1
10
8.80950075481158
20
0.384424947022637
30
0
0
SPLINE
5
115
100
AcDbEntity
8
1
62
256
6
ByLayer
370
18
48
1
60
0
100
AcDbSpline
70
4
71
3
72
24
73
20
40
0
40
0
40
0
40
0
40
0.0421549763526888
40
0.0885625962110419
40
0.134970216069395
40
0.181377835927748
40
0.250989265715278
40
0.320600695502807
40
0.413415935219513
40
0.483027365007043
40
0.552638794794573
40
0.599046414652926
40
0.645454034511279
40
0.691861654369632
40
0.738269274227985
40
0.807880704015515
40
0.877492133803044
40
0.97030737351975
40
1
40
1
40
1
40
1
41
1
10
21.4227960277782
20
-1.95032039791263
30
0
41
1
10
21.2808642701227
20
-1.98172949208902
30
0
41
1
10
20.9826825124671
20
-2.03528619132209
30
0
41
1
10
20.5282507548116
20
-2.08337607243848
30
0
41
1
10
20.0595007548116
20
-2.0890358419677
30
0
41
0.999999999999999
10
19.5126257548116
20
-2.0425685101072
30
0
41
1
10
18.8876257548116
20
-1.91836748607332
30
0
41
1
10
18.1063757548115
20
-1.66527619189478
30
0
41
1
10
17.3251257548116
20
-1.31246053946001
30
0
41
1
10
16.5438757548115
20
-0.88571411985589
30
0
41
0.999999999999999
10
15.9188757548116
20
-0.500720381138422
30
0
41
1
10
15.3720007548116
20
-0.150709851768369
30
0
41
1
10
14.9032507548116
20
0.146895738048301
30
0
41
1
10
14.4345007548116
20
0.442643294915143
30
0
41
0.999999999999999
10
13.8876257548116
20
0.781762413998621
30
0
41
1
10
13.2626257548116
20
1.1410767670213
30
0
41
0.999999999999999
10
12.4813757548116
20
1.52979845311441
30
0
41
1
10
11.8345285325408
20
1.77953776525914
30
0
41
1
10
11.42205631027
20
1.89369831155972
30
0
41
1
10
11.3220840879992
20
1.91864237047091
30
0
0
SPLINE
5
116
100
AcDbEntity
8
1
62
256
6
ByLayer
370
18
48
1
60
0
100
AcDbSpline
70
4
71
3
72
12
73
8
40
0
40
0
40
0
40
0
40
0.25
40
0.25
40
0.5
40
0.5
40
1
40
1
40
1
40
1
41
1
10
23.4896954464427
20
-1.86665451047094
30
0
41
1
10
23.4954877604384
20
-1.88185688299774
30
0
41
1
10
23.5006589197683
20
-1.89662901867203
30
0
41
1
10
23.5104493049554
20
-1.92504462783214
30
0
41
1
10
23.5150725563259
20
-1.93871298500349
30
0
41
1
10
23.528824199412
20
-1.9775387621861
30
0
41
1
10
23.5379234861835
20
-2.00053480150615
30
0
41
1
10
23.5484831056605
20
-2.02056427755639
30
0
0
SPLINE
5
117
100
AcDbEntity
8
1
62
256
6
ByLayer
370
18
48
1
60
0
100
AcDbSpline
70
4
71
3
72
16
73
12
40
0
40
0
40
0
40
0
40
0.250000000000001
40
0.250000000000001
40
0.500000000000001
40
0.500000000000001
40
0.625000000000001
40
0.625000000000001
40
0.750000000000001
40
0.750000000000001
40
1
40
1
40
1
40
1
41
1
10
23.3619586806557
20
-1.45982465995604
30
0
41
1
10
23.3692616587593
20
-1.50060800631508
30
0
41
1
10
23.3775709483747
20
-1.53945248878574
30
0
41
1
10
23.3959075281512
20
-1.61383140701278
30
0
41
1
10
23.4059374212829
20
-1.64936081929974
30
0
41
1
10
23.4221672556708
20
-1.70037181415981
30
0
41
1
10
23.4277756339003
20
-1.71699315837213
30
0
41
1
10
23.4393811549921
20
-1.74948681584613
30
0
41
1
10
23.4454009277272
20
-1.76541229618456
30
0
41
1
10
23.4637914435898
20
-1.81147150566778
30
0
41
1
10
23.4765287422027
20
-1.84002984695223
30
0
41
1
10
23.4896954464429
20
-1.86665451047062
30
0
0
SPLINE
5
118
100
AcDbEntity
8
1
62
256
6
ByLayer
370
18
48
1
60
0
100
AcDbSpline
70
4
71
3
72
19
73
15
40
0
40
0
40
0
40
0
40
0.0801240987849985
40
0.156780009807168
40
0.233435920829338
40
0.310091831851508
40
0.386747742873677
40
0.463403653895847
40
0.540059564918016
40
0.616715475940186
40
0.731699342473441
40
0.846683209006695
40
0.999995031051034
40
1
40
1
40
1
40
1
41
1
10
23.3619586824475
20
-1.4598246586221
30
0
41
1
10
23.1986393732356
20
-1.39284206539699
30
0
41
1
10
22.8790700640236
20
-1.25165002071836
30
0
41
1
10
22.4032507548116
20
-1.01570923677542
30
0
41
1
10
21.9345007548116
20
-0.762875544566043
30
0
41
1
10
21.4657507548116
20
-0.496679558074334
30
0
41
1
10
20.9970007548116
20
-0.222319573165322
30
0
41
1
10
20.5282507548116
20
0.0614337176427
30
0
41
1
10
20.0595007548116
20
0.343312455929805
30
0
41
0.999999999999999
10
19.5126257548116
20
0.661316326678133
30
0
41
1
10
18.8876257548116
20
1.00386822551854
30
0
41
1
10
18.1063757548116
20
1.38439234734403
30
0
41
1
10
17.5594906264567
20
1.59833079981911
30
0
41
1
10
17.2469804981017
20
1.69856378241735
30
0
41
1
10
17.2469703697467
20
1.69856703091366
30
0
0
SPLINE
5
119
100
AcDbEntity
8
1
62
256
6
ByLayer
370
18
48
1
60
0
100
AcDbSpline
70
4
71
3
72
8
73
4
40
0
40
0
40
0
40
0
40
1
40
1
40
1
40
1
41
1
10
14.4077698371069
20
-2.18793731145973
30
0
41
1
10
14.3521872479949
20
-2.19131545936187
30
0
41
1
10
14.296604658883
20
-2.1938724196969
30
0
41
1
10
14.2410220697711
20
-2.19560398467803
30
0
0
SPLINE
5
11A
100
AcDbEntity
8
1
62
256
6
ByLayer
370
13
48
1
60
0
100
AcDbSpline
70
4
71
3
72
13
73
9
40
0
40
0
40
0
40
0
40
0.0075294401922477
40
0.136982121906302
40
0.309585697525042
40
0.482189273143781
40
0.654792848762521
40
1
40
1
40
1
40
1
41
1
10
14.2410220697049
20
-2.19560398468002
30
0
41
1
10
14.2273899647405
20
-2.19602866578867
30
0
41
1
10
13.9793828597761
20
-2.20285157634677
30
0
41
1
10
13.4188757548115
20
-2.18108626476885
30
0
41
1
10
12.5595007548115
20
-2.02201056934902
30
0
41
1
10
11.6220007548115
20
-1.70461542311045
30
0
41
1
10
10.3720007548115
20
-1.1221230820704
30
0
41
1
10
9.43450075481164
20
-0.545415418829691
30
0
41
1
10
8.80950075481155
20
-0.154543311775029
30
0
0
SPLINE
5
11B
100
AcDbEntity
8
1
62
256
6
ByLayer
370
13
48
1
60
0
100
AcDbSpline
70
4
71
3
72
20
73
16
40
0
40
0
40
0
40
0
40
0.0132600969927558
40
0.103396230692694
40
0.193532364392633
40
0.313713875992551
40
0.40385000969249
40
0.493986143392428
40
0.554076899192387
40
0.614167654992346
40
0.674258410792305
40
0.734349166592264
40
0.824485300292203
40
0.914621433992141
40
1
40
1
40
1
40
1
41
1
10
19.6941888025214
20
-2.19572460070756
30
0
41
1
10
19.6597094532848
20
-2.19686101538824
30
0
41
1
10
19.3908551040482
20
-2.20286510168714
30
0
41
1
10
18.8876257548116
20
-2.17274150848308
30
0
41
1
10
18.1063757548115
20
-2.01468022325221
30
0
41
1
10
17.3251257548116
20
-1.73188425764323
30
0
41
1
10
16.5438757548115
20
-1.34772241120856
30
0
41
0.999999999999999
10
15.9188757548116
20
-0.986352118439755
30
0
41
1
10
15.3720007548115
20
-0.639349698529969
30
0
41
1
10
14.9032507548116
20
-0.331027865176765
30
0
41
1
10
14.4345007548116
20
-0.0165952053474143
30
0
41
0.999999999999999
10
13.8876257548116
20
0.354614231120394
30
0
41
1
10
13.2626257548116
20
0.766696988008817
30
0
41
0.999999999999999
10
12.5718715419983
20
1.18476963528735
30
0
41
0.999999999999999
10
12.1154923291849
20
1.42773620573939
30
0
41
1
10
11.8934881163716
20
1.53520470484733
30
0
0
SPLINE
5
11C
100
AcDbEntity
8
1
62
256
6
ByLayer
370
18
48
1
60
0
100
AcDbSpline
70
4
71
3
72
18
73
14
40
0
40
0
40
0
40
0
40
0.249999999999969
40
0.249999999999969
40
0.374999999999974
40
0.374999999999974
40
0.49999999999998
40
0.49999999999998
40
0.624999999999985
40
0.624999999999985
40
0.74999999999999
40
0.74999999999999
40
1
40
1
40
1
40
1
41
1
10
23.5484831056605
20
-2.02056427755639
30
0
41
1
10
23.5505600343052
20
-2.02450375892687
30
0
41
1
10
23.552214538471
20
-2.02905393843136
30
0
41
1
10
23.5537428345351
20
-2.03713580477114
30
0
41
1
10
23.5540911672596
20
-2.04004154928086
30
0
41
1
10
23.5543459364812
20
-2.04640408050335
30
0
41
1
10
23.5542467310229
20
-2.04981482484729
30
0
41
1
10
23.5534701713992
20
-2.05704694432359
30
0
41
1
10
23.5527770186935
20
-2.06094439649968
30
0
41
1
10
23.550717845744
20
-2.06892625345216
30
0
41
1
10
23.5493600850717
20
-2.07301680946691
30
0
41
1
10
23.544155309311
20
-2.08559494096579
30
0
41
1
10
23.5393241018857
20
-2.09387538726915
30
0
41
1
10
23.5337539741877
20
-2.10133758767105
30
0
0
SPLINE
5
11D
100
AcDbEntity
8
1
62
256
6
ByLayer
370
13
48
1
60
0
100
AcDbSpline
70
4
71
3
72
19
73
15
40
0
40
0
40
0
40
0
40
0.104591049249139
40
0.177064565038258
40
0.249538080827376
40
0.322011596616495
40
0.394485112405614
40
0.466958628194732
40
0.539432143983851
40
0.611905659772969
40
0.720615933456647
40
0.829326207140325
40
0.974273238718562
40
1
40
1
40
1
40
1
41
1
10
23.5484831056636
20
-2.02056427755719
30
0
41
1
10
23.3229889887129
20
-1.96222290708883
30
0
41
1
10
22.9412448717622
20
-1.84026659145559
30
0
41
1
10
22.4032507548115
20
-1.61839008112176
30
0
41
1
10
21.9345007548115
20
-1.39234333462119
30
0
41
1
10
21.4657507548115
20
-1.14150198274029
30
0
41
1
10
20.9970007548116
20
-0.87177715191163
30
0
41
1
10
20.5282507548115
20
-0.575366927028227
30
0
41
1
10
20.0595007548115
20
-0.268478121510327
30
0
41
0.999999999999999
10
19.5126257548116
20
0.0890566976460435
30
0
41
1
10
18.8876257548116
20
0.495225595042683
30
0
41
1
10
18.1063757548115
20
0.982591927006211
30
0
41
1
10
17.50403488695
20
1.3195677999407
30
0
41
1
10
17.1360690190883
20
1.49828036955571
30
0
41
1
10
17.0806031512267
20
1.52457430809463
30
0
0
SPLINE
5
11E
100
AcDbEntity
8
1
62
256
6
ByLayer
370
13
48
1
60
0
100
AcDbSpline
70
4
71
3
72
16
73
12
40
0
40
0
40
0
40
0
40
0.111129944451106
40
0.287420520529038
40
0.404947571247659
40
0.52247462196628
40
0.6400016726849
40
0.757528723403522
40
0.875055774122143
40
0.992582824840763
40
1
40
1
40
1
40
1
41
1
10
18.4443902516407
20
1.25644404781281
30
0
41
1
10
18.5921354193644
20
1.23249409798294
30
0
41
1
10
18.9742555870879
20
1.16157637275967
30
0
41
0.999999999999999
10
19.5126257548116
20
1.03066657420368
30
0
41
1
10
20.0595007548116
20
0.870398713678838
30
0
41
1
10
20.5282507548116
20
0.717333511783693
30
0
41
1
10
20.9970007548116
20
0.55079225536079
30
0
41
1
10
21.4657507548116
20
0.373737047663724
30
0
41
1
10
21.9345007548116
20
0.189805709438986
30
0
41
1
10
22.2568617494638
20
0.0612604399134113
30
0
41
1
10
22.4229727441161
20
-0.0050385020607848
30
0
41
1
10
22.4328337387683
20
-0.0089743348887339
30
0
0
SPLINE
5
11F
100
AcDbEntity
8
1
62
256
6
ByLayer
370
18
48
1
60
0
100
AcDbSpline
70
4
71
3
72
24
73
20
40
0
40
0
40
0
40
0
40
0.125000000000046
40
0.125000000000046
40
0.187500000000069
40
0.187500000000069
40
0.250000000000092
40
0.250000000000092
40
0.375000000000077
40
0.375000000000077
40
0.500000000000061
40
0.500000000000061
40
0.625000000000046
40
0.625000000000046
40
0.750000000000031
40
0.750000000000031
40
0.875000000000015
40
0.875000000000015
40
1
40
1
40
1
40
1
41
1
10
22.4328337387686
20
-0.0089743348888476
30
0
41
1
10
22.4378294729875
20
0.0073733006501016
30
0
41
1
10
22.4443022695753
20
0.0229418783331141
30
0
41
1
10
22.4559573600453
20
0.0452567198542226
30
0
41
1
10
22.4601703718105
20
0.0525201842299623
30
0
41
1
10
22.4692456083021
20
0.0667003002104707
30
0
41
1
10
22.4741339606864
20
0.0736473730555076
30
0
41
1
10
22.4895055841191
20
0.0935990271111393
30
0
41
1
10
22.5007252161107
20
0.105806462880111
30
0
41
1
10
22.5250381685899
20
0.12814221179994
30
0
41
1
10
22.5382565355243
20
0.138330506679637
30
0
41
1
10
22.5657766057841
20
0.155994518537
30
0
41
1
10
22.5801294583248
20
0.163546269648634
30
0
41
1
10
22.6100491628049
20
0.176187443570086
30
0
41
1
10
22.6256957882609
20
0.18127276137119
30
0
41
1
10
22.6572527909454
20
0.188757020467904
30
0
41
1
10
22.6732752882279
20
0.191215411468619
30
0
41
1
10
22.7058423205842
20
0.193751182684537
30
0
41
1
10
22.7224333109306
20
0.193815674973479
30
0
41
1
10
22.7390210734088
20
0.192765983210336
30
0
0
SPLINE
5
120
100
AcDbEntity
8
1
62
256
6
ByLayer
370
13
48
1
60
0
100
AcDbSpline
70
4
71
3
72
10
73
6
40
0
40
0
40
0
40
0
40
0.827245169509152
40
0.827245169509152
40
1
40
1
40
1
40
1
41
1
10
23.1803496446557
20
1.06849446935786
30
0
41
1
10
23.1946321257072
20
0.972101215411243
30
0
41
1
10
23.2089146773411
20
0.875708564088853
30
0
41
1
10
23.2261799592004
20
0.759186809442468
30
0
41
1
10
23.2291597585623
20
0.73905683803207
30
0
41
1
10
23.2321404989302
20
0.718926743067584
30
0
0
SPLINE
5
121
100
AcDbEntity
8
1
62
256
6
ByLayer
370
13
48
1
60
0
100
AcDbSpline
70
4
71
3
72
18
73
14
40
0
40
0
40
0
40
0
40
0.100594183479514
40
0.17264586014733
40
0.244697536815147
40
0.316749213482963
40
0.38880089015078
40
0.496878405152504
40
0.604955920154229
40
0.749059273489862
40
0.857136788491587
40
0.965214303493312
40
1
40
1
40
1
40
1
41
1
10
13.3113104185594
20
1.2397289327424
30
0
41
1
10
13.5294571973101
20
1.2009614824112
30
0
41
0.999999999999999
10
13.9038539760609
20
1.1207532951137
30
0
41
1
10
14.4345007548116
20
0.977664501791878
30
0
41
1
10
14.9032507548116
20
0.832567447982541
30
0
41
1
10
15.3720007548116
20
0.670998081226031
30
0
41
0.999999999999999
10
15.9188757548116
20
0.466774962670428
30
0
41
1
10
16.5438757548115
20
0.217426108212635
30
0
41
1
10
17.3251257548116
20
-0.10410254793473
30
0
41
1
10
18.1063757548116
20
-0.422973222075029
30
0
41
1
10
18.8876257548116
20
-0.714572248806917
30
0
41
0.999999999999999
10
19.4318114050357
20
-0.894133064568053
30
0
41
1
10
19.7416220552598
20
-0.984173404501008
30
0
41
1
10
19.8170577054838
20
-1.00532321254204
30
0
0
SPLINE
5
122
100
AcDbEntity
8
1
62
256
6
ByLayer
370
13
48
1
60
0
100
AcDbSpline
70
4
71
3
72
13
73
9
40
0
40
0
40
0
40
0
40
0.326261883600282
40
0.489392825400423
40
0.652523767200564
40
0.815654709000705
40
0.938002915350811
40
1
40
1
40
1
40
1
41
1
10
8.80950075481158
20
1.11910630668527
30
0
41
1
10
9.43450075481164
20
0.967271070416217
30
0
41
1
10
10.3720007548116
20
0.640209985536074
30
0
41
1
10
11.6220007548116
20
0.122593148276223
30
0
41
1
10
12.5595007548116
20
-0.277539021910684
30
0
41
1
10
13.4188757548116
20
-0.621520690675481
30
0
41
1
10
14.0845147902488
20
-0.856104346948939
30
0
41
1
10
14.4376538256862
20
-0.964352711844668
30
0
41
1
10
14.5564178611234
20
-0.998758592788391
30
0
0
SPLINE
5
123
100
AcDbEntity
8
1
62
256
6
ByLayer
370
18
48
1
60
0
100
AcDbSpline
70
4
71
3
72
8
73
4
40
0
40
0
40
0
40
0
40
1
40
1
40
1
40
1
41
1
10
23.4898150539394
20
1.16049672976118
30
0
41
1
10
23.577316611601
20
0.934432320718003
30
0
41
1
10
23.6648000972333
20
0.708247831414496
30
0
41
1
10
23.7522757337512
20
0.482019517682033
30
0
0
SPLINE
5
124
100
AcDbEntity
8
1
62
256
6
ByLayer
370
18
48
1
60
0
100
AcDbSpline
70
4
71
3
72
12
73
8
40
0
40
0
40
0
40
0
40
0.25
40
0.25
40
0.499999999999999
40
0.499999999999999
40
1
40
1
40
1
40
1
41
1
10
23.4898150539346
20
1.16049672977178
30
0
41
1
10
23.495729690777
20
1.14361100858483
30
0
41
1
10
23.5009695316027
20
1.12612993134673
30
0
41
1
10
23.5108529902794
20
1.08995660439859
30
0
41
1
10
23.515500490244
20
1.07122609804281
30
0
41
1
10
23.5293233164544
20
1.01363053157695
30
0
41
1
10
23.5384766333694
20
0.973339669802868
30
0
41
1
10
23.5492067686801
20
0.931493957900727
30
0
0
SPLINE
5
125
100
AcDbEntity
8
1
62
256
6
ByLayer
370
18
48
1
60
0
100
AcDbSpline
70
4
71
3
72
20
73
16
40
0
40
0
40
0
40
0
40
0.249999999999977
40
0.249999999999977
40
0.374999999999981
40
0.374999999999981
40
0.499999999999985
40
0.499999999999985
40
0.624999999999988
40
0.624999999999988
40
0.749999999999992
40
0.749999999999992
40
0.874999999999996
40
0.874999999999996
40
1
40
1
40
1
40
1
41
1
10
23.5492067686801
20
0.931493957900699
30
0
41
1
10
23.5512770086826
20
0.923420404548665
30
0
41
1
10
23.5529137120917
20
0.915716735316522
30
0
41
1
10
23.5543971221556
20
0.904903396427756
30
0
41
1
10
23.5547274274639
20
0.901423958064555
30
0
41
1
10
23.5549396363739
20
0.894785097070184
30
0
41
1
10
23.5548153425536
20
0.891665026088589
30
0
41
1
10
23.5539825900779
20
0.886101995385474
30
0
41
1
10
23.553258928494
20
0.88360435229481
30
0
41
1
10
23.5511323711503
20
0.879559843801275
30
0
41
1
10
23.5497411645038
20
0.878001981886456
30
0
41
1
10
23.5462177572153
20
0.875878465568462
30
0
41
1
10
23.544109225221
20
0.875346744308615
30
0
41
1
10
23.5394013222424
20
0.875273028291389
30
0
41
1
10
23.5367612927608
20
0.875726750821428
30
0
41
1
10
23.5339534570091
20
0.876576626108317
30
0
0
SPLINE
5
126
100
AcDbEntity
8
1
62
256
6
ByLayer
370
18
48
1
60
0
100
AcDbSpline
70
4
71
3
72
8
73
4
40
0
40
0
40
0
40
0
40
1
40
1
40
1
40
1
41
1
10
23.4339912288214
20
2.48567969315295
30
0
41
1
10
23.4472616658468
20
2.4846740327836
30
0
41
1
10
23.4604657748195
20
2.48308789530907
30
0
41
1
10
23.4736078001127
20
2.48088488416323
30
0
0
SPLINE
5
127
100
AcDbEntity
8
1
62
256
6
ByLayer
370
13
48
1
60
0
100
AcDbSpline
70
4
71
3
72
11
73
7
40
0
40
0
40
0
40
0
40
0.364260433592946
40
0.624644389474959
40
0.885028345356971
40
1
40
1
40
1
40
1
41
1
10
23.5277519037958
20
2.31752352624784
30
0
41
1
10
23.3091681874678
20
2.30377548962682
30
0
41
1
10
22.9343344711396
20
2.25689012915018
30
0
41
1
10
22.4032507548116
20
2.13685378793016
30
0
41
1
10
22.021759096024
20
2.01975458047343
30
0
41
1
10
21.7965174372364
20
1.9379879840649
30
0
41
1
10
21.7275257784489
20
1.91181803881173
30
0
0
SPLINE
5
128
100
AcDbEntity
8
1
62
256
6
ByLayer
370
18
48
1
60
0
100
AcDbSpline
70
4
71
3
72
8
73
4
40
0
40
0
40
0
40
0
40
1
40
1
40
1
40
1
41
1
10
23.4736078001258
20
2.4808848841686
30
0
41
1
10
23.4904034949248
20
2.42600892624742
30
0
41
1
10
23.5083689493577
20
2.37152730229457
30
0
41
1
10
23.5277519302483
20
2.31752353806249
30
0
0
SPLINE
5
129
100
AcDbEntity
8
1
62
256
6
ByLayer
370
18
48
1
60
0
100
AcDbSpline
70
4
71
3
72
26
73
22
40
0
40
0
40
0
40
0
40
0.249999999999963
40
0.249999999999963
40
0.374999999999943
40
0.374999999999943
40
0.499999999999924
40
0.499999999999924
40
0.624999999999904
40
0.624999999999904
40
0.68749999999992
40
0.68749999999992
40
0.749999999999936
40
0.749999999999936
40
0.812499999999952
40
0.812499999999952
40
0.874999999999968
40
0.874999999999968
40
0.937499999999984
40
0.937499999999984
40
1
40
1
40
1
40
1
41
1
10
7.32989713727105
20
-2.2364123518914
30
0
41
1
10
7.31876824602674
20
-2.2326164198038
30
0
41
1
10
7.30792134841084
20
-2.2286613441693
30
0
41
1
10
7.2923843041485
20
-2.22236144473973
30
0
41
1
10
7.28732923760174
20
-2.2201995568179
30
0
41
1
10
7.27758409853462
20
-2.21570431629925
30
0
41
1
10
7.27289163322163
20
-2.21337219715281
30
0
41
1
10
7.26420842110937
20
-2.20849627084604
30
0
41
1
10
7.260171029389
20
-2.20594539477983
30
0
41
1
10
7.25521089783271
20
-2.20183099582349
30
0
41
1
10
7.25376049357828
20
-2.20042418524716
30
0
41
1
10
7.25154180656713
20
-2.19749845915018
30
0
41
1
10
7.25075986300973
20
-2.19595963843636
30
0
41
1
10
7.25060360715042
20
-2.1928502054827
30
0
41
1
10
7.25126188227688
20
-2.19128055684013
30
0
41
1
10
7.25483016426145
20
-2.18845598031948
30
0
41
1
10
7.25764706861079
20
-2.18731374516747
30
0
41
1
10
7.2641363630884
20
-2.18564196771234
30
0
41
1
10
7.26780771304274
20
-2.18508139432348
30
0
41
1
10
7.27520516927763
20
-2.18430681129132
30
0
41
1
10
7.27901535522213
20
-2.18408217476281
30
0
41
1
10
7.28284937237953
20
-2.18395624920615
30
0
0
SPLINE
5
12A
100
AcDbEntity
8
1
62
256
6
ByLayer
370
18
48
1
60
0
100
AcDbSpline
70
4
71
3
72
30
73
26
40
0
40
0
40
0
40
0
40
0.124999999999999
40
0.124999999999999
40
0.249999999999998
40
0.249999999999998
40
0.312499999999997
40
0.312499999999997
40
0.374999999999996
40
0.374999999999996
40
0.437499999999996
40
0.437499999999996
40
0.499999999999995
40
0.499999999999995
40
0.562499999999994
40
0.562499999999994
40
0.624999999999994
40
0.624999999999994
40
0.687499999999993
40
0.687499999999993
40
0.749999999999992
40
0.749999999999992
40
0.874999999999996
40
0.874999999999996
40
1
40
1
40
1
40
1
41
1
10
7.2828493723795
20
-2.18395624920615
30
0
41
1
10
7.30214928247963
20
-2.18332235743611
30
0
41
1
10
7.32125597134336
20
-2.18231034315622
30
0
41
1
10
7.35892425336533
20
-2.17919962405989
30
0
41
1
10
7.37748950855141
20
-2.17710962783428
30
0
41
1
10
7.40471585434844
20
-2.17269706720148
30
0
41
1
10
7.41360040476343
20
-2.17102109175315
30
0
41
1
10
7.43071788519757
20
-2.16721392566956
30
0
41
1
10
7.43898009172037
20
-2.16507840291939
30
0
41
1
10
7.45480646182821
20
-2.16024566482628
30
0
41
1
10
7.46240630603367
20
-2.15752574333845
30
0
41
1
10
7.47629538965765
20
-2.15162936885849
30
0
41
1
10
7.48264939702253
20
-2.14843782134852
30
0
41
1
10
7.4941673582253
20
-2.14154063716808
30
0
41
1
10
7.49935973311239
20
-2.13780924630578
30
0
41
1
10
7.50841871856682
20
-2.12992197396124
30
0
41
1
10
7.51224270566283
20
-2.1258163777151
30
0
41
1
10
7.51867811449597
20
-2.11730119444093
30
0
41
1
10
7.52129321173354
20
-2.11288251722974
30
0
41
1
10
7.52545102645857
20
-2.10379384969303
30
0
41
1
10
7.52696994528387
20
-2.09918589574676
30
0
41
1
10
7.53018293289807
20
-2.08517750949696
30
0
41
1
10
7.53055077833648
20
-2.07559291972905
30
0
41
1
10
7.52883039885029
20
-2.05595166418709
30
0
41
1
10
7.52672568766965
20
-2.04590780609036
30
0
41
1
10
7.52374630390429
20
-2.03575954104087
30
0
0
SPLINE
5
12B
100
AcDbEntity
8
1
62
256
6
ByLayer
370
18
48
1
60
0
100
AcDbSpline
70
4
71
3
72
17
73
13
40
0
40
0
40
0
40
0
40
0.250000000000001
40
0.250000000000001
40
0.500000000000003
40
0.500000000000003
40
0.562500000000003
40
0.562500000000003
40
0.625000000000003
40
0.750000000000004
40
0.750000000000004
40
1
40
1
40
1
40
1
41
1
10
7.52374630390281
20
-2.03575954104184
30
0
41
1
10
7.44389737643013
20
-1.98409045602136
30
0
41
1
10
7.36922142335916
20
-1.92603018559066
30
0
41
1
10
7.23001710600249
20
-1.79555196785455
30
0
41
1
10
7.16548352232405
20
-1.72314626962609
30
0
41
1
10
7.09102284784646
20
-1.6223451808066
30
0
41
1
10
7.07642699216913
20
-1.60164700326288
30
0
41
1
10
7.04791605038022
20
-1.55926660223295
30
0
41
1
10
7.00635029836636
20
-1.49449145590043
30
0
41
1
10
6.96827291255292
20
-1.42608407320066
30
0
41
1
10
6.89651571129082
20
-1.28432916820651
30
0
41
1
10
6.85451650078105
20
-1.18326809798356
30
0
41
1
10
6.81793413808524
20
-1.07511298133284
30
0
0
SPLINE
5
12C
100
AcDbEntity
8
1
62
256
6
ByLayer
370
18
48
1
60
0
100
AcDbSpline
70
4
71
3
72
17
73
13
40
0
40
0
40
0
40
0
40
0.250000000000039
40
0.250000000000039
40
0.375000000000052
40
0.375000000000052
40
0.500000000000065
40
0.625000000000078
40
0.625000000000078
40
0.75000000000009
40
0.75000000000009
40
1
40
1
40
1
40
1
41
1
10
6.81793413808524
20
-1.07511298133287
30
0
41
1
10
6.81590203619007
20
-1.06910510755654
30
0
41
1
10
6.81451087501915
20
-1.06299503095545
30
0
41
1
10
6.81365951949564
20
-1.05363621885314
30
0
41
1
10
6.8135857388788
20
-1.0504596289156
30
0
41
1
10
6.81391342458778
20
-1.04418310495782
30
0
41
1
10
6.81470790574375
20
-1.03797956270967
30
0
41
1
10
6.81647885108123
20
-1.03193030727491
30
0
41
1
10
6.81876952683447
20
-1.02596409889929
30
0
41
1
10
6.82018054750677
20
-1.02302517813092
30
0
41
1
10
6.82503649936871
20
-1.01465186181264
30
0
41
1
10
6.82916601523831
20
-1.0095177371324
30
0
41
1
10
6.83400107514728
20
-1.00487053310496
30
0
0
SPLINE
5
12D
100
AcDbEntity
8
1
62
256
6
ByLayer
370
18
48
1
60
0
100
AcDbSpline
70
4
71
3
72
32
73
28
40
0
40
0
40
0
40
0
40
0.0625000000000121
40
0.0625000000000121
40
0.125000000000024
40
0.125000000000024
40
0.156250000000025
40
0.156250000000025
40
0.187500000000025
40
0.187500000000025
40
0.250000000000026
40
0.250000000000026
40
0.375000000000028
40
0.375000000000028
40
0.437500000000023
40
0.437500000000023
40
0.500000000000017
40
0.500000000000017
40
0.625000000000007
40
0.625000000000007
40
0.749999999999996
40
0.749999999999996
40
0.812499999999997
40
0.812499999999997
40
0.874999999999998
40
0.874999999999998
40
1
40
1
40
1
40
1
41
1
10
6.83400107514726
20
-1.00487053310496
30
0
41
1
10
6.85749815119226
20
-0.982286385548264
30
0
41
1
10
6.88310447129714
20
-0.962347908820135
30
0
41
1
10
6.93727919223218
20
-0.926259517053893
30
0
41
1
10
6.9658642683539
20
-0.91012950931588
30
0
41
1
10
7.01049122716196
20
-0.888211907419674
30
0
41
1
10
7.02567842339431
20
-0.881282155189098
30
0
41
1
10
7.05651621271437
20
-0.868154279520212
30
0
41
1
10
7.07205801049545
20
-0.862000947418238
30
0
41
1
10
7.1190058506092
20
-0.844624865879695
30
0
41
1
10
7.15073202235473
20
-0.834478646136944
30
0
41
1
10
7.24694558545022
20
-0.807559802815973
30
0
41
1
10
7.31245459962
20
-0.794264236768157
30
0
41
1
10
7.41226575356924
20
-0.779679092286216
30
0
41
1
10
7.44581816291546
20
-0.775728978065445
30
0
41
1
10
7.512665275915
20
-0.769545698623602
30
0
41
1
10
7.54605713425195
20
-0.767297122540015
30
0
41
1
10
7.64614736578309
20
-0.762828037193657
30
0
41
1
10
7.71276094620274
20
-0.762870694967205
30
0
41
1
10
7.84579315716638
20
-0.768159332296165
30
0
41
1
10
7.91221145240124
20
-0.773413827346815
30
0
41
1
10
8.01170476558676
20
-0.784848603562125
30
0
41
1
10
8.04484676471546
20
-0.789254361134141
30
0
41
1
10
8.11108720096527
20
-0.799212054150331
30
0
41
1
10
8.14421961525369
20
-0.804770994711731
30
0
41
1
10
8.24317960345891
20
-0.823042738758147
30
0
41
1
10
8.30863662100913
20
-0.837352998602682
30
0
41
1
10
8.37361086045755
20
-0.853608510981701
30
0
0
SPLINE
5
12E
100
AcDbEntity
8
1
62
256
6
ByLayer
370
18
48
1
60
0
100
AcDbSpline
70
4
71
3
72
26
73
22
40
0
40
0
40
0
40
0
40
0.249999999999941
40
0.249999999999941
40
0.374999999999951
40
0.374999999999951
40
0.499999999999961
40
0.499999999999961
40
0.624999999999971
40
0.624999999999971
40
0.687499999999976
40
0.687499999999976
40
0.749999999999981
40
0.749999999999981
40
0.812499999999986
40
0.812499999999986
40
0.87499999999999
40
0.87499999999999
40
0.937499999999995
40
0.937499999999995
40
1
40
1
40
1
40
1
41
1
10
7.3033066364456
20
0.689357738393539
30
0
41
1
10
7.29199210364391
20
0.699354553363861
30
0
41
1
10
7.2809581727409
20
0.709589206305594
30
0
41
1
10
7.2651384862456
20
0.725575848660611
30
0
41
1
10
7.25998885394677
20
0.731012057605824
30
0
41
1
10
7.25005419587214
20
0.742204575766891
30
0
41
1
10
7.24526286746902
20
0.747962375642203
30
0
41
1
10
7.23639141046979
20
0.759872774639149
30
0
41
1
10
7.23227450427754
20
0.76602096359241
30
0
41
1
10
7.22717313833232
20
0.775902892450318
30
0
41
1
10
7.22568116593919
20
0.779264621510578
30
0
41
1
10
7.22340343135582
20
0.786193186357707
30
0
41
1
10
7.222594574845
20
0.789826750415443
30
0
41
1
10
7.22243767804375
20
0.79714770734617
30
0
41
1
10
7.22314269709952
20
0.800843753010497
30
0
41
1
10
7.22682568294968
20
0.807330034261554
30
0
41
1
10
7.22974745223934
20
0.809948088908584
30
0
41
1
10
7.23635954247422
20
0.81371565411672
30
0
41
1
10
7.24008050491645
20
0.814969148930516
30
0
41
1
10
7.24755192024693
20
0.816701624788635
30
0
41
1
10
7.25136980440726
20
0.817201927093663
30
0
41
1
10
7.25523615072049
20
0.817486577379356
30
0
0
SPLINE
5
12F
100
AcDbEntity
8
1
62
256
6
ByLayer
370
18
48
1
60
0
100
AcDbSpline
70
4
71
3
72
32
73
28
40
0
40
0
40
0
40
0
40
0.124999999999955
40
0.124999999999955
40
0.187499999999933
40
0.187499999999933
40
0.24999999999991
40
0.24999999999991
40
0.312499999999888
40
0.312499999999888
40
0.374999999999866
40
0.374999999999866
40
0.406249999999865
40
0.406249999999865
40
0.437499999999864
40
0.437499999999864
40
0.499999999999878
40
0.499999999999878
40
0.562499999999893
40
0.562499999999893
40
0.624999999999908
40
0.624999999999908
40
0.749999999999938
40
0.749999999999938
40
0.874999999999969
40
0.874999999999969
40
1
40
1
40
1
40
1
41
1
10
7.25523615072049
20
0.817486577379384
30
0
41
1
10
7.28065731234616
20
0.819358148194226
30
0
41
1
10
7.30575967330608
20
0.82264406893853
30
0
41
1
10
7.3426517734361
20
0.830935306588316
30
0
41
1
10
7.35482059632386
20
0.834266536946757
30
0
41
1
10
7.37881569152447
20
0.842435423803806
30
0
41
1
10
7.39058743622911
20
0.847270693809406
30
0
41
1
10
7.41293838698599
20
0.858560970442824
30
0
41
1
10
7.42359651999536
20
0.865039089442234
30
0
41
1
10
7.44362058530274
20
0.880060046769614
30
0
41
1
10
7.45265915787493
20
0.888372305094634
30
0
41
1
10
7.46464910958528
20
0.901988648188137
30
0
41
1
10
7.46838896895306
20
0.906721914244685
30
0
41
1
10
7.47535190580797
20
0.916576803526851
30
0
41
1
10
7.47859134828869
20
0.921730151777354
30
0
41
1
10
7.48738408508524
20
0.937492810497417
30
0
41
1
10
7.49203090026603
20
0.948386713219065
30
0
41
1
10
7.4993201764984
20
0.970785138723812
30
0
41
1
10
7.50195524947009
20
0.982331794600839
30
0
41
1
10
7.50548434040675
20
1.00524372892559
30
0
41
1
10
7.50641254390416
20
1.01669671611526
30
0
41
1
10
7.50726424052934
20
1.05101757113212
30
0
41
1
10
7.505250766107
20
1.07398271532745
30
0
41
1
10
7.49806984549454
20
1.11868273759583
30
0
41
1
10
7.49290358160778
20
1.14052916923921
30
0
41
1
10
7.48044626321345
20
1.18344546278769
30
0
41
1
10
7.47314170349057
20
1.204512374606
30
0
41
1
10
7.46503161886486
20
1.22524972148247
30
0
0
SPLINE
5
130
100
AcDbEntity
8
1
62
256
6
ByLayer
370
18
48
1
60
0
100
AcDbSpline
70
4
71
3
72
22
73
18
40
0
40
0
40
0
40
0
40
0.25000000000001
40
0.25000000000001
40
0.375000000000015
40
0.375000000000015
40
0.437500000000015
40
0.437500000000015
40
0.500000000000015
40
0.500000000000015
40
0.750000000000008
40
0.750000000000008
40
0.875000000000004
40
0.875000000000004
40
0.937500000000002
40
0.937500000000002
40
1
40
1
40
1
40
1
41
1
10
7.46503161886486
20
1.22524972148247
30
0
41
1
10
7.39669434771483
20
1.31982788759976
30
0
41
1
10
7.33617490293321
20
1.4129083817835
30
0
41
1
10
7.25628000824483
20
1.54873692872678
30
0
41
1
10
7.23146330386268
20
1.59337842152652
30
0
41
1
10
7.19687815469914
20
1.65916411284738
30
0
41
1
10
7.18578999505951
20
1.68089632727393
30
0
41
1
10
7.16448402381877
20
1.72392693607134
30
0
41
1
10
7.15427479078548
20
1.74521230451435
30
0
41
1
10
7.105885515197
20
1.84931731348155
30
0
41
1
10
7.07513477263362
20
1.92614314873873
30
0
41
1
10
7.03920926969576
20
2.03073166381205
30
0
41
1
10
7.02894680180538
20
2.06381500690483
30
0
41
1
10
7.0160200371358
20
2.11059314936199
30
0
41
1
10
7.01211791765493
20
2.12573422957919
30
0
41
1
10
7.0051659043379
20
2.1548763466169
30
0
41
1
10
7.00211283337035
20
2.16888488452798
30
0
41
1
10
6.99947091419673
20
2.18232535250752
30
0
0
SPLINE
5
131
100
AcDbEntity
8
1
62
256
6
ByLayer
370
18
48
1
60
0
100
AcDbSpline
70
4
71
3
72
12
73
8
40
0
40
0
40
0
40
0
40
0.500000000000002
40
0.500000000000002
40
0.750000000000001
40
0.750000000000001
40
1
40
1
40
1
40
1
41
1
10
6.99947091419673
20
2.18232535250752
30
0
41
1
10
6.99753717707887
20
2.19216302357384
30
0
41
1
10
6.99846362684298
20
2.20158134772598
30
0
41
1
10
7.00447299352703
20
2.21509875248489
30
0
41
1
10
7.00727250274011
20
2.21952670997473
30
0
41
1
10
7.01434681588998
20
2.22801993699355
30
0
41
1
10
7.01861457336776
20
2.23209441490923
30
0
41
1
10
7.02358393864196
20
2.23601041702207
30
0
0
SPLINE
5
132
100
AcDbEntity
8
1
62
256
6
ByLayer
370
18
48
1
60
0
100
AcDbSpline
70
4
71
3
72
32
73
28
40
0
40
0
40
0
40
0
40
0.0624999999999854
40
0.0624999999999854
40
0.0937499999999822
40
0.0937499999999822
40
0.124999999999979
40
0.124999999999979
40
0.187499999999982
40
0.187499999999982
40
0.249999999999985
40
0.249999999999985
40
0.312499999999989
40
0.312499999999989
40
0.374999999999992
40
0.374999999999992
40
0.499999999999985
40
0.499999999999985
40
0.562499999999982
40
0.562499999999982
40
0.624999999999979
40
0.624999999999979
40
0.749999999999986
40
0.749999999999986
40
0.874999999999993
40
0.874999999999993
40
1
40
1
40
1
40
1
41
1
10
7.02358393864193
20
2.23601041702207
30
0
41
1
10
7.0369015724724
20
2.24650509377463
30
0
41
1
10
7.05318219173588
20
2.25575145421627
30
0
41
1
10
7.08109442103975
20
2.26825220596967
30
0
41
1
10
7.09098580924729
20
2.27218829300057
30
0
41
1
10
7.11183488009181
20
2.27965780163456
30
0
41
1
10
7.12284203645865
20
2.28320473108926
30
0
41
1
10
7.15690616176244
20
2.29319242912035
30
0
41
1
10
7.18096656919582
20
2.29899651446814
30
0
41
1
10
7.23116298396235
20
2.30939239263387
30
0
41
1
10
7.2573045119664
20
2.3139798844293
30
0
41
1
10
7.31129808246152
20
2.32223861042616
30
0
41
1
10
7.33925499145835
20
2.32591742340139
30
0
41
1
10
7.39577977182591
20
2.33246589220804
30
0
41
1
10
7.42442593956636
20
2.33534995039108
30
0
41
1
10
7.51133053012913
20
2.34310836496428
30
0
41
1
10
7.5705443429101
20
2.34710409701779
30
0
41
1
10
7.66087529600796
20
2.35196051098762
30
0
41
1
10
7.69124072970362
20
2.35338493355493
30
0
41
1
10
7.75244449354452
20
2.35590665880341
30
0
41
1
10
7.78333438738471
20
2.35700494947932
30
0
41
1
10
7.87597908061318
20
2.35985521342576
30
0
41
1
10
7.93788567791964
20
2.36117817633956
30
0
41
1
10
8.06195392990301
20
2.36292774831443
30
0
41
1
10
8.12411590529891
20
2.36335200464438
30
0
41
1
10
8.24868201546957
20
2.36339013103711
30
0
41
1
10
8.31108629496205
20
2.36300322423315
30
0
41
1
10
8.37361086045755
20
2.36219422713182
30
0
0
SPLINE
5
133
100
AcDbEntity
8
1
62
256
6
ByLayer
370
13
48
1
60
0
100
AcDbSpline
70
4
71
3
72
8
73
4
40
0
40
0
40
0
40
0
40
1
40
1
40
1
40
1
41
0.999998428260378
10
23.2777938841793
20
0.392130070841753
30
0
41
0.999998428260378
10
23.2721647934967
20
0.434163066788563
30
0
41
0.999998428260378
10
23.2665357028142
20
0.4761960627354
30
0
41
0.999998428260378
10
23.2609066121317
20
0.51822905868221
30
0
0
SPLINE
5
134
100
AcDbEntity
8
1
62
256
6
ByLayer
370
18
48
1
60
0
100
AcDbSpline
70
4
71
3
72
41
73
37
40
0
40
0
40
0
40
0
40
0.0625000000000413
40
0.0625000000000413
40
0.125000000000083
40
0.125000000000083
40
0.156250000000103
40
0.156250000000103
40
0.187500000000124
40
0.187500000000124
40
0.250000000000164
40
0.250000000000164
40
0.28125000000018
40
0.28125000000018
40
0.312500000000196
40
0.375000000000227
40
0.375000000000227
40
0.406250000000234
40
0.406250000000234
40
0.437500000000241
40
0.437500000000241
40
0.500000000000233
40
0.500000000000233
40
0.531250000000229
40
0.531250000000229
40
0.562500000000225
40
0.562500000000225
40
0.625000000000216
40
0.625000000000216
40
0.750000000000173
40
0.750000000000173
40
0.812500000000137
40
0.812500000000137
40
0.875000000000101
40
0.875000000000101
40
1
40
1
40
1
40
1
41
1
10
23.5336528112601
20
0.216672424980402
30
0
41
1
10
23.5430446666957
20
0.21293128419191
30
0
41
1
10
23.5509338869152
20
0.209287181697306
30
0
41
1
10
23.5631924438956
20
0.202226328447722
30
0
41
1
10
23.5675661331299
20
0.198809286894942
30
0
41
1
10
23.5709048173611
20
0.193891808347274
30
0
41
1
10
23.5714713881402
20
0.192286591810557
30
0
41
1
10
23.5714172100814
20
0.189211748540487
30
0
41
1
10
23.5708035330115
20
0.187734511964578
30
0
41
1
10
23.5671314281313
20
0.183490673911194
30
0
41
1
10
23.5622459791479
20
0.18091152831397
30
0
41
1
10
23.5509062991303
20
0.17745439819123
30
0
41
1
10
23.5464291418519
20
0.176365603369362
30
0
41
1
10
23.5361977599679
20
0.174357794289222
30
0
41
1
10
23.5190469001782
20
0.171615649995545
30
0
41
1
10
23.4967837833338
20
0.169637513716566
30
0
41
1
10
23.4714439561959
20
0.168119180473838
30
0
41
1
10
23.4624457017859
20
0.167688846961653
30
0
41
1
10
23.4437730072651
20
0.166983939221041
30
0
41
1
10
23.4340791204132
20
0.166707338002453
30
0
41
1
10
23.4040452752264
20
0.16607954198679
30
0
41
1
10
23.3827580707817
20
0.16592930711235
30
0
41
1
10
23.3492957865992
20
0.166028860445266
30
0
41
1
10
23.3378850652236
20
0.166116488684935
30
0
41
1
10
23.3145976476278
20
0.16639060254181
30
0
41
1
10
23.3026924486462
20
0.166577711697329
30
0
41
1
10
23.2665997670098
20
0.167269040893927
30
0
41
1
10
23.2420304490208
20
0.167901318136785
30
0
41
1
10
23.1671248990799
20
0.170202573666643
30
0
41
1
10
23.1156078514029
20
0.172270309125963
30
0
41
1
10
23.0367313325775
20
0.175912546394244
30
0
41
1
10
23.0101669550606
20
0.177218547977873
30
0
41
1
10
22.9565749342785
20
0.179986994302112
30
0
41
1
10
22.9295018157415
20
0.181452150599654
30
0
41
1
10
22.8481559666918
20
0.186023626477777
30
0
41
1
10
22.7936798264819
20
0.189307117497719
30
0
41
1
10
22.7390210734141
20
0.192765983209995
30
0
0
SPLINE
5
135
100
AcDbEntity
8
1
62
256
6
ByLayer
370
13
48
1
60
0
100
AcDbSpline
70
4
71
3
72
8
73
4
40
0
40
0
40
0
40
0
40
1
40
1
40
1
40
1
41
1
10
23.2960852392422
20
0.386372173503048
30
0
41
1
10
23.2916601618894
20
0.419414678753753
30
0
41
1
10
23.2872350845366
20
0.452457184004459
30
0
41
1
10
23.2828100071838
20
0.485499689255164
30
0
0
SPLINE
5
136
100
AcDbEntity
8
1
62
256
6
ByLayer
370
18
48
1
60
0
100
AcDbSpline
70
4
71
3
72
26
73
22
40
0
40
0
40
0
40
0
40
0.125000000000002
40
0.125000000000002
40
0.250000000000005
40
0.250000000000005
40
0.312500000000005
40
0.312500000000005
40
0.375000000000005
40
0.375000000000005
40
0.500000000000007
40
0.500000000000007
40
0.562499999999991
40
0.562499999999991
40
0.624999999999975
40
0.624999999999975
40
0.749999999999983
40
0.749999999999983
40
0.874999999999992
40
0.874999999999992
40
1
40
1
40
1
40
1
41
1
10
23.7959363883221
20
0.156790202238426
30
0
41
1
10
23.7966383430664
20
0.159606784865986
30
0
41
1
10
23.7953093599643
20
0.162567696347963
30
0
41
1
10
23.7888638125069
20
0.16875868423827
30
0
41
1
10
23.7837591776415
20
0.171987912879388
30
0
41
1
10
23.7732708822933
20
0.1770329655875
30
0
41
1
10
23.7692808484652
20
0.17875527424917
30
0
41
1
10
23.7604528785716
20
0.182221111425321
30
0
41
1
10
23.7556135586283
20
0.183967035442777
30
0
41
1
10
23.7398502275267
20
0.189242887098743
30
0
41
1
10
23.7276929356512
20
0.192810524649161
30
0
41
1
10
23.7069818816789
20
0.198237662375618
30
0
41
1
10
23.6996623012323
20
0.200059425092007
30
0
41
1
10
23.6841642689022
20
0.203729212158294
30
0
41
1
10
23.676017031939
20
0.205569132784717
30
0
41
1
10
23.6506664882249
20
0.211042349242462
30
0
41
1
10
23.6324579150468
20
0.214653796786735
30
0
41
1
10
23.5934282078758
20
0.221802075281318
30
0
41
1
10
23.5725542859893
20
0.225346819884948
30
0
41
1
10
23.528166419355
20
0.232321691492103
30
0
41
1
10
23.5050970584721
20
0.235683113617569
30
0
41
1
10
23.4811478913859
20
0.238917891780687
30
0
0
SPLINE
5
137
100
AcDbEntity
8
1
62
256
6
ByLayer
370
18
48
1
60
0
100
AcDbSpline
70
4
71
3
72
37
73
33
40
0
40
0
40
0
40
0
40
0.0338668044196285
40
0.0681341610065366
40
0.102788529745431
40
0.137712952777197
40
0.172815245791922
40
0.208109570215903
40
0.243666116101047
40
0.279572932092221
40
0.315912460273821
40
0.352683410583805
40
0.389729958965422
40
0.426881042451313
40
0.464113072963617
40
0.501501637453693
40
0.539146874887315
40
0.609497875863413
40
0.683725696106994
40
0.760990013671728
40
0.841841380197575
40
0.853684253989872
40
0.866059314134759
40
0.878962430222406
40
0.892385088864429
40
0.906314643761405
40
0.920737353125093
40
0.935642019807373
40
0.951021464816332
40
0.966872856142564
40
0.983197491962484
40
1
40
1
40
1
40
1
41
1
10
23.7523059488582
20
0.481994364444944
30
0
41
1
10
23.7517569782263
20
0.482929904322162
30
0
41
1
10
23.7506525441334
20
0.484812048968422
30
0
41
1
10
23.7477297178981
20
0.487852614157902
30
0
41
1
10
23.7438548871009
20
0.491069807761107
30
0
41
1
10
23.738933149921
20
0.494466821615276
30
0
41
1
10
23.7329893590543
20
0.498027193791131
30
0
41
1
10
23.7260144114425
20
0.501747256275706
30
0
41
1
10
23.7179964309194
20
0.505630220329863
30
0
41
1
10
23.7089099871371
20
0.509684531091921
30
0
41
1
10
23.6987280756954
20
0.51391851033884
30
0
41
1
10
23.6874511803516
20
0.51832625430481
30
0
41
1
10
23.6751166820012
20
0.522877543153101
30
0
41
1
10
23.6617727707772
20
0.527536118758121
30
0
41
1
10
23.6474509609396
20
0.532283687464059
30
0
41
1
10
23.6321497110186
20
0.537120459579484
30
0
41
1
10
23.6111840116395
20
0.543461983051088
30
0
41
1
10
23.5828921862015
20
0.551559161813088
30
0
41
1
10
23.5454596254889
20
0.561582406573223
30
0
41
1
10
23.5032920021507
20
0.57205739014978
30
0
41
1
10
23.4704437364741
20
0.579693057654737
30
0
41
1
10
23.4495572092148
20
0.584379337048716
30
0
41
1
10
23.4421244345071
20
0.586031273484139
30
0
41
1
10
23.4343196795674
20
0.587749428018299
30
0
41
1
10
23.4261433445311
20
0.589531248856986
30
0
41
1
10
23.4175983369213
20
0.591373164302297
30
0
41
1
10
23.4086885364499
20
0.593271126215711
30
0
41
1
10
23.3994171896492
20
0.595221351498168
30
0
41
1
10
23.3897863597728
20
0.597220800413083
30
0
41
1
10
23.3797946760817
20
0.599266609277237
30
0
41
1
10
23.3694451764099
20
0.601358547101825
30
0
41
1
10
23.3623948949408
20
0.60275843174739
30
0
41
1
10
23.35881890265
20
0.603468471016384
30
0
0
SPLINE
5
138
100
AcDbEntity
8
1
62
256
6
ByLayer
370
18
48
1
60
0
100
AcDbSpline
70
4
71
3
72
8
73
4
40
0
40
0
40
0
40
0
40
1
40
1
40
1
40
1
41
1
10
23.432003830841
20
-2.49244288433894
30
0
41
1
10
23.4521703900216
20
-2.49062914188679
30
0
41
1
10
23.4721928396139
20
-2.48748880099848
30
0
41
1
10
23.4920871239441
20
-2.48287577211534
30
0
0
SPLINE
5
139
100
AcDbEntity
8
1
62
256
6
ByLayer
370
13
48
1
60
0
100
AcDbSpline
70
4
71
3
72
18
73
14
40
0
40
0
40
0
40
0
40
0.0990831961212474
40
0.205169374174764
40
0.311255552228281
40
0.381979670930626
40
0.45270378963297
40
0.523427908335315
40
0.59415202703766
40
0.700238205091177
40
0.806324383144693
40
0.947772620549383
40
1
40
1
40
1
40
1
41
1
10
17.9037109271548
20
0.396822152141198
30
0
41
1
10
17.6848075363737
20
0.546698144658762
30
0
41
1
10
17.2315291455926
20
0.851836530573735
30
0
41
1
10
16.5438757548115
20
1.28066384297335
30
0
41
0.999999999999999
10
15.9188757548116
20
1.6190525352514
30
0
41
1
10
15.3720007548116
20
1.86808675500279
30
0
41
1
10
14.9032507548116
20
2.04559653877541
30
0
41
1
10
14.4345007548116
20
2.1832326979227
30
0
41
0.999999999999999
10
13.8876257548116
20
2.29266831596843
30
0
41
1
10
13.2626257548116
20
2.34391446550791
30
0
41
0.999999999999999
10
12.4813757548116
20
2.29529205001094
30
0
41
1
10
11.8191153928037
20
2.14027244276997
30
0
41
1
10
11.3912300307958
20
1.99021999559278
30
0
41
1
10
11.2758446687879
20
1.94632420507637
30
0
0
SPLINE
5
13A
100
AcDbEntity
8
1
62
256
6
ByLayer
370
18
48
1
60
0
100
AcDbSpline
70
4
71
3
72
8
73
4
40
0
40
0
40
0
40
0
40
1
40
1
40
1
40
1
41
1
10
23.29607497
20
-2.48049679248936
30
0
41
1
10
23.2900021439324
20
-2.48026667253046
30
0
41
1
10
23.2839232440863
20
-2.48004002919444
30
0
41
1
10
23.2778378607092
20
-2.47981745927899
30
0
0
SPLINE
5
13B
100
AcDbEntity
8
1
62
256
6
ByLayer
370
18
48
1
60
0
100
AcDbSpline
70
4
71
3
72
16
73
12
40
0
40
0
40
0
40
0
40
0.500000000000591
40
0.500000000000591
40
0.750000000000886
40
0.750000000000886
40
0.875000000000777
40
0.875000000000777
40
0.937500000000388
40
0.937500000000388
40
1
40
1
40
1
40
1
41
1
10
23.2612121981784
20
-2.47494663387664
30
0
41
1
10
23.2629272362299
20
-2.47586260006767
30
0
41
1
10
23.2648365426979
20
-2.4767627705703
30
0
41
1
10
23.2684247027625
20
-2.47805236700347
30
0
41
1
10
23.2697370904314
20
-2.47847345636649
30
0
41
1
10
23.2721402145282
20
-2.47906313904647
30
0
41
1
10
23.2730153155604
20
-2.4792533161866
30
0
41
1
10
23.2745464988699
20
-2.47950763088463
30
0
41
1
10
23.2750938738854
20
-2.47958748782585
30
0
41
1
10
23.27634032774
20
-2.47972757440647
30
0
41
1
10
23.2770377126221
20
-2.47978819425472
30
0
41
1
10
23.2778378607092
20
-2.47981745927899
30
0
0
SPLINE
5
13C
100
AcDbEntity
8
1
62
256
6
ByLayer
370
13
48
1
60
0
100
AcDbSpline
70
4
71
3
72
20
73
16
40
0
40
0
40
0
40
0
40
0.0558024811215499
40
0.124461920538018
40
0.193121359954487
40
0.261780799370956
40
0.330440238787424
40
0.399099678203893
40
0.467759117620361
40
0.53641855703683
40
0.639407716161532
40
0.742396875286235
40
0.879715754119172
40
0.982704913243875
40
1
40
1
40
1
40
1
41
1
10
23.2529740521183
20
0.404766881333074
30
0
41
1
10
23.1259829530161
20
0.489355812833964
30
0
41
1
10
22.8427418539138
20
0.676192327749931
30
0
41
1
10
22.4032507548115
20
0.955850540264634
30
0
41
1
10
21.9345007548115
20
1.23641069617119
30
0
41
1
10
21.4657507548115
20
1.49353675077882
30
0
41
1
10
20.9970007548116
20
1.72322110349131
30
0
41
1
10
20.5282507548115
20
1.92146494178621
30
0
41
1
10
20.0595007548116
20
2.08422415426273
30
0
41
0.999999999999999
10
19.5126257548116
20
2.22790554852728
30
0
41
1
10
18.8876257548116
20
2.32431352514786
30
0
41
1
10
18.1063757548115
20
2.33895893784495
30
0
41
1
10
17.3251257548116
20
2.22453927768811
30
0
41
1
10
16.7388918942002
20
2.05154417395872
30
0
41
1
10
16.4651580335889
20
1.95154551396232
30
0
41
1
10
16.4257991729776
20
1.9367806527637
30
0
0
SPLINE
5
13D
100
AcDbEntity
8
1
62
256
6
ByLayer
370
18
48
1
60
0
100
AcDbSpline
70
4
71
3
72
8
73
4
40
0
40
0
40
0
40
0
40
1
40
1
40
1
40
1
41
1
10
23.4811478913861
20
0.238917891780687
30
0
41
1
10
23.4974472171158
20
0.231565148415825
30
0
41
1
10
23.5148700303597
20
0.22415408161342
30
0
41
1
10
23.5336528419109
20
0.216672413619364
30
0
0
SPLINE
5
13E
100
AcDbEntity
8
1
62
256
6
ByLayer
370
18
48
1
60
0
100
AcDbSpline
70
4
71
3
72
8
73
4
40
0
40
0
40
0
40
0
40
1
40
1
40
1
40
1
41
1
10
23.2960852392422
20
0.386372173503048
30
0
41
1
10
23.289993914072
20
0.388309147369625
30
0
41
1
10
23.2838969116019
20
0.390228982154326
30
0
41
1
10
23.2777938841792
20
0.39213007084183
30
0
0
SPLINE
5
13F
100
AcDbEntity
8
1
62
256
6
ByLayer
370
18
48
1
60
0
100
AcDbSpline
70
4
71
3
72
22
73
18
40
0
40
0
40
0
40
0
40
0.0156249999998885
40
0.0156249999998885
40
0.0234374999998328
40
0.0234374999998328
40
0.0312499999997771
40
0.0312499999997771
40
0.0624999999997491
40
0.0624999999997491
40
0.124999999999767
40
0.124999999999767
40
0.249999999999796
40
0.249999999999796
40
0.499999999999858
40
0.499999999999858
40
1
40
1
40
1
40
1
41
1
10
23.2609066121317
20
0.518229058682067
30
0
41
1
10
23.2605908337478
20
0.518661417356924
30
0
41
1
10
23.260234994911
20
0.519109547195711
30
0
41
1
10
23.2594792274972
20
0.519443378936955
30
0
41
1
10
23.2591767673098
20
0.519451409438346
30
0
41
1
10
23.2587056391446
20
0.519217263509177
30
0
41
1
10
23.2585337185034
20
0.519021401991438
30
0
41
1
10
23.2578223142761
20
0.517992384390993
30
0
41
1
10
23.2576105105108
20
0.516999533277641
30
0
41
1
10
23.2570010332916
20
0.514089344976156
30
0
41
1
10
23.2568271478435
20
0.512115560774419
30
0
41
1
10
23.2564281367752
20
0.506176358341094
30
0
41
1
10
23.2563995180675
20
0.502186452604519
30
0
41
1
10
23.2565021517642
20
0.490234080373625
30
0
41
1
10
23.2568691863459
20
0.482253965037074
30
0
41
1
10
23.2582507404057
20
0.458297284863704
30
0
41
1
10
23.2595922402561
20
0.442312562978543
30
0
41
1
10
23.2610781472141
20
0.426322091893354
30
0
0
SPLINE
5
140
100
AcDbEntity
8
1
62
256
6
ByLayer
370
18
48
1
60
0
100
AcDbSpline
70
4
71
3
72
8
73
4
40
0
40
0
40
0
40
0
40
1
40
1
40
1
40
1
41
1
10
23.2609066121315
20
0.518229058682209
30
0
41
1
10
23.2686778624677
20
0.507588787943973
30
0
41
1
10
23.2759770504858
20
0.496677748788471
30
0
41
1
10
23.2828100071838
20
0.485499689255164
30
0
0
SPLINE
5
141
100
AcDbEntity
8
1
62
256
6
ByLayer
370
18
48
1
60
0
100
AcDbSpline
70
4
71
3
72
34
73
30
40
0
40
0
40
0
40
0
40
0.125000000000365
40
0.125000000000365
40
0.187500000000547
40
0.187500000000547
40
0.218750000000637
40
0.218750000000637
40
0.250000000000728
40
0.250000000000728
40
0.281250000000818
40
0.281250000000818
40
0.29687500000079
40
0.29687500000079
40
0.312500000000762
40
0.312500000000762
40
0.343750000000708
40
0.343750000000708
40
0.375000000000653
40
0.375000000000653
40
0.437500000000588
40
0.437500000000588
40
0.500000000000523
40
0.500000000000523
40
0.625000000000394
40
0.625000000000394
40
0.750000000000264
40
0.750000000000264
40
1
40
1
40
1
40
1
41
1
10
23.2828100071839
20
0.485499689255135
30
0
41
1
10
23.2886094104906
20
0.476012423597865
30
0
41
1
10
23.294608109202
20
0.466603487552391
30
0
41
1
10
23.3044442222208
20
0.452946055190523
30
0
41
1
10
23.3078642850458
20
0.448463936046124
30
0
41
1
10
23.3134456652583
20
0.442066019425738
30
0
41
1
10
23.3153885715505
20
0.439982245185376
30
0
41
1
10
23.3195176214285
20
0.43606169278786
30
0
41
1
10
23.3216889981522
20
0.434215217757412
30
0
41
1
10
23.32657214087
20
0.43109998827174
30
0
41
1
10
23.3293056805784
20
0.429824669556581
30
0
41
1
10
23.3336190151999
20
0.429622321417725
30
0
41
1
10
23.3350464760656
20
0.429873607425407
30
0
41
1
10
23.3375986020888
20
0.430945683475557
30
0
41
1
10
23.3387257702226
20
0.43174824091281
30
0
41
1
10
23.3416399008871
20
0.434494935595893
30
0
41
1
10
23.3430599594803
20
0.43678550577522
30
0
41
1
10
23.3454069397493
20
0.441456310007624
30
0
41
1
10
23.3463438055444
20
0.443899217417112
30
0
41
1
10
23.3488044402821
20
0.451387346342869
30
0
41
1
10
23.3499570707107
20
0.456511003087059
30
0
41
1
10
23.3518892057402
20
0.466791099273763
30
0
41
1
10
23.3526503195973
20
0.471969715774236
30
0
41
1
10
23.354604701033
20
0.487567487640888
30
0
41
1
10
23.3554738501576
20
0.49804762917384
30
0
41
1
10
23.356847521735
20
0.519075748944516
30
0
41
1
10
23.357335732877
20
0.52960537565275
30
0
41
1
10
23.3584739147101
20
0.561218043113627
30
0
41
1
10
23.358804206336
20
0.582324546862765
30
0
41
1
10
23.3589569688671
20
0.603441165128572
30
0
0
SPLINE
5
142
100
AcDbEntity
8
1
62
256
6
ByLayer
370
18
48
1
60
0
100
AcDbSpline
70
4
71
3
72
20
73
16
40
0
40
0
40
0
40
0
40
0.249999999999926
40
0.249999999999926
40
0.499999999999853
40
0.499999999999853
40
0.624999999999889
40
0.624999999999889
40
0.749999999999925
40
0.749999999999925
40
0.874999999999961
40
0.874999999999961
40
0.937499999999981
40
0.937499999999981
40
1
40
1
40
1
40
1
41
1
10
23.3586693873739
20
0.603490851229793
30
0
41
1
10
23.3523717558703
20
0.614487616037053
30
0
41
1
10
23.3459485926536
20
0.625404910401329
30
0
41
1
10
23.3326397722544
20
0.64697466778992
30
0
41
1
10
23.3257599983319
20
0.657641613426364
30
0
41
1
10
23.3147594826686
20
0.673207354872119
30
0
41
1
10
23.3109766610944
20
0.678323135404298
30
0
41
1
10
23.3030313166924
20
0.68832211267798
30
0
41
1
10
23.2988956995796
20
0.69318163436435
30
0
41
1
10
23.2900238760776
20
0.702391742912454
30
0
41
1
10
23.2853031516713
20
0.706778355507765
30
0
41
1
10
23.277213340701
20
0.712442810981315
30
0
41
1
10
23.274393764935
20
0.714136454540494
30
0
41
1
10
23.2683345626101
20
0.716861670624866
30
0
41
1
10
23.2651192646379
20
0.71787021676252
30
0
41
1
10
23.2617749898149
20
0.718247192776033
30
0
0
SPLINE
5
143
100
AcDbEntity
8
1
62
256
6
ByLayer
370
18
48
1
60
0
100
AcDbSpline
70
4
71
3
72
8
73
4
40
0
40
0
40
0
40
0
40
1
40
1
40
1
40
1
41
1
10
23.2617749898151
20
0.71824719277609
30
0
41
1
10
23.2518702898459
20
0.719076406078528
30
0
41
1
10
23.2419873566312
20
0.719408330736968
30
0
41
1
10
23.2321404989302
20
0.718926743067556
30
0
0
SPLINE
5
144
100
AcDbEntity
8
1
62
256
6
ByLayer
370
18
48
1
60
0
100
AcDbSpline
70
4
71
3
72
24
73
20
40
0
40
0
40
0
40
0
40
0.499999999999992
40
0.499999999999992
40
0.749999999999988
40
0.749999999999988
40
0.874999999999995
40
0.874999999999995
40
0.937499999999998
40
0.937499999999998
40
0.968749999999999
40
0.968749999999999
40
0.984374999999999
40
0.984374999999999
40
0.9921875
40
0.9921875
40
0.99609375
40
0.99609375
40
1
40
1
40
1
40
1
41
1
10
23.1643341491369
20
1.07726979427409
30
0
41
1
10
23.1733675316795
20
1.01755670894747
30
0
41
1
10
23.1825504088013
20
0.957651653505309
30
0
41
1
10
23.1975058935604
20
0.867594502795157
30
0
41
1
10
23.2026724728823
20
0.837539088199833
30
0
41
1
10
23.2112693385991
20
0.792468617373089
30
0
41
1
10
23.2142645138115
20
0.777445151305699
30
0
41
1
10
23.2193288889564
20
0.75496755734477
30
0
41
1
10
23.2211038030847
20
0.747482250289409
30
0
41
1
10
23.2241566575142
20
0.736319549213846
30
0
41
1
10
23.2252333561983
20
0.732606492254689
30
0
41
1
10
23.2271215825759
20
0.727101304525092
30
0
41
1
10
23.2277921656428
20
0.725274080483103
30
0
41
1
10
23.2289929216333
20
0.722595736679096
30
0
41
1
10
23.229422479458
20
0.7217112057821
30
0
41
1
10
23.2302055823173
20
0.720446534931995
30
0
41
1
10
23.2304894682947
20
0.720032510181994
30
0
41
1
10
23.231172217368
20
0.719293571570802
30
0
41
1
10
23.2316148718955
20
0.718901035831834
30
0
41
1
10
23.23214049893
20
0.718926743067527
30
0
0
SPLINE
5
145
100
AcDbEntity
8
1
62
256
6
ByLayer
370
18
48
1
60
0
100
AcDbSpline
70
4
71
3
72
8
73
4
40
0
40
0
40
0
40
0
40
1
40
1
40
1
40
1
41
1
10
8.80950075481164
20
-2.41492901989014
30
0
41
1
10
8.73379201965619
20
-2.41834885920486
30
0
41
1
10
8.65845685246691
20
-2.42064786983011
30
0
41
1
10
8.58354100528126
20
-2.42168878036998
30
0
0
SPLINE
5
146
100
AcDbEntity
8
1
62
256
6
ByLayer
370
18
48
1
60
0
100
AcDbSpline
70
4
71
3
72
18
73
14
40
0
40
0
40
0
40
0
40
0.249999999999952
40
0.249999999999952
40
0.374999999999927
40
0.374999999999927
40
0.499999999999902
40
0.499999999999902
40
0.749999999999951
40
0.749999999999951
40
0.874999999999976
40
0.874999999999976
40
1
40
1
40
1
40
1
41
1
10
23.533953457009
20
0.876576626108431
30
0
41
1
10
23.5164116446462
20
0.88188592632369
30
0
41
1
10
23.496206817023
20
0.889793519634935
30
0
41
1
10
23.4623742066062
20
0.905100920038876
30
0
41
1
10
23.450761309696
20
0.910664457651421
30
0
41
1
10
23.4270198599363
20
0.92254818359649
30
0
41
1
10
23.4148749772308
20
0.928876259943166
30
0
41
1
10
23.3776261725859
20
0.948923985523948
30
0
41
1
10
23.3526034064894
20
0.963215514740028
30
0
41
1
10
23.314882038156
20
0.985501958025793
30
0
41
1
10
23.3022658475487
20
0.99308326190274
30
0
41
1
10
23.2773432243461
20
1.00825291477412
30
0
41
1
10
23.2649830949622
20
1.01587291046033
30
0
41
1
10
23.2527132973263
20
1.02350998680328
30
0
0
SPLINE
5
147
100
AcDbEntity
8
1
62
256
6
ByLayer
370
13
48
1
60
0
100
AcDbSpline
70
4
71
3
72
8
73
4
40
0
40
0
40
0
40
0
40
1
40
1
40
1
40
1
41
1
10
23.5339534570107
20
0.876576626107408
30
0
41
1
10
23.3575668748916
20
0.982865683002217
30
0
41
1
10
23.1811802927724
20
1.08559854385206
30
0
41
1
10
23.0047937106533
20
1.18371850786954
30
0
0
SPLINE
5
148
100
AcDbEntity
8
1
62
256
6
ByLayer
370
13
48
1
60
0
100
AcDbSpline
70
4
71
3
72
8
73
4
40
0
40
0
40
0
40
0
40
1
40
1
40
1
40
1
41
1
10
9.78752681207163
20
-2.13907621223745
30
0
41
1
10
9.46151812631834
20
-2.20606852329459
30
0
41
1
10
9.13550944056502
20
-2.24437082547715
30
0
41
1
10
8.80950075481167
20
-2.2502780937503
30
0
0
SPLINE
5
149
100
AcDbEntity
8
1
62
256
6
ByLayer
370
18
48
1
60
0
100
AcDbSpline
70
4
71
3
72
32
73
28
40
0
40
0
40
0
40
0
40
0.058088870248976
40
0.058088870248976
40
0.116177740497952
40
0.116177740497952
40
0.232355480995897
40
0.232355480995897
40
0.348533221493841
40
0.348533221493841
40
0.464710961991786
40
0.464710961991786
40
0.522799832240762
40
0.522799832240762
40
0.580888702489738
40
0.580888702489738
40
0.60993313761423
40
0.60993313761423
40
0.638977572738721
40
0.638977572738721
40
0.697066442987704
40
0.697066442987704
40
0.813244183485664
40
0.813244183485664
40
0.929421923983623
40
0.929421923983623
40
1
40
1
40
1
40
1
41
1
10
23.1643341491387
20
1.07726979427432
30
0
41
1
10
23.0891097383598
20
1.124677857151
30
0
41
1
10
23.0138520386588
20
1.17133725538898
30
0
41
1
10
22.8631704181653
20
1.26302866469845
30
0
41
1
10
22.7876380860638
20
1.30812153953511
30
0
41
1
10
22.5618978312047
20
1.44004238890821
30
0
41
1
10
22.4123124045702
20
1.52370972926028
30
0
41
1
10
22.1140987657466
20
1.68158446031657
30
0
41
1
10
21.9654205839427
20
1.75569274022357
30
0
41
1
10
21.667510781365
20
1.89324843615151
30
0
41
1
10
21.5183113569392
20
1.95671957109005
30
0
41
1
10
21.2937382386346
20
2.04356348608928
30
0
41
1
10
21.2187805809734
20
2.07114023162285
30
0
41
1
10
21.068772989491
20
2.12361106334538
30
0
41
1
10
20.9937393720636
20
2.14851696060615
30
0
41
1
10
20.8811307224863
20
2.18380302742861
30
0
41
1
10
20.8435771717449
20
2.19521380823974
30
0
41
1
10
20.7683957532899
20
2.21729580946388
30
0
41
1
10
20.7308223358563
20
2.22795048116001
30
0
41
1
10
20.6183793740681
20
2.25864129246224
30
0
41
1
10
20.5436684632987
20
2.27743356503379
30
0
41
1
10
20.3198809710626
20
2.3286611621179
30
0
41
1
10
20.1711993986881
20
2.35597832692562
30
0
41
1
10
19.8738018152163
20
2.39690968673796
30
0
41
1
10
19.7250321014388
20
2.41050493353541
30
0
41
1
10
19.4853070997014
20
2.42144014130358
30
0
41
1
10
19.3945851764906
20
2.42311838796593
30
0
41
1
10
19.3037022951645
20
2.4223238767164
30
0
0
SPLINE
5
14A
100
AcDbEntity
8
1
62
256
6
ByLayer
370
18
48
1
60
0
100
AcDbSpline
70
4
71
3
72
16
73
12
40
0
40
0
40
0
40
0
40
0.228395133286939
40
0.228395133286939
40
0.485596755524625
40
0.485596755524625
40
0.742798377762312
40
0.742798377762312
40
0.871399188881156
40
0.871399188881156
40
1
40
1
40
1
40
1
41
1
10
10.5544074248376
20
-2.0170124193568
30
0
41
1
10
10.4207055108081
20
-2.06924381625709
30
0
41
1
10
10.2876641912949
20
-2.11670796205655
30
0
41
1
10
10.0056020746055
20
-2.20695245804112
30
0
41
1
10
9.85669484115252
20
-2.24830184135431
30
0
41
1
10
9.55859266880805
20
-2.31861106545065
30
0
41
1
10
9.40947208216235
20
-2.34742377473745
30
0
41
1
10
9.18513393591869
20
-2.38048338150665
30
0
41
1
10
9.11024300900891
20
-2.38981483713556
30
0
41
1
10
8.96014226793088
20
-2.40498190116296
30
0
41
1
10
8.8849334330024
20
-2.41080279669251
30
0
41
1
10
8.80950075481164
20
-2.41492901989014
30
0
0
SPLINE
5
14B
100
AcDbEntity
8
1
62
256
6
ByLayer
370
18
48
1
60
0
100
AcDbSpline
70
4
71
3
72
14
73
10
40
0
40
0
40
0
40
0
40
0.25
40
0.25
40
0.5
40
0.5
40
0.75
40
0.75
40
1
40
1
40
1
40
1
41
1
10
23.1643341490592
20
1.07726979430348
30
0
41
1
10
23.1646612638643
20
1.07723254831845
30
0
41
1
10
23.1653362597687
20
1.07697995287961
30
0
41
1
10
23.1673940992269
20
1.07600329359255
30
0
41
1
10
23.168784973224
20
1.07527394815548
30
0
41
1
10
23.1718941928345
20
1.07355071495314
30
0
41
1
10
23.1735812676564
20
1.07257668296614
30
0
41
1
10
23.1769960100289
20
1.07055245496323
30
0
41
1
10
23.1786861178963
20
1.06952507588176
30
0
41
1
10
23.1803496446556
20
1.06849446935792
30
0
0
SPLINE
5
14C
100
AcDbEntity
8
1
62
256
6
ByLayer
370
18
48
1
60
0
100
AcDbSpline
70
4
71
3
72
10
73
6
40
0
40
0
40
0
40
0
40
0.884794461189147
40
0.884794461189147
40
1
40
1
40
1
40
1
41
1
10
23.252713297327
20
1.02350998680305
30
0
41
1
10
23.2313898031399
20
1.03681099156358
30
0
41
1
10
23.2100525894602
20
1.0500804485327
30
0
41
1
10
23.1859127546024
20
1.06504729589008
30
0
41
1
10
23.1831313674515
20
1.06677110563993
30
0
41
1
10
23.1803496446557
20
1.06849446935786
30
0
0
SPLINE
5
14D
100
AcDbEntity
8
1
62
256
6
ByLayer
370
13
48
1
60
0
100
AcDbSpline
70
4
71
3
72
21
73
17
40
0
40
0
40
0
40
0
40
0.028152738504023
40
0.0873199076873039
40
0.176070661462225
40
0.264821415237147
40
0.383155753603708
40
0.47190650737863
40
0.560657261153551
40
0.619824430336832
40
0.678991599520113
40
0.738158768703394
40
0.797325937886675
40
0.886076691661596
40
0.974827445436517
40
1
40
1
40
1
40
1
41
1
10
20.2825399225786
20
-2.16837199913101
30
0
41
1
10
20.208193533323
20
-2.18236573174397
30
0
41
1
10
19.9775971440673
20
-2.22027517200158
30
0
41
1
10
19.5126257548117
20
-2.26208231098602
30
0
41
1
10
18.8876257548117
20
-2.24195136468495
30
0
41
1
10
18.1063757548116
20
-2.10200018232661
30
0
41
1
10
17.3251257548117
20
-1.83211986641899
30
0
41
1
10
16.5438757548116
20
-1.45479369827953
30
0
41
1
10
15.9188757548117
20
-1.09452548997939
30
0
41
1
10
15.3720007548117
20
-0.745156254094127
30
0
41
1
10
14.9032507548117
20
-0.432678620069851
30
0
41
1
10
14.4345007548117
20
-0.112028699920614
30
0
41
1
10
13.8876257548117
20
0.268873481160995
30
0
41
1
10
13.2626257548117
20
0.69498651982741
30
0
41
1
10
12.7273995027814
20
1.03339117460092
30
0
41
1
10
12.4265482507512
20
1.20986524259922
30
0
41
1
10
12.3600719987209
20
1.24810700975917
30
0
0
SPLINE
5
14E
100
AcDbEntity
8
1
62
256
6
ByLayer
370
18
48
1
60
0
100
AcDbSpline
70
4
71
3
72
8
73
4
40
0
40
0
40
0
40
0
40
1
40
1
40
1
40
1
41
1
10
12.3600711318549
20
1.24810750844077
30
0
41
1
10
12.3497948680943
20
1.25401912961101
30
0
41
1
10
12.3395186043337
20
1.25991277960531
30
0
41
1
10
12.3292423405732
20
1.26578815910247
30
0
0
SPLINE
5
14F
100
AcDbEntity
8
1
62
256
6
ByLayer
370
18
48
1
60
0
100
AcDbSpline
70
4
71
3
72
103
73
99
40
0
40
0
40
0
40
0
40
0.0072113317384687
40
0.0072113317384687
40
0.0164330208175308
40
0.0164330208175308
40
0.053319777133781
40
0.053319777133781
40
0.0902065334500291
40
0.0902065334500291
40
0.127093289766277
40
0.127093289766277
40
0.163980046082525
40
0.163980046082525
40
0.173201735161587
40
0.173201735161587
40
0.182423424240649
40
0.200866802398771
40
0.200866802398771
40
0.237753558715015
40
0.237753558715015
40
0.274640315031258
40
0.274640315031258
40
0.29308369318938
40
0.29308369318938
40
0.311527071347502
40
0.311527071347502
40
0.320748760426563
40
0.320748760426563
40
0.329970449505624
40
0.348413827663746
40
0.348413827663746
40
0.385300583979988
40
0.385300583979988
40
0.422187340296231
40
0.422187340296231
40
0.440630718454352
40
0.440630718454352
40
0.459074096612473
40
0.459074096612473
40
0.468295785691534
40
0.468295785691534
40
0.477517474770594
40
0.477517474770594
40
0.495960852928713
40
0.495960852928713
40
0.514404231086832
40
0.514404231086832
40
0.532847609244951
40
0.532847609244951
40
0.55129098740307
40
0.55129098740307
40
0.569734365561189
40
0.569734365561189
40
0.588177743719308
40
0.588177743719308
40
0.606621121877427
40
0.606621121877427
40
0.615842810956487
40
0.615842810956487
40
0.625064500035546
40
0.625064500035546
40
0.643507878193667
40
0.643507878193667
40
0.680394634509907
40
0.680394634509907
40
0.717281390826147
40
0.717281390826147
40
0.735724768984268
40
0.735724768984268
40
0.754168147142389
40
0.754168147142389
40
0.772611525300509
40
0.772611525300509
40
0.78183321437957
40
0.78183321437957
40
0.79105490345863
40
0.80949828161675
40
0.80949828161675
40
0.827941659774869
40
0.827941659774869
40
0.846385037932989
40
0.846385037932989
40
0.864828416091108
40
0.864828416091108
40
0.901715172407347
40
0.901715172407347
40
0.920158550565466
40
0.920158550565466
40
0.929380239644526
40
0.929380239644526
40
0.938601928723585
40
0.938601928723585
40
0.975488685039823
40
0.975488685039823
40
0.993932063197942
40
0.993932063197942
40
1
40
1
40
1
40
1
41
1
10
21.1207250857568
20
-2.02851555275717
30
0
41
1
10
21.0912160051907
20
-2.04035395684963
30
0
41
1
10
21.0616974312869
20
-2.05198049181053
30
0
41
1
10
20.9944291328007
20
-2.07800011521599
30
0
41
1
10
20.9566491043416
20
-2.09227791770155
30
0
41
1
10
20.7684910557272
20
-2.16158678259171
30
0
41
1
10
20.6198140514238
20
-2.21047132794408
30
0
41
1
10
20.323006545671
20
-2.29323589866439
30
0
41
1
10
20.174946477256
20
-2.32719370901995
30
0
41
1
10
19.8777913538144
20
-2.37988969151917
30
0
41
1
10
19.7287620576302
20
-2.39866995277114
30
0
41
1
10
19.4295736742351
20
-2.42111626310299
30
0
41
1
10
19.2793710676713
20
-2.42493888053417
30
0
41
1
10
19.0903944805725
20
-2.42018665979978
30
0
41
1
10
19.0526066406887
20
-2.41875675437518
30
0
41
1
10
18.9772125232865
20
-2.41494640675944
30
0
41
1
10
18.864311003976
20
-2.4078028684558
30
0
41
1
10
18.7519266488056
20
-2.39638813951316
30
0
41
1
10
18.5276866499276
20
-2.36786688811969
30
0
41
1
10
18.3788957074019
20
-2.34125098152643
30
0
41
1
10
18.0814602816813
20
-2.27394434282837
30
0
41
1
10
17.932859041637
20
-2.2331417756811
30
0
41
1
10
17.7094003945963
20
-2.1611501552926
30
0
41
1
10
17.6348201020834
20
-2.13535187301676
30
0
41
1
10
17.485326766455
20
-2.08013958011762
30
0
41
1
10
17.4104096599345
20
-2.05073961418634
30
0
41
1
10
17.2976376572805
20
-2.00415534485998
30
0
41
1
10
17.259938102582
20
-1.98819531383592
30
0
41
1
10
17.1846488634195
20
-1.95556204631416
30
0
41
1
10
17.0718782377919
20
-1.90554568033633
30
0
41
1
10
16.9595316960643
20
-1.8523907354797
30
0
41
1
10
16.73522257318
20
-1.7420977669907
30
0
41
1
10
16.5861831421511
20
-1.6632750136711
30
0
41
1
10
16.2883577356781
20
-1.49579249666189
30
0
41
1
10
16.1395983852097
20
-1.40715421885119
30
0
41
1
10
15.9161785934634
20
-1.26697888451758
30
0
41
1
10
15.8416375666357
20
-1.21911149632047
30
0
41
1
10
15.6922285442771
20
-1.12144088082854
30
0
41
1
10
15.6173654167928
20
-1.07161851866613
30
0
41
1
10
15.5047019439932
20
-0.995507686776108
30
0
41
1
10
15.4670857464671
20
-0.969907640313863
30
0
41
1
10
15.3917036763669
20
-0.91827084831246
30
0
41
1
10
15.3539940158348
20
-0.892274700157202
30
0
41
1
10
15.2410966388927
20
-0.814007772418819
30
0
41
1
10
15.1660147169988
20
-0.761370302113164
30
0
41
1
10
15.0161637728875
20
-0.655243777403854
30
0
41
1
10
14.9414038084038
20
-0.601739959734658
30
0
41
1
10
14.7921420108441
20
-0.493954878088971
30
0
41
1
10
14.7176242778526
20
-0.43969917978319
30
0
41
1
10
14.5686744201267
20
-0.330681580642619
30
0
41
1
10
14.4942518649233
20
-0.275904358074342
30
0
41
1
10
14.3454950187967
20
-0.1658245290499
30
0
41
1
10
14.2711589260715
20
-0.1105242024924
30
0
41
1
10
14.1224025236636
20
0.0003814975403031
30
0
41
1
10
14.0479816858616
20
0.05598580314782
30
0
41
1
10
13.8988517061807
20
0.167242115069598
30
0
41
1
10
13.8241471560517
20
0.222905664802454
30
0
41
1
10
13.7117441039924
20
0.306252229865862
30
0
41
1
10
13.6742172893173
20
0.334006626495096
30
0
41
1
10
13.5990237540507
20
0.389426012797969
30
0
41
1
10
13.5613161976786
20
0.417119473014623
30
0
41
1
10
13.44828626812
20
0.499797651118172
30
0
41
1
10
13.3731281783858
20
0.554332082994137
30
0
41
1
10
13.148117146634
20
0.716003380663523
30
0
41
1
10
12.9987153607287
20
0.821209267771081
30
0
41
1
10
12.7006140310325
20
1.02560532841653
30
0
41
1
10
12.551931104107
20
1.1247782714116
30
0
41
1
10
12.3286028224186
20
1.26825895412006
30
0
41
1
10
12.254121197985
20
1.31519524397169
30
0
41
1
10
12.104947926838
20
1.40708331586254
30
0
41
1
10
12.0302480562112
20
1.45203840884503
30
0
41
1
10
11.8804330245889
20
1.53983384855954
30
0
41
1
10
11.8053220990351
20
1.58267388266177
30
0
41
1
10
11.6922510356946
20
1.64517773686924
30
0
41
1
10
11.6545439146581
20
1.66569029957114
30
0
41
1
10
11.5793064219963
20
1.70592912223785
30
0
41
1
10
11.4666138572799
20
1.7651645704581
30
0
41
1
10
11.3543671175985
20
1.82099318588564
30
0
41
1
10
11.2050174485584
20
1.89229309276698
30
0
41
1
10
11.1305078085252
20
1.92635712828789
30
0
41
1
10
10.981658578085
20
1.99129012479591
30
0
41
1
10
10.9073043608293
20
2.02218336720051
30
0
41
1
10
10.7585600214738
20
2.08091211204248
30
0
41
1
10
10.6841821478574
20
2.10872806251075
30
0
41
1
10
10.4609421380047
20
2.18725421604515
30
0
41
1
10
10.311976870746
20
2.23307234001439
30
0
41
1
10
10.0876285953761
20
2.29108486578858
30
0
41
1
10
10.0126976517791
20
2.30860883480685
30
0
41
1
10
9.89994498207506
20
2.33217986501364
30
0
41
1
10
9.86227298729804
20
2.33959238168285
30
0
41
1
10
9.78692355534173
20
2.35350705523774
30
0
41
1
10
9.74927633074012
20
2.36000584502563
30
0
41
1
10
9.56115297218301
20
2.39016882237038
30
0
41
1
10
9.41104156394286
20
2.40678814994001
30
0
41
1
10
9.18576002766454
20
2.41994375435667
30
0
41
1
10
9.11064402750876
20
2.42237285734998
30
0
41
1
10
9.01070278694922
20
2.42293649355389
30
0
41
1
10
8.98595275906479
20
2.42285714886191
30
0
41
1
10
8.96119040920493
20
2.42256335528828
30
0
0
SPLINE
5
150
100
AcDbEntity
8
1
62
256
6
ByLayer
370
18
48
1
60
0
100
AcDbSpline
70
4
71
3
72
18
73
14
40
0
40
0
40
0
40
0
40
0.249999999999906
40
0.249999999999906
40
0.374999999999905
40
0.374999999999905
40
0.499999999999904
40
0.499999999999904
40
0.749999999999902
40
0.749999999999902
40
0.874999999999951
40
0.874999999999951
40
1
40
1
40
1
40
1
41
1
10
23.5337539741876
20
-2.101337587671
30
0
41
1
10
23.5162331071913
20
-2.12481027142317
30
0
41
1
10
23.4959976544947
20
-2.14450685895676
30
0
41
1
10
23.4621196309207
20
-2.16901025395256
30
0
41
1
10
23.4505184450668
20
-2.17612911113341
30
0
41
1
10
23.4267587032013
20
-2.18850719300912
30
0
41
1
10
23.4145812598987
20
-2.1937711908576
30
0
41
1
10
23.3773327260252
20
-2.2068369624098
30
0
41
1
10
23.3523650601769
20
-2.21167738201922
30
0
41
1
10
23.3146303258547
20
-2.21418430348885
30
0
41
1
10
23.3020397211613
20
-2.21419968136445
30
0
41
1
10
23.2771538107578
20
-2.21266697326425
30
0
41
1
10
23.2648082734566
20
-2.21112302545248
30
0
41
1
10
23.2525491480627
20
-2.20879643609754
30
0
0
SPLINE
5
151
100
AcDbEntity
8
1
62
256
6
ByLayer
370
13
48
1
60
0
100
AcDbSpline
70
4
71
3
72
18
73
14
40
0
40
0
40
0
40
0
40
0.110306669155235
40
0.188441916030322
40
0.266577162905408
40
0.344712409780494
40
0.422847656655581
40
0.500982903530667
40
0.579118150405754
40
0.65725339728084
40
0.77445626759347
40
0.8916591379061
40
1
40
1
40
1
40
1
41
1
10
23.5337539741901
20
-2.10133758767162
30
0
41
1
10
23.3131695677306
20
-2.04806611089666
30
0
41
1
10
22.9363351612712
20
-1.93376354887852
30
0
41
1
10
22.4032507548117
20
-1.72058960288638
30
0
41
1
10
21.9345007548117
20
-1.49841549730283
30
0
41
1
10
21.4657507548116
20
-1.24934525500947
30
0
41
1
10
20.9970007548117
20
-0.979322639102946
30
0
41
1
10
20.5282507548117
20
-0.680478711199243
30
0
41
1
10
20.0595007548117
20
-0.369067719376687
30
0
41
1
10
19.5126257548117
20
-0.0040132402039035
30
0
41
1
10
18.8876257548117
20
0.413807223224495
30
0
41
1
10
18.202222446872
20
0.857692354503286
30
0
41
1
10
17.7511941389323
20
1.12759759118978
30
0
41
1
10
17.5345408309926
20
1.24930550957254
30
0
0
SPLINE
5
152
100
AcDbEntity
8
1
62
256
6
ByLayer
370
18
48
1
60
0
100
AcDbSpline
70
4
71
3
72
8
73
4
40
0
40
0
40
0
40
0
40
1
40
1
40
1
40
1
41
1
10
17.5345410664467
20
1.24930537730307
30
0
41
1
10
17.4995708393035
20
1.26895037507697
30
0
41
1
10
17.4646006121604
20
1.28838845132708
30
0
41
1
10
17.4296303850173
20
1.30760774084169
30
0
0
SPLINE
5
153
100
AcDbEntity
8
1
62
256
6
ByLayer
370
18
48
1
60
0
100
AcDbSpline
70
4
71
3
72
12
73
8
40
0
40
0
40
0
40
0
40
0.250000000000009
40
0.250000000000009
40
0.500000000000018
40
0.500000000000018
40
1
40
1
40
1
40
1
41
1
10
23.1650759792768
20
-2.20139007350227
30
0
41
1
10
23.1657041669985
20
-2.19982015768124
30
0
41
1
10
23.1666148750991
20
-2.19839193148985
30
0
41
1
10
23.168852814212
20
-2.19610173592218
30
0
41
1
10
23.1701816611252
20
-2.19523337595371
30
0
41
1
10
23.1743536150849
20
-2.19350864211589
30
0
41
1
10
23.177341091317
20
-2.19346392447221
30
0
41
1
10
23.1801781818078
20
-2.19404088767479
30
0
0
SPLINE
5
154
100
AcDbEntity
8
1
62
256
6
ByLayer
370
18
48
1
60
0
100
AcDbSpline
70
4
71
3
72
10
73
6
40
0
40
0
40
0
40
0
40
0.883058197806103
40
0.883058197806103
40
1
40
1
40
1
40
1
41
1
10
23.252549148064
20
-2.2087964360941
30
0
41
1
10
23.2312649339994
20
-2.20446742114615
30
0
41
1
10
23.209967811898
20
-2.20010504222879
30
0
41
1
10
23.185825689566
20
-2.19518971796424
30
0
41
1
10
23.1830021093307
20
-2.19461517399836
30
0
41
1
10
23.180178181808
20
-2.19404088767485
30
0
0
SPLINE
5
155
100
AcDbEntity
8
1
62
256
6
ByLayer
370
18
48
1
60
0
100
AcDbSpline
70
4
71
3
72
24
73
20
40
0
40
0
40
0
40
0
40
0.0156250000003603
40
0.0156250000003603
40
0.023437500000358
40
0.023437500000358
40
0.0312500000003557
40
0.0312500000003557
40
0.0468750000003511
40
0.0468750000003511
40
0.0625000000003466
40
0.0625000000003466
40
0.125000000000323
40
0.125000000000323
40
0.25000000000028
40
0.25000000000028
40
0.500000000000192
40
0.500000000000192
40
1
40
1
40
1
40
1
41
1
10
23.2622378989785
20
-2.44051959141757
30
0
41
1
10
23.2619512788662
20
-2.44040704543676
30
0
41
1
10
23.2616363648324
20
-2.44030168035522
30
0
41
1
10
23.2610024292002
20
-2.44024549013702
30
0
41
1
10
23.2607566748518
20
-2.44024913151645
30
0
41
1
10
23.2602659807735
20
-2.44034688897233
30
0
41
1
10
23.2600509452251
20
-2.44043503305136
30
0
41
1
10
23.2595414240763
20
-2.44071765122476
30
0
41
1
10
23.259339549621
20
-2.44092472580567
30
0
41
1
10
23.2589966984468
20
-2.44132636900872
30
0
41
1
10
23.2588656202073
20
-2.44152603635308
30
0
41
1
10
23.2582967007096
20
-2.44252193770069
30
0
41
1
10
23.2580948606924
20
-2.44330242537916
30
0
41
1
10
23.2576110258098
20
-2.44561431355061
30
0
41
1
10
23.2575325394301
20
-2.44712944482538
30
0
41
1
10
23.2574825790752
20
-2.45163697279045
30
0
41
1
10
23.2577479932239
20
-2.45459267557436
30
0
41
1
10
23.2588173937087
20
-2.46340507471817
30
0
41
1
10
23.2599443292656
20
-2.46919938339491
30
0
41
1
10
23.261212198177
20
-2.47494663387676
30
0
0
SPLINE
5
156
100
AcDbEntity
8
1
62
256
6
ByLayer
370
18
48
1
60
0
100
AcDbSpline
70
4
71
3
72
8
73
4
40
0
40
0
40
0
40
0
40
1
40
1
40
1
40
1
41
1
10
23.2622378989784
20
-2.44051959141757
30
0
41
1
10
23.2698963118053
20
-2.44352678995736
30
0
41
1
10
23.2771259336926
20
-2.44665121430231
30
0
41
1
10
23.2839267367938
20
-2.44989417489802
30
0
0
SPLINE
5
157
100
AcDbEntity
8
1
62
256
6
ByLayer
370
18
48
1
60
0
100
AcDbSpline
70
4
71
3
72
34
73
30
40
0
40
0
40
0
40
0
40
0.124999999999421
40
0.124999999999421
40
0.187499999999131
40
0.187499999999131
40
0.218749999998938
40
0.218749999998938
40
0.249999999998744
40
0.249999999998744
40
0.28124999999855
40
0.28124999999855
40
0.296874999998526
40
0.296874999998526
40
0.312499999998501
40
0.312499999998501
40
0.343749999998549
40
0.343749999998549
40
0.374999999998598
40
0.374999999998598
40
0.437499999998739
40
0.437499999998739
40
0.499999999998879
40
0.499999999998879
40
0.62499999999916
40
0.62499999999916
40
0.749999999999441
40
0.749999999999441
40
1
40
1
40
1
40
1
41
1
10
23.2839267367928
20
-2.44989417489748
30
0
41
1
10
23.2899408659756
20
-2.45276201030856
30
0
41
1
10
23.296170578749
20
-2.45550971931601
30
0
41
1
10
23.3064263095017
20
-2.45918711851905
30
0
41
1
10
23.3100011653583
20
-2.46034172631738
30
0
41
1
10
23.3158472834271
20
-2.46181458948712
30
0
41
1
10
23.3178764961823
20
-2.46226198487051
30
0
41
1
10
23.3222419381848
20
-2.46299630497819
30
0
41
1
10
23.3245571238471
20
-2.46328686487971
30
0
41
1
10
23.3296991339831
20
-2.46348010780167
30
0
41
1
10
23.3325840350897
20
-2.46336994801322
30
0
41
1
10
23.3369486858197
20
-2.46249701328705
30
0
41
1
10
23.3383384826778
20
-2.46209792637504
30
0
41
1
10
23.3408335140502
20
-2.46116494520254
30
0
41
1
10
23.3419315702083
20
-2.46063914491299
30
0
41
1
10
23.3448298177393
20
-2.45901084723016
30
0
41
1
10
23.3462643491205
20
-2.45786536259618
30
0
41
1
10
23.3486777679803
20
-2.45560538670094
30
0
41
1
10
23.3496450677511
20
-2.45448657006912
30
0
41
1
10
23.352192934747
20
-2.4511475076234
30
0
41
1
10
23.3534227982418
20
-2.44893748824507
30
0
41
1
10
23.3554842460601
20
-2.44457972906707
30
0
41
1
10
23.3563007391687
20
-2.44243016073511
30
0
41
1
10
23.3584058666433
20
-2.43602869679344
30
0
41
1
10
23.359355145379
20
-2.43182329780507
30
0
41
1
10
23.3608701086178
20
-2.42346338602766
30
0
41
1
10
23.3614199981028
20
-2.41931100872028
30
0
41
1
10
23.362723739675
20
-2.40689648476703
30
0
41
1
10
23.363138710711
20
-2.39867920917473
30
0
41
1
10
23.3633628436346
20
-2.39048684123333
30
0
0
SPLINE
5
158
100
AcDbEntity
8
1
62
256
6
ByLayer
370
18
48
1
60
0
100
AcDbSpline
70
4
71
3
72
19
73
15
40
0
40
0
40
0
40
0
40
0.249999999999999
40
0.249999999999999
40
0.499999999999998
40
0.499999999999998
40
0.624999999999998
40
0.624999999999998
40
0.749999999999998
40
0.749999999999998
40
0.874999999999999
40
0.937499999999999
40
0.937499999999999
40
1
40
1
40
1
40
1
41
1
10
23.3630774286794
20
-2.39050009634249
30
0
41
1
10
23.3562849220514
20
-2.38644144806446
30
0
41
1
10
23.3493936622161
20
-2.38234766911666
30
0
41
1
10
23.3352184674437
20
-2.37414173355688
30
0
41
1
10
23.3279403071241
20
-2.37002380410908
30
0
41
1
10
23.3164096709737
20
-2.36393530201821
30
0
41
1
10
23.3124625679305
20
-2.3619214485135
30
0
41
1
10
23.3042261132127
20
-2.35796632158144
30
0
41
1
10
23.2999325140521
20
-2.35601956594687
30
0
41
1
10
23.2908104751627
20
-2.35232846198952
30
0
41
1
10
23.2835973666681
20
-2.34969063278851
30
0
41
1
10
23.2749696339505
20
-2.3476164658496
30
0
41
1
10
23.2685728880673
20
-2.34650201932033
30
0
41
1
10
23.2651665530976
20
-2.34609506219303
30
0
41
1
10
23.2614129360607
20
-2.34602492241794
30
0
0
SPLINE
5
159
100
AcDbEntity
8
1
62
256
6
ByLayer
370
18
48
1
60
0
100
AcDbSpline
70
4
71
3
72
8
73
4
40
0
40
0
40
0
40
0
40
1
40
1
40
1
40
1
41
1
10
23.2614129360618
20
-2.3460249224178
30
0
41
1
10
23.2506262986046
20
-2.34601195579302
30
0
41
1
10
23.239779901992
20
-2.34618434904704
30
0
41
1
10
23.2288133010453
20
-2.34673961657475
30
0
0
SPLINE
5
15A
100
AcDbEntity
8
1
62
256
6
ByLayer
370
18
48
1
60
0
100
AcDbSpline
70
4
71
3
72
24
73
20
40
0
40
0
40
0
40
0
40
0.499999999999995
40
0.499999999999995
40
0.750000000000001
40
0.750000000000001
40
0.874999999999994
40
0.874999999999994
40
0.937499999999991
40
0.937499999999991
40
0.96874999999999
40
0.96874999999999
40
0.984374999999973
40
0.984374999999973
40
0.992187499999986
40
0.992187499999986
40
0.996093749999993
40
0.996093749999993
40
1
40
1
40
1
40
1
41
1
10
23.1650759792673
20
-2.20139007350153
30
0
41
1
10
23.1736390131194
20
-2.22679840612528
30
0
41
1
10
23.182384434024
20
-2.2517938338822
30
0
41
1
10
23.19656427133
20
-2.28851423579053
30
0
41
1
10
23.2014543106813
20
-2.30062764687401
30
0
41
1
10
23.2095434222354
20
-2.31851253226674
30
0
41
1
10
23.2123550960492
20
-2.32442839925557
30
0
41
1
10
23.2170820563616
20
-2.33317115621935
30
0
41
1
10
23.2187353564532
20
-2.33606537970823
30
0
41
1
10
23.2215630398656
20
-2.34033106077825
30
0
41
1
10
23.2225581525934
20
-2.34174167926099
30
0
41
1
10
23.2242932331628
20
-2.34380593209923
30
0
41
1
10
23.2249081954408
20
-2.34448650645044
30
0
41
1
10
23.2260005570341
20
-2.34546668639248
30
0
41
1
10
23.2263908858591
20
-2.34578783560843
30
0
41
1
10
23.2270939887337
20
-2.34623577595633
30
0
41
1
10
23.2273478073443
20
-2.34638041999054
30
0
41
1
10
23.2279515019849
20
-2.34663129745474
30
0
41
1
10
23.2283175758131
20
-2.34676471643215
30
0
41
1
10
23.2288133010448
20
-2.34673961657475
30
0
0
SPLINE
5
15B
100
AcDbEntity
8
1
62
256
6
ByLayer
370
18
48
1
60
0
100
AcDbSpline
70
4
71
3
72
72
73
68
40
0
40
0
40
0
40
0
40
0.0246056941272392
40
0.0246056941272392
40
0.0492113882544784
40
0.0492113882544784
40
0.0984227765089569
40
0.0984227765089569
40
0.147634164763435
40
0.147634164763435
40
0.196845553017914
40
0.196845553017914
40
0.221451247145154
40
0.221451247145154
40
0.246056941272395
40
0.246056941272395
40
0.258359788336016
40
0.258359788336016
40
0.270662635399636
40
0.270662635399636
40
0.295268329526876
40
0.295268329526876
40
0.344479717781358
40
0.344479717781358
40
0.393691106035839
40
0.393691106035839
40
0.442902494290319
40
0.442902494290319
40
0.455205341353938
40
0.455205341353938
40
0.467508188417557
40
0.467508188417557
40
0.492113882544796
40
0.492113882544796
40
0.541325270799274
40
0.541325270799274
40
0.590536659053753
40
0.590536659053753
40
0.615142353180992
40
0.615142353180992
40
0.639748047308231
40
0.639748047308231
40
0.66435374143547
40
0.66435374143547
40
0.676656588499089
40
0.676656588499089
40
0.688959435562708
40
0.688959435562708
40
0.738170823817186
40
0.738170823817186
40
0.787382212071665
40
0.787382212071665
40
0.811987906198904
40
0.811987906198904
40
0.836593600326143
40
0.836593600326143
40
0.885804988580621
40
0.885804988580621
40
0.898107835644241
40
0.898107835644241
40
0.910410682707861
40
0.910410682707861
40
0.935016376835101
40
0.935016376835101
40
0.984227765089581
40
0.984227765089581
40
1
40
1
40
1
40
1
41
1
10
23.1650759792768
20
-2.20139007350221
30
0
41
1
10
23.0898537132125
20
-2.17865423995357
30
0
41
1
10
23.0145943958987
20
-2.15423748023934
30
0
41
1
10
22.8638927342506
20
-2.10209745986637
30
0
41
1
10
22.7883400207709
20
-2.07432881249443
30
0
41
1
10
22.5626053981079
20
-1.98668133154786
30
0
41
1
10
22.4130607645659
20
-1.92238775808801
30
0
41
1
10
22.1149219636348
20
-1.78296266476664
30
0
41
1
10
21.9662733095859
20
-1.70783243907948
30
0
41
1
10
21.668249092496
20
-1.54870541818389
30
0
41
1
10
21.5189116189579
20
-1.46466219124485
30
0
41
1
10
21.293977817144
20
-1.33229670972503
30
0
41
1
10
21.2188773700273
20
-1.28708600968318
30
0
41
1
10
21.0685530619312
20
-1.19431401944718
30
0
41
1
10
20.9933472540973
20
-1.14673044451931
30
0
41
1
10
20.8804596913074
20
-1.07350235181656
30
0
41
1
10
20.8428157926605
20
-1.04879804419713
30
0
41
1
10
20.7677775849403
20
-0.99906239383651
30
0
41
1
10
20.7303414996454
20
-0.974004363983994
30
0
41
1
10
20.6182205685474
20
-0.898341403640359
30
0
41
1
10
20.5437194337889
20
-0.847252029114202
30
0
41
1
10
20.3205030350899
20
-0.692652378657073
30
0
41
1
10
20.1721093718804
20
-0.587764265729561
30
0
41
1
10
19.8746926005128
20
-0.376396144494777
30
0
41
1
10
19.7257274705634
20
-0.269839546428955
30
0
41
1
10
19.4270382966387
20
-0.05534543701296
30
0
41
1
10
19.2772729619965
20
0.0525097840057356
30
0
41
1
10
19.0891219181484
20
0.187526679085977
30
0
41
1
10
19.0514445252539
20
0.214540578354217
30
0
41
1
10
18.9759834404151
20
0.268574510152575
30
0
41
1
10
18.9381589446193
20
0.295623630422
30
0
41
1
10
18.8249218460776
20
0.376460090677057
30
0
41
1
10
18.749695915594
20
0.429973570333658
30
0
41
1
10
18.5246622248337
20
0.589164320772113
30
0
41
1
10
18.3754970889149
20
0.693484327964484
30
0
41
1
10
18.0777107016579
20
0.897223119749128
30
0
41
1
10
17.9291296739857
20
0.996659290488395
30
0
41
1
10
17.7060631819937
20
1.14118955640873
30
0
41
1
10
17.6316741937551
20
1.18859329039546
30
0
41
1
10
17.4827018322366
20
1.28166631683587
30
0
41
1
10
17.4081148261416
20
1.32733498850129
30
0
41
1
10
17.2585681278419
20
1.41678893962404
30
0
41
1
10
17.1836085367384
20
1.46057684660013
30
0
41
1
10
17.0708002667892
20
1.52471761590428
30
0
41
1
10
17.0331111578526
20
1.54585460862967
30
0
41
1
10
16.9577054993352
20
1.58753153404481
30
0
41
1
10
16.9200581618896
20
1.60803364752664
30
0
41
1
10
16.7320630560386
20
1.7088387108995
30
0
41
1
10
16.5824254960856
20
1.78401636463619
30
0
41
1
10
16.283947128056
20
1.92290853044059
30
0
41
1
10
16.1351314061909
20
1.98670238009504
30
0
41
1
10
15.9121190959693
20
2.07318909128927
30
0
41
1
10
15.8377992061502
20
2.10050602626185
30
0
41
1
10
15.6890168458008
20
2.15215999241639
30
0
41
1
10
15.6145582481232
20
2.17648812709822
30
0
41
1
10
15.3907669153891
20
2.24471510058649
30
0
41
1
10
15.2409775955488
20
2.28382814153585
30
0
41
1
10
15.0523331878482
20
2.32392185407898
30
0
41
1
10
15.0145904215017
20
2.33148775271101
30
0
41
1
10
14.9392827506299
20
2.34566017061419
30
0
41
1
10
14.901687212781
20
2.35227019876427
30
0
41
1
10
14.7890411312301
20
2.37071738317724
30
0
41
1
10
14.7141258582497
20
2.38118095764051
30
0
41
1
10
14.4896962582813
20
2.40746515172359
30
0
41
1
10
14.3405776363608
20
2.41812314547002
30
0
41
1
10
14.1440117046031
20
2.42271022140952
30
0
41
1
10
14.0963256341971
20
2.42308480761182
30
0
41
1
10
14.0486460821158
20
2.4226998180248
30
0
0
SPLINE
5
15C
100
AcDbEntity
8
1
62
256
6
ByLayer
370
13
48
1
60
0
100
AcDbSpline
70
4
71
3
72
11
73
7
40
0
40
0
40
0
40
0
40
0.0146295068613644
40
0.260972130146023
40
0.507314753430682
40
1
40
1
40
1
40
1
41
1
10
12.6151759055412
20
0.46848842422537
30
0
41
1
10
12.5966175219646
20
0.481468608329663
30
0
41
1
10
12.2655591383881
20
0.712601482162739
30
0
41
1
10
11.6220007548115
20
1.14623609850949
30
0
41
1
10
10.3720007548116
20
1.86545280728174
30
0
41
1
10
9.43450075481164
20
2.19244817897993
30
0
41
1
10
8.80950075481158
20
2.28141220154026
30
0
0
SPLINE
5
15D
100
AcDbEntity
8
1
62
256
6
ByLayer
370
18
48
1
60
0
100
AcDbSpline
70
4
71
3
72
8
73
4
40
0
40
0
40
0
40
0
40
1
40
1
40
1
40
1
41
1
10
8.80950075481164
20
-0.383185254264589
30
0
41
1
10
8.73377237961168
20
-0.33903825236041
30
0
41
1
10
8.65840100049437
20
-0.294253305954584
30
0
41
1
10
8.58343016636374
20
-0.248752594070368
30
0
0
SPLINE
5
15E
100
AcDbEntity
8
1
62
256
6
ByLayer
370
13
48
1
60
0
100
AcDbSpline
70
4
71
3
72
13
73
9
40
0
40
0
40
0
40
0
40
0.105101684584906
40
0.221827551812962
40
0.377462041450369
40
0.533096531087777
40
0.688731020725185
40
1
40
1
40
1
40
1
41
1
10
14.8332298278736
20
-2.17549347378284
30
0
41
1
10
14.6221951368529
20
-2.21032585806782
30
0
41
1
10
14.1767854458323
20
-2.25886352272391
30
0
41
1
10
13.4188757548117
20
-2.24939600713091
30
0
41
1
10
12.5595007548117
20
-2.10900011114183
30
0
41
1
10
11.6220007548116
20
-1.80584395327625
30
0
41
1
10
10.3720007548116
20
-1.23271824167452
30
0
41
1
10
9.43450075481175
20
-0.651477198428864
30
0
41
1
10
8.80950075481169
20
-0.252609091492815
30
0
0
SPLINE
5
15F
100
AcDbEntity
8
1
62
256
6
ByLayer
370
18
48
1
60
0
100
AcDbSpline
70
4
71
3
72
59
73
55
40
0
40
0
40
0
40
0
40
0.0004836909636071
40
0.0004836909636071
40
0.0327261525454248
40
0.0327261525454248
40
0.0972110757090596
40
0.0972110757090596
40
0.129453537290877
40
0.129453537290877
40
0.161695998872695
40
0.161695998872695
40
0.177817229663604
40
0.177817229663604
40
0.193938460454512
40
0.193938460454512
40
0.226180922036332
40
0.258423383618151
40
0.258423383618151
40
0.290665845199971
40
0.290665845199971
40
0.32290830678179
40
0.32290830678179
40
0.355150768363609
40
0.355150768363609
40
0.41963569152725
40
0.41963569152725
40
0.484120614690891
40
0.484120614690891
40
0.516363076272711
40
0.516363076272711
40
0.54860553785453
40
0.54860553785453
40
0.613090461018167
40
0.613090461018167
40
0.677575384181804
40
0.677575384181804
40
0.709817845763624
40
0.709817845763624
40
0.742060307345443
40
0.742060307345443
40
0.774302768927263
40
0.774302768927263
40
0.790423999718172
40
0.790423999718172
40
0.806545230509082
40
0.806545230509082
40
0.871030153672722
40
0.871030153672722
40
0.935515076836361
40
0.935515076836361
40
0.96775753841818
40
0.96775753841818
40
1
40
1
40
1
40
1
41
1
10
15.7654264650561
20
-2.03539731024378
30
0
41
1
10
15.7643113889753
20
-2.03581545045401
30
0
41
1
10
15.7631963224555
20
-2.03623328844415
30
0
41
1
10
15.6877524203192
20
-2.06448343914397
30
0
41
1
10
15.613461015077
20
-2.09098381450917
30
0
41
1
10
15.3905550651944
20
-2.16625331182758
30
0
41
1
10
15.2418862797888
20
-2.21074021487107
30
0
41
1
10
15.0181503221493
20
-2.26821493039535
30
0
41
1
10
14.9434575817865
20
-2.28582479272268
30
0
41
1
10
14.7937642881976
20
-2.31786875864603
30
0
41
1
10
14.7187581374225
20
-2.33232262041241
30
0
41
1
10
14.6059285064555
20
-2.35174455517802
30
0
41
1
10
14.5682660825626
20
-2.35783933685013
30
0
41
1
10
14.4928294441167
20
-2.3692521158012
30
0
41
1
10
14.4550625607404
20
-2.37456796976886
30
0
41
1
10
14.3420378248759
20
-2.38926666113102
30
0
41
1
10
14.1917765258521
20
-2.40558168579392
30
0
41
1
10
14.0422952715689
20
-2.41523231011837
30
0
41
1
10
13.893129053773
20
-2.42146334850287
30
0
41
1
10
13.8187117235958
20
-2.42284124331121
30
0
41
1
10
13.6700431869125
20
-2.42223626012475
30
0
41
1
10
13.59577904977
20
-2.4202919146104
30
0
41
1
10
13.4472091293561
20
-2.41335644298741
30
0
41
1
10
13.3729117682252
20
-2.40833587853115
30
0
41
1
10
13.1498976354756
20
-2.38846399462094
30
0
41
1
10
13.0010578407976
20
-2.36883043199495
30
0
41
1
10
12.7023936677587
20
-2.31619352134649
30
0
41
1
10
12.5525721805042
20
-2.28307289746064
30
0
41
1
10
12.3263819431587
20
-2.22398174054288
30
0
41
1
10
12.2512004452053
20
-2.20278916596519
30
0
41
1
10
12.1012331101163
20
-2.1574472622072
30
0
41
1
10
12.0264305989435
20
-2.13332033702065
30
0
41
1
10
11.8023143290782
20
-2.0570142791058
30
0
41
1
10
11.6533111843393
20
-2.00086586954634
30
0
41
1
10
11.35556035227
20
-1.87806879147882
30
0
41
1
10
11.2068335059318
20
-1.81140371019384
30
0
41
1
10
10.9834915506181
20
-1.70372440937703
30
0
41
1
10
10.9089872432511
20
-1.66660375408873
30
0
41
1
10
10.7597301733105
20
-1.59021205620851
30
0
41
1
10
10.6849847705777
20
-1.55091448860992
30
0
41
1
10
10.5351960687333
20
-1.47005011102675
30
0
41
1
10
10.460151876023
20
-1.42848395897505
30
0
41
1
10
10.3472824657915
20
-1.3644733688422
30
0
41
1
10
10.3095748875351
20
-1.3428397697441
30
0
41
1
10
10.2342526542688
20
-1.29914605185016
30
0
41
1
10
10.1966357007348
20
-1.27708519998046
30
0
41
1
10
10.0087409235939
20
-1.16574727497985
30
0
41
1
10
9.85904882143049
20
-1.07331853893811
30
0
41
1
10
9.55970077663602
20
-0.883765852667011
30
0
41
1
10
9.41011207187464
20
-0.786491518093953
30
0
41
1
10
9.1853304979166
20
-0.637426684950782
30
0
41
1
10
9.11033498043116
20
-0.587217558117516
30
0
41
1
10
8.96011744537805
20
-0.485857464054163
30
0
41
1
10
8.88489665393453
20
-0.434699692890035
30
0
41
1
10
8.80950075481167
20
-0.383185254264589
30
0
0
SPLINE
5
160
100
AcDbEntity
8
1
62
256
6
ByLayer
370
18
48
1
60
0
100
AcDbSpline
70
4
71
3
72
28
73
24
40
0
40
0
40
0
40
0
40
0.112987968547486
40
0.112987968547486
40
0.169481952821229
40
0.169481952821229
40
0.225975937094972
40
0.225975937094972
40
0.338963905642462
40
0.338963905642462
40
0.395457889916207
40
0.395457889916207
40
0.451951874189951
40
0.451951874189951
40
0.564939842737441
40
0.564939842737441
40
0.677927811284931
40
0.677927811284931
40
0.90390374837991
40
0.90390374837991
40
0.960397732653655
40
0.960397732653655
40
1
40
1
40
1
40
1
41
1
10
8.80950075481169
20
-1.0481691368698
30
0
41
1
10
8.96219502788725
20
-1.14706672285084
30
0
41
1
10
9.11453373780279
20
-1.24275064405111
30
0
41
1
10
9.3431666826813
20
-1.38068753901916
30
0
41
1
10
9.41939851912187
20
-1.42573663011035
30
0
41
1
10
9.57201670135876
20
-1.51383993252185
30
0
41
1
10
9.64831216859395
20
-1.55683993716005
30
0
41
1
10
9.87683337884403
20
-1.68222755115158
30
0
41
1
10
10.0288956919625
20
-1.76111298927063
30
0
41
1
10
10.2572361850691
20
-1.8716921080177
30
0
41
1
10
10.3333901065197
20
-1.90726456048321
30
0
41
1
10
10.4858816574215
20
-1.97574032432732
30
0
41
1
10
10.562291860451
20
-2.00867201976749
30
0
41
1
10
10.7911025378052
20
-2.10296781423023
30
0
41
1
10
10.943239082605
20
-2.15992249437971
30
0
41
1
10
11.2475786153716
20
-2.2613100246985
30
0
41
1
10
11.3998235987522
20
-2.3057405575407
30
0
41
1
10
11.8577996251896
20
-2.41943481455399
30
0
41
1
10
12.1612779284512
20
-2.46826911162523
30
0
41
1
10
12.5427065832229
20
-2.49398319800542
30
0
41
1
10
12.6191032031516
20
-2.49735487558175
30
0
41
1
10
12.7487650450047
20
-2.50005643459082
30
0
41
1
10
12.8021562596081
20
-2.5002952626285
30
0
41
1
10
12.8555223513539
20
-2.49966545127398
30
0
0
SPLINE
5
161
100
AcDbEntity
8
1
62
256
6
ByLayer
370
18
48
1
60
0
100
AcDbSpline
70
4
71
3
72
18
73
14
40
0
40
0
40
0
40
0
40
0.0479592268380822
40
0.0479592268380822
40
0.523979613419012
40
0.523979613419012
40
0.583482161741632
40
0.583482161741632
40
0.642984710064252
40
0.642984710064252
40
0.761989806709507
40
0.761989806709507
40
1
40
1
40
1
40
1
41
1
10
21.5148579772474
20
1.98316660655601
30
0
41
1
10
21.5456020969665
20
1.99651571154683
30
0
41
1
10
21.5763576190013
20
2.00964036273044
30
0
41
1
10
21.9124460482404
20
2.15050149257124
30
0
41
1
10
22.2158032966448
20
2.2546356655603
30
0
41
1
10
22.5586351955495
20
2.34258795187384
30
0
41
1
10
22.5967499988101
20
2.3519537784384
30
0
41
1
10
22.6730387453145
20
2.36986136610815
30
0
41
1
10
22.7112185131511
20
2.37840379240907
30
0
41
1
10
22.8256035963384
20
2.40272498025212
30
0
41
1
10
22.9017417130068
20
2.41721895132596
30
0
41
1
10
23.129972511725
20
2.45550528561611
30
0
41
1
10
23.2818843663567
20
2.47409886905928
30
0
41
1
10
23.4339912288218
20
2.48567969315496
30
0
0
SPLINE
5
162
100
AcDbEntity
8
1
62
256
6
ByLayer
370
18
48
1
60
0
100
AcDbSpline
70
4
71
3
72
16
73
12
40
0
40
0
40
0
40
0
40
0.250000000000047
40
0.250000000000047
40
0.500000000000094
40
0.500000000000094
40
0.750000000000142
40
0.750000000000142
40
0.875000000000071
40
0.875000000000071
40
1
40
1
40
1
40
1
41
1
10
23.4320038308481
20
-2.49244288433826
30
0
41
1
10
23.4225445817708
20
-2.49145000980829
30
0
41
1
10
23.4128113187546
20
-2.4904139865985
30
0
41
1
10
23.3925770528053
20
-2.48828519044412
30
0
41
1
10
23.3820487161494
20
-2.48718811171332
30
0
41
1
10
23.3599825044156
20
-2.48501418823824
30
0
41
1
10
23.348480684503
20
-2.48393580943966
30
0
41
1
10
23.3299733688049
20
-2.48245528139765
30
0
41
1
10
23.3235918990756
20
-2.48198535837287
30
0
41
1
10
23.3101997138319
20
-2.48113993742248
30
0
41
1
10
23.3032859600986
20
-2.48077004134035
30
0
41
1
10
23.2960749699991
20
-2.48049679248933
30
0
0
SPLINE
5
163
100
AcDbEntity
8
1
62
256
6
ByLayer
370
18
48
1
60
0
100
AcDbSpline
70
4
71
3
72
16
73
12
40
0
40
0
40
0
40
0
40
0.249999999999952
40
0.249999999999952
40
0.499999999999904
40
0.499999999999904
40
0.749999999999856
40
0.749999999999856
40
0.874999999999928
40
0.874999999999928
40
1
40
1
40
1
40
1
41
1
10
23.4332205235339
20
0.272788633518672
30
0
41
1
10
23.4236829662853
20
0.2843994661267
30
0
41
1
10
23.4138652805097
20
0.295749742502437
30
0
41
1
10
23.3934458679082
20
0.317728935740916
30
0
41
1
10
23.3828147097289
20
0.328394830724392
30
0
41
1
10
23.3605339936248
20
0.348456476600347
30
0
41
1
10
23.3489188889888
20
0.357857841762353
30
0
41
1
10
23.3302342922529
20
0.370302607108954
30
0
41
1
10
23.323788563622
20
0.374172412973877
30
0
41
1
10
23.3102836852947
20
0.381080925062577
30
0
41
1
10
23.3033311985663
20
0.384068038777457
30
0
41
1
10
23.2960852392422
20
0.386372173503048
30
0
0
SPLINE
5
164
100
AcDbEntity
8
1
62
256
6
ByLayer
370
18
48
1
60
0
100
AcDbSpline
70
4
71
3
72
16
73
12
40
0
40
0
40
0
40
0
40
0.500000000000257
40
0.500000000000257
40
0.750000000000385
40
0.750000000000385
40
0.875000000000191
40
0.875000000000191
40
0.937500000000095
40
0.937500000000095
40
1
40
1
40
1
40
1
41
1
10
23.2610781472149
20
0.426322091892388
30
0
41
1
10
23.2627937197228
20
0.420091941613379
30
0
41
1
10
23.2647073785762
20
0.413906825828491
30
0
41
1
10
23.2683136689804
20
0.404898437223522
30
0
41
1
10
23.2696337780054
20
0.401931531416295
30
0
41
1
10
23.2720556713226
20
0.397713628676769
30
0
41
1
10
23.2729368927167
20
0.396343941782106
30
0
41
1
10
23.2744820695268
20
0.394482351253231
30
0
41
1
10
23.2750348527451
20
0.393892272959903
30
0
41
1
10
23.2762965668057
20
0.392838249688566
30
0
41
1
10
23.276992634627
20
0.392379659505565
30
0
41
1
10
23.2777938841793
20
0.392130070841773
30
0
0
SPLINE
5
165
100
AcDbEntity
8
1
62
256
6
ByLayer
370
18
48
1
60
0
100
AcDbSpline
70
4
71
3
72
20
73
16
40
0
40
0
40
0
40
0
40
0.0369420060101428
40
0.154908894541736
40
0.213892338807533
40
0.272875783073329
40
0.390842671604922
40
0.508809560136516
40
0.567793004402312
40
0.626776448668109
40
0.744743337199702
40
0.803726781465499
40
0.862710225731295
40
0.980677114262889
40
1
40
1
40
1
40
1
41
1
10
18.4617330979466
20
2.49964948604469
30
0
41
1
10
18.5165574396731
20
2.49946380410484
30
0
41
1
10
18.7466851316144
20
2.49469288098493
30
0
41
1
10
19.0659957284144
20
2.46482111585493
30
0
41
1
10
19.4211111993281
20
2.40234080249894
30
0
41
1
10
19.7784836399373
20
2.32011124658683
30
0
41
1
10
20.2299914315273
20
2.18022584425361
30
0
41
1
10
20.6897826458857
20
1.99165211628537
30
0
41
1
10
21.0640676212239
20
1.8123237075865
30
0
41
1
10
21.4431293696564
20
1.61419834247729
30
0
41
1
10
21.8301738407662
20
1.38873086191848
30
0
41
1
10
22.2271511994659
20
1.13775632253626
30
0
41
1
10
22.6313405161411
20
0.870215702476827
30
0
41
1
10
22.9774356732652
20
0.628734179363846
30
0
41
1
10
23.2259674282968
20
0.451435994594959
30
0
41
1
10
23.2610781472151
20
0.426322091892587
30
0
0
SPLINE
5
166
100
AcDbEntity
8
1
62
256
6
ByLayer
370
18
48
1
60
0
100
AcDbSpline
70
4
71
3
72
70
73
66
40
0
40
0
40
0
40
0
40
0.0499887526230435
40
0.0499887526230435
40
0.0749831289345659
40
0.0749831289345659
40
0.0999775052460884
40
0.0999775052460884
40
0.149966257869132
40
0.149966257869132
40
0.174960634180653
40
0.174960634180653
40
0.199955010492174
40
0.199955010492174
40
0.249943763115216
40
0.249943763115216
40
0.262440951270977
40
0.262440951270977
40
0.274938139426737
40
0.274938139426737
40
0.299932515738257
40
0.299932515738257
40
0.349921268361295
40
0.349921268361295
40
0.362418456517055
40
0.362418456517055
40
0.374915644672815
40
0.374915644672815
40
0.399910020984336
40
0.399910020984336
40
0.449898773607377
40
0.449898773607377
40
0.499887526230417
40
0.499887526230417
40
0.549876278853458
40
0.562373467009218
40
0.562373467009218
40
0.574870655164978
40
0.574870655164978
40
0.5998650314765
40
0.5998650314765
40
0.649853784099543
40
0.649853784099543
40
0.674848160411063
40
0.674848160411063
40
0.699842536722585
40
0.699842536722585
40
0.749831289345627
40
0.749831289345627
40
0.774825665657148
40
0.774825665657148
40
0.799820041968669
40
0.799820041968669
40
0.84980879459171
40
0.84980879459171
40
0.86230598274747
40
0.86230598274747
40
0.874803170903231
40
0.89979754721475
40
0.89979754721475
40
0.949786299837789
40
0.949786299837789
40
0.999775052460829
40
0.999775052460829
40
1
40
1
40
1
40
1
41
1
10
8.80950075481169
20
2.44346762548668
30
0
41
1
10
8.96265122352227
20
2.41863528152703
30
0
41
1
10
9.11535593251961
20
2.38572735270918
30
0
41
1
10
9.34458571450207
20
2.32468322400428
30
0
41
1
10
9.42102445058785
20
2.30239234814127
30
0
41
1
10
9.57410444235006
20
2.25398561304175
30
0
41
1
10
9.65057894878461
20
2.22792068528335
30
0
41
1
10
9.87968734025699
20
2.14441012325662
30
0
41
1
10
10.0321529000136
20
2.08159835644185
30
0
41
1
10
10.2613138135657
20
1.97724243492726
30
0
41
1
10
10.3377862727819
20
1.94076761164695
30
0
41
1
10
10.4909767754619
20
1.8645689032931
30
0
41
1
10
10.5674419567371
20
1.8249714919244
30
0
41
1
10
10.7966325413338
20
1.70188486639628
30
0
41
1
10
10.9491396692127
20
1.61408826277207
30
0
41
1
10
11.1401157302042
20
1.49776527008402
30
0
41
1
10
11.1783285308883
20
1.4741719075727
30
0
41
1
10
11.2548079530945
20
1.42634513444068
30
0
41
1
10
11.2930963209272
20
1.40209803235251
30
0
41
1
10
11.4078949769951
20
1.32853907420795
30
0
41
1
10
11.4842981347009
20
1.27843800199918
30
0
41
1
10
11.7133414033199
20
1.12523178533416
30
0
41
1
10
11.8658147657481
20
1.0192297329524
30
0
41
1
10
12.0568566616898
20
0.882720857362557
30
0
41
1
10
12.0950875052567
20
0.855218431786227
30
0
41
1
10
12.1716119065758
20
0.799831860098948
30
0
41
1
10
12.2099317997011
20
0.771928227521158
30
0
41
1
10
12.3246261229673
20
0.687956635084419
30
0
41
1
10
12.4008372406981
20
0.631556381050359
30
0
41
1
10
12.6289139264132
20
0.461362608467454
30
0
41
1
10
12.780213336042
20
0.346563440059867
30
0
41
1
10
13.0823625012891
20
0.115690244914219
30
0
41
1
10
13.2332115292666
20
-0.0003836687582179
30
0
41
1
10
13.5355792935067
20
-0.232329601121961
30
0
41
1
10
13.7249826732077
20
-0.377164538874894
30
0
41
1
10
13.9158646767033
20
-0.520593724898305
30
0
41
1
10
13.9923530208428
20
-0.577830155542785
30
0
41
1
10
14.0306730480729
20
-0.606386589966718
30
0
41
1
10
14.1454499656087
20
-0.691517774208307
30
0
41
1
10
14.2218590458219
20
-0.747657124693745
30
0
41
1
10
14.4509456402275
20
-0.914021166309198
30
0
41
1
10
14.6034774323692
20
-1.02220352419008
30
0
41
1
10
14.8328147299518
20
-1.17929865397701
30
0
41
1
10
14.9094372368652
20
-1.2308566791377
30
0
41
1
10
15.0623803773345
20
-1.33165698582391
30
0
41
1
10
15.1387402016466
20
-1.38092871465128
30
0
41
1
10
15.3677074250612
20
-1.5251524107635
30
0
41
1
10
15.5202028574624
20
-1.6165294489825
30
0
41
1
10
15.7496003791356
20
-1.74548677962787
30
0
41
1
10
15.8262389361654
20
-1.78713599332178
30
0
41
1
10
15.9791797426309
20
-1.86721519827992
30
0
41
1
10
16.0555564637553
20
-1.90568444792461
30
0
41
1
10
16.284613122863
20
-2.01619857383994
30
0
41
1
10
16.4372201614542
20
-2.0834014348662
30
0
41
1
10
16.6284733053122
20
-2.15885295086636
30
0
41
1
10
16.666781889535
20
-2.17352661443866
30
0
41
1
10
16.7432873471296
20
-2.20193471432069
30
0
41
1
10
16.8578394940904
20
-2.24312627175234
30
0
41
1
10
16.9718574385406
20
-2.2800456728373
30
0
41
1
10
17.1994073608128
20
-2.34813513922799
30
0
41
1
10
17.3504640159919
20
-2.38585751300113
30
0
41
1
10
17.6524754655819
20
-2.44558997588482
30
0
41
1
10
17.8034314605683
20
-2.4676025969618
30
0
41
1
10
17.9555422920105
20
-2.48170506373393
30
0
41
1
10
17.9562237280398
20
-2.48176807874262
30
0
41
1
10
17.9569051734207
20
-2.48183093244526
30
0
0
SPLINE
5
167
100
AcDbEntity
8
1
62
256
6
ByLayer
370
18
48
1
60
0
100
AcDbSpline
70
4
71
3
72
22
73
18
40
0
40
0
40
0
40
0
40
0.0413923829481169
40
0.151196574707
40
0.206098670586442
40
0.261000766465884
40
0.370804958224767
40
0.425707054104209
40
0.480609149983651
40
0.590413341742534
40
0.645315437621976
40
0.700217533501418
40
0.75511962938086
40
0.810021725260302
40
0.919825917019185
40
0.974728012898627
40
1
40
1
40
1
40
1
41
1
10
8.80887064420787
20
-1.02032470804807
30
0
41
1
10
8.87563459368678
20
-1.06379609006038
30
0
41
1
10
9.11958033142676
20
-1.22060530714006
30
0
41
1
10
9.4525653515866
20
-1.42320281409826
30
0
41
1
10
9.80811582466595
20
-1.6225166552928
30
0
41
1
10
10.1642331176773
20
-1.80960932849646
30
0
41
1
10
10.5213199258654
20
-1.97659832825565
30
0
41
1
10
10.8796006506367
20
-2.12060861797795
30
0
41
1
10
11.2386959278436
20
-2.24826356155904
30
0
41
1
10
11.5990133428012
20
-2.34987416869433
30
0
41
1
10
11.9601923689961
20
-2.42359826589319
30
0
41
1
10
12.2314281590145
20
-2.46451125684999
30
0
41
1
10
12.5029218754435
20
-2.49062664985277
30
0
41
1
10
12.8650956817317
20
-2.50547810186813
30
0
41
1
10
13.2273067907858
20
-2.49016620141083
30
0
41
1
10
13.5401900070337
20
-2.45141010032137
30
0
41
1
10
13.6720852235605
20
-2.42987272672377
30
0
41
1
10
13.7136441733185
20
-2.42257357425305
30
0
0
SPLINE
5
168
100
AcDbEntity
8
1
62
256
6
ByLayer
370
18
48
1
60
0
100
AcDbSpline
70
4
71
3
72
10
73
6
40
0
40
0
40
0
40
0
40
0.5
40
0.5
40
1
40
1
40
1
40
1
41
1
10
8.58354100527916
20
-2.42168878037401
30
0
41
1
10
8.54993926855718
20
-2.41504809358963
30
0
41
1
10
8.51570067752655
20
-2.40965063394134
30
0
41
1
10
8.44579425688661
20
-2.40164578477643
30
0
41
1
10
8.41012821108629
20
-2.39903491301953
30
0
41
1
10
8.37361086045752
20
-2.39808590528622
30
0
0
SPLINE
5
169
100
AcDbEntity
8
1
62
256
6
ByLayer
370
18
48
1
60
0
100
AcDbSpline
70
4
71
3
72
8
73
4
40
0
40
0
40
0
40
0
40
1
40
1
40
1
40
1
41
1
10
8.80950075481161
20
-1.04648139154119
30
0
41
1
10
8.80950075481161
20
-1.0470439731962
30
0
41
1
10
8.80950075481158
20
-1.04760655497242
30
0
41
1
10
8.80950075481158
20
-1.0481691368698
30
0
0
SPLINE
5
16A
100
AcDbEntity
8
1
62
256
6
ByLayer
370
18
48
1
60
0
100
AcDbSpline
70
4
71
3
72
10
73
6
40
0
40
0
40
0
40
0
40
0.5
40
0.5
40
1
40
1
40
1
40
1
41
1
10
8.58343016636189
20
-0.248752594072101
30
0
41
1
10
8.54985618007373
20
-0.222749089192462
30
0
41
1
10
8.51564123621102
20
-0.197342630697989
30
0
41
1
10
8.44577225805077
20
-0.147870213885852
30
0
41
1
10
8.41012000218259
20
-0.123802598976795
30
0
41
1
10
8.37361086045752
20
-0.10053316576284
30
0
0
SPLINE
5
16B
100
AcDbEntity
8
1
62
256
6
ByLayer
370
18
48
1
60
0
100
AcDbSpline
70
4
71
3
72
8
73
4
40
0
40
0
40
0
40
0
40
1
40
1
40
1
40
1
41
1
10
8.37361086045757
20
-0.853608510981758
30
0
41
1
10
8.46183744150292
20
-0.875681386209152
30
0
41
1
10
8.54726913925498
20
-0.905584947595685
30
0
41
1
10
8.6286796994406
20
-0.946612085617346
30
0
0
SPLINE
5
16C
100
AcDbEntity
8
1
62
256
6
ByLayer
370
18
48
1
60
0
100
AcDbSpline
70
4
71
3
72
8
73
4
40
0
40
0
40
0
40
0
40
1
40
1
40
1
40
1
41
1
10
8.6286796994406
20
-0.946612085617318
30
0
41
1
10
8.69103955965119
20
-0.978038556409786
30
0
41
1
10
8.75131978520645
20
-1.01187732295526
30
0
41
1
10
8.80950075481209
20
-1.04815114519607
30
0
0
SPLINE
5
16D
100
AcDbEntity
8
1
62
256
6
ByLayer
370
18
48
1
60
0
100
AcDbSpline
70
4
71
3
72
8
73
4
40
0
40
0
40
0
40
0
40
1
40
1
40
1
40
1
41
1
10
8.80887064420787
20
-1.02032470804807
30
0
41
1
10
8.80897236091292
20
-1.02904660208532
30
0
41
1
10
8.80918441501771
20
-1.03776579922254
30
0
41
1
10
8.8095007548113
20
-1.04648139153554
30
0
0
SPLINE
5
16E
100
AcDbEntity
8
1
62
256
6
ByLayer
370
18
48
1
60
0
100
AcDbSpline
70
4
71
3
72
90
73
86
40
0
40
0
40
0
40
0
40
0.0051821341826818
40
0.0051821341826818
40
0.0241643097490153
40
0.0241643097490153
40
0.0336553975321821
40
0.0336553975321821
40
0.0431464853153489
40
0.0431464853153489
40
0.0811108364480161
40
0.0811108364480161
40
0.10009301201435
40
0.10009301201435
40
0.119075187580683
40
0.119075187580683
40
0.15703953871335
40
0.15703953871335
40
0.176021714279684
40
0.176021714279684
40
0.195003889846017
40
0.195003889846017
40
0.232968240978686
40
0.232968240978686
40
0.251950416545019
40
0.251950416545019
40
0.270932592111353
40
0.270932592111353
40
0.30889694324402
40
0.30889694324402
40
0.327879118810354
40
0.327879118810354
40
0.346861294376687
40
0.346861294376687
40
0.384825645509354
40
0.384825645509354
40
0.403807821075687
40
0.403807821075687
40
0.422789996642019
40
0.422789996642019
40
0.460754347774686
40
0.460754347774686
40
0.479736523341018
40
0.489227611124184
40
0.489227611124184
40
0.49871869890735
40
0.49871869890735
40
0.536683050040015
40
0.536683050040015
40
0.555665225606348
40
0.555665225606348
40
0.565156313389514
40
0.565156313389514
40
0.57464740117268
40
0.57464740117268
40
0.612611752305347
40
0.612611752305347
40
0.63159392787168
40
0.641085015654846
40
0.641085015654846
40
0.650576103438012
40
0.650576103438012
40
0.688540454570673
40
0.688540454570673
40
0.707522630137005
40
0.707522630137005
40
0.726504805703336
40
0.726504805703336
40
0.764469156836
40
0.764469156836
40
0.802433507968665
40
0.802433507968665
40
0.878362210233995
40
0.878362210233995
40
0.897344385800327
40
0.897344385800327
40
0.916326561366659
40
0.954290912499321
40
0.954290912499321
40
0.963782000282486
40
0.963782000282486
40
0.973273088065651
40
0.992255263631982
40
0.992255263631982
40
1
40
1
40
1
40
1
41
1
10
11.0325648013702
20
2.0054355334907
30
0
41
1
10
11.0533374852882
20
2.01469847117943
30
0
41
1
10
11.0741120162739
20
2.02384640152798
30
0
41
1
10
11.1709983520786
20
2.06596114177557
30
0
41
1
10
11.2471509891242
20
2.09747939232724
30
0
41
1
10
11.361544816951
20
2.14233659386719
30
0
41
1
10
11.3997228772912
20
2.1568927899732
30
0
41
1
10
11.4759977920915
20
2.18513078215344
30
0
41
1
10
11.5141063049937
20
2.19881759213271
30
0
41
1
10
11.7045459662282
20
2.26507673438468
30
0
41
1
10
11.8565691841607
20
2.3111393025016
30
0
41
1
10
12.0848972972901
20
2.36936788269682
30
0
41
1
10
12.1610553221263
20
2.3869652377586
30
0
41
1
10
12.3135961084095
20
2.41844800243845
30
0
41
1
10
12.3899895005357
20
2.43232931473645
30
0
41
1
10
12.6186447839005
20
2.46816313275232
30
0
41
1
10
12.7707188725326
20
2.48437989647786
30
0
41
1
10
12.9990195159674
20
2.49715013576503
30
0
41
1
10
13.0751519138295
20
2.49948366802141
30
0
41
1
10
13.2276103325906
20
2.50028519865964
30
0
41
1
10
13.3039783298351
20
2.49874685253269
30
0
41
1
10
13.5325649388838
20
2.48833311054952
30
0
41
1
10
13.6845822426168
20
2.47367227110914
30
0
41
1
10
13.9128619674333
20
2.44014621022978
30
0
41
1
10
13.988997399323
20
2.42705267870917
30
0
41
1
10
14.1414750729276
20
2.3970900054716
30
0
41
1
10
14.2178810031658
20
2.38020311087786
30
0
41
1
10
14.4466146318056
20
2.32417514379603
30
0
41
1
10
14.5987068807159
20
2.27963617676437
30
0
41
1
10
14.8269806059169
20
2.20233374006244
30
0
41
1
10
14.9030960734044
20
2.17482007367289
30
0
41
1
10
15.0555078876797
20
2.11636993253322
30
0
41
1
10
15.1318828848728
20
2.08539917849848
30
0
41
1
10
15.360571773849
20
1.98787130821773
30
0
41
1
10
15.512625760527
20
1.9166637998259
30
0
41
1
10
15.7408895229974
20
1.80128098259186
30
0
41
1
10
15.8170089844585
20
1.7613807411841
30
0
41
1
10
15.9694360043089
20
1.67881902881916
30
0
41
1
10
16.0458300858697
20
1.63610406397697
30
0
41
1
10
16.2746624989391
20
1.50442572121776
30
0
41
1
10
16.4268108666064
20
1.41194597538956
30
0
41
1
10
16.6551014596836
20
1.26700710256316
30
0
41
1
10
16.7692629224097
20
1.19297860153233
30
0
41
1
10
16.8835933115776
20
1.11676906406936
30
0
41
1
10
16.9598683596826
20
1.06549598694573
30
0
41
1
10
16.9980425509607
20
1.03961947054157
30
0
41
1
10
17.1886697844334
20
0.909407763831439
30
0
41
1
10
17.3407189347487
20
0.802374161010306
30
0
41
1
10
17.5689408989339
20
0.638580372943949
30
0
41
1
10
17.645038822461
20
0.583440757609367
30
0
41
1
10
17.7593173538132
20
0.500043218889516
30
0
41
1
10
17.7974320559086
20
0.47212930881318
30
0
41
1
10
17.8737204139219
20
0.416091703724021
30
0
41
1
10
17.9119132623008
20
0.387953788297096
30
0
41
1
10
18.1026781848427
20
0.247070736590189
30
0
41
1
10
18.2548406304398
20
0.133600448573247
30
0
41
1
10
18.483103298571
20
-0.0368191083479417
30
0
41
1
10
18.5972421473543
20
-0.122078756002026
30
0
41
1
10
18.7115392072498
20
-0.207216076560371
30
0
41
1
10
18.7877891836069
20
-0.263924567703924
30
0
41
1
10
18.8259615065907
20
-0.292269843269111
30
0
41
1
10
19.0166910210703
20
-0.433590203329629
30
0
41
1
10
19.1687916673949
20
-0.545302641062221
30
0
41
1
10
19.3970188751349
20
-0.709820819041084
30
0
41
1
10
19.4731071474056
20
-0.764151525173446
30
0
41
1
10
19.6254381841355
20
-0.871625528208739
30
0
41
1
10
19.7017185541247
20
-0.924794268526057
30
0
41
1
10
19.9307380494143
20
-1.08210632159071
30
0
41
1
10
20.0829381135421
20
-1.18357430992884
30
0
41
1
10
20.3872982744243
20
-1.37867928352423
30
0
41
1
10
20.5394726002781
20
-1.47232013512431
30
0
41
1
10
20.9974364813193
20
-1.73954427522585
30
0
41
1
10
21.3006752065351
20
-1.89702323279394
30
0
41
1
10
21.6823893479991
20
-2.0633128413254
30
0
41
1
10
21.7586613646007
20
-2.09495143063475
30
0
41
1
10
21.9110138461926
20
-2.15485267359432
30
0
41
1
10
22.1393337211882
20
-2.23967776931181
30
0
41
1
10
22.3675476105676
20
-2.3091056929463
30
0
41
1
10
22.558306660687
20
-2.35800151025131
30
0
41
1
10
22.5964743718807
20
-2.36732781014015
30
0
41
1
10
22.6726851147767
20
-2.38502775726639
30
0
41
1
10
22.786886077659
20
-2.41016741365098
30
0
41
1
10
22.9008176960595
20
-2.43106558270969
30
0
41
1
10
23.0076866601954
20
-2.44801071446824
30
0
41
1
10
23.0386456794926
20
-2.45260499834893
30
0
41
1
10
23.0696002770456
20
-2.45688255785214
30
0
0
SPLINE
5
16F
100
AcDbEntity
8
1
62
256
6
ByLayer
370
18
48
1
60
0
100
AcDbSpline
70
4
71
3
72
8
73
4
40
0
40
0
40
0
40
0
40
1
40
1
40
1
40
1
41
1
10
23.2732902770587
20
-2.48045233362103
30
0
41
1
10
23.3261730659839
20
-2.48537969510681
30
0
41
1
10
23.379070446299
20
-2.48937782045528
30
0
41
1
10
23.4320038308414
20
-2.49244288434181
30
0
0
SPLINE
5
170
100
AcDbEntity
8
1
62
256
6
ByLayer
370
18
48
1
60
0
100
AcDbSpline
70
4
71
3
72
8
73
4
40
0
40
0
40
0
40
0
40
1
40
1
40
1
40
1
41
1
10
23.4332205235281
20
0.272788633515859
30
0
41
1
10
23.4492868515485
20
0.261345066388088
30
0
41
1
10
23.4652599766584
20
0.250043623067569
30
0
41
1
10
23.4811478913859
20
0.238917891780574
30
0
0
SPLINE
5
171
100
AcDbEntity
8
1
62
256
6
ByLayer
370
18
48
1
60
0
100
AcDbSpline
70
4
71
3
72
54
73
50
40
0
40
0
40
0
40
0
40
0.0230373481484101
40
0.0230373481484101
40
0.054552272401693
40
0.054552272401693
40
0.117582120908258
40
0.117582120908258
40
0.149097045161542
40
0.149097045161542
40
0.164854507288183
40
0.164854507288183
40
0.180611969414824
40
0.243641817921386
40
0.243641817921386
40
0.275156742174668
40
0.275156742174668
40
0.30667166642795
40
0.30667166642795
40
0.369701514934511
40
0.369701514934511
40
0.401216439187792
40
0.416973901314432
40
0.416973901314432
40
0.432731363441071
40
0.432731363441071
40
0.495761211947627
40
0.495761211947627
40
0.558791060454184
40
0.558791060454184
40
0.621820908960738
40
0.621820908960738
40
0.684850757467292
40
0.684850757467292
40
0.70060821959393
40
0.70060821959393
40
0.716365681720568
40
0.747880605973839
40
0.747880605973839
40
0.810910454480382
40
0.810910454480382
40
0.842425378733652
40
0.842425378733652
40
0.873940302986921
40
0.936970151493461
40
0.936970151493461
40
0.96848507574673
40
0.96848507574673
40
1
40
1
40
1
40
1
41
1
10
16.1825551286873
20
1.99673778260831
30
0
41
1
10
16.238258314197
20
2.02106770014439
30
0
41
1
10
16.2940063474814
20
2.04463015975847
30
0
41
1
10
16.4261665834911
20
2.09856047445069
30
0
41
1
10
16.5023909005457
20
2.12814299902246
30
0
41
1
10
16.7308436473193
20
2.21210180981046
30
0
41
1
10
16.8828495283209
20
2.26169515219047
30
0
41
1
10
17.111136745462
20
2.32605580200797
30
0
41
1
10
17.1872796911298
20
2.34583598690463
30
0
41
1
10
17.3016623133707
20
2.3729239235241
30
0
41
1
10
17.3398343254574
20
2.38152580997473
30
0
41
1
10
17.4160966630972
20
2.3978253354222
30
0
41
1
10
17.6066198951579
20
2.4363346173854
30
0
41
1
10
17.7966862875621
20
2.46360014800584
30
0
41
1
10
18.0250039595999
20
2.4854542855025
30
0
41
1
10
18.1011484669026
20
2.49092750395295
30
0
41
1
10
18.253616044338
20
2.49821951809358
30
0
41
1
10
18.3300047410657
20
2.50003526484994
30
0
41
1
10
18.5586959282601
20
2.49994442418239
30
0
41
1
10
18.7107502312679
20
2.49252167565018
30
0
41
1
10
18.9389431973812
20
2.4704814955399
30
0
41
1
10
19.0530678665648
20
2.45673604058598
30
0
41
1
10
19.1673716430278
20
2.43891799355595
30
0
41
1
10
19.243629344123
20
2.42613477020095
30
0
41
1
10
19.2818044365659
20
2.41928713060651
30
0
41
1
10
19.4724922634916
20
2.3828611609793
30
0
41
1
10
19.624619421356
20
2.34670032949685
30
0
41
1
10
19.9289521506401
20
2.26086190614569
30
0
41
1
10
20.0811520294219
20
2.2111943870282
30
0
41
1
10
20.3864620952302
20
2.09876782807569
30
0
41
1
10
20.5386722751394
20
2.03633836980597
30
0
41
1
10
20.8429057705535
20
1.89998614944321
30
0
41
1
10
20.9949726249813
20
1.82604390918706
30
0
41
1
10
21.1856072382436
20
1.72692089675209
30
0
41
1
10
21.2237817419535
20
1.70675077548378
30
0
41
1
10
21.3000645563392
20
1.66582777243207
30
0
41
1
10
21.4144081583726
20
1.60356033559836
30
0
41
1
10
21.5285774420625
20
1.53872590867016
30
0
41
1
10
21.7568543382007
20
1.40583277616034
30
0
41
1
10
21.908957631566
20
1.31294171264633
30
0
41
1
10
22.1376235888457
20
1.16785219090596
30
0
41
1
10
22.2140002666502
20
1.11848415379728
30
0
41
1
10
22.3665141297779
20
1.01830807037084
30
0
41
1
10
22.595040237025
20
0.865817515642107
30
0
41
1
10
22.8233663398991
20
0.707349341192753
30
0
41
1
10
23.052292551865
20
0.545825205933539
30
0
41
1
10
23.1285522363483
20
0.491579884658989
30
0
41
1
10
23.2809263635964
20
0.382565709281721
30
0
41
1
10
23.357067742626
20
0.327778029984188
30
0
41
1
10
23.4332205235281
20
0.27278863351529
30
0
0
SPLINE
5
172
100
AcDbEntity
8
1
62
256
6
ByLayer
370
18
48
1
60
0
100
AcDbSpline
70
4
71
3
72
14
73
10
40
0
40
0
40
0
40
0
40
0.0168344913519201
40
0.0168344913519201
40
0.213467593081536
40
0.213467593081536
40
0.606733796540768
40
0.606733796540768
40
1
40
1
40
1
40
1
41
1
10
8.63572222874663
20
2.43496205064599
30
0
41
1
10
8.63655593880395
20
2.43518682292043
30
0
41
1
10
8.63739467352872
20
2.43540920132432
30
0
41
1
10
8.64809003071446
20
2.43819851503093
30
0
41
1
10
8.65855989654958
20
2.4404316036499
30
0
41
1
10
8.69103889924392
20
2.44612856707178
30
0
41
1
10
8.7140885745637
20
2.44859114328597
30
0
41
1
10
8.7610214768624
20
2.45091802116369
30
0
41
1
10
8.78494060986176
20
2.45078350495973
30
0
41
1
10
8.80890723625427
20
2.44939824239881
30
0
0
SPLINE
5
173
100
AcDbEntity
8
1
62
256
6
ByLayer
370
18
48
1
60
0
100
AcDbSpline
70
4
71
3
72
40
73
36
40
0
40
0
40
0
40
0
40
0.0083212520160634
40
0.0356147410541002
40
0.0492614855731187
40
0.0629082300921371
40
0.090201719130174
40
0.117495208168211
40
0.144788697206248
40
0.172082186244285
40
0.199375675282322
40
0.226669164320358
40
0.253962653358395
40
0.267609397877414
40
0.281256142396432
40
0.308549631434469
40
0.335843120472506
40
0.39043009854858
40
0.417723587586617
40
0.445017076624654
40
0.499604054700727
40
0.526897543738764
40
0.554191032776801
40
0.608778010852875
40
0.636071499890912
40
0.663364988928949
40
0.717951967005023
40
0.772538945081096
40
0.799832434119133
40
0.82712592315717
40
0.881712901233244
40
0.909006390271281
40
0.936299879309318
40
0.990886857385391
40
1
40
1
40
1
40
1
41
1
10
13.2464973327005
20
2.49950982327104
30
0
41
1
10
13.2740858434131
20
2.49931776069175
30
0
41
1
10
13.3921518075331
20
2.49741217522782
30
0
41
1
10
13.5553721168518
20
2.48836461993054
30
0
41
1
10
13.7360765664213
20
2.47020339111143
30
0
41
1
10
13.9166477026439
20
2.4466160513565
30
0
41
1
10
14.1420905444228
20
2.40705418186434
30
0
41
1
10
14.4120924274273
20
2.34406252973975
30
0
41
1
10
14.6814507062658
20
2.26613092092137
30
0
41
1
10
14.9500673638935
20
2.17379776934965
30
0
41
1
10
15.2178633434707
20
2.06777142072792
30
0
41
1
10
15.4846515667257
20
1.94896995500341
30
0
41
1
10
15.70604681228
20
1.8401764967453
30
0
41
1
10
15.8825094009779
20
1.74778807157952
30
0
41
1
10
16.0585093384823
20
1.65202464572008
30
0
41
1
10
16.2777564103332
20
1.52621287211448
30
0
41
1
10
16.6272281598173
20
1.31318295631331
30
0
41
1
10
16.9751744828844
20
1.08441688882678
30
0
41
1
10
17.3225241569791
20
0.843668361296892
30
0
41
1
10
17.669785942777
20
0.59616952857013
30
0
41
1
10
18.017355380727
20
0.340470670014014
30
0
41
1
10
18.3660267202368
20
0.0806297329918664
30
0
41
1
10
18.7156978210311
20
-0.180656896536703
30
0
41
1
10
19.0672976475502
20
-0.442004677327304
30
0
41
1
10
19.4217659986155
20
-0.699038288713439
30
0
41
1
10
19.7784728152723
20
-0.951783196381172
30
0
41
1
10
20.2291101578964
20
-1.25685170582227
30
0
41
1
10
20.6880173178349
20
-1.5395882776248
30
0
41
1
10
21.0616768733052
20
-1.7474438850976
30
0
41
1
10
21.440194162213
20
-1.94150786385683
30
0
41
1
10
21.8268636654489
20
-2.11199256035917
30
0
41
1
10
22.2237825388461
20
-2.2530174425288
30
0
41
1
10
22.6281788371915
20
-2.37247022985557
30
0
41
1
10
22.9754650166263
20
-2.44205933545436
30
0
41
1
10
23.2253246977507
20
-2.47119098671513
30
0
41
1
10
23.2612121981786
20
-2.4749466338769
30
0
0
SPLINE
5
174
100
AcDbEntity
8
1
62
256
6
ByLayer
370
18
48
1
60
0
100
AcDbSpline
70
4
71
3
72
42
73
38
40
0
40
0
40
0
40
0
40
0.0196950194663443
40
0.0710804931665013
40
0.0967732300165798
40
0.122465966866658
40
0.173851440566815
40
0.199544177416894
40
0.225236914266972
40
0.276622387967129
40
0.302315124817208
40
0.328007861667286
40
0.353700598517365
40
0.379393335367443
40
0.4307788090676
40
0.456471545917679
40
0.469317914342718
40
0.482164282767757
40
0.507857019617836
40
0.533549756467914
40
0.559242493317993
40
0.584935230168071
40
0.61062796701815
40
0.636320703868228
40
0.662013440718307
40
0.674859809143346
40
0.687706177568385
40
0.713398914418464
40
0.739091651268542
40
0.790477124968699
40
0.816169861818778
40
0.841862598668856
40
0.893248072369013
40
0.918940809219092
40
0.94463354606917
40
0.996019019769327
40
1
40
1
40
1
40
1
41
1
10
8.80890723625421
20
2.44939824239884
30
0
41
1
10
8.87717969053048
20
2.43895882381969
30
0
41
1
10
9.12367261872211
20
2.39543731026126
30
0
41
1
10
9.45980735689974
20
2.3075774345121
30
0
41
1
10
9.81745171816422
20
2.18339250969183
30
0
41
1
10
10.175573009844
20
2.03933135234968
30
0
41
1
10
10.5344627415674
20
1.86651367526537
30
0
41
1
10
10.894213626427
20
1.66846267425925
30
0
41
1
10
11.2545146526298
20
1.45483572172705
30
0
41
1
10
11.6156092157262
20
1.21977132323377
30
0
41
1
10
11.9772379084976
20
0.968457958914968
30
0
41
1
10
12.2486700032514
20
0.773116532651301
30
0
41
1
10
12.5202494782239
20
0.572243511823189
30
0
41
1
10
12.8824523147448
20
0.299039471053959
30
0
41
1
10
13.2446505200396
20
0.0207371879459401
30
0
41
1
10
13.5612041741848
20
-0.221870721226708
30
0
41
1
10
13.7419413934692
20
-0.35950356619216
30
0
41
1
10
13.9225526015259
20
-0.496212574118431
30
0
41
1
10
14.1480584056072
20
-0.664892267608877
30
0
41
1
10
14.4181472154133
20
-0.862402318534464
30
0
41
1
10
14.6875938899217
20
-1.05355791519693
30
0
41
1
10
14.9562900485367
20
-1.23693682144224
30
0
41
1
10
15.2241598336267
20
-1.41132043109079
30
0
41
1
10
15.4910154654437
20
-1.57566858798683
30
0
41
1
10
15.712451963268
20
-1.70338422122867
30
0
41
1
10
15.8889251197399
20
-1.79938893248237
30
0
41
1
10
16.0649139365445
20
-1.89120111278106
30
0
41
1
10
16.2841221401656
20
-1.99779213052338
30
0
41
1
10
16.633477189904
20
-2.15047107303414
30
0
41
1
10
16.9812354710126
20
-2.27538551107963
30
0
41
1
10
17.3283466135919
20
-2.37079427118425
30
0
41
1
10
17.6753439343091
20
-2.44597489199532
30
0
41
1
10
18.0226090524904
20
-2.49006725604653
30
0
41
1
10
18.3709152644105
20
-2.50232542813097
30
0
41
1
10
18.7201740804045
20
-2.49311125664238
30
0
41
1
10
18.9971098761626
20
-2.46019186082785
30
0
41
1
10
19.1873476428967
20
-2.42512665587736
30
0
41
1
10
19.2010319290523
20
-2.42254034560253
30
0
0
SPLINE
5
175
100
AcDbEntity
8
1
62
256
6
ByLayer
370
18
48
1
60
0
100
AcDbSpline
70
4
71
3
72
8
73
4
40
0
40
0
40
0
40
0
40
1
40
1
40
1
40
1
41
1
10
8.80890723625308
20
2.44939824239879
30
0
41
1
10
8.80900348465264
20
2.44759993536886
30
0
41
1
10
8.8092032724017
20
2.44580095722688
30
0
41
1
10
8.80950075481076
20
2.44399883580107
30
0
0
SPLINE
5
176
100
AcDbEntity
8
1
62
256
6
ByLayer
370
18
48
1
60
0
100
AcDbSpline
70
4
71
3
72
8
73
4
40
0
40
0
40
0
40
0
40
1
40
1
40
1
40
1
41
1
10
8.80950075481161
20
2.44399883579683
30
0
41
1
10
8.80950075481161
20
2.44382176479192
30
0
41
1
10
8.80950075481161
20
2.44364469468854
30
0
41
1
10
8.80950075481161
20
2.44346762548668
30
0
0
SPLINE
5
177
100
AcDbEntity
8
1
62
256
6
ByLayer
370
18
48
1
60
0
100
AcDbSpline
70
4
71
3
72
18
73
14
40
0
40
0
40
0
40
0
40
0.125
40
0.125
40
0.25
40
0.25
40
0.375
40
0.375
40
0.5
40
0.5
40
0.75
40
0.75
40
1
40
1
40
1
40
1
41
1
10
8.58343016634879
20
-0.24875259407267
30
0
41
1
10
8.58279992166257
20
-0.282926996353012
30
0
41
1
10
8.58566744065283
20
-0.316551816052339
30
0
41
1
10
8.59543380714842
20
-0.38311928157799
30
0
41
1
10
8.60233862755385
20
-0.4160619175411
30
0
41
1
10
8.61841814492047
20
-0.481525386107705
30
0
41
1
10
8.62760819547825
20
-0.514044183475448
30
0
41
1
10
8.64731404991929
20
-0.578802328539297
30
0
41
1
10
8.65780912134571
20
-0.61094458457427
30
0
41
1
10
8.69038541447756
20
-0.706811786436447
30
0
41
1
10
8.71354001070958
20
-0.770060402454021
30
0
41
1
10
8.76071228083913
20
-0.895752366330868
30
0
41
1
10
8.78476659213655
20
-0.958171170460048
30
0
41
1
10
8.80887064420818
20
-1.02032470804818
30
0
0
SPLINE
5
178
100
AcDbEntity
8
1
62
256
6
ByLayer
370
18
48
1
60
0
100
AcDbSpline
70
4
71
1
72
4
73
2
40
0
40
0
40
1
40
1
41
1
10
23.7540137078304
20
-0.273881360090797
30
0
41
1
10
23.7563870302222
20
-0.25556658179562
30
0
0
SPLINE
5
179
100
AcDbEntity
8
1
62
256
6
ByLayer
370
18
48
1
60
0
100
AcDbSpline
70
4
71
1
72
4
73
2
40
0
40
0
40
1
40
1
41
1
10
23.0625312804163
20
1.48832826235568
30
0
41
1
10
22.9509803508965
20
1.53071672073182
30
0
0
SPLINE
5
17A
100
AcDbEntity
8
1
62
256
6
ByLayer
370
18
48
1
60
0
100
AcDbSpline
70
4
71
2
72
6
73
3
40
0
40
0
40
0
40
1
40
1
40
1
41
1
10
18.7879854698722
20
1.13225154209826
30
0
41
1
10
18.4285809593161
20
1.22908259875024
30
0
41
1
10
18.0989836416059
20
1.37441741170269
30
0
0
SPLINE
5
17B
100
AcDbEntity
8
1
62
256
6
ByLayer
370
18
48
1
60
0
100
AcDbSpline
70
4
71
3
72
8
73
4
40
0
40
0
40
0
40
0
40
1
40
1
40
1
40
1
41
1
10
21.7309350414477
20
1.9331314104349
30
0
41
1
10
21.579728824889
20
1.968489729602
30
0
41
1
10
21.4283746585746
20
2.00057266993403
30
0
41
1
10
21.276874127122
20
2.02938158259369
30
0
0
SPLINE
5
17C
100
AcDbEntity
8
1
62
256
6
ByLayer
370
18
48
1
60
0
100
AcDbSpline
70
4
71
3
72
12
73
8
40
0
40
0
40
0
40
0
40
0.298375639287648
40
0.496221823107367
40
0.6237006233714
40
0.886100191220445
40
1
40
1
40
1
40
1
41
1
10
9.12967896445991
20
-2.19118647895289
30
0
41
1
10
9.27409748437091
20
-2.18471061894982
30
0
41
1
10
9.51337017121395
20
-2.16810804043237
30
0
41
1
10
9.81387304565553
20
-2.13445592735204
30
0
41
1
10
10.0933055046478
20
-2.09613014398565
30
0
41
1
10
10.3330855876166
20
-2.05609403730403
30
0
41
1
10
10.5121565773911
20
-2.02144239017162
30
0
41
1
10
10.5663572734625
20
-2.01051536951715
30
0
0
SPLINE
5
17D
100
AcDbEntity
8
1
62
256
6
ByLayer
370
18
48
1
60
0
100
AcDbSpline
70
4
71
2
72
6
73
3
40
0
40
0
40
0
40
1
40
1
40
1
41
1
10
13.4335913648928
20
1.18560298732004
30
0
41
1
10
12.9856814774087
20
1.28891150383134
30
0
41
1
10
12.5346161497149
20
1.4908794526998
30
0
0
SPLINE
5
17E
100
AcDbEntity
8
1
62
256
6
ByLayer
370
18
48
1
60
0
100
AcDbSpline
70
4
71
3
72
14
73
10
40
0
40
0
40
0
40
0
40
0.264313878334229
40
0.456582657704403
40
0.57753340526695
40
0.671229586462057
40
0.765010127641583
40
0.87957420791411
40
1
40
1
40
1
40
1
41
1
10
14.2404290845852
20
-2.19562242663662
30
0
41
1
10
14.4088625392974
20
-2.19036954503332
30
0
41
1
10
14.7002660725183
20
-2.1732092110087
30
0
41
1
10
15.0692621873402
20
-2.13380122742416
30
0
41
1
10
15.3303841863088
20
-2.09753285758742
30
0
41
1
10
15.5288022251712
20
-2.06571369165428
30
0
41
1
10
15.7228383773093
20
-2.03112967683489
30
0
41
1
10
15.9335789650564
20
-1.9895640413732
30
0
41
1
10
16.0838583229962
20
-1.95682859864249
30
0
41
1
10
16.1608462470728
20
-1.93927364192226
30
0
0
SPLINE
5
17F
100
AcDbEntity
8
1
62
256
6
ByLayer
370
18
48
1
60
0
100
AcDbSpline
70
4
71
3
72
9
73
5
40
0
40
0
40
0
40
0
40
0.841072873792157
40
1
40
1
40
1
40
1
41
1
10
11.3903754222003
20
1.90117999349226
30
0
41
1
10
11.2537658713923
20
1.93709555176812
30
0
41
1
10
11.0912847646643
20
1.97612944720225
30
0
41
1
10
10.9287342412569
20
2.0109237437255
30
0
41
1
10
10.9028988065405
20
2.01634383694739
30
0
0
SPLINE
5
180
100
AcDbEntity
8
1
62
256
6
ByLayer
370
18
48
1
60
0
100
AcDbSpline
70
4
71
3
72
12
73
8
40
0
40
0
40
0
40
0
40
0.31408877670369
40
0.532343593856266
40
0.671057471640543
40
0.853491303352506
40
1
40
1
40
1
40
1
41
1
10
19.6941167044815
20
-2.19572697647331
30
0
41
1
10
19.8774840442697
20
-2.18972215971809
30
0
41
1
10
20.1879208791119
20
-2.16845387781444
30
0
41
1
10
20.5770129357084
20
-2.11777473755652
30
0
41
1
10
20.8913251985782
20
-2.06449389165886
30
0
41
1
10
21.1644005888982
20
-2.01104766558146
30
0
41
1
10
21.3562048547607
20
-1.9676637033559
30
0
41
1
10
21.4416023750262
20
-1.94721141390795
30
0
0
SPLINE
5
181
100
AcDbEntity
8
1
62
256
6
ByLayer
370
18
48
1
60
0
100
AcDbSpline
70
4
71
3
72
11
73
7
40
0
40
0
40
0
40
0
40
0.465906277666194
40
0.788090653711471
40
0.983339133617927
40
1
40
1
40
1
40
1
41
1
10
17.2204154418616
20
1.7070309457219
30
0
41
1
10
17.0422088744014
20
1.76388536409658
30
0
41
1
10
16.740362325622
20
1.85235057429546
30
0
41
1
10
16.3637581816208
20
1.94666470560006
30
0
41
1
10
16.1581332293197
20
1.99192167262854
30
0
41
1
10
16.0764400449034
20
2.00888299020434
30
0
41
1
10
16.0700164754255
20
2.01021034316977
30
0
0
SPLINE
5
182
100
AcDbEntity
8
1
62
256
6
ByLayer
370
18
48
1
60
0
100
AcDbSpline
70
4
71
2
72
6
73
3
40
0
40
0
40
0
40
1
40
1
40
1
41
1
10
12.856871714771
20
-2.49964947552562
30
0
41
1
10
12.8568440507255
20
-2.49965004456374
30
0
41
1
10
12.8568163867152
20
-2.49965037269425
30
0
0
SPLINE
5
183
100
AcDbEntity
8
1
62
256
6
ByLayer
370
18
48
1
60
0
100
AcDbSpline
70
4
71
2
72
6
73
3
40
0
40
0
40
0
40
1
40
1
40
1
41
1
10
23.7959626518217
20
0.159841250878657
30
0
41
1
10
23.7744518150514
20
0.320464094273234
30
0
41
1
10
23.7529012975617
20
0.481385034514346
30
0
0
SPLINE
5
184
100
AcDbEntity
8
1
62
256
6
ByLayer
370
18
48
1
60
0
100
AcDbSpline
70
4
71
1
72
4
73
2
40
0
40
0
40
1
40
1
41
1
10
22.8844791463227
20
1.24991901019646
30
0
41
1
10
22.8844834850703
20
1.24990981832357
30
0
0
SPLINE
5
185
100
AcDbEntity
8
1
62
256
6
ByLayer
370
18
48
1
60
0
100
AcDbSpline
70
4
71
2
72
6
73
3
40
0
40
0
40
0
40
1
40
1
40
1
41
1
10
12.3569120853703
20
1.24992424512257
30
0
41
1
10
12.3568970772946
20
1.24994741255537
30
0
41
1
10
12.3568820692198
20
1.2499724980791
30
0
0
SPLINE
5
186
100
AcDbEntity
8
1
62
256
6
ByLayer
370
18
48
1
60
0
100
AcDbSpline
70
4
71
2
72
6
73
3
40
0
40
0
40
0
40
1
40
1
40
1
41
1
10
17.5337011814033
20
1.24977715428668
30
0
41
1
10
17.5336908864514
20
1.2497806418578
30
0
41
1
10
17.5336805915098
20
1.24978540165256
30
0
0
SPLINE
5
187
100
AcDbEntity
8
1
62
256
6
ByLayer
370
18
48
1
60
0
100
AcDbSpline
70
4
71
2
72
6
73
3
40
0
40
0
40
0
40
1
40
1
40
1
41
1
10
23.7563870302222
20
-0.25556658179562
30
0
41
1
10
23.7762243275087
20
-0.102483292519508
30
0
41
1
10
23.796049431501
20
0.0505054966376406
30
0
0
LINE
5
79
100
AcDbEntity
8
80
62
256
6
ByLayer
370
18
48
1
60
0
100
AcDbLine
10
0
20
0
30
0
11
-5
21
0
31
0
39
0
210
0
220
0
230
1
0
LINE
5
7A
100
AcDbEntity
8
4
62
256
6
ByLayer
370
18
48
0.05
60
0
100
AcDbLine
10
0
20
0
30
0
11
23.809501
21
0
31
0
39
0
210
0
220
0
230
1
0
LINE
5
7C
100
AcDbEntity
8
81
62
256
6
ByLayer
370
18
48
1
60
0
100
AcDbLine
10
23.809501
20
0
30
0
11
28.809501
21
0
31
0
39
0
210
0
220
0
230
1
0
LINE
5
7D
100
AcDbEntity
8
SK4
62
256
6
ByLayer
370
18
48
0.05
60
0
100
AcDbLine
10
-42.190499
20
0
30
0
11
23.809501
21
0
31
0
39
0
210
0
220
0
230
1
0
LINE
5
7F
100
AcDbEntity
8
1
62
256
6
ByLayer
370
18
48
1
60
0
100
AcDbLine
10
23.750809
20
-0.28426
30
0
11
23.751886
21
-0.281455
31
0
39
0
210
0
220
0
230
1
0
LINE
5
80
100
AcDbEntity
8
1
62
256
6
ByLayer
370
18
48
1
60
0
100
AcDbLine
10
23.770005
20
0.05274
30
0
11
23.795936
21
0.051082
31
0
39
0
210
0
220
0
230
1
0
LINE
5
81
100
AcDbEntity
8
1
62
256
6
ByLayer
370
18
48
1
60
0
100
AcDbLine
10
23.753988
20
-0.272629
30
0
11
23.750487
21
-0.272093
31
0
39
0
210
0
220
0
230
1
0
LINE
5
82
100
AcDbEntity
8
1
62
256
6
ByLayer
370
18
48
1
60
0
100
AcDbLine
10
23.747243
20
-0.149863
30
0
11
23.76817
21
0.051889
31
0
39
0
210
0
220
0
230
1
0
LINE
5
83
100
AcDbEntity
8
1
62
256
6
ByLayer
370
18
48
1
60
0
100
AcDbLine
10
23.744569
20
0.050874
30
0
11
23.750654
21
0.051381
31
0
39
0
210
0
220
0
230
1
0
LINE
5
84
100
AcDbEntity
8
1
62
256
6
ByLayer
370
18
48
1
60
0
100
AcDbLine
10
23.736661
20
-0.010631
30
0
11
23.743542
21
-0.01042
31
0
39
0
210
0
220
0
230
1
0
LINE
5
85
100
AcDbEntity
8
1
62
256
6
ByLayer
370
18
48
1
60
0
100
AcDbLine
10
23.743446
20
0.008664
30
0
11
23.744578
21
0.051211
31
0
39
0
210
0
220
0
230
1
0
LINE
5
86
100
AcDbEntity
8
1
62
256
6
ByLayer
370
18
48
1
60
0
100
AcDbLine
10
23.755511
20
0.461897
30
0
11
23.795936
21
1.98045
31
0
39
0
210
0
220
0
230
1
0
LINE
5
87
100
AcDbEntity
8
1
62
256
6
ByLayer
370
18
48
1
60
0
100
AcDbLine
10
23.730023
20
0.009131
30
0
11
23.743446
21
0.008664
31
0
39
0
210
0
220
0
230
1
0
LINE
5
88
100
AcDbEntity
8
1
62
256
6
ByLayer
370
18
48
1
60
0
100
AcDbLine
10
23.743542
20
-0.01042
30
0
11
23.795936
21
-1.984715
31
0
39
0
210
0
220
0
230
1
0
LINE
5
89
100
AcDbEntity
8
1
62
256
6
ByLayer
370
18
48
1
60
0
100
AcDbLine
10
23.737342
20
-0.029823
30
0
11
23.743542
21
-0.01042
31
0
39
0
210
0
220
0
230
1
0
LINE
5
8A
100
AcDbEntity
8
1
62
256
6
ByLayer
370
18
48
1
60
0
100
AcDbLine
10
23.736618
20
-0.029188
30
0
11
23.737342
21
-0.029823
31
0
39
0
210
0
220
0
230
1
0
LINE
5
8B
100
AcDbEntity
8
1
62
256
6
ByLayer
370
18
48
1
60
0
100
AcDbLine
10
23.736706
20
0.008898
30
0
11
23.736618
21
-0.029188
31
0
39
0
210
0
220
0
230
1
0
LINE
5
8C
100
AcDbEntity
8
1
62
256
6
ByLayer
370
18
48
1
60
0
100
AcDbLine
10
23.733395
20
-0.145684
30
0
11
23.730023
21
0.009131
31
0
39
0
210
0
220
0
230
1
0
LINE
5
8D
100
AcDbEntity
8
1
62
256
6
ByLayer
370
13
48
1
60
0
100
AcDbLine
10
23.559107
20
0.04582
30
0
11
23.733395
21
-0.145684
31
0
39
0
210
0
220
0
230
1
0
LINE
5
8E
100
AcDbEntity
8
1
62
256
6
ByLayer
370
13
48
1
60
0
100
AcDbLine
10
8.636688
20
2.389489
30
0
11
8.809501
21
2.281412
31
0
39
0
210
0
220
0
230
1
0
LINE
5
8F
100
AcDbEntity
8
1
62
256
6
ByLayer
370
13
48
1
60
0
100
AcDbLine
10
7.023584
20
2.23601
30
0
11
8.809501
21
1.119106
31
0
39
0
210
0
220
0
230
1
0
LINE
5
90
100
AcDbEntity
8
1
62
256
6
ByLayer
370
13
48
1
60
0
100
AcDbLine
10
7.329897
20
-2.236412
30
0
11
8.809501
21
-2.250278
31
0
39
0
210
0
220
0
230
1
0
LINE
5
91
100
AcDbEntity
8
1
62
256
6
ByLayer
370
18
48
1
60
0
100
AcDbLine
10
23.261413
20
-2.346025
30
0
11
23.252549
21
-2.208796
31
0
39
0
210
0
220
0
230
1
0
LINE
5
92
100
AcDbEntity
8
1
62
256
6
ByLayer
370
18
48
1
60
0
100
AcDbLine
10
7.282849
20
-2.183956
30
0
11
8.809501
21
-2.198263
31
0
39
0
210
0
220
0
230
1
0
LINE
5
93
100
AcDbEntity
8
1
62
256
6
ByLayer
370
18
48
1
60
0
100
AcDbLine
10
23.753988
20
-1.879044
30
0
11
23.718359
21
-0.522122
31
0
39
0
210
0
220
0
230
1
0
LINE
5
94
100
AcDbEntity
8
1
62
256
6
ByLayer
370
18
48
1
60
0
100
AcDbLine
10
8.809501
20
1.050341
30
0
11
8.809501
21
1.119106
31
0
39
0
210
0
220
0
230
1
0
LINE
5
95
100
AcDbEntity
8
1
62
256
6
ByLayer
370
18
48
1
60
0
100
AcDbLine
10
23.33761
20
-1.040749
30
0
11
23.708699
21
-0.521783
31
0
39
0
210
0
220
0
230
1
0
LINE
5
96
100
AcDbEntity
8
1
62
256
6
ByLayer
370
13
48
1
60
0
100
AcDbLine
10
23.657999
20
-0.466958
30
0
11
22.459397
21
-0.240962
31
0
39
0
210
0
220
0
230
1
0
LINE
5
97
100
AcDbEntity
8
1
62
256
6
ByLayer
370
18
48
1
60
0
100
AcDbLine
10
8.809501
20
-2.198263
30
0
11
8.809501
21
-2.047809
31
0
39
0
210
0
220
0
230
1
0
LINE
5
98
100
AcDbEntity
8
1
62
256
6
ByLayer
370
13
48
1
60
0
100
AcDbLine
10
6.999471
20
2.182325
30
0
11
8.809501
21
1.050341
31
0
39
0
210
0
220
0
230
1
0
LINE
5
99
100
AcDbEntity
8
1
62
256
6
ByLayer
370
18
48
1
60
0
100
AcDbLine
10
8.809501
20
0.384425
30
0
11
8.809501
21
1.050341
31
0
39
0
210
0
220
0
230
1
0
LINE
5
9A
100
AcDbEntity
8
1
62
256
6
ByLayer
370
18
48
1
60
0
100
AcDbLine
10
8.809501
20
-2.250278
30
0
11
8.809501
21
-2.198263
31
0
39
0
210
0
220
0
230
1
0
LINE
5
9B
100
AcDbEntity
8
1
62
256
6
ByLayer
370
18
48
1
60
0
100
AcDbLine
10
7.523746
20
-2.03576
30
0
11
8.809501
21
-2.047809
31
0
39
0
210
0
220
0
230
1
0
LINE
5
9C
100
AcDbEntity
8
1
62
256
6
ByLayer
370
18
48
1
60
0
100
AcDbLine
10
8.809501
20
-2.047809
30
0
11
8.809501
21
-1.093776
31
0
39
0
210
0
220
0
230
1
0
LINE
5
9D
100
AcDbEntity
8
1
62
256
6
ByLayer
370
13
48
1
60
0
100
AcDbLine
10
6.817934
20
-1.075113
30
0
11
8.809501
21
-1.093776
31
0
39
0
210
0
220
0
230
1
0
LINE
5
9E
100
AcDbEntity
8
1
62
256
6
ByLayer
370
18
48
1
60
0
100
AcDbLine
10
8.809501
20
-1.093776
30
0
11
8.809501
21
-1.045536
31
0
39
0
210
0
220
0
230
1
0
LINE
5
9F
100
AcDbEntity
8
1
62
256
6
ByLayer
370
18
48
1
60
0
100
AcDbLine
10
8.809501
20
-0.154543
30
0
11
8.809501
21
0.384425
31
0
39
0
210
0
220
0
230
1
0
LINE
5
A0
100
AcDbEntity
8
1
62
256
6
ByLayer
370
18
48
1
60
0
100
AcDbLine
10
7.465032
20
1.22525
30
0
11
8.809501
21
0.384425
31
0
39
0
210
0
220
0
230
1
0
LINE
5
A1
100
AcDbEntity
8
1
62
256
6
ByLayer
370
18
48
1
60
0
100
AcDbLine
10
8.809501
20
-0.252609
30
0
11
8.809501
21
-0.154543
31
0
39
0
210
0
220
0
230
1
0
LINE
5
A2
100
AcDbEntity
8
1
62
256
6
ByLayer
370
13
48
1
60
0
100
AcDbLine
10
7.255236
20
0.817487
30
0
11
8.809501
21
-0.154543
31
0
39
0
210
0
220
0
230
1
0
LINE
5
A3
100
AcDbEntity
8
1
62
256
6
ByLayer
370
18
48
1
60
0
100
AcDbLine
10
8.809501
20
1.119106
30
0
11
8.809501
21
2.281412
31
0
39
0
210
0
220
0
230
1
0
LINE
5
A4
100
AcDbEntity
8
1
62
256
6
ByLayer
370
18
48
1
60
0
100
AcDbLine
10
23.261775
20
0.718247
30
0
11
23.252713
21
1.02351
31
0
39
0
210
0
220
0
230
1
0
LINE
5
A5
100
AcDbEntity
8
1
62
256
6
ByLayer
370
13
48
1
60
0
100
AcDbLine
10
6.834001
20
-1.004871
30
0
11
8.76462
21
-1.022963
31
0
39
0
210
0
220
0
230
1
0
LINE
5
A6
100
AcDbEntity
8
1
62
256
6
ByLayer
370
13
48
1
60
0
100
AcDbLine
10
8.373611
20
2.4
30
0
11
8.373611
21
2.362194
31
0
39
0
210
0
220
0
230
1
0
LINE
5
A7
100
AcDbEntity
8
1
62
256
6
ByLayer
370
13
48
1
60
0
100
AcDbLine
10
7.303307
20
0.689358
30
0
11
8.809501
21
-0.252609
31
0
39
0
210
0
220
0
230
1
0
LINE
5
A8
100
AcDbEntity
8
1
62
256
6
ByLayer
370
13
48
1
60
0
100
AcDbLine
10
8.373611
20
-0.853609
30
0
11
8.373611
21
-0.100533
31
0
39
0
210
0
220
0
230
1
0
LINE
5
A9
100
AcDbEntity
8
1
62
256
6
ByLayer
370
18
48
1
60
0
100
AcDbLine
10
23.769805
20
0.05194
30
0
11
23.795936
21
0.15679
31
0
39
0
210
0
220
0
230
1
0
LINE
5
AA
100
AcDbEntity
8
1
62
256
6
ByLayer
370
13
48
1
60
0
100
AcDbLine
10
22.739021
20
0.192766
30
0
11
23.52392
21
0.044774
31
0
39
0
210
0
220
0
230
1
0
LINE
5
AB
100
AcDbEntity
8
1
62
256
6
ByLayer
370
18
48
1
60
0
100
AcDbLine
10
23.769805
20
0.05194
30
0
11
23.52392
21
0.044774
31
0
39
0
210
0
220
0
230
1
0
LINE
5
AC
100
AcDbEntity
8
1
62
256
6
ByLayer
370
18
48
1
60
0
100
AcDbLine
10
8.809501
20
-2.250278
30
0
11
8.809501
21
-2.414929
31
0
39
0
210
0
220
0
230
1
0
LINE
5
AD
100
AcDbEntity
8
1
62
256
6
ByLayer
370
18
48
1
60
0
100
AcDbLine
10
8.809501
20
2.443425
30
0
11
8.809501
21
2.281412
31
0
39
0
210
0
220
0
230
1
0
LINE
5
AE
100
AcDbEntity
8
1
62
256
6
ByLayer
370
18
48
1
60
0
100
AcDbLine
10
8.809501
20
-0.252609
30
0
11
8.809501
21
-0.383185
31
0
39
0
210
0
220
0
230
1
0
LINE
5
AF
100
AcDbEntity
8
1
62
256
6
ByLayer
370
18
48
1
60
0
100
AcDbLine
10
8.809501
20
2.443425
30
0
11
8.809501
21
2.443468
31
0
39
0
210
0
220
0
230
1
0
LINE
5
B0
100
AcDbEntity
8
1
62
256
6
ByLayer
370
13
48
1
60
0
100
AcDbLine
10
8.373611
20
-2.398086
30
0
11
8.373611
21
-2.4
31
0
39
0
210
0
220
0
230
1
0
LINE
5
B1
100
AcDbEntity
8
1
62
256
6
ByLayer
370
13
48
1
60
0
100
AcDbLine
10
1.30718
20
-2.4
30
0
11
1.30718
21
0
31
0
39
0
210
0
220
0
230
1
0
LINE
5
B2
100
AcDbEntity
8
1
62
256
6
ByLayer
370
13
48
1
60
0
100
AcDbLine
10
1.30718
20
0
30
0
11
1.30718
21
2.4
31
0
39
0
210
0
220
0
230
1
0
LINE
5
B3
100
AcDbEntity
8
1
62
256
6
ByLayer
370
13
48
1
60
0
100
AcDbLine
10
0.80718
20
2.533975
30
0
11
0.80718
21
0
31
0
39
0
210
0
220
0
230
1
0
LINE
5
B4
100
AcDbEntity
8
1
62
256
6
ByLayer
370
13
48
1
60
0
100
AcDbLine
10
0.80718
20
0
30
0
11
0.80718
21
-2.533975
31
0
39
0
210
0
220
0
230
1
0
LINE
5
B5
100
AcDbEntity
8
1
62
256
6
ByLayer
370
18
48
1
60
0
100
AcDbLine
10
0
20
3
30
0
11
0
21
0
31
0
39
0
210
0
220
0
230
1
0
LINE
5
B6
100
AcDbEntity
8
1
62
256
6
ByLayer
370
18
48
1
60
0
100
AcDbLine
10
0
20
0
30
0
11
0
21
-3
31
0
39
0
210
0
220
0
230
1
0
LINE
5
B7
100
AcDbEntity
8
SK1
62
256
6
ByLayer
370
18
48
1
60
0
100
AcDbLine
10
-42.190499
20
-2.6
30
0
11
-42.190499
21
2.6
31
0
39
0
210
0
220
0
230
1
0
LINE
5
B9
100
AcDbEntity
8
SK1
62
256
6
ByLayer
370
18
48
1
60
0
100
AcDbLine
10
-41.790499
20
3
30
0
11
-41.790499
21
-3
31
0
39
0
210
0
220
0
230
1
0
LINE
5
BA
100
AcDbEntity
8
SK1
62
256
6
ByLayer
370
18
48
1
60
0
100
AcDbLine
10
0
20
3
30
0
11
0
21
0
31
0
39
0
210
0
220
0
230
1
0
LINE
5
BB
100
AcDbEntity
8
SK1
62
256
6
ByLayer
370
18
48
1
60
0
100
AcDbLine
10
0
20
0
30
0
11
0
21
-3
31
0
39
0
210
0
220
0
230
1
0
LINE
5
BC
100
AcDbEntity
8
1
62
256
6
ByLayer
370
18
48
1
60
0
100
AcDbLine
10
19.303338
20
2.422308
30
0
11
19.302932
21
2.422369
31
0
39
0
210
0
220
0
230
1
0
LINE
5
BD
100
AcDbEntity
8
1
62
256
6
ByLayer
370
18
48
1
60
0
100
AcDbLine
10
8.373611
20
2.4
30
0
11
1.30718
21
2.4
31
0
39
0
210
0
220
0
230
1
0
LINE
5
BE
100
AcDbEntity
8
1
62
256
6
ByLayer
370
18
48
1
60
0
100
AcDbLine
10
1.30718
20
-2.4
30
0
11
8.373611
21
-2.4
31
0
39
0
210
0
220
0
230
1
0
LINE
5
BF
100
AcDbEntity
8
1
62
256
6
ByLayer
370
18
48
1
60
0
100
AcDbLine
10
0.80718
20
2.533975
30
0
11
0
21
3
31
0
39
0
210
0
220
0
230
1
0
LINE
5
C0
100
AcDbEntity
8
1
62
256
6
ByLayer
370
18
48
1
60
0
100
AcDbLine
10
0
20
-3
30
0
11
0.80718
21
-2.533975
31
0
39
0
210
0
220
0
230
1
0
LINE
5
C1
100
AcDbEntity
8
SK1
62
256
6
ByLayer
370
18
48
1
60
0
100
AcDbLine
10
-42.190499
20
-2.6
30
0
11
-41.790499
21
-3
31
0
39
0
210
0
220
0
230
1
0
LINE
5
C2
100
AcDbEntity
8
SK1
62
256
6
ByLayer
370
18
48
1
60
0
100
AcDbLine
10
-41.790499
20
3
30
0
11
-42.190499
21
2.6
31
0
39
0
210
0
220
0
230
1
0
LINE
5
C3
100
AcDbEntity
8
SK1
62
256
6
ByLayer
370
18
48
1
60
0
100
AcDbLine
10
0
20
3
30
0
11
-41.790499
21
3
31
0
39
0
210
0
220
0
230
1
0
LINE
5
C4
100
AcDbEntity
8
SK1
62
256
6
ByLayer
370
18
48
1
60
0
100
AcDbLine
10
-41.790499
20
-3
30
0
11
0
21
-3
31
0
39
0
210
0
220
0
230
1
0
LINE
5
C5
100
AcDbEntity
8
SK2
62
256
6
ByLayer
370
18
48
1
60
0
100
AcDbLine
10
-50.040499
20
11.75
30
0
11
-50.040499
21
-19.315466
31
0
39
0
210
0
220
0
230
1
0
LINE
5
C7
100
AcDbEntity
8
SK2
62
256
6
ByLayer
370
18
48
1
60
0
100
AcDbLine
10
-43.377999
20
3
30
0
11
-52.040499
21
3
31
0
39
0
210
0
220
0
230
1
0
LINE
5
C8
100
AcDbEntity
8
SK2
62
256
6
ByLayer
370
18
48
1
60
0
100
AcDbLine
10
-43.377999
20
-3
30
0
11
-52.040499
21
-3
31
0
39
0
210
0
220
0
230
1
0
LINE
5
C9
100
AcDbEntity
8
1
62
256
6
ByLayer
370
18
48
1
60
1
100
AcDbLine
10
-50.040499
20
3
30
0
11
-50.501283
21
6.499998
31
0
39
0
210
0
220
0
230
1
0
LINE
5
CA
100
AcDbEntity
8
1
62
256
6
ByLayer
370
18
48
1
60
1
100
AcDbLine
10
-50.501283
20
6.499998
30
0
11
-49.579716
21
6.500002
31
0
39
0
210
0
220
0
230
1
0
LINE
5
CB
100
AcDbEntity
8
1
62
256
6
ByLayer
370
18
48
1
60
1
100
AcDbLine
10
-49.579716
20
6.500002
30
0
11
-50.040499
21
3
31
0
39
0
210
0
220
0
230
1
0
LINE
5
CC
100
AcDbEntity
8
1
62
256
6
ByLayer
370
18
48
1
60
1
100
AcDbLine
10
-50.040499
20
-3
30
0
11
-49.579716
21
-6.499998
31
0
39
0
210
0
220
0
230
1
0
LINE
5
CD
100
AcDbEntity
8
1
62
256
6
ByLayer
370
18
48
1
60
1
100
AcDbLine
10
-49.579716
20
-6.499998
30
0
11
-50.501283
21
-6.500002
31
0
39
0
210
0
220
0
230
1
0
LINE
5
CE
100
AcDbEntity
8
1
62
256
6
ByLayer
370
18
48
1
60
1
100
AcDbLine
10
-50.501283
20
-6.500002
30
0
11
-50.040499
21
-3
31
0
39
0
210
0
220
0
230
1
0
LINE
5
CF
100
AcDbEntity
8
SK2
62
256
6
ByLayer
370
13
48
1
60
0
100
AcDbLine
10
6.290395
20
27.117465
30
0
11
6.290395
21
-11.15
31
0
39
0
210
0
220
0
230
1
0
LINE
5
D0
100
AcDbEntity
8
SK2
62
256
6
ByLayer
370
13
48
1
60
0
100
AcDbLine
10
6.786111
20
2.4
30
0
11
4.290395
21
2.4
31
0
39
0
210
0
220
0
230
1
0
LINE
5
D1
100
AcDbEntity
8
SK2
62
256
6
ByLayer
370
13
48
1
60
0
100
AcDbLine
10
6.786111
20
-2.4
30
0
11
4.290395
21
-2.4
31
0
39
0
210
0
220
0
230
1
0
LINE
5
D2
100
AcDbEntity
8
1
62
256
6
ByLayer
370
18
48
1
60
1
100
AcDbLine
10
6.290395
20
2.4
30
0
11
5.829612
21
5.899998
31
0
39
0
210
0
220
0
230
1
0
LINE
5
D3
100
AcDbEntity
8
1
62
256
6
ByLayer
370
18
48
1
60
1
100
AcDbLine
10
5.829612
20
5.899998
30
0
11
6.751179
21
5.900002
31
0
39
0
210
0
220
0
230
1
0
LINE
5
D4
100
AcDbEntity
8
1
62
256
6
ByLayer
370
18
48
1
60
1
100
AcDbLine
10
6.751179
20
5.900002
30
0
11
6.290395
21
2.4
31
0
39
0
210
0
220
0
230
1
0
LINE
5
D5
100
AcDbEntity
8
1
62
256
6
ByLayer
370
18
48
1
60
1
100
AcDbLine
10
6.290395
20
-2.4
30
0
11
6.751179
21
-5.899998
31
0
39
0
210
0
220
0
230
1
0
LINE
5
D6
100
AcDbEntity
8
1
62
256
6
ByLayer
370
18
48
1
60
1
100
AcDbLine
10
6.751179
20
-5.899998
30
0
11
5.829612
21
-5.900002
31
0
39
0
210
0
220
0
230
1
0
LINE
5
D7
100
AcDbEntity
8
1
62
256
6
ByLayer
370
18
48
1
60
1
100
AcDbLine
10
5.829612
20
-5.900002
30
0
11
6.290395
21
-2.4
31
0
39
0
210
0
220
0
230
1
0
LINE
5
D8
100
AcDbEntity
8
2
62
256
6
ByLayer
370
18
48
1
60
0
100
AcDbLine
10
35.809501
20
18.815466
30
0
11
35.809501
21
-11.25
31
0
39
0
210
0
220
0
230
1
0
LINE
5
DA
100
AcDbEntity
8
2
62
256
6
ByLayer
370
18
48
1
60
0
100
AcDbLine
10
25.397001
20
2.5
30
0
11
37.809501
21
2.5
31
0
39
0
210
0
220
0
230
1
0
LINE
5
DB
100
AcDbEntity
8
2
62
256
6
ByLayer
370
18
48
1
60
0
100
AcDbLine
10
25.397001
20
-2.5
30
0
11
37.809501
21
-2.5
31
0
39
0
210
0
220
0
230
1
0
LINE
5
DC
100
AcDbEntity
8
1
62
256
6
ByLayer
370
18
48
1
60
1
100
AcDbLine
10
35.809501
20
2.5
30
0
11
35.348717
21
5.999998
31
0
39
0
210
0
220
0
230
1
0
LINE
5
DD
100
AcDbEntity
8
1
62
256
6
ByLayer
370
18
48
1
60
1
100
AcDbLine
10
35.348717
20
5.999998
30
0
11
36.270284
21
6.000002
31
0
39
0
210
0
220
0
230
1
0
LINE
5
DE
100
AcDbEntity
8
1
62
256
6
ByLayer
370
18
48
1
60
1
100
AcDbLine
10
36.270284
20
6.000002
30
0
11
35.809501
21
2.5
31
0
39
0
210
0
220
0
230
1
0
LINE
5
DF
100
AcDbEntity
8
1
62
256
6
ByLayer
370
18
48
1
60
1
100
AcDbLine
10
35.809501
20
-2.5
30
0
11
36.270284
21
-5.999998
31
0
39
0
210
0
220
0
230
1
0
LINE
5
E0
100
AcDbEntity
8
1
62
256
6
ByLayer
370
18
48
1
60
1
100
AcDbLine
10
36.270284
20
-5.999998
30
0
11
35.348717
21
-6.000002
31
0
39
0
210
0
220
0
230
1
0
LINE
5
E1
100
AcDbEntity
8
1
62
256
6
ByLayer
370
18
48
1
60
1
100
AcDbLine
10
35.348717
20
-6.000002
30
0
11
35.809501
21
-2.5
31
0
39
0
210
0
220
0
230
1
0
LINE
5
E2
100
AcDbEntity
8
2
62
256
6
ByLayer
370
18
48
1
60
0
100
AcDbLine
10
23.809501
20
-49.1
30
0
11
-42.190499
21
-49.1
31
0
39
0
210
0
220
0
230
1
0
LINE
5
E3
100
AcDbEntity
8
2
62
256
6
ByLayer
370
18
48
1
60
0
100
AcDbLine
10
-42.190499
20
-4.1875
30
0
11
-42.190499
21
-51.1
31
0
39
0
210
0
220
0
230
1
0
LINE
5
E4
100
AcDbEntity
8
2
62
256
6
ByLayer
370
18
48
1
60
0
100
AcDbLine
10
23.809501
20
-4.0875
30
0
11
23.809501
21
-51.1
31
0
39
0
210
0
220
0
230
1
0
LINE
5
E5
100
AcDbEntity
8
1
62
256
6
ByLayer
370
18
48
1
60
1
100
AcDbLine
10
-42.190499
20
-49.1
30
0
11
-38.690501
21
-48.639216
31
0
39
0
210
0
220
0
230
1
0
LINE
5
E6
100
AcDbEntity
8
1
62
256
6
ByLayer
370
18
48
1
60
1
100
AcDbLine
10
-38.690501
20
-48.639216
30
0
11
-38.690498
21
-49.560784
31
0
39
0
210
0
220
0
230
1
0
LINE
5
E7
100
AcDbEntity
8
1
62
256
6
ByLayer
370
18
48
1
60
1
100
AcDbLine
10
-38.690498
20
-49.560784
30
0
11
-42.190499
21
-49.1
31
0
39
0
210
0
220
0
230
1
0
LINE
5
E8
100
AcDbEntity
8
1
62
256
6
ByLayer
370
18
48
1
60
1
100
AcDbLine
10
23.809501
20
-49.1
30
0
11
20.309502
21
-49.560784
31
0
39
0
210
0
220
0
230
1
0
LINE
5
E9
100
AcDbEntity
8
1
62
256
6
ByLayer
370
18
48
1
60
1
100
AcDbLine
10
20.309502
20
-49.560784
30
0
11
20.309499
21
-48.639216
31
0
39
0
210
0
220
0
230
1
0
LINE
5
EA
100
AcDbEntity
8
1
62
256
6
ByLayer
370
18
48
1
60
1
100
AcDbLine
10
20.309499
20
-48.639216
30
0
11
23.809501
21
-49.1
31
0
39
0
210
0
220
0
230
1
0
LINE
5
18C
100
AcDbEntity
8
1
62
256
6
ByLayer
370
18
48
1
60
1
100
AcDbLine
10
-50.040499
20
3
30
0
11
-50.501283
21
6.499998
31
0
39
0
210
0
220
0
230
1
0
LINE
5
18D
100
AcDbEntity
8
1
62
256
6
ByLayer
370
18
48
1
60
1
100
AcDbLine
10
-50.501283
20
6.499998
30
0
11
-49.579716
21
6.500002
31
0
39
0
210
0
220
0
230
1
0
LINE
5
18E
100
AcDbEntity
8
1
62
256
6
ByLayer
370
18
48
1
60
1
100
AcDbLine
10
-49.579716
20
6.500002
30
0
11
-50.040499
21
3
31
0
39
0
210
0
220
0
230
1
0
LINE
5
190
100
AcDbEntity
8
1
62
256
6
ByLayer
370
18
48
1
60
1
100
AcDbLine
10
-50.040499
20
-3
30
0
11
-49.579716
21
-6.499998
31
0
39
0
210
0
220
0
230
1
0
LINE
5
191
100
AcDbEntity
8
1
62
256
6
ByLayer
370
18
48
1
60
1
100
AcDbLine
10
-49.579716
20
-6.499998
30
0
11
-50.501283
21
-6.500002
31
0
39
0
210
0
220
0
230
1
0
LINE
5
192
100
AcDbEntity
8
1
62
256
6
ByLayer
370
18
48
1
60
1
100
AcDbLine
10
-50.501283
20
-6.500002
30
0
11
-50.040499
21
-3
31
0
39
0
210
0
220
0
230
1
0
LINE
5
196
100
AcDbEntity
8
1
62
256
6
ByLayer
370
18
48
1
60
1
100
AcDbLine
10
6.290395
20
2.4
30
0
11
5.829612
21
5.899998
31
0
39
0
210
0
220
0
230
1
0
LINE
5
197
100
AcDbEntity
8
1
62
256
6
ByLayer
370
18
48
1
60
1
100
AcDbLine
10
5.829612
20
5.899998
30
0
11
6.751179
21
5.900002
31
0
39
0
210
0
220
0
230
1
0
LINE
5
198
100
AcDbEntity
8
1
62
256
6
ByLayer
370
18
48
1
60
1
100
AcDbLine
10
6.751179
20
5.900002
30
0
11
6.290395
21
2.4
31
0
39
0
210
0
220
0
230
1
0
LINE
5
19A
100
AcDbEntity
8
1
62
256
6
ByLayer
370
18
48
1
60
1
100
AcDbLine
10
6.290395
20
-2.4
30
0
11
6.751179
21
-5.899998
31
0
39
0
210
0
220
0
230
1
0
LINE
5
19B
100
AcDbEntity
8
1
62
256
6
ByLayer
370
18
48
1
60
1
100
AcDbLine
10
6.751179
20
-5.899998
30
0
11
5.829612
21
-5.900002
31
0
39
0
210
0
220
0
230
1
0
LINE
5
19C
100
AcDbEntity
8
1
62
256
6
ByLayer
370
18
48
1
60
1
100
AcDbLine
10
5.829612
20
-5.900002
30
0
11
6.290395
21
-2.4
31
0
39
0
210
0
220
0
230
1
0
LINE
5
1A0
100
AcDbEntity
8
1
62
256
6
ByLayer
370
18
48
1
60
1
100
AcDbLine
10
35.809501
20
2.5
30
0
11
35.348717
21
5.999998
31
0
39
0
210
0
220
0
230
1
0
LINE
5
1A1
100
AcDbEntity
8
1
62
256
6
ByLayer
370
18
48
1
60
1
100
AcDbLine
10
35.348717
20
5.999998
30
0
11
36.270284
21
6.000002
31
0
39
0
210
0
220
0
230
1
0
LINE
5
1A2
100
AcDbEntity
8
1
62
256
6
ByLayer
370
18
48
1
60
1
100
AcDbLine
10
36.270284
20
6.000002
30
0
11
35.809501
21
2.5
31
0
39
0
210
0
220
0
230
1
0
LINE
5
1A4
100
AcDbEntity
8
1
62
256
6
ByLayer
370
18
48
1
60
1
100
AcDbLine
10
35.809501
20
-2.5
30
0
11
36.270284
21
-5.999998
31
0
39
0
210
0
220
0
230
1
0
LINE
5
1A5
100
AcDbEntity
8
1
62
256
6
ByLayer
370
18
48
1
60
1
100
AcDbLine
10
36.270284
20
-5.999998
30
0
11
35.348717
21
-6.000002
31
0
39
0
210
0
220
0
230
1
0
LINE
5
1A6
100
AcDbEntity
8
1
62
256
6
ByLayer
370
18
48
1
60
1
100
AcDbLine
10
35.348717
20
-6.000002
30
0
11
35.809501
21
-2.5
31
0
39
0
210
0
220
0
230
1
0
LINE
5
1A9
100
AcDbEntity
8
1
62
256
6
ByLayer
370
18
48
1
60
1
100
AcDbLine
10
-42.190499
20
-49.1
30
0
11
-38.690501
21
-48.639216
31
0
39
0
210
0
220
0
230
1
0
LINE
5
1AA
100
AcDbEntity
8
1
62
256
6
ByLayer
370
18
48
1
60
1
100
AcDbLine
10
-38.690501
20
-48.639216
30
0
11
-38.690498
21
-49.560784
31
0
39
0
210
0
220
0
230
1
0
LINE
5
1AB
100
AcDbEntity
8
1
62
256
6
ByLayer
370
18
48
1
60
1
100
AcDbLine
10
-38.690498
20
-49.560784
30
0
11
-42.190499
21
-49.1
31
0
39
0
210
0
220
0
230
1
0
LINE
5
1AD
100
AcDbEntity
8
1
62
256
6
ByLayer
370
18
48
1
60
1
100
AcDbLine
10
23.809501
20
-49.1
30
0
11
20.309502
21
-49.560784
31
0
39
0
210
0
220
0
230
1
0
LINE
5
1AE
100
AcDbEntity
8
1
62
256
6
ByLayer
370
18
48
1
60
1
100
AcDbLine
10
20.309502
20
-49.560784
30
0
11
20.309499
21
-48.639216
31
0
39
0
210
0
220
0
230
1
0
LINE
5
1AF
100
AcDbEntity
8
1
62
256
6
ByLayer
370
18
48
1
60
1
100
AcDbLine
10
20.309499
20
-48.639216
30
0
11
23.809501
21
-49.1
31
0
39
0
210
0
220
0
230
1
0
MTEXT
5
188
100
AcDbEntity
8
SK2
62
256
6
ByLayer
370
18
48
1
60
0
100
AcDbMText
10
-51.605133
20
-17.380622
30
0
210
0
220
0
230
1
1
%%c
40
3.5
41
0
44
1.084337
50
90
71
7
72
5
7
iso_b_vert
0
MTEXT
5
18B
100
AcDbEntity
8
SK2
62
256
6
ByLayer
370
18
48
1
60
0
100
AcDbMText
10
-51.605133
20
-10.407966
30
0
210
0
220
0
230
1
1
\W0.5404;6
40
3.5
41
0
44
1.084337
50
90
71
7
72
5
7
iso_b_vert
0
MTEXT
5
194
100
AcDbEntity
8
SK2
62
256
6
ByLayer
370
18
48
1
60
0
100
AcDbMText
10
4.725762
20
14.334844
30
0
210
0
220
0
230
1
1
%%c
40
3.5
41
0
44
1.084337
50
90
71
7
72
5
7
iso_b_vert
0
MTEXT
5
195
100
AcDbEntity
8
SK2
62
256
6
ByLayer
370
18
48
1
60
0
100
AcDbMText
10
4.725762
20
21.3075
30
0
210
0
220
0
230
1
1
\W0.7610;4.8
40
3.5
41
0
44
1.084337
50
90
71
7
72
5
7
iso_b_vert
0
MTEXT
5
19E
100
AcDbEntity
8
2
62
256
6
ByLayer
370
18
48
1
60
0
100
AcDbMText
10
34.244867
20
10.434844
30
0
210
0
220
0
230
1
1
%%c
40
3.5
41
0
44
1.084337
50
90
71
7
72
5
7
iso_b_vert
0
MTEXT
5
19F
100
AcDbEntity
8
2
62
256
6
ByLayer
370
18
48
1
60
0
100
AcDbMText
10
34.244867
20
17.4075
30
0
210
0
220
0
230
1
1
\W0.5404;5
40
3.5
41
0
44
1.084337
50
90
71
7
72
5
7
iso_b_vert
0
MTEXT
5
1A8
100
AcDbEntity
8
2
62
256
6
ByLayer
370
18
48
1
60
0
100
AcDbMText
10
-11.095465
20
-48.067366
30
0
210
0
220
0
230
1
1
\W0.6740;66
40
3.5
41
0
44
1.084337
50
0
71
7
72
5
7
iso_b_vert
0
MTEXT
5
1B1
100
AcDbEntity
8
SK6
62
256
6
ByLayer
370
18
48
1
60
0
100
AcDbMText
10
-32.925994
20
-62.114886
30
0
210
0
220
0
230
1
1
\W0.7300;1K354-0500-050-XC 1730
40
3
41
0
44
1.084337
50
0
71
7
72
5
7
iso_b_vert
0
HATCH
5
18F
100
AcDbEntity
8
SK2
62
256
6
ByLayer
370
13
48
1
60
0
100
AcDbHatch
10
0
20
0
30
0
210
0
220
0
230
1
2
ANSI31
70
0
71
0
91
1
92
5
93
3
72
1
10
-50.0404992451884
20
3.00000000000003
11
-50.5012829867412
21
6.49999830744684
72
1
10
-50.5012829867412
20
6.49999830744684
11
-49.5797155036357
21
6.50000169255321
72
1
10
-49.5797155036357
20
6.50000169255321
11
-50.0404992451884
21
3.00000000000003
97
0
75
0
76
1
52
0
41
0.0062
77
0
78
1
53
45
43
0
44
0
45
-0.0139193969876572
46
0.0139193969876572
79
0
47
0
98
1
10
0
20
0
0
HATCH
5
193
100
AcDbEntity
8
SK2
62
256
6
ByLayer
370
13
48
1
60
0
100
AcDbHatch
10
0
20
0
30
0
210
0
220
0
230
1
2
ANSI31
70
0
71
0
91
1
92
5
93
3
72
1
10
-50.0404992451884
20
-2.99999999999997
11
-49.5797155036357
21
-6.49999830744679
72
1
10
-49.5797155036357
20
-6.49999830744679
11
-50.5012829867412
21
-6.50000169255316
72
1
10
-50.5012829867412
20
-6.50000169255316
11
-50.0404992451884
21
-2.99999999999997
97
0
75
0
76
1
52
0
41
0.0062
77
0
78
1
53
45
43
0
44
0
45
-0.0139193969876572
46
0.0139193969876572
79
0
47
0
98
1
10
0
20
0
0
HATCH
5
199
100
AcDbEntity
8
SK2
62
256
6
ByLayer
370
13
48
1
60
0
100
AcDbHatch
10
0
20
0
30
0
210
0
220
0
230
1
2
ANSI31
70
0
71
0
91
1
92
5
93
3
72
1
10
6.29039526871497
20
2.39999999999998
11
5.8296115271622
21
5.89999830744679
72
1
10
5.8296115271622
20
5.89999830744679
11
6.75117901026775
21
5.90000169255316
72
1
10
6.75117901026775
20
5.90000169255316
11
6.29039526871497
21
2.39999999999998
97
0
75
0
76
1
52
0
41
0.0062
77
0
78
1
53
45
43
0
44
0
45
-0.0139193969876572
46
0.0139193969876572
79
0
47
0
98
1
10
0
20
0
0
HATCH
5
19D
100
AcDbEntity
8
SK2
62
256
6
ByLayer
370
13
48
1
60
0
100
AcDbHatch
10
0
20
0
30
0
210
0
220
0
230
1
2
ANSI31
70
0
71
0
91
1
92
5
93
3
72
1
10
6.29039526871497
20
-2.40000000000001
11
6.75117901026775
21
-5.89999830744682
72
1
10
6.75117901026775
20
-5.89999830744682
11
5.8296115271622
21
-5.90000169255319
72
1
10
5.8296115271622
20
-5.90000169255319
11
6.29039526871497
21
-2.40000000000001
97
0
75
0
76
1
52
0
41
0.0062
77
0
78
1
53
45
43
0
44
0
45
-0.0139193969876572
46
0.0139193969876572
79
0
47
0
98
1
10
0
20
0
0
HATCH
5
1A3
100
AcDbEntity
8
2
62
256
6
ByLayer
370
13
48
1
60
0
100
AcDbHatch
10
0
20
0
30
0
210
0
220
0
230
1
2
ANSI31
70
0
71
0
91
1
92
5
93
3
72
1
10
35.8095007548116
20
2.49999999999994
11
35.3487170132588
21
5.99999830744676
72
1
10
35.3487170132588
20
5.99999830744676
11
36.2702844963643
21
6.00000169255313
72
1
10
36.2702844963643
20
6.00000169255313
11
35.8095007548116
21
2.49999999999994
97
0
75
0
76
1
52
0
41
0.0062
77
0
78
1
53
45
43
0
44
0
45
-0.0139193969876572
46
0.0139193969876572
79
0
47
0
98
1
10
0
20
0
0
HATCH
5
1A7
100
AcDbEntity
8
2
62
256
6
ByLayer
370
13
48
1
60
0
100
AcDbHatch
10
0
20
0
30
0
210
0
220
0
230
1
2
ANSI31
70
0
71
0
91
1
92
5
93
3
72
1
10
35.8095007548116
20
-2.50000000000006
11
36.2702844963643
21
-5.99999830744687
72
1
10
36.2702844963643
20
-5.99999830744687
11
35.3487170132588
21
-6.00000169255324
72
1
10
35.3487170132588
20
-6.00000169255324
11
35.8095007548116
21
-2.50000000000006
97
0
75
0
76
1
52
0
41
0.0062
77
0
78
1
53
45
43
0
44
0
45
-0.0139193969876572
46
0.0139193969876572
79
0
47
0
98
1
10
0
20
0
0
HATCH
5
1AC
100
AcDbEntity
8
2
62
256
6
ByLayer
370
13
48
1
60
0
100
AcDbHatch
10
0
20
0
30
0
210
0
220
0
230
1
2
ANSI31
70
0
71
0
91
1
92
5
93
3
72
1
10
-42.1904992451884
20
-49.1000000000001
11
-38.6905009377416
21
-48.6392162584473
72
1
10
-38.6905009377416
20
-48.6392162584473
11
-38.6904975526352
21
-49.5607837415528
72
1
10
-38.6904975526352
20
-49.5607837415528
11
-42.1904992451884
21
-49.1000000000001
97
0
75
0
76
1
52
0
41
0.0062
77
0
78
1
53
45
43
0
44
0
45
-0.0139193969876572
46
0.0139193969876572
79
0
47
0
98
1
10
0
20
0
0
HATCH
5
1B0
100
AcDbEntity
8
2
62
256
6
ByLayer
370
13
48
1
60
0
100
AcDbHatch
10
0
20
0
30
0
210
0
220
0
230
1
2
ANSI31
70
0
71
0
91
1
92
5
93
3
72
1
10
23.8095007548116
20
-49.1000000000001
11
20.3095024473648
21
-49.5607837415528
72
1
10
20.3095024473648
20
-49.5607837415528
11
20.3094990622584
21
-48.6392162584473
72
1
10
20.3094990622584
20
-48.6392162584473
11
23.8095007548116
21
-49.1000000000001
97
0
75
0
76
1
52
0
41
0.0062
77
0
78
1
53
45
43
0
44
0
45
-0.0139193969876572
46
0.0139193969876572
79
0
47
0
98
1
10
0
20
0
0
DIMENSION
5
1B4
100
AcDbEntity
8
SK2
62
256
6
ByLayer
370
18
48
1
60
0
100
AcDbDimension
2
_U0
10
8.809501
20
-17.1
30
0
11
16.309501
21
-17.1
31
0
70
32
71
1
72
1
41
1
210
0
220
0
230
1
3
Standard
100
AcDbAlignedDimension
13
23.809501
23
-2.5
33
0
14
8.809501
24
-2.5
34
0
50
0
100
AcDbRotatedDimension
1001
ACAD
1000
DSTYLE
1002
{
1070
   371
1070
    13
1070
   372
1070
    13
1070
   170
1070
     0
1070
   144
1040
1.0
1070
   277
1070
     2
1070
   284
1070
     8
1070
   278
1070
    46
1070
   146
1040
1.0
1070
   345
1005
16
1070
   347
1005
16
1070
   346
1005
16
1070
   344
1005
0
1070
   343
1005
0
1070
   172
1070
     1
1070
    76
1070
     0
1070
    75
1070
     0
1070
   282
1070
     0
1070
   281
1070
     0
1070
    71
1070
     0
1070
    74
1070
     0
1070
   279
1070
     0
1070
   173
1070
     1
1070
   340
1005
189
1070
   271
1070
     2
1070
   272
1070
     2
1070
    77
1070
     1
1070
    73
1070
     1
1070
   171
1070
     3
1070
   274
1070
     4
1070
   177
1070
     2
1070
   176
1070
     2
1070
   178
1070
     2
1070
    78
1070
     8
1070
    48
1040
-0.1
1070
    41
1040
3.5
1070
   147
1040
1.75
1070
    42
1040
1.5875
1070
    44
1040
2.0
1070
   140
1040
3.5
1002
}
1001
ACAD_DSTYLE_DIM_LINETYPE
1070
   380
1005
16
1001
ACAD_DSTYLE_DIM_EXT1_LINETYPE
1070
   381
1005
16
1001
ACAD_DSTYLE_DIM_EXT2_LINETYPE
1070
   382
1005
16
0
DIMENSION
5
1CE
100
AcDbEntity
8
SK2
62
256
6
ByLayer
370
18
48
1
60
0
100
AcDbDimension
2
_U1
10
1.30718
20
-32.1
30
0
11
12.55834
21
-32.1
31
0
70
32
71
1
72
1
41
1
210
0
220
0
230
1
3
Standard
100
AcDbAlignedDimension
13
23.809501
23
-2.5
33
0
14
1.30718
24
-2.4
34
0
50
0
100
AcDbRotatedDimension
1001
ACAD
1000
DSTYLE
1002
{
1070
   371
1070
    13
1070
   372
1070
    13
1070
   170
1070
     0
1070
   144
1040
1.0
1070
   277
1070
     2
1070
   284
1070
     8
1070
   278
1070
    46
1070
   146
1040
1.0
1070
   345
1005
16
1070
   347
1005
16
1070
   346
1005
16
1070
   344
1005
0
1070
   343
1005
0
1070
   172
1070
     1
1070
    76
1070
     0
1070
    75
1070
     0
1070
   282
1070
     0
1070
   281
1070
     0
1070
    71
1070
     0
1070
    74
1070
     0
1070
   279
1070
     0
1070
   173
1070
     1
1070
   340
1005
189
1070
   271
1070
     2
1070
   272
1070
     2
1070
    77
1070
     1
1070
    73
1070
     1
1070
   171
1070
     3
1070
   274
1070
     4
1070
   177
1070
     2
1070
   176
1070
     2
1070
   178
1070
     2
1070
    78
1070
     8
1070
    48
1040
-0.1
1070
    41
1040
3.5
1070
   147
1040
1.75
1070
    42
1040
1.5875
1070
    44
1040
2.0
1070
   140
1040
3.5
1002
}
1001
ACAD_DSTYLE_DIM_LINETYPE
1070
   380
1005
16
1001
ACAD_DSTYLE_DIM_EXT1_LINETYPE
1070
   381
1005
16
1001
ACAD_DSTYLE_DIM_EXT2_LINETYPE
1070
   382
1005
16
0
ENDSEC
0
SECTION
2
OBJECTS
0
DICTIONARY
5
256
330
0
100
AcDbDictionary
280
0
281
1
3
ACAD_GROUP
350
257
3
ACAD_MLINESTYLE
350
258
0
DICTIONARY
5
257
330
0
100
AcDbDictionary
280
0
281
1
0
DICTIONARY
5
258
330
0
100
AcDbDictionary
280
0
281
1
3
Standard
350
18
0
MLINESTYLE
5
18
330
258
100
AcDbMlineStyle
2
Standard
70
0
3

62
256
51
90
52
90
71
2
49
-0.5
62
256
6
ByLayer
49
0.5
62
256
6
ByLayer
0
RASTERVARIABLES
5
244
330

100
AcDbRasterVariables
90
0
70
1
71
1
72
1
0
ENDSEC
0
EOF
