0
SECTION
2
HEADER
9
$ACADVER
1
AC1015
9
$DWGCODEPAGE
3
ANSI_1252
9
$HANDSEED
5
24f
9
$ANGBASE
50
0
9
$ANGDIR
70
0
9
$ATTMODE
70
1
9
$AUNITS
70
0
9
$AUPREC
70
0
9
$CECOLOR
62
256
9
$CELTSCALE
40
1
9
$CELTYPE
6
ByLayer
9
$CELWEIGHT
370
18
9
$CLAYER
8
0
9
$CMLJUST
70
0
9
$CMLSCALE
40
1
9
$CMLSTYLE
2
Standard
9
$DIMSTYLE
2
Standard
9
$TEXTSIZE
40
0.2
9
$TEXTSTYLE
7
Standard
9
$LUNITS
70
2
9
$LUPREC
70
4
9
$EXTNAMES
290
1
9
$INSUNITS
70
4
9
$LTSCALE
40
1
9
$LWDISPLAY
290
1
9
$PDMODE
70
0
9
$PDSIZE
40
0
9
$PLINEGEN
70
0
0
ENDSEC
0
SECTION
2
CLASSES
0
CLASS
1
RASTERVARIABLES
2
AcDbRasterVariables
3
ISM
90
0
280
0
281
0
0
ENDSEC
0
SECTION
2
TABLES
0
TABLE
2
VPORT
5
245
100
AcDbSymbolTable
0
VPORT
5
1
100
AcDbSymbolTableRecord
100
AcDbViewportTableRecord
2
*Active
70
0
10
0
20
0
11
1
21
1
12
-1
22
1
13
0
23
0
14
0.5
24
0.5
15
10
25
10
16
0
26
0
36
1
17
0
27
0
37
0
0
ENDTAB
0
TABLE
2
LTYPE
5
246
100
AcDbSymbolTable
0
LTYPE
5
14
100
AcDbSymbolTableRecord
100
AcDbLinetypeTableRecord
70
0
2
ByBlock
3

72
65
73
0
40
0
0
LTYPE
5
15
100
AcDbSymbolTableRecord
100
AcDbLinetypeTableRecord
70
0
2
ByLayer
3

72
65
73
0
40
0
0
LTYPE
5
16
100
AcDbSymbolTableRecord
100
AcDbLinetypeTableRecord
70
0
2
Continuous
3
Solid line
72
65
73
0
40
0
0
LTYPE
5
6E
100
AcDbSymbolTableRecord
100
AcDbLinetypeTableRecord
70
0
2
CENTER
3
____ _ ____ _ ____ _ ____
72
65
73
4
40
47.5
49
22
74
0
49
-8.5
74
0
49
8.5
74
0
49
-8.5
74
0
0
LTYPE
5
6F
100
AcDbSymbolTableRecord
100
AcDbLinetypeTableRecord
70
0
2
DASHED
3
__ __ __ __ __ __ __ __ __
72
65
73
2
40
25.72
49
12.86
74
0
49
-12.86
74
0
0
ENDTAB
0
TABLE
2
LAYER
5
247
100
AcDbSymbolTable
0
LAYER
5
10
100
AcDbSymbolTableRecord
100
AcDbLayerTableRecord
2
0
70
0
62
7
6
Continuous
290
1
370
-3
390
0
0
LAYER
5
71
100
AcDbSymbolTableRecord
100
AcDbLayerTableRecord
2
80
70
0
62
-6
6
Continuous
290
1
370
-3
390
0
0
LAYER
5
73
100
AcDbSymbolTableRecord
100
AcDbLayerTableRecord
2
81
70
0
62
-3
6
Continuous
290
1
370
-3
390
0
0
LAYER
5
75
100
AcDbSymbolTableRecord
100
AcDbLayerTableRecord
2
1
70
0
62
4
6
Continuous
290
1
370
-3
390
0
0
LAYER
5
7B
100
AcDbSymbolTableRecord
100
AcDbLayerTableRecord
2
4
70
0
62
-2
6
CENTER
290
1
370
-3
390
0
0
LAYER
5
D4
100
AcDbSymbolTableRecord
100
AcDbLayerTableRecord
2
2
70
0
62
7
6
Continuous
290
1
370
-3
390
0
0
LAYER
5
1A3
100
AcDbSymbolTableRecord
100
AcDbLayerTableRecord
2
Defpoints
70
0
62
7
6
Continuous
290
0
370
-3
390
0
0
LAYER
5
231
100
AcDbSymbolTableRecord
100
AcDbLayerTableRecord
2
SK4
70
0
62
2
6
CENTER
290
1
370
-3
390
0
0
LAYER
5
232
100
AcDbSymbolTableRecord
100
AcDbLayerTableRecord
2
SK1
70
0
62
4
6
Continuous
290
1
370
-3
390
0
0
LAYER
5
233
100
AcDbSymbolTableRecord
100
AcDbLayerTableRecord
2
SK2
70
0
62
7
6
Continuous
290
1
370
-3
390
0
0
LAYER
5
234
100
AcDbSymbolTableRecord
100
AcDbLayerTableRecord
2
SK6
70
0
62
5
6
Continuous
290
1
370
-3
390
0
0
ENDTAB
0
TABLE
2
STYLE
5
248
100
AcDbSymbolTable
0
STYLE
5
11
100
AcDbSymbolTableRecord
100
AcDbTextStyleTableRecord
2
Standard
3
txt
70
0
71
0
40
0
41
1
42
0
50
0
0
STYLE
5
175
100
AcDbSymbolTableRecord
100
AcDbTextStyleTableRecord
2
iso_b_vert
3
simplex.shx
70
0
71
0
40
0
41
1
42
0
50
0
0
STYLE
5
176
100
AcDbSymbolTableRecord
100
AcDbTextStyleTableRecord
2
DWGDirectTextStyle
3
simplex
70
0
71
0
40
0
41
1
42
0
50
0
0
ENDTAB
0
TABLE
2
DIMSTYLE
5
249
100
AcDbSymbolTable
100
AcDbDimStyleTable
0
DIMSTYLE
105
27
100
AcDbSymbolTableRecord
100
AcDbDimStyleTableRecord
2
Standard
70
0
3
<>
41
0.18
42
0.0625
44
0.18
140
0.18
147
0.09
73
0
74
0
77
1
271
2
275
0
278
52
280
0
340
11
0
ENDTAB
0
TABLE
2
VIEW
5
24a
100
AcDbSymbolTable
0
ENDTAB
0
TABLE
2
UCS
5
24b
100
AcDbSymbolTable
0
ENDTAB
0
TABLE
2
APPID
5
24c
100
AcDbSymbolTable
0
APPID
5
12
100
AcDbSymbolTableRecord
100
AcDbRegAppTableRecord
2
ACAD
70
0
0
APPID
5
19F
100
AcDbSymbolTableRecord
100
AcDbRegAppTableRecord
2
ACAD_DSTYLE_DIMBREAK
70
0
0
APPID
5
1F0
100
AcDbSymbolTableRecord
100
AcDbRegAppTableRecord
2
ACAD_DSTYLE_DIM_LINETYPE
70
0
0
APPID
5
1F1
100
AcDbSymbolTableRecord
100
AcDbRegAppTableRecord
2
ACAD_DSTYLE_DIM_EXT1_LINETYPE
70
0
0
APPID
5
1F2
100
AcDbSymbolTableRecord
100
AcDbRegAppTableRecord
2
ACAD_DSTYLE_DIM_EXT2_LINETYPE
70
0
0
APPID
5
22D
100
AcDbSymbolTableRecord
100
AcDbRegAppTableRecord
2
ACAD_MLEADERVER
70
0
0
ENDTAB
0
TABLE
2
BLOCK_RECORD
5
24d
100
AcDbSymbolTable
0
BLOCK_RECORD
5
1F
100
AcDbSymbolTableRecord
100
AcDbBlockTableRecord
2
*Model_Space
340
0
70
0
0
BLOCK_RECORD
5
1B
100
AcDbSymbolTableRecord
100
AcDbBlockTableRecord
2
*Paper_Space
340
0
70
0
0
BLOCK_RECORD
5
23
100
AcDbSymbolTableRecord
100
AcDbBlockTableRecord
2
*Paper_Space0
340
0
70
0
0
BLOCK_RECORD
5
1A4
100
AcDbSymbolTableRecord
100
AcDbBlockTableRecord
2
*D1
340
0
70
0
0
BLOCK_RECORD
5
1B1
100
AcDbSymbolTableRecord
100
AcDbBlockTableRecord
2
_U0
340
0
70
0
0
BLOCK_RECORD
5
1BD
100
AcDbSymbolTableRecord
100
AcDbBlockTableRecord
2
*D3
340
0
70
0
0
BLOCK_RECORD
5
1C9
100
AcDbSymbolTableRecord
100
AcDbBlockTableRecord
2
_U1
340
0
70
0
0
ENDTAB
0
ENDSEC
0
SECTION
2
BLOCKS
0
BLOCK
5
20
100
AcDbEntity
8
0
100
AcDbBlockBegin
2
*Model_Space
70
0
10
0
20
0
30
0
3
*Model_Space
0
ENDBLK
5
21
100
AcDbEntity
8
0
100
AcDbBlockEnd
0
BLOCK
5
1C
100
AcDbEntity
8
0
100
AcDbBlockBegin
2
*Paper_Space
70
0
10
0
20
0
30
0
3
*Paper_Space
0
ENDBLK
5
1D
100
AcDbEntity
8
0
100
AcDbBlockEnd
0
BLOCK
5
24
100
AcDbEntity
8
0
100
AcDbBlockBegin
2
*Paper_Space0
70
0
10
0
20
0
30
0
3
*Paper_Space0
0
ENDBLK
5
25
100
AcDbEntity
8
0
100
AcDbBlockEnd
0
BLOCK
5
1A5
100
AcDbEntity
8
0
100
AcDbBlockBegin
2
*D1
70
1
10
0
20
0
30
0
3
*D1
0
LINE
5
1A7
100
AcDbEntity
8
0
62
256
6
ByLayer
370
-2
48
1
60
0
100
AcDbLine
10
20.140885
20
-3.5875
30
0
11
20.140885
21
-19.1
31
0
39
0
210
0
220
0
230
1
0
LINE
5
1A8
100
AcDbEntity
8
0
62
256
6
ByLayer
370
-2
48
1
60
0
100
AcDbLine
10
8.140885
20
-3.5875
30
0
11
8.140885
21
-19.1
31
0
39
0
210
0
220
0
230
1
0
LINE
5
1A9
100
AcDbEntity
8
0
62
256
6
ByLayer
370
-2
48
1
60
0
100
AcDbLine
10
23.640885
20
-17.1
30
0
11
27.140885
21
-17.1
31
0
39
0
210
0
220
0
230
1
0
LINE
5
1AA
100
AcDbEntity
8
0
62
256
6
ByLayer
370
-2
48
1
60
0
100
AcDbLine
10
4.640885
20
-17.1
30
0
11
1.140885
21
-17.1
31
0
39
0
210
0
220
0
230
1
0
SOLID
5
1AB
100
AcDbEntity
8
0
62
256
6
ByLayer
370
-1
48
1
60
0
100
AcDbTrace
10
23.640885
20
-16.516667
30
0
11
23.640885
21
-17.683333
31
0
12
20.140885
22
-17.1
32
0
13
20.140885
23
-17.1
33
0
39
0
210
0
220
0
230
1
0
SOLID
5
1AC
100
AcDbEntity
8
0
62
256
6
ByLayer
370
-1
48
1
60
0
100
AcDbTrace
10
4.640885
20
-17.683333
30
0
11
4.640885
21
-16.516667
31
0
12
8.140885
22
-17.1
32
0
13
8.140885
23
-17.1
33
0
39
0
210
0
220
0
230
1
0
MTEXT
5
1AD
100
AcDbEntity
8
0
62
256
6
ByLayer
370
18
48
1
60
0
100
AcDbMText
10
14.140885
20
-10.1
30
0
210
0
220
0
230
1
1
\A1;12
40
3.5
41
0
44
1
50
0
71
5
72
5
7
iso_b_vert
0
POINT
5
1AE
100
AcDbEntity
8
Defpoints
62
0
6
ByLayer
370
-1
48
1
60
0
100
AcDbPoint
10
20.140885
20
-2
30
0
39
0
210
0
220
0
230
1
50
360
0
POINT
5
1AF
100
AcDbEntity
8
Defpoints
62
0
6
ByLayer
370
-1
48
1
60
0
100
AcDbPoint
10
8.140885
20
-2
30
0
39
0
210
0
220
0
230
1
50
360
0
POINT
5
1B0
100
AcDbEntity
8
Defpoints
62
0
6
ByLayer
370
-1
48
1
60
0
100
AcDbPoint
10
8.140885
20
-17.1
30
0
39
0
210
0
220
0
230
1
50
360
0
ENDBLK
5
1A6
100
AcDbEntity
8
0
100
AcDbBlockEnd
0
BLOCK
5
1B8
100
AcDbEntity
8
0
100
AcDbBlockBegin
2
_U0
70
0
10
0
20
0
30
0
3
_U0
0
MTEXT
5
1B2
100
AcDbEntity
8
SK2
62
256
6
ByLayer
370
18
48
1
60
0
100
AcDbMText
10
12.673352
20
-16.067366
30
0
210
0
220
0
230
1
1
\W0.5321;12
40
3.5
41
0
44
1.084337
50
0
71
7
72
5
7
iso_b_vert
0
LINE
5
1B3
100
AcDbEntity
8
SK2
62
256
6
ByLayer
370
13
48
1
60
0
100
AcDbLine
10
20.140885
20
-3.5875
30
0
11
20.140885
21
-19.1
31
0
39
0
210
0
220
0
230
1
0
LINE
5
1B4
100
AcDbEntity
8
SK2
62
256
6
ByLayer
370
13
48
1
60
0
100
AcDbLine
10
8.140885
20
-3.5875
30
0
11
8.140885
21
-19.1
31
0
39
0
210
0
220
0
230
1
0
LINE
5
1B5
100
AcDbEntity
8
SK2
62
256
6
ByLayer
370
13
48
1
60
0
100
AcDbLine
10
20.140885
20
-17.1
30
0
11
8.140885
21
-17.1
31
0
39
0
210
0
220
0
230
1
0
SOLID
5
1B6
100
AcDbEntity
8
SK2
62
256
6
ByLayer
370
18
48
1
60
0
100
AcDbTrace
10
20.140885
20
-17.1
30
0
11
16.640887
21
-17.560784
31
0
12
16.640883
22
-16.639216
32
0
13
16.640883
23
-16.639216
33
0
39
0
210
0
220
0
230
1
0
SOLID
5
1B7
100
AcDbEntity
8
SK2
62
256
6
ByLayer
370
18
48
1
60
0
100
AcDbTrace
10
8.140885
20
-17.1
30
0
11
11.640883
21
-16.639216
31
0
12
11.640887
22
-17.560784
32
0
13
11.640887
23
-17.560784
33
0
39
0
210
0
220
0
230
1
0
ENDBLK
5
1B9
100
AcDbEntity
8
0
100
AcDbBlockEnd
0
BLOCK
5
1BE
100
AcDbEntity
8
0
100
AcDbBlockBegin
2
*D3
70
1
10
0
20
0
30
0
3
*D3
0
LINE
5
1C0
100
AcDbEntity
8
0
62
256
6
ByLayer
370
-2
48
1
60
0
100
AcDbLine
10
20.140885
20
-3.5875
30
0
11
20.140885
21
-34.1
31
0
39
0
210
0
220
0
230
1
0
LINE
5
1C1
100
AcDbEntity
8
0
62
256
6
ByLayer
370
-2
48
1
60
0
100
AcDbLine
10
2.138564
20
-3.5075
30
0
11
2.138564
21
-34.1
31
0
39
0
210
0
220
0
230
1
0
LINE
5
1C2
100
AcDbEntity
8
0
62
256
6
ByLayer
370
-2
48
1
60
0
100
AcDbLine
10
16.640885
20
-32.1
30
0
11
5.638564
21
-32.1
31
0
39
0
210
0
220
0
230
1
0
SOLID
5
1C3
100
AcDbEntity
8
0
62
256
6
ByLayer
370
-1
48
1
60
0
100
AcDbTrace
10
16.640885
20
-32.683333
30
0
11
16.640885
21
-31.516667
31
0
12
20.140885
22
-32.1
32
0
13
20.140885
23
-32.1
33
0
39
0
210
0
220
0
230
1
0
SOLID
5
1C4
100
AcDbEntity
8
0
62
256
6
ByLayer
370
-1
48
1
60
0
100
AcDbTrace
10
5.638564
20
-31.516667
30
0
11
5.638564
21
-32.683333
31
0
12
2.138564
22
-32.1
32
0
13
2.138564
23
-32.1
33
0
39
0
210
0
220
0
230
1
0
MTEXT
5
1C5
100
AcDbEntity
8
0
62
256
6
ByLayer
370
18
48
1
60
0
100
AcDbMText
10
11.139725
20
-25.1
30
0
210
0
220
0
230
1
1
\A1;18
40
3.5
41
0
44
1
50
0
71
5
72
5
7
iso_b_vert
0
POINT
5
1C6
100
AcDbEntity
8
Defpoints
62
0
6
ByLayer
370
-1
48
1
60
0
100
AcDbPoint
10
20.140885
20
-2
30
0
39
0
210
0
220
0
230
1
50
360
0
POINT
5
1C7
100
AcDbEntity
8
Defpoints
62
0
6
ByLayer
370
-1
48
1
60
0
100
AcDbPoint
10
2.138564
20
-1.92
30
0
39
0
210
0
220
0
230
1
50
360
0
POINT
5
1C8
100
AcDbEntity
8
Defpoints
62
0
6
ByLayer
370
-1
48
1
60
0
100
AcDbPoint
10
2.138564
20
-32.1
30
0
39
0
210
0
220
0
230
1
50
360
0
ENDBLK
5
1BF
100
AcDbEntity
8
0
100
AcDbBlockEnd
0
BLOCK
5
1D0
100
AcDbEntity
8
0
100
AcDbBlockBegin
2
_U1
70
0
10
0
20
0
30
0
3
_U1
0
MTEXT
5
1CA
100
AcDbEntity
8
SK2
62
256
6
ByLayer
370
18
48
1
60
0
100
AcDbMText
10
9.672192
20
-31.067366
30
0
210
0
220
0
230
1
1
\W0.5321;18
40
3.5
41
0
44
1.084337
50
0
71
7
72
5
7
iso_b_vert
0
LINE
5
1CB
100
AcDbEntity
8
SK2
62
256
6
ByLayer
370
13
48
1
60
0
100
AcDbLine
10
20.140885
20
-3.5875
30
0
11
20.140885
21
-34.1
31
0
39
0
210
0
220
0
230
1
0
LINE
5
1CC
100
AcDbEntity
8
SK2
62
256
6
ByLayer
370
13
48
1
60
0
100
AcDbLine
10
2.138564
20
-3.5075
30
0
11
2.138564
21
-34.1
31
0
39
0
210
0
220
0
230
1
0
LINE
5
1CD
100
AcDbEntity
8
SK2
62
256
6
ByLayer
370
13
48
1
60
0
100
AcDbLine
10
20.140885
20
-32.1
30
0
11
2.138564
21
-32.1
31
0
39
0
210
0
220
0
230
1
0
SOLID
5
1CE
100
AcDbEntity
8
SK2
62
256
6
ByLayer
370
18
48
1
60
0
100
AcDbTrace
10
20.140885
20
-32.1
30
0
11
16.640887
21
-32.560784
31
0
12
16.640883
22
-31.639216
32
0
13
16.640883
23
-31.639216
33
0
39
0
210
0
220
0
230
1
0
SOLID
5
1CF
100
AcDbEntity
8
SK2
62
256
6
ByLayer
370
18
48
1
60
0
100
AcDbTrace
10
2.138564
20
-32.1
30
0
11
5.638562
21
-31.639216
31
0
12
5.638566
22
-32.560784
32
0
13
5.638566
23
-32.560784
33
0
39
0
210
0
220
0
230
1
0
ENDBLK
5
1D1
100
AcDbEntity
8
0
100
AcDbBlockEnd
0
ENDSEC
0
SECTION
2
ENTITIES
0
ARC
5
E6
100
AcDbEntity
8
1
62
256
6
ByLayer
370
18
48
1
60
0
100
AcDbCircle
39
0
10
7.748967
20
2.92
30
0
40
1
210
0
220
0
230
1
100
AcDbArc
50
270
51
284.232214
0
ARC
5
E7
100
AcDbEntity
8
1
62
256
6
ByLayer
370
18
48
1
60
0
100
AcDbCircle
39
0
10
7.748967
20
-2.92
30
0
40
1
210
0
220
0
230
1
100
AcDbArc
50
88.06833
51
90
0
ARC
5
E8
100
AcDbEntity
8
1
62
256
6
ByLayer
370
18
48
1
60
0
100
AcDbCircle
39
0
10
2.138564
20
2.92
30
0
40
1
210
0
220
0
230
1
100
AcDbArc
50
240
51
270
0
ARC
5
E9
100
AcDbEntity
8
1
62
256
6
ByLayer
370
18
48
1
60
0
100
AcDbCircle
39
0
10
2.138564
20
-2.92
30
0
40
1
210
0
220
0
230
1
100
AcDbArc
50
90
51
120
0
ELLIPSE
5
EA
100
AcDbEntity
8
1
62
256
6
ByLayer
370
18
48
1
60
0
100
AcDbEllipse
10
20.049298
20
-0.084313
30
0
11
0.00979793610262758
21
-0.342839130409227
31
0
210
0
220
0
230
1
40
0.078636
41
0.51998468560513
42
1.4840932512068
0
ELLIPSE
5
EB
100
AcDbEntity
8
1
62
256
6
ByLayer
370
18
48
1
60
0
100
AcDbEllipse
10
20.010246
20
-0.229897
30
0
11
0.137496820835304
21
-0.231934197241934
31
0
210
0
220
0
230
1
40
0.510599
41
2.85287392333233
42
-2.39759187278807
0
ELLIPSE
5
EC
100
AcDbEntity
8
1
62
256
6
ByLayer
370
18
48
1
60
0
100
AcDbEllipse
10
20.030342
20
-0.233326
30
0
11
0.0150005072945794
21
-0.229589230856746
31
0
210
0
220
0
230
1
40
0.178741
41
0.753205283549546
42
0.857901436976102
0
ELLIPSE
5
ED
100
AcDbEntity
8
1
62
256
6
ByLayer
370
18
48
1
60
0
100
AcDbEllipse
10
10.091438
20
0
30
0
11
3.71212902914592
21
1.31441589772153
31
0
210
0
220
0
230
1
40
0.377018
41
-2.6964339451658
42
-2.37925884319115
0
ELLIPSE
5
EE
100
AcDbEntity
8
1
62
256
6
ByLayer
370
18
48
1
60
0
100
AcDbEllipse
10
10.127408
20
0
30
0
11
3.78778529310704
21
-1.60238216909964
31
0
210
0
220
0
230
1
40
0.279245
41
-2.44580381838232
42
-2.12653352021837
0
POINT
5
70
100
AcDbEntity
8
80
62
256
6
ByLayer
370
18
48
1
60
0
100
AcDbPoint
10
0
20
0
30
0
39
0
210
0
220
0
230
1
50
360
0
POINT
5
72
100
AcDbEntity
8
81
62
256
6
ByLayer
370
18
48
1
60
0
100
AcDbPoint
10
20.140885
20
0
30
0
39
0
210
0
220
0
230
1
50
360
0
POINT
5
74
100
AcDbEntity
8
1
62
256
6
ByLayer
370
18
48
1
60
1
100
AcDbPoint
10
20.140885
20
-2
30
0
39
0
210
0
220
0
230
1
50
360
0
POINT
5
76
100
AcDbEntity
8
1
62
256
6
ByLayer
370
18
48
1
60
1
100
AcDbPoint
10
8.140885
20
-2
30
0
39
0
210
0
220
0
230
1
50
360
0
POINT
5
77
100
AcDbEntity
8
1
62
256
6
ByLayer
370
18
48
1
60
1
100
AcDbPoint
10
20.140885
20
-2
30
0
39
0
210
0
220
0
230
1
50
360
0
POINT
5
78
100
AcDbEntity
8
1
62
256
6
ByLayer
370
18
48
1
60
1
100
AcDbPoint
10
2.138564
20
-1.92
30
0
39
0
210
0
220
0
230
1
50
360
0
SPLINE
5
EF
100
AcDbEntity
8
1
62
256
6
ByLayer
370
13
48
1
60
0
100
AcDbSpline
70
4
71
3
72
8
73
4
40
0
40
0
40
0
40
0
40
1
40
1
40
1
40
1
41
1
10
20.1354766587981
20
0.0874379604064757
30
0
41
1
10
20.1242679525841
20
0.0005247286097187
30
0
41
1
10
20.1130592463701
20
-0.0863885031870097
30
0
41
1
10
20.101850540156
20
-0.173301734983738
30
0
0
SPLINE
5
F0
100
AcDbEntity
8
1
62
256
6
ByLayer
370
18
48
1
60
0
100
AcDbSpline
70
4
71
3
72
22
73
18
40
0
40
0
40
0
40
0
40
0.125000000000001
40
0.125000000000001
40
0.250000000000001
40
0.250000000000001
40
0.375000000000002
40
0.375000000000002
40
0.500000000000002
40
0.500000000000002
40
0.625000000000003
40
0.625000000000003
40
0.750000000000002
40
0.750000000000002
40
0.875000000000001
40
0.875000000000001
40
1
40
1
40
1
40
1
41
1
10
20.1354766588005
20
1.79188631107141
30
0
41
1
10
20.1357886533654
20
1.80362835685841
30
0
41
1
10
20.1350696619725
20
1.81521350120744
30
0
41
1
10
20.1317044206834
20
1.83809048847837
30
0
41
1
10
20.1290534235258
20
1.8493973544945
30
0
41
1
10
20.1217602545595
20
1.87164389700302
30
0
41
1
10
20.1172135132616
20
1.88229285383812
30
0
41
1
10
20.1064093767302
20
1.90268938253357
30
0
41
1
10
20.1001367889452
20
1.91246343713348
30
0
41
1
10
20.0858774428175
20
1.93096481490173
30
0
41
1
10
20.0780566538797
20
1.93947767740195
30
0
41
1
10
20.0610858383655
20
1.95508432546143
30
0
41
1
10
20.0519126557995
20
1.96220014893757
30
0
41
1
10
20.0322708100828
20
1.9748540776244
30
0
41
1
10
20.0220380351094
20
1.98024278816146
30
0
41
1
10
20.0007762615913
20
1.98920630621294
30
0
41
1
10
19.9897180025835
20
1.99279173510811
30
0
41
1
10
19.978299451799
20
1.99539433111983
30
0
0
SPLINE
5
F1
100
AcDbEntity
8
1
62
256
6
ByLayer
370
18
48
1
60
0
100
AcDbSpline
70
4
71
3
72
8
73
4
40
0
40
0
40
0
40
0
40
1
40
1
40
1
40
1
41
1
10
19.951760576389
20
1.99545592812112
30
0
41
1
10
19.9606066138863
20
1.99541306314501
30
0
41
1
10
19.9694529621688
20
1.9953925423093
30
0
41
1
10
19.978299451799
20
1.99539433111983
30
0
0
SPLINE
5
F2
100
AcDbEntity
8
1
62
256
6
ByLayer
370
18
48
1
60
0
100
AcDbSpline
70
4
71
3
72
8
73
4
40
0
40
0
40
0
40
0
40
1
40
1
40
1
40
1
41
1
10
19.9613489453291
20
-1.99897663112242
30
0
41
1
10
19.9691248169807
20
-1.99890988548722
30
0
41
1
10
19.9769009677208
20
-1.99886238146601
30
0
41
1
10
19.9846772553123
20
-1.99883409865538
30
0
0
SPLINE
5
F3
100
AcDbEntity
8
1
62
256
6
ByLayer
370
18
48
1
60
0
100
AcDbSpline
70
4
71
3
72
8
73
4
40
0
40
0
40
0
40
0
40
1
40
1
40
1
40
1
41
1
10
7.99732556687925
20
1.91476567449783
30
0
41
1
10
8.04642553344684
20
1.92473012276116
30
0
41
1
10
8.09426726354064
20
1.93805894426825
30
0
41
1
10
8.14085876027747
20
1.95473073964564
30
0
0
SPLINE
5
F4
100
AcDbEntity
8
1
62
256
6
ByLayer
370
13
48
1
60
0
100
AcDbSpline
70
4
71
3
72
8
73
4
40
0
40
0
40
0
40
0
40
1
40
1
40
1
40
1
41
1
10
20.1354766587836
20
-1.79429918391548
30
0
41
1
10
20.1242679525735
20
-1.76771628629734
30
0
41
1
10
20.1130592463634
20
-1.74113338867917
30
0
41
1
10
20.1018505401533
20
-1.71455049106103
30
0
0
SPLINE
5
F5
100
AcDbEntity
8
1
62
256
6
ByLayer
370
18
48
1
60
0
100
AcDbSpline
70
4
71
3
72
23
73
19
40
0
40
0
40
0
40
0
40
0.124999999999992
40
0.249999999999985
40
0.249999999999985
40
0.374999999999977
40
0.374999999999977
40
0.499999999999969
40
0.499999999999969
40
0.624999999999961
40
0.624999999999961
40
0.749999999999952
40
0.749999999999952
40
0.812499999999947
40
0.812499999999947
40
0.874999999999943
40
0.874999999999943
40
1
40
1
40
1
40
1
41
1
10
20.1354766588001
20
-1.79429918393677
30
0
41
1
10
20.1357826900183
20
-1.80584482583217
30
0
41
1
10
20.1344181916404
20
-1.82863974320094
30
0
41
1
10
20.1293772746834
20
-1.85088341667634
30
0
41
1
10
20.1224325536978
20
-1.87284163290511
30
0
41
1
10
20.1180867063756
20
-1.88341059589217
30
0
41
1
10
20.1077818900433
20
-1.90365447348398
30
0
41
1
10
20.1018201390597
20
-1.91335150373311
30
0
41
1
10
20.088211124404
20
-1.93186066263988
30
0
41
1
10
20.0806958625421
20
-1.94047473556512
30
0
41
1
10
20.0644434487885
20
-1.95628853992758
30
0
41
1
10
20.0556878275408
20
-1.96352420458183
30
0
41
1
10
20.0415623992789
20
-1.97331978926451
30
0
41
1
10
20.0366959242991
20
-1.97639762822954
30
0
41
1
10
20.0268126521951
20
-1.98207754178847
30
0
41
1
10
20.0217740725676
20
-1.98469535581003
30
0
41
1
10
20.0063714028946
20
-1.99189130616517
30
0
41
1
10
19.9957237291739
20
-1.99581962058534
30
0
41
1
10
19.9846772553121
20
-1.99883409865487
30
0
0
SPLINE
5
F6
100
AcDbEntity
8
1
62
256
6
ByLayer
370
18
48
1
60
0
100
AcDbSpline
70
4
71
3
72
12
73
8
40
0
40
0
40
0
40
0
40
0.252570746384274
40
0.252570746384274
40
0.50514150382142
40
0.50514150382142
40
1
40
1
40
1
40
1
41
1
10
19.9355436442141
20
-1.99777486391255
30
0
41
1
10
19.9343110153886
20
-1.9977738173566
30
0
41
1
10
19.9330781315166
20
-1.99777318363928
30
0
41
1
10
19.9306118551812
20
-1.99777275833282
30
0
41
1
10
19.9293784609145
20
-1.99777296674307
30
0
41
1
10
19.925727744118
20
-1.9977748544502
30
0
41
1
10
19.9233096863393
20
-1.99777775278056
30
0
41
1
10
19.9208906469383
20
-1.99778236522908
30
0
0
SPLINE
5
F7
100
AcDbEntity
8
1
62
256
6
ByLayer
370
13
48
1
60
0
100
AcDbSpline
70
4
71
3
72
8
73
4
40
0
40
0
40
0
40
0
40
1
40
1
40
1
40
1
41
1
10
19.9355436442141
20
-1.99777486391255
30
0
41
1
10
19.9110182578606
20
-1.93960973564009
30
0
41
1
10
19.8864928715072
20
-1.88144460736763
30
0
41
1
10
19.8619674851538
20
-1.82327947909516
30
0
0
SPLINE
5
F8
100
AcDbEntity
8
1
62
256
6
ByLayer
370
18
48
1
60
0
100
AcDbSpline
70
4
71
3
72
8
73
4
40
0
40
0
40
0
40
0
40
1
40
1
40
1
40
1
41
1
10
19.9208906469383
20
-1.99778236522908
30
0
41
1
10
19.8960233922402
20
-1.93880645192615
30
0
41
1
10
19.8711561375421
20
-1.87983053862322
30
0
41
1
10
19.846288882844
20
-1.82085462532029
30
0
0
SPLINE
5
F9
100
AcDbEntity
8
1
62
256
6
ByLayer
370
18
48
1
60
0
100
AcDbSpline
70
4
71
3
72
10
73
6
40
0
40
0
40
0
40
0
40
0.5
40
0.5
40
1
40
1
40
1
40
1
41
1
10
7.74896678359934
20
1.89023357081598
30
0
41
1
10
7.791490018931
20
1.88984526473504
30
0
41
1
10
7.83350450347297
20
1.89190253655139
30
0
41
1
10
7.91635163677938
20
1.90028670525217
30
0
41
1
10
7.95718452230193
20
1.90661936830071
30
0
41
1
10
7.99732556687923
20
1.91476567449783
30
0
0
SPLINE
5
FA
100
AcDbEntity
8
1
62
256
6
ByLayer
370
18
48
1
60
0
100
AcDbSpline
70
4
71
3
72
26
73
22
40
0
40
0
40
0
40
0
40
0.249999999999984
40
0.249999999999984
40
0.499999999999968
40
0.499999999999968
40
0.62499999999996
40
0.62499999999996
40
0.687499999999966
40
0.687499999999966
40
0.749999999999973
40
0.749999999999973
40
0.81249999999998
40
0.81249999999998
40
0.874999999999987
40
0.874999999999987
40
0.937499999999993
40
0.937499999999993
40
0.968749999999997
40
0.968749999999997
40
1
40
1
40
1
40
1
41
1
10
19.9983283526836
20
-1.79111279345403
30
0
41
1
10
20.008206333366
20
-1.79284606715865
30
0
41
1
10
20.0180736831201
20
-1.79384473379122
30
0
41
1
10
20.0377134674
20
-1.79361833690064
30
0
41
1
10
20.0474987662547
20
-1.79243658682412
30
0
41
1
10
20.061953207126
20
-1.78770355186731
30
0
41
1
10
20.0667300978275
20
-1.78562551439325
30
0
41
1
10
20.0737449533532
20
-1.78134654394606
30
0
41
1
10
20.0760596864918
20
-1.77972338879653
30
0
41
1
10
20.0806254374541
20
-1.77594459201575
30
0
41
1
10
20.0828847997938
20
-1.77378129212565
30
0
41
1
10
20.0872558967537
20
-1.76874684264624
30
0
41
1
10
20.0893707596513
20
-1.76588160983724
30
0
41
1
10
20.0933821521168
20
-1.75907621835938
30
0
41
1
10
20.0952590101678
20
-1.75516783371358
30
0
41
1
10
20.0985095415406
20
-1.74592968302392
30
0
41
1
10
20.0998908655114
20
-1.74051434116439
30
0
41
1
10
20.1012205134097
20
-1.73133512499831
30
0
41
1
10
20.1015431651036
20
-1.72806420266855
30
0
41
1
10
20.1019005310672
20
-1.72143088979962
30
0
41
1
10
20.1019418125445
20
-1.71803089127786
30
0
41
1
10
20.1018505401549
20
-1.71455049104719
30
0
0
SPLINE
5
FB
100
AcDbEntity
8
1
62
256
6
ByLayer
370
18
48
1
60
0
100
AcDbSpline
70
4
71
3
72
36
73
32
40
0
40
0
40
0
40
0
40
0.125000000000009
40
0.125000000000009
40
0.187500000000014
40
0.187500000000014
40
0.250000000000018
40
0.250000000000018
40
0.375000000000027
40
0.375000000000027
40
0.500000000000037
40
0.500000000000037
40
0.625000000000046
40
0.625000000000046
40
0.750000000000055
40
0.750000000000055
40
0.812500000000059
40
0.812500000000059
40
0.875000000000063
40
0.875000000000063
40
0.906250000000066
40
0.906250000000066
40
0.937500000000068
40
0.937500000000068
40
0.953125000000051
40
0.953125000000051
40
0.968750000000034
40
0.968750000000034
40
0.984375000000017
40
0.984375000000017
40
1
40
1
40
1
40
1
41
1
10
19.8288782111874
20
-0.106794351530993
30
0
41
1
10
19.8293064391843
20
-0.121729814763086
30
0
41
1
10
19.8325204296423
20
-0.136264892212665
30
0
41
1
10
19.839874380934
20
-0.157699805332584
30
0
41
1
10
19.8427664536455
20
-0.164780833548235
30
0
41
1
10
19.8492993818535
20
-0.178833473134262
30
0
41
1
10
19.8529422415996
20
-0.18580022404575
30
0
41
1
10
19.8646530126546
20
-0.206231285766762
30
0
41
1
10
19.8735478154394
20
-0.219357794185157
30
0
41
1
10
19.8929672876427
20
-0.244861019139819
30
0
41
1
10
19.9034991493667
20
-0.257234774314952
30
0
41
1
10
19.9259320023347
20
-0.281335445341568
30
0
41
1
10
19.9378523573355
20
-0.29307151118411
30
0
41
1
10
19.9625930258013
20
-0.315638192117746
30
0
41
1
10
19.9754507732974
20
-0.326516156411998
30
0
41
1
10
19.9954033434847
20
-0.342166210073145
30
0
41
1
10
20.0021657044738
20
-0.347271094098204
30
0
41
1
10
20.0159114461619
20
-0.357192533933727
30
0
41
1
10
20.0228940713526
20
-0.36201794544283
30
0
41
1
10
20.033543875236
20
-0.368871365688875
30
0
41
1
10
20.0371231681102
20
-0.371090983371175
30
0
41
1
10
20.0443491965091
20
-0.375297634665145
30
0
41
1
10
20.0480185214046
20
-0.377304992834638
30
0
41
1
10
20.0535034690613
20
-0.379875585522626
30
0
41
1
10
20.0553240347539
20
-0.38065515531153
30
0
41
1
10
20.0589321963851
20
-0.381958232518088
30
0
41
1
10
20.0607330842291
20
-0.38248285786463
30
0
41
1
10
20.0641448885427
20
-0.383077232880055
30
0
41
1
10
20.0657836162915
20
-0.383145715160651
30
0
41
1
10
20.0687459816163
20
-0.382696794511759
30
0
41
1
10
20.0700421622188
20
-0.382191374636335
30
0
41
1
10
20.0711964535158
20
-0.381455263736712
30
0
0
SPLINE
5
FC
100
AcDbEntity
8
1
62
256
6
ByLayer
370
18
48
1
60
0
100
AcDbSpline
70
4
71
3
72
18
73
14
40
0
40
0
40
0
40
0
40
0.250000000000011
40
0.250000000000011
40
0.375000000000009
40
0.375000000000009
40
0.500000000000008
40
0.500000000000008
40
0.750000000000004
40
0.750000000000004
40
0.875000000000002
40
0.875000000000002
40
1
40
1
40
1
40
1
41
1
10
19.0110960825772
20
-0.16913576937813
30
0
41
1
10
19.0099940640435
20
-0.156264626949707
30
0
41
1
10
19.0105231240747
20
-0.143328487906842
30
0
41
1
10
19.013042662853
20
-0.123604062171353
30
0
41
1
10
19.0141858101983
20
-0.116947037589398
30
0
41
1
10
19.0169747772526
20
-0.103694845976776
30
0
41
1
10
19.0186183895432
20
-0.0970950654078422
30
0
41
1
10
19.0242209488449
20
-0.0773443487028658
30
0
41
1
10
19.0288416970925
20
-0.0642395274657304
30
0
41
1
10
19.0370326689281
20
-0.0446224626305707
30
0
41
1
10
19.0399816725589
20
-0.0380821023025248
30
0
41
1
10
19.0462270356506
20
-0.0252022222778123
30
0
41
1
10
19.0495322525005
20
-0.0188397919310717
30
0
41
1
10
19.053024252702
20
-0.0125568930969564
30
0
0
SPLINE
5
FD
100
AcDbEntity
8
1
62
256
6
ByLayer
370
18
48
1
60
0
100
AcDbSpline
70
4
71
3
72
8
73
4
40
0
40
0
40
0
40
0
40
1
40
1
40
1
40
1
41
1
10
9.84994730928233
20
-1.11662804433908
30
0
41
1
10
9.78097277027357
20
-1.114850071483
30
0
41
1
10
9.71199823126475
20
-1.11206188817047
30
0
41
1
10
9.6430236922559
20
-1.10826326745095
30
0
0
SPLINE
5
FE
100
AcDbEntity
8
1
62
256
6
ByLayer
370
18
48
1
60
0
100
AcDbSpline
70
4
71
3
72
8
73
4
40
0
40
0
40
0
40
0
40
1
40
1
40
1
40
1
41
1
10
8.22461279501093
20
-0.895483023367746
30
0
41
1
10
8.19670357748885
20
-0.888800147857069
30
0
41
1
10
8.16879435996677
20
-0.881978993966243
30
0
41
1
10
8.14088514244466
20
-0.875021167165784
30
0
0
SPLINE
5
FF
100
AcDbEntity
8
1
62
256
6
ByLayer
370
18
48
1
60
0
100
AcDbSpline
70
4
71
3
72
8
73
4
40
0
40
0
40
0
40
0
40
1
40
1
40
1
40
1
41
1
10
19.750746357605
20
-0.872919357719042
30
0
41
1
10
19.7534031327384
20
-0.968895771073221
30
0
41
1
10
19.758173372567
20
-1.06479771937418
30
0
41
1
10
19.7652436320843
20
-1.16061863008821
30
0
0
SPLINE
5
100
100
AcDbEntity
8
1
62
256
6
ByLayer
370
18
48
1
60
0
100
AcDbSpline
70
4
71
3
72
16
73
12
40
0
40
0
40
0
40
0
40
0.249999999999981
40
0.249999999999981
40
0.374999999999979
40
0.374999999999979
40
0.499999999999977
40
0.499999999999977
40
0.749999999999988
40
0.749999999999988
40
1
40
1
40
1
40
1
41
1
10
19.0338497530135
20
-0.222316129773674
30
0
41
1
10
19.0840419261554
20
-0.285155672456966
30
0
41
1
10
19.137949998169
20
-0.345688699086622
30
0
41
1
10
19.2232274038553
20
-0.43374759530181
30
0
41
1
10
19.2523952213185
20
-0.462639980137936
30
0
41
1
10
19.3120820784392
20
-0.519586025239249
30
0
41
1
10
19.3422932556195
20
-0.547346491911526
30
0
41
1
10
19.4337550136274
20
-0.628653027138739
30
0
41
1
10
19.495888593673
20
-0.680298423894101
30
0
41
1
10
19.6219986511273
20
-0.779520540274831
30
0
41
1
10
19.6859789542152
20
-0.82708881371471
30
0
41
1
10
19.7507463576048
20
-0.872919357717876
30
0
0
SPLINE
5
101
100
AcDbEntity
8
1
62
256
6
ByLayer
370
18
48
1
60
0
100
AcDbSpline
70
4
71
3
72
12
73
8
40
0
40
0
40
0
40
0
40
0.500000000000001
40
0.500000000000001
40
0.75
40
0.75
40
1
40
1
40
1
40
1
41
1
10
19.0338497530136
20
-0.222316129773645
30
0
41
1
10
19.0274557040871
20
-0.214310915309255
30
0
41
1
10
19.0221600623702
20
-0.205853943837667
30
0
41
1
10
19.0162665683424
20
-0.192321836631294
30
0
41
1
10
19.0146674254595
20
-0.187700610865505
30
0
41
1
10
19.0122901232185
20
-0.178463751329304
30
0
41
1
10
19.0114967484932
20
-0.173815273287829
30
0
41
1
10
19.0110960825729
20
-0.169135769376339
30
0
0
SPLINE
5
102
100
AcDbEntity
8
1
62
256
6
ByLayer
370
13
48
1
60
0
100
AcDbSpline
70
4
71
3
72
14
73
10
40
0
40
0
40
0
40
0
40
0.12763044272775
40
0.256911916705193
40
0.386193390682638
40
0.515474864660081
40
0.709397075626247
40
0.903319286592413
40
1
40
1
40
1
40
1
41
1
10
19.0110960825772
20
-0.16913576937813
30
0
41
1
10
18.8876924358663
20
-0.118682696782912
30
0
41
1
10
18.6392887891555
20
-0.0161931923255167
30
0
41
1
10
18.2658851424447
20
0.139838421433097
30
0
41
1
10
17.8908851424447
20
0.294742481447884
30
0
41
0.999999999999999
10
17.4533851424447
20
0.467153665412326
30
0
41
1
10
16.9533851424446
20
0.652274833252619
30
0
41
1
10
16.484906248647
20
0.805639248619571
30
0
41
1
10
16.2039273548492
20
0.884580746819609
30
0
41
1
10
16.1104484610516
20
0.909310010877619
30
0
0
SPLINE
5
103
100
AcDbEntity
8
1
62
256
6
ByLayer
370
18
48
1
60
0
100
AcDbSpline
70
4
71
3
72
16
73
12
40
0
40
0
40
0
40
0
40
0.25
40
0.25
40
0.5
40
0.5
40
0.625
40
0.625
40
0.75
40
0.75
40
1
40
1
40
1
40
1
41
1
10
19.8117088182063
20
1.05495890288287
30
0
41
1
10
19.8211521388451
20
1.0349885530301
30
0
41
1
10
19.8312996898403
20
1.01289411412014
30
0
41
1
10
19.8528036446054
20
0.964991872658743
30
0
41
1
10
19.8640704560918
20
0.939384773349133
30
0
41
1
10
19.8816830659241
20
0.898682693258593
30
0
41
1
10
19.8876642205183
20
0.884752017427758
30
0
41
1
10
19.8997670314674
20
0.856359572476492
30
0
41
1
10
19.90589895352
20
0.841874117008899
30
0
41
1
10
19.9245278703831
20
0.797580222761582
30
0
41
1
10
19.9372569594939
20
0.766938050972612
30
0
41
1
10
19.9502876245896
20
0.735212552911321
30
0
0
SPLINE
5
104
100
AcDbEntity
8
1
62
256
6
ByLayer
370
18
48
1
60
0
100
AcDbSpline
70
4
71
3
72
8
73
4
40
0
40
0
40
0
40
0
40
1
40
1
40
1
40
1
41
1
10
19.7169326940044
20
1.10975934881225
30
0
41
1
10
19.7485891412264
20
1.09201620538374
30
0
41
1
10
19.7801807717166
20
1.07374606429173
30
0
41
1
10
19.8117088182063
20
1.05495890288287
30
0
0
SPLINE
5
105
100
AcDbEntity
8
1
62
256
6
ByLayer
370
18
48
1
60
0
100
AcDbSpline
70
4
71
3
72
10
73
6
40
0
40
0
40
0
40
0
40
0.248566659079981
40
0.820339064691994
40
1
40
1
40
1
40
1
41
1
10
19.7169326964718
20
1.10975935143162
30
0
41
1
10
19.6082501784627
20
1.15924964593793
30
0
41
1
10
19.2495676604537
20
1.31395712463333
30
0
41
1
10
18.8123307501967
20
1.46592372432454
30
0
41
1
10
18.4837763579488
20
1.54578363083212
30
0
41
1
10
18.4052219657009
20
1.56293736835951
30
0
0
SPLINE
5
106
100
AcDbEntity
8
1
62
256
6
ByLayer
370
18
48
1
60
0
100
AcDbSpline
70
4
71
3
72
9
73
5
40
0
40
0
40
0
40
0
40
0.391498112335779
40
1
40
1
40
1
40
1
41
1
10
10.4381877735866
20
-1.36656149585264
30
0
41
1
10
10.4224202298726
20
-1.37211711901685
30
0
41
1
10
10.3821453390949
20
-1.38613566985043
30
0
41
1
10
10.3418704483173
20
-1.39970914367691
30
0
41
1
10
10.3173631012535
20
-1.40780162734569
30
0
0
SPLINE
5
107
100
AcDbEntity
8
1
62
256
6
ByLayer
370
18
48
1
60
0
100
AcDbSpline
70
4
71
3
72
8
73
4
40
0
40
0
40
0
40
0
40
1
40
1
40
1
40
1
41
1
10
9.50342185403935
20
-1.61218801219567
30
0
41
1
10
9.04924295017443
20
-1.68869791609774
30
0
41
1
10
8.59506404630957
20
-1.70008255961636
30
0
41
1
10
8.14088514244466
20
-1.63824693794925
30
0
0
SPLINE
5
108
100
AcDbEntity
8
1
62
256
6
ByLayer
370
13
48
1
60
0
100
AcDbSpline
70
4
71
3
72
13
73
9
40
0
40
0
40
0
40
0
40
0.0855408157780186
40
0.237950679815015
40
0.390360543852012
40
0.542770407889009
40
0.695180271926006
40
1
40
1
40
1
40
1
41
1
10
13.0618264787478
20
-1.0161989983248
30
0
41
1
10
12.9215126999801
20
-0.985883201191115
30
0
41
1
10
12.5311989212124
20
-0.888816149445261
30
0
41
1
10
11.8908851424447
20
-0.6764127603752
30
0
41
1
10
11.1408851424447
20
-0.374970293501036
30
0
41
1
10
10.3908851424446
20
-0.0403306370337475
30
0
41
0.999999999999999
10
9.39088514244469
20
0.403951484811046
30
0
41
1
10
8.64088514244469
20
0.697406546203581
30
0
41
1
10
8.14088514244466
20
0.840272854592001
30
0
0
SPLINE
5
109
100
AcDbEntity
8
1
62
256
6
ByLayer
370
13
48
1
60
0
100
AcDbSpline
70
4
71
3
72
18
73
14
40
0
40
0
40
0
40
0
40
0.0264333958152282
40
0.133145486482587
40
0.275428274039065
40
0.417711061595543
40
0.524423152262902
40
0.63113524293026
40
0.7022766367085
40
0.773418030486739
40
0.880130121154097
40
0.986842211821456
40
1
40
1
40
1
40
1
41
1
10
17.0927206671549
20
-0.915912870801776
30
0
41
1
10
17.0462754922515
20
-0.90479129045778
30
0
41
1
10
16.812330317348
20
-0.846628036980945
30
0
41
1
10
16.3283851424447
20
-0.704346711100982
30
0
41
1
10
15.6408851424447
20
-0.459205903633631
30
0
41
1
10
14.9533851424447
20
-0.17998830633249
30
0
41
1
10
14.3283851424447
20
0.0819098629357313
30
0
41
0.999999999999999
10
13.8283851424447
20
0.289120925704168
30
0
41
1
10
13.3908851424447
20
0.46180849469124
30
0
41
1
10
12.9533851424447
20
0.624089239949086
30
0
41
1
10
12.4533851424447
20
0.790185858699317
30
0
41
1
10
12.0552660631721
20
0.898741168824642
30
0
41
1
10
11.8446469838996
20
0.947484349466918
30
0
41
1
10
11.821527904627
20
0.952728804470467
30
0
0
SPLINE
5
10A
100
AcDbEntity
8
1
62
256
6
ByLayer
370
18
48
1
60
0
100
AcDbSpline
70
4
71
3
72
14
73
10
40
0
40
0
40
0
40
0
40
0.25
40
0.25
40
0.5
40
0.5
40
0.75
40
0.75
40
1
40
1
40
1
40
1
41
1
10
19.9502876246315
20
0.735212552918853
30
0
41
1
10
19.9535062450166
20
0.727376326977065
30
0
41
1
10
19.9566391601082
20
0.719855489279269
30
0
41
1
10
19.9627153612217
20
0.705511633526953
30
0
41
1
10
19.9656219838435
20
0.698776009467508
30
0
41
1
10
19.9710603274294
20
0.686472578053127
30
0
41
1
10
19.9736056126536
20
0.680871070788214
30
0
41
1
10
19.9782351671716
20
0.671126793768593
30
0
41
1
10
19.9802536854961
20
0.667123737838949
30
0
41
1
10
19.9818450800452
20
0.664342524869795
30
0
0
SPLINE
5
10B
100
AcDbEntity
8
1
62
256
6
ByLayer
370
13
48
1
60
0
100
AcDbSpline
70
4
71
3
72
9
73
5
40
0
40
0
40
0
40
0
40
0.612574881023052
40
1
40
1
40
1
40
1
41
1
10
19.9502876246496
20
0.735212552946393
30
0
41
1
10
19.7638201305813
20
0.843375924684068
30
0
41
1
10
19.4594206198522
20
1.01062866026839
30
0
41
1
10
19.1550211091232
20
1.1604413459456
30
0
41
1
10
19.0370890924624
20
1.21515436168812
30
0
0
SPLINE
5
10C
100
AcDbEntity
8
1
62
256
6
ByLayer
370
18
48
1
60
0
100
AcDbSpline
70
4
71
3
72
8
73
4
40
0
40
0
40
0
40
0
40
1
40
1
40
1
40
1
41
1
10
19.0370882250152
20
1.21515476412887
30
0
41
1
10
18.9972929700688
20
1.23361724634995
30
0
41
1
10
18.9574977151223
20
1.25170075719814
30
0
41
1
10
18.9177024601759
20
1.26937799815076
30
0
0
SPLINE
5
10D
100
AcDbEntity
8
1
62
256
6
ByLayer
370
13
48
1
60
0
100
AcDbSpline
70
4
71
3
72
8
73
4
40
0
40
0
40
0
40
0
40
1
40
1
40
1
40
1
41
1
10
8.5924105379213
20
-1.73806251135176
30
0
41
1
10
8.44190207276239
20
-1.75302259745644
30
0
41
1
10
8.29139360760351
20
-1.7600391590812
30
0
41
1
10
8.14088514244463
20
-1.75861031008731
30
0
0
SPLINE
5
10E
100
AcDbEntity
8
1
62
256
6
ByLayer
370
18
48
1
60
0
100
AcDbSpline
70
4
71
3
72
39
73
35
40
0
40
0
40
0
40
0
40
0.0980584428213755
40
0.0980584428213755
40
0.147087664232063
40
0.147087664232063
40
0.196116885642752
40
0.196116885642752
40
0.24514610705344
40
0.24514610705344
40
0.269660717758784
40
0.269660717758784
40
0.294175328464129
40
0.294175328464129
40
0.392233771285506
40
0.392233771285506
40
0.441262992696189
40
0.441262992696189
40
0.490292214106873
40
0.539321435517556
40
0.539321435517556
40
0.58835065692824
40
0.58835065692824
40
0.686409099749589
40
0.686409099749589
40
0.784467542570938
40
0.784467542570938
40
0.833496763981613
40
0.833496763981613
40
0.882525985392287
40
0.882525985392287
40
0.980584428213657
40
0.980584428213657
40
1
40
1
40
1
40
1
41
1
10
19.9991764369631
20
1.85845018066615
30
0
41
1
10
20.0102120150272
20
1.82909828193846
30
0
41
1
10
20.0190179627705
20
1.79921296453165
30
0
41
1
10
20.0279693130432
20
1.75336639974657
30
0
41
1
10
20.030238630217
20
1.73791328162164
30
0
41
1
10
20.0331102822995
20
1.70660823430035
30
0
41
1
10
20.0336911395954
20
1.6908943454965
30
0
41
1
10
20.0329781669167
20
1.65972054821103
30
0
41
1
10
20.031690182998
20
1.64420409355364
30
0
41
1
10
20.0282410302852
20
1.62104414721875
30
0
41
1
10
20.0268381873258
20
1.61334330757344
30
0
41
1
10
20.0235028616728
20
1.59798168199231
30
0
41
1
10
20.0215607381491
20
1.59029111820485
30
0
41
1
10
20.0106184716513
20
1.55245107090605
30
0
41
1
10
19.9979348570376
20
1.52397595303916
30
0
41
1
10
19.9735146388742
20
1.48373007190872
30
0
41
1
10
19.9644182582631
20
1.47067120810769
30
0
41
1
10
19.9450352816492
20
1.44596839485865
30
0
41
1
10
19.9243834397335
20
1.42251384173321
30
0
41
1
10
19.9015491347724
20
1.40120631051545
30
0
41
1
10
19.8777627259955
20
1.38083542184327
30
0
41
1
10
19.8653473252755
20
1.37108574644037
30
0
41
1
10
19.82719201884
20
1.34332405567287
30
0
41
1
10
19.800699352479
20
1.3268543454331
30
0
41
1
10
19.7462161557079
20
1.296806367881
30
0
41
1
10
19.7182198800511
20
1.28323919106367
30
0
41
1
10
19.6753698271376
20
1.26454013286812
30
0
41
1
10
19.6609424943298
20
1.25858505275491
30
0
41
1
10
19.6318329494722
20
1.24716690566163
30
0
41
1
10
19.6171354467096
20
1.24169928262026
30
0
41
1
10
19.5729826200998
20
1.22605138783467
30
0
41
1
10
19.5433799365197
20
1.21658370287724
30
0
41
1
10
19.5077598087042
20
1.20614029227977
30
0
41
1
10
19.501867625177
20
1.20444333299054
30
0
41
1
10
19.4959705545481
20
1.20277451295036
30
0
0
SPLINE
5
10F
100
AcDbEntity
8
1
62
256
6
ByLayer
370
18
48
1
60
0
100
AcDbSpline
70
4
71
3
72
9
73
5
40
0
40
0
40
0
40
0
40
0.253880419356824
40
1
40
1
40
1
40
1
41
1
10
9.58782273423873
20
-1.07459860062784
30
0
41
1
10
9.60551020364071
20
-1.07608510582765
30
0
41
1
10
9.67517870917882
20
-1.08168588873787
30
0
41
1
10
9.74484721471697
20
-1.08627732562809
30
0
41
1
10
9.79682825085317
20
-1.08913962498949
30
0
0
SPLINE
5
110
100
AcDbEntity
8
1
62
256
6
ByLayer
370
18
48
1
60
0
100
AcDbSpline
70
4
71
3
72
15
73
11
40
0
40
0
40
0
40
0
40
0.0382563578431068
40
0.134430722058796
40
0.230605086274486
40
0.358837571895404
40
0.487070057516323
40
0.615302543137243
40
0.743535028758162
40
1
40
1
40
1
40
1
41
1
10
13.9896370898814
20
-1.55006199160391
30
0
41
1
10
13.9150531074025
20
-1.56388693094374
30
0
41
1
10
13.6529691249235
20
-1.60663792316495
30
0
41
1
10
13.2033851424447
20
-1.64452341682542
30
0
41
1
10
12.5783851424446
20
-1.62649522280736
30
0
41
1
10
11.8908851424447
20
-1.51030390541825
30
0
41
1
10
11.1408851424447
20
-1.27719737338631
30
0
41
1
10
10.3908851424446
20
-0.953838198252356
30
0
41
0.999999999999999
10
9.39088514244469
20
-0.431091470323907
30
0
41
1
10
8.64088514244469
20
0.0196665445664905
30
0
41
1
10
8.14088514244466
20
0.307539958077172
30
0
0
SPLINE
5
111
100
AcDbEntity
8
1
62
256
6
ByLayer
370
18
48
1
60
0
100
AcDbSpline
70
4
71
3
72
23
73
19
40
0
40
0
40
0
40
0
40
0.0013168889705319
40
0.0471214944132183
40
0.0929260998559048
40
0.161633008019934
40
0.230339916183964
40
0.321949127069337
40
0.41355833795471
40
0.48226524611874
40
0.550972154282769
40
0.596776759725456
40
0.642581365168142
40
0.711288273332172
40
0.779995181496202
40
0.871604392381575
40
0.963213603266948
40
1
40
1
40
1
40
1
41
1
10
18.2766664461842
20
-1.54946622174887
30
0
41
1
10
18.273072678271
20
-1.55030090370863
30
0
41
1
10
18.1444789103578
20
-1.58000545265406
30
0
41
1
10
17.8908851424447
20
-1.62711014062955
30
0
41
0.999999999999999
10
17.4533851424447
20
-1.67348625088283
30
0
41
1
10
16.9533851424446
20
-1.66741894453688
30
0
41
1
10
16.3283851424447
20
-1.57034484572719
30
0
41
1
10
15.6408851424446
20
-1.36051204675988
30
0
41
1
10
14.9533851424447
20
-1.04996657167058
30
0
41
1
10
14.3283851424447
20
-0.708613775250398
30
0
41
0.999999999999999
10
13.8283851424447
20
-0.400769819688321
30
0
41
1
10
13.3908851424447
20
-0.120554202003319
30
0
41
1
10
12.9533851424447
20
0.157669560375581
30
0
41
1
10
12.4533851424447
20
0.472454438399552
30
0
41
1
10
11.8283851424446
20
0.845917497759018
30
0
41
1
10
11.1408851424447
20
1.20052497486392
30
0
41
1
10
10.5404956827562
20
1.43162826565583
30
0
41
1
10
10.1901062230678
20
1.52590500202549
30
0
41
1
10
10.0897167633794
20
1.54948241486113
30
0
0
SPLINE
5
112
100
AcDbEntity
8
1
62
256
6
ByLayer
370
18
48
1
60
0
100
AcDbSpline
70
4
71
3
72
22
73
18
40
0
40
0
40
0
40
0
40
0.250000000000016
40
0.250000000000016
40
0.312500000000016
40
0.312500000000016
40
0.375000000000017
40
0.375000000000017
40
0.50000000000002
40
0.50000000000002
40
0.625000000000022
40
0.625000000000022
40
0.687500000000023
40
0.687500000000023
40
0.750000000000024
40
0.750000000000024
40
1
40
1
40
1
40
1
41
1
10
19.7652436346254
20
-1.16061863021014
30
0
41
1
10
19.7741510686315
20
-1.21368562783573
30
0
41
1
10
19.7852607093761
20
-1.26297617552055
30
0
41
1
10
19.8014077276149
20
-1.32071386515008
30
0
41
1
10
19.8047522528091
20
-1.33206398724408
30
0
41
1
10
19.8116666436681
20
-1.35437780701423
30
0
41
1
10
19.8152464344074
20
-1.3653699263848
30
0
41
1
10
19.8262413092881
20
-1.39754699088729
30
0
41
1
10
19.833889363199
20
-1.41788690887122
30
0
41
1
10
19.8497655097799
20
-1.45654029627502
30
0
41
1
10
19.8579938887138
20
-1.47485276559115
30
0
41
1
10
19.8707491262807
20
-1.50087975067052
30
0
41
1
10
19.875069824633
20
-1.50931451693094
30
0
41
1
10
19.8838472385798
20
-1.52570885371566
30
0
41
1
10
19.8883078828787
20
-1.53367387912439
30
0
41
1
10
19.9107899772943
20
-1.57205788948451
30
0
41
1
10
19.9294569723612
20
-1.59842543827006
30
0
41
1
10
19.9487611991316
20
-1.62073414476649
30
0
0
SPLINE
5
113
100
AcDbEntity
8
1
62
256
6
ByLayer
370
18
48
1
60
0
100
AcDbSpline
70
4
71
3
72
18
73
14
40
0
40
0
40
0
40
0
40
0.0768006195093245
40
0.153732845897884
40
0.230665072286443
40
0.307597298675003
40
0.384529525063562
40
0.461461751452121
40
0.57686009103496
40
0.692258430617799
40
0.846122883394918
40
0.999987336172037
40
1
40
1
40
1
40
1
41
1
10
19.7652436352112
20
-1.16061862977793
30
0
41
1
10
19.6404574709557
20
-1.10908886647689
30
0
41
1
10
19.3906713067002
20
-0.998404072993509
30
0
41
1
10
19.0158851424447
20
-0.812565041343987
30
0
41
1
10
18.6408851424447
20
-0.610303626214915
30
0
41
1
10
18.2658851424447
20
-0.397342185135074
30
0
41
1
10
17.8908851424447
20
-0.177863087871828
30
0
41
0.999999999999999
10
17.4533851424447
20
0.0870186433905929
30
0
41
1
10
16.9533851424446
20
0.386932465609078
30
0
41
1
10
16.3283851424447
20
0.73861230122813
30
0
41
1
10
15.6408851424447
20
1.08311630773565
30
0
41
1
10
15.1408645661717
20
1.27867766530463
30
0
41
1
10
14.8908439898986
20
1.35885900146695
30
0
41
1
10
14.8908234136256
20
1.35886560013685
30
0
0
SPLINE
5
114
100
AcDbEntity
8
1
62
256
6
ByLayer
370
18
48
1
60
0
100
AcDbSpline
70
4
71
3
72
12
73
8
40
0
40
0
40
0
40
0
40
0.138030549507587
40
0.31042443960607
40
0.482818329704553
40
0.655212219803035
40
1
40
1
40
1
40
1
41
1
10
12.4913873532338
20
-1.75631648735268
30
0
41
1
10
12.2912199496374
20
-1.76279588545924
30
0
41
1
10
11.841052546041
20
-1.74744295824155
30
0
41
1
10
11.1408851424446
20
-1.61722800456519
30
0
41
1
10
10.3908851424446
20
-1.36394834961467
30
0
41
0.999999999999999
10
9.39088514244464
20
-0.897819609360767
30
0
41
1
10
8.6408851424446
20
-0.435825294901633
30
0
41
1
10
8.14088514244463
20
-0.123634648918824
30
0
0
SPLINE
5
115
100
AcDbEntity
8
1
62
256
6
ByLayer
370
18
48
1
60
0
100
AcDbSpline
70
4
71
3
72
14
73
10
40
0
40
0
40
0
40
0
40
0.25
40
0.25
40
0.5
40
0.5
40
0.75
40
0.75
40
1
40
1
40
1
40
1
41
1
10
19.9487611998869
20
-1.62073414454369
30
0
41
1
10
19.9519970544791
20
-1.62447360584721
30
0
41
1
10
19.9551472785307
20
-1.62878610411923
30
0
41
1
10
19.9612578980316
20
-1.63868144795313
30
0
41
1
10
19.9641845837111
20
-1.64421563244318
30
0
41
1
10
19.9696596533254
20
-1.65646194819263
30
0
41
1
10
19.9722227860364
20
-1.6631870499628
30
0
41
1
10
19.9768852214789
20
-1.67823814955949
30
0
41
1
10
19.9789246537053
20
-1.68638279379695
30
0
41
1
10
19.9805280634278
20
-1.69518683577513
30
0
0
SPLINE
5
116
100
AcDbEntity
8
1
62
256
6
ByLayer
370
13
48
1
60
0
100
AcDbSpline
70
4
71
3
72
17
73
13
40
0
40
0
40
0
40
0
40
0.110707354228005
40
0.185123987199726
40
0.259540620171446
40
0.333957253143167
40
0.408373886114888
40
0.482790519086608
40
0.594415468544189
40
0.70604041800177
40
0.854873683945211
40
1
40
1
40
1
40
1
41
1
10
19.9487612002243
20
-1.62073414441349
30
0
41
1
10
19.7628025142977
20
-1.57333541079896
30
0
41
1
10
19.4518438283712
20
-1.47450353834583
30
0
41
1
10
19.0158851424446
20
-1.29470847694381
30
0
41
1
10
18.6408851424446
20
-1.11387951959463
30
0
41
1
10
18.2658851424446
20
-0.913197434572595
30
0
41
1
10
17.8908851424446
20
-0.697439934279089
30
0
41
0.999999999999999
10
17.4533851424447
20
-0.42068315035391
30
0
41
1
10
16.9533851424446
20
-0.0911473203528884
30
0
41
1
10
16.3283851424446
20
0.315675617830664
30
0
41
1
10
15.6471118248082
20
0.747232278030708
30
0
41
1
10
15.1533385071718
20
1.0238683685937
30
0
41
1
10
14.9095651895354
20
1.14572080836692
30
0
0
SPLINE
5
117
100
AcDbEntity
8
1
62
256
6
ByLayer
370
18
48
1
60
0
100
AcDbSpline
70
4
71
3
72
9
73
5
40
0
40
0
40
0
40
0
40
0.126404317039395
40
1
40
1
40
1
40
1
41
1
10
14.909565500971
20
1.14572065269286
30
0
41
1
10
14.9033387147955
20
1.14883317203194
30
0
41
1
10
14.8540778483846
20
1.17338070552296
30
0
41
1
10
14.8048169819737
20
1.19732092807146
30
0
41
1
10
14.7617829017382
20
1.21775105765576
30
0
0
SPLINE
5
118
100
AcDbEntity
8
1
62
256
6
ByLayer
370
13
48
1
60
0
100
AcDbSpline
70
4
71
3
72
18
73
14
40
0
40
0
40
0
40
0
40
0.075960838113441
40
0.195913382249918
40
0.315865926386394
40
0.405830334488752
40
0.495794742591109
40
0.555771014659348
40
0.615747286727586
40
0.705711694829944
40
0.795676102932301
40
0.915628647068778
40
1
40
1
40
1
40
1
41
1
10
16.8658282042629
20
-1.75609167764151
30
0
41
1
10
16.7075138503235
20
-1.76205148718344
30
0
41
1
10
16.2991994963841
20
-1.75229708589637
30
0
41
1
10
15.6408851424446
20
-1.63445866310406
30
0
41
1
10
14.9533851424446
20
-1.38548589644734
30
0
41
1
10
14.3283851424446
20
-1.07815727048154
30
0
41
0.999999999999999
10
13.8283851424446
20
-0.789282286254207
30
0
41
1
10
13.3908851424446
20
-0.51151095133838
30
0
41
1
10
12.9533851424446
20
-0.22305695792474
30
0
41
1
10
12.4533851424446
20
0.113666426703276
30
0
41
1
10
11.8283851424446
20
0.53289191002051
30
0
41
1
10
11.2150419505837
20
0.914524741820856
30
0
41
1
10
10.7891987587226
20
1.14083495294798
30
0
41
1
10
10.6133555668616
20
1.22587605756158
30
0
0
SPLINE
5
119
100
AcDbEntity
8
1
62
256
6
ByLayer
370
13
48
1
60
0
100
AcDbSpline
70
4
71
3
72
15
73
11
40
0
40
0
40
0
40
0
40
0.157574212846788
40
0.335575619102329
40
0.513577025357869
40
0.632244629528229
40
0.75091223369859
40
0.86957983786895
40
0.98824744203931
40
1
40
1
40
1
40
1
41
1
10
15.8929368588279
20
0.997854835327814
30
0
41
1
10
16.0589196200335
20
0.9699713941082
30
0
41
1
10
16.4124023812391
20
0.899024518634008
30
0
41
1
10
16.9533851424446
20
0.755793524923063
30
0
41
0.999999999999999
10
17.4533851424447
20
0.596064582801404
30
0
41
1
10
17.8908851424447
20
0.440635513507573
30
0
41
1
10
18.2658851424447
20
0.29898918006819
30
0
41
1
10
18.6408851424447
20
0.151844690176546
30
0
41
1
10
18.9032648458638
20
0.0472175631426808
30
0
41
1
10
19.0406445492829
20
-0.0076157213420061
30
0
41
1
10
19.053024252702
20
-0.0125568930969848
30
0
0
SPLINE
5
11A
100
AcDbEntity
8
1
62
256
6
ByLayer
370
18
48
1
60
0
100
AcDbSpline
70
4
71
3
72
23
73
19
40
0
40
0
40
0
40
0
40
0.125
40
0.125
40
0.25
40
0.25
40
0.375
40
0.375
40
0.5
40
0.5
40
0.5625
40
0.5625
40
0.625
40
0.75
40
0.75
40
0.875
40
0.875
40
1
40
1
40
1
40
1
41
1
10
19.0530242527019
20
-0.0125568930969564
30
0
41
1
10
19.0592006781059
20
-0.0014442456194956
30
0
41
1
10
19.0661630210289
20
0.0090042657012077
30
0
41
1
10
19.081496443933
20
0.0287075847293465
30
0
41
1
10
19.0898695675989
20
0.0379607481057747
30
0
41
1
10
19.1080324092239
20
0.055272329534148
30
0
41
1
10
19.1176898511574
20
0.0631907949875199
30
0
41
1
10
19.1378318128178
20
0.077398722540579
30
0
41
1
10
19.1483610040651
20
0.0837293162475135
30
0
41
1
10
19.1648633926501
20
0.0920709995320976
30
0
41
1
10
19.1704939634747
20
0.094661325479251
30
0
41
1
10
19.1818303620612
20
0.0993847402318124
30
0
41
1
10
19.1990050549591
20
0.105814882489255
30
0
41
1
10
19.2166920505682
20
0.110358613468918
30
0
41
1
10
19.2407502860926
20
0.114811379657141
30
0
41
1
10
19.2530606482493
20
0.11622928040228
30
0
41
1
10
19.2776739404962
20
0.117476710441593
30
0
41
1
10
19.290032630428
20
0.117321847779067
30
0
41
1
10
19.3024542423693
20
0.116444304901563
30
0
0
SPLINE
5
11B
100
AcDbEntity
8
1
62
256
6
ByLayer
370
13
48
1
60
0
100
AcDbSpline
70
4
71
3
72
17
73
13
40
0
40
0
40
0
40
0
40
0.0284015040123267
40
0.137368683254635
40
0.246335862496942
40
0.318980648658481
40
0.391625434820019
40
0.500592614062328
40
0.609559793304635
40
0.754849365627713
40
0.90013893795079
40
1
40
1
40
1
40
1
41
1
10
11.7442736019972
20
0.991426537408813
30
0
41
1
10
11.7931441154797
20
0.982733767069476
30
0
41
1
10
12.0295146289622
20
0.938277075840488
30
0
41
1
10
12.4533851424447
20
0.838019420531821
30
0
41
1
10
12.9533851424447
20
0.687588807110302
30
0
41
1
10
13.3908851424447
20
0.536800179666215
30
0
41
0.999999999999999
10
13.8283851424447
20
0.373419130070204
30
0
41
1
10
14.3283851424447
20
0.173941877656944
30
0
41
1
10
14.9533851424447
20
-0.0832864983657089
30
0
41
1
10
15.6408851424447
20
-0.363865192860317
30
0
41
1
10
16.3127162319931
20
-0.611370621200735
30
0
41
1
10
16.7345473215416
20
-0.743851563051777
30
0
41
1
10
16.90637841109
20
-0.792817394469466
30
0
0
SPLINE
5
11C
100
AcDbEntity
8
1
62
256
6
ByLayer
370
13
48
1
60
0
100
AcDbSpline
70
4
71
3
72
13
73
9
40
0
40
0
40
0
40
0
40
0.326354516248345
40
0.489531774372518
40
0.65270903249669
40
0.815886290620863
40
0.979063548745036
40
1
40
1
40
1
40
1
41
1
10
8.14088514244466
20
0.895285045348203
30
0
41
1
10
8.64088514244469
20
0.773814887059274
30
0
41
0.999999999999999
10
9.39088514244469
20
0.51217192691621
30
0
41
1
10
10.3908851424446
20
0.0980686108601105
30
0
41
1
10
11.1408851424447
20
-0.222009063288624
30
0
41
1
10
11.8908851424447
20
-0.522316109710289
30
0
41
1
10
12.422961381952
20
-0.705914885107717
30
0
41
1
10
12.7050376214593
20
-0.789350393521431
30
0
41
1
10
12.7371138609667
20
-0.798653880946347
30
0
0
SPLINE
5
11D
100
AcDbEntity
8
1
62
256
6
ByLayer
370
18
48
1
60
0
100
AcDbSpline
70
4
71
3
72
8
73
4
40
0
40
0
40
0
40
0
40
1
40
1
40
1
40
1
41
1
10
19.9517605763888
20
1.995455928121
30
0
41
1
10
19.9664349947812
20
1.94938864231827
30
0
41
1
10
19.9821644162604
20
1.90369331193301
30
0
41
1
10
19.9991764677347
20
1.85845019180493
30
0
0
SPLINE
5
11E
100
AcDbEntity
8
1
62
256
6
ByLayer
370
18
48
1
60
0
100
AcDbSpline
70
4
71
3
72
8
73
4
40
0
40
0
40
0
40
0
40
1
40
1
40
1
40
1
41
1
10
19.920883172952
20
1.99385456675839
30
0
41
1
10
19.9311739653429
20
1.99442850672673
30
0
41
1
10
19.9414663693108
20
1.99496230261059
30
0
41
1
10
19.9517605763889
20
1.99545592812112
30
0
0
SPLINE
5
11F
100
AcDbEntity
8
1
62
256
6
ByLayer
370
18
48
1
60
0
100
AcDbSpline
70
4
71
3
72
10
73
6
40
0
40
0
40
0
40
0
40
0.408433530450788
40
0.912016514818043
40
1
40
1
40
1
40
1
41
1
10
19.9991764416889
20
1.85845017996846
30
0
41
1
10
19.7964126752742
20
1.84973751985081
30
0
41
1
10
19.3436489088594
20
1.79735416010269
30
0
41
1
10
18.8472064003538
20
1.66426475501984
30
0
41
1
10
18.5535276582631
20
1.55870986346838
30
0
41
1
10
18.5098489161723
20
1.54244097952829
30
0
0
SPLINE
5
120
100
AcDbEntity
8
1
62
256
6
ByLayer
370
18
48
1
60
0
100
AcDbSpline
70
4
71
3
72
24
73
20
40
0
40
0
40
0
40
0
40
0.249999999999917
40
0.249999999999917
40
0.499999999999833
40
0.499999999999833
40
0.624999999999831
40
0.624999999999831
40
0.687499999999859
40
0.687499999999859
40
0.749999999999887
40
0.749999999999887
40
0.812499999999915
40
0.812499999999915
40
0.874999999999944
40
0.874999999999944
40
0.937499999999972
40
0.937499999999972
40
1
40
1
40
1
40
1
41
1
10
6.95447205138268
20
-1.78895928699555
30
0
41
1
10
6.94555944126424
20
-1.78592197003218
30
0
41
1
10
6.93687243112953
20
-1.78275725333759
30
0
41
1
10
6.92028095939745
20
-1.77603553807973
30
0
41
1
10
6.91229358845109
20
-1.77247320326742
30
0
41
1
10
6.90186196537877
20
-1.76661902180373
30
0
41
1
10
6.89862962699536
20
-1.7645780179426
30
0
41
1
10
6.89465751219839
20
-1.76128269109648
30
0
41
1
10
6.89349685206835
20
-1.76015610713861
30
0
41
1
10
6.89172420785974
20
-1.75781378046597
30
0
41
1
10
6.89110052631781
20
-1.75658083300908
30
0
41
1
10
6.89098656338453
20
-1.75409060848457
30
0
41
1
10
6.89152317869741
20
-1.75283334606718
30
0
41
1
10
6.89440247725332
20
-1.75057513877223
30
0
41
1
10
6.89666706937436
20
-1.74966443115127
30
0
41
1
10
6.90187130938028
20
-1.74833217355857
30
0
41
1
10
6.90481188043796
20
-1.74788575025625
30
0
41
1
10
6.91073514472521
20
-1.7472689045423
30
0
41
1
10
6.91378463187675
20
-1.74709011695174
30
0
41
1
10
6.91685354361948
20
-1.74698999147842
30
0
0
SPLINE
5
121
100
AcDbEntity
8
1
62
256
6
ByLayer
370
18
48
1
60
0
100
AcDbSpline
70
4
71
3
72
26
73
22
40
0
40
0
40
0
40
0
40
0.125
40
0.125
40
0.249999999999999
40
0.249999999999999
40
0.374999999999999
40
0.374999999999999
40
0.437499999999999
40
0.437499999999999
40
0.499999999999999
40
0.499999999999999
40
0.562499999999999
40
0.562499999999999
40
0.624999999999999
40
0.624999999999999
40
0.749999999999999
40
0.749999999999999
40
0.874999999999999
40
0.874999999999999
40
1
40
1
40
1
40
1
41
1
10
6.91685354361945
20
-1.74698999147842
30
0
41
1
10
6.93230702892913
20
-1.74648581030257
30
0
41
1
10
6.94760673432211
20
-1.74567994483766
30
0
41
1
10
6.97777248661384
20
-1.74320162254662
30
0
41
1
10
6.99264143606328
20
-1.74153608226587
30
0
41
1
10
7.02172040421107
20
-1.73684751917554
30
0
41
1
10
7.03557749782328
20
-1.73387059261862
30
0
41
1
10
7.05461820539063
20
-1.72808819806241
30
0
41
1
10
7.06071862487403
20
-1.72591744141403
30
0
41
1
10
7.07187478886593
20
-1.72120837248798
30
0
41
1
10
7.07698021592529
20
-1.71865897204594
30
0
41
1
10
7.08623794853182
20
-1.71314831381284
30
0
41
1
10
7.09041160909126
20
-1.71016793077752
30
0
41
1
10
7.09770477970807
20
-1.70385845777073
30
0
41
1
10
7.10078441731244
20
-1.70057366741025
30
0
41
1
10
7.1085615841514
20
-1.69035316234357
30
0
41
1
10
7.11179295093331
20
-1.68299677300948
30
0
41
1
10
7.11526037279043
20
-1.66803942257138
30
0
41
1
10
7.11556676680615
20
-1.6603637565824
30
0
41
1
10
7.11420512358353
20
-1.64463397805429
30
0
41
1
10
7.11252362712787
20
-1.63658946143852
30
0
41
1
10
7.11013919527838
20
-1.62846157266679
30
0
0
SPLINE
5
122
100
AcDbEntity
8
1
62
256
6
ByLayer
370
18
48
1
60
0
100
AcDbSpline
70
4
71
3
72
17
73
13
40
0
40
0
40
0
40
0
40
0.250000000000004
40
0.250000000000004
40
0.500000000000008
40
0.500000000000008
40
0.562500000000011
40
0.562500000000011
40
0.625000000000014
40
0.750000000000011
40
0.750000000000011
40
1
40
1
40
1
40
1
41
1
10
7.11013919527724
20
-1.62846157266753
30
0
41
1
10
7.04618063633546
20
-1.58713023303159
30
0
41
1
10
6.98636101818062
20
-1.54068590242295
30
0
41
1
10
6.87484493142381
20
-1.4363068206068
30
0
41
1
10
6.8231442846062
20
-1.37838188871038
30
0
41
1
10
6.76348901111777
20
-1.29773468346258
30
0
41
1
10
6.75179508568135
20
-1.28117434832859
30
0
41
1
10
6.72895324698072
20
-1.24726683584044
30
0
41
1
10
6.69565235429084
20
-1.19544118126308
30
0
41
1
10
6.66514629606442
20
-1.1407073017549
30
0
41
1
10
6.60765806191642
20
-1.02728367246115
30
0
41
1
10
6.57401145185909
20
-0.946416712866494
30
0
41
1
10
6.54470695137309
20
-0.859867882598138
30
0
0
SPLINE
5
123
100
AcDbEntity
8
1
62
256
6
ByLayer
370
18
48
1
60
0
100
AcDbSpline
70
4
71
3
72
16
73
12
40
0
40
0
40
0
40
0
40
0.249999999999966
40
0.249999999999966
40
0.499999999999932
40
0.499999999999932
40
0.624999999999913
40
0.624999999999913
40
0.749999999999894
40
0.749999999999894
40
1
40
1
40
1
40
1
41
1
10
6.54470695137309
20
-0.859867882598138
30
0
41
1
10
6.54307936508141
20
-0.855060918228531
30
0
41
1
10
6.54196544102371
20
-0.850171892139485
30
0
41
1
10
6.54105842355085
20
-0.840186344827885
30
0
41
1
10
6.54129545055341
20
-0.83508809516232
30
0
41
1
10
6.54284053021371
20
-0.827735548771955
30
0
41
1
10
6.54355126599623
20
-0.825315532814926
30
0
41
1
10
6.54538951857924
20
-0.820541904974192
30
0
41
1
10
6.54652101764498
20
-0.818191942480865
30
0
41
1
10
6.55041405377267
20
-0.81149650083043
30
0
41
1
10
6.55372476985755
20
-0.807390435066367
30
0
41
1
10
6.55759804215495
20
-0.803675851215871
30
0
0
SPLINE
5
124
100
AcDbEntity
8
1
62
256
6
ByLayer
370
18
48
1
60
0
100
AcDbSpline
70
4
71
3
72
24
73
20
40
0
40
0
40
0
40
0
40
0.250000000000041
40
0.250000000000041
40
0.500000000000082
40
0.500000000000082
40
0.625000000000061
40
0.625000000000061
40
0.687500000000051
40
0.687500000000051
40
0.750000000000041
40
0.750000000000041
40
0.812500000000031
40
0.812500000000031
40
0.875000000000021
40
0.875000000000021
40
0.93750000000001
40
0.93750000000001
40
1
40
1
40
1
40
1
41
1
10
6.93328339431662
20
0.551916666993151
30
0
41
1
10
6.92422344321221
20
0.559909465500226
30
0
41
1
10
6.91538793752326
20
0.56809270405671
30
0
41
1
10
6.89849703002156
20
0.585136977528435
30
0
41
1
10
6.8903549629286
20
0.594015521045463
30
0
41
1
10
6.87969808147449
20
0.608304834387923
30
0
41
1
10
6.87640133947269
20
0.613222390247898
30
0
41
1
10
6.87231765234995
20
0.621126997729419
30
0
41
1
10
6.87112244737995
20
0.623819011463922
30
0
41
1
10
6.86930146116123
20
0.629361920912572
30
0
41
1
10
6.86865577665588
20
0.632267713248439
30
0
41
1
10
6.8685382141496
20
0.638129517976182
30
0
41
1
10
6.86911219794283
20
0.641090208478971
30
0
41
1
10
6.87207405661275
20
0.646267211390239
30
0
41
1
10
6.87442376689256
20
0.648359890395483
30
0
41
1
10
6.87972527078085
20
0.65136381262235
30
0
41
1
10
6.88270540625749
20
0.652362688410136
30
0
41
1
10
6.88869211873319
20
0.653743821391942
30
0
41
1
10
6.89175018123706
20
0.654142257976673
30
0
41
1
10
6.89484637949934
20
0.654368643728162
30
0
0
SPLINE
5
125
100
AcDbEntity
8
1
62
256
6
ByLayer
370
18
48
1
60
0
100
AcDbSpline
70
4
71
3
72
32
73
28
40
0
40
0
40
0
40
0
40
0.124999999999985
40
0.124999999999985
40
0.187499999999999
40
0.187499999999999
40
0.250000000000013
40
0.250000000000013
40
0.312500000000026
40
0.312500000000026
40
0.37500000000004
40
0.37500000000004
40
0.406250000000047
40
0.406250000000047
40
0.437500000000054
40
0.437500000000054
40
0.500000000000048
40
0.500000000000048
40
0.562500000000043
40
0.562500000000043
40
0.625000000000037
40
0.625000000000037
40
0.750000000000024
40
0.750000000000024
40
0.875000000000012
40
0.875000000000012
40
1
40
1
40
1
40
1
41
1
10
6.89484637949934
20
0.654368643728162
30
0
41
1
10
6.91519595884051
20
0.655856550645609
30
0
41
1
10
6.93529181918365
20
0.658472034063237
30
0
41
1
10
6.9648300165228
20
0.665074129979871
30
0
41
1
10
6.97457385041986
20
0.66772694767127
30
0
41
1
10
6.99378921922118
20
0.674232188510871
30
0
41
1
10
7.00322469977863
20
0.678085616982457
30
0
41
1
10
7.02114122663491
20
0.687083856627652
30
0
41
1
10
7.0296869589325
20
0.692247380250365
30
0
41
1
10
7.04574794395805
20
0.704221445463759
30
0
41
1
10
7.05301482650611
20
0.710860945752842
30
0
41
1
10
7.06264965416787
20
0.721731982570248
30
0
41
1
10
7.06565573515505
20
0.72551143543663
30
0
41
1
10
7.0712541163646
20
0.733381528070936
30
0
41
1
10
7.07385958720943
20
0.737497219672775
30
0
41
1
10
7.08094010618674
20
0.750100178157595
30
0
41
1
10
7.08468436033974
20
0.758812077723803
30
0
41
1
10
7.09056250835934
20
0.77672693788216
30
0
41
1
10
7.09269152751347
20
0.785967525327408
30
0
41
1
10
7.09554862527111
20
0.804306853595676
30
0
41
1
10
7.09630427831868
20
0.813474242328397
30
0
41
1
10
7.0970169995374
20
0.84094608342113
30
0
41
1
10
7.09541670776085
20
0.859329852503407
30
0
41
1
10
7.08968057566415
20
0.895113863907937
30
0
41
1
10
7.08554612657363
20
0.912601375077088
30
0
41
1
10
7.07557118394959
20
0.946953199003303
30
0
41
1
10
7.06971978488662
20
0.963815127674053
30
0
41
1
10
7.06322192261712
20
0.980412711576918
30
0
0
SPLINE
5
126
100
AcDbEntity
8
1
62
256
6
ByLayer
370
18
48
1
60
0
100
AcDbSpline
70
4
71
3
72
22
73
18
40
0
40
0
40
0
40
0
40
0.250000000000005
40
0.250000000000005
40
0.375000000000004
40
0.375000000000004
40
0.437500000000004
40
0.437500000000004
40
0.500000000000003
40
0.500000000000003
40
0.750000000000002
40
0.750000000000002
40
0.875000000000001
40
0.875000000000001
40
0.937500000000001
40
0.937500000000001
40
1
40
1
40
1
40
1
41
1
10
7.06322192261712
20
0.980412711576918
30
0
41
1
10
7.00849228106747
20
1.05604638470402
30
0
41
1
10
6.96002001994751
20
1.13048885581031
30
0
41
1
10
6.89602777347199
20
1.23912788164793
30
0
41
1
10
6.87615040866314
20
1.27483464221987
30
0
41
1
10
6.84844887924837
20
1.32745555586965
30
0
41
1
10
6.83956764646453
20
1.34483911559226
30
0
41
1
10
6.82250239213192
20
1.37925980083409
30
0
41
1
10
6.81432572895972
20
1.39628550566562
30
0
41
1
10
6.77557065050138
20
1.47955813921467
30
0
41
1
10
6.7509440518875
20
1.54101354244006
30
0
41
1
10
6.72217847370359
20
1.62467891129791
30
0
41
1
10
6.71396241557375
20
1.65114418515759
30
0
41
1
10
6.70361549087144
20
1.68856480739837
30
0
41
1
10
6.70049259154729
20
1.70067699360365
30
0
41
1
10
6.69493011699285
20
1.72398790987739
30
0
41
1
10
6.69248782620025
20
1.73519331857625
30
0
41
1
10
6.69037504867745
20
1.74594422094751
30
0
0
SPLINE
5
127
100
AcDbEntity
8
1
62
256
6
ByLayer
370
18
48
1
60
0
100
AcDbSpline
70
4
71
3
72
12
73
8
40
0
40
0
40
0
40
0
40
0.499999999999982
40
0.499999999999982
40
0.749999999999991
40
0.749999999999991
40
1
40
1
40
1
40
1
41
1
10
6.69037504867748
20
1.74594422094751
30
0
41
1
10
6.68882865570384
20
1.75381306644039
30
0
41
1
10
6.68957472925052
20
1.76134619065383
30
0
41
1
10
6.69439627950726
20
1.77215749941379
30
0
41
1
10
6.69664179601185
20
1.77569890532871
30
0
41
1
10
6.70231378671221
20
1.78249037057864
30
0
41
1
10
6.70573490172814
20
1.78574823418705
30
0
41
1
10
6.70971772544596
20
1.78887920619292
30
0
0
SPLINE
5
128
100
AcDbEntity
8
1
62
256
6
ByLayer
370
18
48
1
60
0
100
AcDbSpline
70
4
71
3
72
30
73
26
40
0
40
0
40
0
40
0
40
0.0625000000000213
40
0.0625000000000213
40
0.093750000000032
40
0.093750000000032
40
0.125000000000043
40
0.125000000000043
40
0.187500000000051
40
0.187500000000051
40
0.25000000000006
40
0.25000000000006
40
0.281250000000057
40
0.281250000000057
40
0.312500000000054
40
0.312500000000054
40
0.375000000000047
40
0.375000000000047
40
0.500000000000034
40
0.500000000000034
40
0.625000000000021
40
0.625000000000021
40
0.750000000000008
40
0.750000000000008
40
1
40
1
40
1
40
1
41
1
10
6.70971772544593
20
1.78887920619295
30
0
41
1
10
6.7200212063039
20
1.7969789646595
30
0
41
1
10
6.73253522957523
20
1.80414666957611
30
0
41
1
10
6.75392778065398
20
1.8138666851423
30
0
41
1
10
6.76149938307341
20
1.81693286013353
30
0
41
1
10
6.77744426702594
20
1.82276089987772
30
0
41
1
10
6.78584686316523
20
1.82553124822061
30
0
41
1
10
6.81195384989169
20
1.83337738832122
30
0
41
1
10
6.83038563308702
20
1.83795441066974
30
0
41
1
10
6.86883084365775
20
1.84617527645503
30
0
41
1
10
6.88884832513622
20
1.84981595838676
30
0
41
1
10
6.91985198480228
20
1.85474587245534
30
0
41
1
10
6.93035051544629
20
1.85629984072867
30
0
41
1
10
6.95164998823358
20
1.85925021797382
30
0
41
1
10
6.96246077512825
20
1.86064742169032
30
0
41
1
10
6.99505138599284
20
1.86459894157025
30
0
41
1
10
7.01707371298502
20
1.8669276047371
30
0
41
1
10
7.08388184576251
20
1.8732122894763
30
0
41
1
10
7.12940057628259
20
1.87647869205793
30
0
41
1
10
7.22197090178679
20
1.88182118134122
30
0
41
1
10
7.26908601207236
20
1.88389120328392
30
0
41
1
10
7.36441631104614
20
1.88715196827803
30
0
41
1
10
7.41221379563649
20
1.88832784989711
30
0
41
1
10
7.55595645293823
20
1.8908126519479
30
0
41
1
10
7.65224754650799
20
1.89111677426024
30
0
41
1
10
7.74896678359937
20
1.89023357081598
30
0
0
SPLINE
5
129
100
AcDbEntity
8
1
62
256
6
ByLayer
370
18
48
1
60
0
100
AcDbSpline
70
4
71
3
72
39
73
35
40
0
40
0
40
0
40
0
40
0.0624999999999804
40
0.0624999999999804
40
0.124999999999961
40
0.124999999999961
40
0.156249999999952
40
0.156249999999952
40
0.187499999999943
40
0.218749999999933
40
0.218749999999933
40
0.249999999999924
40
0.249999999999924
40
0.312499999999906
40
0.312499999999906
40
0.343749999999897
40
0.343749999999897
40
0.374999999999888
40
0.374999999999888
40
0.43749999999987
40
0.43749999999987
40
0.468749999999867
40
0.468749999999867
40
0.499999999999865
40
0.499999999999865
40
0.624999999999899
40
0.624999999999899
40
0.687499999999916
40
0.687499999999916
40
0.749999999999932
40
0.749999999999932
40
0.874999999999966
40
0.874999999999966
40
1
40
1
40
1
40
1
41
1
10
20.0021435371873
20
0.118087102542006
30
0
41
1
10
20.0105423301565
20
0.115308128431053
30
0
41
1
10
20.0176097937934
20
0.112618558368013
30
0
41
1
10
20.0285741025757
20
0.107452380447285
30
0
41
1
10
20.0324762598901
20
0.104975406096941
30
0
41
1
10
20.0353560273497
20
0.101459646492515
30
0
41
1
10
20.0358068724765
20
0.1003295787919
30
0
41
1
10
20.0356156945552
20
0.0981797507780016
30
0
41
1
10
20.034337471967
20
0.0961336746008215
30
0
41
1
10
20.0307521297023
20
0.0943077990967254
30
0
41
1
10
20.025934797474
20
0.0925995095828966
30
0
41
1
10
20.0228846395128
20
0.0918000556377763
30
0
41
1
10
20.0119861098023
20
0.0896325070343948
30
0
41
1
10
20.0024144776285
20
0.0884866018135426
30
0
41
1
10
19.9848300029548
20
0.087186353715424
30
0
41
1
10
19.9784301798507
20
0.0868227700285331
30
0
41
1
10
19.9645878515086
20
0.086230859338599
30
0
41
1
10
19.9571982986148
20
0.0860053442950459
30
0
41
1
10
19.9340146430559
20
0.0855254995786936
30
0
41
1
10
19.9171116437825
20
0.0854622834244765
30
0
41
1
10
19.8900194545878
20
0.0856756557110145
30
0
41
1
10
19.8806974028557
20
0.0857984486385419
30
0
41
1
10
19.8615261440609
20
0.0861375306905927
30
0
41
1
10
19.8516600861842
20
0.0863544615854437
30
0
41
1
10
19.8017159370629
20
0.0876348807165925
30
0
41
1
10
19.7594295640165
20
0.0892748544131621
30
0
41
1
10
19.6938609897897
20
0.0922997352408572
30
0
41
1
10
19.6716366046269
20
0.0934052699413996
30
0
41
1
10
19.6265813662427
20
0.0957765094030378
30
0
41
1
10
19.6037147852352
20
0.0970446009997943
30
0
41
1
10
19.5350015749321
20
0.101012536342154
30
0
41
1
10
19.4888333530621
20
0.103884077408395
30
0
41
1
10
19.3959938961038
20
0.109943805098681
30
0
41
1
10
19.3493204682296
20
0.113133372075822
30
0
41
1
10
19.302454242369
20
0.116444304899318
30
0
0
SPLINE
5
12A
100
AcDbEntity
8
1
62
256
6
ByLayer
370
18
48
1
60
0
100
AcDbSpline
70
4
71
3
72
24
73
20
40
0
40
0
40
0
40
0
40
0.249999999999989
40
0.249999999999989
40
0.499999999999977
40
0.499999999999977
40
0.624999999999983
40
0.624999999999983
40
0.749999999999988
40
0.749999999999988
40
0.812499999999991
40
0.812499999999991
40
0.874999999999993
40
0.874999999999993
40
0.906249999999994
40
0.906249999999994
40
0.937499999999996
40
0.937499999999996
40
1
40
1
40
1
40
1
41
1
10
19.9993137816387
20
0.633556003057095
30
0
41
1
10
20.0090985455554
20
0.608226571518657
30
0
41
1
10
20.0188803106893
20
0.58279019225273
30
0
41
1
10
20.038337195614
20
0.531848011068547
30
0
41
1
10
20.0480368532602
20
0.506284783439952
30
0
41
1
10
20.0623499472029
20
0.468095156028568
30
0
41
1
10
20.0670908781667
20
0.455364858340346
30
0
41
1
10
20.0763556002861
20
0.430230189884668
30
0
41
1
10
20.0808974381784
20
0.417783790187059
30
0
41
1
10
20.0874124404282
20
0.399550122325536
30
0
41
1
10
20.0895086198799
20
0.393615507854179
30
0
41
1
10
20.0934717338536
20
0.382181381714588
30
0
41
1
10
20.0953391910731
20
0.376678214534479
30
0
41
1
10
20.0977336082419
20
0.369335790965835
30
0
41
1
10
20.0984679813363
20
0.367028430388473
30
0
41
1
10
20.099771687278
20
0.362776354443042
30
0
41
1
10
20.1003416581881
20
0.360825838347751
30
0
41
1
10
20.1016598183242
20
0.355940816430746
30
0
41
1
10
20.10203209415
20
0.353894251086246
30
0
41
1
10
20.1018505401552
20
0.353276055004812
30
0
0
SPLINE
5
12B
100
AcDbEntity
8
1
62
256
6
ByLayer
370
13
48
1
60
0
100
AcDbSpline
70
4
71
3
72
8
73
4
40
0
40
0
40
0
40
0
40
1
40
1
40
1
40
1
41
1
10
19.9355390436256
20
0.157377886364486
30
0
41
1
10
19.9110380979309
20
0.341619457154707
30
0
41
1
10
19.8865371522362
20
0.525861027944899
30
0
41
1
10
19.8620362065415
20
0.710102598735091
30
0
0
SPLINE
5
12C
100
AcDbEntity
8
1
62
256
6
ByLayer
370
18
48
1
60
0
100
AcDbSpline
70
4
71
3
72
17
73
13
40
0
40
0
40
0
40
0
40
0.125
40
0.249999999999999
40
0.249999999999999
40
0.499999999999999
40
0.499999999999999
40
0.749999999999998
40
0.749999999999998
40
0.874999999999999
40
0.874999999999999
40
1
40
1
40
1
40
1
41
1
10
20.1354766588003
20
0.100415247265573
30
0
41
1
10
20.1357861140652
20
0.101430661506129
30
0
41
1
10
20.134379230028
20
0.103611835018057
30
0
41
1
10
20.1291940091801
20
0.106073260781898
30
0
41
1
10
20.118467526139
20
0.109984284867778
30
0
41
1
10
20.1078639428734
20
0.112732327278394
30
0
41
1
10
20.0798528389084
20
0.118504184489296
30
0
41
1
10
20.0631933863032
20
0.121369666620382
30
0
41
1
10
20.0341938480761
20
0.125636992766403
30
0
41
1
10
20.0240939088162
20
0.127016221768315
30
0
41
1
10
20.0031396162939
20
0.129679687484099
30
0
41
1
10
19.992273474296
20
0.130966116050132
30
0
41
1
10
19.9809936284543
20
0.132204362700804
30
0
0
SPLINE
5
12D
100
AcDbEntity
8
1
62
256
6
ByLayer
370
18
48
1
60
0
100
AcDbSpline
70
4
71
3
72
11
73
7
40
0
40
0
40
0
40
0
40
0.0114471571216878
40
0.258585367841266
40
0.505723578560844
40
1
40
1
40
1
40
1
41
1
10
11.1756242781545
20
0.38164201169181
30
0
41
1
10
11.1640445662512
20
0.389735027878317
30
0
41
1
10
10.9024648543479
20
0.572289707877587
30
0
41
1
10
10.3908851424446
20
0.916985666520219
30
0
41
0.999999999999999
10
9.39088514244466
20
1.49236438732302
30
0
41
1
10
8.64088514244463
20
1.7539574724058
30
0
41
1
10
8.14088514244463
20
1.82512976123221
30
0
0
SPLINE
5
12E
100
AcDbEntity
8
1
62
256
6
ByLayer
370
18
48
1
60
0
100
AcDbSpline
70
4
71
3
72
8
73
4
40
0
40
0
40
0
40
0
40
1
40
1
40
1
40
1
41
1
10
19.8468294418277
20
0.719128929672479
30
0
41
1
10
19.8705239848499
20
0.545096050485995
30
0
41
1
10
19.8940111068405
20
0.369425755353205
30
0
41
1
10
19.9172756458447
20
0.19230746998241
30
0
0
SPLINE
5
12F
100
AcDbEntity
8
1
62
256
6
ByLayer
370
18
48
1
60
0
100
AcDbSpline
70
4
71
3
72
8
73
4
40
0
40
0
40
0
40
0
40
1
40
1
40
1
40
1
41
1
10
8.14088514244472
20
-1.93327144951883
30
0
41
1
10
8.07530983743197
20
-1.93636850557462
30
0
41
1
10
8.01009798552272
20
-1.93837229806593
30
0
41
1
10
7.94529563142055
20
-1.93914432495131
30
0
0
SPLINE
5
130
100
AcDbEntity
8
1
62
256
6
ByLayer
370
18
48
1
60
0
100
AcDbSpline
70
4
71
3
72
36
73
32
40
0
40
0
40
0
40
0
40
0.110472809801149
40
0.110472809801149
40
0.138091012251439
40
0.138091012251439
40
0.16570921470173
40
0.16570921470173
40
0.220945619602314
40
0.220945619602314
40
0.331418429403484
40
0.331418429403484
40
0.386654834304069
40
0.386654834304069
40
0.441891239204654
40
0.441891239204654
40
0.552364049005828
40
0.552364049005828
40
0.607600453906412
40
0.607600453906412
40
0.662836858806998
40
0.662836858806998
40
0.773309668608167
40
0.773309668608167
40
0.828546073508754
40
0.828546073508754
40
0.883782478409341
40
0.883782478409341
40
0.994255288210511
40
0.994255288210511
40
1
40
1
40
1
40
1
41
1
10
19.8468294418273
20
0.719128929672252
30
0
41
1
10
19.7240752269684
20
0.799239104374948
30
0
41
1
10
19.6013425002176
20
0.877000361889344
30
0
41
1
10
19.4477646863748
20
0.971080260061086
30
0
41
1
10
19.4170416820256
20
0.989740129920193
30
0
41
1
10
19.3555778791551
20
1.02674189716544
30
0
41
1
10
19.324816187836
20
1.04509540089353
30
0
41
1
10
19.2327462504125
20
1.09948358127815
30
0
41
1
10
19.1715899873926
20
1.13488493597214
30
0
41
1
10
18.9885687184482
20
1.23828388587648
30
0
41
1
10
18.867145595454
20
1.30348369139358
30
0
41
1
10
18.6850066564875
20
1.39471502780376
30
0
41
1
10
18.6242863785739
20
1.42401693606769
30
0
41
1
10
18.5027056284529
20
1.48037471069679
30
0
41
1
10
18.4418543846643
20
1.50744774054431
30
0
41
1
10
18.2591178371447
20
1.58542337010084
30
0
41
1
10
18.1370737022297
20
1.63307287701937
30
0
41
1
10
17.9537445618931
20
1.69778253066775
30
0
41
1
10
17.8925950462675
20
1.71822492386065
30
0
41
1
10
17.7701585322421
20
1.75674095777836
30
0
41
1
10
17.7087389144694
20
1.77483475231838
30
0
41
1
10
17.5253634637678
20
1.82489221171463
30
0
41
1
10
17.4039940944457
20
1.8527320989042
30
0
41
1
10
17.2221429807788
20
1.88592384711541
30
0
41
1
10
17.1615580238209
20
1.89556154120425
30
0
41
1
10
17.0402957847116
20
1.91198595696372
30
0
41
1
10
16.9796289709531
20
1.91877792680987
30
0
41
1
10
16.7974852485188
20
1.93493963925272
30
0
41
1
10
16.6758693675195
20
1.94011266314826
30
0
41
1
10
16.547592715914
20
1.93959126859988
30
0
41
1
10
16.5412511174797
20
1.93954995122996
30
0
41
1
10
16.5349086758682
20
1.93949309847332
30
0
0
SPLINE
5
131
100
AcDbEntity
8
1
62
256
6
ByLayer
370
18
48
1
60
0
100
AcDbSpline
70
4
71
3
72
16
73
12
40
0
40
0
40
0
40
0
40
0.231360456105189
40
0.231360456105189
40
0.487573637403462
40
0.487573637403462
40
0.743786818701736
40
0.743786818701736
40
0.871893409350868
40
0.871893409350868
40
1
40
1
40
1
40
1
41
1
10
9.56927195864026
20
-1.60147599981249
30
0
41
1
10
9.45841268264809
20
-1.6455510146715
30
0
41
1
10
9.34815356280129
20
-1.68547870456382
30
0
41
1
10
9.11625377806484
20
-1.76102335113333
30
0
41
1
10
8.9947144667338
20
-1.79564403741014
30
0
41
1
10
8.75164045327051
20
-1.8540496187027
30
0
41
1
10
8.63011981372156
20
-1.87777979367723
30
0
41
1
10
8.44728285958021
20
-1.90474217376584
30
0
41
1
10
8.38623268125315
20
-1.91233250628446
30
0
41
1
10
8.26380720570978
20
-1.92485587884948
30
0
41
1
10
8.20243718344372
20
-1.92977271363569
30
0
41
1
10
8.14088514244474
20
-1.93327144951883
30
0
0
SPLINE
5
132
100
AcDbEntity
8
1
62
256
6
ByLayer
370
18
48
1
60
0
100
AcDbSpline
70
4
71
3
72
8
73
4
40
0
40
0
40
0
40
0
40
1
40
1
40
1
40
1
41
1
10
19.8468294418277
20
0.719128929672479
30
0
41
1
10
19.846671901077
20
0.719454676480495
30
0
41
1
10
19.8465143802819
20
0.719780176237691
30
0
41
1
10
19.8463568794497
20
0.720105429004093
30
0
0
SPLINE
5
133
100
AcDbEntity
8
1
62
256
6
ByLayer
370
18
48
1
60
0
100
AcDbSpline
70
4
71
3
72
12
73
8
40
0
40
0
40
0
40
0
40
0.39814944823752
40
0.39814944823752
40
0.699074712697899
40
0.699074712697899
40
1
40
1
40
1
40
1
41
1
10
19.8620362065414
20
0.710102598735091
30
0
41
1
10
19.8599559376476
20
0.711431103669582
30
0
41
1
10
19.8578754112463
20
0.71275921900758
30
0
41
1
10
19.8542219592559
20
0.715090464595505
30
0
41
1
10
19.8526491418762
20
0.716093759056179
30
0
41
1
10
19.8495032228194
20
0.718099916325741
30
0
41
1
10
19.8479301211125
20
0.719102779153616
30
0
41
1
10
19.8463568794493
20
0.720105429004349
30
0
0
SPLINE
5
134
100
AcDbEntity
8
1
62
256
6
ByLayer
370
18
48
1
60
0
100
AcDbSpline
70
4
71
3
72
16
73
12
40
0
40
0
40
0
40
0
40
0.250000000000001
40
0.250000000000001
40
0.375000000000001
40
0.375000000000001
40
0.5
40
0.5
40
0.75
40
0.75
40
1
40
1
40
1
40
1
41
1
10
19.9993137816381
20
0.633556003057066
30
0
41
1
10
19.9889746236162
20
0.637910871991551
30
0
41
1
10
19.9780641726656
20
0.643066054665894
30
0
41
1
10
19.9609618611116
20
0.651779646282819
30
0
41
1
10
19.9551540511601
20
0.654841681867708
30
0
41
1
10
19.9435710618891
20
0.661118443198376
30
0
41
1
10
19.9377622399739
20
0.664350155820983
30
0
41
1
10
19.9202837806671
20
0.674283712084332
30
0
41
1
10
19.9085040816094
20
0.681257821022825
30
0
41
1
10
19.8850656194246
20
0.695536350707414
30
0
41
1
10
19.8734947112251
20
0.702784948570098
30
0
41
1
10
19.8620362065413
20
0.710102598735062
30
0
0
SPLINE
5
135
100
AcDbEntity
8
1
62
256
6
ByLayer
370
18
48
1
60
0
100
AcDbSpline
70
4
71
3
72
8
73
4
40
0
40
0
40
0
40
0
40
1
40
1
40
1
40
1
41
1
10
19.9818450795836
20
0.664342525300327
30
0
41
1
10
19.9875835467367
20
0.65431732102158
30
0
41
1
10
19.9934052785417
20
0.644058428100806
30
0
41
1
10
19.999313781639
20
0.633556003056611
30
0
0
SPLINE
5
136
100
AcDbEntity
8
1
62
256
6
ByLayer
370
18
48
1
60
0
100
AcDbSpline
70
4
71
3
72
8
73
4
40
0
40
0
40
0
40
0
40
1
40
1
40
1
40
1
41
1
10
19.9818450794513
20
0.664342525103535
30
0
41
1
10
19.841172103799
20
0.749913149835123
30
0
41
1
10
19.7004991281467
20
0.832448276941875
30
0
41
1
10
19.5598261524944
20
0.911573218191734
30
0
0
SPLINE
5
137
100
AcDbEntity
8
1
62
256
6
ByLayer
370
18
48
1
60
0
100
AcDbSpline
70
4
71
3
72
8
73
4
40
0
40
0
40
0
40
0
40
1
40
1
40
1
40
1
41
1
10
8.97326758856445
20
-1.70078462102097
30
0
41
1
10
8.69580677319124
20
-1.76091564632537
30
0
41
1
10
8.41834595781799
20
-1.79523550173491
30
0
41
1
10
8.14088514244474
20
-1.80022247508083
30
0
0
SPLINE
5
138
100
AcDbEntity
8
1
62
256
6
ByLayer
370
18
48
1
60
0
100
AcDbSpline
70
4
71
3
72
94
73
90
40
0
40
0
40
0
40
0
40
0.0070693240282926
40
0.0070693240282926
40
0.0166224298912149
40
0.0166224298912149
40
0.0357286416170609
40
0.0357286416170609
40
0.0548348533429069
40
0.0548348533429069
40
0.0739410650687529
40
0.0739410650687529
40
0.112153488520445
40
0.112153488520445
40
0.150365911972137
40
0.150365911972137
40
0.169472123697983
40
0.169472123697983
40
0.188578335423829
40
0.188578335423829
40
0.207684547149675
40
0.207684547149675
40
0.226790758875521
40
0.226790758875521
40
0.265003182327213
40
0.265003182327213
40
0.303215605778905
40
0.303215605778905
40
0.32232181750475
40
0.32232181750475
40
0.341428029230595
40
0.341428029230595
40
0.379640452682284
40
0.379640452682284
40
0.417852876133974
40
0.417852876133974
40
0.456065299585663
40
0.456065299585663
40
0.475171511311507
40
0.475171511311507
40
0.48472461717443
40
0.48472461717443
40
0.494277723037352
40
0.494277723037352
40
0.532490146489041
40
0.532490146489041
40
0.570702569940731
40
0.570702569940731
40
0.589808781666575
40
0.589808781666575
40
0.60891499339242
40
0.60891499339242
40
0.628021205118265
40
0.628021205118265
40
0.637574310981187
40
0.637574310981187
40
0.647127416844109
40
0.647127416844109
40
0.685339840295799
40
0.685339840295799
40
0.723552263747488
40
0.723552263747488
40
0.742658475473332
40
0.742658475473332
40
0.761764687199177
40
0.761764687199177
40
0.780870898925021
40
0.780870898925021
40
0.790424004787944
40
0.790424004787944
40
0.799977110650866
40
0.799977110650866
40
0.838189534102559
40
0.838189534102559
40
0.876401957554253
40
0.876401957554253
40
0.895508169280099
40
0.895508169280099
40
0.914614381005946
40
0.914614381005946
40
0.933720592731793
40
0.933720592731793
40
0.952826804457639
40
0.952826804457639
40
0.971933016183486
40
0.971933016183486
40
0.991039227909333
40
0.991039227909333
40
1
40
1
40
1
40
1
41
1
10
17.9913873904506
20
-1.62265659641903
30
0
41
1
10
17.9686805293999
20
-1.63184785442624
30
0
41
1
10
17.9459660021155
20
-1.64087985099965
30
0
41
1
10
17.8925451856001
20
-1.66174232381891
30
0
41
1
10
17.8618035523109
20
-1.67345672392108
30
0
41
1
10
17.769890088318
20
-1.70754989309282
30
0
41
1
10
17.7089738355454
20
-1.72889065893426
30
0
41
1
10
17.5875342200332
20
-1.76858489776376
30
0
41
1
10
17.5270057988196
20
-1.78693613073028
30
0
41
1
10
17.4060449110706
20
-1.82053027683233
30
0
41
1
10
17.3456256440045
20
-1.83578299540554
30
0
41
1
10
17.1643501834643
20
-1.87687046267197
30
0
41
1
10
17.0434732276506
20
-1.89803090224999
30
0
41
1
10
16.8006018235916
20
-1.92771847653944
30
0
41
1
10
16.6786310809342
20
-1.93633040168879
30
0
41
1
10
16.4946747341761
20
-1.93999558957697
30
0
41
1
10
16.4331441694677
20
-1.93965315591558
30
0
41
1
10
16.3099077160222
20
-1.93575460037286
30
0
41
1
10
16.2485322803764
20
-1.93221388800976
30
0
41
1
10
16.1261615948472
20
-1.92198624157226
30
0
41
1
10
16.0651676802094
20
-1.91529657070149
30
0
41
1
10
15.9434713494681
20
-1.89873068488745
30
0
41
1
10
15.8827740589194
20
-1.8888332843556
30
0
41
1
10
15.700839694484
20
-1.85473664727235
30
0
41
1
10
15.57981748567
20
-1.82593734688541
30
0
41
1
10
15.3373645758237
20
-1.75680239991357
30
0
41
1
10
15.215942902384
20
-1.71650813945013
30
0
41
1
10
15.0329139393092
20
-1.64709144000017
30
0
41
1
10
14.971759563598
20
-1.62240354467454
30
0
41
1
10
14.8489930755299
20
-1.57013912893379
30
0
41
1
10
14.7877355973938
20
-1.5427838751859
30
0
41
1
10
14.6045023723935
20
-1.45725006471895
30
0
41
1
10
14.4828801013791
20
-1.3956840577406
30
0
41
1
10
14.2398611395471
20
-1.26461575857601
30
0
41
1
10
14.118515762319
20
-1.1950145760097
30
0
41
1
10
13.8757710220314
20
-1.04768555474035
30
0
41
1
10
13.7543396052474
20
-0.970063337332704
30
0
41
1
10
13.5713507619881
20
-0.848480326992785
30
0
41
1
10
13.5102136360041
20
-0.807075141544061
30
0
41
1
10
13.4181532404881
20
-0.74382208025952
30
0
41
1
10
13.3874338748587
20
-0.722568045147284
30
0
41
1
10
13.3261332233384
20
-0.67991536324223
30
0
41
1
10
13.295519699263
20
-0.658493748151386
30
0
41
1
10
13.1425978316543
20
-0.550964244934534
30
0
41
1
10
13.0207031392145
20
-0.463628304659153
30
0
41
1
10
12.7773136084097
20
-0.287009561652781
30
0
41
1
10
12.6558428268314
20
-0.197688810082127
30
0
41
1
10
12.4736046952494
20
-0.0626454961318075
30
0
41
1
10
12.4128478487062
20
-0.0174634821318023
30
0
41
1
10
12.2911904049651
20
0.0730600952281293
30
0
41
1
10
12.2302891245887
20
0.118400284892687
30
0
41
1
10
12.1082381542849
20
0.209114540623943
30
0
41
1
10
12.0470913743187
20
0.25449530042394
30
0
41
1
10
11.9550639663319
20
0.322427873914705
30
0
41
1
10
11.924323126246
20
0.345057328606515
30
0
41
1
10
11.8630011554429
20
0.390026627376898
30
0
41
1
10
11.83238446489
20
0.412392211376101
30
0
41
1
10
11.6794840770179
20
0.523588358986643
30
0
41
1
10
11.5577448404693
20
0.610525997967812
30
0
41
1
10
11.3147074712626
20
0.77947239638408
30
0
41
1
10
11.1934207021497
20
0.861488220046283
30
0
41
1
10
11.0113608735252
20
0.980025573016178
30
0
41
1
10
10.9506608733267
20
1.01878066536872
30
0
41
1
10
10.8290608035083
20
1.09466583807918
30
0
41
1
10
10.7681490418223
20
1.13180932717668
30
0
41
1
10
10.6460132260681
20
1.20435320239935
30
0
41
1
10
10.5847917214458
20
1.23974961735328
30
0
41
1
10
10.492641281712
20
1.29140955664602
30
0
41
1
10
10.4618373141726
20
1.30840884790712
30
0
41
1
10
10.4003544697078
20
1.34177816173857
30
0
41
1
10
10.3696587142755
20
1.35815779513746
30
0
41
1
10
10.2163775690908
20
1.43851968144426
30
0
41
1
10
10.0944209852557
20
1.49788042398146
30
0
41
1
10
9.85120540320128
20
1.60624762355718
30
0
41
1
10
9.72989409487465
20
1.65536168094914
30
0
41
1
10
9.54791118997053
20
1.72063005736217
30
0
41
1
10
9.48724307434028
20
1.74098102043476
30
0
41
1
10
9.36573065936429
20
1.77891257786374
30
0
41
1
10
9.30488375773226
20
1.79650624131656
30
0
41
1
10
9.18290207131054
20
1.82886444636017
30
0
41
1
10
9.12176884675472
20
1.84362431070571
30
0
41
1
10
8.99911185673781
20
1.87016688611115
30
0
41
1
10
8.93753943144361
20
1.88195178143965
30
0
41
1
10
8.81480858325062
20
1.90224555085135
30
0
41
1
10
8.75354213545126
20
1.91078072774533
30
0
41
1
10
8.6311137885194
20
1.92452918759858
30
0
41
1
10
8.56995903029059
20
1.92971585630093
30
0
41
1
10
8.48008977475919
20
1.93494690630891
30
0
41
1
10
8.4513911982848
20
1.93626476433022
30
0
41
1
10
8.42267907453493
20
1.93723922797608
30
0
0
SPLINE
5
139
100
AcDbEntity
8
1
62
256
6
ByLayer
370
18
48
1
60
0
100
AcDbSpline
70
4
71
3
72
19
73
15
40
0
40
0
40
0
40
0
40
0.0567431533176376
40
0.145170512462414
40
0.263073657988784
40
0.380976803515153
40
0.46940416265993
40
0.557831521804707
40
0.616783094567891
40
0.675734667331076
40
0.764162026475853
40
0.85258938562063
40
0.970492531146999
40
1
40
1
40
1
40
1
41
1
10
17.3143370474871
20
-1.73567524940467
30
0
41
1
10
17.1940197458063
20
-1.75812998868102
30
0
41
1
10
16.8862024441255
20
-1.80081712784442
30
0
41
1
10
16.3283851424448
20
-1.80974156992082
30
0
41
1
10
15.6408851424447
20
-1.70328511736426
30
0
41
1
10
14.9533851424447
20
-1.46567392055772
30
0
41
1
10
14.3283851424447
20
-1.16381299468259
30
0
41
1
10
13.8283851424448
20
-0.875821572199413
30
0
41
1
10
13.3908851424447
20
-0.596156711018608
30
0
41
1
10
12.9533851424447
20
-0.303816719664354
30
0
41
1
10
12.4533851424447
20
0.0400972865740243
30
0
41
1
10
11.8283851424447
20
0.472263523352609
30
0
41
1
10
11.3283179634241
20
0.796675436211359
30
0
41
1
10
11.0157507844034
20
0.979541877765627
30
0
41
1
10
10.9531836053827
20
1.01526186643386
30
0
0
SPLINE
5
13A
100
AcDbEntity
8
1
62
256
6
ByLayer
370
18
48
1
60
0
100
AcDbSpline
70
4
71
3
72
8
73
4
40
0
40
0
40
0
40
0
40
1
40
1
40
1
40
1
41
1
10
19.8465722208484
20
-1.82326614397965
30
0
41
1
10
19.8703962092503
20
-1.88517989986911
30
0
41
1
10
19.8939826532876
20
-1.94262501210437
30
0
41
1
10
19.9173168437746
20
-1.99567902930167
30
0
0
SPLINE
5
13B
100
AcDbEntity
8
1
62
256
6
ByLayer
370
18
48
1
60
0
100
AcDbSpline
70
4
71
3
72
72
73
68
40
0
40
0
40
0
40
0
40
0.0486926030221226
40
0.0486926030221226
40
0.0608657537776532
40
0.0608657537776532
40
0.0730389045331838
40
0.0730389045331838
40
0.0973852060442451
40
0.0973852060442451
40
0.146077809066368
40
0.146077809066368
40
0.19477041208849
40
0.19477041208849
40
0.219116713599553
40
0.219116713599553
40
0.243463015110615
40
0.243463015110615
40
0.267809316621677
40
0.267809316621677
40
0.279982467377208
40
0.279982467377208
40
0.292155618132739
40
0.292155618132739
40
0.316501919643803
40
0.316501919643803
40
0.340848221154867
40
0.340848221154867
40
0.389540824176995
40
0.389540824176995
40
0.438233427199123
40
0.438233427199123
40
0.462579728710186
40
0.462579728710186
40
0.474752879465718
40
0.474752879465718
40
0.486926030221251
40
0.486926030221251
40
0.53561863324338
40
0.53561863324338
40
0.58431123626551
40
0.58431123626551
40
0.63300383928764
40
0.63300383928764
40
0.681696442309769
40
0.681696442309769
40
0.693869593065301
40
0.693869593065301
40
0.706042743820833
40
0.706042743820833
40
0.730389045331899
40
0.730389045331899
40
0.779081648354032
40
0.779081648354032
40
0.827774251376166
40
0.827774251376166
40
0.876466854398299
40
0.876466854398299
40
0.888640005153833
40
0.888640005153833
40
0.900813155909366
40
0.900813155909366
40
0.925159457420433
40
0.925159457420433
40
0.973852060442568
40
0.973852060442568
40
1
40
1
40
1
40
1
41
1
10
19.8465722208474
20
-1.82326614398033
30
0
41
1
10
19.7239356526332
20
-1.79303128683392
30
0
41
1
10
19.6014209125112
20
-1.75702643771771
30
0
41
1
10
19.4479278835293
20
-1.70518946285364
30
0
41
1
10
19.4172120856651
20
-1.69447917559367
30
0
41
1
10
19.3557344388552
20
-1.67237703887136
30
0
41
1
10
19.3249589057076
20
-1.66097941171901
30
0
41
1
10
19.2328543179699
20
-1.62588765360871
30
0
41
1
10
19.1716527366081
20
-1.60126163184069
30
0
41
1
10
18.9885203616177
20
-1.52383636495009
30
0
41
1
10
18.8671050805746
20
-1.46744505073909
30
0
41
1
10
18.6244178968199
20
-1.34633749872202
30
0
41
1
10
18.5030816158172
20
-1.28169257880424
30
0
41
1
10
18.3204541376876
20
-1.17934610270018
30
0
41
1
10
18.2594698973178
20
-1.14433940917186
30
0
41
1
10
18.1372546743564
20
-1.07257736944803
30
0
41
1
10
18.0760394009772
20
-1.03580578506535
30
0
41
1
10
17.9535071941552
20
-0.960301695405207
30
0
41
1
10
17.8922050152872
20
-0.921548803888641
30
0
41
1
10
17.8001940450234
20
-0.861856266675773
30
0
41
1
10
17.7695101895952
20
-0.841709143013475
30
0
41
1
10
17.7083512524732
20
-0.801141078999052
30
0
41
1
10
17.6778411794519
20
-0.780697622713006
30
0
41
1
10
17.5864633743148
20
-0.71896338892671
30
0
41
1
10
17.5257432314482
20
-0.677274852952905
30
0
41
1
10
17.4044388826544
20
-0.593189732167389
30
0
41
1
10
17.3438662977948
20
-0.550778193738665
30
0
41
1
10
17.1622043823589
20
-0.42269434957683
30
0
41
1
10
17.0411670692675
20
-0.336177832159535
30
0
41
1
10
16.7982867693191
20
-0.162226178359163
30
0
41
1
10
16.6764816128639
20
-0.0747435700404822
30
0
41
1
10
16.4930619276472
20
0.0570277107408685
30
0
41
1
10
16.4318034039296
20
0.101044668737899
30
0
41
1
10
16.3396953070711
20
0.167154534444876
30
0
41
1
10
16.3089549342518
20
0.189203542321167
30
0
41
1
10
16.2473845518008
20
0.2333054181492
30
0
41
1
10
16.2165676803818
20
0.255348706509551
30
0
41
1
10
16.0628991613999
20
0.36504307702333
30
0
41
1
10
15.9407616640133
20
0.451512417949942
30
0
41
1
10
15.6973239129293
20
0.620853697874509
30
0
41
1
10
15.5760336158159
20
0.70372764540619
30
0
41
1
10
15.3336246024927
20
0.864736283136637
30
0
41
1
10
15.2124692891132
20
0.942858052310413
30
0
41
1
10
14.9691980938877
20
1.09328780651313
30
0
41
1
10
14.8471041623033
20
1.16560523588438
30
0
41
1
10
14.6933970315107
20
1.25161986584718
30
0
41
1
10
14.6626496452301
20
1.26857547429148
30
0
41
1
10
14.6012944303496
20
1.30188941067615
30
0
41
1
10
14.5706619879523
20
1.31826155678289
30
0
41
1
10
14.4788850696114
20
1.36650561434536
30
0
41
1
10
14.4178635015858
20
1.39750004822142
30
0
41
1
10
14.2351004966475
20
1.48694930129187
30
0
41
1
10
14.1136452191471
20
1.54192050893417
30
0
41
1
10
13.8710540867227
20
1.6421445972199
30
0
41
1
10
13.7499216791
20
1.68739359427946
30
0
41
1
10
13.5071015617617
20
1.76755894182327
30
0
41
1
10
13.3853793210303
20
1.80246862281635
30
0
41
1
10
13.232136129358
20
1.83904007266901
30
0
41
1
10
13.2014356426191
20
1.84599964004084
30
0
41
1
10
13.1399217037627
20
1.85918471698991
30
0
41
1
10
13.1091447922703
20
1.86540151616927
30
0
41
1
10
13.017050260334
20
1.8828440788898
30
0
41
1
10
12.9558492911976
20
1.89288671817127
30
0
41
1
10
12.7725403725599
20
1.91874606960255
30
0
41
1
10
12.6508207300339
20
1.93008663098448
30
0
41
1
10
12.4640744832731
20
1.93853314301396
30
0
41
1
10
12.3989012122553
20
1.93979133120993
30
0
41
1
10
12.3337448857382
20
1.939321161995
30
0
0
SPLINE
5
13C
100
AcDbEntity
8
1
62
256
6
ByLayer
370
18
48
1
60
0
100
AcDbSpline
70
4
71
3
72
8
73
4
40
0
40
0
40
0
40
0
40
1
40
1
40
1
40
1
41
1
10
19.8465722208484
20
-1.82326614397965
30
0
41
1
10
19.8464777680021
20
-1.82246232880567
30
0
41
1
10
19.846383322
20
-1.82165848924154
30
0
41
1
10
19.846288882844
20
-1.82085462532029
30
0
0
SPLINE
5
13D
100
AcDbEntity
8
1
62
256
6
ByLayer
370
18
48
1
60
0
100
AcDbSpline
70
4
71
3
72
12
73
8
40
0
40
0
40
0
40
0
40
0.396431972909699
40
0.396431972909699
40
0.698215977866023
40
0.698215977866023
40
1
40
1
40
1
40
1
41
1
10
19.861967485154
20
-1.82327947909513
30
0
41
1
10
19.8598962058577
20
-1.82295906399958
30
0
41
1
10
19.8578247034021
20
-1.82263864487507
30
0
41
1
10
19.8541758834325
20
-1.82207429564699
30
0
41
1
10
19.8525986579041
20
-1.82183036814445
30
0
41
1
10
19.8494439568989
20
-1.82134250403553
30
0
41
1
10
19.8478664813994
20
-1.82109856742591
30
0
41
1
10
19.8462888828438
20
-1.82085462532044
30
0
0
SPLINE
5
13E
100
AcDbEntity
8
1
62
256
6
ByLayer
370
18
48
1
60
0
100
AcDbSpline
70
4
71
3
72
16
73
12
40
0
40
0
40
0
40
0
40
0.249999999999998
40
0.249999999999998
40
0.374999999999999
40
0.374999999999999
40
0.499999999999999
40
0.499999999999999
40
0.749999999999999
40
0.749999999999999
40
1
40
1
40
1
40
1
41
1
10
19.9983283526823
20
-1.79111279345537
30
0
41
1
10
19.9880075174188
20
-1.79917235302503
30
0
41
1
10
19.9771296366553
20
-1.80563337215187
30
0
41
1
10
19.9600928494853
20
-1.81329977663322
30
0
41
1
10
19.9543325839871
20
-1.8154931369956
30
0
41
1
10
19.9428335171318
20
-1.81918206607384
30
0
41
1
10
19.9370675264151
20
-1.82069003993738
30
0
41
1
10
19.9197197729403
20
-1.82431552915364
30
0
41
1
10
19.9080252775401
20
-1.82554095902969
30
0
41
1
10
19.8847956378041
20
-1.82589571806847
30
0
41
1
10
19.8733265555844
20
-1.82503666251571
30
0
41
1
10
19.8619674851535
20
-1.82327947909579
30
0
0
SPLINE
5
13F
100
AcDbEntity
8
1
62
256
6
ByLayer
370
18
48
1
60
0
100
AcDbSpline
70
4
71
3
72
8
73
4
40
0
40
0
40
0
40
0
40
1
40
1
40
1
40
1
41
1
10
19.9805280671085
20
-1.69518683244095
30
0
41
1
10
19.9863715205215
20
-1.72727116509236
30
0
41
1
10
19.9923037103347
20
-1.75924798450109
30
0
41
1
10
19.998328352684
20
-1.79111279345466
30
0
0
SPLINE
5
140
100
AcDbEntity
8
1
62
256
6
ByLayer
370
18
48
1
60
0
100
AcDbSpline
70
4
71
3
72
17
73
13
40
0
40
0
40
0
40
0
40
0.11943474408384
40
0.195392628214045
40
0.271350512344249
40
0.347308396474454
40
0.423266280604659
40
0.499224164734863
40
0.613160990930171
40
0.727097817125478
40
0.879013585385887
40
1
40
1
40
1
40
1
41
1
10
19.9805280681833
20
-1.69518683207761
30
0
41
1
10
19.7839804262704
20
-1.65051715038746
30
0
41
1
10
19.4624327843576
20
-1.55503681658053
30
0
41
1
10
19.0158851424447
20
-1.37646809065598
30
0
41
1
10
18.6408851424447
20
-1.1987372327707
30
0
41
1
10
18.2658851424448
20
-0.999472014713035
30
0
41
1
10
17.8908851424448
20
-0.783476477682399
30
0
41
1
10
17.4533851424448
20
-0.504447366254482
30
0
41
1
10
16.9533851424447
20
-0.169535811877523
30
0
41
1
10
16.3283851424448
20
0.247741557746281
30
0
41
1
10
15.6917839958036
20
0.665712181169766
30
0
41
1
10
15.2426828491624
20
0.932858271180692
30
0
41
1
10
15.0435817025212
20
1.04246683457834
30
0
0
SPLINE
5
141
100
AcDbEntity
8
1
62
256
6
ByLayer
370
18
48
1
60
0
100
AcDbSpline
70
4
71
3
72
8
73
4
40
0
40
0
40
0
40
0
40
1
40
1
40
1
40
1
41
1
10
8.14088514244474
20
-0.307583483246134
30
0
41
1
10
8.07520398390446
20
-0.269461032967655
30
0
41
1
10
8.00987000391515
20
-0.230715657031226
30
0
41
1
10
7.94492708801494
20
-0.191268613741499
30
0
0
SPLINE
5
142
100
AcDbEntity
8
1
62
256
6
ByLayer
370
18
48
1
60
0
100
AcDbSpline
70
4
71
3
72
52
73
48
40
0
40
0
40
0
40
0
40
0.0551180908313112
40
0.0551180908313112
40
0.11811021810923
40
0.11811021810923
40
0.14960628174819
40
0.14960628174819
40
0.18110234538715
40
0.18110234538715
40
0.212598409026109
40
0.212598409026109
40
0.228346440845589
40
0.228346440845589
40
0.244094472665069
40
0.244094472665069
40
0.307086599942981
40
0.307086599942981
40
0.370078727220894
40
0.370078727220894
40
0.433070854498806
40
0.433070854498806
40
0.496062981776718
40
0.496062981776718
40
0.511811013596195
40
0.511811013596195
40
0.527559045415671
40
0.527559045415671
40
0.559055109054628
40
0.559055109054628
40
0.62204723633254
40
0.62204723633254
40
0.685039363610452
40
0.685039363610452
40
0.748031490888364
40
0.748031490888364
40
0.779527554527319
40
0.779527554527319
40
0.811023618166273
40
0.811023618166273
40
0.874015745444183
40
0.874015745444183
40
0.937007872722093
40
0.937007872722093
40
0.968503936361046
40
0.968503936361046
40
1
40
1
40
1
40
1
41
1
10
13.9480585800802
20
-1.53205101713652
30
0
41
1
10
13.8415771936949
20
-1.57718178945325
30
0
41
1
10
13.7354392068767
20
-1.61891969102851
30
0
41
1
10
13.5082141953641
20
-1.70077382843186
30
0
41
1
10
13.3871482136253
20
-1.7398080981024
30
0
41
1
10
13.205068723394
20
-1.79090206072911
30
0
41
1
10
13.1442928738113
20
-1.80668125989513
30
0
41
1
10
13.0225046757927
20
-1.83558843340276
30
0
41
1
10
12.9614955524331
20
-1.84870120250682
30
0
41
1
10
12.839127224274
20
-1.87242891618519
30
0
41
1
10
12.7777756530475
20
-1.88301817539465
30
0
41
1
10
12.6854639086461
20
-1.89693034070197
30
0
41
1
10
12.6546691558281
20
-1.90123618760032
30
0
41
1
10
12.5932252875862
20
-1.90915859895122
30
0
41
1
10
12.56254769695
20
-1.91277950818326
30
0
41
1
10
12.4093639280012
20
-1.92918373094199
30
0
41
1
10
12.2874717759468
20
-1.9368926130648
30
0
41
1
10
12.0445138901337
20
-1.94114266068308
30
0
41
1
10
11.9234875084348
20
-1.93750298718982
30
0
41
1
10
11.6812856546166
20
-1.91971434090848
30
0
41
1
10
11.5601227650595
20
-1.90557945546135
30
0
41
1
10
11.3169932403562
20
-1.86665488026014
30
0
41
1
10
11.1950238027081
20
-1.84190633313267
30
0
41
1
10
11.0416254304709
20
-1.803671244909
30
0
41
1
10
11.0108675363084
20
-1.79565501748391
30
0
41
1
10
10.9494566162411
20
-1.77902292148093
30
0
41
1
10
10.9187894057491
20
-1.77040773207506
30
0
41
1
10
10.8268877468021
20
-1.74368574972775
30
0
41
1
10
10.7657545656363
20
-1.7246991315553
30
0
41
1
10
10.5826452826819
20
-1.66437433324191
30
0
41
1
10
10.4609483952691
20
-1.61971458435244
30
0
41
1
10
10.2178666378101
20
-1.52171620146393
30
0
41
1
10
10.0965133686376
20
-1.46828770301079
30
0
41
1
10
9.8536162532842
20
-1.35285457744229
30
0
41
1
10
9.73201038576323
20
-1.29110776934391
30
0
41
1
10
9.54889451447906
20
-1.19266408691479
30
0
41
1
10
9.48774083230981
20
-1.15885282281661
30
0
41
1
10
9.36508540675646
20
-1.08945322651965
30
0
41
1
10
9.30353781616645
20
-1.05385014540158
30
0
41
1
10
9.11950535167597
20
-0.945325554343469
30
0
41
1
10
8.99724128892547
20
-0.870416559962308
30
0
41
1
10
8.75296887533432
20
-0.716141166233342
30
0
41
1
10
8.63097281944709
20
-0.636739019130601
30
0
41
1
10
8.44765062673338
20
-0.514901408049269
30
0
41
1
10
8.38647621594913
20
-0.473866774106057
30
0
41
1
10
8.2638739856209
20
-0.391193533979646
30
0
41
1
10
8.20245131880705
20
-0.349541785246743
30
0
41
1
10
8.14088514244474
20
-0.307583483246134
30
0
0
SPLINE
5
143
100
AcDbEntity
8
1
62
256
6
ByLayer
370
18
48
1
60
0
100
AcDbSpline
70
4
71
3
72
13
73
9
40
0
40
0
40
0
40
0
40
0.0311367343502232
40
0.192613945291852
40
0.354091156233482
40
0.515568367175112
40
0.677045578116741
40
1
40
1
40
1
40
1
41
1
10
12.7855033868799
20
-1.76584016621089
30
0
41
1
10
12.7372973054015
20
-1.77191473443281
30
0
41
1
10
12.4390912239231
20
-1.8046773054995
30
0
41
1
10
11.8908851424447
20
-1.80995395791891
30
0
41
1
10
11.1408851424448
20
-1.68685239660448
30
0
41
1
10
10.3908851424447
20
-1.44491744691575
30
0
41
1
10
9.39088514244477
20
-0.986304399204727
30
0
41
1
10
8.64088514244477
20
-0.520668486122958
30
0
41
1
10
8.14088514244474
20
-0.202087272682917
30
0
0
SPLINE
5
144
100
AcDbEntity
8
1
62
256
6
ByLayer
370
18
48
1
60
0
100
AcDbSpline
70
4
71
3
72
17
73
13
40
0
40
0
40
0
40
0
40
0.0986345816708284
40
0.204263982011293
40
0.309893382351758
40
0.380312982578734
40
0.450732582805711
40
0.556361983146175
40
0.66199138348664
40
0.802830583940593
40
0.943669784394546
40
1
40
1
40
1
40
1
41
1
10
15.4161361806122
20
0.317532463309277
30
0
41
1
10
15.2410525012229
20
0.437404548335849
30
0
41
1
10
14.8784688218338
20
0.68149725071882
30
0
41
1
10
14.3283851424446
20
1.02452854091342
30
0
41
0.999999999999999
10
13.8283851424446
20
1.29524496061688
30
0
41
1
10
13.3908851424446
20
1.49446305812623
30
0
41
1
10
12.9533851424446
20
1.66017399898126
30
0
41
1
10
12.4533851424446
20
1.79615533418172
30
0
41
1
10
11.8283851424446
20
1.8766784475539
30
0
41
1
10
11.1408851424446
20
1.85089204769602
30
0
41
1
10
10.5408948424715
20
1.71041939474551
30
0
41
1
10
10.1909045424985
20
1.58676564038691
30
0
41
1
10
10.0909142425253
20
1.5482327689825
30
0
0
SPLINE
5
145
100
AcDbEntity
8
1
62
256
6
ByLayer
370
18
48
1
60
0
100
AcDbSpline
70
4
71
3
72
8
73
4
40
0
40
0
40
0
40
0
40
1
40
1
40
1
40
1
41
1
10
19.9173168410144
20
-1.99567903105324
30
0
41
1
10
19.9185092407282
20
-1.99639397611716
30
0
41
1
10
19.9197005123838
20
-1.99709507654166
30
0
41
1
10
19.9208906469388
20
-1.99778236522911
30
0
0
SPLINE
5
146
100
AcDbEntity
8
1
62
256
6
ByLayer
370
18
48
1
60
0
100
AcDbSpline
70
4
71
3
72
8
73
4
40
0
40
0
40
0
40
0
40
1
40
1
40
1
40
1
41
1
10
19.9172756443782
20
0.192307468918159
30
0
41
1
10
19.9184800914076
20
0.181427889716957
30
0
41
1
10
19.9196834952294
20
0.17054685889309
30
0
41
1
10
19.9208858494303
20
0.159664429312357
30
0
0
SPLINE
5
147
100
AcDbEntity
8
1
62
256
6
ByLayer
370
18
48
1
60
0
100
AcDbSpline
70
4
71
3
72
12
73
8
40
0
40
0
40
0
40
0
40
0.252382277782445
40
0.252382277782445
40
0.504764566028752
40
0.504764566028752
40
1
40
1
40
1
40
1
41
1
10
19.9355390436256
20
0.157377886364515
30
0
41
1
10
19.9343071978072
20
0.1575758461926
30
0
41
1
10
19.9330751268097
20
0.157772425777608
30
0
41
1
10
19.9306105372182
20
0.158162775089863
30
0
41
1
10
19.9293780168459
20
0.158356545107495
30
0
41
1
10
19.9257263335132
20
0.158926302508547
30
0
41
1
10
19.9233065212647
20
0.159298216353136
30
0
41
1
10
19.92088584943
20
0.15966442931267
30
0
0
SPLINE
5
148
100
AcDbEntity
8
1
62
256
6
ByLayer
370
18
48
1
60
0
100
AcDbSpline
70
4
71
3
72
8
73
4
40
0
40
0
40
0
40
0
40
1
40
1
40
1
40
1
41
1
10
19.9556815070872
20
0.134433478793937
30
0
41
1
10
19.9700591779362
20
0.129047821975235
30
0
41
1
10
19.9854715071534
20
0.1236032947578
30
0
41
1
10
20.0021435674867
20
0.118087091031015
30
0
0
SPLINE
5
149
100
AcDbEntity
8
1
62
256
6
ByLayer
370
18
48
1
60
0
100
AcDbSpline
70
4
71
3
72
19
73
15
40
0
40
0
40
0
40
0
40
0.0644873815133264
40
0.132512064777911
40
0.200536748042495
40
0.26856143130708
40
0.336586114571664
40
0.404610797836249
40
0.506647822733126
40
0.608684847630002
40
0.744734214159171
40
0.88078358068834
40
0.982820605585217
40
1
40
1
40
1
40
1
41
1
10
19.7463850419949
20
0.28997531649199
30
0
41
1
10
19.6278850754781
20
0.369150123377352
30
0
41
1
10
19.3843851089614
20
0.530195472744936
30
0
41
1
10
19.0158851424446
20
0.764680537781743
30
0
41
1
10
18.6408851424447
20
0.989128160777852
30
0
41
1
10
18.2658851424446
20
1.19483087924181
30
0
41
1
10
17.8908851424446
20
1.37857136392844
30
0
41
0.999999999999999
10
17.4533851424447
20
1.56362941383208
30
0
41
1
10
16.9533851424446
20
1.72760553109356
30
0
41
1
10
16.3283851424447
20
1.85113306860549
30
0
41
1
10
15.6408851424446
20
1.88034306538702
30
0
41
1
10
14.9533851424446
20
1.77962759208327
30
0
41
1
10
14.484316832255
20
1.64121007248357
30
0
41
1
10
14.2652485220654
20
1.56117664767453
30
0
41
1
10
14.2336802118757
20
1.54933280587096
30
0
0
SPLINE
5
14A
100
AcDbEntity
8
1
62
256
6
ByLayer
370
18
48
1
60
0
100
AcDbSpline
70
4
71
3
72
12
73
8
40
0
40
0
40
0
40
0
40
0.5
40
0.5
40
0.75
40
0.75
40
1
40
1
40
1
40
1
41
1
10
19.9846772553122
20
-1.99883409865544
30
0
41
1
10
19.9777037417355
20
-1.99861002490201
30
0
41
1
10
19.9703347063827
20
-1.99837504884692
30
0
41
1
10
19.9581409952064
20
-1.99806697527524
30
0
41
1
10
19.9538481214709
20
-1.99797179913549
30
0
41
1
10
19.9449795511533
20
-1.99782848287856
30
0
41
1
10
19.9403844703878
20
-1.99777897398641
30
0
41
1
10
19.9355436442141
20
-1.99777486391255
30
0
0
SPLINE
5
14B
100
AcDbEntity
8
1
62
256
6
ByLayer
370
18
48
1
60
0
100
AcDbSpline
70
4
71
3
72
32
73
28
40
0
40
0
40
0
40
0
40
0.113662208326376
40
0.113662208326376
40
0.170493312489567
40
0.170493312489567
40
0.227324416652757
40
0.227324416652757
40
0.340986624979137
40
0.340986624979137
40
0.39781772914233
40
0.39781772914233
40
0.454648833305522
40
0.454648833305522
40
0.568311041631911
40
0.568311041631911
40
0.625142145795108
40
0.625142145795108
40
0.681973249958305
40
0.681973249958305
40
0.795635458284703
40
0.795635458284703
40
0.909297666611101
40
0.909297666611101
40
0.966128770774301
40
0.966128770774301
40
1
40
1
40
1
40
1
41
1
10
8.14088514244477
20
-0.83852108464896
30
0
41
1
10
8.26387611041872
20
-0.918181175204495
30
0
41
1
10
8.38657585653121
20
-0.995262007450549
30
0
41
1
10
8.57073231105414
20
-1.10631830165002
30
0
41
1
10
8.63213640274941
20
-1.14257487357099
30
0
41
1
10
8.75507574433655
20
-1.21345258820943
30
0
41
1
10
8.81652530572234
20
-1.24802507715626
30
0
41
1
10
9.00059474709451
20
-1.3488242018492
30
0
41
1
10
9.12308302892171
20
-1.4122239004185
30
0
41
1
10
9.30701526335039
20
-1.501091587075
30
0
41
1
10
9.36835930226357
20
-1.52967270939931
30
0
41
1
10
9.49120115453869
20
-1.5846535702656
30
0
41
1
10
9.55275070404815
20
-1.61107422626824
30
0
41
1
10
9.73702855900669
20
-1.68663315997833
30
0
41
1
10
9.85956416758654
20
-1.7321669962185
30
0
41
1
10
10.0434278795994
20
-1.79286804205009
30
0
41
1
10
10.104726270296
20
-1.81183481454931
30
0
41
1
10
10.2274362948303
20
-1.84717585965487
30
0
41
1
10
10.2888863266463
20
-1.86356133840408
30
0
41
1
10
10.4732861904347
20
-1.90868665291359
30
0
41
1
10
10.5958559733497
20
-1.93331187193411
30
0
41
1
10
10.8410027671001
20
-1.97135692871458
30
0
41
1
10
10.963587252716
20
-1.98472220040171
30
0
41
1
10
11.1479848862469
20
-1.99619542699096
30
0
41
1
10
11.2094964391177
20
-1.99856954311161
30
0
41
1
10
11.3074651380076
20
-2.00006617134707
30
0
41
1
10
11.3440260611515
20
-2.00011697654233
30
0
41
1
10
11.3805724404729
20
-1.99966193624209
30
0
0
SPLINE
5
14C
100
AcDbEntity
8
1
62
256
6
ByLayer
370
18
48
1
60
0
100
AcDbSpline
70
4
71
3
72
16
73
12
40
0
40
0
40
0
40
0
40
0.0885270891963345
40
0.0885270891963345
40
0.544263544598175
40
0.544263544598175
40
0.658197658448631
40
0.658197658448631
40
0.772131772299088
40
0.772131772299088
40
1
40
1
40
1
40
1
41
1
10
18.306278800797
20
1.58701734102164
30
0
41
1
10
18.3540329185256
20
1.60774359495437
30
0
41
1
10
18.4018307316002
20
1.6277958450026
30
0
41
1
10
18.6952044316642
20
1.74645760221947
30
0
41
1
10
18.9395157358859
20
1.8263229201263
30
0
41
1
10
19.2466946734087
20
1.8996076644664
30
0
41
1
10
19.3081917513651
20
1.91292054166078
30
0
41
1
10
19.4308945434912
20
1.93671406432424
30
0
41
1
10
19.492169549142
20
1.94721179220309
30
0
41
1
10
19.6759047709857
20
1.97447776035847
30
0
41
1
10
19.7982778264155
20
1.98701659879274
30
0
41
1
10
19.920883172952
20
1.99385456675839
30
0
0
SPLINE
5
14D
100
AcDbEntity
8
1
62
256
6
ByLayer
370
18
48
1
60
0
100
AcDbSpline
70
4
71
3
72
40
73
36
40
0
40
0
40
0
40
0
40
0.0277956408795199
40
0.0572672969988656
40
0.116210609237557
40
0.145682265356903
40
0.175153921476248
40
0.204625577595594
40
0.23409723371494
40
0.263568889834285
40
0.293040545953631
40
0.322512202072977
40
0.337248030132649
40
0.351983858192322
40
0.410927170431014
40
0.440398826550359
40
0.469870482669705
40
0.499342138789051
40
0.528813794908396
40
0.587757107147088
40
0.617228763266434
40
0.646700419385779
40
0.676172075505125
40
0.705643731624471
40
0.764587043863162
40
0.794058699982508
40
0.80879452804218
40
0.823530356101853
40
0.853002012221199
40
0.882473668340545
40
0.91194532445989
40
0.926681152519563
40
0.941416980579236
40
0.970888636698582
40
1
40
1
40
1
40
1
41
1
10
8.14018131271774
20
1.96067219169328
30
0
41
1
10
8.21873678705686
20
1.94882640146383
30
0
41
1
10
8.38060522959802
20
1.91893824013835
30
0
41
1
10
8.7089427407399
20
1.83578902624689
30
0
41
1
10
9.04171948136428
20
1.71718907309321
30
0
41
1
10
9.37425133857647
20
1.56815223387269
30
0
41
1
10
9.62354675506958
20
1.44204169495185
30
0
41
1
10
9.87273222555913
20
1.30272128981542
30
0
41
1
10
10.1217904053845
20
1.1516268905844
30
0
41
1
10
10.3706789930839
20
0.990180875971248
30
0
41
1
10
10.6193193964814
20
0.819862058611847
30
0
41
1
10
10.8262428444325
20
0.67190124359584
30
0
41
1
10
10.9915840314654
20
0.550783900407509
30
0
41
1
10
11.2393859835932
20
0.366769994852234
30
0
41
1
10
11.5278249669645
20
0.146554660761666
30
0
41
1
10
11.8562855107983
20
-0.105718686517946
30
0
41
1
10
12.1019782841181
20
-0.29352235238062
30
0
41
1
10
12.3468508976574
20
-0.478096680229783
30
0
41
1
10
12.671954124698
20
-0.717476891199169
30
0
41
1
10
12.995259187873
20
-0.944040413739231
30
0
41
1
10
13.3173796183157
20
-1.15278648863657
30
0
41
1
10
13.5585453881459
20
-1.29918631916092
30
0
41
1
10
13.7994051874793
20
-1.43426008670212
30
0
41
1
10
14.1202897225972
20
-1.59787379669874
30
0
41
1
10
14.4409745290691
20
-1.73484628971474
30
0
41
1
10
14.7217065838024
20
-1.82865353315034
30
0
41
1
10
14.8822055483166
20
-1.87429200112959
30
0
41
1
10
15.0427772526882
20
-1.91470726333051
30
0
41
1
10
15.2436405619504
20
-1.95497354355527
30
0
41
1
10
15.4850243673451
20
-1.98671727708509
30
0
41
1
10
15.6865295745252
20
-1.99908377642748
30
0
41
1
10
15.8479862962872
20
-2.00025996475418
30
0
41
1
10
16.0096389335228
20
-1.99573660782147
30
0
41
1
10
16.2110983593962
20
-1.9792598592644
30
0
41
1
10
16.3725630199426
20
-1.95469491981524
30
0
41
1
10
16.4529301002293
20
-1.93970520047949
30
0
0
SPLINE
5
14E
100
AcDbEntity
8
1
62
256
6
ByLayer
370
18
48
1
60
0
100
AcDbSpline
70
4
71
3
72
22
73
18
40
0
40
0
40
0
40
0
40
0.0545516364808041
40
0.117774444389
40
0.244220060205392
40
0.307442868113589
40
0.370665676021785
40
0.433888483929981
40
0.497111291838177
40
0.623556907654569
40
0.686779715562765
40
0.718391119516863
40
0.750002523470961
40
0.813225331379158
40
0.876448139287354
40
0.93967094719555
40
1
40
1
40
1
40
1
41
1
10
8.1401959884019
20
-0.810647550457333
30
0
41
1
10
8.21146967845974
20
-0.857122360270438
30
0
41
1
10
8.36541793805276
20
-0.955818614124382
30
0
41
1
10
8.68489904754946
20
-1.15171120471783
30
0
41
1
10
9.01608826724976
20
-1.33736464860604
30
0
41
1
10
9.34752376171014
20
-1.50163563189352
30
0
41
1
10
9.5962013182637
20
-1.61311604405009
30
0
41
1
10
9.84494587991813
20
-1.71188366630508
30
0
41
1
10
10.1766351721313
20
-1.82557990282879
30
0
41
1
10
10.5082805270117
20
-1.91090030362696
30
0
41
1
10
10.7982113700501
20
-1.95922406415548
30
0
41
1
10
10.963789536033
20
-1.97901626549117
30
0
41
1
10
11.1292829885074
20
-1.99367036488303
30
0
41
1
10
11.3359713848506
20
-2.0020906250798
30
0
41
1
10
11.5836165125449
20
-1.99666961193213
30
0
41
1
10
11.8269995631923
20
-1.9761549018508
30
0
41
1
10
11.9876264771471
20
-1.9528472830562
30
0
41
1
10
12.0659585334521
20
-1.93920218658477
30
0
0
SPLINE
5
14F
100
AcDbEntity
8
1
62
256
6
ByLayer
370
18
48
1
60
0
100
AcDbSpline
70
4
71
3
72
8
73
4
40
0
40
0
40
0
40
0
40
1
40
1
40
1
40
1
41
1
10
19.920892188906
20
-1.99778221245896
30
0
41
1
10
19.9343747318798
20
-1.99825621390733
30
0
41
1
10
19.9478601490764
20
-1.99865438175308
30
0
41
1
10
19.961348945328
20
-1.9989766311231
30
0
0
SPLINE
5
150
100
AcDbEntity
8
1
62
256
6
ByLayer
370
18
48
1
60
0
100
AcDbSpline
70
4
71
3
72
20
73
16
40
0
40
0
40
0
40
0
40
0.0226171496599594
40
0.0867192066647289
40
0.150821263669498
40
0.279025377679037
40
0.407229491688575
40
0.471331548693344
40
0.535433605698114
40
0.599535662702883
40
0.663637719707652
40
0.727739776712422
40
0.791841833717191
40
0.920045947726729
40
1
40
1
40
1
40
1
41
1
10
15.8634115109422
20
1.99968927715599
30
0
41
1
10
15.8919302982445
20
1.99964764057765
30
0
41
1
10
16.0013427955882
20
1.99825845443885
30
0
41
1
10
16.1920937498252
20
1.98761839841885
30
0
41
1
10
16.5177652950169
20
1.94863977663019
30
0
41
1
10
16.9276752969765
20
1.8606438587272
30
0
41
1
10
17.3428522928093
20
1.72131130640531
30
0
41
1
10
17.6799275486147
20
1.57982898561929
30
0
41
1
10
17.9354470221421
20
1.45893899789362
30
0
41
1
10
18.1942228404052
20
1.32372770583078
30
0
41
1
10
18.4568268462195
20
1.17472482284282
30
0
41
1
10
18.7236394502257
20
1.01238859910896
30
0
41
1
10
19.0856570622365
20
0.778719387934558
30
0
41
1
10
19.4811799921643
20
0.505810464753665
30
0
41
1
10
19.7949095871457
20
0.28077781892631
30
0
41
1
10
19.9172756570422
20
0.192307458423159
30
0
0
SPLINE
5
151
100
AcDbEntity
8
1
62
256
6
ByLayer
370
18
48
1
60
0
100
AcDbSpline
70
4
71
3
72
8
73
4
40
0
40
0
40
0
40
0
40
1
40
1
40
1
40
1
41
1
10
19.9556815070978
20
0.134433478793085
30
0
41
1
10
19.9641186353108
20
0.133688565068695
30
0
41
1
10
19.972556062399
20
0.132945522745217
30
0
41
1
10
19.9809936284543
20
0.132204362700804
30
0
0
SPLINE
5
152
100
AcDbEntity
8
1
62
256
6
ByLayer
370
18
48
1
60
0
100
AcDbSpline
70
4
71
3
72
12
73
8
40
0
40
0
40
0
40
0
40
0.5
40
0.5
40
0.75
40
0.75
40
1
40
1
40
1
40
1
41
1
10
19.9809936284547
20
0.132204362701145
30
0
41
1
10
19.9744749858779
20
0.138048882536196
30
0
41
1
10
19.9675922098688
20
0.143422884906272
30
0
41
1
10
19.9562435498981
20
0.150164179060056
30
0
41
1
10
19.9522808654746
20
0.152179699609718
30
0
41
1
10
19.9441402962587
20
0.1554223043577
30
0
41
1
10
19.939936754276
20
0.156671166390936
30
0
41
1
10
19.9355390436256
20
0.157377886364515
30
0
0
SPLINE
5
153
100
AcDbEntity
8
1
62
256
6
ByLayer
370
18
48
1
60
0
100
AcDbSpline
70
4
71
3
72
10
73
6
40
0
40
0
40
0
40
0
40
0.316676543605873
40
0.316676543605873
40
1
40
1
40
1
40
1
41
1
10
7.89395377148014
20
-1.93056212061268
30
0
41
1
10
7.87904040288072
20
-1.92835744116508
30
0
41
1
10
7.86401083216876
20
-1.92638728735236
30
0
41
1
10
7.81616477255182
20
-1.92094446049342
30
0
41
1
10
7.78290295104412
20
-1.91837058273734
30
0
41
1
10
7.74896678360213
20
-1.9171577078495
30
0
0
SPLINE
5
154
100
AcDbEntity
8
1
62
256
6
ByLayer
370
18
48
1
60
0
100
AcDbSpline
70
4
71
3
72
28
73
24
40
0
40
0
40
0
40
0
40
0.062500000000005
40
0.062500000000005
40
0.12500000000001
40
0.12500000000001
40
0.187500000000015
40
0.187500000000015
40
0.25000000000002
40
0.25000000000002
40
0.375000000000014
40
0.375000000000014
40
0.437500000000019
40
0.437500000000019
40
0.500000000000025
40
0.500000000000025
40
0.625000000000018
40
0.625000000000018
40
0.750000000000012
40
0.750000000000012
40
0.875000000000006
40
0.875000000000006
40
1
40
1
40
1
40
1
41
1
10
6.55759804215492
20
-0.803675851215871
30
0
41
1
10
6.57580851912718
20
-0.786211459746028
30
0
41
1
10
6.59559625771931
20
-0.770730765261192
30
0
41
1
10
6.6374069044947
20
-0.742633843830475
30
0
41
1
10
6.65944150549606
20
-0.730031616410912
30
0
41
1
10
6.70527604707604
20
-0.707128673355726
30
0
41
1
10
6.72920484922258
20
-0.6967946593183
30
0
41
1
10
6.77754006523233
20
-0.678437163030196
30
0
41
1
10
6.80203402937198
20
-0.670359008687427
30
0
41
1
10
6.87630557765632
20
-0.648817197848246
30
0
41
1
10
6.92686260251295
20
-0.638013507321745
30
0
41
1
10
7.00387372655305
20
-0.625889255105875
30
0
41
1
10
7.02981132730935
20
-0.62253386109316
30
0
41
1
10
7.08158514056231
20
-0.617134088641592
30
0
41
1
10
7.10744703963047
20
-0.615081934277384
30
0
41
1
10
7.18496562543498
20
-0.610669617662069
30
0
41
1
10
7.23655564249376
20
-0.610043025421362
30
0
41
1
10
7.33958338442926
20
-0.612754292917941
30
0
41
1
10
7.39102084180246
20
-0.616098761445755
30
0
41
1
10
7.49375687064631
20
-0.626381493402903
30
0
41
1
10
7.54505531687886
20
-0.633322896149195
30
0
41
1
10
7.64752078703856
20
-0.650563866615528
30
0
41
1
10
7.69843363303761
20
-0.660823352759394
30
0
41
1
10
7.74896678359937
20
-0.672569873564157
30
0
0
SPLINE
5
155
100
AcDbEntity
8
1
62
256
6
ByLayer
370
18
48
1
60
0
100
AcDbSpline
70
4
71
3
72
10
73
6
40
0
40
0
40
0
40
0
40
0.5
40
0.5
40
1
40
1
40
1
40
1
41
1
10
7.94492708801539
20
-0.191268613741045
30
0
41
1
10
7.91337896400051
20
-0.167156539041912
30
0
41
1
10
7.88131875859392
20
-0.143549597746613
30
0
41
1
10
7.81605325151992
20
-0.0974652745996707
30
0
41
1
10
7.78284920790583
20
-0.0749866517641067
30
0
41
1
10
7.74896678360238
20
-0.0531772052592032
30
0
0
SPLINE
5
156
100
AcDbEntity
8
1
62
256
6
ByLayer
370
18
48
1
60
0
100
AcDbSpline
70
4
71
3
72
8
73
4
40
0
40
0
40
0
40
0
40
1
40
1
40
1
40
1
41
1
10
7.74896678359946
20
-0.672569873564129
30
0
41
1
10
7.83252668394547
20
-0.691993521148902
30
0
41
1
10
7.91346704044241
20
-0.719061860077602
30
0
41
1
10
7.99055191010143
20
-0.757218099152595
30
0
0
SPLINE
5
157
100
AcDbEntity
8
1
62
256
6
ByLayer
370
18
48
1
60
0
100
AcDbSpline
70
4
71
3
72
8
73
4
40
0
40
0
40
0
40
0
40
1
40
1
40
1
40
1
41
1
10
7.99055191010146
20
-0.757218099152567
30
0
41
1
10
8.04195363810422
20
-0.782661440124883
30
0
41
1
10
8.09206694180369
20
-0.8097578159975
30
0
41
1
10
8.14088240733508
20
-0.838519304660537
30
0
0
SPLINE
5
158
100
AcDbEntity
8
1
62
256
6
ByLayer
370
18
48
1
60
0
100
AcDbSpline
70
4
71
3
72
8
73
4
40
0
40
0
40
0
40
0
40
1
40
1
40
1
40
1
41
1
10
8.14019598840187
20
-0.810647550457333
30
0
41
1
10
8.14025035866234
20
-0.819938281618931
30
0
41
1
10
8.14048484920357
20
-0.829224961293079
30
0
41
1
10
8.14088514244435
20
-0.838505696354673
30
0
0
SPLINE
5
159
100
AcDbEntity
8
1
62
256
6
ByLayer
370
18
48
1
60
0
100
AcDbSpline
70
4
71
3
72
8
73
4
40
0
40
0
40
0
40
0
40
1
40
1
40
1
40
1
41
1
10
8.14018131271774
20
1.96067219169328
30
0
41
1
10
8.14023161460113
20
1.95869368336099
30
0
41
1
10
8.14046251014696
20
1.95671512663211
30
0
41
1
10
8.14085876025891
20
1.95473073963936
30
0
0
SPLINE
5
15A
100
AcDbEntity
8
1
62
256
6
ByLayer
370
18
48
1
60
0
100
AcDbSpline
70
4
71
1
72
4
73
2
40
0
40
0
40
1
40
1
41
1
10
8.14085876027985
20
1.95473073963919
30
0
41
1
10
8.14088514244472
20
1.95472937780525
30
0
0
SPLINE
5
15B
100
AcDbEntity
8
1
62
256
6
ByLayer
370
18
48
1
60
0
100
AcDbSpline
70
4
71
3
72
72
73
68
40
0
40
0
40
0
40
0
40
0.0480988897376354
40
0.0480988897376354
40
0.072148334606454
40
0.072148334606454
40
0.0961977794752726
40
0.0961977794752726
40
0.14429666921291
40
0.14429666921291
40
0.168346114081729
40
0.168346114081729
40
0.192395558950549
40
0.192395558950549
40
0.240494448688188
40
0.240494448688188
40
0.252519171122597
40
0.252519171122597
40
0.264543893557006
40
0.264543893557006
40
0.288593338425825
40
0.288593338425825
40
0.336692228163462
40
0.336692228163462
40
0.360741673032281
40
0.360741673032281
40
0.384791117901101
40
0.384791117901101
40
0.432890007638738
40
0.432890007638738
40
0.456939452507557
40
0.456939452507557
40
0.480988897376377
40
0.480988897376377
40
0.529087787114014
40
0.529087787114014
40
0.553137231982833
40
0.553137231982833
40
0.577186676851652
40
0.577186676851652
40
0.625285566589291
40
0.625285566589291
40
0.64933501145811
40
0.64933501145811
40
0.673384456326928
40
0.673384456326928
40
0.721483346064565
40
0.721483346064565
40
0.769582235802203
40
0.769582235802203
40
0.793631680671021
40
0.793631680671021
40
0.81768112553984
40
0.81768112553984
40
0.865780015277477
40
0.865780015277477
40
0.889829460146296
40
0.889829460146296
40
0.901854182580707
40
0.901854182580707
40
0.913878905015117
40
0.913878905015117
40
0.96197779475276
40
0.96197779475276
40
0.986027239621582
40
0.986027239621582
40
1
40
1
40
1
40
1
41
1
10
8.14088514244477
20
1.95472937780525
30
0
41
1
10
8.26435162488605
20
1.93470298070025
30
0
41
1
10
8.38745259061861
20
1.90818166388524
30
0
41
1
10
8.5722501872109
20
1.85885715361687
30
0
41
1
10
8.63387464815341
20
1.84082631371868
30
0
41
1
10
8.75729622523181
20
1.80163207736243
30
0
41
1
10
8.81893971356416
20
1.78051985220145
30
0
41
1
10
9.00364352618226
20
1.71287472791565
30
0
41
1
10
9.12656648314578
20
1.6620176746857
30
0
41
1
10
9.31132707390054
20
1.57756913969286
30
0
41
1
10
9.37300542543352
20
1.54803997987634
30
0
41
1
10
9.49648033198781
20
1.4863659248991
30
0
41
1
10
9.55811461642961
20
1.45430623589851
30
0
41
1
10
9.7428630357507
20
1.35462203749557
30
0
41
1
10
9.86581483746792
20
1.28348962755896
30
0
41
1
10
10.0198009954851
20
1.18929782486296
30
0
41
1
10
10.050613247797
20
1.17019565212169
30
0
41
1
10
10.112282758219
20
1.13147745316456
30
0
41
1
10
10.1431567524327
20
1.11185045512335
30
0
41
1
10
10.235675040141
20
1.05234503604564
30
0
41
1
10
10.2972536036955
20
1.01181995755689
30
0
41
1
10
10.4818710264465
20
0.887897970283547
30
0
41
1
10
10.6047923757914
20
0.802159297319264
30
0
41
1
10
10.7896531710067
20
0.669682528154198
30
0
41
1
10
10.8514272913691
20
0.624822524207019
30
0
41
1
10
10.9747806016139
20
0.534282314230637
30
0
41
1
10
11.0363724179823
20
0.488595493031681
30
0
41
1
10
11.221049331589
20
0.350495291304838
30
0
41
1
10
11.344025354169
20
0.257032705566871
30
0
41
1
10
11.5289304571358
20
0.11559478464963
30
0
41
1
10
11.590693469865
20
0.0682009516405913
30
0
41
1
10
11.7139366117652
20
-0.0264221496954349
30
0
41
1
10
11.7754732966203
20
-0.0736945529947661
30
0
41
1
10
11.9600144259328
20
-0.21514944000802
30
0
41
1
10
12.0829528307701
20
-0.308965649534628
30
0
41
1
10
12.2679486839861
20
-0.4480221210477
30
0
41
1
10
12.3297152212342
20
-0.494098304686389
30
0
41
1
10
12.4529658689318
20
-0.585110229061854
30
0
41
1
10
12.5145240647721
20
-0.630102560064955
30
0
41
1
10
12.6991531971819
20
-0.763356673644694
30
0
41
1
10
12.8221684892404
20
-0.849910697795366
30
0
41
1
10
13.0072382159684
20
-0.975521527569072
30
0
41
1
10
13.0689443985667
20
-1.01663245933125
30
0
41
1
10
13.1921024821086
20
-1.09693229212652
30
0
41
1
10
13.2536141681559
20
-1.13616187508703
30
0
41
1
10
13.4381330346458
20
-1.25087664417379
30
0
41
1
10
13.561126250945
20
-1.32338803696408
30
0
41
1
10
13.8080384600021
20
-1.45945308284394
30
0
41
1
10
13.9311393038624
20
-1.52254756752029
30
0
41
1
10
14.1157663306709
20
-1.60925594359136
30
0
41
1
10
14.1773123692943
20
-1.63684154709472
30
0
41
1
10
14.3005120961399
20
-1.68930430331935
30
0
41
1
10
14.3622053086593
20
-1.7141978355742
30
0
41
1
10
14.5473309529966
20
-1.78456854704575
30
0
41
1
10
14.6702871020324
20
-1.82556766579407
30
0
41
1
10
14.8547936745253
20
-1.87758172072503
30
0
41
1
10
14.9163073874384
20
-1.89336578584283
30
0
41
1
10
15.0086866540951
20
-1.91467734811963
30
0
41
1
10
15.0394984240007
20
-1.92138174584295
30
0
41
1
10
15.1011744588903
20
-1.93398483694594
30
0
41
1
10
15.1320506711473
20
-1.93988577212198
30
0
41
1
10
15.2862449690017
20
-1.96730935730659
30
0
41
1
10
15.4092543842222
20
-1.98267011345399
30
0
41
1
10
15.5938899422122
20
-1.99580596202173
30
0
41
1
10
15.6554535600842
20
-1.99852764172817
30
0
41
1
10
15.7529001697231
20
-2.00015340514179
30
0
41
1
10
15.7887587506463
20
-2.00017801043057
30
0
41
1
10
15.8246126015902
20
-1.99963762472342
30
0
0
SPLINE
5
15C
100
AcDbEntity
8
1
62
256
6
ByLayer
370
18
48
1
60
0
100
AcDbSpline
70
4
71
3
72
14
73
10
40
0
40
0
40
0
40
0
40
0.0004521672326928
40
0.0004521672326928
40
0.200361733786154
40
0.200361733786154
40
0.600180866893077
40
0.600180866893077
40
1
40
1
40
1
40
1
41
1
10
7.99285078505025
20
1.95019550292511
30
0
41
1
10
7.9928699148314
20
1.95020029566834
30
0
41
1
10
7.99288904720154
20
1.95020508689419
30
0
41
1
10
8.00136801743849
20
1.95232747470337
30
0
41
1
10
8.01035693867351
20
1.9541556126905
30
0
41
1
10
8.03826991165212
20
1.95877918604171
30
0
41
1
10
8.05811830347744
20
1.96071400905015
30
0
41
1
10
8.09863748321985
20
1.96234794681246
30
0
41
1
10
8.11934734631299
20
1.96204951716547
30
0
41
1
10
8.14018131271661
20
1.96067219169376
30
0
0
SPLINE
5
15D
100
AcDbEntity
8
1
62
256
6
ByLayer
370
18
48
1
60
0
100
AcDbSpline
70
4
71
3
72
18
73
14
40
0
40
0
40
0
40
0
40
0.125000000000003
40
0.125000000000003
40
0.250000000000005
40
0.250000000000005
40
0.375000000000008
40
0.375000000000008
40
0.500000000000011
40
0.500000000000011
40
0.750000000000005
40
0.750000000000005
40
1
40
1
40
1
40
1
41
1
10
7.94492708803136
20
-0.191268613739197
30
0
41
1
10
7.94452004996867
20
-0.218781104088208
30
0
41
1
10
7.94711071692623
20
-0.245885417570719
30
0
41
1
10
7.95569843684126
20
-0.299591410287093
30
0
41
1
10
7.96170744884074
20
-0.326192217655915
30
0
41
1
10
7.97566964509929
20
-0.379077119090937
30
0
41
1
10
7.98364001493201
20
-0.405361486873176
30
0
41
1
10
8.00061170826868
20
-0.457356414281549
30
0
41
1
10
8.00963749533676
20
-0.483127770290139
30
0
41
1
10
8.03768081197052
20
-0.559987236547528
30
0
41
1
10
8.05764093940894
20
-0.61065552923219
30
0
41
1
10
8.09839863105154
20
-0.711181845679164
30
0
41
1
10
8.1192358255409
20
-0.761045172920234
30
0
41
1
10
8.14019598839806
20
-0.810647550455656
30
0
0
SPLINE
5
15E
100
AcDbEntity
8
1
62
256
6
ByLayer
370
18
48
1
60
0
100
AcDbSpline
70
4
71
3
72
40
73
36
40
0
40
0
40
0
40
0
40
0.017028276619321
40
0.0671199962710182
40
0.0921658560968668
40
0.104688786009791
40
0.117211715922715
40
0.167303435574413
40
0.192349295400261
40
0.204872225313185
40
0.21739515522611
40
0.242441015051958
40
0.267486874877807
40
0.292532734703656
40
0.30505566461658
40
0.317578594529504
40
0.342624454355353
40
0.367670314181201
40
0.417762033832899
40
0.442807893658747
40
0.467853753484596
40
0.517945473136293
40
0.542991332962142
40
0.56803719278799
40
0.618128912439687
40
0.643174772265536
40
0.668220632091384
40
0.718312351743082
40
0.768404071394779
40
0.818495791046476
40
0.868587510698173
40
0.91867923034987
40
0.943725090175719
40
0.968770950001568
40
1
40
1
40
1
40
1
41
1
10
9.93627894972028
20
1.59370654649229
30
0
41
1
10
9.99251444318173
20
1.61906154098568
30
0
41
1
10
10.2141707365106
20
1.71483573150746
30
0
41
1
10
10.5184966132738
20
1.82275715408545
30
0
41
1
10
10.8077919714108
20
1.89783326642677
30
0
41
1
10
10.9730478428579
20
1.93251526474202
30
0
41
1
10
11.2208621752978
20
1.97615068711647
30
0
41
1
10
11.5097038599724
20
2.00251048841017
30
0
41
1
10
11.7978729692129
20
1.99921451292863
30
0
41
1
10
11.9623006899668
20
1.98884007897533
30
0
41
1
10
12.1265545101225
20
1.97280539074131
30
0
41
1
10
12.3315232974315
20
1.94234588055178
30
0
41
1
10
12.5768197069245
20
1.88960630706168
30
0
41
1
10
12.780528345436
20
1.8327576494174
30
0
41
1
10
12.9429596927256
20
1.77982773232071
30
0
41
1
10
13.1050181695502
20
1.72217632745026
30
0
41
1
10
13.3069960979236
20
1.64132982915092
30
0
41
1
10
13.6291166467706
20
1.4946435183615
30
0
41
1
10
13.9500342510951
20
1.32374267424268
30
0
41
1
10
14.2704770648165
20
1.13249971531297
30
0
41
1
10
14.5908175494245
20
0.929143570417494
30
0
41
1
10
14.9112612712705
20
0.70995278062756
30
0
41
1
10
15.232267705502
20
0.479913771514816
30
0
41
1
10
15.5538060719581
20
0.244240383804538
30
0
41
1
10
15.8763940908868
20
0.002817258627033
30
0
41
1
10
16.2005595239545
20
-0.23876830031702
30
0
41
1
10
16.5259795506034
20
-0.478668815232709
30
0
41
1
10
16.9352624922038
20
-0.771729825427656
30
0
41
1
10
17.4322983923518
20
-1.10135388838654
30
0
41
1
10
17.9387354922829
20
-1.39841652762181
30
0
41
1
10
18.4579865885607
20
-1.65154070051767
30
0
41
1
10
18.9049511135312
20
-1.8154272151811
30
0
41
1
10
19.2731645228407
20
-1.91144334260306
30
0
41
1
10
19.5783864512159
20
-1.96840505406013
30
0
41
1
10
19.7951227309923
20
-1.98989398612312
30
0
41
1
10
19.9173168555258
20
-1.99567903216689
30
0
0
SPLINE
5
15F
100
AcDbEntity
8
1
62
256
6
ByLayer
370
18
48
1
60
0
100
AcDbSpline
70
4
71
3
72
72
73
68
40
0
40
0
40
0
40
0
40
0.008516911161274
40
0.008516911161274
40
0.0288437673242511
40
0.0288437673242511
40
0.0491706234872282
40
0.0491706234872282
40
0.0898243358131825
40
0.0898243358131825
40
0.110151191976159
40
0.110151191976159
40
0.130478048139135
40
0.130478048139135
40
0.171131760465088
40
0.171131760465088
40
0.191458616628065
40
0.191458616628065
40
0.211785472791042
40
0.211785472791042
40
0.252439185116996
40
0.252439185116996
40
0.272766041279973
40
0.272766041279973
40
0.28292946936146
40
0.28292946936146
40
0.293092897442948
40
0.293092897442948
40
0.374400322094846
40
0.374400322094846
40
0.415054034420796
40
0.415054034420796
40
0.435380890583771
40
0.435380890583771
40
0.455707746746747
40
0.455707746746747
40
0.496361459072697
40
0.496361459072697
40
0.516688315235672
40
0.516688315235672
40
0.537015171398647
40
0.537015171398647
40
0.618322596050548
40
0.618322596050548
40
0.658976308376499
40
0.658976308376499
40
0.679303164539474
40
0.689466592620961
40
0.689466592620961
40
0.699630020702449
40
0.699630020702449
40
0.740283733028397
40
0.740283733028397
40
0.760610589191372
40
0.770774017272859
40
0.770774017272859
40
0.780937445354347
40
0.780937445354347
40
0.862244870006243
40
0.862244870006243
40
0.94355229465814
40
0.94355229465814
40
0.953715722739627
40
0.953715722739627
40
0.963879150821114
40
0.984206006984088
40
1
40
1
40
1
40
1
41
1
10
9.90981717055007
20
1.60009260995162
30
0
41
1
10
9.93557210487236
20
1.61162599832949
30
0
41
1
10
9.96133019173436
20
1.62293917570926
30
0
41
1
10
10.0485873808588
20
1.66049637045566
30
0
41
1
10
10.1101198127381
20
1.68569149513002
30
0
41
1
10
10.2333744557951
20
1.73344583679017
30
0
41
1
10
10.2950083655375
20
1.75596992853369
30
0
41
1
10
10.4795707679574
20
1.81922220723479
30
0
41
1
10
10.6023698819129
20
1.85572264787837
30
0
41
1
10
10.7868531602837
20
1.90158112672387
30
0
41
1
10
10.8483951091415
20
1.91538150226754
30
0
41
1
10
10.9716817478702
20
1.9399242833957
30
0
41
1
10
11.0333554210294
20
1.95064778387226
30
0
41
1
10
11.2180098682717
20
1.9780853495175
30
0
41
1
10
11.340851492268
20
1.99013845859545
30
0
41
1
10
11.5253159157388
20
1.9988529889099
30
0
41
1
10
11.5868384578533
20
2.00019348518663
30
0
41
1
10
11.7100623446307
20
1.99970602531451
30
0
41
1
10
11.7717105729114
20
1.99787446113183
30
0
41
1
10
11.9562748335041
20
1.98761863499007
30
0
41
1
10
12.0790677695808
20
1.9744160817626
30
0
41
1
10
12.2635355543594
20
1.94533782192721
30
0
41
1
10
12.3250702460863
20
1.93409744801102
30
0
41
1
10
12.4175143583515
20
1.91492851324082
30
0
41
1
10
12.4483729964571
20
1.9081492907429
30
0
41
1
10
12.5099521480268
20
1.8938719365195
30
0
41
1
10
12.5406919252327
20
1.88637032193588
30
0
41
1
10
12.8169582707595
20
1.81564410594368
30
0
41
1
10
13.059730597262
20
1.72980269012462
30
0
41
1
10
13.4246285503521
20
1.57058660194738
30
0
41
1
10
13.5463870039267
20
1.51246798801083
30
0
41
1
10
13.7298546410001
20
1.41810026677248
30
0
41
1
10
13.7911481573651
20
1.38544763770099
30
0
41
1
10
13.9141145196762
20
1.31780885613017
30
0
41
1
10
13.9758633640715
20
1.28277563643934
30
0
41
1
10
14.1606251253459
20
1.17497691007014
30
0
41
1
10
14.2834909336368
20
1.09934342165911
30
0
41
1
10
14.4678933767164
20
0.980909018028456
30
0
41
1
10
14.5293788128544
20
0.94060049624261
30
0
41
1
10
14.6524931371913
20
0.858443746571766
30
0
41
1
10
14.7142136629293
20
0.816531387814592
30
0
41
1
10
15.021551297292
20
0.60476107818377
30
0
41
1
10
15.2644648213107
20
0.427724848829797
30
0
41
1
10
15.6294115996892
20
0.157490011867537
30
0
41
1
10
15.7511302428694
20
0.0666008710456083
30
0
41
1
10
15.9343654442667
20
-0.0702078443756591
30
0
41
1
10
16.0261496921595
20
-0.138728333923382
30
0
41
1
10
16.1183064423752
20
-0.207263116775494
30
0
41
1
10
16.1798419798531
20
-0.252936874728817
30
0
41
1
10
16.2106832826479
20
-0.275783940509456
30
0
41
1
10
16.3647064228123
20
-0.389587077236172
30
0
41
1
10
16.4875439400913
20
-0.479395440694248
30
0
41
1
10
16.6718994134174
20
-0.611404074068446
30
0
41
1
10
16.7641007286779
20
-0.676734904055223
30
0
41
1
10
16.8564514523245
20
-0.740908899705204
30
0
41
1
10
16.9180637157893
20
-0.783418635195972
30
0
41
1
10
16.9489189355848
20
-0.804554955211898
30
0
41
1
10
17.2261846191645
20
-0.993016673378406
30
0
41
1
10
17.4693574847086
20
-1.14791343284665
30
0
41
1
10
17.9556534790657
20
-1.42605222286937
30
0
41
1
10
18.198814990929
20
-1.54924563268429
30
0
41
1
10
18.4761895140021
20
-1.6657933137507
30
0
41
1
10
18.5070344871343
20
-1.67842425734975
30
0
41
1
10
18.5686313357118
20
-1.70297773299222
30
0
41
1
10
18.6609558988677
20
-1.73877409522225
30
0
41
1
10
18.8008587479067
20
-1.78837333645819
30
0
41
1
10
18.9099698242535
20
-1.82261256414139
30
0
41
1
10
18.9576905751847
20
-1.83671428670425
30
0
0
SPLINE
5
160
100
AcDbEntity
8
1
62
256
6
ByLayer
370
18
48
1
60
0
100
AcDbSpline
70
4
71
3
72
14
73
10
40
0
40
0
40
0
40
0
40
0.107341610261879
40
0.107341610261879
40
0.330506207696409
40
0.330506207696409
40
0.55367080513094
40
0.55367080513094
40
1
40
1
40
1
40
1
41
1
10
19.094457277173
20
-1.87472176322672
30
0
41
1
10
19.1240261904379
20
-1.88241473337754
30
0
41
1
10
19.1536086619729
20
-1.88976894349778
30
0
41
1
10
19.2447535059409
20
-1.91135853595728
30
0
41
1
10
19.3064531046952
20
-1.92446733143908
30
0
41
1
10
19.4295753296004
20
-1.9475532747947
30
0
41
1
10
19.4910390476688
20
-1.95754378172148
30
0
41
1
10
19.6753019311876
20
-1.98283693442227
30
0
41
1
10
19.7979757009111
20
-1.99346087682869
30
0
41
1
10
19.920892188906
20
-1.99778221245896
30
0
0
SPLINE
5
161
100
AcDbEntity
8
1
62
256
6
ByLayer
370
18
48
1
60
0
100
AcDbSpline
70
4
71
3
72
8
73
4
40
0
40
0
40
0
40
0
40
1
40
1
40
1
40
1
41
1
10
19.9208902404732
20
0.159636228398682
30
0
41
1
10
19.9324834142079
20
0.151242099761049
30
0
41
1
10
19.9440804063007
20
0.142841051602147
30
0
41
1
10
19.9556815070972
20
0.134433478786178
30
0
0
SPLINE
5
162
100
AcDbEntity
8
1
62
256
6
ByLayer
370
18
48
1
60
0
100
AcDbSpline
70
4
71
3
72
49
73
45
40
0
40
0
40
0
40
0
40
0.0619724125871892
40
0.0619724125871892
40
0.124507585081375
40
0.124507585081375
40
0.155775171328467
40
0.155775171328467
40
0.171408964452015
40
0.171408964452015
40
0.187042757575562
40
0.187042757575562
40
0.24957793006975
40
0.24957793006975
40
0.280845516316844
40
0.280845516316844
40
0.312113102563937
40
0.312113102563937
40
0.374648275058127
40
0.374648275058127
40
0.405915861305221
40
0.405915861305221
40
0.437183447552315
40
0.437183447552315
40
0.4997186200465
40
0.4997186200465
40
0.530986206293593
40
0.530986206293593
40
0.562253792540685
40
0.562253792540685
40
0.624788965034873
40
0.624788965034873
40
0.68732413752906
40
0.68732413752906
40
0.749859310023248
40
0.749859310023248
40
0.812394482517435
40
0.812394482517435
40
0.828028275640982
40
0.828028275640982
40
0.843662068764529
40
0.874929655011623
40
0.874929655011623
40
1
40
1
40
1
40
1
41
1
10
14.0386490146494
20
1.5971029432429
30
0
41
1
10
14.159063458752
20
1.64973767185117
30
0
41
1
10
14.2793454403113
20
1.69771385132449
30
0
41
1
10
14.521383092321
20
1.78424838476713
30
0
41
1
10
14.6431419691183
20
1.82271603622576
30
0
41
1
10
14.8266535603665
20
1.87244805538757
30
0
41
1
10
14.8879704911434
20
1.88769594498859
30
0
41
1
10
14.9802452259307
20
1.90849971885044
30
0
41
1
10
15.011033638871
20
1.91508452221495
30
0
41
1
10
15.0725261652225
20
1.92751536108906
30
0
41
1
10
15.103252751609
20
1.9333665347431
30
0
41
1
10
15.2568184255489
20
1.96079125173986
30
0
41
1
10
15.3794606763431
20
1.97685786708925
30
0
41
1
10
15.563661706933
20
1.99206489099456
30
0
41
1
10
15.6251003941934
20
1.99565351847602
30
0
41
1
10
15.7481357419686
20
1.99985704088786
30
0
41
1
10
15.8097441066361
20
2.00046761551016
30
0
41
1
10
15.9941431995371
20
1.99782512592694
30
0
41
1
10
16.1167723507434
20
1.99011646889676
30
0
41
1
10
16.3008591815186
20
1.9696681350747
30
0
41
1
10
16.3622457120833
20
1.96137196060465
30
0
41
1
10
16.4851702542122
20
1.94182894734592
30
0
41
1
10
16.5467727983691
20
1.93056672577748
30
0
41
1
10
16.7312738364358
20
1.89253232150537
30
0
41
1
10
16.8539743721898
20
1.86151738564172
30
0
41
1
10
17.0381104731096
20
1.80682779901355
30
0
41
1
10
17.0995021897807
20
1.78723520193475
30
0
41
1
10
17.2224018655781
20
1.74536867299716
30
0
41
1
10
17.2839617232626
20
1.72307453388959
30
0
41
1
10
17.4685914095323
20
1.6523695128773
30
0
41
1
10
17.5912902732017
20
1.60026697256342
30
0
41
1
10
17.8366971381638
20
1.4868131877449
30
0
41
1
10
17.9594085857195
20
1.42547365849083
30
0
41
1
10
18.2056454871275
20
1.29427606627081
30
0
41
1
10
18.3284579133366
20
1.22479218909993
30
0
41
1
10
18.5739579066969
20
1.07907335990345
30
0
41
1
10
18.6966837985018
20
1.00280792811535
30
0
41
1
10
18.8505014032637
20
0.903702993670066
30
0
41
1
10
18.8813058921268
20
0.883680509022582
30
0
41
1
10
18.9428150417076
20
0.843373579827215
30
0
41
1
10
19.0349611546151
20
0.782500242520513
30
0
41
1
10
19.1268098971432
20
0.720465213037016
30
0
41
1
10
19.4325577226527
20
0.511436432816879
30
0
41
1
10
19.6758519326788
20
0.337058142693365
30
0
41
1
10
19.9208902404732
20
0.159636228398682
30
0
0
SPLINE
5
163
100
AcDbEntity
8
1
62
256
6
ByLayer
370
18
48
1
60
0
100
AcDbSpline
70
4
71
1
72
4
73
2
40
0
40
0
40
1
40
1
41
1
10
19.498990190559
20
1.20732657343982
30
0
41
1
10
19.4282539777489
20
1.23496747114356
30
0
0
SPLINE
5
164
100
AcDbEntity
8
1
62
256
6
ByLayer
370
18
48
1
60
0
100
AcDbSpline
70
4
71
2
72
6
73
3
40
0
40
0
40
0
40
1
40
1
40
1
41
1
10
16.1233663892493
20
0.905882898126549
30
0
41
1
10
15.8352406956435
20
0.983545738416325
30
0
41
1
10
15.5724555129227
20
1.09954782937456
30
0
0
SPLINE
5
165
100
AcDbEntity
8
1
62
256
6
ByLayer
370
18
48
1
60
0
100
AcDbSpline
70
4
71
3
72
9
73
5
40
0
40
0
40
0
40
0
40
0.91562240653193
40
1
40
1
40
1
40
1
41
1
10
18.4789270388471
20
1.54627257014471
30
0
41
1
10
18.3676075196075
20
1.5723194411006
30
0
41
1
10
18.2461143881463
20
1.59829727843089
30
0
41
1
10
18.1246161709567
20
1.62161062044811
30
0
41
1
10
18.1143646919071
20
1.62355867981421
30
0
0
SPLINE
5
166
100
AcDbEntity
8
1
62
256
6
ByLayer
370
18
48
1
60
0
100
AcDbSpline
70
4
71
3
72
8
73
4
40
0
40
0
40
0
40
0
40
1
40
1
40
1
40
1
41
1
10
17.3673705128163
20
1.73052476864956
30
0
41
1
10
17.2977296876283
20
1.73700203040104
30
0
41
1
10
17.2280504319137
20
1.74242709035045
30
0
41
1
10
17.1583413191096
20
1.74681778052999
30
0
0
SPLINE
5
167
100
AcDbEntity
8
1
62
256
6
ByLayer
370
18
48
1
60
0
100
AcDbSpline
70
4
71
2
72
6
73
3
40
0
40
0
40
0
40
1
40
1
40
1
41
1
10
8.57980187276183
20
-1.73929718091486
30
0
41
1
10
9.06618590562874
20
-1.70551707426242
30
0
41
1
10
9.54123184450657
20
-1.61006582776187
30
0
0
SPLINE
5
168
100
AcDbEntity
8
1
62
256
6
ByLayer
370
18
48
1
60
0
100
AcDbSpline
70
4
71
2
72
6
73
3
40
0
40
0
40
0
40
1
40
1
40
1
41
1
10
11.8384878930366
20
0.948862523243946
30
0
41
1
10
11.4817002293378
20
1.03106059204518
30
0
41
1
10
11.1222254956698
20
1.19253924304408
30
0
0
SPLINE
5
169
100
AcDbEntity
8
1
62
256
6
ByLayer
370
18
48
1
60
0
100
AcDbSpline
70
4
71
3
72
8
73
4
40
0
40
0
40
0
40
0
40
1
40
1
40
1
40
1
41
1
10
8.74115023374574
20
-1.71890038020345
30
0
41
1
10
8.62655206289278
20
-1.73484789539475
30
0
41
1
10
8.51196813687764
20
-1.74635442112273
30
0
41
1
10
8.39745820383899
20
-1.75295729143303
30
0
0
SPLINE
5
16A
100
AcDbEntity
8
1
62
256
6
ByLayer
370
18
48
1
60
0
100
AcDbSpline
70
4
71
3
72
14
73
10
40
0
40
0
40
0
40
0
40
0.221731437534703
40
0.402114843483098
40
0.54129926932937
40
0.6392950851501
40
0.780415232765946
40
0.991211380080839
40
1
40
1
40
1
40
1
41
1
10
12.4854312006185
20
-1.75650536006887
30
0
41
1
10
12.5988593413161
20
-1.75299128608526
30
0
41
1
10
12.8047081606355
20
-1.74179991414945
30
0
41
1
10
13.0822954877184
20
-1.71495537837967
30
0
41
1
10
13.2964602291995
20
-1.68705810224125
30
0
41
1
10
13.4913344709881
20
-1.65700040385002
30
0
41
1
10
13.7222053690272
20
-1.61611105798741
30
0
41
1
10
13.9062264699942
20
-1.57769417504826
30
0
41
1
10
14.0182513409736
20
-1.5522516892224
30
0
41
1
10
14.0227349960814
20
-1.55123008972987
30
0
0
SPLINE
5
16B
100
AcDbEntity
8
1
62
256
6
ByLayer
370
18
48
1
60
0
100
AcDbSpline
70
4
71
3
72
8
73
4
40
0
40
0
40
0
40
0
40
1
40
1
40
1
40
1
41
1
10
10.2064436952345
20
1.52052649533456
30
0
41
1
10
10.0863671751823
20
1.55235446875434
30
0
41
1
10
9.96606690959558
20
1.58107201270266
30
0
41
1
10
9.84559534513056
20
1.60674522490189
30
0
0
SPLINE
5
16C
100
AcDbEntity
8
1
62
256
6
ByLayer
370
18
48
1
60
0
100
AcDbSpline
70
4
71
3
72
11
73
7
40
0
40
0
40
0
40
0
40
0.330719848887295
40
0.584135446033512
40
0.806214927092322
40
1
40
1
40
1
40
1
41
1
10
16.8486151456337
20
-1.75670129286198
30
0
41
1
10
17.0032720377327
20
-1.75157252354347
30
0
41
1
10
17.2763022014369
20
-1.73235807978082
30
0
41
1
10
17.6521496146549
20
-1.68018775954931
30
0
41
1
10
17.9649679061225
20
-1.62154063819696
30
0
41
1
10
18.1594796762326
20
-1.57819288008514
30
0
41
1
10
18.2501614433818
20
-1.55643298866755
30
0
0
SPLINE
5
16D
100
AcDbEntity
8
1
62
256
6
ByLayer
370
18
48
1
60
0
100
AcDbSpline
70
4
71
3
72
10
73
6
40
0
40
0
40
0
40
0
40
0.478003482833596
40
0.810785638155023
40
1
40
1
40
1
40
1
41
1
10
14.8696593317287
20
1.36561062903502
30
0
41
1
10
14.7240525507741
20
1.41207053288608
30
0
41
1
10
14.4768225695356
20
1.48440108698514
30
0
41
1
10
14.171884251916
20
1.56026622534543
30
0
41
1
10
14.0121061318088
20
1.59515247942673
30
0
41
1
10
13.9542140492373
20
1.60714948477064
30
0
0
SPLINE
5
16E
100
AcDbEntity
8
1
62
256
6
ByLayer
370
18
48
1
60
0
100
AcDbSpline
70
4
71
2
72
6
73
3
40
0
40
0
40
0
40
1
40
1
40
1
41
1
10
19.4007248589386
20
0.999589477020123
30
0
41
1
10
19.400711117692
20
0.999577225449741
30
0
41
1
10
19.4006973764465
20
0.999566658571922
30
0
0
SPLINE
5
16F
100
AcDbEntity
8
1
62
256
6
ByLayer
370
18
48
1
60
0
100
AcDbSpline
70
4
71
3
72
11
73
7
40
0
40
0
40
0
40
0
40
0.184639503392666
40
0.45329380190329
40
0.719250086019635
40
1
40
1
40
1
40
1
41
1
10
8.42563456207535
20
1.93475557541808
30
0
41
1
10
8.42571553078344
20
1.93322526027541
30
0
41
1
10
8.42129406368156
20
1.92991463421566
30
0
41
1
10
8.39699714301662
20
1.92552422312832
30
0
41
1
10
8.3417654164993
20
1.92730368549988
30
0
41
1
10
8.29205214116169
20
1.93473588549
30
0
41
1
10
8.26263486722306
20
1.94005923589236
30
0
0
SPLINE
5
170
100
AcDbEntity
8
1
62
256
6
ByLayer
370
18
48
1
60
0
100
AcDbSpline
70
4
71
2
72
6
73
3
40
0
40
0
40
0
40
1
40
1
40
1
41
1
10
10.9791594950281
20
1.00038146881445
30
0
41
1
10
10.9791443722993
20
1.00038897797293
30
0
41
1
10
10.9791292495728
20
1.00039844863375
30
0
0
SPLINE
5
171
100
AcDbEntity
8
1
62
256
6
ByLayer
370
18
48
1
60
0
100
AcDbSpline
70
4
71
2
72
6
73
3
40
0
40
0
40
0
40
1
40
1
40
1
41
1
10
15.120189981796
20
0.999864244641515
30
0
41
1
10
15.1201751136634
20
0.999869671545156
30
0
41
1
10
15.1201602455576
20
0.999876950829417
30
0
0
SPLINE
5
172
100
AcDbEntity
8
1
62
256
6
ByLayer
370
18
48
1
60
0
100
AcDbSpline
70
4
71
1
72
4
73
2
40
0
40
0
40
1
40
1
41
1
10
20.1018141036999
20
-0.174050459204921
30
0
41
1
10
20.1355229083948
20
0.0873302516117747
30
0
0
SPLINE
5
173
100
AcDbEntity
8
1
62
256
6
ByLayer
370
18
48
1
60
0
100
AcDbSpline
70
4
71
1
72
4
73
2
40
0
40
0
40
1
40
1
41
1
10
20.1354964887556
20
0.101378612680406
30
0
41
1
10
20.1018087641323
20
0.354702286133232
30
0
0
LINE
5
79
100
AcDbEntity
8
80
62
256
6
ByLayer
370
18
48
1
60
0
100
AcDbLine
10
0
20
0
30
0
11
-5
21
0
31
0
39
0
210
0
220
0
230
1
0
LINE
5
7A
100
AcDbEntity
8
4
62
256
6
ByLayer
370
18
48
0.05
60
0
100
AcDbLine
10
0
20
0
30
0
11
20.140885
21
0
31
0
39
0
210
0
220
0
230
1
0
LINE
5
7C
100
AcDbEntity
8
81
62
256
6
ByLayer
370
18
48
1
60
0
100
AcDbLine
10
20.140885
20
0
30
0
11
25.140885
21
0
31
0
39
0
210
0
220
0
230
1
0
LINE
5
7D
100
AcDbEntity
8
SK4
62
256
6
ByLayer
370
18
48
0.05
60
0
100
AcDbLine
10
-36.859115
20
0
30
0
11
20.140885
21
0
31
0
39
0
210
0
220
0
230
1
0
LINE
5
7F
100
AcDbEntity
8
1
62
256
6
ByLayer
370
18
48
1
60
0
100
AcDbLine
10
20.101851
20
-0.173302
30
0
11
20.092654
21
-0.178723
31
0
39
0
210
0
220
0
230
1
0
LINE
5
80
100
AcDbEntity
8
1
62
256
6
ByLayer
370
18
48
1
60
0
100
AcDbLine
10
20.130506
20
0.084104
30
0
11
20.135477
21
0.087438
31
0
39
0
210
0
220
0
230
1
0
LINE
5
81
100
AcDbEntity
8
1
62
256
6
ByLayer
370
18
48
1
60
0
100
AcDbLine
10
20.135477
20
0.087438
30
0
11
20.133395
21
0.0878
31
0
39
0
210
0
220
0
230
1
0
LINE
5
82
100
AcDbEntity
8
1
62
256
6
ByLayer
370
18
48
1
60
0
100
AcDbLine
10
20.090488
20
-0.097013
30
0
11
20.102167
21
0.013997
31
0
39
0
210
0
220
0
230
1
0
LINE
5
83
100
AcDbEntity
8
1
62
256
6
ByLayer
370
18
48
1
60
0
100
AcDbLine
10
20.08116
20
-0.003271
30
0
11
20.087997
21
-0.00305
31
0
39
0
210
0
220
0
230
1
0
LINE
5
84
100
AcDbEntity
8
1
62
256
6
ByLayer
370
18
48
1
60
0
100
AcDbLine
10
20.087893
20
0.001059
30
0
11
20.088234
21
0.013902
31
0
39
0
210
0
220
0
230
1
0
LINE
5
85
100
AcDbEntity
8
1
62
256
6
ByLayer
370
18
48
1
60
0
100
AcDbLine
10
20.097276
20
0.354187
30
0
11
20.135477
21
1.791886
31
0
39
0
210
0
220
0
230
1
0
LINE
5
86
100
AcDbEntity
8
1
62
256
6
ByLayer
370
18
48
1
60
0
100
AcDbLine
10
20.07451
20
0.001548
30
0
11
20.087893
21
0.001059
31
0
39
0
210
0
220
0
230
1
0
LINE
5
87
100
AcDbEntity
8
1
62
256
6
ByLayer
370
18
48
1
60
0
100
AcDbLine
10
20.087997
20
-0.00305
30
0
11
20.135477
21
-1.794299
31
0
39
0
210
0
220
0
230
1
0
LINE
5
88
100
AcDbEntity
8
1
62
256
6
ByLayer
370
18
48
1
60
0
100
AcDbLine
10
20.081692
20
-0.023904
30
0
11
20.087997
21
-0.00305
31
0
39
0
210
0
220
0
230
1
0
LINE
5
89
100
AcDbEntity
8
1
62
256
6
ByLayer
370
18
48
1
60
0
100
AcDbLine
10
20.081114
20
-0.023487
30
0
11
20.081692
21
-0.023904
31
0
39
0
210
0
220
0
230
1
0
LINE
5
8A
100
AcDbEntity
8
1
62
256
6
ByLayer
370
18
48
1
60
0
100
AcDbLine
10
20.08117
20
0.001304
30
0
11
20.081114
21
-0.023487
31
0
39
0
210
0
220
0
230
1
0
LINE
5
8B
100
AcDbEntity
8
1
62
256
6
ByLayer
370
18
48
1
60
0
100
AcDbLine
10
20.077005
20
-0.113234
30
0
11
20.07451
21
0.001548
31
0
39
0
210
0
220
0
230
1
0
LINE
5
8C
100
AcDbEntity
8
1
62
256
6
ByLayer
370
13
48
1
60
0
100
AcDbLine
10
19.962656
20
0.012849
30
0
11
20.077005
21
-0.113234
31
0
39
0
210
0
220
0
230
1
0
LINE
5
8D
100
AcDbEntity
8
1
62
256
6
ByLayer
370
13
48
1
60
0
100
AcDbLine
10
7.997326
20
1.914766
30
0
11
8.140885
21
1.82513
31
0
39
0
210
0
220
0
230
1
0
LINE
5
8E
100
AcDbEntity
8
1
62
256
6
ByLayer
370
13
48
1
60
0
100
AcDbLine
10
6.709718
20
1.788879
30
0
11
8.140885
21
0.895285
31
0
39
0
210
0
220
0
230
1
0
LINE
5
8F
100
AcDbEntity
8
1
62
256
6
ByLayer
370
13
48
1
60
0
100
AcDbLine
10
6.954472
20
-1.788959
30
0
11
8.140885
21
-1.800222
31
0
39
0
210
0
220
0
230
1
0
LINE
5
90
100
AcDbEntity
8
1
62
256
6
ByLayer
370
18
48
1
60
0
100
AcDbLine
10
6.916854
20
-1.74699
30
0
11
8.140885
21
-1.75861
31
0
39
0
210
0
220
0
230
1
0
LINE
5
91
100
AcDbEntity
8
1
62
256
6
ByLayer
370
18
48
1
60
0
100
AcDbLine
10
20.101851
20
-1.71455
30
0
11
20.0677
21
-0.412337
31
0
39
0
210
0
220
0
230
1
0
LINE
5
92
100
AcDbEntity
8
1
62
256
6
ByLayer
370
18
48
1
60
0
100
AcDbLine
10
8.140885
20
0.840273
30
0
11
8.140885
21
0.895285
31
0
39
0
210
0
220
0
230
1
0
LINE
5
93
100
AcDbEntity
8
1
62
256
6
ByLayer
370
18
48
1
60
0
100
AcDbLine
10
19.750746
20
-0.872919
30
0
11
20.0677
21
-0.412337
31
0
39
0
210
0
220
0
230
1
0
LINE
5
94
100
AcDbEntity
8
1
62
256
6
ByLayer
370
18
48
1
60
0
100
AcDbLine
10
20.0677
20
-0.412337
30
0
11
20.069354
21
-0.398978
31
0
39
0
210
0
220
0
230
1
0
LINE
5
95
100
AcDbEntity
8
1
62
256
6
ByLayer
370
13
48
1
60
0
100
AcDbLine
10
20.069354
20
-0.398978
30
0
11
19.03385
21
-0.222316
31
0
39
0
210
0
220
0
230
1
0
LINE
5
96
100
AcDbEntity
8
1
62
256
6
ByLayer
370
18
48
1
60
0
100
AcDbLine
10
8.140885
20
-1.75861
30
0
11
8.140885
21
-1.638247
31
0
39
0
210
0
220
0
230
1
0
LINE
5
97
100
AcDbEntity
8
1
62
256
6
ByLayer
370
13
48
1
60
0
100
AcDbLine
10
6.690375
20
1.745944
30
0
11
8.140885
21
0.840273
31
0
39
0
210
0
220
0
230
1
0
LINE
5
98
100
AcDbEntity
8
1
62
256
6
ByLayer
370
18
48
1
60
0
100
AcDbLine
10
8.140885
20
0.30754
30
0
11
8.140885
21
0.840273
31
0
39
0
210
0
220
0
230
1
0
LINE
5
99
100
AcDbEntity
8
1
62
256
6
ByLayer
370
18
48
1
60
0
100
AcDbLine
10
8.140885
20
-1.800222
30
0
11
8.140885
21
-1.75861
31
0
39
0
210
0
220
0
230
1
0
LINE
5
9A
100
AcDbEntity
8
1
62
256
6
ByLayer
370
18
48
1
60
0
100
AcDbLine
10
7.110139
20
-1.628462
30
0
11
8.140885
21
-1.638247
31
0
39
0
210
0
220
0
230
1
0
LINE
5
9B
100
AcDbEntity
8
1
62
256
6
ByLayer
370
18
48
1
60
0
100
AcDbLine
10
8.140885
20
-1.638247
30
0
11
8.140885
21
-0.875021
31
0
39
0
210
0
220
0
230
1
0
LINE
5
9C
100
AcDbEntity
8
1
62
256
6
ByLayer
370
13
48
1
60
0
100
AcDbLine
10
6.544707
20
-0.859868
30
0
11
8.140885
21
-0.875021
31
0
39
0
210
0
220
0
230
1
0
LINE
5
9D
100
AcDbEntity
8
1
62
256
6
ByLayer
370
18
48
1
60
0
100
AcDbLine
10
8.140885
20
-0.123635
30
0
11
8.140885
21
0.30754
31
0
39
0
210
0
220
0
230
1
0
LINE
5
9E
100
AcDbEntity
8
1
62
256
6
ByLayer
370
18
48
1
60
0
100
AcDbLine
10
7.063222
20
0.980413
30
0
11
8.140885
21
0.30754
31
0
39
0
210
0
220
0
230
1
0
LINE
5
9F
100
AcDbEntity
8
1
62
256
6
ByLayer
370
18
48
1
60
0
100
AcDbLine
10
8.140885
20
-0.202087
30
0
11
8.140885
21
-0.123635
31
0
39
0
210
0
220
0
230
1
0
LINE
5
A0
100
AcDbEntity
8
1
62
256
6
ByLayer
370
13
48
1
60
0
100
AcDbLine
10
6.894846
20
0.654369
30
0
11
8.140885
21
-0.123635
31
0
39
0
210
0
220
0
230
1
0
LINE
5
A1
100
AcDbEntity
8
1
62
256
6
ByLayer
370
18
48
1
60
0
100
AcDbLine
10
8.140885
20
0.895285
30
0
11
8.140885
21
1.82513
31
0
39
0
210
0
220
0
230
1
0
LINE
5
A2
100
AcDbEntity
8
1
62
256
6
ByLayer
370
13
48
1
60
0
100
AcDbLine
10
6.557598
20
-0.803676
30
0
11
8.103579
21
-0.818353
31
0
39
0
210
0
220
0
230
1
0
LINE
5
A3
100
AcDbEntity
8
1
62
256
6
ByLayer
370
13
48
1
60
0
100
AcDbLine
10
7.748967
20
1.92
30
0
11
7.748967
21
1.890234
31
0
39
0
210
0
220
0
230
1
0
LINE
5
A4
100
AcDbEntity
8
1
62
256
6
ByLayer
370
13
48
1
60
0
100
AcDbLine
10
6.933283
20
0.551917
30
0
11
8.140885
21
-0.202087
31
0
39
0
210
0
220
0
230
1
0
LINE
5
A5
100
AcDbEntity
8
1
62
256
6
ByLayer
370
13
48
1
60
0
100
AcDbLine
10
7.748967
20
-0.67257
30
0
11
7.748967
21
-0.053177
31
0
39
0
210
0
220
0
230
1
0
LINE
5
A6
100
AcDbEntity
8
1
62
256
6
ByLayer
370
18
48
1
60
0
100
AcDbLine
10
20.109158
20
0.014055
30
0
11
20.135477
21
0.100415
31
0
39
0
210
0
220
0
230
1
0
LINE
5
A7
100
AcDbEntity
8
1
62
256
6
ByLayer
370
13
48
1
60
0
100
AcDbLine
10
19.302454
20
0.116444
30
0
11
19.912158
21
0.012426
31
0
39
0
210
0
220
0
230
1
0
LINE
5
A8
100
AcDbEntity
8
1
62
256
6
ByLayer
370
18
48
1
60
0
100
AcDbLine
10
20.109158
20
0.014055
30
0
11
19.912158
21
0.012426
31
0
39
0
210
0
220
0
230
1
0
LINE
5
A9
100
AcDbEntity
8
1
62
256
6
ByLayer
370
18
48
1
60
0
100
AcDbLine
10
8.140885
20
1.954729
30
0
11
8.140885
21
1.82513
31
0
39
0
210
0
220
0
230
1
0
LINE
5
AA
100
AcDbEntity
8
1
62
256
6
ByLayer
370
18
48
1
60
0
100
AcDbLine
10
8.140885
20
-1.800222
30
0
11
8.140885
21
-1.933271
31
0
39
0
210
0
220
0
230
1
0
LINE
5
AB
100
AcDbEntity
8
1
62
256
6
ByLayer
370
18
48
1
60
0
100
AcDbLine
10
8.140885
20
-0.202087
30
0
11
8.140885
21
-0.307583
31
0
39
0
210
0
220
0
230
1
0
LINE
5
AC
100
AcDbEntity
8
1
62
256
6
ByLayer
370
13
48
1
60
0
100
AcDbLine
10
7.748967
20
-1.917158
30
0
11
7.748967
21
-1.92
31
0
39
0
210
0
220
0
230
1
0
LINE
5
AD
100
AcDbEntity
8
1
62
256
6
ByLayer
370
13
48
1
60
0
100
AcDbLine
10
2.138564
20
-1.92
30
0
11
2.138564
21
0
31
0
39
0
210
0
220
0
230
1
0
LINE
5
AE
100
AcDbEntity
8
1
62
256
6
ByLayer
370
13
48
1
60
0
100
AcDbLine
10
2.138564
20
0
30
0
11
2.138564
21
1.92
31
0
39
0
210
0
220
0
230
1
0
LINE
5
AF
100
AcDbEntity
8
1
62
256
6
ByLayer
370
13
48
1
60
0
100
AcDbLine
10
1.638564
20
2.053975
30
0
11
1.638564
21
0
31
0
39
0
210
0
220
0
230
1
0
LINE
5
B0
100
AcDbEntity
8
1
62
256
6
ByLayer
370
13
48
1
60
0
100
AcDbLine
10
1.638564
20
0
30
0
11
1.638564
21
-2.053975
31
0
39
0
210
0
220
0
230
1
0
LINE
5
B1
100
AcDbEntity
8
1
62
256
6
ByLayer
370
18
48
1
60
0
100
AcDbLine
10
0
20
3
30
0
11
0
21
0
31
0
39
0
210
0
220
0
230
1
0
LINE
5
B2
100
AcDbEntity
8
1
62
256
6
ByLayer
370
18
48
1
60
0
100
AcDbLine
10
0
20
0
30
0
11
0
21
-3
31
0
39
0
210
0
220
0
230
1
0
LINE
5
B3
100
AcDbEntity
8
SK1
62
256
6
ByLayer
370
18
48
1
60
0
100
AcDbLine
10
0
20
3
30
0
11
0
21
0
31
0
39
0
210
0
220
0
230
1
0
LINE
5
B5
100
AcDbEntity
8
SK1
62
256
6
ByLayer
370
18
48
1
60
0
100
AcDbLine
10
0
20
0
30
0
11
0
21
-3
31
0
39
0
210
0
220
0
230
1
0
LINE
5
B6
100
AcDbEntity
8
SK1
62
256
6
ByLayer
370
18
48
1
60
0
100
AcDbLine
10
-36.459115
20
3
30
0
11
-36.459115
21
-3
31
0
39
0
210
0
220
0
230
1
0
LINE
5
B7
100
AcDbEntity
8
SK1
62
256
6
ByLayer
370
18
48
1
60
0
100
AcDbLine
10
-36.859115
20
-2.6
30
0
11
-36.859115
21
2.6
31
0
39
0
210
0
220
0
230
1
0
LINE
5
B8
100
AcDbEntity
8
1
62
256
6
ByLayer
370
18
48
1
60
0
100
AcDbLine
10
7.748967
20
1.92
30
0
11
2.138564
21
1.92
31
0
39
0
210
0
220
0
230
1
0
LINE
5
B9
100
AcDbEntity
8
1
62
256
6
ByLayer
370
18
48
1
60
0
100
AcDbLine
10
2.138564
20
-1.92
30
0
11
7.748967
21
-1.92
31
0
39
0
210
0
220
0
230
1
0
LINE
5
BA
100
AcDbEntity
8
1
62
256
6
ByLayer
370
18
48
1
60
0
100
AcDbLine
10
1.638564
20
2.053975
30
0
11
0
21
3
31
0
39
0
210
0
220
0
230
1
0
LINE
5
BB
100
AcDbEntity
8
1
62
256
6
ByLayer
370
18
48
1
60
0
100
AcDbLine
10
0
20
-3
30
0
11
1.638564
21
-2.053975
31
0
39
0
210
0
220
0
230
1
0
LINE
5
BC
100
AcDbEntity
8
SK1
62
256
6
ByLayer
370
18
48
1
60
0
100
AcDbLine
10
0
20
3
30
0
11
-36.459115
21
3
31
0
39
0
210
0
220
0
230
1
0
LINE
5
BD
100
AcDbEntity
8
SK1
62
256
6
ByLayer
370
18
48
1
60
0
100
AcDbLine
10
-36.459115
20
-3
30
0
11
0
21
-3
31
0
39
0
210
0
220
0
230
1
0
LINE
5
BE
100
AcDbEntity
8
SK1
62
256
6
ByLayer
370
18
48
1
60
0
100
AcDbLine
10
-36.859115
20
-2.6
30
0
11
-36.459115
21
-3
31
0
39
0
210
0
220
0
230
1
0
LINE
5
BF
100
AcDbEntity
8
SK1
62
256
6
ByLayer
370
18
48
1
60
0
100
AcDbLine
10
-36.459115
20
3
30
0
11
-36.859115
21
2.6
31
0
39
0
210
0
220
0
230
1
0
LINE
5
C0
100
AcDbEntity
8
SK2
62
256
6
ByLayer
370
18
48
1
60
0
100
AcDbLine
10
-44.709115
20
11.75
30
0
11
-44.709115
21
-19.315466
31
0
39
0
210
0
220
0
230
1
0
LINE
5
C2
100
AcDbEntity
8
SK2
62
256
6
ByLayer
370
18
48
1
60
0
100
AcDbLine
10
-38.046615
20
3
30
0
11
-46.709115
21
3
31
0
39
0
210
0
220
0
230
1
0
LINE
5
C3
100
AcDbEntity
8
SK2
62
256
6
ByLayer
370
18
48
1
60
0
100
AcDbLine
10
-38.046615
20
-3
30
0
11
-46.709115
21
-3
31
0
39
0
210
0
220
0
230
1
0
LINE
5
C4
100
AcDbEntity
8
1
62
256
6
ByLayer
370
18
48
1
60
1
100
AcDbLine
10
-44.709115
20
3
30
0
11
-45.169899
21
6.499998
31
0
39
0
210
0
220
0
230
1
0
LINE
5
C5
100
AcDbEntity
8
1
62
256
6
ByLayer
370
18
48
1
60
1
100
AcDbLine
10
-45.169899
20
6.499998
30
0
11
-44.248331
21
6.500002
31
0
39
0
210
0
220
0
230
1
0
LINE
5
C6
100
AcDbEntity
8
1
62
256
6
ByLayer
370
18
48
1
60
1
100
AcDbLine
10
-44.248331
20
6.500002
30
0
11
-44.709115
21
3
31
0
39
0
210
0
220
0
230
1
0
LINE
5
C7
100
AcDbEntity
8
1
62
256
6
ByLayer
370
18
48
1
60
1
100
AcDbLine
10
-44.709115
20
-3
30
0
11
-44.248331
21
-6.499998
31
0
39
0
210
0
220
0
230
1
0
LINE
5
C8
100
AcDbEntity
8
1
62
256
6
ByLayer
370
18
48
1
60
1
100
AcDbLine
10
-44.248331
20
-6.499998
30
0
11
-45.169899
21
-6.500002
31
0
39
0
210
0
220
0
230
1
0
LINE
5
C9
100
AcDbEntity
8
1
62
256
6
ByLayer
370
18
48
1
60
1
100
AcDbLine
10
-45.169899
20
-6.500002
30
0
11
-44.709115
21
-3
31
0
39
0
210
0
220
0
230
1
0
LINE
5
CA
100
AcDbEntity
8
SK2
62
256
6
ByLayer
370
13
48
1
60
0
100
AcDbLine
10
6.393765
20
29.252931
30
0
11
6.393765
21
-10.67
31
0
39
0
210
0
220
0
230
1
0
LINE
5
CB
100
AcDbEntity
8
SK2
62
256
6
ByLayer
370
13
48
1
60
0
100
AcDbLine
10
6.161467
20
1.92
30
0
11
4.393765
21
1.92
31
0
39
0
210
0
220
0
230
1
0
LINE
5
CC
100
AcDbEntity
8
SK2
62
256
6
ByLayer
370
13
48
1
60
0
100
AcDbLine
10
6.161467
20
-1.92
30
0
11
4.393765
21
-1.92
31
0
39
0
210
0
220
0
230
1
0
LINE
5
CD
100
AcDbEntity
8
1
62
256
6
ByLayer
370
18
48
1
60
1
100
AcDbLine
10
6.393765
20
1.92
30
0
11
5.932982
21
5.419998
31
0
39
0
210
0
220
0
230
1
0
LINE
5
CE
100
AcDbEntity
8
1
62
256
6
ByLayer
370
18
48
1
60
1
100
AcDbLine
10
5.932982
20
5.419998
30
0
11
6.854549
21
5.420002
31
0
39
0
210
0
220
0
230
1
0
LINE
5
CF
100
AcDbEntity
8
1
62
256
6
ByLayer
370
18
48
1
60
1
100
AcDbLine
10
6.854549
20
5.420002
30
0
11
6.393765
21
1.92
31
0
39
0
210
0
220
0
230
1
0
LINE
5
D0
100
AcDbEntity
8
1
62
256
6
ByLayer
370
18
48
1
60
1
100
AcDbLine
10
6.393765
20
-1.92
30
0
11
6.854549
21
-5.419998
31
0
39
0
210
0
220
0
230
1
0
LINE
5
D1
100
AcDbEntity
8
1
62
256
6
ByLayer
370
18
48
1
60
1
100
AcDbLine
10
6.854549
20
-5.419998
30
0
11
5.932982
21
-5.420002
31
0
39
0
210
0
220
0
230
1
0
LINE
5
D2
100
AcDbEntity
8
1
62
256
6
ByLayer
370
18
48
1
60
1
100
AcDbLine
10
5.932982
20
-5.420002
30
0
11
6.393765
21
-1.92
31
0
39
0
210
0
220
0
230
1
0
LINE
5
D3
100
AcDbEntity
8
2
62
256
6
ByLayer
370
18
48
1
60
0
100
AcDbLine
10
32.140885
20
18.684
30
0
11
32.140885
21
-10.75
31
0
39
0
210
0
220
0
230
1
0
LINE
5
D5
100
AcDbEntity
8
2
62
256
6
ByLayer
370
18
48
1
60
0
100
AcDbLine
10
21.728385
20
2
30
0
11
34.140885
21
2
31
0
39
0
210
0
220
0
230
1
0
LINE
5
D6
100
AcDbEntity
8
2
62
256
6
ByLayer
370
18
48
1
60
0
100
AcDbLine
10
21.392198
20
-2
30
0
11
34.140885
21
-2
31
0
39
0
210
0
220
0
230
1
0
LINE
5
D7
100
AcDbEntity
8
1
62
256
6
ByLayer
370
18
48
1
60
1
100
AcDbLine
10
32.140885
20
2
30
0
11
31.680101
21
5.499998
31
0
39
0
210
0
220
0
230
1
0
LINE
5
D8
100
AcDbEntity
8
1
62
256
6
ByLayer
370
18
48
1
60
1
100
AcDbLine
10
31.680101
20
5.499998
30
0
11
32.601669
21
5.500002
31
0
39
0
210
0
220
0
230
1
0
LINE
5
D9
100
AcDbEntity
8
1
62
256
6
ByLayer
370
18
48
1
60
1
100
AcDbLine
10
32.601669
20
5.500002
30
0
11
32.140885
21
2
31
0
39
0
210
0
220
0
230
1
0
LINE
5
DA
100
AcDbEntity
8
1
62
256
6
ByLayer
370
18
48
1
60
1
100
AcDbLine
10
32.140885
20
-2
30
0
11
32.601669
21
-5.499998
31
0
39
0
210
0
220
0
230
1
0
LINE
5
DB
100
AcDbEntity
8
1
62
256
6
ByLayer
370
18
48
1
60
1
100
AcDbLine
10
32.601669
20
-5.499998
30
0
11
31.680101
21
-5.500002
31
0
39
0
210
0
220
0
230
1
0
LINE
5
DC
100
AcDbEntity
8
1
62
256
6
ByLayer
370
18
48
1
60
1
100
AcDbLine
10
31.680101
20
-5.500002
30
0
11
32.140885
21
-2
31
0
39
0
210
0
220
0
230
1
0
LINE
5
DD
100
AcDbEntity
8
2
62
256
6
ByLayer
370
18
48
1
60
0
100
AcDbLine
10
20.140885
20
-49.1
30
0
11
-36.859115
21
-49.1
31
0
39
0
210
0
220
0
230
1
0
LINE
5
DE
100
AcDbEntity
8
2
62
256
6
ByLayer
370
18
48
1
60
0
100
AcDbLine
10
-36.859115
20
-4.1875
30
0
11
-36.859115
21
-51.1
31
0
39
0
210
0
220
0
230
1
0
LINE
5
DF
100
AcDbEntity
8
2
62
256
6
ByLayer
370
18
48
1
60
0
100
AcDbLine
10
20.140885
20
-3.5875
30
0
11
20.140885
21
-51.1
31
0
39
0
210
0
220
0
230
1
0
LINE
5
E0
100
AcDbEntity
8
1
62
256
6
ByLayer
370
18
48
1
60
1
100
AcDbLine
10
-36.859115
20
-49.1
30
0
11
-33.359117
21
-48.639216
31
0
39
0
210
0
220
0
230
1
0
LINE
5
E1
100
AcDbEntity
8
1
62
256
6
ByLayer
370
18
48
1
60
1
100
AcDbLine
10
-33.359117
20
-48.639216
30
0
11
-33.359113
21
-49.560784
31
0
39
0
210
0
220
0
230
1
0
LINE
5
E2
100
AcDbEntity
8
1
62
256
6
ByLayer
370
18
48
1
60
1
100
AcDbLine
10
-33.359113
20
-49.560784
30
0
11
-36.859115
21
-49.1
31
0
39
0
210
0
220
0
230
1
0
LINE
5
E3
100
AcDbEntity
8
1
62
256
6
ByLayer
370
18
48
1
60
1
100
AcDbLine
10
20.140885
20
-49.1
30
0
11
16.640887
21
-49.560784
31
0
39
0
210
0
220
0
230
1
0
LINE
5
E4
100
AcDbEntity
8
1
62
256
6
ByLayer
370
18
48
1
60
1
100
AcDbLine
10
16.640887
20
-49.560784
30
0
11
16.640883
21
-48.639216
31
0
39
0
210
0
220
0
230
1
0
LINE
5
E5
100
AcDbEntity
8
1
62
256
6
ByLayer
370
18
48
1
60
1
100
AcDbLine
10
16.640883
20
-48.639216
30
0
11
20.140885
21
-49.1
31
0
39
0
210
0
220
0
230
1
0
LINE
5
178
100
AcDbEntity
8
1
62
256
6
ByLayer
370
18
48
1
60
1
100
AcDbLine
10
-44.709115
20
3
30
0
11
-45.169899
21
6.499998
31
0
39
0
210
0
220
0
230
1
0
LINE
5
179
100
AcDbEntity
8
1
62
256
6
ByLayer
370
18
48
1
60
1
100
AcDbLine
10
-45.169899
20
6.499998
30
0
11
-44.248331
21
6.500002
31
0
39
0
210
0
220
0
230
1
0
LINE
5
17A
100
AcDbEntity
8
1
62
256
6
ByLayer
370
18
48
1
60
1
100
AcDbLine
10
-44.248331
20
6.500002
30
0
11
-44.709115
21
3
31
0
39
0
210
0
220
0
230
1
0
LINE
5
17C
100
AcDbEntity
8
1
62
256
6
ByLayer
370
18
48
1
60
1
100
AcDbLine
10
-44.709115
20
-3
30
0
11
-44.248331
21
-6.499998
31
0
39
0
210
0
220
0
230
1
0
LINE
5
17D
100
AcDbEntity
8
1
62
256
6
ByLayer
370
18
48
1
60
1
100
AcDbLine
10
-44.248331
20
-6.499998
30
0
11
-45.169899
21
-6.500002
31
0
39
0
210
0
220
0
230
1
0
LINE
5
17E
100
AcDbEntity
8
1
62
256
6
ByLayer
370
18
48
1
60
1
100
AcDbLine
10
-45.169899
20
-6.500002
30
0
11
-44.709115
21
-3
31
0
39
0
210
0
220
0
230
1
0
LINE
5
182
100
AcDbEntity
8
1
62
256
6
ByLayer
370
18
48
1
60
1
100
AcDbLine
10
6.393765
20
1.92
30
0
11
5.932982
21
5.419998
31
0
39
0
210
0
220
0
230
1
0
LINE
5
183
100
AcDbEntity
8
1
62
256
6
ByLayer
370
18
48
1
60
1
100
AcDbLine
10
5.932982
20
5.419998
30
0
11
6.854549
21
5.420002
31
0
39
0
210
0
220
0
230
1
0
LINE
5
184
100
AcDbEntity
8
1
62
256
6
ByLayer
370
18
48
1
60
1
100
AcDbLine
10
6.854549
20
5.420002
30
0
11
6.393765
21
1.92
31
0
39
0
210
0
220
0
230
1
0
LINE
5
186
100
AcDbEntity
8
1
62
256
6
ByLayer
370
18
48
1
60
1
100
AcDbLine
10
6.393765
20
-1.92
30
0
11
6.854549
21
-5.419998
31
0
39
0
210
0
220
0
230
1
0
LINE
5
187
100
AcDbEntity
8
1
62
256
6
ByLayer
370
18
48
1
60
1
100
AcDbLine
10
6.854549
20
-5.419998
30
0
11
5.932982
21
-5.420002
31
0
39
0
210
0
220
0
230
1
0
LINE
5
188
100
AcDbEntity
8
1
62
256
6
ByLayer
370
18
48
1
60
1
100
AcDbLine
10
5.932982
20
-5.420002
30
0
11
6.393765
21
-1.92
31
0
39
0
210
0
220
0
230
1
0
LINE
5
18C
100
AcDbEntity
8
1
62
256
6
ByLayer
370
18
48
1
60
1
100
AcDbLine
10
32.140885
20
2
30
0
11
31.680101
21
5.499998
31
0
39
0
210
0
220
0
230
1
0
LINE
5
18D
100
AcDbEntity
8
1
62
256
6
ByLayer
370
18
48
1
60
1
100
AcDbLine
10
31.680101
20
5.499998
30
0
11
32.601669
21
5.500002
31
0
39
0
210
0
220
0
230
1
0
LINE
5
18E
100
AcDbEntity
8
1
62
256
6
ByLayer
370
18
48
1
60
1
100
AcDbLine
10
32.601669
20
5.500002
30
0
11
32.140885
21
2
31
0
39
0
210
0
220
0
230
1
0
LINE
5
190
100
AcDbEntity
8
1
62
256
6
ByLayer
370
18
48
1
60
1
100
AcDbLine
10
32.140885
20
-2
30
0
11
32.601669
21
-5.499998
31
0
39
0
210
0
220
0
230
1
0
LINE
5
191
100
AcDbEntity
8
1
62
256
6
ByLayer
370
18
48
1
60
1
100
AcDbLine
10
32.601669
20
-5.499998
30
0
11
31.680101
21
-5.500002
31
0
39
0
210
0
220
0
230
1
0
LINE
5
192
100
AcDbEntity
8
1
62
256
6
ByLayer
370
18
48
1
60
1
100
AcDbLine
10
31.680101
20
-5.500002
30
0
11
32.140885
21
-2
31
0
39
0
210
0
220
0
230
1
0
LINE
5
195
100
AcDbEntity
8
1
62
256
6
ByLayer
370
18
48
1
60
1
100
AcDbLine
10
-36.859115
20
-49.1
30
0
11
-33.359117
21
-48.639216
31
0
39
0
210
0
220
0
230
1
0
LINE
5
196
100
AcDbEntity
8
1
62
256
6
ByLayer
370
18
48
1
60
1
100
AcDbLine
10
-33.359117
20
-48.639216
30
0
11
-33.359113
21
-49.560784
31
0
39
0
210
0
220
0
230
1
0
LINE
5
197
100
AcDbEntity
8
1
62
256
6
ByLayer
370
18
48
1
60
1
100
AcDbLine
10
-33.359113
20
-49.560784
30
0
11
-36.859115
21
-49.1
31
0
39
0
210
0
220
0
230
1
0
LINE
5
199
100
AcDbEntity
8
1
62
256
6
ByLayer
370
18
48
1
60
1
100
AcDbLine
10
20.140885
20
-49.1
30
0
11
16.640887
21
-49.560784
31
0
39
0
210
0
220
0
230
1
0
LINE
5
19A
100
AcDbEntity
8
1
62
256
6
ByLayer
370
18
48
1
60
1
100
AcDbLine
10
16.640887
20
-49.560784
30
0
11
16.640883
21
-48.639216
31
0
39
0
210
0
220
0
230
1
0
LINE
5
19B
100
AcDbEntity
8
1
62
256
6
ByLayer
370
18
48
1
60
1
100
AcDbLine
10
16.640883
20
-48.639216
30
0
11
20.140885
21
-49.1
31
0
39
0
210
0
220
0
230
1
0
MTEXT
5
174
100
AcDbEntity
8
SK2
62
256
6
ByLayer
370
18
48
1
60
0
100
AcDbMText
10
-46.273748
20
-17.380622
30
0
210
0
220
0
230
1
1
%%c
40
3.5
41
0
44
1.084337
50
90
71
7
72
5
7
iso_b_vert
0
MTEXT
5
177
100
AcDbEntity
8
SK2
62
256
6
ByLayer
370
18
48
1
60
0
100
AcDbMText
10
-46.273748
20
-10.407966
30
0
210
0
220
0
230
1
1
\W0.5404;6
40
3.5
41
0
44
1.084337
50
90
71
7
72
5
7
iso_b_vert
0
MTEXT
5
180
100
AcDbEntity
8
SK2
62
256
6
ByLayer
370
18
48
1
60
0
100
AcDbMText
10
4.829132
20
13.854844
30
0
210
0
220
0
230
1
1
%%c
40
3.5
41
0
44
1.084337
50
90
71
7
72
5
7
iso_b_vert
0
MTEXT
5
181
100
AcDbEntity
8
SK2
62
256
6
ByLayer
370
18
48
1
60
0
100
AcDbMText
10
4.829132
20
20.8275
30
0
210
0
220
0
230
1
1
\W0.7528;3.84
40
3.5
41
0
44
1.084337
50
90
71
7
72
5
7
iso_b_vert
0
MTEXT
5
18A
100
AcDbEntity
8
2
62
256
6
ByLayer
370
18
48
1
60
0
100
AcDbMText
10
30.576252
20
9.934844
30
0
210
0
220
0
230
1
1
%%c
40
3.5
41
0
44
1.084337
50
90
71
7
72
5
7
iso_b_vert
0
MTEXT
5
18B
100
AcDbEntity
8
2
62
256
6
ByLayer
370
18
48
1
60
0
100
AcDbMText
10
30.576252
20
16.9075
30
0
210
0
220
0
230
1
1
\W0.6380;4
40
3.5
41
0
44
1.084337
50
90
71
7
72
5
7
iso_b_vert
0
MTEXT
5
194
100
AcDbEntity
8
2
62
256
6
ByLayer
370
18
48
1
60
0
100
AcDbMText
10
-10.264081
20
-48.067366
30
0
210
0
220
0
230
1
1
\W0.6740;57
40
3.5
41
0
44
1.084337
50
0
71
7
72
5
7
iso_b_vert
0
MTEXT
5
19D
100
AcDbEntity
8
SK6
62
256
6
ByLayer
370
18
48
1
60
0
100
AcDbMText
10
-32.252993
20
-62.114886
30
0
210
0
220
0
230
1
1
\W0.7351;1K354-0400-020-XC 1730
40
3
41
0
44
1.084337
50
0
71
7
72
5
7
iso_b_vert
0
HATCH
5
17B
100
AcDbEntity
8
SK2
62
256
6
ByLayer
370
13
48
1
60
0
100
AcDbHatch
10
0
20
0
30
0
210
0
220
0
230
1
2
ANSI31
70
0
71
0
91
1
92
5
93
3
72
1
10
-44.7091148575554
20
3
11
-45.1698985991081
21
6.49999830744682
72
1
10
-45.1698985991081
20
6.49999830744682
11
-44.2483311160026
21
6.50000169255318
72
1
10
-44.2483311160026
20
6.50000169255318
11
-44.7091148575554
21
3
97
0
75
0
76
1
52
0
41
0.0062
77
0
78
1
53
45
43
0
44
0
45
-0.0139193969876572
46
0.0139193969876572
79
0
47
0
98
1
10
0
20
0
0
HATCH
5
17F
100
AcDbEntity
8
SK2
62
256
6
ByLayer
370
13
48
1
60
0
100
AcDbHatch
10
0
20
0
30
0
210
0
220
0
230
1
2
ANSI31
70
0
71
0
91
1
92
5
93
3
72
1
10
-44.7091148575554
20
-3
11
-44.2483311160026
21
-6.49999830744682
72
1
10
-44.2483311160026
20
-6.49999830744682
11
-45.1698985991081
21
-6.50000169255318
72
1
10
-45.1698985991081
20
-6.50000169255318
11
-44.7091148575554
21
-3
97
0
75
0
76
1
52
0
41
0.0062
77
0
78
1
53
45
43
0
44
0
45
-0.0139193969876572
46
0.0139193969876572
79
0
47
0
98
1
10
0
20
0
0
HATCH
5
185
100
AcDbEntity
8
SK2
62
256
6
ByLayer
370
13
48
1
60
0
100
AcDbHatch
10
0
20
0
30
0
210
0
220
0
230
1
2
ANSI31
70
0
71
0
91
1
92
5
93
3
72
1
10
6.39376542410241
20
1.91999999999996
11
5.93298168254964
21
5.41999830744678
72
1
10
5.93298168254964
20
5.41999830744678
11
6.85454916565519
21
5.42000169255314
72
1
10
6.85454916565519
20
5.42000169255314
11
6.39376542410241
21
1.91999999999996
97
0
75
0
76
1
52
0
41
0.0062
77
0
78
1
53
45
43
0
44
0
45
-0.0139193969876572
46
0.0139193969876572
79
0
47
0
98
1
10
0
20
0
0
HATCH
5
189
100
AcDbEntity
8
SK2
62
256
6
ByLayer
370
13
48
1
60
0
100
AcDbHatch
10
0
20
0
30
0
210
0
220
0
230
1
2
ANSI31
70
0
71
0
91
1
92
5
93
3
72
1
10
6.39376542410241
20
-1.92000000000002
11
6.85454916565519
21
-5.41999830744683
72
1
10
6.85454916565519
20
-5.41999830744683
11
5.93298168254964
21
-5.4200016925532
72
1
10
5.93298168254964
20
-5.4200016925532
11
6.39376542410241
21
-1.92000000000002
97
0
75
0
76
1
52
0
41
0.0062
77
0
78
1
53
45
43
0
44
0
45
-0.0139193969876572
46
0.0139193969876572
79
0
47
0
98
1
10
0
20
0
0
HATCH
5
18F
100
AcDbEntity
8
2
62
256
6
ByLayer
370
13
48
1
60
0
100
AcDbHatch
10
0
20
0
30
0
210
0
220
0
230
1
2
ANSI31
70
0
71
0
91
1
92
5
93
3
72
1
10
32.1408851424447
20
1.99999999999991
11
31.6801014008919
21
5.49999830744673
72
1
10
31.6801014008919
20
5.49999830744673
11
32.6016688839974
21
5.5000016925531
72
1
10
32.6016688839974
20
5.5000016925531
11
32.1408851424447
21
1.99999999999991
97
0
75
0
76
1
52
0
41
0.0062
77
0
78
1
53
45
43
0
44
0
45
-0.0139193969876572
46
0.0139193969876572
79
0
47
0
98
1
10
0
20
0
0
HATCH
5
193
100
AcDbEntity
8
2
62
256
6
ByLayer
370
13
48
1
60
0
100
AcDbHatch
10
0
20
0
30
0
210
0
220
0
230
1
2
ANSI31
70
0
71
0
91
1
92
5
93
3
72
1
10
32.1408851424447
20
-2.00000000000008
11
32.6016688839974
21
-5.4999983074469
72
1
10
32.6016688839974
20
-5.4999983074469
11
31.6801014008919
21
-5.50000169255327
72
1
10
31.6801014008919
20
-5.50000169255327
11
32.1408851424447
21
-2.00000000000008
97
0
75
0
76
1
52
0
41
0.0062
77
0
78
1
53
45
43
0
44
0
45
-0.0139193969876572
46
0.0139193969876572
79
0
47
0
98
1
10
0
20
0
0
HATCH
5
198
100
AcDbEntity
8
2
62
256
6
ByLayer
370
13
48
1
60
0
100
AcDbHatch
10
0
20
0
30
0
210
0
220
0
230
1
2
ANSI31
70
0
71
0
91
1
92
5
93
3
72
1
10
-36.8591148575553
20
-49.1000000000001
11
-33.3591165501085
21
-48.6392162584473
72
1
10
-33.3591165501085
20
-48.6392162584473
11
-33.3591131650022
21
-49.5607837415528
72
1
10
-33.3591131650022
20
-49.5607837415528
11
-36.8591148575553
21
-49.1000000000001
97
0
75
0
76
1
52
0
41
0.0062
77
0
78
1
53
45
43
0
44
0
45
-0.0139193969876572
46
0.0139193969876572
79
0
47
0
98
1
10
0
20
0
0
HATCH
5
19C
100
AcDbEntity
8
2
62
256
6
ByLayer
370
13
48
1
60
0
100
AcDbHatch
10
0
20
0
30
0
210
0
220
0
230
1
2
ANSI31
70
0
71
0
91
1
92
5
93
3
72
1
10
20.1408851424447
20
-49.1000000000001
11
16.6408868349978
21
-49.5607837415528
72
1
10
16.6408868349978
20
-49.5607837415528
11
16.6408834498915
21
-48.6392162584473
72
1
10
16.6408834498915
20
-48.6392162584473
11
20.1408851424447
21
-49.1000000000001
97
0
75
0
76
1
52
0
41
0.0062
77
0
78
1
53
45
43
0
44
0
45
-0.0139193969876572
46
0.0139193969876572
79
0
47
0
98
1
10
0
20
0
0
DIMENSION
5
1A0
100
AcDbEntity
8
SK2
62
256
6
ByLayer
370
18
48
1
60
0
100
AcDbDimension
2
_U0
10
8.140885
20
-17.1
30
0
11
14.140885
21
-17.1
31
0
70
32
71
1
72
1
41
1
210
0
220
0
230
1
3
Standard
100
AcDbAlignedDimension
13
20.140885
23
-2
33
0
14
8.140885
24
-2
34
0
50
0
100
AcDbRotatedDimension
1001
ACAD
1000
DSTYLE
1002
{
1070
   371
1070
    13
1070
   372
1070
    13
1070
   170
1070
     0
1070
   144
1040
1.0
1070
   277
1070
     2
1070
   284
1070
     8
1070
   278
1070
    46
1070
   146
1040
1.0
1070
   345
1005
16
1070
   347
1005
16
1070
   346
1005
16
1070
   344
1005
0
1070
   343
1005
0
1070
   172
1070
     1
1070
    76
1070
     0
1070
    75
1070
     0
1070
   282
1070
     0
1070
   281
1070
     0
1070
    71
1070
     0
1070
    74
1070
     0
1070
   279
1070
     0
1070
   173
1070
     1
1070
   340
1005
175
1070
   271
1070
     2
1070
   272
1070
     2
1070
    77
1070
     1
1070
    73
1070
     1
1070
   171
1070
     3
1070
   274
1070
     4
1070
   177
1070
     2
1070
   176
1070
     2
1070
   178
1070
     2
1070
    78
1070
     8
1070
    48
1040
-0.1
1070
    41
1040
3.5
1070
   147
1040
1.75
1070
    42
1040
1.5875
1070
    44
1040
2.0
1070
   140
1040
3.5
1002
}
1001
ACAD_DSTYLE_DIM_LINETYPE
1070
   380
1005
16
1001
ACAD_DSTYLE_DIM_EXT1_LINETYPE
1070
   381
1005
16
1001
ACAD_DSTYLE_DIM_EXT2_LINETYPE
1070
   382
1005
16
0
DIMENSION
5
1BA
100
AcDbEntity
8
SK2
62
256
6
ByLayer
370
18
48
1
60
0
100
AcDbDimension
2
_U1
10
2.138564
20
-32.1
30
0
11
11.139725
21
-32.1
31
0
70
32
71
1
72
1
41
1
210
0
220
0
230
1
3
Standard
100
AcDbAlignedDimension
13
20.140885
23
-2
33
0
14
2.138564
24
-1.92
34
0
50
0
100
AcDbRotatedDimension
1001
ACAD
1000
DSTYLE
1002
{
1070
   371
1070
    13
1070
   372
1070
    13
1070
   170
1070
     0
1070
   144
1040
1.0
1070
   277
1070
     2
1070
   284
1070
     8
1070
   278
1070
    46
1070
   146
1040
1.0
1070
   345
1005
16
1070
   347
1005
16
1070
   346
1005
16
1070
   344
1005
0
1070
   343
1005
0
1070
   172
1070
     1
1070
    76
1070
     0
1070
    75
1070
     0
1070
   282
1070
     0
1070
   281
1070
     0
1070
    71
1070
     0
1070
    74
1070
     0
1070
   279
1070
     0
1070
   173
1070
     1
1070
   340
1005
175
1070
   271
1070
     2
1070
   272
1070
     2
1070
    77
1070
     1
1070
    73
1070
     1
1070
   171
1070
     3
1070
   274
1070
     4
1070
   177
1070
     2
1070
   176
1070
     2
1070
   178
1070
     2
1070
    78
1070
     8
1070
    48
1040
-0.1
1070
    41
1040
3.5
1070
   147
1040
1.75
1070
    42
1040
1.5875
1070
    44
1040
2.0
1070
   140
1040
3.5
1002
}
1001
ACAD_DSTYLE_DIM_LINETYPE
1070
   380
1005
16
1001
ACAD_DSTYLE_DIM_EXT1_LINETYPE
1070
   381
1005
16
1001
ACAD_DSTYLE_DIM_EXT2_LINETYPE
1070
   382
1005
16
0
ENDSEC
0
SECTION
2
OBJECTS
0
DICTIONARY
5
242
330
0
100
AcDbDictionary
280
0
281
1
3
ACAD_GROUP
350
243
3
ACAD_MLINESTYLE
350
244
0
DICTIONARY
5
243
330
0
100
AcDbDictionary
280
0
281
1
0
DICTIONARY
5
244
330
0
100
AcDbDictionary
280
0
281
1
3
Standard
350
18
0
MLINESTYLE
5
18
330
244
100
AcDbMlineStyle
2
Standard
70
0
3

62
256
51
90
52
90
71
2
49
-0.5
62
256
6
ByLayer
49
0.5
62
256
6
ByLayer
0
RASTERVARIABLES
5
230
330

100
AcDbRasterVariables
90
0
70
1
71
1
72
1
0
ENDSEC
0
EOF
