  0
SECTION
  2
HEADER
  9
$ACADVER
  1
AC1015
  9
$ACADMAINTVER
 70
     6
  9
$DWGCODEPAGE
  3
ANSI_1250
  9
$INSBASE
 10
0.0
 20
0.0
 30
0.0
  9
$EXTMIN
 10
0.0
 20
0.0
 30
0.0
  9
$EXTMAX
 10
297.0
 20
210.0
 30
0.0
  9
$LIMMIN
 10
0.0
 20
0.0
  9
$LIMMAX
 10
297.0
 20
210.0
  9
$ORTHOMODE
 70
     0
  9
$REGENMODE
 70
     1
  9
$FILLMODE
 70
     1
  9
$QTEXTMODE
 70
     0
  9
$MIRRTEXT
 70
     1
  9
$LTSCALE
 40
1.0
  9
$ATTMODE
 70
     1
  9
$TEXTSIZE
 40
3.5
  9
$TRACEWID
 40
1.0
  9
$TEXTSTYLE
  7
Standard
  9
$CLAYER
  8
0
  9
$CELTYPE
  6
ByLayer
  9
$CECOLOR
 62
   256
  9
$CELTSCALE
 40
1.0
  9
$DISPSILH
 70
     0
  9
$DIMSCALE
 40
1.0
  9
$DIMASZ
 40
3.302
  9
$DIMEXO
 40
1.0
  9
$DIMDLI
 40
3.75
  9
$DIMRND
 40
0.0
  9
$DIMDLE
 40
0.0
  9
$DIMEXE
 40
1.0
  9
$DIMTP
 40
0.0
  9
$DIMTM
 40
0.0
  9
$DIMTXT
 40
3.5
  9
$DIMCEN
 40
2.5
  9
$DIMTSZ
 40
0.0
  9
$DIMTOL
 70
     0
  9
$DIMLIM
 70
     0
  9
$DIMTIH
 70
     1
  9
$DIMTOH
 70
     1
  9
$DIMSE1
 70
     0
  9
$DIMSE2
 70
     0
  9
$DIMTAD
 70
     1
  9
$DIMZIN
 70
     0
  9
$DIMBLK
  1

  9
$DIMASO
 70
     1
  9
$DIMSHO
 70
     1
  9
$DIMPOST
  1

  9
$DIMAPOST
  1

  9
$DIMALT
 70
     0
  9
$DIMALTD
 70
     3
  9
$DIMALTF
 40
0.0393700787
  9
$DIMLFAC
 40
1.0
  9
$DIMTOFL
 70
     1
  9
$DIMTVP
 40
0.0
  9
$DIMTIX
 70
     0
  9
$DIMSOXD
 70
     0
  9
$DIMSAH
 70
     0
  9
$DIMBLK1
  1

  9
$DIMBLK2
  1

  9
$DIMSTYLE
  2
ISO-25
  9
$DIMCLRD
 70
     0
  9
$DIMCLRE
 70
     0
  9
$DIMCLRT
 70
     0
  9
$DIMTFAC
 40
1.0
  9
$DIMGAP
 40
1.524
  9
$DIMJUST
 70
     0
  9
$DIMSD1
 70
     0
  9
$DIMSD2
 70
     0
  9
$DIMTOLJ
 70
     0
  9
$DIMTZIN
 70
     0
  9
$DIMALTZ
 70
     0
  9
$DIMALTTZ
 70
     0
  9
$DIMUPT
 70
     0
  9
$DIMDEC
 70
     2
  9
$DIMTDEC
 70
     2
  9
$DIMALTU
 70
     2
  9
$DIMALTTD
 70
     3
  9
$DIMTXSTY
  7
Standard
  9
$DIMAUNIT
 70
     0
  9
$DIMADEC
 70
     2
  9
$DIMALTRND
 40
0.0
  9
$DIMAZIN
 70
     0
  9
$DIMDSEP
 70
    44
  9
$DIMATFIT
 70
     3
  9
$DIMFRAC
 70
     0
  9
$DIMLDRBLK
  1

  9
$DIMLUNIT
 70
     2
  9
$DIMLWD
 70
    -2
  9
$DIMLWE
 70
    -2
  9
$DIMTMOVE
 70
     0
  9
$LUNITS
 70
     2
  9
$LUPREC
 70
     2
  9
$SKETCHINC
 40
1.0
  9
$FILLETRAD
 40
10.0
  9
$AUNITS
 70
     0
  9
$AUPREC
 70
     2
  9
$MENU
  1
.
  9
$ELEVATION
 40
0.0
  9
$PELEVATION
 40
0.0
  9
$THICKNESS
 40
0.0
  9
$LIMCHECK
 70
     0
  9
$CHAMFERA
 40
0.0
  9
$CHAMFERB
 40
0.0
  9
$CHAMFERC
 40
0.0
  9
$CHAMFERD
 40
0.0
  9
$SKPOLY
 70
     0
  9
$TDCREATE
 40
2459278.315955475
  9
$TDUCREATE
 40
2459278.274288808
  9
$TDUPDATE
 40
2459278.315957512
  9
$TDUUPDATE
 40
2459278.274290845
  9
$TDINDWG
 40
0.0000000116
  9
$TDUSRTIMER
 40
0.0000000116
  9
$USRTIMER
 70
     1
  9
$ANGBASE
 50
0.0
  9
$ANGDIR
 70
     0
  9
$PDMODE
 70
     0
  9
$PDSIZE
 40
-1.0
  9
$PLINEWID
 40
0.0
  9
$SPLFRAME
 70
     0
  9
$SPLINETYPE
 70
     6
  9
$SPLINESEGS
 70
     8
  9
$HANDSEED
  5
369
  9
$SURFTAB1
 70
     6
  9
$SURFTAB2
 70
     6
  9
$SURFTYPE
 70
     6
  9
$SURFU
 70
     6
  9
$SURFV
 70
     6
  9
$UCSBASE
  2

  9
$UCSNAME
  2

  9
$UCSORG
 10
0.0
 20
0.0
 30
0.0
  9
$UCSXDIR
 10
1.0
 20
0.0
 30
0.0
  9
$UCSYDIR
 10
0.0
 20
1.0
 30
0.0
  9
$UCSORTHOREF
  2

  9
$UCSORTHOVIEW
 70
     0
  9
$UCSORGTOP
 10
0.0
 20
0.0
 30
0.0
  9
$UCSORGBOTTOM
 10
0.0
 20
0.0
 30
0.0
  9
$UCSORGLEFT
 10
0.0
 20
0.0
 30
0.0
  9
$UCSORGRIGHT
 10
0.0
 20
0.0
 30
0.0
  9
$UCSORGFRONT
 10
0.0
 20
0.0
 30
0.0
  9
$UCSORGBACK
 10
0.0
 20
0.0
 30
0.0
  9
$PUCSBASE
  2

  9
$PUCSNAME
  2

  9
$PUCSORG
 10
0.0
 20
0.0
 30
0.0
  9
$PUCSXDIR
 10
1.0
 20
0.0
 30
0.0
  9
$PUCSYDIR
 10
0.0
 20
1.0
 30
0.0
  9
$PUCSORTHOREF
  2

  9
$PUCSORTHOVIEW
 70
     0
  9
$PUCSORGTOP
 10
0.0
 20
0.0
 30
0.0
  9
$PUCSORGBOTTOM
 10
0.0
 20
0.0
 30
0.0
  9
$PUCSORGLEFT
 10
0.0
 20
0.0
 30
0.0
  9
$PUCSORGRIGHT
 10
0.0
 20
0.0
 30
0.0
  9
$PUCSORGFRONT
 10
0.0
 20
0.0
 30
0.0
  9
$PUCSORGBACK
 10
0.0
 20
0.0
 30
0.0
  9
$USERI1
 70
     0
  9
$USERI2
 70
     0
  9
$USERI3
 70
     0
  9
$USERI4
 70
     0
  9
$USERI5
 70
     0
  9
$USERR1
 40
0.0
  9
$USERR2
 40
0.0
  9
$USERR3
 40
0.0
  9
$USERR4
 40
0.0
  9
$USERR5
 40
0.0
  9
$WORLDVIEW
 70
     1
  9
$SHADEDGE
 70
     3
  9
$SHADEDIF
 70
    70
  9
$TILEMODE
 70
     1
  9
$MAXACTVP
 70
    64
  9
$PINSBASE
 10
0.0
 20
0.0
 30
0.0
  9
$PLIMCHECK
 70
     0
  9
$PEXTMIN
 10
1.0000000000E+20
 20
1.0000000000E+20
 30
1.0000000000E+20
  9
$PEXTMAX
 10
-1.0000000000E+20
 20
-1.0000000000E+20
 30
-1.0000000000E+20
  9
$PLIMMIN
 10
0.0
 20
0.0
  9
$PLIMMAX
 10
420.0
 20
297.0
  9
$UNITMODE
 70
     0
  9
$VISRETAIN
 70
     1
  9
$PLINEGEN
 70
     0
  9
$PSLTSCALE
 70
     1
  9
$TREEDEPTH
 70
  3020
  9
$CMLSTYLE
  2
Standard
  9
$CMLJUST
 70
     0
  9
$CMLSCALE
 40
20.0
  9
$PROXYGRAPHICS
 70
     1
  9
$MEASUREMENT
 70
     1
  9
$CELWEIGHT
370
    -1
  9
$ENDCAPS
280
     0
  9
$JOINSTYLE
280
     0
  9
$LWDISPLAY
290
     1
  9
$INSUNITS
 70
     4
  9
$HYPERLINKBASE
  1

  9
$STYLESHEET
  1

  9
$XEDIT
290
     1
  9
$CEPSNTYPE
380
     0
  9
$PSTYLEMODE
290
     1
  9
$FINGERPRINTGUID
  2
{C35D8293-CAAD-4F45-BA56-AC375D21F549}
  9
$VERSIONGUID
  2
{FAEB1C32-E019-11D5-929B-00C0DF256EC4}
  9
$EXTNAMES
290
     1
  9
$PSVPSCALE
 40
0.0
  9
$OLESTARTUP
290
     0
  0
ENDSEC
  0
SECTION
  2
CLASSES
  0
CLASS
  1
ACDBDICTIONARYWDFLT
  2
AcDbDictionaryWithDefault
  3
ObjectDBX Classes
 90
        0
280
     0
281
     0
  0
CLASS
  1
VISUALSTYLE
  2
AcDbVisualStyle
  3
ObjectDBX Classes
 90
     4095
280
     0
281
     0
  0
CLASS
  1
MATERIAL
  2
AcDbMaterial
  3
ObjectDBX Classes
 90
     1153
280
     0
281
     0
  0
CLASS
  1
SCALE
  2
AcDbScale
  3
ObjectDBX Classes
 90
     1153
280
     0
281
     0
  0
CLASS
  1
TABLESTYLE
  2
AcDbTableStyle
  3
ObjectDBX Classes
 90
     4095
280
     0
281
     0
  0
CLASS
  1
MLEADERSTYLE
  2
AcDbMLeaderStyle
  3
ACDB_MLEADERSTYLE_CLASS
 90
     4095
280
     0
281
     0
  0
CLASS
  1
SUN
  2
AcDbSun
  3
SCENEOE
 90
     1153
280
     0
281
     0
  0
CLASS
  1
ACDBPLACEHOLDER
  2
AcDbPlaceHolder
  3
ObjectDBX Classes
 90
        0
280
     0
281
     0
  0
CLASS
  1
LAYOUT
  2
AcDbLayout
  3
ObjectDBX Classes
 90
        0
280
     0
281
     0
  0
ENDSEC
  0
SECTION
  2
TABLES
  0
TABLE
  2
VPORT
  5
8
330
0
100
AcDbSymbolTable
 70
     1
  0
VPORT
  5
29
330
8
100
AcDbSymbolTableRecord
100
AcDbViewportTableRecord
  2
*Active
 70
     0
 10
0.0
 20
0.0
 11
1.0
 21
1.0
 12
148.5
 22
105.0
 13
0.0
 23
0.0
 14
10.0
 24
10.0
 15
10.0
 25
10.0
 16
0.0
 26
0.0
 36
1.0
 17
0.0
 27
0.0
 37
0.0
 40
210.0
 41
1.4142857143
 42
50.0
 43
0.0
 44
0.0
 50
0.0
 51
0.0
 71
     0
 72
  2000
 73
     1
 74
     3
 75
     0
 76
     0
 77
     0
 78
     0
281
     0
 65
     1
110
0.0
120
0.0
130
0.0
111
1.0
121
0.0
131
0.0
112
0.0
122
1.0
132
0.0
 79
     0
146
0.0
  0
ENDTAB
  0
TABLE
  2
LTYPE
  5
5
330
0
100
AcDbSymbolTable
 70
     8
  0
LTYPE
  5
14
330
5
100
AcDbSymbolTableRecord
100
AcDbLinetypeTableRecord
  2
ByBlock
 70
     0
  3

 72
    65
 73
     0
 40
0.0
  0
LTYPE
  5
15
330
5
100
AcDbSymbolTableRecord
100
AcDbLinetypeTableRecord
  2
ByLayer
 70
     0
  3

 72
    65
 73
     0
 40
0.0
  0
LTYPE
  5
16
330
5
100
AcDbSymbolTableRecord
100
AcDbLinetypeTableRecord
  2
Continuous
 70
     0
  3
Solid line
 72
    65
 73
     0
 40
0.0
  0
LTYPE
  5
6E
330
5
100
AcDbSymbolTableRecord
100
AcDbLinetypeTableRecord
  2
SLD-Solid
 70
     0
  3
SolidWorks Line Style
 72
    65
 73
     0
 40
0.0
  0
LTYPE
  5
6F
330
5
100
AcDbSymbolTableRecord
100
AcDbLinetypeTableRecord
  2
SLD-Dashed
 70
     0
  3
SolidWorks Line Style
 72
    65
 73
     2
 40
1.905
 49
1.27
 74
     0
 49
-0.635
 74
     0
  0
LTYPE
  5
70
330
5
100
AcDbSymbolTableRecord
100
AcDbLinetypeTableRecord
  2
SLD-Phantom
 70
     0
  3
SolidWorks Line Style
 72
    65
 73
     6
 40
12.7
 49
6.35
 74
     0
 49
-1.27
 74
     0
 49
1.27
 74
     0
 49
-1.27
 74
     0
 49
1.27
 74
     0
 49
-1.27
 74
     0
  0
LTYPE
  5
71
330
5
100
AcDbSymbolTableRecord
100
AcDbLinetypeTableRecord
  2
SLD-Chain
 70
     0
  3
SolidWorks Line Style
 72
    65
 73
     4
 40
10.16
 49
6.35
 74
     0
 49
-1.27
 74
     0
 49
1.27
 74
     0
 49
-1.27
 74
     0
  0
LTYPE
  5
72
330
5
100
AcDbSymbolTableRecord
100
AcDbLinetypeTableRecord
  2
SLD-Center
 70
     0
  3
SolidWorks Line Style
 72
    65
 73
     4
 40
19.05
 49
15.24
 74
     0
 49
-1.27
 74
     0
 49
1.27
 74
     0
 49
-1.27
 74
     0
  0
LTYPE
  5
73
330
5
100
AcDbSymbolTableRecord
100
AcDbLinetypeTableRecord
  2
SLD-Stitch
 70
     0
  3
SolidWorks Line Style
 72
    65
 73
     2
 40
0.635
 49
0.0
 74
     0
 49
-0.635
 74
     0
  0
LTYPE
  5
74
330
5
100
AcDbSymbolTableRecord
100
AcDbLinetypeTableRecord
  2
SLD-Thin-Thick-Chain
 70
     0
  3
SolidWorks Line Style
 72
    65
 73
     4
 40
10.16
 49
6.35
 74
     0
 49
-1.27
 74
     0
 49
1.27
 74
     0
 49
-1.27
 74
     0
  0
ENDTAB
  0
TABLE
  2
LAYER
  5
2
330
0
100
AcDbSymbolTable
 70
    14
  0
LAYER
  5
10
330
2
100
AcDbSymbolTableRecord
100
AcDbLayerTableRecord
  2
0
 70
     0
 62
     7
  6
Continuous
370
    -3
390
F
  0
LAYER
  5
75
330
2
100
AcDbSymbolTableRecord
100
AcDbLayerTableRecord
  2
SLD-0
 70
     0
 62
   179
  6
SLD-Solid
370
    -3
390
F
  0
LAYER
  5
76
330
2
100
AcDbSymbolTableRecord
100
AcDbLayerTableRecord
  2
80
 70
     0
 62
    -6
  6
SLD-Solid
290
     0
370
    -3
390
F
  0
LAYER
  5
77
330
2
100
AcDbSymbolTableRecord
100
AcDbLayerTableRecord
  2
81
 70
     0
 62
    -3
  6
SLD-Solid
290
     0
370
    -3
390
F
  0
LAYER
  5
78
330
2
100
AcDbSymbolTableRecord
100
AcDbLayerTableRecord
  2
1
 70
     0
 62
     4
  6
SLD-Solid
290
     0
370
    -3
390
F
  0
LAYER
  5
79
330
2
100
AcDbSymbolTableRecord
100
AcDbLayerTableRecord
  2
4
 70
     0
 62
    -2
  6
SLD-Chain
290
     0
370
    -3
390
F
  0
LAYER
  5
7A
330
2
100
AcDbSymbolTableRecord
100
AcDbLayerTableRecord
  2
2
 70
     0
 62
     7
  6
SLD-Solid
290
     0
370
    -3
390
F
  0
LAYER
  5
7B
330
2
100
AcDbSymbolTableRecord
100
AcDbLayerTableRecord
  2
SK3
 70
     0
 62
     1
  6
SLD-Dashed
290
     0
370
    -3
390
F
  0
LAYER
  5
7C
330
2
100
AcDbSymbolTableRecord
100
AcDbLayerTableRecord
  2
SK4
 70
     0
 62
     2
  6
SLD-Chain
290
     0
370
    -3
390
F
  0
LAYER
  5
7D
330
2
100
AcDbSymbolTableRecord
100
AcDbLayerTableRecord
  2
SK2
 70
     0
 62
     7
  6
SLD-Solid
290
     0
370
    -3
390
F
  0
LAYER
  5
7E
330
2
100
AcDbSymbolTableRecord
100
AcDbLayerTableRecord
  2
SK6
 70
     0
 62
     5
  6
SLD-Solid
290
     0
370
    -3
390
F
  0
LAYER
  5
7F
330
2
100
AcDbSymbolTableRecord
100
AcDbLayerTableRecord
  2
6
 70
     0
 62
     5
  6
SLD-Solid
370
    -3
390
F
  0
LAYER
  5
80
330
2
100
AcDbSymbolTableRecord
100
AcDbLayerTableRecord
  2
SK1
 70
     0
 62
     4
  6
SLD-Solid
370
    -3
390
F
  0
LAYER
  5
81
330
2
100
AcDbSymbolTableRecord
100
AcDbLayerTableRecord
  2
LAYER5
 70
     0
 62
   218
  6
SLD-Solid
370
    -3
390
F
  0
ENDTAB
  0
TABLE
  2
STYLE
  5
3
330
0
100
AcDbSymbolTable
 70
     3
  0
STYLE
  5
11
330
3
100
AcDbSymbolTableRecord
100
AcDbTextStyleTableRecord
  2
Standard
 70
     0
 40
0.0
 41
1.0
 50
0.0
 71
     0
 42
3.5
  3
txt
  4

  0
STYLE
  5
289
330
3
100
AcDbSymbolTableRecord
100
AcDbTextStyleTableRecord
  2
SLDTEXTSTYLE0
 70
     0
 40
0.0
 41
0.75
 50
0.0
 71
     0
 42
3.5
  3
TXT
  4

  0
STYLE
  5
365
330
3
100
AcDbSymbolTableRecord
100
AcDbTextStyleTableRecord
  2
SLDTEXTSTYLE1
 70
     0
 40
0.0
 41
0.6875
 50
0.0
 71
     0
 42
3.5
  3
TXT
  4

  0
ENDTAB
  0
TABLE
  2
VIEW
  5
6
330
0
100
AcDbSymbolTable
 70
     0
  0
ENDTAB
  0
TABLE
  2
UCS
  5
7
330
0
100
AcDbSymbolTable
 70
     0
  0
ENDTAB
  0
TABLE
  2
APPID
  5
9
330
0
100
AcDbSymbolTable
 70
     1
  0
APPID
  5
12
330
9
100
AcDbSymbolTableRecord
100
AcDbRegAppTableRecord
  2
ACAD
 70
     0
  0
ENDTAB
  0
TABLE
  2
DIMSTYLE
  5
A
330
0
100
AcDbSymbolTable
 70
     7
100
AcDbDimStyleTable
  0
DIMSTYLE
105
27
330
A
100
AcDbSymbolTableRecord
100
AcDbDimStyleTableRecord
  2
ISO-25
 70
     0
 41
2.5
 42
0.625
 43
3.75
 44
1.25
 73
     0
 74
     0
 77
     1
 78
     8
140
2.5
141
2.5
143
0.0393700787
147
0.625
171
     3
172
     1
178
     0
271
     2
272
     2
274
     3
278
    44
283
     0
284
     8
340
11
  0
DIMSTYLE
105
28A
102
{ACAD_REACTORS
330
288
330
29D
330
2B0
330
2C3
330
2F6
330
308
330
32E
102
}
330
A
100
AcDbSymbolTableRecord
100
AcDbDimStyleTableRecord
  2
SLDDIMSTYLE0
 70
     0
 41
3.302
 44
0.0
 45
0.000000001
 73
     0
 74
     0
 77
     1
 78
    12
 79
     3
140
3.5
143
0.0393700787
147
0.875
148
0.000000001
170
     1
173
     1
178
     0
271
     2
272
     2
276
     2
284
    12
340
289
  0
DIMSTYLE
105
2D7
102
{ACAD_REACTORS
330
2D6
330
34E
102
}
330
A
100
AcDbSymbolTableRecord
100
AcDbDimStyleTableRecord
  2
SLDDIMSTYLE1
 70
     0
 41
3.302
 44
0.0
 45
0.000000001
 73
     0
 74
     0
 77
     1
 78
    12
 79
     3
140
3.5
147
0.875
173
     1
178
     0
271
     2
272
     2
276
     2
284
    12
340
289
  0
DIMSTYLE
105
2E2
102
{ACAD_REACTORS
330
2E1
102
}
330
A
100
AcDbSymbolTableRecord
100
AcDbDimStyleTableRecord
  2
SLDDIMSTYLE2
 70
     0
 41
3.302
 44
0.0
 45
0.000000001
 73
     0
 74
     0
 77
     1
 78
    12
 79
     3
140
3.5
143
0.0393700787
147
0.875
148
0.000000001
170
     1
171
     3
172
     1
173
     1
178
     0
271
     3
272
     2
274
     3
276
     2
284
    12
289
     0
340
289
  0
DIMSTYLE
105
31B
102
{ACAD_REACTORS
330
31A
102
}
330
A
100
AcDbSymbolTableRecord
100
AcDbDimStyleTableRecord
  2
SLDDIMSTYLE3
 70
     0
 41
3.302
 44
0.0
 45
0.000000001
 73
     0
 74
     0
 77
     1
 78
    12
 79
     3
140
3.5
143
0.0393700787
147
0.875
148
0.000000001
170
     1
171
     3
173
     1
178
     0
271
     3
272
     2
274
     3
276
     2
284
    12
340
289
  0
DIMSTYLE
105
342
102
{ACAD_REACTORS
330
341
102
}
330
A
100
AcDbSymbolTableRecord
100
AcDbDimStyleTableRecord
  2
SLDDIMSTYLE4
 70
     0
 41
3.302
 44
0.0
 45
0.000000001
 73
     0
 74
     0
 77
     1
 78
    12
 79
     3
140
3.5
147
0.875
172
     1
173
     1
178
     0
271
     2
272
     2
276
     2
284
    12
289
     0
340
289
  0
DIMSTYLE
105
35A
102
{ACAD_REACTORS
330
359
102
}
330
A
100
AcDbSymbolTableRecord
100
AcDbDimStyleTableRecord
  2
SLDDIMSTYLE5
 70
     0
 41
3.302
 44
0.0
 45
0.000000001
 73
     0
 74
     0
 77
     1
 78
    12
 79
     3
140
3.5
147
0.875
172
     1
173
     1
178
     0
271
     6
272
     2
276
     2
284
    12
289
     0
340
289
  0
ENDTAB
  0
TABLE
  2
BLOCK_RECORD
  5
1
330
0
100
AcDbSymbolTable
 70
    14
  0
BLOCK_RECORD
  5
1F
330
1
100
AcDbSymbolTableRecord
100
AcDbBlockTableRecord
  2
*Model_Space
340
22
  0
BLOCK_RECORD
  5
1B
330
1
100
AcDbSymbolTableRecord
100
AcDbBlockTableRecord
  2
*Paper_Space
340
1E
  0
BLOCK_RECORD
  5
23
330
1
100
AcDbSymbolTableRecord
100
AcDbBlockTableRecord
  2
*Paper_Space0
340
26
  0
BLOCK_RECORD
  5
28B
330
1
100
AcDbSymbolTableRecord
100
AcDbBlockTableRecord
  2
_D
340
0
  0
BLOCK_RECORD
  5
29E
330
1
100
AcDbSymbolTableRecord
100
AcDbBlockTableRecord
  2
_D_1
340
0
  0
BLOCK_RECORD
  5
2B1
330
1
100
AcDbSymbolTableRecord
100
AcDbBlockTableRecord
  2
_D_2
340
0
  0
BLOCK_RECORD
  5
2C4
330
1
100
AcDbSymbolTableRecord
100
AcDbBlockTableRecord
  2
_D_3
340
0
  0
BLOCK_RECORD
  5
2D8
330
1
100
AcDbSymbolTableRecord
100
AcDbBlockTableRecord
  2
_D_4
340
0
  0
BLOCK_RECORD
  5
2E3
330
1
100
AcDbSymbolTableRecord
100
AcDbBlockTableRecord
  2
_D_5
340
0
  0
BLOCK_RECORD
  5
2F7
330
1
100
AcDbSymbolTableRecord
100
AcDbBlockTableRecord
  2
_D_6
340
0
  0
BLOCK_RECORD
  5
309
330
1
100
AcDbSymbolTableRecord
100
AcDbBlockTableRecord
  2
_D_7
340
0
  0
BLOCK_RECORD
  5
31C
330
1
100
AcDbSymbolTableRecord
100
AcDbBlockTableRecord
  2
_D_8
340
0
  0
BLOCK_RECORD
  5
32F
330
1
100
AcDbSymbolTableRecord
100
AcDbBlockTableRecord
  2
_D_9
340
0
  0
BLOCK_RECORD
  5
343
330
1
100
AcDbSymbolTableRecord
100
AcDbBlockTableRecord
  2
_D_10
340
0
  0
BLOCK_RECORD
  5
34F
330
1
100
AcDbSymbolTableRecord
100
AcDbBlockTableRecord
  2
_D_11
340
0
  0
BLOCK_RECORD
  5
35B
330
1
100
AcDbSymbolTableRecord
100
AcDbBlockTableRecord
  2
_D_12
340
0
  0
ENDTAB
  0
ENDSEC
  0
SECTION
  2
BLOCKS
  0
BLOCK
  5
20
330
1F
100
AcDbEntity
  8
0
100
AcDbBlockBegin
  2
*Model_Space
 70
     0
 10
0.0
 20
0.0
 30
0.0
  3
*Model_Space
  1

  0
ENDBLK
  5
21
330
1F
100
AcDbEntity
  8
0
100
AcDbBlockEnd
  0
BLOCK
  5
1C
330
1B
100
AcDbEntity
 67
     1
  8
0
100
AcDbBlockBegin
  2
*Paper_Space
 70
     0
 10
0.0
 20
0.0
 30
0.0
  3
*Paper_Space
  1

  0
ENDBLK
  5
1D
330
1B
100
AcDbEntity
 67
     1
  8
0
100
AcDbBlockEnd
  0
BLOCK
  5
24
330
23
100
AcDbEntity
  8
0
100
AcDbBlockBegin
  2
*Paper_Space0
 70
     0
 10
0.0
 20
0.0
 30
0.0
  3
*Paper_Space0
  1

  0
ENDBLK
  5
25
330
23
100
AcDbEntity
  8
0
100
AcDbBlockEnd
  0
BLOCK
  5
28C
330
28B
100
AcDbEntity
  8
0
100
AcDbBlockBegin
  2
_D
 70
     0
 10
0.0
 20
0.0
 30
0.0
  3
_D
  1

  0
SOLID
  5
28E
330
28B
100
AcDbEntity
  8
2
100
AcDbTrace
 10
0.0
 20
51.9848621916
 30
0.0
 11
3.302
 21
51.4768621916
 31
0.0
 12
3.302
 22
52.4928621916
 32
0.0
 13
3.302
 23
52.4928621916
 33
0.0
  0
SOLID
  5
28F
330
28B
100
AcDbEntity
  8
2
100
AcDbTrace
 10
80.0
 20
51.9848621916
 30
0.0
 11
76.698
 21
52.4928621916
 31
0.0
 12
76.698
 22
51.4768621916
 32
0.0
 13
76.698
 23
51.4768621916
 33
0.0
  0
LINE
  5
290
330
28B
100
AcDbEntity
  8
2
100
AcDbLine
 10
25.0306276116
 20
62.7777439077
 30
0.0
 11
23.9642213541
 21
62.7777439077
 31
0.0
  0
LINE
  5
291
330
28B
100
AcDbEntity
  8
2
100
AcDbLine
 10
23.9642213541
 20
62.7777439077
 30
0.0
 11
23.9642213541
 21
57.2214939166
 31
0.0
  0
LINE
  5
292
330
28B
100
AcDbEntity
  8
2
100
AcDbLine
 10
23.9642213541
 20
57.2214939166
 30
0.0
 11
25.0306276116
 21
57.2214939166
 31
0.0
  0
LINE
  5
293
330
28B
100
AcDbEntity
  8
2
100
AcDbLine
 10
34.0820166725
 20
62.7777439077
 30
0.0
 11
35.1484229299
 21
62.7777439077
 31
0.0
  0
LINE
  5
294
330
28B
100
AcDbEntity
  8
2
100
AcDbLine
 10
35.1484229299
 20
62.7777439077
 30
0.0
 11
35.1484229299
 21
57.2214939166
 31
0.0
  0
LINE
  5
295
330
28B
100
AcDbEntity
  8
2
100
AcDbLine
 10
35.1484229299
 20
57.2214939166
 30
0.0
 11
34.0820166725
 21
57.2214939166
 31
0.0
  0
LINE
  5
296
330
28B
100
AcDbEntity
  8
2
100
AcDbLine
 10
0.0
 20
23.225
 30
0.0
 11
0.0
 21
52.9848621916
 31
0.0
  0
LINE
  5
297
330
28B
100
AcDbEntity
  8
2
100
AcDbLine
 10
80.0
 20
19.0
 30
0.0
 11
80.0
 21
52.9848621916
 31
0.0
  0
LINE
  5
298
330
28B
100
AcDbEntity
  8
2
100
AcDbLine
 10
0.0
 20
51.9848621916
 30
0.0
 11
80.0
 21
51.9848621916
 31
0.0
  0
MTEXT
  5
299
330
28B
100
AcDbEntity
  8
2
100
AcDbMText
 10
22.9172594999
 20
56.5500714575
 30
0.0
 40
3.5
 41
0.0
 71
     1
 72
     1
  1

  7
SLDTEXTSTYLE0
 73
     1
 44
1.0
  0
MTEXT
  5
29A
330
28B
100
AcDbEntity
  8
2
100
AcDbMText
 10
25.0306276116
 20
61.7332308312
 30
0.0
 40
3.5
 41
0.0
 71
     1
 72
     1
  1
3,15
  7
SLDTEXTSTYLE0
 73
     1
 44
1.0
  0
MTEXT
  5
29B
330
28B
100
AcDbEntity
  8
2
100
AcDbMText
 10
26.9702109485
 20
56.4965992808
 30
0.0
 40
3.5
 41
0.0
 71
     1
 72
     1
  1
80
  7
SLDTEXTSTYLE0
 73
     1
 44
1.0
  0
MTEXT
  5
29C
330
28B
100
AcDbEntity
  8
2
100
AcDbMText
 10
37.5273293038
 20
56.5500714575
 30
0.0
 40
3.5
 41
0.0
 71
     1
 72
     1
  1

  7
SLDTEXTSTYLE0
 73
     1
 44
1.0
  0
ENDBLK
  5
28D
330
28B
100
AcDbEntity
  8
0
100
AcDbBlockEnd
  0
BLOCK
  5
29F
330
29E
100
AcDbEntity
  8
0
100
AcDbBlockBegin
  2
_D_1
 70
     0
 10
0.0
 20
0.0
 30
0.0
  3
_D_1
  1

  0
SOLID
  5
2A1
330
29E
100
AcDbEntity
  8
SK2
100
AcDbTrace
 10
19.05
 20
39.5445733217
 30
0.0
 11
22.352
 21
39.0365733217
 31
0.0
 12
22.352
 22
40.0525733217
 32
0.0
 13
22.352
 23
40.0525733217
 33
0.0
  0
SOLID
  5
2A2
330
29E
100
AcDbEntity
  8
SK2
100
AcDbTrace
 10
80.0
 20
39.5445733217
 30
0.0
 11
76.698
 21
40.0525733217
 31
0.0
 12
76.698
 22
39.0365733217
 32
0.0
 13
76.698
 23
39.0365733217
 33
0.0
  0
LINE
  5
2A3
330
29E
100
AcDbEntity
  8
SK2
100
AcDbLine
 10
51.9423416446
 20
50.3374550378
 30
0.0
 11
50.8759353871
 21
50.3374550378
 31
0.0
  0
LINE
  5
2A4
330
29E
100
AcDbEntity
  8
SK2
100
AcDbLine
 10
50.8759353871
 20
50.3374550378
 30
0.0
 11
50.8759353871
 21
44.7812050467
 31
0.0
  0
LINE
  5
2A5
330
29E
100
AcDbEntity
  8
SK2
100
AcDbLine
 10
50.8759353871
 20
44.7812050467
 30
0.0
 11
51.9423416446
 21
44.7812050467
 31
0.0
  0
LINE
  5
2A6
330
29E
100
AcDbEntity
  8
SK2
100
AcDbLine
 10
60.9937307055
 20
50.3374550378
 30
0.0
 11
62.0601369629
 21
50.3374550378
 31
0.0
  0
LINE
  5
2A7
330
29E
100
AcDbEntity
  8
SK2
100
AcDbLine
 10
62.0601369629
 20
50.3374550378
 30
0.0
 11
62.0601369629
 21
44.7812050467
 31
0.0
  0
LINE
  5
2A8
330
29E
100
AcDbEntity
  8
SK2
100
AcDbLine
 10
62.0601369629
 20
44.7812050467
 30
0.0
 11
60.9937307055
 21
44.7812050467
 31
0.0
  0
LINE
  5
2A9
330
29E
100
AcDbEntity
  8
SK2
100
AcDbLine
 10
19.05
 20
30.8048664484
 30
0.0
 11
19.05
 21
40.5445733217
 31
0.0
  0
LINE
  5
2AA
330
29E
100
AcDbEntity
  8
SK2
100
AcDbLine
 10
80.0
 20
19.0
 30
0.0
 11
80.0
 21
40.5445733217
 31
0.0
  0
LINE
  5
2AB
330
29E
100
AcDbEntity
  8
SK2
100
AcDbLine
 10
19.05
 20
39.5445733217
 30
0.0
 11
80.0
 21
39.5445733217
 31
0.0
  0
MTEXT
  5
2AC
330
29E
100
AcDbEntity
  8
SK2
100
AcDbMText
 10
49.8289735329
 20
44.1097825876
 30
0.0
 40
3.5
 41
0.0
 71
     1
 72
     1
  1

  7
SLDTEXTSTYLE0
 73
     1
 44
1.0
  0
MTEXT
  5
2AD
330
29E
100
AcDbEntity
  8
SK2
100
AcDbMText
 10
51.9423416446
 20
49.2929419613
 30
0.0
 40
3.5
 41
0.0
 71
     1
 72
     1
  1
2,40
  7
SLDTEXTSTYLE0
 73
     1
 44
1.0
  0
MTEXT
  5
2AE
330
29E
100
AcDbEntity
  8
SK2
100
AcDbMText
 10
50.6492859314
 20
44.0563104109
 30
0.0
 40
3.5
 41
0.0
 71
     1
 72
     1
  1
60,95
  7
SLDTEXTSTYLE0
 73
     1
 44
1.0
  0
MTEXT
  5
2AF
330
29E
100
AcDbEntity
  8
SK2
100
AcDbMText
 10
64.4390433368
 20
44.1097825876
 30
0.0
 40
3.5
 41
0.0
 71
     1
 72
     1
  1

  7
SLDTEXTSTYLE0
 73
     1
 44
1.0
  0
ENDBLK
  5
2A0
330
29E
100
AcDbEntity
  8
0
100
AcDbBlockEnd
  0
BLOCK
  5
2B2
330
2B1
100
AcDbEntity
  8
0
100
AcDbBlockBegin
  2
_D_2
 70
     0
 10
0.0
 20
0.0
 30
0.0
  3
_D_2
  1

  0
SOLID
  5
2B4
330
2B1
100
AcDbEntity
  8
SK2
100
AcDbTrace
 10
65.2
 20
25.3312796125
 30
0.0
 11
68.502
 21
24.8232796125
 31
0.0
 12
68.502
 22
25.8392796125
 32
0.0
 13
68.502
 23
25.8392796125
 33
0.0
  0
SOLID
  5
2B5
330
2B1
100
AcDbEntity
  8
SK2
100
AcDbTrace
 10
80.0
 20
25.3312796125
 30
0.0
 11
76.698
 21
25.8392796125
 31
0.0
 12
76.698
 22
24.8232796125
 32
0.0
 13
76.698
 23
24.8232796125
 33
0.0
  0
LINE
  5
2B6
330
2B1
100
AcDbEntity
  8
SK2
100
AcDbLine
 10
68.1699181143
 20
36.1241613285
 30
0.0
 11
67.1035118569
 21
36.1241613285
 31
0.0
  0
LINE
  5
2B7
330
2B1
100
AcDbEntity
  8
SK2
100
AcDbLine
 10
67.1035118569
 20
36.1241613285
 30
0.0
 11
67.1035118569
 21
30.5679113374
 31
0.0
  0
LINE
  5
2B8
330
2B1
100
AcDbEntity
  8
SK2
100
AcDbLine
 10
67.1035118569
 20
30.5679113374
 30
0.0
 11
68.1699181143
 21
30.5679113374
 31
0.0
  0
LINE
  5
2B9
330
2B1
100
AcDbEntity
  8
SK2
100
AcDbLine
 10
77.2213071752
 20
36.1241613285
 30
0.0
 11
78.2877134327
 21
36.1241613285
 31
0.0
  0
LINE
  5
2BA
330
2B1
100
AcDbEntity
  8
SK2
100
AcDbLine
 10
78.2877134327
 20
36.1241613285
 30
0.0
 11
78.2877134327
 21
30.5679113374
 31
0.0
  0
LINE
  5
2BB
330
2B1
100
AcDbEntity
  8
SK2
100
AcDbLine
 10
78.2877134327
 20
30.5679113374
 30
0.0
 11
77.2213071752
 21
30.5679113374
 31
0.0
  0
LINE
  5
2BC
330
2B1
100
AcDbEntity
  8
SK2
100
AcDbLine
 10
65.2
 20
20.1052145871
 30
0.0
 11
65.2
 21
26.3312796125
 31
0.0
  0
LINE
  5
2BD
330
2B1
100
AcDbEntity
  8
SK2
100
AcDbLine
 10
80.0
 20
19.0
 30
0.0
 11
80.0
 21
26.3312796125
 31
0.0
  0
LINE
  5
2BE
330
2B1
100
AcDbEntity
  8
SK2
100
AcDbLine
 10
65.2
 20
25.3312796125
 30
0.0
 11
80.0
 21
25.3312796125
 31
0.0
  0
MTEXT
  5
2BF
330
2B1
100
AcDbEntity
  8
SK2
100
AcDbMText
 10
66.0565500027
 20
29.8964888783
 30
0.0
 40
3.5
 41
0.0
 71
     1
 72
     1
  1

  7
SLDTEXTSTYLE0
 73
     1
 44
1.0
  0
MTEXT
  5
2C0
330
2B1
100
AcDbEntity
  8
SK2
100
AcDbMText
 10
68.1699181143
 20
35.079648252
 30
0.0
 40
3.5
 41
0.0
 71
     1
 72
     1
  1
0,58
  7
SLDTEXTSTYLE0
 73
     1
 44
1.0
  0
MTEXT
  5
2C1
330
2B1
100
AcDbEntity
  8
SK2
100
AcDbMText
 10
68.1699181143
 20
29.8430167017
 30
0.0
 40
3.5
 41
0.0
 71
     1
 72
     1
  1
14,8
  7
SLDTEXTSTYLE0
 73
     1
 44
1.0
  0
MTEXT
  5
2C2
330
2B1
100
AcDbEntity
  8
SK2
100
AcDbMText
 10
80.6666198066
 20
29.8964888783
 30
0.0
 40
3.5
 41
0.0
 71
     1
 72
     1
  1

  7
SLDTEXTSTYLE0
 73
     1
 44
1.0
  0
ENDBLK
  5
2B3
330
2B1
100
AcDbEntity
  8
0
100
AcDbBlockEnd
  0
BLOCK
  5
2C5
330
2C4
100
AcDbEntity
  8
0
100
AcDbBlockBegin
  2
_D_3
 70
     0
 10
0.0
 20
0.0
 30
0.0
  3
_D_3
  1

  0
SOLID
  5
2C7
330
2C4
100
AcDbEntity
  8
SK2
100
AcDbTrace
 10
42.8
 20
25.4484645577
 30
0.0
 11
46.102
 21
24.9404645577
 31
0.0
 12
46.102
 22
25.9564645577
 32
0.0
 13
46.102
 23
25.9564645577
 33
0.0
  0
SOLID
  5
2C8
330
2C4
100
AcDbEntity
  8
SK2
100
AcDbTrace
 10
65.2
 20
25.4484645577
 30
0.0
 11
61.898
 21
25.9564645577
 31
0.0
 12
61.898
 22
24.9404645577
 32
0.0
 13
61.898
 23
24.9404645577
 33
0.0
  0
LINE
  5
2C9
330
2C4
100
AcDbEntity
  8
SK2
100
AcDbLine
 10
49.6546967692
 20
36.2413462737
 30
0.0
 11
48.5882905118
 21
36.2413462737
 31
0.0
  0
LINE
  5
2CA
330
2C4
100
AcDbEntity
  8
SK2
100
AcDbLine
 10
48.5882905118
 20
36.2413462737
 30
0.0
 11
48.5882905118
 21
30.6850962827
 31
0.0
  0
LINE
  5
2CB
330
2C4
100
AcDbEntity
  8
SK2
100
AcDbLine
 10
48.5882905118
 20
30.6850962827
 30
0.0
 11
49.6546967692
 21
30.6850962827
 31
0.0
  0
LINE
  5
2CC
330
2C4
100
AcDbEntity
  8
SK2
100
AcDbLine
 10
58.7060858301
 20
36.2413462737
 30
0.0
 11
59.7724920876
 21
36.2413462737
 31
0.0
  0
LINE
  5
2CD
330
2C4
100
AcDbEntity
  8
SK2
100
AcDbLine
 10
59.7724920876
 20
36.2413462737
 30
0.0
 11
59.7724920876
 21
30.6850962827
 31
0.0
  0
LINE
  5
2CE
330
2C4
100
AcDbEntity
  8
SK2
100
AcDbLine
 10
59.7724920876
 20
30.6850962827
 30
0.0
 11
58.7060858301
 21
30.6850962827
 31
0.0
  0
LINE
  5
2CF
330
2C4
100
AcDbEntity
  8
SK2
100
AcDbLine
 10
42.8
 20
21.1141
 30
0.0
 11
42.8
 21
26.4484645577
 31
0.0
  0
LINE
  5
2D0
330
2C4
100
AcDbEntity
  8
SK2
100
AcDbLine
 10
65.2
 20
20.1052145871
 30
0.0
 11
65.2
 21
26.4484645577
 31
0.0
  0
LINE
  5
2D1
330
2C4
100
AcDbEntity
  8
SK2
100
AcDbLine
 10
42.8
 20
25.4484645577
 30
0.0
 11
65.2
 21
25.4484645577
 31
0.0
  0
MTEXT
  5
2D2
330
2C4
100
AcDbEntity
  8
SK2
100
AcDbMText
 10
47.5413286576
 20
30.0136738235
 30
0.0
 40
3.5
 41
0.0
 71
     1
 72
     1
  1

  7
SLDTEXTSTYLE0
 73
     1
 44
1.0
  0
MTEXT
  5
2D3
330
2C4
100
AcDbEntity
  8
SK2
100
AcDbMText
 10
49.6546967692
 20
35.1968331972
 30
0.0
 40
3.5
 41
0.0
 71
     1
 72
     1
  1
0,88
  7
SLDTEXTSTYLE0
 73
     1
 44
1.0
  0
MTEXT
  5
2D4
330
2C4
100
AcDbEntity
  8
SK2
100
AcDbMText
 10
49.6546967692
 20
29.9602016469
 30
0.0
 40
3.5
 41
0.0
 71
     1
 72
     1
  1
22,4
  7
SLDTEXTSTYLE0
 73
     1
 44
1.0
  0
MTEXT
  5
2D5
330
2C4
100
AcDbEntity
  8
SK2
100
AcDbMText
 10
62.1513984615
 20
30.0136738235
 30
0.0
 40
3.5
 41
0.0
 71
     1
 72
     1
  1

  7
SLDTEXTSTYLE0
 73
     1
 44
1.0
  0
ENDBLK
  5
2C6
330
2C4
100
AcDbEntity
  8
0
100
AcDbBlockEnd
  0
BLOCK
  5
2D9
330
2D8
100
AcDbEntity
  8
0
100
AcDbBlockBegin
  2
_D_4
 70
     0
 10
0.0
 20
0.0
 30
0.0
  3
_D_4
  1

  0
SOLID
  5
2DB
330
2D8
100
AcDbEntity
  8
SK2
100
AcDbTrace
 10
0.0
 20
39.5445733217
 30
0.0
 11
3.302
 21
39.0365733217
 31
0.0
 12
3.302
 22
40.0525733217
 32
0.0
 13
3.302
 23
40.0525733217
 33
0.0
  0
SOLID
  5
2DC
330
2D8
100
AcDbEntity
  8
SK2
100
AcDbTrace
 10
19.05
 20
39.5445733217
 30
0.0
 11
15.748
 21
40.0525733217
 31
0.0
 12
15.748
 22
39.0365733217
 32
0.0
 13
15.748
 23
39.0365733217
 33
0.0
  0
LINE
  5
2DD
330
2D8
100
AcDbEntity
  8
SK2
100
AcDbLine
 10
0.0
 20
23.225
 30
0.0
 11
0.0
 21
40.5445733217
 31
0.0
  0
LINE
  5
2DE
330
2D8
100
AcDbEntity
  8
SK2
100
AcDbLine
 10
19.05
 20
30.8048664484
 30
0.0
 11
19.05
 21
40.5445733217
 31
0.0
  0
LINE
  5
2DF
330
2D8
100
AcDbEntity
  8
SK2
100
AcDbLine
 10
0.0
 20
39.5445733217
 30
0.0
 11
19.05
 21
39.5445733217
 31
0.0
  0
MTEXT
  5
2E0
330
2D8
100
AcDbEntity
  8
SK2
100
AcDbMText
 10
5.4158967264
 20
44.0563102363
 30
0.0
 40
3.5
 41
0.0
 71
     1
 72
     1
  1
19,05
  7
SLDTEXTSTYLE0
 73
     1
 44
1.0
  0
ENDBLK
  5
2DA
330
2D8
100
AcDbEntity
  8
0
100
AcDbBlockEnd
  0
BLOCK
  5
2E4
330
2E3
100
AcDbEntity
  8
0
100
AcDbBlockBegin
  2
_D_5
 70
     0
 10
0.0
 20
0.0
 30
0.0
  3
_D_5
  1

  0
SOLID
  5
2E6
330
2E3
100
AcDbEntity
  8
SK2
100
AcDbTrace
 10
94.3748271616
 20
-9.525
 30
0.0
 11
93.8668271616
 21
-12.827
 31
0.0
 12
94.8828271616
 22
-12.827
 32
0.0
 13
94.8828271616
 23
-12.827
 33
0.0
  0
SOLID
  5
2E7
330
2E3
100
AcDbEntity
  8
SK2
100
AcDbTrace
 10
94.3748271616
 20
9.525
 30
0.0
 11
94.8828271616
 21
12.827
 31
0.0
 12
93.8668271616
 22
12.827
 32
0.0
 13
93.8668271616
 23
12.827
 33
0.0
  0
LINE
  5
2E8
330
2E3
100
AcDbEntity
  8
SK2
100
AcDbLine
 10
83.5819454456
 20
-5.5650484431
 30
0.0
 11
83.5819454456
 21
-6.6314547005
 31
0.0
  0
LINE
  5
2E9
330
2E3
100
AcDbEntity
  8
SK2
100
AcDbLine
 10
83.5819454456
 20
-6.6314547005
 30
0.0
 11
89.1381954367
 21
-6.6314547005
 31
0.0
  0
LINE
  5
2EA
330
2E3
100
AcDbEntity
  8
SK2
100
AcDbLine
 10
89.1381954367
 20
-6.6314547005
 30
0.0
 11
89.1381954367
 21
-5.5650484431
 31
0.0
  0
LINE
  5
2EB
330
2E3
100
AcDbEntity
  8
SK2
100
AcDbLine
 10
83.5819454456
 20
6.0724520442
 30
0.0
 11
83.5819454456
 21
7.1388583017
 31
0.0
  0
LINE
  5
2EC
330
2E3
100
AcDbEntity
  8
SK2
100
AcDbLine
 10
83.5819454456
 20
7.1388583017
 30
0.0
 11
89.1381954367
 21
7.1388583017
 31
0.0
  0
LINE
  5
2ED
330
2E3
100
AcDbEntity
  8
SK2
100
AcDbLine
 10
89.1381954367
 20
7.1388583017
 30
0.0
 11
89.1381954367
 21
6.0724520442
 31
0.0
  0
LINE
  5
2EE
330
2E3
100
AcDbEntity
  8
SK2
100
AcDbLine
 10
79.5
 20
-9.525
 30
0.0
 11
95.3748271616
 21
-9.525
 31
0.0
  0
LINE
  5
2EF
330
2E3
100
AcDbEntity
  8
SK2
100
AcDbLine
 10
79.5
 20
9.525
 30
0.0
 11
95.3748271616
 21
9.525
 31
0.0
  0
LINE
  5
2F0
330
2E3
100
AcDbEntity
  8
SK2
100
AcDbLine
 10
94.3748271616
 20
-9.525
 30
0.0
 11
94.3748271616
 21
-15.875
 31
0.0
  0
LINE
  5
2F1
330
2E3
100
AcDbEntity
  8
SK2
100
AcDbLine
 10
94.3748271616
 20
-9.525
 30
0.0
 11
94.3748271616
 21
9.525
 31
0.0
  0
LINE
  5
2F2
330
2E3
100
AcDbEntity
  8
SK2
100
AcDbLine
 10
94.3748271616
 20
9.525
 30
0.0
 11
94.3748271616
 21
15.875
 31
0.0
  0
MTEXT
  5
2F3
330
2E3
100
AcDbEntity
  8
SK2
100
AcDbMText
 10
84.6264585221
 20
-5.5650484431
 30
0.0
 40
3.5
 41
0.0
 71
     1
 72
     1
  1
0,750
  7
SLDTEXTSTYLE0
 11
6.123233995736766E-17
 21
1.0
 31
0.0
 73
     1
 44
1.0
  0
MTEXT
  5
2F4
330
2E3
100
AcDbEntity
  8
SK2
100
AcDbMText
 10
89.8630900724
 20
-8.2042676079
 30
0.0
 40
3.5
 41
0.0
 71
     1
 72
     1
  1
%%c
  7
SLDTEXTSTYLE0
 11
6.123233995736766E-17
 21
1.0
 31
0.0
 73
     1
 44
1.0
  0
MTEXT
  5
2F5
330
2E3
100
AcDbEntity
  8
SK2
100
AcDbMText
 10
89.8630900724
 20
-2.9258302095
 30
0.0
 40
3.5
 41
0.0
 71
     1
 72
     1
  1
19,05
  7
SLDTEXTSTYLE0
 11
6.123233995736766E-17
 21
1.0
 31
0.0
 73
     1
 44
1.0
  0
ENDBLK
  5
2E5
330
2E3
100
AcDbEntity
  8
0
100
AcDbBlockEnd
  0
BLOCK
  5
2F8
330
2F7
100
AcDbEntity
  8
0
100
AcDbBlockBegin
  2
_D_6
 70
     0
 10
0.0
 20
0.0
 30
0.0
  3
_D_6
  1

  0
SOLID
  5
2FA
330
2F7
100
AcDbEntity
  8
SK2
100
AcDbTrace
 10
108.2026506978
 20
18.0
 30
0.0
 11
107.6946506978
 21
14.698
 31
0.0
 12
108.7106506978
 22
14.698
 32
0.0
 13
108.7106506978
 23
14.698
 33
0.0
  0
SOLID
  5
2FB
330
2F7
100
AcDbEntity
  8
SK2
100
AcDbTrace
 10
108.2026506978
 20
-18.0
 30
0.0
 11
108.7106506978
 21
-14.698
 31
0.0
 12
107.6946506978
 22
-14.698
 32
0.0
 13
107.6946506978
 23
-14.698
 33
0.0
  0
LINE
  5
2FC
330
2F7
100
AcDbEntity
  8
SK2
100
AcDbLine
 10
97.4097689818
 20
-4.2719931955
 30
0.0
 11
97.4097689818
 21
-5.338399453
 31
0.0
  0
LINE
  5
2FD
330
2F7
100
AcDbEntity
  8
SK2
100
AcDbLine
 10
97.4097689818
 20
-5.338399453
 30
0.0
 11
102.9660189729
 21
-5.338399453
 31
0.0
  0
LINE
  5
2FE
330
2F7
100
AcDbEntity
  8
SK2
100
AcDbLine
 10
102.9660189729
 20
-5.338399453
 30
0.0
 11
102.9660189729
 21
-4.2719931955
 31
0.0
  0
LINE
  5
2FF
330
2F7
100
AcDbEntity
  8
SK2
100
AcDbLine
 10
97.4097689818
 20
4.7793958654
 30
0.0
 11
97.4097689818
 21
5.8458021228
 31
0.0
  0
LINE
  5
300
330
2F7
100
AcDbEntity
  8
SK2
100
AcDbLine
 10
97.4097689818
 20
5.8458021228
 30
0.0
 11
102.9660189729
 21
5.8458021228
 31
0.0
  0
LINE
  5
301
330
2F7
100
AcDbEntity
  8
SK2
100
AcDbLine
 10
102.9660189729
 20
5.8458021228
 30
0.0
 11
102.9660189729
 21
4.7793958654
 31
0.0
  0
LINE
  5
302
330
2F7
100
AcDbEntity
  8
SK2
100
AcDbLine
 10
81.0
 20
18.0
 30
0.0
 11
109.2026506978
 21
18.0
 31
0.0
  0
LINE
  5
303
330
2F7
100
AcDbEntity
  8
SK2
100
AcDbLine
 10
81.0
 20
-18.0
 30
0.0
 11
109.2026506978
 21
-18.0
 31
0.0
  0
LINE
  5
304
330
2F7
100
AcDbEntity
  8
SK2
100
AcDbLine
 10
108.2026506978
 20
18.0
 30
0.0
 11
108.2026506978
 21
-18.0
 31
0.0
  0
MTEXT
  5
305
330
2F7
100
AcDbEntity
  8
SK2
100
AcDbMText
 10
98.4542820583
 20
-4.2719931955
 30
0.0
 40
3.5
 41
0.0
 71
     1
 72
     1
  1
1,42
  7
SLDTEXTSTYLE0
 11
-7.044195017643634E-15
 21
1.0
 31
0.0
 73
     1
 44
1.0
  0
MTEXT
  5
306
330
2F7
100
AcDbEntity
  8
SK2
100
AcDbMText
 10
103.6909136086
 20
-4.9716287906
 30
0.0
 40
3.5
 41
0.0
 71
     1
 72
     1
  1
%%c
  7
SLDTEXTSTYLE0
 11
-7.044195017643634E-15
 21
1.0
 31
0.0
 73
     1
 44
1.0
  0
MTEXT
  5
307
330
2F7
100
AcDbEntity
  8
SK2
100
AcDbMText
 10
103.6909136086
 20
0.3068086078
 30
0.0
 40
3.5
 41
0.0
 71
     1
 72
     1
  1
36
  7
SLDTEXTSTYLE0
 11
-7.044195017643634E-15
 21
1.0
 31
0.0
 73
     1
 44
1.0
  0
ENDBLK
  5
2F9
330
2F7
100
AcDbEntity
  8
0
100
AcDbBlockEnd
  0
BLOCK
  5
30A
330
309
100
AcDbEntity
  8
0
100
AcDbBlockBegin
  2
_D_7
 70
     0
 10
0.0
 20
0.0
 30
0.0
  3
_D_7
  1

  0
SOLID
  5
30C
330
309
100
AcDbEntity
  8
SK2
100
AcDbTrace
 10
123.3195086315
 20
20.0
 30
0.0
 11
122.8115086315
 21
16.698
 31
0.0
 12
123.8275086315
 22
16.698
 32
0.0
 13
123.8275086315
 23
16.698
 33
0.0
  0
SOLID
  5
30D
330
309
100
AcDbEntity
  8
SK2
100
AcDbTrace
 10
123.3195086315
 20
-20.0
 30
0.0
 11
123.8275086315
 21
-16.698
 31
0.0
 12
122.8115086315
 22
-16.698
 32
0.0
 13
122.8115086315
 23
-16.698
 33
0.0
  0
LINE
  5
30E
330
309
100
AcDbEntity
  8
SK2
100
AcDbLine
 10
112.5266269155
 20
-4.2719931955
 30
0.0
 11
112.5266269155
 21
-5.338399453
 31
0.0
  0
LINE
  5
30F
330
309
100
AcDbEntity
  8
SK2
100
AcDbLine
 10
112.5266269155
 20
-5.338399453
 30
0.0
 11
118.0828769065
 21
-5.338399453
 31
0.0
  0
LINE
  5
310
330
309
100
AcDbEntity
  8
SK2
100
AcDbLine
 10
118.0828769065
 20
-5.338399453
 30
0.0
 11
118.0828769065
 21
-4.2719931955
 31
0.0
  0
LINE
  5
311
330
309
100
AcDbEntity
  8
SK2
100
AcDbLine
 10
112.5266269155
 20
4.7793958654
 30
0.0
 11
112.5266269155
 21
5.8458021228
 31
0.0
  0
LINE
  5
312
330
309
100
AcDbEntity
  8
SK2
100
AcDbLine
 10
112.5266269155
 20
5.8458021228
 30
0.0
 11
118.0828769065
 21
5.8458021228
 31
0.0
  0
LINE
  5
313
330
309
100
AcDbEntity
  8
SK2
100
AcDbLine
 10
118.0828769065
 20
5.8458021228
 30
0.0
 11
118.0828769065
 21
4.7793958654
 31
0.0
  0
LINE
  5
314
330
309
100
AcDbEntity
  8
SK2
100
AcDbLine
 10
79.0
 20
20.0
 30
0.0
 11
124.3195086315
 21
20.0
 31
0.0
  0
LINE
  5
315
330
309
100
AcDbEntity
  8
SK2
100
AcDbLine
 10
79.0
 20
-20.0
 30
0.0
 11
124.3195086315
 21
-20.0
 31
0.0
  0
LINE
  5
316
330
309
100
AcDbEntity
  8
SK2
100
AcDbLine
 10
123.3195086315
 20
20.0
 30
0.0
 11
123.3195086315
 21
-20.0
 31
0.0
  0
MTEXT
  5
317
330
309
100
AcDbEntity
  8
SK2
100
AcDbMText
 10
113.5711399919
 20
-4.2719931955
 30
0.0
 40
3.5
 41
0.0
 71
     1
 72
     1
  1
1,57
  7
SLDTEXTSTYLE0
 11
-7.044195017643634E-15
 21
1.0
 31
0.0
 73
     1
 44
1.0
  0
MTEXT
  5
318
330
309
100
AcDbEntity
  8
SK2
100
AcDbMText
 10
118.8077715423
 20
-4.9716287906
 30
0.0
 40
3.5
 41
0.0
 71
     1
 72
     1
  1
%%c
  7
SLDTEXTSTYLE0
 11
-7.044195017643634E-15
 21
1.0
 31
0.0
 73
     1
 44
1.0
  0
MTEXT
  5
319
330
309
100
AcDbEntity
  8
SK2
100
AcDbMText
 10
118.8077715423
 20
0.3068086078
 30
0.0
 40
3.5
 41
0.0
 71
     1
 72
     1
  1
40
  7
SLDTEXTSTYLE0
 11
-7.044195017643634E-15
 21
1.0
 31
0.0
 73
     1
 44
1.0
  0
ENDBLK
  5
30B
330
309
100
AcDbEntity
  8
0
100
AcDbBlockEnd
  0
BLOCK
  5
31D
330
31C
100
AcDbEntity
  8
0
100
AcDbBlockBegin
  2
_D_8
 70
     0
 10
0.0
 20
0.0
 30
0.0
  3
_D_8
  1

  0
SOLID
  5
31F
330
31C
100
AcDbEntity
  8
SK2
100
AcDbTrace
 10
-68.25
 20
-49.570205599
 30
0.0
 11
-64.948
 21
-50.078205599
 31
0.0
 12
-64.948
 22
-49.062205599
 32
0.0
 13
-64.948
 23
-49.062205599
 33
0.0
  0
SOLID
  5
320
330
31C
100
AcDbEntity
  8
SK2
100
AcDbTrace
 10
80.0
 20
-49.570205599
 30
0.0
 11
76.698
 21
-49.062205599
 31
0.0
 12
76.698
 22
-50.078205599
 32
0.0
 13
76.698
 23
-50.078205599
 33
0.0
  0
LINE
  5
321
330
31C
100
AcDbEntity
  8
SK2
100
AcDbLine
 10
8.2257973175
 20
-38.7773238829
 30
0.0
 11
7.15939106
 21
-38.7773238829
 31
0.0
  0
LINE
  5
322
330
31C
100
AcDbEntity
  8
SK2
100
AcDbLine
 10
7.15939106
 20
-38.7773238829
 30
0.0
 11
7.15939106
 21
-44.333573874
 31
0.0
  0
LINE
  5
323
330
31C
100
AcDbEntity
  8
SK2
100
AcDbLine
 10
7.15939106
 20
-44.333573874
 30
0.0
 11
8.2257973175
 21
-44.333573874
 31
0.0
  0
LINE
  5
324
330
31C
100
AcDbEntity
  8
SK2
100
AcDbLine
 10
19.8632978047
 20
-38.7773238829
 30
0.0
 11
20.9297040622
 21
-38.7773238829
 31
0.0
  0
LINE
  5
325
330
31C
100
AcDbEntity
  8
SK2
100
AcDbLine
 10
20.9297040622
 20
-38.7773238829
 30
0.0
 11
20.9297040622
 21
-44.333573874
 31
0.0
  0
LINE
  5
326
330
31C
100
AcDbEntity
  8
SK2
100
AcDbLine
 10
20.9297040622
 20
-44.333573874
 30
0.0
 11
19.8632978047
 21
-44.333573874
 31
0.0
  0
LINE
  5
327
330
31C
100
AcDbEntity
  8
SK2
100
AcDbLine
 10
-68.25
 20
-12.1476148288
 30
0.0
 11
-68.25
 21
-50.570205599
 31
0.0
  0
LINE
  5
328
330
31C
100
AcDbEntity
  8
SK2
100
AcDbLine
 10
80.0
 20
-19.0
 30
0.0
 11
80.0
 21
-50.570205599
 31
0.0
  0
LINE
  5
329
330
31C
100
AcDbEntity
  8
SK2
100
AcDbLine
 10
-68.25
 20
-49.570205599
 30
0.0
 11
80.0
 21
-49.570205599
 31
0.0
  0
MTEXT
  5
32A
330
31C
100
AcDbEntity
  8
SK2
100
AcDbMText
 10
6.1124292058
 20
-45.0049963331
 30
0.0
 40
3.5
 41
0.0
 71
     1
 72
     1
  1

  7
SLDTEXTSTYLE0
 73
     1
 44
1.0
  0
MTEXT
  5
32B
330
31C
100
AcDbEntity
  8
SK2
100
AcDbMText
 10
8.2257973175
 20
-39.8218369594
 30
0.0
 40
3.5
 41
0.0
 71
     1
 72
     1
  1
5,837
  7
SLDTEXTSTYLE0
 73
     1
 44
1.0
  0
MTEXT
  5
32C
330
31C
100
AcDbEntity
  8
SK2
100
AcDbMText
 10
6.9327411386
 20
-45.0584685098
 30
0.0
 40
3.5
 41
0.0
 71
     1
 72
     1
  1
148,25
  7
SLDTEXTSTYLE0
 73
     1
 44
1.0
  0
MTEXT
  5
32D
330
31C
100
AcDbEntity
  8
SK2
100
AcDbMText
 10
23.3086095047
 20
-45.0049963331
 30
0.0
 40
3.5
 41
0.0
 71
     1
 72
     1
  1

  7
SLDTEXTSTYLE0
 73
     1
 44
1.0
  0
ENDBLK
  5
31E
330
31C
100
AcDbEntity
  8
0
100
AcDbBlockEnd
  0
BLOCK
  5
330
330
32F
100
AcDbEntity
  8
0
100
AcDbBlockBegin
  2
_D_9
 70
     0
 10
0.0
 20
0.0
 30
0.0
  3
_D_9
  1

  0
SOLID
  5
332
330
32F
100
AcDbEntity
  8
SK2
100
AcDbTrace
 10
29.0
 20
-39.1555957433
 30
0.0
 11
32.302
 21
-39.6635957433
 31
0.0
 12
32.302
 22
-38.6475957433
 32
0.0
 13
32.302
 23
-38.6475957433
 33
0.0
  0
SOLID
  5
333
330
32F
100
AcDbEntity
  8
SK2
100
AcDbTrace
 10
80.0
 20
-39.1555957433
 30
0.0
 11
76.698
 21
-38.6475957433
 31
0.0
 12
76.698
 22
-39.6635957433
 32
0.0
 13
76.698
 23
-39.6635957433
 33
0.0
  0
LINE
  5
334
330
32F
100
AcDbEntity
  8
SK2
100
AcDbLine
 10
53.5835242087
 20
-28.3627140272
 30
0.0
 11
52.5171179513
 21
-28.3627140272
 31
0.0
  0
LINE
  5
335
330
32F
100
AcDbEntity
  8
SK2
100
AcDbLine
 10
52.5171179513
 20
-28.3627140272
 30
0.0
 11
52.5171179513
 21
-33.9189640183
 31
0.0
  0
LINE
  5
336
330
32F
100
AcDbEntity
  8
SK2
100
AcDbLine
 10
52.5171179513
 20
-33.9189640183
 30
0.0
 11
53.5835242087
 21
-33.9189640183
 31
0.0
  0
LINE
  5
337
330
32F
100
AcDbEntity
  8
SK2
100
AcDbLine
 10
62.6349132696
 20
-28.3627140272
 30
0.0
 11
63.7013195271
 21
-28.3627140272
 31
0.0
  0
LINE
  5
338
330
32F
100
AcDbEntity
  8
SK2
100
AcDbLine
 10
63.7013195271
 20
-28.3627140272
 30
0.0
 11
63.7013195271
 21
-33.9189640183
 31
0.0
  0
LINE
  5
339
330
32F
100
AcDbEntity
  8
SK2
100
AcDbLine
 10
63.7013195271
 20
-33.9189640183
 30
0.0
 11
62.6349132696
 21
-33.9189640183
 31
0.0
  0
LINE
  5
33A
330
32F
100
AcDbEntity
  8
SK2
100
AcDbLine
 10
29.0
 20
-10.75
 30
0.0
 11
29.0
 21
-40.1555957433
 31
0.0
  0
LINE
  5
33B
330
32F
100
AcDbEntity
  8
SK2
100
AcDbLine
 10
80.0
 20
-19.0
 30
0.0
 11
80.0
 21
-40.1555957433
 31
0.0
  0
LINE
  5
33C
330
32F
100
AcDbEntity
  8
SK2
100
AcDbLine
 10
29.0
 20
-39.1555957433
 30
0.0
 11
80.0
 21
-39.1555957433
 31
0.0
  0
MTEXT
  5
33D
330
32F
100
AcDbEntity
  8
SK2
100
AcDbMText
 10
51.4701560971
 20
-34.5903864774
 30
0.0
 40
3.5
 41
0.0
 71
     1
 72
     1
  1

  7
SLDTEXTSTYLE0
 73
     1
 44
1.0
  0
MTEXT
  5
33E
330
32F
100
AcDbEntity
  8
SK2
100
AcDbMText
 10
53.5835242087
 20
-29.4072271037
 30
0.0
 40
3.5
 41
0.0
 71
     1
 72
     1
  1
2,01
  7
SLDTEXTSTYLE0
 73
     1
 44
1.0
  0
MTEXT
  5
33F
330
32F
100
AcDbEntity
  8
SK2
100
AcDbMText
 10
55.5231075457
 20
-34.6438586541
 30
0.0
 40
3.5
 41
0.0
 71
     1
 72
     1
  1
51
  7
SLDTEXTSTYLE0
 73
     1
 44
1.0
  0
MTEXT
  5
340
330
32F
100
AcDbEntity
  8
SK2
100
AcDbMText
 10
66.080225901
 20
-34.5903864774
 30
0.0
 40
3.5
 41
0.0
 71
     1
 72
     1
  1

  7
SLDTEXTSTYLE0
 73
     1
 44
1.0
  0
ENDBLK
  5
331
330
32F
100
AcDbEntity
  8
0
100
AcDbBlockEnd
  0
BLOCK
  5
344
330
343
100
AcDbEntity
  8
0
100
AcDbBlockBegin
  2
_D_10
 70
     0
 10
0.0
 20
0.0
 30
0.0
  3
_D_10
  1

  0
SOLID
  5
346
330
343
100
AcDbEntity
  8
SK2
100
AcDbTrace
 10
78.0
 20
-29.0308164761
 30
0.0
 11
74.698
 21
-28.5228164761
 31
0.0
 12
74.698
 22
-29.5388164761
 32
0.0
 13
74.698
 23
-29.5388164761
 33
0.0
  0
SOLID
  5
347
330
343
100
AcDbEntity
  8
SK2
100
AcDbTrace
 10
80.0
 20
-29.0308164761
 30
0.0
 11
83.302
 21
-29.5388164761
 31
0.0
 12
83.302
 22
-28.5228164761
 32
0.0
 13
83.302
 23
-28.5228164761
 33
0.0
  0
LINE
  5
348
330
343
100
AcDbEntity
  8
SK2
100
AcDbLine
 10
78.0
 20
-21.0
 30
0.0
 11
78.0
 21
-30.0308164761
 31
0.0
  0
LINE
  5
349
330
343
100
AcDbEntity
  8
SK2
100
AcDbLine
 10
80.0
 20
-19.0
 30
0.0
 11
80.0
 21
-30.0308164761
 31
0.0
  0
LINE
  5
34A
330
343
100
AcDbEntity
  8
SK2
100
AcDbLine
 10
78.0
 20
-29.0308164761
 30
0.0
 11
71.4025566988
 21
-29.0308164761
 31
0.0
  0
LINE
  5
34B
330
343
100
AcDbEntity
  8
SK2
100
AcDbLine
 10
78.0
 20
-29.0308164761
 30
0.0
 11
80.0
 21
-29.0308164761
 31
0.0
  0
LINE
  5
34C
330
343
100
AcDbEntity
  8
SK2
100
AcDbLine
 10
80.0
 20
-29.0308164761
 30
0.0
 11
86.35
 21
-29.0308164761
 31
0.0
  0
MTEXT
  5
34D
330
343
100
AcDbEntity
  8
SK2
100
AcDbMText
 10
71.4025566988
 20
-24.5190795615
 30
0.0
 40
3.5
 41
0.0
 71
     1
 72
     1
  1
2
  7
SLDTEXTSTYLE0
 73
     1
 44
1.0
  0
ENDBLK
  5
345
330
343
100
AcDbEntity
  8
0
100
AcDbBlockEnd
  0
BLOCK
  5
350
330
34F
100
AcDbEntity
  8
0
100
AcDbBlockBegin
  2
_D_11
 70
     0
 10
0.0
 20
0.0
 30
0.0
  3
_D_11
  1

  0
SOLID
  5
352
330
34F
100
AcDbEntity
  8
SK2
100
AcDbTrace
 10
-85.7757585873
 20
30.5578899967
 30
0.0
 11
-86.2837585873
 21
27.2558899967
 31
0.0
 12
-85.2677585873
 22
27.2558899967
 32
0.0
 13
-85.2677585873
 23
27.2558899967
 33
0.0
  0
SOLID
  5
353
330
34F
100
AcDbEntity
  8
SK2
100
AcDbTrace
 10
-85.7757585873
 20
-30.5579086614
 30
0.0
 11
-85.2677585873
 21
-27.2559086614
 31
0.0
 12
-86.2837585873
 22
-27.2559086614
 32
0.0
 13
-86.2837585873
 23
-27.2559086614
 33
0.0
  0
LINE
  5
354
330
34F
100
AcDbEntity
  8
SK2
100
AcDbLine
 10
4.7694368227
 20
30.5578899967
 30
0.0
 11
-86.7757585873
 21
30.5578899967
 31
0.0
  0
LINE
  5
355
330
34F
100
AcDbEntity
  8
SK2
100
AcDbLine
 10
2.95
 20
-30.5579086614
 30
0.0
 11
-86.7757585873
 21
-30.5579086614
 31
0.0
  0
LINE
  5
356
330
34F
100
AcDbEntity
  8
SK2
100
AcDbLine
 10
-85.7757585873
 20
30.5578899967
 30
0.0
 11
-85.7757585873
 21
-30.5579086614
 31
0.0
  0
MTEXT
  5
357
330
34F
100
AcDbEntity
  8
SK2
100
AcDbMText
 10
-90.2874956765
 20
-6.9112123604
 30
0.0
 40
3.5
 41
0.0
 71
     1
 72
     1
  1
%%c
  7
SLDTEXTSTYLE0
 11
-1.148508711614426E-14
 21
1.0
 31
0.0
 73
     1
 44
1.0
  0
MTEXT
  5
358
330
34F
100
AcDbEntity
  8
SK2
100
AcDbMText
 10
-90.3409678531
 20
-1.632774962
 30
0.0
 40
3.5
 41
0.0
 71
     1
 72
     1
  1
63,5
  7
SLDTEXTSTYLE0
 11
-1.148508711614426E-14
 21
1.0
 31
0.0
 73
     1
 44
1.0
  0
ENDBLK
  5
351
330
34F
100
AcDbEntity
  8
0
100
AcDbBlockEnd
  0
BLOCK
  5
35C
330
35B
100
AcDbEntity
  8
0
100
AcDbBlockBegin
  2
_D_12
 70
     0
 10
0.0
 20
0.0
 30
0.0
  3
_D_12
  1

  0
SOLID
  5
35E
330
35B
100
AcDbEntity
  8
SK2
100
AcDbTrace
 10
-75.4062053074
 20
7.9375002533
 30
0.0
 11
-74.8982053074
 21
11.2395002533
 31
0.0
 12
-75.9142053074
 22
11.2395002533
 32
0.0
 13
-75.9142053074
 23
11.2395002533
 33
0.0
  0
SOLID
  5
35F
330
35B
100
AcDbEntity
  8
SK2
100
AcDbTrace
 10
-75.4062053074
 20
-7.9375002533
 30
0.0
 11
-75.9142053074
 21
-11.2395002533
 31
0.0
 12
-74.8982053074
 22
-11.2395002533
 32
0.0
 13
-74.8982053074
 23
-11.2395002533
 33
0.0
  0
LINE
  5
360
330
35B
100
AcDbEntity
  8
SK2
100
AcDbLine
 10
-64.3082389832
 20
7.9375002533
 30
0.0
 11
-76.4062053074
 21
7.9375002533
 31
0.0
  0
LINE
  5
361
330
35B
100
AcDbEntity
  8
SK2
100
AcDbLine
 10
-64.3082389832
 20
-7.9375002533
 30
0.0
 11
-76.4062053074
 21
-7.9375002533
 31
0.0
  0
LINE
  5
362
330
35B
100
AcDbEntity
  8
SK2
100
AcDbLine
 10
-75.4062053074
 20
7.9375002533
 30
0.0
 11
-75.4062053074
 21
14.2875002533
 31
0.0
  0
LINE
  5
363
330
35B
100
AcDbEntity
  8
SK2
100
AcDbLine
 10
-75.4062053074
 20
7.9375002533
 30
0.0
 11
-75.4062053074
 21
-7.9375002533
 31
0.0
  0
LINE
  5
364
330
35B
100
AcDbEntity
  8
SK2
100
AcDbLine
 10
-75.4062053074
 20
-7.9375002533
 30
0.0
 11
-75.4062053074
 21
-14.2875002533
 31
0.0
  0
MTEXT
  5
366
330
35B
100
AcDbEntity
  8
SK2
100
AcDbMText
 10
-79.917942222
 20
-13.8046315554
 30
0.0
 40
3.5
 41
0.0
 71
     1
 72
     1
  1
5/8 - 11 UNC
  7
SLDTEXTSTYLE1
 11
-7.044195017643634E-15
 21
1.0
 31
0.0
 73
     1
 44
1.0
  0
ENDBLK
  5
35D
330
35B
100
AcDbEntity
  8
0
100
AcDbBlockEnd
  0
ENDSEC
  0
SECTION
  2
ENTITIES
  0
LINE
  5
82
330
1F
100
AcDbEntity
  8
SK1
  6
SLD-Solid
370
    25
100
AcDbLine
 10
0.0
 20
22.225
 30
0.0
 11
-67.1376006954
 21
12.4340074512
 31
0.0
  0
LINE
  5
83
330
1F
100
AcDbEntity
  8
SK1
  6
SLD-Solid
370
    25
100
AcDbLine
 10
-67.1376006954
 20
-12.4340074512
 30
0.0
 11
0.0
 21
-22.225
 31
0.0
  0
LINE
  5
84
330
1F
100
AcDbEntity
  8
1
  6
SLD-Solid
370
    25
100
AcDbLine
 10
1.8869952227
 20
22.225
 30
0.0
 11
0.0
 21
22.225
 31
0.0
  0
LINE
  5
85
330
1F
100
AcDbEntity
  8
1
  6
SLD-Solid
370
    25
100
AcDbLine
 10
0.0
 20
-22.225
 30
0.0
 11
1.8869952227
 21
-22.225
 31
0.0
  0
LINE
  5
86
330
1F
100
AcDbEntity
  8
1
  6
SLD-Solid
370
    25
100
AcDbLine
 10
1.8869952227
 20
-22.225
 30
0.0
 11
2.1330363037
 21
-22.1102691597
 31
0.0
  0
LINE
  5
87
330
1F
100
AcDbEntity
  8
1
  6
SLD-Solid
370
    25
100
AcDbLine
 10
2.1330363037
 20
22.1102691597
 30
0.0
 11
1.8869952227
 21
22.225
 31
0.0
  0
LINE
  5
88
330
1F
100
AcDbEntity
  8
1
  6
SLD-Solid
370
    25
100
AcDbLine
 10
36.0526701794
 20
20.0
 30
0.0
 11
22.098
 21
20.0
 31
0.0
  0
LINE
  5
89
330
1F
100
AcDbEntity
  8
1
  6
SLD-Solid
370
    25
100
AcDbLine
 10
58.4526701794
 20
20.0
 30
0.0
 11
49.534087033
 21
20.0
 31
0.0
  0
LINE
  5
8A
330
1F
100
AcDbEntity
  8
1
  6
SLD-Solid
370
    25
100
AcDbLine
 10
78.0
 20
20.0
 30
0.0
 11
71.934087033
 21
20.0
 31
0.0
  0
LINE
  5
8B
330
1F
100
AcDbEntity
  8
1
  6
SLD-Solid
370
    25
100
AcDbLine
 10
72.5694983641
 20
-20.0
 30
0.0
 11
78.0
 21
-20.0
 31
0.0
  0
LINE
  5
8C
330
1F
100
AcDbEntity
  8
1
  6
SLD-Solid
370
    25
100
AcDbLine
 10
50.1694983641
 20
-20.0
 30
0.0
 11
57.8260769422
 21
-20.0
 31
0.0
  0
LINE
  5
8D
330
1F
100
AcDbEntity
  8
1
  6
SLD-Solid
370
    25
100
AcDbLine
 10
22.098
 20
-20.0
 30
0.0
 11
35.4260769422
 21
-20.0
 31
0.0
  0
LINE
  5
8E
330
1F
100
AcDbEntity
  8
1
  6
SLD-Solid
370
    25
100
AcDbLine
 10
78.0
 20
-20.0
 30
0.0
 11
80.0
 21
-18.0
 31
0.0
  0
LINE
  5
8F
330
1F
100
AcDbEntity
  8
1
  6
SLD-Solid
370
    25
100
AcDbLine
 10
80.0
 20
18.0
 30
0.0
 11
78.0
 21
20.0
 31
0.0
  0
LINE
  5
90
330
1F
100
AcDbEntity
  8
1
  6
SLD-Solid
370
    25
100
AcDbLine
 10
3.2
 20
-29.8048664484
 30
0.0
 11
3.2
 21
29.8048552742
 31
0.0
  0
LINE
  5
91
330
1F
100
AcDbEntity
  8
1
  6
SLD-Solid
370
    25
100
AcDbLine
 10
3.95
 20
30.5578899967
 30
0.0
 11
3.95
 21
-30.5579086614
 31
0.0
  0
LINE
  5
92
330
1F
100
AcDbEntity
  8
1
  6
SLD-Solid
370
    25
100
AcDbLine
 10
3.95
 20
-30.5579086614
 30
0.0
 11
7.5888736454
 21
-30.5579086614
 31
0.0
  0
LINE
  5
93
330
1F
100
AcDbEntity
  8
1
  6
SLD-Solid
370
    25
100
AcDbLine
 10
7.5888736454
 20
30.5578899967
 30
0.0
 11
3.95
 21
30.5578899967
 31
0.0
  0
LINE
  5
94
330
1F
100
AcDbEntity
  8
1
  6
SLD-Solid
370
    25
100
AcDbLine
 10
7.5888736454
 20
30.5578899967
 30
0.0
 11
7.5888736454
 21
-30.5579086614
 31
0.0
  0
LINE
  5
95
330
1F
100
AcDbEntity
  8
1
  6
SLD-Solid
370
    25
100
AcDbLine
 10
18.3
 20
-30.5578899967
 30
0.0
 11
18.3
 21
30.5579086614
 31
0.0
  0
LINE
  5
96
330
1F
100
AcDbEntity
  8
1
  6
SLD-Solid
370
    25
100
AcDbLine
 10
19.05
 20
29.8048664484
 30
0.0
 11
19.05
 21
-29.8048552742
 31
0.0
  0
LINE
  5
97
330
1F
100
AcDbEntity
  8
1
  6
SLD-Solid
370
    25
100
AcDbLine
 10
18.3
 20
30.5579086614
 30
0.0
 11
14.6411263546
 21
30.5579086614
 31
0.0
  0
LINE
  5
98
330
1F
100
AcDbEntity
  8
1
  6
SLD-Solid
370
    25
100
AcDbLine
 10
14.6411263546
 20
-30.5578899967
 30
0.0
 11
18.3
 21
-30.5578899967
 31
0.0
  0
LINE
  5
99
330
1F
100
AcDbEntity
  8
1
  6
SLD-Solid
370
    25
100
AcDbLine
 10
14.6411263546
 20
30.5579086614
 30
0.0
 11
14.6411263546
 21
-30.5578899967
 31
0.0
  0
LINE
  5
9A
330
1F
100
AcDbEntity
  8
1
  6
SLD-Solid
370
    25
100
AcDbLine
 10
9.2
 20
27.8050456342
 30
0.0
 11
9.2
 21
25.8569131114
 31
0.0
  0
LINE
  5
9B
330
1F
100
AcDbEntity
  8
1
  6
SLD-Solid
370
    25
100
AcDbLine
 10
9.2
 20
25.2705433174
 30
0.0
 11
9.2
 21
-27.8050456342
 31
0.0
  0
LINE
  5
9C
330
1F
100
AcDbEntity
  8
1
  6
SLD-Solid
370
    25
100
AcDbLine
 10
13.03
 20
25.319242438
 30
0.0
 11
13.03
 21
-27.8050456342
 31
0.0
  0
LINE
  5
9D
330
1F
100
AcDbEntity
  8
1
  6
SLD-Solid
370
    25
100
AcDbLine
 10
13.03
 20
27.8050456342
 30
0.0
 11
13.03
 21
25.8117178836
 31
0.0
  0
LINE
  5
9E
330
1F
100
AcDbEntity
  8
1
  6
SLD-Solid
370
    25
100
AcDbLine
 10
12.28
 20
24.0780506352
 30
0.0
 11
12.28
 21
-26.9870635676
 31
0.0
  0
LINE
  5
9F
330
1F
100
AcDbEntity
  8
1
  6
SLD-Solid
370
    25
100
AcDbLine
 10
9.95
 20
24.066859753
 30
0.0
 11
9.95
 21
-26.9870635676
 31
0.0
  0
LINE
  5
A0
330
1F
100
AcDbEntity
  8
1
  6
SLD-Solid
370
    25
100
AcDbLine
 10
9.95
 20
-26.9870635676
 30
0.0
 11
12.28
 21
-26.9870635676
 31
0.0
  0
LINE
  5
A1
330
1F
100
AcDbEntity
  8
1
  6
SLD-Solid
370
    25
100
AcDbLine
 10
0.0
 20
22.225
 30
0.0
 11
0.0
 21
-22.225
 31
0.0
  0
LINE
  5
A2
330
1F
100
AcDbEntity
  8
1
  6
SLD-Solid
370
    25
100
AcDbLine
 10
1.8869952227
 20
22.225
 30
0.0
 11
1.8869952227
 21
-22.225
 31
0.0
  0
LINE
  5
A3
330
1F
100
AcDbEntity
  8
1
  6
SLD-Solid
370
    25
100
AcDbLine
 10
78.0
 20
20.0
 30
0.0
 11
78.0
 21
-20.0
 31
0.0
  0
LINE
  5
A4
330
1F
100
AcDbEntity
  8
1
  6
SLD-Solid
370
    25
100
AcDbLine
 10
80.0
 20
18.0
 30
0.0
 11
80.0
 21
-18.0
 31
0.0
  0
LINE
  5
A5
330
1F
100
AcDbEntity
  8
1
  6
SLD-Solid
370
    25
100
AcDbLine
 10
9.2
 20
25.8569131114
 30
0.0
 11
9.2
 21
25.8264908709
 31
0.0
  0
LINE
  5
A6
330
1F
100
AcDbEntity
  8
1
  6
SLD-Solid
370
    25
100
AcDbLine
 10
13.03
 20
25.7812977304
 30
0.0
 11
13.03
 21
25.8117178836
 31
0.0
  0
LINE
  5
A7
330
1F
100
AcDbEntity
  8
1
  6
SLD-Solid
370
    25
100
AcDbLine
 10
9.95
 20
26.9870635676
 30
0.0
 11
9.95
 21
25.6032587904
 31
0.0
  0
LINE
  5
A8
330
1F
100
AcDbEntity
  8
1
  6
SLD-Solid
370
    25
100
AcDbLine
 10
12.28
 20
26.9870635676
 30
0.0
 11
12.28
 21
25.5942620881
 31
0.0
  0
LINE
  5
A9
330
1F
100
AcDbEntity
  8
SK1
  6
SLD-Solid
370
    25
100
AcDbLine
 10
-68.25
 20
-11.1476148288
 30
0.0
 11
-68.25
 21
11.1476148288
 31
0.0
  0
LINE
  5
AA
330
1F
100
AcDbEntity
  8
1
  6
SLD-Solid
370
    25
100
AcDbLine
 10
9.95
 20
26.9870635676
 30
0.0
 11
12.28
 21
26.9870635676
 31
0.0
  0
LINE
  5
AB
330
1F
100
AcDbEntity
  8
1
  6
SLD-Solid
370
    25
100
AcDbLine
 10
22.098
 20
0.0
 30
0.0
 11
22.098
 21
-20.0
 31
0.0
  0
LINE
  5
AC
330
1F
100
AcDbEntity
  8
1
  6
SLD-Solid
370
    25
100
AcDbLine
 10
22.098
 20
20.0
 30
0.0
 11
22.098
 21
0.0
 31
0.0
  0
LINE
  5
AD
330
1F
100
AcDbEntity
  8
1
  6
SLD-Solid
370
    25
100
AcDbLine
 10
2.1330363037
 20
22.1102691597
 30
0.0
 11
2.1330363037
 21
-22.1102691597
 31
0.0
  0
LINE
  5
AE
330
1F
100
AcDbEntity
  8
SK1
  6
SLD-Solid
370
    25
100
AcDbLine
 10
-67.1376006954
 20
0.0
 30
0.0
 11
-67.1376006954
 21
-12.4340074512
 31
0.0
  0
LINE
  5
AF
330
1F
100
AcDbEntity
  8
SK1
  6
SLD-Solid
370
    25
100
AcDbLine
 10
-67.1376006954
 20
12.4340074512
 30
0.0
 11
-67.1376006954
 21
0.0
 31
0.0
  0
LINE
  5
B0
330
1F
100
AcDbEntity
  8
SK3
  6
SLD-Dashed
370
    18
100
AcDbLine
 10
5.7322709434
 20
-8.8686354442
 30
0.0
 11
5.609026163
 21
-8.3829136913
 31
0.0
  0
LINE
  5
B1
330
1F
100
AcDbEntity
  8
SK3
  6
SLD-Dashed
370
    18
100
AcDbLine
 10
5.609026163
 20
-8.3829136913
 30
0.0
 11
5.4174260052
 21
-7.9277116224
 31
0.0
  0
LINE
  5
B2
330
1F
100
AcDbEntity
  8
SK3
  6
SLD-Dashed
370
    18
100
AcDbLine
 10
5.4174260052
 20
-7.9277116224
 30
0.0
 11
5.1695094124
 21
-7.5316312578
 31
0.0
  0
LINE
  5
B3
330
1F
100
AcDbEntity
  8
SK3
  6
SLD-Dashed
370
    18
100
AcDbLine
 10
5.1695094124
 20
-7.5316312578
 30
0.0
 11
4.8808538961
 21
-7.2195597834
 31
0.0
  0
LINE
  5
B4
330
1F
100
AcDbEntity
  8
SK3
  6
SLD-Dashed
370
    18
100
AcDbLine
 10
4.8808538961
 20
-7.2195597834
 30
0.0
 11
4.5695967438
 21
-7.0111057976
 31
0.0
  0
LINE
  5
B5
330
1F
100
AcDbEntity
  8
SK3
  6
SLD-Dashed
370
    18
100
AcDbLine
 10
4.5695967438
 20
-7.0111057976
 30
0.0
 11
4.2552953872
 21
-6.919367231
 31
0.0
  0
LINE
  5
B6
330
1F
100
AcDbEntity
  8
SK3
  6
SLD-Dashed
370
    18
100
AcDbLine
 10
4.2552953872
 20
-6.919367231
 30
0.0
 11
3.9576985365
 21
-6.9501083551
 31
0.0
  0
LINE
  5
B7
330
1F
100
AcDbEntity
  8
SK3
  6
SLD-Dashed
370
    18
100
AcDbLine
 10
3.9576985365
 20
-6.9501083551
 30
0.0
 11
3.6955052963
 21
-7.1013975921
 31
0.0
  0
LINE
  5
B8
330
1F
100
AcDbEntity
  8
SK3
  6
SLD-Dashed
370
    18
100
AcDbLine
 10
3.6955052963
 20
-7.1013975921
 30
0.0
 11
3.485190232
 21
-7.3637288828
 31
0.0
  0
LINE
  5
B9
330
1F
100
AcDbEntity
  8
SK3
  6
SLD-Dashed
370
    18
100
AcDbLine
 10
3.485190232
 20
-7.3637288828
 30
0.0
 11
3.3399682128
 21
-7.7206189875
 31
0.0
  0
LINE
  5
BA
330
1F
100
AcDbEntity
  8
SK3
  6
SLD-Dashed
370
    18
100
AcDbLine
 10
3.3399682128
 20
-7.7206189875
 30
0.0
 11
3.2689640721
 21
-8.1496431882
 31
0.0
  0
LINE
  5
BB
330
1F
100
AcDbEntity
  8
SK3
  6
SLD-Dashed
370
    18
100
AcDbLine
 10
3.2689640721
 20
-8.1496431882
 30
0.0
 11
3.2766392613
 21
-8.6238443166
 31
0.0
  0
LINE
  5
BC
330
1F
100
AcDbEntity
  8
SK3
  6
SLD-Dashed
370
    18
100
AcDbLine
 10
3.2766392613
 20
-8.6238443166
 30
0.0
 11
3.3625115199
 21
-9.1134265718
 31
0.0
  0
LINE
  5
BD
330
1F
100
AcDbEntity
  8
SK3
  6
SLD-Dashed
370
    18
100
AcDbLine
 10
3.3625115199
 20
-9.1134265718
 30
0.0
 11
3.5211851783
 21
-9.5876277002
 31
0.0
  0
LINE
  5
BE
330
1F
100
AcDbEntity
  8
SK3
  6
SLD-Dashed
370
    18
100
AcDbLine
 10
3.5211851783
 20
-9.5876277002
 30
0.0
 11
3.7426901867
 21
-10.016651901
 31
0.0
  0
LINE
  5
BF
330
1F
100
AcDbEntity
  8
SK3
  6
SLD-Dashed
370
    18
100
AcDbLine
 10
3.7426901867
 20
-10.016651901
 30
0.0
 11
4.013108571
 21
-10.3735420056
 31
0.0
  0
LINE
  5
C0
330
1F
100
AcDbEntity
  8
SK3
  6
SLD-Dashed
370
    18
100
AcDbLine
 10
4.013108571
 20
-10.3735420056
 30
0.0
 11
4.3154489495
 21
-10.6358732963
 31
0.0
  0
LINE
  5
C1
330
1F
100
AcDbEntity
  8
SK3
  6
SLD-Dashed
370
    18
100
AcDbLine
 10
4.3154489495
 20
-10.6358732963
 30
0.0
 11
4.6307141643
 21
-10.7871625333
 31
0.0
  0
LINE
  5
C2
330
1F
100
AcDbEntity
  8
SK3
  6
SLD-Dashed
370
    18
100
AcDbLine
 10
4.6307141643
 20
-10.7871625333
 30
0.0
 11
4.9390949425
 21
-10.8179036574
 31
0.0
  0
LINE
  5
C3
330
1F
100
AcDbEntity
  8
SK3
  6
SLD-Dashed
370
    18
100
AcDbLine
 10
4.9390949425
 20
-10.8179036574
 30
0.0
 11
5.2212145856
 21
-10.7261650909
 31
0.0
  0
LINE
  5
C4
330
1F
100
AcDbEntity
  8
SK3
  6
SLD-Dashed
370
    18
100
AcDbLine
 10
5.2212145856
 20
-10.7261650909
 30
0.0
 11
5.459346479
 21
-10.5177111051
 31
0.0
  0
LINE
  5
C5
330
1F
100
AcDbEntity
  8
SK3
  6
SLD-Dashed
370
    18
100
AcDbLine
 10
5.459346479
 20
-10.5177111051
 30
0.0
 11
5.6385279199
 21
-10.2056396306
 31
0.0
  0
LINE
  5
C6
330
1F
100
AcDbEntity
  8
SK3
  6
SLD-Dashed
370
    18
100
AcDbLine
 10
5.6385279199
 20
-10.2056396306
 30
0.0
 11
5.7475002794
 21
-9.809559266
 31
0.0
  0
LINE
  5
C7
330
1F
100
AcDbEntity
  8
SK3
  6
SLD-Dashed
370
    18
100
AcDbLine
 10
5.7475002794
 20
-9.809559266
 30
0.0
 11
5.7794164235
 21
-9.3543571971
 31
0.0
  0
LINE
  5
C8
330
1F
100
AcDbEntity
  8
SK3
  6
SLD-Dashed
370
    18
100
AcDbLine
 10
5.7794164235
 20
-9.3543571971
 30
0.0
 11
5.7322709434
 21
-8.8686354442
 31
0.0
  0
LINE
  5
C9
330
1F
100
AcDbEntity
  8
SK3
  6
SLD-Dashed
370
    18
100
AcDbLine
 10
5.7253406934
 20
-8.8621689747
 30
0.0
 11
5.7713075365
 21
-9.3357476838
 31
0.0
  0
LINE
  5
CA
330
1F
100
AcDbEntity
  8
SK3
  6
SLD-Dashed
370
    18
100
AcDbLine
 10
5.7713075365
 20
-9.3357476838
 30
0.0
 11
5.740189296
 21
-9.7795697009
 31
0.0
  0
LINE
  5
CB
330
1F
100
AcDbEntity
  8
SK3
  6
SLD-Dashed
370
    18
100
AcDbLine
 10
5.740189296
 20
-9.7795697009
 30
0.0
 11
5.6339412454
 21
-10.1657480564
 31
0.0
  0
LINE
  5
CC
330
1F
100
AcDbEntity
  8
SK3
  6
SLD-Dashed
370
    18
100
AcDbLine
 10
5.6339412454
 20
-10.1657480564
 30
0.0
 11
5.4592393405
 21
-10.470017744
 31
0.0
  0
LINE
  5
CD
330
1F
100
AcDbEntity
  8
SK3
  6
SLD-Dashed
370
    18
100
AcDbLine
 10
5.4592393405
 20
-10.470017744
 30
0.0
 11
5.2270607445
 21
-10.6732603802
 31
0.0
  0
LINE
  5
CE
330
1F
100
AcDbEntity
  8
SK3
  6
SLD-Dashed
370
    18
100
AcDbLine
 10
5.2270607445
 20
-10.6732603802
 30
0.0
 11
4.9519940925
 21
-10.7627054826
 31
0.0
  0
LINE
  5
CF
330
1F
100
AcDbEntity
  8
SK3
  6
SLD-Dashed
370
    18
100
AcDbLine
 10
4.9519940925
 20
-10.7627054826
 30
0.0
 11
4.6513228337
 21
-10.7327328866
 31
0.0
  0
LINE
  5
D0
330
1F
100
AcDbEntity
  8
SK3
  6
SLD-Dashed
370
    18
100
AcDbLine
 10
4.6513228337
 20
-10.7327328866
 30
0.0
 11
4.3439392493
 21
-10.5852258805
 31
0.0
  0
LINE
  5
D1
330
1F
100
AcDbEntity
  8
SK3
  6
SLD-Dashed
370
    18
100
AcDbLine
 10
4.3439392493
 20
-10.5852258805
 30
0.0
 11
4.0491573803
 21
-10.329452872
 31
0.0
  0
LINE
  5
D2
330
1F
100
AcDbEntity
  8
SK3
  6
SLD-Dashed
370
    18
100
AcDbLine
 10
4.0491573803
 20
-10.329452872
 30
0.0
 11
3.7854994556
 21
-9.98148502
 31
0.0
  0
LINE
  5
D3
330
1F
100
AcDbEntity
  8
SK3
  6
SLD-Dashed
370
    18
100
AcDbLine
 10
3.7854994556
 20
-9.98148502
 30
0.0
 11
3.5695320723
 21
-9.5631864243
 31
0.0
  0
LINE
  5
D4
330
1F
100
AcDbEntity
  8
SK3
  6
SLD-Dashed
370
    18
100
AcDbLine
 10
3.5695320723
 20
-9.5631864243
 30
0.0
 11
3.4148252555
 21
-9.1008403241
 31
0.0
  0
LINE
  5
D5
330
1F
100
AcDbEntity
  8
SK3
  6
SLD-Dashed
370
    18
100
AcDbLine
 10
3.4148252555
 20
-9.1008403241
 30
0.0
 11
3.3310998033
 21
-8.6234976253
 31
0.0
  0
LINE
  5
D6
330
1F
100
AcDbEntity
  8
SK3
  6
SLD-Dashed
370
    18
100
AcDbLine
 10
3.3310998033
 20
-8.6234976253
 30
0.0
 11
3.3236164939
 21
-8.1611515251
 31
0.0
  0
LINE
  5
D7
330
1F
100
AcDbEntity
  8
SK3
  6
SLD-Dashed
370
    18
100
AcDbLine
 10
3.3236164939
 20
-8.1611515251
 30
0.0
 11
3.392845531
 21
-7.7428529294
 31
0.0
  0
LINE
  5
D8
330
1F
100
AcDbEntity
  8
SK3
  6
SLD-Dashed
370
    18
100
AcDbLine
 10
3.392845531
 20
-7.7428529294
 30
0.0
 11
3.5344369998
 21
-7.3948850774
 31
0.0
  0
LINE
  5
D9
330
1F
100
AcDbEntity
  8
SK3
  6
SLD-Dashed
370
    18
100
AcDbLine
 10
3.5344369998
 20
-7.3948850774
 30
0.0
 11
3.7394941874
 21
-7.1391120689
 31
0.0
  0
LINE
  5
DA
330
1F
100
AcDbEntity
  8
SK3
  6
SLD-Dashed
370
    18
100
AcDbLine
 10
3.7394941874
 20
-7.1391120689
 30
0.0
 11
3.9951325967
 21
-6.9916050628
 31
0.0
  0
LINE
  5
DB
330
1F
100
AcDbEntity
  8
SK3
  6
SLD-Dashed
370
    18
100
AcDbLine
 10
3.9951325967
 20
-6.9916050628
 30
0.0
 11
4.2852895261
 21
-6.9616324668
 31
0.0
  0
LINE
  5
DC
330
1F
100
AcDbEntity
  8
SK3
  6
SLD-Dashed
370
    18
100
AcDbLine
 10
4.2852895261
 20
-6.9616324668
 30
0.0
 11
4.5917333488
 21
-7.0510775692
 31
0.0
  0
LINE
  5
DD
330
1F
100
AcDbEntity
  8
SK3
  6
SLD-Dashed
370
    18
100
AcDbLine
 10
4.5917333488
 20
-7.0510775692
 30
0.0
 11
4.8952090722
 21
-7.2543202054
 31
0.0
  0
LINE
  5
DE
330
1F
100
AcDbEntity
  8
SK3
  6
SLD-Dashed
370
    18
100
AcDbLine
 10
4.8952090722
 20
-7.2543202054
 30
0.0
 11
5.1766482007
 21
-7.558589893
 31
0.0
  0
LINE
  5
DF
330
1F
100
AcDbEntity
  8
SK3
  6
SLD-Dashed
370
    18
100
AcDbLine
 10
5.1766482007
 20
-7.558589893
 30
0.0
 11
5.4183668786
 21
-7.9447682485
 31
0.0
  0
LINE
  5
E0
330
1F
100
AcDbEntity
  8
SK3
  6
SLD-Dashed
370
    18
100
AcDbLine
 10
5.4183668786
 20
-7.9447682485
 30
0.0
 11
5.6051770325
 21
-8.3885902656
 31
0.0
  0
LINE
  5
E1
330
1F
100
AcDbEntity
  8
SK3
  6
SLD-Dashed
370
    18
100
AcDbLine
 10
5.6051770325
 20
-8.3885902656
 30
0.0
 11
5.7253406934
 21
-8.8621689747
 31
0.0
  0
LINE
  5
E2
330
1F
100
AcDbEntity
  8
SK3
  6
SLD-Dashed
370
    18
100
AcDbLine
 10
16.3488925452
 20
-5.9198440145
 30
0.0
 11
16.2287288843
 21
-5.4462653054
 31
0.0
  0
LINE
  5
E3
330
1F
100
AcDbEntity
  8
SK3
  6
SLD-Dashed
370
    18
100
AcDbLine
 10
16.2287288843
 20
-5.4462653054
 30
0.0
 11
16.0419187304
 21
-5.0024432883
 31
0.0
  0
LINE
  5
E4
330
1F
100
AcDbEntity
  8
SK3
  6
SLD-Dashed
370
    18
100
AcDbLine
 10
16.0419187304
 20
-5.0024432883
 30
0.0
 11
15.8002000524
 21
-4.6162649327
 31
0.0
  0
LINE
  5
E5
330
1F
100
AcDbEntity
  8
SK3
  6
SLD-Dashed
370
    18
100
AcDbLine
 10
15.8002000524
 20
-4.6162649327
 30
0.0
 11
15.518760924
 21
-4.3119952452
 31
0.0
  0
LINE
  5
E6
330
1F
100
AcDbEntity
  8
SK3
  6
SLD-Dashed
370
    18
100
AcDbLine
 10
15.518760924
 20
-4.3119952452
 30
0.0
 11
15.2152852005
 21
-4.108752609
 31
0.0
  0
LINE
  5
E7
330
1F
100
AcDbEntity
  8
SK3
  6
SLD-Dashed
370
    18
100
AcDbLine
 10
15.2152852005
 20
-4.108752609
 30
0.0
 11
14.9088413779
 21
-4.0193075066
 31
0.0
  0
LINE
  5
E8
330
1F
100
AcDbEntity
  8
SK3
  6
SLD-Dashed
370
    18
100
AcDbLine
 10
14.9088413779
 20
-4.0193075066
 30
0.0
 11
14.6186844484
 21
-4.0492801026
 31
0.0
  0
LINE
  5
E9
330
1F
100
AcDbEntity
  8
SK3
  6
SLD-Dashed
370
    18
100
AcDbLine
 10
14.6186844484
 20
-4.0492801026
 30
0.0
 11
14.3630460392
 21
-4.1967871087
 31
0.0
  0
LINE
  5
EA
330
1F
100
AcDbEntity
  8
SK3
  6
SLD-Dashed
370
    18
100
AcDbLine
 10
14.3630460392
 20
-4.1967871087
 30
0.0
 11
14.1579888516
 21
-4.4525601172
 31
0.0
  0
LINE
  5
EB
330
1F
100
AcDbEntity
  8
SK3
  6
SLD-Dashed
370
    18
100
AcDbLine
 10
14.1579888516
 20
-4.4525601172
 30
0.0
 11
14.0163973828
 21
-4.8005279692
 31
0.0
  0
LINE
  5
EC
330
1F
100
AcDbEntity
  8
SK3
  6
SLD-Dashed
370
    18
100
AcDbLine
 10
14.0163973828
 20
-4.8005279692
 30
0.0
 11
13.9471683456
 21
-5.2188265648
 31
0.0
  0
LINE
  5
ED
330
1F
100
AcDbEntity
  8
SK3
  6
SLD-Dashed
370
    18
100
AcDbLine
 10
13.9471683456
 20
-5.2188265648
 30
0.0
 11
13.9546516551
 21
-5.6811726651
 31
0.0
  0
LINE
  5
EE
330
1F
100
AcDbEntity
  8
SK3
  6
SLD-Dashed
370
    18
100
AcDbLine
 10
13.9546516551
 20
-5.6811726651
 30
0.0
 11
14.0383771073
 21
-6.1585153639
 31
0.0
  0
LINE
  5
EF
330
1F
100
AcDbEntity
  8
SK3
  6
SLD-Dashed
370
    18
100
AcDbLine
 10
14.0383771073
 20
-6.1585153639
 30
0.0
 11
14.1930839241
 21
-6.6208614641
 31
0.0
  0
LINE
  5
F0
330
1F
100
AcDbEntity
  8
SK3
  6
SLD-Dashed
370
    18
100
AcDbLine
 10
14.1930839241
 20
-6.6208614641
 30
0.0
 11
14.4090513074
 21
-7.0391600598
 31
0.0
  0
LINE
  5
F1
330
1F
100
AcDbEntity
  8
SK3
  6
SLD-Dashed
370
    18
100
AcDbLine
 10
14.4090513074
 20
-7.0391600598
 30
0.0
 11
14.672709232
 21
-7.3871279118
 31
0.0
  0
LINE
  5
F2
330
1F
100
AcDbEntity
  8
SK3
  6
SLD-Dashed
370
    18
100
AcDbLine
 10
14.672709232
 20
-7.3871279118
 30
0.0
 11
14.9674911011
 21
-7.6429009203
 31
0.0
  0
LINE
  5
F3
330
1F
100
AcDbEntity
  8
SK3
  6
SLD-Dashed
370
    18
100
AcDbLine
 10
14.9674911011
 20
-7.6429009203
 30
0.0
 11
15.2748746855
 21
-7.7904079263
 31
0.0
  0
LINE
  5
F4
330
1F
100
AcDbEntity
  8
SK3
  6
SLD-Dashed
370
    18
100
AcDbLine
 10
15.2748746855
 20
-7.7904079263
 30
0.0
 11
15.5755459442
 21
-7.8203805224
 31
0.0
  0
LINE
  5
F5
330
1F
100
AcDbEntity
  8
SK3
  6
SLD-Dashed
370
    18
100
AcDbLine
 10
15.5755459442
 20
-7.8203805224
 30
0.0
 11
15.8506125963
 21
-7.73093542
 31
0.0
  0
LINE
  5
F6
330
1F
100
AcDbEntity
  8
SK3
  6
SLD-Dashed
370
    18
100
AcDbLine
 10
15.8506125963
 20
-7.73093542
 30
0.0
 11
16.0827911923
 21
-7.5276927838
 31
0.0
  0
LINE
  5
F7
330
1F
100
AcDbEntity
  8
SK3
  6
SLD-Dashed
370
    18
100
AcDbLine
 10
16.0827911923
 20
-7.5276927838
 30
0.0
 11
16.2574930972
 21
-7.2234230962
 31
0.0
  0
LINE
  5
F8
330
1F
100
AcDbEntity
  8
SK3
  6
SLD-Dashed
370
    18
100
AcDbLine
 10
16.2574930972
 20
-7.2234230962
 30
0.0
 11
16.3637411478
 21
-6.8372447407
 31
0.0
  0
LINE
  5
F9
330
1F
100
AcDbEntity
  8
SK3
  6
SLD-Dashed
370
    18
100
AcDbLine
 10
16.3637411478
 20
-6.8372447407
 30
0.0
 11
16.3948593883
 21
-6.3934227236
 31
0.0
  0
LINE
  5
FA
330
1F
100
AcDbEntity
  8
SK3
  6
SLD-Dashed
370
    18
100
AcDbLine
 10
16.3948593883
 20
-6.3934227236
 30
0.0
 11
16.3488925452
 21
-5.9198440145
 31
0.0
  0
LINE
  5
FB
330
1F
100
AcDbEntity
  8
SK3
  6
SLD-Dashed
370
    18
100
AcDbLine
 10
-68.25
 20
0.0
 30
0.0
 11
-68.25
 21
-11.1476148288
 31
0.0
  0
LINE
  5
FC
330
1F
100
AcDbEntity
  8
SK1
  6
SLD-Dashed
370
    18
100
AcDbLine
 10
-68.25
 20
11.1476148288
 30
0.0
 11
-68.25
 21
0.0
 31
0.0
  0
LINE
  5
FD
330
1F
100
AcDbEntity
  8
SK3
  6
SLD-Dashed
370
    18
100
AcDbLine
 10
78.5
 20
-9.525
 30
0.0
 11
78.5
 21
9.525
 31
0.0
  0
LINE
  5
FE
330
1F
100
AcDbEntity
  8
SK3
  6
SLD-Dashed
370
    18
100
AcDbLine
 10
80.0
 20
-10.38734294
 30
0.0
 11
80.0
 21
10.38734294
 31
0.0
  0
LINE
  5
FF
330
1F
100
AcDbEntity
  8
SK3
  6
SLD-Dashed
370
    18
100
AcDbLine
 10
29.0
 20
-9.75
 30
0.0
 11
29.0
 21
9.75
 31
0.0
  0
LINE
  5
100
330
1F
100
AcDbEntity
  8
SK3
  6
SLD-Dashed
370
    18
100
AcDbLine
 10
26.0
 20
-9.75
 30
0.0
 11
26.0
 21
9.75
 31
0.0
  0
LINE
  5
101
330
1F
100
AcDbEntity
  8
SK3
  6
SLD-Dashed
370
    18
100
AcDbLine
 10
29.0
 20
-9.525
 30
0.0
 11
29.0
 21
9.525
 31
0.0
  0
LINE
  5
102
330
1F
100
AcDbEntity
  8
SK3
  6
SLD-Dashed
370
    18
100
AcDbLine
 10
24.3303525463
 20
-6.74624
 30
0.0
 11
24.3303525463
 21
6.74624
 31
0.0
  0
LINE
  5
103
330
1F
100
AcDbEntity
  8
SK3
  6
SLD-Dashed
370
    18
100
AcDbLine
 10
26.0
 20
-9.525
 30
0.0
 11
26.0
 21
9.525
 31
0.0
  0
LINE
  5
104
330
1F
100
AcDbEntity
  8
SK3
  6
SLD-Dashed
370
    18
100
AcDbLine
 10
-66.6824940192
 20
-8.235
 30
0.0
 11
-66.6824940192
 21
8.235
 31
0.0
  0
LINE
  5
105
330
1F
100
AcDbEntity
  8
SK3
  6
SLD-Dashed
370
    18
100
AcDbLine
 10
-68.25
 20
-9.1362726424
 30
0.0
 11
-68.25
 21
9.1362726424
 31
0.0
  0
LINE
  5
106
330
1F
100
AcDbEntity
  8
SK3
  6
SLD-Dashed
370
    18
100
AcDbLine
 10
-63.48
 20
-8.235
 30
0.0
 11
-63.48
 21
8.235
 31
0.0
  0
LINE
  5
107
330
1F
100
AcDbEntity
  8
SK3
  6
SLD-Dashed
370
    18
100
AcDbLine
 10
-62.6204640132
 20
-6.74624
 30
0.0
 11
-62.6204640132
 21
6.74624
 31
0.0
  0
LINE
  5
108
330
1F
100
AcDbEntity
  8
SK3
  6
SLD-Dashed
370
    18
100
AcDbLine
 10
3.5452916241
 20
-29.8048664484
 30
0.0
 11
3.5452916241
 21
-22.785
 31
0.0
  0
LINE
  5
109
330
1F
100
AcDbEntity
  8
SK3
  6
SLD-Dashed
370
    18
100
AcDbLine
 10
18.704611155
 20
-22.785
 30
0.0
 11
18.704611155
 21
-29.8048552742
 31
0.0
  0
LINE
  5
10A
330
1F
100
AcDbEntity
  8
SK3
  6
SLD-Dashed
370
    18
100
AcDbLine
 10
7.8539870535
 20
-30.2255814201
 30
0.0
 11
3.95
 21
-30.2255814201
 31
0.0
  0
LINE
  5
10B
330
1F
100
AcDbEntity
  8
SK3
  6
SLD-Dashed
370
    18
100
AcDbLine
 10
18.3
 20
-30.2254693878
 30
0.0
 11
14.3759504666
 21
-30.2254693878
 31
0.0
  0
LINE
  5
10C
330
1F
100
AcDbEntity
  8
1
  6
SLD-Dashed
370
    18
100
AcDbLine
 10
9.2
 20
-27.8050456342
 30
0.0
 11
9.2
 21
-27.7691663541
 31
0.0
  0
LINE
  5
10D
330
1F
100
AcDbEntity
  8
1
  6
SLD-Dashed
370
    18
100
AcDbLine
 10
13.03
 20
-27.7691663541
 30
0.0
 11
13.03
 21
-27.8050456342
 31
0.0
  0
LINE
  5
10E
330
1F
100
AcDbEntity
  8
SK3
  6
SLD-Dashed
370
    18
100
AcDbLine
 10
18.7047083759
 20
29.8048664484
 30
0.0
 11
18.7047083759
 21
25.5791202528
 31
0.0
  0
LINE
  5
10F
330
1F
100
AcDbEntity
  8
SK3
  6
SLD-Dashed
370
    18
100
AcDbLine
 10
3.545388845
 20
25.5789825872
 30
0.0
 11
3.545388845
 21
29.8048552742
 31
0.0
  0
LINE
  5
110
330
1F
100
AcDbEntity
  8
SK3
  6
SLD-Dashed
370
    18
100
AcDbLine
 10
14.3760129465
 20
30.2255814201
 30
0.0
 11
18.3
 21
30.2255814201
 31
0.0
  0
LINE
  5
111
330
1F
100
AcDbEntity
  8
SK3
  6
SLD-Dashed
370
    18
100
AcDbLine
 10
3.95
 20
30.2254693878
 30
0.0
 11
7.8540495334
 21
30.2254693878
 31
0.0
  0
LINE
  5
112
330
1F
100
AcDbEntity
  8
1
  6
SLD-Dashed
370
    18
100
AcDbLine
 10
9.2
 20
27.8050456342
 30
0.0
 11
9.2
 21
27.7691663541
 31
0.0
  0
LINE
  5
113
330
1F
100
AcDbEntity
  8
1
  6
SLD-Dashed
370
    18
100
AcDbLine
 10
13.03
 20
27.7691663541
 30
0.0
 11
13.03
 21
27.8050456342
 31
0.0
  0
LINE
  5
114
330
1F
100
AcDbEntity
  8
SK3
  6
SLD-Dashed
370
    18
100
AcDbLine
 10
18.704611155
 20
-22.41
 30
0.0
 11
3.5452916241
 21
-22.41
 31
0.0
  0
LINE
  5
115
330
1F
100
AcDbEntity
  8
SK3
  6
SLD-Dashed
370
    18
100
AcDbLine
 10
3.5452916241
 20
-22.785
 30
0.0
 11
18.704611155
 21
-22.785
 31
0.0
  0
LINE
  5
116
330
1F
100
AcDbEntity
  8
SK3
  6
SLD-Dashed
370
    18
100
AcDbLine
 10
3.7
 20
24.83
 30
0.0
 11
18.55
 21
24.83
 31
0.0
  0
LINE
  5
117
330
1F
100
AcDbEntity
  8
SK3
  6
SLD-Dashed
370
    18
100
AcDbLine
 10
18.55
 20
25.205
 30
0.0
 11
3.7
 21
25.205
 31
0.0
  0
LINE
  5
118
330
1F
100
AcDbEntity
  8
SK3
  6
SLD-Dashed
370
    18
100
AcDbLine
 10
70.0641
 20
18.1141
 30
0.0
 11
60.3359
 21
18.1141
 31
0.0
  0
LINE
  5
119
330
1F
100
AcDbEntity
  8
SK3
  6
SLD-Dashed
370
    18
100
AcDbLine
 10
47.6641
 20
18.1141
 30
0.0
 11
37.9359
 21
18.1141
 31
0.0
  0
LINE
  5
11A
330
1F
100
AcDbEntity
  8
SK3
  6
SLD-Dashed
370
    18
100
AcDbLine
 10
6.4000000687
 20
20.13
 30
0.0
 11
15.8
 21
20.13
 31
0.0
  0
LINE
  5
11B
330
1F
100
AcDbEntity
  8
SK3
  6
SLD-Dashed
370
    18
100
AcDbLine
 10
16.1
 20
20.43
 30
0.0
 11
6.1
 21
20.43
 31
0.0
  0
LINE
  5
11C
330
1F
100
AcDbEntity
  8
SK3
  6
SLD-Dashed
370
    18
100
AcDbLine
 10
6.1
 20
24.83
 30
0.0
 11
16.1
 21
24.83
 31
0.0
  0
LINE
  5
11D
330
1F
100
AcDbEntity
  8
SK3
  6
SLD-Dashed
370
    18
100
AcDbLine
 10
18.7047083759
 20
-22.785
 30
0.0
 11
3.545388845
 21
-22.785
 31
0.0
  0
LINE
  5
11E
330
1F
100
AcDbEntity
  8
SK3
  6
SLD-Dashed
370
    18
100
AcDbLine
 10
3.545388845
 20
-22.41
 30
0.0
 11
18.7047083759
 21
-22.41
 31
0.0
  0
LINE
  5
11F
330
1F
100
AcDbEntity
  8
SK3
  6
SLD-Dashed
370
    18
100
AcDbLine
 10
3.95
 20
-30.2254693878
 30
0.0
 11
7.8540495334
 21
-30.2254693878
 31
0.0
  0
LINE
  5
120
330
1F
100
AcDbEntity
  8
SK3
  6
SLD-Dashed
370
    18
100
AcDbLine
 10
14.3760129465
 20
-30.2255814201
 30
0.0
 11
18.3
 21
-30.2255814201
 31
0.0
  0
LINE
  5
121
330
1F
100
AcDbEntity
  8
1
  6
SLD-Dashed
370
    18
100
AcDbLine
 10
12.28
 20
-26.9870635676
 30
0.0
 11
9.95
 21
-26.9870635676
 31
0.0
  0
LINE
  5
122
330
1F
100
AcDbEntity
  8
SK3
  6
SLD-Dashed
370
    18
100
AcDbLine
 10
3.545388845
 20
-22.785
 30
0.0
 11
3.545388845
 21
-29.8048552742
 31
0.0
  0
LINE
  5
123
330
1F
100
AcDbEntity
  8
SK3
  6
SLD-Dashed
370
    18
100
AcDbLine
 10
18.7047083759
 20
-29.8048664484
 30
0.0
 11
18.7047083759
 21
-22.785
 31
0.0
  0
LINE
  5
124
330
1F
100
AcDbEntity
  8
SK3
  6
SLD-Dashed
370
    18
100
AcDbLine
 10
18.3
 20
30.2254693878
 30
0.0
 11
14.3759504666
 21
30.2254693878
 31
0.0
  0
LINE
  5
125
330
1F
100
AcDbEntity
  8
SK3
  6
SLD-Dashed
370
    18
100
AcDbLine
 10
18.704611155
 20
25.5789825872
 30
0.0
 11
18.704611155
 21
29.8048552742
 31
0.0
  0
LINE
  5
126
330
1F
100
AcDbEntity
  8
SK3
  6
SLD-Dashed
370
    18
100
AcDbLine
 10
3.5452916241
 20
29.8048664484
 30
0.0
 11
3.5452916241
 21
25.5791202528
 31
0.0
  0
LINE
  5
127
330
1F
100
AcDbEntity
  8
SK3
  6
SLD-Dashed
370
    18
100
AcDbLine
 10
7.8539870535
 20
30.2255814201
 30
0.0
 11
3.95
 21
30.2255814201
 31
0.0
  0
LINE
  5
128
330
1F
100
AcDbEntity
  8
1
  6
SLD-Dashed
370
    18
100
AcDbLine
 10
12.28
 20
26.9870635676
 30
0.0
 11
9.95
 21
26.9870635676
 31
0.0
  0
LINE
  5
129
330
1F
100
AcDbEntity
  8
SK3
  6
SLD-Dashed
370
    18
100
AcDbLine
 10
3.3636512159
 20
8.8621689747
 30
0.0
 11
3.3176843728
 21
8.3885902656
 31
0.0
  0
LINE
  5
12A
330
1F
100
AcDbEntity
  8
SK3
  6
SLD-Dashed
370
    18
100
AcDbLine
 10
3.3176843728
 20
8.3885902656
 30
0.0
 11
3.3488026133
 21
7.9447682485
 31
0.0
  0
LINE
  5
12B
330
1F
100
AcDbEntity
  8
SK3
  6
SLD-Dashed
370
    18
100
AcDbLine
 10
3.3488026133
 20
7.9447682485
 30
0.0
 11
3.4550506639
 21
7.558589893
 31
0.0
  0
LINE
  5
12C
330
1F
100
AcDbEntity
  8
SK3
  6
SLD-Dashed
370
    18
100
AcDbLine
 10
3.4550506639
 20
7.558589893
 30
0.0
 11
3.6297525688
 21
7.2543202054
 31
0.0
  0
LINE
  5
12D
330
1F
100
AcDbEntity
  8
SK3
  6
SLD-Dashed
370
    18
100
AcDbLine
 10
3.6297525688
 20
7.2543202054
 30
0.0
 11
3.8619311648
 21
7.0510775692
 31
0.0
  0
LINE
  5
12E
330
1F
100
AcDbEntity
  8
SK3
  6
SLD-Dashed
370
    18
100
AcDbLine
 10
3.8619311648
 20
7.0510775692
 30
0.0
 11
4.1369978168
 21
6.9616324668
 31
0.0
  0
LINE
  5
12F
330
1F
100
AcDbEntity
  8
SK3
  6
SLD-Dashed
370
    18
100
AcDbLine
 10
4.1369978168
 20
6.9616324668
 30
0.0
 11
4.4376690756
 21
6.9916050628
 31
0.0
  0
LINE
  5
130
330
1F
100
AcDbEntity
  8
SK3
  6
SLD-Dashed
370
    18
100
AcDbLine
 10
4.4376690756
 20
6.9916050628
 30
0.0
 11
4.74505266
 21
7.1391120689
 31
0.0
  0
LINE
  5
131
330
1F
100
AcDbEntity
  8
SK3
  6
SLD-Dashed
370
    18
100
AcDbLine
 10
4.74505266
 20
7.1391120689
 30
0.0
 11
5.039834529
 21
7.3948850774
 31
0.0
  0
LINE
  5
132
330
1F
100
AcDbEntity
  8
SK3
  6
SLD-Dashed
370
    18
100
AcDbLine
 10
5.039834529
 20
7.3948850774
 30
0.0
 11
5.3034924537
 21
7.7428529294
 31
0.0
  0
LINE
  5
133
330
1F
100
AcDbEntity
  8
SK3
  6
SLD-Dashed
370
    18
100
AcDbLine
 10
5.3034924537
 20
7.7428529294
 30
0.0
 11
5.519459837
 21
8.1611515251
 31
0.0
  0
LINE
  5
134
330
1F
100
AcDbEntity
  8
SK3
  6
SLD-Dashed
370
    18
100
AcDbLine
 10
5.519459837
 20
8.1611515251
 30
0.0
 11
5.6741666538
 21
8.6234976253
 31
0.0
  0
LINE
  5
135
330
1F
100
AcDbEntity
  8
SK3
  6
SLD-Dashed
370
    18
100
AcDbLine
 10
5.6741666538
 20
8.6234976253
 30
0.0
 11
5.757892106
 21
9.1008403241
 31
0.0
  0
LINE
  5
136
330
1F
100
AcDbEntity
  8
SK3
  6
SLD-Dashed
370
    18
100
AcDbLine
 10
5.757892106
 20
9.1008403241
 30
0.0
 11
5.7653754154
 21
9.5631864243
 31
0.0
  0
LINE
  5
137
330
1F
100
AcDbEntity
  8
SK3
  6
SLD-Dashed
370
    18
100
AcDbLine
 10
5.7653754154
 20
9.5631864243
 30
0.0
 11
5.6961463783
 21
9.98148502
 31
0.0
  0
LINE
  5
138
330
1F
100
AcDbEntity
  8
SK3
  6
SLD-Dashed
370
    18
100
AcDbLine
 10
5.6961463783
 20
9.98148502
 30
0.0
 11
5.5545549095
 21
10.329452872
 31
0.0
  0
LINE
  5
139
330
1F
100
AcDbEntity
  8
SK3
  6
SLD-Dashed
370
    18
100
AcDbLine
 10
5.5545549095
 20
10.329452872
 30
0.0
 11
5.3494977219
 21
10.5852258805
 31
0.0
  0
LINE
  5
13A
330
1F
100
AcDbEntity
  8
SK3
  6
SLD-Dashed
370
    18
100
AcDbLine
 10
5.3494977219
 20
10.5852258805
 30
0.0
 11
5.0938593126
 21
10.7327328866
 31
0.0
  0
LINE
  5
13B
330
1F
100
AcDbEntity
  8
SK3
  6
SLD-Dashed
370
    18
100
AcDbLine
 10
5.0938593126
 20
10.7327328866
 30
0.0
 11
4.8037023832
 21
10.7627054826
 31
0.0
  0
LINE
  5
13C
330
1F
100
AcDbEntity
  8
SK3
  6
SLD-Dashed
370
    18
100
AcDbLine
 10
4.8037023832
 20
10.7627054826
 30
0.0
 11
4.4972585605
 21
10.6732603802
 31
0.0
  0
LINE
  5
13D
330
1F
100
AcDbEntity
  8
SK3
  6
SLD-Dashed
370
    18
100
AcDbLine
 10
4.4972585605
 20
10.6732603802
 30
0.0
 11
4.1937828371
 21
10.470017744
 31
0.0
  0
LINE
  5
13E
330
1F
100
AcDbEntity
  8
SK3
  6
SLD-Dashed
370
    18
100
AcDbLine
 10
4.1937828371
 20
10.470017744
 30
0.0
 11
3.9123437086
 21
10.1657480564
 31
0.0
  0
LINE
  5
13F
330
1F
100
AcDbEntity
  8
SK3
  6
SLD-Dashed
370
    18
100
AcDbLine
 10
3.9123437086
 20
10.1657480564
 30
0.0
 11
3.6706250307
 21
9.7795697009
 31
0.0
  0
LINE
  5
140
330
1F
100
AcDbEntity
  8
SK3
  6
SLD-Dashed
370
    18
100
AcDbLine
 10
3.6706250307
 20
9.7795697009
 30
0.0
 11
3.4838148768
 21
9.3357476838
 31
0.0
  0
LINE
  5
141
330
1F
100
AcDbEntity
  8
SK3
  6
SLD-Dashed
370
    18
100
AcDbLine
 10
3.4838148768
 20
9.3357476838
 30
0.0
 11
3.3636512159
 21
8.8621689747
 31
0.0
  0
LINE
  5
142
330
1F
100
AcDbEntity
  8
SK3
  6
SLD-Dashed
370
    18
100
AcDbLine
 10
13.9872030677
 20
5.9198440145
 30
0.0
 11
14.1073667286
 21
6.3934227236
 31
0.0
  0
LINE
  5
143
330
1F
100
AcDbEntity
  8
SK3
  6
SLD-Dashed
370
    18
100
AcDbLine
 10
14.1073667286
 20
6.3934227236
 30
0.0
 11
14.2941768825
 21
6.8372447407
 31
0.0
  0
LINE
  5
144
330
1F
100
AcDbEntity
  8
SK3
  6
SLD-Dashed
370
    18
100
AcDbLine
 10
14.2941768825
 20
6.8372447407
 30
0.0
 11
14.5358955604
 21
7.2234230962
 31
0.0
  0
LINE
  5
145
330
1F
100
AcDbEntity
  8
SK3
  6
SLD-Dashed
370
    18
100
AcDbLine
 10
14.5358955604
 20
7.2234230962
 30
0.0
 11
14.8173346889
 21
7.5276927838
 31
0.0
  0
LINE
  5
146
330
1F
100
AcDbEntity
  8
SK3
  6
SLD-Dashed
370
    18
100
AcDbLine
 10
14.8173346889
 20
7.5276927838
 30
0.0
 11
15.1208104123
 21
7.73093542
 31
0.0
  0
LINE
  5
147
330
1F
100
AcDbEntity
  8
SK3
  6
SLD-Dashed
370
    18
100
AcDbLine
 10
15.1208104123
 20
7.73093542
 30
0.0
 11
15.427254235
 21
7.8203805224
 31
0.0
  0
LINE
  5
148
330
1F
100
AcDbEntity
  8
SK3
  6
SLD-Dashed
370
    18
100
AcDbLine
 10
15.427254235
 20
7.8203805224
 30
0.0
 11
15.7174111644
 21
7.7904079263
 31
0.0
  0
LINE
  5
149
330
1F
100
AcDbEntity
  8
SK3
  6
SLD-Dashed
370
    18
100
AcDbLine
 10
15.7174111644
 20
7.7904079263
 30
0.0
 11
15.9730495737
 21
7.6429009203
 31
0.0
  0
LINE
  5
14A
330
1F
100
AcDbEntity
  8
SK3
  6
SLD-Dashed
370
    18
100
AcDbLine
 10
15.9730495737
 20
7.6429009203
 30
0.0
 11
16.1781067613
 21
7.3871279118
 31
0.0
  0
LINE
  5
14B
330
1F
100
AcDbEntity
  8
SK3
  6
SLD-Dashed
370
    18
100
AcDbLine
 10
16.1781067613
 20
7.3871279118
 30
0.0
 11
16.3196982301
 21
7.0391600598
 31
0.0
  0
LINE
  5
14C
330
1F
100
AcDbEntity
  8
SK3
  6
SLD-Dashed
370
    18
100
AcDbLine
 10
16.3196982301
 20
7.0391600598
 30
0.0
 11
16.3889272672
 21
6.6208614641
 31
0.0
  0
LINE
  5
14D
330
1F
100
AcDbEntity
  8
SK3
  6
SLD-Dashed
370
    18
100
AcDbLine
 10
16.3889272672
 20
6.6208614641
 30
0.0
 11
16.3814439578
 21
6.1585153639
 31
0.0
  0
LINE
  5
14E
330
1F
100
AcDbEntity
  8
SK3
  6
SLD-Dashed
370
    18
100
AcDbLine
 10
16.3814439578
 20
6.1585153639
 30
0.0
 11
16.2977185056
 21
5.6811726651
 31
0.0
  0
LINE
  5
14F
330
1F
100
AcDbEntity
  8
SK3
  6
SLD-Dashed
370
    18
100
AcDbLine
 10
16.2977185056
 20
5.6811726651
 30
0.0
 11
16.1430116887
 21
5.2188265648
 31
0.0
  0
LINE
  5
150
330
1F
100
AcDbEntity
  8
SK3
  6
SLD-Dashed
370
    18
100
AcDbLine
 10
16.1430116887
 20
5.2188265648
 30
0.0
 11
15.9270443055
 21
4.8005279692
 31
0.0
  0
LINE
  5
151
330
1F
100
AcDbEntity
  8
SK3
  6
SLD-Dashed
370
    18
100
AcDbLine
 10
15.9270443055
 20
4.8005279692
 30
0.0
 11
15.6633863808
 21
4.4525601172
 31
0.0
  0
LINE
  5
152
330
1F
100
AcDbEntity
  8
SK3
  6
SLD-Dashed
370
    18
100
AcDbLine
 10
15.6633863808
 20
4.4525601172
 30
0.0
 11
15.3686045118
 21
4.1967871087
 31
0.0
  0
LINE
  5
153
330
1F
100
AcDbEntity
  8
SK3
  6
SLD-Dashed
370
    18
100
AcDbLine
 10
15.3686045118
 20
4.1967871087
 30
0.0
 11
15.0612209274
 21
4.0492801026
 31
0.0
  0
LINE
  5
154
330
1F
100
AcDbEntity
  8
SK3
  6
SLD-Dashed
370
    18
100
AcDbLine
 10
15.0612209274
 20
4.0492801026
 30
0.0
 11
14.7605496686
 21
4.0193075066
 31
0.0
  0
LINE
  5
155
330
1F
100
AcDbEntity
  8
SK3
  6
SLD-Dashed
370
    18
100
AcDbLine
 10
14.7605496686
 20
4.0193075066
 30
0.0
 11
14.4854830166
 21
4.108752609
 31
0.0
  0
LINE
  5
156
330
1F
100
AcDbEntity
  8
SK3
  6
SLD-Dashed
370
    18
100
AcDbLine
 10
14.4854830166
 20
4.108752609
 30
0.0
 11
14.2533044206
 21
4.3119952452
 31
0.0
  0
LINE
  5
157
330
1F
100
AcDbEntity
  8
SK3
  6
SLD-Dashed
370
    18
100
AcDbLine
 10
14.2533044206
 20
4.3119952452
 30
0.0
 11
14.0786025157
 21
4.6162649327
 31
0.0
  0
LINE
  5
158
330
1F
100
AcDbEntity
  8
SK3
  6
SLD-Dashed
370
    18
100
AcDbLine
 10
14.0786025157
 20
4.6162649327
 30
0.0
 11
13.9723544651
 21
5.0024432883
 31
0.0
  0
LINE
  5
159
330
1F
100
AcDbEntity
  8
SK3
  6
SLD-Dashed
370
    18
100
AcDbLine
 10
13.9723544651
 20
5.0024432883
 30
0.0
 11
13.9412362246
 21
5.4462653054
 31
0.0
  0
LINE
  5
15A
330
1F
100
AcDbEntity
  8
SK3
  6
SLD-Dashed
370
    18
100
AcDbLine
 10
13.9412362246
 20
5.4462653054
 30
0.0
 11
13.9872030677
 21
5.9198440145
 31
0.0
  0
LINE
  5
15B
330
1F
100
AcDbEntity
  8
SK3
  6
SLD-Dashed
370
    18
100
AcDbLine
 10
3.3100253255
 20
8.8686354442
 30
0.0
 11
3.4332701059
 21
9.3543571971
 31
0.0
  0
LINE
  5
15C
330
1F
100
AcDbEntity
  8
SK3
  6
SLD-Dashed
370
    18
100
AcDbLine
 10
3.4332701059
 20
9.3543571971
 30
0.0
 11
3.6248702638
 21
9.809559266
 31
0.0
  0
LINE
  5
15D
330
1F
100
AcDbEntity
  8
SK3
  6
SLD-Dashed
370
    18
100
AcDbLine
 10
3.6248702638
 20
9.809559266
 30
0.0
 11
3.8727868565
 21
10.2056396306
 31
0.0
  0
LINE
  5
15E
330
1F
100
AcDbEntity
  8
SK3
  6
SLD-Dashed
370
    18
100
AcDbLine
 10
3.8727868565
 20
10.2056396306
 30
0.0
 11
4.1614423729
 21
10.5177111051
 31
0.0
  0
LINE
  5
15F
330
1F
100
AcDbEntity
  8
SK3
  6
SLD-Dashed
370
    18
100
AcDbLine
 10
4.1614423729
 20
10.5177111051
 30
0.0
 11
4.4726995251
 21
10.7261650909
 31
0.0
  0
LINE
  5
160
330
1F
100
AcDbEntity
  8
SK3
  6
SLD-Dashed
370
    18
100
AcDbLine
 10
4.4726995251
 20
10.7261650909
 30
0.0
 11
4.7870008817
 21
10.8179036574
 31
0.0
  0
LINE
  5
161
330
1F
100
AcDbEntity
  8
SK3
  6
SLD-Dashed
370
    18
100
AcDbLine
 10
4.7870008817
 20
10.8179036574
 30
0.0
 11
5.0845977324
 21
10.7871625333
 31
0.0
  0
LINE
  5
162
330
1F
100
AcDbEntity
  8
SK3
  6
SLD-Dashed
370
    18
100
AcDbLine
 10
5.0845977324
 20
10.7871625333
 30
0.0
 11
5.3467909727
 21
10.6358732963
 31
0.0
  0
LINE
  5
163
330
1F
100
AcDbEntity
  8
SK3
  6
SLD-Dashed
370
    18
100
AcDbLine
 10
5.3467909727
 20
10.6358732963
 30
0.0
 11
5.5571060369
 21
10.3735420056
 31
0.0
  0
LINE
  5
164
330
1F
100
AcDbEntity
  8
SK3
  6
SLD-Dashed
370
    18
100
AcDbLine
 10
5.5571060369
 20
10.3735420056
 30
0.0
 11
5.7023280561
 21
10.016651901
 31
0.0
  0
LINE
  5
165
330
1F
100
AcDbEntity
  8
SK3
  6
SLD-Dashed
370
    18
100
AcDbLine
 10
5.7023280561
 20
10.016651901
 30
0.0
 11
5.7733321968
 21
9.5876277002
 31
0.0
  0
LINE
  5
166
330
1F
100
AcDbEntity
  8
SK3
  6
SLD-Dashed
370
    18
100
AcDbLine
 10
5.7733321968
 20
9.5876277002
 30
0.0
 11
5.7656570077
 21
9.1134265718
 31
0.0
  0
LINE
  5
167
330
1F
100
AcDbEntity
  8
SK3
  6
SLD-Dashed
370
    18
100
AcDbLine
 10
5.7656570077
 20
9.1134265718
 30
0.0
 11
5.679784749
 21
8.6238443166
 31
0.0
  0
LINE
  5
168
330
1F
100
AcDbEntity
  8
SK3
  6
SLD-Dashed
370
    18
100
AcDbLine
 10
5.679784749
 20
8.6238443166
 30
0.0
 11
5.5211110907
 21
8.1496431882
 31
0.0
  0
LINE
  5
169
330
1F
100
AcDbEntity
  8
SK3
  6
SLD-Dashed
370
    18
100
AcDbLine
 10
5.5211110907
 20
8.1496431882
 30
0.0
 11
5.2996060822
 21
7.7206189875
 31
0.0
  0
LINE
  5
16A
330
1F
100
AcDbEntity
  8
SK3
  6
SLD-Dashed
370
    18
100
AcDbLine
 10
5.2996060822
 20
7.7206189875
 30
0.0
 11
5.029187698
 21
7.3637288828
 31
0.0
  0
LINE
  5
16B
330
1F
100
AcDbEntity
  8
SK3
  6
SLD-Dashed
370
    18
100
AcDbLine
 10
5.029187698
 20
7.3637288828
 30
0.0
 11
4.7268473195
 21
7.1013975921
 31
0.0
  0
LINE
  5
16C
330
1F
100
AcDbEntity
  8
SK3
  6
SLD-Dashed
370
    18
100
AcDbLine
 10
4.7268473195
 20
7.1013975921
 30
0.0
 11
4.4115821047
 21
6.9501083551
 31
0.0
  0
LINE
  5
16D
330
1F
100
AcDbEntity
  8
SK3
  6
SLD-Dashed
370
    18
100
AcDbLine
 10
4.4115821047
 20
6.9501083551
 30
0.0
 11
4.1032013265
 21
6.919367231
 31
0.0
  0
LINE
  5
16E
330
1F
100
AcDbEntity
  8
SK3
  6
SLD-Dashed
370
    18
100
AcDbLine
 10
4.1032013265
 20
6.919367231
 30
0.0
 11
3.8210816833
 21
7.0111057976
 31
0.0
  0
LINE
  5
16F
330
1F
100
AcDbEntity
  8
SK3
  6
SLD-Dashed
370
    18
100
AcDbLine
 10
3.8210816833
 20
7.0111057976
 30
0.0
 11
3.58294979
 21
7.2195597834
 31
0.0
  0
LINE
  5
170
330
1F
100
AcDbEntity
  8
SK3
  6
SLD-Dashed
370
    18
100
AcDbLine
 10
3.58294979
 20
7.2195597834
 30
0.0
 11
3.4037683491
 21
7.5316312578
 31
0.0
  0
LINE
  5
171
330
1F
100
AcDbEntity
  8
SK3
  6
SLD-Dashed
370
    18
100
AcDbLine
 10
3.4037683491
 20
7.5316312578
 30
0.0
 11
3.2947959895
 21
7.9277116224
 31
0.0
  0
LINE
  5
172
330
1F
100
AcDbEntity
  8
SK3
  6
SLD-Dashed
370
    18
100
AcDbLine
 10
3.2947959895
 20
7.9277116224
 30
0.0
 11
3.2628798454
 21
8.3829136913
 31
0.0
  0
LINE
  5
173
330
1F
100
AcDbEntity
  8
SK3
  6
SLD-Dashed
370
    18
100
AcDbLine
 10
3.2628798454
 20
8.3829136913
 30
0.0
 11
3.3100253255
 21
8.8686354442
 31
0.0
  0
LINE
  5
174
330
1F
100
AcDbEntity
  8
SK3
  6
SLD-Dashed
370
    18
100
AcDbLine
 10
5.06497889
 20
-10.7414234849
 30
0.0
 11
15.6885307418
 21
-7.7990985247
 31
0.0
  0
LINE
  5
175
330
1F
100
AcDbEntity
  8
SK3
  6
SLD-Dashed
370
    18
100
AcDbLine
 10
14.6475648711
 20
-4.0405895043
 30
0.0
 11
4.0240130193
 21
-6.9829144645
 31
0.0
  0
LINE
  5
176
330
1F
100
AcDbEntity
  8
SK3
  6
SLD-Dashed
370
    18
100
AcDbLine
 10
80.0
 20
10.3910254038
 30
0.0
 11
78.5
 21
9.525
 31
0.0
  0
LINE
  5
177
330
1F
100
AcDbEntity
  8
SK3
  6
SLD-Dashed
370
    18
100
AcDbLine
 10
78.5
 20
-9.525
 30
0.0
 11
80.0
 21
-10.3910254038
 31
0.0
  0
LINE
  5
178
330
1F
100
AcDbEntity
  8
SK3
  6
SLD-Dashed
370
    18
100
AcDbLine
 10
29.0
 20
9.75
 30
0.0
 11
26.0
 21
9.75
 31
0.0
  0
LINE
  5
179
330
1F
100
AcDbEntity
  8
SK3
  6
SLD-Dashed
370
    18
100
AcDbLine
 10
26.0
 20
-9.75
 30
0.0
 11
29.0
 21
-9.75
 31
0.0
  0
LINE
  5
17A
330
1F
100
AcDbEntity
  8
SK3
  6
SLD-Dashed
370
    18
100
AcDbLine
 10
37.9359
 20
9.525
 30
0.0
 11
29.0
 21
9.525
 31
0.0
  0
LINE
  5
17B
330
1F
100
AcDbEntity
  8
SK3
  6
SLD-Dashed
370
    18
100
AcDbLine
 10
60.3359
 20
9.525
 30
0.0
 11
47.6473733666
 21
9.525
 31
0.0
  0
LINE
  5
17C
330
1F
100
AcDbEntity
  8
SK3
  6
SLD-Dashed
370
    18
100
AcDbLine
 10
78.5
 20
9.525
 30
0.0
 11
70.0597373685
 21
9.525
 31
0.0
  0
LINE
  5
17D
330
1F
100
AcDbEntity
  8
SK3
  6
SLD-Dashed
370
    18
100
AcDbLine
 10
29.0
 20
-9.525
 30
0.0
 11
78.5
 21
-9.525
 31
0.0
  0
LINE
  5
17E
330
1F
100
AcDbEntity
  8
SK3
  6
SLD-Dashed
370
    18
100
AcDbLine
 10
26.0
 20
9.525
 30
0.0
 11
24.3303525463
 21
6.74624
 31
0.0
  0
LINE
  5
17F
330
1F
100
AcDbEntity
  8
SK3
  6
SLD-Dashed
370
    18
100
AcDbLine
 10
24.3303525463
 20
-6.74624
 30
0.0
 11
26.0
 21
-9.525
 31
0.0
  0
LINE
  5
180
330
1F
100
AcDbEntity
  8
SK3
  6
SLD-Dashed
370
    18
100
AcDbLine
 10
-68.25
 20
-9.14
 30
0.0
 11
-66.6824940192
 21
-8.235
 31
0.0
  0
LINE
  5
181
330
1F
100
AcDbEntity
  8
SK3
  6
SLD-Dashed
370
    18
100
AcDbLine
 10
-66.6824940192
 20
8.235
 30
0.0
 11
-68.25
 21
9.14
 31
0.0
  0
LINE
  5
182
330
1F
100
AcDbEntity
  8
SK3
  6
SLD-Dashed
370
    18
100
AcDbLine
 10
-63.48
 20
-8.235
 30
0.0
 11
-62.6204640132
 21
-6.74624
 31
0.0
  0
LINE
  5
183
330
1F
100
AcDbEntity
  8
SK3
  6
SLD-Dashed
370
    18
100
AcDbLine
 10
-62.6204640132
 20
6.74624
 30
0.0
 11
-63.48
 21
8.235
 31
0.0
  0
LINE
  5
184
330
1F
100
AcDbEntity
  8
SK3
  6
SLD-Dashed
370
    18
100
AcDbLine
 10
-66.6824940192
 20
-8.235
 30
0.0
 11
-63.48
 21
-8.235
 31
0.0
  0
LINE
  5
185
330
1F
100
AcDbEntity
  8
SK3
  6
SLD-Dashed
370
    18
100
AcDbLine
 10
-63.48
 20
8.235
 30
0.0
 11
-66.6824940192
 21
8.235
 31
0.0
  0
LINE
  5
186
330
1F
100
AcDbEntity
  8
SK3
  6
SLD-Dashed
370
    18
100
AcDbLine
 10
-62.6204640132
 20
-6.74624
 30
0.0
 11
24.3303525463
 21
-6.74624
 31
0.0
  0
LINE
  5
187
330
1F
100
AcDbEntity
  8
SK3
  6
SLD-Dashed
370
    18
100
AcDbLine
 10
24.3303525463
 20
6.74624
 30
0.0
 11
-62.6204640132
 21
6.74624
 31
0.0
  0
LINE
  5
188
330
1F
100
AcDbEntity
  8
SK3
  6
SLD-Dashed
370
    18
100
AcDbLine
 10
58.45
 20
20.0
 30
0.0
 11
60.3359
 21
18.1141
 31
0.0
  0
LINE
  5
189
330
1F
100
AcDbEntity
  8
SK3
  6
SLD-Dashed
370
    18
100
AcDbLine
 10
70.0641
 20
18.1141
 30
0.0
 11
71.95
 21
20.0
 31
0.0
  0
LINE
  5
18A
330
1F
100
AcDbEntity
  8
SK3
  6
SLD-Dashed
370
    18
100
AcDbLine
 10
36.05
 20
20.0
 30
0.0
 11
37.9359
 21
18.1141
 31
0.0
  0
LINE
  5
18B
330
1F
100
AcDbEntity
  8
SK3
  6
SLD-Dashed
370
    18
100
AcDbLine
 10
47.6641
 20
18.1141
 30
0.0
 11
49.55
 21
20.0
 31
0.0
  0
LINE
  5
18C
330
1F
100
AcDbEntity
  8
SK3
  6
SLD-Dashed
370
    18
100
AcDbLine
 10
6.1
 20
24.83
 30
0.0
 11
6.1
 21
20.43
 31
0.0
  0
LINE
  5
18D
330
1F
100
AcDbEntity
  8
SK3
  6
SLD-Dashed
370
    18
100
AcDbLine
 10
16.1
 20
20.43
 30
0.0
 11
16.1
 21
24.83
 31
0.0
  0
LINE
  5
18E
330
1F
100
AcDbEntity
  8
SK3
  6
SLD-Dashed
370
    18
100
AcDbLine
 10
60.3359
 20
18.1141
 30
0.0
 11
60.3359
 21
9.525
 31
0.0
  0
LINE
  5
18F
330
1F
100
AcDbEntity
  8
SK3
  6
SLD-Dashed
370
    18
100
AcDbLine
 10
70.0641
 20
9.5227893057
 30
0.0
 11
70.0641
 21
18.1141
 31
0.0
  0
LINE
  5
190
330
1F
100
AcDbEntity
  8
SK3
  6
SLD-Dashed
370
    18
100
AcDbLine
 10
37.9359
 20
18.1141
 30
0.0
 11
37.9359
 21
9.525
 31
0.0
  0
LINE
  5
191
330
1F
100
AcDbEntity
  8
SK3
  6
SLD-Dashed
370
    18
100
AcDbLine
 10
47.6641
 20
9.5164709758
 30
0.0
 11
47.6641
 21
18.1141
 31
0.0
  0
LINE
  5
192
330
1F
100
AcDbEntity
  8
SK3
  6
SLD-Dashed
370
    18
100
AcDbLine
 10
4.0240130193
 20
6.9829144645
 30
0.0
 11
14.6475648711
 21
4.0405895043
 31
0.0
  0
LINE
  5
193
330
1F
100
AcDbEntity
  8
SK3
  6
SLD-Dashed
370
    18
100
AcDbLine
 10
15.6885307418
 20
7.7990985247
 30
0.0
 11
5.06497889
 21
10.7414234849
 31
0.0
  0
LINE
  5
194
330
1F
100
AcDbEntity
  8
SK3
  6
SLD-Solid
370
    18
100
AcDbLine
 10
-38.2499992847
 20
7.9375002533
 30
0.0
 11
-63.3082389832
 21
7.9375002533
 31
0.0
  0
LINE
  5
195
330
1F
100
AcDbEntity
  8
SK3
  6
SLD-Solid
370
    18
100
AcDbLine
 10
-63.3082389832
 20
-7.9375002533
 30
0.0
 11
-38.2499992847
 21
-7.9375002533
 31
0.0
  0
LINE
  5
196
330
1F
100
AcDbEntity
  8
SK3
  6
SLD-Solid
370
    18
100
AcDbLine
 10
-38.2499992847
 20
0.0
 30
0.0
 11
-38.2499992847
 21
-1.1830229778
 31
0.0
  0
LINE
  5
197
330
1F
100
AcDbEntity
  8
SK3
  6
SLD-Solid
370
    18
100
AcDbLine
 10
-38.2499992847
 20
-1.1830229778
 30
0.0
 11
-38.2499992847
 21
-2.3396192119
 31
0.0
  0
LINE
  5
198
330
1F
100
AcDbEntity
  8
SK3
  6
SLD-Solid
370
    18
100
AcDbLine
 10
-38.2499992847
 20
-2.3396192119
 30
0.0
 11
-38.2499992847
 21
-3.4439521842
 31
0.0
  0
LINE
  5
199
330
1F
100
AcDbEntity
  8
SK3
  6
SLD-Solid
370
    18
100
AcDbLine
 10
-38.2499992847
 20
-3.4439521842
 30
0.0
 11
-38.2499992847
 21
-4.4713527896
 31
0.0
  0
LINE
  5
19A
330
1F
100
AcDbEntity
  8
SK3
  6
SLD-Solid
370
    18
100
AcDbLine
 10
-38.2499992847
 20
-4.4713527896
 30
0.0
 11
-38.2499992847
 21
-5.3988709114
 31
0.0
  0
LINE
  5
19B
330
1F
100
AcDbEntity
  8
SK3
  6
SLD-Solid
370
    18
100
AcDbLine
 10
-38.2499992847
 20
-5.3988709114
 30
0.0
 11
-38.2499992847
 21
-6.2057874165
 31
0.0
  0
LINE
  5
19C
330
1F
100
AcDbEntity
  8
SK3
  6
SLD-Solid
370
    18
100
AcDbLine
 10
-38.2499992847
 20
-6.2057874165
 30
0.0
 11
-38.2499992847
 21
-6.8740765564
 31
0.0
  0
LINE
  5
19D
330
1F
100
AcDbEntity
  8
SK3
  6
SLD-Solid
370
    18
100
AcDbLine
 10
-38.2499992847
 20
-6.8740765564
 30
0.0
 11
-38.2499992847
 21
-7.3888101615
 31
0.0
  0
LINE
  5
19E
330
1F
100
AcDbEntity
  8
SK3
  6
SLD-Solid
370
    18
100
AcDbLine
 10
-38.2499992847
 20
-7.3888101615
 30
0.0
 11
-38.2499992847
 21
-7.7384901233
 31
0.0
  0
LINE
  5
19F
330
1F
100
AcDbEntity
  8
SK3
  6
SLD-Solid
370
    18
100
AcDbLine
 10
-38.2499992847
 20
-7.7384901233
 30
0.0
 11
-38.2499992847
 21
-7.9153049737
 31
0.0
  0
LINE
  5
1A0
330
1F
100
AcDbEntity
  8
SK3
  6
SLD-Solid
370
    18
100
AcDbLine
 10
-38.2499992847
 20
-7.9153049737
 30
0.0
 11
-38.2499992847
 21
-7.9375002533
 31
0.0
  0
LINE
  5
1A1
330
1F
100
AcDbEntity
  8
SK3
  6
SLD-Solid
370
    18
100
AcDbLine
 10
-38.2499992847
 20
7.9375002533
 30
0.0
 11
-38.2499992847
 21
7.9153049737
 31
0.0
  0
LINE
  5
1A2
330
1F
100
AcDbEntity
  8
SK3
  6
SLD-Solid
370
    18
100
AcDbLine
 10
-38.2499992847
 20
7.9153049737
 30
0.0
 11
-38.2499992847
 21
7.7384901233
 31
0.0
  0
LINE
  5
1A3
330
1F
100
AcDbEntity
  8
SK3
  6
SLD-Solid
370
    18
100
AcDbLine
 10
-38.2499992847
 20
7.7384901233
 30
0.0
 11
-38.2499992847
 21
7.3888101615
 31
0.0
  0
LINE
  5
1A4
330
1F
100
AcDbEntity
  8
SK3
  6
SLD-Solid
370
    18
100
AcDbLine
 10
-38.2499992847
 20
7.3888101615
 30
0.0
 11
-38.2499992847
 21
6.8740765564
 31
0.0
  0
LINE
  5
1A5
330
1F
100
AcDbEntity
  8
SK3
  6
SLD-Solid
370
    18
100
AcDbLine
 10
-38.2499992847
 20
6.8740765564
 30
0.0
 11
-38.2499992847
 21
6.2057874165
 31
0.0
  0
LINE
  5
1A6
330
1F
100
AcDbEntity
  8
SK3
  6
SLD-Solid
370
    18
100
AcDbLine
 10
-38.2499992847
 20
6.2057874165
 30
0.0
 11
-38.2499992847
 21
5.3988709114
 31
0.0
  0
LINE
  5
1A7
330
1F
100
AcDbEntity
  8
SK3
  6
SLD-Solid
370
    18
100
AcDbLine
 10
-38.2499992847
 20
5.3988709114
 30
0.0
 11
-38.2499992847
 21
4.4713527896
 31
0.0
  0
LINE
  5
1A8
330
1F
100
AcDbEntity
  8
SK3
  6
SLD-Solid
370
    18
100
AcDbLine
 10
-38.2499992847
 20
4.4713527896
 30
0.0
 11
-38.2499992847
 21
3.4439521842
 31
0.0
  0
LINE
  5
1A9
330
1F
100
AcDbEntity
  8
SK3
  6
SLD-Solid
370
    18
100
AcDbLine
 10
-38.2499992847
 20
3.4439521842
 30
0.0
 11
-38.2499992847
 21
2.3396192119
 31
0.0
  0
LINE
  5
1AA
330
1F
100
AcDbEntity
  8
SK3
  6
SLD-Solid
370
    18
100
AcDbLine
 10
-38.2499992847
 20
2.3396192119
 30
0.0
 11
-38.2499992847
 21
1.1830229778
 31
0.0
  0
LINE
  5
1AB
330
1F
100
AcDbEntity
  8
SK3
  6
SLD-Solid
370
    18
100
AcDbLine
 10
-38.2499992847
 20
1.1830229778
 30
0.0
 11
-38.2499992847
 21
0.0
 31
0.0
  0
LINE
  5
1AC
330
1F
100
AcDbEntity
  8
SK3
  6
SLD-Solid
370
    18
100
AcDbLine
 10
70.7562491298
 20
9.5166573301
 30
0.0
 11
70.7562491298
 21
18.8062507659
 31
0.0
  0
LINE
  5
1AD
330
1F
100
AcDbEntity
  8
SK3
  6
SLD-Solid
370
    18
100
AcDbLine
 10
59.6437491477
 20
18.8062507659
 30
0.0
 11
59.6437491477
 21
9.5166573301
 31
0.0
  0
LINE
  5
1AE
330
1F
100
AcDbEntity
  8
SK3
  6
SLD-Solid
370
    18
100
AcDbLine
 10
70.7417726517
 20
9.5166573301
 30
0.0
 11
70.5374479294
 21
9.3990480527
 31
0.0
  0
LINE
  5
1AF
330
1F
100
AcDbEntity
  8
SK3
  6
SLD-Solid
370
    18
100
AcDbLine
 10
48.3562499285
 20
9.5166573301
 30
0.0
 11
48.3562499285
 21
18.8062507659
 31
0.0
  0
LINE
  5
1B0
330
1F
100
AcDbEntity
  8
SK3
  6
SLD-Solid
370
    18
100
AcDbLine
 10
37.2437499464
 20
18.8062507659
 30
0.0
 11
37.2437499464
 21
9.5166573301
 31
0.0
  0
LINE
  5
1B1
330
1F
100
AcDbEntity
  8
SK3
  6
SLD-Solid
370
    18
100
AcDbLine
 10
48.3417697251
 20
9.5166573301
 30
0.0
 11
48.1374524534
 21
9.3990480527
 31
0.0
  0
LINE
  5
1B2
330
1F
100
AcDbEntity
  8
4
  6
SLD-Center
370
    18
100
AcDbLine
 10
82.0
 20
0.0
 30
0.0
 11
0.0057788779
 21
0.0
 31
0.0
  0
LINE
  5
1B3
330
1F
100
AcDbEntity
  8
4
  6
SLD-Center
370
    18
100
AcDbLine
 10
42.8
 20
7.525
 30
0.0
 11
42.8
 21
20.1141
 31
0.0
  0
LINE
  5
1B4
330
1F
100
AcDbEntity
  8
4
  6
SLD-Center
370
    18
100
AcDbLine
 10
65.2
 20
7.5249911276
 30
0.0
 11
65.2
 21
19.1052145871
 31
0.0
  0
LINE
  5
1B5
330
1F
100
AcDbEntity
  8
SK4
  6
SLD-Center
370
    18
100
AcDbLine
 10
-69.1376006954
 20
0.0
 30
0.0
 11
81.017631218
 21
0.0
 31
0.0
  0
LINE
  5
1B6
330
1F
100
AcDbEntity
  8
81
370
    18
100
AcDbLine
 10
80.0
 20
0.0
 30
0.0
 11
83.5355339059
 21
3.5355339059
 31
0.0
  0
LINE
  5
1B7
330
1F
100
AcDbEntity
  8
81
370
    18
100
AcDbLine
 10
80.0
 20
0.0
 30
0.0
 11
76.4644660941
 21
-3.5355339059
 31
0.0
  0
LINE
  5
1B8
330
1F
100
AcDbEntity
  8
81
370
    18
100
AcDbLine
 10
80.0
 20
0.0
 30
0.0
 11
76.4644660941
 21
3.5355339059
 31
0.0
  0
LINE
  5
1B9
330
1F
100
AcDbEntity
  8
81
100
AcDbLine
 10
80.0
 20
0.0
 30
0.0
 11
90.0
 21
0.0
 31
0.0
  0
LINE
  5
1BA
330
1F
100
AcDbEntity
  8
81
370
    18
100
AcDbLine
 10
80.0
 20
0.0
 30
0.0
 11
83.5355339059
 21
-3.5355339059
 31
0.0
  0
LINE
  5
1BB
330
1F
100
AcDbEntity
  8
80
370
    18
100
AcDbLine
 10
0.0057788779
 20
0.0
 30
0.0
 11
-3.5297550281
 21
-3.5355339059
 31
0.0
  0
LINE
  5
1BC
330
1F
100
AcDbEntity
  8
80
370
    18
100
AcDbLine
 10
0.0057788779
 20
0.0
 30
0.0
 11
3.5413127838
 21
3.5355339059
 31
0.0
  0
LINE
  5
1BD
330
1F
100
AcDbEntity
  8
80
370
    18
100
AcDbLine
 10
0.0057788779
 20
0.0
 30
0.0
 11
-3.5297550281
 21
3.5355339059
 31
0.0
  0
LINE
  5
1BE
330
1F
100
AcDbEntity
  8
80
370
    18
100
AcDbLine
 10
0.0057788779
 20
0.0
 30
0.0
 11
-9.9942211221
 21
0.0
 31
0.0
  0
LINE
  5
1BF
330
1F
100
AcDbEntity
  8
80
370
    18
100
AcDbLine
 10
0.0057788779
 20
0.0
 30
0.0
 11
3.5413127838
 21
-3.5355339059
 31
0.0
  0
ARC
  5
1C0
330
1F
100
AcDbEntity
  8
1
  6
SLD-Solid
370
    25
100
AcDbCircle
 10
22.098
 20
-23.048
 30
0.0
 40
3.048000000000007
100
AcDbArc
 50
90.0
 51
167.9124101259
  0
ARC
  5
1C1
330
1F
100
AcDbEntity
  8
1
  6
SLD-Solid
370
    25
100
AcDbCircle
 10
22.098
 20
23.048
 30
0.0
 40
3.048000000000005
100
AcDbArc
 50
180.0
 51
270.0
  0
ARC
  5
1C2
330
1F
100
AcDbEntity
  8
1
  6
SLD-Solid
370
    25
100
AcDbCircle
 10
2.45
 20
22.79
 30
0.0
 40
0.7500000000000147
100
AcDbArc
 50
245.0
 51
0.0
  0
ARC
  5
1C3
330
1F
100
AcDbEntity
  8
1
  6
SLD-Solid
370
    25
100
AcDbCircle
 10
2.45
 20
-22.79
 30
0.0
 40
0.7500000000000099
100
AcDbArc
 50
30.4400371691
 51
115.0
  0
ARC
  5
1C4
330
1F
100
AcDbEntity
  8
SK1
  6
SLD-Solid
370
    25
100
AcDbCircle
 10
-66.95
 20
11.1476148288
 30
0.0
 40
1.299999999999997
100
AcDbArc
 50
98.2972222222
 51
180.0
  0
ARC
  5
1C5
330
1F
100
AcDbEntity
  8
SK1
  6
SLD-Solid
370
    25
100
AcDbCircle
 10
-66.95
 20
-11.1476148288
 30
0.0
 40
1.299999999999999
100
AcDbArc
 50
180.0
 51
261.7027777778
  0
ARC
  5
1C6
330
1F
100
AcDbEntity
  8
1
370
    18
100
AcDbCircle
 10
42.8013350897
 20
45.2151816822
 30
0.0
 40
26.10267927509731
100
AcDbArc
 50
255.0163737501
 51
284.9836262499
  0
ARC
  5
1C7
330
1F
100
AcDbEntity
  8
1
370
    18
100
AcDbCircle
 10
65.1921204683
 20
45.2795829502
 30
0.0
 40
26.16316929001661
100
AcDbArc
 50
255.0727106033
 51
284.9329924206
  0
CIRCLE
  5
1C8
330
1F
100
AcDbEntity
  8
81
370
    18
100
AcDbCircle
 10
80.0
 20
0.0
 30
0.0
 40
2.499999999999984
  0
CIRCLE
  5
1C9
330
1F
100
AcDbEntity
  8
80
370
    18
100
AcDbCircle
 10
0.0057788779
 20
0.0
 30
0.0
 40
2.500000000000009
  0
SPLINE
  5
1CA
330
1F
100
AcDbEntity
  8
1
  6
SLD-Solid
370
    25
100
AcDbSpline
210
0.0
220
0.0
230
1.0
 70
     8
 71
     3
 72
    16
 73
    12
 74
     0
 42
0.000000001
 43
0.00000001
 40
0.0
 40
0.0
 40
0.0
 40
0.0
 40
0.0695972585631702
 40
0.1233277320974721
 40
0.247039555460377
 40
0.370625409937532
 40
0.4955039070586293
 40
0.6236892810562452
 40
0.7463896350927952
 40
0.874029172385884
 40
1.0
 40
1.0
 40
1.0
 40
1.0
 10
3.200000000000008
 20
-29.80486644841631
 30
0.0
 10
3.200840331068336
 20
-29.83211874374151
 30
0.0
 10
3.202329414503616
 20
-29.88041035531207
 30
0.0
 10
3.217237155250588
 20
-29.97610817340507
 30
0.0
 10
3.250688715768016
 20
-30.08991350869658
 30
0.0
 10
3.318652551688006
 20
-30.22007249881833
 30
0.0
 10
3.411627067179679
 20
-30.33622596976964
 30
0.0
 10
3.525709306310174
 20
-30.43184457715033
 30
0.0
 10
3.657379123027604
 20
-30.50320141671877
 30
0.0
 10
3.800029806285368
 20
-30.54921347619221
 30
0.0
 10
3.900229701070762
 20
-30.55502300820852
 30
0.0
 10
3.949999999999926
 20
-30.55790866138918
 30
0.0
  0
SPLINE
  5
1CB
330
1F
100
AcDbEntity
  8
1
  6
SLD-Solid
370
    25
100
AcDbSpline
210
0.0
220
0.0
230
1.0
 70
     8
 71
     3
 72
    18
 73
    14
 74
     0
 42
0.000000001
 43
0.00000001
 40
0.0
 40
0.0
 40
0.0
 40
0.0
 40
0.0628280480421825
 40
0.1260701253970792
 40
0.1897406253785904
 40
0.2538535710757105
 40
0.3764737521324676
 40
0.5046580328934662
 40
0.6294958758641306
 40
0.7530413720168776
 40
0.8767127000651272
 40
0.9303985995609487
 40
1.0
 40
1.0
 40
1.0
 40
1.0
 10
3.949999999999926
 20
30.55788999666613
 30
0.0
 10
3.925199676033192
 20
30.55717534525744
 30
0.0
 10
3.875435596934693
 20
30.55574133297284
 30
0.0
 10
3.801295881396189
 20
30.54413094373269
 30
0.0
 10
3.728175768565517
 20
30.52555103963992
 30
0.0
 10
3.635356745735161
 20
30.49149389245028
 30
0.0
 10
3.525704227685305
 20
30.43173903699994
 30
0.0
 10
3.411641971522855
 20
30.33624779546199
 30
0.0
 10
3.318651270434195
 20
30.22005039304358
 30
0.0
 10
3.250689072054502
 20
30.08990134371376
 30
0.0
 10
3.217240115096234
 20
29.97610524198126
 30
0.0
 10
3.202330512999688
 20
29.88040905934514
 30
0.0
 10
3.20084093556651
 20
29.83211788338437
 30
0.0
 10
3.200000000000008
 20
29.80485527419838
 30
0.0
  0
SPLINE
  5
1CC
330
1F
100
AcDbEntity
  8
1
  6
SLD-Solid
370
    25
100
AcDbSpline
210
0.0
220
0.0
230
1.0
 70
     8
 71
     3
 72
    18
 73
    14
 74
     0
 42
0.000000001
 43
0.00000001
 40
0.0
 40
0.0
 40
0.0
 40
0.0
 40
0.0627054734815585
 40
0.1258180026435944
 40
0.1893518955758989
 40
0.2533210967871997
 40
0.3760223802380994
 40
0.5042027350874037
 40
0.6287442443905509
 40
0.7524970007335178
 40
0.8762904256225891
 40
0.9301814553533038
 40
1.0
 40
1.0
 40
1.0
 40
1.0
 10
18.30000000000002
 20
-30.55788999666615
 30
0.0
 10
18.32475189251027
 20
-30.55717815032797
 30
0.0
 10
18.37441635566443
 20
-30.55574983666593
 30
0.0
 10
18.44840700700194
 20
-30.54418621918459
 30
0.0
 10
18.52137928311721
 20
-30.52568315689516
 30
0.0
 10
18.61414871610722
 20
-30.49172081055998
 30
0.0
 10
18.72382631062688
 20
-30.43206331201421
 30
0.0
 10
18.83789060104976
 20
-30.33670781031286
 30
0.0
 10
18.9309656757062
 20
-30.22063090164698
 30
0.0
 10
18.99906840635737
 20
-30.09053486574009
 30
0.0
 10
19.03266226172084
 20
-29.97656054635134
 30
0.0
 10
19.04765434845163
 20
-29.88065972774423
 30
0.0
 10
19.04915376650081
 20
-29.83220301390154
 30
0.0
 10
19.05000000000002
 20
-29.80485527419841
 30
0.0
  0
SPLINE
  5
1CD
330
1F
100
AcDbEntity
  8
1
  6
SLD-Solid
370
    25
100
AcDbSpline
210
0.0
220
0.0
230
1.0
 70
     8
 71
     3
 72
    16
 73
    12
 74
     0
 42
0.000000001
 43
0.00000001
 40
0.0
 40
0.0
 40
0.0
 40
0.0
 40
0.069814031064149
 40
0.1237498965154266
 40
0.2475836018648968
 40
0.371376536255524
 40
0.4959583438678432
 40
0.62413948620796
 40
0.7469207609697971
 40
0.8742805094910139
 40
1.0
 40
1.0
 40
1.0
 40
1.0
 10
19.05000000000001
 20
29.80486644841629
 30
0.0
 10
19.04915437967804
 20
29.83220375694688
 30
0.0
 10
19.04765546283079
 20
29.88066090875585
 30
0.0
 10
19.03266526234905
 20
29.97656337346558
 30
0.0
 10
18.9990687612394
 20
30.09054703967058
 30
0.0
 10
18.93096439399841
 20
30.22065301278144
 30
0.0
 10
18.83790550330879
 20
30.3366860902548
 30
0.0
 10
18.7238212796448
 20
30.43216876423577
 30
0.0
 10
18.59216376019319
 20
30.50338604964251
 30
0.0
 10
18.44966044222825
 20
30.54924901227125
 30
0.0
 10
18.34967079633339
 20
30.55503461089693
 30
0.0
 10
18.30000000000001
 20
30.55790866138915
 30
0.0
  0
SPLINE
  5
1CE
330
1F
100
AcDbEntity
  8
1
  6
SLD-Solid
370
    25
100
AcDbSpline
210
0.0
220
0.0
230
1.0
 70
     8
 71
     3
 72
     8
 73
     4
 74
     0
 42
0.000000001
 43
0.00000001
 40
0.0
 40
0.0
 40
0.0
 40
0.0
 40
1.0
 40
1.0
 40
1.0
 40
1.0
 10
7.853987053479589
 20
-30.22558142012365
 30
0.0
 10
8.303659523846749
 20
-29.41927694377148
 30
0.0
 10
8.752412641282682
 20
-28.6124760333551
 30
0.0
 10
9.199999999998877
 20
-27.80504563417609
 30
0.0
  0
SPLINE
  5
1CF
330
1F
100
AcDbEntity
  8
1
  6
SLD-Solid
370
    25
100
AcDbSpline
210
0.0
220
0.0
230
1.0
 70
     8
 71
     3
 72
     8
 73
     4
 74
     0
 42
0.000000001
 43
0.00000001
 40
0.0
 40
0.0
 40
0.0
 40
0.0
 40
0.0006742907251988
 40
0.0006742907251988
 40
0.0006742907251988
 40
0.0006742907251988
 10
7.588873645443195
 20
-30.55790866138918
 30
0.0
 10
7.677688780848528
 20
-30.44723498609788
 30
0.0
 10
7.766067686727844
 20
-30.33646040446866
 30
0.0
 10
7.853987053479591
 20
-30.22558142012364
 30
0.0
  0
SPLINE
  5
1D0
330
1F
100
AcDbEntity
  8
1
  6
SLD-Solid
370
    25
100
AcDbSpline
210
0.0
220
0.0
230
1.0
 70
     8
 71
     3
 72
     8
 73
     4
 74
     0
 42
0.000000001
 43
0.00000001
 40
0.0
 40
0.0
 40
0.0
 40
0.0
 40
0.0006744126776058
 40
0.0006744126776058
 40
0.0006744126776058
 40
0.0006744126776058
 10
7.854049533407251
 20
30.2254693877991
 30
0.0
 10
7.766109415733145
 20
30.33637953005825
 30
0.0
 10
7.677709680299341
 20
30.44718523342128
 30
0.0
 10
7.588873645443195
 20
30.5578899966661
 30
0.0
  0
SPLINE
  5
1D1
330
1F
100
AcDbEntity
  8
1
  6
SLD-Solid
370
    25
100
AcDbSpline
210
0.0
220
0.0
230
1.0
 70
     8
 71
     3
 72
     8
 73
     4
 74
     0
 42
0.000000001
 43
0.00000001
 40
0.0
 40
0.0
 40
0.0
 40
0.0
 40
1.0
 40
1.0
 40
1.0
 40
1.0
 10
7.854049533407238
 20
30.22546938779912
 30
0.0
 10
8.303692188804723
 20
29.41921817244963
 30
0.0
 10
8.752424212806613
 20
28.61245515876933
 30
0.0
 10
9.199999999999982
 20
27.80504563417291
 30
0.0
  0
SPLINE
  5
1D2
330
1F
100
AcDbEntity
  8
1
  6
SLD-Solid
370
    25
100
AcDbSpline
210
0.0
220
0.0
230
1.0
 70
     8
 71
     3
 72
    14
 73
    10
 74
     0
 42
0.000000001
 43
0.00000001
 40
0.0
 40
0.0
 40
0.0
 40
0.0
 40
0.25
 40
0.25
 40
0.5
 40
0.5
 40
0.75
 40
0.75
 40
1.0
 40
1.0
 40
1.0
 40
1.0
 10
9.199999999998877
 20
25.27054331738513
 30
0.0
 10
9.16961039113215
 20
25.36219671402947
 30
0.0
 10
9.144652419509569
 20
25.44797517411545
 30
0.0
 10
9.109411114929497
 20
25.60359055831212
 30
0.0
 10
9.100075894724867
 20
25.66959440204699
 30
0.0
 10
9.09992502394977
 20
25.77434199055132
 30
0.0
 10
9.109375914768808
 20
25.81145009587541
 30
0.0
 10
9.144272722663832
 20
25.85500935243902
 30
0.0
 10
9.169555752624214
 20
25.86176202446131
 30
0.0
 10
9.19999999999999
 20
25.85691311136566
 30
0.0
  0
SPLINE
  5
1D3
330
1F
100
AcDbEntity
  8
1
  6
SLD-Solid
370
    25
100
AcDbSpline
210
0.0
220
0.0
230
1.0
 70
     8
 71
     3
 72
     8
 73
     4
 74
     0
 42
0.000000001
 43
0.00000001
 40
0.0
 40
0.0
 40
0.0
 40
0.0
 40
1.0
 40
1.0
 40
1.0
 40
1.0
 10
13.03000000000001
 20
27.8050456341729
 30
0.0
 10
13.47759651810107
 20
28.61249255653033
 30
0.0
 10
13.92634937951634
 20
29.41929290832667
 30
0.0
 10
14.3760129465226
 20
30.22558142012639
 30
0.0
  0
SPLINE
  5
1D4
330
1F
100
AcDbEntity
  8
1
  6
SLD-Solid
370
    25
100
AcDbSpline
210
0.0
220
0.0
230
1.0
 70
     8
 71
     3
 72
     8
 73
     4
 74
     0
 42
0.000000001
 43
0.00000001
 40
0.0
 40
0.0
 40
0.0
 40
0.0
 40
0.0006742907251946
 40
0.0006742907251946
 40
0.0006742907251946
 40
0.0006742907251946
 10
14.6411263545568
 20
30.55790866138914
 30
0.0
 10
14.55231121915222
 20
30.44723498609877
 30
0.0
 10
14.46393231327361
 20
30.33646040447046
 30
0.0
 10
14.3760129465226
 20
30.22558142012639
 30
0.0
  0
SPLINE
  5
1D5
330
1F
100
AcDbEntity
  8
1
  6
SLD-Solid
370
    25
100
AcDbSpline
210
0.0
220
0.0
230
1.0
 70
     8
 71
     3
 72
     8
 73
     4
 74
     0
 42
0.000000001
 43
0.00000001
 40
0.0
 40
0.0
 40
0.0
 40
0.0
 40
0.0006744126776058
 40
0.0006744126776058
 40
0.0006744126776058
 40
0.0006744126776058
 10
14.37595046659276
 20
-30.22546938779916
 30
0.0
 10
14.46389058426686
 20
-30.33637953005829
 30
0.0
 10
14.55229031970066
 20
-30.44718523342133
 30
0.0
 10
14.64112635455682
 20
-30.55788999666615
 30
0.0
  0
SPLINE
  5
1D6
330
1F
100
AcDbEntity
  8
1
  6
SLD-Solid
370
    25
100
AcDbSpline
210
0.0
220
0.0
230
1.0
 70
     8
 71
     3
 72
     8
 73
     4
 74
     0
 42
0.000000001
 43
0.00000001
 40
0.0
 40
0.0
 40
0.0
 40
0.0
 40
1.0
 40
1.0
 40
1.0
 40
1.0
 10
13.03000000000003
 20
-27.8050456341729
 30
0.0
 10
13.47756662864429
 20
-28.61243863709861
 30
0.0
 10
13.92629890859751
 20
-29.41920220926158
 30
0.0
 10
14.37595046659276
 20
-30.22546938779916
 30
0.0
  0
SPLINE
  5
1D7
330
1F
100
AcDbEntity
  8
1
  6
SLD-Solid
370
    25
100
AcDbSpline
210
0.0
220
0.0
230
1.0
 70
     8
 71
     3
 72
    14
 73
    10
 74
     0
 42
0.000000001
 43
0.00000001
 40
0.0
 40
0.0
 40
0.0
 40
0.0
 40
0.25
 40
0.25
 40
0.5
 40
0.5
 40
0.75
 40
0.75
 40
1.0
 40
1.0
 40
1.0
 40
1.0
 10
13.03000000000002
 20
25.81171788356633
 30
0.0
 10
13.05182784069896
 20
25.8086816676394
 30
0.0
 10
13.06930451588749
 20
25.79706282581693
 30
0.0
 10
13.09355241467168
 20
25.75265705035272
 30
0.0
 10
13.09996413738391
 20
25.71975400624288
 30
0.0
 10
13.10003555457991
 20
25.6344344577325
 30
0.0
 10
13.09360869858516
 20
25.58073121692831
 30
0.0
 10
13.06953031995431
 20
25.45976651603278
 30
0.0
 10
13.05190366619463
 20
25.39187340765437
 30
0.0
 10
13.03000000000003
 20
25.31924243797493
 30
0.0
  0
SPLINE
  5
1D8
330
1F
100
AcDbEntity
  8
1
  6
SLD-Solid
370
    25
100
AcDbSpline
210
0.0
220
0.0
230
1.0
 70
     8
 71
     3
 72
    12
 73
     8
 74
     0
 42
0.000000001
 43
0.00000001
 40
0.0
 40
0.0
 40
0.0
 40
0.0
 40
0.2499999999999984
 40
0.2499999999999984
 40
0.4999999999999969
 40
0.4999999999999969
 40
1.0
 40
1.0
 40
1.0
 40
1.0
 10
12.28000000000001
 20
-26.98706356756882
 30
0.0
 10
12.37975762515879
 20
-26.98706356756884
 30
0.0
 10
12.48041217798164
 20
-27.00843624414832
 30
0.0
 10
12.66352022573503
 20
-27.08921384437031
 30
0.0
 10
12.74662210573629
 20
-27.14844080533419
 30
0.0
 10
12.95377706693951
 20
-27.36898351970361
 30
0.0
 10
13.03000000000001
 20
-27.5690278551815
 30
0.0
 10
13.03000000000003
 20
-27.76916635406971
 30
0.0
  0
SPLINE
  5
1D9
330
1F
100
AcDbEntity
  8
1
  6
SLD-Solid
370
    25
100
AcDbSpline
210
0.0
220
0.0
230
1.0
 70
     8
 71
     3
 72
    18
 73
    14
 74
     0
 42
0.000000001
 43
0.00000001
 40
0.0
 40
0.0
 40
0.0
 40
0.0
 40
0.0624999999999983
 40
0.0624999999999983
 40
0.1249999999999966
 40
0.1249999999999966
 40
0.2499999999999938
 40
0.2499999999999938
 40
0.4999999999999959
 40
0.4999999999999959
 40
0.7499999999999979
 40
0.7499999999999979
 40
1.0
 40
1.0
 40
1.0
 40
1.0
 10
13.03000000000129
 20
25.28882228478154
 30
0.0
 10
13.03000000000129
 20
25.258454228703
 30
0.0
 10
13.02749489038241
 20
25.22358442434114
 30
0.0
 10
13.01920268672324
 20
25.15482296737403
 30
0.0
 10
13.01359186101024
 20
25.12104898565181
 30
0.0
 10
12.99361738711201
 20
25.02074756626908
 30
0.0
 10
12.97668865169319
 20
24.95779435947976
 30
0.0
 10
12.91737158574276
 20
24.77496256517826
 30
0.0
 10
12.8656417710401
 20
24.66011878167448
 30
0.0
 10
12.74049543384749
 20
24.45045700081708
 30
0.0
 10
12.66639130892221
 20
24.35409856583109
 30
0.0
 10
12.49025684706098
 20
24.18769951882028
 30
0.0
 10
12.39180028213163
 20
24.1205459534406
 30
0.0
 10
12.28000000000129
 20
24.07805063523433
 30
0.0
  0
SPLINE
  5
1DA
330
1F
100
AcDbEntity
  8
1
  6
SLD-Solid
370
    25
100
AcDbSpline
210
0.0
220
0.0
230
1.0
 70
     8
 71
     3
 72
    14
 73
    10
 74
     0
 42
0.000000001
 43
0.00000001
 40
0.0
 40
0.0
 40
0.0
 40
0.0
 40
0.25
 40
0.25
 40
0.5
 40
0.5
 40
0.75
 40
0.75
 40
1.0
 40
1.0
 40
1.0
 40
1.0
 10
9.2
 20
-27.76916635406977
 30
0.0
 10
9.2
 20
-27.66854183645166
 30
0.0
 10
9.218753722673611
 20
-27.56842327754113
 30
0.0
 10
9.291517535812325
 20
-27.38167264562872
 30
0.0
 10
9.345885298656015
 20
-27.29482655372888
 30
0.0
 10
9.4827134536752
 20
-27.14914073715224
 30
0.0
 10
9.566479996683752
 20
-27.08925426891757
 30
0.0
 10
9.74908978763267
 20
-27.00861553826
 30
0.0
 10
9.849941180320524
 20
-26.98706356756864
 30
0.0
 10
9.950000000001264
 20
-26.98706356756881
 30
0.0
  0
SPLINE
  5
1DB
330
1F
100
AcDbEntity
  8
1
  6
SLD-Solid
370
    25
100
AcDbSpline
210
0.0
220
0.0
230
1.0
 70
     8
 71
     3
 72
    16
 73
    12
 74
     0
 42
0.000000001
 43
0.00000001
 40
0.0
 40
0.0
 40
0.0
 40
0.0
 40
0.2500000000000015
 40
0.2500000000000015
 40
0.500000000000003
 40
0.500000000000003
 40
0.7500000000000044
 40
0.7500000000000044
 40
0.8750000000000022
 40
0.8750000000000022
 40
1.0
 40
1.0
 40
1.0
 40
1.0
 10
9.950000000001264
 20
24.06685975304418
 30
0.0
 10
9.840493351282342
 20
24.10694414130934
 30
0.0
 10
9.742786160773468
 20
24.17117631338135
 30
0.0
 10
9.56784038259069
 20
24.33096083631468
 30
0.0
 10
9.493988254028544
 20
24.42340952890753
 30
0.0
 10
9.36711504935102
 20
24.62793394074499
 30
0.0
 10
9.314523965070098
 20
24.73961559875877
 30
0.0
 10
9.253446937619689
 20
24.91971397324644
 30
0.0
 10
9.235893303124618
 20
24.98231479864245
 30
0.0
 10
9.209102989073681
 20
25.11253703191866
 30
0.0
 10
9.200000000001276
 20
25.18114365477764
 30
0.0
 10
9.200000000001276
 20
25.24012107693846
 30
0.0
  0
SPLINE
  5
1DC
330
1F
100
AcDbEntity
  8
1
  6
SLD-Solid
370
    25
100
AcDbSpline
210
0.0
220
0.0
230
1.0
 70
     8
 71
     3
 72
    12
 73
     8
 74
     0
 42
0.000000001
 43
0.00000001
 40
0.0
 40
0.0
 40
0.0
 40
0.0
 40
0.25
 40
0.25
 40
0.5
 40
0.5
 40
1.0
 40
1.0
 40
1.0
 40
1.0
 10
12.28000000000129
 20
24.07805063523433
 30
0.0
 10
12.11125565653913
 20
24.01391086354243
 30
0.0
 10
11.92801760594737
 20
23.96418277266271
 30
0.0
 10
11.53284005751316
 20
23.89473625632986
 30
0.0
 10
11.3277419038663
 20
23.87652150272299
 30
0.0
 10
10.70517895587215
 20
23.87317080568451
 30
0.0
 10
10.29199014189997
 20
23.9416758871229
 30
0.0
 10
9.950000000001264
 20
24.06685975304418
 30
0.0
  0
SPLINE
  5
1DD
330
1F
100
AcDbEntity
  8
1
  6
SLD-Solid
370
    25
100
AcDbSpline
210
0.0
220
0.0
230
1.0
 70
     8
 71
     3
 72
    16
 73
    12
 74
     0
 42
0.000000001
 43
0.00000001
 40
0.0
 40
0.0
 40
0.0
 40
0.0
 40
0.125
 40
0.125
 40
0.25
 40
0.25
 40
0.5
 40
0.5
 40
0.75
 40
0.75
 40
1.0
 40
1.0
 40
1.0
 40
1.0
 10
9.199999999999992
 20
25.82649087091905
 30
0.0
 10
9.200000000000005
 20
25.7670445352822
 30
0.0
 10
9.209309779240218
 20
25.72460913603001
 30
0.0
 10
9.23628553908994
 20
25.66309575968362
 30
0.0
 10
9.253818395994072
 20
25.64221451078864
 30
0.0
 10
9.314732612350847
 20
25.59089236418539
 30
0.0
 10
9.367586350542457
 20
25.5716263880416
 30
0.0
 10
9.493923269647572
 20
25.54782523997985
 30
0.0
 10
9.568606186754762
 20
25.5438020492668
 30
0.0
 10
9.743190718990315
 20
25.55566084202214
 30
0.0
 10
9.84026049222728
 20
25.57101227172015
 30
0.0
 10
9.94999999999999
 20
25.603258790376
 30
0.0
  0
SPLINE
  5
1DE
330
1F
100
AcDbEntity
  8
1
  6
SLD-Solid
370
    25
100
AcDbSpline
210
0.0
220
0.0
230
1.0
 70
     8
 71
     3
 72
    12
 73
     8
 74
     0
 42
0.000000001
 43
0.00000001
 40
0.0
 40
0.0
 40
0.0
 40
0.0
 40
0.2499999999999994
 40
0.2499999999999994
 40
0.4999999999999989
 40
0.4999999999999989
 40
1.0
 40
1.0
 40
1.0
 40
1.0
 10
9.94999999999999
 20
25.603258790376
 30
0.0
 10
10.12099348269381
 20
25.65350454636332
 30
0.0
 10
10.30594493731546
 20
25.69087007490119
 30
0.0
 10
10.70348914958046
 20
25.74162454002531
 30
0.0
 10
10.90918343641381
 20
25.7539131306725
 30
0.0
 10
11.5317621494304
 20
25.75179790476192
 30
0.0
 10
11.942508931358
 20
25.69754140003429
 30
0.0
 10
12.28000000000002
 20
25.59426208810601
 30
0.0
  0
SPLINE
  5
1DF
330
1F
100
AcDbEntity
  8
1
  6
SLD-Solid
370
    25
100
AcDbSpline
210
0.0
220
0.0
230
1.0
 70
     8
 71
     3
 72
    18
 73
    14
 74
     0
 42
0.000000001
 43
0.00000001
 40
0.0
 40
0.0
 40
0.0
 40
0.0
 40
0.2500000000000006
 40
0.2500000000000006
 40
0.5000000000000012
 40
0.5000000000000012
 40
0.7500000000000018
 40
0.7500000000000018
 40
0.8750000000000021
 40
0.8750000000000021
 40
0.9375000000000011
 40
0.9375000000000011
 40
1.0
 40
1.0
 40
1.0
 40
1.0
 10
12.28000000000001
 20
25.59426208810601
 30
0.0
 10
12.39154339480307
 20
25.56012748089476
 30
0.0
 10
12.49076613158667
 20
25.54318981789734
 30
0.0
 10
12.66653346245912
 20
25.52816909760164
 30
0.0
 10
12.74028542340615
 20
25.53041158029684
 30
0.0
 10
12.86605076853518
 20
25.54934151941307
 30
0.0
 10
12.91749996660363
 20
25.56531541934164
 30
0.0
 10
12.97688531868164
 20
25.6090846994035
 30
0.0
 10
12.9939490598649
 20
25.62703563897608
 30
0.0
 10
13.01360803438728
 20
25.66754728332326
 30
0.0
 10
13.01926149413285
 20
25.68358803034141
 30
0.0
 10
13.02752275857844
 20
25.72506394381625
 30
0.0
 10
13.03000000000001
 20
25.75103822857545
 30
0.0
 10
13.03000000000001
 20
25.78129773037291
 30
0.0
  0
SPLINE
  5
1E0
330
1F
100
AcDbEntity
  8
1
  6
SLD-Solid
370
    25
100
AcDbSpline
210
0.0
220
0.0
230
1.0
 70
     8
 71
     3
 72
    12
 73
     8
 74
     0
 42
0.000000001
 43
0.00000001
 40
0.0
 40
0.0
 40
0.0
 40
0.0
 40
0.2499999999999991
 40
0.2499999999999991
 40
0.4999999999999982
 40
0.4999999999999982
 40
1.0
 40
1.0
 40
1.0
 40
1.0
 10
9.2
 20
27.76916635406975
 30
0.0
 10
9.2
 20
27.66809333683725
 30
0.0
 10
9.218583298377242
 20
27.5689264133913
 30
0.0
 10
9.291549937975777
 20
27.38152387214674
 30
0.0
 10
9.34549688093282
 20
27.29531750692793
 30
0.0
 10
9.55107104167538
 20
27.07620366276164
 30
0.0
 10
9.748220416740102
 20
26.9870635675688
 30
0.0
 10
9.949999999999987
 20
26.98706356756881
 30
0.0
  0
SPLINE
  5
1E1
330
1F
100
AcDbEntity
  8
1
  6
SLD-Solid
370
    25
100
AcDbSpline
210
0.0
220
0.0
230
1.0
 70
     8
 71
     3
 72
    14
 73
    10
 74
     0
 42
0.000000001
 43
0.00000001
 40
0.0
 40
0.0
 40
0.0
 40
0.0
 40
0.25
 40
0.25
 40
0.5
 40
0.5
 40
0.75
 40
0.75
 40
1.0
 40
1.0
 40
1.0
 40
1.0
 10
12.28000000000001
 20
26.98706356756881
 30
0.0
 10
12.38041018140387
 20
26.9870635675688
 30
0.0
 10
12.48007417771602
 20
27.00821121867972
 30
0.0
 10
12.66478364882751
 20
27.08984749877595
 30
0.0
 10
12.74772062670422
 20
27.1494985263265
 30
0.0
 10
12.88443521562223
 20
27.29527278596964
 30
0.0
 10
12.93853405055465
 20
27.38169791130529
 30
0.0
 10
13.01142030969678
 20
27.56897740148012
 30
0.0
 10
13.03000000000001
 20
27.66812420510653
 30
0.0
 10
13.03000000000001
 20
27.76916635406975
 30
0.0
  0
SPLINE
  5
1E2
330
1F
100
AcDbEntity
  8
SK3
  6
SLD-Dashed
370
    18
100
AcDbSpline
210
0.0
220
0.0
230
1.0
 70
     8
 71
     3
 72
    30
 73
    26
 74
     0
 42
0.000000001
 43
0.00000001
 40
0.4999999999999971
 40
0.4999999999999971
 40
0.4999999999999971
 40
0.4999999999999971
 40
0.5624999999999977
 40
0.5624999999999977
 40
0.6249999999999981
 40
0.6249999999999981
 40
0.6562499999999984
 40
0.6562499999999984
 40
0.6874999999999987
 40
0.6874999999999987
 40
0.718749999999999
 40
0.718749999999999
 40
0.7499999999999992
 40
0.7499999999999992
 40
0.7812499999999994
 40
0.7812499999999994
 40
0.8124999999999998
 40
0.8124999999999998
 40
0.8749999999999998
 40
0.8749999999999998
 40
0.9374999999999999
 40
0.9374999999999999
 40
0.96875
 40
0.96875
 40
1.0
 40
1.0
 40
1.0
 40
1.0
 10
11.75479658556575
 20
-4.901433547105927
 30
0.0
 10
11.89746294966132
 20
-4.886411197664715
 30
0.0
 10
12.02884136644408
 20
-4.886974229786196
 30
0.0
 10
12.27243240561785
 20
-4.932317536304451
 30
0.0
 10
12.38574037094359
 20
-4.975421209748234
 30
0.0
 10
12.53947570845301
 20
-5.103559339222876
 30
0.0
 10
12.58638543677659
 20
-5.156028957061215
 30
0.0
 10
12.66795201157342
 20
-5.291134993494217
 30
0.0
 10
12.70317196931762
 20
-5.375974586482826
 30
0.0
 10
12.74713654526595
 20
-5.58286198491411
 30
0.0
 10
12.75526091463636
 20
-5.705696917838728
 30
0.0
 10
12.73739776164137
 20
-5.968523156861124
 30
0.0
 10
12.71224833739216
 20
-6.103419156624206
 30
0.0
 10
12.64408666407788
 20
-6.357264662683475
 30
0.0
 10
12.60068164729126
 20
-6.478993458595601
 30
0.0
 10
12.50600924552238
 20
-6.704610974826196
 30
0.0
 10
12.45441331137413
 20
-6.80972766832098
 30
0.0
 10
12.28990621332258
 20
-7.109437894498881
 30
0.0
 10
12.17017846713216
 20
-7.284103436407848
 30
0.0
 10
11.91483731616863
 20
-7.597298819669207
 30
0.0
 10
11.77767665531765
 20
-7.737818016165229
 30
0.0
 10
11.5495115897996
 20
-7.918374112026491
 30
0.0
 10
11.46985276967112
 20
-7.973291374430629
 30
0.0
 10
11.29758630900469
 20
-8.069225810891218
 30
0.0
 10
11.20406269051034
 20
-8.110848935776536
 30
0.0
 10
11.1
 20
-8.13967039360795
 30
0.0
  0
SPLINE
  5
1E3
330
1F
100
AcDbEntity
  8
SK3
  6
SLD-Dashed
370
    18
100
AcDbSpline
210
0.0
220
0.0
230
1.0
 70
     8
 71
     3
 72
    34
 73
    30
 74
     0
 42
0.000000001
 43
0.00000001
 40
0.0
 40
0.0
 40
0.0
 40
0.0
 40
0.0312499999999996
 40
0.0312499999999996
 40
0.0624999999999992
 40
0.0624999999999992
 40
0.0937499999999988
 40
0.0937499999999988
 40
0.1249999999999985
 40
0.1249999999999985
 40
0.1562499999999982
 40
0.1562499999999982
 40
0.1874999999999979
 40
0.1874999999999979
 40
0.2499999999999979
 40
0.2499999999999979
 40
0.3124999999999978
 40
0.3124999999999978
 40
0.3437499999999977
 40
0.3437499999999977
 40
0.3749999999999976
 40
0.3749999999999976
 40
0.4062499999999975
 40
0.4062499999999975
 40
0.4374999999999973
 40
0.4374999999999973
 40
0.4687499999999972
 40
0.4687499999999972
 40
0.4999999999999971
 40
0.4999999999999971
 40
0.4999999999999971
 40
0.4999999999999971
 10
11.1
 20
-8.13967039360795
 30
0.0
 10
10.99593730948965
 20
-8.16849185143937
 30
0.0
 10
10.88327240143053
 20
-8.183619230956749
 30
0.0
 10
10.64024603173769
 20
-8.169996197171649
 30
0.0
 10
10.51600003630448
 20
-8.140993061765103
 30
0.0
 10
10.2754047263383
 20
-8.04151180398864
 30
0.0
 10
10.16352991293558
 20
-7.973785811074563
 30
0.0
 10
9.956641719228346
 20
-7.808864907520293
 30
0.0
 10
9.86514021175608
 20
-7.714409980823931
 30
0.0
 10
9.705479632928782
 20
-7.505675203818753
 30
0.0
 10
9.638640231842258
 20
-7.392601974747763
 30
0.0
 10
9.534145986449444
 20
-7.157373188583897
 30
0.0
 10
9.495668589618186
 20
-7.032517635178815
 30
0.0
 10
9.429144226770047
 20
-6.659799668562692
 30
0.0
 10
9.448570934642728
 20
-6.405979053005117
 30
0.0
 10
9.610438460184723
 20
-5.948466648519227
 30
0.0
 10
9.752910053168169
 20
-5.744009981362489
 30
0.0
 10
10.03367356462019
 20
-5.497500536354741
 30
0.0
 10
10.1372293865233
 20
-5.425546956212904
 30
0.0
 10
10.36592358660668
 20
-5.297018553104087
 30
0.0
 10
10.48785945052917
 20
-5.242562856658084
 30
0.0
 10
10.73642302172964
 20
-5.147912691227149
 30
0.0
 10
10.85648365715394
 20
-5.109640819744184
 30
0.0
 10
11.08061189675417
 20
-5.043111325123112
 30
0.0
 10
11.18022385975342
 20
-5.016231192190864
 30
0.0
 10
11.36576798793607
 20
-4.969815472118951
 30
0.0
 10
11.45055694339849
 20
-4.950785033120374
 30
0.0
 10
11.60916091896928
 20
-4.920394395500225
 30
0.0
 10
11.68346340351795
 20
-4.908944721826535
 30
0.0
 10
11.75479658556575
 20
-4.901433547105927
 30
0.0
  0
SPLINE
  5
1E4
330
1F
100
AcDbEntity
  8
SK3
  6
SLD-Dashed
370
    18
100
AcDbSpline
210
0.0
220
0.0
230
1.0
 70
     8
 71
     3
 72
    30
 73
    26
 74
     0
 42
0.000000001
 43
0.00000001
 40
0.4999999999999977
 40
0.4999999999999977
 40
0.4999999999999977
 40
0.4999999999999977
 40
0.5312499999999977
 40
0.5312499999999977
 40
0.5624999999999976
 40
0.5624999999999976
 40
0.6249999999999976
 40
0.6249999999999976
 40
0.6874999999999974
 40
0.6874999999999974
 40
0.7187499999999977
 40
0.7187499999999977
 40
0.7499999999999978
 40
0.7499999999999978
 40
0.781249999999998
 40
0.781249999999998
 40
0.8124999999999982
 40
0.8124999999999982
 40
0.8437499999999984
 40
0.8437499999999984
 40
0.8749999999999986
 40
0.8749999999999986
 40
0.9374999999999993
 40
0.9374999999999993
 40
1.0
 40
1.0
 40
1.0
 40
1.0
 10
9.52842029993542
 20
-8.783318638987494
 30
0.0
 10
9.563561233735419
 20
-8.863935054853208
 30
0.0
 10
9.607627266507032
 20
-8.927948620428346
 30
0.0
 10
9.70302702424504
 20
-9.029913156802374
 30
0.0
 10
9.7551658595878
 20
-9.069013533844469
 30
0.0
 10
9.920727180931468
 20
-9.161365608196967
 30
0.0
 10
10.03962982796815
 20
-9.189146893658652
 30
0.0
 10
10.29581948707685
 20
-9.207761129461597
 30
0.0
 10
10.43340974433161
 20
-9.197532970852969
 30
0.0
 10
10.66277322328792
 20
-9.159887465694744
 30
0.0
 10
10.74371097916554
 20
-9.143480319022103
 30
0.0
 10
10.91864535127572
 20
-9.102894413631473
 30
0.0
 10
11.01198337642655
 20
-9.079005870686098
 30
0.0
 10
11.22104536410176
 20
-9.020599106716375
 30
0.0
 10
11.33557343779477
 20
-8.98660471216862
 30
0.0
 10
11.57980302461464
 20
-8.902979810871834
 30
0.0
 10
11.70445599477361
 20
-8.854609275012848
 30
0.0
 10
11.94450363931204
 20
-8.738302937094138
 30
0.0
 10
12.05531700587899
 20
-8.672727087611996
 30
0.0
 10
12.25922745067754
 20
-8.520325596843577
 30
0.0
 10
12.35002701179844
 20
-8.435036721266158
 30
0.0
 10
12.58459907667486
 20
-8.152304640047163
 30
0.0
 10
12.6894417703268
 20
-7.926948099339554
 30
0.0
 10
12.77109851062197
 20
-7.442912699127668
 30
0.0
 10
12.74820534245739
 20
-7.186173862784501
 30
0.0
 10
12.66230763443391
 20
-6.940889607535659
 30
0.0
  0
SPLINE
  5
1E5
330
1F
100
AcDbEntity
  8
SK3
  6
SLD-Dashed
370
    18
100
AcDbSpline
210
0.0
220
0.0
230
1.0
 70
     8
 71
     3
 72
    34
 73
    30
 74
     0
 42
0.000000001
 43
0.00000001
 40
0.0
 40
0.0
 40
0.0
 40
0.0
 40
0.0312499999999997
 40
0.0312499999999997
 40
0.0624999999999995
 40
0.0624999999999995
 40
0.0937499999999992
 40
0.0937499999999992
 40
0.124999999999999
 40
0.124999999999999
 40
0.1562499999999987
 40
0.1562499999999987
 40
0.1874999999999984
 40
0.1874999999999984
 40
0.2499999999999982
 40
0.2499999999999982
 40
0.3124999999999979
 40
0.3124999999999979
 40
0.3437499999999978
 40
0.3437499999999978
 40
0.3749999999999978
 40
0.3749999999999978
 40
0.4062499999999978
 40
0.4062499999999978
 40
0.4374999999999977
 40
0.4374999999999977
 40
0.4687499999999977
 40
0.4687499999999977
 40
0.4999999999999977
 40
0.4999999999999977
 40
0.4999999999999977
 40
0.4999999999999977
 10
12.66230763443389
 20
-6.940889607535663
 30
0.0
 10
12.61935878042216
 20
-6.818247479911245
 30
0.0
 10
12.56229529856066
 20
-6.702062405426243
 30
0.0
 10
12.42103808962698
 20
-6.48298001646349
 30
0.0
 10
12.33595491427449
 20
-6.379752337446507
 30
0.0
 10
12.1461818639777
 20
-6.199831764960525
 30
0.0
 10
12.0392257963649
 20
-6.12067358722531
 30
0.0
 10
11.80824491388434
 20
-5.996443405511926
 30
0.0
 10
11.68389439480549
 20
-5.951950953011098
 30
0.0
 10
11.43804455248934
 20
-5.908952419297817
 30
0.0
 10
11.31731684279021
 20
-5.910654595408949
 30
0.0
 10
11.09745426351666
 20
-5.948127988753962
 30
0.0
 10
10.99815393168724
 20
-5.982607853079424
 30
0.0
 10
10.72267466537657
 20
-6.111713360853581
 30
0.0
 10
10.5718917600473
 20
-6.227019438453236
 30
0.0
 10
10.28857248622242
 20
-6.491284498769511
 30
0.0
 10
10.15786476490367
 20
-6.642104569644411
 30
0.0
 10
9.976005005593564
 20
-6.893749929925867
 30
0.0
 10
9.917635222666227
 20
-6.982205125338793
 30
0.0
 10
9.805404805610374
 20
-7.170924693447027
 30
0.0
 10
9.751060353100568
 20
-7.272111003090564
 30
0.0
 10
9.650448853514279
 20
-7.486812522722701
 30
0.0
 10
9.604326797725646
 20
-7.599530214338821
 30
0.0
 10
9.52438853672935
 20
-7.841923064473691
 30
0.0
 10
9.490665766297285
 20
-7.972450285447928
 30
0.0
 10
9.450224495380091
 20
-8.237810978297466
 30
0.0
 10
9.444739461343568
 20
-8.369898596775064
 30
0.0
 10
9.466585255233792
 20
-8.60287167037417
 30
0.0
 10
9.493279366135434
 20
-8.702702223121774
 30
0.0
 10
9.52842029993542
 20
-8.783318638987494
 30
0.0
  0
SPLINE
  5
1E6
330
1F
100
AcDbEntity
  8
SK3
  6
SLD-Dashed
370
    18
100
AcDbSpline
210
0.0
220
0.0
230
1.0
 70
    24
 71
     2
 72
     6
 73
     3
 74
     0
 42
0.000000001
 43
0.00000001
 40
0.0
 40
0.0
 40
0.0
 40
0.25
 40
0.25
 40
0.25
 10
19.05000000000001
 20
-22.41000000000001
 30
0.0
 10
19.07015277314328
 20
-22.41000000000001
 30
0.0
 10
19.0869836881188
 20
-22.41000000000001
 30
0.0
  0
SPLINE
  5
1E7
330
1F
100
AcDbEntity
  8
SK3
  6
SLD-Dashed
370
    18
100
AcDbSpline
210
0.0
220
0.0
230
1.0
 70
    24
 71
     3
 72
     8
 73
     4
 74
     0
 42
0.000000001
 43
0.00000001
 40
0.25
 40
0.25
 40
0.25
 40
0.25
 40
0.5
 40
0.5
 40
0.5
 40
0.5
 10
19.0869836881188
 20
-22.41000000000001
 30
0.0
 10
19.10381460309429
 20
-22.41000000000001
 30
0.0
 10
19.11701807002067
 20
-22.41000000000001
 30
0.0
 10
19.11750445966984
 20
-22.41000000000001
 30
0.0
  0
SPLINE
  5
1E8
330
1F
100
AcDbEntity
  8
SK3
  6
SLD-Dashed
370
    18
100
AcDbSpline
210
0.0
220
0.0
230
1.0
 70
    24
 71
     3
 72
     8
 73
     4
 74
     0
 42
0.000000001
 43
0.00000001
 40
0.53125
 40
0.53125
 40
0.53125
 40
0.53125
 40
0.5625
 40
0.5625
 40
0.5625
 40
0.5625
 10
19.11714184495215
 20
-22.41000000000001
 30
0.0
 10
19.11683758607523
 20
-22.41000000000001
 30
0.0
 10
19.11635023985909
 20
-22.41000000000001
 30
0.0
 10
19.11568619365298
 20
-22.41000000000001
 30
0.0
  0
SPLINE
  5
1E9
330
1F
100
AcDbEntity
  8
SK3
  6
SLD-Dashed
370
    18
100
AcDbSpline
210
0.0
220
0.0
230
1.0
 70
    24
 71
     3
 72
     8
 73
     4
 74
     0
 42
0.000000001
 43
0.00000001
 40
0.5625
 40
0.5625
 40
0.5625
 40
0.5625
 40
0.625
 40
0.625
 40
0.625
 40
0.625
 10
19.11568619365298
 20
-22.41000000000001
 30
0.0
 10
19.11435810124072
 20
-22.41000000000001
 30
0.0
 10
19.11231858327223
 20
-22.41000000000001
 30
0.0
 10
19.10967521887331
 20
-22.41000000000001
 30
0.0
  0
SPLINE
  5
1EA
330
1F
100
AcDbEntity
  8
SK3
  6
SLD-Dashed
370
    18
100
AcDbSpline
210
0.0
220
0.0
230
1.0
 70
    24
 71
     3
 72
     8
 73
     4
 74
     0
 42
0.000000001
 43
0.00000001
 40
0.625
 40
0.625
 40
0.625
 40
0.625
 40
0.75
 40
0.75
 40
0.75
 40
0.75
 10
19.10967521887331
 20
-22.41000000000001
 30
0.0
 10
19.10438849007549
 20
-22.41000000000001
 30
0.0
 10
19.09662041128325
 20
-22.41000000000001
 30
0.0
 10
19.08807760357605
 20
-22.41000000000001
 30
0.0
  0
SPLINE
  5
1EB
330
1F
100
AcDbEntity
  8
SK3
  6
SLD-Dashed
370
    18
100
AcDbSpline
210
0.0
220
0.0
230
1.0
 70
    24
 71
     2
 72
     6
 73
     3
 74
     0
 42
0.000000001
 43
0.00000001
 40
0.75
 40
0.75
 40
0.75
 40
1.0
 40
1.0
 40
1.0
 10
19.08807760357605
 20
-22.41000000000001
 30
0.0
 10
19.07099198816166
 20
-22.41000000000001
 30
0.0
 10
19.05000000000001
 20
-22.41000000000001
 30
0.0
  0
SPLINE
  5
1EC
330
1F
100
AcDbEntity
  8
1
  6
SLD-Dashed
370
    18
100
AcDbSpline
210
0.0
220
0.0
230
1.0
 70
    24
 71
     2
 72
     6
 73
     3
 74
     0
 42
0.000000001
 43
0.00000001
 40
0.0
 40
0.0
 40
0.0
 40
0.25
 40
0.25
 40
0.25
 10
3.200000000000008
 20
-22.41000000000004
 30
0.0
 10
3.17040699581661
 20
-22.41000000000003
 30
0.0
 10
3.14448132470381
 20
-22.41000000000001
 30
0.0
  0
SPLINE
  5
1ED
330
1F
100
AcDbEntity
  8
1
  6
SLD-Dashed
370
    18
100
AcDbSpline
210
0.0
220
0.0
230
1.0
 70
    24
 71
     3
 72
     8
 73
     4
 74
     0
 42
0.000000001
 43
0.00000001
 40
0.25
 40
0.25
 40
0.25
 40
0.25
 40
0.5
 40
0.5
 40
0.5
 40
0.5
 10
3.14448132470381
 20
-22.41000000000001
 30
0.0
 10
3.118555653590996
 20
-22.41000000000001
 30
0.0
 10
3.097084490555638
 20
-22.41000000000001
 30
0.0
 10
3.096615422637519
 20
-22.41000000000001
 30
0.0
  0
SPLINE
  5
1EE
330
1F
100
AcDbEntity
  8
1
  6
SLD-Dashed
370
    18
100
AcDbSpline
210
0.0
220
0.0
230
1.0
 70
    24
 71
     3
 72
     8
 73
     4
 74
     0
 42
0.000000001
 43
0.00000001
 40
0.5
 40
0.5
 40
0.5
 40
0.5
 40
0.5625
 40
0.5625
 40
0.5625
 40
0.5625
 10
3.096615422637519
 20
-22.41000000000001
 30
0.0
 10
3.096498155657976
 20
-22.41000000000001
 30
0.0
 10
3.097576707176336
 20
-22.41000000000001
 30
0.0
 10
3.099789717980528
 20
-22.41000000000001
 30
0.0
  0
SPLINE
  5
1EF
330
1F
100
AcDbEntity
  8
1
  6
SLD-Dashed
370
    18
100
AcDbSpline
210
0.0
220
0.0
230
1.0
 70
    24
 71
     3
 72
     8
 73
     4
 74
     0
 42
0.000000001
 43
0.00000001
 40
0.5625
 40
0.5625
 40
0.5625
 40
0.5625
 40
0.625
 40
0.625
 40
0.625
 40
0.625
 10
3.099789717980528
 20
-22.41000000000001
 30
0.0
 10
3.102002728784719
 20
-22.41000000000001
 30
0.0
 10
3.10534590857034
 20
-22.41000000000001
 30
0.0
 10
3.109607407038015
 20
-22.41000000000001
 30
0.0
  0
SPLINE
  5
1F0
330
1F
100
AcDbEntity
  8
1
  6
SLD-Dashed
370
    18
100
AcDbSpline
210
0.0
220
0.0
230
1.0
 70
    24
 71
     3
 72
     8
 73
     4
 74
     0
 42
0.000000001
 43
0.00000001
 40
0.625
 40
0.625
 40
0.625
 40
0.625
 40
0.75
 40
0.75
 40
0.75
 40
0.75
 10
3.109607407038015
 20
-22.41000000000001
 30
0.0
 10
3.118130403973393
 20
-22.41000000000001
 30
0.0
 10
3.130398007648125
 20
-22.41000000000001
 30
0.0
 10
3.143490990967584
 20
-22.41000000000001
 30
0.0
  0
SPLINE
  5
1F1
330
1F
100
AcDbEntity
  8
1
  6
SLD-Dashed
370
    18
100
AcDbSpline
210
0.0
220
0.0
230
1.0
 70
    24
 71
     2
 72
     6
 73
     3
 74
     0
 42
0.000000001
 43
0.00000001
 40
0.75
 40
0.75
 40
0.75
 40
1.0
 40
1.0
 40
1.0
 10
3.143490990967584
 20
-22.41000000000001
 30
0.0
 10
3.169676957606518
 20
-22.41000000000003
 30
0.0
 10
3.200000000000008
 20
-22.41000000000004
 30
0.0
  0
SPLINE
  5
1F2
330
1F
100
AcDbEntity
  8
1
  6
SLD-Dashed
370
    18
100
AcDbSpline
210
0.0
220
0.0
230
1.0
 70
     8
 71
     3
 72
    28
 73
    24
 74
     0
 42
0.000000001
 43
0.00000001
 40
0.0
 40
0.0
 40
0.0
 40
0.0
 40
0.0454546468656082
 40
0.0907203488447979
 40
0.1372323440499172
 40
0.1838515626665606
 40
0.2316458311069842
 40
0.2817974410284687
 40
0.3331966082643161
 40
0.3874102829785973
 40
0.4430450518639111
 40
0.500045344627099
 40
0.500050419658524
 40
0.5574374372310251
 40
0.5586458938173937
 40
0.6165166502849091
 40
0.6761127559362624
 40
0.7330482089328796
 40
0.7918271171863588
 40
0.8454944059244429
 40
0.9010256435165036
 40
0.9499607856448988
 40
1.0
 40
1.0
 40
1.0
 40
1.0
 10
50.16949836409739
 20
-19.99826604182564
 30
0.0
 10
50.15609975501957
 20
-19.99395685462586
 30
0.0
 10
50.12935823191041
 20
-19.98535639256183
 30
0.0
 10
49.87562559488138
 20
-19.90562641723687
 30
0.0
 10
49.47910652201649
 20
-19.7867199870597
 30
0.0
 10
48.92570204955156
 20
-19.63214936582533
 30
0.0
 10
48.22552301590883
 20
-19.45560760695375
 30
0.0
 10
47.38003546904638
 20
-19.2706201732532
 30
0.0
 10
46.39161629412301
 20
-19.09431908585396
 30
0.0
 10
45.28024933510056
 20
-18.94460975260218
 30
0.0
 10
44.06817320913697
 20
-18.85163975076244
 30
0.0
 10
43.22395737680932
 20
-18.81074332202753
 30
0.0
 10
42.37351272488321
 20
-18.83479574013646
 30
0.0
 10
41.93793735999382
 20
-18.84733082156801
 30
0.0
 10
41.07189277120653
 20
-18.87137084363727
 30
0.0
 10
40.21622953016649
 20
-18.96169460087426
 30
0.0
 10
39.02103000906661
 20
-19.12089722536427
 30
0.0
 10
37.9338090524363
 20
-19.32832727949278
 30
0.0
 10
37.02407458470719
 20
-19.53990538927967
 30
0.0
 10
36.29231742410465
 20
-19.73668036350492
 30
0.0
 10
35.79130481645156
 20
-19.88483853012274
 30
0.0
 10
35.48143354317317
 20
-19.98187464548357
 30
0.0
 10
35.44466585865356
 20
-19.99369551141462
 30
0.0
 10
35.42607694216667
 20
-19.99967187605292
 30
0.0
  0
SPLINE
  5
1F3
330
1F
100
AcDbEntity
  8
1
  6
SLD-Dashed
370
    18
100
AcDbSpline
210
0.0
220
0.0
230
1.0
 70
     8
 71
     3
 72
    28
 73
    24
 74
     0
 42
0.000000001
 43
0.00000001
 40
0.0
 40
0.0
 40
0.0
 40
0.0
 40
0.0454546468656081
 40
0.0907203488447979
 40
0.1372323440499171
 40
0.1838515626665603
 40
0.2316458311069838
 40
0.2817974410284684
 40
0.3331966082643161
 40
0.3874102829785969
 40
0.4430450518639098
 40
0.500045344627098
 40
0.5000504196585265
 40
0.5574374372310238
 40
0.558645893817393
 40
0.6165166502849083
 40
0.6761127559362619
 40
0.7330482089328795
 40
0.7918271171863586
 40
0.8454944059244427
 40
0.9010256435165037
 40
0.949960785644899
 40
1.0
 40
1.0
 40
1.0
 40
1.0
 10
72.5694983640974
 20
-19.99826604182564
 30
0.0
 10
72.55609975501959
 20
-19.99395685462586
 30
0.0
 10
72.5293582319104
 20
-19.98535639256183
 30
0.0
 10
72.2756255948814
 20
-19.90562641723688
 30
0.0
 10
71.87910652201646
 20
-19.78671998705969
 30
0.0
 10
71.32570204955161
 20
-19.63214936582535
 30
0.0
 10
70.62552301590883
 20
-19.45560760695372
 30
0.0
 10
69.78003546904662
 20
-19.27062017325335
 30
0.0
 10
68.79161629412219
 20
-19.09431908585337
 30
0.0
 10
67.68024933510405
 20
-18.94460975260453
 30
0.0
 10
66.46817320912365
 20
-18.85163975075335
 30
0.0
 10
65.62395737683876
 20
-18.81074332204764
 30
0.0
 10
64.77351272485363
 20
-18.83479574011621
 30
0.0
 10
64.33793735999424
 20
-18.84733082156829
 30
0.0
 10
63.4718927712061
 20
-18.87137084363699
 30
0.0
 10
62.61622953016674
 20
-18.96169460087438
 30
0.0
 10
61.42103000906657
 20
-19.12089722536424
 30
0.0
 10
60.33380905243635
 20
-19.32832727949279
 30
0.0
 10
59.42407458470719
 20
-19.53990538927967
 30
0.0
 10
58.69231742410467
 20
-19.73668036350492
 30
0.0
 10
58.19130481645152
 20
-19.88483853012274
 30
0.0
 10
57.88143354317315
 20
-19.98187464548358
 30
0.0
 10
57.84466585865356
 20
-19.99369551141462
 30
0.0
 10
57.82607694216665
 20
-19.99967187605292
 30
0.0
  0
SPLINE
  5
1F4
330
1F
100
AcDbEntity
  8
SK3
  6
SLD-Dashed
370
    18
100
AcDbSpline
210
0.0
220
0.0
230
1.0
 70
     8
 71
     3
 72
    30
 73
    26
 74
     0
 42
0.000000001
 43
0.00000001
 40
0.5000000000000008
 40
0.5000000000000008
 40
0.5000000000000008
 40
0.5000000000000008
 40
0.5625000000000009
 40
0.5625000000000009
 40
0.5937500000000009
 40
0.5937500000000009
 40
0.6250000000000009
 40
0.6250000000000009
 40
0.6562500000000009
 40
0.6562500000000009
 40
0.6875000000000009
 40
0.6875000000000009
 40
0.7500000000000008
 40
0.7500000000000008
 40
0.7812500000000008
 40
0.7812500000000008
 40
0.8125000000000008
 40
0.8125000000000008
 40
0.8750000000000004
 40
0.8750000000000004
 40
0.9375000000000002
 40
0.9375000000000002
 40
0.9687500000000001
 40
0.9687500000000001
 40
1.0
 40
1.0
 40
1.0
 40
1.0
 10
11.10070155322193
 20
-0.6867806446436281
 30
0.0
 10
10.88487328526097
 20
-0.686686495301167
 30
0.0
 10
10.66695993667191
 20
-0.7314091515492442
 30
0.0
 10
10.36883069489548
 20
-0.8573324036223705
 30
0.0
 10
10.27232660505549
 20
-0.9097769735048402
 30
0.0
 10
10.09316301813305
 20
-1.030880210906793
 30
0.0
 10
10.01035801314715
 20
-1.099273863572378
 30
0.0
 10
9.85809200026895
 20
-1.25126128063156
 30
0.0
 10
9.788700375084932
 20
-1.33521589100723
 30
0.0
 10
9.669334047265776
 20
-1.511088629166785
 30
0.0
 10
9.618452284373927
 20
-1.60379775025099
 30
0.0
 10
9.493171541254702
 20
-1.896347059398756
 30
0.0
 10
9.45011760256094
 20
-2.10192473159683
 30
0.0
 10
9.44994155834733
 20
-2.408808799904349
 30
0.0
 10
9.460551032657124
 20
-2.508823236901839
 30
0.0
 10
9.502621940844946
 20
-2.704498007569875
 30
0.0
 10
9.53460621752955
 20
-2.800878416574833
 30
0.0
 10
9.658478333209805
 20
-3.071908588173949
 30
0.0
 10
9.781198670787736
 20
-3.23500633722695
 30
0.0
 10
10.08392744642476
 20
-3.501633981244944
 30
0.0
 10
10.26708339298825
 20
-3.607940944973846
 30
0.0
 10
10.56490438050341
 20
-3.714664125739026
 30
0.0
 10
10.66997524794502
 20
-3.742182811963965
 30
0.0
 10
10.88266147594884
 20
-3.77857121400858
 30
0.0
 10
10.99054595855785
 20
-3.787766140220156
 30
0.0
 10
11.10000000000001
 20
-3.787766140220149
 30
0.0
  0
SPLINE
  5
1F5
330
1F
100
AcDbEntity
  8
SK3
  6
SLD-Dashed
370
    18
100
AcDbSpline
210
0.0
220
0.0
230
1.0
 70
     8
 71
     3
 72
    32
 73
    28
 74
     0
 42
0.000000001
 43
0.00000001
 40
0.0
 40
0.0
 40
0.0
 40
0.0
 40
0.0312499999999999
 40
0.0312499999999999
 40
0.0624999999999998
 40
0.0624999999999998
 40
0.0937499999999996
 40
0.0937499999999996
 40
0.1249999999999995
 40
0.1249999999999995
 40
0.1874999999999994
 40
0.1874999999999994
 40
0.2499999999999994
 40
0.2499999999999994
 40
0.2812499999999994
 40
0.2812499999999994
 40
0.3124999999999995
 40
0.3124999999999995
 40
0.3749999999999996
 40
0.3749999999999996
 40
0.4062499999999999
 40
0.4062499999999999
 40
0.4375000000000002
 40
0.4375000000000002
 40
0.4687500000000004
 40
0.4687500000000004
 40
0.5000000000000008
 40
0.5000000000000008
 40
0.5000000000000008
 40
0.5000000000000008
 10
11.10000000000001
 20
-3.787766140220149
 30
0.0
 10
11.20945404144216
 20
-3.787766140220149
 30
0.0
 10
11.31699251505768
 20
-3.77857332845638
 30
0.0
 10
11.52842270682133
 20
-3.742513465759784
 30
0.0
 10
11.63343468118848
 20
-3.715182626605945
 30
0.0
 10
11.83302988080075
 20
-3.643810849968482
 30
0.0
 10
11.92762916003133
 20
-3.60005371977919
 30
0.0
 10
12.10666204146889
 20
-3.496063555094003
 30
0.0
 10
12.19108958741752
 20
-3.435494674721283
 30
0.0
 10
12.41840943186721
 20
-3.235487194488868
 30
0.0
 10
12.5412128042801
 20
-3.072211780658831
 30
0.0
 10
12.70609668334557
 20
-2.712191703584076
 30
0.0
 10
12.7498658188326
 20
-2.511406281215628
 30
0.0
 10
12.75006661590683
 20
-2.206762191573445
 30
0.0
 10
12.73925303931703
 20
-2.102663743045092
 30
0.0
 10
12.69696665105527
 20
-1.900023631118415
 30
0.0
 10
12.66568409163504
 20
-1.800628375409986
 30
0.0
 10
12.54109332601522
 20
-1.508622388074421
 30
0.0
 10
12.4196848805707
 20
-1.329150513223802
 30
0.0
 10
12.19032108316567
 20
-1.099825633995827
 30
0.0
 10
12.10747830050281
 20
-1.031413659325516
 30
0.0
 10
11.92916892541126
 20
-0.9106890902003222
 30
0.0
 10
11.83255025366052
 20
-0.8580074652528233
 30
0.0
 10
11.63340217743152
 20
-0.7737092118759898
 30
0.0
 10
11.5305535037228
 20
-0.741588922705233
 30
0.0
 10
11.31815535720089
 20
-0.6979755792709368
 30
0.0
 10
11.2086156872024
 20
-0.6868277193148621
 30
0.0
 10
11.10070155322193
 20
-0.6867806446436281
 30
0.0
  0
SPLINE
  5
1F6
330
1F
100
AcDbEntity
  8
SK3
  6
SLD-Dashed
370
    18
100
AcDbSpline
210
0.0
220
0.0
230
1.0
 70
     8
 71
     2
 72
     6
 73
     3
 74
     0
 42
0.000000001
 43
0.00000001
 40
0.0
 40
0.0
 40
0.0
 40
0.0312499999999992
 40
0.0312499999999992
 40
0.0312499999999992
 10
37.93590000000001
 20
9.524999999999991
 30
0.0
 10
37.96859402012677
 20
9.508187148644348
 30
0.0
 10
38.03215289590715
 20
9.476208218375456
 30
0.0
  0
SPLINE
  5
1F7
330
1F
100
AcDbEntity
  8
SK3
  6
SLD-Dashed
370
    18
100
AcDbSpline
210
0.0
220
0.0
230
1.0
 70
     8
 71
     3
 72
     8
 73
     4
 74
     0
 42
0.000000001
 43
0.00000001
 40
0.0312499999999992
 40
0.0312499999999992
 40
0.0312499999999992
 40
0.0312499999999992
 40
0.0624999999999985
 40
0.0624999999999985
 40
0.0624999999999985
 40
0.0624999999999985
 10
38.03215289590715
 20
9.476208218375456
 30
0.0
 10
38.09571177168754
 20
9.44422928810655
 30
0.0
 10
38.19188492582777
 20
9.396233466200368
 30
0.0
 10
38.31509061498775
 20
9.337053517131148
 30
0.0
  0
SPLINE
  5
1F8
330
1F
100
AcDbEntity
  8
SK3
  6
SLD-Dashed
370
    18
100
AcDbSpline
210
0.0
220
0.0
230
1.0
 70
     8
 71
     3
 72
     8
 73
     4
 74
     0
 42
0.000000001
 43
0.00000001
 40
0.0624999999999985
 40
0.0624999999999985
 40
0.0624999999999985
 40
0.0624999999999985
 40
0.0937499999999977
 40
0.0937499999999977
 40
0.0937499999999977
 40
0.0937499999999977
 10
38.31509061498775
 20
9.337053517131148
 30
0.0
 10
38.43829630414768
 20
9.27787356806193
 30
0.0
 10
38.5882545662402
 20
9.207600195835663
 30
0.0
 10
38.7647130335977
 20
9.12960552768935
 30
0.0
  0
SPLINE
  5
1F9
330
1F
100
AcDbEntity
  8
SK3
  6
SLD-Dashed
370
    18
100
AcDbSpline
210
0.0
220
0.0
230
1.0
 70
     8
 71
     3
 72
     8
 73
     4
 74
     0
 42
0.000000001
 43
0.00000001
 40
0.0937499999999977
 40
0.0937499999999977
 40
0.0937499999999977
 40
0.0937499999999977
 40
0.124999999999997
 40
0.124999999999997
 40
0.124999999999997
 40
0.124999999999997
 10
38.7647130335977
 20
9.12960552768935
 30
0.0
 10
38.94117150095518
 20
9.051610859543029
 30
0.0
 10
39.14194001102754
 20
8.96695624532836
 30
0.0
 10
39.36222307513923
 20
8.88169276518306
 30
0.0
  0
SPLINE
  5
1FA
330
1F
100
AcDbEntity
  8
SK3
  6
SLD-Dashed
370
    18
100
AcDbSpline
210
0.0
220
0.0
230
1.0
 70
     8
 71
     3
 72
     8
 73
     4
 74
     0
 42
0.000000001
 43
0.00000001
 40
0.124999999999997
 40
0.124999999999997
 40
0.124999999999997
 40
0.124999999999997
 40
0.1562499999999962
 40
0.1562499999999962
 40
0.1562499999999962
 40
0.1562499999999962
 10
39.36222307513923
 20
8.88169276518306
 30
0.0
 10
39.58250613925095
 20
8.796429285037744
 30
0.0
 10
39.82575178510314
 20
8.709244384042899
 30
0.0
 10
40.08672607289255
 20
8.627167066512682
 30
0.0
  0
SPLINE
  5
1FB
330
1F
100
AcDbEntity
  8
SK3
  6
SLD-Dashed
370
    18
100
AcDbSpline
210
0.0
220
0.0
230
1.0
 70
     8
 71
     3
 72
     8
 73
     4
 74
     0
 42
0.000000001
 43
0.00000001
 40
0.1562499999999962
 40
0.1562499999999962
 40
0.1562499999999962
 40
0.1562499999999962
 40
0.1874999999999954
 40
0.1874999999999954
 40
0.1874999999999954
 40
0.1874999999999954
 10
40.08672607289255
 20
8.627167066512682
 30
0.0
 10
40.34770036068193
 20
8.545089748982457
 30
0.0
 10
40.62306502872583
 20
8.46905495109561
 30
0.0
 10
40.91387473847936
 20
8.403786330705113
 30
0.0
  0
SPLINE
  5
1FC
330
1F
100
AcDbEntity
  8
SK3
  6
SLD-Dashed
370
    18
100
AcDbSpline
210
0.0
220
0.0
230
1.0
 70
     8
 71
     3
 72
     8
 73
     4
 74
     0
 42
0.000000001
 43
0.00000001
 40
0.1874999999999954
 40
0.1874999999999954
 40
0.1874999999999954
 40
0.1874999999999954
 40
0.2031249999999954
 40
0.2031249999999954
 40
0.2031249999999954
 40
0.2031249999999954
 10
40.91387473847936
 20
8.403786330705113
 30
0.0
 10
41.05927959335612
 20
8.371152020509864
 30
0.0
 10
41.20857501648735
 20
8.341218514649793
 30
0.0
 10
41.36209442914858
 20
8.31466948355046
 30
0.0
  0
SPLINE
  5
1FD
330
1F
100
AcDbEntity
  8
SK3
  6
SLD-Dashed
370
    18
100
AcDbSpline
210
0.0
220
0.0
230
1.0
 70
     8
 71
     3
 72
     8
 73
     4
 74
     0
 42
0.000000001
 43
0.00000001
 40
0.2031249999999954
 40
0.2031249999999954
 40
0.2031249999999954
 40
0.2031249999999954
 40
0.2187499999999953
 40
0.2187499999999953
 40
0.2187499999999953
 40
0.2187499999999953
 10
41.36209442914858
 20
8.31466948355046
 30
0.0
 10
41.51561384180978
 20
8.288120452451135
 30
0.0
 10
41.67286408901253
 20
8.26511788777213
 30
0.0
 10
41.83021804559819
 20
8.246613440017848
 30
0.0
  0
SPLINE
  5
1FE
330
1F
100
AcDbEntity
  8
SK3
  6
SLD-Dashed
370
    18
100
AcDbSpline
210
0.0
220
0.0
230
1.0
 70
     8
 71
     3
 72
     8
 73
     4
 74
     0
 42
0.000000001
 43
0.00000001
 40
0.2187499999999953
 40
0.2187499999999953
 40
0.2187499999999953
 40
0.2187499999999953
 40
0.2499999999999946
 40
0.2499999999999946
 40
0.2499999999999946
 40
0.2499999999999946
 10
41.83021804559819
 20
8.246613440017848
 30
0.0
 10
42.14492595876947
 20
8.209604544509315
 30
0.0
 10
42.4640157578265
 20
8.189888934656505
 30
0.0
 10
42.78768391492738
 20
8.18940216840957
 30
0.0
  0
SPLINE
  5
1FF
330
1F
100
AcDbEntity
  8
SK3
  6
SLD-Dashed
370
    18
100
AcDbSpline
210
0.0
220
0.0
230
1.0
 70
     8
 71
     3
 72
     8
 73
     4
 74
     0
 42
0.000000001
 43
0.00000001
 40
0.2499999999999946
 40
0.2499999999999946
 40
0.2499999999999946
 40
0.2499999999999946
 40
0.2656249999999942
 40
0.2656249999999942
 40
0.2656249999999942
 40
0.2656249999999942
 10
42.78768391492738
 20
8.18940216840957
 30
0.0
 10
42.94951799347781
 20
8.189158785286095
 30
0.0
 10
43.11366112241625
 20
8.193805857016324
 30
0.0
 10
43.27544179600107
 20
8.203182375845643
 30
0.0
  0
SPLINE
  5
200
330
1F
100
AcDbEntity
  8
SK3
  6
SLD-Dashed
370
    18
100
AcDbSpline
210
0.0
220
0.0
230
1.0
 70
     8
 71
     3
 72
     8
 73
     4
 74
     0
 42
0.000000001
 43
0.00000001
 40
0.2656249999999942
 40
0.2656249999999942
 40
0.2656249999999942
 40
0.2656249999999942
 40
0.2812499999999938
 40
0.2812499999999938
 40
0.2812499999999938
 40
0.2812499999999938
 10
43.27544179600107
 20
8.203182375845643
 30
0.0
 10
43.43722246958587
 20
8.212558894674954
 30
0.0
 10
43.59674921531788
 20
8.226574385741127
 30
0.0
 10
43.75413767221263
 20
8.244788347042938
 30
0.0
  0
SPLINE
  5
201
330
1F
100
AcDbEntity
  8
SK3
  6
SLD-Dashed
370
    18
100
AcDbSpline
210
0.0
220
0.0
230
1.0
 70
     8
 71
     3
 72
     8
 73
     4
 74
     0
 42
0.000000001
 43
0.00000001
 40
0.2812499999999938
 40
0.2812499999999938
 40
0.2812499999999938
 40
0.2812499999999938
 40
0.3124999999999937
 40
0.3124999999999937
 40
0.3124999999999937
 40
0.3124999999999937
 10
43.75413767221263
 20
8.244788347042938
 30
0.0
 10
44.06891458600215
 20
8.281216269646578
 30
0.0
 10
44.37783443554165
 20
8.335070597758753
 30
0.0
 10
44.67214329449372
 20
8.400659301811823
 30
0.0
  0
SPLINE
  5
202
330
1F
100
AcDbEntity
  8
SK3
  6
SLD-Dashed
370
    18
100
AcDbSpline
210
0.0
220
0.0
230
1.0
 70
     8
 71
     3
 72
     8
 73
     4
 74
     0
 42
0.000000001
 43
0.00000001
 40
0.3124999999999937
 40
0.3124999999999937
 40
0.3124999999999937
 40
0.3124999999999937
 40
0.3437499999999935
 40
0.3437499999999935
 40
0.3437499999999935
 40
0.3437499999999935
 10
44.67214329449372
 20
8.400659301811823
 30
0.0
 10
44.96645215344576
 20
8.46624800586488
 30
0.0
 10
45.24334578253646
 20
8.54251623613949
 30
0.0
 10
45.50453501888149
 20
8.624422639131039
 30
0.0
  0
SPLINE
  5
203
330
1F
100
AcDbEntity
  8
SK3
  6
SLD-Dashed
370
    18
100
AcDbSpline
210
0.0
220
0.0
230
1.0
 70
     8
 71
     3
 72
     8
 73
     4
 74
     0
 42
0.000000001
 43
0.00000001
 40
0.3437499999999935
 40
0.3437499999999935
 40
0.3437499999999935
 40
0.3437499999999935
 40
0.3749999999999933
 40
0.3749999999999933
 40
0.3749999999999933
 40
0.3749999999999933
 10
45.50453501888149
 20
8.624422639131039
 30
0.0
 10
45.76572425522653
 20
8.706329042122588
 30
0.0
 10
46.01050975931817
 20
8.793864561500934
 30
0.0
 10
46.23131837415801
 20
8.879194894517974
 30
0.0
  0
SPLINE
  5
204
330
1F
100
AcDbEntity
  8
SK3
  6
SLD-Dashed
370
    18
100
AcDbSpline
210
0.0
220
0.0
230
1.0
 70
     8
 71
     3
 72
     8
 73
     4
 74
     0
 42
0.000000001
 43
0.00000001
 40
0.3749999999999933
 40
0.3749999999999933
 40
0.3749999999999933
 40
0.3749999999999933
 40
0.4062499999999932
 40
0.4062499999999932
 40
0.4062499999999932
 40
0.4062499999999932
 10
46.23131837415801
 20
8.879194894517974
 30
0.0
 10
46.45212698899785
 20
8.964525227535006
 30
0.0
 10
46.651613824846
 20
9.048517310879273
 30
0.0
 10
46.82930256969635
 20
9.126962002121028
 30
0.0
  0
SPLINE
  5
205
330
1F
100
AcDbEntity
  8
SK3
  6
SLD-Dashed
370
    18
100
AcDbSpline
210
0.0
220
0.0
230
1.0
 70
     8
 71
     3
 72
     8
 73
     4
 74
     0
 42
0.000000001
 43
0.00000001
 40
0.4062499999999932
 40
0.4062499999999932
 40
0.4062499999999932
 40
0.4062499999999932
 40
0.437499999999993
 40
0.437499999999993
 40
0.437499999999993
 40
0.437499999999993
 10
46.82930256969635
 20
9.126962002121028
 30
0.0
 10
47.00699131454668
 20
9.205406693362782
 30
0.0
 10
47.15762999622523
 20
9.27596014956903
 30
0.0
 10
47.28071042425998
 20
9.335037337690261
 30
0.0
  0
SPLINE
  5
206
330
1F
100
AcDbEntity
  8
SK3
  6
SLD-Dashed
370
    18
100
AcDbSpline
210
0.0
220
0.0
230
1.0
 70
     8
 71
     3
 72
     8
 73
     4
 74
     0
 42
0.000000001
 43
0.00000001
 40
0.437499999999993
 40
0.437499999999993
 40
0.437499999999993
 40
0.437499999999993
 40
0.453124999999993
 40
0.453124999999993
 40
0.453124999999993
 40
0.453124999999993
 10
47.28071042425998
 20
9.335037337690261
 30
0.0
 10
47.34225063827733
 20
9.364575931750892
 30
0.0
 10
47.39694588181041
 20
9.39129136992848
 30
0.0
 10
47.44454160947956
 20
9.414771529473592
 30
0.0
  0
SPLINE
  5
207
330
1F
100
AcDbEntity
  8
SK3
  6
SLD-Dashed
370
    18
100
AcDbSpline
210
0.0
220
0.0
230
1.0
 70
     8
 71
     3
 72
     8
 73
     4
 74
     0
 42
0.000000001
 43
0.00000001
 40
0.453124999999993
 40
0.453124999999993
 40
0.453124999999993
 40
0.453124999999993
 40
0.4687499999999931
 40
0.4687499999999931
 40
0.4687499999999931
 40
0.4687499999999931
 10
47.44454160947956
 20
9.414771529473592
 30
0.0
 10
47.49213733714868
 20
9.438251689018697
 30
0.0
 10
47.53283100389148
 20
9.458596991440041
 30
0.0
 10
47.56531825873184
 20
9.474936110444359
 30
0.0
  0
SPLINE
  5
208
330
1F
100
AcDbEntity
  8
SK3
  6
SLD-Dashed
370
    18
100
AcDbSpline
210
0.0
220
0.0
230
1.0
 70
     8
 71
     3
 72
     8
 73
     4
 74
     0
 42
0.000000001
 43
0.00000001
 40
0.4687499999999931
 40
0.4687499999999931
 40
0.4687499999999931
 40
0.4687499999999931
 40
0.4999999999999932
 40
0.4999999999999932
 40
0.4999999999999932
 40
0.4999999999999932
 10
47.56531825873184
 20
9.474936110444359
 30
0.0
 10
47.63029276841253
 20
9.507614348453
 30
0.0
 10
47.66310728661893
 20
9.524493056040521
 30
0.0
 10
47.66407803120244
 20
9.524988781286083
 30
0.0
  0
SPLINE
  5
209
330
1F
100
AcDbEntity
  8
SK3
  6
SLD-Dashed
370
    18
100
AcDbSpline
210
0.0
220
0.0
230
1.0
 70
     8
 71
     3
 72
     8
 73
     4
 74
     0
 42
0.000000001
 43
0.00000001
 40
0.5312499999999932
 40
0.5312499999999932
 40
0.5312499999999932
 40
0.5312499999999932
 40
0.5624999999999932
 40
0.5624999999999932
 40
0.5624999999999932
 40
0.5624999999999932
 10
47.56982258745189
 20
9.477202314278511
 30
0.0
 10
47.5067167089089
 20
9.445441480765226
 30
0.0
 10
47.41321975652832
 20
9.398731093072453
 30
0.0
 10
47.28930644914401
 20
9.33916637523529
 30
0.0
  0
SPLINE
  5
20A
330
1F
100
AcDbEntity
  8
SK3
  6
SLD-Dashed
370
    18
100
AcDbSpline
210
0.0
220
0.0
230
1.0
 70
     8
 71
     3
 72
     8
 73
     4
 74
     0
 42
0.000000001
 43
0.00000001
 40
0.5624999999999932
 40
0.5624999999999932
 40
0.5624999999999932
 40
0.5624999999999932
 40
0.5937499999999933
 40
0.5937499999999933
 40
0.5937499999999933
 40
0.5937499999999933
 10
47.28930644914401
 20
9.33916637523529
 30
0.0
 10
47.1653931417597
 20
9.27960165739814
 30
0.0
 10
47.01507048345044
 20
9.209143064862937
 30
0.0
 10
46.83996898135229
 20
9.131675944769851
 30
0.0
  0
SPLINE
  5
20B
330
1F
100
AcDbEntity
  8
SK3
  6
SLD-Dashed
370
    18
100
AcDbSpline
210
0.0
220
0.0
230
1.0
 70
     8
 71
     3
 72
     8
 73
     4
 74
     0
 42
0.000000001
 43
0.00000001
 40
0.5937499999999933
 40
0.5937499999999933
 40
0.5937499999999933
 40
0.5937499999999933
 40
0.6249999999999933
 40
0.6249999999999933
 40
0.6249999999999933
 40
0.6249999999999933
 10
46.83996898135229
 20
9.131675944769851
 30
0.0
 10
46.66486747925415
 20
9.054208824676758
 30
0.0
 10
46.46271733122434
 20
8.968847134255094
 30
0.0
 10
46.24191241318365
 20
8.883294279152707
 30
0.0
  0
SPLINE
  5
20C
330
1F
100
AcDbEntity
  8
SK3
  6
SLD-Dashed
370
    18
100
AcDbSpline
210
0.0
220
0.0
230
1.0
 70
     8
 71
     3
 72
     8
 73
     4
 74
     0
 42
0.000000001
 43
0.00000001
 40
0.6249999999999933
 40
0.6249999999999933
 40
0.6249999999999933
 40
0.6249999999999933
 40
0.6562499999999933
 40
0.6562499999999933
 40
0.6562499999999933
 40
0.6562499999999933
 10
46.24191241318365
 20
8.883294279152707
 30
0.0
 10
46.02110749514295
 20
8.797741424050313
 30
0.0
 10
45.78105356101452
 20
8.711582291420426
 30
0.0
 10
45.52043756751316
 20
8.629422735544749
 30
0.0
  0
SPLINE
  5
20D
330
1F
100
AcDbEntity
  8
SK3
  6
SLD-Dashed
370
    18
100
AcDbSpline
210
0.0
220
0.0
230
1.0
 70
     8
 71
     3
 72
     8
 73
     4
 74
     0
 42
0.000000001
 43
0.00000001
 40
0.6562499999999933
 40
0.6562499999999933
 40
0.6562499999999933
 40
0.6562499999999933
 40
0.6718749999999937
 40
0.6718749999999937
 40
0.6718749999999937
 40
0.6718749999999937
 10
45.52043756751316
 20
8.629422735544749
 30
0.0
 10
45.39012957076247
 20
8.588342957606896
 30
0.0
 10
45.25391291367381
 20
8.54809705823554
 30
0.0
 10
45.11495140812536
 20
8.510297069549408
 30
0.0
  0
SPLINE
  5
20E
330
1F
100
AcDbEntity
  8
SK3
  6
SLD-Dashed
370
    18
100
AcDbSpline
210
0.0
220
0.0
230
1.0
 70
     8
 71
     3
 72
     8
 73
     4
 74
     0
 42
0.000000001
 43
0.00000001
 40
0.6718749999999937
 40
0.6718749999999937
 40
0.6718749999999937
 40
0.6718749999999937
 40
0.6874999999999939
 40
0.6874999999999939
 40
0.6874999999999939
 40
0.6874999999999939
 10
45.11495140812536
 20
8.510297069549408
 30
0.0
 10
44.97598990257693
 20
8.47249708086329
 30
0.0
 10
44.83389443931206
 20
8.43699203603951
 30
0.0
 10
44.68858656084275
 20
8.404339080962608
 30
0.0
  0
SPLINE
  5
20F
330
1F
100
AcDbEntity
  8
SK3
  6
SLD-Dashed
370
    18
100
AcDbSpline
210
0.0
220
0.0
230
1.0
 70
     8
 71
     3
 72
     8
 73
     4
 74
     0
 42
0.000000001
 43
0.00000001
 40
0.6874999999999939
 40
0.6874999999999939
 40
0.6874999999999939
 40
0.6874999999999939
 40
0.7187499999999946
 40
0.7187499999999946
 40
0.7187499999999946
 40
0.7187499999999946
 10
44.68858656084275
 20
8.404339080962608
 30
0.0
 10
44.39797080390409
 20
8.339033170808815
 30
0.0
 10
44.0946173946508
 20
8.28507786803888
 30
0.0
 10
43.77666648424817
 20
8.247425877899929
 30
0.0
  0
SPLINE
  5
210
330
1F
100
AcDbEntity
  8
SK3
  6
SLD-Dashed
370
    18
100
AcDbSpline
210
0.0
220
0.0
230
1.0
 70
     8
 71
     3
 72
     8
 73
     4
 74
     0
 42
0.000000001
 43
0.00000001
 40
0.7187499999999946
 40
0.7187499999999946
 40
0.7187499999999946
 40
0.7187499999999946
 40
0.7499999999999952
 40
0.7499999999999952
 40
0.7499999999999952
 40
0.7499999999999952
 10
43.77666648424817
 20
8.247425877899929
 30
0.0
 10
43.45871557384555
 20
8.209773887760972
 30
0.0
 10
43.13540328664223
 20
8.189921648384523
 30
0.0
 10
42.81316856396979
 20
8.189403494826518
 30
0.0
  0
SPLINE
  5
211
330
1F
100
AcDbEntity
  8
SK3
  6
SLD-Dashed
370
    18
100
AcDbSpline
210
0.0
220
0.0
230
1.0
 70
     8
 71
     3
 72
     8
 73
     4
 74
     0
 42
0.000000001
 43
0.00000001
 40
0.7499999999999952
 40
0.7499999999999952
 40
0.7499999999999952
 40
0.7499999999999952
 40
0.7656249999999952
 40
0.7656249999999952
 40
0.7656249999999952
 40
0.7656249999999952
 10
42.81316856396979
 20
8.189403494826518
 30
0.0
 10
42.65205120263356
 20
8.189144418047515
 30
0.0
 10
42.49069190473127
 20
8.193643716632746
 30
0.0
 10
42.32908619896195
 20
8.202921186870437
 30
0.0
  0
SPLINE
  5
212
330
1F
100
AcDbEntity
  8
SK3
  6
SLD-Dashed
370
    18
100
AcDbSpline
210
0.0
220
0.0
230
1.0
 70
     8
 71
     3
 72
     8
 73
     4
 74
     0
 42
0.000000001
 43
0.00000001
 40
0.7656249999999952
 40
0.7656249999999952
 40
0.7656249999999952
 40
0.7656249999999952
 40
0.7812499999999952
 40
0.7812499999999952
 40
0.7812499999999952
 40
0.7812499999999952
 10
42.32908619896195
 20
8.202921186870437
 30
0.0
 10
42.16748049319265
 20
8.212198657108114
 30
0.0
 10
42.00510782137966
 20
8.226374730815403
 30
0.0
 10
41.84666475498966
 20
8.244695523752142
 30
0.0
  0
SPLINE
  5
213
330
1F
100
AcDbEntity
  8
SK3
  6
SLD-Dashed
370
    18
100
AcDbSpline
210
0.0
220
0.0
230
1.0
 70
     8
 71
     3
 72
     8
 73
     4
 74
     0
 42
0.000000001
 43
0.00000001
 40
0.7812499999999952
 40
0.7812499999999952
 40
0.7812499999999952
 40
0.7812499999999952
 40
0.8124999999999959
 40
0.8124999999999959
 40
0.8124999999999959
 40
0.8124999999999959
 10
41.84666475498966
 20
8.244695523752142
 30
0.0
 10
41.52977862220968
 20
8.281337109625621
 30
0.0
 10
41.22442291124371
 20
8.334627160781844
 30
0.0
 10
40.92963925234451
 20
8.400262229024174
 30
0.0
  0
SPLINE
  5
214
330
1F
100
AcDbEntity
  8
SK3
  6
SLD-Dashed
370
    18
100
AcDbSpline
210
0.0
220
0.0
230
1.0
 70
     8
 71
     3
 72
     8
 73
     4
 74
     0
 42
0.000000001
 43
0.00000001
 40
0.8124999999999959
 40
0.8124999999999959
 40
0.8124999999999959
 40
0.8124999999999959
 40
0.8437499999999966
 40
0.8437499999999966
 40
0.8437499999999966
 40
0.8437499999999966
 10
40.92963925234451
 20
8.400262229024174
 30
0.0
 10
40.63485559344529
 20
8.465897297266489
 30
0.0
 10
40.35454465530851
 20
8.543140960221434
 30
0.0
 10
40.09410927778372
 20
8.624847870575804
 30
0.0
  0
SPLINE
  5
215
330
1F
100
AcDbEntity
  8
SK3
  6
SLD-Dashed
370
    18
100
AcDbSpline
210
0.0
220
0.0
230
1.0
 70
     8
 71
     3
 72
     8
 73
     4
 74
     0
 42
0.000000001
 43
0.00000001
 40
0.8437499999999966
 40
0.8437499999999966
 40
0.8437499999999966
 40
0.8437499999999966
 40
0.8749999999999972
 40
0.8749999999999972
 40
0.8749999999999972
 40
0.8749999999999972
 10
40.09410927778372
 20
8.624847870575804
 30
0.0
 10
39.83367390025894
 20
8.706554780930173
 30
0.0
 10
39.58867576987137
 20
8.794134998911483
 30
0.0
 10
39.36658890042687
 20
8.880003827064039
 30
0.0
  0
SPLINE
  5
216
330
1F
100
AcDbEntity
  8
SK3
  6
SLD-Dashed
370
    18
100
AcDbSpline
210
0.0
220
0.0
230
1.0
 70
     8
 71
     3
 72
     8
 73
     4
 74
     0
 42
0.000000001
 43
0.00000001
 40
0.8749999999999972
 40
0.8749999999999972
 40
0.8749999999999972
 40
0.8749999999999972
 40
0.9062499999999979
 40
0.9062499999999979
 40
0.9062499999999979
 40
0.9062499999999979
 10
39.36658890042687
 20
8.880003827064039
 30
0.0
 10
39.14450203098235
 20
8.965872655216597
 30
0.0
 10
38.94570767233471
 20
9.049684682381237
 30
0.0
 10
38.76972107885543
 20
9.127393076460676
 30
0.0
  0
SPLINE
  5
217
330
1F
100
AcDbEntity
  8
SK3
  6
SLD-Dashed
370
    18
100
AcDbSpline
210
0.0
220
0.0
230
1.0
 70
     8
 71
     3
 72
     8
 73
     4
 74
     0
 42
0.000000001
 43
0.00000001
 40
0.9062499999999979
 40
0.9062499999999979
 40
0.9062499999999979
 40
0.9062499999999979
 40
0.9374999999999987
 40
0.9374999999999987
 40
0.9374999999999987
 40
0.9374999999999987
 10
38.76972107885543
 20
9.127393076460676
 30
0.0
 10
38.59373448537615
 20
9.205101470540114
 30
0.0
 10
38.43988051522322
 20
9.27712880479771
 30
0.0
 10
38.31667497515242
 20
9.336292597622698
 30
0.0
  0
SPLINE
  5
218
330
1F
100
AcDbEntity
  8
SK3
  6
SLD-Dashed
370
    18
100
AcDbSpline
210
0.0
220
0.0
230
1.0
 70
     8
 71
     3
 72
     8
 73
     4
 74
     0
 42
0.000000001
 43
0.00000001
 40
0.9374999999999987
 40
0.9374999999999987
 40
0.9374999999999987
 40
0.9374999999999987
 40
0.9687499999999993
 40
0.9687499999999993
 40
0.9687499999999993
 40
0.9687499999999993
 10
38.31667497515242
 20
9.336292597622698
 30
0.0
 10
38.19346943508166
 20
9.395456390447677
 30
0.0
 10
38.0988309099646
 20
9.44267045637441
 30
0.0
 10
38.03418687274671
 20
9.475185008953641
 30
0.0
  0
SPLINE
  5
219
330
1F
100
AcDbEntity
  8
SK3
  6
SLD-Dashed
370
    18
100
AcDbSpline
210
0.0
220
0.0
230
1.0
 70
     8
 71
     2
 72
     6
 73
     3
 74
     0
 42
0.000000001
 43
0.00000001
 40
0.9687499999999993
 40
0.9687499999999993
 40
0.9687499999999993
 40
1.0
 40
1.0
 40
1.0
 10
38.03418687274669
 20
9.475185008953648
 30
0.0
 10
37.96954283552881
 20
9.50769956153287
 30
0.0
 10
37.93590000000001
 20
9.524999999999991
 30
0.0
  0
SPLINE
  5
21A
330
1F
100
AcDbEntity
  8
SK3
  6
SLD-Dashed
370
    18
100
AcDbSpline
210
0.0
220
0.0
230
1.0
 70
     8
 71
     2
 72
     6
 73
     3
 74
     0
 42
0.000000001
 43
0.00000001
 40
0.0
 40
0.0
 40
0.0
 40
0.0312499999999992
 40
0.0312499999999992
 40
0.0312499999999992
 10
37.93590000000001
 20
9.524999999999991
 30
0.0
 10
37.96859402012677
 20
9.508187148644348
 30
0.0
 10
38.03215289590715
 20
9.476208218375456
 30
0.0
  0
SPLINE
  5
21B
330
1F
100
AcDbEntity
  8
SK3
  6
SLD-Dashed
370
    18
100
AcDbSpline
210
0.0
220
0.0
230
1.0
 70
     8
 71
     3
 72
     8
 73
     4
 74
     0
 42
0.000000001
 43
0.00000001
 40
0.0312499999999992
 40
0.0312499999999992
 40
0.0312499999999992
 40
0.0312499999999992
 40
0.0624999999999985
 40
0.0624999999999985
 40
0.0624999999999985
 40
0.0624999999999985
 10
38.03215289590715
 20
9.476208218375456
 30
0.0
 10
38.09571177168754
 20
9.44422928810655
 30
0.0
 10
38.19188492582777
 20
9.396233466200368
 30
0.0
 10
38.31509061498775
 20
9.337053517131148
 30
0.0
  0
SPLINE
  5
21C
330
1F
100
AcDbEntity
  8
SK3
  6
SLD-Dashed
370
    18
100
AcDbSpline
210
0.0
220
0.0
230
1.0
 70
     8
 71
     3
 72
     8
 73
     4
 74
     0
 42
0.000000001
 43
0.00000001
 40
0.0624999999999985
 40
0.0624999999999985
 40
0.0624999999999985
 40
0.0624999999999985
 40
0.0937499999999977
 40
0.0937499999999977
 40
0.0937499999999977
 40
0.0937499999999977
 10
38.31509061498775
 20
9.337053517131148
 30
0.0
 10
38.43829630414768
 20
9.27787356806193
 30
0.0
 10
38.5882545662402
 20
9.207600195835663
 30
0.0
 10
38.7647130335977
 20
9.12960552768935
 30
0.0
  0
SPLINE
  5
21D
330
1F
100
AcDbEntity
  8
SK3
  6
SLD-Dashed
370
    18
100
AcDbSpline
210
0.0
220
0.0
230
1.0
 70
     8
 71
     3
 72
     8
 73
     4
 74
     0
 42
0.000000001
 43
0.00000001
 40
0.0937499999999977
 40
0.0937499999999977
 40
0.0937499999999977
 40
0.0937499999999977
 40
0.124999999999997
 40
0.124999999999997
 40
0.124999999999997
 40
0.124999999999997
 10
38.7647130335977
 20
9.12960552768935
 30
0.0
 10
38.94117150095518
 20
9.051610859543029
 30
0.0
 10
39.14194001102754
 20
8.96695624532836
 30
0.0
 10
39.36222307513923
 20
8.88169276518306
 30
0.0
  0
SPLINE
  5
21E
330
1F
100
AcDbEntity
  8
SK3
  6
SLD-Dashed
370
    18
100
AcDbSpline
210
0.0
220
0.0
230
1.0
 70
     8
 71
     3
 72
     8
 73
     4
 74
     0
 42
0.000000001
 43
0.00000001
 40
0.124999999999997
 40
0.124999999999997
 40
0.124999999999997
 40
0.124999999999997
 40
0.1562499999999962
 40
0.1562499999999962
 40
0.1562499999999962
 40
0.1562499999999962
 10
39.36222307513923
 20
8.88169276518306
 30
0.0
 10
39.58250613925095
 20
8.796429285037744
 30
0.0
 10
39.82575178510314
 20
8.709244384042899
 30
0.0
 10
40.08672607289255
 20
8.627167066512682
 30
0.0
  0
SPLINE
  5
21F
330
1F
100
AcDbEntity
  8
SK3
  6
SLD-Dashed
370
    18
100
AcDbSpline
210
0.0
220
0.0
230
1.0
 70
     8
 71
     3
 72
     8
 73
     4
 74
     0
 42
0.000000001
 43
0.00000001
 40
0.1562499999999962
 40
0.1562499999999962
 40
0.1562499999999962
 40
0.1562499999999962
 40
0.1874999999999954
 40
0.1874999999999954
 40
0.1874999999999954
 40
0.1874999999999954
 10
40.08672607289255
 20
8.627167066512682
 30
0.0
 10
40.34770036068193
 20
8.545089748982457
 30
0.0
 10
40.62306502872583
 20
8.46905495109561
 30
0.0
 10
40.91387473847936
 20
8.403786330705113
 30
0.0
  0
SPLINE
  5
220
330
1F
100
AcDbEntity
  8
SK3
  6
SLD-Dashed
370
    18
100
AcDbSpline
210
0.0
220
0.0
230
1.0
 70
     8
 71
     3
 72
     8
 73
     4
 74
     0
 42
0.000000001
 43
0.00000001
 40
0.1874999999999954
 40
0.1874999999999954
 40
0.1874999999999954
 40
0.1874999999999954
 40
0.2031249999999954
 40
0.2031249999999954
 40
0.2031249999999954
 40
0.2031249999999954
 10
40.91387473847936
 20
8.403786330705113
 30
0.0
 10
41.05927959335612
 20
8.371152020509864
 30
0.0
 10
41.20857501648735
 20
8.341218514649793
 30
0.0
 10
41.36209442914858
 20
8.31466948355046
 30
0.0
  0
SPLINE
  5
221
330
1F
100
AcDbEntity
  8
SK3
  6
SLD-Dashed
370
    18
100
AcDbSpline
210
0.0
220
0.0
230
1.0
 70
     8
 71
     3
 72
     8
 73
     4
 74
     0
 42
0.000000001
 43
0.00000001
 40
0.2031249999999954
 40
0.2031249999999954
 40
0.2031249999999954
 40
0.2031249999999954
 40
0.2187499999999953
 40
0.2187499999999953
 40
0.2187499999999953
 40
0.2187499999999953
 10
41.36209442914858
 20
8.31466948355046
 30
0.0
 10
41.51561384180978
 20
8.288120452451135
 30
0.0
 10
41.67286408901253
 20
8.26511788777213
 30
0.0
 10
41.83021804559819
 20
8.246613440017848
 30
0.0
  0
SPLINE
  5
222
330
1F
100
AcDbEntity
  8
SK3
  6
SLD-Dashed
370
    18
100
AcDbSpline
210
0.0
220
0.0
230
1.0
 70
     8
 71
     3
 72
     8
 73
     4
 74
     0
 42
0.000000001
 43
0.00000001
 40
0.2187499999999953
 40
0.2187499999999953
 40
0.2187499999999953
 40
0.2187499999999953
 40
0.2499999999999946
 40
0.2499999999999946
 40
0.2499999999999946
 40
0.2499999999999946
 10
41.83021804559819
 20
8.246613440017848
 30
0.0
 10
42.14492595876947
 20
8.209604544509315
 30
0.0
 10
42.4640157578265
 20
8.189888934656505
 30
0.0
 10
42.78768391492738
 20
8.18940216840957
 30
0.0
  0
SPLINE
  5
223
330
1F
100
AcDbEntity
  8
SK3
  6
SLD-Dashed
370
    18
100
AcDbSpline
210
0.0
220
0.0
230
1.0
 70
     8
 71
     3
 72
     8
 73
     4
 74
     0
 42
0.000000001
 43
0.00000001
 40
0.2499999999999946
 40
0.2499999999999946
 40
0.2499999999999946
 40
0.2499999999999946
 40
0.2656249999999942
 40
0.2656249999999942
 40
0.2656249999999942
 40
0.2656249999999942
 10
42.78768391492738
 20
8.18940216840957
 30
0.0
 10
42.94951799347781
 20
8.189158785286095
 30
0.0
 10
43.11366112241625
 20
8.193805857016324
 30
0.0
 10
43.27544179600107
 20
8.203182375845643
 30
0.0
  0
SPLINE
  5
224
330
1F
100
AcDbEntity
  8
SK3
  6
SLD-Dashed
370
    18
100
AcDbSpline
210
0.0
220
0.0
230
1.0
 70
     8
 71
     3
 72
     8
 73
     4
 74
     0
 42
0.000000001
 43
0.00000001
 40
0.2656249999999942
 40
0.2656249999999942
 40
0.2656249999999942
 40
0.2656249999999942
 40
0.2812499999999938
 40
0.2812499999999938
 40
0.2812499999999938
 40
0.2812499999999938
 10
43.27544179600107
 20
8.203182375845643
 30
0.0
 10
43.43722246958587
 20
8.212558894674954
 30
0.0
 10
43.59674921531788
 20
8.226574385741127
 30
0.0
 10
43.75413767221263
 20
8.244788347042938
 30
0.0
  0
SPLINE
  5
225
330
1F
100
AcDbEntity
  8
SK3
  6
SLD-Dashed
370
    18
100
AcDbSpline
210
0.0
220
0.0
230
1.0
 70
     8
 71
     3
 72
     8
 73
     4
 74
     0
 42
0.000000001
 43
0.00000001
 40
0.2812499999999938
 40
0.2812499999999938
 40
0.2812499999999938
 40
0.2812499999999938
 40
0.3124999999999937
 40
0.3124999999999937
 40
0.3124999999999937
 40
0.3124999999999937
 10
43.75413767221263
 20
8.244788347042938
 30
0.0
 10
44.06891458600215
 20
8.281216269646578
 30
0.0
 10
44.37783443554165
 20
8.335070597758753
 30
0.0
 10
44.67214329449372
 20
8.400659301811823
 30
0.0
  0
SPLINE
  5
226
330
1F
100
AcDbEntity
  8
SK3
  6
SLD-Dashed
370
    18
100
AcDbSpline
210
0.0
220
0.0
230
1.0
 70
     8
 71
     3
 72
     8
 73
     4
 74
     0
 42
0.000000001
 43
0.00000001
 40
0.3124999999999937
 40
0.3124999999999937
 40
0.3124999999999937
 40
0.3124999999999937
 40
0.3437499999999935
 40
0.3437499999999935
 40
0.3437499999999935
 40
0.3437499999999935
 10
44.67214329449372
 20
8.400659301811823
 30
0.0
 10
44.96645215344576
 20
8.46624800586488
 30
0.0
 10
45.24334578253646
 20
8.54251623613949
 30
0.0
 10
45.50453501888149
 20
8.624422639131039
 30
0.0
  0
SPLINE
  5
227
330
1F
100
AcDbEntity
  8
SK3
  6
SLD-Dashed
370
    18
100
AcDbSpline
210
0.0
220
0.0
230
1.0
 70
     8
 71
     3
 72
     8
 73
     4
 74
     0
 42
0.000000001
 43
0.00000001
 40
0.3437499999999935
 40
0.3437499999999935
 40
0.3437499999999935
 40
0.3437499999999935
 40
0.3749999999999933
 40
0.3749999999999933
 40
0.3749999999999933
 40
0.3749999999999933
 10
45.50453501888149
 20
8.624422639131039
 30
0.0
 10
45.76572425522653
 20
8.706329042122588
 30
0.0
 10
46.01050975931817
 20
8.793864561500934
 30
0.0
 10
46.23131837415801
 20
8.879194894517974
 30
0.0
  0
SPLINE
  5
228
330
1F
100
AcDbEntity
  8
SK3
  6
SLD-Dashed
370
    18
100
AcDbSpline
210
0.0
220
0.0
230
1.0
 70
     8
 71
     3
 72
     8
 73
     4
 74
     0
 42
0.000000001
 43
0.00000001
 40
0.3749999999999933
 40
0.3749999999999933
 40
0.3749999999999933
 40
0.3749999999999933
 40
0.4062499999999932
 40
0.4062499999999932
 40
0.4062499999999932
 40
0.4062499999999932
 10
46.23131837415801
 20
8.879194894517974
 30
0.0
 10
46.45212698899785
 20
8.964525227535006
 30
0.0
 10
46.651613824846
 20
9.048517310879273
 30
0.0
 10
46.82930256969635
 20
9.126962002121028
 30
0.0
  0
SPLINE
  5
229
330
1F
100
AcDbEntity
  8
SK3
  6
SLD-Dashed
370
    18
100
AcDbSpline
210
0.0
220
0.0
230
1.0
 70
     8
 71
     3
 72
     8
 73
     4
 74
     0
 42
0.000000001
 43
0.00000001
 40
0.4062499999999932
 40
0.4062499999999932
 40
0.4062499999999932
 40
0.4062499999999932
 40
0.437499999999993
 40
0.437499999999993
 40
0.437499999999993
 40
0.437499999999993
 10
46.82930256969635
 20
9.126962002121028
 30
0.0
 10
47.00699131454668
 20
9.205406693362782
 30
0.0
 10
47.15762999622523
 20
9.27596014956903
 30
0.0
 10
47.28071042425998
 20
9.335037337690261
 30
0.0
  0
SPLINE
  5
22A
330
1F
100
AcDbEntity
  8
SK3
  6
SLD-Dashed
370
    18
100
AcDbSpline
210
0.0
220
0.0
230
1.0
 70
     8
 71
     3
 72
     8
 73
     4
 74
     0
 42
0.000000001
 43
0.00000001
 40
0.437499999999993
 40
0.437499999999993
 40
0.437499999999993
 40
0.437499999999993
 40
0.453124999999993
 40
0.453124999999993
 40
0.453124999999993
 40
0.453124999999993
 10
47.28071042425998
 20
9.335037337690261
 30
0.0
 10
47.34225063827733
 20
9.364575931750892
 30
0.0
 10
47.39694588181041
 20
9.39129136992848
 30
0.0
 10
47.44454160947956
 20
9.414771529473592
 30
0.0
  0
SPLINE
  5
22B
330
1F
100
AcDbEntity
  8
SK3
  6
SLD-Dashed
370
    18
100
AcDbSpline
210
0.0
220
0.0
230
1.0
 70
     8
 71
     3
 72
     8
 73
     4
 74
     0
 42
0.000000001
 43
0.00000001
 40
0.453124999999993
 40
0.453124999999993
 40
0.453124999999993
 40
0.453124999999993
 40
0.4687499999999931
 40
0.4687499999999931
 40
0.4687499999999931
 40
0.4687499999999931
 10
47.44454160947956
 20
9.414771529473592
 30
0.0
 10
47.49213733714868
 20
9.438251689018697
 30
0.0
 10
47.53283100389148
 20
9.458596991440041
 30
0.0
 10
47.56531825873184
 20
9.474936110444359
 30
0.0
  0
SPLINE
  5
22C
330
1F
100
AcDbEntity
  8
SK3
  6
SLD-Dashed
370
    18
100
AcDbSpline
210
0.0
220
0.0
230
1.0
 70
     8
 71
     3
 72
     8
 73
     4
 74
     0
 42
0.000000001
 43
0.00000001
 40
0.4687499999999931
 40
0.4687499999999931
 40
0.4687499999999931
 40
0.4687499999999931
 40
0.4999999999999932
 40
0.4999999999999932
 40
0.4999999999999932
 40
0.4999999999999932
 10
47.56531825873184
 20
9.474936110444359
 30
0.0
 10
47.63029276841253
 20
9.507614348453
 30
0.0
 10
47.66310728661893
 20
9.524493056040521
 30
0.0
 10
47.66407803120244
 20
9.524988781286083
 30
0.0
  0
SPLINE
  5
22D
330
1F
100
AcDbEntity
  8
SK3
  6
SLD-Dashed
370
    18
100
AcDbSpline
210
0.0
220
0.0
230
1.0
 70
     8
 71
     3
 72
     8
 73
     4
 74
     0
 42
0.000000001
 43
0.00000001
 40
0.5312499999999932
 40
0.5312499999999932
 40
0.5312499999999932
 40
0.5312499999999932
 40
0.5624999999999932
 40
0.5624999999999932
 40
0.5624999999999932
 40
0.5624999999999932
 10
47.56982258745189
 20
9.477202314278511
 30
0.0
 10
47.5067167089089
 20
9.445441480765226
 30
0.0
 10
47.41321975652832
 20
9.398731093072453
 30
0.0
 10
47.28930644914401
 20
9.33916637523529
 30
0.0
  0
SPLINE
  5
22E
330
1F
100
AcDbEntity
  8
SK3
  6
SLD-Dashed
370
    18
100
AcDbSpline
210
0.0
220
0.0
230
1.0
 70
     8
 71
     3
 72
     8
 73
     4
 74
     0
 42
0.000000001
 43
0.00000001
 40
0.5624999999999932
 40
0.5624999999999932
 40
0.5624999999999932
 40
0.5624999999999932
 40
0.5937499999999933
 40
0.5937499999999933
 40
0.5937499999999933
 40
0.5937499999999933
 10
47.28930644914401
 20
9.33916637523529
 30
0.0
 10
47.1653931417597
 20
9.27960165739814
 30
0.0
 10
47.01507048345044
 20
9.209143064862937
 30
0.0
 10
46.83996898135229
 20
9.131675944769851
 30
0.0
  0
SPLINE
  5
22F
330
1F
100
AcDbEntity
  8
SK3
  6
SLD-Dashed
370
    18
100
AcDbSpline
210
0.0
220
0.0
230
1.0
 70
     8
 71
     3
 72
     8
 73
     4
 74
     0
 42
0.000000001
 43
0.00000001
 40
0.5937499999999933
 40
0.5937499999999933
 40
0.5937499999999933
 40
0.5937499999999933
 40
0.6249999999999933
 40
0.6249999999999933
 40
0.6249999999999933
 40
0.6249999999999933
 10
46.83996898135229
 20
9.131675944769851
 30
0.0
 10
46.66486747925415
 20
9.054208824676758
 30
0.0
 10
46.46271733122434
 20
8.968847134255094
 30
0.0
 10
46.24191241318365
 20
8.883294279152707
 30
0.0
  0
SPLINE
  5
230
330
1F
100
AcDbEntity
  8
SK3
  6
SLD-Dashed
370
    18
100
AcDbSpline
210
0.0
220
0.0
230
1.0
 70
     8
 71
     3
 72
     8
 73
     4
 74
     0
 42
0.000000001
 43
0.00000001
 40
0.6249999999999933
 40
0.6249999999999933
 40
0.6249999999999933
 40
0.6249999999999933
 40
0.6562499999999933
 40
0.6562499999999933
 40
0.6562499999999933
 40
0.6562499999999933
 10
46.24191241318365
 20
8.883294279152707
 30
0.0
 10
46.02110749514295
 20
8.797741424050313
 30
0.0
 10
45.78105356101452
 20
8.711582291420426
 30
0.0
 10
45.52043756751316
 20
8.629422735544749
 30
0.0
  0
SPLINE
  5
231
330
1F
100
AcDbEntity
  8
SK3
  6
SLD-Dashed
370
    18
100
AcDbSpline
210
0.0
220
0.0
230
1.0
 70
     8
 71
     3
 72
     8
 73
     4
 74
     0
 42
0.000000001
 43
0.00000001
 40
0.6562499999999933
 40
0.6562499999999933
 40
0.6562499999999933
 40
0.6562499999999933
 40
0.6718749999999937
 40
0.6718749999999937
 40
0.6718749999999937
 40
0.6718749999999937
 10
45.52043756751316
 20
8.629422735544749
 30
0.0
 10
45.39012957076247
 20
8.588342957606896
 30
0.0
 10
45.25391291367381
 20
8.54809705823554
 30
0.0
 10
45.11495140812536
 20
8.510297069549408
 30
0.0
  0
SPLINE
  5
232
330
1F
100
AcDbEntity
  8
SK3
  6
SLD-Dashed
370
    18
100
AcDbSpline
210
0.0
220
0.0
230
1.0
 70
     8
 71
     3
 72
     8
 73
     4
 74
     0
 42
0.000000001
 43
0.00000001
 40
0.6718749999999937
 40
0.6718749999999937
 40
0.6718749999999937
 40
0.6718749999999937
 40
0.6874999999999939
 40
0.6874999999999939
 40
0.6874999999999939
 40
0.6874999999999939
 10
45.11495140812536
 20
8.510297069549408
 30
0.0
 10
44.97598990257693
 20
8.47249708086329
 30
0.0
 10
44.83389443931206
 20
8.43699203603951
 30
0.0
 10
44.68858656084275
 20
8.404339080962608
 30
0.0
  0
SPLINE
  5
233
330
1F
100
AcDbEntity
  8
SK3
  6
SLD-Dashed
370
    18
100
AcDbSpline
210
0.0
220
0.0
230
1.0
 70
     8
 71
     3
 72
     8
 73
     4
 74
     0
 42
0.000000001
 43
0.00000001
 40
0.6874999999999939
 40
0.6874999999999939
 40
0.6874999999999939
 40
0.6874999999999939
 40
0.7187499999999946
 40
0.7187499999999946
 40
0.7187499999999946
 40
0.7187499999999946
 10
44.68858656084275
 20
8.404339080962608
 30
0.0
 10
44.39797080390409
 20
8.339033170808815
 30
0.0
 10
44.0946173946508
 20
8.28507786803888
 30
0.0
 10
43.77666648424817
 20
8.247425877899929
 30
0.0
  0
SPLINE
  5
234
330
1F
100
AcDbEntity
  8
SK3
  6
SLD-Dashed
370
    18
100
AcDbSpline
210
0.0
220
0.0
230
1.0
 70
     8
 71
     3
 72
     8
 73
     4
 74
     0
 42
0.000000001
 43
0.00000001
 40
0.7187499999999946
 40
0.7187499999999946
 40
0.7187499999999946
 40
0.7187499999999946
 40
0.7499999999999952
 40
0.7499999999999952
 40
0.7499999999999952
 40
0.7499999999999952
 10
43.77666648424817
 20
8.247425877899929
 30
0.0
 10
43.45871557384555
 20
8.209773887760972
 30
0.0
 10
43.13540328664223
 20
8.189921648384523
 30
0.0
 10
42.81316856396979
 20
8.189403494826518
 30
0.0
  0
SPLINE
  5
235
330
1F
100
AcDbEntity
  8
SK3
  6
SLD-Dashed
370
    18
100
AcDbSpline
210
0.0
220
0.0
230
1.0
 70
     8
 71
     3
 72
     8
 73
     4
 74
     0
 42
0.000000001
 43
0.00000001
 40
0.7499999999999952
 40
0.7499999999999952
 40
0.7499999999999952
 40
0.7499999999999952
 40
0.7656249999999952
 40
0.7656249999999952
 40
0.7656249999999952
 40
0.7656249999999952
 10
42.81316856396979
 20
8.189403494826518
 30
0.0
 10
42.65205120263356
 20
8.189144418047515
 30
0.0
 10
42.49069190473127
 20
8.193643716632746
 30
0.0
 10
42.32908619896195
 20
8.202921186870437
 30
0.0
  0
SPLINE
  5
236
330
1F
100
AcDbEntity
  8
SK3
  6
SLD-Dashed
370
    18
100
AcDbSpline
210
0.0
220
0.0
230
1.0
 70
     8
 71
     3
 72
     8
 73
     4
 74
     0
 42
0.000000001
 43
0.00000001
 40
0.7656249999999952
 40
0.7656249999999952
 40
0.7656249999999952
 40
0.7656249999999952
 40
0.7812499999999952
 40
0.7812499999999952
 40
0.7812499999999952
 40
0.7812499999999952
 10
42.32908619896195
 20
8.202921186870437
 30
0.0
 10
42.16748049319265
 20
8.212198657108114
 30
0.0
 10
42.00510782137966
 20
8.226374730815403
 30
0.0
 10
41.84666475498966
 20
8.244695523752142
 30
0.0
  0
SPLINE
  5
237
330
1F
100
AcDbEntity
  8
SK3
  6
SLD-Dashed
370
    18
100
AcDbSpline
210
0.0
220
0.0
230
1.0
 70
     8
 71
     3
 72
     8
 73
     4
 74
     0
 42
0.000000001
 43
0.00000001
 40
0.7812499999999952
 40
0.7812499999999952
 40
0.7812499999999952
 40
0.7812499999999952
 40
0.8124999999999959
 40
0.8124999999999959
 40
0.8124999999999959
 40
0.8124999999999959
 10
41.84666475498966
 20
8.244695523752142
 30
0.0
 10
41.52977862220968
 20
8.281337109625621
 30
0.0
 10
41.22442291124371
 20
8.334627160781844
 30
0.0
 10
40.92963925234451
 20
8.400262229024174
 30
0.0
  0
SPLINE
  5
238
330
1F
100
AcDbEntity
  8
SK3
  6
SLD-Dashed
370
    18
100
AcDbSpline
210
0.0
220
0.0
230
1.0
 70
     8
 71
     3
 72
     8
 73
     4
 74
     0
 42
0.000000001
 43
0.00000001
 40
0.8124999999999959
 40
0.8124999999999959
 40
0.8124999999999959
 40
0.8124999999999959
 40
0.8437499999999966
 40
0.8437499999999966
 40
0.8437499999999966
 40
0.8437499999999966
 10
40.92963925234451
 20
8.400262229024174
 30
0.0
 10
40.63485559344529
 20
8.465897297266489
 30
0.0
 10
40.35454465530851
 20
8.543140960221434
 30
0.0
 10
40.09410927778372
 20
8.624847870575804
 30
0.0
  0
SPLINE
  5
239
330
1F
100
AcDbEntity
  8
SK3
  6
SLD-Dashed
370
    18
100
AcDbSpline
210
0.0
220
0.0
230
1.0
 70
     8
 71
     3
 72
     8
 73
     4
 74
     0
 42
0.000000001
 43
0.00000001
 40
0.8437499999999966
 40
0.8437499999999966
 40
0.8437499999999966
 40
0.8437499999999966
 40
0.8749999999999972
 40
0.8749999999999972
 40
0.8749999999999972
 40
0.8749999999999972
 10
40.09410927778372
 20
8.624847870575804
 30
0.0
 10
39.83367390025894
 20
8.706554780930173
 30
0.0
 10
39.58867576987137
 20
8.794134998911483
 30
0.0
 10
39.36658890042687
 20
8.880003827064039
 30
0.0
  0
SPLINE
  5
23A
330
1F
100
AcDbEntity
  8
SK3
  6
SLD-Dashed
370
    18
100
AcDbSpline
210
0.0
220
0.0
230
1.0
 70
     8
 71
     3
 72
     8
 73
     4
 74
     0
 42
0.000000001
 43
0.00000001
 40
0.8749999999999972
 40
0.8749999999999972
 40
0.8749999999999972
 40
0.8749999999999972
 40
0.9062499999999979
 40
0.9062499999999979
 40
0.9062499999999979
 40
0.9062499999999979
 10
39.36658890042687
 20
8.880003827064039
 30
0.0
 10
39.14450203098235
 20
8.965872655216597
 30
0.0
 10
38.94570767233471
 20
9.049684682381237
 30
0.0
 10
38.76972107885543
 20
9.127393076460676
 30
0.0
  0
SPLINE
  5
23B
330
1F
100
AcDbEntity
  8
SK3
  6
SLD-Dashed
370
    18
100
AcDbSpline
210
0.0
220
0.0
230
1.0
 70
     8
 71
     3
 72
     8
 73
     4
 74
     0
 42
0.000000001
 43
0.00000001
 40
0.9062499999999979
 40
0.9062499999999979
 40
0.9062499999999979
 40
0.9062499999999979
 40
0.9374999999999987
 40
0.9374999999999987
 40
0.9374999999999987
 40
0.9374999999999987
 10
38.76972107885543
 20
9.127393076460676
 30
0.0
 10
38.59373448537615
 20
9.205101470540114
 30
0.0
 10
38.43988051522322
 20
9.27712880479771
 30
0.0
 10
38.31667497515242
 20
9.336292597622698
 30
0.0
  0
SPLINE
  5
23C
330
1F
100
AcDbEntity
  8
SK3
  6
SLD-Dashed
370
    18
100
AcDbSpline
210
0.0
220
0.0
230
1.0
 70
     8
 71
     3
 72
     8
 73
     4
 74
     0
 42
0.000000001
 43
0.00000001
 40
0.9374999999999987
 40
0.9374999999999987
 40
0.9374999999999987
 40
0.9374999999999987
 40
0.9687499999999993
 40
0.9687499999999993
 40
0.9687499999999993
 40
0.9687499999999993
 10
38.31667497515242
 20
9.336292597622698
 30
0.0
 10
38.19346943508166
 20
9.395456390447677
 30
0.0
 10
38.0988309099646
 20
9.44267045637441
 30
0.0
 10
38.03418687274671
 20
9.475185008953641
 30
0.0
  0
SPLINE
  5
23D
330
1F
100
AcDbEntity
  8
SK3
  6
SLD-Dashed
370
    18
100
AcDbSpline
210
0.0
220
0.0
230
1.0
 70
     8
 71
     2
 72
     6
 73
     3
 74
     0
 42
0.000000001
 43
0.00000001
 40
0.9687499999999993
 40
0.9687499999999993
 40
0.9687499999999993
 40
1.0
 40
1.0
 40
1.0
 10
38.03418687274669
 20
9.475185008953648
 30
0.0
 10
37.96954283552881
 20
9.50769956153287
 30
0.0
 10
37.93590000000001
 20
9.524999999999991
 30
0.0
  0
SPLINE
  5
23E
330
1F
100
AcDbEntity
  8
SK3
  6
SLD-Dashed
370
    18
100
AcDbSpline
210
0.0
220
0.0
230
1.0
 70
     8
 71
     2
 72
     6
 73
     3
 74
     0
 42
0.000000001
 43
0.00000001
 40
0.0
 40
0.0
 40
0.0
 40
0.0312499999999982
 40
0.0312499999999982
 40
0.0312499999999982
 10
60.33590000000002
 20
9.524999999999991
 30
0.0
 10
60.36859402012679
 20
9.508187148644334
 30
0.0
 10
60.43215289590717
 20
9.476208218375442
 30
0.0
  0
SPLINE
  5
23F
330
1F
100
AcDbEntity
  8
SK3
  6
SLD-Dashed
370
    18
100
AcDbSpline
210
0.0
220
0.0
230
1.0
 70
     8
 71
     3
 72
     8
 73
     4
 74
     0
 42
0.000000001
 43
0.00000001
 40
0.0312499999999982
 40
0.0312499999999982
 40
0.0312499999999982
 40
0.0312499999999982
 40
0.0624999999999963
 40
0.0624999999999963
 40
0.0624999999999963
 40
0.0624999999999963
 10
60.43215289590717
 20
9.476208218375442
 30
0.0
 10
60.49571177168755
 20
9.44422928810655
 30
0.0
 10
60.59188492582778
 20
9.396233466200368
 30
0.0
 10
60.71509061498773
 20
9.337053517131148
 30
0.0
  0
SPLINE
  5
240
330
1F
100
AcDbEntity
  8
SK3
  6
SLD-Dashed
370
    18
100
AcDbSpline
210
0.0
220
0.0
230
1.0
 70
     8
 71
     3
 72
     8
 73
     4
 74
     0
 42
0.000000001
 43
0.00000001
 40
0.0624999999999963
 40
0.0624999999999963
 40
0.0624999999999963
 40
0.0624999999999963
 40
0.0937499999999945
 40
0.0937499999999945
 40
0.0937499999999945
 40
0.0937499999999945
 10
60.71509061498773
 20
9.337053517131148
 30
0.0
 10
60.83829630414767
 20
9.27787356806193
 30
0.0
 10
60.98825456624022
 20
9.207600195835663
 30
0.0
 10
61.16471303359769
 20
9.12960552768935
 30
0.0
  0
SPLINE
  5
241
330
1F
100
AcDbEntity
  8
SK3
  6
SLD-Dashed
370
    18
100
AcDbSpline
210
0.0
220
0.0
230
1.0
 70
     8
 71
     3
 72
     8
 73
     4
 74
     0
 42
0.000000001
 43
0.00000001
 40
0.0937499999999945
 40
0.0937499999999945
 40
0.0937499999999945
 40
0.0937499999999945
 40
0.1249999999999927
 40
0.1249999999999927
 40
0.1249999999999927
 40
0.1249999999999927
 10
61.16471303359769
 20
9.12960552768935
 30
0.0
 10
61.34117150095514
 20
9.051610859543029
 30
0.0
 10
61.54194001102756
 20
8.96695624532836
 30
0.0
 10
61.76222307513926
 20
8.88169276518306
 30
0.0
  0
SPLINE
  5
242
330
1F
100
AcDbEntity
  8
SK3
  6
SLD-Dashed
370
    18
100
AcDbSpline
210
0.0
220
0.0
230
1.0
 70
     8
 71
     3
 72
     8
 73
     4
 74
     0
 42
0.000000001
 43
0.00000001
 40
0.1249999999999927
 40
0.1249999999999927
 40
0.1249999999999927
 40
0.1249999999999927
 40
0.1562499999999909
 40
0.1562499999999909
 40
0.1562499999999909
 40
0.1562499999999909
 10
61.76222307513926
 20
8.88169276518306
 30
0.0
 10
61.98250613925097
 20
8.796429285037744
 30
0.0
 10
62.22575178510311
 20
8.709244384042899
 30
0.0
 10
62.48672607289252
 20
8.627167066512696
 30
0.0
  0
SPLINE
  5
243
330
1F
100
AcDbEntity
  8
SK3
  6
SLD-Dashed
370
    18
100
AcDbSpline
210
0.0
220
0.0
230
1.0
 70
     8
 71
     3
 72
     8
 73
     4
 74
     0
 42
0.000000001
 43
0.00000001
 40
0.1562499999999909
 40
0.1562499999999909
 40
0.1562499999999909
 40
0.1562499999999909
 40
0.1874999999999886
 40
0.1874999999999886
 40
0.1874999999999886
 40
0.1874999999999886
 10
62.48672607289252
 20
8.627167066512696
 30
0.0
 10
62.74770036068192
 20
8.545089748982472
 30
0.0
 10
63.02306502872576
 20
8.469054951095622
 30
0.0
 10
63.31387473847933
 20
8.403786330705126
 30
0.0
  0
SPLINE
  5
244
330
1F
100
AcDbEntity
  8
SK3
  6
SLD-Dashed
370
    18
100
AcDbSpline
210
0.0
220
0.0
230
1.0
 70
     8
 71
     3
 72
     8
 73
     4
 74
     0
 42
0.000000001
 43
0.00000001
 40
0.1874999999999886
 40
0.1874999999999886
 40
0.1874999999999886
 40
0.1874999999999886
 40
0.203124999999988
 40
0.203124999999988
 40
0.203124999999988
 40
0.203124999999988
 10
63.31387473847933
 20
8.403786330705126
 30
0.0
 10
63.45927959335609
 20
8.371152020509864
 30
0.0
 10
63.60857501648734
 20
8.341218514649793
 30
0.0
 10
63.76209442914857
 20
8.314669483550475
 30
0.0
  0
SPLINE
  5
245
330
1F
100
AcDbEntity
  8
SK3
  6
SLD-Dashed
370
    18
100
AcDbSpline
210
0.0
220
0.0
230
1.0
 70
     8
 71
     3
 72
     8
 73
     4
 74
     0
 42
0.000000001
 43
0.00000001
 40
0.203124999999988
 40
0.203124999999988
 40
0.203124999999988
 40
0.203124999999988
 40
0.2187499999999874
 40
0.2187499999999874
 40
0.2187499999999874
 40
0.2187499999999874
 10
63.76209442914857
 20
8.314669483550475
 30
0.0
 10
63.91561384180977
 20
8.28812045245115
 30
0.0
 10
64.07286408901253
 20
8.26511788777213
 30
0.0
 10
64.23021804559819
 20
8.246613440017862
 30
0.0
  0
SPLINE
  5
246
330
1F
100
AcDbEntity
  8
SK3
  6
SLD-Dashed
370
    18
100
AcDbSpline
210
0.0
220
0.0
230
1.0
 70
     8
 71
     3
 72
     8
 73
     4
 74
     0
 42
0.000000001
 43
0.00000001
 40
0.2187499999999874
 40
0.2187499999999874
 40
0.2187499999999874
 40
0.2187499999999874
 40
0.2499999999999876
 40
0.2499999999999876
 40
0.2499999999999876
 40
0.2499999999999876
 10
64.23021804559819
 20
8.246613440017862
 30
0.0
 10
64.54492595876945
 20
8.209604544509315
 30
0.0
 10
64.8640157578265
 20
8.189888934656505
 30
0.0
 10
65.18768391492735
 20
8.189402168409556
 30
0.0
  0
SPLINE
  5
247
330
1F
100
AcDbEntity
  8
SK3
  6
SLD-Dashed
370
    18
100
AcDbSpline
210
0.0
220
0.0
230
1.0
 70
     8
 71
     3
 72
     8
 73
     4
 74
     0
 42
0.000000001
 43
0.00000001
 40
0.2499999999999876
 40
0.2499999999999876
 40
0.2499999999999876
 40
0.2499999999999876
 40
0.2656249999999877
 40
0.2656249999999877
 40
0.2656249999999877
 40
0.2656249999999877
 10
65.18768391492735
 20
8.189402168409556
 30
0.0
 10
65.34951799347779
 20
8.189158785286095
 30
0.0
 10
65.51366112241624
 20
8.193805857016324
 30
0.0
 10
65.67544179600107
 20
8.203182375845643
 30
0.0
  0
SPLINE
  5
248
330
1F
100
AcDbEntity
  8
SK3
  6
SLD-Dashed
370
    18
100
AcDbSpline
210
0.0
220
0.0
230
1.0
 70
     8
 71
     3
 72
     8
 73
     4
 74
     0
 42
0.000000001
 43
0.00000001
 40
0.2656249999999877
 40
0.2656249999999877
 40
0.2656249999999877
 40
0.2656249999999877
 40
0.2812499999999878
 40
0.2812499999999878
 40
0.2812499999999878
 40
0.2812499999999878
 10
65.67544179600107
 20
8.203182375845643
 30
0.0
 10
65.83722246958584
 20
8.212558894674954
 30
0.0
 10
65.99674921531792
 20
8.226574385741127
 30
0.0
 10
66.15413767221267
 20
8.244788347042938
 30
0.0
  0
SPLINE
  5
249
330
1F
100
AcDbEntity
  8
SK3
  6
SLD-Dashed
370
    18
100
AcDbSpline
210
0.0
220
0.0
230
1.0
 70
     8
 71
     3
 72
     8
 73
     4
 74
     0
 42
0.000000001
 43
0.00000001
 40
0.2812499999999878
 40
0.2812499999999878
 40
0.2812499999999878
 40
0.2812499999999878
 40
0.312499999999988
 40
0.312499999999988
 40
0.312499999999988
 40
0.312499999999988
 10
66.15413767221267
 20
8.244788347042938
 30
0.0
 10
66.46891458600216
 20
8.281216269646578
 30
0.0
 10
66.77783443554164
 20
8.335070597758753
 30
0.0
 10
67.07214329449369
 20
8.400659301811823
 30
0.0
  0
SPLINE
  5
24A
330
1F
100
AcDbEntity
  8
SK3
  6
SLD-Dashed
370
    18
100
AcDbSpline
210
0.0
220
0.0
230
1.0
 70
     8
 71
     3
 72
     8
 73
     4
 74
     0
 42
0.000000001
 43
0.00000001
 40
0.312499999999988
 40
0.312499999999988
 40
0.312499999999988
 40
0.312499999999988
 40
0.3437499999999881
 40
0.3437499999999881
 40
0.3437499999999881
 40
0.3437499999999881
 10
67.07214329449369
 20
8.400659301811823
 30
0.0
 10
67.36645215344575
 20
8.46624800586488
 30
0.0
 10
67.64334578253647
 20
8.54251623613949
 30
0.0
 10
67.90453501888152
 20
8.624422639131039
 30
0.0
  0
SPLINE
  5
24B
330
1F
100
AcDbEntity
  8
SK3
  6
SLD-Dashed
370
    18
100
AcDbSpline
210
0.0
220
0.0
230
1.0
 70
     8
 71
     3
 72
     8
 73
     4
 74
     0
 42
0.000000001
 43
0.00000001
 40
0.3437499999999881
 40
0.3437499999999881
 40
0.3437499999999881
 40
0.3437499999999881
 40
0.3749999999999882
 40
0.3749999999999882
 40
0.3749999999999882
 40
0.3749999999999882
 10
67.90453501888152
 20
8.624422639131039
 30
0.0
 10
68.16572425522658
 20
8.706329042122576
 30
0.0
 10
68.4105097593182
 20
8.793864561500948
 30
0.0
 10
68.63131837415801
 20
8.879194894517974
 30
0.0
  0
SPLINE
  5
24C
330
1F
100
AcDbEntity
  8
SK3
  6
SLD-Dashed
370
    18
100
AcDbSpline
210
0.0
220
0.0
230
1.0
 70
     8
 71
     3
 72
     8
 73
     4
 74
     0
 42
0.000000001
 43
0.00000001
 40
0.3749999999999882
 40
0.3749999999999882
 40
0.3749999999999882
 40
0.3749999999999882
 40
0.4062499999999884
 40
0.4062499999999884
 40
0.4062499999999884
 40
0.4062499999999884
 10
68.63131837415801
 20
8.879194894517974
 30
0.0
 10
68.85212698899787
 20
8.964525227535006
 30
0.0
 10
69.05161382484599
 20
9.048517310879259
 30
0.0
 10
69.22930256969637
 20
9.126962002121013
 30
0.0
  0
SPLINE
  5
24D
330
1F
100
AcDbEntity
  8
SK3
  6
SLD-Dashed
370
    18
100
AcDbSpline
210
0.0
220
0.0
230
1.0
 70
     8
 71
     3
 72
     8
 73
     4
 74
     0
 42
0.000000001
 43
0.00000001
 40
0.4062499999999884
 40
0.4062499999999884
 40
0.4062499999999884
 40
0.4062499999999884
 40
0.4374999999999886
 40
0.4374999999999886
 40
0.4374999999999886
 40
0.4374999999999886
 10
69.22930256969637
 20
9.126962002121013
 30
0.0
 10
69.4069913145467
 20
9.205406693362782
 30
0.0
 10
69.55762999622522
 20
9.27596014956903
 30
0.0
 10
69.68071042425997
 20
9.335037337690261
 30
0.0
  0
SPLINE
  5
24E
330
1F
100
AcDbEntity
  8
SK3
  6
SLD-Dashed
370
    18
100
AcDbSpline
210
0.0
220
0.0
230
1.0
 70
     8
 71
     3
 72
     8
 73
     4
 74
     0
 42
0.000000001
 43
0.00000001
 40
0.4374999999999886
 40
0.4374999999999886
 40
0.4374999999999886
 40
0.4374999999999886
 40
0.4531249999999889
 40
0.4531249999999889
 40
0.4531249999999889
 40
0.4531249999999889
 10
69.68071042425997
 20
9.335037337690261
 30
0.0
 10
69.74225063827735
 20
9.364575931750892
 30
0.0
 10
69.79694588181043
 20
9.391291369928465
 30
0.0
 10
69.8445416094795
 20
9.414771529473565
 30
0.0
  0
SPLINE
  5
24F
330
1F
100
AcDbEntity
  8
SK3
  6
SLD-Dashed
370
    18
100
AcDbSpline
210
0.0
220
0.0
230
1.0
 70
     8
 71
     3
 72
     8
 73
     4
 74
     0
 42
0.000000001
 43
0.00000001
 40
0.4531249999999889
 40
0.4531249999999889
 40
0.4531249999999889
 40
0.4531249999999889
 40
0.4687499999999892
 40
0.4687499999999892
 40
0.4687499999999892
 40
0.4687499999999892
 10
69.8445416094795
 20
9.414771529473565
 30
0.0
 10
69.89213733714864
 20
9.438251689018685
 30
0.0
 10
69.9328310038915
 20
9.458596991440041
 30
0.0
 10
69.96531825873187
 20
9.474936110444359
 30
0.0
  0
SPLINE
  5
250
330
1F
100
AcDbEntity
  8
SK3
  6
SLD-Dashed
370
    18
100
AcDbSpline
210
0.0
220
0.0
230
1.0
 70
     8
 71
     3
 72
     8
 73
     4
 74
     0
 42
0.000000001
 43
0.00000001
 40
0.4687499999999892
 40
0.4687499999999892
 40
0.4687499999999892
 40
0.4687499999999892
 40
0.4999999999999898
 40
0.4999999999999898
 40
0.4999999999999898
 40
0.4999999999999898
 10
69.96531825873187
 20
9.474936110444359
 30
0.0
 10
70.03029276841252
 20
9.507614348452986
 30
0.0
 10
70.06310728661893
 20
9.524493056040521
 30
0.0
 10
70.06407803120246
 20
9.524988781286083
 30
0.0
  0
SPLINE
  5
251
330
1F
100
AcDbEntity
  8
SK3
  6
SLD-Dashed
370
    18
100
AcDbSpline
210
0.0
220
0.0
230
1.0
 70
     8
 71
     3
 72
     8
 73
     4
 74
     0
 42
0.000000001
 43
0.00000001
 40
0.5312499999999903
 40
0.5312499999999903
 40
0.5312499999999903
 40
0.5312499999999903
 40
0.562499999999991
 40
0.562499999999991
 40
0.562499999999991
 40
0.562499999999991
 10
69.96982258745193
 20
9.477202314278511
 30
0.0
 10
69.90671670890889
 20
9.445441480765226
 30
0.0
 10
69.81321975652833
 20
9.398731093072453
 30
0.0
 10
69.68930644914401
 20
9.33916637523529
 30
0.0
  0
SPLINE
  5
252
330
1F
100
AcDbEntity
  8
SK3
  6
SLD-Dashed
370
    18
100
AcDbSpline
210
0.0
220
0.0
230
1.0
 70
     8
 71
     3
 72
     8
 73
     4
 74
     0
 42
0.000000001
 43
0.00000001
 40
0.562499999999991
 40
0.562499999999991
 40
0.562499999999991
 40
0.562499999999991
 40
0.5937499999999916
 40
0.5937499999999916
 40
0.5937499999999916
 40
0.5937499999999916
 10
69.68930644914401
 20
9.33916637523529
 30
0.0
 10
69.56539314175971
 20
9.27960165739814
 30
0.0
 10
69.41507048345049
 20
9.209143064862937
 30
0.0
 10
69.23996898135232
 20
9.131675944769851
 30
0.0
  0
SPLINE
  5
253
330
1F
100
AcDbEntity
  8
SK3
  6
SLD-Dashed
370
    18
100
AcDbSpline
210
0.0
220
0.0
230
1.0
 70
     8
 71
     3
 72
     8
 73
     4
 74
     0
 42
0.000000001
 43
0.00000001
 40
0.5937499999999916
 40
0.5937499999999916
 40
0.5937499999999916
 40
0.5937499999999916
 40
0.6249999999999922
 40
0.6249999999999922
 40
0.6249999999999922
 40
0.6249999999999922
 10
69.23996898135232
 20
9.131675944769851
 30
0.0
 10
69.06486747925419
 20
9.054208824676758
 30
0.0
 10
68.86271733122437
 20
8.968847134255094
 30
0.0
 10
68.64191241318365
 20
8.883294279152707
 30
0.0
  0
SPLINE
  5
254
330
1F
100
AcDbEntity
  8
SK3
  6
SLD-Dashed
370
    18
100
AcDbSpline
210
0.0
220
0.0
230
1.0
 70
     8
 71
     3
 72
     8
 73
     4
 74
     0
 42
0.000000001
 43
0.00000001
 40
0.6249999999999922
 40
0.6249999999999922
 40
0.6249999999999922
 40
0.6249999999999922
 40
0.6562499999999928
 40
0.6562499999999928
 40
0.6562499999999928
 40
0.6562499999999928
 10
68.64191241318365
 20
8.883294279152707
 30
0.0
 10
68.4211074951429
 20
8.797741424050313
 30
0.0
 10
68.18105356101451
 20
8.711582291420438
 30
0.0
 10
67.92043756751318
 20
8.629422735544761
 30
0.0
  0
SPLINE
  5
255
330
1F
100
AcDbEntity
  8
SK3
  6
SLD-Dashed
370
    18
100
AcDbSpline
210
0.0
220
0.0
230
1.0
 70
     8
 71
     3
 72
     8
 73
     4
 74
     0
 42
0.000000001
 43
0.00000001
 40
0.6562499999999928
 40
0.6562499999999928
 40
0.6562499999999928
 40
0.6562499999999928
 40
0.6718749999999931
 40
0.6718749999999931
 40
0.6718749999999931
 40
0.6718749999999931
 10
67.92043756751318
 20
8.629422735544761
 30
0.0
 10
67.79012957076247
 20
8.588342957606908
 30
0.0
 10
67.6539129136738
 20
8.54809705823554
 30
0.0
 10
67.51495140812538
 20
8.510297069549408
 30
0.0
  0
SPLINE
  5
256
330
1F
100
AcDbEntity
  8
SK3
  6
SLD-Dashed
370
    18
100
AcDbSpline
210
0.0
220
0.0
230
1.0
 70
     8
 71
     3
 72
     8
 73
     4
 74
     0
 42
0.000000001
 43
0.00000001
 40
0.6718749999999931
 40
0.6718749999999931
 40
0.6718749999999931
 40
0.6718749999999931
 40
0.6874999999999934
 40
0.6874999999999934
 40
0.6874999999999934
 40
0.6874999999999934
 10
67.51495140812538
 20
8.510297069549408
 30
0.0
 10
67.37598990257696
 20
8.472497080863278
 30
0.0
 10
67.23389443931205
 20
8.43699203603951
 30
0.0
 10
67.08858656084274
 20
8.404339080962629
 30
0.0
  0
SPLINE
  5
257
330
1F
100
AcDbEntity
  8
SK3
  6
SLD-Dashed
370
    18
100
AcDbSpline
210
0.0
220
0.0
230
1.0
 70
     8
 71
     3
 72
     8
 73
     4
 74
     0
 42
0.000000001
 43
0.00000001
 40
0.6874999999999934
 40
0.6874999999999934
 40
0.6874999999999934
 40
0.6874999999999934
 40
0.718749999999994
 40
0.718749999999994
 40
0.718749999999994
 40
0.718749999999994
 10
67.08858656084274
 20
8.404339080962629
 30
0.0
 10
66.7979708039041
 20
8.339033170808815
 30
0.0
 10
66.49461739465082
 20
8.28507786803888
 30
0.0
 10
66.17666648424816
 20
8.247425877899929
 30
0.0
  0
SPLINE
  5
258
330
1F
100
AcDbEntity
  8
SK3
  6
SLD-Dashed
370
    18
100
AcDbSpline
210
0.0
220
0.0
230
1.0
 70
     8
 71
     3
 72
     8
 73
     4
 74
     0
 42
0.000000001
 43
0.00000001
 40
0.718749999999994
 40
0.718749999999994
 40
0.718749999999994
 40
0.718749999999994
 40
0.7499999999999946
 40
0.7499999999999946
 40
0.7499999999999946
 40
0.7499999999999946
 10
66.17666648424816
 20
8.247425877899929
 30
0.0
 10
65.85871557384552
 20
8.209773887760972
 30
0.0
 10
65.53540328664221
 20
8.189921648384523
 30
0.0
 10
65.21316856396983
 20
8.189403494826532
 30
0.0
  0
SPLINE
  5
259
330
1F
100
AcDbEntity
  8
SK3
  6
SLD-Dashed
370
    18
100
AcDbSpline
210
0.0
220
0.0
230
1.0
 70
     8
 71
     3
 72
     8
 73
     4
 74
     0
 42
0.000000001
 43
0.00000001
 40
0.7499999999999946
 40
0.7499999999999946
 40
0.7499999999999946
 40
0.7499999999999946
 40
0.7656249999999949
 40
0.7656249999999949
 40
0.7656249999999949
 40
0.7656249999999949
 10
65.21316856396983
 20
8.189403494826532
 30
0.0
 10
65.05205120263358
 20
8.189144418047515
 30
0.0
 10
64.89069190473126
 20
8.193643716632746
 30
0.0
 10
64.72908619896198
 20
8.202921186870437
 30
0.0
  0
SPLINE
  5
25A
330
1F
100
AcDbEntity
  8
SK3
  6
SLD-Dashed
370
    18
100
AcDbSpline
210
0.0
220
0.0
230
1.0
 70
     8
 71
     3
 72
     8
 73
     4
 74
     0
 42
0.000000001
 43
0.00000001
 40
0.7656249999999949
 40
0.7656249999999949
 40
0.7656249999999949
 40
0.7656249999999949
 40
0.7812499999999952
 40
0.7812499999999952
 40
0.7812499999999952
 40
0.7812499999999952
 10
64.72908619896198
 20
8.202921186870437
 30
0.0
 10
64.56748049319266
 20
8.212198657108114
 30
0.0
 10
64.4051078213797
 20
8.226374730815403
 30
0.0
 10
64.2466647549897
 20
8.244695523752156
 30
0.0
  0
SPLINE
  5
25B
330
1F
100
AcDbEntity
  8
SK3
  6
SLD-Dashed
370
    18
100
AcDbSpline
210
0.0
220
0.0
230
1.0
 70
     8
 71
     3
 72
     8
 73
     4
 74
     0
 42
0.000000001
 43
0.00000001
 40
0.7812499999999952
 40
0.7812499999999952
 40
0.7812499999999952
 40
0.7812499999999952
 40
0.8124999999999958
 40
0.8124999999999958
 40
0.8124999999999958
 40
0.8124999999999958
 10
64.2466647549897
 20
8.244695523752156
 30
0.0
 10
63.9297786222097
 20
8.281337109625621
 30
0.0
 10
63.62442291124376
 20
8.334627160781844
 30
0.0
 10
63.32963925234453
 20
8.400262229024174
 30
0.0
  0
SPLINE
  5
25C
330
1F
100
AcDbEntity
  8
SK3
  6
SLD-Dashed
370
    18
100
AcDbSpline
210
0.0
220
0.0
230
1.0
 70
     8
 71
     3
 72
     8
 73
     4
 74
     0
 42
0.000000001
 43
0.00000001
 40
0.8124999999999958
 40
0.8124999999999958
 40
0.8124999999999958
 40
0.8124999999999958
 40
0.8437499999999964
 40
0.8437499999999964
 40
0.8437499999999964
 40
0.8437499999999964
 10
63.32963925234453
 20
8.400262229024174
 30
0.0
 10
63.03485559344532
 20
8.465897297266489
 30
0.0
 10
62.75454465530858
 20
8.543140960221434
 30
0.0
 10
62.49410927778374
 20
8.624847870575804
 30
0.0
  0
SPLINE
  5
25D
330
1F
100
AcDbEntity
  8
SK3
  6
SLD-Dashed
370
    18
100
AcDbSpline
210
0.0
220
0.0
230
1.0
 70
     8
 71
     3
 72
     8
 73
     4
 74
     0
 42
0.000000001
 43
0.00000001
 40
0.8437499999999964
 40
0.8437499999999964
 40
0.8437499999999964
 40
0.8437499999999964
 40
0.8749999999999971
 40
0.8749999999999971
 40
0.8749999999999971
 40
0.8749999999999971
 10
62.49410927778374
 20
8.624847870575804
 30
0.0
 10
62.23367390025891
 20
8.706554780930173
 30
0.0
 10
61.98867576987136
 20
8.794134998911483
 30
0.0
 10
61.76658890042685
 20
8.880003827064039
 30
0.0
  0
SPLINE
  5
25E
330
1F
100
AcDbEntity
  8
SK3
  6
SLD-Dashed
370
    18
100
AcDbSpline
210
0.0
220
0.0
230
1.0
 70
     8
 71
     3
 72
     8
 73
     4
 74
     0
 42
0.000000001
 43
0.00000001
 40
0.8749999999999971
 40
0.8749999999999971
 40
0.8749999999999971
 40
0.8749999999999971
 40
0.9062499999999979
 40
0.9062499999999979
 40
0.9062499999999979
 40
0.9062499999999979
 10
61.76658890042685
 20
8.880003827064039
 30
0.0
 10
61.54450203098236
 20
8.965872655216597
 30
0.0
 10
61.34570767233474
 20
9.049684682381223
 30
0.0
 10
61.16972107885546
 20
9.127393076460661
 30
0.0
  0
SPLINE
  5
25F
330
1F
100
AcDbEntity
  8
SK3
  6
SLD-Dashed
370
    18
100
AcDbSpline
210
0.0
220
0.0
230
1.0
 70
     8
 71
     3
 72
     8
 73
     4
 74
     0
 42
0.000000001
 43
0.00000001
 40
0.9062499999999979
 40
0.9062499999999979
 40
0.9062499999999979
 40
0.9062499999999979
 40
0.9374999999999986
 40
0.9374999999999986
 40
0.9374999999999986
 40
0.9374999999999986
 10
61.16972107885546
 20
9.127393076460661
 30
0.0
 10
60.99373448537615
 20
9.205101470540114
 30
0.0
 10
60.83988051522321
 20
9.27712880479771
 30
0.0
 10
60.71667497515246
 20
9.336292597622684
 30
0.0
  0
SPLINE
  5
260
330
1F
100
AcDbEntity
  8
SK3
  6
SLD-Dashed
370
    18
100
AcDbSpline
210
0.0
220
0.0
230
1.0
 70
     8
 71
     3
 72
     8
 73
     4
 74
     0
 42
0.000000001
 43
0.00000001
 40
0.9374999999999986
 40
0.9374999999999986
 40
0.9374999999999986
 40
0.9374999999999986
 40
0.9687499999999993
 40
0.9687499999999993
 40
0.9687499999999993
 40
0.9687499999999993
 10
60.71667497515246
 20
9.336292597622684
 30
0.0
 10
60.59346943508167
 20
9.395456390447658
 30
0.0
 10
60.49883090996455
 20
9.44267045637441
 30
0.0
 10
60.43418687274671
 20
9.475185008953641
 30
0.0
  0
SPLINE
  5
261
330
1F
100
AcDbEntity
  8
SK3
  6
SLD-Dashed
370
    18
100
AcDbSpline
210
0.0
220
0.0
230
1.0
 70
     8
 71
     2
 72
     6
 73
     3
 74
     0
 42
0.000000001
 43
0.00000001
 40
0.9687499999999993
 40
0.9687499999999993
 40
0.9687499999999993
 40
1.0
 40
1.0
 40
1.0
 10
60.43418687274671
 20
9.475185008953641
 30
0.0
 10
60.36954283552887
 20
9.50769956153287
 30
0.0
 10
60.33590000000002
 20
9.524999999999991
 30
0.0
  0
SPLINE
  5
262
330
1F
100
AcDbEntity
  8
SK3
  6
SLD-Dashed
370
    18
100
AcDbSpline
210
0.0
220
0.0
230
1.0
 70
     8
 71
     3
 72
    10
 73
     6
 74
     0
 42
0.000000001
 43
0.00000001
 40
0.0
 40
0.0
 40
0.0
 40
0.0
 40
0.5
 40
0.5
 40
1.0
 40
1.0
 40
1.0
 40
1.0
 10
18.70470837592286
 20
25.57912025275683
 30
0.0
 10
18.66514338213331
 20
25.52310107590328
 30
0.0
 10
18.62842911249971
 20
25.46562249807942
 30
0.0
 10
18.57073957446641
 20
25.34260791126142
 30
0.0
 10
18.55000000000004
 20
25.27482658978053
 30
0.0
 10
18.55000000000001
 20
25.20500000000003
 30
0.0
  0
SPLINE
  5
263
330
1F
100
AcDbEntity
  8
SK3
  6
SLD-Dashed
370
    18
100
AcDbSpline
210
0.0
220
0.0
230
1.0
 70
     8
 71
     3
 72
    10
 73
     6
 74
     0
 42
0.000000001
 43
0.00000001
 40
0.0
 40
0.0
 40
0.0
 40
0.0
 40
0.5
 40
0.5
 40
1.0
 40
1.0
 40
1.0
 40
1.0
 10
3.699999999999967
 20
25.20500000000003
 30
0.0
 10
3.699999999999952
 20
25.27446188700637
 30
0.0
 10
3.679668344672966
 20
25.34157876899187
 30
0.0
 10
3.621774626393164
 20
25.4653456965589
 30
0.0
 10
3.584972825281719
 20
25.52292618711527
 30
0.0
 10
3.54538884499798
 20
25.57898258716474
 30
0.0
  0
SPLINE
  5
264
330
1F
100
AcDbEntity
  8
SK3
  6
SLD-Dashed
370
    18
100
AcDbSpline
210
0.0
220
0.0
230
1.0
 70
    24
 71
     3
 72
     8
 73
     4
 74
     0
 42
0.000000001
 43
0.00000001
 40
0.0
 40
0.0
 40
0.0
 40
0.0
 40
0.4999999999999987
 40
0.4999999999999987
 40
0.4999999999999987
 40
0.4999999999999987
 10
19.05
 20
-22.41000000000001
 30
0.0
 10
18.97247827222663
 20
-22.41
 30
0.0
 10
18.89661835205909
 20
-22.41000000000001
 30
0.0
 10
18.83038739399198
 20
-22.41
 30
0.0
  0
SPLINE
  5
265
330
1F
100
AcDbEntity
  8
SK3
  6
SLD-Dashed
370
    18
100
AcDbSpline
210
0.0
220
0.0
230
1.0
 70
    24
 71
     3
 72
     8
 73
     4
 74
     0
 42
0.000000001
 43
0.00000001
 40
0.4999999999999987
 40
0.4999999999999987
 40
0.4999999999999987
 40
0.4999999999999987
 40
0.7499999999999993
 40
0.7499999999999993
 40
0.7499999999999993
 40
0.7499999999999993
 10
18.83038739399198
 20
-22.41
 30
0.0
 10
18.7972719149584
 20
-22.41
 30
0.0
 10
18.76669863834139
 20
-22.41000000000001
 30
0.0
 10
18.74342192288901
 20
-22.41000000000001
 30
0.0
  0
SPLINE
  5
266
330
1F
100
AcDbEntity
  8
SK3
  6
SLD-Dashed
370
    18
100
AcDbSpline
210
0.0
220
0.0
230
1.0
 70
    24
 71
     2
 72
     6
 73
     3
 74
     0
 42
0.000000001
 43
0.00000001
 40
0.7499999999999993
 40
0.7499999999999993
 40
0.7499999999999993
 40
1.0
 40
1.0
 40
1.0
 10
18.74342192288901
 20
-22.41000000000001
 30
0.0
 10
18.72014520743663
 20
-22.41000000000001
 30
0.0
 10
18.70461115500192
 20
-22.41000000000001
 30
0.0
  0
SPLINE
  5
267
330
1F
100
AcDbEntity
  8
1
  6
SLD-Dashed
370
    18
100
AcDbSpline
210
0.0
220
0.0
230
1.0
 70
    24
 71
     2
 72
     6
 73
     3
 74
     0
 42
0.000000001
 43
0.00000001
 40
0.0
 40
0.0
 40
0.0
 40
0.2500000000000002
 40
0.2500000000000002
 40
0.2500000000000002
 10
3.545291624077157
 20
-22.41000000000001
 30
0.0
 10
3.529781518569392
 20
-22.41000000000001
 30
0.0
 10
3.506264354048619
 20
-22.41000000000001
 30
0.0
  0
SPLINE
  5
268
330
1F
100
AcDbEntity
  8
1
  6
SLD-Dashed
370
    18
100
AcDbSpline
210
0.0
220
0.0
230
1.0
 70
    24
 71
     3
 72
     8
 73
     4
 74
     0
 42
0.000000001
 43
0.00000001
 40
0.2500000000000002
 40
0.2500000000000002
 40
0.2500000000000002
 40
0.2500000000000002
 40
0.5000000000000004
 40
0.5000000000000004
 40
0.5000000000000004
 40
0.5000000000000004
 10
3.506264354048619
 20
-22.41000000000001
 30
0.0
 10
3.48274718952786
 20
-22.41000000000002
 30
0.0
 10
3.452323510010763
 20
-22.41000000000002
 30
0.0
 10
3.419371480420985
 20
-22.41000000000002
 30
0.0
  0
SPLINE
  5
269
330
1F
100
AcDbEntity
  8
1
  6
SLD-Dashed
370
    18
100
AcDbSpline
210
0.0
220
0.0
230
1.0
 70
    24
 71
     3
 72
     8
 73
     4
 74
     0
 42
0.000000001
 43
0.00000001
 40
0.5000000000000004
 40
0.5000000000000004
 40
0.5000000000000004
 40
0.5000000000000004
 40
1.0
 40
1.0
 40
1.0
 40
1.0
 10
3.419371480420985
 20
-22.41000000000002
 30
0.0
 10
3.353467421241416
 20
-22.41000000000003
 30
0.0
 10
3.27748356546001
 20
-22.41000000000004
 30
0.0
 10
3.200000000000008
 20
-22.41000000000004
 30
0.0
  0
SPLINE
  5
26A
330
1F
100
AcDbEntity
  8
SK3
  6
SLD-Dashed
370
    18
100
AcDbSpline
210
0.0
220
0.0
230
1.0
 70
     8
 71
     3
 72
    40
 73
    36
 74
     0
 42
0.000000001
 43
0.00000001
 40
0.0
 40
0.0
 40
0.0
 40
0.0
 40
0.0126129321449816
 40
0.0314976481339604
 40
0.0629183966702564
 40
0.0880663439714168
 40
0.1258663548219043
 40
0.1545361786951687
 40
0.1972635113751465
 40
0.2185774264758751
 40
0.2505499734499138
 40
0.2790323571745755
 40
0.3220275475257124
 40
0.3436168159336463
 40
0.3758133620275749
 40
0.404289809506831
 40
0.4468993710431156
 40
0.468210972392158
 40
0.5002437124696447
 40
0.5288533887317777
 40
0.5719828275869667
 40
0.5934420637179458
 40
0.6254916984483699
 40
0.6539107272569499
 40
0.6965262692674994
 40
0.7178823906336999
 40
0.7500313093276819
 40
0.7787800102949101
 40
0.8217645159398103
 40
0.8431483194632992
 40
0.8751517844153629
 40
0.9000181010942334
 40
0.9373587731677226
 40
0.9685909586685477
 40
1.0
 40
1.0
 40
1.0
 40
1.0
 10
3.949999999998899
 20
-30.22558142012365
 30
0.0
 10
3.947274304054421
 20
-30.22556434752347
 30
0.0
 10
3.940467559136407
 20
-30.22552171296816
 30
0.0
 10
3.926878079312829
 20
-30.22500449703395
 30
0.0
 10
3.910614550228689
 20
-30.22373214657329
 30
0.0
 10
3.890377361763564
 20
-30.22117483723319
 30
0.0
 10
3.870876571852033
 20
-30.21766990056473
 30
0.0
 10
3.847909402640792
 20
-30.21222207486608
 30
0.0
 10
3.828703761990057
 20
-30.20644931168605
 30
0.0
 10
3.809172441364903
 20
-30.1994388579249
 30
0.0
 10
3.792810014292172
 20
-30.19274290251867
 30
0.0
 10
3.772556787560222
 20
-30.18326307338684
 30
0.0
 10
3.754852229733846
 20
-30.17368149207816
 30
0.0
 10
3.737001129755932
 20
-30.16277896347314
 30
0.0
 10
3.722237930658983
 20
-30.1528597897481
 30
0.0
 10
3.704336292931806
 20
-30.13951958199218
 30
0.0
 10
3.689010882644311
 20
-30.12669241146888
 30
0.0
 10
3.673804931859079
 20
-30.11259090121808
 30
0.0
 10
3.661328526176205
 20
-30.10000934793185
 30
0.0
 10
3.64631136763835
 20
-30.08334675455454
 30
0.0
 10
3.633674708738419
 20
-30.06764146706182
 30
0.0
 10
3.621410566074526
 20
-30.05073531891783
 30
0.0
 10
3.611611223628949
 20
-30.03598007668937
 30
0.0
 10
3.600156512781671
 20
-30.01686769647029
 30
0.0
 10
3.590829750079558
 20
-29.99919574996682
 30
0.0
 10
3.582035812874654
 20
-29.98037484052065
 30
0.0
 10
3.575165778815601
 20
-29.96397246361068
 30
0.0
 10
3.567449829656524
 20
-29.94288522109271
 30
0.0
 10
3.561558066370693
 20
-29.9236273901373
 30
0.0
 10
3.556428567390843
 20
-29.90344062128829
 30
0.0
 10
3.55291898159564
 20
-29.88689085311456
 30
0.0
 10
3.549536425733857
 20
-29.86681061568514
 30
0.0
 10
3.547124737183369
 20
-29.84675343612379
 30
0.0
 10
3.545564419127067
 20
-29.82519260420116
 30
0.0
 10
3.54538272675127
 20
-29.81165457437739
 30
0.0
 10
3.545291624076088
 20
-29.8048664484133
 30
0.0
  0
SPLINE
  5
26B
330
1F
100
AcDbEntity
  8
SK3
  6
SLD-Dashed
370
    18
100
AcDbSpline
210
0.0
220
0.0
230
1.0
 70
     8
 71
     3
 72
    40
 73
    36
 74
     0
 42
0.000000001
 43
0.00000001
 40
0.0
 40
0.0
 40
0.0
 40
0.0
 40
0.0314214559572227
 40
0.0627294389671943
 40
0.0877405066521885
 40
0.125275232669724
 40
0.1539551384600139
 40
0.1970430837597965
 40
0.2184753360378567
 40
0.2505176110611755
 40
0.2789492345937477
 40
0.3216198597593979
 40
0.3430128235413608
 40
0.3752634384750789
 40
0.4040010771804361
 40
0.4468656794915655
 40
0.4682159459362438
 40
0.5002096454815023
 40
0.5286754137344519
 40
0.5715400247765465
 40
0.5931009716299148
 40
0.6253883780511632
 40
0.6539191343952845
 40
0.696591424456682
 40
0.7179237821488482
 40
0.749974649427047
 40
0.7785976316863411
 40
0.795854339812784
 40
0.8217160693566484
 40
0.8431552865480455
 40
0.8751886732441913
 40
0.9000580147531466
 40
0.9373794059838183
 40
0.9685930788650419
 40
0.9999999999999999
 40
0.9999999999999999
 40
0.9999999999999999
 40
0.9999999999999999
 10
18.70461115500191
 20
-29.80485527419842
 30
0.0
 10
18.70451980286352
 20
-29.81164440520548
 30
0.0
 10
18.70433742848851
 20
-29.82519814949179
 30
0.0
 10
18.702967285952
 20
-29.84411564286004
 30
0.0
 10
18.70072137877139
 20
-29.86427043795471
 30
0.0
 10
18.69761618492968
 20
-29.88374590039356
 30
0.0
 10
18.6927587858093
 20
-29.90686111791569
 30
0.0
 10
18.68756401153336
 20
-29.92633239392293
 30
0.0
 10
18.6812196607601
 20
-29.94620899181277
 30
0.0
 10
18.67516357609368
 20
-29.96284451017635
 30
0.0
 10
18.66659391017357
 20
-29.98342104192522
 30
0.0
 10
18.65792216957786
 20
-30.00144320562836
 30
0.0
 10
18.64799759935261
 20
-30.01973532130569
 30
0.0
 10
18.63887055578692
 20
-30.0350249959246
 30
0.0
 10
18.62647938435723
 20
-30.05373739732938
 30
0.0
 10
18.61447418288871
 20
-30.06985792745573
 30
0.0
 10
18.60124205632122
 20
-30.08589113399747
 30
0.0
 10
18.58942860682681
 20
-30.0990495541836
 30
0.0
 10
18.57374043191443
 20
-30.11493869793075
 30
0.0
 10
18.55884768057943
 20
-30.12841850147779
 30
0.0
 10
18.54265426161455
 20
-30.14162746302956
 30
0.0
 10
18.52838800292801
 20
-30.15228399886078
 30
0.0
 10
18.50983571493524
 20
-30.16477481501636
 30
0.0
 10
18.49262445031482
 20
-30.1749829125769
 30
0.0
 10
18.47424607318986
 20
-30.18462804605512
 30
0.0
 10
18.45820753870477
 20
-30.19217667946482
 30
0.0
 10
18.44263074348686
 20
-30.19858412922859
 30
0.0
 10
18.4280832437388
 20
-30.20393768674264
 30
0.0
 10
18.41482664955695
 20
-30.20828861199141
 30
0.0
 10
18.3983427498559
 20
-30.21299666641595
 30
0.0
 10
18.38186940102374
 20
-30.21692139734204
 30
0.0
 10
18.36186218647022
 20
-30.22070805123952
 30
0.0
 10
18.34185224742004
 20
-30.22341140280932
 30
0.0
 10
18.32031695323612
 20
-30.22516290854394
 30
0.0
 10
18.30678623642203
 20
-30.22536701808554
 30
0.0
 10
18.30000000000001
 20
-30.22546938779916
 30
0.0
  0
SPLINE
  5
26C
330
1F
100
AcDbEntity
  8
SK3
  6
SLD-Dashed
370
    18
100
AcDbSpline
210
0.0
220
0.0
230
1.0
 70
     8
 71
     3
 72
    40
 73
    36
 74
     0
 42
0.000000001
 43
0.00000001
 40
0.0
 40
0.0
 40
0.0
 40
0.0
 40
0.0125929119920853
 40
0.0314096195346373
 40
0.0626234169499198
 40
0.0875147363747587
 40
0.124814412830725
 40
0.1532834083387407
 40
0.1962265830891685
 40
0.2178107992109856
 40
0.2500224951329321
 40
0.2785169301552057
 40
0.3211718523043689
 40
0.3425182663517161
 40
0.3746092478105291
 40
0.4033018002026093
 40
0.4463503818994342
 40
0.4677602234265854
 40
0.4997883410590171
 40
0.5282270395863745
 40
0.5709521530205331
 40
0.5924138618617291
 40
0.6247350591047612
 40
0.6534144483970801
 40
0.6961683199419044
 40
0.7174969314503464
 40
0.7494813527194152
 40
0.7779588669976988
 40
0.8208766717687367
 40
0.8424514691504715
 40
0.874724282179473
 40
0.8997563983109313
 40
0.9372703102803501
 40
0.968578418532575
 40
0.9999999999999999
 40
0.9999999999999999
 40
0.9999999999999999
 40
0.9999999999999999
 10
18.30000000000001
 20
30.22558142012639
 30
0.0
 10
18.30272136951242
 20
30.22556441746849
 30
0.0
 10
18.30950909113324
 20
30.22552200892814
 30
0.0
 10
18.3230349115113
 20
30.22500878447084
 30
0.0
 10
18.33918410220827
 20
30.22374990827883
 30
0.0
 10
18.35921637335283
 20
30.22123374888838
 30
0.0
 10
18.3785174346528
 20
30.21779055348816
 30
0.0
 10
18.4013925941177
 20
30.21241015713828
 30
0.0
 10
18.42066868063112
 20
30.20665667098935
 30
0.0
 10
18.44035778154608
 20
30.19962160064928
 30
0.0
 10
18.45683219318452
 20
30.19290122073893
 30
0.0
 10
18.47707551770183
 20
30.18344563237709
 30
0.0
 10
18.49468238340837
 20
30.17394373601333
 30
0.0
 10
18.51242282863929
 20
30.16314575471339
 30
0.0
 10
18.52718102114116
 20
30.15327064640551
 30
0.0
 10
18.54520190007997
 20
30.13989144466211
 30
0.0
 10
18.56066753372129
 20
30.12697740010818
 30
0.0
 10
18.57597030022936
 20
30.11281096127925
 30
0.0
 10
18.58844277986746
 20
30.10024903998077
 30
0.0
 10
18.60339048841034
 20
30.08369276015745
 30
0.0
 10
18.61596948562732
 20
30.06810049270644
 30
0.0
 10
18.62824307125509
 20
30.05123600708181
 30
0.0
 10
18.63812738344199
 20
30.03639837328907
 30
0.0
 10
18.64967535556761
 20
30.01717281850424
 30
0.0
 10
18.65905060754961
 20
29.99943559548712
 30
0.0
 10
18.66785100498267
 20
29.9806305170789
 30
0.0
 10
18.67469312836915
 20
29.96432508828281
 30
0.0
 10
18.68239354934313
 20
29.94334796470476
 30
0.0
 10
18.68830098830935
 20
29.92412819400953
 30
0.0
 10
18.69347515991064
 20
29.9038649584692
 30
0.0
 10
18.69702701390046
 20
29.88718562683121
 30
0.0
 10
18.70044011360976
 20
29.8669771633764
 30
0.0
 10
18.70287111134992
 20
29.84683182165026
 30
0.0
 10
18.70443405316874
 20
29.82521437831679
 30
0.0
 10
18.70461682479818
 20
29.81165726630967
 30
0.0
 10
18.70470837592286
 20
29.80486644841631
 30
0.0
  0
SPLINE
  5
26D
330
1F
100
AcDbEntity
  8
SK3
  6
SLD-Dashed
370
    18
100
AcDbSpline
210
0.0
220
0.0
230
1.0
 70
     8
 71
     3
 72
    39
 73
    35
 74
     0
 42
0.000000001
 43
0.00000001
 40
0.0
 40
0.0
 40
0.0
 40
0.0
 40
0.0314091160307674
 40
0.0626413758641538
 40
0.0875470935131885
 40
0.1248485138287456
 40
0.1532930400450731
 40
0.1960941157944613
 40
0.2176225947738233
 40
0.2499693772004398
 40
0.2785546285585068
 40
0.3212364873026817
 40
0.3425405354923858
 40
0.3745092858974068
 40
0.4029918411019298
 40
0.4459785689856149
 40
0.4675618916159466
 40
0.4997576608210499
 40
0.5282368343000431
 40
0.5708480092884092
 40
0.5921584935845995
 40
0.6241883328452476
 40
0.6527986190299354
 40
0.6959401501309849
 40
0.7174023419155745
 40
0.7494519752642005
 40
0.7778741158300017
 40
0.8205144520917228
 40
0.8418962920619149
 40
0.8741359236783777
 40
0.8993502252909598
 40
0.9370840470446206
 40
0.9685048711195197
 40
1.0
 40
1.0
 40
1.0
 40
1.0
 10
3.54538884499798
 20
29.80485527419825
 30
0.0
 10
3.545479748550582
 20
29.81164171345383
 30
0.0
 10
3.545661043802602
 20
29.82517637936965
 30
0.0
 10
3.54702943380333
 20
29.84405190465713
 30
0.0
 10
3.549258968233822
 20
29.86411824570158
 30
0.0
 10
3.552336224857535
 20
29.88347227622579
 30
0.0
 10
3.557141779746749
 20
29.90643124843557
 30
0.0
 10
3.562288225622195
 20
29.92581971282425
 30
0.0
 10
3.56861408935771
 20
29.94572790966325
 30
0.0
 10
3.574692956926401
 20
29.96248267210257
 30
0.0
 10
3.583287776048116
 20
29.98315850998393
 30
0.0
 10
3.591955015312257
 20
30.00120090567662
 30
0.0
 10
3.601831018727642
 20
30.01943081107646
 30
0.0
 10
3.610874012133431
 20
30.03461278108222
 30
0.0
 10
3.623189627258756
 20
30.05326734966762
 30
0.0
 10
3.635184378154367
 20
30.06942261759878
 30
0.0
 10
3.648473969075887
 20
30.08556438898109
 30
0.0
 10
3.66034015734036
 20
30.09880574838228
 30
0.0
 10
3.676012531497226
 20
30.11469877887869
 30
0.0
 10
3.690813818886917
 20
30.12812096686809
 30
0.0
 10
3.706862089264406
 20
30.14124723286362
 30
0.0
 10
3.721035740664485
 20
30.15187245989082
 30
0.0
 10
3.739615920455574
 20
30.16443427377515
 30
0.0
 10
3.756939716856908
 20
30.17474090541244
 30
0.0
 10
3.775422312926241
 20
30.18446497823755
 30
0.0
 10
3.791441042936036
 20
30.19201976729602
 30
0.0
 10
3.812039955628079
 20
30.20051935318395
 30
0.0
 10
3.830933874073447
 20
30.20705284128371
 30
0.0
 10
3.850922478500745
 20
30.21280585013023
 30
0.0
 10
3.867492347984391
 20
30.21678677988686
 30
0.0
 10
3.887698638249892
 20
30.22064109222354
 30
0.0
 10
3.907913014965722
 20
30.22338985618057
 30
0.0
 10
3.929600305356981
 20
30.22516034748686
 30
0.0
 10
3.943194750029217
 20
30.22536629328654
 30
0.0
 10
3.949999999999967
 20
30.2254693877991
 30
0.0
  0
SPLINE
  5
26E
330
1F
100
AcDbEntity
  8
SK3
  6
SLD-Dashed
370
    18
100
AcDbSpline
210
0.0
220
0.0
230
1.0
 70
     8
 71
     3
 72
    30
 73
    26
 74
     0
 42
0.000000001
 43
0.00000001
 40
0.4999999999999971
 40
0.4999999999999971
 40
0.4999999999999971
 40
0.4999999999999971
 40
0.5624999999999978
 40
0.5624999999999978
 40
0.5937499999999979
 40
0.5937499999999979
 40
0.6249999999999982
 40
0.6249999999999982
 40
0.6562499999999986
 40
0.6562499999999986
 40
0.6874999999999989
 40
0.6874999999999989
 40
0.7499999999999993
 40
0.7499999999999993
 40
0.7812499999999997
 40
0.7812499999999997
 40
0.8124999999999999
 40
0.8124999999999999
 40
0.8750000000000001
 40
0.8750000000000001
 40
0.9375000000000002
 40
0.9375000000000002
 40
0.9687500000000001
 40
0.9687500000000001
 40
1.0
 40
1.0
 40
1.0
 40
1.0
 10
11.09929844677808
 20
3.787766012937066
 30
0.0
 10
11.31512671473903
 20
3.787844328548298
 30
0.0
 10
11.53304006332809
 20
3.750889262135737
 30
0.0
 10
11.83116930510451
 20
3.644571484254095
 30
0.0
 10
11.92767339494451
 20
3.600037255497408
 30
0.0
 10
12.10683698186694
 20
3.49595270142683
 30
0.0
 10
12.18964198685285
 20
3.436638281784636
 30
0.0
 10
12.34190799973105
 20
3.302925237097937
 30
0.0
 10
12.41129962491507
 20
3.228176186758913
 30
0.0
 10
12.53066595273424
 20
3.06905261281689
 30
0.0
 10
12.58154771562609
 20
2.983995921432538
 30
0.0
 10
12.70682845874531
 20
2.710883138195793
 30
0.0
 10
12.74988239743906
 20
2.5127555365584
 30
0.0
 10
12.75005844165267
 20
2.205900920979303
 30
0.0
 10
12.73944896734287
 20
2.10409564753928
 30
0.0
 10
12.69737805915505
 20
1.901509184390131
 30
0.0
 10
12.66539378247045
 20
1.799926651541085
 30
0.0
 10
12.54152166679019
 20
1.509668979059638
 30
0.0
 10
12.41880132921228
 20
1.328433854589049
 30
0.0
 10
12.11607255357525
 20
1.025423686659178
 30
0.0
 10
11.93291660701176
 20
0.9007071060448957
 30
0.0
 10
11.6350956194966
 20
0.7743195984551212
 30
0.0
 10
11.53002475205497
 20
0.7414335488036966
 30
0.0
 10
11.31733852405116
 20
0.6978549509474574
 30
0.0
 10
11.20945404144215
 20
0.6867804916266506
 30
0.0
 10
11.09999999999999
 20
0.6867804916266436
 30
0.0
  0
SPLINE
  5
26F
330
1F
100
AcDbEntity
  8
SK3
  6
SLD-Dashed
370
    18
100
AcDbSpline
210
0.0
220
0.0
230
1.0
 70
     8
 71
     3
 72
    32
 73
    28
 74
     0
 42
0.000000001
 43
0.00000001
 40
0.0
 40
0.0
 40
0.0
 40
0.0
 40
0.0312499999999996
 40
0.0312499999999996
 40
0.0624999999999993
 40
0.0624999999999993
 40
0.0937499999999989
 40
0.0937499999999989
 40
0.1249999999999986
 40
0.1249999999999986
 40
0.1874999999999981
 40
0.1874999999999981
 40
0.2499999999999977
 40
0.2499999999999977
 40
0.2812499999999975
 40
0.2812499999999975
 40
0.3124999999999972
 40
0.3124999999999972
 40
0.3749999999999969
 40
0.3749999999999969
 40
0.4062499999999969
 40
0.4062499999999969
 40
0.437499999999997
 40
0.437499999999997
 40
0.468749999999997
 40
0.468749999999997
 40
0.4999999999999971
 40
0.4999999999999971
 40
0.4999999999999971
 40
0.4999999999999971
 10
11.09999999999999
 20
0.6867804916266506
 30
0.0
 10
10.99054595855782
 20
0.6867804916266436
 30
0.0
 10
10.88300748494231
 20
0.6978519169173816
 30
0.0
 10
10.67157729317862
 20
0.7410380563700192
 30
0.0
 10
10.56656531881151
 20
0.7737031975053599
 30
0.0
 10
10.36697011919925
 20
0.8582303125313356
 30
0.0
 10
10.27237083996865
 20
0.9097573042868429
 30
0.0
 10
10.0933379585311
 20
1.030751744013236
 30
0.0
 10
10.00891041258245
 20
1.100583040304359
 30
0.0
 10
9.781590568132783
 20
1.327897234965396
 30
0.0
 10
9.658787195719887
 20
1.50932142501943
 30
0.0
 10
9.493903316654423
 20
1.894927731320266
 30
0.0
 10
9.450134181167385
 20
2.103271213289688
 30
0.0
 10
9.449933384093168
 20
2.407948896887127
 30
0.0
 10
9.460746960682956
 20
2.510222343261266
 30
0.0
 10
9.503033348944715
 20
2.70591659052332
 30
0.0
 10
9.534315908364968
 20
2.80022195842141
 30
0.0
 10
9.658906673984793
 20
3.072888284710952
 30
0.0
 10
9.78031511942931
 20
3.234385799298932
 30
0.0
 10
10.00967891683432
 20
3.436160430176
 30
0.0
 10
10.09252169949719
 20
3.495489903524468
 30
0.0
 10
10.27083107458872
 20
3.599257582730268
 30
0.0
 10
10.36744974633948
 20
3.64399945907342
 30
0.0
 10
10.56659782256848
 20
3.715177102574748
 30
0.0
 10
10.66944649627723
 20
3.742052781161721
 30
0.0
 10
10.88184464279912
 20
3.77847077937897
 30
0.0
 10
10.9913843127976
 20
3.787726855131457
 30
0.0
 10
11.09929844677808
 20
3.787766012937066
 30
0.0
  0
SPLINE
  5
270
330
1F
100
AcDbEntity
  8
SK3
  6
SLD-Dashed
370
    18
100
AcDbSpline
210
0.0
220
0.0
230
1.0
 70
     8
 71
     3
 72
    38
 73
    34
 74
     0
 42
0.000000001
 43
0.00000001
 40
0.499999999999998
 40
0.499999999999998
 40
0.499999999999998
 40
0.499999999999998
 40
0.5312499999999979
 40
0.5312499999999979
 40
0.5624999999999978
 40
0.5624999999999978
 40
0.5937499999999978
 40
0.5937499999999978
 40
0.6249999999999977
 40
0.6249999999999977
 40
0.6562499999999977
 40
0.6562499999999977
 40
0.6874999999999976
 40
0.6874999999999976
 40
0.7187499999999976
 40
0.7187499999999976
 40
0.7499999999999974
 40
0.7499999999999974
 40
0.8124999999999982
 40
0.8124999999999982
 40
0.8437499999999984
 40
0.8437499999999984
 40
0.8749999999999988
 40
0.8749999999999988
 40
0.906249999999999
 40
0.906249999999999
 40
0.9374999999999993
 40
0.9374999999999993
 40
0.9687499999999996
 40
0.9687499999999996
 40
0.9843749999999998
 40
0.9843749999999998
 40
1.0
 40
1.0
 40
1.0
 40
1.0
 10
9.547165917302161
 20
6.130078845461997
 30
0.0
 10
9.591669608828735
 20
6.017622124064613
 30
0.0
 10
9.651912210336913
 20
5.910039381771336
 30
0.0
 10
9.796812632231491
 20
5.715206444890271
 30
0.0
 10
9.882567425050462
 20
5.625950668749137
 30
0.0
 10
10.0770713882353
 20
5.465835135561363
 30
0.0
 10
10.18346038260026
 20
5.396630723958351
 30
0.0
 10
10.41491716747874
 20
5.273967848329584
 30
0.0
 10
10.54009168137382
 20
5.221079864175492
 30
0.0
 10
10.78642802631474
 20
5.131319199450715
 30
0.0
 10
10.90588750473029
 20
5.094347448465284
 30
0.0
 10
11.12471660654359
 20
5.030993621355159
 30
0.0
 10
11.22226506040226
 20
5.005212811238502
 30
0.0
 10
11.40290338683522
 20
4.961304046026224
 30
0.0
 10
11.48653843453272
 20
4.943230320262115
 30
0.0
 10
11.64292087602178
 20
4.914958406516956
 30
0.0
 10
11.71620965691779
 20
4.904637420561173
 30
0.0
 10
11.92719226675067
 20
4.885740181441743
 30
0.0
 10
12.05703185085182
 20
4.888799294418996
 30
0.0
 10
12.23947266366207
 20
4.928553216744811
 30
0.0
 10
12.29788111599017
 20
4.947672533286193
 30
0.0
 10
12.4097898608672
 20
5.001691346856616
 30
0.0
 10
12.46364510461582
 20
5.036838190440901
 30
0.0
 10
12.5627134329043
 20
5.128737393306077
 30
0.0
 10
12.60843468736296
 20
5.185584113645413
 30
0.0
 10
12.68612312343485
 20
5.332786429895063
 30
0.0
 10
12.71750492214961
 20
5.423233084513153
 30
0.0
 10
12.75225985948271
 20
5.640299190695274
 30
0.0
 10
12.7546372439699
 20
5.767683503121006
 30
0.0
 10
12.73422628849655
 20
5.964115740422243
 30
0.0
 10
12.72357436485568
 20
6.03079986275442
 30
0.0
 10
12.69687670664382
 20
6.160247296436605
 30
0.0
 10
12.68086259956383
 20
6.223527817320315
 30
0.0
 10
12.66230763443388
 20
6.286790301132328
 30
0.0
  0
SPLINE
  5
271
330
1F
100
AcDbEntity
  8
SK3
  6
SLD-Dashed
370
    18
100
AcDbSpline
210
0.0
220
0.0
230
1.0
 70
     8
 71
     3
 72
    32
 73
    28
 74
     0
 42
0.000000001
 43
0.00000001
 40
0.0
 40
0.0
 40
0.0
 40
0.0
 40
0.0312499999999997
 40
0.0312499999999997
 40
0.0624999999999995
 40
0.0624999999999995
 40
0.1249999999999989
 40
0.1249999999999989
 40
0.1874999999999984
 40
0.1874999999999984
 40
0.2187499999999984
 40
0.2187499999999984
 40
0.2499999999999984
 40
0.2499999999999984
 40
0.2812499999999984
 40
0.2812499999999984
 40
0.3124999999999984
 40
0.3124999999999984
 40
0.3437499999999984
 40
0.3437499999999984
 40
0.3749999999999984
 40
0.3749999999999984
 40
0.4374999999999982
 40
0.4374999999999982
 40
0.4687499999999981
 40
0.4687499999999981
 40
0.499999999999998
 40
0.499999999999998
 40
0.499999999999998
 40
0.499999999999998
 10
12.66230763443389
 20
6.286790301132328
 30
0.0
 10
12.62519770417402
 20
6.41331526875636
 30
0.0
 10
12.581203021273
 20
6.529338209342122
 30
0.0
 10
12.48471880657841
 20
6.749261649681128
 30
0.0
 10
12.4316588224455
 20
6.853656412382135
 30
0.0
 10
12.26556941339614
 20
7.146821567827734
 30
0.0
 10
12.14616169070411
 20
7.317061421523455
 30
0.0
 10
11.88808945990531
 20
7.625840216913621
 30
0.0
 10
11.74985718622881
 20
7.763778523701692
 30
0.0
 10
11.5194414119259
 20
7.93957223353467
 30
0.0
 10
11.4384840088555
 20
7.993145929764543
 30
0.0
 10
11.2609499671593
 20
8.08611350183603
 30
0.0
 10
11.16541818036972
 20
8.125025816098606
 30
0.0
 10
10.95302844471291
 20
8.175251229353156
 30
0.0
 10
10.83703519791096
 20
8.185597853152474
 30
0.0
 10
10.59133681320582
 20
8.16048777400101
 30
0.0
 10
10.46687270231075
 20
8.125321374609383
 30
0.0
 10
10.22897755356157
 20
8.01535151717931
 30
0.0
 10
10.11959384449101
 20
7.943374611664916
 30
0.0
 10
9.91904200598101
 20
7.77195898146249
 30
0.0
 10
9.83002701568067
 20
7.673959535020855
 30
0.0
 10
9.601531880722977
 20
7.354720962768339
 30
0.0
 10
9.501243573240782
 20
7.107453544913891
 30
0.0
 10
9.44727008051531
 20
6.73204300403351
 30
0.0
 10
9.445111331805908
 20
6.607943683149966
 30
0.0
 10
9.472789440891722
 20
6.361880396588824
 30
0.0
 10
9.502662225775588
 20
6.242535566859372
 30
0.0
 10
9.547165917302161
 20
6.130078845461997
 30
0.0
  0
SPLINE
  5
272
330
1F
100
AcDbEntity
  8
1
  6
SLD-Dashed
370
    18
100
AcDbSpline
210
0.0
220
0.0
230
1.0
 70
    24
 71
     3
 72
     8
 73
     4
 74
     0
 42
0.000000001
 43
0.00000001
 40
0.0
 40
0.0
 40
0.0
 40
0.0
 40
0.5000000000000013
 40
0.5000000000000013
 40
0.5000000000000013
 40
0.5000000000000013
 10
3.200000000000008
 20
-22.41000000000004
 30
0.0
 10
3.277521727773389
 20
-22.41000000000004
 30
0.0
 10
3.353381647940912
 20
-22.41000000000003
 30
0.0
 10
3.419612606008038
 20
-22.41000000000002
 30
0.0
  0
SPLINE
  5
273
330
1F
100
AcDbEntity
  8
1
  6
SLD-Dashed
370
    18
100
AcDbSpline
210
0.0
220
0.0
230
1.0
 70
    24
 71
     3
 72
     8
 73
     4
 74
     0
 42
0.000000001
 43
0.00000001
 40
0.5000000000000013
 40
0.5000000000000013
 40
0.5000000000000013
 40
0.5000000000000013
 40
0.7500000000000007
 40
0.7500000000000007
 40
0.7500000000000007
 40
0.7500000000000007
 10
3.419612606008038
 20
-22.41000000000002
 30
0.0
 10
3.452728085041587
 20
-22.41000000000002
 30
0.0
 10
3.483301361658628
 20
-22.41000000000003
 30
0.0
 10
3.506578077110994
 20
-22.41000000000002
 30
0.0
  0
SPLINE
  5
274
330
1F
100
AcDbEntity
  8
1
  6
SLD-Dashed
370
    18
100
AcDbSpline
210
0.0
220
0.0
230
1.0
 70
    24
 71
     2
 72
     6
 73
     3
 74
     0
 42
0.000000001
 43
0.00000001
 40
0.7500000000000007
 40
0.7500000000000007
 40
0.7500000000000007
 40
1.0
 40
1.0
 40
1.0
 10
3.506578077110994
 20
-22.41000000000002
 30
0.0
 10
3.529854792563375
 20
-22.41000000000001
 30
0.0
 10
3.54538884499811
 20
-22.41000000000001
 30
0.0
  0
SPLINE
  5
275
330
1F
100
AcDbEntity
  8
SK3
  6
SLD-Dashed
370
    18
100
AcDbSpline
210
0.0
220
0.0
230
1.0
 70
    24
 71
     2
 72
     6
 73
     3
 74
     0
 42
0.000000001
 43
0.00000001
 40
0.0
 40
0.0
 40
0.0
 40
0.2500000000000016
 40
0.2500000000000016
 40
0.2500000000000016
 10
18.70470837592286
 20
-22.41000000000001
 30
0.0
 10
18.72021848143066
 20
-22.41000000000001
 30
0.0
 10
18.74373564595141
 20
-22.41000000000001
 30
0.0
  0
SPLINE
  5
276
330
1F
100
AcDbEntity
  8
SK3
  6
SLD-Dashed
370
    18
100
AcDbSpline
210
0.0
220
0.0
230
1.0
 70
    24
 71
     3
 72
     8
 73
     4
 74
     0
 42
0.000000001
 43
0.00000001
 40
0.2500000000000016
 40
0.2500000000000016
 40
0.2500000000000016
 40
0.2500000000000016
 40
0.5000000000000032
 40
0.5000000000000032
 40
0.5000000000000032
 40
0.5000000000000032
 10
18.7437356459514
 20
-22.41000000000001
 30
0.0
 10
18.76725281047213
 20
-22.41000000000001
 30
0.0
 10
18.79767648998924
 20
-22.41000000000001
 30
0.0
 10
18.83062851957903
 20
-22.41000000000001
 30
0.0
  0
SPLINE
  5
277
330
1F
100
AcDbEntity
  8
SK3
  6
SLD-Dashed
370
    18
100
AcDbSpline
210
0.0
220
0.0
230
1.0
 70
    24
 71
     3
 72
     8
 73
     4
 74
     0
 42
0.000000001
 43
0.00000001
 40
0.5000000000000032
 40
0.5000000000000032
 40
0.5000000000000032
 40
0.5000000000000032
 40
1.0
 40
1.0
 40
1.0
 40
1.0
 10
18.83062851957903
 20
-22.41000000000001
 30
0.0
 10
18.8965325787586
 20
-22.41000000000001
 30
0.0
 10
18.97251643454001
 20
-22.41000000000001
 30
0.0
 10
19.05
 20
-22.41000000000001
 30
0.0
  0
SPLINE
  5
278
330
1F
100
AcDbEntity
  8
SK3
  6
SLD-Dashed
370
    18
100
AcDbSpline
210
0.0
220
0.0
230
1.0
 70
     8
 71
     3
 72
    10
 73
     6
 74
     0
 42
0.000000001
 43
0.00000001
 40
0.0
 40
0.0
 40
0.0
 40
0.0
 40
0.5
 40
0.5
 40
1.0
 40
1.0
 40
1.0
 40
1.0
 10
3.545291624077141
 20
25.57912025275682
 30
0.0
 10
3.584856617866726
 20
25.52310107590327
 30
0.0
 10
3.621570887500271
 20
25.46562249807941
 30
0.0
 10
3.67926042553357
 20
25.34260791126141
 30
0.0
 10
3.699999999999967
 20
25.27482658978053
 30
0.0
 10
3.699999999999968
 20
25.20500000000003
 30
0.0
  0
SPLINE
  5
279
330
1F
100
AcDbEntity
  8
SK3
  6
SLD-Dashed
370
    18
100
AcDbSpline
210
0.0
220
0.0
230
1.0
 70
     8
 71
     3
 72
    10
 73
     6
 74
     0
 42
0.000000001
 43
0.00000001
 40
0.0
 40
0.0
 40
0.0
 40
0.0
 40
0.5
 40
0.5
 40
1.0
 40
1.0
 40
1.0
 40
1.0
 10
18.55000000000001
 20
25.20500000000003
 30
0.0
 10
18.55000000000001
 20
25.27446188700639
 30
0.0
 10
18.57033165532697
 20
25.34157876899189
 30
0.0
 10
18.62822537360674
 20
25.46534569655893
 30
0.0
 10
18.6650271747182
 20
25.52292618711533
 30
0.0
 10
18.70461115500192
 20
25.57898258716479
 30
0.0
  0
SPLINE
  5
27A
330
1F
100
AcDbEntity
  8
SK3
  6
SLD-Dashed
370
    18
100
AcDbSpline
210
0.0
220
0.0
230
1.0
 70
     8
 71
     3
 72
    40
 73
    36
 74
     0
 42
0.000000001
 43
0.00000001
 40
0.0
 40
0.0
 40
0.0
 40
0.0
 40
0.0314214559572178
 40
0.0627294389672004
 40
0.0877405066521895
 40
0.1252752326697184
 40
0.1539551384600108
 40
0.1970430837597873
 40
0.2184753360378477
 40
0.2505176110611737
 40
0.2789492345937391
 40
0.3216198597594042
 40
0.3430128235413673
 40
0.3752634384750793
 40
0.4040010771804458
 40
0.4468656794915723
 40
0.468215945936246
 40
0.5002096454814972
 40
0.528675413734447
 40
0.5715400247765458
 40
0.5931009716299191
 40
0.6253883780511656
 40
0.6539191343952843
 40
0.6965914244566831
 40
0.7179237821488444
 40
0.7499746494270431
 40
0.7785976316863417
 40
0.7958543398127828
 40
0.8217160693566459
 40
0.8431552865480468
 40
0.8751886732441888
 40
0.9000580147531506
 40
0.9373794059838182
 40
0.9685930788650364
 40
1.0
 40
1.0
 40
1.0
 40
1.0
 10
3.545388844996999
 20
-29.80485527420157
 30
0.0
 10
3.545480197135409
 20
-29.81164440520863
 30
0.0
 10
3.5456625715104
 20
-29.82519814949495
 30
0.0
 10
3.54703271404691
 20
-29.84411564286317
 30
0.0
 10
3.549278621227531
 20
-29.86427043795789
 30
0.0
 10
3.552383815069227
 20
-29.88374590039671
 30
0.0
 10
3.557241214189641
 20
-29.90686111791883
 30
0.0
 10
3.562435988465548
 20
-29.92633239392609
 30
0.0
 10
3.568780339238811
 20
-29.94620899181593
 30
0.0
 10
3.574836423905242
 20
-29.96284451017948
 30
0.0
 10
3.583406089825353
 20
-29.98342104192838
 30
0.0
 10
3.59207783042105
 20
-30.0014432056315
 30
0.0
 10
3.602002400646287
 20
-30.01973532130885
 30
0.0
 10
3.611129444212005
 20
-30.03502499592775
 30
0.0
 10
3.623520615641682
 20
-30.05373739733254
 30
0.0
 10
3.635525817110199
 20
-30.06985792745888
 30
0.0
 10
3.648757943677708
 20
-30.08589113400062
 30
0.0
 10
3.66057139317208
 20
-30.09904955418675
 30
0.0
 10
3.676259568084511
 20
-30.11493869793388
 30
0.0
 10
3.69115231941948
 20
-30.12841850148094
 30
0.0
 10
3.707345738384368
 20
-30.14162746303268
 30
0.0
 10
3.721611997070898
 20
-30.15228399886393
 30
0.0
 10
3.740164285063671
 20
-30.16477481501948
 30
0.0
 10
3.75737554968407
 20
-30.17498291258006
 30
0.0
 10
3.775753926809067
 20
-30.18462804605824
 30
0.0
 10
3.791792461294158
 20
-30.19217667946796
 30
0.0
 10
3.807369256512039
 20
-30.19858412923173
 30
0.0
 10
3.821916756260118
 20
-30.20393768674579
 30
0.0
 10
3.835173350441965
 20
-30.20828861199455
 30
0.0
 10
3.851657250143012
 20
-30.21299666641908
 30
0.0
 10
3.868130598975172
 20
-30.21692139734517
 30
0.0
 10
3.888137813528689
 20
-30.22070805124266
 30
0.0
 10
3.908147752578889
 20
-30.22341140281246
 30
0.0
 10
3.929683046762791
 20
-30.22516290854709
 30
0.0
 10
3.943213763576897
 20
-30.22536701808868
 30
0.0
 10
3.949999999998899
 20
-30.2254693878023
 30
0.0
  0
SPLINE
  5
27B
330
1F
100
AcDbEntity
  8
1
  6
SLD-Dashed
370
    18
100
AcDbSpline
210
0.0
220
0.0
230
1.0
 70
     8
 71
     3
 72
     8
 73
     4
 74
     0
 42
0.000000001
 43
0.00000001
 40
0.0
 40
0.0
 40
0.0
 40
0.0
 40
1.0
 40
1.0
 40
1.0
 40
1.0
 10
14.37601294652262
 20
-30.22558142012645
 30
0.0
 10
13.92634047615436
 20
-29.41927694377229
 30
0.0
 10
13.47758735871732
 20
-28.61247603335392
 30
0.0
 10
13.03000000000003
 20
-27.80504563417291
 30
0.0
  0
SPLINE
  5
27C
330
1F
100
AcDbEntity
  8
1
  6
SLD-Dashed
370
    18
100
AcDbSpline
210
0.0
220
0.0
230
1.0
 70
     8
 71
     3
 72
    10
 73
     6
 74
     0
 42
0.000000001
 43
0.00000001
 40
0.0
 40
0.0
 40
0.0
 40
0.0
 40
0.5
 40
0.5
 40
1.0
 40
1.0
 40
1.0
 40
1.0
 10
13.03000000000005
 20
-27.76916635406973
 30
0.0
 10
13.03000000000004
 20
-27.56948960726649
 30
0.0
 10
12.9530257332551
 20
-27.36838646497956
 30
0.0
 10
12.67905057581468
 20
-27.07630005005161
 30
0.0
 10
12.48172757240075
 20
-26.98706356756882
 30
0.0
 10
12.28000000000001
 20
-26.98706356756882
 30
0.0
  0
SPLINE
  5
27D
330
1F
100
AcDbEntity
  8
1
  6
SLD-Dashed
370
    18
100
AcDbSpline
210
0.0
220
0.0
230
1.0
 70
     8
 71
     3
 72
    10
 73
     6
 74
     0
 42
0.000000001
 43
0.00000001
 40
0.0
 40
0.0
 40
0.0
 40
0.0
 40
0.5
 40
0.5
 40
1.0
 40
1.0
 40
1.0
 40
1.0
 10
9.950000000000653
 20
-26.98706356756945
 30
0.0
 10
9.748441495091548
 20
-26.98706356756929
 30
0.0
 10
9.550692481024276
 20
-27.07656444408195
 30
0.0
 10
9.277196882747168
 20
-27.3681586685193
 30
0.0
 10
9.200000000000166
 20
-27.56927498425101
 30
0.0
 10
9.2
 20
-27.76916635406977
 30
0.0
  0
SPLINE
  5
27E
330
1F
100
AcDbEntity
  8
1
  6
SLD-Dashed
370
    18
100
AcDbSpline
210
0.0
220
0.0
230
1.0
 70
     8
 71
     3
 72
     8
 73
     4
 74
     0
 42
0.000000001
 43
0.00000001
 40
0.0
 40
0.0
 40
0.0
 40
0.0
 40
1.0
 40
1.0
 40
1.0
 40
1.0
 10
9.199999999998877
 20
-27.80504563417609
 30
0.0
 10
8.752433371354618
 20
-28.61243863710178
 30
0.0
 10
8.303701091401397
 20
-29.41920220926474
 30
0.0
 10
7.85404953340614
 20
-30.2254693878023
 30
0.0
  0
SPLINE
  5
27F
330
1F
100
AcDbEntity
  8
SK3
  6
SLD-Dashed
370
    18
100
AcDbSpline
210
0.0
220
0.0
230
1.0
 70
     8
 71
     3
 72
    40
 73
    36
 74
     0
 42
0.000000001
 43
0.00000001
 40
0.0
 40
0.0
 40
0.0
 40
0.0
 40
0.0126129321449749
 40
0.0314976481339587
 40
0.0629183966702574
 40
0.0880663439714092
 40
0.1258663548219046
 40
0.1545361786951767
 40
0.1972635113751502
 40
0.2185774264758776
 40
0.250549973449914
 40
0.2790323571745715
 40
0.3220275475257097
 40
0.3436168159336435
 40
0.3758133620275704
 40
0.4042898095068478
 40
0.4468993710431288
 40
0.4682109723921613
 40
0.5002437124696372
 40
0.528853388731771
 40
0.5719828275869605
 40
0.593442063717947
 40
0.6254916984483689
 40
0.6539107272569482
 40
0.6965262692674938
 40
0.7178823906336926
 40
0.7500313093276828
 40
0.7787800102949213
 40
0.8217645159397994
 40
0.8431483194632984
 40
0.8751517844153632
 40
0.9000181010942335
 40
0.937358773167723
 40
0.9685909586685477
 40
1.0
 40
1.0
 40
1.0
 40
1.0
 10
18.30000000000001
 20
-30.22558142012645
 30
0.0
 10
18.30272569594449
 20
-30.22556434752627
 30
0.0
 10
18.30953244086249
 20
-30.22552171297096
 30
0.0
 10
18.32312192068607
 20
-30.22500449703675
 30
0.0
 10
18.33938544977022
 20
-30.22373214657612
 30
0.0
 10
18.35962263823535
 20
-30.22117483723601
 30
0.0
 10
18.37912342814686
 20
-30.21766990056755
 30
0.0
 10
18.4020905973581
 20
-30.2122220748689
 30
0.0
 10
18.42129623800885
 20
-30.20644931168888
 30
0.0
 10
18.44082755863401
 20
-30.19943885792773
 30
0.0
 10
18.45718998570675
 20
-30.19274290252152
 30
0.0
 10
18.47744321243869
 20
-30.18326307338971
 30
0.0
 10
18.49514777026508
 20
-30.17368149208103
 30
0.0
 10
18.51299887024298
 20
-30.162778963476
 30
0.0
 10
18.52776206933994
 20
-30.15285978975096
 30
0.0
 10
18.54566370706713
 20
-30.13951958199505
 30
0.0
 10
18.56098911735461
 20
-30.12669241147176
 30
0.0
 10
18.57619506813986
 20
-30.11259090122096
 30
0.0
 10
18.58867147382273
 20
-30.10000934793473
 30
0.0
 10
18.60368863236059
 20
-30.08334675455742
 30
0.0
 10
18.61632529126053
 20
-30.06764146706472
 30
0.0
 10
18.62858943392445
 20
-30.05073531892073
 30
0.0
 10
18.63838877637002
 20
-30.03598007669227
 30
0.0
 10
18.64984348721728
 20
-30.01686769647321
 30
0.0
 10
18.65917024991942
 20
-29.99919574996972
 30
0.0
 10
18.66796418712434
 20
-29.98037484052358
 30
0.0
 10
18.67483422118338
 20
-29.96397246361361
 30
0.0
 10
18.68255017034246
 20
-29.9428852210956
 30
0.0
 10
18.68844193362832
 20
-29.92362739014024
 30
0.0
 10
18.69357143260816
 20
-29.9034406212912
 30
0.0
 10
18.69708101840337
 20
-29.88689085311749
 30
0.0
 10
18.70046357426516
 20
-29.86681061568806
 30
0.0
 10
18.70287526281567
 20
-29.84675343612671
 30
0.0
 10
18.70443558087198
 20
-29.82519260420409
 30
0.0
 10
18.70461727324776
 20
-29.81165457438031
 30
0.0
 10
18.70470837592294
 20
-29.80486644841623
 30
0.0
  0
SPLINE
  5
280
330
1F
100
AcDbEntity
  8
SK3
  6
SLD-Dashed
370
    18
100
AcDbSpline
210
0.0
220
0.0
230
1.0
 70
     8
 71
     3
 72
    39
 73
    35
 74
     0
 42
0.000000001
 43
0.00000001
 40
0.0
 40
0.0
 40
0.0
 40
0.0
 40
0.0314091160307677
 40
0.062641375864154
 40
0.0875470935131889
 40
0.1248485138287462
 40
0.1532930400450872
 40
0.1960941157944515
 40
0.2176225947738144
 40
0.2499693772004302
 40
0.2785546285585205
 40
0.3212364873026964
 40
0.3425405354923894
 40
0.3745092858974103
 40
0.4029918411019262
 40
0.4459785689856202
 40
0.4675618916159423
 40
0.4997576608210476
 40
0.5282368343000382
 40
0.5708480092883969
 40
0.5921584935845849
 40
0.624188332845246
 40
0.6527986190299447
 40
0.6959401501309724
 40
0.7174023419155647
 40
0.7494519752642036
 40
0.7778741158300034
 40
0.8205144520917296
 40
0.8418962920619176
 40
0.8741359236783779
 40
0.8993502252909584
 40
0.9370840470446232
 40
0.9685048711195082
 40
1.0
 40
1.0
 40
1.0
 40
1.0
 10
18.70461115500984
 20
29.80485527419814
 30
0.0
 10
18.70452025145722
 20
29.81164171345371
 30
0.0
 10
18.70433895620521
 20
29.82517637936956
 30
0.0
 10
18.7029705662045
 20
29.844051904657
 30
0.0
 10
18.70074103177401
 20
29.86411824570147
 30
0.0
 10
18.69766377515029
 20
29.88347227622567
 30
0.0
 10
18.69285822026111
 20
29.90643124843546
 30
0.0
 10
18.68771177438565
 20
29.92581971282413
 30
0.0
 10
18.68138591065015
 20
29.94572790966313
 30
0.0
 10
18.67530704308144
 20
29.96248267210246
 30
0.0
 10
18.66671222395976
 20
29.98315850998383
 30
0.0
 10
18.65804498469564
 20
30.00120090567652
 30
0.0
 10
18.64816898128023
 20
30.01943081107638
 30
0.0
 10
18.63912598787447
 20
30.03461278108212
 30
0.0
 10
18.62681037274912
 20
30.05326734966751
 30
0.0
 10
18.61481562185353
 20
30.06942261759869
 30
0.0
 10
18.60152603093201
 20
30.08556438898099
 30
0.0
 10
18.58965984266754
 20
30.09880574838218
 30
0.0
 10
18.57398746851069
 20
30.11469877887861
 30
0.0
 10
18.559186181121
 20
30.128120966868
 30
0.0
 10
18.54313791074351
 20
30.14124723286354
 30
0.0
 10
18.52896425934344
 20
30.15187245989076
 30
0.0
 10
18.51038407955236
 20
30.16443427377508
 30
0.0
 10
18.493060283151
 20
30.17474090541237
 30
0.0
 10
18.47457768708169
 20
30.18446497823751
 30
0.0
 10
18.45855895707189
 20
30.19201976729598
 30
0.0
 10
18.43796004437985
 20
30.20051935318391
 30
0.0
 10
18.4190661259345
 20
30.20705284128367
 30
0.0
 10
18.39907752150721
 20
30.21280585013023
 30
0.0
 10
18.38250765202355
 20
30.21678677988684
 30
0.0
 10
18.36230136175804
 20
30.22064109222353
 30
0.0
 10
18.34208698504222
 20
30.22338985618057
 30
0.0
 10
18.32039969465098
 20
30.22516034748685
 30
0.0
 10
18.30680524997874
 20
30.22536629328654
 30
0.0
 10
18.30000000000798
 20
30.22546938779911
 30
0.0
  0
SPLINE
  5
281
330
1F
100
AcDbEntity
  8
SK3
  6
SLD-Dashed
370
    18
100
AcDbSpline
210
0.0
220
0.0
230
1.0
 70
     8
 71
     3
 72
    40
 73
    36
 74
     0
 42
0.000000001
 43
0.00000001
 40
0.0
 40
0.0
 40
0.0
 40
0.0
 40
0.0125929119920799
 40
0.0314096195346371
 40
0.0626234169499144
 40
0.0875147363747578
 40
0.1248144128307291
 40
0.1532834083387329
 40
0.1962265830891804
 40
0.2178107992109905
 40
0.2500224951329297
 40
0.2785169301551935
 40
0.3211718523043735
 40
0.3425182663517212
 40
0.3746092478105252
 40
0.4033018002026009
 40
0.4463503818994297
 40
0.4677602234265738
 40
0.4997883410590129
 40
0.5282270395863776
 40
0.5709521530205359
 40
0.592413861861735
 40
0.6247350591047609
 40
0.6534144483970886
 40
0.696168319941901
 40
0.717496931450338
 40
0.7494813527194164
 40
0.7779588669976948
 40
0.8208766717687338
 40
0.8424514691504659
 40
0.8747242821794735
 40
0.8997563983109476
 40
0.9372703102803513
 40
0.9685784185325865
 40
1.0
 40
1.0
 40
1.0
 40
1.0
 10
3.950000000000009
 20
30.22558142012637
 30
0.0
 10
3.947278630487605
 20
30.22556441746847
 30
0.0
 10
3.940490908866778
 20
30.22552200892811
 30
0.0
 10
3.926965088488735
 20
30.22500878447084
 30
0.0
 10
3.910815897791769
 20
30.22374990827881
 30
0.0
 10
3.890783626647201
 20
30.22123374888838
 30
0.0
 10
3.871482565347223
 20
30.21779055348815
 30
0.0
 10
3.848607405882332
 20
30.21241015713827
 30
0.0
 10
3.829331319368898
 20
30.20665667098931
 30
0.0
 10
3.809642218453937
 20
30.19962160064927
 30
0.0
 10
3.793167806815503
 20
30.19290122073892
 30
0.0
 10
3.772924482298184
 20
30.18344563237708
 30
0.0
 10
3.755317616591674
 20
30.17394373601331
 30
0.0
 10
3.737577171360723
 20
30.16314575471338
 30
0.0
 10
3.722818978858858
 20
30.1532706464055
 30
0.0
 10
3.704798099920068
 20
30.1398914446621
 30
0.0
 10
3.689332466278727
 20
30.12697740010817
 30
0.0
 10
3.674029699770667
 20
30.11281096127924
 30
0.0
 10
3.661557220132575
 20
30.10024903998077
 30
0.0
 10
3.646609511589682
 20
30.08369276015743
 30
0.0
 10
3.634030514372694
 20
30.06810049270645
 30
0.0
 10
3.621756928744932
 20
30.05123600708179
 30
0.0
 10
3.611872616558029
 20
30.03639837328909
 30
0.0
 10
3.600324644432412
 20
30.01717281850422
 30
0.0
 10
3.590949392450402
 20
29.99943559548711
 30
0.0
 10
3.582148995017326
 20
29.98063051707892
 30
0.0
 10
3.575306871630837
 20
29.96432508828282
 30
0.0
 10
3.567606450656888
 20
29.94334796470473
 30
0.0
 10
3.56169901169065
 20
29.92412819400954
 30
0.0
 10
3.556524840089365
 20
29.9038649584692
 30
0.0
 10
3.552972986099551
 20
29.88718562683121
 30
0.0
 10
3.549559886390247
 20
29.86697716337637
 30
0.0
 10
3.54712888865008
 20
29.84683182165025
 30
0.0
 10
3.545565946831253
 20
29.82521437831678
 30
0.0
 10
3.545383175201824
 20
29.81165726630967
 30
0.0
 10
3.545291624077143
 20
29.8048664484163
 30
0.0
  0
SPLINE
  5
282
330
1F
100
AcDbEntity
  8
1
  6
SLD-Dashed
370
    18
100
AcDbSpline
210
0.0
220
0.0
230
1.0
 70
     8
 71
     3
 72
     8
 73
     4
 74
     0
 42
0.000000001
 43
0.00000001
 40
0.0
 40
0.0
 40
0.0
 40
0.0
 40
1.0
 40
1.0
 40
1.0
 40
1.0
 10
9.199999999999985
 20
27.8050456341729
 30
0.0
 10
8.752403481898929
 20
28.61249255653032
 30
0.0
 10
8.30365062048366
 20
29.41929290832668
 30
0.0
 10
7.853987053477382
 20
30.2255814201264
 30
0.0
  0
SPLINE
  5
283
330
1F
100
AcDbEntity
  8
1
  6
SLD-Dashed
370
    18
100
AcDbSpline
210
0.0
220
0.0
230
1.0
 70
     8
 71
     3
 72
    12
 73
     8
 74
     0
 42
0.000000001
 43
0.00000001
 40
0.0
 40
0.0
 40
0.0
 40
0.0
 40
0.2499999999999984
 40
0.2499999999999984
 40
0.4999999999999969
 40
0.4999999999999969
 40
1.0
 40
1.0
 40
1.0
 40
1.0
 10
9.949999999999987
 20
26.98706356756881
 30
0.0
 10
9.850149452042919
 20
26.9870635675688
 30
0.0
 10
9.748134209428091
 20
27.00887348025307
 30
0.0
 10
9.565410104204558
 20
27.0898925831707
 30
0.0
 10
9.481984824368904
 20
27.14976438531447
 30
0.0
 10
9.27727456740339
 20
27.36818499553367
 30
0.0
 10
9.2
 20
27.56879736260814
 30
0.0
 10
9.2
 20
27.76916635406975
 30
0.0
  0
SPLINE
  5
284
330
1F
100
AcDbEntity
  8
1
  6
SLD-Dashed
370
    18
100
AcDbSpline
210
0.0
220
0.0
230
1.0
 70
     8
 71
     3
 72
    12
 73
     8
 74
     0
 42
0.000000001
 43
0.00000001
 40
0.0
 40
0.0
 40
0.0
 40
0.0
 40
0.2500000000000007
 40
0.2500000000000007
 40
0.5000000000000014
 40
0.5000000000000014
 40
1.0
 40
1.0
 40
1.0
 40
1.0
 10
13.03000000000001
 20
27.76916635406975
 30
0.0
 10
13.03000000000001
 20
27.66900663339825
 30
0.0
 10
13.01145353522915
 20
27.56910146598281
 30
0.0
 10
12.93858199206009
 20
27.38178244661977
 30
0.0
 10
12.88523035542459
 20
27.29613295246496
 30
0.0
 10
12.67790477657024
 20
27.07503152815011
 30
0.0
 10
12.47994383972985
 20
26.98706356756883
 30
0.0
 10
12.28000000000001
 20
26.98706356756881
 30
0.0
  0
SPLINE
  5
285
330
1F
100
AcDbEntity
  8
1
  6
SLD-Dashed
370
    18
100
AcDbSpline
210
0.0
220
0.0
230
1.0
 70
     8
 71
     3
 72
     8
 73
     4
 74
     0
 42
0.000000001
 43
0.00000001
 40
0.0
 40
0.0
 40
0.0
 40
0.0
 40
1.0
 40
1.0
 40
1.0
 40
1.0
 10
14.37595046659276
 20
30.22546938779911
 30
0.0
 10
13.92630781119528
 20
29.41921817244962
 30
0.0
 10
13.47757578719339
 20
28.61245515876932
 30
0.0
 10
13.03000000000001
 20
27.8050456341729
 30
0.0
  0
SPLINE
  5
286
330
1F
100
AcDbEntity
  8
SK3
  6
SLD-Dashed
370
    18
100
AcDbSpline
210
0.0
220
0.0
230
1.0
 70
     8
 71
     3
 72
    34
 73
    30
 74
     0
 42
0.000000001
 43
0.00000001
 40
0.4999999999999964
 40
0.4999999999999964
 40
0.4999999999999964
 40
0.4999999999999964
 40
0.5624999999999961
 40
0.5624999999999961
 40
0.5937499999999962
 40
0.5937499999999962
 40
0.6249999999999963
 40
0.6249999999999963
 40
0.6562499999999964
 40
0.6562499999999964
 40
0.6874999999999966
 40
0.6874999999999966
 40
0.7499999999999971
 40
0.7499999999999971
 40
0.7812499999999974
 40
0.7812499999999974
 40
0.8124999999999978
 40
0.8124999999999978
 40
0.8437499999999982
 40
0.8437499999999982
 40
0.8749999999999986
 40
0.8749999999999986
 40
0.9062499999999989
 40
0.9062499999999989
 40
0.9374999999999992
 40
0.9374999999999992
 40
0.9687499999999997
 40
0.9687499999999997
 40
1.0
 40
1.0
 40
1.0
 40
1.0
 10
10.43489457346453
 20
9.192707275454424
 30
0.0
 10
10.57763203931583
 20
9.178391047657609
 30
0.0
 10
10.73072898252596
 20
9.14878837349329
 30
0.0
 10
11.00846457422353
 20
9.079848161145543
 30
0.0
 10
11.10872720463399
 20
9.052921739824734
 30
0.0
 10
11.33151412887494
 20
8.987194762961352
 30
0.0
 10
11.45288474947191
 20
8.948740399015179
 30
0.0
 10
11.69975803299396
 20
8.855687905200394
 30
0.0
 10
11.82369929941916
 20
8.801033903627422
 30
0.0
 10
12.05254486308013
 20
8.674067238076615
 30
0.0
 10
12.15835137945201
 20
8.601647149158648
 30
0.0
 10
12.44326053814744
 20
8.3542096128539
 30
0.0
 10
12.58579742123003
 20
8.151094935723815
 30
0.0
 10
12.70895241472732
 20
7.809142101035414
 30
0.0
 10
12.73535560308829
 20
7.68700358996962
 30
0.0
 10
12.75526974501039
 20
7.441164323332028
 30
0.0
 10
12.74937513382363
 20
7.31528186355649
 30
0.0
 10
12.70533810945412
 20
7.063941193639963
 30
0.0
 10
12.66802095968714
 20
6.94163100009642
 30
0.0
 10
12.56344952904385
 20
6.704179749393996
 30
0.0
 10
12.49625932456629
 20
6.590217548379684
 30
0.0
 10
12.33809446794182
 20
6.382378293731277
 30
0.0
 10
12.24493473983124
 20
6.285873995051198
 30
0.0
 10
12.04054915126639
 20
6.122156553344166
 30
0.0
 10
11.9293214784509
 20
6.054026580940127
 30
0.0
 10
11.68736550523705
 20
5.952992896783485
 30
0.0
 10
11.56181201416268
 20
5.923411177353239
 30
0.0
 10
11.31821027169287
 20
5.909336941584395
 30
0.0
 10
11.20410590689122
 20
5.924577191512056
 30
0.0
 10
11.1
 20
5.953410618658249
 30
0.0
  0
SPLINE
  5
287
330
1F
100
AcDbEntity
  8
SK3
  6
SLD-Dashed
370
    18
100
AcDbSpline
210
0.0
220
0.0
230
1.0
 70
     8
 71
     3
 72
    32
 73
    28
 74
     0
 42
0.000000001
 43
0.00000001
 40
0.0
 40
0.0
 40
0.0
 40
0.0
 40
0.0312499999999998
 40
0.0312499999999998
 40
0.0624999999999996
 40
0.0624999999999996
 40
0.1249999999999991
 40
0.1249999999999991
 40
0.1874999999999986
 40
0.1874999999999986
 40
0.2187499999999983
 40
0.2187499999999983
 40
0.2499999999999979
 40
0.2499999999999979
 40
0.2812499999999978
 40
0.2812499999999978
 40
0.3124999999999976
 40
0.3124999999999976
 40
0.3437499999999974
 40
0.3437499999999974
 40
0.3749999999999972
 40
0.3749999999999972
 40
0.406249999999997
 40
0.406249999999997
 40
0.4374999999999968
 40
0.4374999999999968
 40
0.4999999999999964
 40
0.4999999999999964
 40
0.4999999999999964
 40
0.4999999999999964
 10
11.1
 20
5.953410618658249
 30
0.0
 10
10.99589409310878
 20
5.982244045804435
 30
0.0
 10
10.90407857642198
 20
6.023103286373566
 30
0.0
 10
10.73262137377525
 20
6.118240725872804
 30
0.0
 10
10.65318813797005
 20
6.1727841218219
 30
0.0
 10
10.42547236553634
 20
6.352355611395078
 30
0.0
 10
10.29042057236913
 20
6.490344336420449
 30
0.0
 10
10.03758703563627
 20
6.798492095359335
 30
0.0
 10
9.919813607757956
 20
6.968691620995671
 30
0.0
 10
9.755188160048112
 20
7.264657280293574
 30
0.0
 10
9.702965925809076
 20
7.369529169307637
 30
0.0
 10
9.608196888300558
 20
7.590905988961221
 30
0.0
 10
9.564891013149571
 20
7.708630023759009
 30
0.0
 10
9.49358862725347
 20
7.962877344356849
 30
0.0
 10
9.46689227676846
 20
8.097433676092718
 30
0.0
 10
9.444811777617288
 20
8.35746663645976
 30
0.0
 10
9.450063840888228
 20
8.483405619809329
 30
0.0
 10
9.49012492631586
 20
8.696446913670282
 30
0.0
 10
9.523244242074139
 20
8.782864284801857
 30
0.0
 10
9.604247903804639
 20
8.925144266749452
 30
0.0
 10
9.65074356746913
 20
8.979230676614117
 30
0.0
 10
9.751569607309607
 20
9.067142795898944
 30
0.0
 10
9.806244160784559
 20
9.100654189155017
 30
0.0
 10
9.91929173158787
 20
9.151642126956073
 30
0.0
 10
9.978038231873294
 20
9.16939920542545
 30
0.0
 10
10.16095206270197
 20
9.205547608603649
 30
0.0
 10
10.29215710761321
 20
9.207023503251234
 30
0.0
 10
10.43489457346453
 20
9.192707275454424
 30
0.0
  0
DIMENSION
  5
288
330
1F
100
AcDbEntity
  8
2
100
AcDbDimension
  2
_D
 10
80.0
 20
51.9848621916
 30
0.0
 11
29.5563217928
 21
51.9848621916
 31
0.0
 70
   160
  1
<>
 71
     2
 42
-1.0
  3
SLDDIMSTYLE0
100
AcDbAlignedDimension
 13
0.0
 23
22.225
 33
0.0
 14
80.0
 24
18.0
 34
0.0
100
AcDbRotatedDimension
  0
DIMENSION
  5
29D
330
1F
100
AcDbEntity
  8
SK2
100
AcDbDimension
  2
_D_1
 10
80.0
 20
39.5445733217
 30
0.0
 11
56.4680358258
 21
39.5445733217
 31
0.0
 70
   160
  1
<>
 71
     2
 42
-1.0
  3
SLDDIMSTYLE0
100
AcDbAlignedDimension
 13
19.05
 23
29.8048664484
 33
0.0
 14
80.0
 24
18.0
 34
0.0
100
AcDbRotatedDimension
  0
DIMENSION
  5
2B0
330
1F
100
AcDbEntity
  8
SK2
100
AcDbDimension
  2
_D_2
 10
80.0
 20
25.3312796125
 30
0.0
 11
72.6956122955
 21
25.3312796125
 31
0.0
 70
   160
  1
<>
 71
     2
 42
-1.0
  3
SLDDIMSTYLE0
100
AcDbAlignedDimension
 13
65.2
 23
19.1052145871
 33
0.0
 14
80.0
 24
18.0
 34
0.0
100
AcDbRotatedDimension
  0
DIMENSION
  5
2C3
330
1F
100
AcDbEntity
  8
SK2
100
AcDbDimension
  2
_D_3
 10
65.2
 20
25.4484645577
 30
0.0
 11
54.1803909504
 21
25.4484645577
 31
0.0
 70
   160
  1
<>
 71
     2
 42
-1.0
  3
SLDDIMSTYLE0
100
AcDbAlignedDimension
 13
42.8
 23
20.1141
 33
0.0
 14
65.2
 24
19.1052145871
 34
0.0
100
AcDbRotatedDimension
  0
DIMENSION
  5
2D6
330
1F
100
AcDbEntity
  8
SK2
100
AcDbDimension
  2
_D_4
 10
19.05
 20
39.5445733217
 30
0.0
 11
11.23464697
 21
39.5445733217
 31
0.0
 70
   160
  1
<>
 71
     2
 42
-1.0
  3
SLDDIMSTYLE1
100
AcDbAlignedDimension
 13
0.0
 23
22.225
 33
0.0
 14
19.05
 24
29.8048664484
 34
0.0
100
AcDbRotatedDimension
  0
DIMENSION
  5
2E1
330
1F
100
AcDbEntity
  8
SK2
100
AcDbDimension
  2
_D_5
 10
94.3748271616
 20
9.525
 30
0.0
 11
94.3748271616
 21
0.2537013349
 31
0.0
 70
   160
  1
%%c<>
 71
     2
 42
-1.0
  3
SLDDIMSTYLE2
100
AcDbAlignedDimension
 13
78.5
 23
-9.525
 33
0.0
 14
78.5
 24
9.525
 34
0.0
 50
90.0
100
AcDbRotatedDimension
  0
DIMENSION
  5
2F6
330
1F
100
AcDbEntity
  8
SK2
100
AcDbDimension
  2
_D_6
 10
108.2026506978
 20
-18.0
 30
0.0
 11
108.2026506978
 21
0.2537013349
 31
0.0
 70
   160
  1
%%c<>
 71
     2
 42
-1.0
  3
SLDDIMSTYLE0
100
AcDbAlignedDimension
 13
80.0
 23
18.0
 33
0.0
 14
80.0
 24
-18.0
 34
0.0
 50
90.0
100
AcDbRotatedDimension
  0
DIMENSION
  5
308
330
1F
100
AcDbEntity
  8
SK2
100
AcDbDimension
  2
_D_7
 10
123.3195086315
 20
-20.0
 30
0.0
 11
123.3195086315
 21
0.2537013349
 31
0.0
 70
   160
  1
%%c<>
 71
     2
 42
-1.0
  3
SLDDIMSTYLE0
100
AcDbAlignedDimension
 13
78.0
 23
20.0
 33
0.0
 14
78.0
 24
-20.0
 34
0.0
 50
90.0
100
AcDbRotatedDimension
  0
DIMENSION
  5
31A
330
1F
100
AcDbEntity
  8
SK2
100
AcDbDimension
  2
_D_8
 10
80.0
 20
-49.570205599
 30
0.0
 11
14.0445472119
 21
-49.570205599
 31
0.0
 70
   160
  1
<>
 71
     2
 42
-1.0
  3
SLDDIMSTYLE3
100
AcDbAlignedDimension
 13
-68.25
 23
-11.1476148288
 33
0.0
 14
80.0
 24
-18.0
 34
0.0
 50
0.0
100
AcDbRotatedDimension
  0
DIMENSION
  5
32E
330
1F
100
AcDbEntity
  8
SK2
100
AcDbDimension
  2
_D_9
 10
80.0
 20
-39.1555957433
 30
0.0
 11
58.1092183899
 21
-39.1555957433
 31
0.0
 70
   160
  1
<>
 71
     2
 42
-1.0
  3
SLDDIMSTYLE0
100
AcDbAlignedDimension
 13
29.0
 23
-9.75
 33
0.0
 14
80.0
 24
-18.0
 34
0.0
100
AcDbRotatedDimension
  0
DIMENSION
  5
341
330
1F
100
AcDbEntity
  8
SK2
100
AcDbDimension
  2
_D_10
 10
80.0
 20
-29.0308164761
 30
0.0
 11
72.6956122955
 21
-29.0308164761
 31
0.0
 70
   160
  1
<>
 71
     2
 42
-1.0
  3
SLDDIMSTYLE4
100
AcDbAlignedDimension
 13
78.0
 23
-20.0
 33
0.0
 14
80.0
 24
-18.0
 34
0.0
100
AcDbRotatedDimension
  0
DIMENSION
  5
34E
330
1F
100
AcDbEntity
  8
SK2
100
AcDbDimension
  2
_D_11
 10
-85.7757585873
 20
-30.5579086614
 30
0.0
 11
-85.7757585873
 21
0.2537013349
 31
0.0
 70
   160
  1
%%c<>
 71
     2
 42
-1.0
  3
SLDDIMSTYLE1
100
AcDbAlignedDimension
 13
5.7694368227
 23
30.5578899967
 33
0.0
 14
3.95
 24
-30.5579086614
 34
0.0
 50
90.0
100
AcDbRotatedDimension
  0
DIMENSION
  5
359
330
1F
100
AcDbEntity
  8
SK2
100
AcDbDimension
  2
_D_12
 10
-75.4062053074
 20
-7.9375002533
 30
0.0
 11
-75.4062053074
 21
0.2537013349
 31
0.0
 70
   160
  1
<>
 71
     2
 42
-1.0
  3
SLDDIMSTYLE5
100
AcDbAlignedDimension
 13
-63.3082389832
 23
7.9375002533
 33
0.0
 14
-63.3082389832
 24
-7.9375002533
 34
0.0
 50
90.0
100
AcDbRotatedDimension
  0
MTEXT
  5
367
330
1F
100
AcDbEntity
  8
SK6
 62
     5
100
AcDbMText
 10
-49.7138776044
 20
-23.0325125448
 30
0.0
 40
3.5
 41
0.0
 71
     1
 72
     1
  1
AA3B27-40 19 080
  7
SLDTEXTSTYLE0
 73
     1
 44
1.0
  0
MTEXT
  5
368
330
1F
100
AcDbEntity
  8
SK6
 62
     5
100
AcDbMText
 10
-54.1021581087
 20
26.9517912112
 30
0.0
 40
3.5
 41
0.0
 71
     1
 72
     1
  1
ASME B5.50 CAT 40
  7
SLDTEXTSTYLE0
 73
     1
 44
1.0
  0
ENDSEC
  0
SECTION
  2
OBJECTS
  0
DICTIONARY
  5
C
330
0
100
AcDbDictionary
281
     1
  3
ACAD_GROUP
350
D
  3
ACAD_LAYOUT
350
1A
  3
ACAD_MLINESTYLE
350
17
  3
ACAD_PLOTSETTINGS
350
19
  3
ACAD_PLOTSTYLENAME
350
E
  3
ACAD_SCALELIST
350
47
  0
DICTIONARY
  5
D
102
{ACAD_REACTORS
330
C
102
}
330
C
100
AcDbDictionary
281
     1
  0
DICTIONARY
  5
1A
102
{ACAD_REACTORS
330
C
102
}
330
C
100
AcDbDictionary
281
     1
  3
Layout1
350
1E
  3
Layout2
350
26
  3
Model
350
22
  0
DICTIONARY
  5
17
102
{ACAD_REACTORS
330
C
102
}
330
C
100
AcDbDictionary
281
     1
  3
Standard
350
18
  0
DICTIONARY
  5
19
102
{ACAD_REACTORS
330
C
102
}
330
C
100
AcDbDictionary
281
     1
  0
ACDBDICTIONARYWDFLT
  5
E
102
{ACAD_REACTORS
330
C
102
}
330
C
100
AcDbDictionary
281
     1
  3
Normal
350
F
100
AcDbDictionaryWithDefault
340
F
  0
DICTIONARY
  5
47
102
{ACAD_REACTORS
330
C
102
}
330
C
100
AcDbDictionary
281
     1
  3
A0
350
48
  3
A1
350
49
  3
A2
350
4A
  3
A3
350
4B
  3
A4
350
4C
  3
A5
350
4D
  3
A6
350
4E
  3
A7
350
4F
  3
A8
350
50
  3
A9
350
51
  3
B0
350
52
  3
B1
350
53
  3
B2
350
54
  3
B3
350
55
  3
B4
350
56
  3
B5
350
57
  3
B6
350
58
  3
B7
350
59
  3
B8
350
5A
  3
B9
350
5B
  3
C0
350
5C
  3
C1
350
5D
  3
C2
350
5E
  3
C3
350
5F
  3
C4
350
60
  3
C5
350
61
  3
C6
350
62
  3
C7
350
63
  3
C8
350
64
  3
C9
350
65
  3
D0
350
66
  3
D1
350
67
  3
D2
350
68
  0
LAYOUT
  5
1E
102
{ACAD_REACTORS
330
1A
102
}
330
1A
100
AcDbPlotSettings
  1

  2
none_device
  4

  6

 40
0.0
 41
0.0
 42
0.0
 43
0.0
 44
0.0
 45
0.0
 46
0.0
 47
0.0
 48
0.0
 49
0.0
140
0.0
141
0.0
142
1.0
143
1.0
 70
   688
 72
     1
 73
     0
 74
     5
  7

 75
    16
147
1.0
148
0.0
149
0.0
100
AcDbLayout
  1
Layout1
 70
     1
 71
     1
 10
0.0
 20
0.0
 11
420.0
 21
297.0
 12
0.0
 22
0.0
 32
0.0
 14
1.0000000000E+20
 24
1.0000000000E+20
 34
1.0000000000E+20
 15
-1.0000000000E+20
 25
-1.0000000000E+20
 35
-1.0000000000E+20
146
0.0
 13
0.0
 23
0.0
 33
0.0
 16
1.0
 26
0.0
 36
0.0
 17
0.0
 27
1.0
 37
0.0
 76
     0
330
1B
  0
LAYOUT
  5
26
102
{ACAD_REACTORS
330
1A
102
}
330
1A
100
AcDbPlotSettings
  1

  2
none_device
  4

  6

 40
0.0
 41
0.0
 42
0.0
 43
0.0
 44
0.0
 45
0.0
 46
0.0
 47
0.0
 48
0.0
 49
0.0
140
0.0
141
0.0
142
1.0
143
1.0
 70
   688
 72
     1
 73
     0
 74
     5
  7

 75
    16
147
1.0
148
0.0
149
0.0
100
AcDbLayout
  1
Layout2
 70
     1
 71
     2
 10
0.0
 20
0.0
 11
0.0
 21
0.0
 12
0.0
 22
0.0
 32
0.0
 14
0.0
 24
0.0
 34
0.0
 15
0.0
 25
0.0
 35
0.0
146
0.0
 13
0.0
 23
0.0
 33
0.0
 16
1.0
 26
0.0
 36
0.0
 17
0.0
 27
1.0
 37
0.0
 76
     0
330
23
  0
LAYOUT
  5
22
102
{ACAD_REACTORS
330
1A
102
}
330
1A
100
AcDbPlotSettings
  1

  2
none_device
  4
Letter_(8.50_x_11.00_Inches)
  6

 40
6.35
 41
6.35
 42
6.35000508
 43
6.35000508
 44
215.9
 45
279.4
 46
0.0
 47
0.0
 48
0.0
 49
0.0
140
0.0
141
0.0
142
1.0
143
1.0
 70
  1712
 72
     1
 73
     0
 74
     0
  7

 75
     0
147
1.0
148
0.0
149
0.0
100
AcDbLayout
  1
Model
 70
     1
 71
     0
 10
0.0
 20
0.0
 11
297.0
 21
210.0
 12
0.0
 22
0.0
 32
0.0
 14
0.0
 24
0.0
 34
0.0
 15
297.0
 25
210.0
 35
0.0
146
0.0
 13
0.0
 23
0.0
 33
0.0
 16
1.0
 26
0.0
 36
0.0
 17
0.0
 27
1.0
 37
0.0
 76
     0
330
1F
331
29
  0
MLINESTYLE
  5
18
102
{ACAD_REACTORS
330
17
102
}
330
17
100
AcDbMlineStyle
  2
Standard
 70
     0
  3

 62
   256
 51
90.0
 52
90.0
 71
     2
 49
0.5
 62
   256
  6
BYLAYER
 49
-0.5
 62
   256
  6
BYLAYER
  0
ACDBPLACEHOLDER
  5
F
102
{ACAD_REACTORS
330
E
102
}
330
E
  0
SCALE
  5
48
102
{ACAD_REACTORS
330
47
102
}
330
47
100
AcDbScale
 70
     0
300
1:1
140
1.0
141
1.0
290
     1
  0
SCALE
  5
49
102
{ACAD_REACTORS
330
47
102
}
330
47
100
AcDbScale
 70
     0
300
1:2
140
1.0
141
2.0
290
     0
  0
SCALE
  5
4A
102
{ACAD_REACTORS
330
47
102
}
330
47
100
AcDbScale
 70
     0
300
1:4
140
1.0
141
4.0
290
     0
  0
SCALE
  5
4B
102
{ACAD_REACTORS
330
47
102
}
330
47
100
AcDbScale
 70
     0
300
1:5
140
1.0
141
5.0
290
     0
  0
SCALE
  5
4C
102
{ACAD_REACTORS
330
47
102
}
330
47
100
AcDbScale
 70
     0
300
1:8
140
1.0
141
8.0
290
     0
  0
SCALE
  5
4D
102
{ACAD_REACTORS
330
47
102
}
330
47
100
AcDbScale
 70
     0
300
1:10
140
1.0
141
10.0
290
     0
  0
SCALE
  5
4E
102
{ACAD_REACTORS
330
47
102
}
330
47
100
AcDbScale
 70
     0
300
1:16
140
1.0
141
16.0
290
     0
  0
SCALE
  5
4F
102
{ACAD_REACTORS
330
47
102
}
330
47
100
AcDbScale
 70
     0
300
1:20
140
1.0
141
20.0
290
     0
  0
SCALE
  5
50
102
{ACAD_REACTORS
330
47
102
}
330
47
100
AcDbScale
 70
     0
300
1:30
140
1.0
141
30.0
290
     0
  0
SCALE
  5
51
102
{ACAD_REACTORS
330
47
102
}
330
47
100
AcDbScale
 70
     0
300
1:40
140
1.0
141
40.0
290
     0
  0
SCALE
  5
52
102
{ACAD_REACTORS
330
47
102
}
330
47
100
AcDbScale
 70
     0
300
1:50
140
1.0
141
50.0
290
     0
  0
SCALE
  5
53
102
{ACAD_REACTORS
330
47
102
}
330
47
100
AcDbScale
 70
     0
300
1:100
140
1.0
141
100.0
290
     0
  0
SCALE
  5
54
102
{ACAD_REACTORS
330
47
102
}
330
47
100
AcDbScale
 70
     0
300
2:1
140
2.0
141
1.0
290
     0
  0
SCALE
  5
55
102
{ACAD_REACTORS
330
47
102
}
330
47
100
AcDbScale
 70
     0
300
4:1
140
4.0
141
1.0
290
     0
  0
SCALE
  5
56
102
{ACAD_REACTORS
330
47
102
}
330
47
100
AcDbScale
 70
     0
300
8:1
140
8.0
141
1.0
290
     0
  0
SCALE
  5
57
102
{ACAD_REACTORS
330
47
102
}
330
47
100
AcDbScale
 70
     0
300
10:1
140
10.0
141
1.0
290
     0
  0
SCALE
  5
58
102
{ACAD_REACTORS
330
47
102
}
330
47
100
AcDbScale
 70
     0
300
100:1
140
100.0
141
1.0
290
     0
  0
SCALE
  5
59
102
{ACAD_REACTORS
330
47
102
}
330
47
100
AcDbScale
 70
     0
300
1/128" = 1'-0"
140
0.0078125
141
12.0
290
     0
  0
SCALE
  5
5A
102
{ACAD_REACTORS
330
47
102
}
330
47
100
AcDbScale
 70
     0
300
1/64" = 1'-0"
140
0.015625
141
12.0
290
     0
  0
SCALE
  5
5B
102
{ACAD_REACTORS
330
47
102
}
330
47
100
AcDbScale
 70
     0
300
1/32" = 1'-0"
140
0.03125
141
12.0
290
     0
  0
SCALE
  5
5C
102
{ACAD_REACTORS
330
47
102
}
330
47
100
AcDbScale
 70
     0
300
1/16" = 1'-0"
140
0.0625
141
12.0
290
     0
  0
SCALE
  5
5D
102
{ACAD_REACTORS
330
47
102
}
330
47
100
AcDbScale
 70
     0
300
3/32" = 1'-0"
140
0.09375
141
12.0
290
     0
  0
SCALE
  5
5E
102
{ACAD_REACTORS
330
47
102
}
330
47
100
AcDbScale
 70
     0
300
1/8" = 1'-0"
140
0.125
141
12.0
290
     0
  0
SCALE
  5
5F
102
{ACAD_REACTORS
330
47
102
}
330
47
100
AcDbScale
 70
     0
300
3/16" = 1'-0"
140
0.1875
141
12.0
290
     0
  0
SCALE
  5
60
102
{ACAD_REACTORS
330
47
102
}
330
47
100
AcDbScale
 70
     0
300
1/4" = 1'-0"
140
0.25
141
12.0
290
     0
  0
SCALE
  5
61
102
{ACAD_REACTORS
330
47
102
}
330
47
100
AcDbScale
 70
     0
300
3/8" = 1'-0"
140
0.375
141
12.0
290
     0
  0
SCALE
  5
62
102
{ACAD_REACTORS
330
47
102
}
330
47
100
AcDbScale
 70
     0
300
1/2" = 1'-0"
140
0.5
141
12.0
290
     0
  0
SCALE
  5
63
102
{ACAD_REACTORS
330
47
102
}
330
47
100
AcDbScale
 70
     0
300
3/4" = 1'-0"
140
0.75
141
12.0
290
     0
  0
SCALE
  5
64
102
{ACAD_REACTORS
330
47
102
}
330
47
100
AcDbScale
 70
     0
300
1" = 1'-0"
140
1.0
141
12.0
290
     0
  0
SCALE
  5
65
102
{ACAD_REACTORS
330
47
102
}
330
47
100
AcDbScale
 70
     0
300
1-1/2" = 1'-0"
140
1.5
141
12.0
290
     0
  0
SCALE
  5
66
102
{ACAD_REACTORS
330
47
102
}
330
47
100
AcDbScale
 70
     0
300
3" = 1'-0"
140
3.0
141
12.0
290
     0
  0
SCALE
  5
67
102
{ACAD_REACTORS
330
47
102
}
330
47
100
AcDbScale
 70
     0
300
6" = 1'-0"
140
6.0
141
12.0
290
     0
  0
SCALE
  5
68
102
{ACAD_REACTORS
330
47
102
}
330
47
100
AcDbScale
 70
     0
300
1'-0" = 1'-0"
140
12.0
141
12.0
290
     0
  0
ENDSEC
  0
EOF
