  0
SECTION
  2
HEADER
  9
$ACADVER
  1
AC1015
  9
$ACADMAINTVER
 70
     6
  9
$DWGCODEPAGE
  3
ANSI_1250
  9
$INSBASE
 10
0.0
 20
0.0
 30
0.0
  9
$EXTMIN
 10
0.0
 20
0.0
 30
0.0
  9
$EXTMAX
 10
297.0
 20
210.0
 30
0.0
  9
$LIMMIN
 10
0.0
 20
0.0
  9
$LIMMAX
 10
297.0
 20
210.0
  9
$ORTHOMODE
 70
     0
  9
$REGENMODE
 70
     1
  9
$FILLMODE
 70
     1
  9
$QTEXTMODE
 70
     0
  9
$MIRRTEXT
 70
     1
  9
$LTSCALE
 40
1.0
  9
$ATTMODE
 70
     1
  9
$TEXTSIZE
 40
3.5
  9
$TRACEWID
 40
1.0
  9
$TEXTSTYLE
  7
Standard
  9
$CLAYER
  8
0
  9
$CELTYPE
  6
ByLayer
  9
$CECOLOR
 62
   256
  9
$CELTSCALE
 40
1.0
  9
$DISPSILH
 70
     0
  9
$DIMSCALE
 40
1.0
  9
$DIMASZ
 40
3.302
  9
$DIMEXO
 40
1.0
  9
$DIMDLI
 40
3.75
  9
$DIMRND
 40
0.0
  9
$DIMDLE
 40
0.0
  9
$DIMEXE
 40
1.0
  9
$DIMTP
 40
0.0
  9
$DIMTM
 40
0.0
  9
$DIMTXT
 40
3.5
  9
$DIMCEN
 40
2.5
  9
$DIMTSZ
 40
0.0
  9
$DIMTOL
 70
     0
  9
$DIMLIM
 70
     0
  9
$DIMTIH
 70
     1
  9
$DIMTOH
 70
     1
  9
$DIMSE1
 70
     0
  9
$DIMSE2
 70
     0
  9
$DIMTAD
 70
     1
  9
$DIMZIN
 70
     0
  9
$DIMBLK
  1

  9
$DIMASO
 70
     1
  9
$DIMSHO
 70
     1
  9
$DIMPOST
  1

  9
$DIMAPOST
  1

  9
$DIMALT
 70
     0
  9
$DIMALTD
 70
     3
  9
$DIMALTF
 40
0.0393700787
  9
$DIMLFAC
 40
1.0
  9
$DIMTOFL
 70
     1
  9
$DIMTVP
 40
0.0
  9
$DIMTIX
 70
     0
  9
$DIMSOXD
 70
     0
  9
$DIMSAH
 70
     0
  9
$DIMBLK1
  1

  9
$DIMBLK2
  1

  9
$DIMSTYLE
  2
ISO-25
  9
$DIMCLRD
 70
     0
  9
$DIMCLRE
 70
     0
  9
$DIMCLRT
 70
     0
  9
$DIMTFAC
 40
1.0
  9
$DIMGAP
 40
1.524
  9
$DIMJUST
 70
     0
  9
$DIMSD1
 70
     0
  9
$DIMSD2
 70
     0
  9
$DIMTOLJ
 70
     0
  9
$DIMTZIN
 70
     0
  9
$DIMALTZ
 70
     0
  9
$DIMALTTZ
 70
     0
  9
$DIMUPT
 70
     0
  9
$DIMDEC
 70
     2
  9
$DIMTDEC
 70
     2
  9
$DIMALTU
 70
     2
  9
$DIMALTTD
 70
     3
  9
$DIMTXSTY
  7
Standard
  9
$DIMAUNIT
 70
     0
  9
$DIMADEC
 70
     2
  9
$DIMALTRND
 40
0.0
  9
$DIMAZIN
 70
     0
  9
$DIMDSEP
 70
    44
  9
$DIMATFIT
 70
     3
  9
$DIMFRAC
 70
     0
  9
$DIMLDRBLK
  1

  9
$DIMLUNIT
 70
     2
  9
$DIMLWD
 70
    -2
  9
$DIMLWE
 70
    -2
  9
$DIMTMOVE
 70
     0
  9
$LUNITS
 70
     2
  9
$LUPREC
 70
     2
  9
$SKETCHINC
 40
1.0
  9
$FILLETRAD
 40
10.0
  9
$AUNITS
 70
     0
  9
$AUPREC
 70
     2
  9
$MENU
  1
.
  9
$ELEVATION
 40
0.0
  9
$PELEVATION
 40
0.0
  9
$THICKNESS
 40
0.0
  9
$LIMCHECK
 70
     0
  9
$CHAMFERA
 40
0.0
  9
$CHAMFERB
 40
0.0
  9
$CHAMFERC
 40
0.0
  9
$CHAMFERD
 40
0.0
  9
$SKPOLY
 70
     0
  9
$TDCREATE
 40
2459278.340119259
  9
$TDUCREATE
 40
2459278.298452592
  9
$TDUPDATE
 40
2459278.340120984
  9
$TDUUPDATE
 40
2459278.298454317
  9
$TDINDWG
 40
0.0000000116
  9
$TDUSRTIMER
 40
0.0000000116
  9
$USRTIMER
 70
     1
  9
$ANGBASE
 50
0.0
  9
$ANGDIR
 70
     0
  9
$PDMODE
 70
     0
  9
$PDSIZE
 40
-1.0
  9
$PLINEWID
 40
0.0
  9
$SPLFRAME
 70
     0
  9
$SPLINETYPE
 70
     6
  9
$SPLINESEGS
 70
     8
  9
$HANDSEED
  5
33A
  9
$SURFTAB1
 70
     6
  9
$SURFTAB2
 70
     6
  9
$SURFTYPE
 70
     6
  9
$SURFU
 70
     6
  9
$SURFV
 70
     6
  9
$UCSBASE
  2

  9
$UCSNAME
  2

  9
$UCSORG
 10
0.0
 20
0.0
 30
0.0
  9
$UCSXDIR
 10
1.0
 20
0.0
 30
0.0
  9
$UCSYDIR
 10
0.0
 20
1.0
 30
0.0
  9
$UCSORTHOREF
  2

  9
$UCSORTHOVIEW
 70
     0
  9
$UCSORGTOP
 10
0.0
 20
0.0
 30
0.0
  9
$UCSORGBOTTOM
 10
0.0
 20
0.0
 30
0.0
  9
$UCSORGLEFT
 10
0.0
 20
0.0
 30
0.0
  9
$UCSORGRIGHT
 10
0.0
 20
0.0
 30
0.0
  9
$UCSORGFRONT
 10
0.0
 20
0.0
 30
0.0
  9
$UCSORGBACK
 10
0.0
 20
0.0
 30
0.0
  9
$PUCSBASE
  2

  9
$PUCSNAME
  2

  9
$PUCSORG
 10
0.0
 20
0.0
 30
0.0
  9
$PUCSXDIR
 10
1.0
 20
0.0
 30
0.0
  9
$PUCSYDIR
 10
0.0
 20
1.0
 30
0.0
  9
$PUCSORTHOREF
  2

  9
$PUCSORTHOVIEW
 70
     0
  9
$PUCSORGTOP
 10
0.0
 20
0.0
 30
0.0
  9
$PUCSORGBOTTOM
 10
0.0
 20
0.0
 30
0.0
  9
$PUCSORGLEFT
 10
0.0
 20
0.0
 30
0.0
  9
$PUCSORGRIGHT
 10
0.0
 20
0.0
 30
0.0
  9
$PUCSORGFRONT
 10
0.0
 20
0.0
 30
0.0
  9
$PUCSORGBACK
 10
0.0
 20
0.0
 30
0.0
  9
$USERI1
 70
     0
  9
$USERI2
 70
     0
  9
$USERI3
 70
     0
  9
$USERI4
 70
     0
  9
$USERI5
 70
     0
  9
$USERR1
 40
0.0
  9
$USERR2
 40
0.0
  9
$USERR3
 40
0.0
  9
$USERR4
 40
0.0
  9
$USERR5
 40
0.0
  9
$WORLDVIEW
 70
     1
  9
$SHADEDGE
 70
     3
  9
$SHADEDIF
 70
    70
  9
$TILEMODE
 70
     1
  9
$MAXACTVP
 70
    64
  9
$PINSBASE
 10
0.0
 20
0.0
 30
0.0
  9
$PLIMCHECK
 70
     0
  9
$PEXTMIN
 10
1.0000000000E+20
 20
1.0000000000E+20
 30
1.0000000000E+20
  9
$PEXTMAX
 10
-1.0000000000E+20
 20
-1.0000000000E+20
 30
-1.0000000000E+20
  9
$PLIMMIN
 10
0.0
 20
0.0
  9
$PLIMMAX
 10
420.0
 20
297.0
  9
$UNITMODE
 70
     0
  9
$VISRETAIN
 70
     1
  9
$PLINEGEN
 70
     0
  9
$PSLTSCALE
 70
     1
  9
$TREEDEPTH
 70
  3020
  9
$CMLSTYLE
  2
Standard
  9
$CMLJUST
 70
     0
  9
$CMLSCALE
 40
20.0
  9
$PROXYGRAPHICS
 70
     1
  9
$MEASUREMENT
 70
     1
  9
$CELWEIGHT
370
    -1
  9
$ENDCAPS
280
     0
  9
$JOINSTYLE
280
     0
  9
$LWDISPLAY
290
     1
  9
$INSUNITS
 70
     4
  9
$HYPERLINKBASE
  1

  9
$STYLESHEET
  1

  9
$XEDIT
290
     1
  9
$CEPSNTYPE
380
     0
  9
$PSTYLEMODE
290
     1
  9
$FINGERPRINTGUID
  2
{1D00B08C-2839-44A4-8825-19A8BAD0B5BC}
  9
$VERSIONGUID
  2
{FAEB1C32-E019-11D5-929B-00C0DF256EC4}
  9
$EXTNAMES
290
     1
  9
$PSVPSCALE
 40
0.0
  9
$OLESTARTUP
290
     0
  0
ENDSEC
  0
SECTION
  2
CLASSES
  0
CLASS
  1
ACDBDICTIONARYWDFLT
  2
AcDbDictionaryWithDefault
  3
ObjectDBX Classes
 90
        0
280
     0
281
     0
  0
CLASS
  1
VISUALSTYLE
  2
AcDbVisualStyle
  3
ObjectDBX Classes
 90
     4095
280
     0
281
     0
  0
CLASS
  1
MATERIAL
  2
AcDbMaterial
  3
ObjectDBX Classes
 90
     1153
280
     0
281
     0
  0
CLASS
  1
SCALE
  2
AcDbScale
  3
ObjectDBX Classes
 90
     1153
280
     0
281
     0
  0
CLASS
  1
TABLESTYLE
  2
AcDbTableStyle
  3
ObjectDBX Classes
 90
     4095
280
     0
281
     0
  0
CLASS
  1
MLEADERSTYLE
  2
AcDbMLeaderStyle
  3
ACDB_MLEADERSTYLE_CLASS
 90
     4095
280
     0
281
     0
  0
CLASS
  1
SUN
  2
AcDbSun
  3
SCENEOE
 90
     1153
280
     0
281
     0
  0
CLASS
  1
ACDBPLACEHOLDER
  2
AcDbPlaceHolder
  3
ObjectDBX Classes
 90
        0
280
     0
281
     0
  0
CLASS
  1
LAYOUT
  2
AcDbLayout
  3
ObjectDBX Classes
 90
        0
280
     0
281
     0
  0
ENDSEC
  0
SECTION
  2
TABLES
  0
TABLE
  2
VPORT
  5
8
330
0
100
AcDbSymbolTable
 70
     1
  0
VPORT
  5
29
330
8
100
AcDbSymbolTableRecord
100
AcDbViewportTableRecord
  2
*Active
 70
     0
 10
0.0
 20
0.0
 11
1.0
 21
1.0
 12
148.5
 22
105.0
 13
0.0
 23
0.0
 14
10.0
 24
10.0
 15
10.0
 25
10.0
 16
0.0
 26
0.0
 36
1.0
 17
0.0
 27
0.0
 37
0.0
 40
210.0
 41
1.4142857143
 42
50.0
 43
0.0
 44
0.0
 50
0.0
 51
0.0
 71
     0
 72
  2000
 73
     1
 74
     3
 75
     0
 76
     0
 77
     0
 78
     0
281
     0
 65
     1
110
0.0
120
0.0
130
0.0
111
1.0
121
0.0
131
0.0
112
0.0
122
1.0
132
0.0
 79
     0
146
0.0
  0
ENDTAB
  0
TABLE
  2
LTYPE
  5
5
330
0
100
AcDbSymbolTable
 70
     8
  0
LTYPE
  5
14
330
5
100
AcDbSymbolTableRecord
100
AcDbLinetypeTableRecord
  2
ByBlock
 70
     0
  3

 72
    65
 73
     0
 40
0.0
  0
LTYPE
  5
15
330
5
100
AcDbSymbolTableRecord
100
AcDbLinetypeTableRecord
  2
ByLayer
 70
     0
  3

 72
    65
 73
     0
 40
0.0
  0
LTYPE
  5
16
330
5
100
AcDbSymbolTableRecord
100
AcDbLinetypeTableRecord
  2
Continuous
 70
     0
  3
Solid line
 72
    65
 73
     0
 40
0.0
  0
LTYPE
  5
6E
330
5
100
AcDbSymbolTableRecord
100
AcDbLinetypeTableRecord
  2
SLD-Solid
 70
     0
  3
SolidWorks Line Style
 72
    65
 73
     0
 40
0.0
  0
LTYPE
  5
6F
330
5
100
AcDbSymbolTableRecord
100
AcDbLinetypeTableRecord
  2
SLD-Dashed
 70
     0
  3
SolidWorks Line Style
 72
    65
 73
     2
 40
1.905
 49
1.27
 74
     0
 49
-0.635
 74
     0
  0
LTYPE
  5
70
330
5
100
AcDbSymbolTableRecord
100
AcDbLinetypeTableRecord
  2
SLD-Phantom
 70
     0
  3
SolidWorks Line Style
 72
    65
 73
     6
 40
12.7
 49
6.35
 74
     0
 49
-1.27
 74
     0
 49
1.27
 74
     0
 49
-1.27
 74
     0
 49
1.27
 74
     0
 49
-1.27
 74
     0
  0
LTYPE
  5
71
330
5
100
AcDbSymbolTableRecord
100
AcDbLinetypeTableRecord
  2
SLD-Chain
 70
     0
  3
SolidWorks Line Style
 72
    65
 73
     4
 40
10.16
 49
6.35
 74
     0
 49
-1.27
 74
     0
 49
1.27
 74
     0
 49
-1.27
 74
     0
  0
LTYPE
  5
72
330
5
100
AcDbSymbolTableRecord
100
AcDbLinetypeTableRecord
  2
SLD-Center
 70
     0
  3
SolidWorks Line Style
 72
    65
 73
     4
 40
19.05
 49
15.24
 74
     0
 49
-1.27
 74
     0
 49
1.27
 74
     0
 49
-1.27
 74
     0
  0
LTYPE
  5
73
330
5
100
AcDbSymbolTableRecord
100
AcDbLinetypeTableRecord
  2
SLD-Stitch
 70
     0
  3
SolidWorks Line Style
 72
    65
 73
     2
 40
0.635
 49
0.0
 74
     0
 49
-0.635
 74
     0
  0
LTYPE
  5
74
330
5
100
AcDbSymbolTableRecord
100
AcDbLinetypeTableRecord
  2
SLD-Thin-Thick-Chain
 70
     0
  3
SolidWorks Line Style
 72
    65
 73
     4
 40
10.16
 49
6.35
 74
     0
 49
-1.27
 74
     0
 49
1.27
 74
     0
 49
-1.27
 74
     0
  0
ENDTAB
  0
TABLE
  2
LAYER
  5
2
330
0
100
AcDbSymbolTable
 70
    14
  0
LAYER
  5
10
330
2
100
AcDbSymbolTableRecord
100
AcDbLayerTableRecord
  2
0
 70
     0
 62
     7
  6
Continuous
370
    -3
390
F
  0
LAYER
  5
75
330
2
100
AcDbSymbolTableRecord
100
AcDbLayerTableRecord
  2
SLD-0
 70
     0
 62
   179
  6
SLD-Solid
370
    -3
390
F
  0
LAYER
  5
76
330
2
100
AcDbSymbolTableRecord
100
AcDbLayerTableRecord
  2
80
 70
     0
 62
    -6
  6
SLD-Solid
290
     0
370
    -3
390
F
  0
LAYER
  5
77
330
2
100
AcDbSymbolTableRecord
100
AcDbLayerTableRecord
  2
81
 70
     0
 62
    -3
  6
SLD-Solid
290
     0
370
    -3
390
F
  0
LAYER
  5
78
330
2
100
AcDbSymbolTableRecord
100
AcDbLayerTableRecord
  2
1
 70
     0
 62
     4
  6
SLD-Solid
290
     0
370
    -3
390
F
  0
LAYER
  5
79
330
2
100
AcDbSymbolTableRecord
100
AcDbLayerTableRecord
  2
4
 70
     0
 62
    -2
  6
SLD-Chain
290
     0
370
    -3
390
F
  0
LAYER
  5
7A
330
2
100
AcDbSymbolTableRecord
100
AcDbLayerTableRecord
  2
2
 70
     0
 62
     7
  6
SLD-Solid
290
     0
370
    -3
390
F
  0
LAYER
  5
7B
330
2
100
AcDbSymbolTableRecord
100
AcDbLayerTableRecord
  2
SK3
 70
     0
 62
     1
  6
SLD-Dashed
290
     0
370
    -3
390
F
  0
LAYER
  5
7C
330
2
100
AcDbSymbolTableRecord
100
AcDbLayerTableRecord
  2
SK4
 70
     0
 62
     2
  6
SLD-Chain
290
     0
370
    -3
390
F
  0
LAYER
  5
7D
330
2
100
AcDbSymbolTableRecord
100
AcDbLayerTableRecord
  2
SK2
 70
     0
 62
     7
  6
SLD-Solid
290
     0
370
    -3
390
F
  0
LAYER
  5
7E
330
2
100
AcDbSymbolTableRecord
100
AcDbLayerTableRecord
  2
SK6
 70
     0
 62
     5
  6
SLD-Solid
290
     0
370
    -3
390
F
  0
LAYER
  5
7F
330
2
100
AcDbSymbolTableRecord
100
AcDbLayerTableRecord
  2
6
 70
     0
 62
     5
  6
SLD-Solid
370
    -3
390
F
  0
LAYER
  5
80
330
2
100
AcDbSymbolTableRecord
100
AcDbLayerTableRecord
  2
SK1
 70
     0
 62
     4
  6
SLD-Solid
370
    -3
390
F
  0
LAYER
  5
81
330
2
100
AcDbSymbolTableRecord
100
AcDbLayerTableRecord
  2
LAYER5
 70
     0
 62
   218
  6
SLD-Solid
370
    -3
390
F
  0
ENDTAB
  0
TABLE
  2
STYLE
  5
3
330
0
100
AcDbSymbolTable
 70
     3
  0
STYLE
  5
11
330
3
100
AcDbSymbolTableRecord
100
AcDbTextStyleTableRecord
  2
Standard
 70
     0
 40
0.0
 41
1.0
 50
0.0
 71
     0
 42
3.5
  3
txt
  4

  0
STYLE
  5
257
330
3
100
AcDbSymbolTableRecord
100
AcDbTextStyleTableRecord
  2
SLDTEXTSTYLE0
 70
     0
 40
0.0
 41
0.75
 50
0.0
 71
     0
 42
3.5
  3
TXT
  4

  0
STYLE
  5
336
330
3
100
AcDbSymbolTableRecord
100
AcDbTextStyleTableRecord
  2
SLDTEXTSTYLE1
 70
     0
 40
0.0
 41
0.6666666667
 50
0.0
 71
     0
 42
3.5
  3
TXT
  4

  0
ENDTAB
  0
TABLE
  2
VIEW
  5
6
330
0
100
AcDbSymbolTable
 70
     0
  0
ENDTAB
  0
TABLE
  2
UCS
  5
7
330
0
100
AcDbSymbolTable
 70
     0
  0
ENDTAB
  0
TABLE
  2
APPID
  5
9
330
0
100
AcDbSymbolTable
 70
     1
  0
APPID
  5
12
330
9
100
AcDbSymbolTableRecord
100
AcDbRegAppTableRecord
  2
ACAD
 70
     0
  0
ENDTAB
  0
TABLE
  2
DIMSTYLE
  5
A
330
0
100
AcDbSymbolTable
 70
     5
100
AcDbDimStyleTable
  0
DIMSTYLE
105
27
330
A
100
AcDbSymbolTableRecord
100
AcDbDimStyleTableRecord
  2
ISO-25
 70
     0
 41
2.5
 42
0.625
 43
3.75
 44
1.25
 73
     0
 74
     0
 77
     1
 78
     8
140
2.5
141
2.5
143
0.0393700787
147
0.625
171
     3
172
     1
178
     0
271
     2
272
     2
274
     3
278
    44
283
     0
284
     8
340
11
  0
DIMSTYLE
105
258
102
{ACAD_REACTORS
330
256
330
26B
330
27E
330
291
330
2A4
330
2CB
330
2EB
330
2FD
330
30F
102
}
330
A
100
AcDbSymbolTableRecord
100
AcDbDimStyleTableRecord
  2
SLDDIMSTYLE0
 70
     0
 41
3.302
 44
0.0
 45
0.000000001
 73
     0
 74
     0
 77
     1
 78
    12
 79
     3
140
3.5
143
0.0393700787
147
0.875
148
0.000000001
170
     1
173
     1
178
     0
271
     2
272
     2
276
     2
284
    12
340
257
  0
DIMSTYLE
105
2B8
102
{ACAD_REACTORS
330
2B7
102
}
330
A
100
AcDbSymbolTableRecord
100
AcDbDimStyleTableRecord
  2
SLDDIMSTYLE1
 70
     0
 41
3.302
 44
0.0
 45
0.000000001
 73
     0
 74
     0
 77
     1
 78
    12
 79
     3
140
3.5
143
0.0393700787
147
0.875
148
0.000000001
170
     1
171
     3
173
     1
178
     0
271
     3
272
     2
274
     3
276
     2
284
    12
340
257
  0
DIMSTYLE
105
2DF
102
{ACAD_REACTORS
330
2DE
102
}
330
A
100
AcDbSymbolTableRecord
100
AcDbDimStyleTableRecord
  2
SLDDIMSTYLE2
 70
     0
 41
3.302
 44
0.0
 45
0.000000001
 73
     0
 74
     0
 77
     1
 78
    12
 79
     3
140
3.5
147
0.875
172
     1
173
     1
178
     0
271
     2
272
     2
276
     2
284
    12
289
     0
340
257
  0
DIMSTYLE
105
322
102
{ACAD_REACTORS
330
321
330
32D
102
}
330
A
100
AcDbSymbolTableRecord
100
AcDbDimStyleTableRecord
  2
SLDDIMSTYLE3
 70
     0
 41
3.302
 44
0.0
 45
0.000000001
 73
     0
 74
     0
 77
     1
 78
    12
 79
     3
140
3.5
147
0.875
173
     1
178
     0
271
     2
272
     2
276
     2
284
    12
340
257
  0
ENDTAB
  0
TABLE
  2
BLOCK_RECORD
  5
1
330
0
100
AcDbSymbolTable
 70
    14
  0
BLOCK_RECORD
  5
1F
330
1
100
AcDbSymbolTableRecord
100
AcDbBlockTableRecord
  2
*Model_Space
340
22
  0
BLOCK_RECORD
  5
1B
330
1
100
AcDbSymbolTableRecord
100
AcDbBlockTableRecord
  2
*Paper_Space
340
1E
  0
BLOCK_RECORD
  5
23
330
1
100
AcDbSymbolTableRecord
100
AcDbBlockTableRecord
  2
*Paper_Space0
340
26
  0
BLOCK_RECORD
  5
259
330
1
100
AcDbSymbolTableRecord
100
AcDbBlockTableRecord
  2
_D
340
0
  0
BLOCK_RECORD
  5
26C
330
1
100
AcDbSymbolTableRecord
100
AcDbBlockTableRecord
  2
_D_1
340
0
  0
BLOCK_RECORD
  5
27F
330
1
100
AcDbSymbolTableRecord
100
AcDbBlockTableRecord
  2
_D_2
340
0
  0
BLOCK_RECORD
  5
292
330
1
100
AcDbSymbolTableRecord
100
AcDbBlockTableRecord
  2
_D_3
340
0
  0
BLOCK_RECORD
  5
2A5
330
1
100
AcDbSymbolTableRecord
100
AcDbBlockTableRecord
  2
_D_4
340
0
  0
BLOCK_RECORD
  5
2B9
330
1
100
AcDbSymbolTableRecord
100
AcDbBlockTableRecord
  2
_D_5
340
0
  0
BLOCK_RECORD
  5
2CC
330
1
100
AcDbSymbolTableRecord
100
AcDbBlockTableRecord
  2
_D_6
340
0
  0
BLOCK_RECORD
  5
2E0
330
1
100
AcDbSymbolTableRecord
100
AcDbBlockTableRecord
  2
_D_7
340
0
  0
BLOCK_RECORD
  5
2EC
330
1
100
AcDbSymbolTableRecord
100
AcDbBlockTableRecord
  2
_D_8
340
0
  0
BLOCK_RECORD
  5
2FE
330
1
100
AcDbSymbolTableRecord
100
AcDbBlockTableRecord
  2
_D_9
340
0
  0
BLOCK_RECORD
  5
310
330
1
100
AcDbSymbolTableRecord
100
AcDbBlockTableRecord
  2
_D_10
340
0
  0
BLOCK_RECORD
  5
323
330
1
100
AcDbSymbolTableRecord
100
AcDbBlockTableRecord
  2
_D_11
340
0
  0
BLOCK_RECORD
  5
32E
330
1
100
AcDbSymbolTableRecord
100
AcDbBlockTableRecord
  2
_D_12
340
0
  0
ENDTAB
  0
ENDSEC
  0
SECTION
  2
BLOCKS
  0
BLOCK
  5
20
330
1F
100
AcDbEntity
  8
0
100
AcDbBlockBegin
  2
*Model_Space
 70
     0
 10
0.0
 20
0.0
 30
0.0
  3
*Model_Space
  1

  0
ENDBLK
  5
21
330
1F
100
AcDbEntity
  8
0
100
AcDbBlockEnd
  0
BLOCK
  5
1C
330
1B
100
AcDbEntity
 67
     1
  8
0
100
AcDbBlockBegin
  2
*Paper_Space
 70
     0
 10
0.0
 20
0.0
 30
0.0
  3
*Paper_Space
  1

  0
ENDBLK
  5
1D
330
1B
100
AcDbEntity
 67
     1
  8
0
100
AcDbBlockEnd
  0
BLOCK
  5
24
330
23
100
AcDbEntity
  8
0
100
AcDbBlockBegin
  2
*Paper_Space0
 70
     0
 10
0.0
 20
0.0
 30
0.0
  3
*Paper_Space0
  1

  0
ENDBLK
  5
25
330
23
100
AcDbEntity
  8
0
100
AcDbBlockEnd
  0
BLOCK
  5
25A
330
259
100
AcDbEntity
  8
0
100
AcDbBlockBegin
  2
_D
 70
     0
 10
0.0
 20
0.0
 30
0.0
  3
_D
  1

  0
SOLID
  5
25C
330
259
100
AcDbEntity
  8
2
100
AcDbTrace
 10
0.0
 20
95.60536517
 30
0.0
 11
3.302
 21
95.09736517
 31
0.0
 12
3.302
 22
96.11336517
 32
0.0
 13
3.302
 23
96.11336517
 33
0.0
  0
SOLID
  5
25D
330
259
100
AcDbEntity
  8
2
100
AcDbTrace
 10
142.88
 20
95.60536517
 30
0.0
 11
139.578
 21
96.11336517
 31
0.0
 12
139.578
 22
95.09736517
 32
0.0
 13
139.578
 23
95.09736517
 33
0.0
  0
LINE
  5
25E
330
259
100
AcDbEntity
  8
2
100
AcDbLine
 10
40.5024780091
 20
106.398246886
 30
0.0
 11
39.4360717516
 21
106.398246886
 31
0.0
  0
LINE
  5
25F
330
259
100
AcDbEntity
  8
2
100
AcDbLine
 10
39.4360717516
 20
106.398246886
 30
0.0
 11
39.4360717516
 21
100.8419968949
 31
0.0
  0
LINE
  5
260
330
259
100
AcDbEntity
  8
2
100
AcDbLine
 10
39.4360717516
 20
100.8419968949
 30
0.0
 11
40.5024780091
 21
100.8419968949
 31
0.0
  0
LINE
  5
261
330
259
100
AcDbEntity
  8
2
100
AcDbLine
 10
49.55386707
 20
106.398246886
 30
0.0
 11
50.6202733275
 21
106.398246886
 31
0.0
  0
LINE
  5
262
330
259
100
AcDbEntity
  8
2
100
AcDbLine
 10
50.6202733275
 20
106.398246886
 30
0.0
 11
50.6202733275
 21
100.8419968949
 31
0.0
  0
LINE
  5
263
330
259
100
AcDbEntity
  8
2
100
AcDbLine
 10
50.6202733275
 20
100.8419968949
 30
0.0
 11
49.55386707
 21
100.8419968949
 31
0.0
  0
LINE
  5
264
330
259
100
AcDbEntity
  8
2
100
AcDbLine
 10
0.0
 20
35.925
 30
0.0
 11
0.0
 21
96.60536517
 31
0.0
  0
LINE
  5
265
330
259
100
AcDbEntity
  8
2
100
AcDbLine
 10
142.88
 20
37.957
 30
0.0
 11
142.88
 21
96.60536517
 31
0.0
  0
LINE
  5
266
330
259
100
AcDbEntity
  8
2
100
AcDbLine
 10
0.0
 20
95.60536517
 30
0.0
 11
142.88
 21
95.60536517
 31
0.0
  0
MTEXT
  5
267
330
259
100
AcDbEntity
  8
2
100
AcDbMText
 10
37.935810986
 20
100.1705744358
 30
0.0
 40
3.5
 41
0.0
 71
     1
 72
     1
  1

  7
SLDTEXTSTYLE0
 73
     1
 44
1.0
  0
MTEXT
  5
268
330
259
100
AcDbEntity
  8
2
100
AcDbMText
 10
40.5024780091
 20
105.3537338095
 30
0.0
 40
3.5
 41
0.0
 71
     1
 72
     1
  1
5,63
  7
SLDTEXTSTYLE0
 73
     1
 44
1.0
  0
MTEXT
  5
269
330
259
100
AcDbEntity
  8
2
100
AcDbMText
 10
37.9163665827
 20
100.1171022592
 30
0.0
 40
3.5
 41
0.0
 71
     1
 72
     1
  1
142,88
  7
SLDTEXTSTYLE0
 73
     1
 44
1.0
  0
MTEXT
  5
26A
330
259
100
AcDbEntity
  8
2
100
AcDbMText
 10
53.4524786128
 20
100.1705744358
 30
0.0
 40
3.5
 41
0.0
 71
     1
 72
     1
  1

  7
SLDTEXTSTYLE0
 73
     1
 44
1.0
  0
ENDBLK
  5
25B
330
259
100
AcDbEntity
  8
0
100
AcDbBlockEnd
  0
BLOCK
  5
26D
330
26C
100
AcDbEntity
  8
0
100
AcDbBlockBegin
  2
_D_1
 70
     0
 10
0.0
 20
0.0
 30
0.0
  3
_D_1
  1

  0
SOLID
  5
26F
330
26C
100
AcDbEntity
  8
SK2
100
AcDbTrace
 10
19.05
 20
82.5461543229
 30
0.0
 11
22.352
 21
82.0381543229
 31
0.0
 12
22.352
 22
83.0541543229
 32
0.0
 13
22.352
 23
83.0541543229
 33
0.0
  0
SOLID
  5
270
330
26C
100
AcDbEntity
  8
SK2
100
AcDbTrace
 10
142.88
 20
82.5461543229
 30
0.0
 11
139.578
 21
83.0541543229
 31
0.0
 12
139.578
 22
82.0381543229
 32
0.0
 13
139.578
 23
82.0381543229
 33
0.0
  0
LINE
  5
271
330
26C
100
AcDbEntity
  8
SK2
100
AcDbLine
 10
54.7142338746
 20
93.339036039
 30
0.0
 11
53.6478276171
 21
93.339036039
 31
0.0
  0
LINE
  5
272
330
26C
100
AcDbEntity
  8
SK2
100
AcDbLine
 10
53.6478276171
 20
93.339036039
 30
0.0
 11
53.6478276171
 21
87.7827860479
 31
0.0
  0
LINE
  5
273
330
26C
100
AcDbEntity
  8
SK2
100
AcDbLine
 10
53.6478276171
 20
87.7827860479
 30
0.0
 11
54.7142338746
 21
87.7827860479
 31
0.0
  0
LINE
  5
274
330
26C
100
AcDbEntity
  8
SK2
100
AcDbLine
 10
63.7656229355
 20
93.339036039
 30
0.0
 11
64.8320291929
 21
93.339036039
 31
0.0
  0
LINE
  5
275
330
26C
100
AcDbEntity
  8
SK2
100
AcDbLine
 10
64.8320291929
 20
93.339036039
 30
0.0
 11
64.8320291929
 21
87.7827860479
 31
0.0
  0
LINE
  5
276
330
26C
100
AcDbEntity
  8
SK2
100
AcDbLine
 10
64.8320291929
 20
87.7827860479
 30
0.0
 11
63.7656229355
 21
87.7827860479
 31
0.0
  0
LINE
  5
277
330
26C
100
AcDbEntity
  8
SK2
100
AcDbLine
 10
19.05
 20
47.5560855313
 30
0.0
 11
19.05
 21
83.5461543229
 31
0.0
  0
LINE
  5
278
330
26C
100
AcDbEntity
  8
SK2
100
AcDbLine
 10
142.88
 20
37.957
 30
0.0
 11
142.88
 21
83.5461543229
 31
0.0
  0
LINE
  5
279
330
26C
100
AcDbEntity
  8
SK2
100
AcDbLine
 10
19.05
 20
82.5461543229
 30
0.0
 11
142.88
 21
82.5461543229
 31
0.0
  0
MTEXT
  5
27A
330
26C
100
AcDbEntity
  8
SK2
100
AcDbMText
 10
52.1475668514
 20
87.1113635888
 30
0.0
 40
3.5
 41
0.0
 71
     1
 72
     1
  1

  7
SLDTEXTSTYLE0
 73
     1
 44
1.0
  0
MTEXT
  5
27B
330
26C
100
AcDbEntity
  8
SK2
100
AcDbMText
 10
54.7142338746
 20
92.2945229625
 30
0.0
 40
3.5
 41
0.0
 71
     1
 72
     1
  1
4,88
  7
SLDTEXTSTYLE0
 73
     1
 44
1.0
  0
MTEXT
  5
27C
330
26C
100
AcDbEntity
  8
SK2
100
AcDbMText
 10
52.1281224482
 20
87.0578914121
 30
0.0
 40
3.5
 41
0.0
 71
     1
 72
     1
  1
123,83
  7
SLDTEXTSTYLE0
 73
     1
 44
1.0
  0
MTEXT
  5
27D
330
26C
100
AcDbEntity
  8
SK2
100
AcDbMText
 10
67.6642344782
 20
87.1113635888
 30
0.0
 40
3.5
 41
0.0
 71
     1
 72
     1
  1

  7
SLDTEXTSTYLE0
 73
     1
 44
1.0
  0
ENDBLK
  5
26E
330
26C
100
AcDbEntity
  8
0
100
AcDbBlockEnd
  0
BLOCK
  5
280
330
27F
100
AcDbEntity
  8
0
100
AcDbBlockBegin
  2
_D_2
 70
     0
 10
0.0
 20
0.0
 30
0.0
  3
_D_2
  1

  0
SOLID
  5
282
330
27F
100
AcDbEntity
  8
SK2
100
AcDbTrace
 10
35.1
 20
70.6735123872
 30
0.0
 11
38.402
 21
70.1655123872
 31
0.0
 12
38.402
 22
71.1815123872
 32
0.0
 13
38.402
 23
71.1815123872
 33
0.0
  0
SOLID
  5
283
330
27F
100
AcDbEntity
  8
SK2
100
AcDbTrace
 10
142.88
 20
70.6735123872
 30
0.0
 11
139.578
 21
71.1815123872
 31
0.0
 12
139.578
 22
70.1655123872
 32
0.0
 13
139.578
 23
70.1655123872
 33
0.0
  0
LINE
  5
284
330
27F
100
AcDbEntity
  8
SK2
100
AcDbLine
 10
75.17170921
 20
81.4663941032
 30
0.0
 11
74.1053029525
 21
81.4663941032
 31
0.0
  0
LINE
  5
285
330
27F
100
AcDbEntity
  8
SK2
100
AcDbLine
 10
74.1053029525
 20
81.4663941032
 30
0.0
 11
74.1053029525
 21
75.9101441122
 31
0.0
  0
LINE
  5
286
330
27F
100
AcDbEntity
  8
SK2
100
AcDbLine
 10
74.1053029525
 20
75.9101441122
 30
0.0
 11
75.17170921
 21
75.9101441122
 31
0.0
  0
LINE
  5
287
330
27F
100
AcDbEntity
  8
SK2
100
AcDbLine
 10
84.2230982709
 20
81.4663941032
 30
0.0
 11
85.2895045284
 21
81.4663941032
 31
0.0
  0
LINE
  5
288
330
27F
100
AcDbEntity
  8
SK2
100
AcDbLine
 10
85.2895045284
 20
81.4663941032
 30
0.0
 11
85.2895045284
 21
75.9101441122
 31
0.0
  0
LINE
  5
289
330
27F
100
AcDbEntity
  8
SK2
100
AcDbLine
 10
85.2895045284
 20
75.9101441122
 30
0.0
 11
84.2230982709
 21
75.9101441122
 31
0.0
  0
LINE
  5
28A
330
27F
100
AcDbEntity
  8
SK2
100
AcDbLine
 10
35.1
 20
47.101
 30
0.0
 11
35.1
 21
71.6735123872
 31
0.0
  0
LINE
  5
28B
330
27F
100
AcDbEntity
  8
SK2
100
AcDbLine
 10
142.88
 20
37.957
 30
0.0
 11
142.88
 21
71.6735123872
 31
0.0
  0
LINE
  5
28C
330
27F
100
AcDbEntity
  8
SK2
100
AcDbLine
 10
35.1
 20
70.6735123872
 30
0.0
 11
142.88
 21
70.6735123872
 31
0.0
  0
MTEXT
  5
28D
330
27F
100
AcDbEntity
  8
SK2
100
AcDbMText
 10
72.6050421869
 20
75.238721653
 30
0.0
 40
3.5
 41
0.0
 71
     1
 72
     1
  1

  7
SLDTEXTSTYLE0
 73
     1
 44
1.0
  0
MTEXT
  5
28E
330
27F
100
AcDbEntity
  8
SK2
100
AcDbMText
 10
75.17170921
 20
80.4218810267
 30
0.0
 40
3.5
 41
0.0
 71
     1
 72
     1
  1
4,24
  7
SLDTEXTSTYLE0
 73
     1
 44
1.0
  0
MTEXT
  5
28F
330
27F
100
AcDbEntity
  8
SK2
100
AcDbMText
 10
72.5855977836
 20
75.1852494764
 30
0.0
 40
3.5
 41
0.0
 71
     1
 72
     1
  1
107,78
  7
SLDTEXTSTYLE0
 73
     1
 44
1.0
  0
MTEXT
  5
290
330
27F
100
AcDbEntity
  8
SK2
100
AcDbMText
 10
88.1217098137
 20
75.238721653
 30
0.0
 40
3.5
 41
0.0
 71
     1
 72
     1
  1

  7
SLDTEXTSTYLE0
 73
     1
 44
1.0
  0
ENDBLK
  5
281
330
27F
100
AcDbEntity
  8
0
100
AcDbBlockEnd
  0
BLOCK
  5
293
330
292
100
AcDbEntity
  8
0
100
AcDbBlockBegin
  2
_D_3
 70
     0
 10
0.0
 20
0.0
 30
0.0
  3
_D_3
  1

  0
SOLID
  5
295
330
292
100
AcDbEntity
  8
SK2
100
AcDbTrace
 10
142.88
 20
56.0610300047
 30
0.0
 11
139.578
 21
56.5690300047
 31
0.0
 12
139.578
 22
55.5530300047
 32
0.0
 13
139.578
 23
55.5530300047
 33
0.0
  0
SOLID
  5
296
330
292
100
AcDbEntity
  8
SK2
100
AcDbTrace
 10
107.168
 20
56.0610300047
 30
0.0
 11
110.47
 21
55.5530300047
 31
0.0
 12
110.47
 22
56.5690300047
 32
0.0
 13
110.47
 23
56.5690300047
 33
0.0
  0
LINE
  5
297
330
292
100
AcDbEntity
  8
SK2
100
AcDbLine
 10
121.2010287147
 20
66.8539117208
 30
0.0
 11
120.1346224573
 21
66.8539117208
 31
0.0
  0
LINE
  5
298
330
292
100
AcDbEntity
  8
SK2
100
AcDbLine
 10
120.1346224573
 20
66.8539117208
 30
0.0
 11
120.1346224573
 21
61.2976617297
 31
0.0
  0
LINE
  5
299
330
292
100
AcDbEntity
  8
SK2
100
AcDbLine
 10
120.1346224573
 20
61.2976617297
 30
0.0
 11
121.2010287147
 21
61.2976617297
 31
0.0
  0
LINE
  5
29A
330
292
100
AcDbEntity
  8
SK2
100
AcDbLine
 10
130.2524177757
 20
66.8539117208
 30
0.0
 11
131.3188240331
 21
66.8539117208
 31
0.0
  0
LINE
  5
29B
330
292
100
AcDbEntity
  8
SK2
100
AcDbLine
 10
131.3188240331
 20
66.8539117208
 30
0.0
 11
131.3188240331
 21
61.2976617297
 31
0.0
  0
LINE
  5
29C
330
292
100
AcDbEntity
  8
SK2
100
AcDbLine
 10
131.3188240331
 20
61.2976617297
 30
0.0
 11
130.2524177756
 21
61.2976617297
 31
0.0
  0
LINE
  5
29D
330
292
100
AcDbEntity
  8
SK2
100
AcDbLine
 10
142.88
 20
37.957
 30
0.0
 11
142.88
 21
57.0610300047
 31
0.0
  0
LINE
  5
29E
330
292
100
AcDbEntity
  8
SK2
100
AcDbLine
 10
107.168
 20
48.525
 30
0.0
 11
107.168
 21
57.0610300047
 31
0.0
  0
LINE
  5
29F
330
292
100
AcDbEntity
  8
SK2
100
AcDbLine
 10
142.88
 20
56.0610300047
 30
0.0
 11
107.168
 21
56.0610300047
 31
0.0
  0
MTEXT
  5
2A0
330
292
100
AcDbEntity
  8
SK2
100
AcDbMText
 10
119.0876606031
 20
60.6262392706
 30
0.0
 40
3.5
 41
0.0
 71
     1
 72
     1
  1

  7
SLDTEXTSTYLE0
 73
     1
 44
1.0
  0
MTEXT
  5
2A1
330
292
100
AcDbEntity
  8
SK2
100
AcDbMText
 10
121.2010287147
 20
65.8093986443
 30
0.0
 40
3.5
 41
0.0
 71
     1
 72
     1
  1
1,41
  7
SLDTEXTSTYLE0
 73
     1
 44
1.0
  0
MTEXT
  5
2A2
330
292
100
AcDbEntity
  8
SK2
100
AcDbMText
 10
119.9079730016
 20
60.5727670939
 30
0.0
 40
3.5
 41
0.0
 71
     1
 72
     1
  1
35,71
  7
SLDTEXTSTYLE0
 73
     1
 44
1.0
  0
MTEXT
  5
2A3
330
292
100
AcDbEntity
  8
SK2
100
AcDbMText
 10
133.697730407
 20
60.6262392706
 30
0.0
 40
3.5
 41
0.0
 71
     1
 72
     1
  1

  7
SLDTEXTSTYLE0
 73
     1
 44
1.0
  0
ENDBLK
  5
294
330
292
100
AcDbEntity
  8
0
100
AcDbBlockEnd
  0
BLOCK
  5
2A6
330
2A5
100
AcDbEntity
  8
0
100
AcDbBlockBegin
  2
_D_4
 70
     0
 10
0.0
 20
0.0
 30
0.0
  3
_D_4
  1

  0
SOLID
  5
2A8
330
2A5
100
AcDbEntity
  8
SK2
100
AcDbTrace
 10
107.168
 20
56.0610300047
 30
0.0
 11
103.866
 21
56.5690300047
 31
0.0
 12
103.866
 22
55.5530300047
 32
0.0
 13
103.866
 23
55.5530300047
 33
0.0
  0
SOLID
  5
2A9
330
2A5
100
AcDbEntity
  8
SK2
100
AcDbTrace
 10
69.068
 20
56.0610300047
 30
0.0
 11
72.37
 21
55.5530300047
 31
0.0
 12
72.37
 22
56.5690300047
 32
0.0
 13
72.37
 23
56.5690300047
 33
0.0
  0
LINE
  5
2AA
330
2A5
100
AcDbEntity
  8
SK2
100
AcDbLine
 10
82.4779504012
 20
66.8539117208
 30
0.0
 11
81.4115441438
 21
66.8539117208
 31
0.0
  0
LINE
  5
2AB
330
2A5
100
AcDbEntity
  8
SK2
100
AcDbLine
 10
81.4115441438
 20
66.8539117208
 30
0.0
 11
81.4115441438
 21
61.2976617297
 31
0.0
  0
LINE
  5
2AC
330
2A5
100
AcDbEntity
  8
SK2
100
AcDbLine
 10
81.4115441438
 20
61.2976617297
 30
0.0
 11
82.4779504012
 21
61.2976617297
 31
0.0
  0
LINE
  5
2AD
330
2A5
100
AcDbEntity
  8
SK2
100
AcDbLine
 10
91.5293394621
 20
66.8539117208
 30
0.0
 11
92.5957457196
 21
66.8539117208
 31
0.0
  0
LINE
  5
2AE
330
2A5
100
AcDbEntity
  8
SK2
100
AcDbLine
 10
92.5957457196
 20
66.8539117208
 30
0.0
 11
92.5957457196
 21
61.2976617297
 31
0.0
  0
LINE
  5
2AF
330
2A5
100
AcDbEntity
  8
SK2
100
AcDbLine
 10
92.5957457196
 20
61.2976617297
 30
0.0
 11
91.5293394621
 21
61.2976617297
 31
0.0
  0
LINE
  5
2B0
330
2A5
100
AcDbEntity
  8
SK2
100
AcDbLine
 10
107.168
 20
48.525
 30
0.0
 11
107.168
 21
57.0610300047
 31
0.0
  0
LINE
  5
2B1
330
2A5
100
AcDbEntity
  8
SK2
100
AcDbLine
 10
69.068
 20
48.525
 30
0.0
 11
69.068
 21
57.0610300047
 31
0.0
  0
LINE
  5
2B2
330
2A5
100
AcDbEntity
  8
SK2
100
AcDbLine
 10
107.168
 20
56.0610300047
 30
0.0
 11
69.068
 21
56.0610300047
 31
0.0
  0
MTEXT
  5
2B3
330
2A5
100
AcDbEntity
  8
SK2
100
AcDbMText
 10
80.3645822896
 20
60.6262392706
 30
0.0
 40
3.5
 41
0.0
 71
     1
 72
     1
  1

  7
SLDTEXTSTYLE0
 73
     1
 44
1.0
  0
MTEXT
  5
2B4
330
2A5
100
AcDbEntity
  8
SK2
100
AcDbMText
 10
82.4779504012
 20
65.8093986443
 30
0.0
 40
3.5
 41
0.0
 71
     1
 72
     1
  1
1,50
  7
SLDTEXTSTYLE0
 73
     1
 44
1.0
  0
MTEXT
  5
2B5
330
2A5
100
AcDbEntity
  8
SK2
100
AcDbMText
 10
82.4779504012
 20
60.5727670939
 30
0.0
 40
3.5
 41
0.0
 71
     1
 72
     1
  1
38,1
  7
SLDTEXTSTYLE0
 73
     1
 44
1.0
  0
MTEXT
  5
2B6
330
2A5
100
AcDbEntity
  8
SK2
100
AcDbMText
 10
94.9746520935
 20
60.6262392706
 30
0.0
 40
3.5
 41
0.0
 71
     1
 72
     1
  1

  7
SLDTEXTSTYLE0
 73
     1
 44
1.0
  0
ENDBLK
  5
2A7
330
2A5
100
AcDbEntity
  8
0
100
AcDbBlockEnd
  0
BLOCK
  5
2BA
330
2B9
100
AcDbEntity
  8
0
100
AcDbBlockBegin
  2
_D_5
 70
     0
 10
0.0
 20
0.0
 30
0.0
  3
_D_5
  1

  0
SOLID
  5
2BC
330
2B9
100
AcDbEntity
  8
SK2
100
AcDbTrace
 10
-101.6
 20
-77.5566157912
 30
0.0
 11
-98.298
 21
-78.0646157912
 31
0.0
 12
-98.298
 22
-77.0486157912
 32
0.0
 13
-98.298
 23
-77.0486157912
 33
0.0
  0
SOLID
  5
2BD
330
2B9
100
AcDbEntity
  8
SK2
100
AcDbTrace
 10
142.88
 20
-77.5566157912
 30
0.0
 11
139.578
 21
-77.0486157912
 31
0.0
 12
139.578
 22
-78.0646157912
 32
0.0
 13
139.578
 23
-78.0646157912
 33
0.0
  0
LINE
  5
2BE
330
2B9
100
AcDbEntity
  8
SK2
100
AcDbLine
 10
-8.340850848
 20
-66.7637340751
 30
0.0
 11
-9.4072571055
 21
-66.7637340751
 31
0.0
  0
LINE
  5
2BF
330
2B9
100
AcDbEntity
  8
SK2
100
AcDbLine
 10
-9.4072571055
 20
-66.7637340751
 30
0.0
 11
-9.4072571055
 21
-72.3199840662
 31
0.0
  0
LINE
  5
2C0
330
2B9
100
AcDbEntity
  8
SK2
100
AcDbLine
 10
-9.4072571055
 20
-72.3199840662
 30
0.0
 11
-8.340850848
 21
-72.3199840662
 31
0.0
  0
LINE
  5
2C1
330
2B9
100
AcDbEntity
  8
SK2
100
AcDbLine
 10
3.2966496392
 20
-66.7637340751
 30
0.0
 11
4.3630558967
 21
-66.7637340751
 31
0.0
  0
LINE
  5
2C2
330
2B9
100
AcDbEntity
  8
SK2
100
AcDbLine
 10
4.3630558967
 20
-66.7637340751
 30
0.0
 11
4.3630558967
 21
-72.3199840662
 31
0.0
  0
LINE
  5
2C3
330
2B9
100
AcDbEntity
  8
SK2
100
AcDbLine
 10
4.3630558967
 20
-72.3199840662
 30
0.0
 11
3.2966496392
 21
-72.3199840662
 31
0.0
  0
LINE
  5
2C4
330
2B9
100
AcDbEntity
  8
SK2
100
AcDbLine
 10
-101.6
 20
-19.2922326599
 30
0.0
 11
-101.6
 21
-78.5566157912
 31
0.0
  0
LINE
  5
2C5
330
2B9
100
AcDbEntity
  8
SK2
100
AcDbLine
 10
142.88
 20
-37.957
 30
0.0
 11
142.88
 21
-78.5566157912
 31
0.0
  0
LINE
  5
2C6
330
2B9
100
AcDbEntity
  8
SK2
100
AcDbLine
 10
-101.6
 20
-77.5566157912
 30
0.0
 11
142.88
 21
-77.5566157912
 31
0.0
  0
MTEXT
  5
2C7
330
2B9
100
AcDbEntity
  8
SK2
100
AcDbMText
 10
-10.4542189597
 20
-72.9914065253
 30
0.0
 40
3.5
 41
0.0
 71
     1
 72
     1
  1

  7
SLDTEXTSTYLE0
 73
     1
 44
1.0
  0
MTEXT
  5
2C8
330
2B9
100
AcDbEntity
  8
SK2
100
AcDbMText
 10
-8.340850848
 20
-67.8082471516
 30
0.0
 40
3.5
 41
0.0
 71
     1
 72
     1
  1
9,625
  7
SLDTEXTSTYLE0
 73
     1
 44
1.0
  0
MTEXT
  5
2C9
330
2B9
100
AcDbEntity
  8
SK2
100
AcDbMText
 10
-9.6339070269
 20
-73.044878702
 30
0.0
 40
3.5
 41
0.0
 71
     1
 72
     1
  1
244,48
  7
SLDTEXTSTYLE0
 73
     1
 44
1.0
  0
MTEXT
  5
2CA
330
2B9
100
AcDbEntity
  8
SK2
100
AcDbMText
 10
6.7419613392
 20
-72.9914065253
 30
0.0
 40
3.5
 41
0.0
 71
     1
 72
     1
  1

  7
SLDTEXTSTYLE0
 73
     1
 44
1.0
  0
ENDBLK
  5
2BB
330
2B9
100
AcDbEntity
  8
0
100
AcDbBlockEnd
  0
BLOCK
  5
2CD
330
2CC
100
AcDbEntity
  8
0
100
AcDbBlockBegin
  2
_D_6
 70
     0
 10
0.0
 20
0.0
 30
0.0
  3
_D_6
  1

  0
SOLID
  5
2CF
330
2CC
100
AcDbEntity
  8
SK2
100
AcDbTrace
 10
60.33
 20
-69.0647981896
 30
0.0
 11
63.632
 21
-69.5727981896
 31
0.0
 12
63.632
 22
-68.5567981896
 32
0.0
 13
63.632
 23
-68.5567981896
 33
0.0
  0
SOLID
  5
2D0
330
2CC
100
AcDbEntity
  8
SK2
100
AcDbTrace
 10
142.88
 20
-69.0647981896
 30
0.0
 11
139.578
 21
-68.5567981896
 31
0.0
 12
139.578
 22
-69.5727981896
 32
0.0
 13
139.578
 23
-69.5727981896
 33
0.0
  0
LINE
  5
2D1
330
2CC
100
AcDbEntity
  8
SK2
100
AcDbLine
 10
96.279063525
 20
-58.2719164736
 30
0.0
 11
95.2126572675
 21
-58.2719164736
 31
0.0
  0
LINE
  5
2D2
330
2CC
100
AcDbEntity
  8
SK2
100
AcDbLine
 10
95.2126572675
 20
-58.2719164736
 30
0.0
 11
95.2126572675
 21
-63.8281664646
 31
0.0
  0
LINE
  5
2D3
330
2CC
100
AcDbEntity
  8
SK2
100
AcDbLine
 10
95.2126572675
 20
-63.8281664646
 30
0.0
 11
96.279063525
 21
-63.8281664646
 31
0.0
  0
LINE
  5
2D4
330
2CC
100
AcDbEntity
  8
SK2
100
AcDbLine
 10
105.3304525859
 20
-58.2719164736
 30
0.0
 11
106.3968588433
 21
-58.2719164736
 31
0.0
  0
LINE
  5
2D5
330
2CC
100
AcDbEntity
  8
SK2
100
AcDbLine
 10
106.3968588433
 20
-58.2719164736
 30
0.0
 11
106.3968588433
 21
-63.8281664646
 31
0.0
  0
LINE
  5
2D6
330
2CC
100
AcDbEntity
  8
SK2
100
AcDbLine
 10
106.3968588433
 20
-63.8281664646
 30
0.0
 11
105.3304525859
 21
-63.8281664646
 31
0.0
  0
LINE
  5
2D7
330
2CC
100
AcDbEntity
  8
SK2
100
AcDbLine
 10
60.33
 20
-26.44
 30
0.0
 11
60.33
 21
-70.0647981896
 31
0.0
  0
LINE
  5
2D8
330
2CC
100
AcDbEntity
  8
SK2
100
AcDbLine
 10
142.88
 20
-37.957
 30
0.0
 11
142.88
 21
-70.0647981896
 31
0.0
  0
LINE
  5
2D9
330
2CC
100
AcDbEntity
  8
SK2
100
AcDbLine
 10
60.33
 20
-69.0647981896
 30
0.0
 11
142.88
 21
-69.0647981896
 31
0.0
  0
MTEXT
  5
2DA
330
2CC
100
AcDbEntity
  8
SK2
100
AcDbMText
 10
94.1656954133
 20
-64.4995889238
 30
0.0
 40
3.5
 41
0.0
 71
     1
 72
     1
  1

  7
SLDTEXTSTYLE0
 73
     1
 44
1.0
  0
MTEXT
  5
2DB
330
2CC
100
AcDbEntity
  8
SK2
100
AcDbMText
 10
96.279063525
 20
-59.3164295501
 30
0.0
 40
3.5
 41
0.0
 71
     1
 72
     1
  1
3,25
  7
SLDTEXTSTYLE0
 73
     1
 44
1.0
  0
MTEXT
  5
2DC
330
2CC
100
AcDbEntity
  8
SK2
100
AcDbMText
 10
94.9860078118
 20
-64.5530611004
 30
0.0
 40
3.5
 41
0.0
 71
     1
 72
     1
  1
82,55
  7
SLDTEXTSTYLE0
 73
     1
 44
1.0
  0
MTEXT
  5
2DD
330
2CC
100
AcDbEntity
  8
SK2
100
AcDbMText
 10
108.7757652172
 20
-64.4995889238
 30
0.0
 40
3.5
 41
0.0
 71
     1
 72
     1
  1

  7
SLDTEXTSTYLE0
 73
     1
 44
1.0
  0
ENDBLK
  5
2CE
330
2CC
100
AcDbEntity
  8
0
100
AcDbBlockEnd
  0
BLOCK
  5
2E1
330
2E0
100
AcDbEntity
  8
0
100
AcDbBlockBegin
  2
_D_7
 70
     0
 10
0.0
 20
0.0
 30
0.0
  3
_D_7
  1

  0
SOLID
  5
2E3
330
2E0
100
AcDbEntity
  8
SK2
100
AcDbTrace
 10
132.212
 20
-60.4083998101
 30
0.0
 11
128.91
 21
-59.9003998101
 31
0.0
 12
128.91
 22
-60.9163998101
 32
0.0
 13
128.91
 23
-60.9163998101
 33
0.0
  0
SOLID
  5
2E4
330
2E0
100
AcDbEntity
  8
SK2
100
AcDbTrace
 10
142.88
 20
-60.4083998101
 30
0.0
 11
146.182
 21
-60.9163998101
 31
0.0
 12
146.182
 22
-59.9003998101
 32
0.0
 13
146.182
 23
-59.9003998101
 33
0.0
  0
LINE
  5
2E5
330
2E0
100
AcDbEntity
  8
SK2
100
AcDbLine
 10
132.212
 20
-48.625
 30
0.0
 11
132.212
 21
-61.4083998101
 31
0.0
  0
LINE
  5
2E6
330
2E0
100
AcDbEntity
  8
SK2
100
AcDbLine
 10
142.88
 20
-37.957
 30
0.0
 11
142.88
 21
-61.4083998101
 31
0.0
  0
LINE
  5
2E7
330
2E0
100
AcDbEntity
  8
SK2
100
AcDbLine
 10
132.212
 20
-60.4083998101
 30
0.0
 11
120.0780200253
 21
-60.4083998101
 31
0.0
  0
LINE
  5
2E8
330
2E0
100
AcDbEntity
  8
SK2
100
AcDbLine
 10
132.212
 20
-60.4083998101
 30
0.0
 11
142.88
 21
-60.4083998101
 31
0.0
  0
LINE
  5
2E9
330
2E0
100
AcDbEntity
  8
SK2
100
AcDbLine
 10
142.88
 20
-60.4083998101
 30
0.0
 11
149.23
 21
-60.4083998101
 31
0.0
  0
MTEXT
  5
2EA
330
2E0
100
AcDbEntity
  8
SK2
100
AcDbMText
 10
120.0780200253
 20
-55.8966628955
 30
0.0
 40
3.5
 41
0.0
 71
     1
 72
     1
  1
10,67
  7
SLDTEXTSTYLE0
 73
     1
 44
1.0
  0
ENDBLK
  5
2E2
330
2E0
100
AcDbEntity
  8
0
100
AcDbBlockEnd
  0
BLOCK
  5
2ED
330
2EC
100
AcDbEntity
  8
0
100
AcDbBlockBegin
  2
_D_8
 70
     0
 10
0.0
 20
0.0
 30
0.0
  3
_D_8
  1

  0
SOLID
  5
2EF
330
2EC
100
AcDbEntity
  8
SK2
100
AcDbTrace
 10
157.959729364
 20
25.4
 30
0.0
 11
157.451729364
 21
22.098
 31
0.0
 12
158.467729364
 22
22.098
 32
0.0
 13
158.467729364
 23
22.098
 33
0.0
  0
SOLID
  5
2F0
330
2EC
100
AcDbEntity
  8
SK2
100
AcDbTrace
 10
157.959729364
 20
-25.4
 30
0.0
 11
158.467729364
 21
-22.098
 31
0.0
 12
157.451729364
 22
-22.098
 32
0.0
 13
157.451729364
 23
-22.098
 33
0.0
  0
LINE
  5
2F1
330
2EC
100
AcDbEntity
  8
SK2
100
AcDbLine
 10
147.1668476479
 20
-3.5180780335
 30
0.0
 11
147.1668476479
 21
-4.5844842909
 31
0.0
  0
LINE
  5
2F2
330
2EC
100
AcDbEntity
  8
SK2
100
AcDbLine
 10
147.1668476479
 20
-4.5844842909
 30
0.0
 11
152.723097639
 21
-4.5844842909
 31
0.0
  0
LINE
  5
2F3
330
2EC
100
AcDbEntity
  8
SK2
100
AcDbLine
 10
152.723097639
 20
-4.5844842909
 30
0.0
 11
152.723097639
 21
-3.5180780335
 31
0.0
  0
LINE
  5
2F4
330
2EC
100
AcDbEntity
  8
SK2
100
AcDbLine
 10
147.1668476479
 20
5.5333110274
 30
0.0
 11
147.1668476479
 21
6.5997172849
 31
0.0
  0
LINE
  5
2F5
330
2EC
100
AcDbEntity
  8
SK2
100
AcDbLine
 10
147.1668476479
 20
6.5997172849
 30
0.0
 11
152.723097639
 21
6.5997172849
 31
0.0
  0
LINE
  5
2F6
330
2EC
100
AcDbEntity
  8
SK2
100
AcDbLine
 10
152.723097639
 20
6.5997172849
 30
0.0
 11
152.723097639
 21
5.5333110274
 31
0.0
  0
LINE
  5
2F7
330
2EC
100
AcDbEntity
  8
SK2
100
AcDbLine
 10
142.38
 20
25.4
 30
0.0
 11
158.959729364
 21
25.4
 31
0.0
  0
LINE
  5
2F8
330
2EC
100
AcDbEntity
  8
SK2
100
AcDbLine
 10
142.38
 20
-25.4
 30
0.0
 11
158.959729364
 21
-25.4
 31
0.0
  0
LINE
  5
2F9
330
2EC
100
AcDbEntity
  8
SK2
100
AcDbLine
 10
157.959729364
 20
25.4
 30
0.0
 11
157.959729364
 21
-25.4
 31
0.0
  0
MTEXT
  5
2FA
330
2EC
100
AcDbEntity
  8
SK2
100
AcDbMText
 10
148.2113607244
 20
-3.5180780335
 30
0.0
 40
3.5
 41
0.0
 71
     1
 72
     1
  1
2,00
  7
SLDTEXTSTYLE0
 11
-7.044195017643634E-15
 21
1.0
 31
0.0
 73
     1
 44
1.0
  0
MTEXT
  5
2FB
330
2EC
100
AcDbEntity
  8
SK2
100
AcDbMText
 10
153.4479922748
 20
-6.1572971983
 30
0.0
 40
3.5
 41
0.0
 71
     1
 72
     1
  1
%%c
  7
SLDTEXTSTYLE0
 11
-7.044195017643634E-15
 21
1.0
 31
0.0
 73
     1
 44
1.0
  0
MTEXT
  5
2FC
330
2EC
100
AcDbEntity
  8
SK2
100
AcDbMText
 10
153.4479922748
 20
-0.8788598
 30
0.0
 40
3.5
 41
0.0
 71
     1
 72
     1
  1
50,8
  7
SLDTEXTSTYLE0
 11
-7.044195017643634E-15
 21
1.0
 31
0.0
 73
     1
 44
1.0
  0
ENDBLK
  5
2EE
330
2EC
100
AcDbEntity
  8
0
100
AcDbBlockEnd
  0
BLOCK
  5
2FF
330
2FE
100
AcDbEntity
  8
0
100
AcDbBlockBegin
  2
_D_9
 70
     0
 10
0.0
 20
0.0
 30
0.0
  3
_D_9
  1

  0
SOLID
  5
301
330
2FE
100
AcDbEntity
  8
SK2
100
AcDbTrace
 10
174.6218652582
 20
36.957
 30
0.0
 11
174.1138652582
 21
33.655
 31
0.0
 12
175.1298652582
 22
33.655
 32
0.0
 13
175.1298652582
 23
33.655
 33
0.0
  0
SOLID
  5
302
330
2FE
100
AcDbEntity
  8
SK2
100
AcDbTrace
 10
174.6218652582
 20
-36.957
 30
0.0
 11
175.1298652582
 21
-33.655
 31
0.0
 12
174.1138652582
 22
-33.655
 32
0.0
 13
174.1138652582
 23
-33.655
 33
0.0
  0
LINE
  5
303
330
2FE
100
AcDbEntity
  8
SK2
100
AcDbLine
 10
163.8289835422
 20
-3.5180780335
 30
0.0
 11
163.8289835422
 21
-4.5844842909
 31
0.0
  0
LINE
  5
304
330
2FE
100
AcDbEntity
  8
SK2
100
AcDbLine
 10
163.8289835422
 20
-4.5844842909
 30
0.0
 11
169.3852335332
 21
-4.5844842909
 31
0.0
  0
LINE
  5
305
330
2FE
100
AcDbEntity
  8
SK2
100
AcDbLine
 10
169.3852335332
 20
-4.5844842909
 30
0.0
 11
169.3852335332
 21
-3.5180780335
 31
0.0
  0
LINE
  5
306
330
2FE
100
AcDbEntity
  8
SK2
100
AcDbLine
 10
163.8289835422
 20
5.5333110274
 30
0.0
 11
163.8289835422
 21
6.5997172849
 31
0.0
  0
LINE
  5
307
330
2FE
100
AcDbEntity
  8
SK2
100
AcDbLine
 10
163.8289835422
 20
6.5997172849
 30
0.0
 11
169.3852335332
 21
6.5997172849
 31
0.0
  0
LINE
  5
308
330
2FE
100
AcDbEntity
  8
SK2
100
AcDbLine
 10
169.3852335332
 20
6.5997172849
 30
0.0
 11
169.3852335332
 21
5.5333110274
 31
0.0
  0
LINE
  5
309
330
2FE
100
AcDbEntity
  8
SK2
100
AcDbLine
 10
143.88
 20
36.957
 30
0.0
 11
175.6218652582
 21
36.957
 31
0.0
  0
LINE
  5
30A
330
2FE
100
AcDbEntity
  8
SK2
100
AcDbLine
 10
143.88
 20
-36.957
 30
0.0
 11
175.6218652582
 21
-36.957
 31
0.0
  0
LINE
  5
30B
330
2FE
100
AcDbEntity
  8
SK2
100
AcDbLine
 10
174.6218652582
 20
36.957
 30
0.0
 11
174.6218652582
 21
-36.957
 31
0.0
  0
MTEXT
  5
30C
330
2FE
100
AcDbEntity
  8
SK2
100
AcDbMText
 10
164.8734966187
 20
-3.5180780335
 30
0.0
 40
3.5
 41
0.0
 71
     1
 72
     1
  1
2,91
  7
SLDTEXTSTYLE0
 11
-7.044195017643634E-15
 21
1.0
 31
0.0
 73
     1
 44
1.0
  0
MTEXT
  5
30D
330
2FE
100
AcDbEntity
  8
SK2
100
AcDbMText
 10
170.110128169
 20
-7.4503524459
 30
0.0
 40
3.5
 41
0.0
 71
     1
 72
     1
  1
%%c
  7
SLDTEXTSTYLE0
 11
-7.044195017643634E-15
 21
1.0
 31
0.0
 73
     1
 44
1.0
  0
MTEXT
  5
30E
330
2FE
100
AcDbEntity
  8
SK2
100
AcDbMText
 10
170.110128169
 20
-2.1719150475
 30
0.0
 40
3.5
 41
0.0
 71
     1
 72
     1
  1
73,91
  7
SLDTEXTSTYLE0
 11
-7.044195017643634E-15
 21
1.0
 31
0.0
 73
     1
 44
1.0
  0
ENDBLK
  5
300
330
2FE
100
AcDbEntity
  8
0
100
AcDbBlockEnd
  0
BLOCK
  5
311
330
310
100
AcDbEntity
  8
0
100
AcDbBlockBegin
  2
_D_10
 70
     0
 10
0.0
 20
0.0
 30
0.0
  3
_D_10
  1

  0
SOLID
  5
313
330
310
100
AcDbEntity
  8
SK2
100
AcDbTrace
 10
191.5032397826
 20
47.625
 30
0.0
 11
190.9952397826
 21
44.323
 31
0.0
 12
192.0112397826
 22
44.323
 32
0.0
 13
192.0112397826
 23
44.323
 33
0.0
  0
SOLID
  5
314
330
310
100
AcDbEntity
  8
SK2
100
AcDbTrace
 10
191.5032397826
 20
-47.625
 30
0.0
 11
192.0112397826
 21
-44.323
 31
0.0
 12
190.9952397826
 22
-44.323
 32
0.0
 13
190.9952397826
 23
-44.323
 33
0.0
  0
LINE
  5
315
330
310
100
AcDbEntity
  8
SK2
100
AcDbLine
 10
180.7103580666
 20
-3.5180780335
 30
0.0
 11
180.7103580666
 21
-4.5844842909
 31
0.0
  0
LINE
  5
316
330
310
100
AcDbEntity
  8
SK2
100
AcDbLine
 10
180.7103580666
 20
-4.5844842909
 30
0.0
 11
186.2666080577
 21
-4.5844842909
 31
0.0
  0
LINE
  5
317
330
310
100
AcDbEntity
  8
SK2
100
AcDbLine
 10
186.2666080577
 20
-4.5844842909
 30
0.0
 11
186.2666080577
 21
-3.5180780335
 31
0.0
  0
LINE
  5
318
330
310
100
AcDbEntity
  8
SK2
100
AcDbLine
 10
180.7103580666
 20
5.5333110274
 30
0.0
 11
180.7103580666
 21
6.5997172849
 31
0.0
  0
LINE
  5
319
330
310
100
AcDbEntity
  8
SK2
100
AcDbLine
 10
180.7103580666
 20
6.5997172849
 30
0.0
 11
186.2666080577
 21
6.5997172849
 31
0.0
  0
LINE
  5
31A
330
310
100
AcDbEntity
  8
SK2
100
AcDbLine
 10
186.2666080577
 20
6.5997172849
 30
0.0
 11
186.2666080577
 21
5.5333110274
 31
0.0
  0
LINE
  5
31B
330
310
100
AcDbEntity
  8
SK2
100
AcDbLine
 10
133.212
 20
47.625
 30
0.0
 11
192.5032397826
 21
47.625
 31
0.0
  0
LINE
  5
31C
330
310
100
AcDbEntity
  8
SK2
100
AcDbLine
 10
133.212
 20
-47.625
 30
0.0
 11
192.5032397826
 21
-47.625
 31
0.0
  0
LINE
  5
31D
330
310
100
AcDbEntity
  8
SK2
100
AcDbLine
 10
191.5032397826
 20
47.625
 30
0.0
 11
191.5032397826
 21
-47.625
 31
0.0
  0
MTEXT
  5
31E
330
310
100
AcDbEntity
  8
SK2
100
AcDbMText
 10
181.7548711431
 20
-3.5180780335
 30
0.0
 40
3.5
 41
0.0
 71
     1
 72
     1
  1
3,75
  7
SLDTEXTSTYLE0
 11
-7.044195017643634E-15
 21
1.0
 31
0.0
 73
     1
 44
1.0
  0
MTEXT
  5
31F
330
310
100
AcDbEntity
  8
SK2
100
AcDbMText
 10
186.9915026934
 20
-7.4503524459
 30
0.0
 40
3.5
 41
0.0
 71
     1
 72
     1
  1
%%c
  7
SLDTEXTSTYLE0
 11
-7.044195017643634E-15
 21
1.0
 31
0.0
 73
     1
 44
1.0
  0
MTEXT
  5
320
330
310
100
AcDbEntity
  8
SK2
100
AcDbMText
 10
186.9915026934
 20
-2.1719150475
 30
0.0
 40
3.5
 41
0.0
 71
     1
 72
     1
  1
95,25
  7
SLDTEXTSTYLE0
 11
-7.044195017643634E-15
 21
1.0
 31
0.0
 73
     1
 44
1.0
  0
ENDBLK
  5
312
330
310
100
AcDbEntity
  8
0
100
AcDbBlockEnd
  0
BLOCK
  5
324
330
323
100
AcDbEntity
  8
0
100
AcDbBlockBegin
  2
_D_11
 70
     0
 10
0.0
 20
0.0
 30
0.0
  3
_D_11
  1

  0
SOLID
  5
326
330
323
100
AcDbEntity
  8
SK2
100
AcDbTrace
 10
-118.8781787042
 20
47.2968145978
 30
0.0
 11
-119.3861787042
 21
43.9948145978
 31
0.0
 12
-118.3701787042
 22
43.9948145978
 32
0.0
 13
-118.3701787042
 23
43.9948145978
 33
0.0
  0
SOLID
  5
327
330
323
100
AcDbEntity
  8
SK2
100
AcDbTrace
 10
-118.8781787042
 20
-47.4754841997
 30
0.0
 11
-118.3701787042
 21
-44.1734841997
 31
0.0
 12
-119.3861787042
 22
-44.1734841997
 32
0.0
 13
-119.3861787042
 23
-44.1734841997
 33
0.0
  0
LINE
  5
328
330
323
100
AcDbEntity
  8
SK2
100
AcDbLine
 10
2.95
 20
47.2968145978
 30
0.0
 11
-119.8781787042
 21
47.2968145978
 31
0.0
  0
LINE
  5
329
330
323
100
AcDbEntity
  8
SK2
100
AcDbLine
 10
2.95
 20
-47.4754841997
 30
0.0
 11
-119.8781787042
 21
-47.4754841997
 31
0.0
  0
LINE
  5
32A
330
323
100
AcDbEntity
  8
SK2
100
AcDbLine
 10
-118.8781787042
 20
47.2968145978
 30
0.0
 11
-118.8781787042
 21
-47.4754841997
 31
0.0
  0
MTEXT
  5
32B
330
323
100
AcDbEntity
  8
SK2
100
AcDbMText
 10
-123.3899157934
 20
-7.1042924698
 30
0.0
 40
3.5
 41
0.0
 71
     1
 72
     1
  1
%%c
  7
SLDTEXTSTYLE0
 11
-3.491481338843133E-15
 21
1.0
 31
0.0
 73
     1
 44
1.0
  0
MTEXT
  5
32C
330
323
100
AcDbEntity
  8
SK2
100
AcDbMText
 10
-123.4433879701
 20
-1.8258550714
 30
0.0
 40
3.5
 41
0.0
 71
     1
 72
     1
  1
98,42
  7
SLDTEXTSTYLE0
 11
-3.491481338843133E-15
 21
1.0
 31
0.0
 73
     1
 44
1.0
  0
ENDBLK
  5
325
330
323
100
AcDbEntity
  8
0
100
AcDbBlockEnd
  0
BLOCK
  5
32F
330
32E
100
AcDbEntity
  8
0
100
AcDbBlockBegin
  2
_D_12
 70
     0
 10
0.0
 20
0.0
 30
0.0
  3
_D_12
  1

  0
SOLID
  5
331
330
32E
100
AcDbEntity
  8
SK2
100
AcDbTrace
 10
-108.0030050519
 20
12.6999998465
 30
0.0
 11
-108.5110050519
 21
9.3979998465
 31
0.0
 12
-107.4950050519
 22
9.3979998465
 32
0.0
 13
-107.4950050519
 23
9.3979998465
 33
0.0
  0
SOLID
  5
332
330
32E
100
AcDbEntity
  8
SK2
100
AcDbTrace
 10
-108.0030050519
 20
-12.6999998465
 30
0.0
 11
-107.4950050519
 21
-9.3979998465
 31
0.0
 12
-108.5110050519
 22
-9.3979998465
 32
0.0
 13
-108.5110050519
 23
-9.3979998465
 33
0.0
  0
LINE
  5
333
330
32E
100
AcDbEntity
  8
SK2
100
AcDbLine
 10
-95.967097044
 20
12.6999998465
 30
0.0
 11
-109.0030050519
 21
12.6999998465
 31
0.0
  0
LINE
  5
334
330
32E
100
AcDbEntity
  8
SK2
100
AcDbLine
 10
-95.967097044
 20
-12.6999998465
 30
0.0
 11
-109.0030050519
 21
-12.6999998465
 31
0.0
  0
LINE
  5
335
330
32E
100
AcDbEntity
  8
SK2
100
AcDbLine
 10
-108.0030050519
 20
12.6999998465
 30
0.0
 11
-108.0030050519
 21
-12.6999998465
 31
0.0
  0
MTEXT
  5
337
330
32E
100
AcDbEntity
  8
SK2
100
AcDbMText
 10
-112.5147419665
 20
-9.0977130037
 30
0.0
 40
3.5
 41
0.0
 71
     1
 72
     1
  1
1 - 8 UNC
  7
SLDTEXTSTYLE1
 11
-7.044195017643634E-15
 21
1.0
 31
0.0
 73
     1
 44
1.0
  0
ENDBLK
  5
330
330
32E
100
AcDbEntity
  8
0
100
AcDbBlockEnd
  0
ENDSEC
  0
SECTION
  2
ENTITIES
  0
LINE
  5
82
330
1F
100
AcDbEntity
  8
1
  6
SLD-Solid
370
    25
100
AcDbLine
 10
55.818
 20
47.625
 30
0.0
 11
36.624
 21
47.625
 31
0.0
  0
LINE
  5
83
330
1F
100
AcDbEntity
  8
1
  6
SLD-Solid
370
    25
100
AcDbLine
 10
93.918
 20
47.625
 30
0.0
 11
82.2986121403
 21
47.625
 31
0.0
  0
LINE
  5
84
330
1F
100
AcDbEntity
  8
1
  6
SLD-Solid
370
    25
100
AcDbLine
 10
132.212
 20
47.625
 30
0.0
 11
120.3986121403
 21
47.625
 31
0.0
  0
LINE
  5
85
330
1F
100
AcDbEntity
  8
1
  6
SLD-Solid
370
    25
100
AcDbLine
 10
129.2490336754
 20
-47.625
 30
0.0
 11
132.212
 21
-47.625
 31
0.0
  0
LINE
  5
86
330
1F
100
AcDbEntity
  8
1
  6
SLD-Solid
370
    25
100
AcDbLine
 10
97.4990336754
 20
-47.625
 30
0.0
 11
105.698246698
 21
-47.625
 31
0.0
  0
LINE
  5
87
330
1F
100
AcDbEntity
  8
1
  6
SLD-Solid
370
    25
100
AcDbLine
 10
65.7490336754
 20
-47.625
 30
0.0
 11
73.948246698
 21
-47.625
 31
0.0
  0
LINE
  5
88
330
1F
100
AcDbEntity
  8
1
  6
SLD-Solid
370
    25
100
AcDbLine
 10
36.624
 20
-47.625
 30
0.0
 11
42.198246698
 21
-47.625
 31
0.0
  0
LINE
  5
89
330
1F
100
AcDbEntity
  8
1
  6
SLD-Solid
370
    25
100
AcDbLine
 10
132.212
 20
-47.625
 30
0.0
 11
142.88
 21
-36.957
 31
0.0
  0
LINE
  5
8A
330
1F
100
AcDbEntity
  8
1
  6
SLD-Solid
370
    25
100
AcDbLine
 10
142.88
 20
36.957
 30
0.0
 11
132.212
 21
47.625
 31
0.0
  0
LINE
  5
8B
330
1F
100
AcDbEntity
  8
SK1
  6
SLD-Solid
370
    25
100
AcDbLine
 10
0.0
 20
34.925
 30
0.0
 11
-99.8030472773
 21
20.3702515116
 31
0.0
  0
LINE
  5
8C
330
1F
100
AcDbEntity
  8
SK1
  6
SLD-Solid
370
    25
100
AcDbLine
 10
-99.8030472773
 20
-20.3702515116
 30
0.0
 11
0.0
 21
-34.925
 31
0.0
  0
LINE
  5
8D
330
1F
100
AcDbEntity
  8
1
  6
SLD-Solid
370
    25
100
AcDbLine
 10
1.7476022729
 20
-34.925
 30
0.0
 11
2.1330363037
 21
-34.7452691597
 31
0.0
  0
LINE
  5
8E
330
1F
100
AcDbEntity
  8
1
  6
SLD-Solid
370
    25
100
AcDbLine
 10
2.1330363037
 20
34.7452691597
 30
0.0
 11
1.7476022729
 21
34.925
 31
0.0
  0
LINE
  5
8F
330
1F
100
AcDbEntity
  8
1
  6
SLD-Solid
370
    25
100
AcDbLine
 10
34.338
 20
34.925
 30
0.0
 11
19.812
 21
34.925
 31
0.0
  0
LINE
  5
90
330
1F
100
AcDbEntity
  8
1
  6
SLD-Solid
370
    25
100
AcDbLine
 10
19.812
 20
-34.925
 30
0.0
 11
34.338
 21
-34.925
 31
0.0
  0
LINE
  5
91
330
1F
100
AcDbEntity
  8
1
  6
SLD-Solid
370
    25
100
AcDbLine
 10
1.7476022729
 20
34.925
 30
0.0
 11
0.0
 21
34.925
 31
0.0
  0
LINE
  5
92
330
1F
100
AcDbEntity
  8
1
  6
SLD-Solid
370
    25
100
AcDbLine
 10
0.0
 20
-34.925
 30
0.0
 11
1.7476022729
 21
-34.925
 31
0.0
  0
LINE
  5
93
330
1F
100
AcDbEntity
  8
1
  6
SLD-Solid
370
    25
100
AcDbLine
 10
18.3
 20
-47.4754841997
 30
0.0
 11
18.3
 21
47.2968145978
 31
0.0
  0
LINE
  5
94
330
1F
100
AcDbEntity
  8
1
  6
SLD-Solid
370
    25
100
AcDbLine
 10
19.05
 20
46.5560855313
 30
0.0
 11
19.05
 21
-46.6976348437
 31
0.0
  0
LINE
  5
95
330
1F
100
AcDbEntity
  8
1
  6
SLD-Solid
370
    25
100
AcDbLine
 10
14.6397233934
 20
-47.4754841997
 30
0.0
 11
18.3
 21
-47.4754841997
 31
0.0
  0
LINE
  5
96
330
1F
100
AcDbEntity
  8
1
  6
SLD-Solid
370
    25
100
AcDbLine
 10
14.6397233934
 20
47.2968145978
 30
0.0
 11
14.6397233934
 21
-47.4754841997
 31
0.0
  0
LINE
  5
97
330
1F
100
AcDbEntity
  8
1
  6
SLD-Solid
370
    25
100
AcDbLine
 10
18.3
 20
47.2968145978
 30
0.0
 11
14.6397233934
 21
47.2968145978
 31
0.0
  0
LINE
  5
98
330
1F
100
AcDbEntity
  8
1
  6
SLD-Solid
370
    25
100
AcDbLine
 10
3.95
 20
-47.4754841997
 30
0.0
 11
7.5902766066
 21
-47.4754841997
 31
0.0
  0
LINE
  5
99
330
1F
100
AcDbEntity
  8
1
  6
SLD-Solid
370
    25
100
AcDbLine
 10
3.95
 20
47.2968145978
 30
0.0
 11
3.95
 21
-47.4754841997
 31
0.0
  0
LINE
  5
9A
330
1F
100
AcDbEntity
  8
1
  6
SLD-Solid
370
    25
100
AcDbLine
 10
7.5902766066
 20
47.2968145978
 30
0.0
 11
3.95
 21
47.2968145978
 31
0.0
  0
LINE
  5
9B
330
1F
100
AcDbEntity
  8
1
  6
SLD-Solid
370
    25
100
AcDbLine
 10
7.5902766066
 20
47.2968145978
 30
0.0
 11
7.5902766066
 21
-47.4754841997
 31
0.0
  0
LINE
  5
9C
330
1F
100
AcDbEntity
  8
1
  6
SLD-Solid
370
    25
100
AcDbLine
 10
3.2
 20
-46.6976348437
 30
0.0
 11
3.2
 21
46.5560855313
 31
0.0
  0
LINE
  5
9D
330
1F
100
AcDbEntity
  8
1
  6
SLD-Solid
370
    25
100
AcDbLine
 10
9.2
 20
44.5790106634
 30
0.0
 11
9.2
 21
41.9587011964
 31
0.0
  0
LINE
  5
9E
330
1F
100
AcDbEntity
  8
1
  6
SLD-Solid
370
    25
100
AcDbLine
 10
9.2
 20
41.4830129515
 30
0.0
 11
9.2
 21
35.3885961177
 31
0.0
  0
LINE
  5
9F
330
1F
100
AcDbEntity
  8
1
  6
SLD-Solid
370
    25
100
AcDbLine
 10
9.2
 20
34.676688935
 30
0.0
 11
9.2
 21
-44.5790106634
 31
0.0
  0
LINE
  5
A0
330
1F
100
AcDbEntity
  8
1
  6
SLD-Solid
370
    25
100
AcDbLine
 10
13.03
 20
44.5790106634
 30
0.0
 11
13.03
 21
41.9871173317
 31
0.0
  0
LINE
  5
A1
330
1F
100
AcDbEntity
  8
1
  6
SLD-Solid
370
    25
100
AcDbLine
 10
13.03
 20
34.6324292339
 30
0.0
 11
13.03
 21
-44.5790106634
 31
0.0
  0
LINE
  5
A2
330
1F
100
AcDbEntity
  8
1
  6
SLD-Solid
370
    25
100
AcDbLine
 10
13.03
 20
41.453113616
 30
0.0
 11
13.03
 21
35.4316103884
 31
0.0
  0
LINE
  5
A3
330
1F
100
AcDbEntity
  8
1
  6
SLD-Solid
370
    25
100
AcDbLine
 10
35.1
 20
-46.101
 30
0.0
 11
35.1
 21
46.101
 31
0.0
  0
LINE
  5
A4
330
1F
100
AcDbEntity
  8
1
  6
SLD-Solid
370
    25
100
AcDbLine
 10
132.212
 20
47.625
 30
0.0
 11
132.212
 21
-47.625
 31
0.0
  0
LINE
  5
A5
330
1F
100
AcDbEntity
  8
1
  6
SLD-Solid
370
    25
100
AcDbLine
 10
142.88
 20
36.957
 30
0.0
 11
142.88
 21
-36.957
 31
0.0
  0
LINE
  5
A6
330
1F
100
AcDbEntity
  8
1
  6
SLD-Solid
370
    25
100
AcDbLine
 10
12.28
 20
33.3554707167
 30
0.0
 11
12.28
 21
-43.7694359685
 31
0.0
  0
LINE
  5
A7
330
1F
100
AcDbEntity
  8
1
  6
SLD-Solid
370
    25
100
AcDbLine
 10
9.95
 20
33.3652595305
 30
0.0
 11
9.95
 21
-43.7694359685
 31
0.0
  0
LINE
  5
A8
330
1F
100
AcDbEntity
  8
1
  6
SLD-Solid
370
    25
100
AcDbLine
 10
9.95
 20
-43.7694359685
 30
0.0
 11
12.28
 21
-43.7694359685
 31
0.0
  0
LINE
  5
A9
330
1F
100
AcDbEntity
  8
1
  6
SLD-Solid
370
    25
100
AcDbLine
 10
0.0
 20
34.925
 30
0.0
 11
0.0
 21
-34.925
 31
0.0
  0
LINE
  5
AA
330
1F
100
AcDbEntity
  8
1
  6
SLD-Solid
370
    25
100
AcDbLine
 10
1.7476022729
 20
34.925
 30
0.0
 11
1.7476022729
 21
-34.925
 31
0.0
  0
LINE
  5
AB
330
1F
100
AcDbEntity
  8
1
  6
SLD-Solid
370
    25
100
AcDbLine
 10
9.2
 20
35.3885961177
 30
0.0
 11
9.2
 21
35.3683101781
 31
0.0
  0
LINE
  5
AC
330
1F
100
AcDbEntity
  8
1
  6
SLD-Solid
370
    25
100
AcDbLine
 10
13.03
 20
35.4113240881
 30
0.0
 11
13.03
 21
35.4316103884
 31
0.0
  0
LINE
  5
AD
330
1F
100
AcDbEntity
  8
1
  6
SLD-Solid
370
    25
100
AcDbLine
 10
9.95
 20
40.2901760725
 30
0.0
 11
9.95
 21
35.4888548114
 31
0.0
  0
LINE
  5
AE
330
1F
100
AcDbEntity
  8
1
  6
SLD-Solid
370
    25
100
AcDbLine
 10
12.28
 20
40.2834337913
 30
0.0
 11
12.28
 21
35.4978726362
 31
0.0
  0
LINE
  5
AF
330
1F
100
AcDbEntity
  8
1
  6
SLD-Solid
370
    25
100
AcDbLine
 10
9.2
 20
41.9587011964
 30
0.0
 11
9.2
 21
41.9345423912
 31
0.0
  0
LINE
  5
B0
330
1F
100
AcDbEntity
  8
1
  6
SLD-Solid
370
    25
100
AcDbLine
 10
13.03
 20
41.9629580968
 30
0.0
 11
13.03
 21
41.9871173317
 31
0.0
  0
LINE
  5
B1
330
1F
100
AcDbEntity
  8
SK1
  6
SLD-Solid
370
    25
100
AcDbLine
 10
-101.6
 20
-18.2922326599
 30
0.0
 11
-101.6
 21
18.2922326599
 31
0.0
  0
LINE
  5
B2
330
1F
100
AcDbEntity
  8
1
  6
SLD-Solid
370
    25
100
AcDbLine
 10
9.95
 20
43.7694359685
 30
0.0
 11
9.95
 21
41.7091381742
 31
0.0
  0
LINE
  5
B3
330
1F
100
AcDbEntity
  8
1
  6
SLD-Solid
370
    25
100
AcDbLine
 10
12.28
 20
43.7694359685
 30
0.0
 11
12.28
 21
41.714962274
 31
0.0
  0
LINE
  5
B4
330
1F
100
AcDbEntity
  8
1
  6
SLD-Solid
370
    25
100
AcDbLine
 10
9.95
 20
43.7694359685
 30
0.0
 11
12.28
 21
43.7694359685
 31
0.0
  0
LINE
  5
B5
330
1F
100
AcDbEntity
  8
1
  6
SLD-Solid
370
    25
100
AcDbLine
 10
36.624
 20
47.625
 30
0.0
 11
36.624
 21
-47.625
 31
0.0
  0
LINE
  5
B6
330
1F
100
AcDbEntity
  8
1
  6
SLD-Solid
370
    25
100
AcDbLine
 10
34.338
 20
-34.925
 30
0.0
 11
34.338
 21
34.925
 31
0.0
  0
LINE
  5
B7
330
1F
100
AcDbEntity
  8
1
  6
SLD-Solid
370
    25
100
AcDbLine
 10
19.812
 20
0.0
 30
0.0
 11
19.812
 21
-34.925
 31
0.0
  0
LINE
  5
B8
330
1F
100
AcDbEntity
  8
1
  6
SLD-Solid
370
    25
100
AcDbLine
 10
19.812
 20
34.925
 30
0.0
 11
19.812
 21
0.0
 31
0.0
  0
LINE
  5
B9
330
1F
100
AcDbEntity
  8
1
  6
SLD-Solid
370
    25
100
AcDbLine
 10
2.1330363037
 20
34.7452691597
 30
0.0
 11
2.1330363037
 21
-34.7452691597
 31
0.0
  0
LINE
  5
BA
330
1F
100
AcDbEntity
  8
SK1
  6
SLD-Solid
370
    25
100
AcDbLine
 10
-99.8030472773
 20
0.0
 30
0.0
 11
-99.8030472773
 21
-20.3702515116
 31
0.0
  0
LINE
  5
BB
330
1F
100
AcDbEntity
  8
SK1
  6
SLD-Solid
370
    25
100
AcDbLine
 10
-99.8030472773
 20
20.3702515116
 30
0.0
 11
-99.8030472773
 21
0.0
 31
0.0
  0
LINE
  5
BC
330
1F
100
AcDbEntity
  8
SK3
  6
SLD-Dashed
370
    18
100
AcDbLine
 10
6.4723069743
 20
-13.9015950424
 30
0.0
 11
6.2961834535
 21
-13.2158510775
 31
0.0
  0
LINE
  5
BD
330
1F
100
AcDbEntity
  8
SK3
  6
SLD-Dashed
370
    18
100
AcDbLine
 10
6.2961834535
 20
-13.2158510775
 30
0.0
 11
6.019005106
 21
-12.5809656055
 31
0.0
  0
LINE
  5
BE
330
1F
100
AcDbEntity
  8
SK3
  6
SLD-Dashed
370
    18
100
AcDbLine
 10
6.019005106
 20
-12.5809656055
 30
0.0
 11
5.6613289817
 21
-12.0440251773
 31
0.0
  0
LINE
  5
BF
330
1F
100
AcDbEntity
  8
SK3
  6
SLD-Dashed
370
    18
100
AcDbLine
 10
5.6613289817
 20
-12.0440251773
 30
0.0
 11
5.2496822827
 21
-11.6448522082
 31
0.0
  0
LINE
  5
C0
330
1F
100
AcDbEntity
  8
SK3
  6
SLD-Dashed
370
    18
100
AcDbLine
 10
5.2496822827
 20
-11.6448522082
 30
0.0
 11
4.8145949613
 21
-11.4130515312
 31
0.0
  0
LINE
  5
C1
330
1F
100
AcDbEntity
  8
SK3
  6
SLD-Dashed
370
    18
100
AcDbLine
 10
4.8145949613
 20
-11.4130515312
 30
0.0
 11
4.3883354538
 21
-11.365814742
 31
0.0
  0
LINE
  5
C2
330
1F
100
AcDbEntity
  8
SK3
  6
SLD-Dashed
370
    18
100
AcDbLine
 10
4.3883354538
 20
-11.365814742
 30
0.0
 11
4.0025174779
 21
-11.5066451774
 31
0.0
  0
LINE
  5
C3
330
1F
100
AcDbEntity
  8
SK3
  6
SLD-Dashed
370
    18
100
AcDbLine
 10
4.0025174779
 20
-11.5066451774
 30
0.0
 11
3.6857553878
 21
-11.825098088
 31
0.0
  0
LINE
  5
C4
330
1F
100
AcDbEntity
  8
SK3
  6
SLD-Dashed
370
    18
100
AcDbLine
 10
3.6857553878
 20
-11.825098088
 30
0.0
 11
3.4615419788
 21
-12.2975552785
 31
0.0
  0
LINE
  5
C5
330
1F
100
AcDbEntity
  8
SK3
  6
SLD-Dashed
370
    18
100
AcDbLine
 10
3.4615419788
 20
-12.2975552785
 30
0.0
 11
3.3465061335
 21
-12.8889767602
 31
0.0
  0
LINE
  5
C6
330
1F
100
AcDbEntity
  8
SK3
  6
SLD-Dashed
370
    18
100
AcDbLine
 10
3.3465061335
 20
-12.8889767602
 30
0.0
 11
3.3491795344
 21
-13.5554995075
 31
0.0
  0
LINE
  5
C7
330
1F
100
AcDbEntity
  8
SK3
  6
SLD-Dashed
370
    18
100
AcDbLine
 10
3.3491795344
 20
-13.5554995075
 30
0.0
 11
3.4693639077
 21
-14.2476905773
 31
0.0
  0
LINE
  5
C8
330
1F
100
AcDbEntity
  8
SK3
  6
SLD-Dashed
370
    18
100
AcDbLine
 10
3.4693639077
 20
-14.2476905773
 30
0.0
 11
3.698145728
 21
-14.9142133246
 31
0.0
  0
LINE
  5
C9
330
1F
100
AcDbEntity
  8
SK3
  6
SLD-Dashed
370
    18
100
AcDbLine
 10
3.698145728
 20
-14.9142133246
 30
0.0
 11
4.0185572945
 21
-15.5056348064
 31
0.0
  0
LINE
  5
CA
330
1F
100
AcDbEntity
  8
SK3
  6
SLD-Dashed
370
    18
100
AcDbLine
 10
4.0185572945
 20
-15.5056348064
 30
0.0
 11
4.4068351471
 21
-15.9780919968
 31
0.0
  0
LINE
  5
CB
330
1F
100
AcDbEntity
  8
SK3
  6
SLD-Dashed
370
    18
100
AcDbLine
 10
4.4068351471
 20
-15.9780919968
 30
0.0
 11
4.8341824935
 21
-16.2965449074
 31
0.0
  0
LINE
  5
CC
330
1F
100
AcDbEntity
  8
SK3
  6
SLD-Dashed
370
    18
100
AcDbLine
 10
4.8341824935
 20
-16.2965449074
 30
0.0
 11
5.2689049362
 21
-16.4373753428
 31
0.0
  0
LINE
  5
CD
330
1F
100
AcDbEntity
  8
SK3
  6
SLD-Dashed
370
    18
100
AcDbLine
 10
5.2689049362
 20
-16.4373753428
 30
0.0
 11
5.6787611004
 21
-16.3901385537
 31
0.0
  0
LINE
  5
CE
330
1F
100
AcDbEntity
  8
SK3
  6
SLD-Dashed
370
    18
100
AcDbLine
 10
5.6787611004
 20
-16.3901385537
 30
0.0
 11
6.0333538292
 21
-16.1583378767
 31
0.0
  0
LINE
  5
CF
330
1F
100
AcDbEntity
  8
SK3
  6
SLD-Dashed
370
    18
100
AcDbLine
 10
6.0333538292
 20
-16.1583378767
 30
0.0
 11
6.3063846021
 21
-15.7591649075
 31
0.0
  0
LINE
  5
D0
330
1F
100
AcDbEntity
  8
SK3
  6
SLD-Dashed
370
    18
100
AcDbLine
 10
6.3063846021
 20
-15.7591649075
 30
0.0
 11
6.4776039757
 21
-15.2222244793
 31
0.0
  0
LINE
  5
D1
330
1F
100
AcDbEntity
  8
SK3
  6
SLD-Dashed
370
    18
100
AcDbLine
 10
6.4776039757
 20
-15.2222244793
 30
0.0
 11
6.5343133925
 21
-14.5873390073
 31
0.0
  0
LINE
  5
D2
330
1F
100
AcDbEntity
  8
SK3
  6
SLD-Dashed
370
    18
100
AcDbLine
 10
6.5343133925
 20
-14.5873390073
 30
0.0
 11
6.4723069743
 21
-13.9015950424
 31
0.0
  0
LINE
  5
D3
330
1F
100
AcDbEntity
  8
SK3
  6
SLD-Dashed
370
    18
100
AcDbLine
 10
6.4545594773
 20
-13.8826166832
 30
0.0
 11
6.5129871788
 21
-14.5573855234
 31
0.0
  0
LINE
  5
D4
330
1F
100
AcDbEntity
  8
SK3
  6
SLD-Dashed
370
    18
100
AcDbLine
 10
6.5129871788
 20
-14.5573855234
 30
0.0
 11
6.449218077
 21
-15.1774886052
 31
0.0
  0
LINE
  5
D5
330
1F
100
AcDbEntity
  8
SK3
  6
SLD-Dashed
370
    18
100
AcDbLine
 10
6.449218077
 20
-15.1774886052
 30
0.0
 11
6.2684183652
 21
-15.6926888648
 31
0.0
  0
LINE
  5
D6
330
1F
100
AcDbEntity
  8
SK3
  6
SLD-Dashed
370
    18
100
AcDbLine
 10
6.2684183652
 20
-15.6926888648
 30
0.0
 11
5.9852353609
 21
-16.0612478411
 31
0.0
  0
LINE
  5
D7
330
1F
100
AcDbEntity
  8
SK3
  6
SLD-Dashed
370
    18
100
AcDbLine
 10
5.9852353609
 20
-16.0612478411
 30
0.0
 11
5.6226108669
 21
-16.2533070779
 31
0.0
  0
LINE
  5
D8
330
1F
100
AcDbEntity
  8
SK3
  6
SLD-Dashed
370
    18
100
AcDbLine
 10
5.6226108669
 20
-16.2533070779
 30
0.0
 11
5.2099225631
 21
-16.2533070779
 31
0.0
  0
LINE
  5
D9
330
1F
100
AcDbEntity
  8
SK3
  6
SLD-Dashed
370
    18
100
AcDbLine
 10
5.2099225631
 20
-16.2533070779
 30
0.0
 11
4.7806040016
 21
-16.0612478411
 31
0.0
  0
LINE
  5
DA
330
1F
100
AcDbEntity
  8
SK3
  6
SLD-Dashed
370
    18
100
AcDbLine
 10
4.7806040016
 20
-16.0612478411
 30
0.0
 11
4.3694360188
 21
-15.6926888648
 31
0.0
  0
LINE
  5
DB
330
1F
100
AcDbEntity
  8
SK3
  6
SLD-Dashed
370
    18
100
AcDbLine
 10
4.3694360188
 20
-15.6926888648
 30
0.0
 11
4.0097289996
 21
-15.1774886052
 31
0.0
  0
LINE
  5
DC
330
1F
100
AcDbEntity
  8
SK3
  6
SLD-Dashed
370
    18
100
AcDbLine
 10
4.0097289996
 20
-15.1774886052
 30
0.0
 11
3.7306242672
 21
-14.5573855234
 31
0.0
  0
LINE
  5
DD
330
1F
100
AcDbEntity
  8
SK3
  6
SLD-Dashed
370
    18
100
AcDbLine
 10
3.7306242672
 20
-14.5573855234
 30
0.0
 11
3.5547332273
 21
-13.8826166832
 31
0.0
  0
LINE
  5
DE
330
1F
100
AcDbEntity
  8
SK3
  6
SLD-Dashed
370
    18
100
AcDbLine
 10
3.5547332273
 20
-13.8826166832
 30
0.0
 11
3.4963055258
 21
-13.2078478429
 31
0.0
  0
LINE
  5
DF
330
1F
100
AcDbEntity
  8
SK3
  6
SLD-Dashed
370
    18
100
AcDbLine
 10
3.4963055258
 20
-13.2078478429
 30
0.0
 11
3.5600746277
 21
-12.5877447611
 31
0.0
  0
LINE
  5
E0
330
1F
100
AcDbEntity
  8
SK3
  6
SLD-Dashed
370
    18
100
AcDbLine
 10
3.5600746277
 20
-12.5877447611
 30
0.0
 11
3.7408743394
 21
-12.0725445015
 31
0.0
  0
LINE
  5
E1
330
1F
100
AcDbEntity
  8
SK3
  6
SLD-Dashed
370
    18
100
AcDbLine
 10
3.7408743394
 20
-12.0725445015
 30
0.0
 11
4.0240573437
 21
-11.7039855252
 31
0.0
  0
LINE
  5
E2
330
1F
100
AcDbEntity
  8
SK3
  6
SLD-Dashed
370
    18
100
AcDbLine
 10
4.0240573437
 20
-11.7039855252
 30
0.0
 11
4.3866818377
 21
-11.5119262885
 31
0.0
  0
LINE
  5
E3
330
1F
100
AcDbEntity
  8
SK3
  6
SLD-Dashed
370
    18
100
AcDbLine
 10
4.3866818377
 20
-11.5119262885
 30
0.0
 11
4.7993701415
 21
-11.5119262885
 31
0.0
  0
LINE
  5
E4
330
1F
100
AcDbEntity
  8
SK3
  6
SLD-Dashed
370
    18
100
AcDbLine
 10
4.7993701415
 20
-11.5119262885
 30
0.0
 11
5.2286887031
 21
-11.7039855252
 31
0.0
  0
LINE
  5
E5
330
1F
100
AcDbEntity
  8
SK3
  6
SLD-Dashed
370
    18
100
AcDbLine
 10
5.2286887031
 20
-11.7039855252
 30
0.0
 11
5.6398566858
 21
-12.0725445015
 31
0.0
  0
LINE
  5
E6
330
1F
100
AcDbEntity
  8
SK3
  6
SLD-Dashed
370
    18
100
AcDbLine
 10
5.6398566858
 20
-12.0725445015
 30
0.0
 11
5.9995637051
 21
-12.5877447611
 31
0.0
  0
LINE
  5
E7
330
1F
100
AcDbEntity
  8
SK3
  6
SLD-Dashed
370
    18
100
AcDbLine
 10
5.9995637051
 20
-12.5877447611
 30
0.0
 11
6.2786684374
 21
-13.2078478429
 31
0.0
  0
LINE
  5
E8
330
1F
100
AcDbEntity
  8
SK3
  6
SLD-Dashed
370
    18
100
AcDbLine
 10
6.2786684374
 20
-13.2078478429
 30
0.0
 11
6.4545594773
 21
-13.8826166832
 31
0.0
  0
LINE
  5
E9
330
1F
100
AcDbEntity
  8
SK3
  6
SLD-Dashed
370
    18
100
AcDbLine
 10
17.1792841073
 20
-11.0168048658
 30
0.0
 11
17.0033930674
 21
-10.3420360255
 31
0.0
  0
LINE
  5
EA
330
1F
100
AcDbEntity
  8
SK3
  6
SLD-Dashed
370
    18
100
AcDbLine
 10
17.0033930674
 20
-10.3420360255
 30
0.0
 11
16.7242883351
 21
-9.7219329437
 31
0.0
  0
LINE
  5
EB
330
1F
100
AcDbEntity
  8
SK3
  6
SLD-Dashed
370
    18
100
AcDbLine
 10
16.7242883351
 20
-9.7219329437
 30
0.0
 11
16.3645813158
 21
-9.2067326842
 31
0.0
  0
LINE
  5
EC
330
1F
100
AcDbEntity
  8
SK3
  6
SLD-Dashed
370
    18
100
AcDbLine
 10
16.3645813158
 20
-9.2067326842
 30
0.0
 11
15.9534133331
 21
-8.8381737078
 31
0.0
  0
LINE
  5
ED
330
1F
100
AcDbEntity
  8
SK3
  6
SLD-Dashed
370
    18
100
AcDbLine
 10
15.9534133331
 20
-8.8381737078
 30
0.0
 11
15.5240947716
 21
-8.6461144711
 31
0.0
  0
LINE
  5
EE
330
1F
100
AcDbEntity
  8
SK3
  6
SLD-Dashed
370
    18
100
AcDbLine
 10
15.5240947716
 20
-8.6461144711
 30
0.0
 11
15.1114064678
 21
-8.6461144711
 31
0.0
  0
LINE
  5
EF
330
1F
100
AcDbEntity
  8
SK3
  6
SLD-Dashed
370
    18
100
AcDbLine
 10
15.1114064678
 20
-8.6461144711
 30
0.0
 11
14.7487819738
 21
-8.8381737078
 31
0.0
  0
LINE
  5
F0
330
1F
100
AcDbEntity
  8
SK3
  6
SLD-Dashed
370
    18
100
AcDbLine
 10
14.7487819738
 20
-8.8381737078
 30
0.0
 11
14.4655989695
 21
-9.2067326842
 31
0.0
  0
LINE
  5
F1
330
1F
100
AcDbEntity
  8
SK3
  6
SLD-Dashed
370
    18
100
AcDbLine
 10
14.4655989695
 20
-9.2067326842
 30
0.0
 11
14.2847992577
 21
-9.7219329437
 31
0.0
  0
LINE
  5
F2
330
1F
100
AcDbEntity
  8
SK3
  6
SLD-Dashed
370
    18
100
AcDbLine
 10
14.2847992577
 20
-9.7219329437
 30
0.0
 11
14.2210301559
 21
-10.3420360255
 31
0.0
  0
LINE
  5
F3
330
1F
100
AcDbEntity
  8
SK3
  6
SLD-Dashed
370
    18
100
AcDbLine
 10
14.2210301559
 20
-10.3420360255
 30
0.0
 11
14.2794578574
 21
-11.0168048658
 31
0.0
  0
LINE
  5
F4
330
1F
100
AcDbEntity
  8
SK3
  6
SLD-Dashed
370
    18
100
AcDbLine
 10
14.2794578574
 20
-11.0168048658
 30
0.0
 11
14.4553488973
 21
-11.691573706
 31
0.0
  0
LINE
  5
F5
330
1F
100
AcDbEntity
  8
SK3
  6
SLD-Dashed
370
    18
100
AcDbLine
 10
14.4553488973
 20
-11.691573706
 30
0.0
 11
14.7344536296
 21
-12.3116767878
 31
0.0
  0
LINE
  5
F6
330
1F
100
AcDbEntity
  8
SK3
  6
SLD-Dashed
370
    18
100
AcDbLine
 10
14.7344536296
 20
-12.3116767878
 30
0.0
 11
15.0941606488
 21
-12.8268770474
 31
0.0
  0
LINE
  5
F7
330
1F
100
AcDbEntity
  8
SK3
  6
SLD-Dashed
370
    18
100
AcDbLine
 10
15.0941606488
 20
-12.8268770474
 30
0.0
 11
15.5053286316
 21
-13.1954360238
 31
0.0
  0
LINE
  5
F8
330
1F
100
AcDbEntity
  8
SK3
  6
SLD-Dashed
370
    18
100
AcDbLine
 10
15.5053286316
 20
-13.1954360238
 30
0.0
 11
15.9346471931
 21
-13.3874952605
 31
0.0
  0
LINE
  5
F9
330
1F
100
AcDbEntity
  8
SK3
  6
SLD-Dashed
370
    18
100
AcDbLine
 10
15.9346471931
 20
-13.3874952605
 30
0.0
 11
16.3473354969
 21
-13.3874952605
 31
0.0
  0
LINE
  5
FA
330
1F
100
AcDbEntity
  8
SK3
  6
SLD-Dashed
370
    18
100
AcDbLine
 10
16.3473354969
 20
-13.3874952605
 30
0.0
 11
16.7099599909
 21
-13.1954360238
 31
0.0
  0
LINE
  5
FB
330
1F
100
AcDbEntity
  8
SK3
  6
SLD-Dashed
370
    18
100
AcDbLine
 10
16.7099599909
 20
-13.1954360238
 30
0.0
 11
16.9931429952
 21
-12.8268770474
 31
0.0
  0
LINE
  5
FC
330
1F
100
AcDbEntity
  8
SK3
  6
SLD-Dashed
370
    18
100
AcDbLine
 10
16.9931429952
 20
-12.8268770474
 30
0.0
 11
17.173942707
 21
-12.3116767878
 31
0.0
  0
LINE
  5
FD
330
1F
100
AcDbEntity
  8
SK3
  6
SLD-Dashed
370
    18
100
AcDbLine
 10
17.173942707
 20
-12.3116767878
 30
0.0
 11
17.2377118088
 21
-11.691573706
 31
0.0
  0
LINE
  5
FE
330
1F
100
AcDbEntity
  8
SK3
  6
SLD-Dashed
370
    18
100
AcDbLine
 10
17.2377118088
 20
-11.691573706
 30
0.0
 11
17.1792841073
 21
-11.0168048658
 31
0.0
  0
LINE
  5
FF
330
1F
100
AcDbEntity
  8
SK3
  6
SLD-Dashed
370
    18
100
AcDbLine
 10
141.38
 20
-25.4
 30
0.0
 11
141.38
 21
25.4
 31
0.0
  0
LINE
  5
100
330
1F
100
AcDbEntity
  8
SK3
  6
SLD-Dashed
370
    18
100
AcDbLine
 10
142.88
 20
-26.2599448709
 30
0.0
 11
142.88
 21
26.2599448709
 31
0.0
  0
LINE
  5
101
330
1F
100
AcDbEntity
  8
SK3
  6
SLD-Dashed
370
    18
100
AcDbLine
 10
50.828
 20
-25.59
 30
0.0
 11
50.828
 21
25.59
 31
0.0
  0
LINE
  5
102
330
1F
100
AcDbEntity
  8
SK3
  6
SLD-Dashed
370
    18
100
AcDbLine
 10
50.678
 20
-25.44
 30
0.0
 11
50.678
 21
25.44
 31
0.0
  0
LINE
  5
103
330
1F
100
AcDbEntity
  8
SK3
  6
SLD-Dashed
370
    18
100
AcDbLine
 10
60.18
 20
24.4220600194
 30
0.0
 11
60.18
 21
-25.5656071557
 31
0.0
  0
LINE
  5
104
330
1F
100
AcDbEntity
  8
SK3
  6
SLD-Dashed
370
    18
100
AcDbLine
 10
60.33
 20
24.2102997832
 30
0.0
 11
60.33
 21
-25.44
 31
0.0
  0
LINE
  5
105
330
1F
100
AcDbEntity
  8
SK3
  6
SLD-Dashed
370
    18
100
AcDbLine
 10
60.33
 20
24.1682646375
 30
0.0
 11
60.33
 21
-25.3759485407
 31
0.0
  0
LINE
  5
106
330
1F
100
AcDbEntity
  8
SK3
  6
SLD-Dashed
370
    18
100
AcDbLine
 10
49.18
 20
-25.4
 30
0.0
 11
49.18
 21
25.4
 31
0.0
  0
LINE
  5
107
330
1F
100
AcDbEntity
  8
SK3
  6
SLD-Dashed
370
    18
100
AcDbLine
 10
50.678
 20
25.4
 30
0.0
 11
50.678
 21
-25.4
 31
0.0
  0
LINE
  5
108
330
1F
100
AcDbEntity
  8
SK3
  6
SLD-Dashed
370
    18
100
AcDbLine
 10
40.5952039056
 20
-11.1125
 30
0.0
 11
40.5952039056
 21
11.1125
 31
0.0
  0
LINE
  5
109
330
1F
100
AcDbEntity
  8
SK3
  6
SLD-Dashed
370
    18
100
AcDbLine
 10
-99.7034043657
 20
-13.19
 30
0.0
 11
-99.7034043657
 21
13.19
 31
0.0
  0
LINE
  5
10A
330
1F
100
AcDbEntity
  8
SK3
  6
SLD-Dashed
370
    18
100
AcDbLine
 10
-101.6
 20
-14.2608320409
 30
0.0
 11
-101.6
 21
14.2608320409
 31
0.0
  0
LINE
  5
10B
330
1F
100
AcDbEntity
  8
SK3
  6
SLD-Dashed
370
    18
100
AcDbLine
 10
120.418
 20
45.525
 30
0.0
 11
93.918
 21
45.525
 31
0.0
  0
LINE
  5
10C
330
1F
100
AcDbEntity
  8
SK3
  6
SLD-Dashed
370
    18
100
AcDbLine
 10
82.318
 20
45.525
 30
0.0
 11
55.818
 21
45.525
 31
0.0
  0
LINE
  5
10D
330
1F
100
AcDbEntity
  8
SK3
  6
SLD-Dashed
370
    18
100
AcDbLine
 10
-95.25
 20
-13.19
 30
0.0
 11
-95.25
 21
13.19
 31
0.0
  0
LINE
  5
10E
330
1F
100
AcDbEntity
  8
SK3
  6
SLD-Dashed
370
    18
100
AcDbLine
 10
-94.0505548158
 20
-11.1125
 30
0.0
 11
-94.0505548158
 21
11.1125
 31
0.0
  0
LINE
  5
10F
330
1F
100
AcDbEntity
  8
SK3
  6
SLD-Dashed
370
    18
100
AcDbLine
 10
3.7
 20
37.875
 30
0.0
 11
3.7
 21
46.5560855313
 31
0.0
  0
LINE
  5
110
330
1F
100
AcDbEntity
  8
SK3
  6
SLD-Dashed
370
    18
100
AcDbLine
 10
18.55
 20
46.5560855313
 30
0.0
 11
18.55
 21
37.875
 31
0.0
  0
LINE
  5
111
330
1F
100
AcDbEntity
  8
SK3
  6
SLD-Dashed
370
    18
100
AcDbLine
 10
3.95
 20
46.8162535878
 30
0.0
 11
7.9572893801
 21
46.8162535878
 31
0.0
  0
LINE
  5
112
330
1F
100
AcDbEntity
  8
SK3
  6
SLD-Dashed
370
    18
100
AcDbLine
 10
14.2727106199
 20
46.8162535878
 30
0.0
 11
18.3
 21
46.8162535878
 31
0.0
  0
LINE
  5
113
330
1F
100
AcDbEntity
  8
1
  6
SLD-Dashed
370
    18
100
AcDbLine
 10
13.03
 20
44.5510215932
 30
0.0
 11
13.03
 21
44.5790106634
 31
0.0
  0
LINE
  5
114
330
1F
100
AcDbEntity
  8
1
  6
SLD-Dashed
370
    18
100
AcDbLine
 10
9.2
 20
44.5790106634
 30
0.0
 11
9.2
 21
44.5510215932
 31
0.0
  0
LINE
  5
115
330
1F
100
AcDbEntity
  8
1
  6
SLD-Dashed
370
    18
100
AcDbLine
 10
9.2
 20
-44.5790106634
 30
0.0
 11
9.2
 21
-44.5510215932
 31
0.0
  0
LINE
  5
116
330
1F
100
AcDbEntity
  8
1
  6
SLD-Dashed
370
    18
100
AcDbLine
 10
13.03
 20
-44.5510215932
 30
0.0
 11
13.03
 21
-44.5790106634
 31
0.0
  0
LINE
  5
117
330
1F
100
AcDbEntity
  8
SK3
  6
SLD-Dashed
370
    18
100
AcDbLine
 10
3.2
 20
-35.475
 30
0.0
 11
3.2
 21
-46.6976348437
 31
0.0
  0
LINE
  5
118
330
1F
100
AcDbEntity
  8
SK3
  6
SLD-Dashed
370
    18
100
AcDbLine
 10
19.05
 20
-46.6976348437
 30
0.0
 11
19.05
 21
-35.475
 31
0.0
  0
LINE
  5
119
330
1F
100
AcDbEntity
  8
SK3
  6
SLD-Dashed
370
    18
100
AcDbLine
 10
19.05
 20
-35.1
 30
0.0
 11
3.2
 21
-35.1
 31
0.0
  0
LINE
  5
11A
330
1F
100
AcDbEntity
  8
SK3
  6
SLD-Dashed
370
    18
100
AcDbLine
 10
3.2
 20
-35.475
 30
0.0
 11
19.05
 21
-35.475
 31
0.0
  0
LINE
  5
11B
330
1F
100
AcDbEntity
  8
SK3
  6
SLD-Dashed
370
    18
100
AcDbLine
 10
3.7
 20
37.5
 30
0.0
 11
18.55
 21
37.5
 31
0.0
  0
LINE
  5
11C
330
1F
100
AcDbEntity
  8
SK3
  6
SLD-Dashed
370
    18
100
AcDbLine
 10
18.55
 20
37.875
 30
0.0
 11
3.7
 21
37.875
 31
0.0
  0
LINE
  5
11D
330
1F
100
AcDbEntity
  8
SK3
  6
SLD-Dashed
370
    18
100
AcDbLine
 10
80.7901
 20
45.525
 30
0.0
 11
57.3699843116
 21
45.525
 31
0.0
  0
LINE
  5
11E
330
1F
100
AcDbEntity
  8
SK3
  6
SLD-Dashed
370
    18
100
AcDbLine
 10
60.33
 20
24.2102997832
 30
0.0
 11
60.33
 21
24.1682646375
 31
0.0
  0
LINE
  5
11F
330
1F
100
AcDbEntity
  8
SK3
  6
SLD-Dashed
370
    18
100
AcDbLine
 10
118.8901
 20
45.525
 30
0.0
 11
95.4699843116
 21
45.525
 31
0.0
  0
LINE
  5
120
330
1F
100
AcDbEntity
  8
SK3
  6
SLD-Dashed
370
    18
100
AcDbLine
 10
16.1
 20
33.1
 30
0.0
 11
6.1
 21
33.1
 31
0.0
  0
LINE
  5
121
330
1F
100
AcDbEntity
  8
SK3
  6
SLD-Dashed
370
    18
100
AcDbLine
 10
6.1
 20
37.5
 30
0.0
 11
16.1
 21
37.5
 31
0.0
  0
LINE
  5
122
330
1F
100
AcDbEntity
  8
SK3
  6
SLD-Dashed
370
    18
100
AcDbLine
 10
6.4000005661
 20
32.8
 30
0.0
 11
15.8
 21
32.8
 31
0.0
  0
LINE
  5
123
330
1F
100
AcDbEntity
  8
1
  6
SLD-Dashed
370
    18
100
AcDbLine
 10
12.28
 20
43.7694359685
 30
0.0
 11
9.95
 21
43.7694359685
 31
0.0
  0
LINE
  5
124
330
1F
100
AcDbEntity
  8
1
  6
SLD-Dashed
370
    18
100
AcDbLine
 10
12.28
 20
-43.7694359685
 30
0.0
 11
9.95
 21
-43.7694359685
 31
0.0
  0
LINE
  5
125
330
1F
100
AcDbEntity
  8
1
  6
SLD-Dashed
370
    18
100
AcDbLine
 10
18.3
 20
-47.4754841997
 30
0.0
 11
14.6397233934
 21
-47.4754841997
 31
0.0
  0
LINE
  5
126
330
1F
100
AcDbEntity
  8
1
  6
SLD-Dashed
370
    18
100
AcDbLine
 10
7.5902766066
 20
-47.4754841997
 30
0.0
 11
3.95
 21
-47.4754841997
 31
0.0
  0
LINE
  5
127
330
1F
100
AcDbEntity
  8
SK3
  6
SLD-Dashed
370
    18
100
AcDbLine
 10
3.5547332273
 20
13.8826166832
 30
0.0
 11
3.4963055258
 21
13.2078478429
 31
0.0
  0
LINE
  5
128
330
1F
100
AcDbEntity
  8
SK3
  6
SLD-Dashed
370
    18
100
AcDbLine
 10
3.4963055258
 20
13.2078478429
 30
0.0
 11
3.5600746277
 21
12.5877447611
 31
0.0
  0
LINE
  5
129
330
1F
100
AcDbEntity
  8
SK3
  6
SLD-Dashed
370
    18
100
AcDbLine
 10
3.5600746277
 20
12.5877447611
 30
0.0
 11
3.7408743394
 21
12.0725445015
 31
0.0
  0
LINE
  5
12A
330
1F
100
AcDbEntity
  8
SK3
  6
SLD-Dashed
370
    18
100
AcDbLine
 10
3.7408743394
 20
12.0725445015
 30
0.0
 11
4.0240573437
 21
11.7039855252
 31
0.0
  0
LINE
  5
12B
330
1F
100
AcDbEntity
  8
SK3
  6
SLD-Dashed
370
    18
100
AcDbLine
 10
4.0240573437
 20
11.7039855252
 30
0.0
 11
4.3866818377
 21
11.5119262885
 31
0.0
  0
LINE
  5
12C
330
1F
100
AcDbEntity
  8
SK3
  6
SLD-Dashed
370
    18
100
AcDbLine
 10
4.3866818377
 20
11.5119262885
 30
0.0
 11
4.7993701415
 21
11.5119262885
 31
0.0
  0
LINE
  5
12D
330
1F
100
AcDbEntity
  8
SK3
  6
SLD-Dashed
370
    18
100
AcDbLine
 10
4.7993701415
 20
11.5119262885
 30
0.0
 11
5.2286887031
 21
11.7039855252
 31
0.0
  0
LINE
  5
12E
330
1F
100
AcDbEntity
  8
SK3
  6
SLD-Dashed
370
    18
100
AcDbLine
 10
5.2286887031
 20
11.7039855252
 30
0.0
 11
5.6398566858
 21
12.0725445015
 31
0.0
  0
LINE
  5
12F
330
1F
100
AcDbEntity
  8
SK3
  6
SLD-Dashed
370
    18
100
AcDbLine
 10
5.6398566858
 20
12.0725445015
 30
0.0
 11
5.9995637051
 21
12.5877447611
 31
0.0
  0
LINE
  5
130
330
1F
100
AcDbEntity
  8
SK3
  6
SLD-Dashed
370
    18
100
AcDbLine
 10
5.9995637051
 20
12.5877447611
 30
0.0
 11
6.2786684374
 21
13.2078478429
 31
0.0
  0
LINE
  5
131
330
1F
100
AcDbEntity
  8
SK3
  6
SLD-Dashed
370
    18
100
AcDbLine
 10
6.2786684374
 20
13.2078478429
 30
0.0
 11
6.4545594773
 21
13.8826166832
 31
0.0
  0
LINE
  5
132
330
1F
100
AcDbEntity
  8
SK3
  6
SLD-Dashed
370
    18
100
AcDbLine
 10
6.4545594773
 20
13.8826166832
 30
0.0
 11
6.5129871788
 21
14.5573855234
 31
0.0
  0
LINE
  5
133
330
1F
100
AcDbEntity
  8
SK3
  6
SLD-Dashed
370
    18
100
AcDbLine
 10
6.5129871788
 20
14.5573855234
 30
0.0
 11
6.449218077
 21
15.1774886052
 31
0.0
  0
LINE
  5
134
330
1F
100
AcDbEntity
  8
SK3
  6
SLD-Dashed
370
    18
100
AcDbLine
 10
6.449218077
 20
15.1774886052
 30
0.0
 11
6.2684183652
 21
15.6926888648
 31
0.0
  0
LINE
  5
135
330
1F
100
AcDbEntity
  8
SK3
  6
SLD-Dashed
370
    18
100
AcDbLine
 10
6.2684183652
 20
15.6926888648
 30
0.0
 11
5.9852353609
 21
16.0612478411
 31
0.0
  0
LINE
  5
136
330
1F
100
AcDbEntity
  8
SK3
  6
SLD-Dashed
370
    18
100
AcDbLine
 10
5.9852353609
 20
16.0612478411
 30
0.0
 11
5.6226108669
 21
16.2533070779
 31
0.0
  0
LINE
  5
137
330
1F
100
AcDbEntity
  8
SK3
  6
SLD-Dashed
370
    18
100
AcDbLine
 10
5.6226108669
 20
16.2533070779
 30
0.0
 11
5.2099225631
 21
16.2533070779
 31
0.0
  0
LINE
  5
138
330
1F
100
AcDbEntity
  8
SK3
  6
SLD-Dashed
370
    18
100
AcDbLine
 10
5.2099225631
 20
16.2533070779
 30
0.0
 11
4.7806040016
 21
16.0612478411
 31
0.0
  0
LINE
  5
139
330
1F
100
AcDbEntity
  8
SK3
  6
SLD-Dashed
370
    18
100
AcDbLine
 10
4.7806040016
 20
16.0612478411
 30
0.0
 11
4.3694360188
 21
15.6926888648
 31
0.0
  0
LINE
  5
13A
330
1F
100
AcDbEntity
  8
SK3
  6
SLD-Dashed
370
    18
100
AcDbLine
 10
4.3694360188
 20
15.6926888648
 30
0.0
 11
4.0097289996
 21
15.1774886052
 31
0.0
  0
LINE
  5
13B
330
1F
100
AcDbEntity
  8
SK3
  6
SLD-Dashed
370
    18
100
AcDbLine
 10
4.0097289996
 20
15.1774886052
 30
0.0
 11
3.7306242672
 21
14.5573855234
 31
0.0
  0
LINE
  5
13C
330
1F
100
AcDbEntity
  8
SK3
  6
SLD-Dashed
370
    18
100
AcDbLine
 10
3.7306242672
 20
14.5573855234
 30
0.0
 11
3.5547332273
 21
13.8826166832
 31
0.0
  0
LINE
  5
13D
330
1F
100
AcDbEntity
  8
SK3
  6
SLD-Dashed
370
    18
100
AcDbLine
 10
14.2794578574
 20
11.0168048658
 30
0.0
 11
14.4553488973
 21
11.691573706
 31
0.0
  0
LINE
  5
13E
330
1F
100
AcDbEntity
  8
SK3
  6
SLD-Dashed
370
    18
100
AcDbLine
 10
14.4553488973
 20
11.691573706
 30
0.0
 11
14.7344536296
 21
12.3116767878
 31
0.0
  0
LINE
  5
13F
330
1F
100
AcDbEntity
  8
SK3
  6
SLD-Dashed
370
    18
100
AcDbLine
 10
14.7344536296
 20
12.3116767878
 30
0.0
 11
15.0941606488
 21
12.8268770474
 31
0.0
  0
LINE
  5
140
330
1F
100
AcDbEntity
  8
SK3
  6
SLD-Dashed
370
    18
100
AcDbLine
 10
15.0941606488
 20
12.8268770474
 30
0.0
 11
15.5053286316
 21
13.1954360237
 31
0.0
  0
LINE
  5
141
330
1F
100
AcDbEntity
  8
SK3
  6
SLD-Dashed
370
    18
100
AcDbLine
 10
15.5053286316
 20
13.1954360237
 30
0.0
 11
15.9346471931
 21
13.3874952605
 31
0.0
  0
LINE
  5
142
330
1F
100
AcDbEntity
  8
SK3
  6
SLD-Dashed
370
    18
100
AcDbLine
 10
15.9346471931
 20
13.3874952605
 30
0.0
 11
16.3473354969
 21
13.3874952605
 31
0.0
  0
LINE
  5
143
330
1F
100
AcDbEntity
  8
SK3
  6
SLD-Dashed
370
    18
100
AcDbLine
 10
16.3473354969
 20
13.3874952605
 30
0.0
 11
16.7099599909
 21
13.1954360237
 31
0.0
  0
LINE
  5
144
330
1F
100
AcDbEntity
  8
SK3
  6
SLD-Dashed
370
    18
100
AcDbLine
 10
16.7099599909
 20
13.1954360237
 30
0.0
 11
16.9931429952
 21
12.8268770474
 31
0.0
  0
LINE
  5
145
330
1F
100
AcDbEntity
  8
SK3
  6
SLD-Dashed
370
    18
100
AcDbLine
 10
16.9931429952
 20
12.8268770474
 30
0.0
 11
17.173942707
 21
12.3116767878
 31
0.0
  0
LINE
  5
146
330
1F
100
AcDbEntity
  8
SK3
  6
SLD-Dashed
370
    18
100
AcDbLine
 10
17.173942707
 20
12.3116767878
 30
0.0
 11
17.2377118088
 21
11.691573706
 31
0.0
  0
LINE
  5
147
330
1F
100
AcDbEntity
  8
SK3
  6
SLD-Dashed
370
    18
100
AcDbLine
 10
17.2377118088
 20
11.691573706
 30
0.0
 11
17.1792841073
 21
11.0168048658
 31
0.0
  0
LINE
  5
148
330
1F
100
AcDbEntity
  8
SK3
  6
SLD-Dashed
370
    18
100
AcDbLine
 10
17.1792841073
 20
11.0168048658
 30
0.0
 11
17.0033930674
 21
10.3420360255
 31
0.0
  0
LINE
  5
149
330
1F
100
AcDbEntity
  8
SK3
  6
SLD-Dashed
370
    18
100
AcDbLine
 10
17.0033930674
 20
10.3420360255
 30
0.0
 11
16.7242883351
 21
9.7219329437
 31
0.0
  0
LINE
  5
14A
330
1F
100
AcDbEntity
  8
SK3
  6
SLD-Dashed
370
    18
100
AcDbLine
 10
16.7242883351
 20
9.7219329437
 30
0.0
 11
16.3645813158
 21
9.2067326842
 31
0.0
  0
LINE
  5
14B
330
1F
100
AcDbEntity
  8
SK3
  6
SLD-Dashed
370
    18
100
AcDbLine
 10
16.3645813158
 20
9.2067326842
 30
0.0
 11
15.9534133331
 21
8.8381737078
 31
0.0
  0
LINE
  5
14C
330
1F
100
AcDbEntity
  8
SK3
  6
SLD-Dashed
370
    18
100
AcDbLine
 10
15.9534133331
 20
8.8381737078
 30
0.0
 11
15.5240947716
 21
8.6461144711
 31
0.0
  0
LINE
  5
14D
330
1F
100
AcDbEntity
  8
SK3
  6
SLD-Dashed
370
    18
100
AcDbLine
 10
15.5240947716
 20
8.6461144711
 30
0.0
 11
15.1114064678
 21
8.6461144711
 31
0.0
  0
LINE
  5
14E
330
1F
100
AcDbEntity
  8
SK3
  6
SLD-Dashed
370
    18
100
AcDbLine
 10
15.1114064678
 20
8.6461144711
 30
0.0
 11
14.7487819738
 21
8.8381737078
 31
0.0
  0
LINE
  5
14F
330
1F
100
AcDbEntity
  8
SK3
  6
SLD-Dashed
370
    18
100
AcDbLine
 10
14.7487819738
 20
8.8381737078
 30
0.0
 11
14.4655989695
 21
9.2067326842
 31
0.0
  0
LINE
  5
150
330
1F
100
AcDbEntity
  8
SK3
  6
SLD-Dashed
370
    18
100
AcDbLine
 10
14.4655989695
 20
9.2067326842
 30
0.0
 11
14.2847992577
 21
9.7219329437
 31
0.0
  0
LINE
  5
151
330
1F
100
AcDbEntity
  8
SK3
  6
SLD-Dashed
370
    18
100
AcDbLine
 10
14.2847992577
 20
9.7219329437
 30
0.0
 11
14.2210301559
 21
10.3420360255
 31
0.0
  0
LINE
  5
152
330
1F
100
AcDbEntity
  8
SK3
  6
SLD-Dashed
370
    18
100
AcDbLine
 10
14.2210301559
 20
10.3420360255
 30
0.0
 11
14.2794578574
 21
11.0168048658
 31
0.0
  0
LINE
  5
153
330
1F
100
AcDbEntity
  8
SK3
  6
SLD-Dashed
370
    18
100
AcDbLine
 10
3.3949403416
 20
13.9015950424
 30
0.0
 11
3.5710638624
 21
14.5873390073
 31
0.0
  0
LINE
  5
154
330
1F
100
AcDbEntity
  8
SK3
  6
SLD-Dashed
370
    18
100
AcDbLine
 10
3.5710638624
 20
14.5873390073
 30
0.0
 11
3.8482422099
 21
15.2222244793
 31
0.0
  0
LINE
  5
155
330
1F
100
AcDbEntity
  8
SK3
  6
SLD-Dashed
370
    18
100
AcDbLine
 10
3.8482422099
 20
15.2222244793
 30
0.0
 11
4.2059183341
 21
15.7591649075
 31
0.0
  0
LINE
  5
156
330
1F
100
AcDbEntity
  8
SK3
  6
SLD-Dashed
370
    18
100
AcDbLine
 10
4.2059183341
 20
15.7591649075
 30
0.0
 11
4.6175650332
 21
16.1583378767
 31
0.0
  0
LINE
  5
157
330
1F
100
AcDbEntity
  8
SK3
  6
SLD-Dashed
370
    18
100
AcDbLine
 10
4.6175650332
 20
16.1583378767
 30
0.0
 11
5.0526523546
 21
16.3901385537
 31
0.0
  0
LINE
  5
158
330
1F
100
AcDbEntity
  8
SK3
  6
SLD-Dashed
370
    18
100
AcDbLine
 10
5.0526523546
 20
16.3901385537
 30
0.0
 11
5.4789118621
 21
16.4373753428
 31
0.0
  0
LINE
  5
159
330
1F
100
AcDbEntity
  8
SK3
  6
SLD-Dashed
370
    18
100
AcDbLine
 10
5.4789118621
 20
16.4373753428
 30
0.0
 11
5.864729838
 21
16.2965449074
 31
0.0
  0
LINE
  5
15A
330
1F
100
AcDbEntity
  8
SK3
  6
SLD-Dashed
370
    18
100
AcDbLine
 10
5.864729838
 20
16.2965449074
 30
0.0
 11
6.181491928
 21
15.9780919968
 31
0.0
  0
LINE
  5
15B
330
1F
100
AcDbEntity
  8
SK3
  6
SLD-Dashed
370
    18
100
AcDbLine
 10
6.181491928
 20
15.9780919968
 30
0.0
 11
6.4057053371
 21
15.5056348064
 31
0.0
  0
LINE
  5
15C
330
1F
100
AcDbEntity
  8
SK3
  6
SLD-Dashed
370
    18
100
AcDbLine
 10
6.4057053371
 20
15.5056348064
 30
0.0
 11
6.5207411824
 21
14.9142133246
 31
0.0
  0
LINE
  5
15D
330
1F
100
AcDbEntity
  8
SK3
  6
SLD-Dashed
370
    18
100
AcDbLine
 10
6.5207411824
 20
14.9142133246
 30
0.0
 11
6.5180677814
 21
14.2476905773
 31
0.0
  0
LINE
  5
15E
330
1F
100
AcDbEntity
  8
SK3
  6
SLD-Dashed
370
    18
100
AcDbLine
 10
6.5180677814
 20
14.2476905773
 30
0.0
 11
6.3978834082
 21
13.5554995075
 31
0.0
  0
LINE
  5
15F
330
1F
100
AcDbEntity
  8
SK3
  6
SLD-Dashed
370
    18
100
AcDbLine
 10
6.3978834082
 20
13.5554995075
 30
0.0
 11
6.1691015878
 21
12.8889767602
 31
0.0
  0
LINE
  5
160
330
1F
100
AcDbEntity
  8
SK3
  6
SLD-Dashed
370
    18
100
AcDbLine
 10
6.1691015878
 20
12.8889767602
 30
0.0
 11
5.8486900213
 21
12.2975552785
 31
0.0
  0
LINE
  5
161
330
1F
100
AcDbEntity
  8
SK3
  6
SLD-Dashed
370
    18
100
AcDbLine
 10
5.8486900213
 20
12.2975552785
 30
0.0
 11
5.4604121688
 21
11.825098088
 31
0.0
  0
LINE
  5
162
330
1F
100
AcDbEntity
  8
SK3
  6
SLD-Dashed
370
    18
100
AcDbLine
 10
5.4604121688
 20
11.825098088
 30
0.0
 11
5.0330648223
 21
11.5066451774
 31
0.0
  0
LINE
  5
163
330
1F
100
AcDbEntity
  8
SK3
  6
SLD-Dashed
370
    18
100
AcDbLine
 10
5.0330648223
 20
11.5066451774
 30
0.0
 11
4.5983423796
 21
11.365814742
 31
0.0
  0
LINE
  5
164
330
1F
100
AcDbEntity
  8
SK3
  6
SLD-Dashed
370
    18
100
AcDbLine
 10
4.5983423796
 20
11.365814742
 30
0.0
 11
4.1884862155
 21
11.4130515312
 31
0.0
  0
LINE
  5
165
330
1F
100
AcDbEntity
  8
SK3
  6
SLD-Dashed
370
    18
100
AcDbLine
 10
4.1884862155
 20
11.4130515312
 30
0.0
 11
3.8338934867
 21
11.6448522082
 31
0.0
  0
LINE
  5
166
330
1F
100
AcDbEntity
  8
SK3
  6
SLD-Dashed
370
    18
100
AcDbLine
 10
3.8338934867
 20
11.6448522082
 30
0.0
 11
3.5608627138
 21
12.0440251773
 31
0.0
  0
LINE
  5
167
330
1F
100
AcDbEntity
  8
SK3
  6
SLD-Dashed
370
    18
100
AcDbLine
 10
3.5608627138
 20
12.0440251773
 30
0.0
 11
3.3896433401
 21
12.5809656055
 31
0.0
  0
LINE
  5
168
330
1F
100
AcDbEntity
  8
SK3
  6
SLD-Dashed
370
    18
100
AcDbLine
 10
3.3896433401
 20
12.5809656055
 30
0.0
 11
3.3329339234
 21
13.2158510775
 31
0.0
  0
LINE
  5
169
330
1F
100
AcDbEntity
  8
SK3
  6
SLD-Dashed
370
    18
100
AcDbLine
 10
3.3329339234
 20
13.2158510775
 30
0.0
 11
3.3949403416
 21
13.9015950424
 31
0.0
  0
LINE
  5
16A
330
1F
100
AcDbEntity
  8
SK3
  6
SLD-Dashed
370
    18
100
AcDbLine
 10
5.6371324082
 20
-16.2495686026
 30
0.0
 11
16.3618570383
 21
-13.3837567853
 31
0.0
  0
LINE
  5
16B
330
1F
100
AcDbEntity
  8
SK3
  6
SLD-Dashed
370
    18
100
AcDbLine
 10
15.0968849264
 20
-8.6498529463
 30
0.0
 11
4.3721602964
 21
-11.5156647637
 31
0.0
  0
LINE
  5
16C
330
1F
100
AcDbEntity
  8
SK3
  6
SLD-Dashed
370
    18
100
AcDbLine
 10
142.88
 20
26.2660254038
 30
0.0
 11
141.38
 21
25.4
 31
0.0
  0
LINE
  5
16D
330
1F
100
AcDbEntity
  8
SK3
  6
SLD-Dashed
370
    18
100
AcDbLine
 10
141.38
 20
-25.4
 30
0.0
 11
142.88
 21
-26.2660254038
 31
0.0
  0
LINE
  5
16E
330
1F
100
AcDbEntity
  8
SK3
  6
SLD-Dashed
370
    18
100
AcDbLine
 10
50.828
 20
-25.59
 30
0.0
 11
60.18
 21
-25.59
 31
0.0
  0
LINE
  5
16F
330
1F
100
AcDbEntity
  8
SK3
  6
SLD-Dashed
370
    18
100
AcDbLine
 10
57.3765348184
 20
25.59
 30
0.0
 11
50.828
 21
25.59
 31
0.0
  0
LINE
  5
170
330
1F
100
AcDbEntity
  8
SK3
  6
SLD-Dashed
370
    18
100
AcDbLine
 10
95.4459
 20
25.4
 30
0.0
 11
80.7582871093
 21
25.4
 31
0.0
  0
LINE
  5
171
330
1F
100
AcDbEntity
  8
SK3
  6
SLD-Dashed
370
    18
100
AcDbLine
 10
141.38
 20
25.4
 30
0.0
 11
118.8634610732
 21
25.4
 31
0.0
  0
LINE
  5
172
330
1F
100
AcDbEntity
  8
SK3
  6
SLD-Dashed
370
    18
100
AcDbLine
 10
60.33
 20
-25.4
 30
0.0
 11
141.38
 21
-25.4
 31
0.0
  0
LINE
  5
173
330
1F
100
AcDbEntity
  8
SK3
  6
SLD-Dashed
370
    18
100
AcDbLine
 10
50.678
 20
25.4
 30
0.0
 11
49.18
 21
25.4
 31
0.0
  0
LINE
  5
174
330
1F
100
AcDbEntity
  8
SK3
  6
SLD-Dashed
370
    18
100
AcDbLine
 10
49.18
 20
-25.4
 30
0.0
 11
50.678
 21
-25.4
 31
0.0
  0
LINE
  5
175
330
1F
100
AcDbEntity
  8
SK3
  6
SLD-Dashed
370
    18
100
AcDbLine
 10
49.18
 20
25.4
 30
0.0
 11
40.5952039056
 21
11.1125
 31
0.0
  0
LINE
  5
176
330
1F
100
AcDbEntity
  8
SK3
  6
SLD-Dashed
370
    18
100
AcDbLine
 10
40.5952039056
 20
-11.1125
 30
0.0
 11
49.18
 21
-25.4
 31
0.0
  0
LINE
  5
177
330
1F
100
AcDbEntity
  8
SK3
  6
SLD-Dashed
370
    18
100
AcDbLine
 10
-101.6
 20
-14.285
 30
0.0
 11
-99.7034043657
 21
-13.19
 31
0.0
  0
LINE
  5
178
330
1F
100
AcDbEntity
  8
SK3
  6
SLD-Dashed
370
    18
100
AcDbLine
 10
-99.7034043657
 20
13.19
 30
0.0
 11
-101.6
 21
14.285
 31
0.0
  0
LINE
  5
179
330
1F
100
AcDbEntity
  8
SK3
  6
SLD-Dashed
370
    18
100
AcDbLine
 10
93.918
 20
47.625
 30
0.0
 11
93.918
 21
45.525
 31
0.0
  0
LINE
  5
17A
330
1F
100
AcDbEntity
  8
SK3
  6
SLD-Dashed
370
    18
100
AcDbLine
 10
120.418
 20
45.525
 30
0.0
 11
120.418
 21
47.625
 31
0.0
  0
LINE
  5
17B
330
1F
100
AcDbEntity
  8
SK3
  6
SLD-Dashed
370
    18
100
AcDbLine
 10
55.818
 20
47.625
 30
0.0
 11
55.818
 21
45.525
 31
0.0
  0
LINE
  5
17C
330
1F
100
AcDbEntity
  8
SK3
  6
SLD-Dashed
370
    18
100
AcDbLine
 10
82.318
 20
45.525
 30
0.0
 11
82.318
 21
47.625
 31
0.0
  0
LINE
  5
17D
330
1F
100
AcDbEntity
  8
SK3
  6
SLD-Dashed
370
    18
100
AcDbLine
 10
-99.7034043657
 20
-13.19
 30
0.0
 11
-95.25
 21
-13.19
 31
0.0
  0
LINE
  5
17E
330
1F
100
AcDbEntity
  8
SK3
  6
SLD-Dashed
370
    18
100
AcDbLine
 10
-95.25
 20
13.19
 30
0.0
 11
-99.7034043657
 21
13.19
 31
0.0
  0
LINE
  5
17F
330
1F
100
AcDbEntity
  8
SK3
  6
SLD-Dashed
370
    18
100
AcDbLine
 10
-95.25
 20
-13.19
 30
0.0
 11
-94.0505548158
 21
-11.1125
 31
0.0
  0
LINE
  5
180
330
1F
100
AcDbEntity
  8
SK3
  6
SLD-Dashed
370
    18
100
AcDbLine
 10
-94.0505548158
 20
11.1125
 30
0.0
 11
-95.25
 21
13.19
 31
0.0
  0
LINE
  5
181
330
1F
100
AcDbEntity
  8
SK3
  6
SLD-Dashed
370
    18
100
AcDbLine
 10
57.3459
 20
45.525
 30
0.0
 11
57.3459
 21
25.5759992242
 31
0.0
  0
LINE
  5
182
330
1F
100
AcDbEntity
  8
SK3
  6
SLD-Dashed
370
    18
100
AcDbLine
 10
80.7901
 20
25.3853516054
 30
0.0
 11
80.7901
 21
45.525
 31
0.0
  0
LINE
  5
183
330
1F
100
AcDbEntity
  8
SK3
  6
SLD-Dashed
370
    18
100
AcDbLine
 10
95.4459
 20
45.525
 30
0.0
 11
95.4459
 21
25.4
 31
0.0
  0
LINE
  5
184
330
1F
100
AcDbEntity
  8
SK3
  6
SLD-Dashed
370
    18
100
AcDbLine
 10
118.8901
 20
25.3877597532
 30
0.0
 11
118.8901
 21
45.525
 31
0.0
  0
LINE
  5
185
330
1F
100
AcDbEntity
  8
SK3
  6
SLD-Dashed
370
    18
100
AcDbLine
 10
-94.0505548158
 20
-11.1125
 30
0.0
 11
40.5952039056
 21
-11.1125
 31
0.0
  0
LINE
  5
186
330
1F
100
AcDbEntity
  8
SK3
  6
SLD-Dashed
370
    18
100
AcDbLine
 10
40.5952039056
 20
11.1125
 30
0.0
 11
-94.0505548158
 21
11.1125
 31
0.0
  0
LINE
  5
187
330
1F
100
AcDbEntity
  8
SK3
  6
SLD-Dashed
370
    18
100
AcDbLine
 10
6.1
 20
37.5
 30
0.0
 11
6.1
 21
33.1
 31
0.0
  0
LINE
  5
188
330
1F
100
AcDbEntity
  8
SK3
  6
SLD-Dashed
370
    18
100
AcDbLine
 10
16.1
 20
33.1
 30
0.0
 11
16.1
 21
37.5
 31
0.0
  0
LINE
  5
189
330
1F
100
AcDbEntity
  8
SK3
  6
SLD-Dashed
370
    18
100
AcDbLine
 10
4.3721602964
 20
11.5156647637
 30
0.0
 11
15.0968849264
 21
8.6498529463
 31
0.0
  0
LINE
  5
18A
330
1F
100
AcDbEntity
  8
SK3
  6
SLD-Dashed
370
    18
100
AcDbLine
 10
16.3618570383
 20
13.3837567853
 30
0.0
 11
5.6371324082
 21
16.2495686026
 31
0.0
  0
LINE
  5
18B
330
1F
100
AcDbEntity
  8
SK3
  6
SLD-Solid
370
    18
100
AcDbLine
 10
-55.5999986827
 20
12.6999998465
 30
0.0
 11
-94.967097044
 21
12.6999998465
 31
0.0
  0
LINE
  5
18C
330
1F
100
AcDbEntity
  8
SK3
  6
SLD-Solid
370
    18
100
AcDbLine
 10
-94.967097044
 20
-12.6999998465
 30
0.0
 11
-55.5999986827
 21
-12.6999998465
 31
0.0
  0
LINE
  5
18D
330
1F
100
AcDbEntity
  8
SK3
  6
SLD-Solid
370
    18
100
AcDbLine
 10
-55.5999986827
 20
0.0
 30
0.0
 11
-55.5999986827
 21
-1.8928367645
 31
0.0
  0
LINE
  5
18E
330
1F
100
AcDbEntity
  8
SK3
  6
SLD-Solid
370
    18
100
AcDbLine
 10
-55.5999986827
 20
0.0
 30
0.0
 11
-55.5999986827
 21
-1.8928367645
 31
0.0
  0
LINE
  5
18F
330
1F
100
AcDbEntity
  8
SK3
  6
SLD-Solid
370
    18
100
AcDbLine
 10
-55.5999986827
 20
-1.8928367645
 30
0.0
 11
-55.5999986827
 21
-3.7433907855
 31
0.0
  0
LINE
  5
190
330
1F
100
AcDbEntity
  8
SK3
  6
SLD-Solid
370
    18
100
AcDbLine
 10
-55.5999986827
 20
-3.7433907855
 30
0.0
 11
-55.5999986827
 21
-5.5103236809
 31
0.0
  0
LINE
  5
191
330
1F
100
AcDbEntity
  8
SK3
  6
SLD-Solid
370
    18
100
AcDbLine
 10
-55.5999986827
 20
-5.5103236809
 30
0.0
 11
-55.5999986827
 21
-7.1541648358
 31
0.0
  0
LINE
  5
192
330
1F
100
AcDbEntity
  8
SK3
  6
SLD-Solid
370
    18
100
AcDbLine
 10
-55.5999986827
 20
-7.1541648358
 30
0.0
 11
-55.5999986827
 21
-8.6381938308
 31
0.0
  0
LINE
  5
193
330
1F
100
AcDbEntity
  8
SK3
  6
SLD-Solid
370
    18
100
AcDbLine
 10
-55.5999986827
 20
-8.6381938308
 30
0.0
 11
-55.5999986827
 21
-9.929260239
 31
0.0
  0
LINE
  5
194
330
1F
100
AcDbEntity
  8
SK3
  6
SLD-Solid
370
    18
100
AcDbLine
 10
-55.5999986827
 20
-9.929260239
 30
0.0
 11
-55.5999986827
 21
-10.9985228628
 31
0.0
  0
LINE
  5
195
330
1F
100
AcDbEntity
  8
SK3
  6
SLD-Solid
370
    18
100
AcDbLine
 10
-55.5999986827
 20
-10.9985228628
 30
0.0
 11
-55.5999986827
 21
-11.8220970035
 31
0.0
  0
LINE
  5
196
330
1F
100
AcDbEntity
  8
SK3
  6
SLD-Solid
370
    18
100
AcDbLine
 10
-55.5999986827
 20
-11.8220970035
 30
0.0
 11
-55.5999986827
 21
-12.3815843835
 31
0.0
  0
LINE
  5
197
330
1F
100
AcDbEntity
  8
SK3
  6
SLD-Solid
370
    18
100
AcDbLine
 10
-55.5999986827
 20
-12.3815843835
 30
0.0
 11
-55.5999986827
 21
-12.6644885167
 31
0.0
  0
LINE
  5
198
330
1F
100
AcDbEntity
  8
SK3
  6
SLD-Solid
370
    18
100
AcDbLine
 10
-55.5999986827
 20
-12.6644885167
 30
0.0
 11
-55.5999986827
 21
-12.6999998465
 31
0.0
  0
LINE
  5
199
330
1F
100
AcDbEntity
  8
SK3
  6
SLD-Solid
370
    18
100
AcDbLine
 10
-55.5999986827
 20
12.6999998465
 30
0.0
 11
-55.5999986827
 21
12.6644885167
 31
0.0
  0
LINE
  5
19A
330
1F
100
AcDbEntity
  8
SK3
  6
SLD-Solid
370
    18
100
AcDbLine
 10
-55.5999986827
 20
12.6644885167
 30
0.0
 11
-55.5999986827
 21
12.3815843835
 31
0.0
  0
LINE
  5
19B
330
1F
100
AcDbEntity
  8
SK3
  6
SLD-Solid
370
    18
100
AcDbLine
 10
-55.5999986827
 20
12.3815843835
 30
0.0
 11
-55.5999986827
 21
11.8220970035
 31
0.0
  0
LINE
  5
19C
330
1F
100
AcDbEntity
  8
SK3
  6
SLD-Solid
370
    18
100
AcDbLine
 10
-55.5999986827
 20
11.8220970035
 30
0.0
 11
-55.5999986827
 21
10.9985228628
 31
0.0
  0
LINE
  5
19D
330
1F
100
AcDbEntity
  8
SK3
  6
SLD-Solid
370
    18
100
AcDbLine
 10
-55.5999986827
 20
10.9985228628
 30
0.0
 11
-55.5999986827
 21
9.929260239
 31
0.0
  0
LINE
  5
19E
330
1F
100
AcDbEntity
  8
SK3
  6
SLD-Solid
370
    18
100
AcDbLine
 10
-55.5999986827
 20
9.929260239
 30
0.0
 11
-55.5999986827
 21
8.6381938308
 31
0.0
  0
LINE
  5
19F
330
1F
100
AcDbEntity
  8
SK3
  6
SLD-Solid
370
    18
100
AcDbLine
 10
-55.5999986827
 20
8.6381938308
 30
0.0
 11
-55.5999986827
 21
7.1541648358
 31
0.0
  0
LINE
  5
1A0
330
1F
100
AcDbEntity
  8
SK3
  6
SLD-Solid
370
    18
100
AcDbLine
 10
-55.5999986827
 20
7.1541648358
 30
0.0
 11
-55.5999986827
 21
5.5103236809
 31
0.0
  0
LINE
  5
1A1
330
1F
100
AcDbEntity
  8
SK3
  6
SLD-Solid
370
    18
100
AcDbLine
 10
-55.5999986827
 20
5.5103236809
 30
0.0
 11
-55.5999986827
 21
3.7433907855
 31
0.0
  0
LINE
  5
1A2
330
1F
100
AcDbEntity
  8
SK3
  6
SLD-Solid
370
    18
100
AcDbLine
 10
-55.5999986827
 20
3.7433907855
 30
0.0
 11
-55.5999986827
 21
1.8928367645
 31
0.0
  0
LINE
  5
1A3
330
1F
100
AcDbEntity
  8
SK3
  6
SLD-Solid
370
    18
100
AcDbLine
 10
-55.5999986827
 20
1.8928367645
 30
0.0
 11
-55.5999986827
 21
0.0
 31
0.0
  0
LINE
  5
1A4
330
1F
100
AcDbEntity
  8
SK3
  6
SLD-Solid
370
    18
100
AcDbLine
 10
-55.5999986827
 20
-1.8928367645
 30
0.0
 11
-55.5999986827
 21
-3.7433907855
 31
0.0
  0
LINE
  5
1A5
330
1F
100
AcDbEntity
  8
SK3
  6
SLD-Solid
370
    18
100
AcDbLine
 10
-55.5999986827
 20
-3.7433907855
 30
0.0
 11
-55.5999986827
 21
-5.5103236809
 31
0.0
  0
LINE
  5
1A6
330
1F
100
AcDbEntity
  8
SK3
  6
SLD-Solid
370
    18
100
AcDbLine
 10
-55.5999986827
 20
-5.5103236809
 30
0.0
 11
-55.5999986827
 21
-7.1541648358
 31
0.0
  0
LINE
  5
1A7
330
1F
100
AcDbEntity
  8
SK3
  6
SLD-Solid
370
    18
100
AcDbLine
 10
-55.5999986827
 20
-7.1541648358
 30
0.0
 11
-55.5999986827
 21
-8.6381938308
 31
0.0
  0
LINE
  5
1A8
330
1F
100
AcDbEntity
  8
SK3
  6
SLD-Solid
370
    18
100
AcDbLine
 10
-55.5999986827
 20
-8.6381938308
 30
0.0
 11
-55.5999986827
 21
-9.929260239
 31
0.0
  0
LINE
  5
1A9
330
1F
100
AcDbEntity
  8
SK3
  6
SLD-Solid
370
    18
100
AcDbLine
 10
-55.5999986827
 20
-9.929260239
 30
0.0
 11
-55.5999986827
 21
-10.9985228628
 31
0.0
  0
LINE
  5
1AA
330
1F
100
AcDbEntity
  8
SK3
  6
SLD-Solid
370
    18
100
AcDbLine
 10
-55.5999986827
 20
-10.9985228628
 30
0.0
 11
-55.5999986827
 21
-11.8220970035
 31
0.0
  0
LINE
  5
1AB
330
1F
100
AcDbEntity
  8
SK3
  6
SLD-Solid
370
    18
100
AcDbLine
 10
-55.5999986827
 20
-11.8220970035
 30
0.0
 11
-55.5999986827
 21
-12.3815843835
 31
0.0
  0
LINE
  5
1AC
330
1F
100
AcDbEntity
  8
SK3
  6
SLD-Solid
370
    18
100
AcDbLine
 10
-55.5999986827
 20
-12.3815843835
 30
0.0
 11
-55.5999986827
 21
-12.6644885167
 31
0.0
  0
LINE
  5
1AD
330
1F
100
AcDbEntity
  8
SK3
  6
SLD-Solid
370
    18
100
AcDbLine
 10
-55.5999986827
 20
-12.6644885167
 30
0.0
 11
-55.5999986827
 21
-12.6999998465
 31
0.0
  0
LINE
  5
1AE
330
1F
100
AcDbEntity
  8
SK3
  6
SLD-Solid
370
    18
100
AcDbLine
 10
-55.5999986827
 20
12.6999998465
 30
0.0
 11
-55.5999986827
 21
12.6644885167
 31
0.0
  0
LINE
  5
1AF
330
1F
100
AcDbEntity
  8
SK3
  6
SLD-Solid
370
    18
100
AcDbLine
 10
-55.5999986827
 20
12.6644885167
 30
0.0
 11
-55.5999986827
 21
12.3815843835
 31
0.0
  0
LINE
  5
1B0
330
1F
100
AcDbEntity
  8
SK3
  6
SLD-Solid
370
    18
100
AcDbLine
 10
-55.5999986827
 20
12.3815843835
 30
0.0
 11
-55.5999986827
 21
11.8220970035
 31
0.0
  0
LINE
  5
1B1
330
1F
100
AcDbEntity
  8
SK3
  6
SLD-Solid
370
    18
100
AcDbLine
 10
-55.5999986827
 20
11.8220970035
 30
0.0
 11
-55.5999986827
 21
10.9985228628
 31
0.0
  0
LINE
  5
1B2
330
1F
100
AcDbEntity
  8
SK3
  6
SLD-Solid
370
    18
100
AcDbLine
 10
-55.5999986827
 20
10.9985228628
 30
0.0
 11
-55.5999986827
 21
9.929260239
 31
0.0
  0
LINE
  5
1B3
330
1F
100
AcDbEntity
  8
SK3
  6
SLD-Solid
370
    18
100
AcDbLine
 10
-55.5999986827
 20
9.929260239
 30
0.0
 11
-55.5999986827
 21
8.6381938308
 31
0.0
  0
LINE
  5
1B4
330
1F
100
AcDbEntity
  8
SK3
  6
SLD-Solid
370
    18
100
AcDbLine
 10
-55.5999986827
 20
8.6381938308
 30
0.0
 11
-55.5999986827
 21
7.1541648358
 31
0.0
  0
LINE
  5
1B5
330
1F
100
AcDbEntity
  8
SK3
  6
SLD-Solid
370
    18
100
AcDbLine
 10
-55.5999986827
 20
7.1541648358
 30
0.0
 11
-55.5999986827
 21
5.5103236809
 31
0.0
  0
LINE
  5
1B6
330
1F
100
AcDbEntity
  8
SK3
  6
SLD-Solid
370
    18
100
AcDbLine
 10
-55.5999986827
 20
5.5103236809
 30
0.0
 11
-55.5999986827
 21
3.7433907855
 31
0.0
  0
LINE
  5
1B7
330
1F
100
AcDbEntity
  8
SK3
  6
SLD-Solid
370
    18
100
AcDbLine
 10
-55.5999986827
 20
3.7433907855
 30
0.0
 11
-55.5999986827
 21
1.8928367645
 31
0.0
  0
LINE
  5
1B8
330
1F
100
AcDbEntity
  8
SK3
  6
SLD-Solid
370
    18
100
AcDbLine
 10
-55.5999986827
 20
1.8928367645
 30
0.0
 11
-55.5999986827
 21
0.0
 31
0.0
  0
LINE
  5
1B9
330
1F
100
AcDbEntity
  8
SK3
  6
SLD-Solid
370
    18
100
AcDbLine
 10
81.7679986358
 20
25.3893490881
 30
0.0
 11
81.7679986358
 21
45.5249994993
 31
0.0
  0
LINE
  5
1BA
330
1F
100
AcDbEntity
  8
SK3
  6
SLD-Solid
370
    18
100
AcDbLine
 10
56.3680008054
 20
45.5249994993
 30
0.0
 11
56.3680008054
 21
25.5752950907
 31
0.0
  0
LINE
  5
1BB
330
1F
100
AcDbEntity
  8
SK3
  6
SLD-Solid
370
    18
100
AcDbLine
 10
56.3971139491
 20
25.5752950907
 30
0.0
 11
56.3776046038
 21
25.5848634988
 31
0.0
  0
LINE
  5
1BC
330
1F
100
AcDbEntity
  8
SK3
  6
SLD-Solid
370
    18
100
AcDbLine
 10
81.7472934723
 20
25.3893490881
 30
0.0
 11
81.7633345723
 21
25.3972858191
 31
0.0
  0
LINE
  5
1BD
330
1F
100
AcDbEntity
  8
SK3
  6
SLD-Solid
370
    18
100
AcDbLine
 10
119.8680028319
 20
25.3893490881
 30
0.0
 11
119.8680028319
 21
45.5249994993
 31
0.0
  0
LINE
  5
1BE
330
1F
100
AcDbEntity
  8
SK3
  6
SLD-Solid
370
    18
100
AcDbLine
 10
94.467997551
 20
45.5249994993
 30
0.0
 11
94.467997551
 21
25.3893490881
 31
0.0
  0
LINE
  5
1BF
330
1F
100
AcDbEntity
  8
SK3
  6
SLD-Solid
370
    18
100
AcDbLine
 10
119.8472976685
 20
25.3893490881
 30
0.0
 11
119.8633313179
 21
25.3972858191
 31
0.0
  0
LINE
  5
1C0
330
1F
100
AcDbEntity
  8
4
  6
SLD-Center
370
    18
100
AcDbLine
 10
143.8100396059
 20
0.0
 30
0.0
 11
-0.214725165
 21
0.0
 31
0.0
  0
LINE
  5
1C1
330
1F
100
AcDbEntity
  8
4
  6
SLD-Center
370
    18
100
AcDbLine
 10
69.068
 20
23.495
 30
0.0
 11
69.068
 21
47.525
 31
0.0
  0
LINE
  5
1C2
330
1F
100
AcDbEntity
  8
4
  6
SLD-Center
370
    18
100
AcDbLine
 10
107.168
 20
23.4
 30
0.0
 11
107.168
 21
47.525
 31
0.0
  0
LINE
  5
1C3
330
1F
100
AcDbEntity
  8
SK4
  6
SLD-Center
370
    18
100
AcDbLine
 10
143.38
 20
0.0
 30
0.0
 11
-103.2858831594
 21
0.0
 31
0.0
  0
LINE
  5
1C4
330
1F
100
AcDbEntity
  8
81
370
    18
100
AcDbLine
 10
142.88
 20
0.0
 30
0.0
 11
146.4155339059
 21
3.5355339059
 31
0.0
  0
LINE
  5
1C5
330
1F
100
AcDbEntity
  8
81
370
    18
100
AcDbLine
 10
142.88
 20
0.0
 30
0.0
 11
139.3444660941
 21
-3.5355339059
 31
0.0
  0
LINE
  5
1C6
330
1F
100
AcDbEntity
  8
81
370
    18
100
AcDbLine
 10
142.88
 20
0.0
 30
0.0
 11
139.3444660941
 21
3.5355339059
 31
0.0
  0
LINE
  5
1C7
330
1F
100
AcDbEntity
  8
81
100
AcDbLine
 10
142.88
 20
0.0
 30
0.0
 11
152.88
 21
0.0
 31
0.0
  0
LINE
  5
1C8
330
1F
100
AcDbEntity
  8
81
370
    18
100
AcDbLine
 10
142.88
 20
0.0
 30
0.0
 11
146.4155339059
 21
-3.5355339059
 31
0.0
  0
LINE
  5
1C9
330
1F
100
AcDbEntity
  8
80
370
    18
100
AcDbLine
 10
0.0
 20
0.0
 30
0.0
 11
-3.5355339059
 21
-3.5355339059
 31
0.0
  0
LINE
  5
1CA
330
1F
100
AcDbEntity
  8
80
370
    18
100
AcDbLine
 10
0.0
 20
0.0
 30
0.0
 11
3.5355339059
 21
3.5355339059
 31
0.0
  0
LINE
  5
1CB
330
1F
100
AcDbEntity
  8
80
370
    18
100
AcDbLine
 10
0.0
 20
0.0
 30
0.0
 11
-3.5355339059
 21
3.5355339059
 31
0.0
  0
LINE
  5
1CC
330
1F
100
AcDbEntity
  8
80
370
    18
100
AcDbLine
 10
0.0
 20
0.0
 30
0.0
 11
-10.0
 21
0.0
 31
0.0
  0
LINE
  5
1CD
330
1F
100
AcDbEntity
  8
80
370
    18
100
AcDbLine
 10
0.0
 20
0.0
 30
0.0
 11
3.5355339059
 21
-3.5355339059
 31
0.0
  0
ARC
  5
1CE
330
1F
100
AcDbEntity
  8
1
  6
SLD-Solid
370
    25
100
AcDbCircle
 10
36.624
 20
46.101
 30
0.0
 40
1.524000000000022
100
AcDbArc
 50
90.0
 51
180.0
  0
ARC
  5
1CF
330
1F
100
AcDbEntity
  8
1
  6
SLD-Solid
370
    25
100
AcDbCircle
 10
36.624
 20
-46.101
 30
0.0
 40
1.524000000000029
100
AcDbArc
 50
180.0
 51
270.0
  0
ARC
  5
1D0
330
1F
100
AcDbEntity
  8
1
  6
SLD-Solid
370
    25
100
AcDbCircle
 10
34.338
 20
35.687
 30
0.0
 40
0.7620000000000147
100
AcDbArc
 50
270.0
 51
0.0
  0
ARC
  5
1D1
330
1F
100
AcDbEntity
  8
1
  6
SLD-Solid
370
    25
100
AcDbCircle
 10
34.338
 20
-35.687
 30
0.0
 40
0.7620000000000147
100
AcDbArc
 50
0.0
 51
90.0
  0
ARC
  5
1D2
330
1F
100
AcDbEntity
  8
1
  6
SLD-Solid
370
    25
100
AcDbCircle
 10
19.812
 20
-35.687
 30
0.0
 40
0.7620000000000007
100
AcDbArc
 50
90.0
 51
129.6602259253
  0
ARC
  5
1D3
330
1F
100
AcDbEntity
  8
1
  6
SLD-Solid
370
    25
100
AcDbCircle
 10
19.812
 20
35.687
 30
0.0
 40
0.7620000000000005
100
AcDbArc
 50
180.0
 51
270.0
  0
ARC
  5
1D4
330
1F
100
AcDbEntity
  8
1
  6
SLD-Solid
370
    25
100
AcDbCircle
 10
2.45
 20
35.425
 30
0.0
 40
0.7500000000000141
100
AcDbArc
 50
245.0
 51
0.0
  0
ARC
  5
1D5
330
1F
100
AcDbEntity
  8
1
  6
SLD-Solid
370
    25
100
AcDbCircle
 10
2.45
 20
-35.425
 30
0.0
 40
0.7500000000000008
100
AcDbArc
 50
25.4411946394
 51
115.0
  0
ARC
  5
1D6
330
1F
100
AcDbEntity
  8
SK1
  6
SLD-Solid
370
    25
100
AcDbCircle
 10
-99.5
 20
18.2922326599
 30
0.0
 40
2.100000000000009
100
AcDbArc
 50
98.2972222222
 51
180.0
  0
ARC
  5
1D7
330
1F
100
AcDbEntity
  8
SK1
  6
SLD-Solid
370
    25
100
AcDbCircle
 10
-99.5
 20
-18.2922326599
 30
0.0
 40
2.100000000000011
100
AcDbArc
 50
180.0
 51
261.7027777778
  0
ARC
  5
1D8
330
1F
100
AcDbEntity
  8
1
370
    18
100
AcDbCircle
 10
69.0676462608
 20
93.6660477293
 30
0.0
 40
47.90961492278142
100
AcDbArc
 50
253.9452931685
 51
286.0314613884
  0
ARC
  5
1D9
330
1F
100
AcDbEntity
  8
1
370
    18
100
AcDbCircle
 10
107.1583060702
 20
92.9115267699
 30
0.0
 40
47.18236123500448
100
AcDbArc
 50
253.7027985771
 51
286.2972014229
  0
CIRCLE
  5
1DA
330
1F
100
AcDbEntity
  8
81
370
    18
100
AcDbCircle
 10
142.88
 20
0.0
 30
0.0
 40
2.499999999999998
  0
CIRCLE
  5
1DB
330
1F
100
AcDbEntity
  8
80
370
    18
100
AcDbCircle
 10
0.0
 20
0.0
 30
0.0
 40
2.500000000000009
  0
ARC
  5
1DC
330
1F
100
AcDbEntity
  8
SK3
  6
SLD-Dashed
370
    18
100
AcDbCircle
 10
50.828
 20
-25.44
 30
0.0
 40
0.1500000000000412
100
AcDbArc
 50
180.0
 51
270.0
  0
ARC
  5
1DD
330
1F
100
AcDbEntity
  8
SK3
  6
SLD-Dashed
370
    18
100
AcDbCircle
 10
50.828
 20
25.44
 30
0.0
 40
0.1499999999999986
100
AcDbArc
 50
90.0
 51
180.0
  0
ARC
  5
1DE
330
1F
100
AcDbEntity
  8
SK3
  6
SLD-Dashed
370
    18
100
AcDbCircle
 10
60.18
 20
-25.44
 30
0.0
 40
0.1500000000000021
100
AcDbArc
 50
270.0
 51
0.0
  0
SPLINE
  5
1DF
330
1F
100
AcDbEntity
  8
1
  6
SLD-Solid
370
    25
100
AcDbSpline
210
0.0
220
0.0
230
1.0
 70
     8
 71
     3
 72
    12
 73
     8
 74
     0
 42
0.000000001
 43
0.00000001
 40
0.0
 40
0.0
 40
0.0
 40
0.0
 40
0.2499999999999983
 40
0.2499999999999983
 40
0.4999999999999967
 40
0.4999999999999967
 40
1.0
 40
1.0
 40
1.0
 40
1.0
 10
19.05
 20
-46.69763484374771
 30
0.0
 10
19.05
 20
-46.79851095846172
 30
0.0
 10
19.03137059366211
 20
-46.8973396642895
 30
0.0
 10
18.95815575330308
 20
-47.08411469648357
 30
0.0
 10
18.90402082648722
 20
-47.16991322230012
 30
0.0
 10
18.69812814693782
 20
-47.3875344447254
 30
0.0
 10
18.50197314321876
 20
-47.475484199743
 30
0.0
 10
18.30000000000011
 20
-47.47548419974304
 30
0.0
  0
SPLINE
  5
1E0
330
1F
100
AcDbEntity
  8
1
  6
SLD-Solid
370
    25
100
AcDbSpline
210
0.0
220
0.0
230
1.0
 70
     8
 71
     3
 72
    15
 73
    11
 74
     0
 42
0.000000001
 43
0.00000001
 40
0.0
 40
0.0
 40
0.0
 40
0.0
 40
0.0708675467315475
 40
0.1234206290199029
 40
0.2469923695820237
 40
0.4940839350896436
 40
0.6226370207871864
 40
0.7456896564301972
 40
0.8736712715891333
 40
1.0
 40
1.0
 40
1.0
 40
1.0
 10
19.05
 20
46.55608553132448
 30
0.0
 10
19.04912781744714
 20
46.58344641762567
 30
0.0
 10
19.04760885250116
 20
46.6310972529315
 30
0.0
 10
19.03252103265846
 20
46.72541301614358
 30
0.0
 10
18.98548435274758
 20
46.88286431586847
 30
0.0
 10
18.874930871021
 20
47.04890219784077
 30
0.0
 10
18.72384724354125
 20
47.17307551104539
 30
0.0
 10
18.59213990187967
 20
47.24320117906749
 30
0.0
 10
18.44967423033175
 20
47.2882943524572
 30
0.0
 10
18.34967476169831
 20
47.29398684876387
 30
0.0
 10
18.30000000000006
 20
47.29681459776461
 30
0.0
  0
SPLINE
  5
1E1
330
1F
100
AcDbEntity
  8
1
  6
SLD-Solid
370
    25
100
AcDbSpline
210
0.0
220
0.0
230
1.0
 70
     8
 71
     3
 72
    12
 73
     8
 74
     0
 42
0.000000001
 43
0.00000001
 40
0.0
 40
0.0
 40
0.0
 40
0.0
 40
0.249999999999997
 40
0.249999999999997
 40
0.499999999999994
 40
0.499999999999994
 40
1.0
 40
1.0
 40
1.0
 40
1.0
 10
3.950000000000009
 20
-47.4754841997425
 30
0.0
 10
3.849084030890584
 20
-47.4754841997425
 30
0.0
 10
3.749978417477442
 20
-47.45437693482703
 30
0.0
 10
3.566847730075498
 20
-47.37426897057827
 30
0.0
 10
3.483455095947358
 20
-47.31511647588032
 30
0.0
 10
3.278048511272585
 20
-47.09831987092233
 30
0.0
 10
3.200000000000008
 20
-46.89926900274103
 30
0.0
 10
3.200000000000008
 20
-46.69763484374771
 30
0.0
  0
SPLINE
  5
1E2
330
1F
100
AcDbEntity
  8
1
  6
SLD-Solid
370
    25
100
AcDbSpline
210
0.0
220
0.0
230
1.0
 70
     8
 71
     3
 72
    17
 73
    13
 74
     0
 42
0.000000001
 43
0.00000001
 40
0.0
 40
0.0
 40
0.0
 40
0.0
 40
0.0631225275258774
 40
0.1266732402663625
 40
0.1906578596818708
 40
0.2550819704917091
 40
0.377967755988447
 40
0.5065287291742091
 40
0.7536275741715719
 40
0.8770326867278314
 40
0.9293515933661941
 40
1.0
 40
1.0
 40
1.0
 40
1.0
 10
3.950000000000011
 20
47.29681459776459
 30
0.0
 10
3.925201491242191
 20
47.2961118221493
 30
0.0
 10
3.875436255576696
 20
47.29470150371214
 30
0.0
 10
3.801280718131018
 20
47.28327895419437
 30
0.0
 10
3.728120549244846
 20
47.26498746193482
 30
0.0
 10
3.635342933437825
 20
47.23149463847586
 30
0.0
 10
3.525682301941441
 20
47.17267397047701
 30
0.0
 10
3.374709300540459
 20
47.04854698617527
 30
0.0
 10
3.264271220664563
 20
46.88235514412657
 30
0.0
 10
3.217384189877825
 20
46.72497704383458
 30
0.0
 10
3.202376761226208
 20
46.63086119235393
 30
0.0
 10
3.200867255993824
 20
46.58337040937721
 30
0.0
 10
3.200000000000054
 20
46.55608553132452
 30
0.0
  0
SPLINE
  5
1E3
330
1F
100
AcDbEntity
  8
1
  6
SLD-Solid
370
    25
100
AcDbSpline
210
0.0
220
0.0
230
1.0
 70
     8
 71
     3
 72
     8
 73
     4
 74
     0
 42
0.000000001
 43
0.00000001
 40
0.0
 40
0.0
 40
0.0
 40
0.0
 40
1.0
 40
1.0
 40
1.0
 40
1.0
 10
7.590276606597335
 20
-47.4754841997425
 30
0.0
 10
8.12777499546441
 20
-46.51049654710809
 30
0.0
 10
8.664408048367864
 20
-45.54503249842017
 30
0.0
 10
9.199999999999985
 20
-44.57901066343647
 30
0.0
  0
SPLINE
  5
1E4
330
1F
100
AcDbEntity
  8
1
  6
SLD-Solid
370
    25
100
AcDbSpline
210
0.0
220
0.0
230
1.0
 70
     8
 71
     3
 72
     8
 73
     4
 74
     0
 42
0.000000001
 43
0.00000001
 40
0.0000000000000098
 40
0.0000000000000098
 40
0.0000000000000098
 40
0.0000000000000098
 40
0.0008790679015159
 40
0.0008790679015159
 40
0.0008790679015159
 40
0.0008790679015159
 10
7.957289380062113
 20
46.81625358783002
 30
0.0
 10
7.835334863860806
 20
46.97654627942827
 30
0.0
 10
7.712991580674037
 20
47.13673210499551
 30
0.0
 10
7.590276606597353
 20
47.29681459776459
 30
0.0
  0
SPLINE
  5
1E5
330
1F
100
AcDbEntity
  8
1
  6
SLD-Solid
370
    25
100
AcDbSpline
210
0.0
220
0.0
230
1.0
 70
     8
 71
     3
 72
     8
 73
     4
 74
     0
 42
0.000000001
 43
0.00000001
 40
0.0
 40
0.0
 40
0.0
 40
0.0
 40
1.0
 40
1.0
 40
1.0
 40
1.0
 10
7.957289380055704
 20
46.81625358784156
 30
0.0
 10
8.372088490919104
 20
46.07082082933734
 30
0.0
 10
8.786353866857967
 20
45.32508460154718
 30
0.0
 10
9.199999999999985
 20
44.57901066343646
 30
0.0
  0
SPLINE
  5
1E6
330
1F
100
AcDbEntity
  8
1
  6
SLD-Solid
370
    25
100
AcDbSpline
210
0.0
220
0.0
230
1.0
 70
     8
 71
     3
 72
    14
 73
    10
 74
     0
 42
0.000000001
 43
0.00000001
 40
0.0
 40
0.0
 40
0.0
 40
0.0
 40
0.25
 40
0.25
 40
0.5
 40
0.5
 40
0.75
 40
0.75
 40
1.0
 40
1.0
 40
1.0
 40
1.0
 10
9.200000000002262
 20
41.48301295145394
 30
0.0
 10
9.176680646156939
 20
41.55645645104906
 30
0.0
 10
9.157956892055532
 20
41.62429306843833
 30
0.0
 10
9.1319276787847
 20
41.74600607925087
 30
0.0
 10
9.125045582368477
 20
41.79860573441292
 30
0.0
 10
9.124954879643768
 20
41.88147815789095
 30
0.0
 10
9.13187050530505
 20
41.91255410941324
 30
0.0
 10
9.157670888230399
 20
41.95124091970131
 30
0.0
 10
9.176601575159566
 20
41.95960923610541
 30
0.0
 10
9.199999999999985
 20
41.95870119642321
 30
0.0
  0
SPLINE
  5
1E7
330
1F
100
AcDbEntity
  8
1
  6
SLD-Solid
370
    25
100
AcDbSpline
210
0.0
220
0.0
230
1.0
 70
     8
 71
     3
 72
    14
 73
    10
 74
     0
 42
0.000000001
 43
0.00000001
 40
0.0
 40
0.0
 40
0.0
 40
0.0
 40
0.25
 40
0.25
 40
0.5
 40
0.5
 40
0.75
 40
0.75
 40
1.0
 40
1.0
 40
1.0
 40
1.0
 10
9.199999999999985
 20
34.67668893498514
 30
0.0
 10
9.176680646155262
 20
34.76218380134757
 30
0.0
 10
9.15795689205447
 20
34.84409122905375
 30
0.0
 10
9.131927678784713
 20
34.99897222909991
 30
0.0
 10
9.12504558236895
 20
35.07047900120375
 30
0.0
 10
9.12495487964505
 20
35.19440944821508
 30
0.0
 10
9.131870505306654
 20
35.24816533561765
 30
0.0
 10
9.157670888232465
 20
35.33309634836902
 30
0.0
 10
9.176601575161756
 20
35.36545280972805
 30
0.0
 10
9.200000000002262
 20
35.38859611770602
 30
0.0
  0
SPLINE
  5
1E8
330
1F
100
AcDbEntity
  8
1
  6
SLD-Solid
370
    25
100
AcDbSpline
210
0.0
220
0.0
230
1.0
 70
     8
 71
     3
 72
    14
 73
    10
 74
     0
 42
0.000000001
 43
0.00000001
 40
0.0
 40
0.0
 40
0.0
 40
0.0
 40
0.25
 40
0.25
 40
0.5
 40
0.5
 40
0.75
 40
0.75
 40
1.0
 40
1.0
 40
1.0
 40
1.0
 10
13.02999999999772
 20
41.98711733167187
 30
0.0
 10
13.05904068228934
 20
41.99358445674462
 30
0.0
 10
13.08275209483149
 20
41.98923559020664
 30
0.0
 10
13.11609658322626
 20
41.9518951110341
 30
0.0
 10
13.12492140067654
 20
41.91935250781695
 30
0.0
 10
13.12507754967937
 20
41.82511380576869
 30
0.0
 10
13.11615053209158
 20
41.76334893396479
 30
0.0
 10
13.08319562521589
 20
41.62087672885605
 30
0.0
 10
13.05911019949656
 20
41.53942138186937
 30
0.0
 10
13.03
 20
41.45311361597114
 30
0.0
  0
SPLINE
  5
1E9
330
1F
100
AcDbEntity
  8
1
  6
SLD-Solid
370
    25
100
AcDbSpline
210
0.0
220
0.0
230
1.0
 70
     8
 71
     3
 72
     8
 73
     4
 74
     0
 42
0.000000001
 43
0.00000001
 40
0.0
 40
0.0
 40
0.0
 40
0.0
 40
1.0
 40
1.0
 40
1.0
 40
1.0
 10
13.02999999999999
 20
44.57901066343647
 30
0.0
 10
13.44364613314276
 20
45.32508460154332
 30
0.0
 10
13.8579115090824
 20
46.07082082932956
 30
0.0
 10
14.27271061994656
 20
46.81625358782993
 30
0.0
  0
SPLINE
  5
1EA
330
1F
100
AcDbEntity
  8
1
  6
SLD-Solid
370
    25
100
AcDbSpline
210
0.0
220
0.0
230
1.0
 70
     8
 71
     3
 72
     8
 73
     4
 74
     0
 42
0.000000001
 43
0.00000001
 40
0.0
 40
0.0
 40
0.0
 40
0.0
 40
0.0008790679015124
 40
0.0008790679015124
 40
0.0008790679015124
 40
0.0008790679015124
 10
14.63972339340267
 20
47.29681459776456
 30
0.0
 10
14.51700841932646
 20
47.13673210499613
 30
0.0
 10
14.39466513614739
 20
46.97654627942754
 30
0.0
 10
14.27271061994656
 20
46.81625358782993
 30
0.0
  0
SPLINE
  5
1EB
330
1F
100
AcDbEntity
  8
1
  6
SLD-Solid
370
    25
100
AcDbSpline
210
0.0
220
0.0
230
1.0
 70
     8
 71
     3
 72
     8
 73
     4
 74
     0
 42
0.000000001
 43
0.00000001
 40
0.0
 40
0.0
 40
0.0
 40
0.0
 40
1.0
 40
1.0
 40
1.0
 40
1.0
 10
13.02999999999999
 20
-44.57901066343648
 30
0.0
 10
13.56559195163211
 20
-45.54503249842018
 30
0.0
 10
14.10222500453558
 20
-46.5104965471081
 30
0.0
 10
14.63972339340267
 20
-47.4754841997425
 30
0.0
  0
SPLINE
  5
1EC
330
1F
100
AcDbEntity
  8
1
  6
SLD-Solid
370
    25
100
AcDbSpline
210
0.0
220
0.0
230
1.0
 70
     8
 71
     3
 72
    14
 73
    10
 74
     0
 42
0.000000001
 43
0.00000001
 40
0.0
 40
0.0
 40
0.0
 40
0.0
 40
0.25
 40
0.25
 40
0.5
 40
0.5
 40
0.75
 40
0.75
 40
1.0
 40
1.0
 40
1.0
 40
1.0
 10
13.03
 20
35.43161038841292
 30
0.0
 10
13.05904068229164
 20
35.41088512733873
 30
0.0
 10
13.08275209483376
 20
35.37953864703778
 30
0.0
 10
13.11609658322838
 20
35.28872072742525
 30
0.0
 10
13.12492140067852
 20
35.2307688019602
 30
0.0
 10
13.12507754968095
 20
35.08956907537858
 30
0.0
 10
13.11615053209288
 20
35.00648906177569
 30
0.0
 10
13.08319562521659
 20
34.82779421025372
 30
0.0
 10
13.05911019949692
 20
34.73111937885587
 30
0.0
 10
13.02999999999999
 20
34.63242923389118
 30
0.0
  0
SPLINE
  5
1ED
330
1F
100
AcDbEntity
  8
1
  6
SLD-Solid
370
    25
100
AcDbSpline
210
0.0
220
0.0
230
1.0
 70
     8
 71
     3
 72
    26
 73
    22
 74
     0
 42
0.000000001
 43
0.00000001
 40
0.0
 40
0.0
 40
0.0
 40
0.0
 40
0.0427187053671654
 40
0.0912249282810682
 40
0.1410996582047808
 40
0.1903821602190086
 40
0.2409807740676
 40
0.2924237603678815
 40
0.3452309353757785
 40
0.3990600326066605
 40
0.4543623125469923
 40
0.5097591535293279
 40
0.5667347519028413
 40
0.62257556324083
 40
0.6800699066412796
 40
0.735247738955851
 40
0.7921364836745772
 40
0.8453840225852058
 40
0.9003380982687645
 40
0.9509294257589211
 40
1.0
 40
1.0
 40
1.0
 40
1.0
 10
65.74903367535536
 20
-47.62001902677216
 30
0.0
 10
65.73655009790596
 20
-47.61714623726693
 30
0.0
 10
65.70989167163293
 20
-47.61101145358543
 30
0.0
 10
65.30575755395867
 20
-47.52020630289099
 30
0.0
 10
64.6360604270741
 20
-47.37689554765902
 30
0.0
 10
63.68686091975417
 20
-47.18865923646402
 30
0.0
 10
62.49303650916082
 20
-46.97670328986117
 30
0.0
 10
61.05909127674911
 20
-46.75870306840001
 30
0.0
 10
59.41583846407547
 20
-46.55801304584708
 30
0.0
 10
57.59078626614422
 20
-46.39667116802918
 30
0.0
 10
55.63969296944605
 20
-46.29610777248308
 30
0.0
 10
53.60601388678682
 20
-46.2702185256549
 30
0.0
 10
51.57535672840147
 20
-46.3251259762214
 30
0.0
 10
49.58823332401474
 20
-46.45664545544527
 30
0.0
 10
47.74628798212657
 20
-46.6476666927131
 30
0.0
 10
46.07470763336871
 20
-46.87817096070043
 30
0.0
 10
44.67229618669435
 20
-47.11387908848714
 30
0.0
 10
43.54149823511752
 20
-47.33171413816243
 30
0.0
 10
42.75544716852539
 20
-47.49784019070159
 30
0.0
 10
42.27245971123608
 20
-47.60587100002802
 30
0.0
 10
42.22273143245789
 20
-47.61728721187998
 30
0.0
 10
42.19824669803798
 20
-47.62290821711368
 30
0.0
  0
SPLINE
  5
1EE
330
1F
100
AcDbEntity
  8
1
  6
SLD-Solid
370
    25
100
AcDbSpline
210
0.0
220
0.0
230
1.0
 70
     8
 71
     3
 72
    26
 73
    22
 74
     0
 42
0.000000001
 43
0.00000001
 40
0.0
 40
0.0
 40
0.0
 40
0.0
 40
0.0427187053671651
 40
0.0912249282810678
 40
0.1410996582047806
 40
0.1903821602190086
 40
0.2409807740676006
 40
0.292423760367882
 40
0.3452309353757781
 40
0.39906003260666
 40
0.4543623125469921
 40
0.5097591535293274
 40
0.5667347519028406
 40
0.6225755632408294
 40
0.6800699066412793
 40
0.7352477389558507
 40
0.7921364836745763
 40
0.8453840225852051
 40
0.9003380982687639
 40
0.9509294257589207
 40
1.0
 40
1.0
 40
1.0
 40
1.0
 10
129.2490336753554
 20
-47.62001902677216
 30
0.0
 10
129.236550097906
 20
-47.61714623726693
 30
0.0
 10
129.2098916716329
 20
-47.61101145358542
 30
0.0
 10
128.8057575539587
 20
-47.520206302891
 30
0.0
 10
128.1360604270741
 20
-47.37689554765902
 30
0.0
 10
127.1868609197542
 20
-47.18865923646402
 30
0.0
 10
125.9930365091608
 20
-46.97670328986118
 30
0.0
 10
124.5590912767491
 20
-46.75870306840001
 30
0.0
 10
122.9158384640755
 20
-46.55801304584707
 30
0.0
 10
121.0907862661442
 20
-46.39667116802918
 30
0.0
 10
119.139692969446
 20
-46.29610777248307
 30
0.0
 10
117.1060138867869
 20
-46.27021852565492
 30
0.0
 10
115.0753567284014
 20
-46.32512597622139
 30
0.0
 10
113.0882333240148
 20
-46.45664545544528
 30
0.0
 10
111.2462879821266
 20
-46.64766669271311
 30
0.0
 10
109.5747076333687
 20
-46.87817096070041
 30
0.0
 10
108.1722961866944
 20
-47.11387908848716
 30
0.0
 10
107.0414982351175
 20
-47.33171413816241
 30
0.0
 10
106.2554471685254
 20
-47.49784019070161
 30
0.0
 10
105.7724597112361
 20
-47.60587100002801
 30
0.0
 10
105.7227314324578
 20
-47.61728721187996
 30
0.0
 10
105.698246698038
 20
-47.62290821711368
 30
0.0
  0
SPLINE
  5
1EF
330
1F
100
AcDbEntity
  8
1
  6
SLD-Solid
370
    25
100
AcDbSpline
210
0.0
220
0.0
230
1.0
 70
     8
 71
     3
 72
    26
 73
    22
 74
     0
 42
0.000000001
 43
0.00000001
 40
0.0
 40
0.0
 40
0.0
 40
0.0
 40
0.0427187053671652
 40
0.091224928281068
 40
0.1410996582047807
 40
0.1903821602190083
 40
0.2409807740675997
 40
0.2924237603678814
 40
0.3452309353757784
 40
0.3990600326066598
 40
0.454362312546992
 40
0.5097591535293273
 40
0.5667347519028408
 40
0.6225755632408293
 40
0.6800699066412792
 40
0.7352477389558506
 40
0.7921364836745769
 40
0.8453840225852056
 40
0.900338098268764
 40
0.9509294257589208
 40
1.0
 40
1.0
 40
1.0
 40
1.0
 10
97.49903367535536
 20
-47.62001902677218
 30
0.0
 10
97.48655009790596
 20
-47.61714623726694
 30
0.0
 10
97.45989167163293
 20
-47.61101145358543
 30
0.0
 10
97.05575755395863
 20
-47.52020630289096
 30
0.0
 10
96.38606042707416
 20
-47.37689554765905
 30
0.0
 10
95.43686091975412
 20
-47.18865923646401
 30
0.0
 10
94.24303650916083
 20
-46.97670328986118
 30
0.0
 10
92.80909127674904
 20
-46.75870306840001
 30
0.0
 10
91.16583846407548
 20
-46.55801304584705
 30
0.0
 10
89.34078626614422
 20
-46.39667116802919
 30
0.0
 10
87.38969296944602
 20
-46.29610777248306
 30
0.0
 10
85.35601388678687
 20
-46.27021852565491
 30
0.0
 10
83.32535672840147
 20
-46.32512597622139
 30
0.0
 10
81.3382333240148
 20
-46.45664545544529
 30
0.0
 10
79.49628798212657
 20
-46.64766669271309
 30
0.0
 10
77.82470763336872
 20
-46.87817096070044
 30
0.0
 10
76.42229618669438
 20
-47.11387908848715
 30
0.0
 10
75.29149823511752
 20
-47.33171413816241
 30
0.0
 10
74.5054471685254
 20
-47.4978401907016
 30
0.0
 10
74.02245971123611
 20
-47.60587100002802
 30
0.0
 10
73.97273143245789
 20
-47.61728721187998
 30
0.0
 10
73.94824669803798
 20
-47.62290821711368
 30
0.0
  0
SPLINE
  5
1F0
330
1F
100
AcDbEntity
  8
1
  6
SLD-Solid
370
    25
100
AcDbSpline
210
0.0
220
0.0
230
1.0
 70
     8
 71
     3
 72
    12
 73
     8
 74
     0
 42
0.000000001
 43
0.00000001
 40
0.0
 40
0.0
 40
0.0
 40
0.0
 40
0.2500000000000032
 40
0.2500000000000032
 40
0.5000000000000063
 40
0.5000000000000063
 40
1.0
 40
1.0
 40
1.0
 40
1.0
 10
12.28000000000001
 20
-43.76943596849289
 30
0.0
 10
12.37996960464106
 20
-43.76943596849289
 30
0.0
 10
12.47988502523367
 20
-43.79051518316404
 30
0.0
 10
12.66449294223869
 20
-43.87194262843689
 30
0.0
 10
12.74728498815325
 20
-43.93126060501207
 30
0.0
 10
12.95342033959716
 20
-44.15080408372863
 30
0.0
 10
13.03
 20
-44.35163254795798
 30
0.0
 10
13.03
 20
-44.551021593225
 30
0.0
  0
SPLINE
  5
1F1
330
1F
100
AcDbEntity
  8
1
  6
SLD-Solid
370
    25
100
AcDbSpline
210
0.0
220
0.0
230
1.0
 70
     8
 71
     3
 72
    16
 73
    12
 74
     0
 42
0.000000001
 43
0.00000001
 40
0.0
 40
0.0
 40
0.0
 40
0.0
 40
0.1250000000000001
 40
0.1250000000000001
 40
0.2500000000000003
 40
0.2500000000000003
 40
0.5000000000000002
 40
0.5000000000000002
 40
0.7500000000000001
 40
0.7500000000000001
 40
1.0
 40
1.0
 40
1.0
 40
1.0
 10
13.03000000000001
 20
34.6121429335376
 30
0.0
 10
13.03000000000001
 20
34.56119277402762
 30
0.0
 10
13.0206745626061
 20
34.49413963137997
 30
0.0
 10
12.99367590047851
 20
34.36331338142205
 30
0.0
 10
12.97626449755333
 20
34.29908556562463
 30
0.0
 10
12.91545405813533
 20
34.11096290842625
 30
0.0
 10
12.8627144963386
 20
33.99023971150846
 30
0.0
 10
12.7363415295191
 20
33.76817627154976
 30
0.0
 10
12.66098841639739
 20
33.66394234496751
 30
0.0
 10
12.48671204537782
 20
33.48358218869546
 30
0.0
 10
12.38972674335427
 20
33.40848998465463
 30
0.0
 10
12.28000000000001
 20
33.35547071674117
 30
0.0
  0
SPLINE
  5
1F2
330
1F
100
AcDbEntity
  8
1
  6
SLD-Solid
370
    25
100
AcDbSpline
210
0.0
220
0.0
230
1.0
 70
     8
 71
     3
 72
    14
 73
    10
 74
     0
 42
0.000000001
 43
0.00000001
 40
0.0
 40
0.0
 40
0.0
 40
0.0
 40
0.25
 40
0.25
 40
0.5
 40
0.5
 40
0.75
 40
0.75
 40
1.0
 40
1.0
 40
1.0
 40
1.0
 10
9.2
 20
-44.55102159322499
 30
0.0
 10
9.2
 20
-44.44989183806665
 30
0.0
 10
9.218570807968007
 20
-44.35078207736293
 30
0.0
 10
9.291758043059428
 20
-44.16310224790135
 30
0.0
 10
9.345712371819317
 20
-44.0770601672786
 30
0.0
 10
9.483118314776412
 20
-43.93094620794093
 30
0.0
 10
9.566511130071218
 20
-43.87147748797932
 30
0.0
 10
9.749384791775368
 20
-43.79085954901923
 30
0.0
 10
9.8501554742952
 20
-43.76943596849291
 30
0.0
 10
9.949999999999987
 20
-43.7694359684929
 30
0.0
  0
SPLINE
  5
1F3
330
1F
100
AcDbEntity
  8
1
  6
SLD-Solid
370
    25
100
AcDbSpline
210
0.0
220
0.0
230
1.0
 70
     8
 71
     3
 72
    16
 73
    12
 74
     0
 42
0.000000001
 43
0.00000001
 40
0.0
 40
0.0
 40
0.0
 40
0.0
 40
0.249999999999997
 40
0.249999999999997
 40
0.499999999999994
 40
0.499999999999994
 40
0.749999999999991
 40
0.749999999999991
 40
0.8749999999999954
 40
0.8749999999999954
 40
1.0
 40
1.0
 40
1.0
 40
1.0
 10
9.949999999999987
 20
33.36525953046025
 30
0.0
 10
9.839257595210649
 20
33.42015914282666
 30
0.0
 10
9.740416734001444
 20
33.49854219709403
 30
0.0
 10
9.564708009184061
 20
33.6855356989051
 30
0.0
 10
9.490830483266127
 20
33.79082769792043
 30
0.0
 10
9.364658348120017
 20
34.01955880125705
 30
0.0
 10
9.312951425518134
 20
34.1424743957044
 30
0.0
 10
9.253206550793827
 20
34.33488461785981
 30
0.0
 10
9.236028623043943
 20
34.40121962580662
 30
0.0
 10
9.209723703057032
 20
34.53368853253288
 30
0.0
 10
9.2
 20
34.60516910831216
 30
0.0
 10
9.2
 20
34.65640299543516
 30
0.0
  0
SPLINE
  5
1F4
330
1F
100
AcDbEntity
  8
1
  6
SLD-Solid
370
    25
100
AcDbSpline
210
0.0
220
0.0
230
1.0
 70
     8
 71
     3
 72
    12
 73
     8
 74
     0
 42
0.000000001
 43
0.00000001
 40
0.0
 40
0.0
 40
0.0
 40
0.0
 40
0.2500000000000006
 40
0.2500000000000006
 40
0.5000000000000011
 40
0.5000000000000011
 40
1.0
 40
1.0
 40
1.0
 40
1.0
 10
12.28000000000001
 20
33.35547071674117
 30
0.0
 10
12.10934456477526
 20
33.27301109054179
 30
0.0
 10
11.92465326465504
 20
33.21019284332256
 30
0.0
 10
11.52752277837883
 20
33.124142789094
 30
0.0
 10
11.32193513118782
 20
33.10278110396344
 30
0.0
 10
10.69948105299426
 20
33.10504385732298
 30
0.0
 10
10.28831449591984
 20
33.19754297491611
 30
0.0
 10
9.949999999999987
 20
33.36525953046025
 30
0.0
  0
SPLINE
  5
1F5
330
1F
100
AcDbEntity
  8
1
  6
SLD-Solid
370
    25
100
AcDbSpline
210
0.0
220
0.0
230
1.0
 70
     8
 71
     3
 72
    16
 73
    12
 74
     0
 42
0.000000001
 43
0.00000001
 40
0.0
 40
0.0
 40
0.0
 40
0.0
 40
0.1250000000000023
 40
0.1250000000000023
 40
0.2500000000000046
 40
0.2500000000000046
 40
0.5000000000000031
 40
0.5000000000000031
 40
0.7500000000000016
 40
0.7500000000000016
 40
1.0
 40
1.0
 40
1.0
 40
1.0
 10
9.200000000002262
 20
35.3683101781352
 30
0.0
 10
9.200000000004788
 20
35.31693147873786
 30
0.0
 10
9.20968807886352
 20
35.29149399688279
 30
0.0
 10
9.236073415536922
 20
35.26518486786854
 30
0.0
 10
9.253070624742746
 20
35.26193032552567
 30
0.0
 10
9.313034815215588
 20
35.26168910608485
 30
0.0
 10
9.36392245582808
 20
35.27477154515275
 30
0.0
 10
9.490054525550171
 20
35.31156519648563
 30
0.0
 10
9.565092430043192
 20
35.33621653960021
 30
0.0
 10
9.738924647268888
 20
35.39932894997545
 30
0.0
 10
9.83944594635186
 20
35.438346928317
 30
0.0
 10
9.949999999999987
 20
35.48885481142475
 30
0.0
  0
SPLINE
  5
1F6
330
1F
100
AcDbEntity
  8
1
  6
SLD-Solid
370
    25
100
AcDbSpline
210
0.0
220
0.0
230
1.0
 70
     8
 71
     3
 72
    12
 73
     8
 74
     0
 42
0.000000001
 43
0.00000001
 40
0.0
 40
0.0
 40
0.0
 40
0.0
 40
0.25
 40
0.25
 40
0.5
 40
0.5
 40
1.0
 40
1.0
 40
1.0
 40
1.0
 10
9.949999999999987
 20
35.48885481142475
 30
0.0
 10
10.11915676939237
 20
35.56613601508454
 30
0.0
 10
10.30270770519946
 20
35.62476545355776
 30
0.0
 10
10.6982656039511
 20
35.70597605697658
 30
0.0
 10
10.90345647830329
 20
35.72681273192291
 30
0.0
 10
11.52590240230555
 20
35.72953904175431
 30
0.0
 10
11.93868796900773
 20
35.64974792445469
 30
0.0
 10
12.28000000000001
 20
35.49787263615901
 30
0.0
  0
SPLINE
  5
1F7
330
1F
100
AcDbEntity
  8
1
  6
SLD-Solid
370
    25
100
AcDbSpline
210
0.0
220
0.0
230
1.0
 70
     8
 71
     3
 72
    16
 73
    12
 74
     0
 42
0.000000001
 43
0.00000001
 40
0.0
 40
0.0
 40
0.0
 40
0.0
 40
0.2500000000000002
 40
0.2500000000000002
 40
0.5000000000000004
 40
0.5000000000000004
 40
0.7500000000000007
 40
0.7500000000000007
 40
0.8750000000000003
 40
0.8750000000000003
 40
1.0
 40
1.0
 40
1.0
 40
1.0
 10
12.28000000000001
 20
35.49787263615901
 30
0.0
 10
12.38938127142807
 20
35.44920071538322
 30
0.0
 10
12.48719790588469
 20
35.4125691393556
 30
0.0
 10
12.66235653858859
 20
35.35237067244716
 30
0.0
 10
12.73630362704301
 20
35.33005450148761
 30
0.0
 10
12.86322577731737
 20
35.29810085202675
 30
0.0
 10
12.91570572130093
 20
35.28773767542293
 30
0.0
 10
12.97658934509431
 20
35.29443860847593
 30
0.0
 10
12.99409980251967
 20
35.30029296727562
 30
0.0
 10
13.02084597296051
 20
35.33271449864372
 30
0.0
 10
13.03
 20
35.36068432142828
 30
0.0
 10
13.03
 20
35.41132408805679
 30
0.0
  0
SPLINE
  5
1F8
330
1F
100
AcDbEntity
  8
1
  6
SLD-Solid
370
    25
100
AcDbSpline
210
0.0
220
0.0
230
1.0
 70
     8
 71
     3
 72
    16
 73
    12
 74
     0
 42
0.000000001
 43
0.00000001
 40
0.0
 40
0.0
 40
0.0
 40
0.0
 40
0.2500000000000006
 40
0.2500000000000006
 40
0.5000000000000012
 40
0.5000000000000012
 40
0.7500000000000018
 40
0.7500000000000018
 40
0.8750000000000009
 40
0.8750000000000009
 40
1.0
 40
1.0
 40
1.0
 40
1.0
 10
9.949999999999987
 20
40.29017607249212
 30
0.0
 10
9.839257595210649
 20
40.32798470963448
 30
0.0
 10
9.740416734001444
 20
40.39081531012379
 30
0.0
 10
9.564708009184061
 20
40.54795546550074
 30
0.0
 10
9.490830483266127
 20
40.63949231484413
 30
0.0
 10
9.364658348120017
 20
40.84247699029047
 30
0.0
 10
9.312951425518134
 20
40.95326880810709
 30
0.0
 10
9.253206550793827
 20
41.13218036853985
 30
0.0
 10
9.236028623043957
 20
41.19470581500532
 30
0.0
 10
9.209723703057032
 20
41.32469951294972
 30
0.0
 10
9.2
 20
41.39783900363278
 30
0.0
 10
9.2
 20
41.45885414630705
 30
0.0
  0
SPLINE
  5
1F9
330
1F
100
AcDbEntity
  8
1
  6
SLD-Solid
370
    25
100
AcDbSpline
210
0.0
220
0.0
230
1.0
 70
     8
 71
     3
 72
    16
 73
    12
 74
     0
 42
0.000000001
 43
0.00000001
 40
0.0
 40
0.0
 40
0.0
 40
0.0
 40
0.1250000000000048
 40
0.1250000000000048
 40
0.2500000000000097
 40
0.2500000000000097
 40
0.5000000000000064
 40
0.5000000000000064
 40
0.7500000000000032
 40
0.7500000000000032
 40
1.0
 40
1.0
 40
1.0
 40
1.0
 10
13.03
 20
41.42895438114428
 30
0.0
 10
13.03
 20
41.36827713359687
 30
0.0
 10
13.0206745626061
 20
41.29860125514435
 30
0.0
 10
12.99367590047851
 20
41.16856540733126
 30
0.0
 10
12.97626449755331
 20
41.1073810193664
 30
0.0
 10
12.91545405813532
 20
40.9307974064243
 30
0.0
 10
12.86271449633859
 20
40.8213021261166
 30
0.0
 10
12.73634152951909
 20
40.62320356046863
 30
0.0
 10
12.66098841639739
 20
40.53226162144186
 30
0.0
 10
12.48671204537782
 20
40.38027498384226
 30
0.0
 10
12.38972674335427
 20
40.31995671599471
 30
0.0
 10
12.28000000000001
 20
40.28343379132394
 30
0.0
  0
SPLINE
  5
1FA
330
1F
100
AcDbEntity
  8
1
  6
SLD-Solid
370
    25
100
AcDbSpline
210
0.0
220
0.0
230
1.0
 70
     8
 71
     3
 72
    12
 73
     8
 74
     0
 42
0.000000001
 43
0.00000001
 40
0.0
 40
0.0
 40
0.0
 40
0.0
 40
0.2500000000000006
 40
0.2500000000000006
 40
0.5000000000000011
 40
0.5000000000000011
 40
1.0
 40
1.0
 40
1.0
 40
1.0
 10
12.28000000000001
 20
40.28343379132394
 30
0.0
 10
12.10934456477526
 20
40.22663054158883
 30
0.0
 10
11.92465326465505
 20
40.18318651206221
 30
0.0
 10
11.52752277837883
 20
40.12362389224982
 30
0.0
 10
11.32193513118782
 20
40.10880147711137
 30
0.0
 10
10.69948105299426
 20
40.11037023230881
 30
0.0
 10
10.28831449591981
 20
40.17467189827295
 30
0.0
 10
9.949999999999987
 20
40.29017607249212
 30
0.0
  0
SPLINE
  5
1FB
330
1F
100
AcDbEntity
  8
1
  6
SLD-Solid
370
    25
100
AcDbSpline
210
0.0
220
0.0
230
1.0
 70
     8
 71
     3
 72
    16
 73
    12
 74
     0
 42
0.000000001
 43
0.00000001
 40
0.0
 40
0.0
 40
0.0
 40
0.0
 40
0.125
 40
0.125
 40
0.25
 40
0.25
 40
0.5
 40
0.5
 40
0.75
 40
0.75
 40
1.0
 40
1.0
 40
1.0
 40
1.0
 10
9.199999999999985
 20
41.93454239124897
 30
0.0
 10
9.200000000002511
 20
41.87335478963724
 30
0.0
 10
9.209688078861245
 20
41.83111047963454
 30
0.0
 10
9.236073415534646
 20
41.77192904688972
 30
0.0
 10
9.253070624740484
 20
41.7517445546343
 30
0.0
 10
9.313034815213324
 20
41.70102846576508
 30
0.0
 10
9.363922455825804
 20
41.68155707128337
 30
0.0
 10
9.490054525547894
 20
41.6558721950439
 30
0.0
 10
9.565092430040917
 20
41.6508843791884
 30
0.0
 10
9.738924647266611
 20
41.66113961911403
 30
0.0
 10
9.839445946349585
 20
41.67651281331743
 30
0.0
 10
9.949999999997711
 20
41.7091381742131
 30
0.0
  0
SPLINE
  5
1FC
330
1F
100
AcDbEntity
  8
1
  6
SLD-Solid
370
    25
100
AcDbSpline
210
0.0
220
0.0
230
1.0
 70
     8
 71
     3
 72
    12
 73
     8
 74
     0
 42
0.000000001
 43
0.00000001
 40
0.0
 40
0.0
 40
0.0
 40
0.0
 40
0.2499999999999995
 40
0.2499999999999995
 40
0.499999999999999
 40
0.499999999999999
 40
1.0
 40
1.0
 40
1.0
 40
1.0
 10
9.949999999997711
 20
41.7091381742131
 30
0.0
 10
10.1191567693901
 20
41.75905765221782
 30
0.0
 10
10.30270770519719
 20
41.79673649998858
 30
0.0
 10
10.69826560394882
 20
41.84886357628262
 30
0.0
 10
10.90345647830102
 20
41.86219397810236
 30
0.0
 10
11.52590240230328
 20
41.8639399469176
 30
0.0
 10
11.93868796900545
 20
41.81303425518077
 30
0.0
 10
12.27999999999774
 20
41.71496227396759
 30
0.0
  0
SPLINE
  5
1FD
330
1F
100
AcDbEntity
  8
1
  6
SLD-Solid
370
    25
100
AcDbSpline
210
0.0
220
0.0
230
1.0
 70
     8
 71
     3
 72
    16
 73
    12
 74
     0
 42
0.000000001
 43
0.00000001
 40
0.0
 40
0.0
 40
0.0
 40
0.0
 40
0.2500000000000007
 40
0.2500000000000007
 40
0.5000000000000013
 40
0.5000000000000013
 40
0.750000000000002
 40
0.750000000000002
 40
0.875000000000001
 40
0.875000000000001
 40
1.0
 40
1.0
 40
1.0
 40
1.0
 10
12.27999999999774
 20
41.71496227396759
 30
0.0
 10
12.38938127142579
 20
41.68353285741468
 30
0.0
 10
12.48719790588242
 20
41.66923447164935
 30
0.0
 10
12.66235653858631
 20
41.66075308180663
 30
0.0
 10
12.73630362704073
 20
41.66679667497429
 30
0.0
 10
12.86322577731509
 20
41.69542238629034
 30
0.0
 10
12.91570572129866
 20
41.71723646207228
 30
0.0
 10
12.97658934509204
 20
41.77277628648088
 30
0.0
 10
12.99409980251741
 20
41.79517110958734
 30
0.0
 10
13.02084597295822
 20
41.85934368895653
 30
0.0
 10
13.02999999999772
 20
41.90265050045428
 30
0.0
 10
13.02999999999772
 20
41.96295809683888
 30
0.0
  0
SPLINE
  5
1FE
330
1F
100
AcDbEntity
  8
1
  6
SLD-Solid
370
    25
100
AcDbSpline
210
0.0
220
0.0
230
1.0
 70
     8
 71
     3
 72
    12
 73
     8
 74
     0
 42
0.000000001
 43
0.00000001
 40
0.0
 40
0.0
 40
0.0
 40
0.0
 40
0.2499999999999976
 40
0.2499999999999976
 40
0.4999999999999951
 40
0.4999999999999951
 40
1.0
 40
1.0
 40
1.0
 40
1.0
 10
9.2
 20
44.551021593225
 30
0.0
 10
9.2
 20
44.45000637040341
 30
0.0
 10
9.21852944201225
 20
44.35096603394391
 30
0.0
 10
9.291636095293738
 20
44.16333726336219
 30
0.0
 10
9.345479265017692
 20
44.07739311322197
 30
0.0
 10
9.551372116199955
 20
43.8581972977855
 30
0.0
 10
9.748609240564004
 20
43.76943596849293
 30
0.0
 10
9.949999999999987
 20
43.7694359684929
 30
0.0
  0
SPLINE
  5
1FF
330
1F
100
AcDbEntity
  8
1
  6
SLD-Solid
370
    25
100
AcDbSpline
210
0.0
220
0.0
230
1.0
 70
     8
 71
     3
 72
    10
 73
     6
 74
     0
 42
0.000000001
 43
0.00000001
 40
0.0
 40
0.0
 40
0.0
 40
0.0
 40
0.5
 40
0.5
 40
1.0
 40
1.0
 40
1.0
 40
1.0
 10
12.28000000000001
 20
43.7694359684929
 30
0.0
 10
12.48122846377883
 20
43.76943596849293
 30
0.0
 10
12.67900932610887
 20
43.85856672856716
 30
0.0
 10
12.95290221427664
 20
44.15022946993261
 30
0.0
 10
13.03
 20
44.34957328976747
 30
0.0
 10
13.03
 20
44.551021593225
 30
0.0
  0
SPLINE
  5
200
330
1F
100
AcDbEntity
  8
SK3
  6
SLD-Dashed
370
    18
100
AcDbSpline
210
0.0
220
0.0
230
1.0
 70
     8
 71
     3
 72
    30
 73
    26
 74
     0
 42
0.000000001
 43
0.00000001
 40
0.4999999999999936
 40
0.4999999999999936
 40
0.4999999999999936
 40
0.4999999999999936
 40
0.5624999999999941
 40
0.5624999999999941
 40
0.6249999999999947
 40
0.6249999999999947
 40
0.6874999999999953
 40
0.6874999999999953
 40
0.7499999999999959
 40
0.7499999999999959
 40
0.7812499999999964
 40
0.7812499999999964
 40
0.8124999999999969
 40
0.8124999999999969
 40
0.8437499999999974
 40
0.8437499999999974
 40
0.8749999999999979
 40
0.8749999999999979
 40
0.9062499999999984
 40
0.9062499999999984
 40
0.937499999999999
 40
0.937499999999999
 40
0.9687499999999994
 40
0.9687499999999994
 40
1.0
 40
1.0
 40
1.0
 40
1.0
 10
9.602846279599772
 20
-14.27915034605703
 30
0.0
 10
9.686456538693793
 20
-14.42125418637641
 30
0.0
 10
9.797407143447817
 20
-14.51131733768216
 30
0.0
 10
10.04010223607202
 20
-14.63242374926581
 30
0.0
 10
10.1757110634753
 20
-14.66434400040093
 30
0.0
 10
10.46843928875954
 20
-14.6878509066433
 30
0.0
 10
10.62555865364896
 20
-14.68003033606002
 30
0.0
 10
10.98145473780836
 20
-14.62436653420486
 30
0.0
 10
11.18157682258661
 20
-14.57632221838472
 30
0.0
 10
11.50801002825755
 20
-14.45860893436551
 30
0.0
 10
11.61873162334194
 20
-14.41242944660509
 30
0.0
 10
11.84220113938104
 20
-14.30063256215536
 30
0.0
 10
11.95412269444689
 20
-14.23490090158665
 30
0.0
 10
12.16107863552153
 20
-14.08747705033183
 30
0.0
 10
12.25901625186733
 20
-14.00366784802361
 30
0.0
 10
12.43052677631515
 20
-13.82249974419392
 30
0.0
 10
12.50593330594166
 20
-13.72350506925877
 30
0.0
 10
12.6300030332496
 20
-13.51367430078407
 30
0.0
 10
12.67841410243613
 20
-13.40398486856759
 30
0.0
 10
12.74789370637346
 20
-13.17359881812363
 30
0.0
 10
12.76810124630627
 20
-13.05468203931825
 30
0.0
 10
12.77891027826543
 20
-12.81644825424548
 30
0.0
 10
12.76940813581851
 20
-12.69449512908378
 30
0.0
 10
12.72129905847914
 20
-12.45817259633889
 30
0.0
 10
12.68301625646431
 20
-12.34304803310331
 30
0.0
 10
12.63040931107566
 20
-12.23233436389471
 30
0.0
  0
SPLINE
  5
201
330
1F
100
AcDbEntity
  8
SK3
  6
SLD-Dashed
370
    18
100
AcDbSpline
210
0.0
220
0.0
230
1.0
 70
     8
 71
     3
 72
    30
 73
    26
 74
     0
 42
0.000000001
 43
0.00000001
 40
0.0
 40
0.0
 40
0.0
 40
0.0
 40
0.0312499999999994
 40
0.0312499999999994
 40
0.0624999999999988
 40
0.0624999999999988
 40
0.0937499999999982
 40
0.0937499999999982
 40
0.1249999999999976
 40
0.1249999999999976
 40
0.1874999999999968
 40
0.1874999999999968
 40
0.2499999999999959
 40
0.2499999999999959
 40
0.312499999999995
 40
0.312499999999995
 40
0.3749999999999942
 40
0.3749999999999942
 40
0.406249999999994
 40
0.406249999999994
 40
0.4374999999999938
 40
0.4374999999999938
 40
0.4687499999999937
 40
0.4687499999999937
 40
0.4999999999999936
 40
0.4999999999999936
 40
0.4999999999999936
 40
0.4999999999999936
 10
12.63040931107566
 20
-12.23233436389471
 30
0.0
 10
12.57780236568702
 20
-12.12162069468612
 30
0.0
 10
12.51267206459308
 20
-12.01896209858504
 30
0.0
 10
12.35821503903349
 20
-11.83123217673026
 30
0.0
 10
12.2680065585952
 20
-11.74609765066666
 30
0.0
 10
12.07343499093626
 20
-11.60605794329097
 30
0.0
 10
11.96643370486067
 20
-11.5492012180452
 30
0.0
 10
11.74573264298214
 20
-11.46981719393689
 30
0.0
 10
11.6340655249776
 20
-11.44748668283024
 30
0.0
 10
11.29951801742689
 20
-11.42770686560524
 30
0.0
 10
11.0919842806995
 20
-11.47806879673262
 30
0.0
 10
10.72217844091648
 20
-11.64236243808864
 30
0.0
 10
10.55844908096595
 20
-11.75496051093636
 30
0.0
 10
10.25324958882708
 20
-12.02428585488716
 30
0.0
 10
10.11576882260312
 20
-12.17795893248198
 30
0.0
 10
9.862525619365334
 20
-12.52988094775971
 30
0.0
 10
9.74626089640203
 20
-12.72918710194006
 30
0.0
 10
9.605692660850485
 20
-13.06645756895029
 30
0.0
 10
9.565421636406098
 20
-13.18319961587415
 30
0.0
 10
9.503286004234598
 20
-13.4293677611186
 30
0.0
 10
9.482363995141311
 20
-13.5575206983002
 30
0.0
 10
9.470908412243725
 20
-13.80546799718779
 30
0.0
 10
9.480664817462653
 20
-13.92083957613645
 30
0.0
 10
9.525951505689648
 20
-14.1223947507326
 30
0.0
 10
9.561041150052754
 20
-14.20809842589734
 30
0.0
 10
9.602846279599772
 20
-14.27915034605703
 30
0.0
  0
SPLINE
  5
202
330
1F
100
AcDbEntity
  8
SK3
  6
SLD-Dashed
370
    18
100
AcDbSpline
210
0.0
220
0.0
230
1.0
 70
     8
 71
     3
 72
    26
 73
    22
 74
     0
 42
0.000000001
 43
0.00000001
 40
0.5000000000000013
 40
0.5000000000000013
 40
0.5000000000000013
 40
0.5000000000000013
 40
0.5625000000000013
 40
0.5625000000000013
 40
0.6250000000000012
 40
0.6250000000000012
 40
0.6562500000000011
 40
0.6562500000000011
 40
0.6875000000000009
 40
0.6875000000000009
 40
0.7187500000000007
 40
0.7187500000000007
 40
0.7500000000000004
 40
0.7500000000000004
 40
0.8125000000000003
 40
0.8125000000000003
 40
0.8750000000000002
 40
0.8750000000000002
 40
0.9375000000000002
 40
0.9375000000000002
 40
1.0
 40
1.0
 40
1.0
 40
1.0
 10
11.63869831779571
 20
-9.819390371339228
 30
0.0
 10
11.80317915771351
 20
-9.806594466981581
 30
0.0
 10
11.95081782962318
 20
-9.812432081454693
 30
0.0
 10
12.22616299685252
 20
-9.868839301598985
 30
0.0
 10
12.35236515469919
 20
-9.918953620877934
 30
0.0
 10
12.5187466142634
 20
-10.04837289060637
 30
0.0
 10
12.57051953396256
 20
-10.10115000339699
 30
0.0
 10
12.66070184098386
 20
-10.23071744026807
 30
0.0
 10
12.70001796005849
 20
-10.30921538460779
 30
0.0
 10
12.7562433913955
 20
-10.49493258066049
 30
0.0
 10
12.7732316530057
 20
-10.60488156995156
 30
0.0
 10
12.7764946288975
 20
-10.84110300053569
 30
0.0
 10
12.7627867066929
 20
-10.96977043023329
 30
0.0
 10
12.68516730486993
 20
-11.34647137591012
 30
0.0
 10
12.58996305158962
 20
-11.58088814423497
 30
0.0
 10
12.3731560345373
 20
-11.98947715399203
 30
0.0
 10
12.24747178673945
 20
-12.17132846963893
 30
0.0
 10
11.97676737519451
 20
-12.4898134904303
 30
0.0
 10
11.83102686354769
 20
-12.62828009284684
 30
0.0
 10
11.50508373269932
 20
-12.86276351579439
 30
0.0
 10
11.32747339457477
 20
-12.95749122616767
 30
0.0
 10
11.12500000000001
 20
-13.01159523973384
 30
0.0
  0
SPLINE
  5
203
330
1F
100
AcDbEntity
  8
SK3
  6
SLD-Dashed
370
    18
100
AcDbSpline
210
0.0
220
0.0
230
1.0
 70
     8
 71
     3
 72
    34
 73
    30
 74
     0
 42
0.000000001
 43
0.00000001
 40
0.0
 40
0.0
 40
0.0
 40
0.0
 40
0.0312500000000009
 40
0.0312500000000009
 40
0.0625000000000018
 40
0.0625000000000018
 40
0.093750000000002
 40
0.093750000000002
 40
0.1250000000000022
 40
0.1250000000000022
 40
0.1562500000000023
 40
0.1562500000000023
 40
0.1875000000000025
 40
0.1875000000000025
 40
0.2187500000000027
 40
0.2187500000000027
 40
0.2500000000000029
 40
0.2500000000000029
 40
0.2812500000000031
 40
0.2812500000000031
 40
0.3125000000000032
 40
0.3125000000000032
 40
0.3750000000000032
 40
0.3750000000000032
 40
0.4062500000000029
 40
0.4062500000000029
 40
0.4375000000000027
 40
0.4375000000000027
 40
0.5000000000000013
 40
0.5000000000000013
 40
0.5000000000000013
 40
0.5000000000000013
 10
11.12500000000001
 20
-13.01159523973384
 30
0.0
 10
11.02376330271261
 20
-13.03864724651693
 30
0.0
 10
10.91875434041333
 20
-13.05441768585464
 30
0.0
 10
10.69982193729478
 20
-13.05649587060871
 30
0.0
 10
10.58565504429784
 20
-13.04203538439392
 30
0.0
 10
10.3643330690885
 20
-12.97958779527628
 30
0.0
 10
10.25386240054305
 20
-12.93066318687881
 30
0.0
 10
10.04998753866611
 20
-12.80335962284301
 30
0.0
 10
9.955887873020986
 20
-12.72514830576756
 30
0.0
 10
9.789076352163557
 20
-12.54575166602604
 30
0.0
 10
9.718022202672067
 20
-12.44674722204855
 30
0.0
 10
9.600536001433166
 20
-12.2325086195109
 30
0.0
 10
9.555159683901207
 20
-12.11851015366411
 30
0.0
 10
9.49353895391429
 20
-11.88585378314761
 30
0.0
 10
9.476799814585949
 20
-11.76451266100634
 30
0.0
 10
9.473480888754674
 20
-11.5253325924178
 30
0.0
 10
9.486354225371793
 20
-11.40705029377195
 30
0.0
 10
9.541906609790443
 20
-11.17282024047875
 30
0.0
 10
9.5839391259038
 20
-11.06025657731943
 30
0.0
 10
9.694361385739564
 20
-10.84625731946297
 30
0.0
 10
9.764046986917323
 20
-10.74326010657128
 30
0.0
 10
10.00399120049175
 20
-10.46156575413965
 30
0.0
 10
10.21277179464264
 20
-10.30327029353933
 30
0.0
 10
10.5444699112901
 20
-10.1221917168868
 30
0.0
 10
10.65925898590059
 20
-10.07012567259634
 30
0.0
 10
10.87934718809656
 20
-9.984066675225883
 30
0.0
 10
10.98764418607853
 20
-9.94872682514815
 30
0.0
 10
11.29210738731387
 20
-9.863765363482678
 30
0.0
 10
11.47421747787791
 20
-9.832186275696875
 30
0.0
 10
11.63869831779571
 20
-9.819390371339228
 30
0.0
  0
SPLINE
  5
204
330
1F
100
AcDbEntity
  8
1
  6
SLD-Dashed
370
    18
100
AcDbSpline
210
0.0
220
0.0
230
1.0
 70
    24
 71
     3
 72
    10
 73
     6
 74
     0
 42
0.000000001
 43
0.00000001
 40
0.0
 40
0.0
 40
0.0
 40
0.0
 40
0.0484830891424671
 40
0.7151050011769687
 40
1.0
 40
1.0
 40
1.0
 40
1.0
 10
19.05
 20
-35.1
 30
0.0
 10
19.05021945704659
 20
-35.1
 30
0.0
 10
19.05345635540293
 20
-35.1
 30
0.0
 10
19.18053755879255
 20
-35.10000000000002
 30
0.0
 10
19.23555037806436
 20
-35.1
 30
0.0
 10
19.25202184263093
 20
-35.09999999999999
 30
0.0
  0
SPLINE
  5
205
330
1F
100
AcDbEntity
  8
1
  6
SLD-Dashed
370
    18
100
AcDbSpline
210
0.0
220
0.0
230
1.0
 70
    24
 71
     3
 72
     8
 73
     4
 74
     0
 42
0.000000001
 43
0.00000001
 40
0.0
 40
0.0
 40
0.0
 40
0.0
 40
0.4999999999999999
 40
0.4999999999999999
 40
0.4999999999999999
 40
0.4999999999999999
 10
19.32612895288457
 20
-35.09999999999998
 30
0.0
 10
19.32612327228256
 20
-35.09999999999998
 30
0.0
 10
19.2586767786002
 20
-35.1
 30
0.0
 10
19.18940198849286
 20
-35.1
 30
0.0
  0
SPLINE
  5
206
330
1F
100
AcDbEntity
  8
1
  6
SLD-Dashed
370
    18
100
AcDbSpline
210
0.0
220
0.0
230
1.0
 70
    24
 71
     2
 72
     6
 73
     3
 74
     0
 42
0.000000001
 43
0.00000001
 40
0.4999999999999999
 40
0.4999999999999999
 40
0.4999999999999999
 40
1.0
 40
1.0
 40
1.0
 10
19.18940198849286
 20
-35.1
 30
0.0
 10
19.12012945393014
 20
-35.09999999999999
 30
0.0
 10
19.05
 20
-35.1
 30
0.0
  0
SPLINE
  5
207
330
1F
100
AcDbEntity
  8
1
  6
SLD-Dashed
370
    18
100
AcDbSpline
210
0.0
220
0.0
230
1.0
 70
    24
 71
     2
 72
     6
 73
     3
 74
     0
 42
0.000000001
 43
0.00000001
 40
0.0
 40
0.0
 40
0.0
 40
0.25
 40
0.25
 40
0.25
 10
3.200000000005143
 20
-35.0999999999857
 30
0.0
 10
3.178023089480092
 20
-35.09999999998995
 30
0.0
 10
3.159393676864686
 20
-35.09999999999354
 30
0.0
  0
SPLINE
  5
208
330
1F
100
AcDbEntity
  8
1
  6
SLD-Dashed
370
    18
100
AcDbSpline
210
0.0
220
0.0
230
1.0
 70
    24
 71
     3
 72
     8
 73
     4
 74
     0
 42
0.000000001
 43
0.00000001
 40
0.25
 40
0.25
 40
0.25
 40
0.25
 40
0.5
 40
0.5
 40
0.5
 40
0.5
 10
3.159393676864686
 20
-35.09999999999354
 30
0.0
 10
3.140764264251625
 20
-35.09999999999712
 30
0.0
 10
3.125935313376446
 20
-35.09999999999999
 30
0.0
 10
3.125925297481347
 20
-35.1
 30
0.0
  0
SPLINE
  5
209
330
1F
100
AcDbEntity
  8
1
  6
SLD-Dashed
370
    18
100
AcDbSpline
210
0.0
220
0.0
230
1.0
 70
    24
 71
     3
 72
     8
 73
     4
 74
     0
 42
0.000000001
 43
0.00000001
 40
0.5
 40
0.5
 40
0.5
 40
0.5
 40
0.75
 40
0.75
 40
0.75
 40
0.75
 10
3.125925297481347
 20
-35.1
 30
0.0
 10
3.125915281586247
 20
-35.1
 30
0.0
 10
3.14073647508116
 20
-35.09999999999713
 30
0.0
 10
3.159374026153516
 20
-35.09999999999354
 30
0.0
  0
SPLINE
  5
20A
330
1F
100
AcDbEntity
  8
1
  6
SLD-Dashed
370
    18
100
AcDbSpline
210
0.0
220
0.0
230
1.0
 70
    24
 71
     2
 72
     6
 73
     3
 74
     0
 42
0.000000001
 43
0.00000001
 40
0.75
 40
0.75
 40
0.75
 40
1.0
 40
1.0
 40
1.0
 10
3.159374026153516
 20
-35.09999999999354
 30
0.0
 10
3.178011577228246
 20
-35.09999999998995
 30
0.0
 10
3.200000000005143
 20
-35.0999999999857
 30
0.0
  0
SPLINE
  5
20B
330
1F
100
AcDbEntity
  8
SK3
  6
SLD-Dashed
370
    18
100
AcDbSpline
210
0.0
220
0.0
230
1.0
 70
     8
 71
     3
 72
    30
 73
    26
 74
     0
 42
0.000000001
 43
0.00000001
 40
0.4999999999999964
 40
0.4999999999999964
 40
0.4999999999999964
 40
0.4999999999999964
 40
0.5624999999999966
 40
0.5624999999999966
 40
0.6249999999999967
 40
0.6249999999999967
 40
0.656249999999997
 40
0.656249999999997
 40
0.6874999999999973
 40
0.6874999999999973
 40
0.7187499999999977
 40
0.7187499999999977
 40
0.749999999999998
 40
0.749999999999998
 40
0.7812499999999984
 40
0.7812499999999984
 40
0.8124999999999988
 40
0.8124999999999988
 40
0.8437499999999991
 40
0.8437499999999991
 40
0.8749999999999994
 40
0.8749999999999994
 40
0.9374999999999998
 40
0.9374999999999998
 40
1.0
 40
1.0
 40
1.0
 40
1.0
 10
11.12563408671258
 20
-2.208076131944327
 30
0.0
 10
10.91012831143848
 20
-2.207994055743373
 30
0.0
 10
10.69273190607928
 20
-2.250950739379296
 30
0.0
 10
10.29545710457799
 20
-2.4132215112748
 30
0.0
 10
10.11161887920198
 20
-2.533970605358114
 30
0.0
 10
9.88325685805247
 20
-2.7563935005223
 30
0.0
 10
9.813570300258576
 20
-2.838822643502555
 30
0.0
 10
9.693828420307678
 20
-3.012044829892139
 30
0.0
 10
9.643049505613192
 20
-3.103292515775111
 30
0.0
 10
9.559939885115263
 20
-3.294987142140771
 30
0.0
 10
9.528110569339123
 20
-3.394937637341195
 30
0.0
 10
9.485932078998157
 20
-3.595278526154794
 30
0.0
 10
9.475093311114847
 20
-3.696889173272898
 30
0.0
 10
9.474907881274767
 20
-3.90187232153312
 30
0.0
 10
9.48552400342549
 20
-4.002149034246276
 30
0.0
 10
9.527345716529704
 20
-4.198506717829973
 30
0.0
 10
9.559089732329273
 20
-4.295610098711385
 30
0.0
 10
9.641733638388356
 20
-4.479370670401467
 30
0.0
 10
9.692330936314553
 20
-4.566117382228348
 30
0.0
 10
9.811994061612566
 20
-4.729695673261633
 30
0.0
 10
9.881475262593503
 20
-4.806554854908274
 30
0.0
 10
10.10919445985289
 20
-5.012639596316023
 30
0.0
 10
10.29295795309709
 20
-5.122781885588346
 30
0.0
 10
10.6897685348748
 20
-5.27005508488778
 30
0.0
 10
10.90666257993482
 20
-5.309061659790635
 30
0.0
 10
11.12499999999998
 20
-5.309061659790635
 30
0.0
  0
SPLINE
  5
20C
330
1F
100
AcDbEntity
  8
SK3
  6
SLD-Dashed
370
    18
100
AcDbSpline
210
0.0
220
0.0
230
1.0
 70
     8
 71
     3
 72
    34
 73
    30
 74
     0
 42
0.000000001
 43
0.00000001
 40
0.0
 40
0.0
 40
0.0
 40
0.0
 40
0.0312499999999998
 40
0.0312499999999998
 40
0.0624999999999996
 40
0.0624999999999996
 40
0.0937499999999994
 40
0.0937499999999994
 40
0.1249999999999992
 40
0.1249999999999992
 40
0.1874999999999986
 40
0.1874999999999986
 40
0.2499999999999981
 40
0.2499999999999981
 40
0.2812499999999978
 40
0.2812499999999978
 40
0.3124999999999977
 40
0.3124999999999977
 40
0.3437499999999974
 40
0.3437499999999974
 40
0.3749999999999973
 40
0.3749999999999973
 40
0.4062499999999971
 40
0.4062499999999971
 40
0.4374999999999968
 40
0.4374999999999968
 40
0.4687499999999967
 40
0.4687499999999967
 40
0.4999999999999964
 40
0.4999999999999964
 40
0.4999999999999964
 40
0.4999999999999964
 10
11.12499999999998
 20
-5.309061659790635
 30
0.0
 10
11.23416871003258
 20
-5.309061659790635
 30
0.0
 10
11.34148252556934
 20
-5.299537349621519
 30
0.0
 10
11.55256160023163
 20
-5.262182100287879
 30
0.0
 10
11.65743203047545
 20
-5.233886962156424
 30
0.0
 10
11.85717198594061
 20
-5.159939537795346
 30
0.0
 10
11.95188217044847
 20
-5.114630280030584
 30
0.0
 10
12.13112457505724
 20
-5.007215473783237
 30
0.0
 10
12.21587296426145
 20
-4.944611663283499
 30
0.0
 10
12.44381779984261
 20
-4.738598197540293
 30
0.0
 10
12.56670516674999
 20
-4.571329361139985
 30
0.0
 10
12.73138667216639
 20
-4.206060482656704
 30
0.0
 10
12.774877920358
 20
-4.004112810281367
 30
0.0
 10
12.77506064455625
 20
-3.700306253597574
 30
0.0
 10
12.76431481439133
 20
-3.596867972028003
 30
0.0
 10
12.7221592689036
 20
-3.395807648785803
 30
0.0
 10
12.69097028794157
 20
-3.297550131697899
 30
0.0
 10
12.60821939488964
 20
-3.105767645319002
 30
0.0
 10
12.55662183160312
 20
-3.012826865172881
 30
0.0
 10
12.43728120518577
 20
-2.839925186415154
 30
0.0
 10
12.36897548289649
 20
-2.758757585038248
 30
0.0
 10
12.21525208496078
 20
-2.608656191484392
 30
0.0
 10
12.13209058330412
 20
-2.541870610032908
 30
0.0
 10
11.95357507686053
 20
-2.424499981749678
 30
0.0
 10
11.85705358084935
 20
-2.373501415354244
 30
0.0
 10
11.65740944182682
 20
-2.291755408436402
 30
0.0
 10
11.55456819584581
 20
-2.260806334720901
 30
0.0
 10
11.34284591554825
 20
-2.218868681349198
 30
0.0
 10
11.23338697434964
 20
-2.208117170044807
 30
0.0
 10
11.12563408671258
 20
-2.208076131944327
 30
0.0
  0
SPLINE
  5
20D
330
1F
100
AcDbEntity
  8
SK3
  6
SLD-Dashed
370
    18
100
AcDbSpline
210
0.0
220
0.0
230
1.0
 70
     8
 71
     3
 72
    16
 73
    12
 74
     0
 42
0.000000001
 43
0.00000001
 40
0.4999999999999997
 40
0.4999999999999997
 40
0.4999999999999997
 40
0.4999999999999997
 40
0.6249999999999998
 40
0.6249999999999998
 40
0.7499999999999998
 40
0.7499999999999998
 40
0.8749999999999999
 40
0.8749999999999999
 40
0.9375
 40
0.9375
 40
1.0
 40
1.0
 40
1.0
 40
1.0
 10
57.34590222161129
 20
25.58999898233889
 30
0.0
 10
57.34546919668662
 20
25.59019733953737
 30
0.0
 10
57.40783118935438
 20
25.56145182491861
 30
0.0
 10
57.65541084719408
 20
25.4494690293457
 30
0.0
 10
57.84344435055541
 20
25.36500547318807
 30
0.0
 10
58.32807943245832
 20
25.15429877624274
 30
0.0
 10
58.6249326374077
 20
25.02788763440476
 30
0.0
 10
59.15150635439784
 20
24.81434213899204
 30
0.0
 10
59.34103078215505
 20
24.73903965574812
 30
0.0
 10
59.74271407810383
 20
24.58387907651861
 30
0.0
 10
59.95538993950525
 20
24.50380309166768
 30
0.0
 10
60.17999999999999
 20
24.42206001937592
 30
0.0
  0
SPLINE
  5
20E
330
1F
100
AcDbEntity
  8
SK3
  6
SLD-Dashed
370
    18
100
AcDbSpline
210
0.0
220
0.0
230
1.0
 70
     8
 71
     3
 72
    18
 73
    14
 74
     0
 42
0.000000001
 43
0.00000001
 40
0.0
 40
0.0
 40
0.0
 40
0.0
 40
0.1250000000000003
 40
0.1250000000000003
 40
0.1875000000000001
 40
0.1875000000000001
 40
0.2499999999999999
 40
0.2499999999999999
 40
0.3749999999999997
 40
0.3749999999999997
 40
0.4374999999999997
 40
0.4374999999999997
 40
0.4999999999999997
 40
0.4999999999999997
 40
0.4999999999999997
 40
0.4999999999999997
 10
60.18000000000001
 20
24.42206001937591
 30
0.0
 10
59.73094975979673
 20
24.58548433869055
 30
0.0
 10
59.33288979054621
 20
24.74088007030432
 30
0.0
 10
58.80964847189465
 20
24.95293216703048
 30
0.0
 10
58.64762877379415
 20
25.02011727684466
 30
0.0
 10
58.34897075770695
 20
25.14596826436109
 30
0.0
 10
58.21171507796755
 20
25.20490591184153
 30
0.0
 10
57.84511205481771
 20
25.36425118007355
 30
0.0
 10
57.6608054628438
 20
25.44704651476252
 30
0.0
 10
57.4736666522481
 20
25.53166547153323
 30
0.0
 10
57.42626434328521
 20
25.55327129411614
 30
0.0
 10
57.36240960773944
 20
25.58242582636088
 30
0.0
 10
57.34611873407366
 20
25.58989980373964
 30
0.0
 10
57.34590222161132
 20
25.58999898233887
 30
0.0
  0
SPLINE
  5
20F
330
1F
100
AcDbEntity
  8
SK3
  6
SLD-Dashed
370
    18
100
AcDbSpline
210
0.0
220
0.0
230
1.0
 70
     8
 71
     3
 72
    12
 73
     8
 74
     0
 42
0.000000001
 43
0.00000001
 40
0.0
 40
0.0
 40
0.0
 40
0.0
 40
0.4999999999999962
 40
0.4999999999999962
 40
0.7499999999999981
 40
0.7499999999999981
 40
1.0
 40
1.0
 40
1.0
 40
1.0
 10
60.17999999999996
 20
24.42206001937595
 30
0.0
 10
60.21525346589174
 20
24.4092301104904
 30
0.0
 10
60.24857421407701
 20
24.38499249666976
 30
0.0
 10
60.29072215987186
 20
24.33249178961623
 30
0.0
 10
60.30353152582707
 20
24.31198156528051
 30
0.0
 10
60.32306181433126
 20
24.2651959832098
 30
0.0
 10
60.32999999999991
 20
24.23806780136171
 30
0.0
 10
60.33
 20
24.21029978315075
 30
0.0
  0
SPLINE
  5
210
330
1F
100
AcDbEntity
  8
SK3
  6
SLD-Dashed
370
    18
100
AcDbSpline
210
0.0
220
0.0
230
1.0
 70
     8
 71
     3
 72
    12
 73
     8
 74
     0
 42
0.000000001
 43
0.00000001
 40
0.0
 40
0.0
 40
0.0
 40
0.0
 40
0.2500000000000062
 40
0.2500000000000062
 40
0.5000000000000123
 40
0.5000000000000123
 40
1.0
 40
1.0
 40
1.0
 40
1.0
 10
60.33
 20
24.21029978315074
 30
0.0
 10
60.32999999999345
 20
24.23804174078995
 30
0.0
 10
60.32306089853687
 20
24.26518863471937
 30
0.0
 10
60.30355935384613
 20
24.31192443119712
 30
0.0
 10
60.29076380999724
 20
24.33242504921175
 30
0.0
 10
60.2486934680078
 20
24.38487356295517
 30
0.0
 10
60.21521178936959
 20
24.40924527796115
 30
0.0
 10
60.17999999999999
 20
24.42206001937592
 30
0.0
  0
SPLINE
  5
211
330
1F
100
AcDbEntity
  8
SK3
  6
SLD-Dashed
370
    18
100
AcDbSpline
210
0.0
220
0.0
230
1.0
 70
     8
 71
     3
 72
    46
 73
    42
 74
     0
 42
0.000000001
 43
0.00000001
 40
0.0
 40
0.0
 40
0.0
 40
0.0
 40
0.062500000000005
 40
0.062500000000005
 40
0.0781250000000058
 40
0.0781250000000058
 40
0.0937500000000065
 40
0.0937500000000065
 40
0.125000000000008
 40
0.125000000000008
 40
0.1562500000000094
 40
0.1562500000000094
 40
0.1875000000000109
 40
0.1875000000000109
 40
0.2031250000000116
 40
0.2031250000000116
 40
0.2187500000000124
 40
0.2187500000000124
 40
0.2500000000000138
 40
0.2500000000000138
 40
0.2656250000000142
 40
0.2656250000000142
 40
0.2812500000000145
 40
0.2812500000000145
 40
0.3125000000000148
 40
0.3125000000000148
 40
0.3281250000000149
 40
0.3281250000000149
 40
0.3437500000000151
 40
0.3437500000000151
 40
0.3750000000000154
 40
0.3750000000000154
 40
0.4062500000000158
 40
0.4062500000000158
 40
0.4375000000000161
 40
0.4375000000000161
 40
0.4687500000000165
 40
0.4687500000000165
 40
0.4843750000000167
 40
0.4843750000000167
 40
0.5000000000000169
 40
0.5000000000000169
 40
0.5000000000000169
 40
0.5000000000000169
 10
60.33
 20
24.16826463753655
 30
0.0
 10
61.11152267127979
 20
23.88570628243496
 30
0.0
 10
62.00002080308406
 20
23.59604379640796
 30
0.0
 10
63.25202915790054
 20
23.27056992767686
 30
0.0
 10
63.51073017864092
 20
23.2071213791815
 30
0.0
 10
64.03507204750666
 20
23.08717389841517
 30
0.0
 10
64.3013163723288
 20
23.0304875272077
 30
0.0
 10
65.11235637589044
 20
22.87178028595942
 30
0.0
 10
65.66938748659263
 20
22.78108984998656
 30
0.0
 10
66.81827777343902
 20
22.63821410433151
 30
0.0
 10
67.41601876229872
 20
22.58603375774353
 30
0.0
 10
68.60474786103777
 20
22.53030140589483
 30
0.0
 10
69.19890805352446
 20
22.52592035876034
 30
0.0
 10
70.08984389618756
 20
22.55456564452881
 30
0.0
 10
70.38677161001489
 20
22.56997664094707
 30
0.0
 10
70.98052359989477
 20
22.61243979613147
 30
0.0
 10
71.27747874319843
 20
22.63957581893584
 30
0.0
 10
72.15112496114465
 20
22.73593922702177
 30
0.0
 10
72.71656570184551
 20
22.82044068538259
 30
0.0
 10
73.54091339317756
 20
22.97142471123552
 30
0.0
 10
73.81170961685402
 20
23.02579640289493
 30
0.0
 10
74.34540421787467
 20
23.14164026894761
 30
0.0
 10
74.60786604592134
 20
23.20305369473826
 30
0.0
 10
75.37157788201027
 20
23.3932537104437
 30
0.0
 10
75.8535231751993
 20
23.5288531261733
 30
0.0
 10
76.53806297659413
 20
23.73830281917284
 30
0.0
 10
76.75981247961647
 20
23.80913838332278
 30
0.0
 10
77.19045550987124
 20
23.95173010127802
 30
0.0
 10
77.39976309332086
 20
24.02364939301189
 30
0.0
 10
77.99918696655587
 20
24.235899024425
 30
0.0
 10
78.3640697012099
 20
24.37368582095619
 30
0.0
 10
79.02633324018929
 20
24.63388011523127
 30
0.0
 10
79.32372607687007
 20
24.7563325477558
 30
0.0
 10
79.84736935999112
 20
24.97780790322474
 30
0.0
 10
80.0669545163584
 20
25.07397232863443
 30
0.0
 10
80.42194066301023
 20
25.23170736322381
 30
0.0
 10
80.55770565051535
 20
25.29345745061762
 30
0.0
 10
80.69593718730017
 20
25.35664834697161
 30
0.0
 10
80.73113569677007
 20
25.37283340213629
 30
0.0
 10
80.77790978213744
 20
25.39436803066951
 30
0.0
 10
80.78967301607557
 20
25.39980294706765
 30
0.0
 10
80.79008860155461
 20
25.39999473961945
 30
0.0
  0
SPLINE
  5
212
330
1F
100
AcDbEntity
  8
SK3
  6
SLD-Dashed
370
    18
100
AcDbSpline
210
0.0
220
0.0
230
1.0
 70
     8
 71
     2
 72
     6
 73
     3
 74
     0
 42
0.000000001
 43
0.00000001
 40
0.0
 40
0.0
 40
0.0
 40
0.0312500000000001
 40
0.0312500000000001
 40
0.0312500000000001
 10
95.4459
 20
25.39999999999998
 30
0.0
 10
95.52414767501283
 20
25.36362068160133
 30
0.0
 10
95.67647519441947
 20
25.29441665560354
 30
0.0
  0
SPLINE
  5
213
330
1F
100
AcDbEntity
  8
SK3
  6
SLD-Dashed
370
    18
100
AcDbSpline
210
0.0
220
0.0
230
1.0
 70
     8
 71
     3
 72
     8
 73
     4
 74
     0
 42
0.000000001
 43
0.00000001
 40
0.0312500000000001
 40
0.0312500000000001
 40
0.0312500000000001
 40
0.0312500000000001
 40
0.0468750000000002
 40
0.0468750000000002
 40
0.0468750000000002
 40
0.0468750000000002
 10
95.67647519441944
 20
25.29441665560355
 30
0.0
 10
95.75263895412276
 20
25.25981464260463
 30
0.0
 10
95.84746937126395
 20
25.21698625941338
 30
0.0
 10
95.96130714559663
 20
25.16629365486574
 30
0.0
  0
SPLINE
  5
214
330
1F
100
AcDbEntity
  8
SK3
  6
SLD-Dashed
370
    18
100
AcDbSpline
210
0.0
220
0.0
230
1.0
 70
     8
 71
     3
 72
     8
 73
     4
 74
     0
 42
0.000000001
 43
0.00000001
 40
0.0468750000000002
 40
0.0468750000000002
 40
0.0468750000000002
 40
0.0468750000000002
 40
0.0625000000000002
 40
0.0625000000000002
 40
0.0625000000000002
 40
0.0625000000000002
 10
95.96130714559669
 20
25.16629365486572
 30
0.0
 10
96.07514491992941
 20
25.11560105031809
 30
0.0
 10
96.20755497977107
 20
25.05725205475574
 30
0.0
 10
96.35572715294919
 20
24.99315137610848
 30
0.0
  0
SPLINE
  5
215
330
1F
100
AcDbEntity
  8
SK3
  6
SLD-Dashed
370
    18
100
AcDbSpline
210
0.0
220
0.0
230
1.0
 70
     8
 71
     3
 72
     8
 73
     4
 74
     0
 42
0.000000001
 43
0.00000001
 40
0.0625000000000002
 40
0.0625000000000002
 40
0.0625000000000002
 40
0.0625000000000002
 40
0.0937500000000004
 40
0.0937500000000004
 40
0.0937500000000004
 40
0.0937500000000004
 10
96.35572715294919
 20
24.99315137610848
 30
0.0
 10
96.6520714993053
 20
24.86495001881398
 30
0.0
 10
97.01314641973372
 20
24.71276976122546
 30
0.0
 10
97.43841470050576
 20
24.54418875599956
 30
0.0
  0
SPLINE
  5
216
330
1F
100
AcDbEntity
  8
SK3
  6
SLD-Dashed
370
    18
100
AcDbSpline
210
0.0
220
0.0
230
1.0
 70
     8
 71
     3
 72
     8
 73
     4
 74
     0
 42
0.000000001
 43
0.00000001
 40
0.0937500000000004
 40
0.0937500000000004
 40
0.0937500000000004
 40
0.0937500000000004
 40
0.1093750000000004
 40
0.1093750000000004
 40
0.1093750000000004
 40
0.1093750000000004
 10
97.4384147005057
 20
24.54418875599958
 30
0.0
 10
97.65104884089173
 20
24.45989825338662
 30
0.0
 10
97.880436631029
 20
24.37131837197848
 30
0.0
 10
98.12150107858267
 20
24.28150560251989
 30
0.0
  0
SPLINE
  5
217
330
1F
100
AcDbEntity
  8
SK3
  6
SLD-Dashed
370
    18
100
AcDbSpline
210
0.0
220
0.0
230
1.0
 70
     8
 71
     3
 72
     8
 73
     4
 74
     0
 42
0.000000001
 43
0.00000001
 40
0.1093750000000004
 40
0.1093750000000004
 40
0.1093750000000004
 40
0.1093750000000004
 40
0.1250000000000005
 40
0.1250000000000005
 40
0.1250000000000005
 40
0.1250000000000005
 10
98.12150107858272
 20
24.28150560251987
 30
0.0
 10
98.3625655261364
 20
24.19169283306128
 30
0.0
 10
98.61630978191224
 20
24.1002340304711
 30
0.0
 10
98.88266716817893
 20
24.00831338774242
 30
0.0
  0
SPLINE
  5
218
330
1F
100
AcDbEntity
  8
SK3
  6
SLD-Dashed
370
    18
100
AcDbSpline
210
0.0
220
0.0
230
1.0
 70
     8
 71
     3
 72
     8
 73
     4
 74
     0
 42
0.000000001
 43
0.00000001
 40
0.1250000000000005
 40
0.1250000000000005
 40
0.1250000000000005
 40
0.1250000000000005
 40
0.1406250000000005
 40
0.1406250000000005
 40
0.1406250000000005
 40
0.1406250000000005
 10
98.88266716817887
 20
24.00831338774244
 30
0.0
 10
99.14902455444555
 20
23.91639274501375
 30
0.0
 10
99.42799436621137
 20
23.82400498631544
 30
0.0
 10
99.71995458548614
 20
23.73237771666929
 30
0.0
  0
SPLINE
  5
219
330
1F
100
AcDbEntity
  8
SK3
  6
SLD-Dashed
370
    18
100
AcDbSpline
210
0.0
220
0.0
230
1.0
 70
     8
 71
     3
 72
     8
 73
     4
 74
     0
 42
0.000000001
 43
0.00000001
 40
0.1406250000000005
 40
0.1406250000000005
 40
0.1406250000000005
 40
0.1406250000000005
 40
0.1562500000000006
 40
0.1562500000000006
 40
0.1562500000000006
 40
0.1562500000000006
 10
99.71995458548619
 20
23.73237771666927
 30
0.0
 10
100.0119148047609
 20
23.64075044702312
 30
0.0
 10
100.3184645724216
 20
23.54944199957732
 30
0.0
 10
100.6347662114791
 20
23.46136217966619
 30
0.0
  0
SPLINE
  5
21A
330
1F
100
AcDbEntity
  8
SK3
  6
SLD-Dashed
370
    18
100
AcDbSpline
210
0.0
220
0.0
230
1.0
 70
     8
 71
     3
 72
     8
 73
     4
 74
     0
 42
0.000000001
 43
0.00000001
 40
0.1562500000000006
 40
0.1562500000000006
 40
0.1562500000000006
 40
0.1562500000000006
 40
0.1875000000000002
 40
0.1875000000000002
 40
0.1875000000000002
 40
0.1875000000000002
 10
100.6347662114791
 20
23.46136217966619
 30
0.0
 10
101.267369489594
 20
23.28520253984393
 30
0.0
 10
101.9338620635569
 20
23.12304074379187
 30
0.0
 10
102.6357992611262
 20
22.98462997586535
 30
0.0
  0
SPLINE
  5
21B
330
1F
100
AcDbEntity
  8
SK3
  6
SLD-Dashed
370
    18
100
AcDbSpline
210
0.0
220
0.0
230
1.0
 70
     8
 71
     3
 72
     8
 73
     4
 74
     0
 42
0.000000001
 43
0.00000001
 40
0.1875000000000002
 40
0.1875000000000002
 40
0.1875000000000002
 40
0.1875000000000002
 40
0.2031250000000001
 40
0.2031250000000001
 40
0.2031250000000001
 40
0.2031250000000001
 10
102.6357992611262
 20
22.98462997586536
 30
0.0
 10
102.9867678599108
 20
22.9154245919021
 30
0.0
 10
103.3466627235133
 20
22.8521690152731
 30
0.0
 10
103.7161097339798
 20
22.79622595954524
 30
0.0
  0
SPLINE
  5
21C
330
1F
100
AcDbEntity
  8
SK3
  6
SLD-Dashed
370
    18
100
AcDbSpline
210
0.0
220
0.0
230
1.0
 70
     8
 71
     3
 72
     8
 73
     4
 74
     0
 42
0.000000001
 43
0.00000001
 40
0.2031250000000001
 40
0.2031250000000001
 40
0.2031250000000001
 40
0.2031250000000001
 40
0.2187499999999999
 40
0.2187499999999999
 40
0.2187499999999999
 40
0.2187499999999999
 10
103.7161097339798
 20
22.79622595954524
 30
0.0
 10
104.0855567444463
 20
22.74028290381739
 30
0.0
 10
104.4648890249117
 20
22.69178064718698
 30
0.0
 10
104.8440787372214
 20
22.65288020596046
 30
0.0
  0
SPLINE
  5
21D
330
1F
100
AcDbEntity
  8
SK3
  6
SLD-Dashed
370
    18
100
AcDbSpline
210
0.0
220
0.0
230
1.0
 70
     8
 71
     3
 72
     8
 73
     4
 74
     0
 42
0.000000001
 43
0.00000001
 40
0.2187499999999999
 40
0.2187499999999999
 40
0.2187499999999999
 40
0.2187499999999999
 40
0.2500000000000001
 40
0.2500000000000001
 40
0.2500000000000001
 40
0.2500000000000001
 10
104.8440787372214
 20
22.65288020596045
 30
0.0
 10
105.6024581618407
 20
22.57507932350742
 30
0.0
 10
106.3699755432952
 20
22.53409906051513
 30
0.0
 10
107.146889106173
 20
22.53337119163127
 30
0.0
  0
SPLINE
  5
21E
330
1F
100
AcDbEntity
  8
SK3
  6
SLD-Dashed
370
    18
100
AcDbSpline
210
0.0
220
0.0
230
1.0
 70
     8
 71
     3
 72
     8
 73
     4
 74
     0
 42
0.000000001
 43
0.00000001
 40
0.2500000000000001
 40
0.2500000000000001
 40
0.2500000000000001
 40
0.2500000000000001
 40
0.2656249999999999
 40
0.2656249999999999
 40
0.2656249999999999
 40
0.2656249999999999
 10
107.1468891061729
 20
22.53337119163127
 30
0.0
 10
107.5353458876118
 20
22.53300725718935
 30
0.0
 10
107.9287029693789
 20
22.54284991107922
 30
0.0
 10
108.3177421663591
 20
22.56267445670181
 30
0.0
  0
SPLINE
  5
21F
330
1F
100
AcDbEntity
  8
SK3
  6
SLD-Dashed
370
    18
100
AcDbSpline
210
0.0
220
0.0
230
1.0
 70
     8
 71
     3
 72
     8
 73
     4
 74
     0
 42
0.000000001
 43
0.00000001
 40
0.2656249999999999
 40
0.2656249999999999
 40
0.2656249999999999
 40
0.2656249999999999
 40
0.2812499999999998
 40
0.2812499999999998
 40
0.2812499999999998
 40
0.2812499999999998
 10
108.3177421663591
 20
22.56267445670181
 30
0.0
 10
108.7067813633391
 20
22.58249900232439
 30
0.0
 10
109.0904215979037
 20
22.61208288790949
 30
0.0
 10
109.4689215509592
 20
22.65053225806556
 30
0.0
  0
SPLINE
  5
220
330
1F
100
AcDbEntity
  8
SK3
  6
SLD-Dashed
370
    18
100
AcDbSpline
210
0.0
220
0.0
230
1.0
 70
     8
 71
     3
 72
     8
 73
     4
 74
     0
 42
0.000000001
 43
0.00000001
 40
0.2812499999999998
 40
0.2812499999999998
 40
0.2812499999999998
 40
0.2812499999999998
 40
0.2968749999999996
 40
0.2968749999999996
 40
0.2968749999999996
 40
0.2968749999999996
 10
109.4689215509592
 20
22.65053225806556
 30
0.0
 10
109.8474215040146
 20
22.68898162822161
 30
0.0
 10
110.2207803322164
 20
22.73629742549862
 30
0.0
 10
110.5891221410076
 20
22.79158722629234
 30
0.0
  0
SPLINE
  5
221
330
1F
100
AcDbEntity
  8
SK3
  6
SLD-Dashed
370
    18
100
AcDbSpline
210
0.0
220
0.0
230
1.0
 70
     8
 71
     3
 72
     8
 73
     4
 74
     0
 42
0.000000001
 43
0.00000001
 40
0.2968749999999996
 40
0.2968749999999996
 40
0.2968749999999996
 40
0.2968749999999996
 40
0.3124999999999994
 40
0.3124999999999994
 40
0.3124999999999994
 40
0.3124999999999994
 10
110.5891221410076
 20
22.79158722629234
 30
0.0
 10
110.9574639497987
 20
22.84687702708606
 30
0.0
 10
111.3225214575967
 20
22.91049505610701
 30
0.0
 10
111.678203196549
 20
22.98030253204168
 30
0.0
  0
SPLINE
  5
222
330
1F
100
AcDbEntity
  8
SK3
  6
SLD-Dashed
370
    18
100
AcDbSpline
210
0.0
220
0.0
230
1.0
 70
     8
 71
     3
 72
     8
 73
     4
 74
     0
 42
0.000000001
 43
0.00000001
 40
0.3124999999999994
 40
0.3124999999999994
 40
0.3124999999999994
 40
0.3124999999999994
 40
0.3437499999999991
 40
0.3437499999999991
 40
0.3437499999999991
 40
0.3437499999999991
 10
111.678203196549
 20
22.98030253204169
 30
0.0
 10
112.3895666744537
 20
23.11991748391102
 30
0.0
 10
113.0583508752558
 20
23.28266066234532
 30
0.0
 10
113.6884227552796
 20
23.45779794647333
 30
0.0
  0
SPLINE
  5
223
330
1F
100
AcDbEntity
  8
SK3
  6
SLD-Dashed
370
    18
100
AcDbSpline
210
0.0
220
0.0
230
1.0
 70
     8
 71
     3
 72
     8
 73
     4
 74
     0
 42
0.000000001
 43
0.00000001
 40
0.3437499999999991
 40
0.3437499999999991
 40
0.3437499999999991
 40
0.3437499999999991
 40
0.3593749999999989
 40
0.3593749999999989
 40
0.3593749999999989
 40
0.3593749999999989
 10
113.6884227552795
 20
23.45779794647331
 30
0.0
 10
114.0034586952914
 20
23.54536658853732
 30
0.0
 10
114.3095437917957
 20
23.63632375235923
 30
0.0
 10
114.6040551253366
 20
23.72861747799571
 30
0.0
  0
SPLINE
  5
224
330
1F
100
AcDbEntity
  8
SK3
  6
SLD-Dashed
370
    18
100
AcDbSpline
210
0.0
220
0.0
230
1.0
 70
     8
 71
     3
 72
     8
 73
     4
 74
     0
 42
0.000000001
 43
0.00000001
 40
0.3593749999999989
 40
0.3593749999999989
 40
0.3593749999999989
 40
0.3593749999999989
 40
0.3749999999999987
 40
0.3749999999999987
 40
0.3749999999999987
 40
0.3749999999999987
 10
114.6040551253366
 20
23.72861747799571
 30
0.0
 10
114.8985664588776
 20
23.82091120363218
 30
0.0
 10
115.1789814071686
 20
23.91370733012528
 30
0.0
 10
115.4459480785322
 20
24.00576589032049
 30
0.0
  0
SPLINE
  5
225
330
1F
100
AcDbEntity
  8
SK3
  6
SLD-Dashed
370
    18
100
AcDbSpline
210
0.0
220
0.0
230
1.0
 70
     8
 71
     3
 72
     8
 73
     4
 74
     0
 42
0.000000001
 43
0.00000001
 40
0.3749999999999987
 40
0.3749999999999987
 40
0.3749999999999987
 40
0.3749999999999987
 40
0.4062499999999988
 40
0.4062499999999988
 40
0.4062499999999988
 40
0.4062499999999988
 10
115.4459480785322
 20
24.0057658903205
 30
0.0
 10
115.9798814212594
 20
24.18988301071089
 30
0.0
 10
116.4604752569479
 20
24.3710682338012
 30
0.0
 10
116.8871583020888
 20
24.54005724710236
 30
0.0
  0
SPLINE
  5
226
330
1F
100
AcDbEntity
  8
SK3
  6
SLD-Dashed
370
    18
100
AcDbSpline
210
0.0
220
0.0
230
1.0
 70
     8
 71
     3
 72
     8
 73
     4
 74
     0
 42
0.000000001
 43
0.00000001
 40
0.4062499999999988
 40
0.4062499999999988
 40
0.4062499999999988
 40
0.4062499999999988
 40
0.4218749999999988
 40
0.4218749999999988
 40
0.4218749999999988
 40
0.4218749999999988
 10
116.8871583020888
 20
24.54005724710236
 30
0.0
 10
117.1004998246593
 20
24.62455175375295
 30
0.0
 10
117.300061518514
 20
24.70594754453067
 30
0.0
 10
117.4814333853174
 20
24.78143013999352
 30
0.0
  0
SPLINE
  5
227
330
1F
100
AcDbEntity
  8
SK3
  6
SLD-Dashed
370
    18
100
AcDbSpline
210
0.0
220
0.0
230
1.0
 70
     8
 71
     3
 72
     8
 73
     4
 74
     0
 42
0.000000001
 43
0.00000001
 40
0.4218749999999988
 40
0.4218749999999988
 40
0.4218749999999988
 40
0.4218749999999988
 40
0.4374999999999988
 40
0.4374999999999988
 40
0.4374999999999988
 40
0.4374999999999988
 10
117.4814333853174
 20
24.7814301399935
 30
0.0
 10
117.6628052521208
 20
24.85691273545636
 30
0.0
 10
117.8272614524307
 20
24.92698340009033
 30
0.0
 10
117.9749158344488
 20
24.99083434867387
 30
0.0
  0
SPLINE
  5
228
330
1F
100
AcDbEntity
  8
SK3
  6
SLD-Dashed
370
    18
100
AcDbSpline
210
0.0
220
0.0
230
1.0
 70
     8
 71
     3
 72
     8
 73
     4
 74
     0
 42
0.000000001
 43
0.00000001
 40
0.4374999999999988
 40
0.4374999999999988
 40
0.4374999999999988
 40
0.4374999999999988
 40
0.4531249999999989
 40
0.4531249999999989
 40
0.4531249999999989
 40
0.4531249999999989
 10
117.9749158344488
 20
24.99083434867389
 30
0.0
 10
118.1225702164669
 20
25.05468529725743
 30
0.0
 10
118.2534238635496
 20
25.11232049528211
 30
0.0
 10
118.3670481450935
 20
25.16289035357667
 30
0.0
  0
SPLINE
  5
229
330
1F
100
AcDbEntity
  8
SK3
  6
SLD-Dashed
370
    18
100
AcDbSpline
210
0.0
220
0.0
230
1.0
 70
     8
 71
     3
 72
     8
 73
     4
 74
     0
 42
0.000000001
 43
0.00000001
 40
0.4531249999999989
 40
0.4531249999999989
 40
0.4531249999999989
 40
0.4531249999999989
 40
0.4687499999999989
 40
0.4687499999999989
 40
0.4687499999999989
 40
0.4687499999999989
 10
118.3670481450935
 20
25.16289035357667
 30
0.0
 10
118.4806724266373
 20
25.21346021187122
 30
0.0
 10
118.5773093918163
 20
25.25707620972448
 30
0.0
 10
118.6551857177784
 20
25.29244565685038
 30
0.0
  0
SPLINE
  5
22A
330
1F
100
AcDbEntity
  8
SK3
  6
SLD-Dashed
370
    18
100
AcDbSpline
210
0.0
220
0.0
230
1.0
 70
     8
 71
     3
 72
     8
 73
     4
 74
     0
 42
0.000000001
 43
0.00000001
 40
0.4687499999999989
 40
0.4687499999999989
 40
0.4687499999999989
 40
0.4687499999999989
 40
0.4999999999999992
 40
0.4999999999999992
 40
0.4999999999999992
 40
0.4999999999999992
 10
118.6551857177784
 20
25.29244565685038
 30
0.0
 10
118.8109383697025
 20
25.3631845511022
 30
0.0
 10
118.8885156610767
 20
25.39926882874578
 30
0.0
 10
118.8900762143021
 20
25.39998902290918
 30
0.0
  0
SPLINE
  5
22B
330
1F
100
AcDbEntity
  8
SK3
  6
SLD-Dashed
370
    18
100
AcDbSpline
210
0.0
220
0.0
230
1.0
 70
     8
 71
     3
 72
     8
 73
     4
 74
     0
 42
0.000000001
 43
0.00000001
 40
0.5156249999999992
 40
0.5156249999999992
 40
0.5156249999999992
 40
0.5156249999999992
 40
0.5312499999999993
 40
0.5312499999999993
 40
0.5312499999999993
 40
0.5312499999999993
 10
118.8343837764499
 20
25.37433510477491
 30
0.0
 10
118.7962761500642
 20
25.35681432275682
 30
0.0
 10
118.7383844865441
 20
25.33025030257937
 30
0.0
 10
118.6623431644567
 20
25.29569719087203
 30
0.0
  0
SPLINE
  5
22C
330
1F
100
AcDbEntity
  8
SK3
  6
SLD-Dashed
370
    18
100
AcDbSpline
210
0.0
220
0.0
230
1.0
 70
     8
 71
     3
 72
     8
 73
     4
 74
     0
 42
0.000000001
 43
0.00000001
 40
0.5312499999999993
 40
0.5312499999999993
 40
0.5312499999999993
 40
0.5312499999999993
 40
0.5624999999999997
 40
0.5624999999999997
 40
0.5624999999999997
 40
0.5624999999999997
 10
118.6623431644567
 20
25.29569719087203
 30
0.0
 10
118.510260520282
 20
25.22659096745739
 30
0.0
 10
118.2853990699682
 20
25.12523283009001
 30
0.0
 10
117.9885465328491
 20
24.99673176356364
 30
0.0
  0
SPLINE
  5
22D
330
1F
100
AcDbEntity
  8
SK3
  6
SLD-Dashed
370
    18
100
AcDbSpline
210
0.0
220
0.0
230
1.0
 70
     8
 71
     3
 72
     8
 73
     4
 74
     0
 42
0.000000001
 43
0.00000001
 40
0.5624999999999997
 40
0.5624999999999997
 40
0.5624999999999997
 40
0.5624999999999997
 40
0.5781249999999997
 40
0.5781249999999997
 40
0.5781249999999997
 40
0.5781249999999997
 10
117.9885465328491
 20
24.99673176356364
 30
0.0
 10
117.8401202642895
 20
24.93248123030045
 30
0.0
 10
117.6734995482908
 20
24.86143210893114
 30
0.0
 10
117.4924689141259
 20
24.78602489203848
 30
0.0
  0
SPLINE
  5
22E
330
1F
100
AcDbEntity
  8
SK3
  6
SLD-Dashed
370
    18
100
AcDbSpline
210
0.0
220
0.0
230
1.0
 70
     8
 71
     3
 72
     8
 73
     4
 74
     0
 42
0.000000001
 43
0.00000001
 40
0.5781249999999997
 40
0.5781249999999997
 40
0.5781249999999997
 40
0.5781249999999997
 40
0.5937499999999998
 40
0.5937499999999998
 40
0.5937499999999998
 40
0.5937499999999998
 10
117.4924689141259
 20
24.78602489203848
 30
0.0
 10
117.3114382799609
 20
24.71061767514583
 30
0.0
 10
117.1152295766766
 20
24.63051339514239
 30
0.0
 10
116.9041150112888
 20
24.54677793729845
 30
0.0
  0
SPLINE
  5
22F
330
1F
100
AcDbEntity
  8
SK3
  6
SLD-Dashed
370
    18
100
AcDbSpline
210
0.0
220
0.0
230
1.0
 70
     8
 71
     3
 72
     8
 73
     4
 74
     0
 42
0.000000001
 43
0.00000001
 40
0.5937499999999998
 40
0.5937499999999998
 40
0.5937499999999998
 40
0.5937499999999998
 40
0.6093749999999998
 40
0.6093749999999998
 40
0.6093749999999998
 40
0.6093749999999998
 10
116.9041150112888
 20
24.54677793729842
 30
0.0
 10
116.6930004459009
 20
24.46304247945447
 30
0.0
 10
116.4669798346512
 20
24.37567079096578
 30
0.0
 10
116.2258125536598
 20
24.2857229632399
 30
0.0
  0
SPLINE
  5
230
330
1F
100
AcDbEntity
  8
SK3
  6
SLD-Dashed
370
    18
100
AcDbSpline
210
0.0
220
0.0
230
1.0
 70
     8
 71
     3
 72
     8
 73
     4
 74
     0
 42
0.000000001
 43
0.00000001
 40
0.6093749999999998
 40
0.6093749999999998
 40
0.6093749999999998
 40
0.6093749999999998
 40
0.6249999999999998
 40
0.6249999999999998
 40
0.6249999999999998
 40
0.6249999999999998
 10
116.2258125536599
 20
24.28572296323992
 30
0.0
 10
115.9846452726685
 20
24.19577513551404
 30
0.0
 10
115.7272794072605
 20
24.10291316215216
 30
0.0
 10
115.4593777202076
 20
24.01040016511919
 30
0.0
  0
SPLINE
  5
231
330
1F
100
AcDbEntity
  8
SK3
  6
SLD-Dashed
370
    18
100
AcDbSpline
210
0.0
220
0.0
230
1.0
 70
     8
 71
     3
 72
     8
 73
     4
 74
     0
 42
0.000000001
 43
0.00000001
 40
0.6249999999999998
 40
0.6249999999999998
 40
0.6249999999999998
 40
0.6249999999999998
 40
0.6562499999999999
 40
0.6562499999999999
 40
0.6562499999999999
 40
0.6562499999999999
 10
115.4593777202076
 20
24.01040016511919
 30
0.0
 10
114.9235743461021
 20
23.82537417105329
 30
0.0
 10
114.3424411397876
 20
23.64024324620017
 30
0.0
 10
113.7142792826482
 20
23.46499827480131
 30
0.0
  0
SPLINE
  5
232
330
1F
100
AcDbEntity
  8
SK3
  6
SLD-Dashed
370
    18
100
AcDbSpline
210
0.0
220
0.0
230
1.0
 70
     8
 71
     3
 72
     8
 73
     4
 74
     0
 42
0.000000001
 43
0.00000001
 40
0.6562499999999999
 40
0.6562499999999999
 40
0.6562499999999999
 40
0.6562499999999999
 40
0.6875
 40
0.6875
 40
0.6875
 40
0.6875
 10
113.7142792826482
 20
23.4649982748013
 30
0.0
 10
113.0861174255088
 20
23.28975330340229
 30
0.0
 10
112.4045322184627
 20
23.12354341405593
 30
0.0
 10
111.7012390059036
 20
22.98483472802492
 30
0.0
  0
SPLINE
  5
233
330
1F
100
AcDbEntity
  8
SK3
  6
SLD-Dashed
370
    18
100
AcDbSpline
210
0.0
220
0.0
230
1.0
 70
     8
 71
     3
 72
     8
 73
     4
 74
     0
 42
0.000000001
 43
0.00000001
 40
0.6875
 40
0.6875
 40
0.6875
 40
0.6875
 40
0.7187500000000001
 40
0.7187500000000001
 40
0.7187500000000001
 40
0.7187500000000001
 10
111.7012390059035
 20
22.98483472802492
 30
0.0
 10
110.9979457933443
 20
22.84612604199427
 30
0.0
 10
110.2674940249471
 20
22.73296138464613
 30
0.0
 10
109.5073209301114
 20
22.6544652111688
 30
0.0
  0
SPLINE
  5
234
330
1F
100
AcDbEntity
  8
SK3
  6
SLD-Dashed
370
    18
100
AcDbSpline
210
0.0
220
0.0
230
1.0
 70
     8
 71
     3
 72
     8
 73
     4
 74
     0
 42
0.000000001
 43
0.00000001
 40
0.7187500000000001
 40
0.7187500000000001
 40
0.7187500000000001
 40
0.7187500000000001
 40
0.7343750000000002
 40
0.7343750000000002
 40
0.7343750000000002
 40
0.7343750000000002
 10
109.5073209301114
 20
22.6544652111688
 30
0.0
 10
109.1272343826935
 20
22.61521712443002
 30
0.0
 10
108.7374281984026
 20
22.58463157614984
 30
0.0
 10
108.349735938069
 20
22.56432740892853
 30
0.0
  0
SPLINE
  5
235
330
1F
100
AcDbEntity
  8
SK3
  6
SLD-Dashed
370
    18
100
AcDbSpline
210
0.0
220
0.0
230
1.0
 70
     8
 71
     3
 72
     8
 73
     4
 74
     0
 42
0.000000001
 43
0.00000001
 40
0.7343750000000002
 40
0.7343750000000002
 40
0.7343750000000002
 40
0.7343750000000002
 40
0.7500000000000002
 40
0.7500000000000002
 40
0.7500000000000002
 40
0.7500000000000002
 10
108.349735938069
 20
22.56432740892853
 30
0.0
 10
107.9620436777353
 20
22.5440232417072
 30
0.0
 10
107.5746501933986
 20
22.53370564583258
 30
0.0
 10
107.1875507881193
 20
22.53336978401845
 30
0.0
  0
SPLINE
  5
236
330
1F
100
AcDbEntity
  8
SK3
  6
SLD-Dashed
370
    18
100
AcDbSpline
210
0.0
220
0.0
230
1.0
 70
     8
 71
     3
 72
     8
 73
     4
 74
     0
 42
0.000000001
 43
0.00000001
 40
0.7500000000000002
 40
0.7500000000000002
 40
0.7500000000000002
 40
0.7500000000000002
 40
0.7656250000000002
 40
0.7656250000000002
 40
0.7656250000000002
 40
0.7656250000000002
 10
107.1875507881193
 20
22.53336978401845
 30
0.0
 10
106.80045138284
 20
22.53303392220434
 30
0.0
 10
106.4136460676431
 20
22.54267982805778
 30
0.0
 10
106.0271365850291
 20
22.56222375834483
 30
0.0
  0
SPLINE
  5
237
330
1F
100
AcDbEntity
  8
SK3
  6
SLD-Dashed
370
    18
100
AcDbSpline
210
0.0
220
0.0
230
1.0
 70
     8
 71
     3
 72
     8
 73
     4
 74
     0
 42
0.000000001
 43
0.00000001
 40
0.7656250000000002
 40
0.7656250000000002
 40
0.7656250000000002
 40
0.7656250000000002
 40
0.7812500000000003
 40
0.7812500000000003
 40
0.7812500000000003
 40
0.7812500000000003
 10
106.0271365850291
 20
22.56222375834483
 30
0.0
 10
105.6406271024151
 20
22.58176768863186
 30
0.0
 10
105.2521878623361
 20
22.61145600615714
 30
0.0
 10
104.869733977051
 20
22.65026265415574
 30
0.0
  0
SPLINE
  5
238
330
1F
100
AcDbEntity
  8
SK3
  6
SLD-Dashed
370
    18
100
AcDbSpline
210
0.0
220
0.0
230
1.0
 70
     8
 71
     3
 72
     8
 73
     4
 74
     0
 42
0.000000001
 43
0.00000001
 40
0.7812500000000003
 40
0.7812500000000003
 40
0.7812500000000003
 40
0.7812500000000003
 40
0.8125000000000004
 40
0.8125000000000004
 40
0.8125000000000004
 40
0.8125000000000004
 10
104.869733977051
 20
22.65026265415574
 30
0.0
 10
104.104826206481
 20
22.7278759501529
 30
0.0
 10
103.3697929662298
 20
22.84068935981252
 30
0.0
 10
102.662037304485
 20
22.97947065106966
 30
0.0
  0
SPLINE
  5
239
330
1F
100
AcDbEntity
  8
SK3
  6
SLD-Dashed
370
    18
100
AcDbSpline
210
0.0
220
0.0
230
1.0
 70
     8
 71
     3
 72
     8
 73
     4
 74
     0
 42
0.000000001
 43
0.00000001
 40
0.8125000000000004
 40
0.8125000000000004
 40
0.8125000000000004
 40
0.8125000000000004
 40
0.8281250000000004
 40
0.8281250000000004
 40
0.8281250000000004
 40
0.8281250000000004
 10
102.662037304485
 20
22.97947065106966
 30
0.0
 10
102.3081594736126
 20
23.04886129669826
 30
0.0
 10
101.9596035856042
 20
23.12514134386488
 30
0.0
 10
101.621785031546
 20
23.20588011833003
 30
0.0
  0
SPLINE
  5
23A
330
1F
100
AcDbEntity
  8
SK3
  6
SLD-Dashed
370
    18
100
AcDbSpline
210
0.0
220
0.0
230
1.0
 70
     8
 71
     3
 72
     8
 73
     4
 74
     0
 42
0.000000001
 43
0.00000001
 40
0.8281250000000004
 40
0.8281250000000004
 40
0.8281250000000004
 40
0.8281250000000004
 40
0.8437500000000006
 40
0.8437500000000006
 40
0.8437500000000006
 40
0.8437500000000006
 10
101.621785031546
 20
23.20588011833003
 30
0.0
 10
101.2839664774878
 20
23.28661889279517
 30
0.0
 10
100.9580997847052
 20
23.37143368300634
 30
0.0
 10
100.6434952874456
 20
23.45893291124181
 30
0.0
  0
SPLINE
  5
23B
330
1F
100
AcDbEntity
  8
SK3
  6
SLD-Dashed
370
    18
100
AcDbSpline
210
0.0
220
0.0
230
1.0
 70
     8
 71
     3
 72
     8
 73
     4
 74
     0
 42
0.000000001
 43
0.00000001
 40
0.8437500000000006
 40
0.8437500000000006
 40
0.8437500000000006
 40
0.8437500000000006
 40
0.8750000000000006
 40
0.8750000000000006
 40
0.8750000000000006
 40
0.8750000000000006
 10
100.6434952874456
 20
23.45893291124181
 30
0.0
 10
100.0142862929264
 20
23.63393136771274
 30
0.0
 10
99.42959605128581
 20
23.81969644823013
 30
0.0
 10
98.88916667267752
 20
24.0060711665109
 30
0.0
  0
SPLINE
  5
23C
330
1F
100
AcDbEntity
  8
SK3
  6
SLD-Dashed
370
    18
100
AcDbSpline
210
0.0
220
0.0
230
1.0
 70
     8
 71
     3
 72
     8
 73
     4
 74
     0
 42
0.000000001
 43
0.00000001
 40
0.8750000000000006
 40
0.8750000000000006
 40
0.8750000000000006
 40
0.8750000000000006
 40
0.9062500000000007
 40
0.9062500000000007
 40
0.9062500000000007
 40
0.9062500000000007
 10
98.88916667267752
 20
24.0060711665109
 30
0.0
 10
98.34873729406918
 20
24.19244588479166
 30
0.0
 10
97.86858359580248
 20
24.37377411350291
 30
0.0
 10
97.445857851852
 20
24.54123916062095
 30
0.0
  0
SPLINE
  5
23D
330
1F
100
AcDbEntity
  8
SK3
  6
SLD-Dashed
370
    18
100
AcDbSpline
210
0.0
220
0.0
230
1.0
 70
     8
 71
     3
 72
     8
 73
     4
 74
     0
 42
0.000000001
 43
0.00000001
 40
0.9062500000000007
 40
0.9062500000000007
 40
0.9062500000000007
 40
0.9062500000000007
 40
0.9218750000000007
 40
0.9218750000000007
 40
0.9218750000000007
 40
0.9218750000000007
 10
97.445857851852
 20
24.54123916062095
 30
0.0
 10
97.2344949798768
 20
24.62497168417996
 30
0.0
 10
97.03761573942774
 20
24.7052559461647
 30
0.0
 10
96.85562346755982
 20
24.7809903219549
 30
0.0
  0
SPLINE
  5
23E
330
1F
100
AcDbEntity
  8
SK3
  6
SLD-Dashed
370
    18
100
AcDbSpline
210
0.0
220
0.0
230
1.0
 70
     8
 71
     3
 72
     8
 73
     4
 74
     0
 42
0.000000001
 43
0.00000001
 40
0.9218750000000007
 40
0.9218750000000007
 40
0.9218750000000007
 40
0.9218750000000007
 40
0.9375000000000006
 40
0.9375000000000006
 40
0.9375000000000006
 40
0.9375000000000006
 10
96.85562346755982
 20
24.7809903219549
 30
0.0
 10
96.67363119569191
 20
24.8567246977451
 30
0.0
 10
96.5059001118892
 20
24.9281919468955
 30
0.0
 10
96.35712759919993
 20
24.99254556175463
 30
0.0
  0
SPLINE
  5
23F
330
1F
100
AcDbEntity
  8
SK3
  6
SLD-Dashed
370
    18
100
AcDbSpline
210
0.0
220
0.0
230
1.0
 70
     8
 71
     3
 72
     8
 73
     4
 74
     0
 42
0.000000001
 43
0.00000001
 40
0.9375000000000006
 40
0.9375000000000006
 40
0.9375000000000006
 40
0.9375000000000006
 40
0.9687500000000003
 40
0.9687500000000003
 40
0.9687500000000003
 40
0.9687500000000003
 10
96.35712759919993
 20
24.99254556175463
 30
0.0
 10
96.05958257382139
 20
25.12125279147285
 30
0.0
 10
95.83369514343659
 20
25.22300746274259
 30
0.0
 10
95.68006694717576
 20
25.29278508618955
 30
0.0
  0
SPLINE
  5
240
330
1F
100
AcDbEntity
  8
SK3
  6
SLD-Dashed
370
    18
100
AcDbSpline
210
0.0
220
0.0
230
1.0
 70
     8
 71
     3
 72
     8
 73
     4
 74
     0
 42
0.000000001
 43
0.00000001
 40
0.9687500000000003
 40
0.9687500000000003
 40
0.9687500000000003
 40
0.9687500000000003
 40
0.9843750000000002
 40
0.9843750000000002
 40
0.9843750000000002
 40
0.9843750000000002
 10
95.68006694717576
 20
25.29278508618955
 30
0.0
 10
95.60325284904539
 20
25.32767389791302
 30
0.0
 10
95.54463647421791
 20
25.35456020047251
 30
0.0
 10
95.50517348870244
 20
25.3726997740214
 30
0.0
  0
SPLINE
  5
241
330
1F
100
AcDbEntity
  8
SK3
  6
SLD-Dashed
370
    18
100
AcDbSpline
210
0.0
220
0.0
230
1.0
 70
     8
 71
     2
 72
     6
 73
     3
 74
     0
 42
0.000000001
 43
0.00000001
 40
0.9843750000000002
 40
0.9843750000000002
 40
0.9843750000000002
 40
1.0
 40
1.0
 40
1.0
 10
95.50517348870244
 20
25.3726997740214
 30
0.0
 10
95.46571050318694
 20
25.39083934757029
 30
0.0
 10
95.44589999999997
 20
25.4
 30
0.0
  0
SPLINE
  5
242
330
1F
100
AcDbEntity
  8
SK3
  6
SLD-Dashed
370
    18
100
AcDbSpline
210
0.0
220
0.0
230
1.0
 70
     8
 71
     3
 72
    18
 73
    14
 74
     0
 42
0.000000001
 43
0.00000001
 40
0.0
 40
0.0
 40
0.0
 40
0.0
 40
0.0502196103872347
 40
0.1000870260924176
 40
0.1855086368940258
 40
0.2501550808791989
 40
0.3746583157461278
 40
0.4998570853792991
 40
0.6242312608259506
 40
0.7494324099488462
 40
0.8740366596179966
 40
0.9370350243166855
 40
1.0
 40
1.0
 40
1.0
 40
1.0
 10
3.699999999999934
 20
46.55608553132444
 30
0.0
 10
3.700143854852852
 20
46.56278755186003
 30
0.0
 10
3.700430555691546
 20
46.5761445910534
 30
0.0
 10
3.703274054818746
 20
46.6007608523934
 30
0.0
 10
3.708850025263255
 20
46.62692328764688
 30
0.0
 10
3.720514169271262
 20
46.66169890756611
 30
0.0
 10
3.739456592416607
 20
46.69941980690712
 30
0.0
 10
3.770128279112233
 20
46.7391843401372
 30
0.0
 10
3.808028636439602
 20
46.77229285140237
 30
0.0
 10
3.851698646431284
 20
46.79720148409481
 30
0.0
 10
3.891711812143331
 20
46.81006094110499
 30
0.0
 10
3.924780356068871
 20
46.81548545401087
 30
0.0
 10
3.941594937699453
 20
46.815997588474
 30
0.0
 10
3.950000000000009
 20
46.81625358783002
 30
0.0
  0
SPLINE
  5
243
330
1F
100
AcDbEntity
  8
SK3
  6
SLD-Dashed
370
    18
100
AcDbSpline
210
0.0
220
0.0
230
1.0
 70
     8
 71
     3
 72
    18
 73
    14
 74
     0
 42
0.000000001
 43
0.00000001
 40
0.0
 40
0.0
 40
0.0
 40
0.0
 40
0.0501962867734855
 40
0.100030621443731
 40
0.1855667331187788
 40
0.2501823892320809
 40
0.3747066158220843
 40
0.4998232982189663
 40
0.6247294758455423
 40
0.7494251058857327
 40
0.8746331028690486
 40
0.9372230808189556
 40
1.0
 40
1.0
 40
1.0
 40
1.0
 10
18.30000000000001
 20
46.81625358782993
 30
0.0
 10
18.30669951182796
 20
46.81609127853698
 30
0.0
 10
18.32005022708197
 20
46.8157678303203
 30
0.0
 10
18.34463922095193
 20
46.81256776526224
 30
0.0
 10
18.3706720146222
 20
46.80630579793124
 30
0.0
 10
18.40500150194893
 20
46.7933155554719
 30
0.0
 10
18.44173939749909
 20
46.77247000397293
 30
0.0
 10
18.47965549617257
 20
46.73942242416843
 30
0.0
 10
18.51041281949079
 20
46.69961163074883
 30
0.0
 10
18.53306634505928
 20
46.6546887511002
 30
0.0
 10
18.54452340204191
 20
46.61434662644386
 30
0.0
 10
18.54932467505749
 20
46.5811984782934
 30
0.0
 10
18.54977466801635
 20
46.5644648311238
 30
0.0
 10
18.54999999999997
 20
46.55608553132446
 30
0.0
  0
SPLINE
  5
244
330
1F
100
AcDbEntity
  8
SK3
  6
SLD-Dashed
370
    18
100
AcDbSpline
210
0.0
220
0.0
230
1.0
 70
     8
 71
     3
 72
    30
 73
    26
 74
     0
 42
0.000000001
 43
0.00000001
 40
0.4999999999999983
 40
0.4999999999999983
 40
0.4999999999999983
 40
0.4999999999999983
 40
0.5624999999999981
 40
0.5624999999999981
 40
0.624999999999998
 40
0.624999999999998
 40
0.656249999999998
 40
0.656249999999998
 40
0.6874999999999981
 40
0.6874999999999981
 40
0.7187499999999982
 40
0.7187499999999982
 40
0.7499999999999983
 40
0.7499999999999983
 40
0.7812499999999983
 40
0.7812499999999983
 40
0.8124999999999984
 40
0.8124999999999984
 40
0.8437499999999986
 40
0.8437499999999986
 40
0.8749999999999986
 40
0.8749999999999986
 40
0.9374999999999993
 40
0.9374999999999993
 40
1.0
 40
1.0
 40
1.0
 40
1.0
 10
11.12436591328741
 20
5.30906155155695
 30
0.0
 10
11.33987168856151
 20
5.30913512189414
 30
0.0
 10
11.55726809392074
 20
5.270777053767752
 30
0.0
 10
11.95454289542201
 20
5.124082127907527
 30
0.0
 10
12.13838112079803
 20
5.014350511864031
 30
0.0
 10
12.36674314194754
 20
4.808404051991837
 30
0.0
 10
12.43642969974143
 20
4.731543474868142
 30
0.0
 10
12.55617157969231
 20
4.568463540703782
 30
0.0
 10
12.60695049438682
 20
4.481836472086068
 30
0.0
 10
12.69006011488473
 20
4.297948630822695
 30
0.0
 10
12.7218894306609
 20
4.20113730622864
 30
0.0
 10
12.76406792100183
 20
4.004999015154096
 30
0.0
 10
12.77490668888515
 20
3.904499034786603
 30
0.0
 10
12.77509211872524
 20
3.699534720125436
 30
0.0
 10
12.76447599657451
 20
3.598169916606802
 30
0.0
 10
12.7226542834703
 20
3.397643705646352
 30
0.0
 10
12.69091026767073
 20
3.297408274791247
 30
0.0
 10
12.60826636161165
 20
3.105879249911007
 30
0.0
 10
12.55766906368547
 20
3.014523490936165
 30
0.0
 10
12.43800593838745
 20
2.840798433450357
 30
0.0
 10
12.3685247374065
 20
2.758380635546183
 30
0.0
 10
12.14080554014711
 20
2.535838019871825
 30
0.0
 10
11.9570420469029
 20
2.414653532234787
 30
0.0
 10
11.56023146512519
 20
2.251755559321181
 30
0.0
 10
11.34333742006519
 20
2.208076011197144
 30
0.0
 10
11.12500000000001
 20
2.208076011197144
 30
0.0
  0
SPLINE
  5
245
330
1F
100
AcDbEntity
  8
SK3
  6
SLD-Dashed
370
    18
100
AcDbSpline
210
0.0
220
0.0
230
1.0
 70
     8
 71
     3
 72
    34
 73
    30
 74
     0
 42
0.000000001
 43
0.00000001
 40
0.0
 40
0.0
 40
0.0
 40
0.0
 40
0.03125
 40
0.03125
 40
0.0624999999999999
 40
0.0624999999999999
 40
0.0937499999999999
 40
0.0937499999999999
 40
0.1249999999999999
 40
0.1249999999999999
 40
0.1874999999999994
 40
0.1874999999999994
 40
0.249999999999999
 40
0.249999999999999
 40
0.2812499999999989
 40
0.2812499999999989
 40
0.3124999999999988
 40
0.3124999999999988
 40
0.3437499999999987
 40
0.3437499999999987
 40
0.3749999999999987
 40
0.3749999999999987
 40
0.4062499999999986
 40
0.4062499999999986
 40
0.4374999999999984
 40
0.4374999999999984
 40
0.4687499999999984
 40
0.4687499999999984
 40
0.4999999999999983
 40
0.4999999999999983
 40
0.4999999999999983
 40
0.4999999999999983
 10
11.12500000000001
 20
2.20807601119713
 30
0.0
 10
11.01583128996744
 20
2.208076011197137
 30
0.0
 10
10.9085174744307
 20
2.218712438100942
 30
0.0
 10
10.69743839976839
 20
2.260296858835588
 30
0.0
 10
10.59256796952456
 20
2.291759353259954
 30
0.0
 10
10.3928280140594
 20
2.37355520537362
 30
0.0
 10
10.29811782955153
 20
2.423509628226163
 30
0.0
 10
10.11887542494276
 20
2.541114583907864
 30
0.0
 10
10.03412703573857
 20
2.609294845854246
 30
0.0
 10
9.806182200157401
 20
2.831771837438351
 30
0.0
 10
9.68329483325002
 20
3.010016554592647
 30
0.0
 10
9.518613327833616
 20
3.39075994389857
 30
0.0
 10
9.475122079642004
 20
3.59727247583546
 30
0.0
 10
9.474939355443745
 20
3.901097591317383
 30
0.0
 10
9.485685185608675
 20
4.003434499602325
 30
0.0
 10
9.527840731096388
 20
4.20029385480461
 30
0.0
 10
9.559029712058436
 20
4.295473899993282
 30
0.0
 10
9.641780605110354
 20
4.479477843829398
 30
0.0
 10
9.693378168396896
 20
4.567722017178366
 30
0.0
 10
9.812718794814254
 20
4.73051070606402
 30
0.0
 10
9.881024517103501
 20
4.80620811612438
 30
0.0
 10
10.03474791503922
 20
4.945204256680394
 30
0.0
 10
10.11790941669588
 20
5.006521730708584
 30
0.0
 10
10.29642492313947
 20
5.113728914877727
 30
0.0
 10
10.39294641915066
 20
5.159988239582878
 30
0.0
 10
10.5925905581732
 20
5.233890455420352
 30
0.0
 10
10.69543180415419
 20
5.261724005488279
 30
0.0
 10
10.90715408445175
 20
5.299397422676634
 30
0.0
 10
11.01661302565036
 20
5.309024766388337
 30
0.0
 10
11.12436591328741
 20
5.30906155155695
 30
0.0
  0
SPLINE
  5
246
330
1F
100
AcDbEntity
  8
SK3
  6
SLD-Dashed
370
    18
100
AcDbSpline
210
0.0
220
0.0
230
1.0
 70
     8
 71
     3
 72
    34
 73
    30
 74
     0
 42
0.000000001
 43
0.00000001
 40
0.5000000000000006
 40
0.5000000000000006
 40
0.5000000000000006
 40
0.5000000000000006
 40
0.5312500000000006
 40
0.5312500000000006
 40
0.5625000000000006
 40
0.5625000000000006
 40
0.5937500000000004
 40
0.5937500000000004
 40
0.6250000000000004
 40
0.6250000000000004
 40
0.6562500000000004
 40
0.6562500000000004
 40
0.6875000000000004
 40
0.6875000000000004
 40
0.7500000000000002
 40
0.7500000000000002
 40
0.8125000000000008
 40
0.8125000000000008
 40
0.8437500000000007
 40
0.8437500000000007
 40
0.8750000000000006
 40
0.8750000000000006
 40
0.9062500000000004
 40
0.9062500000000004
 40
0.9375000000000002
 40
0.9375000000000002
 40
0.9687500000000001
 40
0.9687500000000001
 40
1.0
 40
1.0
 40
1.0
 40
1.0
 10
9.638805742161722
 20
10.95392502366162
 30
0.0
 10
9.693881160736314
 20
10.84705887039521
 30
0.0
 10
9.763179283156633
 20
10.74439645836096
 30
0.0
 10
9.923515798149985
 20
10.55592715127709
 30
0.0
 10
10.01390276352453
 20
10.47020735344793
 30
0.0
 10
10.21445694949211
 20
10.31296552728878
 30
0.0
 10
10.32267837600209
 20
10.24333508542228
 30
0.0
 10
10.54307526498123
 20
10.12288935951392
 30
0.0
 10
10.65791658596822
 20
10.07070374731722
 30
0.0
 10
10.87819871140987
 20
9.98446318204086
 30
0.0
 10
10.98608094611136
 20
9.94920527973784
 30
0.0
 10
11.18968749579594
 20
9.892304259469
 30
0.0
 10
11.28527842069084
 20
9.870580048613832
 30
0.0
 10
11.55898297450221
 20
9.820769890309993
 30
0.0
 10
11.72337034356695
 20
9.808096789548742
 30
0.0
 10
12.02194861504764
 20
9.821477532699776
 30
0.0
 10
12.15920875119764
 20
9.84731018817673
 30
0.0
 10
12.34760730605758
 20
9.92782469274444
 30
0.0
 10
12.40688352391457
 20
9.961503747003379
 30
0.0
 10
12.51780294837553
 20
10.0474980864718
 30
0.0
 10
12.56969006353045
 20
10.10021829085831
 30
0.0
 10
12.65991931900841
 20
10.22933776798929
 30
0.0
 10
12.69929072119648
 20
10.30748393412818
 30
0.0
 10
12.7558656863648
 20
10.49302732041032
 30
0.0
 10
12.77303399215493
 20
10.60290348381505
 30
0.0
 10
12.77663319740259
 20
10.83901366027915
 30
0.0
 10
12.76306993948381
 20
10.96766771108133
 30
0.0
 10
12.7117084196995
 20
11.21837738140153
 30
0.0
 10
12.67469993892521
 20
11.34057418425335
 30
0.0
 10
12.63040931107558
 20
11.45745606890563
 30
0.0
  0
SPLINE
  5
247
330
1F
100
AcDbEntity
  8
SK3
  6
SLD-Dashed
370
    18
100
AcDbSpline
210
0.0
220
0.0
230
1.0
 70
     8
 71
     3
 72
    26
 73
    22
 74
     0
 42
0.000000001
 43
0.00000001
 40
0.0
 40
0.0
 40
0.0
 40
0.0
 40
0.0625
 40
0.0625
 40
0.1249999999999999
 40
0.1249999999999999
 40
0.1874999999999999
 40
0.1874999999999999
 40
0.2499999999999998
 40
0.2499999999999998
 40
0.2812499999999998
 40
0.2812499999999998
 40
0.3124999999999998
 40
0.3124999999999998
 40
0.3750000000000002
 40
0.3750000000000002
 40
0.4375000000000007
 40
0.4375000000000007
 40
0.4687500000000006
 40
0.4687500000000006
 40
0.5000000000000006
 40
0.5000000000000006
 40
0.5000000000000006
 40
0.5000000000000006
 10
12.63040931107558
 20
11.45745606890563
 30
0.0
 10
12.54182805537631
 20
11.69121983821019
 30
0.0
 10
12.43200682775375
 20
11.89056157115179
 30
0.0
 10
12.18419932759159
 20
12.2551441181375
 30
0.0
 10
12.04834522926919
 20
12.41463399152627
 30
0.0
 10
11.75314013646127
 20
12.69173524411806
 30
0.0
 10
11.59091385222424
 20
12.81202758601131
 30
0.0
 10
11.23004729019511
 20
12.99241430793247
 30
0.0
 10
11.0272833419255
 20
13.05343833574649
 30
0.0
 10
10.69987000905186
 20
13.05646994226838
 30
0.0
 10
10.58531472788941
 20
13.0419760700552
 30
0.0
 10
10.36396153134626
 20
12.97944613660278
 30
0.0
 10
10.25449961952681
 20
12.93102694430327
 30
0.0
 10
9.947578697971304
 20
12.73948161914288
 30
0.0
 10
9.77664657830718
 20
12.55346040827498
 30
0.0
 10
9.542451961566167
 20
12.12678030999253
 30
0.0
 10
9.478612055377923
 20
11.88580640702584
 30
0.0
 10
9.473421112414268
 20
11.52565520755328
 30
0.0
 10
9.486345898652646
 20
11.40749361566881
 30
0.0
 10
9.541390615621022
 20
11.17459151908689
 30
0.0
 10
9.583730323587114
 20
11.06079117692803
 30
0.0
 10
9.638805742161722
 20
10.95392502366162
 30
0.0
  0
SPLINE
  5
248
330
1F
100
AcDbEntity
  8
SK3
  6
SLD-Dashed
370
    18
100
AcDbSpline
210
0.0
220
0.0
230
1.0
 70
     8
 71
     3
 72
    18
 73
    14
 74
     0
 42
0.000000001
 43
0.00000001
 40
0.0
 40
0.0
 40
0.0
 40
0.0
 40
0.050196286773496
 40
0.1000306214437232
 40
0.1855667331187628
 40
0.2501823892320831
 40
0.3747066158220737
 40
0.4998232982189562
 40
0.6247294758455391
 40
0.7494251058857213
 40
0.8746331028690435
 40
0.9372230808189356
 40
1.0
 40
1.0
 40
1.0
 40
1.0
 10
3.949999999999995
 20
46.81625358783
 30
0.0
 10
3.943300488172041
 20
46.81609127853705
 30
0.0
 10
3.929949772918051
 20
46.81576783032034
 30
0.0
 10
3.905360779048059
 20
46.81256776526227
 30
0.0
 10
3.879327985377781
 20
46.80630579793137
 30
0.0
 10
3.844998498051061
 20
46.79331555547194
 30
0.0
 10
3.808260602500862
 20
46.77247000397303
 30
0.0
 10
3.770344503827405
 20
46.73942242416846
 30
0.0
 10
3.739587180509179
 20
46.69961163074888
 30
0.0
 10
3.716933654940677
 20
46.65468875110023
 30
0.0
 10
3.70547659795803
 20
46.61434662644388
 30
0.0
 10
3.700675324942448
 20
46.58119847829343
 30
0.0
 10
3.700225331983581
 20
46.56446483112381
 30
0.0
 10
3.699999999999967
 20
46.55608553132448
 30
0.0
  0
SPLINE
  5
249
330
1F
100
AcDbEntity
  8
SK3
  6
SLD-Dashed
370
    18
100
AcDbSpline
210
0.0
220
0.0
230
1.0
 70
     8
 71
     3
 72
    18
 73
    14
 74
     0
 42
0.000000001
 43
0.00000001
 40
0.0
 40
0.0
 40
0.0
 40
0.0
 40
0.0502196103872459
 40
0.1000870260924544
 40
0.1855086368940347
 40
0.2501550808792018
 40
0.374658315746124
 40
0.499857085379306
 40
0.6242312608259575
 40
0.7494324099488543
 40
0.8740366596180059
 40
0.9370350243166945
 40
1.0
 40
1.0
 40
1.0
 40
1.0
 10
18.55000000000003
 20
46.55608553132441
 30
0.0
 10
18.54985614514711
 20
46.56278755186
 30
0.0
 10
18.5495694443084
 20
46.57614459105338
 30
0.0
 10
18.54672594518124
 20
46.60076085239339
 30
0.0
 10
18.5411499747367
 20
46.62692328764685
 30
0.0
 10
18.52948583072871
 20
46.66169890756606
 30
0.0
 10
18.5105434075834
 20
46.69941980690709
 30
0.0
 10
18.47987172088775
 20
46.73918434013714
 30
0.0
 10
18.44197136356041
 20
46.77229285140231
 30
0.0
 10
18.39830135356871
 20
46.79720148409476
 30
0.0
 10
18.35828818785666
 20
46.81006094110489
 30
0.0
 10
18.32521964393112
 20
46.81548545401077
 30
0.0
 10
18.30840506230054
 20
46.8159975884739
 30
0.0
 10
18.30000000000001
 20
46.81625358782993
 30
0.0
  0
SPLINE
  5
24A
330
1F
100
AcDbEntity
  8
1
  6
SLD-Dashed
370
    18
100
AcDbSpline
210
0.0
220
0.0
230
1.0
 70
     8
 71
     3
 72
     8
 73
     4
 74
     0
 42
0.000000001
 43
0.00000001
 40
0.0
 40
0.0
 40
0.0
 40
0.0
 40
1.0
 40
1.0
 40
1.0
 40
1.0
 10
9.200000000002026
 20
44.57901066343279
 30
0.0
 10
8.786353866861454
 20
45.32508460154089
 30
0.0
 10
8.372088490924066
 20
46.0708208293284
 30
0.0
 10
7.957289380062113
 20
46.81625358783002
 30
0.0
  0
SPLINE
  5
24B
330
1F
100
AcDbEntity
  8
1
  6
SLD-Dashed
370
    18
100
AcDbSpline
210
0.0
220
0.0
230
1.0
 70
     8
 71
     3
 72
    12
 73
     8
 74
     0
 42
0.000000001
 43
0.00000001
 40
0.0
 40
0.0
 40
0.0
 40
0.0
 40
0.2499999999999968
 40
0.2499999999999968
 40
0.4999999999999937
 40
0.4999999999999937
 40
1.0
 40
1.0
 40
1.0
 40
1.0
 10
9.949999999999504
 20
43.7694359684934
 30
0.0
 10
9.850119590047893
 20
43.76943596849347
 30
0.0
 10
9.748137313649723
 20
43.79123158018957
 30
0.0
 10
9.565556528293705
 20
43.87207837866737
 30
0.0
 10
9.482069524389932
 20
43.93189601352007
 30
0.0
 10
9.27730641726231
 20
44.15013439992963
 30
0.0
 10
9.200000000000125
 20
44.35048458323519
 30
0.0
 10
9.2
 20
44.551021593225
 30
0.0
  0
SPLINE
  5
24C
330
1F
100
AcDbEntity
  8
1
  6
SLD-Dashed
370
    18
100
AcDbSpline
210
0.0
220
0.0
230
1.0
 70
     8
 71
     3
 72
    12
 73
     8
 74
     0
 42
0.000000001
 43
0.00000001
 40
0.0
 40
0.0
 40
0.0
 40
0.0
 40
0.5000000000000048
 40
0.5000000000000048
 40
0.7500000000000023
 40
0.7500000000000023
 40
1.0
 40
1.0
 40
1.0
 40
1.0
 10
13.02999999999992
 20
44.55102159322492
 30
0.0
 10
13.0299999999999
 20
44.35104831812323
 30
0.0
 10
12.95399603318285
 20
44.15150826736608
 30
0.0
 10
12.74724095984754
 20
43.93116827138054
 30
0.0
 10
12.66314206268637
 20
43.8712862165096
 30
0.0
 10
12.48048875274074
 20
43.79084228716531
 30
0.0
 10
12.37984375713169
 20
43.76943596849291
 30
0.0
 10
12.28000000000001
 20
43.7694359684929
 30
0.0
  0
SPLINE
  5
24D
330
1F
100
AcDbEntity
  8
1
  6
SLD-Dashed
370
    18
100
AcDbSpline
210
0.0
220
0.0
230
1.0
 70
     8
 71
     3
 72
     8
 73
     4
 74
     0
 42
0.000000001
 43
0.00000001
 40
0.0
 40
0.0
 40
0.0
 40
0.0
 40
1.0
 40
1.0
 40
1.0
 40
1.0
 10
14.27271061995092
 20
46.81625358783777
 30
0.0
 10
13.8579115090853
 20
46.0708208293348
 30
0.0
 10
13.44364613314422
 20
45.32508460154593
 30
0.0
 10
13.02999999999999
 20
44.57901066343647
 30
0.0
  0
SPLINE
  5
24E
330
1F
100
AcDbEntity
  8
1
  6
SLD-Dashed
370
    18
100
AcDbSpline
210
0.0
220
0.0
230
1.0
 70
     8
 71
     3
 72
    12
 73
     8
 74
     0
 42
0.000000001
 43
0.00000001
 40
0.0
 40
0.0
 40
0.0
 40
0.0
 40
0.2499999999999967
 40
0.2499999999999967
 40
0.4999999999999933
 40
0.4999999999999933
 40
1.0
 40
1.0
 40
1.0
 40
1.0
 10
3.199999999999797
 20
-46.69763484374749
 30
0.0
 10
3.199999999999839
 20
-46.79851095846151
 30
0.0
 10
3.218629406337781
 20
-46.89733966428926
 30
0.0
 10
3.291844246696886
 20
-47.0841146964833
 30
0.0
 10
3.345979173512772
 20
-47.16991322229985
 30
0.0
 10
3.551871853062285
 20
-47.38753444472503
 30
0.0
 10
3.74802685678137
 20
-47.47548419974255
 30
0.0
 10
3.950000000000009
 20
-47.4754841997425
 30
0.0
  0
SPLINE
  5
24F
330
1F
100
AcDbEntity
  8
1
  6
SLD-Dashed
370
    18
100
AcDbSpline
210
0.0
220
0.0
230
1.0
 70
     8
 71
     3
 72
    12
 73
     8
 74
     0
 42
0.000000001
 43
0.00000001
 40
0.0
 40
0.0
 40
0.0
 40
0.0
 40
0.2499999999999985
 40
0.2499999999999985
 40
0.499999999999997
 40
0.499999999999997
 40
1.0
 40
1.0
 40
1.0
 40
1.0
 10
18.30000000000033
 20
-47.4754841997428
 30
0.0
 10
18.40091596910974
 20
-47.47548419974275
 30
0.0
 10
18.50002158252288
 20
-47.45437693482727
 30
0.0
 10
18.68315226992479
 20
-47.3742689705784
 30
0.0
 10
18.76654490405292
 20
-47.31511647588048
 30
0.0
 10
18.9719514887276
 20
-47.09831987092237
 30
0.0
 10
19.05000000000009
 20
-46.89926900274104
 30
0.0
 10
19.05
 20
-46.69763484374771
 30
0.0
  0
SPLINE
  5
250
330
1F
100
AcDbEntity
  8
1
  6
SLD-Dashed
370
    18
100
AcDbSpline
210
0.0
220
0.0
230
1.0
 70
     8
 71
     3
 72
     8
 73
     4
 74
     0
 42
0.000000001
 43
0.00000001
 40
0.0
 40
0.0
 40
0.0
 40
0.0
 40
1.0
 40
1.0
 40
1.0
 40
1.0
 10
14.63972339340267
 20
-47.4754841997425
 30
0.0
 10
14.10222500453559
 20
-46.5104965471081
 30
0.0
 10
13.56559195163211
 20
-45.54503249842018
 30
0.0
 10
13.02999999999999
 20
-44.57901066343648
 30
0.0
  0
SPLINE
  5
251
330
1F
100
AcDbEntity
  8
1
  6
SLD-Dashed
370
    18
100
AcDbSpline
210
0.0
220
0.0
230
1.0
 70
     8
 71
     3
 72
    12
 73
     8
 74
     0
 42
0.000000001
 43
0.00000001
 40
0.0
 40
0.0
 40
0.0
 40
0.0
 40
0.5
 40
0.5
 40
0.75
 40
0.75
 40
1.0
 40
1.0
 40
1.0
 40
1.0
 10
13.03000000000026
 20
-44.55102159322527
 30
0.0
 10
13.03000000000032
 20
-44.35094747116185
 30
0.0
 10
12.9523869298502
 20
-44.14958800989084
 30
0.0
 10
12.74748896269967
 20
-43.93153570225749
 30
0.0
 10
12.66372770014787
 20
-43.87162606259755
 30
0.0
 10
12.48090790509572
 20
-43.79094541821721
 30
0.0
 10
12.3805733178244
 20
-43.76943596849286
 30
0.0
 10
12.28000000000001
 20
-43.76943596849289
 30
0.0
  0
SPLINE
  5
252
330
1F
100
AcDbEntity
  8
1
  6
SLD-Dashed
370
    18
100
AcDbSpline
210
0.0
220
0.0
230
1.0
 70
     8
 71
     3
 72
    12
 73
     8
 74
     0
 42
0.000000001
 43
0.00000001
 40
0.0
 40
0.0
 40
0.0
 40
0.0
 40
0.2500000000000008
 40
0.2500000000000008
 40
0.5000000000000016
 40
0.5000000000000016
 40
1.0
 40
1.0
 40
1.0
 40
1.0
 10
9.949999999999987
 20
-43.76943596849291
 30
0.0
 10
9.84905149059187
 20
-43.76943596849291
 30
0.0
 10
9.749266512826136
 20
-43.79086985036579
 30
0.0
 10
9.566115121600355
 20
-43.87169402250117
 30
0.0
 10
9.482555094620981
 20
-43.93147884713159
 30
0.0
 10
9.277417057908147
 20
-44.14981655257962
 30
0.0
 10
9.2
 20
-44.3503431834303
 30
0.0
 10
9.2
 20
-44.551021593225
 30
0.0
  0
SPLINE
  5
253
330
1F
100
AcDbEntity
  8
1
  6
SLD-Dashed
370
    18
100
AcDbSpline
210
0.0
220
0.0
230
1.0
 70
     8
 71
     3
 72
     8
 73
     4
 74
     0
 42
0.000000001
 43
0.00000001
 40
0.0
 40
0.0
 40
0.0
 40
0.0
 40
1.0
 40
1.0
 40
1.0
 40
1.0
 10
9.199999999999985
 20
-44.57901066343648
 30
0.0
 10
8.664408048367878
 20
-45.54503249842017
 30
0.0
 10
8.127774995464424
 20
-46.51049654710808
 30
0.0
 10
7.590276606597349
 20
-47.47548419974248
 30
0.0
  0
SPLINE
  5
254
330
1F
100
AcDbEntity
  8
SK3
  6
SLD-Dashed
370
    18
100
AcDbSpline
210
0.0
220
0.0
230
1.0
 70
     8
 71
     3
 72
    34
 73
    30
 74
     0
 42
0.000000001
 43
0.00000001
 40
0.499999999999999
 40
0.499999999999999
 40
0.499999999999999
 40
0.499999999999999
 40
0.5624999999999999
 40
0.5624999999999999
 40
0.5937499999999999
 40
0.5937499999999999
 40
0.6249999999999998
 40
0.6249999999999998
 40
0.6562499999999998
 40
0.6562499999999998
 40
0.6874999999999998
 40
0.6874999999999998
 40
0.7187499999999997
 40
0.7187499999999997
 40
0.7499999999999997
 40
0.7499999999999997
 40
0.7812499999999997
 40
0.7812499999999997
 40
0.8124999999999996
 40
0.8124999999999996
 40
0.8437499999999996
 40
0.8437499999999996
 40
0.8749999999999994
 40
0.8749999999999994
 40
0.9062499999999994
 40
0.9062499999999994
 40
0.9374999999999994
 40
0.9374999999999994
 40
1.0
 40
1.0
 40
1.0
 40
1.0
 10
10.60808274902045
 20
14.67518531385664
 30
0.0
 10
10.7714399435272
 20
14.66271400222904
 30
0.0
 10
10.95396076821069
 20
14.6313797717228
 30
0.0
 10
11.25812245907615
 20
14.54691770596562
 30
0.0
 10
11.36641585866904
 20
14.51171888144388
 30
0.0
 10
11.58574352105282
 20
14.42634662926307
 30
0.0
 10
11.69715944869877
 20
14.37625545607606
 30
0.0
 10
11.92117180667888
 20
14.25483711630818
 30
0.0
 10
12.02893523597722
 20
14.18587333985283
 30
0.0
 10
12.22961030853029
 20
14.02983333564748
 30
0.0
 10
12.32267742835867
 20
13.94226901556097
 30
0.0
 10
12.48372543018651
 20
13.75415019217113
 30
0.0
 10
12.55366053916099
 20
13.65130323099262
 30
0.0
 10
12.66489321927143
 20
13.43691773984448
 30
0.0
 10
12.70717730188427
 20
13.32435113894571
 30
0.0
 10
12.76326417564931
 20
13.08988167819453
 30
0.0
 10
12.77635511926062
 20
12.9714903905775
 30
0.0
 10
12.77342672652903
 20
12.73211084337571
 30
0.0
 10
12.75684979458237
 20
12.61060743991046
 30
0.0
 10
12.69552150102995
 20
12.37773497196914
 30
0.0
 10
12.65033349294085
 20
12.26373909474827
 30
0.0
 10
12.53298957942554
 20
12.04909612932807
 30
0.0
 10
12.46214536200849
 20
11.95022400081661
 30
0.0
 10
12.2965127732214
 20
11.77143410287177
 30
0.0
 10
12.20150676240366
 20
11.69219588739501
 30
0.0
 10
11.99926684334574
 20
11.56533020093841
 30
0.0
 10
11.88885801145313
 20
11.51587497169281
 30
0.0
 10
11.55399205333034
 20
11.42069275726627
 30
0.0
 10
11.32716468948122
 20
11.42871083881324
 30
0.0
 10
11.12500000000001
 20
11.48273236161759
 30
0.0
  0
SPLINE
  5
255
330
1F
100
AcDbEntity
  8
SK3
  6
SLD-Dashed
370
    18
100
AcDbSpline
210
0.0
220
0.0
230
1.0
 70
     8
 71
     3
 72
    30
 73
    26
 74
     0
 42
0.000000001
 43
0.00000001
 40
0.0
 40
0.0
 40
0.0
 40
0.0
 40
0.0624999999999997
 40
0.0624999999999997
 40
0.1249999999999994
 40
0.1249999999999994
 40
0.1562499999999991
 40
0.1562499999999991
 40
0.1874999999999989
 40
0.1874999999999989
 40
0.2187499999999986
 40
0.2187499999999986
 40
0.2499999999999983
 40
0.2499999999999983
 40
0.2812499999999981
 40
0.2812499999999981
 40
0.3124999999999978
 40
0.3124999999999978
 40
0.3437499999999976
 40
0.3437499999999976
 40
0.3749999999999973
 40
0.3749999999999973
 40
0.4374999999999981
 40
0.4374999999999981
 40
0.499999999999999
 40
0.499999999999999
 40
0.499999999999999
 40
0.499999999999999
 10
11.12500000000001
 20
11.48273236161759
 30
0.0
 10
10.92283531051881
 20
11.53675388442193
 30
0.0
 10
10.7471471004824
 20
11.63024516394926
 30
0.0
 10
10.42066988662174
 20
11.86454434722232
 30
0.0
 10
10.27375737476434
 20
12.00407384287209
 30
0.0
 10
10.07148943268485
 20
12.24177839203632
 30
0.0
 10
10.00699015299672
 20
12.32609339770683
 30
0.0
 10
9.883509956371203
 20
12.50701007175133
 30
0.0
 10
9.824268573097871
 20
12.60415729348404
 30
0.0
 10
9.715154706090342
 20
12.80934651131552
 30
0.0
 10
9.66439673573348
 20
12.91903622889808
 30
0.0
 10
9.576981863499132
 20
13.14891853741638
 30
0.0
 10
9.540303532497491
 20
13.26831266228053
 30
0.0
 10
9.487704529937997
 20
13.52080982106196
 30
0.0
 10
9.473745253197983
 20
13.64846695671307
 30
0.0
 10
9.476438089560544
 20
13.88700257856813
 30
0.0
 10
9.49319789642801
 20
13.99682053671473
 30
0.0
 10
9.549353346861203
 20
14.18374939795269
 30
0.0
 10
9.58858947784802
 20
14.26231510462438
 30
0.0
 10
9.678480018824306
 20
14.39201189392008
 30
0.0
 10
9.730204466999167
 20
14.44496665500975
 30
0.0
 10
9.896348595184456
 20
14.57471258814564
 30
0.0
 10
10.02083275682618
 20
14.62455209347293
 30
0.0
 10
10.29708420272973
 20
14.68178062150165
 30
0.0
 10
10.44472555451371
 20
14.68765662548425
 30
0.0
 10
10.60808274902045
 20
14.67518531385664
 30
0.0
  0
DIMENSION
  5
256
330
1F
100
AcDbEntity
  8
2
100
AcDbDimension
  2
_D
 10
142.88
 20
95.60536517
 30
0.0
 11
45.0281721903
 21
95.60536517
 31
0.0
 70
   160
  1
<>
 71
     2
 42
-1.0
  3
SLDDIMSTYLE0
100
AcDbAlignedDimension
 13
0.0
 23
34.925
 33
0.0
 14
142.88
 24
36.957
 34
0.0
100
AcDbRotatedDimension
  0
DIMENSION
  5
26B
330
1F
100
AcDbEntity
  8
SK2
100
AcDbDimension
  2
_D_1
 10
142.88
 20
82.5461543229
 30
0.0
 11
59.2399280558
 21
82.5461543229
 31
0.0
 70
   160
  1
<>
 71
     2
 42
-1.0
  3
SLDDIMSTYLE0
100
AcDbAlignedDimension
 13
19.05
 23
46.5560855313
 33
0.0
 14
142.88
 24
36.957
 34
0.0
 50
0.0
100
AcDbRotatedDimension
  0
DIMENSION
  5
27E
330
1F
100
AcDbEntity
  8
SK2
100
AcDbDimension
  2
_D_2
 10
142.88
 20
70.6735123872
 30
0.0
 11
79.6974033912
 21
70.6735123872
 31
0.0
 70
   160
  1
<>
 71
     2
 42
-1.0
  3
SLDDIMSTYLE0
100
AcDbAlignedDimension
 13
35.1
 23
46.101
 33
0.0
 14
142.88
 24
36.957
 34
0.0
 50
0.0
100
AcDbRotatedDimension
  0
DIMENSION
  5
291
330
1F
100
AcDbEntity
  8
SK2
100
AcDbDimension
  2
_D_3
 10
107.168
 20
56.0610300047
 30
0.0
 11
125.7267228959
 21
56.0610300047
 31
0.0
 70
   160
  1
<>
 71
     2
 42
-1.0
  3
SLDDIMSTYLE0
100
AcDbAlignedDimension
 13
142.88
 23
36.957
 33
0.0
 14
107.168
 24
47.525
 34
0.0
100
AcDbRotatedDimension
  0
DIMENSION
  5
2A4
330
1F
100
AcDbEntity
  8
SK2
100
AcDbDimension
  2
_D_4
 10
69.068
 20
56.0610300047
 30
0.0
 11
87.0036445824
 21
56.0610300047
 31
0.0
 70
   160
  1
<>
 71
     2
 42
-1.0
  3
SLDDIMSTYLE0
100
AcDbAlignedDimension
 13
107.168
 23
47.525
 33
0.0
 14
69.068
 24
47.525
 34
0.0
100
AcDbRotatedDimension
  0
DIMENSION
  5
2B7
330
1F
100
AcDbEntity
  8
SK2
100
AcDbDimension
  2
_D_5
 10
142.88
 20
-77.5566157912
 30
0.0
 11
-2.5221009537
 21
-77.5566157912
 31
0.0
 70
   160
  1
<>
 71
     2
 42
-1.0
  3
SLDDIMSTYLE1
100
AcDbAlignedDimension
 13
-101.6
 23
-18.2922326599
 33
0.0
 14
142.88
 24
-36.957
 34
0.0
100
AcDbRotatedDimension
  0
DIMENSION
  5
2CB
330
1F
100
AcDbEntity
  8
SK2
100
AcDbDimension
  2
_D_6
 10
142.88
 20
-69.0647981896
 30
0.0
 11
100.8047577062
 21
-69.0647981896
 31
0.0
 70
   160
  1
<>
 71
     2
 42
-1.0
  3
SLDDIMSTYLE0
100
AcDbAlignedDimension
 13
60.33
 23
-25.44
 33
0.0
 14
142.88
 24
-36.957
 34
0.0
100
AcDbRotatedDimension
  0
DIMENSION
  5
2DE
330
1F
100
AcDbEntity
  8
SK2
100
AcDbDimension
  2
_D_7
 10
142.88
 20
-60.4083998101
 30
0.0
 11
125.896770269
 21
-60.4083998101
 31
0.0
 70
   160
  1
<>
 71
     2
 42
-1.0
  3
SLDDIMSTYLE2
100
AcDbAlignedDimension
 13
132.212
 23
-47.625
 33
0.0
 14
142.88
 24
-36.957
 34
0.0
100
AcDbRotatedDimension
  0
DIMENSION
  5
2EB
330
1F
100
AcDbEntity
  8
SK2
100
AcDbDimension
  2
_D_8
 10
157.959729364
 20
-25.4
 30
0.0
 11
157.959729364
 21
1.007616497
 31
0.0
 70
   160
  1
%%c<>
 71
     2
 42
-1.0
  3
SLDDIMSTYLE0
100
AcDbAlignedDimension
 13
141.38
 23
25.4
 33
0.0
 14
141.38
 24
-25.4
 34
0.0
 50
90.0
100
AcDbRotatedDimension
  0
DIMENSION
  5
2FD
330
1F
100
AcDbEntity
  8
SK2
100
AcDbDimension
  2
_D_9
 10
174.6218652582
 20
-36.957
 30
0.0
 11
174.6218652582
 21
1.007616497
 31
0.0
 70
   160
  1
%%c<>
 71
     2
 42
-1.0
  3
SLDDIMSTYLE0
100
AcDbAlignedDimension
 13
142.88
 23
36.957
 33
0.0
 14
142.88
 24
-36.957
 34
0.0
 50
90.0
100
AcDbRotatedDimension
  0
DIMENSION
  5
30F
330
1F
100
AcDbEntity
  8
SK2
100
AcDbDimension
  2
_D_10
 10
191.5032397826
 20
-47.625
 30
0.0
 11
191.5032397826
 21
1.007616497
 31
0.0
 70
   160
  1
%%c<>
 71
     2
 42
-1.0
  3
SLDDIMSTYLE0
100
AcDbAlignedDimension
 13
132.212
 23
47.625
 33
0.0
 14
132.212
 24
-47.625
 34
0.0
 50
90.0
100
AcDbRotatedDimension
  0
DIMENSION
  5
321
330
1F
100
AcDbEntity
  8
SK2
100
AcDbDimension
  2
_D_11
 10
-118.8781787042
 20
-47.4754841997
 30
0.0
 11
-118.8781787042
 21
1.353676473
 31
0.0
 70
   160
  1
%%c<>
 71
     2
 42
-1.0
  3
SLDDIMSTYLE3
100
AcDbAlignedDimension
 13
3.95
 23
47.2968145978
 33
0.0
 14
3.95
 24
-47.4754841997
 34
0.0
 50
90.0
100
AcDbRotatedDimension
  0
DIMENSION
  5
32D
330
1F
100
AcDbEntity
  8
SK2
100
AcDbDimension
  2
_D_12
 10
-108.0030050519
 20
-12.6999998465
 30
0.0
 11
-108.0030050519
 21
1.353676473
 31
0.0
 70
   160
  1
<>
 71
     2
 42
-1.0
  3
SLDDIMSTYLE3
100
AcDbAlignedDimension
 13
-94.967097044
 23
12.6999998465
 33
0.0
 14
-94.967097044
 24
-12.6999998465
 34
0.0
 50
90.0
100
AcDbRotatedDimension
  0
MTEXT
  5
338
330
1F
100
AcDbEntity
  8
SK6
 62
     5
100
AcDbMText
 10
-51.8720076604
 20
-39.0098096476
 30
0.0
 40
3.5
 41
0.0
 71
     1
 72
     1
  1
AA3B20-50 51 143
  7
SLDTEXTSTYLE0
 73
     1
 44
1.0
  0
MTEXT
  5
339
330
1F
100
AcDbEntity
  8
SK6
 62
     5
100
AcDbMText
 10
-54.8713133855
 20
40.9470497424
 30
0.0
 40
3.5
 41
0.0
 71
     1
 72
     1
  1
ASME B5.50 CAT 50
  7
SLDTEXTSTYLE0
 73
     1
 44
1.0
  0
ENDSEC
  0
SECTION
  2
OBJECTS
  0
DICTIONARY
  5
C
330
0
100
AcDbDictionary
281
     1
  3
ACAD_GROUP
350
D
  3
ACAD_LAYOUT
350
1A
  3
ACAD_MLINESTYLE
350
17
  3
ACAD_PLOTSETTINGS
350
19
  3
ACAD_PLOTSTYLENAME
350
E
  3
ACAD_SCALELIST
350
47
  0
DICTIONARY
  5
D
102
{ACAD_REACTORS
330
C
102
}
330
C
100
AcDbDictionary
281
     1
  0
DICTIONARY
  5
1A
102
{ACAD_REACTORS
330
C
102
}
330
C
100
AcDbDictionary
281
     1
  3
Layout1
350
1E
  3
Layout2
350
26
  3
Model
350
22
  0
DICTIONARY
  5
17
102
{ACAD_REACTORS
330
C
102
}
330
C
100
AcDbDictionary
281
     1
  3
Standard
350
18
  0
DICTIONARY
  5
19
102
{ACAD_REACTORS
330
C
102
}
330
C
100
AcDbDictionary
281
     1
  0
ACDBDICTIONARYWDFLT
  5
E
102
{ACAD_REACTORS
330
C
102
}
330
C
100
AcDbDictionary
281
     1
  3
Normal
350
F
100
AcDbDictionaryWithDefault
340
F
  0
DICTIONARY
  5
47
102
{ACAD_REACTORS
330
C
102
}
330
C
100
AcDbDictionary
281
     1
  3
A0
350
48
  3
A1
350
49
  3
A2
350
4A
  3
A3
350
4B
  3
A4
350
4C
  3
A5
350
4D
  3
A6
350
4E
  3
A7
350
4F
  3
A8
350
50
  3
A9
350
51
  3
B0
350
52
  3
B1
350
53
  3
B2
350
54
  3
B3
350
55
  3
B4
350
56
  3
B5
350
57
  3
B6
350
58
  3
B7
350
59
  3
B8
350
5A
  3
B9
350
5B
  3
C0
350
5C
  3
C1
350
5D
  3
C2
350
5E
  3
C3
350
5F
  3
C4
350
60
  3
C5
350
61
  3
C6
350
62
  3
C7
350
63
  3
C8
350
64
  3
C9
350
65
  3
D0
350
66
  3
D1
350
67
  3
D2
350
68
  0
LAYOUT
  5
1E
102
{ACAD_REACTORS
330
1A
102
}
330
1A
100
AcDbPlotSettings
  1

  2
none_device
  4

  6

 40
0.0
 41
0.0
 42
0.0
 43
0.0
 44
0.0
 45
0.0
 46
0.0
 47
0.0
 48
0.0
 49
0.0
140
0.0
141
0.0
142
1.0
143
1.0
 70
   688
 72
     1
 73
     0
 74
     5
  7

 75
    16
147
1.0
148
0.0
149
0.0
100
AcDbLayout
  1
Layout1
 70
     1
 71
     1
 10
0.0
 20
0.0
 11
420.0
 21
297.0
 12
0.0
 22
0.0
 32
0.0
 14
1.0000000000E+20
 24
1.0000000000E+20
 34
1.0000000000E+20
 15
-1.0000000000E+20
 25
-1.0000000000E+20
 35
-1.0000000000E+20
146
0.0
 13
0.0
 23
0.0
 33
0.0
 16
1.0
 26
0.0
 36
0.0
 17
0.0
 27
1.0
 37
0.0
 76
     0
330
1B
  0
LAYOUT
  5
26
102
{ACAD_REACTORS
330
1A
102
}
330
1A
100
AcDbPlotSettings
  1

  2
none_device
  4

  6

 40
0.0
 41
0.0
 42
0.0
 43
0.0
 44
0.0
 45
0.0
 46
0.0
 47
0.0
 48
0.0
 49
0.0
140
0.0
141
0.0
142
1.0
143
1.0
 70
   688
 72
     1
 73
     0
 74
     5
  7

 75
    16
147
1.0
148
0.0
149
0.0
100
AcDbLayout
  1
Layout2
 70
     1
 71
     2
 10
0.0
 20
0.0
 11
0.0
 21
0.0
 12
0.0
 22
0.0
 32
0.0
 14
0.0
 24
0.0
 34
0.0
 15
0.0
 25
0.0
 35
0.0
146
0.0
 13
0.0
 23
0.0
 33
0.0
 16
1.0
 26
0.0
 36
0.0
 17
0.0
 27
1.0
 37
0.0
 76
     0
330
23
  0
LAYOUT
  5
22
102
{ACAD_REACTORS
330
1A
102
}
330
1A
100
AcDbPlotSettings
  1

  2
none_device
  4
Letter_(8.50_x_11.00_Inches)
  6

 40
6.35
 41
6.35
 42
6.35000508
 43
6.35000508
 44
215.9
 45
279.4
 46
0.0
 47
0.0
 48
0.0
 49
0.0
140
0.0
141
0.0
142
1.0
143
1.0
 70
  1712
 72
     1
 73
     0
 74
     0
  7

 75
     0
147
1.0
148
0.0
149
0.0
100
AcDbLayout
  1
Model
 70
     1
 71
     0
 10
0.0
 20
0.0
 11
297.0
 21
210.0
 12
0.0
 22
0.0
 32
0.0
 14
0.0
 24
0.0
 34
0.0
 15
297.0
 25
210.0
 35
0.0
146
0.0
 13
0.0
 23
0.0
 33
0.0
 16
1.0
 26
0.0
 36
0.0
 17
0.0
 27
1.0
 37
0.0
 76
     0
330
1F
331
29
  0
MLINESTYLE
  5
18
102
{ACAD_REACTORS
330
17
102
}
330
17
100
AcDbMlineStyle
  2
Standard
 70
     0
  3

 62
   256
 51
90.0
 52
90.0
 71
     2
 49
0.5
 62
   256
  6
BYLAYER
 49
-0.5
 62
   256
  6
BYLAYER
  0
ACDBPLACEHOLDER
  5
F
102
{ACAD_REACTORS
330
E
102
}
330
E
  0
SCALE
  5
48
102
{ACAD_REACTORS
330
47
102
}
330
47
100
AcDbScale
 70
     0
300
1:1
140
1.0
141
1.0
290
     1
  0
SCALE
  5
49
102
{ACAD_REACTORS
330
47
102
}
330
47
100
AcDbScale
 70
     0
300
1:2
140
1.0
141
2.0
290
     0
  0
SCALE
  5
4A
102
{ACAD_REACTORS
330
47
102
}
330
47
100
AcDbScale
 70
     0
300
1:4
140
1.0
141
4.0
290
     0
  0
SCALE
  5
4B
102
{ACAD_REACTORS
330
47
102
}
330
47
100
AcDbScale
 70
     0
300
1:5
140
1.0
141
5.0
290
     0
  0
SCALE
  5
4C
102
{ACAD_REACTORS
330
47
102
}
330
47
100
AcDbScale
 70
     0
300
1:8
140
1.0
141
8.0
290
     0
  0
SCALE
  5
4D
102
{ACAD_REACTORS
330
47
102
}
330
47
100
AcDbScale
 70
     0
300
1:10
140
1.0
141
10.0
290
     0
  0
SCALE
  5
4E
102
{ACAD_REACTORS
330
47
102
}
330
47
100
AcDbScale
 70
     0
300
1:16
140
1.0
141
16.0
290
     0
  0
SCALE
  5
4F
102
{ACAD_REACTORS
330
47
102
}
330
47
100
AcDbScale
 70
     0
300
1:20
140
1.0
141
20.0
290
     0
  0
SCALE
  5
50
102
{ACAD_REACTORS
330
47
102
}
330
47
100
AcDbScale
 70
     0
300
1:30
140
1.0
141
30.0
290
     0
  0
SCALE
  5
51
102
{ACAD_REACTORS
330
47
102
}
330
47
100
AcDbScale
 70
     0
300
1:40
140
1.0
141
40.0
290
     0
  0
SCALE
  5
52
102
{ACAD_REACTORS
330
47
102
}
330
47
100
AcDbScale
 70
     0
300
1:50
140
1.0
141
50.0
290
     0
  0
SCALE
  5
53
102
{ACAD_REACTORS
330
47
102
}
330
47
100
AcDbScale
 70
     0
300
1:100
140
1.0
141
100.0
290
     0
  0
SCALE
  5
54
102
{ACAD_REACTORS
330
47
102
}
330
47
100
AcDbScale
 70
     0
300
2:1
140
2.0
141
1.0
290
     0
  0
SCALE
  5
55
102
{ACAD_REACTORS
330
47
102
}
330
47
100
AcDbScale
 70
     0
300
4:1
140
4.0
141
1.0
290
     0
  0
SCALE
  5
56
102
{ACAD_REACTORS
330
47
102
}
330
47
100
AcDbScale
 70
     0
300
8:1
140
8.0
141
1.0
290
     0
  0
SCALE
  5
57
102
{ACAD_REACTORS
330
47
102
}
330
47
100
AcDbScale
 70
     0
300
10:1
140
10.0
141
1.0
290
     0
  0
SCALE
  5
58
102
{ACAD_REACTORS
330
47
102
}
330
47
100
AcDbScale
 70
     0
300
100:1
140
100.0
141
1.0
290
     0
  0
SCALE
  5
59
102
{ACAD_REACTORS
330
47
102
}
330
47
100
AcDbScale
 70
     0
300
1/128" = 1'-0"
140
0.0078125
141
12.0
290
     0
  0
SCALE
  5
5A
102
{ACAD_REACTORS
330
47
102
}
330
47
100
AcDbScale
 70
     0
300
1/64" = 1'-0"
140
0.015625
141
12.0
290
     0
  0
SCALE
  5
5B
102
{ACAD_REACTORS
330
47
102
}
330
47
100
AcDbScale
 70
     0
300
1/32" = 1'-0"
140
0.03125
141
12.0
290
     0
  0
SCALE
  5
5C
102
{ACAD_REACTORS
330
47
102
}
330
47
100
AcDbScale
 70
     0
300
1/16" = 1'-0"
140
0.0625
141
12.0
290
     0
  0
SCALE
  5
5D
102
{ACAD_REACTORS
330
47
102
}
330
47
100
AcDbScale
 70
     0
300
3/32" = 1'-0"
140
0.09375
141
12.0
290
     0
  0
SCALE
  5
5E
102
{ACAD_REACTORS
330
47
102
}
330
47
100
AcDbScale
 70
     0
300
1/8" = 1'-0"
140
0.125
141
12.0
290
     0
  0
SCALE
  5
5F
102
{ACAD_REACTORS
330
47
102
}
330
47
100
AcDbScale
 70
     0
300
3/16" = 1'-0"
140
0.1875
141
12.0
290
     0
  0
SCALE
  5
60
102
{ACAD_REACTORS
330
47
102
}
330
47
100
AcDbScale
 70
     0
300
1/4" = 1'-0"
140
0.25
141
12.0
290
     0
  0
SCALE
  5
61
102
{ACAD_REACTORS
330
47
102
}
330
47
100
AcDbScale
 70
     0
300
3/8" = 1'-0"
140
0.375
141
12.0
290
     0
  0
SCALE
  5
62
102
{ACAD_REACTORS
330
47
102
}
330
47
100
AcDbScale
 70
     0
300
1/2" = 1'-0"
140
0.5
141
12.0
290
     0
  0
SCALE
  5
63
102
{ACAD_REACTORS
330
47
102
}
330
47
100
AcDbScale
 70
     0
300
3/4" = 1'-0"
140
0.75
141
12.0
290
     0
  0
SCALE
  5
64
102
{ACAD_REACTORS
330
47
102
}
330
47
100
AcDbScale
 70
     0
300
1" = 1'-0"
140
1.0
141
12.0
290
     0
  0
SCALE
  5
65
102
{ACAD_REACTORS
330
47
102
}
330
47
100
AcDbScale
 70
     0
300
1-1/2" = 1'-0"
140
1.5
141
12.0
290
     0
  0
SCALE
  5
66
102
{ACAD_REACTORS
330
47
102
}
330
47
100
AcDbScale
 70
     0
300
3" = 1'-0"
140
3.0
141
12.0
290
     0
  0
SCALE
  5
67
102
{ACAD_REACTORS
330
47
102
}
330
47
100
AcDbScale
 70
     0
300
6" = 1'-0"
140
6.0
141
12.0
290
     0
  0
SCALE
  5
68
102
{ACAD_REACTORS
330
47
102
}
330
47
100
AcDbScale
 70
     0
300
1'-0" = 1'-0"
140
12.0
141
12.0
290
     0
  0
ENDSEC
  0
EOF
