  0
SECTION
  2
HEADER
  9
$ACADVER
  1
AC1015
  9
$ACADMAINTVER
 70
     6
  9
$DWGCODEPAGE
  3
ANSI_1250
  9
$INSBASE
 10
0.0
 20
0.0
 30
0.0
  9
$EXTMIN
 10
0.0
 20
0.0
 30
0.0
  9
$EXTMAX
 10
297.0
 20
210.0
 30
0.0
  9
$LIMMIN
 10
0.0
 20
0.0
  9
$LIMMAX
 10
297.0
 20
210.0
  9
$ORTHOMODE
 70
     0
  9
$REGENMODE
 70
     1
  9
$FILLMODE
 70
     1
  9
$QTEXTMODE
 70
     0
  9
$MIRRTEXT
 70
     1
  9
$LTSCALE
 40
1.0
  9
$ATTMODE
 70
     1
  9
$TEXTSIZE
 40
3.5
  9
$TRACEWID
 40
1.0
  9
$TEXTSTYLE
  7
Standard
  9
$CLAYER
  8
0
  9
$CELTYPE
  6
ByLayer
  9
$CECOLOR
 62
   256
  9
$CELTSCALE
 40
1.0
  9
$DISPSILH
 70
     0
  9
$DIMSCALE
 40
1.0
  9
$DIMASZ
 40
3.302
  9
$DIMEXO
 40
1.0
  9
$DIMDLI
 40
3.75
  9
$DIMRND
 40
0.0
  9
$DIMDLE
 40
0.0
  9
$DIMEXE
 40
1.0
  9
$DIMTP
 40
0.0
  9
$DIMTM
 40
0.0
  9
$DIMTXT
 40
3.5
  9
$DIMCEN
 40
2.5
  9
$DIMTSZ
 40
0.0
  9
$DIMTOL
 70
     0
  9
$DIMLIM
 70
     0
  9
$DIMTIH
 70
     1
  9
$DIMTOH
 70
     1
  9
$DIMSE1
 70
     0
  9
$DIMSE2
 70
     0
  9
$DIMTAD
 70
     1
  9
$DIMZIN
 70
     0
  9
$DIMBLK
  1

  9
$DIMASO
 70
     1
  9
$DIMSHO
 70
     1
  9
$DIMPOST
  1

  9
$DIMAPOST
  1

  9
$DIMALT
 70
     0
  9
$DIMALTD
 70
     3
  9
$DIMALTF
 40
0.0393700787
  9
$DIMLFAC
 40
1.0
  9
$DIMTOFL
 70
     1
  9
$DIMTVP
 40
0.0
  9
$DIMTIX
 70
     0
  9
$DIMSOXD
 70
     0
  9
$DIMSAH
 70
     0
  9
$DIMBLK1
  1

  9
$DIMBLK2
  1

  9
$DIMSTYLE
  2
ISO-25
  9
$DIMCLRD
 70
     0
  9
$DIMCLRE
 70
     0
  9
$DIMCLRT
 70
     0
  9
$DIMTFAC
 40
1.0
  9
$DIMGAP
 40
1.524
  9
$DIMJUST
 70
     0
  9
$DIMSD1
 70
     0
  9
$DIMSD2
 70
     0
  9
$DIMTOLJ
 70
     0
  9
$DIMTZIN
 70
     0
  9
$DIMALTZ
 70
     0
  9
$DIMALTTZ
 70
     0
  9
$DIMUPT
 70
     0
  9
$DIMDEC
 70
     2
  9
$DIMTDEC
 70
     2
  9
$DIMALTU
 70
     2
  9
$DIMALTTD
 70
     3
  9
$DIMTXSTY
  7
Standard
  9
$DIMAUNIT
 70
     0
  9
$DIMADEC
 70
     2
  9
$DIMALTRND
 40
0.0
  9
$DIMAZIN
 70
     0
  9
$DIMDSEP
 70
    44
  9
$DIMATFIT
 70
     3
  9
$DIMFRAC
 70
     0
  9
$DIMLDRBLK
  1

  9
$DIMLUNIT
 70
     2
  9
$DIMLWD
 70
    -2
  9
$DIMLWE
 70
    -2
  9
$DIMTMOVE
 70
     0
  9
$LUNITS
 70
     2
  9
$LUPREC
 70
     2
  9
$SKETCHINC
 40
1.0
  9
$FILLETRAD
 40
10.0
  9
$AUNITS
 70
     0
  9
$AUPREC
 70
     2
  9
$MENU
  1
.
  9
$ELEVATION
 40
0.0
  9
$PELEVATION
 40
0.0
  9
$THICKNESS
 40
0.0
  9
$LIMCHECK
 70
     0
  9
$CHAMFERA
 40
0.0
  9
$CHAMFERB
 40
0.0
  9
$CHAMFERC
 40
0.0
  9
$CHAMFERD
 40
0.0
  9
$SKPOLY
 70
     0
  9
$TDCREATE
 40
2459278.337466239
  9
$TDUCREATE
 40
2459278.295799572
  9
$TDUPDATE
 40
2459278.337468218
  9
$TDUUPDATE
 40
2459278.295801551
  9
$TDINDWG
 40
0.0000000116
  9
$TDUSRTIMER
 40
0.0000000116
  9
$USRTIMER
 70
     1
  9
$ANGBASE
 50
0.0
  9
$ANGDIR
 70
     0
  9
$PDMODE
 70
     0
  9
$PDSIZE
 40
-1.0
  9
$PLINEWID
 40
0.0
  9
$SPLFRAME
 70
     0
  9
$SPLINETYPE
 70
     6
  9
$SPLINESEGS
 70
     8
  9
$HANDSEED
  5
37F
  9
$SURFTAB1
 70
     6
  9
$SURFTAB2
 70
     6
  9
$SURFTYPE
 70
     6
  9
$SURFU
 70
     6
  9
$SURFV
 70
     6
  9
$UCSBASE
  2

  9
$UCSNAME
  2

  9
$UCSORG
 10
0.0
 20
0.0
 30
0.0
  9
$UCSXDIR
 10
1.0
 20
0.0
 30
0.0
  9
$UCSYDIR
 10
0.0
 20
1.0
 30
0.0
  9
$UCSORTHOREF
  2

  9
$UCSORTHOVIEW
 70
     0
  9
$UCSORGTOP
 10
0.0
 20
0.0
 30
0.0
  9
$UCSORGBOTTOM
 10
0.0
 20
0.0
 30
0.0
  9
$UCSORGLEFT
 10
0.0
 20
0.0
 30
0.0
  9
$UCSORGRIGHT
 10
0.0
 20
0.0
 30
0.0
  9
$UCSORGFRONT
 10
0.0
 20
0.0
 30
0.0
  9
$UCSORGBACK
 10
0.0
 20
0.0
 30
0.0
  9
$PUCSBASE
  2

  9
$PUCSNAME
  2

  9
$PUCSORG
 10
0.0
 20
0.0
 30
0.0
  9
$PUCSXDIR
 10
1.0
 20
0.0
 30
0.0
  9
$PUCSYDIR
 10
0.0
 20
1.0
 30
0.0
  9
$PUCSORTHOREF
  2

  9
$PUCSORTHOVIEW
 70
     0
  9
$PUCSORGTOP
 10
0.0
 20
0.0
 30
0.0
  9
$PUCSORGBOTTOM
 10
0.0
 20
0.0
 30
0.0
  9
$PUCSORGLEFT
 10
0.0
 20
0.0
 30
0.0
  9
$PUCSORGRIGHT
 10
0.0
 20
0.0
 30
0.0
  9
$PUCSORGFRONT
 10
0.0
 20
0.0
 30
0.0
  9
$PUCSORGBACK
 10
0.0
 20
0.0
 30
0.0
  9
$USERI1
 70
     0
  9
$USERI2
 70
     0
  9
$USERI3
 70
     0
  9
$USERI4
 70
     0
  9
$USERI5
 70
     0
  9
$USERR1
 40
0.0
  9
$USERR2
 40
0.0
  9
$USERR3
 40
0.0
  9
$USERR4
 40
0.0
  9
$USERR5
 40
0.0
  9
$WORLDVIEW
 70
     1
  9
$SHADEDGE
 70
     3
  9
$SHADEDIF
 70
    70
  9
$TILEMODE
 70
     1
  9
$MAXACTVP
 70
    64
  9
$PINSBASE
 10
0.0
 20
0.0
 30
0.0
  9
$PLIMCHECK
 70
     0
  9
$PEXTMIN
 10
1.0000000000E+20
 20
1.0000000000E+20
 30
1.0000000000E+20
  9
$PEXTMAX
 10
-1.0000000000E+20
 20
-1.0000000000E+20
 30
-1.0000000000E+20
  9
$PLIMMIN
 10
0.0
 20
0.0
  9
$PLIMMAX
 10
420.0
 20
297.0
  9
$UNITMODE
 70
     0
  9
$VISRETAIN
 70
     1
  9
$PLINEGEN
 70
     0
  9
$PSLTSCALE
 70
     1
  9
$TREEDEPTH
 70
  3020
  9
$CMLSTYLE
  2
Standard
  9
$CMLJUST
 70
     0
  9
$CMLSCALE
 40
20.0
  9
$PROXYGRAPHICS
 70
     1
  9
$MEASUREMENT
 70
     1
  9
$CELWEIGHT
370
    -1
  9
$ENDCAPS
280
     0
  9
$JOINSTYLE
280
     0
  9
$LWDISPLAY
290
     1
  9
$INSUNITS
 70
     4
  9
$HYPERLINKBASE
  1

  9
$STYLESHEET
  1

  9
$XEDIT
290
     1
  9
$CEPSNTYPE
380
     0
  9
$PSTYLEMODE
290
     1
  9
$FINGERPRINTGUID
  2
{4AB4EFF9-AFEB-44EC-928B-EB02A6AF87B3}
  9
$VERSIONGUID
  2
{FAEB1C32-E019-11D5-929B-00C0DF256EC4}
  9
$EXTNAMES
290
     1
  9
$PSVPSCALE
 40
0.0
  9
$OLESTARTUP
290
     0
  0
ENDSEC
  0
SECTION
  2
CLASSES
  0
CLASS
  1
ACDBDICTIONARYWDFLT
  2
AcDbDictionaryWithDefault
  3
ObjectDBX Classes
 90
        0
280
     0
281
     0
  0
CLASS
  1
VISUALSTYLE
  2
AcDbVisualStyle
  3
ObjectDBX Classes
 90
     4095
280
     0
281
     0
  0
CLASS
  1
MATERIAL
  2
AcDbMaterial
  3
ObjectDBX Classes
 90
     1153
280
     0
281
     0
  0
CLASS
  1
SCALE
  2
AcDbScale
  3
ObjectDBX Classes
 90
     1153
280
     0
281
     0
  0
CLASS
  1
TABLESTYLE
  2
AcDbTableStyle
  3
ObjectDBX Classes
 90
     4095
280
     0
281
     0
  0
CLASS
  1
MLEADERSTYLE
  2
AcDbMLeaderStyle
  3
ACDB_MLEADERSTYLE_CLASS
 90
     4095
280
     0
281
     0
  0
CLASS
  1
SUN
  2
AcDbSun
  3
SCENEOE
 90
     1153
280
     0
281
     0
  0
CLASS
  1
ACDBPLACEHOLDER
  2
AcDbPlaceHolder
  3
ObjectDBX Classes
 90
        0
280
     0
281
     0
  0
CLASS
  1
LAYOUT
  2
AcDbLayout
  3
ObjectDBX Classes
 90
        0
280
     0
281
     0
  0
ENDSEC
  0
SECTION
  2
TABLES
  0
TABLE
  2
VPORT
  5
8
330
0
100
AcDbSymbolTable
 70
     1
  0
VPORT
  5
29
330
8
100
AcDbSymbolTableRecord
100
AcDbViewportTableRecord
  2
*Active
 70
     0
 10
0.0
 20
0.0
 11
1.0
 21
1.0
 12
148.5
 22
105.0
 13
0.0
 23
0.0
 14
10.0
 24
10.0
 15
10.0
 25
10.0
 16
0.0
 26
0.0
 36
1.0
 17
0.0
 27
0.0
 37
0.0
 40
210.0
 41
1.4142857143
 42
50.0
 43
0.0
 44
0.0
 50
0.0
 51
0.0
 71
     0
 72
  2000
 73
     1
 74
     3
 75
     0
 76
     0
 77
     0
 78
     0
281
     0
 65
     1
110
0.0
120
0.0
130
0.0
111
1.0
121
0.0
131
0.0
112
0.0
122
1.0
132
0.0
 79
     0
146
0.0
  0
ENDTAB
  0
TABLE
  2
LTYPE
  5
5
330
0
100
AcDbSymbolTable
 70
     8
  0
LTYPE
  5
14
330
5
100
AcDbSymbolTableRecord
100
AcDbLinetypeTableRecord
  2
ByBlock
 70
     0
  3

 72
    65
 73
     0
 40
0.0
  0
LTYPE
  5
15
330
5
100
AcDbSymbolTableRecord
100
AcDbLinetypeTableRecord
  2
ByLayer
 70
     0
  3

 72
    65
 73
     0
 40
0.0
  0
LTYPE
  5
16
330
5
100
AcDbSymbolTableRecord
100
AcDbLinetypeTableRecord
  2
Continuous
 70
     0
  3
Solid line
 72
    65
 73
     0
 40
0.0
  0
LTYPE
  5
6E
330
5
100
AcDbSymbolTableRecord
100
AcDbLinetypeTableRecord
  2
SLD-Solid
 70
     0
  3
SolidWorks Line Style
 72
    65
 73
     0
 40
0.0
  0
LTYPE
  5
6F
330
5
100
AcDbSymbolTableRecord
100
AcDbLinetypeTableRecord
  2
SLD-Dashed
 70
     0
  3
SolidWorks Line Style
 72
    65
 73
     2
 40
1.905
 49
1.27
 74
     0
 49
-0.635
 74
     0
  0
LTYPE
  5
70
330
5
100
AcDbSymbolTableRecord
100
AcDbLinetypeTableRecord
  2
SLD-Phantom
 70
     0
  3
SolidWorks Line Style
 72
    65
 73
     6
 40
12.7
 49
6.35
 74
     0
 49
-1.27
 74
     0
 49
1.27
 74
     0
 49
-1.27
 74
     0
 49
1.27
 74
     0
 49
-1.27
 74
     0
  0
LTYPE
  5
71
330
5
100
AcDbSymbolTableRecord
100
AcDbLinetypeTableRecord
  2
SLD-Chain
 70
     0
  3
SolidWorks Line Style
 72
    65
 73
     4
 40
10.16
 49
6.35
 74
     0
 49
-1.27
 74
     0
 49
1.27
 74
     0
 49
-1.27
 74
     0
  0
LTYPE
  5
72
330
5
100
AcDbSymbolTableRecord
100
AcDbLinetypeTableRecord
  2
SLD-Center
 70
     0
  3
SolidWorks Line Style
 72
    65
 73
     4
 40
19.05
 49
15.24
 74
     0
 49
-1.27
 74
     0
 49
1.27
 74
     0
 49
-1.27
 74
     0
  0
LTYPE
  5
73
330
5
100
AcDbSymbolTableRecord
100
AcDbLinetypeTableRecord
  2
SLD-Stitch
 70
     0
  3
SolidWorks Line Style
 72
    65
 73
     2
 40
0.635
 49
0.0
 74
     0
 49
-0.635
 74
     0
  0
LTYPE
  5
74
330
5
100
AcDbSymbolTableRecord
100
AcDbLinetypeTableRecord
  2
SLD-Thin-Thick-Chain
 70
     0
  3
SolidWorks Line Style
 72
    65
 73
     4
 40
10.16
 49
6.35
 74
     0
 49
-1.27
 74
     0
 49
1.27
 74
     0
 49
-1.27
 74
     0
  0
ENDTAB
  0
TABLE
  2
LAYER
  5
2
330
0
100
AcDbSymbolTable
 70
    14
  0
LAYER
  5
10
330
2
100
AcDbSymbolTableRecord
100
AcDbLayerTableRecord
  2
0
 70
     0
 62
     7
  6
Continuous
370
    -3
390
F
  0
LAYER
  5
75
330
2
100
AcDbSymbolTableRecord
100
AcDbLayerTableRecord
  2
SLD-0
 70
     0
 62
   179
  6
SLD-Solid
370
    -3
390
F
  0
LAYER
  5
76
330
2
100
AcDbSymbolTableRecord
100
AcDbLayerTableRecord
  2
80
 70
     0
 62
    -6
  6
SLD-Solid
290
     0
370
    -3
390
F
  0
LAYER
  5
77
330
2
100
AcDbSymbolTableRecord
100
AcDbLayerTableRecord
  2
81
 70
     0
 62
    -3
  6
SLD-Solid
290
     0
370
    -3
390
F
  0
LAYER
  5
78
330
2
100
AcDbSymbolTableRecord
100
AcDbLayerTableRecord
  2
1
 70
     0
 62
     4
  6
SLD-Solid
290
     0
370
    -3
390
F
  0
LAYER
  5
79
330
2
100
AcDbSymbolTableRecord
100
AcDbLayerTableRecord
  2
4
 70
     0
 62
    -2
  6
SLD-Chain
290
     0
370
    -3
390
F
  0
LAYER
  5
7A
330
2
100
AcDbSymbolTableRecord
100
AcDbLayerTableRecord
  2
2
 70
     0
 62
     7
  6
SLD-Solid
290
     0
370
    -3
390
F
  0
LAYER
  5
7B
330
2
100
AcDbSymbolTableRecord
100
AcDbLayerTableRecord
  2
SK3
 70
     0
 62
     1
  6
SLD-Dashed
290
     0
370
    -3
390
F
  0
LAYER
  5
7C
330
2
100
AcDbSymbolTableRecord
100
AcDbLayerTableRecord
  2
SK4
 70
     0
 62
     2
  6
SLD-Chain
290
     0
370
    -3
390
F
  0
LAYER
  5
7D
330
2
100
AcDbSymbolTableRecord
100
AcDbLayerTableRecord
  2
SK2
 70
     0
 62
     7
  6
SLD-Solid
290
     0
370
    -3
390
F
  0
LAYER
  5
7E
330
2
100
AcDbSymbolTableRecord
100
AcDbLayerTableRecord
  2
SK6
 70
     0
 62
     5
  6
SLD-Solid
290
     0
370
    -3
390
F
  0
LAYER
  5
7F
330
2
100
AcDbSymbolTableRecord
100
AcDbLayerTableRecord
  2
6
 70
     0
 62
     5
  6
SLD-Solid
370
    -3
390
F
  0
LAYER
  5
80
330
2
100
AcDbSymbolTableRecord
100
AcDbLayerTableRecord
  2
SK1
 70
     0
 62
     4
  6
SLD-Solid
370
    -3
390
F
  0
LAYER
  5
81
330
2
100
AcDbSymbolTableRecord
100
AcDbLayerTableRecord
  2
LAYER5
 70
     0
 62
   218
  6
SLD-Solid
370
    -3
390
F
  0
ENDTAB
  0
TABLE
  2
STYLE
  5
3
330
0
100
AcDbSymbolTable
 70
     3
  0
STYLE
  5
11
330
3
100
AcDbSymbolTableRecord
100
AcDbTextStyleTableRecord
  2
Standard
 70
     0
 40
0.0
 41
1.0
 50
0.0
 71
     0
 42
3.5
  3
txt
  4

  0
STYLE
  5
2A5
330
3
100
AcDbSymbolTableRecord
100
AcDbTextStyleTableRecord
  2
SLDTEXTSTYLE0
 70
     0
 40
0.0
 41
0.75
 50
0.0
 71
     0
 42
3.5
  3
TXT
  4

  0
STYLE
  5
37B
330
3
100
AcDbSymbolTableRecord
100
AcDbTextStyleTableRecord
  2
SLDTEXTSTYLE1
 70
     0
 40
0.0
 41
0.6666666667
 50
0.0
 71
     0
 42
3.5
  3
TXT
  4

  0
ENDTAB
  0
TABLE
  2
VIEW
  5
6
330
0
100
AcDbSymbolTable
 70
     0
  0
ENDTAB
  0
TABLE
  2
UCS
  5
7
330
0
100
AcDbSymbolTable
 70
     0
  0
ENDTAB
  0
TABLE
  2
APPID
  5
9
330
0
100
AcDbSymbolTable
 70
     1
  0
APPID
  5
12
330
9
100
AcDbSymbolTableRecord
100
AcDbRegAppTableRecord
  2
ACAD
 70
     0
  0
ENDTAB
  0
TABLE
  2
DIMSTYLE
  5
A
330
0
100
AcDbSymbolTable
 70
     5
100
AcDbDimStyleTable
  0
DIMSTYLE
105
27
330
A
100
AcDbSymbolTableRecord
100
AcDbDimStyleTableRecord
  2
ISO-25
 70
     0
 41
2.5
 42
0.625
 43
3.75
 44
1.25
 73
     0
 74
     0
 77
     1
 78
     8
140
2.5
141
2.5
143
0.0393700787
147
0.625
171
     3
172
     1
178
     0
271
     2
272
     2
274
     3
278
    44
283
     0
284
     8
340
11
  0
DIMSTYLE
105
2A6
102
{ACAD_REACTORS
330
2A4
330
2B9
330
2CC
330
2DF
330
310
330
322
330
334
330
347
102
}
330
A
100
AcDbSymbolTableRecord
100
AcDbDimStyleTableRecord
  2
SLDDIMSTYLE0
 70
     0
 41
3.302
 44
0.0
 45
0.000000001
 73
     0
 74
     0
 77
     1
 78
    12
 79
     3
140
3.5
143
0.0393700787
147
0.875
148
0.000000001
170
     1
173
     1
178
     0
271
     2
272
     2
276
     2
284
    12
340
2A5
  0
DIMSTYLE
105
2F3
102
{ACAD_REACTORS
330
2F2
330
367
330
372
102
}
330
A
100
AcDbSymbolTableRecord
100
AcDbDimStyleTableRecord
  2
SLDDIMSTYLE1
 70
     0
 41
3.302
 44
0.0
 45
0.000000001
 73
     0
 74
     0
 77
     1
 78
    12
 79
     3
140
3.5
147
0.875
173
     1
178
     0
271
     2
272
     2
276
     2
284
    12
340
2A5
  0
DIMSTYLE
105
2FE
102
{ACAD_REACTORS
330
2FD
102
}
330
A
100
AcDbSymbolTableRecord
100
AcDbDimStyleTableRecord
  2
SLDDIMSTYLE2
 70
     0
 41
3.302
 44
0.0
 45
0.000000001
 73
     0
 74
     0
 77
     1
 78
    12
 79
     3
140
3.5
143
0.0393700787
147
0.875
148
0.000000001
170
     1
173
     1
178
     0
271
     3
272
     2
276
     2
284
    12
340
2A5
  0
DIMSTYLE
105
35B
102
{ACAD_REACTORS
330
35A
102
}
330
A
100
AcDbSymbolTableRecord
100
AcDbDimStyleTableRecord
  2
SLDDIMSTYLE3
 70
     0
 41
3.302
 44
0.0
 45
0.000000001
 73
     0
 74
     0
 77
     1
 78
    12
 79
     3
140
3.5
147
0.875
172
     1
173
     1
178
     0
271
     2
272
     2
276
     2
284
    12
289
     0
340
2A5
  0
ENDTAB
  0
TABLE
  2
BLOCK_RECORD
  5
1
330
0
100
AcDbSymbolTable
 70
    14
  0
BLOCK_RECORD
  5
1F
330
1
100
AcDbSymbolTableRecord
100
AcDbBlockTableRecord
  2
*Model_Space
340
22
  0
BLOCK_RECORD
  5
1B
330
1
100
AcDbSymbolTableRecord
100
AcDbBlockTableRecord
  2
*Paper_Space
340
1E
  0
BLOCK_RECORD
  5
23
330
1
100
AcDbSymbolTableRecord
100
AcDbBlockTableRecord
  2
*Paper_Space0
340
26
  0
BLOCK_RECORD
  5
2A7
330
1
100
AcDbSymbolTableRecord
100
AcDbBlockTableRecord
  2
_D
340
0
  0
BLOCK_RECORD
  5
2BA
330
1
100
AcDbSymbolTableRecord
100
AcDbBlockTableRecord
  2
_D_1
340
0
  0
BLOCK_RECORD
  5
2CD
330
1
100
AcDbSymbolTableRecord
100
AcDbBlockTableRecord
  2
_D_2
340
0
  0
BLOCK_RECORD
  5
2E0
330
1
100
AcDbSymbolTableRecord
100
AcDbBlockTableRecord
  2
_D_3
340
0
  0
BLOCK_RECORD
  5
2F4
330
1
100
AcDbSymbolTableRecord
100
AcDbBlockTableRecord
  2
_D_4
340
0
  0
BLOCK_RECORD
  5
2FF
330
1
100
AcDbSymbolTableRecord
100
AcDbBlockTableRecord
  2
_D_5
340
0
  0
BLOCK_RECORD
  5
311
330
1
100
AcDbSymbolTableRecord
100
AcDbBlockTableRecord
  2
_D_6
340
0
  0
BLOCK_RECORD
  5
323
330
1
100
AcDbSymbolTableRecord
100
AcDbBlockTableRecord
  2
_D_7
340
0
  0
BLOCK_RECORD
  5
335
330
1
100
AcDbSymbolTableRecord
100
AcDbBlockTableRecord
  2
_D_8
340
0
  0
BLOCK_RECORD
  5
348
330
1
100
AcDbSymbolTableRecord
100
AcDbBlockTableRecord
  2
_D_9
340
0
  0
BLOCK_RECORD
  5
35C
330
1
100
AcDbSymbolTableRecord
100
AcDbBlockTableRecord
  2
_D_10
340
0
  0
BLOCK_RECORD
  5
368
330
1
100
AcDbSymbolTableRecord
100
AcDbBlockTableRecord
  2
_D_11
340
0
  0
BLOCK_RECORD
  5
373
330
1
100
AcDbSymbolTableRecord
100
AcDbBlockTableRecord
  2
_D_12
340
0
  0
ENDTAB
  0
ENDSEC
  0
SECTION
  2
BLOCKS
  0
BLOCK
  5
20
330
1F
100
AcDbEntity
  8
0
100
AcDbBlockBegin
  2
*Model_Space
 70
     0
 10
0.0
 20
0.0
 30
0.0
  3
*Model_Space
  1

  0
ENDBLK
  5
21
330
1F
100
AcDbEntity
  8
0
100
AcDbBlockEnd
  0
BLOCK
  5
1C
330
1B
100
AcDbEntity
 67
     1
  8
0
100
AcDbBlockBegin
  2
*Paper_Space
 70
     0
 10
0.0
 20
0.0
 30
0.0
  3
*Paper_Space
  1

  0
ENDBLK
  5
1D
330
1B
100
AcDbEntity
 67
     1
  8
0
100
AcDbBlockEnd
  0
BLOCK
  5
24
330
23
100
AcDbEntity
  8
0
100
AcDbBlockBegin
  2
*Paper_Space0
 70
     0
 10
0.0
 20
0.0
 30
0.0
  3
*Paper_Space0
  1

  0
ENDBLK
  5
25
330
23
100
AcDbEntity
  8
0
100
AcDbBlockEnd
  0
BLOCK
  5
2A8
330
2A7
100
AcDbEntity
  8
0
100
AcDbBlockBegin
  2
_D
 70
     0
 10
0.0
 20
0.0
 30
0.0
  3
_D
  1

  0
SOLID
  5
2AA
330
2A7
100
AcDbEntity
  8
2
100
AcDbTrace
 10
0.0
 20
71.8890852726
 30
0.0
 11
3.302
 21
71.3810852726
 31
0.0
 12
3.302
 22
72.3970852726
 32
0.0
 13
3.302
 23
72.3970852726
 33
0.0
  0
SOLID
  5
2AB
330
2A7
100
AcDbEntity
  8
2
100
AcDbTrace
 10
101.6
 20
71.8890852726
 30
0.0
 11
98.298
 21
72.3970852726
 31
0.0
 12
98.298
 22
71.3810852726
 32
0.0
 13
98.298
 23
71.3810852726
 33
0.0
  0
LINE
  5
2AC
330
2A7
100
AcDbEntity
  8
2
100
AcDbLine
 10
34.0278003308
 20
82.6819669886
 30
0.0
 11
32.9613940734
 21
82.6819669886
 31
0.0
  0
LINE
  5
2AD
330
2A7
100
AcDbEntity
  8
2
100
AcDbLine
 10
32.9613940734
 20
82.6819669886
 30
0.0
 11
32.9613940734
 21
77.1257169976
 31
0.0
  0
LINE
  5
2AE
330
2A7
100
AcDbEntity
  8
2
100
AcDbLine
 10
32.9613940734
 20
77.1257169976
 30
0.0
 11
34.0278003308
 21
77.1257169976
 31
0.0
  0
LINE
  5
2AF
330
2A7
100
AcDbEntity
  8
2
100
AcDbLine
 10
43.0791893917
 20
82.6819669886
 30
0.0
 11
44.1455956492
 21
82.6819669886
 31
0.0
  0
LINE
  5
2B0
330
2A7
100
AcDbEntity
  8
2
100
AcDbLine
 10
44.1455956492
 20
82.6819669886
 30
0.0
 11
44.1455956492
 21
77.1257169976
 31
0.0
  0
LINE
  5
2B1
330
2A7
100
AcDbEntity
  8
2
100
AcDbLine
 10
44.1455956492
 20
77.1257169976
 30
0.0
 11
43.0791893917
 21
77.1257169976
 31
0.0
  0
LINE
  5
2B2
330
2A7
100
AcDbEntity
  8
2
100
AcDbLine
 10
0.0
 20
35.925
 30
0.0
 11
0.0
 21
72.8890852726
 31
0.0
  0
LINE
  5
2B3
330
2A7
100
AcDbEntity
  8
2
100
AcDbLine
 10
101.6
 20
25.257
 30
0.0
 11
101.6
 21
72.8890852726
 31
0.0
  0
LINE
  5
2B4
330
2A7
100
AcDbEntity
  8
2
100
AcDbLine
 10
0.0
 20
71.8890852726
 30
0.0
 11
101.6
 21
71.8890852726
 31
0.0
  0
MTEXT
  5
2B5
330
2A7
100
AcDbEntity
  8
2
100
AcDbMText
 10
31.9144322192
 20
76.4542945384
 30
0.0
 40
3.5
 41
0.0
 71
     1
 72
     1
  1

  7
SLDTEXTSTYLE0
 73
     1
 44
1.0
  0
MTEXT
  5
2B6
330
2A7
100
AcDbEntity
  8
2
100
AcDbMText
 10
34.0278003308
 20
81.6374539121
 30
0.0
 40
3.5
 41
0.0
 71
     1
 72
     1
  1
4,00
  7
SLDTEXTSTYLE0
 73
     1
 44
1.0
  0
MTEXT
  5
2B7
330
2A7
100
AcDbEntity
  8
2
100
AcDbMText
 10
32.7347446176
 20
76.4008223618
 30
0.0
 40
3.5
 41
0.0
 71
     1
 72
     1
  1
101,6
  7
SLDTEXTSTYLE0
 73
     1
 44
1.0
  0
MTEXT
  5
2B8
330
2A7
100
AcDbEntity
  8
2
100
AcDbMText
 10
46.5245020231
 20
76.4542945384
 30
0.0
 40
3.5
 41
0.0
 71
     1
 72
     1
  1

  7
SLDTEXTSTYLE0
 73
     1
 44
1.0
  0
ENDBLK
  5
2A9
330
2A7
100
AcDbEntity
  8
0
100
AcDbBlockEnd
  0
BLOCK
  5
2BB
330
2BA
100
AcDbEntity
  8
0
100
AcDbBlockBegin
  2
_D_1
 70
     0
 10
0.0
 20
0.0
 30
0.0
  3
_D_1
  1

  0
SOLID
  5
2BD
330
2BA
100
AcDbEntity
  8
SK2
100
AcDbTrace
 10
19.05
 20
59.1456174505
 30
0.0
 11
22.352
 21
58.6376174505
 31
0.0
 12
22.352
 22
59.6536174505
 32
0.0
 13
22.352
 23
59.6536174505
 33
0.0
  0
SOLID
  5
2BE
330
2BA
100
AcDbEntity
  8
SK2
100
AcDbTrace
 10
101.6
 20
59.1456174505
 30
0.0
 11
98.298
 21
59.6536174505
 31
0.0
 12
98.298
 22
58.6376174505
 32
0.0
 13
98.298
 23
58.6376174505
 33
0.0
  0
LINE
  5
2BF
330
2BA
100
AcDbEntity
  8
SK2
100
AcDbLine
 10
48.1080196668
 20
69.9384991666
 30
0.0
 11
47.0416134093
 21
69.9384991666
 31
0.0
  0
LINE
  5
2C0
330
2BA
100
AcDbEntity
  8
SK2
100
AcDbLine
 10
47.0416134093
 20
69.9384991666
 30
0.0
 11
47.0416134093
 21
64.3822491755
 31
0.0
  0
LINE
  5
2C1
330
2BA
100
AcDbEntity
  8
SK2
100
AcDbLine
 10
47.0416134093
 20
64.3822491755
 30
0.0
 11
48.1080196668
 21
64.3822491755
 31
0.0
  0
LINE
  5
2C2
330
2BA
100
AcDbEntity
  8
SK2
100
AcDbLine
 10
57.1594087277
 20
69.9384991666
 30
0.0
 11
58.2258149852
 21
69.9384991666
 31
0.0
  0
LINE
  5
2C3
330
2BA
100
AcDbEntity
  8
SK2
100
AcDbLine
 10
58.2258149852
 20
69.9384991666
 30
0.0
 11
58.2258149852
 21
64.3822491755
 31
0.0
  0
LINE
  5
2C4
330
2BA
100
AcDbEntity
  8
SK2
100
AcDbLine
 10
58.2258149852
 20
64.3822491755
 30
0.0
 11
57.1594087277
 21
64.3822491755
 31
0.0
  0
LINE
  5
2C5
330
2BA
100
AcDbEntity
  8
SK2
100
AcDbLine
 10
19.05
 20
47.5560855313
 30
0.0
 11
19.05
 21
60.1456174505
 31
0.0
  0
LINE
  5
2C6
330
2BA
100
AcDbEntity
  8
SK2
100
AcDbLine
 10
101.6
 20
25.257
 30
0.0
 11
101.6
 21
60.1456174505
 31
0.0
  0
LINE
  5
2C7
330
2BA
100
AcDbEntity
  8
SK2
100
AcDbLine
 10
19.05
 20
59.1456174505
 30
0.0
 11
101.6
 21
59.1456174505
 31
0.0
  0
MTEXT
  5
2C8
330
2BA
100
AcDbEntity
  8
SK2
100
AcDbMText
 10
45.9946515551
 20
63.7108267164
 30
0.0
 40
3.5
 41
0.0
 71
     1
 72
     1
  1

  7
SLDTEXTSTYLE0
 73
     1
 44
1.0
  0
MTEXT
  5
2C9
330
2BA
100
AcDbEntity
  8
SK2
100
AcDbMText
 10
48.1080196668
 20
68.8939860901
 30
0.0
 40
3.5
 41
0.0
 71
     1
 72
     1
  1
3,25
  7
SLDTEXTSTYLE0
 73
     1
 44
1.0
  0
MTEXT
  5
2CA
330
2BA
100
AcDbEntity
  8
SK2
100
AcDbMText
 10
46.8149639536
 20
63.6573545397
 30
0.0
 40
3.5
 41
0.0
 71
     1
 72
     1
  1
82,55
  7
SLDTEXTSTYLE0
 73
     1
 44
1.0
  0
MTEXT
  5
2CB
330
2BA
100
AcDbEntity
  8
SK2
100
AcDbMText
 10
60.604721359
 20
63.7108267164
 30
0.0
 40
3.5
 41
0.0
 71
     1
 72
     1
  1

  7
SLDTEXTSTYLE0
 73
     1
 44
1.0
  0
ENDBLK
  5
2BC
330
2BA
100
AcDbEntity
  8
0
100
AcDbBlockEnd
  0
BLOCK
  5
2CE
330
2CD
100
AcDbEntity
  8
0
100
AcDbBlockBegin
  2
_D_2
 70
     0
 10
0.0
 20
0.0
 30
0.0
  3
_D_2
  1

  0
SOLID
  5
2D0
330
2CD
100
AcDbEntity
  8
SK2
100
AcDbTrace
 10
101.6
 20
44.0420783157
 30
0.0
 11
98.298
 21
44.5500783157
 31
0.0
 12
98.298
 22
43.5340783157
 32
0.0
 13
98.298
 23
43.5340783157
 33
0.0
  0
SOLID
  5
2D1
330
2CD
100
AcDbEntity
  8
SK2
100
AcDbTrace
 10
73.025
 20
44.0420783157
 30
0.0
 11
76.327
 21
43.5340783157
 31
0.0
 12
76.327
 22
44.5500783157
 32
0.0
 13
76.327
 23
44.5500783157
 33
0.0
  0
LINE
  5
2D2
330
2CD
100
AcDbEntity
  8
SK2
100
AcDbLine
 10
83.3866075215
 20
54.8349600317
 30
0.0
 11
82.3202012641
 21
54.8349600317
 31
0.0
  0
LINE
  5
2D3
330
2CD
100
AcDbEntity
  8
SK2
100
AcDbLine
 10
82.3202012641
 20
54.8349600317
 30
0.0
 11
82.3202012641
 21
49.2787100406
 31
0.0
  0
LINE
  5
2D4
330
2CD
100
AcDbEntity
  8
SK2
100
AcDbLine
 10
82.3202012641
 20
49.2787100406
 30
0.0
 11
83.3866075215
 21
49.2787100406
 31
0.0
  0
LINE
  5
2D5
330
2CD
100
AcDbEntity
  8
SK2
100
AcDbLine
 10
92.4379965825
 20
54.8349600317
 30
0.0
 11
93.5044028399
 21
54.8349600317
 31
0.0
  0
LINE
  5
2D6
330
2CD
100
AcDbEntity
  8
SK2
100
AcDbLine
 10
93.5044028399
 20
54.8349600317
 30
0.0
 11
93.5044028399
 21
49.2787100406
 31
0.0
  0
LINE
  5
2D7
330
2CD
100
AcDbEntity
  8
SK2
100
AcDbLine
 10
93.5044028399
 20
49.2787100406
 30
0.0
 11
92.4379965825
 21
49.2787100406
 31
0.0
  0
LINE
  5
2D8
330
2CD
100
AcDbEntity
  8
SK2
100
AcDbLine
 10
101.6
 20
25.257
 30
0.0
 11
101.6
 21
45.0420783157
 31
0.0
  0
LINE
  5
2D9
330
2CD
100
AcDbEntity
  8
SK2
100
AcDbLine
 10
73.025
 20
35.825
 30
0.0
 11
73.025
 21
45.0420783157
 31
0.0
  0
LINE
  5
2DA
330
2CD
100
AcDbEntity
  8
SK2
100
AcDbLine
 10
101.6
 20
44.0420783157
 30
0.0
 11
73.025
 21
44.0420783157
 31
0.0
  0
MTEXT
  5
2DB
330
2CD
100
AcDbEntity
  8
SK2
100
AcDbMText
 10
81.2732394099
 20
48.6072875815
 30
0.0
 40
3.5
 41
0.0
 71
     1
 72
     1
  1

  7
SLDTEXTSTYLE0
 73
     1
 44
1.0
  0
MTEXT
  5
2DC
330
2CD
100
AcDbEntity
  8
SK2
100
AcDbMText
 10
83.3866075215
 20
53.7904469552
 30
0.0
 40
3.5
 41
0.0
 71
     1
 72
     1
  1
1,13
  7
SLDTEXTSTYLE0
 73
     1
 44
1.0
  0
MTEXT
  5
2DD
330
2CD
100
AcDbEntity
  8
SK2
100
AcDbMText
 10
82.0935518084
 20
48.5538154049
 30
0.0
 40
3.5
 41
0.0
 71
     1
 72
     1
  1
28,58
  7
SLDTEXTSTYLE0
 73
     1
 44
1.0
  0
MTEXT
  5
2DE
330
2CD
100
AcDbEntity
  8
SK2
100
AcDbMText
 10
95.8833092138
 20
48.6072875815
 30
0.0
 40
3.5
 41
0.0
 71
     1
 72
     1
  1

  7
SLDTEXTSTYLE0
 73
     1
 44
1.0
  0
ENDBLK
  5
2CF
330
2CD
100
AcDbEntity
  8
0
100
AcDbBlockEnd
  0
BLOCK
  5
2E1
330
2E0
100
AcDbEntity
  8
0
100
AcDbBlockBegin
  2
_D_3
 70
     0
 10
0.0
 20
0.0
 30
0.0
  3
_D_3
  1

  0
SOLID
  5
2E3
330
2E0
100
AcDbEntity
  8
SK2
100
AcDbTrace
 10
73.025
 20
44.0420783157
 30
0.0
 11
69.723
 21
44.5500783157
 31
0.0
 12
69.723
 22
43.5340783157
 32
0.0
 13
69.723
 23
43.5340783157
 33
0.0
  0
SOLID
  5
2E4
330
2E0
100
AcDbEntity
  8
SK2
100
AcDbTrace
 10
47.625
 20
44.0420783157
 30
0.0
 11
50.927
 21
43.5340783157
 31
0.0
 12
50.927
 22
44.5500783157
 32
0.0
 13
50.927
 23
44.5500783157
 33
0.0
  0
LINE
  5
2E5
330
2E0
100
AcDbEntity
  8
SK2
100
AcDbLine
 10
55.6750055531
 20
54.8349600317
 30
0.0
 11
54.6085992957
 21
54.8349600317
 31
0.0
  0
LINE
  5
2E6
330
2E0
100
AcDbEntity
  8
SK2
100
AcDbLine
 10
54.6085992957
 20
54.8349600317
 30
0.0
 11
54.6085992957
 21
49.2787100406
 31
0.0
  0
LINE
  5
2E7
330
2E0
100
AcDbEntity
  8
SK2
100
AcDbLine
 10
54.6085992957
 20
49.2787100406
 30
0.0
 11
55.6750055531
 21
49.2787100406
 31
0.0
  0
LINE
  5
2E8
330
2E0
100
AcDbEntity
  8
SK2
100
AcDbLine
 10
64.726394614
 20
54.8349600317
 30
0.0
 11
65.7928008715
 21
54.8349600317
 31
0.0
  0
LINE
  5
2E9
330
2E0
100
AcDbEntity
  8
SK2
100
AcDbLine
 10
65.7928008715
 20
54.8349600317
 30
0.0
 11
65.7928008715
 21
49.2787100406
 31
0.0
  0
LINE
  5
2EA
330
2E0
100
AcDbEntity
  8
SK2
100
AcDbLine
 10
65.7928008715
 20
49.2787100406
 30
0.0
 11
64.726394614
 21
49.2787100406
 31
0.0
  0
LINE
  5
2EB
330
2E0
100
AcDbEntity
  8
SK2
100
AcDbLine
 10
73.025
 20
35.825
 30
0.0
 11
73.025
 21
45.0420783157
 31
0.0
  0
LINE
  5
2EC
330
2E0
100
AcDbEntity
  8
SK2
100
AcDbLine
 10
47.625
 20
35.825
 30
0.0
 11
47.625
 21
45.0420783157
 31
0.0
  0
LINE
  5
2ED
330
2E0
100
AcDbEntity
  8
SK2
100
AcDbLine
 10
73.025
 20
44.0420783157
 30
0.0
 11
47.625
 21
44.0420783157
 31
0.0
  0
MTEXT
  5
2EE
330
2E0
100
AcDbEntity
  8
SK2
100
AcDbMText
 10
53.5616374415
 20
48.6072875815
 30
0.0
 40
3.5
 41
0.0
 71
     1
 72
     1
  1

  7
SLDTEXTSTYLE0
 73
     1
 44
1.0
  0
MTEXT
  5
2EF
330
2E0
100
AcDbEntity
  8
SK2
100
AcDbMText
 10
55.6750055531
 20
53.7904469552
 30
0.0
 40
3.5
 41
0.0
 71
     1
 72
     1
  1
1,00
  7
SLDTEXTSTYLE0
 73
     1
 44
1.0
  0
MTEXT
  5
2F0
330
2E0
100
AcDbEntity
  8
SK2
100
AcDbMText
 10
55.6750055531
 20
48.5538154049
 30
0.0
 40
3.5
 41
0.0
 71
     1
 72
     1
  1
25,4
  7
SLDTEXTSTYLE0
 73
     1
 44
1.0
  0
MTEXT
  5
2F1
330
2E0
100
AcDbEntity
  8
SK2
100
AcDbMText
 10
68.1717072454
 20
48.6072875815
 30
0.0
 40
3.5
 41
0.0
 71
     1
 72
     1
  1

  7
SLDTEXTSTYLE0
 73
     1
 44
1.0
  0
ENDBLK
  5
2E2
330
2E0
100
AcDbEntity
  8
0
100
AcDbBlockEnd
  0
BLOCK
  5
2F5
330
2F4
100
AcDbEntity
  8
0
100
AcDbBlockBegin
  2
_D_4
 70
     0
 10
0.0
 20
0.0
 30
0.0
  3
_D_4
  1

  0
SOLID
  5
2F7
330
2F4
100
AcDbEntity
  8
SK2
100
AcDbTrace
 10
0.0
 20
59.1456174505
 30
0.0
 11
3.302
 21
58.6376174505
 31
0.0
 12
3.302
 22
59.6536174505
 32
0.0
 13
3.302
 23
59.6536174505
 33
0.0
  0
SOLID
  5
2F8
330
2F4
100
AcDbEntity
  8
SK2
100
AcDbTrace
 10
19.05
 20
59.1456174505
 30
0.0
 11
15.748
 21
59.6536174505
 31
0.0
 12
15.748
 22
58.6376174505
 32
0.0
 13
15.748
 23
58.6376174505
 33
0.0
  0
LINE
  5
2F9
330
2F4
100
AcDbEntity
  8
SK2
100
AcDbLine
 10
0.0
 20
35.925
 30
0.0
 11
0.0
 21
60.1456174505
 31
0.0
  0
LINE
  5
2FA
330
2F4
100
AcDbEntity
  8
SK2
100
AcDbLine
 10
19.05
 20
47.5560855313
 30
0.0
 11
19.05
 21
60.1456174505
 31
0.0
  0
LINE
  5
2FB
330
2F4
100
AcDbEntity
  8
SK2
100
AcDbLine
 10
0.0
 20
59.1456174505
 30
0.0
 11
19.05
 21
59.1456174505
 31
0.0
  0
MTEXT
  5
2FC
330
2F4
100
AcDbEntity
  8
SK2
100
AcDbMText
 10
2.6965895403
 20
63.6573543651
 30
0.0
 40
3.5
 41
0.0
 71
     1
 72
     1
  1
19,05
  7
SLDTEXTSTYLE0
 73
     1
 44
1.0
  0
ENDBLK
  5
2F6
330
2F4
100
AcDbEntity
  8
0
100
AcDbBlockEnd
  0
BLOCK
  5
300
330
2FF
100
AcDbEntity
  8
0
100
AcDbBlockBegin
  2
_D_5
 70
     0
 10
0.0
 20
0.0
 30
0.0
  3
_D_5
  1

  0
SOLID
  5
302
330
2FF
100
AcDbEntity
  8
SK2
100
AcDbTrace
 10
117.3958888255
 20
19.05
 30
0.0
 11
116.8878888255
 21
15.748
 31
0.0
 12
117.9038888255
 22
15.748
 32
0.0
 13
117.9038888255
 23
15.748
 33
0.0
  0
SOLID
  5
303
330
2FF
100
AcDbEntity
  8
SK2
100
AcDbTrace
 10
117.3958888255
 20
-19.05
 30
0.0
 11
117.9038888255
 21
-15.748
 31
0.0
 12
116.8878888255
 22
-15.748
 32
0.0
 13
116.8878888255
 23
-15.748
 33
0.0
  0
LINE
  5
304
330
2FF
100
AcDbEntity
  8
SK2
100
AcDbLine
 10
106.6030071095
 20
-4.8852965351
 30
0.0
 11
106.6030071095
 21
-5.9517027925
 31
0.0
  0
LINE
  5
305
330
2FF
100
AcDbEntity
  8
SK2
100
AcDbLine
 10
106.6030071095
 20
-5.9517027925
 30
0.0
 11
112.1592571005
 21
-5.9517027925
 31
0.0
  0
LINE
  5
306
330
2FF
100
AcDbEntity
  8
SK2
100
AcDbLine
 10
112.1592571005
 20
-5.9517027925
 30
0.0
 11
112.1592571005
 21
-4.8852965351
 31
0.0
  0
LINE
  5
307
330
2FF
100
AcDbEntity
  8
SK2
100
AcDbLine
 10
106.6030071095
 20
4.1660925258
 30
0.0
 11
106.6030071095
 21
5.2324987833
 31
0.0
  0
LINE
  5
308
330
2FF
100
AcDbEntity
  8
SK2
100
AcDbLine
 10
106.6030071095
 20
5.2324987833
 30
0.0
 11
112.1592571005
 21
5.2324987833
 31
0.0
  0
LINE
  5
309
330
2FF
100
AcDbEntity
  8
SK2
100
AcDbLine
 10
112.1592571005
 20
5.2324987833
 30
0.0
 11
112.1592571005
 21
4.1660925258
 31
0.0
  0
LINE
  5
30A
330
2FF
100
AcDbEntity
  8
SK2
100
AcDbLine
 10
101.1
 20
19.05
 30
0.0
 11
118.3958888255
 21
19.05
 31
0.0
  0
LINE
  5
30B
330
2FF
100
AcDbEntity
  8
SK2
100
AcDbLine
 10
101.1
 20
-19.05
 30
0.0
 11
118.3958888255
 21
-19.05
 31
0.0
  0
LINE
  5
30C
330
2FF
100
AcDbEntity
  8
SK2
100
AcDbLine
 10
117.3958888255
 20
19.05
 30
0.0
 11
117.3958888255
 21
-19.05
 31
0.0
  0
MTEXT
  5
30D
330
2FF
100
AcDbEntity
  8
SK2
100
AcDbMText
 10
107.6475201859
 20
-4.8852965351
 30
0.0
 40
3.5
 41
0.0
 71
     1
 72
     1
  1
1,50
  7
SLDTEXTSTYLE0
 11
-7.932373437343760E-15
 21
1.0
 31
0.0
 73
     1
 44
1.0
  0
MTEXT
  5
30E
330
2FF
100
AcDbEntity
  8
SK2
100
AcDbMText
 10
112.8841517363
 20
-7.5245156999
 30
0.0
 40
3.5
 41
0.0
 71
     1
 72
     1
  1
%%c
  7
SLDTEXTSTYLE0
 11
-7.932373437343760E-15
 21
1.0
 31
0.0
 73
     1
 44
1.0
  0
MTEXT
  5
30F
330
2FF
100
AcDbEntity
  8
SK2
100
AcDbMText
 10
112.8841517363
 20
-2.2460783015
 30
0.0
 40
3.5
 41
0.0
 71
     1
 72
     1
  1
38,1
  7
SLDTEXTSTYLE0
 11
-7.932373437343760E-15
 21
1.0
 31
0.0
 73
     1
 44
1.0
  0
ENDBLK
  5
301
330
2FF
100
AcDbEntity
  8
0
100
AcDbBlockEnd
  0
BLOCK
  5
312
330
311
100
AcDbEntity
  8
0
100
AcDbBlockBegin
  2
_D_6
 70
     0
 10
0.0
 20
0.0
 30
0.0
  3
_D_6
  1

  0
SOLID
  5
314
330
311
100
AcDbEntity
  8
SK2
100
AcDbTrace
 10
132.9918393912
 20
24.257
 30
0.0
 11
132.4838393912
 21
20.955
 31
0.0
 12
133.4998393912
 22
20.955
 32
0.0
 13
133.4998393912
 23
20.955
 33
0.0
  0
SOLID
  5
315
330
311
100
AcDbEntity
  8
SK2
100
AcDbTrace
 10
132.9918393912
 20
-24.257
 30
0.0
 11
133.4998393912
 21
-20.955
 31
0.0
 12
132.4838393912
 22
-20.955
 32
0.0
 13
132.4838393912
 23
-20.955
 33
0.0
  0
LINE
  5
316
330
311
100
AcDbEntity
  8
SK2
100
AcDbLine
 10
122.1989576751
 20
-4.8852965351
 30
0.0
 11
122.1989576751
 21
-5.9517027925
 31
0.0
  0
LINE
  5
317
330
311
100
AcDbEntity
  8
SK2
100
AcDbLine
 10
122.1989576751
 20
-5.9517027925
 30
0.0
 11
127.7552076662
 21
-5.9517027925
 31
0.0
  0
LINE
  5
318
330
311
100
AcDbEntity
  8
SK2
100
AcDbLine
 10
127.7552076662
 20
-5.9517027925
 30
0.0
 11
127.7552076662
 21
-4.8852965351
 31
0.0
  0
LINE
  5
319
330
311
100
AcDbEntity
  8
SK2
100
AcDbLine
 10
122.1989576751
 20
4.1660925258
 30
0.0
 11
122.1989576751
 21
5.2324987833
 31
0.0
  0
LINE
  5
31A
330
311
100
AcDbEntity
  8
SK2
100
AcDbLine
 10
122.1989576751
 20
5.2324987833
 30
0.0
 11
127.7552076662
 21
5.2324987833
 31
0.0
  0
LINE
  5
31B
330
311
100
AcDbEntity
  8
SK2
100
AcDbLine
 10
127.7552076662
 20
5.2324987833
 30
0.0
 11
127.7552076662
 21
4.1660925258
 31
0.0
  0
LINE
  5
31C
330
311
100
AcDbEntity
  8
SK2
100
AcDbLine
 10
102.6
 20
24.257
 30
0.0
 11
133.9918393912
 21
24.257
 31
0.0
  0
LINE
  5
31D
330
311
100
AcDbEntity
  8
SK2
100
AcDbLine
 10
102.6
 20
-24.257
 30
0.0
 11
133.9918393912
 21
-24.257
 31
0.0
  0
LINE
  5
31E
330
311
100
AcDbEntity
  8
SK2
100
AcDbLine
 10
132.9918393912
 20
24.257
 30
0.0
 11
132.9918393912
 21
-24.257
 31
0.0
  0
MTEXT
  5
31F
330
311
100
AcDbEntity
  8
SK2
100
AcDbMText
 10
123.2434707516
 20
-4.8852965351
 30
0.0
 40
3.5
 41
0.0
 71
     1
 72
     1
  1
1,91
  7
SLDTEXTSTYLE0
 11
-7.044195017643634E-15
 21
1.0
 31
0.0
 73
     1
 44
1.0
  0
MTEXT
  5
320
330
311
100
AcDbEntity
  8
SK2
100
AcDbMText
 10
128.480102302
 20
-8.8175709474
 30
0.0
 40
3.5
 41
0.0
 71
     1
 72
     1
  1
%%c
  7
SLDTEXTSTYLE0
 11
-7.044195017643634E-15
 21
1.0
 31
0.0
 73
     1
 44
1.0
  0
MTEXT
  5
321
330
311
100
AcDbEntity
  8
SK2
100
AcDbMText
 10
128.480102302
 20
-3.5391335491
 30
0.0
 40
3.5
 41
0.0
 71
     1
 72
     1
  1
48,51
  7
SLDTEXTSTYLE0
 11
-7.044195017643634E-15
 21
1.0
 31
0.0
 73
     1
 44
1.0
  0
ENDBLK
  5
313
330
311
100
AcDbEntity
  8
0
100
AcDbBlockEnd
  0
BLOCK
  5
324
330
323
100
AcDbEntity
  8
0
100
AcDbBlockBegin
  2
_D_7
 70
     0
 10
0.0
 20
0.0
 30
0.0
  3
_D_7
  1

  0
SOLID
  5
326
330
323
100
AcDbEntity
  8
SK2
100
AcDbTrace
 10
146.7839933134
 20
34.925
 30
0.0
 11
146.2759933134
 21
31.623
 31
0.0
 12
147.2919933134
 22
31.623
 32
0.0
 13
147.2919933134
 23
31.623
 33
0.0
  0
SOLID
  5
327
330
323
100
AcDbEntity
  8
SK2
100
AcDbTrace
 10
146.7839933134
 20
-34.925
 30
0.0
 11
147.2919933134
 21
-31.623
 31
0.0
 12
146.2759933134
 22
-31.623
 32
0.0
 13
146.2759933134
 23
-31.623
 33
0.0
  0
LINE
  5
328
330
323
100
AcDbEntity
  8
SK2
100
AcDbLine
 10
135.9911115974
 20
-4.8852965351
 30
0.0
 11
135.9911115974
 21
-5.9517027925
 31
0.0
  0
LINE
  5
329
330
323
100
AcDbEntity
  8
SK2
100
AcDbLine
 10
135.9911115974
 20
-5.9517027925
 30
0.0
 11
141.5473615884
 21
-5.9517027925
 31
0.0
  0
LINE
  5
32A
330
323
100
AcDbEntity
  8
SK2
100
AcDbLine
 10
141.5473615884
 20
-5.9517027925
 30
0.0
 11
141.5473615884
 21
-4.8852965351
 31
0.0
  0
LINE
  5
32B
330
323
100
AcDbEntity
  8
SK2
100
AcDbLine
 10
135.9911115974
 20
4.1660925258
 30
0.0
 11
135.9911115974
 21
5.2324987833
 31
0.0
  0
LINE
  5
32C
330
323
100
AcDbEntity
  8
SK2
100
AcDbLine
 10
135.9911115974
 20
5.2324987833
 30
0.0
 11
141.5473615884
 21
5.2324987833
 31
0.0
  0
LINE
  5
32D
330
323
100
AcDbEntity
  8
SK2
100
AcDbLine
 10
141.5473615884
 20
5.2324987833
 30
0.0
 11
141.5473615884
 21
4.1660925258
 31
0.0
  0
LINE
  5
32E
330
323
100
AcDbEntity
  8
SK2
100
AcDbLine
 10
91.932
 20
34.925
 30
0.0
 11
147.7839933134
 21
34.925
 31
0.0
  0
LINE
  5
32F
330
323
100
AcDbEntity
  8
SK2
100
AcDbLine
 10
91.932
 20
-34.925
 30
0.0
 11
147.7839933134
 21
-34.925
 31
0.0
  0
LINE
  5
330
330
323
100
AcDbEntity
  8
SK2
100
AcDbLine
 10
146.7839933134
 20
34.925
 30
0.0
 11
146.7839933134
 21
-34.925
 31
0.0
  0
MTEXT
  5
331
330
323
100
AcDbEntity
  8
SK2
100
AcDbMText
 10
137.0356246739
 20
-4.8852965351
 30
0.0
 40
3.5
 41
0.0
 71
     1
 72
     1
  1
2,75
  7
SLDTEXTSTYLE0
 11
-7.044195017643634E-15
 21
1.0
 31
0.0
 73
     1
 44
1.0
  0
MTEXT
  5
332
330
323
100
AcDbEntity
  8
SK2
100
AcDbMText
 10
142.2722562242
 20
-8.8175709474
 30
0.0
 40
3.5
 41
0.0
 71
     1
 72
     1
  1
%%c
  7
SLDTEXTSTYLE0
 11
-7.044195017643634E-15
 21
1.0
 31
0.0
 73
     1
 44
1.0
  0
MTEXT
  5
333
330
323
100
AcDbEntity
  8
SK2
100
AcDbMText
 10
142.2722562242
 20
-3.5391335491
 30
0.0
 40
3.5
 41
0.0
 71
     1
 72
     1
  1
69,85
  7
SLDTEXTSTYLE0
 11
-7.044195017643634E-15
 21
1.0
 31
0.0
 73
     1
 44
1.0
  0
ENDBLK
  5
325
330
323
100
AcDbEntity
  8
0
100
AcDbBlockEnd
  0
BLOCK
  5
336
330
335
100
AcDbEntity
  8
0
100
AcDbBlockBegin
  2
_D_8
 70
     0
 10
0.0
 20
0.0
 30
0.0
  3
_D_8
  1

  0
SOLID
  5
338
330
335
100
AcDbEntity
  8
SK2
100
AcDbTrace
 10
-101.6
 20
-73.4844001037
 30
0.0
 11
-98.298
 21
-73.9924001037
 31
0.0
 12
-98.298
 22
-72.9764001037
 32
0.0
 13
-98.298
 23
-72.9764001037
 33
0.0
  0
SOLID
  5
339
330
335
100
AcDbEntity
  8
SK2
100
AcDbTrace
 10
101.6
 20
-73.4844001037
 30
0.0
 11
98.298
 21
-72.9764001037
 31
0.0
 12
98.298
 22
-73.9924001037
 32
0.0
 13
98.298
 23
-73.9924001037
 33
0.0
  0
LINE
  5
33A
330
335
100
AcDbEntity
  8
SK2
100
AcDbLine
 10
-7.5205493294
 20
-62.6915183877
 30
0.0
 11
-8.5869555869
 21
-62.6915183877
 31
0.0
  0
LINE
  5
33B
330
335
100
AcDbEntity
  8
SK2
100
AcDbLine
 10
-8.5869555869
 20
-62.6915183877
 30
0.0
 11
-8.5869555869
 21
-68.2477683787
 31
0.0
  0
LINE
  5
33C
330
335
100
AcDbEntity
  8
SK2
100
AcDbLine
 10
-8.5869555869
 20
-68.2477683787
 30
0.0
 11
-7.5205493294
 21
-68.2477683787
 31
0.0
  0
LINE
  5
33D
330
335
100
AcDbEntity
  8
SK2
100
AcDbLine
 10
1.5308397315
 20
-62.6915183877
 30
0.0
 11
2.597245989
 21
-62.6915183877
 31
0.0
  0
LINE
  5
33E
330
335
100
AcDbEntity
  8
SK2
100
AcDbLine
 10
2.597245989
 20
-62.6915183877
 30
0.0
 11
2.597245989
 21
-68.2477683787
 31
0.0
  0
LINE
  5
33F
330
335
100
AcDbEntity
  8
SK2
100
AcDbLine
 10
2.597245989
 20
-68.2477683787
 30
0.0
 11
1.5308397315
 21
-68.2477683787
 31
0.0
  0
LINE
  5
340
330
335
100
AcDbEntity
  8
SK2
100
AcDbLine
 10
-101.6
 20
-19.2922326599
 30
0.0
 11
-101.6
 21
-74.4844001037
 31
0.0
  0
LINE
  5
341
330
335
100
AcDbEntity
  8
SK2
100
AcDbLine
 10
101.6
 20
-25.257
 30
0.0
 11
101.6
 21
-74.4844001037
 31
0.0
  0
LINE
  5
342
330
335
100
AcDbEntity
  8
SK2
100
AcDbLine
 10
-101.6
 20
-73.4844001037
 30
0.0
 11
101.6
 21
-73.4844001037
 31
0.0
  0
MTEXT
  5
343
330
335
100
AcDbEntity
  8
SK2
100
AcDbMText
 10
-9.6339174411
 20
-68.9191908379
 30
0.0
 40
3.5
 41
0.0
 71
     1
 72
     1
  1

  7
SLDTEXTSTYLE0
 73
     1
 44
1.0
  0
MTEXT
  5
344
330
335
100
AcDbEntity
  8
SK2
100
AcDbMText
 10
-7.5205493294
 20
-63.7360314642
 30
0.0
 40
3.5
 41
0.0
 71
     1
 72
     1
  1
8,00
  7
SLDTEXTSTYLE0
 73
     1
 44
1.0
  0
MTEXT
  5
345
330
335
100
AcDbEntity
  8
SK2
100
AcDbMText
 10
-8.8136050426
 20
-68.9726630145
 30
0.0
 40
3.5
 41
0.0
 71
     1
 72
     1
  1
203,2
  7
SLDTEXTSTYLE0
 73
     1
 44
1.0
  0
MTEXT
  5
346
330
335
100
AcDbEntity
  8
SK2
100
AcDbMText
 10
4.9761523628
 20
-68.9191908379
 30
0.0
 40
3.5
 41
0.0
 71
     1
 72
     1
  1

  7
SLDTEXTSTYLE0
 73
     1
 44
1.0
  0
ENDBLK
  5
337
330
335
100
AcDbEntity
  8
0
100
AcDbBlockEnd
  0
BLOCK
  5
349
330
348
100
AcDbEntity
  8
0
100
AcDbBlockBegin
  2
_D_9
 70
     0
 10
0.0
 20
0.0
 30
0.0
  3
_D_9
  1

  0
SOLID
  5
34B
330
348
100
AcDbEntity
  8
SK2
100
AcDbTrace
 10
25.4
 20
-61.1057889541
 30
0.0
 11
28.702
 21
-61.6137889541
 31
0.0
 12
28.702
 22
-60.5977889541
 32
0.0
 13
28.702
 23
-60.5977889541
 33
0.0
  0
SOLID
  5
34C
330
348
100
AcDbEntity
  8
SK2
100
AcDbTrace
 10
101.6
 20
-61.1057889541
 30
0.0
 11
98.298
 21
-60.5977889541
 31
0.0
 12
98.298
 22
-61.6137889541
 32
0.0
 13
98.298
 23
-61.6137889541
 33
0.0
  0
LINE
  5
34D
330
348
100
AcDbEntity
  8
SK2
100
AcDbLine
 10
55.6750055531
 20
-50.312907238
 30
0.0
 11
54.6085992957
 21
-50.312907238
 31
0.0
  0
LINE
  5
34E
330
348
100
AcDbEntity
  8
SK2
100
AcDbLine
 10
54.6085992957
 20
-50.312907238
 30
0.0
 11
54.6085992957
 21
-55.8691572291
 31
0.0
  0
LINE
  5
34F
330
348
100
AcDbEntity
  8
SK2
100
AcDbLine
 10
54.6085992957
 20
-55.8691572291
 30
0.0
 11
55.6750055531
 21
-55.8691572291
 31
0.0
  0
LINE
  5
350
330
348
100
AcDbEntity
  8
SK2
100
AcDbLine
 10
64.726394614
 20
-50.312907238
 30
0.0
 11
65.7928008715
 21
-50.312907238
 31
0.0
  0
LINE
  5
351
330
348
100
AcDbEntity
  8
SK2
100
AcDbLine
 10
65.7928008715
 20
-50.312907238
 30
0.0
 11
65.7928008715
 21
-55.8691572291
 31
0.0
  0
LINE
  5
352
330
348
100
AcDbEntity
  8
SK2
100
AcDbLine
 10
65.7928008715
 20
-55.8691572291
 30
0.0
 11
64.726394614
 21
-55.8691572291
 31
0.0
  0
LINE
  5
353
330
348
100
AcDbEntity
  8
SK2
100
AcDbLine
 10
25.4
 20
-20.09
 30
0.0
 11
25.4
 21
-62.1057889541
 31
0.0
  0
LINE
  5
354
330
348
100
AcDbEntity
  8
SK2
100
AcDbLine
 10
101.6
 20
-25.257
 30
0.0
 11
101.6
 21
-62.1057889541
 31
0.0
  0
LINE
  5
355
330
348
100
AcDbEntity
  8
SK2
100
AcDbLine
 10
25.4
 20
-61.1057889541
 30
0.0
 11
101.6
 21
-61.1057889541
 31
0.0
  0
MTEXT
  5
356
330
348
100
AcDbEntity
  8
SK2
100
AcDbMText
 10
53.5616374415
 20
-56.5405796882
 30
0.0
 40
3.5
 41
0.0
 71
     1
 72
     1
  1

  7
SLDTEXTSTYLE0
 73
     1
 44
1.0
  0
MTEXT
  5
357
330
348
100
AcDbEntity
  8
SK2
100
AcDbMText
 10
55.6750055531
 20
-51.3574203145
 30
0.0
 40
3.5
 41
0.0
 71
     1
 72
     1
  1
3,00
  7
SLDTEXTSTYLE0
 73
     1
 44
1.0
  0
MTEXT
  5
358
330
348
100
AcDbEntity
  8
SK2
100
AcDbMText
 10
55.6750055531
 20
-56.5940518649
 30
0.0
 40
3.5
 41
0.0
 71
     1
 72
     1
  1
76,2
  7
SLDTEXTSTYLE0
 73
     1
 44
1.0
  0
MTEXT
  5
359
330
348
100
AcDbEntity
  8
SK2
100
AcDbMText
 10
68.1717072454
 20
-56.5405796882
 30
0.0
 40
3.5
 41
0.0
 71
     1
 72
     1
  1

  7
SLDTEXTSTYLE0
 73
     1
 44
1.0
  0
ENDBLK
  5
34A
330
348
100
AcDbEntity
  8
0
100
AcDbBlockEnd
  0
BLOCK
  5
35D
330
35C
100
AcDbEntity
  8
0
100
AcDbBlockBegin
  2
_D_10
 70
     0
 10
0.0
 20
0.0
 30
0.0
  3
_D_10
  1

  0
SOLID
  5
35F
330
35C
100
AcDbEntity
  8
SK2
100
AcDbTrace
 10
90.932
 20
-51.3871537858
 30
0.0
 11
87.63
 21
-50.8791537858
 31
0.0
 12
87.63
 22
-51.8951537858
 32
0.0
 13
87.63
 23
-51.8951537858
 33
0.0
  0
SOLID
  5
360
330
35C
100
AcDbEntity
  8
SK2
100
AcDbTrace
 10
101.6
 20
-51.3871537858
 30
0.0
 11
104.902
 21
-51.8951537858
 31
0.0
 12
104.902
 22
-50.8791537858
 32
0.0
 13
104.902
 23
-50.8791537858
 33
0.0
  0
LINE
  5
361
330
35C
100
AcDbEntity
  8
SK2
100
AcDbLine
 10
90.932
 20
-35.925
 30
0.0
 11
90.932
 21
-52.3871537858
 31
0.0
  0
LINE
  5
362
330
35C
100
AcDbEntity
  8
SK2
100
AcDbLine
 10
101.6
 20
-25.257
 30
0.0
 11
101.6
 21
-52.3871537858
 31
0.0
  0
LINE
  5
363
330
35C
100
AcDbEntity
  8
SK2
100
AcDbLine
 10
90.932
 20
-51.3871537858
 30
0.0
 11
76.7345787922
 21
-51.3871537858
 31
0.0
  0
LINE
  5
364
330
35C
100
AcDbEntity
  8
SK2
100
AcDbLine
 10
90.932
 20
-51.3871537858
 30
0.0
 11
101.6
 21
-51.3871537858
 31
0.0
  0
LINE
  5
365
330
35C
100
AcDbEntity
  8
SK2
100
AcDbLine
 10
101.6
 20
-51.3871537858
 30
0.0
 11
107.95
 21
-51.3871537858
 31
0.0
  0
MTEXT
  5
366
330
35C
100
AcDbEntity
  8
SK2
100
AcDbMText
 10
76.7345787922
 20
-46.8754168712
 30
0.0
 40
3.5
 41
0.0
 71
     1
 72
     1
  1
10,67
  7
SLDTEXTSTYLE0
 73
     1
 44
1.0
  0
ENDBLK
  5
35E
330
35C
100
AcDbEntity
  8
0
100
AcDbBlockEnd
  0
BLOCK
  5
369
330
368
100
AcDbEntity
  8
0
100
AcDbBlockBegin
  2
_D_11
 70
     0
 10
0.0
 20
0.0
 30
0.0
  3
_D_11
  1

  0
SOLID
  5
36B
330
368
100
AcDbEntity
  8
SK2
100
AcDbTrace
 10
-118.1379718928
 20
47.2968145978
 30
0.0
 11
-118.6459718928
 21
43.9948145978
 31
0.0
 12
-117.6299718928
 22
43.9948145978
 32
0.0
 13
-117.6299718928
 23
43.9948145978
 33
0.0
  0
SOLID
  5
36C
330
368
100
AcDbEntity
  8
SK2
100
AcDbTrace
 10
-118.1379718928
 20
-47.4754841997
 30
0.0
 11
-117.6299718928
 21
-44.1734841997
 31
0.0
 12
-118.6459718928
 22
-44.1734841997
 32
0.0
 13
-118.6459718928
 23
-44.1734841997
 33
0.0
  0
LINE
  5
36D
330
368
100
AcDbEntity
  8
SK2
100
AcDbLine
 10
2.95
 20
47.2968145978
 30
0.0
 11
-119.1379718928
 21
47.2968145978
 31
0.0
  0
LINE
  5
36E
330
368
100
AcDbEntity
  8
SK2
100
AcDbLine
 10
2.95
 20
-47.4754841997
 30
0.0
 11
-119.1379718928
 21
-47.4754841997
 31
0.0
  0
LINE
  5
36F
330
368
100
AcDbEntity
  8
SK2
100
AcDbLine
 10
-118.1379718928
 20
47.2968145978
 30
0.0
 11
-118.1379718928
 21
-47.4754841997
 31
0.0
  0
MTEXT
  5
370
330
368
100
AcDbEntity
  8
SK2
100
AcDbMText
 10
-122.649708982
 20
-8.8175709474
 30
0.0
 40
3.5
 41
0.0
 71
     1
 72
     1
  1
%%c
  7
SLDTEXTSTYLE0
 11
-3.491481338843133E-15
 21
1.0
 31
0.0
 73
     1
 44
1.0
  0
MTEXT
  5
371
330
368
100
AcDbEntity
  8
SK2
100
AcDbMText
 10
-122.7031811587
 20
-3.5391335491
 30
0.0
 40
3.5
 41
0.0
 71
     1
 72
     1
  1
98,42
  7
SLDTEXTSTYLE0
 11
-3.491481338843133E-15
 21
1.0
 31
0.0
 73
     1
 44
1.0
  0
ENDBLK
  5
36A
330
368
100
AcDbEntity
  8
0
100
AcDbBlockEnd
  0
BLOCK
  5
374
330
373
100
AcDbEntity
  8
0
100
AcDbBlockBegin
  2
_D_12
 70
     0
 10
0.0
 20
0.0
 30
0.0
  3
_D_12
  1

  0
SOLID
  5
376
330
373
100
AcDbEntity
  8
SK2
100
AcDbTrace
 10
-109.6277873419
 20
12.6999998465
 30
0.0
 11
-110.1357873419
 21
9.3979998465
 31
0.0
 12
-109.1197873419
 22
9.3979998465
 32
0.0
 13
-109.1197873419
 23
9.3979998465
 33
0.0
  0
SOLID
  5
377
330
373
100
AcDbEntity
  8
SK2
100
AcDbTrace
 10
-109.6277873419
 20
-12.6999998465
 30
0.0
 11
-109.1197873419
 21
-9.3979998465
 31
0.0
 12
-110.1357873419
 22
-9.3979998465
 32
0.0
 13
-110.1357873419
 23
-9.3979998465
 33
0.0
  0
LINE
  5
378
330
373
100
AcDbEntity
  8
SK2
100
AcDbLine
 10
-95.967097044
 20
12.6999998465
 30
0.0
 11
-110.6277873419
 21
12.6999998465
 31
0.0
  0
LINE
  5
379
330
373
100
AcDbEntity
  8
SK2
100
AcDbLine
 10
-95.967097044
 20
-12.6999998465
 30
0.0
 11
-110.6277873419
 21
-12.6999998465
 31
0.0
  0
LINE
  5
37A
330
373
100
AcDbEntity
  8
SK2
100
AcDbLine
 10
-109.6277873419
 20
12.6999998465
 30
0.0
 11
-109.6277873419
 21
-12.6999998465
 31
0.0
  0
MTEXT
  5
37C
330
373
100
AcDbEntity
  8
SK2
100
AcDbMText
 10
-114.1395242565
 20
-10.8109914813
 30
0.0
 40
3.5
 41
0.0
 71
     1
 72
     1
  1
1 - 8 UNC
  7
SLDTEXTSTYLE1
 11
-7.044195017643634E-15
 21
1.0
 31
0.0
 73
     1
 44
1.0
  0
ENDBLK
  5
375
330
373
100
AcDbEntity
  8
0
100
AcDbBlockEnd
  0
ENDSEC
  0
SECTION
  2
ENTITIES
  0
LINE
  5
82
330
1F
100
AcDbEntity
  8
1
  6
SLD-Solid
370
    25
100
AcDbLine
 10
37.525
 20
34.925
 30
0.0
 11
19.812
 21
34.925
 31
0.0
  0
LINE
  5
83
330
1F
100
AcDbEntity
  8
1
  6
SLD-Solid
370
    25
100
AcDbLine
 10
62.925
 20
34.925
 30
0.0
 11
57.7056843187
 21
34.925
 31
0.0
  0
LINE
  5
84
330
1F
100
AcDbEntity
  8
1
  6
SLD-Solid
370
    25
100
AcDbLine
 10
90.932
 20
34.925
 30
0.0
 11
83.1056843187
 21
34.925
 31
0.0
  0
LINE
  5
85
330
1F
100
AcDbEntity
  8
1
  6
SLD-Solid
370
    25
100
AcDbLine
 10
84.2697654095
 20
-34.925
 30
0.0
 11
90.932
 21
-34.925
 31
0.0
  0
LINE
  5
86
330
1F
100
AcDbEntity
  8
1
  6
SLD-Solid
370
    25
100
AcDbLine
 10
58.863165757
 20
-34.925
 30
0.0
 11
61.7890026752
 21
-34.925
 31
0.0
  0
LINE
  5
87
330
1F
100
AcDbEntity
  8
1
  6
SLD-Solid
370
    25
100
AcDbLine
 10
19.812
 20
-34.925
 30
0.0
 11
36.383971361
 21
-34.925
 31
0.0
  0
LINE
  5
88
330
1F
100
AcDbEntity
  8
1
  6
SLD-Solid
370
    25
100
AcDbLine
 10
1.7476022729
 20
34.925
 30
0.0
 11
0.0
 21
34.925
 31
0.0
  0
LINE
  5
89
330
1F
100
AcDbEntity
  8
1
  6
SLD-Solid
370
    25
100
AcDbLine
 10
0.0
 20
-34.925
 30
0.0
 11
1.7476022729
 21
-34.925
 31
0.0
  0
LINE
  5
8A
330
1F
100
AcDbEntity
  8
1
  6
SLD-Solid
370
    25
100
AcDbLine
 10
1.7476022729
 20
-34.925
 30
0.0
 11
2.1330363037
 21
-34.7452691597
 31
0.0
  0
LINE
  5
8B
330
1F
100
AcDbEntity
  8
1
  6
SLD-Solid
370
    25
100
AcDbLine
 10
2.1330363037
 20
34.7452691597
 30
0.0
 11
1.7476022729
 21
34.925
 31
0.0
  0
LINE
  5
8C
330
1F
100
AcDbEntity
  8
SK1
  6
SLD-Solid
370
    25
100
AcDbLine
 10
0.0
 20
34.925
 30
0.0
 11
-99.8030472773
 21
20.3702515116
 31
0.0
  0
LINE
  5
8D
330
1F
100
AcDbEntity
  8
SK1
  6
SLD-Solid
370
    25
100
AcDbLine
 10
-99.8030472773
 20
-20.3702515116
 30
0.0
 11
0.0
 21
-34.925
 31
0.0
  0
LINE
  5
8E
330
1F
100
AcDbEntity
  8
1
  6
SLD-Solid
370
    25
100
AcDbLine
 10
90.932
 20
-34.925
 30
0.0
 11
101.6
 21
-24.257
 31
0.0
  0
LINE
  5
8F
330
1F
100
AcDbEntity
  8
1
  6
SLD-Solid
370
    25
100
AcDbLine
 10
101.6
 20
24.257
 30
0.0
 11
90.932
 21
34.925
 31
0.0
  0
LINE
  5
90
330
1F
100
AcDbEntity
  8
1
  6
SLD-Solid
370
    25
100
AcDbLine
 10
14.6397233934
 20
-47.4754841997
 30
0.0
 11
18.3
 21
-47.4754841997
 31
0.0
  0
LINE
  5
91
330
1F
100
AcDbEntity
  8
1
  6
SLD-Solid
370
    25
100
AcDbLine
 10
14.6397233934
 20
47.2968145978
 30
0.0
 11
14.6397233934
 21
-47.4754841997
 31
0.0
  0
LINE
  5
92
330
1F
100
AcDbEntity
  8
1
  6
SLD-Solid
370
    25
100
AcDbLine
 10
18.3
 20
47.2968145978
 30
0.0
 11
14.6397233934
 21
47.2968145978
 31
0.0
  0
LINE
  5
93
330
1F
100
AcDbEntity
  8
1
  6
SLD-Solid
370
    25
100
AcDbLine
 10
18.3
 20
-47.4754841997
 30
0.0
 11
18.3
 21
47.2968145978
 31
0.0
  0
LINE
  5
94
330
1F
100
AcDbEntity
  8
1
  6
SLD-Solid
370
    25
100
AcDbLine
 10
3.95
 20
-47.4754841997
 30
0.0
 11
7.5902766066
 21
-47.4754841997
 31
0.0
  0
LINE
  5
95
330
1F
100
AcDbEntity
  8
1
  6
SLD-Solid
370
    25
100
AcDbLine
 10
3.95
 20
47.2968145978
 30
0.0
 11
3.95
 21
-47.4754841997
 31
0.0
  0
LINE
  5
96
330
1F
100
AcDbEntity
  8
1
  6
SLD-Solid
370
    25
100
AcDbLine
 10
7.5902766066
 20
47.2968145978
 30
0.0
 11
3.95
 21
47.2968145978
 31
0.0
  0
LINE
  5
97
330
1F
100
AcDbEntity
  8
1
  6
SLD-Solid
370
    25
100
AcDbLine
 10
7.5902766066
 20
47.2968145978
 30
0.0
 11
7.5902766066
 21
-47.4754841997
 31
0.0
  0
LINE
  5
98
330
1F
100
AcDbEntity
  8
1
  6
SLD-Solid
370
    25
100
AcDbLine
 10
19.05
 20
46.5560855313
 30
0.0
 11
19.05
 21
-46.6976348437
 31
0.0
  0
LINE
  5
99
330
1F
100
AcDbEntity
  8
1
  6
SLD-Solid
370
    25
100
AcDbLine
 10
3.2
 20
-46.6976348437
 30
0.0
 11
3.2
 21
46.5560855313
 31
0.0
  0
LINE
  5
9A
330
1F
100
AcDbEntity
  8
1
  6
SLD-Solid
370
    25
100
AcDbLine
 10
13.03
 20
44.5790106634
 30
0.0
 11
13.03
 21
41.9871173317
 31
0.0
  0
LINE
  5
9B
330
1F
100
AcDbEntity
  8
1
  6
SLD-Solid
370
    25
100
AcDbLine
 10
13.03
 20
34.6324292339
 30
0.0
 11
13.03
 21
-44.5790106634
 31
0.0
  0
LINE
  5
9C
330
1F
100
AcDbEntity
  8
1
  6
SLD-Solid
370
    25
100
AcDbLine
 10
13.03
 20
41.453113616
 30
0.0
 11
13.03
 21
35.4316103884
 31
0.0
  0
LINE
  5
9D
330
1F
100
AcDbEntity
  8
1
  6
SLD-Solid
370
    25
100
AcDbLine
 10
9.2
 20
44.5790106634
 30
0.0
 11
9.2
 21
41.9587011964
 31
0.0
  0
LINE
  5
9E
330
1F
100
AcDbEntity
  8
1
  6
SLD-Solid
370
    25
100
AcDbLine
 10
9.2
 20
41.4830129515
 30
0.0
 11
9.2
 21
35.3885961177
 31
0.0
  0
LINE
  5
9F
330
1F
100
AcDbEntity
  8
1
  6
SLD-Solid
370
    25
100
AcDbLine
 10
9.2
 20
34.676688935
 30
0.0
 11
9.2
 21
-44.5790106634
 31
0.0
  0
LINE
  5
A0
330
1F
100
AcDbEntity
  8
1
  6
SLD-Solid
370
    25
100
AcDbLine
 10
12.28
 20
33.3554707167
 30
0.0
 11
12.28
 21
-43.7694359685
 31
0.0
  0
LINE
  5
A1
330
1F
100
AcDbEntity
  8
1
  6
SLD-Solid
370
    25
100
AcDbLine
 10
9.95
 20
33.3652595305
 30
0.0
 11
9.95
 21
-43.7694359685
 31
0.0
  0
LINE
  5
A2
330
1F
100
AcDbEntity
  8
1
  6
SLD-Solid
370
    25
100
AcDbLine
 10
9.95
 20
-43.7694359685
 30
0.0
 11
12.28
 21
-43.7694359685
 31
0.0
  0
LINE
  5
A3
330
1F
100
AcDbEntity
  8
1
  6
SLD-Solid
370
    25
100
AcDbLine
 10
90.932
 20
34.925
 30
0.0
 11
90.932
 21
-34.925
 31
0.0
  0
LINE
  5
A4
330
1F
100
AcDbEntity
  8
1
  6
SLD-Solid
370
    25
100
AcDbLine
 10
0.0
 20
34.925
 30
0.0
 11
0.0
 21
-34.925
 31
0.0
  0
LINE
  5
A5
330
1F
100
AcDbEntity
  8
1
  6
SLD-Solid
370
    25
100
AcDbLine
 10
1.7476022729
 20
34.925
 30
0.0
 11
1.7476022729
 21
-34.925
 31
0.0
  0
LINE
  5
A6
330
1F
100
AcDbEntity
  8
1
  6
SLD-Solid
370
    25
100
AcDbLine
 10
101.6
 20
24.257
 30
0.0
 11
101.6
 21
-24.257
 31
0.0
  0
LINE
  5
A7
330
1F
100
AcDbEntity
  8
1
  6
SLD-Solid
370
    25
100
AcDbLine
 10
9.2
 20
35.3885961177
 30
0.0
 11
9.2
 21
35.3683101781
 31
0.0
  0
LINE
  5
A8
330
1F
100
AcDbEntity
  8
1
  6
SLD-Solid
370
    25
100
AcDbLine
 10
13.03
 20
35.4113240881
 30
0.0
 11
13.03
 21
35.4316103884
 31
0.0
  0
LINE
  5
A9
330
1F
100
AcDbEntity
  8
1
  6
SLD-Solid
370
    25
100
AcDbLine
 10
9.95
 20
40.2901760725
 30
0.0
 11
9.95
 21
35.4888548114
 31
0.0
  0
LINE
  5
AA
330
1F
100
AcDbEntity
  8
1
  6
SLD-Solid
370
    25
100
AcDbLine
 10
12.28
 20
40.2834337913
 30
0.0
 11
12.28
 21
35.4978726362
 31
0.0
  0
LINE
  5
AB
330
1F
100
AcDbEntity
  8
1
  6
SLD-Solid
370
    25
100
AcDbLine
 10
9.2
 20
41.9587011964
 30
0.0
 11
9.2
 21
41.9345423912
 31
0.0
  0
LINE
  5
AC
330
1F
100
AcDbEntity
  8
1
  6
SLD-Solid
370
    25
100
AcDbLine
 10
13.03
 20
41.9629580968
 30
0.0
 11
13.03
 21
41.9871173317
 31
0.0
  0
LINE
  5
AD
330
1F
100
AcDbEntity
  8
SK1
  6
SLD-Solid
370
    25
100
AcDbLine
 10
-101.6
 20
-18.2922326599
 30
0.0
 11
-101.6
 21
18.2922326599
 31
0.0
  0
LINE
  5
AE
330
1F
100
AcDbEntity
  8
1
  6
SLD-Solid
370
    25
100
AcDbLine
 10
9.95
 20
43.7694359685
 30
0.0
 11
9.95
 21
41.7091381742
 31
0.0
  0
LINE
  5
AF
330
1F
100
AcDbEntity
  8
1
  6
SLD-Solid
370
    25
100
AcDbLine
 10
12.28
 20
43.7694359685
 30
0.0
 11
12.28
 21
41.714962274
 31
0.0
  0
LINE
  5
B0
330
1F
100
AcDbEntity
  8
1
  6
SLD-Solid
370
    25
100
AcDbLine
 10
9.95
 20
43.7694359685
 30
0.0
 11
12.28
 21
43.7694359685
 31
0.0
  0
LINE
  5
B1
330
1F
100
AcDbEntity
  8
1
  6
SLD-Solid
370
    25
100
AcDbLine
 10
19.812
 20
0.0
 30
0.0
 11
19.812
 21
-34.925
 31
0.0
  0
LINE
  5
B2
330
1F
100
AcDbEntity
  8
1
  6
SLD-Solid
370
    25
100
AcDbLine
 10
19.812
 20
34.925
 30
0.0
 11
19.812
 21
0.0
 31
0.0
  0
LINE
  5
B3
330
1F
100
AcDbEntity
  8
1
  6
SLD-Solid
370
    25
100
AcDbLine
 10
2.1330363037
 20
34.7452691597
 30
0.0
 11
2.1330363037
 21
-34.7452691597
 31
0.0
  0
LINE
  5
B4
330
1F
100
AcDbEntity
  8
SK1
  6
SLD-Solid
370
    25
100
AcDbLine
 10
-99.8030472773
 20
0.0
 30
0.0
 11
-99.8030472773
 21
-20.3702515116
 31
0.0
  0
LINE
  5
B5
330
1F
100
AcDbEntity
  8
SK1
  6
SLD-Solid
370
    25
100
AcDbLine
 10
-99.8030472773
 20
20.3702515116
 30
0.0
 11
-99.8030472773
 21
0.0
 31
0.0
  0
LINE
  5
B6
330
1F
100
AcDbEntity
  8
SK3
  6
SLD-Dashed
370
    18
100
AcDbLine
 10
6.4723069743
 20
-13.9015950424
 30
0.0
 11
6.3056572614
 21
-13.2437532254
 31
0.0
  0
LINE
  5
B7
330
1F
100
AcDbEntity
  8
SK3
  6
SLD-Dashed
370
    18
100
AcDbLine
 10
6.3056572614
 20
-13.2437532254
 30
0.0
 11
6.0455057258
 21
-12.630742241
 31
0.0
  0
LINE
  5
B8
330
1F
100
AcDbEntity
  8
SK3
  6
SLD-Dashed
370
    18
100
AcDbLine
 10
6.0455057258
 20
-12.630742241
 30
0.0
 11
5.7095812647
 21
-12.1043377749
 31
0.0
  0
LINE
  5
B9
330
1F
100
AcDbEntity
  8
SK3
  6
SLD-Dashed
370
    18
100
AcDbLine
 10
5.7095812647
 20
-12.1043377749
 30
0.0
 11
5.3207765751
 21
-11.7004134215
 31
0.0
  0
LINE
  5
BA
330
1F
100
AcDbEntity
  8
SK3
  6
SLD-Dashed
370
    18
100
AcDbLine
 10
5.3207765751
 20
-11.7004134215
 30
0.0
 11
4.905588054
 21
-11.4464959579
 31
0.0
  0
LINE
  5
BB
330
1F
100
AcDbEntity
  8
SK3
  6
SLD-Dashed
370
    18
100
AcDbLine
 10
4.905588054
 20
-11.4464959579
 30
0.0
 11
4.492310113
 21
-11.3598894396
 31
0.0
  0
LINE
  5
BC
330
1F
100
AcDbEntity
  8
SK3
  6
SLD-Dashed
370
    18
100
AcDbLine
 10
4.492310113
 20
-11.3598894396
 30
0.0
 11
4.1091069607
 21
-11.4464959579
 31
0.0
  0
LINE
  5
BD
330
1F
100
AcDbEntity
  8
SK3
  6
SLD-Dashed
370
    18
100
AcDbLine
 10
4.1091069607
 20
-11.4464959579
 30
0.0
 11
3.7820932588
 21
-11.7004134215
 31
0.0
  0
LINE
  5
BE
330
1F
100
AcDbEntity
  8
SK3
  6
SLD-Dashed
370
    18
100
AcDbLine
 10
3.7820932588
 20
-11.7004134215
 30
0.0
 11
3.5335544506
 21
-12.1043377749
 31
0.0
  0
LINE
  5
BF
330
1F
100
AcDbEntity
  8
SK3
  6
SLD-Dashed
370
    18
100
AcDbLine
 10
3.5335544506
 20
-12.1043377749
 30
0.0
 11
3.3804280451
 21
-12.630742241
 31
0.0
  0
LINE
  5
C0
330
1F
100
AcDbEntity
  8
SK3
  6
SLD-Dashed
370
    18
100
AcDbLine
 10
3.3804280451
 20
-12.630742241
 30
0.0
 11
3.3331493539
 21
-13.2437532254
 31
0.0
  0
LINE
  5
C1
330
1F
100
AcDbEntity
  8
SK3
  6
SLD-Dashed
370
    18
100
AcDbLine
 10
3.3331493539
 20
-13.2437532254
 30
0.0
 11
3.3949403416
 21
-13.9015950424
 31
0.0
  0
LINE
  5
C2
330
1F
100
AcDbEntity
  8
SK3
  6
SLD-Dashed
370
    18
100
AcDbLine
 10
3.3949403416
 20
-13.9015950424
 30
0.0
 11
3.5615900545
 21
-14.5594368595
 31
0.0
  0
LINE
  5
C3
330
1F
100
AcDbEntity
  8
SK3
  6
SLD-Dashed
370
    18
100
AcDbLine
 10
3.5615900545
 20
-14.5594368595
 30
0.0
 11
3.8217415901
 21
-15.1724478438
 31
0.0
  0
LINE
  5
C4
330
1F
100
AcDbEntity
  8
SK3
  6
SLD-Dashed
370
    18
100
AcDbLine
 10
3.8217415901
 20
-15.1724478438
 30
0.0
 11
4.1576660511
 21
-15.6988523099
 31
0.0
  0
LINE
  5
C5
330
1F
100
AcDbEntity
  8
SK3
  6
SLD-Dashed
370
    18
100
AcDbLine
 10
4.1576660511
 20
-15.6988523099
 30
0.0
 11
4.5464707407
 21
-16.1027766634
 31
0.0
  0
LINE
  5
C6
330
1F
100
AcDbEntity
  8
SK3
  6
SLD-Dashed
370
    18
100
AcDbLine
 10
4.5464707407
 20
-16.1027766634
 30
0.0
 11
4.9616592619
 21
-16.356694127
 31
0.0
  0
LINE
  5
C7
330
1F
100
AcDbEntity
  8
SK3
  6
SLD-Dashed
370
    18
100
AcDbLine
 10
4.9616592619
 20
-16.356694127
 30
0.0
 11
5.3749372029
 21
-16.4433006452
 31
0.0
  0
LINE
  5
C8
330
1F
100
AcDbEntity
  8
SK3
  6
SLD-Dashed
370
    18
100
AcDbLine
 10
5.3749372029
 20
-16.4433006452
 30
0.0
 11
5.7581403551
 21
-16.356694127
 31
0.0
  0
LINE
  5
C9
330
1F
100
AcDbEntity
  8
SK3
  6
SLD-Dashed
370
    18
100
AcDbLine
 10
5.7581403551
 20
-16.356694127
 30
0.0
 11
6.0851540571
 21
-16.1027766634
 31
0.0
  0
LINE
  5
CA
330
1F
100
AcDbEntity
  8
SK3
  6
SLD-Dashed
370
    18
100
AcDbLine
 10
6.0851540571
 20
-16.1027766634
 30
0.0
 11
6.3336928653
 21
-15.6988523099
 31
0.0
  0
LINE
  5
CB
330
1F
100
AcDbEntity
  8
SK3
  6
SLD-Dashed
370
    18
100
AcDbLine
 10
6.3336928653
 20
-15.6988523099
 30
0.0
 11
6.4868192707
 21
-15.1724478438
 31
0.0
  0
LINE
  5
CC
330
1F
100
AcDbEntity
  8
SK3
  6
SLD-Dashed
370
    18
100
AcDbLine
 10
6.4868192707
 20
-15.1724478438
 30
0.0
 11
6.5340979619
 21
-14.5594368595
 31
0.0
  0
LINE
  5
CD
330
1F
100
AcDbEntity
  8
SK3
  6
SLD-Dashed
370
    18
100
AcDbLine
 10
6.5340979619
 20
-14.5594368595
 30
0.0
 11
6.4723069743
 21
-13.9015950424
 31
0.0
  0
LINE
  5
CE
330
1F
100
AcDbEntity
  8
SK3
  6
SLD-Dashed
370
    18
100
AcDbLine
 10
6.4545594773
 20
-13.8826166832
 30
0.0
 11
6.5129886022
 21
-14.5287984962
 31
0.0
  0
LINE
  5
CF
330
1F
100
AcDbEntity
  8
SK3
  6
SLD-Dashed
370
    18
100
AcDbLine
 10
6.5129886022
 20
-14.5287984962
 30
0.0
 11
6.4595508826
 21
-15.1270559603
 31
0.0
  0
LINE
  5
D0
330
1F
100
AcDbEntity
  8
SK3
  6
SLD-Dashed
370
    18
100
AcDbLine
 10
6.4595508826
 20
-15.1270559603
 30
0.0
 11
6.2982095497
 21
-15.6330190561
 31
0.0
  0
LINE
  5
D1
330
1F
100
AcDbEntity
  8
SK3
  6
SLD-Dashed
370
    18
100
AcDbLine
 10
6.2982095497
 20
-15.6330190561
 30
0.0
 11
6.0409305521
 21
-16.0091628154
 31
0.0
  0
LINE
  5
D2
330
1F
100
AcDbEntity
  8
SK3
  6
SLD-Dashed
370
    18
100
AcDbLine
 10
6.0409305521
 20
-16.0091628154
 30
0.0
 11
5.7067950961
 21
-16.2275903765
 31
0.0
  0
LINE
  5
D3
330
1F
100
AcDbEntity
  8
SK3
  6
SLD-Dashed
370
    18
100
AcDbLine
 10
5.7067950961
 20
-16.2275903765
 30
0.0
 11
5.32058448
 21
-16.2721019662
 31
0.0
  0
LINE
  5
D4
330
1F
100
AcDbEntity
  8
SK3
  6
SLD-Dashed
370
    18
100
AcDbLine
 10
5.32058448
 20
-16.2721019662
 30
0.0
 11
4.9109421782
 21
-16.1393963637
 31
0.0
  0
LINE
  5
D5
330
1F
100
AcDbEntity
  8
SK3
  6
SLD-Dashed
370
    18
100
AcDbLine
 10
4.9109421782
 20
-16.1393963637
 30
0.0
 11
4.5082494863
 21
-15.8393157363
 31
0.0
  0
LINE
  5
D6
330
1F
100
AcDbEntity
  8
SK3
  6
SLD-Dashed
370
    18
100
AcDbLine
 10
4.5082494863
 20
-15.8393157363
 30
0.0
 11
4.1423722791
 21
-15.3941156915
 31
0.0
  0
LINE
  5
D7
330
1F
100
AcDbEntity
  8
SK3
  6
SLD-Dashed
370
    18
100
AcDbLine
 10
4.1423722791
 20
-15.3941156915
 30
0.0
 11
3.8404459953
 21
-14.8368146799
 31
0.0
  0
LINE
  5
D8
330
1F
100
AcDbEntity
  8
SK3
  6
SLD-Dashed
370
    18
100
AcDbLine
 10
3.8404459953
 20
-14.8368146799
 30
0.0
 11
3.6248631261
 21
-14.208745168
 31
0.0
  0
LINE
  5
D9
330
1F
100
AcDbEntity
  8
SK3
  6
SLD-Dashed
370
    18
100
AcDbLine
 10
3.6248631261
 20
-14.208745168
 30
0.0
 11
3.5116124667
 21
-13.5564881983
 31
0.0
  0
LINE
  5
DA
330
1F
100
AcDbEntity
  8
SK3
  6
SLD-Dashed
370
    18
100
AcDbLine
 10
3.5116124667
 20
-13.5564881983
 30
0.0
 11
3.5090933004
 21
-12.9284186865
 31
0.0
  0
LINE
  5
DB
330
1F
100
AcDbEntity
  8
SK3
  6
SLD-Dashed
370
    18
100
AcDbLine
 10
3.5090933004
 20
-12.9284186865
 30
0.0
 11
3.6174924623
 21
-12.3711176748
 31
0.0
  0
LINE
  5
DC
330
1F
100
AcDbEntity
  8
SK3
  6
SLD-Dashed
370
    18
100
AcDbLine
 10
3.6174924623
 20
-12.3711176748
 30
0.0
 11
3.8287704824
 21
-11.92591763
 31
0.0
  0
LINE
  5
DD
330
1F
100
AcDbEntity
  8
SK3
  6
SLD-Dashed
370
    18
100
AcDbLine
 10
3.8287704824
 20
-11.92591763
 30
0.0
 11
4.1272578365
 21
-11.6258370026
 31
0.0
  0
LINE
  5
DE
330
1F
100
AcDbEntity
  8
SK3
  6
SLD-Dashed
370
    18
100
AcDbLine
 10
4.1272578365
 20
-11.6258370026
 30
0.0
 11
4.490817083
 21
-11.4931314001
 31
0.0
  0
LINE
  5
DF
330
1F
100
AcDbEntity
  8
SK3
  6
SLD-Dashed
370
    18
100
AcDbLine
 10
4.490817083
 20
-11.4931314001
 30
0.0
 11
4.8924846959
 21
-11.5376429899
 31
0.0
  0
LINE
  5
E0
330
1F
100
AcDbEntity
  8
SK3
  6
SLD-Dashed
370
    18
100
AcDbLine
 10
4.8924846959
 20
-11.5376429899
 30
0.0
 11
5.3024708256
 21
-11.7560705509
 31
0.0
  0
LINE
  5
E1
330
1F
100
AcDbEntity
  8
SK3
  6
SLD-Dashed
370
    18
100
AcDbLine
 10
5.3024708256
 20
-11.7560705509
 30
0.0
 11
5.6903686767
 21
-12.1322143103
 31
0.0
  0
LINE
  5
E2
330
1F
100
AcDbEntity
  8
SK3
  6
SLD-Dashed
370
    18
100
AcDbLine
 10
5.6903686767
 20
-12.1322143103
 30
0.0
 11
6.0274096399
 21
-12.6381774061
 31
0.0
  0
LINE
  5
E3
330
1F
100
AcDbEntity
  8
SK3
  6
SLD-Dashed
370
    18
100
AcDbLine
 10
6.0274096399
 20
-12.6381774061
 30
0.0
 11
6.2885969289
 21
-13.2364348701
 31
0.0
  0
LINE
  5
E4
330
1F
100
AcDbEntity
  8
SK3
  6
SLD-Dashed
370
    18
100
AcDbLine
 10
6.2885969289
 20
-13.2364348701
 30
0.0
 11
6.4545594773
 21
-13.8826166832
 31
0.0
  0
LINE
  5
E5
330
1F
100
AcDbEntity
  8
SK3
  6
SLD-Dashed
370
    18
100
AcDbLine
 10
17.1792841073
 20
-11.0168048658
 30
0.0
 11
17.0133215589
 21
-10.3706230527
 31
0.0
  0
LINE
  5
E6
330
1F
100
AcDbEntity
  8
SK3
  6
SLD-Dashed
370
    18
100
AcDbLine
 10
17.0133215589
 20
-10.3706230527
 30
0.0
 11
16.7521342699
 21
-9.7723655887
 31
0.0
  0
LINE
  5
E7
330
1F
100
AcDbEntity
  8
SK3
  6
SLD-Dashed
370
    18
100
AcDbLine
 10
16.7521342699
 20
-9.7723655887
 30
0.0
 11
16.4150933067
 21
-9.2664024929
 31
0.0
  0
LINE
  5
E8
330
1F
100
AcDbEntity
  8
SK3
  6
SLD-Dashed
370
    18
100
AcDbLine
 10
16.4150933067
 20
-9.2664024929
 30
0.0
 11
16.0271954557
 21
-8.8902587335
 31
0.0
  0
LINE
  5
E9
330
1F
100
AcDbEntity
  8
SK3
  6
SLD-Dashed
370
    18
100
AcDbLine
 10
16.0271954557
 20
-8.8902587335
 30
0.0
 11
15.6172093259
 21
-8.6718311725
 31
0.0
  0
LINE
  5
EA
330
1F
100
AcDbEntity
  8
SK3
  6
SLD-Dashed
370
    18
100
AcDbLine
 10
15.6172093259
 20
-8.6718311725
 30
0.0
 11
15.2155417131
 21
-8.6273195827
 31
0.0
  0
LINE
  5
EB
330
1F
100
AcDbEntity
  8
SK3
  6
SLD-Dashed
370
    18
100
AcDbLine
 10
15.2155417131
 20
-8.6273195827
 30
0.0
 11
14.8519824665
 21
-8.7600251853
 31
0.0
  0
LINE
  5
EC
330
1F
100
AcDbEntity
  8
SK3
  6
SLD-Dashed
370
    18
100
AcDbLine
 10
14.8519824665
 20
-8.7600251853
 30
0.0
 11
14.5534951125
 21
-9.0601058126
 31
0.0
  0
LINE
  5
ED
330
1F
100
AcDbEntity
  8
SK3
  6
SLD-Dashed
370
    18
100
AcDbLine
 10
14.5534951125
 20
-9.0601058126
 30
0.0
 11
14.3422170924
 21
-9.5053058575
 31
0.0
  0
LINE
  5
EE
330
1F
100
AcDbEntity
  8
SK3
  6
SLD-Dashed
370
    18
100
AcDbLine
 10
14.3422170924
 20
-9.5053058575
 30
0.0
 11
14.2338179305
 21
-10.0626068691
 31
0.0
  0
LINE
  5
EF
330
1F
100
AcDbEntity
  8
SK3
  6
SLD-Dashed
370
    18
100
AcDbLine
 10
14.2338179305
 20
-10.0626068691
 30
0.0
 11
14.2363370967
 21
-10.690676381
 31
0.0
  0
LINE
  5
F0
330
1F
100
AcDbEntity
  8
SK3
  6
SLD-Dashed
370
    18
100
AcDbLine
 10
14.2363370967
 20
-10.690676381
 30
0.0
 11
14.3495877561
 21
-11.3429333506
 31
0.0
  0
LINE
  5
F1
330
1F
100
AcDbEntity
  8
SK3
  6
SLD-Dashed
370
    18
100
AcDbLine
 10
14.3495877561
 20
-11.3429333506
 30
0.0
 11
14.5651706253
 21
-11.9710028625
 31
0.0
  0
LINE
  5
F2
330
1F
100
AcDbEntity
  8
SK3
  6
SLD-Dashed
370
    18
100
AcDbLine
 10
14.5651706253
 20
-11.9710028625
 30
0.0
 11
14.8670969091
 21
-12.5283038741
 31
0.0
  0
LINE
  5
F3
330
1F
100
AcDbEntity
  8
SK3
  6
SLD-Dashed
370
    18
100
AcDbLine
 10
14.8670969091
 20
-12.5283038741
 30
0.0
 11
15.2329741163
 21
-12.9735039189
 31
0.0
  0
LINE
  5
F4
330
1F
100
AcDbEntity
  8
SK3
  6
SLD-Dashed
370
    18
100
AcDbLine
 10
15.2329741163
 20
-12.9735039189
 30
0.0
 11
15.6356668082
 21
-13.2735845463
 31
0.0
  0
LINE
  5
F5
330
1F
100
AcDbEntity
  8
SK3
  6
SLD-Dashed
370
    18
100
AcDbLine
 10
15.6356668082
 20
-13.2735845463
 30
0.0
 11
16.04530911
 21
-13.4062901488
 31
0.0
  0
LINE
  5
F6
330
1F
100
AcDbEntity
  8
SK3
  6
SLD-Dashed
370
    18
100
AcDbLine
 10
16.04530911
 20
-13.4062901488
 30
0.0
 11
16.4315197262
 21
-13.3617785591
 31
0.0
  0
LINE
  5
F7
330
1F
100
AcDbEntity
  8
SK3
  6
SLD-Dashed
370
    18
100
AcDbLine
 10
16.4315197262
 20
-13.3617785591
 30
0.0
 11
16.7656551822
 21
-13.1433509981
 31
0.0
  0
LINE
  5
F8
330
1F
100
AcDbEntity
  8
SK3
  6
SLD-Dashed
370
    18
100
AcDbLine
 10
16.7656551822
 20
-13.1433509981
 30
0.0
 11
17.0229341797
 21
-12.7672072387
 31
0.0
  0
LINE
  5
F9
330
1F
100
AcDbEntity
  8
SK3
  6
SLD-Dashed
370
    18
100
AcDbLine
 10
17.0229341797
 20
-12.7672072387
 30
0.0
 11
17.1842755126
 21
-12.2612441429
 31
0.0
  0
LINE
  5
FA
330
1F
100
AcDbEntity
  8
SK3
  6
SLD-Dashed
370
    18
100
AcDbLine
 10
17.1842755126
 20
-12.2612441429
 30
0.0
 11
17.2377132322
 21
-11.6629866788
 31
0.0
  0
LINE
  5
FB
330
1F
100
AcDbEntity
  8
SK3
  6
SLD-Dashed
370
    18
100
AcDbLine
 10
17.2377132322
 20
-11.6629866788
 30
0.0
 11
17.1792841073
 21
-11.0168048658
 31
0.0
  0
LINE
  5
FC
330
1F
100
AcDbEntity
  8
SK3
  6
SLD-Dashed
370
    18
100
AcDbLine
 10
100.1
 20
-19.05
 30
0.0
 11
100.1
 21
19.05
 31
0.0
  0
LINE
  5
FD
330
1F
100
AcDbEntity
  8
SK3
  6
SLD-Dashed
370
    18
100
AcDbLine
 10
101.6
 20
-19.9160254038
 30
0.0
 11
101.6
 21
19.9160254038
 31
0.0
  0
LINE
  5
FE
330
1F
100
AcDbEntity
  8
SK3
  6
SLD-Dashed
370
    18
100
AcDbLine
 10
25.4
 20
-19.09
 30
0.0
 11
25.4
 21
19.09
 31
0.0
  0
LINE
  5
FF
330
1F
100
AcDbEntity
  8
SK3
  6
SLD-Dashed
370
    18
100
AcDbLine
 10
25.25
 20
-19.2347125615
 30
0.0
 11
25.25
 21
19.2347125615
 31
0.0
  0
LINE
  5
100
330
1F
100
AcDbEntity
  8
SK3
  6
SLD-Dashed
370
    18
100
AcDbLine
 10
-12.55
 20
-19.2347125615
 30
0.0
 11
-12.55
 21
19.2347125615
 31
0.0
  0
LINE
  5
101
330
1F
100
AcDbEntity
  8
SK3
  6
SLD-Dashed
370
    18
100
AcDbLine
 10
-12.7
 20
-19.09
 30
0.0
 11
-12.7
 21
19.09
 31
0.0
  0
LINE
  5
102
330
1F
100
AcDbEntity
  8
SK3
  6
SLD-Dashed
370
    18
100
AcDbLine
 10
25.4
 20
19.0447647763
 30
0.0
 11
25.4
 21
-19.0447647763
 31
0.0
  0
LINE
  5
103
330
1F
100
AcDbEntity
  8
SK3
  6
SLD-Dashed
370
    18
100
AcDbLine
 10
-14.2
 20
-19.05
 30
0.0
 11
-14.2
 21
19.05
 31
0.0
  0
LINE
  5
104
330
1F
100
AcDbEntity
  8
SK3
  6
SLD-Dashed
370
    18
100
AcDbLine
 10
-12.7
 20
19.0447647763
 30
0.0
 11
-12.7
 21
-19.0447647763
 31
0.0
  0
LINE
  5
105
330
1F
100
AcDbEntity
  8
SK3
  6
SLD-Dashed
370
    18
100
AcDbLine
 10
-18.9693311635
 20
-11.1125
 30
0.0
 11
-18.9693311635
 21
11.1125
 31
0.0
  0
LINE
  5
106
330
1F
100
AcDbEntity
  8
SK3
  6
SLD-Dashed
370
    18
100
AcDbLine
 10
-99.7034043657
 20
-13.19
 30
0.0
 11
-99.7034043657
 21
13.19
 31
0.0
  0
LINE
  5
107
330
1F
100
AcDbEntity
  8
SK3
  6
SLD-Dashed
370
    18
100
AcDbLine
 10
-101.6
 20
-14.2640498169
 30
0.0
 11
-101.6
 21
14.2640498169
 31
0.0
  0
LINE
  5
108
330
1F
100
AcDbEntity
  8
SK3
  6
SLD-Dashed
370
    18
100
AcDbLine
 10
-95.25
 20
-13.19
 30
0.0
 11
-95.25
 21
13.19
 31
0.0
  0
LINE
  5
109
330
1F
100
AcDbEntity
  8
SK3
  6
SLD-Dashed
370
    18
100
AcDbLine
 10
-94.0505548158
 20
-11.1125
 30
0.0
 11
-94.0505548158
 21
11.1125
 31
0.0
  0
LINE
  5
10A
330
1F
100
AcDbEntity
  8
SK3
  6
SLD-Dashed
370
    18
100
AcDbLine
 10
3.7
 20
37.875
 30
0.0
 11
3.7
 21
46.5560855313
 31
0.0
  0
LINE
  5
10B
330
1F
100
AcDbEntity
  8
SK3
  6
SLD-Dashed
370
    18
100
AcDbLine
 10
18.55
 20
46.5560855313
 30
0.0
 11
18.55
 21
37.875
 31
0.0
  0
LINE
  5
10C
330
1F
100
AcDbEntity
  8
SK3
  6
SLD-Dashed
370
    18
100
AcDbLine
 10
14.2727106199
 20
46.8162535878
 30
0.0
 11
18.3
 21
46.8162535878
 31
0.0
  0
LINE
  5
10D
330
1F
100
AcDbEntity
  8
SK3
  6
SLD-Dashed
370
    18
100
AcDbLine
 10
3.95
 20
46.8162535878
 30
0.0
 11
7.9572893801
 21
46.8162535878
 31
0.0
  0
LINE
  5
10E
330
1F
100
AcDbEntity
  8
1
  6
SLD-Dashed
370
    18
100
AcDbLine
 10
13.03
 20
44.5510215932
 30
0.0
 11
13.03
 21
44.5790106634
 31
0.0
  0
LINE
  5
10F
330
1F
100
AcDbEntity
  8
1
  6
SLD-Dashed
370
    18
100
AcDbLine
 10
9.2
 20
44.5790106634
 30
0.0
 11
9.2
 21
44.5510215932
 31
0.0
  0
LINE
  5
110
330
1F
100
AcDbEntity
  8
1
  6
SLD-Dashed
370
    18
100
AcDbLine
 10
9.2
 20
-44.5790106634
 30
0.0
 11
9.2
 21
-44.5510215932
 31
0.0
  0
LINE
  5
111
330
1F
100
AcDbEntity
  8
1
  6
SLD-Dashed
370
    18
100
AcDbLine
 10
13.03
 20
-44.5510215932
 30
0.0
 11
13.03
 21
-44.5790106634
 31
0.0
  0
LINE
  5
112
330
1F
100
AcDbEntity
  8
SK3
  6
SLD-Dashed
370
    18
100
AcDbLine
 10
19.05
 20
-46.6976348437
 30
0.0
 11
19.05
 21
-35.475
 31
0.0
  0
LINE
  5
113
330
1F
100
AcDbEntity
  8
SK3
  6
SLD-Dashed
370
    18
100
AcDbLine
 10
3.2
 20
-35.475
 30
0.0
 11
3.2
 21
-46.6976348437
 31
0.0
  0
LINE
  5
114
330
1F
100
AcDbEntity
  8
SK3
  6
SLD-Dashed
370
    18
100
AcDbLine
 10
19.05
 20
-35.1
 30
0.0
 11
3.2
 21
-35.1
 31
0.0
  0
LINE
  5
115
330
1F
100
AcDbEntity
  8
SK3
  6
SLD-Dashed
370
    18
100
AcDbLine
 10
3.2
 20
-35.475
 30
0.0
 11
19.05
 21
-35.475
 31
0.0
  0
LINE
  5
116
330
1F
100
AcDbEntity
  8
SK3
  6
SLD-Dashed
370
    18
100
AcDbLine
 10
3.7
 20
37.5
 30
0.0
 11
18.55
 21
37.5
 31
0.0
  0
LINE
  5
117
330
1F
100
AcDbEntity
  8
SK3
  6
SLD-Dashed
370
    18
100
AcDbLine
 10
18.55
 20
37.875
 30
0.0
 11
3.7
 21
37.875
 31
0.0
  0
LINE
  5
118
330
1F
100
AcDbEntity
  8
SK3
  6
SLD-Dashed
370
    18
100
AcDbLine
 10
57.725
 20
32.825
 30
0.0
 11
37.525
 21
32.825
 31
0.0
  0
LINE
  5
119
330
1F
100
AcDbEntity
  8
SK3
  6
SLD-Dashed
370
    18
100
AcDbLine
 10
83.125
 20
32.825
 30
0.0
 11
62.925
 21
32.825
 31
0.0
  0
LINE
  5
11A
330
1F
100
AcDbEntity
  8
SK3
  6
SLD-Dashed
370
    18
100
AcDbLine
 10
56.2864
 20
32.825
 30
0.0
 11
38.9846987351
 21
32.825
 31
0.0
  0
LINE
  5
11B
330
1F
100
AcDbEntity
  8
SK3
  6
SLD-Dashed
370
    18
100
AcDbLine
 10
81.6864
 20
32.825
 30
0.0
 11
64.3846987351
 21
32.825
 31
0.0
  0
LINE
  5
11C
330
1F
100
AcDbEntity
  8
SK3
  6
SLD-Dashed
370
    18
100
AcDbLine
 10
6.4000002988
 20
32.8
 30
0.0
 11
15.8
 21
32.8
 31
0.0
  0
LINE
  5
11D
330
1F
100
AcDbEntity
  8
SK3
  6
SLD-Dashed
370
    18
100
AcDbLine
 10
16.1
 20
33.1
 30
0.0
 11
6.1
 21
33.1
 31
0.0
  0
LINE
  5
11E
330
1F
100
AcDbEntity
  8
SK3
  6
SLD-Dashed
370
    18
100
AcDbLine
 10
6.1
 20
37.5
 30
0.0
 11
16.1
 21
37.5
 31
0.0
  0
LINE
  5
11F
330
1F
100
AcDbEntity
  8
1
  6
SLD-Dashed
370
    18
100
AcDbLine
 10
12.28
 20
43.7694359685
 30
0.0
 11
9.95
 21
43.7694359685
 31
0.0
  0
LINE
  5
120
330
1F
100
AcDbEntity
  8
1
  6
SLD-Dashed
370
    18
100
AcDbLine
 10
12.28
 20
-43.7694359685
 30
0.0
 11
9.95
 21
-43.7694359685
 31
0.0
  0
LINE
  5
121
330
1F
100
AcDbEntity
  8
1
  6
SLD-Dashed
370
    18
100
AcDbLine
 10
18.3
 20
-47.4754841997
 30
0.0
 11
14.6397233934
 21
-47.4754841997
 31
0.0
  0
LINE
  5
122
330
1F
100
AcDbEntity
  8
1
  6
SLD-Dashed
370
    18
100
AcDbLine
 10
7.5902766066
 20
-47.4754841997
 30
0.0
 11
3.95
 21
-47.4754841997
 31
0.0
  0
LINE
  5
123
330
1F
100
AcDbEntity
  8
SK3
  6
SLD-Dashed
370
    18
100
AcDbLine
 10
3.5547332273
 20
13.8826166832
 30
0.0
 11
3.4963041025
 21
13.2364348701
 31
0.0
  0
LINE
  5
124
330
1F
100
AcDbEntity
  8
SK3
  6
SLD-Dashed
370
    18
100
AcDbLine
 10
3.4963041025
 20
13.2364348701
 30
0.0
 11
3.5497418221
 21
12.6381774061
 31
0.0
  0
LINE
  5
125
330
1F
100
AcDbEntity
  8
SK3
  6
SLD-Dashed
370
    18
100
AcDbLine
 10
3.5497418221
 20
12.6381774061
 30
0.0
 11
3.7110831549
 21
12.1322143103
 31
0.0
  0
LINE
  5
126
330
1F
100
AcDbEntity
  8
SK3
  6
SLD-Dashed
370
    18
100
AcDbLine
 10
3.7110831549
 20
12.1322143103
 30
0.0
 11
3.9683621525
 21
11.7560705509
 31
0.0
  0
LINE
  5
127
330
1F
100
AcDbEntity
  8
SK3
  6
SLD-Dashed
370
    18
100
AcDbLine
 10
3.9683621525
 20
11.7560705509
 30
0.0
 11
4.3024976085
 21
11.5376429899
 31
0.0
  0
LINE
  5
128
330
1F
100
AcDbEntity
  8
SK3
  6
SLD-Dashed
370
    18
100
AcDbLine
 10
4.3024976085
 20
11.5376429899
 30
0.0
 11
4.6887082247
 21
11.4931314001
 31
0.0
  0
LINE
  5
129
330
1F
100
AcDbEntity
  8
SK3
  6
SLD-Dashed
370
    18
100
AcDbLine
 10
4.6887082247
 20
11.4931314001
 30
0.0
 11
5.0983505265
 21
11.6258370026
 31
0.0
  0
LINE
  5
12A
330
1F
100
AcDbEntity
  8
SK3
  6
SLD-Dashed
370
    18
100
AcDbLine
 10
5.0983505265
 20
11.6258370026
 30
0.0
 11
5.5010432183
 21
11.92591763
 31
0.0
  0
LINE
  5
12B
330
1F
100
AcDbEntity
  8
SK3
  6
SLD-Dashed
370
    18
100
AcDbLine
 10
5.5010432183
 20
11.92591763
 30
0.0
 11
5.8669204255
 21
12.3711176748
 31
0.0
  0
LINE
  5
12C
330
1F
100
AcDbEntity
  8
SK3
  6
SLD-Dashed
370
    18
100
AcDbLine
 10
5.8669204255
 20
12.3711176748
 30
0.0
 11
6.1688467093
 21
12.9284186865
 31
0.0
  0
LINE
  5
12D
330
1F
100
AcDbEntity
  8
SK3
  6
SLD-Dashed
370
    18
100
AcDbLine
 10
6.1688467093
 20
12.9284186865
 30
0.0
 11
6.3844295785
 21
13.5564881983
 31
0.0
  0
LINE
  5
12E
330
1F
100
AcDbEntity
  8
SK3
  6
SLD-Dashed
370
    18
100
AcDbLine
 10
6.3844295785
 20
13.5564881983
 30
0.0
 11
6.4976802379
 21
14.208745168
 31
0.0
  0
LINE
  5
12F
330
1F
100
AcDbEntity
  8
SK3
  6
SLD-Dashed
370
    18
100
AcDbLine
 10
6.4976802379
 20
14.208745168
 30
0.0
 11
6.5001994042
 21
14.8368146799
 31
0.0
  0
LINE
  5
130
330
1F
100
AcDbEntity
  8
SK3
  6
SLD-Dashed
370
    18
100
AcDbLine
 10
6.5001994042
 20
14.8368146799
 30
0.0
 11
6.3918002423
 21
15.3941156915
 31
0.0
  0
LINE
  5
131
330
1F
100
AcDbEntity
  8
SK3
  6
SLD-Dashed
370
    18
100
AcDbLine
 10
6.3918002423
 20
15.3941156915
 30
0.0
 11
6.1805222222
 21
15.8393157363
 31
0.0
  0
LINE
  5
132
330
1F
100
AcDbEntity
  8
SK3
  6
SLD-Dashed
370
    18
100
AcDbLine
 10
6.1805222222
 20
15.8393157363
 30
0.0
 11
5.8820348681
 21
16.1393963637
 31
0.0
  0
LINE
  5
133
330
1F
100
AcDbEntity
  8
SK3
  6
SLD-Dashed
370
    18
100
AcDbLine
 10
5.8820348681
 20
16.1393963637
 30
0.0
 11
5.5184756216
 21
16.2721019662
 31
0.0
  0
LINE
  5
134
330
1F
100
AcDbEntity
  8
SK3
  6
SLD-Dashed
370
    18
100
AcDbLine
 10
5.5184756216
 20
16.2721019662
 30
0.0
 11
5.1168080088
 21
16.2275903765
 31
0.0
  0
LINE
  5
135
330
1F
100
AcDbEntity
  8
SK3
  6
SLD-Dashed
370
    18
100
AcDbLine
 10
5.1168080088
 20
16.2275903765
 30
0.0
 11
4.706821879
 21
16.0091628154
 31
0.0
  0
LINE
  5
136
330
1F
100
AcDbEntity
  8
SK3
  6
SLD-Dashed
370
    18
100
AcDbLine
 10
4.706821879
 20
16.0091628154
 30
0.0
 11
4.318924028
 21
15.6330190561
 31
0.0
  0
LINE
  5
137
330
1F
100
AcDbEntity
  8
SK3
  6
SLD-Dashed
370
    18
100
AcDbLine
 10
4.318924028
 20
15.6330190561
 30
0.0
 11
3.9818830648
 21
15.1270559603
 31
0.0
  0
LINE
  5
138
330
1F
100
AcDbEntity
  8
SK3
  6
SLD-Dashed
370
    18
100
AcDbLine
 10
3.9818830648
 20
15.1270559603
 30
0.0
 11
3.7206957757
 21
14.5287984962
 31
0.0
  0
LINE
  5
139
330
1F
100
AcDbEntity
  8
SK3
  6
SLD-Dashed
370
    18
100
AcDbLine
 10
3.7206957757
 20
14.5287984962
 30
0.0
 11
3.5547332273
 21
13.8826166832
 31
0.0
  0
LINE
  5
13A
330
1F
100
AcDbEntity
  8
SK3
  6
SLD-Dashed
370
    18
100
AcDbLine
 10
14.2794578574
 20
11.0168048658
 30
0.0
 11
14.4454204058
 21
11.6629866788
 31
0.0
  0
LINE
  5
13B
330
1F
100
AcDbEntity
  8
SK3
  6
SLD-Dashed
370
    18
100
AcDbLine
 10
14.4454204058
 20
11.6629866788
 30
0.0
 11
14.7066076948
 21
12.2612441429
 31
0.0
  0
LINE
  5
13C
330
1F
100
AcDbEntity
  8
SK3
  6
SLD-Dashed
370
    18
100
AcDbLine
 10
14.7066076948
 20
12.2612441429
 30
0.0
 11
15.043648658
 21
12.7672072387
 31
0.0
  0
LINE
  5
13D
330
1F
100
AcDbEntity
  8
SK3
  6
SLD-Dashed
370
    18
100
AcDbLine
 10
15.043648658
 20
12.7672072387
 30
0.0
 11
15.431546509
 21
13.1433509981
 31
0.0
  0
LINE
  5
13E
330
1F
100
AcDbEntity
  8
SK3
  6
SLD-Dashed
370
    18
100
AcDbLine
 10
15.431546509
 20
13.1433509981
 30
0.0
 11
15.8415326388
 21
13.3617785591
 31
0.0
  0
LINE
  5
13F
330
1F
100
AcDbEntity
  8
SK3
  6
SLD-Dashed
370
    18
100
AcDbLine
 10
15.8415326388
 20
13.3617785591
 30
0.0
 11
16.2432002516
 21
13.4062901488
 31
0.0
  0
LINE
  5
140
330
1F
100
AcDbEntity
  8
SK3
  6
SLD-Dashed
370
    18
100
AcDbLine
 10
16.2432002516
 20
13.4062901488
 30
0.0
 11
16.6067594981
 21
13.2735845463
 31
0.0
  0
LINE
  5
141
330
1F
100
AcDbEntity
  8
SK3
  6
SLD-Dashed
370
    18
100
AcDbLine
 10
16.6067594981
 20
13.2735845463
 30
0.0
 11
16.9052468522
 21
12.9735039189
 31
0.0
  0
LINE
  5
142
330
1F
100
AcDbEntity
  8
SK3
  6
SLD-Dashed
370
    18
100
AcDbLine
 10
16.9052468522
 20
12.9735039189
 30
0.0
 11
17.1165248723
 21
12.5283038741
 31
0.0
  0
LINE
  5
143
330
1F
100
AcDbEntity
  8
SK3
  6
SLD-Dashed
370
    18
100
AcDbLine
 10
17.1165248723
 20
12.5283038741
 30
0.0
 11
17.2249240342
 21
11.9710028625
 31
0.0
  0
LINE
  5
144
330
1F
100
AcDbEntity
  8
SK3
  6
SLD-Dashed
370
    18
100
AcDbLine
 10
17.2249240342
 20
11.9710028625
 30
0.0
 11
17.2224048679
 21
11.3429333506
 31
0.0
  0
LINE
  5
145
330
1F
100
AcDbEntity
  8
SK3
  6
SLD-Dashed
370
    18
100
AcDbLine
 10
17.2224048679
 20
11.3429333506
 30
0.0
 11
17.1091542086
 21
10.690676381
 31
0.0
  0
LINE
  5
146
330
1F
100
AcDbEntity
  8
SK3
  6
SLD-Dashed
370
    18
100
AcDbLine
 10
17.1091542086
 20
10.690676381
 30
0.0
 11
16.8935713394
 21
10.0626068691
 31
0.0
  0
LINE
  5
147
330
1F
100
AcDbEntity
  8
SK3
  6
SLD-Dashed
370
    18
100
AcDbLine
 10
16.8935713394
 20
10.0626068691
 30
0.0
 11
16.5916450556
 21
9.5053058575
 31
0.0
  0
LINE
  5
148
330
1F
100
AcDbEntity
  8
SK3
  6
SLD-Dashed
370
    18
100
AcDbLine
 10
16.5916450556
 20
9.5053058575
 30
0.0
 11
16.2257678484
 21
9.0601058126
 31
0.0
  0
LINE
  5
149
330
1F
100
AcDbEntity
  8
SK3
  6
SLD-Dashed
370
    18
100
AcDbLine
 10
16.2257678484
 20
9.0601058126
 30
0.0
 11
15.8230751565
 21
8.7600251853
 31
0.0
  0
LINE
  5
14A
330
1F
100
AcDbEntity
  8
SK3
  6
SLD-Dashed
370
    18
100
AcDbLine
 10
15.8230751565
 20
8.7600251853
 30
0.0
 11
15.4134328547
 21
8.6273195827
 31
0.0
  0
LINE
  5
14B
330
1F
100
AcDbEntity
  8
SK3
  6
SLD-Dashed
370
    18
100
AcDbLine
 10
15.4134328547
 20
8.6273195827
 30
0.0
 11
15.0272222385
 21
8.6718311725
 31
0.0
  0
LINE
  5
14C
330
1F
100
AcDbEntity
  8
SK3
  6
SLD-Dashed
370
    18
100
AcDbLine
 10
15.0272222385
 20
8.6718311725
 30
0.0
 11
14.6930867825
 21
8.8902587335
 31
0.0
  0
LINE
  5
14D
330
1F
100
AcDbEntity
  8
SK3
  6
SLD-Dashed
370
    18
100
AcDbLine
 10
14.6930867825
 20
8.8902587335
 30
0.0
 11
14.435807785
 21
9.2664024929
 31
0.0
  0
LINE
  5
14E
330
1F
100
AcDbEntity
  8
SK3
  6
SLD-Dashed
370
    18
100
AcDbLine
 10
14.435807785
 20
9.2664024929
 30
0.0
 11
14.2744664521
 21
9.7723655887
 31
0.0
  0
LINE
  5
14F
330
1F
100
AcDbEntity
  8
SK3
  6
SLD-Dashed
370
    18
100
AcDbLine
 10
14.2744664521
 20
9.7723655887
 30
0.0
 11
14.2210287325
 21
10.3706230527
 31
0.0
  0
LINE
  5
150
330
1F
100
AcDbEntity
  8
SK3
  6
SLD-Dashed
370
    18
100
AcDbLine
 10
14.2210287325
 20
10.3706230527
 30
0.0
 11
14.2794578574
 21
11.0168048658
 31
0.0
  0
LINE
  5
151
330
1F
100
AcDbEntity
  8
SK3
  6
SLD-Dashed
370
    18
100
AcDbLine
 10
3.3949403416
 20
13.9015950424
 30
0.0
 11
3.5615900545
 21
14.5594368595
 31
0.0
  0
LINE
  5
152
330
1F
100
AcDbEntity
  8
SK3
  6
SLD-Dashed
370
    18
100
AcDbLine
 10
3.5615900545
 20
14.5594368595
 30
0.0
 11
3.8217415901
 21
15.1724478438
 31
0.0
  0
LINE
  5
153
330
1F
100
AcDbEntity
  8
SK3
  6
SLD-Dashed
370
    18
100
AcDbLine
 10
3.8217415901
 20
15.1724478438
 30
0.0
 11
4.1576660511
 21
15.6988523099
 31
0.0
  0
LINE
  5
154
330
1F
100
AcDbEntity
  8
SK3
  6
SLD-Dashed
370
    18
100
AcDbLine
 10
4.1576660511
 20
15.6988523099
 30
0.0
 11
4.5464707407
 21
16.1027766634
 31
0.0
  0
LINE
  5
155
330
1F
100
AcDbEntity
  8
SK3
  6
SLD-Dashed
370
    18
100
AcDbLine
 10
4.5464707407
 20
16.1027766634
 30
0.0
 11
4.9616592619
 21
16.356694127
 31
0.0
  0
LINE
  5
156
330
1F
100
AcDbEntity
  8
SK3
  6
SLD-Dashed
370
    18
100
AcDbLine
 10
4.9616592619
 20
16.356694127
 30
0.0
 11
5.3749372029
 21
16.4433006452
 31
0.0
  0
LINE
  5
157
330
1F
100
AcDbEntity
  8
SK3
  6
SLD-Dashed
370
    18
100
AcDbLine
 10
5.3749372029
 20
16.4433006452
 30
0.0
 11
5.7581403551
 21
16.356694127
 31
0.0
  0
LINE
  5
158
330
1F
100
AcDbEntity
  8
SK3
  6
SLD-Dashed
370
    18
100
AcDbLine
 10
5.7581403551
 20
16.356694127
 30
0.0
 11
6.0851540571
 21
16.1027766634
 31
0.0
  0
LINE
  5
159
330
1F
100
AcDbEntity
  8
SK3
  6
SLD-Dashed
370
    18
100
AcDbLine
 10
6.0851540571
 20
16.1027766634
 30
0.0
 11
6.3336928653
 21
15.6988523099
 31
0.0
  0
LINE
  5
15A
330
1F
100
AcDbEntity
  8
SK3
  6
SLD-Dashed
370
    18
100
AcDbLine
 10
6.3336928653
 20
15.6988523099
 30
0.0
 11
6.4868192707
 21
15.1724478438
 31
0.0
  0
LINE
  5
15B
330
1F
100
AcDbEntity
  8
SK3
  6
SLD-Dashed
370
    18
100
AcDbLine
 10
6.4868192707
 20
15.1724478438
 30
0.0
 11
6.5340979619
 21
14.5594368595
 31
0.0
  0
LINE
  5
15C
330
1F
100
AcDbEntity
  8
SK3
  6
SLD-Dashed
370
    18
100
AcDbLine
 10
6.5340979619
 20
14.5594368595
 30
0.0
 11
6.4723069743
 21
13.9015950424
 31
0.0
  0
LINE
  5
15D
330
1F
100
AcDbEntity
  8
SK3
  6
SLD-Dashed
370
    18
100
AcDbLine
 10
6.4723069743
 20
13.9015950424
 30
0.0
 11
6.3056572614
 21
13.2437532254
 31
0.0
  0
LINE
  5
15E
330
1F
100
AcDbEntity
  8
SK3
  6
SLD-Dashed
370
    18
100
AcDbLine
 10
6.3056572614
 20
13.2437532254
 30
0.0
 11
6.0455057258
 21
12.630742241
 31
0.0
  0
LINE
  5
15F
330
1F
100
AcDbEntity
  8
SK3
  6
SLD-Dashed
370
    18
100
AcDbLine
 10
6.0455057258
 20
12.630742241
 30
0.0
 11
5.7095812647
 21
12.1043377749
 31
0.0
  0
LINE
  5
160
330
1F
100
AcDbEntity
  8
SK3
  6
SLD-Dashed
370
    18
100
AcDbLine
 10
5.7095812647
 20
12.1043377749
 30
0.0
 11
5.3207765751
 21
11.7004134215
 31
0.0
  0
LINE
  5
161
330
1F
100
AcDbEntity
  8
SK3
  6
SLD-Dashed
370
    18
100
AcDbLine
 10
5.3207765751
 20
11.7004134215
 30
0.0
 11
4.905588054
 21
11.4464959579
 31
0.0
  0
LINE
  5
162
330
1F
100
AcDbEntity
  8
SK3
  6
SLD-Dashed
370
    18
100
AcDbLine
 10
4.905588054
 20
11.4464959579
 30
0.0
 11
4.492310113
 21
11.3598894396
 31
0.0
  0
LINE
  5
163
330
1F
100
AcDbEntity
  8
SK3
  6
SLD-Dashed
370
    18
100
AcDbLine
 10
4.492310113
 20
11.3598894396
 30
0.0
 11
4.1091069607
 21
11.4464959579
 31
0.0
  0
LINE
  5
164
330
1F
100
AcDbEntity
  8
SK3
  6
SLD-Dashed
370
    18
100
AcDbLine
 10
4.1091069607
 20
11.4464959579
 30
0.0
 11
3.7820932588
 21
11.7004134215
 31
0.0
  0
LINE
  5
165
330
1F
100
AcDbEntity
  8
SK3
  6
SLD-Dashed
370
    18
100
AcDbLine
 10
3.7820932588
 20
11.7004134215
 30
0.0
 11
3.5335544506
 21
12.1043377749
 31
0.0
  0
LINE
  5
166
330
1F
100
AcDbEntity
  8
SK3
  6
SLD-Dashed
370
    18
100
AcDbLine
 10
3.5335544506
 20
12.1043377749
 30
0.0
 11
3.3804280451
 21
12.630742241
 31
0.0
  0
LINE
  5
167
330
1F
100
AcDbEntity
  8
SK3
  6
SLD-Dashed
370
    18
100
AcDbLine
 10
3.3804280451
 20
12.630742241
 30
0.0
 11
3.3331493539
 21
13.2437532254
 31
0.0
  0
LINE
  5
168
330
1F
100
AcDbEntity
  8
SK3
  6
SLD-Dashed
370
    18
100
AcDbLine
 10
3.3331493539
 20
13.2437532254
 30
0.0
 11
3.3949403416
 21
13.9015950424
 31
0.0
  0
LINE
  5
169
330
1F
100
AcDbEntity
  8
SK3
  6
SLD-Dashed
370
    18
100
AcDbLine
 10
5.6371324082
 20
-16.2495686026
 30
0.0
 11
16.3618570383
 21
-13.3837567853
 31
0.0
  0
LINE
  5
16A
330
1F
100
AcDbEntity
  8
SK3
  6
SLD-Dashed
370
    18
100
AcDbLine
 10
15.0968849264
 20
-8.6498529463
 30
0.0
 11
4.3721602964
 21
-11.5156647637
 31
0.0
  0
LINE
  5
16B
330
1F
100
AcDbEntity
  8
SK3
  6
SLD-Dashed
370
    18
100
AcDbLine
 10
101.6
 20
19.9160254038
 30
0.0
 11
100.1
 21
19.05
 31
0.0
  0
LINE
  5
16C
330
1F
100
AcDbEntity
  8
SK3
  6
SLD-Dashed
370
    18
100
AcDbLine
 10
100.1
 20
-19.05
 30
0.0
 11
101.6
 21
-19.9160254038
 31
0.0
  0
LINE
  5
16D
330
1F
100
AcDbEntity
  8
SK3
  6
SLD-Dashed
370
    18
100
AcDbLine
 10
-12.55
 20
-19.24
 30
0.0
 11
25.25
 21
-19.24
 31
0.0
  0
LINE
  5
16E
330
1F
100
AcDbEntity
  8
SK3
  6
SLD-Dashed
370
    18
100
AcDbLine
 10
25.25
 20
19.24
 30
0.0
 11
-12.55
 21
19.24
 31
0.0
  0
LINE
  5
16F
330
1F
100
AcDbEntity
  8
SK3
  6
SLD-Dashed
370
    18
100
AcDbLine
 10
38.9636
 20
19.05
 30
0.0
 11
25.4
 21
19.05
 31
0.0
  0
LINE
  5
170
330
1F
100
AcDbEntity
  8
SK3
  6
SLD-Dashed
370
    18
100
AcDbLine
 10
64.3636
 20
19.05
 30
0.0
 11
56.2626676318
 21
19.05
 31
0.0
  0
LINE
  5
171
330
1F
100
AcDbEntity
  8
SK3
  6
SLD-Dashed
370
    18
100
AcDbLine
 10
100.1
 20
19.05
 30
0.0
 11
81.6655002451
 21
19.05
 31
0.0
  0
LINE
  5
172
330
1F
100
AcDbEntity
  8
SK3
  6
SLD-Dashed
370
    18
100
AcDbLine
 10
25.4
 20
-19.05
 30
0.0
 11
100.1
 21
-19.05
 31
0.0
  0
LINE
  5
173
330
1F
100
AcDbEntity
  8
SK3
  6
SLD-Dashed
370
    18
100
AcDbLine
 10
-12.7
 20
19.05
 30
0.0
 11
-14.2
 21
19.05
 31
0.0
  0
LINE
  5
174
330
1F
100
AcDbEntity
  8
SK3
  6
SLD-Dashed
370
    18
100
AcDbLine
 10
-14.2
 20
-19.05
 30
0.0
 11
-12.7
 21
-19.05
 31
0.0
  0
LINE
  5
175
330
1F
100
AcDbEntity
  8
SK3
  6
SLD-Dashed
370
    18
100
AcDbLine
 10
-14.2
 20
19.05
 30
0.0
 11
-18.9693311635
 21
11.1125
 31
0.0
  0
LINE
  5
176
330
1F
100
AcDbEntity
  8
SK3
  6
SLD-Dashed
370
    18
100
AcDbLine
 10
-18.9693311635
 20
-11.1125
 30
0.0
 11
-14.2
 21
-19.05
 31
0.0
  0
LINE
  5
177
330
1F
100
AcDbEntity
  8
SK3
  6
SLD-Dashed
370
    18
100
AcDbLine
 10
-101.6
 20
-14.285
 30
0.0
 11
-99.7034043657
 21
-13.19
 31
0.0
  0
LINE
  5
178
330
1F
100
AcDbEntity
  8
SK3
  6
SLD-Dashed
370
    18
100
AcDbLine
 10
-99.7034043657
 20
13.19
 30
0.0
 11
-101.6
 21
14.285
 31
0.0
  0
LINE
  5
179
330
1F
100
AcDbEntity
  8
SK3
  6
SLD-Dashed
370
    18
100
AcDbLine
 10
-95.25
 20
-13.19
 30
0.0
 11
-94.0505548158
 21
-11.1125
 31
0.0
  0
LINE
  5
17A
330
1F
100
AcDbEntity
  8
SK3
  6
SLD-Dashed
370
    18
100
AcDbLine
 10
-94.0505548158
 20
11.1125
 30
0.0
 11
-95.25
 21
13.19
 31
0.0
  0
LINE
  5
17B
330
1F
100
AcDbEntity
  8
SK3
  6
SLD-Dashed
370
    18
100
AcDbLine
 10
-99.7034043657
 20
-13.19
 30
0.0
 11
-95.25
 21
-13.19
 31
0.0
  0
LINE
  5
17C
330
1F
100
AcDbEntity
  8
SK3
  6
SLD-Dashed
370
    18
100
AcDbLine
 10
-95.25
 20
13.19
 30
0.0
 11
-99.7034043657
 21
13.19
 31
0.0
  0
LINE
  5
17D
330
1F
100
AcDbEntity
  8
SK3
  6
SLD-Dashed
370
    18
100
AcDbLine
 10
-94.0505548158
 20
-11.1125
 30
0.0
 11
-18.9693311635
 21
-11.1125
 31
0.0
  0
LINE
  5
17E
330
1F
100
AcDbEntity
  8
SK3
  6
SLD-Dashed
370
    18
100
AcDbLine
 10
-18.9693311635
 20
11.1125
 30
0.0
 11
-94.0505548158
 21
11.1125
 31
0.0
  0
LINE
  5
17F
330
1F
100
AcDbEntity
  8
SK3
  6
SLD-Dashed
370
    18
100
AcDbLine
 10
37.525
 20
34.925
 30
0.0
 11
37.525
 21
32.825
 31
0.0
  0
LINE
  5
180
330
1F
100
AcDbEntity
  8
SK3
  6
SLD-Dashed
370
    18
100
AcDbLine
 10
57.725
 20
32.825
 30
0.0
 11
57.725
 21
34.925
 31
0.0
  0
LINE
  5
181
330
1F
100
AcDbEntity
  8
SK3
  6
SLD-Dashed
370
    18
100
AcDbLine
 10
62.925
 20
34.925
 30
0.0
 11
62.925
 21
32.825
 31
0.0
  0
LINE
  5
182
330
1F
100
AcDbEntity
  8
SK3
  6
SLD-Dashed
370
    18
100
AcDbLine
 10
83.125
 20
32.825
 30
0.0
 11
83.125
 21
34.925
 31
0.0
  0
LINE
  5
183
330
1F
100
AcDbEntity
  8
SK3
  6
SLD-Dashed
370
    18
100
AcDbLine
 10
38.9636
 20
32.825
 30
0.0
 11
38.9636
 21
19.05
 31
0.0
  0
LINE
  5
184
330
1F
100
AcDbEntity
  8
SK3
  6
SLD-Dashed
370
    18
100
AcDbLine
 10
56.2864
 20
19.0392469429
 30
0.0
 11
56.2864
 21
32.825
 31
0.0
  0
LINE
  5
185
330
1F
100
AcDbEntity
  8
SK3
  6
SLD-Dashed
370
    18
100
AcDbLine
 10
64.3636
 20
32.825
 30
0.0
 11
64.3636
 21
19.05
 31
0.0
  0
LINE
  5
186
330
1F
100
AcDbEntity
  8
SK3
  6
SLD-Dashed
370
    18
100
AcDbLine
 10
81.6864
 20
19.0405356256
 30
0.0
 11
81.6864
 21
32.825
 31
0.0
  0
LINE
  5
187
330
1F
100
AcDbEntity
  8
SK3
  6
SLD-Dashed
370
    18
100
AcDbLine
 10
6.1
 20
37.5
 30
0.0
 11
6.1
 21
33.1
 31
0.0
  0
LINE
  5
188
330
1F
100
AcDbEntity
  8
SK3
  6
SLD-Dashed
370
    18
100
AcDbLine
 10
16.1
 20
33.1
 30
0.0
 11
16.1
 21
37.5
 31
0.0
  0
LINE
  5
189
330
1F
100
AcDbEntity
  8
SK3
  6
SLD-Dashed
370
    18
100
AcDbLine
 10
4.3721602964
 20
11.5156647637
 30
0.0
 11
15.0968849264
 21
8.6498529463
 31
0.0
  0
LINE
  5
18A
330
1F
100
AcDbEntity
  8
SK3
  6
SLD-Dashed
370
    18
100
AcDbLine
 10
16.3618570383
 20
13.3837567853
 30
0.0
 11
5.6371324082
 21
16.2495686026
 31
0.0
  0
LINE
  5
18B
330
1F
100
AcDbEntity
  8
SK3
  6
SLD-Solid
370
    18
100
AcDbLine
 10
-55.5999986827
 20
12.6999998465
 30
0.0
 11
-94.967097044
 21
12.6999998465
 31
0.0
  0
LINE
  5
18C
330
1F
100
AcDbEntity
  8
SK3
  6
SLD-Solid
370
    18
100
AcDbLine
 10
-94.967097044
 20
-12.6999998465
 30
0.0
 11
-55.5999986827
 21
-12.6999998465
 31
0.0
  0
LINE
  5
18D
330
1F
100
AcDbEntity
  8
SK3
  6
SLD-Solid
370
    18
100
AcDbLine
 10
-55.5999986827
 20
0.0
 30
0.0
 11
-55.5999986827
 21
-1.7674983246
 31
0.0
  0
LINE
  5
18E
330
1F
100
AcDbEntity
  8
SK3
  6
SLD-Solid
370
    18
100
AcDbLine
 10
-55.5999986827
 20
0.0
 30
0.0
 11
-55.5999986827
 21
-1.7674983246
 31
0.0
  0
LINE
  5
18F
330
1F
100
AcDbEntity
  8
SK3
  6
SLD-Solid
370
    18
100
AcDbLine
 10
-55.6000180927
 20
-1.7674983246
 30
0.0
 11
-55.5999986827
 21
-3.5005945247
 31
0.0
  0
LINE
  5
190
330
1F
100
AcDbEntity
  8
SK3
  6
SLD-Solid
370
    18
100
AcDbLine
 10
-55.5999986827
 20
-3.5005945247
 30
0.0
 11
-55.5999986827
 21
-5.1655555144
 31
0.0
  0
LINE
  5
191
330
1F
100
AcDbEntity
  8
SK3
  6
SLD-Solid
370
    18
100
AcDbLine
 10
-55.5999986827
 20
-5.1655555144
 30
0.0
 11
-55.5999986827
 21
-6.7299748771
 31
0.0
  0
LINE
  5
192
330
1F
100
AcDbEntity
  8
SK3
  6
SLD-Solid
370
    18
100
AcDbLine
 10
-55.5999986827
 20
-6.7299748771
 30
0.0
 11
-55.5999986827
 21
-8.1634027883
 31
0.0
  0
LINE
  5
193
330
1F
100
AcDbEntity
  8
SK3
  6
SLD-Solid
370
    18
100
AcDbLine
 10
-55.5999986827
 20
-8.1634027883
 30
0.0
 11
-55.5999986827
 21
-9.4379391521
 31
0.0
  0
LINE
  5
194
330
1F
100
AcDbEntity
  8
SK3
  6
SLD-Solid
370
    18
100
AcDbLine
 10
-55.5999986827
 20
-9.4379391521
 30
0.0
 11
-55.5999986827
 21
-10.5287767947
 31
0.0
  0
LINE
  5
195
330
1F
100
AcDbEntity
  8
SK3
  6
SLD-Solid
370
    18
100
AcDbLine
 10
-55.5999986827
 20
-10.5287767947
 30
0.0
 11
-55.5999986827
 21
-11.4146843553
 31
0.0
  0
LINE
  5
196
330
1F
100
AcDbEntity
  8
SK3
  6
SLD-Solid
370
    18
100
AcDbLine
 10
-55.5999986827
 20
-11.4146843553
 30
0.0
 11
-55.5999986827
 21
-12.0784174651
 31
0.0
  0
LINE
  5
197
330
1F
100
AcDbEntity
  8
SK3
  6
SLD-Solid
370
    18
100
AcDbLine
 10
-55.5999986827
 20
-12.0784174651
 30
0.0
 11
-55.5999986827
 21
-12.5070586801
 31
0.0
  0
LINE
  5
198
330
1F
100
AcDbEntity
  8
SK3
  6
SLD-Solid
370
    18
100
AcDbLine
 10
-55.5999986827
 20
-12.5070586801
 30
0.0
 11
-55.5999986827
 21
-12.6922633499
 31
0.0
  0
LINE
  5
199
330
1F
100
AcDbEntity
  8
SK3
  6
SLD-Solid
370
    18
100
AcDbLine
 10
-55.5999986827
 20
-12.6922633499
 30
0.0
 11
-55.5999986827
 21
-12.6999998465
 31
0.0
  0
LINE
  5
19A
330
1F
100
AcDbEntity
  8
SK3
  6
SLD-Solid
370
    18
100
AcDbLine
 10
-55.6000180927
 20
12.6999998465
 30
0.0
 11
-55.5999986827
 21
12.6922633499
 31
0.0
  0
LINE
  5
19B
330
1F
100
AcDbEntity
  8
SK3
  6
SLD-Solid
370
    18
100
AcDbLine
 10
-55.5999986827
 20
12.6922633499
 30
0.0
 11
-55.5999986827
 21
12.5070586801
 31
0.0
  0
LINE
  5
19C
330
1F
100
AcDbEntity
  8
SK3
  6
SLD-Solid
370
    18
100
AcDbLine
 10
-55.5999986827
 20
12.5070586801
 30
0.0
 11
-55.5999986827
 21
12.0784174651
 31
0.0
  0
LINE
  5
19D
330
1F
100
AcDbEntity
  8
SK3
  6
SLD-Solid
370
    18
100
AcDbLine
 10
-55.5999986827
 20
12.0784174651
 30
0.0
 11
-55.5999986827
 21
11.4146843553
 31
0.0
  0
LINE
  5
19E
330
1F
100
AcDbEntity
  8
SK3
  6
SLD-Solid
370
    18
100
AcDbLine
 10
-55.5999986827
 20
11.4146843553
 30
0.0
 11
-55.5999986827
 21
10.5287767947
 31
0.0
  0
LINE
  5
19F
330
1F
100
AcDbEntity
  8
SK3
  6
SLD-Solid
370
    18
100
AcDbLine
 10
-55.5999986827
 20
10.5287767947
 30
0.0
 11
-55.5999986827
 21
9.4379391521
 31
0.0
  0
LINE
  5
1A0
330
1F
100
AcDbEntity
  8
SK3
  6
SLD-Solid
370
    18
100
AcDbLine
 10
-55.5999986827
 20
9.4379391521
 30
0.0
 11
-55.5999986827
 21
8.1634027883
 31
0.0
  0
LINE
  5
1A1
330
1F
100
AcDbEntity
  8
SK3
  6
SLD-Solid
370
    18
100
AcDbLine
 10
-55.5999986827
 20
8.1634027883
 30
0.0
 11
-55.5999986827
 21
6.7299748771
 31
0.0
  0
LINE
  5
1A2
330
1F
100
AcDbEntity
  8
SK3
  6
SLD-Solid
370
    18
100
AcDbLine
 10
-55.5999986827
 20
6.7299748771
 30
0.0
 11
-55.5999986827
 21
5.1655555144
 31
0.0
  0
LINE
  5
1A3
330
1F
100
AcDbEntity
  8
SK3
  6
SLD-Solid
370
    18
100
AcDbLine
 10
-55.5999986827
 20
5.1655555144
 30
0.0
 11
-55.5999986827
 21
3.5005945247
 31
0.0
  0
LINE
  5
1A4
330
1F
100
AcDbEntity
  8
SK3
  6
SLD-Solid
370
    18
100
AcDbLine
 10
-55.5999986827
 20
3.5005945247
 30
0.0
 11
-55.5999986827
 21
1.7674983246
 31
0.0
  0
LINE
  5
1A5
330
1F
100
AcDbEntity
  8
SK3
  6
SLD-Solid
370
    18
100
AcDbLine
 10
-55.5999986827
 20
1.7674983246
 30
0.0
 11
-55.5999986827
 21
0.0
 31
0.0
  0
LINE
  5
1A6
330
1F
100
AcDbEntity
  8
SK3
  6
SLD-Solid
370
    18
100
AcDbLine
 10
-55.6000180927
 20
-1.7674983246
 30
0.0
 11
-55.5999986827
 21
-3.5005945247
 31
0.0
  0
LINE
  5
1A7
330
1F
100
AcDbEntity
  8
SK3
  6
SLD-Solid
370
    18
100
AcDbLine
 10
-55.5999986827
 20
-3.5005945247
 30
0.0
 11
-55.5999986827
 21
-5.1655555144
 31
0.0
  0
LINE
  5
1A8
330
1F
100
AcDbEntity
  8
SK3
  6
SLD-Solid
370
    18
100
AcDbLine
 10
-55.5999986827
 20
-5.1655555144
 30
0.0
 11
-55.5999986827
 21
-6.7299748771
 31
0.0
  0
LINE
  5
1A9
330
1F
100
AcDbEntity
  8
SK3
  6
SLD-Solid
370
    18
100
AcDbLine
 10
-55.5999986827
 20
-6.7299748771
 30
0.0
 11
-55.5999986827
 21
-8.1634027883
 31
0.0
  0
LINE
  5
1AA
330
1F
100
AcDbEntity
  8
SK3
  6
SLD-Solid
370
    18
100
AcDbLine
 10
-55.5999986827
 20
-8.1634027883
 30
0.0
 11
-55.5999986827
 21
-9.4379391521
 31
0.0
  0
LINE
  5
1AB
330
1F
100
AcDbEntity
  8
SK3
  6
SLD-Solid
370
    18
100
AcDbLine
 10
-55.5999986827
 20
-9.4379391521
 30
0.0
 11
-55.5999986827
 21
-10.5287767947
 31
0.0
  0
LINE
  5
1AC
330
1F
100
AcDbEntity
  8
SK3
  6
SLD-Solid
370
    18
100
AcDbLine
 10
-55.5999986827
 20
-10.5287767947
 30
0.0
 11
-55.5999986827
 21
-11.4146843553
 31
0.0
  0
LINE
  5
1AD
330
1F
100
AcDbEntity
  8
SK3
  6
SLD-Solid
370
    18
100
AcDbLine
 10
-55.5999986827
 20
-11.4146843553
 30
0.0
 11
-55.5999986827
 21
-12.0784174651
 31
0.0
  0
LINE
  5
1AE
330
1F
100
AcDbEntity
  8
SK3
  6
SLD-Solid
370
    18
100
AcDbLine
 10
-55.5999986827
 20
-12.0784174651
 30
0.0
 11
-55.5999986827
 21
-12.5070586801
 31
0.0
  0
LINE
  5
1AF
330
1F
100
AcDbEntity
  8
SK3
  6
SLD-Solid
370
    18
100
AcDbLine
 10
-55.5999986827
 20
-12.5070586801
 30
0.0
 11
-55.5999986827
 21
-12.6922633499
 31
0.0
  0
LINE
  5
1B0
330
1F
100
AcDbEntity
  8
SK3
  6
SLD-Solid
370
    18
100
AcDbLine
 10
-55.5999986827
 20
-12.6922633499
 30
0.0
 11
-55.5999986827
 21
-12.6999998465
 31
0.0
  0
LINE
  5
1B1
330
1F
100
AcDbEntity
  8
SK3
  6
SLD-Solid
370
    18
100
AcDbLine
 10
-55.6000180927
 20
12.6999998465
 30
0.0
 11
-55.5999986827
 21
12.6922633499
 31
0.0
  0
LINE
  5
1B2
330
1F
100
AcDbEntity
  8
SK3
  6
SLD-Solid
370
    18
100
AcDbLine
 10
-55.5999986827
 20
12.6922633499
 30
0.0
 11
-55.5999986827
 21
12.5070586801
 31
0.0
  0
LINE
  5
1B3
330
1F
100
AcDbEntity
  8
SK3
  6
SLD-Solid
370
    18
100
AcDbLine
 10
-55.5999986827
 20
12.5070586801
 30
0.0
 11
-55.5999986827
 21
12.0784174651
 31
0.0
  0
LINE
  5
1B4
330
1F
100
AcDbEntity
  8
SK3
  6
SLD-Solid
370
    18
100
AcDbLine
 10
-55.5999986827
 20
12.0784174651
 30
0.0
 11
-55.5999986827
 21
11.4146843553
 31
0.0
  0
LINE
  5
1B5
330
1F
100
AcDbEntity
  8
SK3
  6
SLD-Solid
370
    18
100
AcDbLine
 10
-55.5999986827
 20
11.4146843553
 30
0.0
 11
-55.5999986827
 21
10.5287767947
 31
0.0
  0
LINE
  5
1B6
330
1F
100
AcDbEntity
  8
SK3
  6
SLD-Solid
370
    18
100
AcDbLine
 10
-55.5999986827
 20
10.5287767947
 30
0.0
 11
-55.5999986827
 21
9.4379391521
 31
0.0
  0
LINE
  5
1B7
330
1F
100
AcDbEntity
  8
SK3
  6
SLD-Solid
370
    18
100
AcDbLine
 10
-55.5999986827
 20
9.4379391521
 30
0.0
 11
-55.5999986827
 21
8.1634027883
 31
0.0
  0
LINE
  5
1B8
330
1F
100
AcDbEntity
  8
SK3
  6
SLD-Solid
370
    18
100
AcDbLine
 10
-55.5999986827
 20
8.1634027883
 30
0.0
 11
-55.5999986827
 21
6.7299748771
 31
0.0
  0
LINE
  5
1B9
330
1F
100
AcDbEntity
  8
SK3
  6
SLD-Solid
370
    18
100
AcDbLine
 10
-55.5999986827
 20
6.7299748771
 30
0.0
 11
-55.5999986827
 21
5.1655555144
 31
0.0
  0
LINE
  5
1BA
330
1F
100
AcDbEntity
  8
SK3
  6
SLD-Solid
370
    18
100
AcDbLine
 10
-55.5999986827
 20
5.1655555144
 30
0.0
 11
-55.5999986827
 21
3.5005945247
 31
0.0
  0
LINE
  5
1BB
330
1F
100
AcDbEntity
  8
SK3
  6
SLD-Solid
370
    18
100
AcDbLine
 10
-55.5999986827
 20
3.5005945247
 30
0.0
 11
-55.5999986827
 21
1.7674983246
 31
0.0
  0
LINE
  5
1BC
330
1F
100
AcDbEntity
  8
SK3
  6
SLD-Solid
370
    18
100
AcDbLine
 10
-55.5999986827
 20
1.7674983246
 30
0.0
 11
-55.5999986827
 21
0.0
 31
0.0
  0
LINE
  5
1BD
330
1F
100
AcDbEntity
  8
SK3
  6
SLD-Solid
370
    18
100
AcDbLine
 10
57.1499988437
 20
19.0369933844
 30
0.0
 11
57.1499988437
 21
32.8250005841
 31
0.0
  0
LINE
  5
1BE
330
1F
100
AcDbEntity
  8
SK3
  6
SLD-Solid
370
    18
100
AcDbLine
 10
38.1000004709
 20
32.8250005841
 30
0.0
 11
38.1000004709
 21
19.0369933844
 31
0.0
  0
LINE
  5
1BF
330
1F
100
AcDbEntity
  8
SK3
  6
SLD-Solid
370
    18
100
AcDbLine
 10
57.1239478886
 20
19.0369933844
 30
0.0
 11
57.1363605559
 21
19.0431848168
 31
0.0
  0
LINE
  5
1C0
330
1F
100
AcDbEntity
  8
SK3
  6
SLD-Solid
370
    18
100
AcDbLine
 10
82.5499966741
 20
19.035866484
 30
0.0
 11
82.5499966741
 21
32.8250005841
 31
0.0
  0
LINE
  5
1C1
330
1F
100
AcDbEntity
  8
SK3
  6
SLD-Solid
370
    18
100
AcDbLine
 10
63.5000020266
 20
32.8250005841
 30
0.0
 11
63.5000020266
 21
19.035866484
 31
0.0
  0
LINE
  5
1C2
330
1F
100
AcDbEntity
  8
SK3
  6
SLD-Solid
370
    18
100
AcDbLine
 10
82.5220420957
 20
19.035866484
 30
0.0
 11
82.5339853764
 21
19.041724503
 31
0.0
  0
LINE
  5
1C3
330
1F
100
AcDbEntity
  8
4
  6
SLD-Center
370
    18
100
AcDbLine
 10
103.6
 20
0.0
 30
0.0
 11
-0.4604299393
 21
0.0
 31
0.0
  0
LINE
  5
1C4
330
1F
100
AcDbEntity
  8
4
  6
SLD-Center
370
    18
100
AcDbLine
 10
47.625
 20
17.05
 30
0.0
 11
47.625
 21
34.825
 31
0.0
  0
LINE
  5
1C5
330
1F
100
AcDbEntity
  8
4
  6
SLD-Center
370
    18
100
AcDbLine
 10
73.025
 20
17.05
 30
0.0
 11
73.025
 21
34.825
 31
0.0
  0
LINE
  5
1C6
330
1F
100
AcDbEntity
  8
SK4
  6
SLD-Center
370
    18
100
AcDbLine
 10
101.1066178115
 20
0.0
 30
0.0
 11
-101.8030472773
 21
0.0
 31
0.0
  0
LINE
  5
1C7
330
1F
100
AcDbEntity
  8
81
370
    18
100
AcDbLine
 10
101.6
 20
0.0
 30
0.0
 11
105.1355339059
 21
3.5355339059
 31
0.0
  0
LINE
  5
1C8
330
1F
100
AcDbEntity
  8
81
370
    18
100
AcDbLine
 10
101.6
 20
0.0
 30
0.0
 11
98.0644660941
 21
-3.5355339059
 31
0.0
  0
LINE
  5
1C9
330
1F
100
AcDbEntity
  8
81
370
    18
100
AcDbLine
 10
101.6
 20
0.0
 30
0.0
 11
98.0644660941
 21
3.5355339059
 31
0.0
  0
LINE
  5
1CA
330
1F
100
AcDbEntity
  8
81
100
AcDbLine
 10
101.6
 20
0.0
 30
0.0
 11
111.6
 21
0.0
 31
0.0
  0
LINE
  5
1CB
330
1F
100
AcDbEntity
  8
81
370
    18
100
AcDbLine
 10
101.6
 20
0.0
 30
0.0
 11
105.1355339059
 21
-3.5355339059
 31
0.0
  0
LINE
  5
1CC
330
1F
100
AcDbEntity
  8
80
370
    18
100
AcDbLine
 10
0.0
 20
0.0
 30
0.0
 11
-3.5355339059
 21
-3.5355339059
 31
0.0
  0
LINE
  5
1CD
330
1F
100
AcDbEntity
  8
80
370
    18
100
AcDbLine
 10
0.0
 20
0.0
 30
0.0
 11
3.5355339059
 21
3.5355339059
 31
0.0
  0
LINE
  5
1CE
330
1F
100
AcDbEntity
  8
80
370
    18
100
AcDbLine
 10
0.0
 20
0.0
 30
0.0
 11
-3.5355339059
 21
3.5355339059
 31
0.0
  0
LINE
  5
1CF
330
1F
100
AcDbEntity
  8
80
370
    18
100
AcDbLine
 10
0.0
 20
0.0
 30
0.0
 11
-10.0
 21
0.0
 31
0.0
  0
LINE
  5
1D0
330
1F
100
AcDbEntity
  8
80
370
    18
100
AcDbLine
 10
0.0
 20
0.0
 30
0.0
 11
3.5355339059
 21
-3.5355339059
 31
0.0
  0
ARC
  5
1D1
330
1F
100
AcDbEntity
  8
1
  6
SLD-Solid
370
    25
100
AcDbCircle
 10
19.812
 20
-35.687
 30
0.0
 40
0.7620000000000005
100
AcDbArc
 50
90.0
 51
129.6580997298
  0
ARC
  5
1D2
330
1F
100
AcDbEntity
  8
1
  6
SLD-Solid
370
    25
100
AcDbCircle
 10
19.812
 20
35.687
 30
0.0
 40
0.7620000000000005
100
AcDbArc
 50
180.0
 51
270.0
  0
ARC
  5
1D3
330
1F
100
AcDbEntity
  8
1
  6
SLD-Solid
370
    25
100
AcDbCircle
 10
2.45
 20
35.425
 30
0.0
 40
0.7500000000000284
100
AcDbArc
 50
245.0
 51
0.0
  0
ARC
  5
1D4
330
1F
100
AcDbEntity
  8
1
  6
SLD-Solid
370
    25
100
AcDbCircle
 10
2.45
 20
-35.425
 30
0.0
 40
0.7500000000000135
100
AcDbArc
 50
25.5336708908
 51
115.0
  0
ARC
  5
1D5
330
1F
100
AcDbEntity
  8
SK1
  6
SLD-Solid
370
    25
100
AcDbCircle
 10
-99.5
 20
18.2922326599
 30
0.0
 40
2.100000000000009
100
AcDbArc
 50
98.2972222222
 51
180.0
  0
ARC
  5
1D6
330
1F
100
AcDbEntity
  8
SK1
  6
SLD-Solid
370
    25
100
AcDbCircle
 10
-99.5
 20
-18.2922326599
 30
0.0
 40
2.100000000000009
100
AcDbArc
 50
180.0
 51
261.7027777778
  0
ARC
  5
1D7
330
1F
100
AcDbEntity
  8
1
370
    18
100
AcDbCircle
 10
47.6244578847
 20
67.8843995248
 30
0.0
 40
34.47203310805392
100
AcDbArc
 50
252.9638265332
 51
287.0044830615
  0
ARC
  5
1D8
330
1F
100
AcDbEntity
  8
1
370
    18
100
AcDbCircle
 10
73.0153421593
 20
67.5116852275
 30
0.0
 40
34.1131508221055
100
AcDbArc
 50
252.7950613867
 51
287.2049386133
  0
ARC
  5
1D9
330
1F
100
AcDbEntity
  8
SK3
  6
SLD-Dashed
370
    18
100
AcDbCircle
 10
25.25
 20
-19.09
 30
0.0
 40
0.1500000000000092
100
AcDbArc
 50
270.0
 51
0.0
  0
ARC
  5
1DA
330
1F
100
AcDbEntity
  8
SK3
  6
SLD-Dashed
370
    18
100
AcDbCircle
 10
25.25
 20
19.09
 30
0.0
 40
0.1500000000000092
100
AcDbArc
 50
0.0
 51
90.0
  0
ARC
  5
1DB
330
1F
100
AcDbEntity
  8
SK3
  6
SLD-Dashed
370
    18
100
AcDbCircle
 10
-12.55
 20
-19.09
 30
0.0
 40
0.1500000000000057
100
AcDbArc
 50
180.0
 51
270.0
  0
ARC
  5
1DC
330
1F
100
AcDbEntity
  8
SK3
  6
SLD-Dashed
370
    18
100
AcDbCircle
 10
-12.55
 20
19.09
 30
0.0
 40
0.1500000000000092
100
AcDbArc
 50
90.0
 51
180.0
  0
CIRCLE
  5
1DD
330
1F
100
AcDbEntity
  8
81
370
    18
100
AcDbCircle
 10
101.6
 20
0.0
 30
0.0
 40
2.499999999999984
  0
CIRCLE
  5
1DE
330
1F
100
AcDbEntity
  8
80
370
    18
100
AcDbCircle
 10
0.0
 20
0.0
 30
0.0
 40
2.500000000000009
  0
ARC
  5
1DF
330
1F
100
AcDbEntity
  8
1
370
    18
100
AcDbCircle
 10
47.623568559
 20
-73.6188451561
 30
0.0
 40
40.2932028776373
100
AcDbArc
 50
73.802736496
 51
106.197263504
  0
SPLINE
  5
1E0
330
1F
100
AcDbEntity
  8
1
  6
SLD-Solid
370
    25
100
AcDbSpline
210
0.0
220
0.0
230
1.0
 70
     8
 71
     3
 72
    12
 73
     8
 74
     0
 42
0.000000001
 43
0.00000001
 40
0.0
 40
0.0
 40
0.0
 40
0.0
 40
0.2499999999999983
 40
0.2499999999999983
 40
0.4999999999999967
 40
0.4999999999999967
 40
1.0
 40
1.0
 40
1.0
 40
1.0
 10
19.05000000000024
 20
-46.69763484374748
 30
0.0
 10
19.0500000000002
 20
-46.79851095846148
 30
0.0
 10
19.03137059366225
 20
-46.89733966428926
 30
0.0
 10
18.95815575330316
 20
-47.0841146964833
 30
0.0
 10
18.90402082648726
 20
-47.16991322229983
 30
0.0
 10
18.69812814693776
 20
-47.38753444472502
 30
0.0
 10
18.50197314321866
 20
-47.47548419974255
 30
0.0
 10
18.30000000000001
 20
-47.4754841997425
 30
0.0
  0
SPLINE
  5
1E1
330
1F
100
AcDbEntity
  8
1
  6
SLD-Solid
370
    25
100
AcDbSpline
210
0.0
220
0.0
230
1.0
 70
     8
 71
     3
 72
    15
 73
    11
 74
     0
 42
0.000000001
 43
0.00000001
 40
0.0
 40
0.0
 40
0.0
 40
0.0
 40
0.070867546718904
 40
0.1234206290198622
 40
0.2469923695819581
 40
0.4940839350894875
 40
0.6226370203369791
 40
0.7456896564301834
 40
0.8736712713987574
 40
1.0
 40
1.0
 40
1.0
 40
1.0
 10
19.05000000000001
 20
46.55608553132449
 30
0.0
 10
19.04912781744744
 20
46.58344641762079
 30
0.0
 10
19.04760885250166
 20
46.63109725292663
 30
0.0
 10
19.03252103265984
 20
46.72541301613892
 30
0.0
 10
18.98548435274786
 20
46.88286431586828
 30
0.0
 10
18.87493087111874
 20
47.04890219769219
 30
0.0
 10
18.72384724369284
 20
47.17307551094376
 30
0.0
 10
18.59213990211466
 20
47.24320117897882
 30
0.0
 10
18.44967423040802
 20
47.28829435244312
 30
0.0
 10
18.34967476177359
 20
47.29398684875633
 30
0.0
 10
18.30000000000002
 20
47.29681459776457
 30
0.0
  0
SPLINE
  5
1E2
330
1F
100
AcDbEntity
  8
1
  6
SLD-Solid
370
    25
100
AcDbSpline
210
0.0
220
0.0
230
1.0
 70
     8
 71
     3
 72
    12
 73
     8
 74
     0
 42
0.000000001
 43
0.00000001
 40
0.0
 40
0.0
 40
0.0
 40
0.0
 40
0.249999999999997
 40
0.249999999999997
 40
0.499999999999994
 40
0.499999999999994
 40
1.0
 40
1.0
 40
1.0
 40
1.0
 10
3.949999999999995
 20
-47.4754841997425
 30
0.0
 10
3.849084030890598
 20
-47.4754841997425
 30
0.0
 10
3.749978417477442
 20
-47.45437693482703
 30
0.0
 10
3.566847730075512
 20
-47.37426897057827
 30
0.0
 10
3.483455095947344
 20
-47.31511647588032
 30
0.0
 10
3.278048511272571
 20
-47.09831987092233
 30
0.0
 10
3.199999999999994
 20
-46.89926900274103
 30
0.0
 10
3.199999999999994
 20
-46.69763484374771
 30
0.0
  0
SPLINE
  5
1E3
330
1F
100
AcDbEntity
  8
1
  6
SLD-Solid
370
    25
100
AcDbSpline
210
0.0
220
0.0
230
1.0
 70
     8
 71
     3
 72
    17
 73
    13
 74
     0
 42
0.000000001
 43
0.00000001
 40
0.0
 40
0.0
 40
0.0
 40
0.0
 40
0.0631225276679373
 40
0.1266732404557616
 40
0.190657859823915
 40
0.2550819704917502
 40
0.37796775618313
 40
0.5065287291742231
 40
0.753627574171531
 40
0.8770326867277551
 40
0.929351593520063
 40
0.9999999999999999
 40
0.9999999999999999
 40
0.9999999999999999
 40
0.9999999999999999
 10
3.949999999999997
 20
47.29681459776457
 30
0.0
 10
3.925201491186305
 20
47.2961118221463
 30
0.0
 10
3.875436255446287
 20
47.29470150370426
 30
0.0
 10
3.801280717948053
 20
47.28327895415904
 30
0.0
 10
3.728120549121
 20
47.26498746189473
 30
0.0
 10
3.635342933316922
 20
47.23149463842289
 30
0.0
 10
3.52568230187616
 20
47.17267397043141
 30
0.0
 10
3.374709300498007
 20
47.04854698611185
 30
0.0
 10
3.264271220664438
 20
46.88235514412621
 30
0.0
 10
3.217384189860713
 20
46.72497704377739
 30
0.0
 10
3.202376761219907
 20
46.63086119229422
 30
0.0
 10
3.200867255990314
 20
46.58337040931763
 30
0.0
 10
3.200000000000026
 20
46.55608553132451
 30
0.0
  0
SPLINE
  5
1E4
330
1F
100
AcDbEntity
  8
1
  6
SLD-Solid
370
    25
100
AcDbSpline
210
0.0
220
0.0
230
1.0
 70
     8
 71
     3
 72
    14
 73
    10
 74
     0
 42
0.000000001
 43
0.00000001
 40
0.0
 40
0.0
 40
0.0
 40
0.0
 40
0.25
 40
0.25
 40
0.5
 40
0.5
 40
0.75
 40
0.75
 40
1.0
 40
1.0
 40
1.0
 40
1.0
 10
13.02999999999603
 20
41.98711733167136
 30
0.0
 10
13.05904068228761
 20
41.99358445674419
 30
0.0
 10
13.0827520948298
 20
41.98923559020629
 30
0.0
 10
13.11609658322467
 20
41.95189511103384
 30
0.0
 10
13.12492140067506
 20
41.91935250781675
 30
0.0
 10
13.12507754967819
 20
41.82511380576851
 30
0.0
 10
13.11615053209059
 20
41.76334893396456
 30
0.0
 10
13.08319562521534
 20
41.62087672885571
 30
0.0
 10
13.05911019949628
 20
41.53942138186896
 30
0.0
 10
13.02999999999999
 20
41.45311361597066
 30
0.0
  0
SPLINE
  5
1E5
330
1F
100
AcDbEntity
  8
1
  6
SLD-Solid
370
    25
100
AcDbSpline
210
0.0
220
0.0
230
1.0
 70
     8
 71
     3
 72
     8
 73
     4
 74
     0
 42
0.000000001
 43
0.00000001
 40
0.0
 40
0.0
 40
0.0
 40
0.0
 40
1.0
 40
1.0
 40
1.0
 40
1.0
 10
13.02999999999999
 20
44.57901066343647
 30
0.0
 10
13.44364613314278
 20
45.32508460154332
 30
0.0
 10
13.85791150908241
 20
46.0708208293296
 30
0.0
 10
14.27271061994657
 20
46.81625358782995
 30
0.0
  0
SPLINE
  5
1E6
330
1F
100
AcDbEntity
  8
1
  6
SLD-Solid
370
    25
100
AcDbSpline
210
0.0
220
0.0
230
1.0
 70
     8
 71
     3
 72
     8
 73
     4
 74
     0
 42
0.000000001
 43
0.00000001
 40
0.0
 40
0.0
 40
0.0
 40
0.0
 40
0.0008790679015123
 40
0.0008790679015123
 40
0.0008790679015123
 40
0.0008790679015123
 10
14.63972339340267
 20
47.29681459776457
 30
0.0
 10
14.51700841932647
 20
47.13673210499614
 30
0.0
 10
14.39466513614739
 20
46.97654627942757
 30
0.0
 10
14.27271061994657
 20
46.81625358782995
 30
0.0
  0
SPLINE
  5
1E7
330
1F
100
AcDbEntity
  8
1
  6
SLD-Solid
370
    25
100
AcDbSpline
210
0.0
220
0.0
230
1.0
 70
     8
 71
     3
 72
     8
 73
     4
 74
     0
 42
0.000000001
 43
0.00000001
 40
0.0
 40
0.0
 40
0.0
 40
0.0
 40
1.0
 40
1.0
 40
1.0
 40
1.0
 10
13.02999999999999
 20
-44.57901066343648
 30
0.0
 10
13.56559195163209
 20
-45.54503249842018
 30
0.0
 10
14.10222500453558
 20
-46.5104965471081
 30
0.0
 10
14.63972339340267
 20
-47.4754841997425
 30
0.0
  0
SPLINE
  5
1E8
330
1F
100
AcDbEntity
  8
1
  6
SLD-Solid
370
    25
100
AcDbSpline
210
0.0
220
0.0
230
1.0
 70
     8
 71
     3
 72
    14
 73
    10
 74
     0
 42
0.000000001
 43
0.00000001
 40
0.0
 40
0.0
 40
0.0
 40
0.0
 40
0.25
 40
0.25
 40
0.5
 40
0.5
 40
0.75
 40
0.75
 40
1.0
 40
1.0
 40
1.0
 40
1.0
 10
13.02999999999999
 20
35.43161038841291
 30
0.0
 10
13.05904068229162
 20
35.41088512733868
 30
0.0
 10
13.08275209483376
 20
35.37953864703776
 30
0.0
 10
13.11609658322838
 20
35.28872072742522
 30
0.0
 10
13.12492140067852
 20
35.23076880196017
 30
0.0
 10
13.12507754968095
 20
35.0895690753786
 30
0.0
 10
13.11615053209288
 20
35.00648906177567
 30
0.0
 10
13.08319562521659
 20
34.82779421025372
 30
0.0
 10
13.05911019949689
 20
34.73111937885586
 30
0.0
 10
13.02999999999999
 20
34.63242923389117
 30
0.0
  0
SPLINE
  5
1E9
330
1F
100
AcDbEntity
  8
1
  6
SLD-Solid
370
    25
100
AcDbSpline
210
0.0
220
0.0
230
1.0
 70
     8
 71
     3
 72
     8
 73
     4
 74
     0
 42
0.000000001
 43
0.00000001
 40
0.0
 40
0.0
 40
0.0
 40
0.0
 40
1.0
 40
1.0
 40
1.0
 40
1.0
 10
7.590276606597321
 20
-47.4754841997425
 30
0.0
 10
8.12777499546441
 20
-46.51049654710809
 30
0.0
 10
8.664408048367878
 20
-45.54503249842017
 30
0.0
 10
9.199999999999973
 20
-44.57901066343647
 30
0.0
  0
SPLINE
  5
1EA
330
1F
100
AcDbEntity
  8
1
  6
SLD-Solid
370
    25
100
AcDbSpline
210
0.0
220
0.0
230
1.0
 70
     8
 71
     3
 72
     8
 73
     4
 74
     0
 42
0.000000001
 43
0.00000001
 40
0.0000000000000098
 40
0.0000000000000098
 40
0.0000000000000098
 40
0.0000000000000098
 40
0.000879067901516
 40
0.000879067901516
 40
0.000879067901516
 40
0.000879067901516
 10
7.957289380062141
 20
46.81625358782993
 30
0.0
 10
7.83533486386083
 20
46.97654627942822
 30
0.0
 10
7.712991580674025
 20
47.13673210499547
 30
0.0
 10
7.590276606597321
 20
47.29681459776456
 30
0.0
  0
SPLINE
  5
1EB
330
1F
100
AcDbEntity
  8
1
  6
SLD-Solid
370
    25
100
AcDbSpline
210
0.0
220
0.0
230
1.0
 70
     8
 71
     3
 72
     8
 73
     4
 74
     0
 42
0.000000001
 43
0.00000001
 40
0.0
 40
0.0
 40
0.0
 40
0.0
 40
1.0
 40
1.0
 40
1.0
 40
1.0
 10
7.957289380055715
 20
46.81625358784149
 30
0.0
 10
8.372088490919111
 20
46.07082082933729
 30
0.0
 10
8.78635386685797
 20
45.32508460154717
 30
0.0
 10
9.199999999999973
 20
44.57901066343646
 30
0.0
  0
SPLINE
  5
1EC
330
1F
100
AcDbEntity
  8
1
  6
SLD-Solid
370
    25
100
AcDbSpline
210
0.0
220
0.0
230
1.0
 70
     8
 71
     3
 72
    14
 73
    10
 74
     0
 42
0.000000001
 43
0.00000001
 40
0.0
 40
0.0
 40
0.0
 40
0.0
 40
0.25
 40
0.25
 40
0.5
 40
0.5
 40
0.75
 40
0.75
 40
1.0
 40
1.0
 40
1.0
 40
1.0
 10
9.200000000002248
 20
41.48301295145395
 30
0.0
 10
9.17668064615691
 20
41.55645645104906
 30
0.0
 10
9.157956892055532
 20
41.62429306843828
 30
0.0
 10
9.131927678784686
 20
41.74600607925086
 30
0.0
 10
9.12504558236849
 20
41.79860573441292
 30
0.0
 10
9.124954879643754
 20
41.88147815789092
 30
0.0
 10
9.131870505305036
 20
41.91255410941322
 30
0.0
 10
9.157670888230399
 20
41.9512409197013
 30
0.0
 10
9.176601575159566
 20
41.95960923610543
 30
0.0
 10
9.199999999999973
 20
41.95870119642319
 30
0.0
  0
SPLINE
  5
1ED
330
1F
100
AcDbEntity
  8
1
  6
SLD-Solid
370
    25
100
AcDbSpline
210
0.0
220
0.0
230
1.0
 70
     8
 71
     3
 72
    14
 73
    10
 74
     0
 42
0.000000001
 43
0.00000001
 40
0.0
 40
0.0
 40
0.0
 40
0.0
 40
0.25
 40
0.25
 40
0.5
 40
0.5
 40
0.75
 40
0.75
 40
1.0
 40
1.0
 40
1.0
 40
1.0
 10
9.199999999999973
 20
34.67668893498512
 30
0.0
 10
9.17668064615525
 20
34.76218380134755
 30
0.0
 10
9.157956892054443
 20
34.84409122905374
 30
0.0
 10
9.131927678784725
 20
34.99897222909989
 30
0.0
 10
9.125045582368978
 20
35.07047900120375
 30
0.0
 10
9.124954879645037
 20
35.19440944821506
 30
0.0
 10
9.13187050530664
 20
35.24816533561765
 30
0.0
 10
9.157670888232479
 20
35.333096348369
 30
0.0
 10
9.176601575161756
 20
35.36545280972805
 30
0.0
 10
9.200000000002248
 20
35.38859611770602
 30
0.0
  0
SPLINE
  5
1EE
330
1F
100
AcDbEntity
  8
1
  6
SLD-Solid
370
    25
100
AcDbSpline
210
0.0
220
0.0
230
1.0
 70
     8
 71
     3
 72
    12
 73
     8
 74
     0
 42
0.000000001
 43
0.00000001
 40
0.0
 40
0.0
 40
0.0
 40
0.0
 40
0.2500000000000032
 40
0.2500000000000032
 40
0.5000000000000063
 40
0.5000000000000063
 40
1.0
 40
1.0
 40
1.0
 40
1.0
 10
12.28
 20
-43.76943596849289
 30
0.0
 10
12.37996960464108
 20
-43.76943596849289
 30
0.0
 10
12.47988502523367
 20
-43.79051518316404
 30
0.0
 10
12.66449294223868
 20
-43.87194262843689
 30
0.0
 10
12.74728498815324
 20
-43.93126060501207
 30
0.0
 10
12.95342033959714
 20
-44.15080408372863
 30
0.0
 10
13.02999999999999
 20
-44.35163254795798
 30
0.0
 10
13.02999999999999
 20
-44.551021593225
 30
0.0
  0
SPLINE
  5
1EF
330
1F
100
AcDbEntity
  8
1
  6
SLD-Solid
370
    25
100
AcDbSpline
210
0.0
220
0.0
230
1.0
 70
     8
 71
     3
 72
    16
 73
    12
 74
     0
 42
0.000000001
 43
0.00000001
 40
0.0
 40
0.0
 40
0.0
 40
0.0
 40
0.1249999999999998
 40
0.1249999999999998
 40
0.2499999999999997
 40
0.2499999999999997
 40
0.4999999999999998
 40
0.4999999999999998
 40
0.7499999999999999
 40
0.7499999999999999
 40
1.0
 40
1.0
 40
1.0
 40
1.0
 10
13.02999999999999
 20
34.61214293353758
 30
0.0
 10
13.02999999999999
 20
34.56119277402758
 30
0.0
 10
13.0206745626061
 20
34.49413963137996
 30
0.0
 10
12.99367590047851
 20
34.36331338142204
 30
0.0
 10
12.97626449755331
 20
34.29908556562462
 30
0.0
 10
12.91545405813531
 20
34.11096290842625
 30
0.0
 10
12.86271449633857
 20
33.99023971150846
 30
0.0
 10
12.73634152951908
 20
33.76817627154975
 30
0.0
 10
12.6609884163974
 20
33.6639423449675
 30
0.0
 10
12.48671204537781
 20
33.48358218869544
 30
0.0
 10
12.38972674335426
 20
33.40848998465464
 30
0.0
 10
12.28
 20
33.35547071674119
 30
0.0
  0
SPLINE
  5
1F0
330
1F
100
AcDbEntity
  8
1
  6
SLD-Solid
370
    25
100
AcDbSpline
210
0.0
220
0.0
230
1.0
 70
     8
 71
     3
 72
    12
 73
     8
 74
     0
 42
0.000000001
 43
0.00000001
 40
0.0
 40
0.0
 40
0.0
 40
0.0
 40
0.5
 40
0.5
 40
0.75
 40
0.75
 40
1.0
 40
1.0
 40
1.0
 40
1.0
 10
9.199999999999973
 20
-44.55102159322499
 30
0.0
 10
9.199999999999973
 20
-44.35094747116167
 30
0.0
 10
9.277613070150112
 20
-44.14958800989076
 30
0.0
 10
9.48251103730055
 20
-43.93153570225751
 30
0.0
 10
9.566272299852283
 20
-43.87162606259759
 30
0.0
 10
9.749092094904363
 20
-43.79094541821726
 30
0.0
 10
9.849426682175629
 20
-43.7694359684929
 30
0.0
 10
9.949999999999973
 20
-43.76943596849289
 30
0.0
  0
SPLINE
  5
1F1
330
1F
100
AcDbEntity
  8
1
  6
SLD-Solid
370
    25
100
AcDbSpline
210
0.0
220
0.0
230
1.0
 70
     8
 71
     3
 72
    16
 73
    12
 74
     0
 42
0.000000001
 43
0.00000001
 40
0.0
 40
0.0
 40
0.0
 40
0.0
 40
0.249999999999997
 40
0.249999999999997
 40
0.499999999999994
 40
0.499999999999994
 40
0.749999999999991
 40
0.749999999999991
 40
0.8749999999999954
 40
0.8749999999999954
 40
1.0
 40
1.0
 40
1.0
 40
1.0
 10
9.949999999999973
 20
33.36525953046025
 30
0.0
 10
9.839257595210634
 20
33.42015914282665
 30
0.0
 10
9.740416734001444
 20
33.49854219709403
 30
0.0
 10
9.564708009184061
 20
33.6855356989051
 30
0.0
 10
9.4908304832661
 20
33.79082769792042
 30
0.0
 10
9.364658348120017
 20
34.01955880125705
 30
0.0
 10
9.31295142551812
 20
34.14247439570438
 30
0.0
 10
9.253206550793813
 20
34.33488461785981
 30
0.0
 10
9.236028623043929
 20
34.4012196258066
 30
0.0
 10
9.20972370305702
 20
34.53368853253288
 30
0.0
 10
9.199999999999985
 20
34.60516910831218
 30
0.0
 10
9.199999999999985
 20
34.65640299543514
 30
0.0
  0
SPLINE
  5
1F2
330
1F
100
AcDbEntity
  8
1
  6
SLD-Solid
370
    25
100
AcDbSpline
210
0.0
220
0.0
230
1.0
 70
     8
 71
     3
 72
    12
 73
     8
 74
     0
 42
0.000000001
 43
0.00000001
 40
0.0
 40
0.0
 40
0.0
 40
0.0
 40
0.2499999999999995
 40
0.2499999999999995
 40
0.499999999999999
 40
0.499999999999999
 40
1.0
 40
1.0
 40
1.0
 40
1.0
 10
12.28
 20
33.35547071674119
 30
0.0
 10
12.10934456477525
 20
33.27301109054178
 30
0.0
 10
11.92465326465504
 20
33.21019284332255
 30
0.0
 10
11.5275227783788
 20
33.124142789094
 30
0.0
 10
11.32193513118782
 20
33.10278110396342
 30
0.0
 10
10.69948105299426
 20
33.10504385732297
 30
0.0
 10
10.28831449591981
 20
33.19754297491613
 30
0.0
 10
9.949999999999973
 20
33.36525953046025
 30
0.0
  0
SPLINE
  5
1F3
330
1F
100
AcDbEntity
  8
1
  6
SLD-Solid
370
    25
100
AcDbSpline
210
0.0
220
0.0
230
1.0
 70
     8
 71
     3
 72
    16
 73
    12
 74
     0
 42
0.000000001
 43
0.00000001
 40
0.0
 40
0.0
 40
0.0
 40
0.0
 40
0.125
 40
0.125
 40
0.25
 40
0.25
 40
0.5
 40
0.5
 40
0.75
 40
0.75
 40
1.0
 40
1.0
 40
1.0
 40
1.0
 10
9.200000000002248
 20
35.3683101781352
 30
0.0
 10
9.20000000000476
 20
35.31693147873784
 30
0.0
 10
9.20968807886352
 20
35.2914939968828
 30
0.0
 10
9.236073415536907
 20
35.26518486786853
 30
0.0
 10
9.253070624742731
 20
35.26193032552567
 30
0.0
 10
9.313034815215588
 20
35.26168910608485
 30
0.0
 10
9.36392245582808
 20
35.27477154515273
 30
0.0
 10
9.490054525550185
 20
35.31156519648562
 30
0.0
 10
9.56509243004318
 20
35.33621653960021
 30
0.0
 10
9.738924647268874
 20
35.39932894997548
 30
0.0
 10
9.83944594635186
 20
35.438346928317
 30
0.0
 10
9.949999999999973
 20
35.48885481142475
 30
0.0
  0
SPLINE
  5
1F4
330
1F
100
AcDbEntity
  8
1
  6
SLD-Solid
370
    25
100
AcDbSpline
210
0.0
220
0.0
230
1.0
 70
     8
 71
     3
 72
    12
 73
     8
 74
     0
 42
0.000000001
 43
0.00000001
 40
0.0
 40
0.0
 40
0.0
 40
0.0
 40
0.2499999999999994
 40
0.2499999999999994
 40
0.4999999999999989
 40
0.4999999999999989
 40
1.0
 40
1.0
 40
1.0
 40
1.0
 10
9.949999999999973
 20
35.48885481142475
 30
0.0
 10
10.11915676939236
 20
35.56613601508454
 30
0.0
 10
10.30270770519945
 20
35.62476545355776
 30
0.0
 10
10.69826560395108
 20
35.70597605697658
 30
0.0
 10
10.90345647830328
 20
35.72681273192291
 30
0.0
 10
11.52590240230554
 20
35.72953904175431
 30
0.0
 10
11.93868796900771
 20
35.64974792445469
 30
0.0
 10
12.28
 20
35.49787263615899
 30
0.0
  0
SPLINE
  5
1F5
330
1F
100
AcDbEntity
  8
1
  6
SLD-Solid
370
    25
100
AcDbSpline
210
0.0
220
0.0
230
1.0
 70
     8
 71
     3
 72
    16
 73
    12
 74
     0
 42
0.000000001
 43
0.00000001
 40
0.0
 40
0.0
 40
0.0
 40
0.0
 40
0.2500000000000003
 40
0.2500000000000003
 40
0.5000000000000007
 40
0.5000000000000007
 40
0.750000000000001
 40
0.750000000000001
 40
0.8750000000000004
 40
0.8750000000000004
 40
1.0
 40
1.0
 40
1.0
 40
1.0
 10
12.28
 20
35.49787263615899
 30
0.0
 10
12.38938127142807
 20
35.44920071538319
 30
0.0
 10
12.48719790588468
 20
35.4125691393556
 30
0.0
 10
12.66235653858858
 20
35.35237067244714
 30
0.0
 10
12.73630362704298
 20
35.33005450148764
 30
0.0
 10
12.86322577731737
 20
35.29810085202676
 30
0.0
 10
12.91570572130092
 20
35.28773767542295
 30
0.0
 10
12.97658934509431
 20
35.29443860847593
 30
0.0
 10
12.99409980251968
 20
35.30029296727561
 30
0.0
 10
13.02084597296048
 20
35.33271449864372
 30
0.0
 10
13.02999999999999
 20
35.36068432142829
 30
0.0
 10
13.02999999999999
 20
35.41132408805679
 30
0.0
  0
SPLINE
  5
1F6
330
1F
100
AcDbEntity
  8
1
  6
SLD-Solid
370
    25
100
AcDbSpline
210
0.0
220
0.0
230
1.0
 70
     8
 71
     3
 72
    16
 73
    12
 74
     0
 42
0.000000001
 43
0.00000001
 40
0.0
 40
0.0
 40
0.0
 40
0.0
 40
0.2499999999999998
 40
0.2499999999999998
 40
0.4999999999999996
 40
0.4999999999999996
 40
0.7499999999999993
 40
0.7499999999999993
 40
0.8749999999999997
 40
0.8749999999999997
 40
1.0
 40
1.0
 40
1.0
 40
1.0
 10
9.949999999999973
 20
40.29017607249212
 30
0.0
 10
9.839257595210649
 20
40.32798470963448
 30
0.0
 10
9.740416734001444
 20
40.39081531012379
 30
0.0
 10
9.564708009184061
 20
40.54795546550074
 30
0.0
 10
9.4908304832661
 20
40.63949231484413
 30
0.0
 10
9.364658348120017
 20
40.8424769902905
 30
0.0
 10
9.31295142551812
 20
40.95326880810712
 30
0.0
 10
9.253206550793813
 20
41.13218036853985
 30
0.0
 10
9.236028623043943
 20
41.19470581500534
 30
0.0
 10
9.20972370305702
 20
41.32469951294972
 30
0.0
 10
9.199999999999985
 20
41.3978390036328
 30
0.0
 10
9.199999999999985
 20
41.45885414630703
 30
0.0
  0
SPLINE
  5
1F7
330
1F
100
AcDbEntity
  8
1
  6
SLD-Solid
370
    25
100
AcDbSpline
210
0.0
220
0.0
230
1.0
 70
     8
 71
     3
 72
    16
 73
    12
 74
     0
 42
0.000000001
 43
0.00000001
 40
0.0
 40
0.0
 40
0.0
 40
0.0
 40
0.1250000000000039
 40
0.1250000000000039
 40
0.2500000000000078
 40
0.2500000000000078
 40
0.5000000000000051
 40
0.5000000000000051
 40
0.7500000000000026
 40
0.7500000000000026
 40
1.0
 40
1.0
 40
1.0
 40
1.0
 10
13.02999999999831
 20
41.42895438114485
 30
0.0
 10
13.02999999999831
 20
41.36827713359745
 30
0.0
 10
13.02067456260442
 20
41.29860125514492
 30
0.0
 10
12.99367590047683
 20
41.16856540733186
 30
0.0
 10
12.97626449755164
 20
41.10738101936695
 30
0.0
 10
12.91545405813363
 20
40.93079740642489
 30
0.0
 10
12.8627144963369
 20
40.8213021261172
 30
0.0
 10
12.7363415295174
 20
40.6232035604692
 30
0.0
 10
12.66098841639571
 20
40.53226162144243
 30
0.0
 10
12.48671204537613
 20
40.38027498384282
 30
0.0
 10
12.38972674335258
 20
40.31995671599527
 30
0.0
 10
12.27999999999832
 20
40.28343379132452
 30
0.0
  0
SPLINE
  5
1F8
330
1F
100
AcDbEntity
  8
1
  6
SLD-Solid
370
    25
100
AcDbSpline
210
0.0
220
0.0
230
1.0
 70
     8
 71
     3
 72
    12
 73
     8
 74
     0
 42
0.000000001
 43
0.00000001
 40
0.0
 40
0.0
 40
0.0
 40
0.0
 40
0.25
 40
0.25
 40
0.5
 40
0.5
 40
1.0
 40
1.0
 40
1.0
 40
1.0
 10
12.27999999999832
 20
40.28343379132452
 30
0.0
 10
12.10934456477357
 20
40.22663054158942
 30
0.0
 10
11.92465326465336
 20
40.1831865120628
 30
0.0
 10
11.52752277837715
 20
40.12362389225039
 30
0.0
 10
11.32193513118615
 20
40.10880147711192
 30
0.0
 10
10.69948105299259
 20
40.11037023230934
 30
0.0
 10
10.28831449592005
 20
40.17467189827313
 30
0.0
 10
9.949999999999973
 20
40.29017607249212
 30
0.0
  0
SPLINE
  5
1F9
330
1F
100
AcDbEntity
  8
1
  6
SLD-Solid
370
    25
100
AcDbSpline
210
0.0
220
0.0
230
1.0
 70
     8
 71
     3
 72
    16
 73
    12
 74
     0
 42
0.000000001
 43
0.00000001
 40
0.0
 40
0.0
 40
0.0
 40
0.0
 40
0.1250000000000007
 40
0.1250000000000007
 40
0.2500000000000013
 40
0.2500000000000013
 40
0.5000000000000009
 40
0.5000000000000009
 40
0.7500000000000004
 40
0.7500000000000004
 40
1.0
 40
1.0
 40
1.0
 40
1.0
 10
9.199999999999973
 20
41.93454239124897
 30
0.0
 10
9.200000000002484
 20
41.87335478963721
 30
0.0
 10
9.20968807886123
 20
41.83111047963452
 30
0.0
 10
9.236073415534618
 20
41.77192904688973
 30
0.0
 10
9.253070624740456
 20
41.7517445546343
 30
0.0
 10
9.313034815213312
 20
41.70102846576505
 30
0.0
 10
9.363922455825804
 20
41.68155707128333
 30
0.0
 10
9.490054525547894
 20
41.65587219504386
 30
0.0
 10
9.565092430040902
 20
41.65088437918838
 30
0.0
 10
9.738924647266597
 20
41.661139619114
 30
0.0
 10
9.839445946349585
 20
41.67651281331741
 30
0.0
 10
9.949999999997697
 20
41.7091381742131
 30
0.0
  0
SPLINE
  5
1FA
330
1F
100
AcDbEntity
  8
1
  6
SLD-Solid
370
    25
100
AcDbSpline
210
0.0
220
0.0
230
1.0
 70
     8
 71
     3
 72
    12
 73
     8
 74
     0
 42
0.000000001
 43
0.00000001
 40
0.0
 40
0.0
 40
0.0
 40
0.0
 40
0.25
 40
0.25
 40
0.5
 40
0.5
 40
1.0
 40
1.0
 40
1.0
 40
1.0
 10
9.949999999997697
 20
41.7091381742131
 30
0.0
 10
10.11915676938993
 20
41.75905765221762
 30
0.0
 10
10.30270770519863
 20
41.79673649998863
 30
0.0
 10
10.69826560394986
 20
41.84886357628232
 30
0.0
 10
10.90345647830171
 20
41.86219397810194
 30
0.0
 10
11.52590240230296
 20
41.86393994691689
 30
0.0
 10
11.93868796900432
 20
41.81303425518009
 30
0.0
 10
12.27999999999604
 20
41.71496227396707
 30
0.0
  0
SPLINE
  5
1FB
330
1F
100
AcDbEntity
  8
1
  6
SLD-Solid
370
    25
100
AcDbSpline
210
0.0
220
0.0
230
1.0
 70
     8
 71
     3
 72
    16
 73
    12
 74
     0
 42
0.000000001
 43
0.00000001
 40
0.0
 40
0.0
 40
0.0
 40
0.0
 40
0.2500000000000007
 40
0.2500000000000007
 40
0.5000000000000013
 40
0.5000000000000013
 40
0.750000000000002
 40
0.750000000000002
 40
0.875000000000001
 40
0.875000000000001
 40
1.0
 40
1.0
 40
1.0
 40
1.0
 10
12.27999999999604
 20
41.71496227396707
 30
0.0
 10
12.38938127142411
 20
41.68353285741417
 30
0.0
 10
12.48719790588072
 20
41.66923447164882
 30
0.0
 10
12.66235653858462
 20
41.66075308180612
 30
0.0
 10
12.73630362703902
 20
41.66679667497375
 30
0.0
 10
12.86322577731341
 20
41.69542238628981
 30
0.0
 10
12.91570572129697
 20
41.71723646207175
 30
0.0
 10
12.97658934509036
 20
41.77277628648039
 30
0.0
 10
12.99409980251573
 20
41.79517110958684
 30
0.0
 10
13.02084597295654
 20
41.85934368895602
 30
0.0
 10
13.02999999999603
 20
41.90265050045378
 30
0.0
 10
13.02999999999603
 20
41.96295809683838
 30
0.0
  0
SPLINE
  5
1FC
330
1F
100
AcDbEntity
  8
1
  6
SLD-Solid
370
    25
100
AcDbSpline
210
0.0
220
0.0
230
1.0
 70
     8
 71
     3
 72
    12
 73
     8
 74
     0
 42
0.000000001
 43
0.00000001
 40
0.0
 40
0.0
 40
0.0
 40
0.0
 40
0.5
 40
0.5
 40
0.75
 40
0.75
 40
1.0
 40
1.0
 40
1.0
 40
1.0
 10
9.199999999999973
 20
44.55102159322499
 30
0.0
 10
9.199999999999973
 20
44.35104831812288
 30
0.0
 10
9.276003966817326
 20
44.15150826736531
 30
0.0
 10
9.482759040153486
 20
43.93116827137958
 30
0.0
 10
9.566857937314918
 20
43.87128621650869
 30
0.0
 10
9.749511247261145
 20
43.7908422871647
 30
0.0
 10
9.850156242870487
 20
43.76943596849257
 30
0.0
 10
9.950000000002387
 20
43.76943596849289
 30
0.0
  0
SPLINE
  5
1FD
330
1F
100
AcDbEntity
  8
1
  6
SLD-Solid
370
    25
100
AcDbSpline
210
0.0
220
0.0
230
1.0
 70
     8
 71
     3
 72
    10
 73
     6
 74
     0
 42
0.000000001
 43
0.00000001
 40
0.0
 40
0.0
 40
0.0
 40
0.0
 40
0.5
 40
0.5
 40
1.0
 40
1.0
 40
1.0
 40
1.0
 10
12.28
 20
43.76943596849289
 30
0.0
 10
12.48122846377882
 20
43.76943596849291
 30
0.0
 10
12.67900932610885
 20
43.85856672856718
 30
0.0
 10
12.95290221427663
 20
44.1502294699326
 30
0.0
 10
13.02999999999999
 20
44.34957328976747
 30
0.0
 10
13.02999999999999
 20
44.55102159322499
 30
0.0
  0
SPLINE
  5
1FE
330
1F
100
AcDbEntity
  8
SK3
  6
SLD-Dashed
370
    18
100
AcDbSpline
210
0.0
220
0.0
230
1.0
 70
     8
 71
     3
 72
    30
 73
    26
 74
     0
 42
0.000000001
 43
0.00000001
 40
0.4999999999999934
 40
0.4999999999999934
 40
0.4999999999999934
 40
0.4999999999999934
 40
0.5624999999999941
 40
0.5624999999999941
 40
0.6249999999999949
 40
0.6249999999999949
 40
0.6874999999999956
 40
0.6874999999999956
 40
0.7499999999999962
 40
0.7499999999999962
 40
0.7812499999999968
 40
0.7812499999999968
 40
0.8124999999999972
 40
0.8124999999999972
 40
0.8437499999999977
 40
0.8437499999999977
 40
0.8749999999999981
 40
0.8749999999999981
 40
0.9062499999999986
 40
0.9062499999999986
 40
0.9374999999999991
 40
0.9374999999999991
 40
0.9687499999999996
 40
0.9687499999999996
 40
1.0
 40
1.0
 40
1.0
 40
1.0
 10
9.602846279599744
 20
-14.27915034605701
 30
0.0
 10
9.686456538693767
 20
-14.42125418637639
 30
0.0
 10
9.797407143447803
 20
-14.51131733768216
 30
0.0
 10
10.04010223607202
 20
-14.63242374926581
 30
0.0
 10
10.17571106347529
 20
-14.66434400040092
 30
0.0
 10
10.46843928875954
 20
-14.6878509066433
 30
0.0
 10
10.62555865364895
 20
-14.68003033606001
 30
0.0
 10
10.98145473780836
 20
-14.62436653420486
 30
0.0
 10
11.18157682258662
 20
-14.57632221838471
 30
0.0
 10
11.50801002825755
 20
-14.45860893436549
 30
0.0
 10
11.61873162334193
 20
-14.41242944660508
 30
0.0
 10
11.84220113938104
 20
-14.30063256215534
 30
0.0
 10
11.95412269444687
 20
-14.23490090158665
 30
0.0
 10
12.16107863552152
 20
-14.08747705033183
 30
0.0
 10
12.25901625186733
 20
-14.00366784802362
 30
0.0
 10
12.43052677631516
 20
-13.82249974419393
 30
0.0
 10
12.50593330594162
 20
-13.72350506925875
 30
0.0
 10
12.63000303324957
 20
-13.51367430078405
 30
0.0
 10
12.67841410243613
 20
-13.40398486856759
 30
0.0
 10
12.74789370637346
 20
-13.17359881812363
 30
0.0
 10
12.76810124630627
 20
-13.05468203931825
 30
0.0
 10
12.77891027826543
 20
-12.81644825424547
 30
0.0
 10
12.76940813581849
 20
-12.69449512908379
 30
0.0
 10
12.72129905847913
 20
-12.45817259633889
 30
0.0
 10
12.68301625646431
 20
-12.3430480331033
 30
0.0
 10
12.63040931107566
 20
-12.2323343638947
 30
0.0
  0
SPLINE
  5
1FF
330
1F
100
AcDbEntity
  8
SK3
  6
SLD-Dashed
370
    18
100
AcDbSpline
210
0.0
220
0.0
230
1.0
 70
     8
 71
     3
 72
    30
 73
    26
 74
     0
 42
0.000000001
 43
0.00000001
 40
0.0
 40
0.0
 40
0.0
 40
0.0
 40
0.0312499999999991
 40
0.0312499999999991
 40
0.0624999999999983
 40
0.0624999999999983
 40
0.0937499999999974
 40
0.0937499999999974
 40
0.1249999999999965
 40
0.1249999999999965
 40
0.187499999999996
 40
0.187499999999996
 40
0.2499999999999955
 40
0.2499999999999955
 40
0.312499999999995
 40
0.312499999999995
 40
0.3749999999999944
 40
0.3749999999999944
 40
0.4062499999999942
 40
0.4062499999999942
 40
0.4374999999999939
 40
0.4374999999999939
 40
0.4687499999999937
 40
0.4687499999999937
 40
0.4999999999999934
 40
0.4999999999999934
 40
0.4999999999999934
 40
0.4999999999999934
 10
12.63040931107567
 20
-12.2323343638947
 30
0.0
 10
12.57780236568703
 20
-12.12162069468611
 30
0.0
 10
12.51267206459308
 20
-12.01896209858505
 30
0.0
 10
12.35821503903348
 20
-11.83123217673027
 30
0.0
 10
12.26800655859518
 20
-11.74609765066666
 30
0.0
 10
12.07343499093626
 20
-11.60605794329097
 30
0.0
 10
11.96643370486065
 20
-11.5492012180452
 30
0.0
 10
11.74573264298214
 20
-11.4698171939369
 30
0.0
 10
11.6340655249776
 20
-11.44748668283022
 30
0.0
 10
11.29951801742687
 20
-11.42770686560522
 30
0.0
 10
11.0919842806995
 20
-11.47806879673262
 30
0.0
 10
10.72217844091648
 20
-11.64236243808863
 30
0.0
 10
10.55844908096594
 20
-11.75496051093636
 30
0.0
 10
10.25324958882708
 20
-12.02428585488716
 30
0.0
 10
10.11576882260311
 20
-12.17795893248197
 30
0.0
 10
9.862525619365305
 20
-12.52988094775973
 30
0.0
 10
9.746260896402015
 20
-12.72918710194006
 30
0.0
 10
9.60569266085047
 20
-13.06645756895028
 30
0.0
 10
9.565421636406098
 20
-13.18319961587416
 30
0.0
 10
9.503286004234612
 20
-13.4293677611186
 30
0.0
 10
9.482363995141297
 20
-13.55752069830019
 30
0.0
 10
9.47090841224371
 20
-13.80546799718779
 30
0.0
 10
9.480664817462667
 20
-13.92083957613646
 30
0.0
 10
9.525951505689648
 20
-14.1223947507326
 30
0.0
 10
9.561041150052741
 20
-14.20809842589733
 30
0.0
 10
9.602846279599744
 20
-14.27915034605701
 30
0.0
  0
SPLINE
  5
200
330
1F
100
AcDbEntity
  8
SK3
  6
SLD-Dashed
370
    18
100
AcDbSpline
210
0.0
220
0.0
230
1.0
 70
     8
 71
     3
 72
    26
 73
    22
 74
     0
 42
0.000000001
 43
0.00000001
 40
0.5000000000000062
 40
0.5000000000000062
 40
0.5000000000000062
 40
0.5000000000000062
 40
0.5625000000000058
 40
0.5625000000000058
 40
0.6250000000000051
 40
0.6250000000000051
 40
0.6562500000000046
 40
0.6562500000000046
 40
0.687500000000004
 40
0.687500000000004
 40
0.7187500000000034
 40
0.7187500000000034
 40
0.7500000000000029
 40
0.7500000000000029
 40
0.8125000000000022
 40
0.8125000000000022
 40
0.8750000000000014
 40
0.8750000000000014
 40
0.9375000000000008
 40
0.9375000000000008
 40
1.0
 40
1.0
 40
1.0
 40
1.0
 10
11.63869831779568
 20
-9.819390371339228
 30
0.0
 10
11.80317915771346
 20
-9.806594466981581
 30
0.0
 10
11.95081782962318
 20
-9.812432081454686
 30
0.0
 10
12.2261629968525
 20
-9.868839301598985
 30
0.0
 10
12.3523651546992
 20
-9.918953620877927
 30
0.0
 10
12.51874661426339
 20
-10.04837289060636
 30
0.0
 10
12.57051953396254
 20
-10.10115000339699
 30
0.0
 10
12.66070184098386
 20
-10.23071744026808
 30
0.0
 10
12.70001796005847
 20
-10.30921538460777
 30
0.0
 10
12.75624339139549
 20
-10.49493258066049
 30
0.0
 10
12.77323165300569
 20
-10.60488156995157
 30
0.0
 10
12.77649462889749
 20
-10.84110300053567
 30
0.0
 10
12.76278670669287
 20
-10.96977043023328
 30
0.0
 10
12.68516730486992
 20
-11.34647137591011
 30
0.0
 10
12.5899630515896
 20
-11.58088814423495
 30
0.0
 10
12.37315603453729
 20
-11.98947715399204
 30
0.0
 10
12.24747178673945
 20
-12.17132846963891
 30
0.0
 10
11.97676737519451
 20
-12.4898134904303
 30
0.0
 10
11.83102686354769
 20
-12.62828009284684
 30
0.0
 10
11.5050837326993
 20
-12.86276351579439
 30
0.0
 10
11.32747339457477
 20
-12.95749122616766
 30
0.0
 10
11.12499999999998
 20
-13.01159523973385
 30
0.0
  0
SPLINE
  5
201
330
1F
100
AcDbEntity
  8
SK3
  6
SLD-Dashed
370
    18
100
AcDbSpline
210
0.0
220
0.0
230
1.0
 70
     8
 71
     3
 72
    34
 73
    30
 74
     0
 42
0.000000001
 43
0.00000001
 40
0.0
 40
0.0
 40
0.0
 40
0.0
 40
0.0312500000000005
 40
0.0312500000000005
 40
0.0625000000000011
 40
0.0625000000000011
 40
0.0937500000000016
 40
0.0937500000000016
 40
0.1250000000000022
 40
0.1250000000000022
 40
0.1562500000000027
 40
0.1562500000000027
 40
0.1875000000000032
 40
0.1875000000000032
 40
0.2187500000000038
 40
0.2187500000000038
 40
0.2500000000000043
 40
0.2500000000000043
 40
0.2812500000000049
 40
0.2812500000000049
 40
0.3125000000000054
 40
0.3125000000000054
 40
0.3750000000000063
 40
0.3750000000000063
 40
0.4062500000000066
 40
0.4062500000000066
 40
0.4375000000000068
 40
0.4375000000000068
 40
0.5000000000000062
 40
0.5000000000000062
 40
0.5000000000000062
 40
0.5000000000000062
 10
11.12499999999998
 20
-13.01159523973385
 30
0.0
 10
11.02376330271261
 20
-13.03864724651695
 30
0.0
 10
10.91875434041331
 20
-13.05441768585464
 30
0.0
 10
10.69982193729477
 20
-13.05649587060871
 30
0.0
 10
10.58565504429781
 20
-13.04203538439391
 30
0.0
 10
10.3643330690885
 20
-12.97958779527627
 30
0.0
 10
10.25386240054305
 20
-12.93066318687883
 30
0.0
 10
10.04998753866611
 20
-12.80335962284302
 30
0.0
 10
9.955887873020986
 20
-12.72514830576756
 30
0.0
 10
9.789076352163542
 20
-12.54575166602603
 30
0.0
 10
9.718022202672053
 20
-12.44674722204855
 30
0.0
 10
9.600536001433166
 20
-12.23250861951091
 30
0.0
 10
9.555159683901193
 20
-12.1185101536641
 30
0.0
 10
9.49353895391429
 20
-11.88585378314762
 30
0.0
 10
9.476799814585934
 20
-11.76451266100634
 30
0.0
 10
9.47348088875466
 20
-11.52533259241781
 30
0.0
 10
9.486354225371793
 20
-11.40705029377197
 30
0.0
 10
9.541906609790415
 20
-11.17282024047875
 30
0.0
 10
9.583939125903774
 20
-11.06025657731944
 30
0.0
 10
9.69436138573955
 20
-10.84625731946298
 30
0.0
 10
9.764046986917323
 20
-10.74326010657126
 30
0.0
 10
10.00399120049174
 20
-10.46156575413965
 30
0.0
 10
10.21277179464263
 20
-10.30327029353935
 30
0.0
 10
10.54446991129007
 20
-10.12219171688678
 30
0.0
 10
10.65925898590056
 20
-10.07012567259634
 30
0.0
 10
10.87934718809656
 20
-9.984066675225883
 30
0.0
 10
10.98764418607851
 20
-9.948726825148164
 30
0.0
 10
11.29210738731384
 20
-9.86376536348267
 30
0.0
 10
11.4742174778779
 20
-9.832186275696875
 30
0.0
 10
11.63869831779568
 20
-9.819390371339228
 30
0.0
  0
SPLINE
  5
202
330
1F
100
AcDbEntity
  8
1
  6
SLD-Dashed
370
    18
100
AcDbSpline
210
0.0
220
0.0
230
1.0
 70
    24
 71
     3
 72
    10
 73
     6
 74
     0
 42
0.000000001
 43
0.00000001
 40
0.0
 40
0.0
 40
0.0
 40
0.0
 40
0.0560555825067823
 40
0.826796066494382
 40
1.0
 40
1.0
 40
1.0
 40
1.0
 10
19.04999999999998
 20
-35.1
 30
0.0
 10
19.05021402441966
 20
-35.10000000000001
 30
0.0
 10
19.05337079383307
 20
-35.09999999999998
 30
0.0
 10
19.16747617331638
 20
-35.10000000000001
 30
0.0
 10
19.21674842841274
 20
-35.1
 30
0.0
 10
19.22578937217724
 20
-35.1
 30
0.0
  0
SPLINE
  5
203
330
1F
100
AcDbEntity
  8
1
  6
SLD-Dashed
370
    18
100
AcDbSpline
210
0.0
220
0.0
230
1.0
 70
    24
 71
     3
 72
     8
 73
     4
 74
     0
 42
0.000000001
 43
0.00000001
 40
0.0
 40
0.0
 40
0.0
 40
0.0
 40
0.5
 40
0.5
 40
0.5
 40
0.5
 10
19.32612109007266
 20
-35.10000000000002
 30
0.0
 10
19.32611593961728
 20
-35.10000000000002
 30
0.0
 10
19.25867341139638
 20
-35.10000000000001
 30
0.0
 10
19.18940244946848
 20
-35.09999999999999
 30
0.0
  0
SPLINE
  5
204
330
1F
100
AcDbEntity
  8
1
  6
SLD-Dashed
370
    18
100
AcDbSpline
210
0.0
220
0.0
230
1.0
 70
    24
 71
     2
 72
     6
 73
     3
 74
     0
 42
0.000000001
 43
0.00000001
 40
0.5
 40
0.5
 40
0.5
 40
1.0
 40
1.0
 40
1.0
 10
19.18940244946848
 20
-35.09999999999999
 30
0.0
 10
19.12012975922607
 20
-35.09999999999999
 30
0.0
 10
19.05000000000001
 20
-35.1
 30
0.0
  0
SPLINE
  5
205
330
1F
100
AcDbEntity
  8
1
  6
SLD-Dashed
370
    18
100
AcDbSpline
210
0.0
220
0.0
230
1.0
 70
    24
 71
     2
 72
     6
 73
     3
 74
     0
 42
0.000000001
 43
0.00000001
 40
0.0
 40
0.0
 40
0.0
 40
0.25
 40
0.25
 40
0.25
 10
3.200000000017619
 20
-35.09999999999991
 30
0.0
 10
3.178023089485824
 20
-35.09999999999994
 30
0.0
 10
3.159393676864658
 20
-35.09999999999996
 30
0.0
  0
SPLINE
  5
206
330
1F
100
AcDbEntity
  8
1
  6
SLD-Dashed
370
    18
100
AcDbSpline
210
0.0
220
0.0
230
1.0
 70
    24
 71
     3
 72
     8
 73
     4
 74
     0
 42
0.000000001
 43
0.00000001
 40
0.25
 40
0.25
 40
0.25
 40
0.25
 40
0.5
 40
0.5
 40
0.5
 40
0.5
 10
3.159393676864658
 20
-35.09999999999996
 30
0.0
 10
3.140764264251611
 20
-35.09999999999998
 30
0.0
 10
3.125935313376446
 20
-35.1
 30
0.0
 10
3.125925297481347
 20
-35.1
 30
0.0
  0
SPLINE
  5
207
330
1F
100
AcDbEntity
  8
1
  6
SLD-Dashed
370
    18
100
AcDbSpline
210
0.0
220
0.0
230
1.0
 70
    24
 71
     3
 72
     8
 73
     4
 74
     0
 42
0.000000001
 43
0.00000001
 40
0.5
 40
0.5
 40
0.5
 40
0.5
 40
0.75
 40
0.75
 40
0.75
 40
0.75
 10
3.125925297481347
 20
-35.1
 30
0.0
 10
3.125915281586247
 20
-35.1
 30
0.0
 10
3.140736475081132
 20
-35.09999999999999
 30
0.0
 10
3.159374026153516
 20
-35.09999999999996
 30
0.0
  0
SPLINE
  5
208
330
1F
100
AcDbEntity
  8
1
  6
SLD-Dashed
370
    18
100
AcDbSpline
210
0.0
220
0.0
230
1.0
 70
    24
 71
     2
 72
     6
 73
     3
 74
     0
 42
0.000000001
 43
0.00000001
 40
0.75
 40
0.75
 40
0.75
 40
1.0
 40
1.0
 40
1.0
 10
3.159374026153516
 20
-35.09999999999996
 30
0.0
 10
3.178011577233963
 20
-35.09999999999993
 30
0.0
 10
3.200000000017619
 20
-35.09999999999991
 30
0.0
  0
SPLINE
  5
209
330
1F
100
AcDbEntity
  8
1
  6
SLD-Dashed
370
    18
100
AcDbSpline
210
0.0
220
0.0
230
1.0
 70
     8
 71
     3
 72
    39
 73
    35
 74
     0
 42
0.000000001
 43
0.00000001
 40
0.0
 40
0.0
 40
0.0
 40
0.0
 40
0.028527762043479
 40
0.0469333880635989
 40
0.0870046138763784
 40
0.1219936145626331
 40
0.1396883268865808
 40
0.180907393275422
 40
0.2168477241948462
 40
0.2350054905379699
 40
0.2791898823288381
 40
0.3177059464299259
 40
0.3371630006613767
 40
0.3848003382766182
 40
0.4263566093109213
 40
0.4473622945932085
 40
0.4974797423332495
 40
0.4988352117096084
 40
0.5319219850451538
 40
0.5412499404799349
 40
0.5633947597448322
 40
0.5923400991285747
 40
0.6143489460408901
 40
0.6364482412478304
 40
0.6814249026318108
 40
0.7313452292945792
 40
0.7750680947675685
 40
0.7972408314217512
 40
0.8441371187462426
 40
0.8852608881262367
 40
0.9061326409412191
 40
0.9490498224528248
 40
0.9866480792619963
 40
1.0
 40
1.0
 40
1.0
 40
1.0
 10
61.78900267520527
 20
-34.9212907672184
 30
0.0
 10
61.79233288033907
 20
-34.9203532982014
 30
0.0
 10
61.79781167708574
 20
-34.91881099014701
 30
0.0
 10
61.93567323497688
 20
-34.88063053679775
 30
0.0
 10
62.18028441772801
 20
-34.81369817311305
 30
0.0
 10
62.55735591532653
 20
-34.71416783401875
 30
0.0
 10
63.02437669700826
 20
-34.59548812496376
 30
0.0
 10
63.59108777851276
 20
-34.45756665712971
 30
0.0
 10
64.27124512608758
 20
-34.3051424889044
 30
0.0
 10
65.04326273416937
 20
-34.14435507721856
 30
0.0
 10
65.91539664801864
 20
-33.9784789235324
 30
0.0
 10
66.8863813191068
 20
-33.82136019569242
 30
0.0
 10
67.94182431136376
 20
-33.67328849918795
 30
0.0
 10
69.08463887184014
 20
-33.54172451895757
 30
0.0
 10
70.29618881246961
 20
-33.44472379232121
 30
0.0
 10
71.55772199933514
 20
-33.38001983149738
 30
0.0
 10
72.38473626493612
 20
-33.34861141842886
 30
0.0
 10
73.34549743330294
 20
-33.36475044659587
 30
0.0
 10
73.84240302969673
 20
-33.37405982020605
 30
0.0
 10
74.57697150561853
 20
-33.38281746954337
 30
0.0
 10
75.2558266882878
 20
-33.41814639363407
 30
0.0
 10
76.06866696013405
 20
-33.46925930913405
 30
0.0
 10
76.86412697570648
 20
-33.53836504577986
 30
0.0
 10
77.81332120567465
 20
-33.63688226603092
 30
0.0
 10
79.01088443652993
 20
-33.79338787787811
 30
0.0
 10
80.31770925612732
 20
-34.01002214409848
 30
0.0
 10
81.29103839300865
 20
-34.2014972022069
 30
0.0
 10
82.1411838848057
 20
-34.38452893181512
 30
0.0
 10
82.86588290853813
 20
-34.5547349715028
 30
0.0
 10
83.42597128605959
 20
-34.69685411725429
 30
0.0
 10
83.85017897645618
 20
-34.8085011549971
 30
0.0
 10
84.1372326121056
 20
-34.88681195632836
 30
0.0
 10
84.26756110738255
 20
-34.92311462663896
 30
0.0
 10
84.2693077001896
 20
-34.92360043175987
 30
0.0
 10
84.26976540946255
 20
-34.92372774106047
 30
0.0
  0
SPLINE
  5
20A
330
1F
100
AcDbEntity
  8
SK3
  6
SLD-Dashed
370
    18
100
AcDbSpline
210
0.0
220
0.0
230
1.0
 70
     8
 71
     3
 72
    30
 73
    26
 74
     0
 42
0.000000001
 43
0.00000001
 40
0.5000000000000009
 40
0.5000000000000009
 40
0.5000000000000009
 40
0.5000000000000009
 40
0.5625000000000008
 40
0.5625000000000008
 40
0.6250000000000007
 40
0.6250000000000007
 40
0.6562500000000007
 40
0.6562500000000007
 40
0.6875000000000006
 40
0.6875000000000006
 40
0.7187500000000006
 40
0.7187500000000006
 40
0.7500000000000004
 40
0.7500000000000004
 40
0.7812500000000004
 40
0.7812500000000004
 40
0.8125000000000004
 40
0.8125000000000004
 40
0.8437500000000003
 40
0.8437500000000003
 40
0.8750000000000003
 40
0.8750000000000003
 40
0.9375000000000002
 40
0.9375000000000002
 40
1.0
 40
1.0
 40
1.0
 40
1.0
 10
11.12560035178074
 20
-5.005731902064881
 30
0.0
 10
10.91019674053943
 20
-5.00565594678861
 30
0.0
 10
10.6930307649665
 20
-5.047553308111303
 30
0.0
 10
10.2957868396889
 20
-5.206401072383099
 30
0.0
 10
10.11166416549324
 20
-5.324946353040517
 30
0.0
 10
9.883269066436911
 20
-5.543894686670145
 30
0.0
 10
9.813547158667738
 20
-5.62516771344735
 30
0.0
 10
9.69362218167015
 20
-5.796548424864927
 30
0.0
 10
9.642870305673068
 20
-5.886865092763503
 30
0.0
 10
9.559902492076096
 20
-6.076674702010648
 30
0.0
 10
9.528027724748714
 20
-6.176128174255411
 30
0.0
 10
9.485896268736846
 20
-6.375547866300319
 30
0.0
 10
9.475106620652207
 20
-6.476577342873692
 30
0.0
 10
9.474894936512325
 20
-6.681345240989303
 30
0.0
 10
9.485517355430503
 20
-6.782043852401006
 30
0.0
 10
9.527265754634293
 20
-6.979077106332575
 30
0.0
 10
9.558877187998805
 20
-7.076596063308363
 30
0.0
 10
9.641583662589131
 20
-7.262292784037255
 30
0.0
 10
9.692196862911992
 20
-7.350049274586288
 30
0.0
 10
9.811721686749708
 20
-7.515666450079547
 30
0.0
 10
9.881317111242947
 20
-7.593892281497233
 30
0.0
 10
10.10942376485954
 20
-7.803837830545223
 30
0.0
 10
10.29327958691976
 20
-7.916284738351834
 30
0.0
 10
10.69017903869149
 20
-8.066817843260194
 30
0.0
 10
10.90687880377811
 20
-8.106717444810826
 30
0.0
 10
11.125
 20
-8.106717444810826
 30
0.0
  0
SPLINE
  5
20B
330
1F
100
AcDbEntity
  8
SK3
  6
SLD-Dashed
370
    18
100
AcDbSpline
210
0.0
220
0.0
230
1.0
 70
     8
 71
     3
 72
    34
 73
    30
 74
     0
 42
0.000000001
 43
0.00000001
 40
0.0
 40
0.0
 40
0.0
 40
0.0
 40
0.0312499999999998
 40
0.0312499999999998
 40
0.0624999999999997
 40
0.0624999999999997
 40
0.0937499999999995
 40
0.0937499999999995
 40
0.1249999999999994
 40
0.1249999999999994
 40
0.1874999999999992
 40
0.1874999999999992
 40
0.2499999999999991
 40
0.2499999999999991
 40
0.2812499999999993
 40
0.2812499999999993
 40
0.3124999999999995
 40
0.3124999999999995
 40
0.3437499999999997
 40
0.3437499999999997
 40
0.3749999999999999
 40
0.3749999999999999
 40
0.4062500000000002
 40
0.4062500000000002
 40
0.4375000000000004
 40
0.4375000000000004
 40
0.4687500000000007
 40
0.4687500000000007
 40
0.5000000000000009
 40
0.5000000000000009
 40
0.5000000000000009
 40
0.5000000000000009
 10
11.125
 20
-8.106717444810819
 30
0.0
 10
11.23406059811093
 20
-8.106717444810826
 30
0.0
 10
11.34128866360519
 20
-8.096974780646734
 30
0.0
 10
11.55223270908841
 20
-8.058774322269798
 30
0.0
 10
11.65704530175349
 20
-8.029849096446148
 30
0.0
 10
11.85683854655033
 20
-7.954260166986506
 30
0.0
 10
11.95159002210479
 20
-7.907966895492148
 30
0.0
 10
12.13091106724848
 20
-7.798380741124017
 30
0.0
 10
12.21577586644314
 20
-7.734526915320478
 30
0.0
 10
12.44396949329783
 20
-7.52479505567772
 30
0.0
 10
12.56688660510817
 20
-7.355053502691292
 30
0.0
 10
12.7314985022654
 20
-6.986423073197121
 30
0.0
 10
12.77488297002982
 20
-6.783640335385074
 30
0.0
 10
12.77505815093201
 20
-6.480142610031915
 30
0.0
 10
12.76433885043648
 20
-6.377059322202721
 30
0.0
 10
12.72223089404607
 20
-6.1769583524197
 30
0.0
 10
12.69107545274799
 20
-6.079397939467227
 30
0.0
 10
12.60843653049716
 20
-5.889382086480627
 30
0.0
 10
12.55679576219694
 20
-5.797282751622133
 30
0.0
 10
12.43740346091055
 20
-5.626390715465404
 30
0.0
 10
12.36923947757725
 20
-5.546509260897121
 30
0.0
 10
12.21527252249294
 20
-5.39849549999688
 30
0.0
 10
12.13192976796727
 20
-5.332747320766745
 30
0.0
 10
11.95331438321928
 20
-5.217511917134793
 30
0.0
 10
11.85687473093301
 20
-5.167579086299306
 30
0.0
 10
11.65702618806845
 20
-5.087463729634957
 30
0.0
 10
11.55418011378342
 20
-5.057218873064665
 30
0.0
 10
11.34269241029025
 20
-5.016271746069605
 30
0.0
 10
11.2333021574014
 20
-5.005769879703019
 30
0.0
 10
11.12560035178074
 20
-5.005731902064881
 30
0.0
  0
SPLINE
  5
20C
330
1F
100
AcDbEntity
  8
SK3
  6
SLD-Dashed
370
    18
100
AcDbSpline
210
0.0
220
0.0
230
1.0
 70
     8
 71
     3
 72
    30
 73
    26
 74
     0
 42
0.000000001
 43
0.00000001
 40
0.5000000000000019
 40
0.5000000000000019
 40
0.5000000000000019
 40
0.5000000000000019
 40
0.5625000000000017
 40
0.5625000000000017
 40
0.6250000000000016
 40
0.6250000000000016
 40
0.6562500000000014
 40
0.6562500000000014
 40
0.6875000000000013
 40
0.6875000000000013
 40
0.7187500000000012
 40
0.7187500000000012
 40
0.7500000000000011
 40
0.7500000000000011
 40
0.7812500000000011
 40
0.7812500000000011
 40
0.812500000000001
 40
0.812500000000001
 40
0.8437500000000009
 40
0.8437500000000009
 40
0.8750000000000008
 40
0.8750000000000008
 40
0.9375000000000004
 40
0.9375000000000004
 40
1.0
 40
1.0
 40
1.0
 40
1.0
 10
11.12439964821926
 20
8.106717345394031
 30
0.0
 10
11.33980325946055
 20
8.106788686025018
 30
0.0
 10
11.55696923503349
 20
8.067521859271585
 30
0.0
 10
11.9542131603111
 20
7.917608175233362
 30
0.0
 10
12.13833583450675
 20
7.805399843532741
 30
0.0
 10
12.36673093356308
 20
7.595933820547934
 30
0.0
 10
12.43645284133225
 20
7.517869059645833
 30
0.0
 10
12.55637781832984
 20
7.352342305844882
 30
0.0
 10
12.60712969432691
 20
7.264689538044065
 30
0.0
 10
12.69009750792389
 20
7.079376655713649
 30
0.0
 10
12.72197227525129
 20
6.981737997970139
 30
0.0
 10
12.76410373126313
 20
6.78474230851532
 30
0.0
 10
12.77489337934777
 20
6.684351517666983
 30
0.0
 10
12.77510506348765
 20
6.479596037466111
 30
0.0
 10
12.76448264456949
 20
6.378268549070761
 30
0.0
 10
12.7227342453657
 20
6.178832490621115
 30
0.0
 10
12.69112281200121
 20
6.079512577710306
 30
0.0
 10
12.60841633741087
 20
5.889329914664857
 30
0.0
 10
12.55780313708799
 20
5.79891451752488
 30
0.0
 10
12.43827831325031
 20
5.627456037631679
 30
0.0
 10
12.36868288875703
 20
5.546022866109619
 30
0.0
 10
12.14057623514045
 20
5.326590402742852
 30
0.0
 10
11.9567204130802
 20
5.207799969802668
 30
0.0
 10
11.55982096130852
 20
5.048302643677706
 30
0.0
 10
11.34312119622187
 20
5.005731796217342
 30
0.0
 10
11.125
 20
5.005731796217342
 30
0.0
  0
SPLINE
  5
20D
330
1F
100
AcDbEntity
  8
SK3
  6
SLD-Dashed
370
    18
100
AcDbSpline
210
0.0
220
0.0
230
1.0
 70
     8
 71
     3
 72
    34
 73
    30
 74
     0
 42
0.000000001
 43
0.00000001
 40
0.0
 40
0.0
 40
0.0
 40
0.0
 40
0.0312499999999999
 40
0.0312499999999999
 40
0.0624999999999998
 40
0.0624999999999998
 40
0.0937499999999997
 40
0.0937499999999997
 40
0.1249999999999996
 40
0.1249999999999996
 40
0.1875
 40
0.1875
 40
0.2500000000000004
 40
0.2500000000000004
 40
0.2812500000000006
 40
0.2812500000000006
 40
0.3125000000000008
 40
0.3125000000000008
 40
0.3437500000000009
 40
0.3437500000000009
 40
0.3750000000000011
 40
0.3750000000000011
 40
0.4062500000000013
 40
0.4062500000000013
 40
0.4375000000000015
 40
0.4375000000000015
 40
0.4687500000000017
 40
0.4687500000000017
 40
0.5000000000000019
 40
0.5000000000000019
 40
0.5000000000000019
 40
0.5000000000000019
 10
11.125
 20
5.005731796217335
 30
0.0
 10
11.01593940188907
 20
5.005731796217342
 30
0.0
 10
10.90871133639482
 20
5.016110691830805
 30
0.0
 10
10.69776729091158
 20
5.056732840598967
 30
0.0
 10
10.59295469824655
 20
5.087472023195199
 30
0.0
 10
10.39316145344968
 20
5.167563949485497
 30
0.0
 10
10.29840997789523
 20
5.216524443134439
 30
0.0
 10
10.11908893275156
 20
5.331966980931129
 30
0.0
 10
10.03422413355687
 20
5.399031046678222
 30
0.0
 10
9.806030506702202
 20
5.618246903416849
 30
0.0
 10
9.683113394891835
 20
5.794318336554846
 30
0.0
 10
9.518501497734588
 20
6.171873844600204
 30
0.0
 10
9.475117029970198
 20
6.377287914517082
 30
0.0
 10
9.474941849067969
 20
6.68079591641816
 30
0.0
 10
9.485661149563507
 20
6.783244564606751
 30
0.0
 10
9.527769105953917
 20
6.980922516817596
 30
0.0
 10
9.558924547252005
 20
7.076708112982173
 30
0.0
 10
9.641563469502845
 20
7.262241727323024
 30
0.0
 10
9.693204237803037
 20
7.351629835230064
 30
0.0
 10
9.812596539089446
 20
7.516691022435761
 30
0.0
 10
9.880760522422745
 20
7.593427968758983
 30
0.0
 10
10.03472747750704
 20
7.735040410136958
 30
0.0
 10
10.11807023203271
 20
7.797638060100559
 30
0.0
 10
10.29668561678072
 20
7.907031414275075
 30
0.0
 10
10.39312526906698
 20
7.954245876093231
 30
0.0
 10
10.59297381193153
 20
8.029856928832672
 30
0.0
 10
10.69581988621657
 20
8.058317016527546
 30
0.0
 10
10.90730758970974
 20
8.096823571884002
 30
0.0
 10
11.01669784259861
 20
8.106681675078532
 30
0.0
 10
11.12439964821926
 20
8.106717345394031
 30
0.0
  0
SPLINE
  5
20E
330
1F
100
AcDbEntity
  8
SK3
  6
SLD-Dashed
370
    18
100
AcDbSpline
210
0.0
220
0.0
230
1.0
 70
     8
 71
     2
 72
     6
 73
     3
 74
     0
 42
0.000000001
 43
0.00000001
 40
0.0
 40
0.0
 40
0.0
 40
0.0312500000000002
 40
0.0312500000000002
 40
0.0312500000000002
 10
38.9636
 20
19.04999999999999
 30
0.0
 10
39.021365535665
 20
19.02353960829366
 30
0.0
 10
39.13384018817249
 20
18.97320334023737
 30
0.0
  0
SPLINE
  5
20F
330
1F
100
AcDbEntity
  8
SK3
  6
SLD-Dashed
370
    18
100
AcDbSpline
210
0.0
220
0.0
230
1.0
 70
     8
 71
     3
 72
     8
 73
     4
 74
     0
 42
0.000000001
 43
0.00000001
 40
0.0312500000000002
 40
0.0312500000000002
 40
0.0312500000000002
 40
0.0312500000000002
 40
0.0468750000000002
 40
0.0468750000000002
 40
0.0468750000000002
 40
0.0468750000000002
 10
39.13384018817249
 20
18.97320334023737
 30
0.0
 10
39.19007751442626
 20
18.94803520620921
 30
0.0
 10
39.26010026063541
 20
18.91688374728011
 30
0.0
 10
39.34416188921404
 20
18.88001403222585
 30
0.0
  0
SPLINE
  5
210
330
1F
100
AcDbEntity
  8
SK3
  6
SLD-Dashed
370
    18
100
AcDbSpline
210
0.0
220
0.0
230
1.0
 70
     8
 71
     3
 72
     8
 73
     4
 74
     0
 42
0.000000001
 43
0.00000001
 40
0.0468750000000002
 40
0.0468750000000002
 40
0.0468750000000002
 40
0.0468750000000002
 40
0.0625000000000003
 40
0.0625000000000003
 40
0.0625000000000003
 40
0.0625000000000003
 10
39.34416188921404
 20
18.88001403222585
 30
0.0
 10
39.42822351779269
 20
18.84314431717158
 30
0.0
 10
39.52603378540444
 20
18.80069406193861
 30
0.0
 10
39.63549148143343
 20
18.75406346390691
 30
0.0
  0
SPLINE
  5
211
330
1F
100
AcDbEntity
  8
SK3
  6
SLD-Dashed
370
    18
100
AcDbSpline
210
0.0
220
0.0
230
1.0
 70
     8
 71
     3
 72
     8
 73
     4
 74
     0
 42
0.000000001
 43
0.00000001
 40
0.0625000000000003
 40
0.0625000000000003
 40
0.0625000000000003
 40
0.0625000000000003
 40
0.0937500000000006
 40
0.0937500000000006
 40
0.0937500000000006
 40
0.0937500000000006
 10
39.63549148143343
 20
18.75406346390691
 30
0.0
 10
39.85440687349138
 20
18.66080226784351
 30
0.0
 10
40.12117668234514
 20
18.55010250540006
 30
0.0
 10
40.43540925877519
 20
18.42750295255181
 30
0.0
  0
SPLINE
  5
212
330
1F
100
AcDbEntity
  8
SK3
  6
SLD-Dashed
370
    18
100
AcDbSpline
210
0.0
220
0.0
230
1.0
 70
     8
 71
     3
 72
     8
 73
     4
 74
     0
 42
0.000000001
 43
0.00000001
 40
0.0937500000000006
 40
0.0937500000000006
 40
0.0937500000000006
 40
0.0937500000000006
 40
0.1093750000000007
 40
0.1093750000000007
 40
0.1093750000000007
 40
0.1093750000000007
 10
40.43540925877519
 20
18.42750295255181
 30
0.0
 10
40.59252554699018
 20
18.36620317612766
 30
0.0
 10
40.7620828212021
 20
18.30177018921943
 30
0.0
 10
40.94028840979096
 20
18.23644754562343
 30
0.0
  0
SPLINE
  5
213
330
1F
100
AcDbEntity
  8
SK3
  6
SLD-Dashed
370
    18
100
AcDbSpline
210
0.0
220
0.0
230
1.0
 70
     8
 71
     3
 72
     8
 73
     4
 74
     0
 42
0.000000001
 43
0.00000001
 40
0.1093750000000007
 40
0.1093750000000007
 40
0.1093750000000007
 40
0.1093750000000007
 40
0.1250000000000007
 40
0.1250000000000007
 40
0.1250000000000007
 40
0.1250000000000007
 10
40.94028840979096
 20
18.23644754562343
 30
0.0
 10
41.11849399837984
 20
18.17112490202742
 30
0.0
 10
41.30607444504682
 20
18.10461727237688
 30
0.0
 10
41.50297439476218
 20
18.03778943083623
 30
0.0
  0
SPLINE
  5
214
330
1F
100
AcDbEntity
  8
SK3
  6
SLD-Dashed
370
    18
100
AcDbSpline
210
0.0
220
0.0
230
1.0
 70
     8
 71
     3
 72
     8
 73
     4
 74
     0
 42
0.000000001
 43
0.00000001
 40
0.1250000000000007
 40
0.1250000000000007
 40
0.1250000000000007
 40
0.1250000000000007
 40
0.1406250000000008
 40
0.1406250000000008
 40
0.1406250000000008
 40
0.1406250000000008
 10
41.50297439476218
 20
18.03778943083623
 30
0.0
 10
41.69987434447754
 20
17.97096158929558
 30
0.0
 10
41.90609334730823
 20
17.90380972663979
 30
0.0
 10
42.12190260405256
 20
17.83722879231198
 30
0.0
  0
SPLINE
  5
215
330
1F
100
AcDbEntity
  8
SK3
  6
SLD-Dashed
370
    18
100
AcDbSpline
210
0.0
220
0.0
230
1.0
 70
     8
 71
     3
 72
     8
 73
     4
 74
     0
 42
0.000000001
 43
0.00000001
 40
0.1406250000000008
 40
0.1406250000000008
 40
0.1406250000000008
 40
0.1406250000000008
 40
0.1562500000000009
 40
0.1562500000000009
 40
0.1562500000000009
 40
0.1562500000000009
 10
42.12190260405256
 20
17.83722879231198
 30
0.0
 10
42.33771186079687
 20
17.77064785798418
 30
0.0
 10
42.5642563177341
 20
17.70432626075247
 30
0.0
 10
42.79814533665115
 20
17.6403281143263
 30
0.0
  0
SPLINE
  5
216
330
1F
100
AcDbEntity
  8
SK3
  6
SLD-Dashed
370
    18
100
AcDbSpline
210
0.0
220
0.0
230
1.0
 70
     8
 71
     3
 72
     8
 73
     4
 74
     0
 42
0.000000001
 43
0.00000001
 40
0.1562500000000009
 40
0.1562500000000009
 40
0.1562500000000009
 40
0.1562500000000009
 40
0.187500000000001
 40
0.187500000000001
 40
0.187500000000001
 40
0.187500000000001
 10
42.79814533665115
 20
17.6403281143263
 30
0.0
 10
43.26592337448538
 20
17.51233182147401
 30
0.0
 10
43.75866240437
 20
17.39460228213794
 30
0.0
 10
44.27742145737513
 20
17.29418781380155
 30
0.0
  0
SPLINE
  5
217
330
1F
100
AcDbEntity
  8
SK3
  6
SLD-Dashed
370
    18
100
AcDbSpline
210
0.0
220
0.0
230
1.0
 70
     8
 71
     3
 72
     8
 73
     4
 74
     0
 42
0.000000001
 43
0.00000001
 40
0.187500000000001
 40
0.187500000000001
 40
0.187500000000001
 40
0.187500000000001
 40
0.2031250000000009
 40
0.2031250000000009
 40
0.2031250000000009
 40
0.2031250000000009
 10
44.27742145737513
 20
17.29418781380155
 30
0.0
 10
44.53680098387768
 20
17.24398057963337
 30
0.0
 10
44.80273317213675
 20
17.19811015856059
 30
0.0
 10
45.07566471020795
 20
17.15755694904664
 30
0.0
  0
SPLINE
  5
218
330
1F
100
AcDbEntity
  8
SK3
  6
SLD-Dashed
370
    18
100
AcDbSpline
210
0.0
220
0.0
230
1.0
 70
     8
 71
     3
 72
     8
 73
     4
 74
     0
 42
0.000000001
 43
0.00000001
 40
0.2031250000000009
 40
0.2031250000000009
 40
0.2031250000000009
 40
0.2031250000000009
 40
0.2187500000000008
 40
0.2187500000000008
 40
0.2187500000000008
 40
0.2187500000000008
 10
45.07566471020795
 20
17.15755694904664
 30
0.0
 10
45.34859624827918
 20
17.1170037395327
 30
0.0
 10
45.62889248759956
 20
17.08184392919267
 30
0.0
 10
45.90906735762475
 20
17.05365283079168
 30
0.0
  0
SPLINE
  5
219
330
1F
100
AcDbEntity
  8
SK3
  6
SLD-Dashed
370
    18
100
AcDbSpline
210
0.0
220
0.0
230
1.0
 70
     8
 71
     3
 72
     8
 73
     4
 74
     0
 42
0.000000001
 43
0.00000001
 40
0.2187500000000008
 40
0.2187500000000008
 40
0.2187500000000008
 40
0.2187500000000008
 40
0.2500000000000009
 40
0.2500000000000009
 40
0.2500000000000009
 40
0.2500000000000009
 10
45.90906735762475
 20
17.05365283079168
 30
0.0
 10
46.46941709767506
 20
16.99727063398967
 30
0.0
 10
47.03638800373676
 20
16.96761347835724
 30
0.0
 10
47.61015382989071
 20
16.96711143503121
 30
0.0
  0
SPLINE
  5
21A
330
1F
100
AcDbEntity
  8
SK3
  6
SLD-Dashed
370
    18
100
AcDbSpline
210
0.0
220
0.0
230
1.0
 70
     8
 71
     3
 72
     8
 73
     4
 74
     0
 42
0.000000001
 43
0.00000001
 40
0.2500000000000009
 40
0.2500000000000009
 40
0.2500000000000009
 40
0.2500000000000009
 40
0.2656250000000011
 40
0.2656250000000011
 40
0.2656250000000011
 40
0.2656250000000011
 10
47.61015382989071
 20
16.96711143503121
 30
0.0
 10
47.89703674296768
 20
16.9668604133682
 30
0.0
 10
48.18746359804328
 20
16.97399871146753
 30
0.0
 10
48.47484794928918
 20
16.98837518943206
 30
0.0
  0
SPLINE
  5
21B
330
1F
100
AcDbEntity
  8
SK3
  6
SLD-Dashed
370
    18
100
AcDbSpline
210
0.0
220
0.0
230
1.0
 70
     8
 71
     3
 72
     8
 73
     4
 74
     0
 42
0.000000001
 43
0.00000001
 40
0.2656250000000011
 40
0.2656250000000011
 40
0.2656250000000011
 40
0.2656250000000011
 40
0.2812500000000012
 40
0.2812500000000012
 40
0.2812500000000012
 40
0.2812500000000012
 10
48.47484794928918
 20
16.98837518943206
 30
0.0
 10
48.76223230053508
 20
17.0027516673966
 30
0.0
 10
49.04562920923362
 20
17.02420156751582
 30
0.0
 10
49.32522816331709
 20
17.0520798100213
 30
0.0
  0
SPLINE
  5
21C
330
1F
100
AcDbEntity
  8
SK3
  6
SLD-Dashed
370
    18
100
AcDbSpline
210
0.0
220
0.0
230
1.0
 70
     8
 71
     3
 72
     8
 73
     4
 74
     0
 42
0.000000001
 43
0.00000001
 40
0.2812500000000012
 40
0.2812500000000012
 40
0.2812500000000012
 40
0.2812500000000012
 40
0.2968750000000012
 40
0.2968750000000012
 40
0.2968750000000012
 40
0.2968750000000012
 10
49.32522816331709
 20
17.0520798100213
 30
0.0
 10
49.60482711740057
 20
17.0799580525268
 30
0.0
 10
49.88062748114468
 20
17.11426536979614
 30
0.0
 10
50.15271878453164
 20
17.15435840518887
 30
0.0
  0
SPLINE
  5
21D
330
1F
100
AcDbEntity
  8
SK3
  6
SLD-Dashed
370
    18
100
AcDbSpline
210
0.0
220
0.0
230
1.0
 70
     8
 71
     3
 72
     8
 73
     4
 74
     0
 42
0.000000001
 43
0.00000001
 40
0.2968750000000012
 40
0.2968750000000012
 40
0.2968750000000012
 40
0.2968750000000012
 40
0.3125000000000013
 40
0.3125000000000013
 40
0.3125000000000013
 40
0.3125000000000013
 10
50.15271878453164
 20
17.15435840518887
 30
0.0
 10
50.42481008791859
 20
17.19445144058161
 30
0.0
 10
50.69440571876212
 20
17.24057254855233
 30
0.0
 10
50.95732602735418
 20
17.29124191007059
 30
0.0
  0
SPLINE
  5
21E
330
1F
100
AcDbEntity
  8
SK3
  6
SLD-Dashed
370
    18
100
AcDbSpline
210
0.0
220
0.0
230
1.0
 70
     8
 71
     3
 72
     8
 73
     4
 74
     0
 42
0.000000001
 43
0.00000001
 40
0.3125000000000013
 40
0.3125000000000013
 40
0.3125000000000013
 40
0.3125000000000013
 40
0.3437500000000013
 40
0.3437500000000013
 40
0.3437500000000013
 40
0.3437500000000013
 10
50.95732602735418
 20
17.29124191007059
 30
0.0
 10
51.48316664453838
 20
17.39258063310716
 30
0.0
 10
51.97748137820695
 20
17.51074286885356
 30
0.0
 10
52.44310627680861
 20
17.6379363343511
 30
0.0
  0
SPLINE
  5
21F
330
1F
100
AcDbEntity
  8
SK3
  6
SLD-Dashed
370
    18
100
AcDbSpline
210
0.0
220
0.0
230
1.0
 70
     8
 71
     3
 72
     8
 73
     4
 74
     0
 42
0.000000001
 43
0.00000001
 40
0.3437500000000013
 40
0.3437500000000013
 40
0.3437500000000013
 40
0.3437500000000013
 40
0.3750000000000014
 40
0.3750000000000014
 40
0.3750000000000014
 40
0.3750000000000014
 10
52.44310627680861
 20
17.6379363343511
 30
0.0
 10
52.90873117541032
 20
17.76512979984864
 30
0.0
 10
53.34756139593507
 20
17.90230371028028
 30
0.0
 10
53.74228105766789
 20
18.03617968358328
 30
0.0
  0
SPLINE
  5
220
330
1F
100
AcDbEntity
  8
SK3
  6
SLD-Dashed
370
    18
100
AcDbSpline
210
0.0
220
0.0
230
1.0
 70
     8
 71
     3
 72
     8
 73
     4
 74
     0
 42
0.000000001
 43
0.00000001
 40
0.3750000000000014
 40
0.3750000000000014
 40
0.3750000000000014
 40
0.3750000000000014
 40
0.4062500000000014
 40
0.4062500000000014
 40
0.4062500000000014
 40
0.4062500000000014
 10
53.74228105766789
 20
18.03617968358328
 30
0.0
 10
54.13700071940068
 20
18.17005565688627
 30
0.0
 10
54.49211426913965
 20
18.30179457132578
 30
0.0
 10
54.80725824076184
 20
18.42464337448601
 30
0.0
  0
SPLINE
  5
221
330
1F
100
AcDbEntity
  8
SK3
  6
SLD-Dashed
370
    18
100
AcDbSpline
210
0.0
220
0.0
230
1.0
 70
     8
 71
     3
 72
     8
 73
     4
 74
     0
 42
0.000000001
 43
0.00000001
 40
0.4062500000000014
 40
0.4062500000000014
 40
0.4062500000000014
 40
0.4062500000000014
 40
0.4218750000000014
 40
0.4218750000000014
 40
0.4218750000000014
 40
0.4218750000000014
 10
54.80725824076184
 20
18.42464337448601
 30
0.0
 10
54.96483022657291
 20
18.48606777606613
 30
0.0
 10
55.11235398396049
 20
18.54530047883795
 30
0.0
 10
55.24639234496311
 20
18.60022234587163
 30
0.0
  0
SPLINE
  5
222
330
1F
100
AcDbEntity
  8
SK3
  6
SLD-Dashed
370
    18
100
AcDbSpline
210
0.0
220
0.0
230
1.0
 70
     8
 71
     3
 72
     8
 73
     4
 74
     0
 42
0.000000001
 43
0.00000001
 40
0.4218750000000014
 40
0.4218750000000014
 40
0.4218750000000014
 40
0.4218750000000014
 40
0.4375000000000014
 40
0.4375000000000014
 40
0.4375000000000014
 40
0.4375000000000014
 10
55.24639234496311
 20
18.60022234587163
 30
0.0
 10
55.38043070596569
 20
18.65514421290531
 30
0.0
 10
55.50192330066424
 20
18.70611760611223
 30
0.0
 10
55.61097111045117
 20
18.75255674879991
 30
0.0
  0
SPLINE
  5
223
330
1F
100
AcDbEntity
  8
SK3
  6
SLD-Dashed
370
    18
100
AcDbSpline
210
0.0
220
0.0
230
1.0
 70
     8
 71
     3
 72
     8
 73
     4
 74
     0
 42
0.000000001
 43
0.00000001
 40
0.4375000000000014
 40
0.4375000000000014
 40
0.4375000000000014
 40
0.4375000000000014
 40
0.4687500000000014
 40
0.4687500000000014
 40
0.4687500000000014
 40
0.4687500000000014
 10
55.61097111045117
 20
18.75255674879991
 30
0.0
 10
55.82906673002501
 20
18.84543503417527
 30
0.0
 10
55.99807929644
 20
18.92037330247363
 30
0.0
 10
56.11309727062653
 20
18.97183294559642
 30
0.0
  0
SPLINE
  5
224
330
1F
100
AcDbEntity
  8
SK3
  6
SLD-Dashed
370
    18
100
AcDbSpline
210
0.0
220
0.0
230
1.0
 70
     8
 71
     3
 72
     8
 73
     4
 74
     0
 42
0.000000001
 43
0.00000001
 40
0.4687500000000014
 40
0.4687500000000014
 40
0.4687500000000014
 40
0.4687500000000014
 40
0.5000000000000014
 40
0.5000000000000014
 40
0.5000000000000014
 40
0.5000000000000014
 10
56.11309727062653
 20
18.97183294559642
 30
0.0
 10
56.22811524481304
 20
19.02329258871922
 30
0.0
 10
56.28530239328254
 20
19.04950095551571
 30
0.0
 10
56.2863845043284
 20
19.04999295463963
 30
0.0
  0
SPLINE
  5
225
330
1F
100
AcDbEntity
  8
SK3
  6
SLD-Dashed
370
    18
100
AcDbSpline
210
0.0
220
0.0
230
1.0
 70
     8
 71
     3
 72
     8
 73
     4
 74
     0
 42
0.000000001
 43
0.00000001
 40
0.5156250000000014
 40
0.5156250000000014
 40
0.5156250000000014
 40
0.5156250000000014
 40
0.5312500000000013
 40
0.5312500000000013
 40
0.5312500000000013
 40
0.5312500000000013
 10
56.24519196205631
 20
19.03129946962898
 30
0.0
 10
56.21704813730131
 20
19.01855177616108
 30
0.0
 10
56.17425913430253
 20
18.99920938428516
 30
0.0
 10
56.11807093276343
 20
18.97405870943144
 30
0.0
  0
SPLINE
  5
226
330
1F
100
AcDbEntity
  8
SK3
  6
SLD-Dashed
370
    18
100
AcDbSpline
210
0.0
220
0.0
230
1.0
 70
     8
 71
     3
 72
     8
 73
     4
 74
     0
 42
0.000000001
 43
0.00000001
 40
0.5312500000000013
 40
0.5312500000000013
 40
0.5312500000000013
 40
0.5312500000000013
 40
0.5625000000000014
 40
0.5625000000000014
 40
0.5625000000000014
 40
0.5625000000000014
 10
56.11807093276343
 20
18.97405870943144
 30
0.0
 10
56.00569452968522
 20
18.92375735972402
 30
0.0
 10
55.83957921913406
 20
18.85000389191061
 30
0.0
 10
55.62038700329007
 20
18.75656853937787
 30
0.0
  0
SPLINE
  5
227
330
1F
100
AcDbEntity
  8
SK3
  6
SLD-Dashed
370
    18
100
AcDbSpline
210
0.0
220
0.0
230
1.0
 70
     8
 71
     3
 72
     8
 73
     4
 74
     0
 42
0.000000001
 43
0.00000001
 40
0.5625000000000014
 40
0.5625000000000014
 40
0.5625000000000014
 40
0.5625000000000014
 40
0.5781250000000014
 40
0.5781250000000014
 40
0.5781250000000014
 40
0.5781250000000014
 10
55.62038700329007
 20
18.75656853937787
 30
0.0
 10
55.5107908953681
 20
18.70985086311151
 30
0.0
 10
55.38762280770372
 20
18.65813678035864
 30
0.0
 10
55.25380977163626
 20
18.60326284746343
 30
0.0
  0
SPLINE
  5
228
330
1F
100
AcDbEntity
  8
SK3
  6
SLD-Dashed
370
    18
100
AcDbSpline
210
0.0
220
0.0
230
1.0
 70
     8
 71
     3
 72
     8
 73
     4
 74
     0
 42
0.000000001
 43
0.00000001
 40
0.5781250000000014
 40
0.5781250000000014
 40
0.5781250000000014
 40
0.5781250000000014
 40
0.5937500000000016
 40
0.5937500000000016
 40
0.5937500000000016
 40
0.5937500000000016
 10
55.25380977163626
 20
18.60326284746343
 30
0.0
 10
55.11999673556882
 20
18.54838891456823
 30
0.0
 10
54.97497611782003
 20
18.49010997257656
 30
0.0
 10
54.81895929738263
 20
18.42920780751029
 30
0.0
  0
SPLINE
  5
229
330
1F
100
AcDbEntity
  8
SK3
  6
SLD-Dashed
370
    18
100
AcDbSpline
210
0.0
220
0.0
230
1.0
 70
     8
 71
     3
 72
     8
 73
     4
 74
     0
 42
0.000000001
 43
0.00000001
 40
0.5937500000000016
 40
0.5937500000000016
 40
0.5937500000000016
 40
0.5937500000000016
 40
0.6093750000000017
 40
0.6093750000000017
 40
0.6093750000000017
 40
0.6093750000000017
 10
54.81895929738263
 20
18.42920780751029
 30
0.0
 10
54.66294247694527
 20
18.36830564244402
 30
0.0
 10
54.4959291854198
 20
18.30477658746339
 30
0.0
 10
54.3177537525117
 20
18.23939699748211
 30
0.0
  0
SPLINE
  5
22A
330
1F
100
AcDbEntity
  8
SK3
  6
SLD-Dashed
370
    18
100
AcDbSpline
210
0.0
220
0.0
230
1.0
 70
     8
 71
     3
 72
     8
 73
     4
 74
     0
 42
0.000000001
 43
0.00000001
 40
0.6093750000000017
 40
0.6093750000000017
 40
0.6093750000000017
 40
0.6093750000000017
 40
0.6250000000000017
 40
0.6250000000000017
 40
0.6250000000000017
 40
0.6250000000000017
 10
54.3177537525117
 20
18.23939699748211
 30
0.0
 10
54.1395783196036
 20
18.17401740750083
 30
0.0
 10
53.94933394225192
 20
18.10649370168376
 30
0.0
 10
53.751182393363
 20
18.03920066845399
 30
0.0
  0
SPLINE
  5
22B
330
1F
100
AcDbEntity
  8
SK3
  6
SLD-Dashed
370
    18
100
AcDbSpline
210
0.0
220
0.0
230
1.0
 70
     8
 71
     3
 72
     8
 73
     4
 74
     0
 42
0.000000001
 43
0.00000001
 40
0.6250000000000017
 40
0.6250000000000017
 40
0.6250000000000017
 40
0.6250000000000017
 40
0.6562500000000016
 40
0.6562500000000016
 40
0.6562500000000016
 40
0.6562500000000016
 10
53.751182393363
 20
18.03920066845399
 30
0.0
 10
53.35487929558512
 20
17.90461460199443
 30
0.0
 10
52.92518804496076
 20
17.77006914227396
 30
0.0
 10
52.46099464342215
 20
17.64283124192962
 30
0.0
  0
SPLINE
  5
22C
330
1F
100
AcDbEntity
  8
SK3
  6
SLD-Dashed
370
    18
100
AcDbSpline
210
0.0
220
0.0
230
1.0
 70
     8
 71
     3
 72
     8
 73
     4
 74
     0
 42
0.000000001
 43
0.00000001
 40
0.6562500000000016
 40
0.6562500000000016
 40
0.6562500000000016
 40
0.6562500000000016
 40
0.6875000000000013
 40
0.6875000000000013
 40
0.6875000000000013
 40
0.6875000000000013
 10
52.46099464342215
 20
17.64283124192962
 30
0.0
 10
51.99680124188354
 20
17.51559334158528
 30
0.0
 10
51.49292313748173
 20
17.39491936356135
 30
0.0
 10
50.97292994698648
 20
17.29425583741401
 30
0.0
  0
SPLINE
  5
22D
330
1F
100
AcDbEntity
  8
SK3
  6
SLD-Dashed
370
    18
100
AcDbSpline
210
0.0
220
0.0
230
1.0
 70
     8
 71
     3
 72
     8
 73
     4
 74
     0
 42
0.000000001
 43
0.00000001
 40
0.6875000000000013
 40
0.6875000000000013
 40
0.6875000000000013
 40
0.6875000000000013
 40
0.7187500000000012
 40
0.7187500000000012
 40
0.7187500000000012
 40
0.7187500000000012
 10
50.97292994698648
 20
17.29425583741401
 30
0.0
 10
50.45293675649125
 20
17.19359231126669
 30
0.0
 10
49.91321222942217
 20
17.11160006761216
 30
0.0
 10
49.35201902474913
 20
17.0547719055942
 30
0.0
  0
SPLINE
  5
22E
330
1F
100
AcDbEntity
  8
SK3
  6
SLD-Dashed
370
    18
100
AcDbSpline
210
0.0
220
0.0
230
1.0
 70
     8
 71
     3
 72
     8
 73
     4
 74
     0
 42
0.000000001
 43
0.00000001
 40
0.7187500000000012
 40
0.7187500000000012
 40
0.7187500000000012
 40
0.7187500000000012
 40
0.7343750000000011
 40
0.7343750000000011
 40
0.7343750000000011
 40
0.7343750000000011
 10
49.35201902474913
 20
17.0547719055942
 30
0.0
 10
49.0714224224126
 20
17.02635782458522
 30
0.0
 10
48.78358027735231
 20
17.00420741311217
 30
0.0
 10
48.49704081535435
 20
16.98949985207462
 30
0.0
  0
SPLINE
  5
22F
330
1F
100
AcDbEntity
  8
SK3
  6
SLD-Dashed
370
    18
100
AcDbSpline
210
0.0
220
0.0
230
1.0
 70
     8
 71
     3
 72
     8
 73
     4
 74
     0
 42
0.000000001
 43
0.00000001
 40
0.7343750000000011
 40
0.7343750000000011
 40
0.7343750000000011
 40
0.7343750000000011
 40
0.7500000000000011
 40
0.7500000000000011
 40
0.7500000000000011
 40
0.7500000000000011
 10
48.49704081535435
 20
16.98949985207462
 30
0.0
 10
48.21050135335632
 20
16.97479229103707
 30
0.0
 10
47.9242639839803
 20
16.96733470575586
 30
0.0
 10
47.63832342131725
 20
16.96711017096179
 30
0.0
  0
SPLINE
  5
230
330
1F
100
AcDbEntity
  8
SK3
  6
SLD-Dashed
370
    18
100
AcDbSpline
210
0.0
220
0.0
230
1.0
 70
     8
 71
     3
 72
     8
 73
     4
 74
     0
 42
0.000000001
 43
0.00000001
 40
0.7500000000000011
 40
0.7500000000000011
 40
0.7500000000000011
 40
0.7500000000000011
 40
0.7656250000000011
 40
0.7656250000000011
 40
0.7656250000000011
 40
0.7656250000000011
 10
47.63832342131725
 20
16.96711017096179
 30
0.0
 10
47.35238285865419
 20
16.96688563616774
 30
0.0
 10
47.06673911757213
 20
16.97389418843949
 30
0.0
 10
46.78139350435755
 20
16.98806410276019
 30
0.0
  0
SPLINE
  5
231
330
1F
100
AcDbEntity
  8
SK3
  6
SLD-Dashed
370
    18
100
AcDbSpline
210
0.0
220
0.0
230
1.0
 70
     8
 71
     3
 72
     8
 73
     4
 74
     0
 42
0.000000001
 43
0.00000001
 40
0.7656250000000011
 40
0.7656250000000011
 40
0.7656250000000011
 40
0.7656250000000011
 40
0.781250000000001
 40
0.781250000000001
 40
0.781250000000001
 40
0.781250000000001
 10
46.78139350435755
 20
16.98806410276019
 30
0.0
 10
46.49604789114296
 20
17.00223401708092
 30
0.0
 10
46.20953861178386
 20
17.02372053662373
 30
0.0
 10
45.92685041624512
 20
17.05187268451201
 30
0.0
  0
SPLINE
  5
232
330
1F
100
AcDbEntity
  8
SK3
  6
SLD-Dashed
370
    18
100
AcDbSpline
210
0.0
220
0.0
230
1.0
 70
     8
 71
     3
 72
     8
 73
     4
 74
     0
 42
0.000000001
 43
0.00000001
 40
0.781250000000001
 40
0.781250000000001
 40
0.781250000000001
 40
0.781250000000001
 40
0.8125000000000009
 40
0.8125000000000009
 40
0.8125000000000009
 40
0.8125000000000009
 10
45.92685041624512
 20
17.05187268451201
 30
0.0
 10
45.36147402516767
 20
17.10817698028857
 30
0.0
 10
44.81838321246475
 20
17.1900147045956
 30
0.0
 10
44.29562666901258
 20
17.29067311636797
 30
0.0
  0
SPLINE
  5
233
330
1F
100
AcDbEntity
  8
SK3
  6
SLD-Dashed
370
    18
100
AcDbSpline
210
0.0
220
0.0
230
1.0
 70
     8
 71
     3
 72
     8
 73
     4
 74
     0
 42
0.000000001
 43
0.00000001
 40
0.8125000000000009
 40
0.8125000000000009
 40
0.8125000000000009
 40
0.8125000000000009
 40
0.8437500000000007
 40
0.8437500000000007
 40
0.8437500000000007
 40
0.8437500000000007
 10
44.29562666901258
 20
17.29067311636797
 30
0.0
 10
43.7728701255604
 20
17.39133152814033
 30
0.0
 10
43.2689042458395
 20
17.51165395745644
 30
0.0
 10
42.80375883314706
 20
17.63879294138227
 30
0.0
  0
SPLINE
  5
234
330
1F
100
AcDbEntity
  8
SK3
  6
SLD-Dashed
370
    18
100
AcDbSpline
210
0.0
220
0.0
230
1.0
 70
     8
 71
     3
 72
     8
 73
     4
 74
     0
 42
0.000000001
 43
0.00000001
 40
0.8437500000000007
 40
0.8437500000000007
 40
0.8437500000000007
 40
0.8437500000000007
 40
0.8750000000000004
 40
0.8750000000000004
 40
0.8750000000000004
 40
0.8750000000000004
 10
42.80375883314706
 20
17.63879294138227
 30
0.0
 10
42.33861342045466
 20
17.7659319253081
 30
0.0
 10
41.90674866808862
 20
17.90083866201909
 30
0.0
 10
41.50755472686211
 20
18.03623538075052
 30
0.0
  0
SPLINE
  5
235
330
1F
100
AcDbEntity
  8
SK3
  6
SLD-Dashed
370
    18
100
AcDbSpline
210
0.0
220
0.0
230
1.0
 70
     8
 71
     3
 72
     8
 73
     4
 74
     0
 42
0.000000001
 43
0.00000001
 40
0.8750000000000004
 40
0.8750000000000004
 40
0.8750000000000004
 40
0.8750000000000004
 40
0.9062500000000003
 40
0.9062500000000003
 40
0.9062500000000003
 40
0.9062500000000003
 10
41.50755472686211
 20
18.03623538075052
 30
0.0
 10
41.10836078563564
 20
18.17163209948195
 30
0.0
 10
40.75268074164935
 20
18.30379005170118
 30
0.0
 10
40.44040086039101
 20
18.42555602517521
 30
0.0
  0
SPLINE
  5
236
330
1F
100
AcDbEntity
  8
SK3
  6
SLD-Dashed
370
    18
100
AcDbSpline
210
0.0
220
0.0
230
1.0
 70
     8
 71
     3
 72
     8
 73
     4
 74
     0
 42
0.000000001
 43
0.00000001
 40
0.9062500000000003
 40
0.9062500000000003
 40
0.9062500000000003
 40
0.9062500000000003
 40
0.9218750000000003
 40
0.9218750000000003
 40
0.9218750000000003
 40
0.9218750000000003
 10
40.44040086039101
 20
18.42555602517521
 30
0.0
 10
40.28426091976183
 20
18.48643901191224
 30
0.0
 10
40.13888745697451
 20
18.54479752265325
 30
0.0
 10
40.00455626666786
 20
18.59983367487143
 30
0.0
  0
SPLINE
  5
237
330
1F
100
AcDbEntity
  8
SK3
  6
SLD-Dashed
370
    18
100
AcDbSpline
210
0.0
220
0.0
230
1.0
 70
     8
 71
     3
 72
     8
 73
     4
 74
     0
 42
0.000000001
 43
0.00000001
 40
0.9218750000000003
 40
0.9218750000000003
 40
0.9218750000000003
 40
0.9218750000000003
 40
0.9375000000000002
 40
0.9375000000000002
 40
0.9375000000000002
 40
0.9375000000000002
 10
40.00455626666786
 20
18.59983367487143
 30
0.0
 10
39.87022507636124
 20
18.6548698270896
 30
0.0
 10
39.7463558987745
 20
18.70683780378433
 30
0.0
 10
39.63636747946049
 20
18.75369029253233
 30
0.0
  0
SPLINE
  5
238
330
1F
100
AcDbEntity
  8
SK3
  6
SLD-Dashed
370
    18
100
AcDbSpline
210
0.0
220
0.0
230
1.0
 70
     8
 71
     3
 72
     8
 73
     4
 74
     0
 42
0.000000001
 43
0.00000001
 40
0.9375000000000002
 40
0.9375000000000002
 40
0.9375000000000002
 40
0.9375000000000002
 40
0.9687500000000002
 40
0.9687500000000002
 40
0.9687500000000002
 40
0.9687500000000002
 10
39.63636747946049
 20
18.75369029253233
 30
0.0
 10
39.41639064083248
 20
18.84739527002834
 30
0.0
 10
39.24965365095954
 20
18.92138485329507
 30
0.0
 10
39.13632768174659
 20
18.97209023188224
 30
0.0
  0
SPLINE
  5
239
330
1F
100
AcDbEntity
  8
SK3
  6
SLD-Dashed
370
    18
100
AcDbSpline
210
0.0
220
0.0
230
1.0
 70
     8
 71
     2
 72
     6
 73
     3
 74
     0
 42
0.000000001
 43
0.00000001
 40
0.9687500000000002
 40
0.9687500000000002
 40
0.9687500000000002
 40
1.0
 40
1.0
 40
1.0
 10
39.13632768174659
 20
18.97209023188224
 30
0.0
 10
39.02300171253361
 20
19.02279561046938
 30
0.0
 10
38.9636
 20
19.04999999999999
 30
0.0
  0
SPLINE
  5
23A
330
1F
100
AcDbEntity
  8
SK3
  6
SLD-Dashed
370
    18
100
AcDbSpline
210
0.0
220
0.0
230
1.0
 70
     8
 71
     2
 72
     6
 73
     3
 74
     0
 42
0.000000001
 43
0.00000001
 40
0.0
 40
0.0
 40
0.0
 40
0.0312500000000002
 40
0.0312500000000002
 40
0.0312500000000002
 10
38.9636
 20
19.04999999999999
 30
0.0
 10
39.021365535665
 20
19.02353960829366
 30
0.0
 10
39.13384018817249
 20
18.97320334023737
 30
0.0
  0
SPLINE
  5
23B
330
1F
100
AcDbEntity
  8
SK3
  6
SLD-Dashed
370
    18
100
AcDbSpline
210
0.0
220
0.0
230
1.0
 70
     8
 71
     3
 72
     8
 73
     4
 74
     0
 42
0.000000001
 43
0.00000001
 40
0.0312500000000002
 40
0.0312500000000002
 40
0.0312500000000002
 40
0.0312500000000002
 40
0.0468750000000002
 40
0.0468750000000002
 40
0.0468750000000002
 40
0.0468750000000002
 10
39.13384018817249
 20
18.97320334023737
 30
0.0
 10
39.19007751442626
 20
18.94803520620921
 30
0.0
 10
39.26010026063541
 20
18.91688374728011
 30
0.0
 10
39.34416188921404
 20
18.88001403222585
 30
0.0
  0
SPLINE
  5
23C
330
1F
100
AcDbEntity
  8
SK3
  6
SLD-Dashed
370
    18
100
AcDbSpline
210
0.0
220
0.0
230
1.0
 70
     8
 71
     3
 72
     8
 73
     4
 74
     0
 42
0.000000001
 43
0.00000001
 40
0.0468750000000002
 40
0.0468750000000002
 40
0.0468750000000002
 40
0.0468750000000002
 40
0.0625000000000003
 40
0.0625000000000003
 40
0.0625000000000003
 40
0.0625000000000003
 10
39.34416188921404
 20
18.88001403222585
 30
0.0
 10
39.42822351779269
 20
18.84314431717158
 30
0.0
 10
39.52603378540444
 20
18.80069406193861
 30
0.0
 10
39.63549148143343
 20
18.75406346390691
 30
0.0
  0
SPLINE
  5
23D
330
1F
100
AcDbEntity
  8
SK3
  6
SLD-Dashed
370
    18
100
AcDbSpline
210
0.0
220
0.0
230
1.0
 70
     8
 71
     3
 72
     8
 73
     4
 74
     0
 42
0.000000001
 43
0.00000001
 40
0.0625000000000003
 40
0.0625000000000003
 40
0.0625000000000003
 40
0.0625000000000003
 40
0.0937500000000006
 40
0.0937500000000006
 40
0.0937500000000006
 40
0.0937500000000006
 10
39.63549148143343
 20
18.75406346390691
 30
0.0
 10
39.85440687349138
 20
18.66080226784351
 30
0.0
 10
40.12117668234514
 20
18.55010250540006
 30
0.0
 10
40.43540925877519
 20
18.42750295255181
 30
0.0
  0
SPLINE
  5
23E
330
1F
100
AcDbEntity
  8
SK3
  6
SLD-Dashed
370
    18
100
AcDbSpline
210
0.0
220
0.0
230
1.0
 70
     8
 71
     3
 72
     8
 73
     4
 74
     0
 42
0.000000001
 43
0.00000001
 40
0.0937500000000006
 40
0.0937500000000006
 40
0.0937500000000006
 40
0.0937500000000006
 40
0.1093750000000007
 40
0.1093750000000007
 40
0.1093750000000007
 40
0.1093750000000007
 10
40.43540925877519
 20
18.42750295255181
 30
0.0
 10
40.59252554699018
 20
18.36620317612766
 30
0.0
 10
40.7620828212021
 20
18.30177018921943
 30
0.0
 10
40.94028840979096
 20
18.23644754562343
 30
0.0
  0
SPLINE
  5
23F
330
1F
100
AcDbEntity
  8
SK3
  6
SLD-Dashed
370
    18
100
AcDbSpline
210
0.0
220
0.0
230
1.0
 70
     8
 71
     3
 72
     8
 73
     4
 74
     0
 42
0.000000001
 43
0.00000001
 40
0.1093750000000007
 40
0.1093750000000007
 40
0.1093750000000007
 40
0.1093750000000007
 40
0.1250000000000007
 40
0.1250000000000007
 40
0.1250000000000007
 40
0.1250000000000007
 10
40.94028840979096
 20
18.23644754562343
 30
0.0
 10
41.11849399837984
 20
18.17112490202742
 30
0.0
 10
41.30607444504682
 20
18.10461727237688
 30
0.0
 10
41.50297439476218
 20
18.03778943083623
 30
0.0
  0
SPLINE
  5
240
330
1F
100
AcDbEntity
  8
SK3
  6
SLD-Dashed
370
    18
100
AcDbSpline
210
0.0
220
0.0
230
1.0
 70
     8
 71
     3
 72
     8
 73
     4
 74
     0
 42
0.000000001
 43
0.00000001
 40
0.1250000000000007
 40
0.1250000000000007
 40
0.1250000000000007
 40
0.1250000000000007
 40
0.1406250000000008
 40
0.1406250000000008
 40
0.1406250000000008
 40
0.1406250000000008
 10
41.50297439476218
 20
18.03778943083623
 30
0.0
 10
41.69987434447754
 20
17.97096158929558
 30
0.0
 10
41.90609334730823
 20
17.90380972663979
 30
0.0
 10
42.12190260405256
 20
17.83722879231198
 30
0.0
  0
SPLINE
  5
241
330
1F
100
AcDbEntity
  8
SK3
  6
SLD-Dashed
370
    18
100
AcDbSpline
210
0.0
220
0.0
230
1.0
 70
     8
 71
     3
 72
     8
 73
     4
 74
     0
 42
0.000000001
 43
0.00000001
 40
0.1406250000000008
 40
0.1406250000000008
 40
0.1406250000000008
 40
0.1406250000000008
 40
0.1562500000000009
 40
0.1562500000000009
 40
0.1562500000000009
 40
0.1562500000000009
 10
42.12190260405256
 20
17.83722879231198
 30
0.0
 10
42.33771186079687
 20
17.77064785798418
 30
0.0
 10
42.5642563177341
 20
17.70432626075247
 30
0.0
 10
42.79814533665115
 20
17.6403281143263
 30
0.0
  0
SPLINE
  5
242
330
1F
100
AcDbEntity
  8
SK3
  6
SLD-Dashed
370
    18
100
AcDbSpline
210
0.0
220
0.0
230
1.0
 70
     8
 71
     3
 72
     8
 73
     4
 74
     0
 42
0.000000001
 43
0.00000001
 40
0.1562500000000009
 40
0.1562500000000009
 40
0.1562500000000009
 40
0.1562500000000009
 40
0.187500000000001
 40
0.187500000000001
 40
0.187500000000001
 40
0.187500000000001
 10
42.79814533665115
 20
17.6403281143263
 30
0.0
 10
43.26592337448538
 20
17.51233182147401
 30
0.0
 10
43.75866240437
 20
17.39460228213794
 30
0.0
 10
44.27742145737513
 20
17.29418781380155
 30
0.0
  0
SPLINE
  5
243
330
1F
100
AcDbEntity
  8
SK3
  6
SLD-Dashed
370
    18
100
AcDbSpline
210
0.0
220
0.0
230
1.0
 70
     8
 71
     3
 72
     8
 73
     4
 74
     0
 42
0.000000001
 43
0.00000001
 40
0.187500000000001
 40
0.187500000000001
 40
0.187500000000001
 40
0.187500000000001
 40
0.2031250000000009
 40
0.2031250000000009
 40
0.2031250000000009
 40
0.2031250000000009
 10
44.27742145737513
 20
17.29418781380155
 30
0.0
 10
44.53680098387768
 20
17.24398057963337
 30
0.0
 10
44.80273317213675
 20
17.19811015856059
 30
0.0
 10
45.07566471020795
 20
17.15755694904664
 30
0.0
  0
SPLINE
  5
244
330
1F
100
AcDbEntity
  8
SK3
  6
SLD-Dashed
370
    18
100
AcDbSpline
210
0.0
220
0.0
230
1.0
 70
     8
 71
     3
 72
     8
 73
     4
 74
     0
 42
0.000000001
 43
0.00000001
 40
0.2031250000000009
 40
0.2031250000000009
 40
0.2031250000000009
 40
0.2031250000000009
 40
0.2187500000000008
 40
0.2187500000000008
 40
0.2187500000000008
 40
0.2187500000000008
 10
45.07566471020795
 20
17.15755694904664
 30
0.0
 10
45.34859624827918
 20
17.1170037395327
 30
0.0
 10
45.62889248759956
 20
17.08184392919267
 30
0.0
 10
45.90906735762475
 20
17.05365283079168
 30
0.0
  0
SPLINE
  5
245
330
1F
100
AcDbEntity
  8
SK3
  6
SLD-Dashed
370
    18
100
AcDbSpline
210
0.0
220
0.0
230
1.0
 70
     8
 71
     3
 72
     8
 73
     4
 74
     0
 42
0.000000001
 43
0.00000001
 40
0.2187500000000008
 40
0.2187500000000008
 40
0.2187500000000008
 40
0.2187500000000008
 40
0.2500000000000009
 40
0.2500000000000009
 40
0.2500000000000009
 40
0.2500000000000009
 10
45.90906735762475
 20
17.05365283079168
 30
0.0
 10
46.46941709767506
 20
16.99727063398967
 30
0.0
 10
47.03638800373676
 20
16.96761347835724
 30
0.0
 10
47.61015382989071
 20
16.96711143503121
 30
0.0
  0
SPLINE
  5
246
330
1F
100
AcDbEntity
  8
SK3
  6
SLD-Dashed
370
    18
100
AcDbSpline
210
0.0
220
0.0
230
1.0
 70
     8
 71
     3
 72
     8
 73
     4
 74
     0
 42
0.000000001
 43
0.00000001
 40
0.2500000000000009
 40
0.2500000000000009
 40
0.2500000000000009
 40
0.2500000000000009
 40
0.2656250000000011
 40
0.2656250000000011
 40
0.2656250000000011
 40
0.2656250000000011
 10
47.61015382989071
 20
16.96711143503121
 30
0.0
 10
47.89703674296768
 20
16.9668604133682
 30
0.0
 10
48.18746359804328
 20
16.97399871146753
 30
0.0
 10
48.47484794928918
 20
16.98837518943206
 30
0.0
  0
SPLINE
  5
247
330
1F
100
AcDbEntity
  8
SK3
  6
SLD-Dashed
370
    18
100
AcDbSpline
210
0.0
220
0.0
230
1.0
 70
     8
 71
     3
 72
     8
 73
     4
 74
     0
 42
0.000000001
 43
0.00000001
 40
0.2656250000000011
 40
0.2656250000000011
 40
0.2656250000000011
 40
0.2656250000000011
 40
0.2812500000000012
 40
0.2812500000000012
 40
0.2812500000000012
 40
0.2812500000000012
 10
48.47484794928918
 20
16.98837518943206
 30
0.0
 10
48.76223230053508
 20
17.0027516673966
 30
0.0
 10
49.04562920923362
 20
17.02420156751582
 30
0.0
 10
49.32522816331709
 20
17.0520798100213
 30
0.0
  0
SPLINE
  5
248
330
1F
100
AcDbEntity
  8
SK3
  6
SLD-Dashed
370
    18
100
AcDbSpline
210
0.0
220
0.0
230
1.0
 70
     8
 71
     3
 72
     8
 73
     4
 74
     0
 42
0.000000001
 43
0.00000001
 40
0.2812500000000012
 40
0.2812500000000012
 40
0.2812500000000012
 40
0.2812500000000012
 40
0.2968750000000012
 40
0.2968750000000012
 40
0.2968750000000012
 40
0.2968750000000012
 10
49.32522816331709
 20
17.0520798100213
 30
0.0
 10
49.60482711740057
 20
17.0799580525268
 30
0.0
 10
49.88062748114468
 20
17.11426536979614
 30
0.0
 10
50.15271878453164
 20
17.15435840518887
 30
0.0
  0
SPLINE
  5
249
330
1F
100
AcDbEntity
  8
SK3
  6
SLD-Dashed
370
    18
100
AcDbSpline
210
0.0
220
0.0
230
1.0
 70
     8
 71
     3
 72
     8
 73
     4
 74
     0
 42
0.000000001
 43
0.00000001
 40
0.2968750000000012
 40
0.2968750000000012
 40
0.2968750000000012
 40
0.2968750000000012
 40
0.3125000000000013
 40
0.3125000000000013
 40
0.3125000000000013
 40
0.3125000000000013
 10
50.15271878453164
 20
17.15435840518887
 30
0.0
 10
50.42481008791859
 20
17.19445144058161
 30
0.0
 10
50.69440571876212
 20
17.24057254855233
 30
0.0
 10
50.95732602735418
 20
17.29124191007059
 30
0.0
  0
SPLINE
  5
24A
330
1F
100
AcDbEntity
  8
SK3
  6
SLD-Dashed
370
    18
100
AcDbSpline
210
0.0
220
0.0
230
1.0
 70
     8
 71
     3
 72
     8
 73
     4
 74
     0
 42
0.000000001
 43
0.00000001
 40
0.3125000000000013
 40
0.3125000000000013
 40
0.3125000000000013
 40
0.3125000000000013
 40
0.3437500000000013
 40
0.3437500000000013
 40
0.3437500000000013
 40
0.3437500000000013
 10
50.95732602735418
 20
17.29124191007059
 30
0.0
 10
51.48316664453838
 20
17.39258063310716
 30
0.0
 10
51.97748137820695
 20
17.51074286885356
 30
0.0
 10
52.44310627680861
 20
17.6379363343511
 30
0.0
  0
SPLINE
  5
24B
330
1F
100
AcDbEntity
  8
SK3
  6
SLD-Dashed
370
    18
100
AcDbSpline
210
0.0
220
0.0
230
1.0
 70
     8
 71
     3
 72
     8
 73
     4
 74
     0
 42
0.000000001
 43
0.00000001
 40
0.3437500000000013
 40
0.3437500000000013
 40
0.3437500000000013
 40
0.3437500000000013
 40
0.3750000000000014
 40
0.3750000000000014
 40
0.3750000000000014
 40
0.3750000000000014
 10
52.44310627680861
 20
17.6379363343511
 30
0.0
 10
52.90873117541032
 20
17.76512979984864
 30
0.0
 10
53.34756139593507
 20
17.90230371028028
 30
0.0
 10
53.74228105766789
 20
18.03617968358328
 30
0.0
  0
SPLINE
  5
24C
330
1F
100
AcDbEntity
  8
SK3
  6
SLD-Dashed
370
    18
100
AcDbSpline
210
0.0
220
0.0
230
1.0
 70
     8
 71
     3
 72
     8
 73
     4
 74
     0
 42
0.000000001
 43
0.00000001
 40
0.3750000000000014
 40
0.3750000000000014
 40
0.3750000000000014
 40
0.3750000000000014
 40
0.4062500000000014
 40
0.4062500000000014
 40
0.4062500000000014
 40
0.4062500000000014
 10
53.74228105766789
 20
18.03617968358328
 30
0.0
 10
54.13700071940068
 20
18.17005565688627
 30
0.0
 10
54.49211426913965
 20
18.30179457132578
 30
0.0
 10
54.80725824076184
 20
18.42464337448601
 30
0.0
  0
SPLINE
  5
24D
330
1F
100
AcDbEntity
  8
SK3
  6
SLD-Dashed
370
    18
100
AcDbSpline
210
0.0
220
0.0
230
1.0
 70
     8
 71
     3
 72
     8
 73
     4
 74
     0
 42
0.000000001
 43
0.00000001
 40
0.4062500000000014
 40
0.4062500000000014
 40
0.4062500000000014
 40
0.4062500000000014
 40
0.4218750000000014
 40
0.4218750000000014
 40
0.4218750000000014
 40
0.4218750000000014
 10
54.80725824076184
 20
18.42464337448601
 30
0.0
 10
54.96483022657291
 20
18.48606777606613
 30
0.0
 10
55.11235398396049
 20
18.54530047883795
 30
0.0
 10
55.24639234496311
 20
18.60022234587163
 30
0.0
  0
SPLINE
  5
24E
330
1F
100
AcDbEntity
  8
SK3
  6
SLD-Dashed
370
    18
100
AcDbSpline
210
0.0
220
0.0
230
1.0
 70
     8
 71
     3
 72
     8
 73
     4
 74
     0
 42
0.000000001
 43
0.00000001
 40
0.4218750000000014
 40
0.4218750000000014
 40
0.4218750000000014
 40
0.4218750000000014
 40
0.4375000000000014
 40
0.4375000000000014
 40
0.4375000000000014
 40
0.4375000000000014
 10
55.24639234496311
 20
18.60022234587163
 30
0.0
 10
55.38043070596569
 20
18.65514421290531
 30
0.0
 10
55.50192330066424
 20
18.70611760611223
 30
0.0
 10
55.61097111045117
 20
18.75255674879991
 30
0.0
  0
SPLINE
  5
24F
330
1F
100
AcDbEntity
  8
SK3
  6
SLD-Dashed
370
    18
100
AcDbSpline
210
0.0
220
0.0
230
1.0
 70
     8
 71
     3
 72
     8
 73
     4
 74
     0
 42
0.000000001
 43
0.00000001
 40
0.4375000000000014
 40
0.4375000000000014
 40
0.4375000000000014
 40
0.4375000000000014
 40
0.4687500000000014
 40
0.4687500000000014
 40
0.4687500000000014
 40
0.4687500000000014
 10
55.61097111045117
 20
18.75255674879991
 30
0.0
 10
55.82906673002501
 20
18.84543503417527
 30
0.0
 10
55.99807929644
 20
18.92037330247363
 30
0.0
 10
56.11309727062653
 20
18.97183294559642
 30
0.0
  0
SPLINE
  5
250
330
1F
100
AcDbEntity
  8
SK3
  6
SLD-Dashed
370
    18
100
AcDbSpline
210
0.0
220
0.0
230
1.0
 70
     8
 71
     3
 72
     8
 73
     4
 74
     0
 42
0.000000001
 43
0.00000001
 40
0.4687500000000014
 40
0.4687500000000014
 40
0.4687500000000014
 40
0.4687500000000014
 40
0.5000000000000014
 40
0.5000000000000014
 40
0.5000000000000014
 40
0.5000000000000014
 10
56.11309727062653
 20
18.97183294559642
 30
0.0
 10
56.22811524481304
 20
19.02329258871922
 30
0.0
 10
56.28530239328254
 20
19.04950095551571
 30
0.0
 10
56.2863845043284
 20
19.04999295463963
 30
0.0
  0
SPLINE
  5
251
330
1F
100
AcDbEntity
  8
SK3
  6
SLD-Dashed
370
    18
100
AcDbSpline
210
0.0
220
0.0
230
1.0
 70
     8
 71
     3
 72
     8
 73
     4
 74
     0
 42
0.000000001
 43
0.00000001
 40
0.5156250000000014
 40
0.5156250000000014
 40
0.5156250000000014
 40
0.5156250000000014
 40
0.5312500000000013
 40
0.5312500000000013
 40
0.5312500000000013
 40
0.5312500000000013
 10
56.24519196205631
 20
19.03129946962898
 30
0.0
 10
56.21704813730131
 20
19.01855177616108
 30
0.0
 10
56.17425913430253
 20
18.99920938428516
 30
0.0
 10
56.11807093276343
 20
18.97405870943144
 30
0.0
  0
SPLINE
  5
252
330
1F
100
AcDbEntity
  8
SK3
  6
SLD-Dashed
370
    18
100
AcDbSpline
210
0.0
220
0.0
230
1.0
 70
     8
 71
     3
 72
     8
 73
     4
 74
     0
 42
0.000000001
 43
0.00000001
 40
0.5312500000000013
 40
0.5312500000000013
 40
0.5312500000000013
 40
0.5312500000000013
 40
0.5625000000000014
 40
0.5625000000000014
 40
0.5625000000000014
 40
0.5625000000000014
 10
56.11807093276343
 20
18.97405870943144
 30
0.0
 10
56.00569452968522
 20
18.92375735972402
 30
0.0
 10
55.83957921913406
 20
18.85000389191061
 30
0.0
 10
55.62038700329007
 20
18.75656853937787
 30
0.0
  0
SPLINE
  5
253
330
1F
100
AcDbEntity
  8
SK3
  6
SLD-Dashed
370
    18
100
AcDbSpline
210
0.0
220
0.0
230
1.0
 70
     8
 71
     3
 72
     8
 73
     4
 74
     0
 42
0.000000001
 43
0.00000001
 40
0.5625000000000014
 40
0.5625000000000014
 40
0.5625000000000014
 40
0.5625000000000014
 40
0.5781250000000014
 40
0.5781250000000014
 40
0.5781250000000014
 40
0.5781250000000014
 10
55.62038700329007
 20
18.75656853937787
 30
0.0
 10
55.5107908953681
 20
18.70985086311151
 30
0.0
 10
55.38762280770372
 20
18.65813678035864
 30
0.0
 10
55.25380977163626
 20
18.60326284746343
 30
0.0
  0
SPLINE
  5
254
330
1F
100
AcDbEntity
  8
SK3
  6
SLD-Dashed
370
    18
100
AcDbSpline
210
0.0
220
0.0
230
1.0
 70
     8
 71
     3
 72
     8
 73
     4
 74
     0
 42
0.000000001
 43
0.00000001
 40
0.5781250000000014
 40
0.5781250000000014
 40
0.5781250000000014
 40
0.5781250000000014
 40
0.5937500000000016
 40
0.5937500000000016
 40
0.5937500000000016
 40
0.5937500000000016
 10
55.25380977163626
 20
18.60326284746343
 30
0.0
 10
55.11999673556882
 20
18.54838891456823
 30
0.0
 10
54.97497611782003
 20
18.49010997257656
 30
0.0
 10
54.81895929738263
 20
18.42920780751029
 30
0.0
  0
SPLINE
  5
255
330
1F
100
AcDbEntity
  8
SK3
  6
SLD-Dashed
370
    18
100
AcDbSpline
210
0.0
220
0.0
230
1.0
 70
     8
 71
     3
 72
     8
 73
     4
 74
     0
 42
0.000000001
 43
0.00000001
 40
0.5937500000000016
 40
0.5937500000000016
 40
0.5937500000000016
 40
0.5937500000000016
 40
0.6093750000000017
 40
0.6093750000000017
 40
0.6093750000000017
 40
0.6093750000000017
 10
54.81895929738263
 20
18.42920780751029
 30
0.0
 10
54.66294247694527
 20
18.36830564244402
 30
0.0
 10
54.4959291854198
 20
18.30477658746339
 30
0.0
 10
54.3177537525117
 20
18.23939699748211
 30
0.0
  0
SPLINE
  5
256
330
1F
100
AcDbEntity
  8
SK3
  6
SLD-Dashed
370
    18
100
AcDbSpline
210
0.0
220
0.0
230
1.0
 70
     8
 71
     3
 72
     8
 73
     4
 74
     0
 42
0.000000001
 43
0.00000001
 40
0.6093750000000017
 40
0.6093750000000017
 40
0.6093750000000017
 40
0.6093750000000017
 40
0.6250000000000017
 40
0.6250000000000017
 40
0.6250000000000017
 40
0.6250000000000017
 10
54.3177537525117
 20
18.23939699748211
 30
0.0
 10
54.1395783196036
 20
18.17401740750083
 30
0.0
 10
53.94933394225192
 20
18.10649370168376
 30
0.0
 10
53.751182393363
 20
18.03920066845399
 30
0.0
  0
SPLINE
  5
257
330
1F
100
AcDbEntity
  8
SK3
  6
SLD-Dashed
370
    18
100
AcDbSpline
210
0.0
220
0.0
230
1.0
 70
     8
 71
     3
 72
     8
 73
     4
 74
     0
 42
0.000000001
 43
0.00000001
 40
0.6250000000000017
 40
0.6250000000000017
 40
0.6250000000000017
 40
0.6250000000000017
 40
0.6562500000000016
 40
0.6562500000000016
 40
0.6562500000000016
 40
0.6562500000000016
 10
53.751182393363
 20
18.03920066845399
 30
0.0
 10
53.35487929558512
 20
17.90461460199443
 30
0.0
 10
52.92518804496076
 20
17.77006914227396
 30
0.0
 10
52.46099464342215
 20
17.64283124192962
 30
0.0
  0
SPLINE
  5
258
330
1F
100
AcDbEntity
  8
SK3
  6
SLD-Dashed
370
    18
100
AcDbSpline
210
0.0
220
0.0
230
1.0
 70
     8
 71
     3
 72
     8
 73
     4
 74
     0
 42
0.000000001
 43
0.00000001
 40
0.6562500000000016
 40
0.6562500000000016
 40
0.6562500000000016
 40
0.6562500000000016
 40
0.6875000000000013
 40
0.6875000000000013
 40
0.6875000000000013
 40
0.6875000000000013
 10
52.46099464342215
 20
17.64283124192962
 30
0.0
 10
51.99680124188354
 20
17.51559334158528
 30
0.0
 10
51.49292313748173
 20
17.39491936356135
 30
0.0
 10
50.97292994698648
 20
17.29425583741401
 30
0.0
  0
SPLINE
  5
259
330
1F
100
AcDbEntity
  8
SK3
  6
SLD-Dashed
370
    18
100
AcDbSpline
210
0.0
220
0.0
230
1.0
 70
     8
 71
     3
 72
     8
 73
     4
 74
     0
 42
0.000000001
 43
0.00000001
 40
0.6875000000000013
 40
0.6875000000000013
 40
0.6875000000000013
 40
0.6875000000000013
 40
0.7187500000000012
 40
0.7187500000000012
 40
0.7187500000000012
 40
0.7187500000000012
 10
50.97292994698648
 20
17.29425583741401
 30
0.0
 10
50.45293675649125
 20
17.19359231126669
 30
0.0
 10
49.91321222942217
 20
17.11160006761216
 30
0.0
 10
49.35201902474913
 20
17.0547719055942
 30
0.0
  0
SPLINE
  5
25A
330
1F
100
AcDbEntity
  8
SK3
  6
SLD-Dashed
370
    18
100
AcDbSpline
210
0.0
220
0.0
230
1.0
 70
     8
 71
     3
 72
     8
 73
     4
 74
     0
 42
0.000000001
 43
0.00000001
 40
0.7187500000000012
 40
0.7187500000000012
 40
0.7187500000000012
 40
0.7187500000000012
 40
0.7343750000000011
 40
0.7343750000000011
 40
0.7343750000000011
 40
0.7343750000000011
 10
49.35201902474913
 20
17.0547719055942
 30
0.0
 10
49.0714224224126
 20
17.02635782458522
 30
0.0
 10
48.78358027735231
 20
17.00420741311217
 30
0.0
 10
48.49704081535435
 20
16.98949985207462
 30
0.0
  0
SPLINE
  5
25B
330
1F
100
AcDbEntity
  8
SK3
  6
SLD-Dashed
370
    18
100
AcDbSpline
210
0.0
220
0.0
230
1.0
 70
     8
 71
     3
 72
     8
 73
     4
 74
     0
 42
0.000000001
 43
0.00000001
 40
0.7343750000000011
 40
0.7343750000000011
 40
0.7343750000000011
 40
0.7343750000000011
 40
0.7500000000000011
 40
0.7500000000000011
 40
0.7500000000000011
 40
0.7500000000000011
 10
48.49704081535435
 20
16.98949985207462
 30
0.0
 10
48.21050135335632
 20
16.97479229103707
 30
0.0
 10
47.9242639839803
 20
16.96733470575586
 30
0.0
 10
47.63832342131725
 20
16.96711017096179
 30
0.0
  0
SPLINE
  5
25C
330
1F
100
AcDbEntity
  8
SK3
  6
SLD-Dashed
370
    18
100
AcDbSpline
210
0.0
220
0.0
230
1.0
 70
     8
 71
     3
 72
     8
 73
     4
 74
     0
 42
0.000000001
 43
0.00000001
 40
0.7500000000000011
 40
0.7500000000000011
 40
0.7500000000000011
 40
0.7500000000000011
 40
0.7656250000000011
 40
0.7656250000000011
 40
0.7656250000000011
 40
0.7656250000000011
 10
47.63832342131725
 20
16.96711017096179
 30
0.0
 10
47.35238285865419
 20
16.96688563616774
 30
0.0
 10
47.06673911757213
 20
16.97389418843949
 30
0.0
 10
46.78139350435755
 20
16.98806410276019
 30
0.0
  0
SPLINE
  5
25D
330
1F
100
AcDbEntity
  8
SK3
  6
SLD-Dashed
370
    18
100
AcDbSpline
210
0.0
220
0.0
230
1.0
 70
     8
 71
     3
 72
     8
 73
     4
 74
     0
 42
0.000000001
 43
0.00000001
 40
0.7656250000000011
 40
0.7656250000000011
 40
0.7656250000000011
 40
0.7656250000000011
 40
0.781250000000001
 40
0.781250000000001
 40
0.781250000000001
 40
0.781250000000001
 10
46.78139350435755
 20
16.98806410276019
 30
0.0
 10
46.49604789114296
 20
17.00223401708092
 30
0.0
 10
46.20953861178386
 20
17.02372053662373
 30
0.0
 10
45.92685041624512
 20
17.05187268451201
 30
0.0
  0
SPLINE
  5
25E
330
1F
100
AcDbEntity
  8
SK3
  6
SLD-Dashed
370
    18
100
AcDbSpline
210
0.0
220
0.0
230
1.0
 70
     8
 71
     3
 72
     8
 73
     4
 74
     0
 42
0.000000001
 43
0.00000001
 40
0.781250000000001
 40
0.781250000000001
 40
0.781250000000001
 40
0.781250000000001
 40
0.8125000000000009
 40
0.8125000000000009
 40
0.8125000000000009
 40
0.8125000000000009
 10
45.92685041624512
 20
17.05187268451201
 30
0.0
 10
45.36147402516767
 20
17.10817698028857
 30
0.0
 10
44.81838321246475
 20
17.1900147045956
 30
0.0
 10
44.29562666901258
 20
17.29067311636797
 30
0.0
  0
SPLINE
  5
25F
330
1F
100
AcDbEntity
  8
SK3
  6
SLD-Dashed
370
    18
100
AcDbSpline
210
0.0
220
0.0
230
1.0
 70
     8
 71
     3
 72
     8
 73
     4
 74
     0
 42
0.000000001
 43
0.00000001
 40
0.8125000000000009
 40
0.8125000000000009
 40
0.8125000000000009
 40
0.8125000000000009
 40
0.8437500000000007
 40
0.8437500000000007
 40
0.8437500000000007
 40
0.8437500000000007
 10
44.29562666901258
 20
17.29067311636797
 30
0.0
 10
43.7728701255604
 20
17.39133152814033
 30
0.0
 10
43.2689042458395
 20
17.51165395745644
 30
0.0
 10
42.80375883314706
 20
17.63879294138227
 30
0.0
  0
SPLINE
  5
260
330
1F
100
AcDbEntity
  8
SK3
  6
SLD-Dashed
370
    18
100
AcDbSpline
210
0.0
220
0.0
230
1.0
 70
     8
 71
     3
 72
     8
 73
     4
 74
     0
 42
0.000000001
 43
0.00000001
 40
0.8437500000000007
 40
0.8437500000000007
 40
0.8437500000000007
 40
0.8437500000000007
 40
0.8750000000000004
 40
0.8750000000000004
 40
0.8750000000000004
 40
0.8750000000000004
 10
42.80375883314706
 20
17.63879294138227
 30
0.0
 10
42.33861342045466
 20
17.7659319253081
 30
0.0
 10
41.90674866808862
 20
17.90083866201909
 30
0.0
 10
41.50755472686211
 20
18.03623538075052
 30
0.0
  0
SPLINE
  5
261
330
1F
100
AcDbEntity
  8
SK3
  6
SLD-Dashed
370
    18
100
AcDbSpline
210
0.0
220
0.0
230
1.0
 70
     8
 71
     3
 72
     8
 73
     4
 74
     0
 42
0.000000001
 43
0.00000001
 40
0.8750000000000004
 40
0.8750000000000004
 40
0.8750000000000004
 40
0.8750000000000004
 40
0.9062500000000003
 40
0.9062500000000003
 40
0.9062500000000003
 40
0.9062500000000003
 10
41.50755472686211
 20
18.03623538075052
 30
0.0
 10
41.10836078563564
 20
18.17163209948195
 30
0.0
 10
40.75268074164935
 20
18.30379005170118
 30
0.0
 10
40.44040086039101
 20
18.42555602517521
 30
0.0
  0
SPLINE
  5
262
330
1F
100
AcDbEntity
  8
SK3
  6
SLD-Dashed
370
    18
100
AcDbSpline
210
0.0
220
0.0
230
1.0
 70
     8
 71
     3
 72
     8
 73
     4
 74
     0
 42
0.000000001
 43
0.00000001
 40
0.9062500000000003
 40
0.9062500000000003
 40
0.9062500000000003
 40
0.9062500000000003
 40
0.9218750000000003
 40
0.9218750000000003
 40
0.9218750000000003
 40
0.9218750000000003
 10
40.44040086039101
 20
18.42555602517521
 30
0.0
 10
40.28426091976183
 20
18.48643901191224
 30
0.0
 10
40.13888745697451
 20
18.54479752265325
 30
0.0
 10
40.00455626666786
 20
18.59983367487143
 30
0.0
  0
SPLINE
  5
263
330
1F
100
AcDbEntity
  8
SK3
  6
SLD-Dashed
370
    18
100
AcDbSpline
210
0.0
220
0.0
230
1.0
 70
     8
 71
     3
 72
     8
 73
     4
 74
     0
 42
0.000000001
 43
0.00000001
 40
0.9218750000000003
 40
0.9218750000000003
 40
0.9218750000000003
 40
0.9218750000000003
 40
0.9375000000000002
 40
0.9375000000000002
 40
0.9375000000000002
 40
0.9375000000000002
 10
40.00455626666786
 20
18.59983367487143
 30
0.0
 10
39.87022507636124
 20
18.6548698270896
 30
0.0
 10
39.7463558987745
 20
18.70683780378433
 30
0.0
 10
39.63636747946049
 20
18.75369029253233
 30
0.0
  0
SPLINE
  5
264
330
1F
100
AcDbEntity
  8
SK3
  6
SLD-Dashed
370
    18
100
AcDbSpline
210
0.0
220
0.0
230
1.0
 70
     8
 71
     3
 72
     8
 73
     4
 74
     0
 42
0.000000001
 43
0.00000001
 40
0.9375000000000002
 40
0.9375000000000002
 40
0.9375000000000002
 40
0.9375000000000002
 40
0.9687500000000002
 40
0.9687500000000002
 40
0.9687500000000002
 40
0.9687500000000002
 10
39.63636747946049
 20
18.75369029253233
 30
0.0
 10
39.41639064083248
 20
18.84739527002834
 30
0.0
 10
39.24965365095954
 20
18.92138485329507
 30
0.0
 10
39.13632768174659
 20
18.97209023188224
 30
0.0
  0
SPLINE
  5
265
330
1F
100
AcDbEntity
  8
SK3
  6
SLD-Dashed
370
    18
100
AcDbSpline
210
0.0
220
0.0
230
1.0
 70
     8
 71
     2
 72
     6
 73
     3
 74
     0
 42
0.000000001
 43
0.00000001
 40
0.9687500000000002
 40
0.9687500000000002
 40
0.9687500000000002
 40
1.0
 40
1.0
 40
1.0
 10
39.13632768174659
 20
18.97209023188224
 30
0.0
 10
39.02300171253361
 20
19.02279561046938
 30
0.0
 10
38.9636
 20
19.04999999999999
 30
0.0
  0
SPLINE
  5
266
330
1F
100
AcDbEntity
  8
SK3
  6
SLD-Dashed
370
    18
100
AcDbSpline
210
0.0
220
0.0
230
1.0
 70
     8
 71
     2
 72
     6
 73
     3
 74
     0
 42
0.000000001
 43
0.00000001
 40
0.0
 40
0.0
 40
0.0
 40
0.03125
 40
0.03125
 40
0.03125
 10
64.36359999999998
 20
19.04999999999999
 30
0.0
 10
64.42136553566503
 20
19.02353960829366
 30
0.0
 10
64.5338401881725
 20
18.97320334023737
 30
0.0
  0
SPLINE
  5
267
330
1F
100
AcDbEntity
  8
SK3
  6
SLD-Dashed
370
    18
100
AcDbSpline
210
0.0
220
0.0
230
1.0
 70
     8
 71
     3
 72
     8
 73
     4
 74
     0
 42
0.000000001
 43
0.00000001
 40
0.03125
 40
0.03125
 40
0.03125
 40
0.03125
 40
0.0468750000000001
 40
0.0468750000000001
 40
0.0468750000000001
 40
0.0468750000000001
 10
64.5338401881725
 20
18.97320334023737
 30
0.0
 10
64.59007751442626
 20
18.94803520620921
 30
0.0
 10
64.66010026063539
 20
18.9168837472801
 30
0.0
 10
64.74416188921404
 20
18.88001403222584
 30
0.0
  0
SPLINE
  5
268
330
1F
100
AcDbEntity
  8
SK3
  6
SLD-Dashed
370
    18
100
AcDbSpline
210
0.0
220
0.0
230
1.0
 70
     8
 71
     3
 72
     8
 73
     4
 74
     0
 42
0.000000001
 43
0.00000001
 40
0.0468750000000001
 40
0.0468750000000001
 40
0.0468750000000001
 40
0.0468750000000001
 40
0.0625000000000001
 40
0.0625000000000001
 40
0.0625000000000001
 40
0.0625000000000001
 10
64.74416188921404
 20
18.88001403222584
 30
0.0
 10
64.82822351779271
 20
18.84314431717156
 30
0.0
 10
64.92603378540441
 20
18.80069406193861
 30
0.0
 10
65.03549148143338
 20
18.75406346390691
 30
0.0
  0
SPLINE
  5
269
330
1F
100
AcDbEntity
  8
SK3
  6
SLD-Dashed
370
    18
100
AcDbSpline
210
0.0
220
0.0
230
1.0
 70
     8
 71
     3
 72
     8
 73
     4
 74
     0
 42
0.000000001
 43
0.00000001
 40
0.0625000000000001
 40
0.0625000000000001
 40
0.0625000000000001
 40
0.0625000000000001
 40
0.0937500000000001
 40
0.0937500000000001
 40
0.0937500000000001
 40
0.0937500000000001
 10
65.03549148143338
 20
18.75406346390691
 30
0.0
 10
65.25440687349136
 20
18.66080226784351
 30
0.0
 10
65.52117668234519
 20
18.55010250540006
 30
0.0
 10
65.83540925877521
 20
18.42750295255181
 30
0.0
  0
SPLINE
  5
26A
330
1F
100
AcDbEntity
  8
SK3
  6
SLD-Dashed
370
    18
100
AcDbSpline
210
0.0
220
0.0
230
1.0
 70
     8
 71
     3
 72
     8
 73
     4
 74
     0
 42
0.000000001
 43
0.00000001
 40
0.0937500000000001
 40
0.0937500000000001
 40
0.0937500000000001
 40
0.0937500000000001
 40
0.109375
 40
0.109375
 40
0.109375
 40
0.109375
 10
65.83540925877521
 20
18.42750295255181
 30
0.0
 10
65.99252554699021
 20
18.36620317612767
 30
0.0
 10
66.16208282120213
 20
18.30177018921942
 30
0.0
 10
66.34028840979099
 20
18.23644754562342
 30
0.0
  0
SPLINE
  5
26B
330
1F
100
AcDbEntity
  8
SK3
  6
SLD-Dashed
370
    18
100
AcDbSpline
210
0.0
220
0.0
230
1.0
 70
     8
 71
     3
 72
     8
 73
     4
 74
     0
 42
0.000000001
 43
0.00000001
 40
0.109375
 40
0.109375
 40
0.109375
 40
0.109375
 40
0.1249999999999998
 40
0.1249999999999998
 40
0.1249999999999998
 40
0.1249999999999998
 10
66.34028840979099
 20
18.23644754562342
 30
0.0
 10
66.51849399837985
 20
18.1711249020274
 30
0.0
 10
66.70607444504682
 20
18.10461727237688
 30
0.0
 10
66.90297439476221
 20
18.03778943083623
 30
0.0
  0
SPLINE
  5
26C
330
1F
100
AcDbEntity
  8
SK3
  6
SLD-Dashed
370
    18
100
AcDbSpline
210
0.0
220
0.0
230
1.0
 70
     8
 71
     3
 72
     8
 73
     4
 74
     0
 42
0.000000001
 43
0.00000001
 40
0.1249999999999998
 40
0.1249999999999998
 40
0.1249999999999998
 40
0.1249999999999998
 40
0.1406249999999997
 40
0.1406249999999997
 40
0.1406249999999997
 40
0.1406249999999997
 10
66.90297439476221
 20
18.03778943083623
 30
0.0
 10
67.09987434447754
 20
17.97096158929558
 30
0.0
 10
67.3060933473082
 20
17.90380972663979
 30
0.0
 10
67.52190260405257
 20
17.83722879231198
 30
0.0
  0
SPLINE
  5
26D
330
1F
100
AcDbEntity
  8
SK3
  6
SLD-Dashed
370
    18
100
AcDbSpline
210
0.0
220
0.0
230
1.0
 70
     8
 71
     3
 72
     8
 73
     4
 74
     0
 42
0.000000001
 43
0.00000001
 40
0.1406249999999997
 40
0.1406249999999997
 40
0.1406249999999997
 40
0.1406249999999997
 40
0.1562499999999995
 40
0.1562499999999995
 40
0.1562499999999995
 40
0.1562499999999995
 10
67.52190260405257
 20
17.83722879231198
 30
0.0
 10
67.73771186079686
 20
17.77064785798418
 30
0.0
 10
67.96425631773413
 20
17.70432626075247
 30
0.0
 10
68.1981453366513
 20
17.64032811432632
 30
0.0
  0
SPLINE
  5
26E
330
1F
100
AcDbEntity
  8
SK3
  6
SLD-Dashed
370
    18
100
AcDbSpline
210
0.0
220
0.0
230
1.0
 70
     8
 71
     3
 72
     8
 73
     4
 74
     0
 42
0.000000001
 43
0.00000001
 40
0.1562499999999995
 40
0.1562499999999995
 40
0.1562499999999995
 40
0.1562499999999995
 40
0.1874999999999993
 40
0.1874999999999993
 40
0.1874999999999993
 40
0.1874999999999993
 10
68.1981453366513
 20
17.64032811432632
 30
0.0
 10
68.66592337448547
 20
17.512331821474
 30
0.0
 10
69.15866240437009
 20
17.39460228213792
 30
0.0
 10
69.67742145737517
 20
17.29418781380156
 30
0.0
  0
SPLINE
  5
26F
330
1F
100
AcDbEntity
  8
SK3
  6
SLD-Dashed
370
    18
100
AcDbSpline
210
0.0
220
0.0
230
1.0
 70
     8
 71
     3
 72
     8
 73
     4
 74
     0
 42
0.000000001
 43
0.00000001
 40
0.1874999999999993
 40
0.1874999999999993
 40
0.1874999999999993
 40
0.1874999999999993
 40
0.2031249999999991
 40
0.2031249999999991
 40
0.2031249999999991
 40
0.2031249999999991
 10
69.67742145737517
 20
17.29418781380156
 30
0.0
 10
69.93680098387767
 20
17.24398057963337
 30
0.0
 10
70.20273317213677
 20
17.19811015856059
 30
0.0
 10
70.47566471020801
 20
17.15755694904664
 30
0.0
  0
SPLINE
  5
270
330
1F
100
AcDbEntity
  8
SK3
  6
SLD-Dashed
370
    18
100
AcDbSpline
210
0.0
220
0.0
230
1.0
 70
     8
 71
     3
 72
     8
 73
     4
 74
     0
 42
0.000000001
 43
0.00000001
 40
0.2031249999999991
 40
0.2031249999999991
 40
0.2031249999999991
 40
0.2031249999999991
 40
0.218749999999999
 40
0.218749999999999
 40
0.218749999999999
 40
0.218749999999999
 10
70.47566471020801
 20
17.15755694904664
 30
0.0
 10
70.74859624827924
 20
17.1170037395327
 30
0.0
 10
71.02889248759953
 20
17.08184392919267
 30
0.0
 10
71.30906735762473
 20
17.05365283079168
 30
0.0
  0
SPLINE
  5
271
330
1F
100
AcDbEntity
  8
SK3
  6
SLD-Dashed
370
    18
100
AcDbSpline
210
0.0
220
0.0
230
1.0
 70
     8
 71
     3
 72
     8
 73
     4
 74
     0
 42
0.000000001
 43
0.00000001
 40
0.218749999999999
 40
0.218749999999999
 40
0.218749999999999
 40
0.218749999999999
 40
0.2499999999999987
 40
0.2499999999999987
 40
0.2499999999999987
 40
0.2499999999999987
 10
71.30906735762473
 20
17.05365283079168
 30
0.0
 10
71.86941709767504
 20
16.99727063398967
 30
0.0
 10
72.4363880037368
 20
16.96761347835723
 30
0.0
 10
73.01015382989067
 20
16.96711143503119
 30
0.0
  0
SPLINE
  5
272
330
1F
100
AcDbEntity
  8
SK3
  6
SLD-Dashed
370
    18
100
AcDbSpline
210
0.0
220
0.0
230
1.0
 70
     8
 71
     3
 72
     8
 73
     4
 74
     0
 42
0.000000001
 43
0.00000001
 40
0.2499999999999987
 40
0.2499999999999987
 40
0.2499999999999987
 40
0.2499999999999987
 40
0.2656249999999982
 40
0.2656249999999982
 40
0.2656249999999982
 40
0.2656249999999982
 10
73.01015382989067
 20
16.96711143503119
 30
0.0
 10
73.2970367429676
 20
16.96686041336818
 30
0.0
 10
73.58746359804329
 20
16.97399871146753
 30
0.0
 10
73.87484794928918
 20
16.98837518943206
 30
0.0
  0
SPLINE
  5
273
330
1F
100
AcDbEntity
  8
SK3
  6
SLD-Dashed
370
    18
100
AcDbSpline
210
0.0
220
0.0
230
1.0
 70
     8
 71
     3
 72
     8
 73
     4
 74
     0
 42
0.000000001
 43
0.00000001
 40
0.2656249999999982
 40
0.2656249999999982
 40
0.2656249999999982
 40
0.2656249999999982
 40
0.2812499999999977
 40
0.2812499999999977
 40
0.2812499999999977
 40
0.2812499999999977
 10
73.87484794928918
 20
16.98837518943206
 30
0.0
 10
74.16223230053508
 20
17.0027516673966
 30
0.0
 10
74.44562920923366
 20
17.02420156751583
 30
0.0
 10
74.72522816331713
 20
17.05207981002132
 30
0.0
  0
SPLINE
  5
274
330
1F
100
AcDbEntity
  8
SK3
  6
SLD-Dashed
370
    18
100
AcDbSpline
210
0.0
220
0.0
230
1.0
 70
     8
 71
     3
 72
     8
 73
     4
 74
     0
 42
0.000000001
 43
0.00000001
 40
0.2812499999999977
 40
0.2812499999999977
 40
0.2812499999999977
 40
0.2812499999999977
 40
0.2968749999999971
 40
0.2968749999999971
 40
0.2968749999999971
 40
0.2968749999999971
 10
74.72522816331713
 20
17.05207981002132
 30
0.0
 10
75.0048271174006
 20
17.0799580525268
 30
0.0
 10
75.28062748114473
 20
17.11426536979615
 30
0.0
 10
75.55271878453166
 20
17.15435840518888
 30
0.0
  0
SPLINE
  5
275
330
1F
100
AcDbEntity
  8
SK3
  6
SLD-Dashed
370
    18
100
AcDbSpline
210
0.0
220
0.0
230
1.0
 70
     8
 71
     3
 72
     8
 73
     4
 74
     0
 42
0.000000001
 43
0.00000001
 40
0.2968749999999971
 40
0.2968749999999971
 40
0.2968749999999971
 40
0.2968749999999971
 40
0.3124999999999966
 40
0.3124999999999966
 40
0.3124999999999966
 40
0.3124999999999966
 10
75.55271878453166
 20
17.15435840518888
 30
0.0
 10
75.82481008791859
 20
17.19445144058161
 30
0.0
 10
76.09440571876212
 20
17.24057254855233
 30
0.0
 10
76.35732602735419
 20
17.29124191007059
 30
0.0
  0
SPLINE
  5
276
330
1F
100
AcDbEntity
  8
SK3
  6
SLD-Dashed
370
    18
100
AcDbSpline
210
0.0
220
0.0
230
1.0
 70
     8
 71
     3
 72
     8
 73
     4
 74
     0
 42
0.000000001
 43
0.00000001
 40
0.3124999999999966
 40
0.3124999999999966
 40
0.3124999999999966
 40
0.3124999999999966
 40
0.3437499999999963
 40
0.3437499999999963
 40
0.3437499999999963
 40
0.3437499999999963
 10
76.35732602735419
 20
17.29124191007059
 30
0.0
 10
76.88316664453835
 20
17.39258063310716
 30
0.0
 10
77.37748137820698
 20
17.51074286885356
 30
0.0
 10
77.84310627680861
 20
17.6379363343511
 30
0.0
  0
SPLINE
  5
277
330
1F
100
AcDbEntity
  8
SK3
  6
SLD-Dashed
370
    18
100
AcDbSpline
210
0.0
220
0.0
230
1.0
 70
     8
 71
     3
 72
     8
 73
     4
 74
     0
 42
0.000000001
 43
0.00000001
 40
0.3437499999999963
 40
0.3437499999999963
 40
0.3437499999999963
 40
0.3437499999999963
 40
0.3749999999999959
 40
0.3749999999999959
 40
0.3749999999999959
 40
0.3749999999999959
 10
77.84310627680861
 20
17.6379363343511
 30
0.0
 10
78.30873117541027
 20
17.76512979984864
 30
0.0
 10
78.74756139593504
 20
17.90230371028029
 30
0.0
 10
79.14228105766789
 20
18.03617968358328
 30
0.0
  0
SPLINE
  5
278
330
1F
100
AcDbEntity
  8
SK3
  6
SLD-Dashed
370
    18
100
AcDbSpline
210
0.0
220
0.0
230
1.0
 70
     8
 71
     3
 72
     8
 73
     4
 74
     0
 42
0.000000001
 43
0.00000001
 40
0.3749999999999959
 40
0.3749999999999959
 40
0.3749999999999959
 40
0.3749999999999959
 40
0.4062499999999956
 40
0.4062499999999956
 40
0.4062499999999956
 40
0.4062499999999956
 10
79.14228105766789
 20
18.03617968358328
 30
0.0
 10
79.53700071940072
 20
18.17005565688627
 30
0.0
 10
79.89211426913963
 20
18.30179457132577
 30
0.0
 10
80.20725824076179
 20
18.424643374486
 30
0.0
  0
SPLINE
  5
279
330
1F
100
AcDbEntity
  8
SK3
  6
SLD-Dashed
370
    18
100
AcDbSpline
210
0.0
220
0.0
230
1.0
 70
     8
 71
     3
 72
     8
 73
     4
 74
     0
 42
0.000000001
 43
0.00000001
 40
0.4062499999999956
 40
0.4062499999999956
 40
0.4062499999999956
 40
0.4062499999999956
 40
0.4218749999999954
 40
0.4218749999999954
 40
0.4218749999999954
 40
0.4218749999999954
 10
80.20725824076179
 20
18.424643374486
 30
0.0
 10
80.36483022657288
 20
18.48606777606613
 30
0.0
 10
80.51235398396052
 20
18.54530047883796
 30
0.0
 10
80.64639234496313
 20
18.60022234587163
 30
0.0
  0
SPLINE
  5
27A
330
1F
100
AcDbEntity
  8
SK3
  6
SLD-Dashed
370
    18
100
AcDbSpline
210
0.0
220
0.0
230
1.0
 70
     8
 71
     3
 72
     8
 73
     4
 74
     0
 42
0.000000001
 43
0.00000001
 40
0.4218749999999954
 40
0.4218749999999954
 40
0.4218749999999954
 40
0.4218749999999954
 40
0.4374999999999953
 40
0.4374999999999953
 40
0.4374999999999953
 40
0.4374999999999953
 10
80.64639234496313
 20
18.60022234587163
 30
0.0
 10
80.78043070596573
 20
18.65514421290532
 30
0.0
 10
80.90192330066427
 20
18.70611760611223
 30
0.0
 10
81.01097111045127
 20
18.75255674879991
 30
0.0
  0
SPLINE
  5
27B
330
1F
100
AcDbEntity
  8
SK3
  6
SLD-Dashed
370
    18
100
AcDbSpline
210
0.0
220
0.0
230
1.0
 70
     8
 71
     3
 72
     8
 73
     4
 74
     0
 42
0.000000001
 43
0.00000001
 40
0.4374999999999953
 40
0.4374999999999953
 40
0.4374999999999953
 40
0.4374999999999953
 40
0.4687499999999947
 40
0.4687499999999947
 40
0.4687499999999947
 40
0.4687499999999947
 10
81.01097111045127
 20
18.75255674879991
 30
0.0
 10
81.22906673002512
 20
18.84543503417529
 30
0.0
 10
81.39807929644003
 20
18.92037330247364
 30
0.0
 10
81.51309727062657
 20
18.97183294559642
 30
0.0
  0
SPLINE
  5
27C
330
1F
100
AcDbEntity
  8
SK3
  6
SLD-Dashed
370
    18
100
AcDbSpline
210
0.0
220
0.0
230
1.0
 70
     8
 71
     3
 72
     8
 73
     4
 74
     0
 42
0.000000001
 43
0.00000001
 40
0.4687499999999947
 40
0.4687499999999947
 40
0.4687499999999947
 40
0.4687499999999947
 40
0.4999999999999941
 40
0.4999999999999941
 40
0.4999999999999941
 40
0.4999999999999941
 10
81.51309727062657
 20
18.97183294559642
 30
0.0
 10
81.62811524481307
 20
19.02329258871922
 30
0.0
 10
81.68530239328254
 20
19.04950095551571
 30
0.0
 10
81.68638450432843
 20
19.04999295463963
 30
0.0
  0
SPLINE
  5
27D
330
1F
100
AcDbEntity
  8
SK3
  6
SLD-Dashed
370
    18
100
AcDbSpline
210
0.0
220
0.0
230
1.0
 70
     8
 71
     3
 72
     8
 73
     4
 74
     0
 42
0.000000001
 43
0.00000001
 40
0.5156249999999937
 40
0.5156249999999937
 40
0.5156249999999937
 40
0.5156249999999937
 40
0.5312499999999933
 40
0.5312499999999933
 40
0.5312499999999933
 40
0.5312499999999933
 10
81.64519196205629
 20
19.03129946962898
 30
0.0
 10
81.6170481373013
 20
19.01855177616108
 30
0.0
 10
81.57425913430251
 20
18.99920938428516
 30
0.0
 10
81.51807093276338
 20
18.97405870943144
 30
0.0
  0
SPLINE
  5
27E
330
1F
100
AcDbEntity
  8
SK3
  6
SLD-Dashed
370
    18
100
AcDbSpline
210
0.0
220
0.0
230
1.0
 70
     8
 71
     3
 72
     8
 73
     4
 74
     0
 42
0.000000001
 43
0.00000001
 40
0.5312499999999933
 40
0.5312499999999933
 40
0.5312499999999933
 40
0.5312499999999933
 40
0.5624999999999928
 40
0.5624999999999928
 40
0.5624999999999928
 40
0.5624999999999928
 10
81.51807093276338
 20
18.97405870943144
 30
0.0
 10
81.40569452968519
 20
18.92375735972402
 30
0.0
 10
81.23957921913399
 20
18.8500038919106
 30
0.0
 10
81.02038700329005
 20
18.75656853937787
 30
0.0
  0
SPLINE
  5
27F
330
1F
100
AcDbEntity
  8
SK3
  6
SLD-Dashed
370
    18
100
AcDbSpline
210
0.0
220
0.0
230
1.0
 70
     8
 71
     3
 72
     8
 73
     4
 74
     0
 42
0.000000001
 43
0.00000001
 40
0.5624999999999928
 40
0.5624999999999928
 40
0.5624999999999928
 40
0.5624999999999928
 40
0.5781249999999925
 40
0.5781249999999925
 40
0.5781249999999925
 40
0.5781249999999925
 10
81.02038700329005
 20
18.75656853937787
 30
0.0
 10
80.91079089536811
 20
18.70985086311152
 30
0.0
 10
80.7876228077037
 20
18.65813678035864
 30
0.0
 10
80.65380977163623
 20
18.60326284746343
 30
0.0
  0
SPLINE
  5
280
330
1F
100
AcDbEntity
  8
SK3
  6
SLD-Dashed
370
    18
100
AcDbSpline
210
0.0
220
0.0
230
1.0
 70
     8
 71
     3
 72
     8
 73
     4
 74
     0
 42
0.000000001
 43
0.00000001
 40
0.5781249999999925
 40
0.5781249999999925
 40
0.5781249999999925
 40
0.5781249999999925
 40
0.5937499999999921
 40
0.5937499999999921
 40
0.5937499999999921
 40
0.5937499999999921
 10
80.65380977163623
 20
18.60326284746343
 30
0.0
 10
80.51999673556877
 20
18.5483889145682
 30
0.0
 10
80.37497611782
 20
18.49010997257656
 30
0.0
 10
80.21895929738261
 20
18.42920780751029
 30
0.0
  0
SPLINE
  5
281
330
1F
100
AcDbEntity
  8
SK3
  6
SLD-Dashed
370
    18
100
AcDbSpline
210
0.0
220
0.0
230
1.0
 70
     8
 71
     3
 72
     8
 73
     4
 74
     0
 42
0.000000001
 43
0.00000001
 40
0.5937499999999921
 40
0.5937499999999921
 40
0.5937499999999921
 40
0.5937499999999921
 40
0.6093749999999919
 40
0.6093749999999919
 40
0.6093749999999919
 40
0.6093749999999919
 10
80.21895929738261
 20
18.42920780751029
 30
0.0
 10
80.06294247694524
 20
18.36830564244402
 30
0.0
 10
79.8959291854198
 20
18.30477658746337
 30
0.0
 10
79.71775375251171
 20
18.2393969974821
 30
0.0
  0
SPLINE
  5
282
330
1F
100
AcDbEntity
  8
SK3
  6
SLD-Dashed
370
    18
100
AcDbSpline
210
0.0
220
0.0
230
1.0
 70
     8
 71
     3
 72
     8
 73
     4
 74
     0
 42
0.000000001
 43
0.00000001
 40
0.6093749999999919
 40
0.6093749999999919
 40
0.6093749999999919
 40
0.6093749999999919
 40
0.6249999999999916
 40
0.6249999999999916
 40
0.6249999999999916
 40
0.6249999999999916
 10
79.71775375251171
 20
18.2393969974821
 30
0.0
 10
79.53957831960358
 20
18.17401740750083
 30
0.0
 10
79.34933394225187
 20
18.10649370168375
 30
0.0
 10
79.15118239336293
 20
18.03920066845397
 30
0.0
  0
SPLINE
  5
283
330
1F
100
AcDbEntity
  8
SK3
  6
SLD-Dashed
370
    18
100
AcDbSpline
210
0.0
220
0.0
230
1.0
 70
     8
 71
     3
 72
     8
 73
     4
 74
     0
 42
0.000000001
 43
0.00000001
 40
0.6249999999999916
 40
0.6249999999999916
 40
0.6249999999999916
 40
0.6249999999999916
 40
0.6562499999999913
 40
0.6562499999999913
 40
0.6562499999999913
 40
0.6562499999999913
 10
79.15118239336293
 20
18.03920066845397
 30
0.0
 10
78.75487929558507
 20
17.90461460199442
 30
0.0
 10
78.32518804496081
 20
17.77006914227398
 30
0.0
 10
77.86099464342217
 20
17.64283124192962
 30
0.0
  0
SPLINE
  5
284
330
1F
100
AcDbEntity
  8
SK3
  6
SLD-Dashed
370
    18
100
AcDbSpline
210
0.0
220
0.0
230
1.0
 70
     8
 71
     3
 72
     8
 73
     4
 74
     0
 42
0.000000001
 43
0.00000001
 40
0.6562499999999913
 40
0.6562499999999913
 40
0.6562499999999913
 40
0.6562499999999913
 40
0.6874999999999912
 40
0.6874999999999912
 40
0.6874999999999912
 40
0.6874999999999912
 10
77.86099464342217
 20
17.64283124192962
 30
0.0
 10
77.39680124188354
 20
17.51559334158528
 30
0.0
 10
76.89292313748176
 20
17.39491936356134
 30
0.0
 10
76.3729299469865
 20
17.294255837414
 30
0.0
  0
SPLINE
  5
285
330
1F
100
AcDbEntity
  8
SK3
  6
SLD-Dashed
370
    18
100
AcDbSpline
210
0.0
220
0.0
230
1.0
 70
     8
 71
     3
 72
     8
 73
     4
 74
     0
 42
0.000000001
 43
0.00000001
 40
0.6874999999999912
 40
0.6874999999999912
 40
0.6874999999999912
 40
0.6874999999999912
 40
0.718749999999991
 40
0.718749999999991
 40
0.718749999999991
 40
0.718749999999991
 10
76.3729299469865
 20
17.294255837414
 30
0.0
 10
75.85293675649123
 20
17.19359231126668
 30
0.0
 10
75.31321222942218
 20
17.11160006761215
 30
0.0
 10
74.7520190247491
 20
17.05477190559419
 30
0.0
  0
SPLINE
  5
286
330
1F
100
AcDbEntity
  8
SK3
  6
SLD-Dashed
370
    18
100
AcDbSpline
210
0.0
220
0.0
230
1.0
 70
     8
 71
     3
 72
     8
 73
     4
 74
     0
 42
0.000000001
 43
0.00000001
 40
0.718749999999991
 40
0.718749999999991
 40
0.718749999999991
 40
0.718749999999991
 40
0.7343749999999912
 40
0.7343749999999912
 40
0.7343749999999912
 40
0.7343749999999912
 10
74.7520190247491
 20
17.05477190559419
 30
0.0
 10
74.4714224224126
 20
17.02635782458522
 30
0.0
 10
74.18358027735235
 20
17.00420741311217
 30
0.0
 10
73.89704081535434
 20
16.98949985207462
 30
0.0
  0
SPLINE
  5
287
330
1F
100
AcDbEntity
  8
SK3
  6
SLD-Dashed
370
    18
100
AcDbSpline
210
0.0
220
0.0
230
1.0
 70
     8
 71
     3
 72
     8
 73
     4
 74
     0
 42
0.000000001
 43
0.00000001
 40
0.7343749999999912
 40
0.7343749999999912
 40
0.7343749999999912
 40
0.7343749999999912
 40
0.7499999999999915
 40
0.7499999999999915
 40
0.7499999999999915
 40
0.7499999999999915
 10
73.89704081535434
 20
16.98949985207462
 30
0.0
 10
73.61050135335633
 20
16.97479229103707
 30
0.0
 10
73.32426398398033
 20
16.96733470575586
 30
0.0
 10
73.03832342131726
 20
16.9671101709618
 30
0.0
  0
SPLINE
  5
288
330
1F
100
AcDbEntity
  8
SK3
  6
SLD-Dashed
370
    18
100
AcDbSpline
210
0.0
220
0.0
230
1.0
 70
     8
 71
     3
 72
     8
 73
     4
 74
     0
 42
0.000000001
 43
0.00000001
 40
0.7499999999999915
 40
0.7499999999999915
 40
0.7499999999999915
 40
0.7499999999999915
 40
0.7656249999999918
 40
0.7656249999999918
 40
0.7656249999999918
 40
0.7656249999999918
 10
73.03832342131726
 20
16.9671101709618
 30
0.0
 10
72.75238285865419
 20
16.96688563616775
 30
0.0
 10
72.46673911757213
 20
16.97389418843948
 30
0.0
 10
72.18139350435756
 20
16.98806410276019
 30
0.0
  0
SPLINE
  5
289
330
1F
100
AcDbEntity
  8
SK3
  6
SLD-Dashed
370
    18
100
AcDbSpline
210
0.0
220
0.0
230
1.0
 70
     8
 71
     3
 72
     8
 73
     4
 74
     0
 42
0.000000001
 43
0.00000001
 40
0.7656249999999918
 40
0.7656249999999918
 40
0.7656249999999918
 40
0.7656249999999918
 40
0.781249999999992
 40
0.781249999999992
 40
0.781249999999992
 40
0.781249999999992
 10
72.18139350435756
 20
16.98806410276019
 30
0.0
 10
71.89604789114297
 20
17.00223401708092
 30
0.0
 10
71.60953861178383
 20
17.02372053662373
 30
0.0
 10
71.32685041624508
 20
17.05187268451199
 30
0.0
  0
SPLINE
  5
28A
330
1F
100
AcDbEntity
  8
SK3
  6
SLD-Dashed
370
    18
100
AcDbSpline
210
0.0
220
0.0
230
1.0
 70
     8
 71
     3
 72
     8
 73
     4
 74
     0
 42
0.000000001
 43
0.00000001
 40
0.781249999999992
 40
0.781249999999992
 40
0.781249999999992
 40
0.781249999999992
 40
0.8124999999999932
 40
0.8124999999999932
 40
0.8124999999999932
 40
0.8124999999999932
 10
71.3268504162451
 20
17.05187268451199
 30
0.0
 10
70.76147402516763
 20
17.10817698028851
 30
0.0
 10
70.21838321246472
 20
17.19001470459549
 30
0.0
 10
69.69562666901258
 20
17.2906731163678
 30
0.0
  0
SPLINE
  5
28B
330
1F
100
AcDbEntity
  8
SK3
  6
SLD-Dashed
370
    18
100
AcDbSpline
210
0.0
220
0.0
230
1.0
 70
     8
 71
     3
 72
     8
 73
     4
 74
     0
 42
0.000000001
 43
0.00000001
 40
0.8124999999999932
 40
0.8124999999999932
 40
0.8124999999999932
 40
0.8124999999999932
 40
0.8437499999999946
 40
0.8437499999999946
 40
0.8437499999999946
 40
0.8437499999999946
 10
69.69562666901257
 20
17.2906731163678
 30
0.0
 10
69.1728701255604
 20
17.39133152814021
 30
0.0
 10
68.66890424583951
 20
17.51165395745639
 30
0.0
 10
68.20375883314709
 20
17.63879294138227
 30
0.0
  0
SPLINE
  5
28C
330
1F
100
AcDbEntity
  8
SK3
  6
SLD-Dashed
370
    18
100
AcDbSpline
210
0.0
220
0.0
230
1.0
 70
     8
 71
     3
 72
     8
 73
     4
 74
     0
 42
0.000000001
 43
0.00000001
 40
0.8437499999999946
 40
0.8437499999999946
 40
0.8437499999999946
 40
0.8437499999999946
 40
0.8749999999999958
 40
0.8749999999999958
 40
0.8749999999999958
 40
0.8749999999999958
 10
68.20375883314709
 20
17.63879294138227
 30
0.0
 10
67.73861342045466
 20
17.7659319253081
 30
0.0
 10
67.30674866808869
 20
17.90083866201909
 30
0.0
 10
66.90755472686214
 20
18.03623538075052
 30
0.0
  0
SPLINE
  5
28D
330
1F
100
AcDbEntity
  8
SK3
  6
SLD-Dashed
370
    18
100
AcDbSpline
210
0.0
220
0.0
230
1.0
 70
     8
 71
     3
 72
     8
 73
     4
 74
     0
 42
0.000000001
 43
0.00000001
 40
0.8749999999999958
 40
0.8749999999999958
 40
0.8749999999999958
 40
0.8749999999999958
 40
0.9062499999999971
 40
0.9062499999999971
 40
0.9062499999999971
 40
0.9062499999999971
 10
66.90755472686214
 20
18.03623538075052
 30
0.0
 10
66.50836078563565
 20
18.17163209948195
 30
0.0
 10
66.1526807416493
 20
18.30379005170118
 30
0.0
 10
65.84040086039093
 20
18.4255560251752
 30
0.0
  0
SPLINE
  5
28E
330
1F
100
AcDbEntity
  8
SK3
  6
SLD-Dashed
370
    18
100
AcDbSpline
210
0.0
220
0.0
230
1.0
 70
     8
 71
     3
 72
     8
 73
     4
 74
     0
 42
0.000000001
 43
0.00000001
 40
0.9062499999999971
 40
0.9062499999999971
 40
0.9062499999999971
 40
0.9062499999999971
 40
0.9218749999999977
 40
0.9218749999999977
 40
0.9218749999999977
 40
0.9218749999999977
 10
65.84040086039093
 20
18.4255560251752
 30
0.0
 10
65.68426091976177
 20
18.48643901191222
 30
0.0
 10
65.53888745697449
 20
18.54479752265325
 30
0.0
 10
65.40455626666784
 20
18.59983367487143
 30
0.0
  0
SPLINE
  5
28F
330
1F
100
AcDbEntity
  8
SK3
  6
SLD-Dashed
370
    18
100
AcDbSpline
210
0.0
220
0.0
230
1.0
 70
     8
 71
     3
 72
     8
 73
     4
 74
     0
 42
0.000000001
 43
0.00000001
 40
0.9218749999999977
 40
0.9218749999999977
 40
0.9218749999999977
 40
0.9218749999999977
 40
0.9374999999999982
 40
0.9374999999999982
 40
0.9374999999999982
 40
0.9374999999999982
 10
65.40455626666784
 20
18.59983367487143
 30
0.0
 10
65.27022507636123
 20
18.6548698270896
 30
0.0
 10
65.14635589877444
 20
18.70683780378431
 30
0.0
 10
65.03636747946044
 20
18.75369029253232
 30
0.0
  0
SPLINE
  5
290
330
1F
100
AcDbEntity
  8
SK3
  6
SLD-Dashed
370
    18
100
AcDbSpline
210
0.0
220
0.0
230
1.0
 70
     8
 71
     3
 72
     8
 73
     4
 74
     0
 42
0.000000001
 43
0.00000001
 40
0.9374999999999982
 40
0.9374999999999982
 40
0.9374999999999982
 40
0.9374999999999982
 40
0.9687499999999992
 40
0.9687499999999992
 40
0.9687499999999992
 40
0.9687499999999992
 10
65.03636747946044
 20
18.75369029253232
 30
0.0
 10
64.81639064083248
 20
18.84739527002834
 30
0.0
 10
64.6496536509595
 20
18.92138485329508
 30
0.0
 10
64.53632768174657
 20
18.97209023188224
 30
0.0
  0
SPLINE
  5
291
330
1F
100
AcDbEntity
  8
SK3
  6
SLD-Dashed
370
    18
100
AcDbSpline
210
0.0
220
0.0
230
1.0
 70
     8
 71
     2
 72
     6
 73
     3
 74
     0
 42
0.000000001
 43
0.00000001
 40
0.9687499999999992
 40
0.9687499999999992
 40
0.9687499999999992
 40
1.0
 40
1.0
 40
1.0
 10
64.53632768174657
 20
18.97209023188224
 30
0.0
 10
64.42300171253358
 20
19.0227956104694
 30
0.0
 10
64.36359999999998
 20
19.04999999999999
 30
0.0
  0
SPLINE
  5
292
330
1F
100
AcDbEntity
  8
SK3
  6
SLD-Dashed
370
    18
100
AcDbSpline
210
0.0
220
0.0
230
1.0
 70
     8
 71
     3
 72
    18
 73
    14
 74
     0
 42
0.000000001
 43
0.00000001
 40
0.0
 40
0.0
 40
0.0
 40
0.0
 40
0.0501962867734974
 40
0.1000306214437302
 40
0.1855667331187636
 40
0.250182389232072
 40
0.3747066158220824
 40
0.4998232982189783
 40
0.6247294758455333
 40
0.7494251058857277
 40
0.8746331028690638
 40
0.9372230808189287
 40
1.0
 40
1.0
 40
1.0
 40
1.0
 10
18.3
 20
46.81625358782996
 30
0.0
 10
18.30669951182794
 20
46.81609127853699
 30
0.0
 10
18.32005022708194
 20
46.81576783032029
 30
0.0
 10
18.34463922095194
 20
46.81256776526224
 30
0.0
 10
18.37067201462219
 20
46.80630579793129
 30
0.0
 10
18.40500150194892
 20
46.79331555547192
 30
0.0
 10
18.44173939749909
 20
46.77247000397298
 30
0.0
 10
18.47965549617258
 20
46.73942242416846
 30
0.0
 10
18.5104128194908
 20
46.69961163074883
 30
0.0
 10
18.53306634505929
 20
46.65468875110025
 30
0.0
 10
18.54452340204194
 20
46.61434662644386
 30
0.0
 10
18.5493246750575
 20
46.58119847829342
 30
0.0
 10
18.54977466801638
 20
46.5644648311238
 30
0.0
 10
18.55
 20
46.55608553132448
 30
0.0
  0
SPLINE
  5
293
330
1F
100
AcDbEntity
  8
SK3
  6
SLD-Dashed
370
    18
100
AcDbSpline
210
0.0
220
0.0
230
1.0
 70
     8
 71
     3
 72
    18
 73
    14
 74
     0
 42
0.000000001
 43
0.00000001
 40
0.0
 40
0.0
 40
0.0
 40
0.0
 40
0.0502196103872103
 40
0.1000870260924036
 40
0.1855086368940136
 40
0.2501550808791957
 40
0.3746583157461303
 40
0.4998570853792911
 40
0.6242312608259597
 40
0.7494324099488388
 40
0.874036659617996
 40
0.9370350243166863
 40
1.0
 40
1.0
 40
1.0
 40
1.0
 10
3.69999999999997
 20
46.55608553132442
 30
0.0
 10
3.700143854852916
 20
46.56278755186
 30
0.0
 10
3.700430555691598
 20
46.57614459105335
 30
0.0
 10
3.703274054818799
 20
46.60076085239338
 30
0.0
 10
3.708850025263339
 20
46.62692328764685
 30
0.0
 10
3.72051416927132
 20
46.66169890756608
 30
0.0
 10
3.739456592416655
 20
46.69941980690709
 30
0.0
 10
3.770128279112283
 20
46.73918434013715
 30
0.0
 10
3.808028636439612
 20
46.77229285140234
 30
0.0
 10
3.851698646431311
 20
46.79720148409473
 30
0.0
 10
3.891711812143358
 20
46.81006094110494
 30
0.0
 10
3.924780356068886
 20
46.81548545401076
 30
0.0
 10
3.94159493769948
 20
46.81599758847393
 30
0.0
 10
3.949999999999995
 20
46.81625358782993
 30
0.0
  0
SPLINE
  5
294
330
1F
100
AcDbEntity
  8
SK3
  6
SLD-Dashed
370
    18
100
AcDbSpline
210
0.0
220
0.0
230
1.0
 70
     8
 71
     3
 72
    18
 73
    14
 74
     0
 42
0.000000001
 43
0.00000001
 40
0.0
 40
0.0
 40
0.0
 40
0.0
 40
0.0501962867734932
 40
0.1000306214437242
 40
0.185566733118763
 40
0.2501823892320759
 40
0.3747066158220738
 40
0.499823298218966
 40
0.6247294758455325
 40
0.7494251058857301
 40
0.8746331028690641
 40
0.9372230808189376
 40
1.0
 40
1.0
 40
1.0
 40
1.0
 10
3.949999999999982
 20
46.81625358782992
 30
0.0
 10
3.943300488172027
 20
46.81609127853695
 30
0.0
 10
3.929949772918051
 20
46.81576783032026
 30
0.0
 10
3.905360779048059
 20
46.81256776526219
 30
0.0
 10
3.879327985377781
 20
46.80630579793129
 30
0.0
 10
3.844998498051075
 20
46.79331555547187
 30
0.0
 10
3.80826060250089
 20
46.77247000397298
 30
0.0
 10
3.770344503827433
 20
46.73942242416843
 30
0.0
 10
3.739587180509235
 20
46.69961163074883
 30
0.0
 10
3.716933654940719
 20
46.65468875110019
 30
0.0
 10
3.705476597958085
 20
46.61434662644386
 30
0.0
 10
3.70067532494249
 20
46.58119847829342
 30
0.0
 10
3.700225331983637
 20
46.5644648311238
 30
0.0
 10
3.700000000000023
 20
46.55608553132448
 30
0.0
  0
SPLINE
  5
295
330
1F
100
AcDbEntity
  8
SK3
  6
SLD-Dashed
370
    18
100
AcDbSpline
210
0.0
220
0.0
230
1.0
 70
     8
 71
     3
 72
    18
 73
    14
 74
     0
 42
0.000000001
 43
0.00000001
 40
0.0
 40
0.0
 40
0.0
 40
0.0
 40
0.0502196103872228
 40
0.1000870260924098
 40
0.1855086368940469
 40
0.2501550808791907
 40
0.3746583157461306
 40
0.4998570853792907
 40
0.6242312608259453
 40
0.7494324099488449
 40
0.8740366596180048
 40
0.9370350243166926
 40
1.0
 40
1.0
 40
1.0
 40
1.0
 10
18.55000000000007
 20
46.5560855313244
 30
0.0
 10
18.54985614514715
 20
46.56278755186
 30
0.0
 10
18.54956944430844
 20
46.57614459105336
 30
0.0
 10
18.54672594518127
 20
46.60076085239336
 30
0.0
 10
18.54114997473674
 20
46.62692328764687
 30
0.0
 10
18.52948583072872
 20
46.66169890756606
 30
0.0
 10
18.5105434075834
 20
46.6994198069071
 30
0.0
 10
18.47987172088776
 20
46.73918434013714
 30
0.0
 10
18.44197136356043
 20
46.77229285140238
 30
0.0
 10
18.39830135356871
 20
46.79720148409476
 30
0.0
 10
18.35828818785669
 20
46.81006094110495
 30
0.0
 10
18.32521964393113
 20
46.8154854540108
 30
0.0
 10
18.30840506230057
 20
46.81599758847394
 30
0.0
 10
18.30000000000001
 20
46.81625358782995
 30
0.0
  0
SPLINE
  5
296
330
1F
100
AcDbEntity
  8
1
  6
SLD-Dashed
370
    18
100
AcDbSpline
210
0.0
220
0.0
230
1.0
 70
     8
 71
     3
 72
     8
 73
     4
 74
     0
 42
0.000000001
 43
0.00000001
 40
0.0
 40
0.0
 40
0.0
 40
0.0
 40
1.0
 40
1.0
 40
1.0
 40
1.0
 10
9.200000000002005
 20
44.5790106634328
 30
0.0
 10
8.786353866861445
 20
45.32508460154086
 30
0.0
 10
8.372088490924053
 20
46.07082082932837
 30
0.0
 10
7.957289380062141
 20
46.81625358782993
 30
0.0
  0
SPLINE
  5
297
330
1F
100
AcDbEntity
  8
1
  6
SLD-Dashed
370
    18
100
AcDbSpline
210
0.0
220
0.0
230
1.0
 70
     8
 71
     3
 72
    10
 73
     6
 74
     0
 42
0.000000001
 43
0.00000001
 40
0.0
 40
0.0
 40
0.0
 40
0.0
 40
0.5
 40
0.5
 40
1.0
 40
1.0
 40
1.0
 40
1.0
 10
9.95000000000122
 20
43.7694359684941
 30
0.0
 10
9.748771536222401
 20
43.76943596849377
 30
0.0
 10
9.5509906738922
 20
43.85856672856774
 30
0.0
 10
9.277097785723983
 20
44.15022946993273
 30
0.0
 10
9.20000000000029
 20
44.34957328976747
 30
0.0
 10
9.199999999999973
 20
44.55102159322499
 30
0.0
  0
SPLINE
  5
298
330
1F
100
AcDbEntity
  8
1
  6
SLD-Dashed
370
    18
100
AcDbSpline
210
0.0
220
0.0
230
1.0
 70
     8
 71
     3
 72
    12
 73
     8
 74
     0
 42
0.000000001
 43
0.00000001
 40
0.0
 40
0.0
 40
0.0
 40
0.0
 40
0.5000000000000048
 40
0.5000000000000048
 40
0.7500000000000023
 40
0.7500000000000023
 40
1.0
 40
1.0
 40
1.0
 40
1.0
 10
13.02999999999991
 20
44.5510215932249
 30
0.0
 10
13.02999999999991
 20
44.3510483181232
 30
0.0
 10
12.95399603318284
 20
44.15150826736608
 30
0.0
 10
12.74724095984751
 20
43.9311682713805
 30
0.0
 10
12.66314206268636
 20
43.87128621650957
 30
0.0
 10
12.48048875274074
 20
43.79084228716531
 30
0.0
 10
12.37984375713168
 20
43.76943596849289
 30
0.0
 10
12.28
 20
43.76943596849289
 30
0.0
  0
SPLINE
  5
299
330
1F
100
AcDbEntity
  8
1
  6
SLD-Dashed
370
    18
100
AcDbSpline
210
0.0
220
0.0
230
1.0
 70
     8
 71
     3
 72
     8
 73
     4
 74
     0
 42
0.000000001
 43
0.00000001
 40
0.0
 40
0.0
 40
0.0
 40
0.0
 40
1.0
 40
1.0
 40
1.0
 40
1.0
 10
14.27271061995093
 20
46.81625358783779
 30
0.0
 10
13.85791150908532
 20
46.07082082933483
 30
0.0
 10
13.44364613314421
 20
45.32508460154596
 30
0.0
 10
13.02999999999999
 20
44.57901066343647
 30
0.0
  0
SPLINE
  5
29A
330
1F
100
AcDbEntity
  8
1
  6
SLD-Dashed
370
    18
100
AcDbSpline
210
0.0
220
0.0
230
1.0
 70
     8
 71
     3
 72
    12
 73
     8
 74
     0
 42
0.000000001
 43
0.00000001
 40
0.0
 40
0.0
 40
0.0
 40
0.0
 40
0.2499999999999967
 40
0.2499999999999967
 40
0.4999999999999933
 40
0.4999999999999933
 40
1.0
 40
1.0
 40
1.0
 40
1.0
 10
3.199999999999786
 20
-46.69763484374749
 30
0.0
 10
3.199999999999828
 20
-46.79851095846151
 30
0.0
 10
3.21862940633777
 20
-46.89733966428926
 30
0.0
 10
3.291844246696873
 20
-47.08411469648331
 30
0.0
 10
3.345979173512759
 20
-47.16991322229986
 30
0.0
 10
3.551871853062258
 20
-47.38753444472503
 30
0.0
 10
3.748026856781355
 20
-47.47548419974255
 30
0.0
 10
3.949999999999995
 20
-47.4754841997425
 30
0.0
  0
SPLINE
  5
29B
330
1F
100
AcDbEntity
  8
1
  6
SLD-Dashed
370
    18
100
AcDbSpline
210
0.0
220
0.0
230
1.0
 70
     8
 71
     3
 72
    12
 73
     8
 74
     0
 42
0.000000001
 43
0.00000001
 40
0.0
 40
0.0
 40
0.0
 40
0.0
 40
0.2499999999999985
 40
0.2499999999999985
 40
0.499999999999997
 40
0.499999999999997
 40
1.0
 40
1.0
 40
1.0
 40
1.0
 10
18.30000000000003
 20
-47.47548419974248
 30
0.0
 10
18.40091596910943
 20
-47.47548419974248
 30
0.0
 10
18.50002158252258
 20
-47.45437693482703
 30
0.0
 10
18.68315226992452
 20
-47.37426897057825
 30
0.0
 10
18.76654490405266
 20
-47.31511647588035
 30
0.0
 10
18.97195148872743
 20
-47.09831987092234
 30
0.0
 10
19.05000000000001
 20
-46.89926900274104
 30
0.0
 10
19.05000000000001
 20
-46.69763484374771
 30
0.0
  0
SPLINE
  5
29C
330
1F
100
AcDbEntity
  8
1
  6
SLD-Dashed
370
    18
100
AcDbSpline
210
0.0
220
0.0
230
1.0
 70
     8
 71
     3
 72
     8
 73
     4
 74
     0
 42
0.000000001
 43
0.00000001
 40
0.0
 40
0.0
 40
0.0
 40
0.0
 40
1.0
 40
1.0
 40
1.0
 40
1.0
 10
14.63972339340267
 20
-47.4754841997425
 30
0.0
 10
14.10222500453558
 20
-46.5104965471081
 30
0.0
 10
13.56559195163209
 20
-45.54503249842018
 30
0.0
 10
13.02999999999999
 20
-44.57901066343648
 30
0.0
  0
SPLINE
  5
29D
330
1F
100
AcDbEntity
  8
1
  6
SLD-Dashed
370
    18
100
AcDbSpline
210
0.0
220
0.0
230
1.0
 70
     8
 71
     3
 72
    12
 73
     8
 74
     0
 42
0.000000001
 43
0.00000001
 40
0.0
 40
0.0
 40
0.0
 40
0.0
 40
0.5
 40
0.5
 40
0.75
 40
0.75
 40
1.0
 40
1.0
 40
1.0
 40
1.0
 10
13.03000000000025
 20
-44.55102159322527
 30
0.0
 10
13.03000000000032
 20
-44.35094747116185
 30
0.0
 10
12.9523869298502
 20
-44.14958800989084
 30
0.0
 10
12.74748896269966
 20
-43.93153570225749
 30
0.0
 10
12.66372770014786
 20
-43.87162606259755
 30
0.0
 10
12.48090790509571
 20
-43.79094541821721
 30
0.0
 10
12.38057331782438
 20
-43.76943596849286
 30
0.0
 10
12.28
 20
-43.76943596849289
 30
0.0
  0
SPLINE
  5
29E
330
1F
100
AcDbEntity
  8
1
  6
SLD-Dashed
370
    18
100
AcDbSpline
210
0.0
220
0.0
230
1.0
 70
     8
 71
     3
 72
    12
 73
     8
 74
     0
 42
0.000000001
 43
0.00000001
 40
0.0
 40
0.0
 40
0.0
 40
0.0
 40
0.2500000000000039
 40
0.2500000000000039
 40
0.5000000000000078
 40
0.5000000000000078
 40
1.0
 40
1.0
 40
1.0
 40
1.0
 10
9.94999999999981
 20
-43.76943596849306
 30
0.0
 10
9.850030395358786
 20
-43.76943596849309
 30
0.0
 10
9.750114974766234
 20
-43.79051518316425
 30
0.0
 10
9.565507057761245
 20
-43.87194262843708
 30
0.0
 10
9.482715011846723
 20
-43.93126060501225
 30
0.0
 10
9.276579660402867
 20
-44.15080408372874
 30
0.0
 10
9.200000000000014
 20
-44.35163254795803
 30
0.0
 10
9.199999999999973
 20
-44.55102159322499
 30
0.0
  0
SPLINE
  5
29F
330
1F
100
AcDbEntity
  8
1
  6
SLD-Dashed
370
    18
100
AcDbSpline
210
0.0
220
0.0
230
1.0
 70
     8
 71
     3
 72
     8
 73
     4
 74
     0
 42
0.000000001
 43
0.00000001
 40
0.0
 40
0.0
 40
0.0
 40
0.0
 40
1.0
 40
1.0
 40
1.0
 40
1.0
 10
9.199999999999973
 20
-44.57901066343648
 30
0.0
 10
8.664408048367878
 20
-45.54503249842017
 30
0.0
 10
8.12777499546441
 20
-46.51049654710808
 30
0.0
 10
7.590276606597335
 20
-47.47548419974248
 30
0.0
  0
SPLINE
  5
2A0
330
1F
100
AcDbEntity
  8
SK3
  6
SLD-Dashed
370
    18
100
AcDbSpline
210
0.0
220
0.0
230
1.0
 70
     8
 71
     3
 72
    34
 73
    30
 74
     0
 42
0.000000001
 43
0.00000001
 40
0.499999999999998
 40
0.499999999999998
 40
0.499999999999998
 40
0.499999999999998
 40
0.5312499999999979
 40
0.5312499999999979
 40
0.5624999999999978
 40
0.5624999999999978
 40
0.5937499999999976
 40
0.5937499999999976
 40
0.6249999999999974
 40
0.6249999999999974
 40
0.6562499999999973
 40
0.6562499999999973
 40
0.6874999999999972
 40
0.6874999999999972
 40
0.7499999999999969
 40
0.7499999999999969
 40
0.8124999999999973
 40
0.8124999999999973
 40
0.8437499999999978
 40
0.8437499999999978
 40
0.8749999999999982
 40
0.8749999999999982
 40
0.9062499999999987
 40
0.9062499999999987
 40
0.937499999999999
 40
0.937499999999999
 40
0.9687499999999994
 40
0.9687499999999994
 40
1.0
 40
1.0
 40
1.0
 40
1.0
 10
9.638805742161708
 20
10.95392502366162
 30
0.0
 10
9.6938811607363
 20
10.84705887039521
 30
0.0
 10
9.763179283156633
 20
10.74439645836096
 30
0.0
 10
9.923515798149971
 20
10.55592715127708
 30
0.0
 10
10.01390276352453
 20
10.47020735344792
 30
0.0
 10
10.21445694949211
 20
10.31296552728877
 30
0.0
 10
10.32267837600208
 20
10.24333508542229
 30
0.0
 10
10.5430752649812
 20
10.12288935951391
 30
0.0
 10
10.65791658596821
 20
10.07070374731722
 30
0.0
 10
10.87819871140988
 20
9.984463182040868
 30
0.0
 10
10.98608094611135
 20
9.949205279737832
 30
0.0
 10
11.18968749579592
 20
9.892304259468993
 30
0.0
 10
11.28527842069083
 20
9.870580048613824
 30
0.0
 10
11.5589829745022
 20
9.820769890309979
 30
0.0
 10
11.72337034356694
 20
9.808096789548735
 30
0.0
 10
12.02194861504763
 20
9.821477532699776
 30
0.0
 10
12.15920875119764
 20
9.84731018817673
 30
0.0
 10
12.34760730605757
 20
9.927824692744434
 30
0.0
 10
12.40688352391457
 20
9.961503747003372
 30
0.0
 10
12.5178029483755
 20
10.0474980864718
 30
0.0
 10
12.56969006353042
 20
10.1002182908583
 30
0.0
 10
12.65991931900841
 20
10.22933776798929
 30
0.0
 10
12.69929072119648
 20
10.30748393412818
 30
0.0
 10
12.75586568636479
 20
10.49302732041031
 30
0.0
 10
12.77303399215492
 20
10.60290348381506
 30
0.0
 10
12.77663319740259
 20
10.83901366027915
 30
0.0
 10
12.7630699394838
 20
10.96766771108132
 30
0.0
 10
12.7117084196995
 20
11.21837738140154
 30
0.0
 10
12.67469993892521
 20
11.34057418425335
 30
0.0
 10
12.63040931107556
 20
11.45745606890564
 30
0.0
  0
SPLINE
  5
2A1
330
1F
100
AcDbEntity
  8
SK3
  6
SLD-Dashed
370
    18
100
AcDbSpline
210
0.0
220
0.0
230
1.0
 70
     8
 71
     3
 72
    26
 73
    22
 74
     0
 42
0.000000001
 43
0.00000001
 40
0.0
 40
0.0
 40
0.0
 40
0.0
 40
0.0624999999999995
 40
0.0624999999999995
 40
0.124999999999999
 40
0.124999999999999
 40
0.1874999999999986
 40
0.1874999999999986
 40
0.2499999999999981
 40
0.2499999999999981
 40
0.281249999999998
 40
0.281249999999998
 40
0.3124999999999979
 40
0.3124999999999979
 40
0.3749999999999981
 40
0.3749999999999981
 40
0.4374999999999984
 40
0.4374999999999984
 40
0.4687499999999982
 40
0.4687499999999982
 40
0.499999999999998
 40
0.499999999999998
 40
0.499999999999998
 40
0.499999999999998
 10
12.63040931107558
 20
11.45745606890564
 30
0.0
 10
12.54182805537629
 20
11.6912198382102
 30
0.0
 10
12.43200682775375
 20
11.89056157115178
 30
0.0
 10
12.18419932759159
 20
12.25514411813749
 30
0.0
 10
12.04834522926919
 20
12.41463399152625
 30
0.0
 10
11.75314013646127
 20
12.69173524411806
 30
0.0
 10
11.59091385222423
 20
12.81202758601131
 30
0.0
 10
11.2300472901951
 20
12.99241430793247
 30
0.0
 10
11.02728334192551
 20
13.05343833574648
 30
0.0
 10
10.69987000905184
 20
13.05646994226838
 30
0.0
 10
10.58531472788943
 20
13.0419760700552
 30
0.0
 10
10.36396153134628
 20
12.97944613660278
 30
0.0
 10
10.25449961952679
 20
12.93102694430326
 30
0.0
 10
9.947578697971304
 20
12.73948161914287
 30
0.0
 10
9.776646578307194
 20
12.55346040827497
 30
0.0
 10
9.542451961566167
 20
12.12678030999252
 30
0.0
 10
9.478612055377923
 20
11.88580640702583
 30
0.0
 10
9.473421112414254
 20
11.52565520755326
 30
0.0
 10
9.486345898652631
 20
11.40749361566879
 30
0.0
 10
9.54139061562101
 20
11.17459151908689
 30
0.0
 10
9.5837303235871
 20
11.06079117692804
 30
0.0
 10
9.638805742161708
 20
10.95392502366162
 30
0.0
  0
SPLINE
  5
2A2
330
1F
100
AcDbEntity
  8
SK3
  6
SLD-Dashed
370
    18
100
AcDbSpline
210
0.0
220
0.0
230
1.0
 70
     8
 71
     3
 72
    34
 73
    30
 74
     0
 42
0.000000001
 43
0.00000001
 40
0.5000000000000003
 40
0.5000000000000003
 40
0.5000000000000003
 40
0.5000000000000003
 40
0.5625000000000013
 40
0.5625000000000013
 40
0.5937500000000011
 40
0.5937500000000011
 40
0.625000000000001
 40
0.625000000000001
 40
0.6562500000000009
 40
0.6562500000000009
 40
0.6875000000000008
 40
0.6875000000000008
 40
0.7187500000000007
 40
0.7187500000000007
 40
0.7500000000000004
 40
0.7500000000000004
 40
0.7812500000000003
 40
0.7812500000000003
 40
0.8125000000000002
 40
0.8125000000000002
 40
0.8437500000000001
 40
0.8437500000000001
 40
0.875
 40
0.875
 40
0.9062499999999999
 40
0.9062499999999999
 40
0.9374999999999997
 40
0.9374999999999997
 40
1.0
 40
1.0
 40
1.0
 40
1.0
 10
10.60808274902043
 20
14.67518531385664
 30
0.0
 10
10.77143994352718
 20
14.66271400222903
 30
0.0
 10
10.95396076821069
 20
14.63137977172278
 30
0.0
 10
11.25812245907615
 20
14.54691770596561
 30
0.0
 10
11.36641585866904
 20
14.51171888144388
 30
0.0
 10
11.58574352105282
 20
14.42634662926307
 30
0.0
 10
11.69715944869877
 20
14.37625545607606
 30
0.0
 10
11.92117180667888
 20
14.25483711630821
 30
0.0
 10
12.02893523597722
 20
14.18587333985283
 30
0.0
 10
12.22961030853029
 20
14.02983333564747
 30
0.0
 10
12.32267742835867
 20
13.94226901556095
 30
0.0
 10
12.48372543018653
 20
13.75415019217112
 30
0.0
 10
12.55366053916099
 20
13.65130323099262
 30
0.0
 10
12.6648932192714
 20
13.43691773984447
 30
0.0
 10
12.70717730188427
 20
13.32435113894571
 30
0.0
 10
12.76326417564931
 20
13.08988167819453
 30
0.0
 10
12.77635511926059
 20
12.97149039057748
 30
0.0
 10
12.77342672652902
 20
12.7321108433757
 30
0.0
 10
12.75684979458237
 20
12.61060743991047
 30
0.0
 10
12.69552150102994
 20
12.37773497196915
 30
0.0
 10
12.65033349294084
 20
12.26373909474825
 30
0.0
 10
12.53298957942554
 20
12.04909612932804
 30
0.0
 10
12.46214536200849
 20
11.95022400081661
 30
0.0
 10
12.29651277322137
 20
11.77143410287179
 30
0.0
 10
12.20150676240367
 20
11.69219588739501
 30
0.0
 10
11.99926684334572
 20
11.56533020093841
 30
0.0
 10
11.88885801145313
 20
11.5158749716928
 30
0.0
 10
11.55399205333033
 20
11.42069275726626
 30
0.0
 10
11.32716468948122
 20
11.42871083881323
 30
0.0
 10
11.12500000000001
 20
11.48273236161758
 30
0.0
  0
SPLINE
  5
2A3
330
1F
100
AcDbEntity
  8
SK3
  6
SLD-Dashed
370
    18
100
AcDbSpline
210
0.0
220
0.0
230
1.0
 70
     8
 71
     3
 72
    30
 73
    26
 74
     0
 42
0.000000001
 43
0.00000001
 40
0.0
 40
0.0
 40
0.0
 40
0.0
 40
0.0624999999999997
 40
0.0624999999999997
 40
0.1249999999999995
 40
0.1249999999999995
 40
0.1562499999999993
 40
0.1562499999999993
 40
0.1874999999999992
 40
0.1874999999999992
 40
0.2187499999999991
 40
0.2187499999999991
 40
0.2499999999999989
 40
0.2499999999999989
 40
0.2812499999999988
 40
0.2812499999999988
 40
0.3124999999999987
 40
0.3124999999999987
 40
0.3437499999999986
 40
0.3437499999999986
 40
0.3749999999999984
 40
0.3749999999999984
 40
0.4374999999999994
 40
0.4374999999999994
 40
0.5000000000000003
 40
0.5000000000000003
 40
0.5000000000000003
 40
0.5000000000000003
 10
11.12500000000001
 20
11.48273236161759
 30
0.0
 10
10.92283531051878
 20
11.53675388442192
 30
0.0
 10
10.74714710048237
 20
11.63024516394926
 30
0.0
 10
10.42066988662174
 20
11.86454434722232
 30
0.0
 10
10.27375737476434
 20
12.00407384287209
 30
0.0
 10
10.07148943268484
 20
12.24177839203631
 30
0.0
 10
10.00699015299671
 20
12.32609339770681
 30
0.0
 10
9.883509956371203
 20
12.50701007175132
 30
0.0
 10
9.824268573097845
 20
12.60415729348404
 30
0.0
 10
9.715154706090315
 20
12.80934651131551
 30
0.0
 10
9.664396735733465
 20
12.91903622889808
 30
0.0
 10
9.576981863499132
 20
13.14891853741636
 30
0.0
 10
9.540303532497491
 20
13.26831266228052
 30
0.0
 10
9.487704529937982
 20
13.52080982106195
 30
0.0
 10
9.473745253197968
 20
13.64846695671307
 30
0.0
 10
9.476438089560544
 20
13.88700257856812
 30
0.0
 10
9.493197896427997
 20
13.99682053671473
 30
0.0
 10
9.549353346861203
 20
14.18374939795269
 30
0.0
 10
9.58858947784802
 20
14.2623151046244
 30
0.0
 10
9.678480018824306
 20
14.39201189392007
 30
0.0
 10
9.730204466999167
 20
14.44496665500974
 30
0.0
 10
9.896348595184456
 20
14.57471258814563
 30
0.0
 10
10.02083275682616
 20
14.62455209347292
 30
0.0
 10
10.29708420272972
 20
14.68178062150165
 30
0.0
 10
10.44472555451369
 20
14.68765662548424
 30
0.0
 10
10.60808274902043
 20
14.67518531385664
 30
0.0
  0
DIMENSION
  5
2A4
330
1F
100
AcDbEntity
  8
2
100
AcDbDimension
  2
_D
 10
101.6
 20
71.8890852726
 30
0.0
 11
38.553494512
 21
71.8890852726
 31
0.0
 70
   160
  1
<>
 71
     2
 42
-1.0
  3
SLDDIMSTYLE0
100
AcDbAlignedDimension
 13
0.0
 23
34.925
 33
0.0
 14
101.6
 24
24.257
 34
0.0
100
AcDbRotatedDimension
  0
DIMENSION
  5
2B9
330
1F
100
AcDbEntity
  8
SK2
100
AcDbDimension
  2
_D_1
 10
101.6
 20
59.1456174505
 30
0.0
 11
52.633713848
 21
59.1456174505
 31
0.0
 70
   160
  1
<>
 71
     2
 42
-1.0
  3
SLDDIMSTYLE0
100
AcDbAlignedDimension
 13
19.05
 23
46.5560855313
 33
0.0
 14
101.6
 24
24.257
 34
0.0
 50
0.0
100
AcDbRotatedDimension
  0
DIMENSION
  5
2CC
330
1F
100
AcDbEntity
  8
SK2
100
AcDbDimension
  2
_D_2
 10
73.025
 20
44.0420783157
 30
0.0
 11
87.9123017028
 21
44.0420783157
 31
0.0
 70
   160
  1
<>
 71
     2
 42
-1.0
  3
SLDDIMSTYLE0
100
AcDbAlignedDimension
 13
101.6
 23
24.257
 33
0.0
 14
73.025
 24
34.825
 34
0.0
100
AcDbRotatedDimension
  0
DIMENSION
  5
2DF
330
1F
100
AcDbEntity
  8
SK2
100
AcDbDimension
  2
_D_3
 10
47.625
 20
44.0420783157
 30
0.0
 11
60.2006997343
 21
44.0420783157
 31
0.0
 70
   160
  1
<>
 71
     2
 42
-1.0
  3
SLDDIMSTYLE0
100
AcDbAlignedDimension
 13
73.025
 23
34.825
 33
0.0
 14
47.625
 24
34.825
 34
0.0
100
AcDbRotatedDimension
  0
DIMENSION
  5
2F2
330
1F
100
AcDbEntity
  8
SK2
100
AcDbDimension
  2
_D_4
 10
19.05
 20
59.1456174505
 30
0.0
 11
8.5153397839
 21
59.1456174505
 31
0.0
 70
   160
  1
<>
 71
     2
 42
-1.0
  3
SLDDIMSTYLE1
100
AcDbAlignedDimension
 13
0.0
 23
34.925
 33
0.0
 14
19.05
 24
46.5560855313
 34
0.0
100
AcDbRotatedDimension
  0
DIMENSION
  5
2FD
330
1F
100
AcDbEntity
  8
SK2
100
AcDbDimension
  2
_D_5
 10
117.3958888255
 20
-19.05
 30
0.0
 11
117.3958888255
 21
-0.3596020046
 31
0.0
 70
   160
  1
%%c<>
 71
     2
 42
-1.0
  3
SLDDIMSTYLE2
100
AcDbAlignedDimension
 13
100.1
 23
19.05
 33
0.0
 14
100.1
 24
-19.05
 34
0.0
 50
90.0
100
AcDbRotatedDimension
  0
DIMENSION
  5
310
330
1F
100
AcDbEntity
  8
SK2
100
AcDbDimension
  2
_D_6
 10
132.9918393912
 20
-24.257
 30
0.0
 11
132.9918393912
 21
-0.3596020046
 31
0.0
 70
   160
  1
%%c<>
 71
     2
 42
-1.0
  3
SLDDIMSTYLE0
100
AcDbAlignedDimension
 13
101.6
 23
24.257
 33
0.0
 14
101.6
 24
-24.257
 34
0.0
 50
90.0
100
AcDbRotatedDimension
  0
DIMENSION
  5
322
330
1F
100
AcDbEntity
  8
SK2
100
AcDbDimension
  2
_D_7
 10
146.7839933134
 20
-34.925
 30
0.0
 11
146.7839933134
 21
-0.3596020046
 31
0.0
 70
   160
  1
%%c<>
 71
     2
 42
-1.0
  3
SLDDIMSTYLE0
100
AcDbAlignedDimension
 13
90.932
 23
34.925
 33
0.0
 14
90.932
 24
-34.925
 34
0.0
 50
90.0
100
AcDbRotatedDimension
  0
DIMENSION
  5
334
330
1F
100
AcDbEntity
  8
SK2
100
AcDbDimension
  2
_D_8
 10
101.6
 20
-73.4844001037
 30
0.0
 11
-2.9948551482
 21
-73.4844001037
 31
0.0
 70
   160
  1
<>
 71
     2
 42
-1.0
  3
SLDDIMSTYLE0
100
AcDbAlignedDimension
 13
-101.6
 23
-18.2922326599
 33
0.0
 14
101.6
 24
-24.257
 34
0.0
 50
0.0
100
AcDbRotatedDimension
  0
DIMENSION
  5
347
330
1F
100
AcDbEntity
  8
SK2
100
AcDbDimension
  2
_D_9
 10
101.6
 20
-61.1057889541
 30
0.0
 11
60.2006997343
 21
-61.1057889541
 31
0.0
 70
   160
  1
<>
 71
     2
 42
-1.0
  3
SLDDIMSTYLE0
100
AcDbAlignedDimension
 13
25.4
 23
-19.09
 33
0.0
 14
101.6
 24
-24.257
 34
0.0
100
AcDbRotatedDimension
  0
DIMENSION
  5
35A
330
1F
100
AcDbEntity
  8
SK2
100
AcDbDimension
  2
_D_10
 10
101.6
 20
-51.3871537858
 30
0.0
 11
82.5533290358
 21
-51.3871537858
 31
0.0
 70
   160
  1
<>
 71
     2
 42
-1.0
  3
SLDDIMSTYLE3
100
AcDbAlignedDimension
 13
90.932
 23
-34.925
 33
0.0
 14
101.6
 24
-24.257
 34
0.0
100
AcDbRotatedDimension
  0
DIMENSION
  5
367
330
1F
100
AcDbEntity
  8
SK2
100
AcDbDimension
  2
_D_11
 10
-118.1379718928
 20
-47.4754841997
 30
0.0
 11
-118.1379718928
 21
-0.3596020046
 31
0.0
 70
   160
  1
%%c<>
 71
     2
 42
-1.0
  3
SLDDIMSTYLE1
100
AcDbAlignedDimension
 13
3.95
 23
47.2968145978
 33
0.0
 14
3.95
 24
-47.4754841997
 34
0.0
 50
90.0
100
AcDbRotatedDimension
  0
DIMENSION
  5
372
330
1F
100
AcDbEntity
  8
SK2
100
AcDbDimension
  2
_D_12
 10
-109.6277873419
 20
-12.6999998465
 30
0.0
 11
-109.6277873419
 21
-0.3596020046
 31
0.0
 70
   160
  1
<>
 71
     2
 42
-1.0
  3
SLDDIMSTYLE1
100
AcDbAlignedDimension
 13
-94.967097044
 23
12.6999998465
 33
0.0
 14
-94.967097044
 24
-12.6999998465
 34
0.0
 50
90.0
100
AcDbRotatedDimension
  0
MTEXT
  5
37D
330
1F
100
AcDbEntity
  8
SK6
 62
     5
100
AcDbMText
 10
-54.7942859659
 20
-38.2242384825
 30
0.0
 40
3.5
 41
0.0
 71
     1
 72
     1
  1
AA3B20-50 38 101
  7
SLDTEXTSTYLE0
 73
     1
 44
1.0
  0
MTEXT
  5
37E
330
1F
100
AcDbEntity
  8
SK6
 62
     5
100
AcDbMText
 10
-57.793591691
 20
40.6242705048
 30
0.0
 40
3.5
 41
0.0
 71
     1
 72
     1
  1
ASME B5.50 CAT 50
  7
SLDTEXTSTYLE0
 73
     1
 44
1.0
  0
ENDSEC
  0
SECTION
  2
OBJECTS
  0
DICTIONARY
  5
C
330
0
100
AcDbDictionary
281
     1
  3
ACAD_GROUP
350
D
  3
ACAD_LAYOUT
350
1A
  3
ACAD_MLINESTYLE
350
17
  3
ACAD_PLOTSETTINGS
350
19
  3
ACAD_PLOTSTYLENAME
350
E
  3
ACAD_SCALELIST
350
47
  0
DICTIONARY
  5
D
102
{ACAD_REACTORS
330
C
102
}
330
C
100
AcDbDictionary
281
     1
  0
DICTIONARY
  5
1A
102
{ACAD_REACTORS
330
C
102
}
330
C
100
AcDbDictionary
281
     1
  3
Layout1
350
1E
  3
Layout2
350
26
  3
Model
350
22
  0
DICTIONARY
  5
17
102
{ACAD_REACTORS
330
C
102
}
330
C
100
AcDbDictionary
281
     1
  3
Standard
350
18
  0
DICTIONARY
  5
19
102
{ACAD_REACTORS
330
C
102
}
330
C
100
AcDbDictionary
281
     1
  0
ACDBDICTIONARYWDFLT
  5
E
102
{ACAD_REACTORS
330
C
102
}
330
C
100
AcDbDictionary
281
     1
  3
Normal
350
F
100
AcDbDictionaryWithDefault
340
F
  0
DICTIONARY
  5
47
102
{ACAD_REACTORS
330
C
102
}
330
C
100
AcDbDictionary
281
     1
  3
A0
350
48
  3
A1
350
49
  3
A2
350
4A
  3
A3
350
4B
  3
A4
350
4C
  3
A5
350
4D
  3
A6
350
4E
  3
A7
350
4F
  3
A8
350
50
  3
A9
350
51
  3
B0
350
52
  3
B1
350
53
  3
B2
350
54
  3
B3
350
55
  3
B4
350
56
  3
B5
350
57
  3
B6
350
58
  3
B7
350
59
  3
B8
350
5A
  3
B9
350
5B
  3
C0
350
5C
  3
C1
350
5D
  3
C2
350
5E
  3
C3
350
5F
  3
C4
350
60
  3
C5
350
61
  3
C6
350
62
  3
C7
350
63
  3
C8
350
64
  3
C9
350
65
  3
D0
350
66
  3
D1
350
67
  3
D2
350
68
  0
LAYOUT
  5
1E
102
{ACAD_REACTORS
330
1A
102
}
330
1A
100
AcDbPlotSettings
  1

  2
none_device
  4

  6

 40
0.0
 41
0.0
 42
0.0
 43
0.0
 44
0.0
 45
0.0
 46
0.0
 47
0.0
 48
0.0
 49
0.0
140
0.0
141
0.0
142
1.0
143
1.0
 70
   688
 72
     1
 73
     0
 74
     5
  7

 75
    16
147
1.0
148
0.0
149
0.0
100
AcDbLayout
  1
Layout1
 70
     1
 71
     1
 10
0.0
 20
0.0
 11
420.0
 21
297.0
 12
0.0
 22
0.0
 32
0.0
 14
1.0000000000E+20
 24
1.0000000000E+20
 34
1.0000000000E+20
 15
-1.0000000000E+20
 25
-1.0000000000E+20
 35
-1.0000000000E+20
146
0.0
 13
0.0
 23
0.0
 33
0.0
 16
1.0
 26
0.0
 36
0.0
 17
0.0
 27
1.0
 37
0.0
 76
     0
330
1B
  0
LAYOUT
  5
26
102
{ACAD_REACTORS
330
1A
102
}
330
1A
100
AcDbPlotSettings
  1

  2
none_device
  4

  6

 40
0.0
 41
0.0
 42
0.0
 43
0.0
 44
0.0
 45
0.0
 46
0.0
 47
0.0
 48
0.0
 49
0.0
140
0.0
141
0.0
142
1.0
143
1.0
 70
   688
 72
     1
 73
     0
 74
     5
  7

 75
    16
147
1.0
148
0.0
149
0.0
100
AcDbLayout
  1
Layout2
 70
     1
 71
     2
 10
0.0
 20
0.0
 11
0.0
 21
0.0
 12
0.0
 22
0.0
 32
0.0
 14
0.0
 24
0.0
 34
0.0
 15
0.0
 25
0.0
 35
0.0
146
0.0
 13
0.0
 23
0.0
 33
0.0
 16
1.0
 26
0.0
 36
0.0
 17
0.0
 27
1.0
 37
0.0
 76
     0
330
23
  0
LAYOUT
  5
22
102
{ACAD_REACTORS
330
1A
102
}
330
1A
100
AcDbPlotSettings
  1

  2
none_device
  4
Letter_(8.50_x_11.00_Inches)
  6

 40
6.35
 41
6.35
 42
6.35000508
 43
6.35000508
 44
215.9
 45
279.4
 46
0.0
 47
0.0
 48
0.0
 49
0.0
140
0.0
141
0.0
142
1.0
143
1.0
 70
  1712
 72
     1
 73
     0
 74
     0
  7

 75
     0
147
1.0
148
0.0
149
0.0
100
AcDbLayout
  1
Model
 70
     1
 71
     0
 10
0.0
 20
0.0
 11
297.0
 21
210.0
 12
0.0
 22
0.0
 32
0.0
 14
0.0
 24
0.0
 34
0.0
 15
297.0
 25
210.0
 35
0.0
146
0.0
 13
0.0
 23
0.0
 33
0.0
 16
1.0
 26
0.0
 36
0.0
 17
0.0
 27
1.0
 37
0.0
 76
     0
330
1F
331
29
  0
MLINESTYLE
  5
18
102
{ACAD_REACTORS
330
17
102
}
330
17
100
AcDbMlineStyle
  2
Standard
 70
     0
  3

 62
   256
 51
90.0
 52
90.0
 71
     2
 49
0.5
 62
   256
  6
BYLAYER
 49
-0.5
 62
   256
  6
BYLAYER
  0
ACDBPLACEHOLDER
  5
F
102
{ACAD_REACTORS
330
E
102
}
330
E
  0
SCALE
  5
48
102
{ACAD_REACTORS
330
47
102
}
330
47
100
AcDbScale
 70
     0
300
1:1
140
1.0
141
1.0
290
     1
  0
SCALE
  5
49
102
{ACAD_REACTORS
330
47
102
}
330
47
100
AcDbScale
 70
     0
300
1:2
140
1.0
141
2.0
290
     0
  0
SCALE
  5
4A
102
{ACAD_REACTORS
330
47
102
}
330
47
100
AcDbScale
 70
     0
300
1:4
140
1.0
141
4.0
290
     0
  0
SCALE
  5
4B
102
{ACAD_REACTORS
330
47
102
}
330
47
100
AcDbScale
 70
     0
300
1:5
140
1.0
141
5.0
290
     0
  0
SCALE
  5
4C
102
{ACAD_REACTORS
330
47
102
}
330
47
100
AcDbScale
 70
     0
300
1:8
140
1.0
141
8.0
290
     0
  0
SCALE
  5
4D
102
{ACAD_REACTORS
330
47
102
}
330
47
100
AcDbScale
 70
     0
300
1:10
140
1.0
141
10.0
290
     0
  0
SCALE
  5
4E
102
{ACAD_REACTORS
330
47
102
}
330
47
100
AcDbScale
 70
     0
300
1:16
140
1.0
141
16.0
290
     0
  0
SCALE
  5
4F
102
{ACAD_REACTORS
330
47
102
}
330
47
100
AcDbScale
 70
     0
300
1:20
140
1.0
141
20.0
290
     0
  0
SCALE
  5
50
102
{ACAD_REACTORS
330
47
102
}
330
47
100
AcDbScale
 70
     0
300
1:30
140
1.0
141
30.0
290
     0
  0
SCALE
  5
51
102
{ACAD_REACTORS
330
47
102
}
330
47
100
AcDbScale
 70
     0
300
1:40
140
1.0
141
40.0
290
     0
  0
SCALE
  5
52
102
{ACAD_REACTORS
330
47
102
}
330
47
100
AcDbScale
 70
     0
300
1:50
140
1.0
141
50.0
290
     0
  0
SCALE
  5
53
102
{ACAD_REACTORS
330
47
102
}
330
47
100
AcDbScale
 70
     0
300
1:100
140
1.0
141
100.0
290
     0
  0
SCALE
  5
54
102
{ACAD_REACTORS
330
47
102
}
330
47
100
AcDbScale
 70
     0
300
2:1
140
2.0
141
1.0
290
     0
  0
SCALE
  5
55
102
{ACAD_REACTORS
330
47
102
}
330
47
100
AcDbScale
 70
     0
300
4:1
140
4.0
141
1.0
290
     0
  0
SCALE
  5
56
102
{ACAD_REACTORS
330
47
102
}
330
47
100
AcDbScale
 70
     0
300
8:1
140
8.0
141
1.0
290
     0
  0
SCALE
  5
57
102
{ACAD_REACTORS
330
47
102
}
330
47
100
AcDbScale
 70
     0
300
10:1
140
10.0
141
1.0
290
     0
  0
SCALE
  5
58
102
{ACAD_REACTORS
330
47
102
}
330
47
100
AcDbScale
 70
     0
300
100:1
140
100.0
141
1.0
290
     0
  0
SCALE
  5
59
102
{ACAD_REACTORS
330
47
102
}
330
47
100
AcDbScale
 70
     0
300
1/128" = 1'-0"
140
0.0078125
141
12.0
290
     0
  0
SCALE
  5
5A
102
{ACAD_REACTORS
330
47
102
}
330
47
100
AcDbScale
 70
     0
300
1/64" = 1'-0"
140
0.015625
141
12.0
290
     0
  0
SCALE
  5
5B
102
{ACAD_REACTORS
330
47
102
}
330
47
100
AcDbScale
 70
     0
300
1/32" = 1'-0"
140
0.03125
141
12.0
290
     0
  0
SCALE
  5
5C
102
{ACAD_REACTORS
330
47
102
}
330
47
100
AcDbScale
 70
     0
300
1/16" = 1'-0"
140
0.0625
141
12.0
290
     0
  0
SCALE
  5
5D
102
{ACAD_REACTORS
330
47
102
}
330
47
100
AcDbScale
 70
     0
300
3/32" = 1'-0"
140
0.09375
141
12.0
290
     0
  0
SCALE
  5
5E
102
{ACAD_REACTORS
330
47
102
}
330
47
100
AcDbScale
 70
     0
300
1/8" = 1'-0"
140
0.125
141
12.0
290
     0
  0
SCALE
  5
5F
102
{ACAD_REACTORS
330
47
102
}
330
47
100
AcDbScale
 70
     0
300
3/16" = 1'-0"
140
0.1875
141
12.0
290
     0
  0
SCALE
  5
60
102
{ACAD_REACTORS
330
47
102
}
330
47
100
AcDbScale
 70
     0
300
1/4" = 1'-0"
140
0.25
141
12.0
290
     0
  0
SCALE
  5
61
102
{ACAD_REACTORS
330
47
102
}
330
47
100
AcDbScale
 70
     0
300
3/8" = 1'-0"
140
0.375
141
12.0
290
     0
  0
SCALE
  5
62
102
{ACAD_REACTORS
330
47
102
}
330
47
100
AcDbScale
 70
     0
300
1/2" = 1'-0"
140
0.5
141
12.0
290
     0
  0
SCALE
  5
63
102
{ACAD_REACTORS
330
47
102
}
330
47
100
AcDbScale
 70
     0
300
3/4" = 1'-0"
140
0.75
141
12.0
290
     0
  0
SCALE
  5
64
102
{ACAD_REACTORS
330
47
102
}
330
47
100
AcDbScale
 70
     0
300
1" = 1'-0"
140
1.0
141
12.0
290
     0
  0
SCALE
  5
65
102
{ACAD_REACTORS
330
47
102
}
330
47
100
AcDbScale
 70
     0
300
1-1/2" = 1'-0"
140
1.5
141
12.0
290
     0
  0
SCALE
  5
66
102
{ACAD_REACTORS
330
47
102
}
330
47
100
AcDbScale
 70
     0
300
3" = 1'-0"
140
3.0
141
12.0
290
     0
  0
SCALE
  5
67
102
{ACAD_REACTORS
330
47
102
}
330
47
100
AcDbScale
 70
     0
300
6" = 1'-0"
140
6.0
141
12.0
290
     0
  0
SCALE
  5
68
102
{ACAD_REACTORS
330
47
102
}
330
47
100
AcDbScale
 70
     0
300
1'-0" = 1'-0"
140
12.0
141
12.0
290
     0
  0
ENDSEC
  0
EOF
