  0
SECTION
  2
HEADER
  9
$ACADVER
  1
AC1015
  9
$ACADMAINTVER
 70
     6
  9
$DWGCODEPAGE
  3
ANSI_1250
  9
$INSBASE
 10
0.0
 20
0.0
 30
0.0
  9
$EXTMIN
 10
0.0
 20
0.0
 30
0.0
  9
$EXTMAX
 10
297.0
 20
210.0
 30
0.0
  9
$LIMMIN
 10
0.0
 20
0.0
  9
$LIMMAX
 10
297.0
 20
210.0
  9
$ORTHOMODE
 70
     0
  9
$REGENMODE
 70
     1
  9
$FILLMODE
 70
     1
  9
$QTEXTMODE
 70
     0
  9
$MIRRTEXT
 70
     1
  9
$LTSCALE
 40
1.0
  9
$ATTMODE
 70
     1
  9
$TEXTSIZE
 40
3.5
  9
$TRACEWID
 40
1.0
  9
$TEXTSTYLE
  7
Standard
  9
$CLAYER
  8
0
  9
$CELTYPE
  6
ByLayer
  9
$CECOLOR
 62
   256
  9
$CELTSCALE
 40
1.0
  9
$DISPSILH
 70
     0
  9
$DIMSCALE
 40
1.0
  9
$DIMASZ
 40
3.302
  9
$DIMEXO
 40
1.0
  9
$DIMDLI
 40
3.75
  9
$DIMRND
 40
0.0
  9
$DIMDLE
 40
0.0
  9
$DIMEXE
 40
1.0
  9
$DIMTP
 40
0.0
  9
$DIMTM
 40
0.0
  9
$DIMTXT
 40
3.5
  9
$DIMCEN
 40
2.5
  9
$DIMTSZ
 40
0.0
  9
$DIMTOL
 70
     0
  9
$DIMLIM
 70
     0
  9
$DIMTIH
 70
     1
  9
$DIMTOH
 70
     1
  9
$DIMSE1
 70
     0
  9
$DIMSE2
 70
     0
  9
$DIMTAD
 70
     1
  9
$DIMZIN
 70
     0
  9
$DIMBLK
  1

  9
$DIMASO
 70
     1
  9
$DIMSHO
 70
     1
  9
$DIMPOST
  1

  9
$DIMAPOST
  1

  9
$DIMALT
 70
     0
  9
$DIMALTD
 70
     3
  9
$DIMALTF
 40
0.0393700787
  9
$DIMLFAC
 40
1.0
  9
$DIMTOFL
 70
     1
  9
$DIMTVP
 40
0.0
  9
$DIMTIX
 70
     0
  9
$DIMSOXD
 70
     0
  9
$DIMSAH
 70
     0
  9
$DIMBLK1
  1

  9
$DIMBLK2
  1

  9
$DIMSTYLE
  2
ISO-25
  9
$DIMCLRD
 70
     0
  9
$DIMCLRE
 70
     0
  9
$DIMCLRT
 70
     0
  9
$DIMTFAC
 40
1.0
  9
$DIMGAP
 40
1.524
  9
$DIMJUST
 70
     0
  9
$DIMSD1
 70
     0
  9
$DIMSD2
 70
     0
  9
$DIMTOLJ
 70
     0
  9
$DIMTZIN
 70
     0
  9
$DIMALTZ
 70
     0
  9
$DIMALTTZ
 70
     0
  9
$DIMUPT
 70
     0
  9
$DIMDEC
 70
     2
  9
$DIMTDEC
 70
     2
  9
$DIMALTU
 70
     2
  9
$DIMALTTD
 70
     3
  9
$DIMTXSTY
  7
Standard
  9
$DIMAUNIT
 70
     0
  9
$DIMADEC
 70
     2
  9
$DIMALTRND
 40
0.0
  9
$DIMAZIN
 70
     0
  9
$DIMDSEP
 70
    44
  9
$DIMATFIT
 70
     3
  9
$DIMFRAC
 70
     0
  9
$DIMLDRBLK
  1

  9
$DIMLUNIT
 70
     2
  9
$DIMLWD
 70
    -2
  9
$DIMLWE
 70
    -2
  9
$DIMTMOVE
 70
     0
  9
$LUNITS
 70
     2
  9
$LUPREC
 70
     2
  9
$SKETCHINC
 40
1.0
  9
$FILLETRAD
 40
10.0
  9
$AUNITS
 70
     0
  9
$AUPREC
 70
     2
  9
$MENU
  1
.
  9
$ELEVATION
 40
0.0
  9
$PELEVATION
 40
0.0
  9
$THICKNESS
 40
0.0
  9
$LIMCHECK
 70
     0
  9
$CHAMFERA
 40
0.0
  9
$CHAMFERB
 40
0.0
  9
$CHAMFERC
 40
0.0
  9
$CHAMFERD
 40
0.0
  9
$SKPOLY
 70
     0
  9
$TDCREATE
 40
2459278.337101805
  9
$TDUCREATE
 40
2459278.295435139
  9
$TDUPDATE
 40
2459278.337103831
  9
$TDUUPDATE
 40
2459278.295437164
  9
$TDINDWG
 40
0.0000000116
  9
$TDUSRTIMER
 40
0.0000000116
  9
$USRTIMER
 70
     1
  9
$ANGBASE
 50
0.0
  9
$ANGDIR
 70
     0
  9
$PDMODE
 70
     0
  9
$PDSIZE
 40
-1.0
  9
$PLINEWID
 40
0.0
  9
$SPLFRAME
 70
     0
  9
$SPLINETYPE
 70
     6
  9
$SPLINESEGS
 70
     8
  9
$HANDSEED
  5
349
  9
$SURFTAB1
 70
     6
  9
$SURFTAB2
 70
     6
  9
$SURFTYPE
 70
     6
  9
$SURFU
 70
     6
  9
$SURFV
 70
     6
  9
$UCSBASE
  2

  9
$UCSNAME
  2

  9
$UCSORG
 10
0.0
 20
0.0
 30
0.0
  9
$UCSXDIR
 10
1.0
 20
0.0
 30
0.0
  9
$UCSYDIR
 10
0.0
 20
1.0
 30
0.0
  9
$UCSORTHOREF
  2

  9
$UCSORTHOVIEW
 70
     0
  9
$UCSORGTOP
 10
0.0
 20
0.0
 30
0.0
  9
$UCSORGBOTTOM
 10
0.0
 20
0.0
 30
0.0
  9
$UCSORGLEFT
 10
0.0
 20
0.0
 30
0.0
  9
$UCSORGRIGHT
 10
0.0
 20
0.0
 30
0.0
  9
$UCSORGFRONT
 10
0.0
 20
0.0
 30
0.0
  9
$UCSORGBACK
 10
0.0
 20
0.0
 30
0.0
  9
$PUCSBASE
  2

  9
$PUCSNAME
  2

  9
$PUCSORG
 10
0.0
 20
0.0
 30
0.0
  9
$PUCSXDIR
 10
1.0
 20
0.0
 30
0.0
  9
$PUCSYDIR
 10
0.0
 20
1.0
 30
0.0
  9
$PUCSORTHOREF
  2

  9
$PUCSORTHOVIEW
 70
     0
  9
$PUCSORGTOP
 10
0.0
 20
0.0
 30
0.0
  9
$PUCSORGBOTTOM
 10
0.0
 20
0.0
 30
0.0
  9
$PUCSORGLEFT
 10
0.0
 20
0.0
 30
0.0
  9
$PUCSORGRIGHT
 10
0.0
 20
0.0
 30
0.0
  9
$PUCSORGFRONT
 10
0.0
 20
0.0
 30
0.0
  9
$PUCSORGBACK
 10
0.0
 20
0.0
 30
0.0
  9
$USERI1
 70
     0
  9
$USERI2
 70
     0
  9
$USERI3
 70
     0
  9
$USERI4
 70
     0
  9
$USERI5
 70
     0
  9
$USERR1
 40
0.0
  9
$USERR2
 40
0.0
  9
$USERR3
 40
0.0
  9
$USERR4
 40
0.0
  9
$USERR5
 40
0.0
  9
$WORLDVIEW
 70
     1
  9
$SHADEDGE
 70
     3
  9
$SHADEDIF
 70
    70
  9
$TILEMODE
 70
     1
  9
$MAXACTVP
 70
    64
  9
$PINSBASE
 10
0.0
 20
0.0
 30
0.0
  9
$PLIMCHECK
 70
     0
  9
$PEXTMIN
 10
1.0000000000E+20
 20
1.0000000000E+20
 30
1.0000000000E+20
  9
$PEXTMAX
 10
-1.0000000000E+20
 20
-1.0000000000E+20
 30
-1.0000000000E+20
  9
$PLIMMIN
 10
0.0
 20
0.0
  9
$PLIMMAX
 10
420.0
 20
297.0
  9
$UNITMODE
 70
     0
  9
$VISRETAIN
 70
     1
  9
$PLINEGEN
 70
     0
  9
$PSLTSCALE
 70
     1
  9
$TREEDEPTH
 70
  3020
  9
$CMLSTYLE
  2
Standard
  9
$CMLJUST
 70
     0
  9
$CMLSCALE
 40
20.0
  9
$PROXYGRAPHICS
 70
     1
  9
$MEASUREMENT
 70
     1
  9
$CELWEIGHT
370
    -1
  9
$ENDCAPS
280
     0
  9
$JOINSTYLE
280
     0
  9
$LWDISPLAY
290
     1
  9
$INSUNITS
 70
     4
  9
$HYPERLINKBASE
  1

  9
$STYLESHEET
  1

  9
$XEDIT
290
     1
  9
$CEPSNTYPE
380
     0
  9
$PSTYLEMODE
290
     1
  9
$FINGERPRINTGUID
  2
{FA83099A-0C48-487B-B8A8-12797B5ADC2F}
  9
$VERSIONGUID
  2
{FAEB1C32-E019-11D5-929B-00C0DF256EC4}
  9
$EXTNAMES
290
     1
  9
$PSVPSCALE
 40
0.0
  9
$OLESTARTUP
290
     0
  0
ENDSEC
  0
SECTION
  2
CLASSES
  0
CLASS
  1
ACDBDICTIONARYWDFLT
  2
AcDbDictionaryWithDefault
  3
ObjectDBX Classes
 90
        0
280
     0
281
     0
  0
CLASS
  1
VISUALSTYLE
  2
AcDbVisualStyle
  3
ObjectDBX Classes
 90
     4095
280
     0
281
     0
  0
CLASS
  1
MATERIAL
  2
AcDbMaterial
  3
ObjectDBX Classes
 90
     1153
280
     0
281
     0
  0
CLASS
  1
SCALE
  2
AcDbScale
  3
ObjectDBX Classes
 90
     1153
280
     0
281
     0
  0
CLASS
  1
TABLESTYLE
  2
AcDbTableStyle
  3
ObjectDBX Classes
 90
     4095
280
     0
281
     0
  0
CLASS
  1
MLEADERSTYLE
  2
AcDbMLeaderStyle
  3
ACDB_MLEADERSTYLE_CLASS
 90
     4095
280
     0
281
     0
  0
CLASS
  1
SUN
  2
AcDbSun
  3
SCENEOE
 90
     1153
280
     0
281
     0
  0
CLASS
  1
ACDBPLACEHOLDER
  2
AcDbPlaceHolder
  3
ObjectDBX Classes
 90
        0
280
     0
281
     0
  0
CLASS
  1
LAYOUT
  2
AcDbLayout
  3
ObjectDBX Classes
 90
        0
280
     0
281
     0
  0
ENDSEC
  0
SECTION
  2
TABLES
  0
TABLE
  2
VPORT
  5
8
330
0
100
AcDbSymbolTable
 70
     1
  0
VPORT
  5
29
330
8
100
AcDbSymbolTableRecord
100
AcDbViewportTableRecord
  2
*Active
 70
     0
 10
0.0
 20
0.0
 11
1.0
 21
1.0
 12
148.5
 22
105.0
 13
0.0
 23
0.0
 14
10.0
 24
10.0
 15
10.0
 25
10.0
 16
0.0
 26
0.0
 36
1.0
 17
0.0
 27
0.0
 37
0.0
 40
210.0
 41
1.4142857143
 42
50.0
 43
0.0
 44
0.0
 50
0.0
 51
0.0
 71
     0
 72
  2000
 73
     1
 74
     3
 75
     0
 76
     0
 77
     0
 78
     0
281
     0
 65
     1
110
0.0
120
0.0
130
0.0
111
1.0
121
0.0
131
0.0
112
0.0
122
1.0
132
0.0
 79
     0
146
0.0
  0
ENDTAB
  0
TABLE
  2
LTYPE
  5
5
330
0
100
AcDbSymbolTable
 70
     8
  0
LTYPE
  5
14
330
5
100
AcDbSymbolTableRecord
100
AcDbLinetypeTableRecord
  2
ByBlock
 70
     0
  3

 72
    65
 73
     0
 40
0.0
  0
LTYPE
  5
15
330
5
100
AcDbSymbolTableRecord
100
AcDbLinetypeTableRecord
  2
ByLayer
 70
     0
  3

 72
    65
 73
     0
 40
0.0
  0
LTYPE
  5
16
330
5
100
AcDbSymbolTableRecord
100
AcDbLinetypeTableRecord
  2
Continuous
 70
     0
  3
Solid line
 72
    65
 73
     0
 40
0.0
  0
LTYPE
  5
6E
330
5
100
AcDbSymbolTableRecord
100
AcDbLinetypeTableRecord
  2
SLD-Solid
 70
     0
  3
SolidWorks Line Style
 72
    65
 73
     0
 40
0.0
  0
LTYPE
  5
6F
330
5
100
AcDbSymbolTableRecord
100
AcDbLinetypeTableRecord
  2
SLD-Dashed
 70
     0
  3
SolidWorks Line Style
 72
    65
 73
     2
 40
1.905
 49
1.27
 74
     0
 49
-0.635
 74
     0
  0
LTYPE
  5
70
330
5
100
AcDbSymbolTableRecord
100
AcDbLinetypeTableRecord
  2
SLD-Phantom
 70
     0
  3
SolidWorks Line Style
 72
    65
 73
     6
 40
12.7
 49
6.35
 74
     0
 49
-1.27
 74
     0
 49
1.27
 74
     0
 49
-1.27
 74
     0
 49
1.27
 74
     0
 49
-1.27
 74
     0
  0
LTYPE
  5
71
330
5
100
AcDbSymbolTableRecord
100
AcDbLinetypeTableRecord
  2
SLD-Chain
 70
     0
  3
SolidWorks Line Style
 72
    65
 73
     4
 40
10.16
 49
6.35
 74
     0
 49
-1.27
 74
     0
 49
1.27
 74
     0
 49
-1.27
 74
     0
  0
LTYPE
  5
72
330
5
100
AcDbSymbolTableRecord
100
AcDbLinetypeTableRecord
  2
SLD-Center
 70
     0
  3
SolidWorks Line Style
 72
    65
 73
     4
 40
19.05
 49
15.24
 74
     0
 49
-1.27
 74
     0
 49
1.27
 74
     0
 49
-1.27
 74
     0
  0
LTYPE
  5
73
330
5
100
AcDbSymbolTableRecord
100
AcDbLinetypeTableRecord
  2
SLD-Stitch
 70
     0
  3
SolidWorks Line Style
 72
    65
 73
     2
 40
0.635
 49
0.0
 74
     0
 49
-0.635
 74
     0
  0
LTYPE
  5
74
330
5
100
AcDbSymbolTableRecord
100
AcDbLinetypeTableRecord
  2
SLD-Thin-Thick-Chain
 70
     0
  3
SolidWorks Line Style
 72
    65
 73
     4
 40
10.16
 49
6.35
 74
     0
 49
-1.27
 74
     0
 49
1.27
 74
     0
 49
-1.27
 74
     0
  0
ENDTAB
  0
TABLE
  2
LAYER
  5
2
330
0
100
AcDbSymbolTable
 70
    14
  0
LAYER
  5
10
330
2
100
AcDbSymbolTableRecord
100
AcDbLayerTableRecord
  2
0
 70
     0
 62
     7
  6
Continuous
370
    -3
390
F
  0
LAYER
  5
75
330
2
100
AcDbSymbolTableRecord
100
AcDbLayerTableRecord
  2
SLD-0
 70
     0
 62
   179
  6
SLD-Solid
370
    -3
390
F
  0
LAYER
  5
76
330
2
100
AcDbSymbolTableRecord
100
AcDbLayerTableRecord
  2
80
 70
     0
 62
    -6
  6
SLD-Solid
290
     0
370
    -3
390
F
  0
LAYER
  5
77
330
2
100
AcDbSymbolTableRecord
100
AcDbLayerTableRecord
  2
81
 70
     0
 62
    -3
  6
SLD-Solid
290
     0
370
    -3
390
F
  0
LAYER
  5
78
330
2
100
AcDbSymbolTableRecord
100
AcDbLayerTableRecord
  2
1
 70
     0
 62
     4
  6
SLD-Solid
290
     0
370
    -3
390
F
  0
LAYER
  5
79
330
2
100
AcDbSymbolTableRecord
100
AcDbLayerTableRecord
  2
4
 70
     0
 62
    -2
  6
SLD-Chain
290
     0
370
    -3
390
F
  0
LAYER
  5
7A
330
2
100
AcDbSymbolTableRecord
100
AcDbLayerTableRecord
  2
2
 70
     0
 62
     7
  6
SLD-Solid
290
     0
370
    -3
390
F
  0
LAYER
  5
7B
330
2
100
AcDbSymbolTableRecord
100
AcDbLayerTableRecord
  2
SK3
 70
     0
 62
     1
  6
SLD-Dashed
290
     0
370
    -3
390
F
  0
LAYER
  5
7C
330
2
100
AcDbSymbolTableRecord
100
AcDbLayerTableRecord
  2
SK4
 70
     0
 62
     2
  6
SLD-Chain
290
     0
370
    -3
390
F
  0
LAYER
  5
7D
330
2
100
AcDbSymbolTableRecord
100
AcDbLayerTableRecord
  2
SK2
 70
     0
 62
     7
  6
SLD-Solid
290
     0
370
    -3
390
F
  0
LAYER
  5
7E
330
2
100
AcDbSymbolTableRecord
100
AcDbLayerTableRecord
  2
SK6
 70
     0
 62
     5
  6
SLD-Solid
290
     0
370
    -3
390
F
  0
LAYER
  5
7F
330
2
100
AcDbSymbolTableRecord
100
AcDbLayerTableRecord
  2
6
 70
     0
 62
     5
  6
SLD-Solid
370
    -3
390
F
  0
LAYER
  5
80
330
2
100
AcDbSymbolTableRecord
100
AcDbLayerTableRecord
  2
SK1
 70
     0
 62
     4
  6
SLD-Solid
370
    -3
390
F
  0
LAYER
  5
81
330
2
100
AcDbSymbolTableRecord
100
AcDbLayerTableRecord
  2
LAYER5
 70
     0
 62
   218
  6
SLD-Solid
370
    -3
390
F
  0
ENDTAB
  0
TABLE
  2
STYLE
  5
3
330
0
100
AcDbSymbolTable
 70
     3
  0
STYLE
  5
11
330
3
100
AcDbSymbolTableRecord
100
AcDbTextStyleTableRecord
  2
Standard
 70
     0
 40
0.0
 41
1.0
 50
0.0
 71
     0
 42
3.5
  3
txt
  4

  0
STYLE
  5
25C
330
3
100
AcDbSymbolTableRecord
100
AcDbTextStyleTableRecord
  2
SLDTEXTSTYLE0
 70
     0
 40
0.0
 41
0.75
 50
0.0
 71
     0
 42
3.5
  3
TXT
  4

  0
STYLE
  5
345
330
3
100
AcDbSymbolTableRecord
100
AcDbTextStyleTableRecord
  2
SLDTEXTSTYLE1
 70
     0
 40
0.0
 41
0.6666666667
 50
0.0
 71
     0
 42
3.5
  3
TXT
  4

  0
ENDTAB
  0
TABLE
  2
VIEW
  5
6
330
0
100
AcDbSymbolTable
 70
     0
  0
ENDTAB
  0
TABLE
  2
UCS
  5
7
330
0
100
AcDbSymbolTable
 70
     0
  0
ENDTAB
  0
TABLE
  2
APPID
  5
9
330
0
100
AcDbSymbolTable
 70
     1
  0
APPID
  5
12
330
9
100
AcDbSymbolTableRecord
100
AcDbRegAppTableRecord
  2
ACAD
 70
     0
  0
ENDTAB
  0
TABLE
  2
DIMSTYLE
  5
A
330
0
100
AcDbSymbolTable
 70
     5
100
AcDbDimStyleTable
  0
DIMSTYLE
105
27
330
A
100
AcDbSymbolTableRecord
100
AcDbDimStyleTableRecord
  2
ISO-25
 70
     0
 41
2.5
 42
0.625
 43
3.75
 44
1.25
 73
     0
 74
     0
 77
     1
 78
     8
140
2.5
141
2.5
143
0.0393700787
147
0.625
171
     3
172
     1
178
     0
271
     2
272
     2
274
     3
278
    44
283
     0
284
     8
340
11
  0
DIMSTYLE
105
25D
102
{ACAD_REACTORS
330
25B
330
270
330
283
330
296
330
2A9
330
2DA
330
2EC
330
2FE
330
311
102
}
330
A
100
AcDbSymbolTableRecord
100
AcDbDimStyleTableRecord
  2
SLDDIMSTYLE0
 70
     0
 41
3.302
 44
0.0
 45
0.000000001
 73
     0
 74
     0
 77
     1
 78
    12
 79
     3
140
3.5
143
0.0393700787
147
0.875
148
0.000000001
170
     1
173
     1
178
     0
271
     2
272
     2
276
     2
284
    12
340
25C
  0
DIMSTYLE
105
2BD
102
{ACAD_REACTORS
330
2BC
330
331
330
33C
102
}
330
A
100
AcDbSymbolTableRecord
100
AcDbDimStyleTableRecord
  2
SLDDIMSTYLE1
 70
     0
 41
3.302
 44
0.0
 45
0.000000001
 73
     0
 74
     0
 77
     1
 78
    12
 79
     3
140
3.5
147
0.875
173
     1
178
     0
271
     2
272
     2
276
     2
284
    12
340
25C
  0
DIMSTYLE
105
2C8
102
{ACAD_REACTORS
330
2C7
102
}
330
A
100
AcDbSymbolTableRecord
100
AcDbDimStyleTableRecord
  2
SLDDIMSTYLE2
 70
     0
 41
3.302
 44
0.0
 45
0.000000001
 73
     0
 74
     0
 77
     1
 78
    12
 79
     3
140
3.5
143
0.0393700787
147
0.875
148
0.000000001
170
     1
171
     3
173
     1
178
     0
271
     3
272
     2
274
     3
276
     2
284
    12
340
25C
  0
DIMSTYLE
105
325
102
{ACAD_REACTORS
330
324
102
}
330
A
100
AcDbSymbolTableRecord
100
AcDbDimStyleTableRecord
  2
SLDDIMSTYLE3
 70
     0
 41
3.302
 44
0.0
 45
0.000000001
 73
     0
 74
     0
 77
     1
 78
    12
 79
     3
140
3.5
147
0.875
172
     1
173
     1
178
     0
271
     2
272
     2
276
     2
284
    12
289
     0
340
25C
  0
ENDTAB
  0
TABLE
  2
BLOCK_RECORD
  5
1
330
0
100
AcDbSymbolTable
 70
    15
  0
BLOCK_RECORD
  5
1F
330
1
100
AcDbSymbolTableRecord
100
AcDbBlockTableRecord
  2
*Model_Space
340
22
  0
BLOCK_RECORD
  5
1B
330
1
100
AcDbSymbolTableRecord
100
AcDbBlockTableRecord
  2
*Paper_Space
340
1E
  0
BLOCK_RECORD
  5
23
330
1
100
AcDbSymbolTableRecord
100
AcDbBlockTableRecord
  2
*Paper_Space0
340
26
  0
BLOCK_RECORD
  5
25E
330
1
100
AcDbSymbolTableRecord
100
AcDbBlockTableRecord
  2
_D
340
0
  0
BLOCK_RECORD
  5
271
330
1
100
AcDbSymbolTableRecord
100
AcDbBlockTableRecord
  2
_D_1
340
0
  0
BLOCK_RECORD
  5
284
330
1
100
AcDbSymbolTableRecord
100
AcDbBlockTableRecord
  2
_D_2
340
0
  0
BLOCK_RECORD
  5
297
330
1
100
AcDbSymbolTableRecord
100
AcDbBlockTableRecord
  2
_D_3
340
0
  0
BLOCK_RECORD
  5
2AA
330
1
100
AcDbSymbolTableRecord
100
AcDbBlockTableRecord
  2
_D_4
340
0
  0
BLOCK_RECORD
  5
2BE
330
1
100
AcDbSymbolTableRecord
100
AcDbBlockTableRecord
  2
_D_5
340
0
  0
BLOCK_RECORD
  5
2C9
330
1
100
AcDbSymbolTableRecord
100
AcDbBlockTableRecord
  2
_D_6
340
0
  0
BLOCK_RECORD
  5
2DB
330
1
100
AcDbSymbolTableRecord
100
AcDbBlockTableRecord
  2
_D_7
340
0
  0
BLOCK_RECORD
  5
2ED
330
1
100
AcDbSymbolTableRecord
100
AcDbBlockTableRecord
  2
_D_8
340
0
  0
BLOCK_RECORD
  5
2FF
330
1
100
AcDbSymbolTableRecord
100
AcDbBlockTableRecord
  2
_D_9
340
0
  0
BLOCK_RECORD
  5
312
330
1
100
AcDbSymbolTableRecord
100
AcDbBlockTableRecord
  2
_D_10
340
0
  0
BLOCK_RECORD
  5
326
330
1
100
AcDbSymbolTableRecord
100
AcDbBlockTableRecord
  2
_D_11
340
0
  0
BLOCK_RECORD
  5
332
330
1
100
AcDbSymbolTableRecord
100
AcDbBlockTableRecord
  2
_D_12
340
0
  0
BLOCK_RECORD
  5
33D
330
1
100
AcDbSymbolTableRecord
100
AcDbBlockTableRecord
  2
_D_13
340
0
  0
ENDTAB
  0
ENDSEC
  0
SECTION
  2
BLOCKS
  0
BLOCK
  5
20
330
1F
100
AcDbEntity
  8
0
100
AcDbBlockBegin
  2
*Model_Space
 70
     0
 10
0.0
 20
0.0
 30
0.0
  3
*Model_Space
  1

  0
ENDBLK
  5
21
330
1F
100
AcDbEntity
  8
0
100
AcDbBlockEnd
  0
BLOCK
  5
1C
330
1B
100
AcDbEntity
 67
     1
  8
0
100
AcDbBlockBegin
  2
*Paper_Space
 70
     0
 10
0.0
 20
0.0
 30
0.0
  3
*Paper_Space
  1

  0
ENDBLK
  5
1D
330
1B
100
AcDbEntity
 67
     1
  8
0
100
AcDbBlockEnd
  0
BLOCK
  5
24
330
23
100
AcDbEntity
  8
0
100
AcDbBlockBegin
  2
*Paper_Space0
 70
     0
 10
0.0
 20
0.0
 30
0.0
  3
*Paper_Space0
  1

  0
ENDBLK
  5
25
330
23
100
AcDbEntity
  8
0
100
AcDbBlockEnd
  0
BLOCK
  5
25F
330
25E
100
AcDbEntity
  8
0
100
AcDbBlockBegin
  2
_D
 70
     0
 10
0.0
 20
0.0
 30
0.0
  3
_D
  1

  0
SOLID
  5
261
330
25E
100
AcDbEntity
  8
2
100
AcDbTrace
 10
0.0
 20
85.3224800592
 30
0.0
 11
3.302
 21
84.8144800592
 31
0.0
 12
3.302
 22
85.8304800592
 32
0.0
 13
3.302
 23
85.8304800592
 33
0.0
  0
SOLID
  5
262
330
25E
100
AcDbEntity
  8
2
100
AcDbTrace
 10
203.2
 20
85.3224800592
 30
0.0
 11
199.898
 21
85.8304800592
 31
0.0
 12
199.898
 22
84.8144800592
 32
0.0
 13
199.898
 23
84.8144800592
 33
0.0
  0
LINE
  5
263
330
25E
100
AcDbEntity
  8
2
100
AcDbLine
 10
67.6617847313
 20
96.1153617753
 30
0.0
 11
66.5953784739
 21
96.1153617753
 31
0.0
  0
LINE
  5
264
330
25E
100
AcDbEntity
  8
2
100
AcDbLine
 10
66.5953784739
 20
96.1153617753
 30
0.0
 11
66.5953784739
 21
90.5591117842
 31
0.0
  0
LINE
  5
265
330
25E
100
AcDbEntity
  8
2
100
AcDbLine
 10
66.5953784739
 20
90.5591117842
 30
0.0
 11
67.6617847313
 21
90.5591117842
 31
0.0
  0
LINE
  5
266
330
25E
100
AcDbEntity
  8
2
100
AcDbLine
 10
76.7131737922
 20
96.1153617753
 30
0.0
 11
77.7795800497
 21
96.1153617753
 31
0.0
  0
LINE
  5
267
330
25E
100
AcDbEntity
  8
2
100
AcDbLine
 10
77.7795800497
 20
96.1153617753
 30
0.0
 11
77.7795800497
 21
90.5591117842
 31
0.0
  0
LINE
  5
268
330
25E
100
AcDbEntity
  8
2
100
AcDbLine
 10
77.7795800497
 20
90.5591117842
 30
0.0
 11
76.7131737922
 21
90.5591117842
 31
0.0
  0
LINE
  5
269
330
25E
100
AcDbEntity
  8
2
100
AcDbLine
 10
0.0
 20
35.925
 30
0.0
 11
0.0
 21
86.3224800592
 31
0.0
  0
LINE
  5
26A
330
25E
100
AcDbEntity
  8
2
100
AcDbLine
 10
203.2
 20
22.082
 30
0.0
 11
203.2
 21
86.3224800592
 31
0.0
  0
LINE
  5
26B
330
25E
100
AcDbEntity
  8
2
100
AcDbLine
 10
0.0
 20
85.3224800592
 30
0.0
 11
203.2
 21
85.3224800592
 31
0.0
  0
MTEXT
  5
26C
330
25E
100
AcDbEntity
  8
2
100
AcDbMText
 10
65.5484166196
 20
89.8876893251
 30
0.0
 40
3.5
 41
0.0
 71
     1
 72
     1
  1

  7
SLDTEXTSTYLE0
 73
     1
 44
1.0
  0
MTEXT
  5
26D
330
25E
100
AcDbEntity
  8
2
100
AcDbMText
 10
67.6617847313
 20
95.0708486988
 30
0.0
 40
3.5
 41
0.0
 71
     1
 72
     1
  1
8,00
  7
SLDTEXTSTYLE0
 73
     1
 44
1.0
  0
MTEXT
  5
26E
330
25E
100
AcDbEntity
  8
2
100
AcDbMText
 10
66.3687290181
 20
89.8342171484
 30
0.0
 40
3.5
 41
0.0
 71
     1
 72
     1
  1
203,2
  7
SLDTEXTSTYLE0
 73
     1
 44
1.0
  0
MTEXT
  5
26F
330
25E
100
AcDbEntity
  8
2
100
AcDbMText
 10
80.1584864235
 20
89.8876893251
 30
0.0
 40
3.5
 41
0.0
 71
     1
 72
     1
  1

  7
SLDTEXTSTYLE0
 73
     1
 44
1.0
  0
ENDBLK
  5
260
330
25E
100
AcDbEntity
  8
0
100
AcDbBlockEnd
  0
BLOCK
  5
272
330
271
100
AcDbEntity
  8
0
100
AcDbBlockBegin
  2
_D_1
 70
     0
 10
0.0
 20
0.0
 30
0.0
  3
_D_1
  1

  0
SOLID
  5
274
330
271
100
AcDbEntity
  8
SK2
100
AcDbTrace
 10
19.05
 20
71.5632540277
 30
0.0
 11
22.352
 21
71.0552540277
 31
0.0
 12
22.352
 22
72.0712540277
 32
0.0
 13
22.352
 23
72.0712540277
 33
0.0
  0
SOLID
  5
275
330
271
100
AcDbEntity
  8
SK2
100
AcDbTrace
 10
203.2
 20
71.5632540277
 30
0.0
 11
199.898
 21
72.0712540277
 31
0.0
 12
199.898
 22
71.0552540277
 32
0.0
 13
199.898
 23
71.0552540277
 33
0.0
  0
LINE
  5
276
330
271
100
AcDbEntity
  8
SK2
100
AcDbLine
 10
89.0042564449
 20
82.3561357437
 30
0.0
 11
87.9378501875
 21
82.3561357437
 31
0.0
  0
LINE
  5
277
330
271
100
AcDbEntity
  8
SK2
100
AcDbLine
 10
87.9378501875
 20
82.3561357437
 30
0.0
 11
87.9378501875
 21
76.7998857526
 31
0.0
  0
LINE
  5
278
330
271
100
AcDbEntity
  8
SK2
100
AcDbLine
 10
87.9378501875
 20
76.7998857526
 30
0.0
 11
89.0042564449
 21
76.7998857526
 31
0.0
  0
LINE
  5
279
330
271
100
AcDbEntity
  8
SK2
100
AcDbLine
 10
98.0556455059
 20
82.3561357437
 30
0.0
 11
99.1220517633
 21
82.3561357437
 31
0.0
  0
LINE
  5
27A
330
271
100
AcDbEntity
  8
SK2
100
AcDbLine
 10
99.1220517633
 20
82.3561357437
 30
0.0
 11
99.1220517633
 21
76.7998857526
 31
0.0
  0
LINE
  5
27B
330
271
100
AcDbEntity
  8
SK2
100
AcDbLine
 10
99.1220517633
 20
76.7998857526
 30
0.0
 11
98.0556455059
 21
76.7998857526
 31
0.0
  0
LINE
  5
27C
330
271
100
AcDbEntity
  8
SK2
100
AcDbLine
 10
19.05
 20
47.5560855313
 30
0.0
 11
19.05
 21
72.5632540277
 31
0.0
  0
LINE
  5
27D
330
271
100
AcDbEntity
  8
SK2
100
AcDbLine
 10
203.2
 20
22.082
 30
0.0
 11
203.2
 21
72.5632540277
 31
0.0
  0
LINE
  5
27E
330
271
100
AcDbEntity
  8
SK2
100
AcDbLine
 10
19.05
 20
71.5632540277
 30
0.0
 11
203.2
 21
71.5632540277
 31
0.0
  0
MTEXT
  5
27F
330
271
100
AcDbEntity
  8
SK2
100
AcDbMText
 10
86.4375894218
 20
76.1284632935
 30
0.0
 40
3.5
 41
0.0
 71
     1
 72
     1
  1

  7
SLDTEXTSTYLE0
 73
     1
 44
1.0
  0
MTEXT
  5
280
330
271
100
AcDbEntity
  8
SK2
100
AcDbMText
 10
89.0042564449
 20
81.3116226672
 30
0.0
 40
3.5
 41
0.0
 71
     1
 72
     1
  1
7,25
  7
SLDTEXTSTYLE0
 73
     1
 44
1.0
  0
MTEXT
  5
281
330
271
100
AcDbEntity
  8
SK2
100
AcDbMText
 10
86.4181450186
 20
76.0749911169
 30
0.0
 40
3.5
 41
0.0
 71
     1
 72
     1
  1
184,15
  7
SLDTEXTSTYLE0
 73
     1
 44
1.0
  0
MTEXT
  5
282
330
271
100
AcDbEntity
  8
SK2
100
AcDbMText
 10
101.9542570486
 20
76.1284632935
 30
0.0
 40
3.5
 41
0.0
 71
     1
 72
     1
  1

  7
SLDTEXTSTYLE0
 73
     1
 44
1.0
  0
ENDBLK
  5
273
330
271
100
AcDbEntity
  8
0
100
AcDbBlockEnd
  0
BLOCK
  5
285
330
284
100
AcDbEntity
  8
0
100
AcDbBlockBegin
  2
_D_2
 70
     0
 10
0.0
 20
0.0
 30
0.0
  3
_D_2
  1

  0
SOLID
  5
287
330
284
100
AcDbEntity
  8
SK2
100
AcDbTrace
 10
35.1
 20
57.4663706223
 30
0.0
 11
38.402
 21
56.9583706223
 31
0.0
 12
38.402
 22
57.9743706223
 32
0.0
 13
38.402
 23
57.9743706223
 33
0.0
  0
SOLID
  5
288
330
284
100
AcDbEntity
  8
SK2
100
AcDbTrace
 10
203.2
 20
57.4663706223
 30
0.0
 11
199.898
 21
57.9743706223
 31
0.0
 12
199.898
 22
56.9583706223
 32
0.0
 13
199.898
 23
56.9583706223
 33
0.0
  0
LINE
  5
289
330
284
100
AcDbEntity
  8
SK2
100
AcDbLine
 10
125.552731745
 20
68.2592523383
 30
0.0
 11
124.4863254876
 21
68.2592523383
 31
0.0
  0
LINE
  5
28A
330
284
100
AcDbEntity
  8
SK2
100
AcDbLine
 10
124.4863254876
 20
68.2592523383
 30
0.0
 11
124.4863254876
 21
62.7030023473
 31
0.0
  0
LINE
  5
28B
330
284
100
AcDbEntity
  8
SK2
100
AcDbLine
 10
124.4863254876
 20
62.7030023473
 30
0.0
 11
125.552731745
 21
62.7030023473
 31
0.0
  0
LINE
  5
28C
330
284
100
AcDbEntity
  8
SK2
100
AcDbLine
 10
134.6041208059
 20
68.2592523383
 30
0.0
 11
135.6705270634
 21
68.2592523383
 31
0.0
  0
LINE
  5
28D
330
284
100
AcDbEntity
  8
SK2
100
AcDbLine
 10
135.6705270634
 20
68.2592523383
 30
0.0
 11
135.6705270634
 21
62.7030023473
 31
0.0
  0
LINE
  5
28E
330
284
100
AcDbEntity
  8
SK2
100
AcDbLine
 10
135.6705270634
 20
62.7030023473
 30
0.0
 11
134.6041208059
 21
62.7030023473
 31
0.0
  0
LINE
  5
28F
330
284
100
AcDbEntity
  8
SK2
100
AcDbLine
 10
35.1
 20
34.401
 30
0.0
 11
35.1
 21
58.4663706223
 31
0.0
  0
LINE
  5
290
330
284
100
AcDbEntity
  8
SK2
100
AcDbLine
 10
203.2
 20
22.082
 30
0.0
 11
203.2
 21
58.4663706223
 31
0.0
  0
LINE
  5
291
330
284
100
AcDbEntity
  8
SK2
100
AcDbLine
 10
35.1
 20
57.4663706223
 30
0.0
 11
203.2
 21
57.4663706223
 31
0.0
  0
MTEXT
  5
292
330
284
100
AcDbEntity
  8
SK2
100
AcDbMText
 10
123.4393636334
 20
62.0315798881
 30
0.0
 40
3.5
 41
0.0
 71
     1
 72
     1
  1

  7
SLDTEXTSTYLE0
 73
     1
 44
1.0
  0
MTEXT
  5
293
330
284
100
AcDbEntity
  8
SK2
100
AcDbMText
 10
125.552731745
 20
67.2147392618
 30
0.0
 40
3.5
 41
0.0
 71
     1
 72
     1
  1
6,62
  7
SLDTEXTSTYLE0
 73
     1
 44
1.0
  0
MTEXT
  5
294
330
284
100
AcDbEntity
  8
SK2
100
AcDbMText
 10
124.2596760318
 20
61.9781077115
 30
0.0
 40
3.5
 41
0.0
 71
     1
 72
     1
  1
168,1
  7
SLDTEXTSTYLE0
 73
     1
 44
1.0
  0
MTEXT
  5
295
330
284
100
AcDbEntity
  8
SK2
100
AcDbMText
 10
138.0494334372
 20
62.0315798881
 30
0.0
 40
3.5
 41
0.0
 71
     1
 72
     1
  1

  7
SLDTEXTSTYLE0
 73
     1
 44
1.0
  0
ENDBLK
  5
286
330
284
100
AcDbEntity
  8
0
100
AcDbBlockEnd
  0
BLOCK
  5
298
330
297
100
AcDbEntity
  8
0
100
AcDbBlockBegin
  2
_D_3
 70
     0
 10
0.0
 20
0.0
 30
0.0
  3
_D_3
  1

  0
SOLID
  5
29A
330
297
100
AcDbEntity
  8
SK2
100
AcDbTrace
 10
174.625
 20
44.5683141939
 30
0.0
 11
177.927
 21
44.0603141939
 31
0.0
 12
177.927
 22
45.0763141939
 32
0.0
 13
177.927
 23
45.0763141939
 33
0.0
  0
SOLID
  5
29B
330
297
100
AcDbEntity
  8
SK2
100
AcDbTrace
 10
203.2
 20
44.5683141939
 30
0.0
 11
199.898
 21
45.0763141939
 31
0.0
 12
199.898
 22
44.0603141939
 32
0.0
 13
199.898
 23
44.0603141939
 33
0.0
  0
LINE
  5
29C
330
297
100
AcDbEntity
  8
SK2
100
AcDbLine
 10
182.549323965
 20
55.3611959099
 30
0.0
 11
181.4829177075
 21
55.3611959099
 31
0.0
  0
LINE
  5
29D
330
297
100
AcDbEntity
  8
SK2
100
AcDbLine
 10
181.4829177075
 20
55.3611959099
 30
0.0
 11
181.4829177075
 21
49.8049459189
 31
0.0
  0
LINE
  5
29E
330
297
100
AcDbEntity
  8
SK2
100
AcDbLine
 10
181.4829177075
 20
49.8049459189
 30
0.0
 11
182.549323965
 21
49.8049459189
 31
0.0
  0
LINE
  5
29F
330
297
100
AcDbEntity
  8
SK2
100
AcDbLine
 10
191.6007130259
 20
55.3611959099
 30
0.0
 11
192.6671192833
 21
55.3611959099
 31
0.0
  0
LINE
  5
2A0
330
297
100
AcDbEntity
  8
SK2
100
AcDbLine
 10
192.6671192833
 20
55.3611959099
 30
0.0
 11
192.6671192833
 21
49.8049459189
 31
0.0
  0
LINE
  5
2A1
330
297
100
AcDbEntity
  8
SK2
100
AcDbLine
 10
192.6671192833
 20
49.8049459189
 30
0.0
 11
191.6007130259
 21
49.8049459189
 31
0.0
  0
LINE
  5
2A2
330
297
100
AcDbEntity
  8
SK2
100
AcDbLine
 10
174.625
 20
32.65
 30
0.0
 11
174.625
 21
45.5683141939
 31
0.0
  0
LINE
  5
2A3
330
297
100
AcDbEntity
  8
SK2
100
AcDbLine
 10
203.2
 20
22.082
 30
0.0
 11
203.2
 21
45.5683141939
 31
0.0
  0
LINE
  5
2A4
330
297
100
AcDbEntity
  8
SK2
100
AcDbLine
 10
174.625
 20
44.5683141939
 30
0.0
 11
203.2
 21
44.5683141939
 31
0.0
  0
MTEXT
  5
2A5
330
297
100
AcDbEntity
  8
SK2
100
AcDbMText
 10
180.4359558533
 20
49.1335234598
 30
0.0
 40
3.5
 41
0.0
 71
     1
 72
     1
  1

  7
SLDTEXTSTYLE0
 73
     1
 44
1.0
  0
MTEXT
  5
2A6
330
297
100
AcDbEntity
  8
SK2
100
AcDbMText
 10
182.549323965
 20
54.3166828335
 30
0.0
 40
3.5
 41
0.0
 71
     1
 72
     1
  1
1,13
  7
SLDTEXTSTYLE0
 73
     1
 44
1.0
  0
MTEXT
  5
2A7
330
297
100
AcDbEntity
  8
SK2
100
AcDbMText
 10
181.2562682518
 20
49.0800512831
 30
0.0
 40
3.5
 41
0.0
 71
     1
 72
     1
  1
28,58
  7
SLDTEXTSTYLE0
 73
     1
 44
1.0
  0
MTEXT
  5
2A8
330
297
100
AcDbEntity
  8
SK2
100
AcDbMText
 10
195.0460256572
 20
49.1335234598
 30
0.0
 40
3.5
 41
0.0
 71
     1
 72
     1
  1

  7
SLDTEXTSTYLE0
 73
     1
 44
1.0
  0
ENDBLK
  5
299
330
297
100
AcDbEntity
  8
0
100
AcDbBlockEnd
  0
BLOCK
  5
2AB
330
2AA
100
AcDbEntity
  8
0
100
AcDbBlockBegin
  2
_D_4
 70
     0
 10
0.0
 20
0.0
 30
0.0
  3
_D_4
  1

  0
SOLID
  5
2AD
330
2AA
100
AcDbEntity
  8
SK2
100
AcDbTrace
 10
149.225
 20
44.5683141939
 30
0.0
 11
152.527
 21
44.0603141939
 31
0.0
 12
152.527
 22
45.0763141939
 32
0.0
 13
152.527
 23
45.0763141939
 33
0.0
  0
SOLID
  5
2AE
330
2AA
100
AcDbEntity
  8
SK2
100
AcDbTrace
 10
174.625
 20
44.5683141939
 30
0.0
 11
171.323
 21
45.0763141939
 31
0.0
 12
171.323
 22
44.0603141939
 32
0.0
 13
171.323
 23
44.0603141939
 33
0.0
  0
LINE
  5
2AF
330
2AA
100
AcDbEntity
  8
SK2
100
AcDbLine
 10
156.4365717075
 20
55.3611959099
 30
0.0
 11
155.37016545
 21
55.3611959099
 31
0.0
  0
LINE
  5
2B0
330
2AA
100
AcDbEntity
  8
SK2
100
AcDbLine
 10
155.37016545
 20
55.3611959099
 30
0.0
 11
155.37016545
 21
49.8049459189
 31
0.0
  0
LINE
  5
2B1
330
2AA
100
AcDbEntity
  8
SK2
100
AcDbLine
 10
155.37016545
 20
49.8049459189
 30
0.0
 11
156.4365717075
 21
49.8049459189
 31
0.0
  0
LINE
  5
2B2
330
2AA
100
AcDbEntity
  8
SK2
100
AcDbLine
 10
165.4879607684
 20
55.3611959099
 30
0.0
 11
166.5543670258
 21
55.3611959099
 31
0.0
  0
LINE
  5
2B3
330
2AA
100
AcDbEntity
  8
SK2
100
AcDbLine
 10
166.5543670258
 20
55.3611959099
 30
0.0
 11
166.5543670258
 21
49.8049459189
 31
0.0
  0
LINE
  5
2B4
330
2AA
100
AcDbEntity
  8
SK2
100
AcDbLine
 10
166.5543670258
 20
49.8049459189
 30
0.0
 11
165.4879607684
 21
49.8049459189
 31
0.0
  0
LINE
  5
2B5
330
2AA
100
AcDbEntity
  8
SK2
100
AcDbLine
 10
149.225
 20
32.65
 30
0.0
 11
149.225
 21
45.5683141939
 31
0.0
  0
LINE
  5
2B6
330
2AA
100
AcDbEntity
  8
SK2
100
AcDbLine
 10
174.625
 20
32.65
 30
0.0
 11
174.625
 21
45.5683141939
 31
0.0
  0
LINE
  5
2B7
330
2AA
100
AcDbEntity
  8
SK2
100
AcDbLine
 10
149.225
 20
44.5683141939
 30
0.0
 11
174.625
 21
44.5683141939
 31
0.0
  0
MTEXT
  5
2B8
330
2AA
100
AcDbEntity
  8
SK2
100
AcDbMText
 10
154.3232035958
 20
49.1335234598
 30
0.0
 40
3.5
 41
0.0
 71
     1
 72
     1
  1

  7
SLDTEXTSTYLE0
 73
     1
 44
1.0
  0
MTEXT
  5
2B9
330
2AA
100
AcDbEntity
  8
SK2
100
AcDbMText
 10
156.4365717075
 20
54.3166828335
 30
0.0
 40
3.5
 41
0.0
 71
     1
 72
     1
  1
1,00
  7
SLDTEXTSTYLE0
 73
     1
 44
1.0
  0
MTEXT
  5
2BA
330
2AA
100
AcDbEntity
  8
SK2
100
AcDbMText
 10
156.4365717075
 20
49.0800512831
 30
0.0
 40
3.5
 41
0.0
 71
     1
 72
     1
  1
25,4
  7
SLDTEXTSTYLE0
 73
     1
 44
1.0
  0
MTEXT
  5
2BB
330
2AA
100
AcDbEntity
  8
SK2
100
AcDbMText
 10
168.9332733997
 20
49.1335234598
 30
0.0
 40
3.5
 41
0.0
 71
     1
 72
     1
  1

  7
SLDTEXTSTYLE0
 73
     1
 44
1.0
  0
ENDBLK
  5
2AC
330
2AA
100
AcDbEntity
  8
0
100
AcDbBlockEnd
  0
BLOCK
  5
2BF
330
2BE
100
AcDbEntity
  8
0
100
AcDbBlockBegin
  2
_D_5
 70
     0
 10
0.0
 20
0.0
 30
0.0
  3
_D_5
  1

  0
SOLID
  5
2C1
330
2BE
100
AcDbEntity
  8
SK2
100
AcDbTrace
 10
19.05
 20
71.5632540277
 30
0.0
 11
15.748
 21
72.0712540277
 31
0.0
 12
15.748
 22
71.0552540277
 32
0.0
 13
15.748
 23
71.0552540277
 33
0.0
  0
SOLID
  5
2C2
330
2BE
100
AcDbEntity
  8
SK2
100
AcDbTrace
 10
0.0
 20
71.5632540277
 30
0.0
 11
3.302
 21
71.0552540277
 31
0.0
 12
3.302
 22
72.0712540277
 32
0.0
 13
3.302
 23
72.0712540277
 33
0.0
  0
LINE
  5
2C3
330
2BE
100
AcDbEntity
  8
SK2
100
AcDbLine
 10
19.05
 20
36.687
 30
0.0
 11
19.05
 21
72.5632540277
 31
0.0
  0
LINE
  5
2C4
330
2BE
100
AcDbEntity
  8
SK2
100
AcDbLine
 10
0.0
 20
35.925
 30
0.0
 11
0.0
 21
72.5632540277
 31
0.0
  0
LINE
  5
2C5
330
2BE
100
AcDbEntity
  8
SK2
100
AcDbLine
 10
19.05
 20
71.5632540277
 30
0.0
 11
0.0
 21
71.5632540277
 31
0.0
  0
MTEXT
  5
2C6
330
2BE
100
AcDbEntity
  8
SK2
100
AcDbMText
 10
4.2704870405
 20
76.0749909422
 30
0.0
 40
3.5
 41
0.0
 71
     1
 72
     1
  1
19,05
  7
SLDTEXTSTYLE0
 73
     1
 44
1.0
  0
ENDBLK
  5
2C0
330
2BE
100
AcDbEntity
  8
0
100
AcDbBlockEnd
  0
BLOCK
  5
2CA
330
2C9
100
AcDbEntity
  8
0
100
AcDbBlockBegin
  2
_D_6
 70
     0
 10
0.0
 20
0.0
 30
0.0
  3
_D_6
  1

  0
SOLID
  5
2CC
330
2C9
100
AcDbEntity
  8
SK2
100
AcDbTrace
 10
222.637589232
 20
-15.875
 30
0.0
 11
223.145589232
 21
-12.573
 31
0.0
 12
222.129589232
 22
-12.573
 32
0.0
 13
222.129589232
 23
-12.573
 33
0.0
  0
SOLID
  5
2CD
330
2C9
100
AcDbEntity
  8
SK2
100
AcDbTrace
 10
222.637589232
 20
15.875
 30
0.0
 11
222.129589232
 21
12.573
 31
0.0
 12
223.145589232
 22
12.573
 32
0.0
 13
223.145589232
 23
12.573
 33
0.0
  0
LINE
  5
2CE
330
2C9
100
AcDbEntity
  8
SK2
100
AcDbLine
 10
211.8447075159
 20
-6.063470114
 30
0.0
 11
211.8447075159
 21
-7.1298763715
 31
0.0
  0
LINE
  5
2CF
330
2C9
100
AcDbEntity
  8
SK2
100
AcDbLine
 10
211.8447075159
 20
-7.1298763715
 30
0.0
 11
217.400957507
 21
-7.1298763715
 31
0.0
  0
LINE
  5
2D0
330
2C9
100
AcDbEntity
  8
SK2
100
AcDbLine
 10
217.400957507
 20
-7.1298763715
 30
0.0
 11
217.400957507
 21
-6.063470114
 31
0.0
  0
LINE
  5
2D1
330
2C9
100
AcDbEntity
  8
SK2
100
AcDbLine
 10
211.8447075159
 20
5.5740303733
 30
0.0
 11
211.8447075159
 21
6.6404366307
 31
0.0
  0
LINE
  5
2D2
330
2C9
100
AcDbEntity
  8
SK2
100
AcDbLine
 10
211.8447075159
 20
6.6404366307
 30
0.0
 11
217.400957507
 21
6.6404366307
 31
0.0
  0
LINE
  5
2D3
330
2C9
100
AcDbEntity
  8
SK2
100
AcDbLine
 10
217.400957507
 20
6.6404366307
 30
0.0
 11
217.400957507
 21
5.5740303733
 31
0.0
  0
LINE
  5
2D4
330
2C9
100
AcDbEntity
  8
SK2
100
AcDbLine
 10
202.7
 20
-15.875
 30
0.0
 11
223.637589232
 21
-15.875
 31
0.0
  0
LINE
  5
2D5
330
2C9
100
AcDbEntity
  8
SK2
100
AcDbLine
 10
202.7
 20
15.875
 30
0.0
 11
223.637589232
 21
15.875
 31
0.0
  0
LINE
  5
2D6
330
2C9
100
AcDbEntity
  8
SK2
100
AcDbLine
 10
222.637589232
 20
-15.875
 30
0.0
 11
222.637589232
 21
15.875
 31
0.0
  0
MTEXT
  5
2D7
330
2C9
100
AcDbEntity
  8
SK2
100
AcDbMText
 10
212.8892205924
 20
-6.063470114
 30
0.0
 40
3.5
 41
0.0
 71
     1
 72
     1
  1
1,250
  7
SLDTEXTSTYLE0
 11
5.053215498074303E-16
 21
1.0
 31
0.0
 73
     1
 44
1.0
  0
MTEXT
  5
2D8
330
2C9
100
AcDbEntity
  8
SK2
100
AcDbMText
 10
218.1258521427
 20
-8.7026892789
 30
0.0
 40
3.5
 41
0.0
 71
     1
 72
     1
  1
%%c
  7
SLDTEXTSTYLE0
 11
5.053215498074303E-16
 21
1.0
 31
0.0
 73
     1
 44
1.0
  0
MTEXT
  5
2D9
330
2C9
100
AcDbEntity
  8
SK2
100
AcDbMText
 10
218.1258521427
 20
-3.4242518805
 30
0.0
 40
3.5
 41
0.0
 71
     1
 72
     1
  1
31,75
  7
SLDTEXTSTYLE0
 11
5.053215498074303E-16
 21
1.0
 31
0.0
 73
     1
 44
1.0
  0
ENDBLK
  5
2CB
330
2C9
100
AcDbEntity
  8
0
100
AcDbBlockEnd
  0
BLOCK
  5
2DC
330
2DB
100
AcDbEntity
  8
0
100
AcDbBlockBegin
  2
_D_7
 70
     0
 10
0.0
 20
0.0
 30
0.0
  3
_D_7
  1

  0
SOLID
  5
2DE
330
2DB
100
AcDbEntity
  8
SK2
100
AcDbTrace
 10
238.053421936
 20
21.082
 30
0.0
 11
237.545421936
 21
17.78
 31
0.0
 12
238.561421936
 22
17.78
 32
0.0
 13
238.561421936
 23
17.78
 33
0.0
  0
SOLID
  5
2DF
330
2DB
100
AcDbEntity
  8
SK2
100
AcDbTrace
 10
238.053421936
 20
-21.082
 30
0.0
 11
238.561421936
 21
-17.78
 31
0.0
 12
237.545421936
 22
-17.78
 32
0.0
 13
237.545421936
 23
-17.78
 33
0.0
  0
LINE
  5
2E0
330
2DB
100
AcDbEntity
  8
SK2
100
AcDbLine
 10
227.26054022
 20
-2.6608798649
 30
0.0
 11
227.26054022
 21
-3.7272861223
 31
0.0
  0
LINE
  5
2E1
330
2DB
100
AcDbEntity
  8
SK2
100
AcDbLine
 10
227.26054022
 20
-3.7272861223
 30
0.0
 11
232.8167902111
 21
-3.7272861223
 31
0.0
  0
LINE
  5
2E2
330
2DB
100
AcDbEntity
  8
SK2
100
AcDbLine
 10
232.8167902111
 20
-3.7272861223
 30
0.0
 11
232.8167902111
 21
-2.6608798649
 31
0.0
  0
LINE
  5
2E3
330
2DB
100
AcDbEntity
  8
SK2
100
AcDbLine
 10
227.26054022
 20
6.390509196
 30
0.0
 11
227.26054022
 21
7.4569154535
 31
0.0
  0
LINE
  5
2E4
330
2DB
100
AcDbEntity
  8
SK2
100
AcDbLine
 10
227.26054022
 20
7.4569154535
 30
0.0
 11
232.8167902111
 21
7.4569154535
 31
0.0
  0
LINE
  5
2E5
330
2DB
100
AcDbEntity
  8
SK2
100
AcDbLine
 10
232.8167902111
 20
7.4569154535
 30
0.0
 11
232.8167902111
 21
6.390509196
 31
0.0
  0
LINE
  5
2E6
330
2DB
100
AcDbEntity
  8
SK2
100
AcDbLine
 10
204.2
 20
21.082
 30
0.0
 11
239.053421936
 21
21.082
 31
0.0
  0
LINE
  5
2E7
330
2DB
100
AcDbEntity
  8
SK2
100
AcDbLine
 10
204.2
 20
-21.082
 30
0.0
 11
239.053421936
 21
-21.082
 31
0.0
  0
LINE
  5
2E8
330
2DB
100
AcDbEntity
  8
SK2
100
AcDbLine
 10
238.053421936
 20
21.082
 30
0.0
 11
238.053421936
 21
-21.082
 31
0.0
  0
MTEXT
  5
2E9
330
2DB
100
AcDbEntity
  8
SK2
100
AcDbMText
 10
228.3050532965
 20
-2.6608798649
 30
0.0
 40
3.5
 41
0.0
 71
     1
 72
     1
  1
1,66
  7
SLDTEXTSTYLE0
 11
-7.044195017643634E-15
 21
1.0
 31
0.0
 73
     1
 44
1.0
  0
MTEXT
  5
2EA
330
2DB
100
AcDbEntity
  8
SK2
100
AcDbMText
 10
233.5416848468
 20
-6.5931542773
 30
0.0
 40
3.5
 41
0.0
 71
     1
 72
     1
  1
%%c
  7
SLDTEXTSTYLE0
 11
-7.044195017643634E-15
 21
1.0
 31
0.0
 73
     1
 44
1.0
  0
MTEXT
  5
2EB
330
2DB
100
AcDbEntity
  8
SK2
100
AcDbMText
 10
233.5416848468
 20
-1.3147168789
 30
0.0
 40
3.5
 41
0.0
 71
     1
 72
     1
  1
42,16
  7
SLDTEXTSTYLE0
 11
-7.044195017643634E-15
 21
1.0
 31
0.0
 73
     1
 44
1.0
  0
ENDBLK
  5
2DD
330
2DB
100
AcDbEntity
  8
0
100
AcDbBlockEnd
  0
BLOCK
  5
2EE
330
2ED
100
AcDbEntity
  8
0
100
AcDbBlockBegin
  2
_D_8
 70
     0
 10
0.0
 20
0.0
 30
0.0
  3
_D_8
  1

  0
SOLID
  5
2F0
330
2ED
100
AcDbEntity
  8
SK2
100
AcDbTrace
 10
253.9560704098
 20
31.75
 30
0.0
 11
253.4480704098
 21
28.448
 31
0.0
 12
254.4640704098
 22
28.448
 32
0.0
 13
254.4640704098
 23
28.448
 33
0.0
  0
SOLID
  5
2F1
330
2ED
100
AcDbEntity
  8
SK2
100
AcDbTrace
 10
253.9560704098
 20
-31.75
 30
0.0
 11
254.4640704098
 21
-28.448
 31
0.0
 12
253.4480704098
 22
-28.448
 32
0.0
 13
253.4480704098
 23
-28.448
 33
0.0
  0
LINE
  5
2F2
330
2ED
100
AcDbEntity
  8
SK2
100
AcDbLine
 10
243.1631886937
 20
-2.6608798649
 30
0.0
 11
243.1631886937
 21
-3.7272861223
 31
0.0
  0
LINE
  5
2F3
330
2ED
100
AcDbEntity
  8
SK2
100
AcDbLine
 10
243.1631886937
 20
-3.7272861223
 30
0.0
 11
248.7194386848
 21
-3.7272861223
 31
0.0
  0
LINE
  5
2F4
330
2ED
100
AcDbEntity
  8
SK2
100
AcDbLine
 10
248.7194386848
 20
-3.7272861223
 30
0.0
 11
248.7194386848
 21
-2.6608798649
 31
0.0
  0
LINE
  5
2F5
330
2ED
100
AcDbEntity
  8
SK2
100
AcDbLine
 10
243.1631886937
 20
6.390509196
 30
0.0
 11
243.1631886937
 21
7.4569154535
 31
0.0
  0
LINE
  5
2F6
330
2ED
100
AcDbEntity
  8
SK2
100
AcDbLine
 10
243.1631886937
 20
7.4569154535
 30
0.0
 11
248.7194386848
 21
7.4569154535
 31
0.0
  0
LINE
  5
2F7
330
2ED
100
AcDbEntity
  8
SK2
100
AcDbLine
 10
248.7194386848
 20
7.4569154535
 30
0.0
 11
248.7194386848
 21
6.390509196
 31
0.0
  0
LINE
  5
2F8
330
2ED
100
AcDbEntity
  8
SK2
100
AcDbLine
 10
193.532
 20
31.75
 30
0.0
 11
254.9560704098
 21
31.75
 31
0.0
  0
LINE
  5
2F9
330
2ED
100
AcDbEntity
  8
SK2
100
AcDbLine
 10
193.532
 20
-31.75
 30
0.0
 11
254.9560704098
 21
-31.75
 31
0.0
  0
LINE
  5
2FA
330
2ED
100
AcDbEntity
  8
SK2
100
AcDbLine
 10
253.9560704098
 20
31.75
 30
0.0
 11
253.9560704098
 21
-31.75
 31
0.0
  0
MTEXT
  5
2FB
330
2ED
100
AcDbEntity
  8
SK2
100
AcDbMText
 10
244.2077017702
 20
-2.6608798649
 30
0.0
 40
3.5
 41
0.0
 71
     1
 72
     1
  1
2,50
  7
SLDTEXTSTYLE0
 11
-7.044195017643634E-15
 21
1.0
 31
0.0
 73
     1
 44
1.0
  0
MTEXT
  5
2FC
330
2ED
100
AcDbEntity
  8
SK2
100
AcDbMText
 10
249.4443333205
 20
-5.3000990297
 30
0.0
 40
3.5
 41
0.0
 71
     1
 72
     1
  1
%%c
  7
SLDTEXTSTYLE0
 11
-7.044195017643634E-15
 21
1.0
 31
0.0
 73
     1
 44
1.0
  0
MTEXT
  5
2FD
330
2ED
100
AcDbEntity
  8
SK2
100
AcDbMText
 10
249.4443333205
 20
-0.0216616314
 30
0.0
 40
3.5
 41
0.0
 71
     1
 72
     1
  1
63,5
  7
SLDTEXTSTYLE0
 11
-7.044195017643634E-15
 21
1.0
 31
0.0
 73
     1
 44
1.0
  0
ENDBLK
  5
2EF
330
2ED
100
AcDbEntity
  8
0
100
AcDbBlockEnd
  0
BLOCK
  5
300
330
2FF
100
AcDbEntity
  8
0
100
AcDbBlockBegin
  2
_D_9
 70
     0
 10
0.0
 20
0.0
 30
0.0
  3
_D_9
  1

  0
SOLID
  5
302
330
2FF
100
AcDbEntity
  8
SK2
100
AcDbTrace
 10
-101.6
 20
-69.8179316996
 30
0.0
 11
-98.298
 21
-70.3259316996
 31
0.0
 12
-98.298
 22
-69.3099316996
 32
0.0
 13
-98.298
 23
-69.3099316996
 33
0.0
  0
SOLID
  5
303
330
2FF
100
AcDbEntity
  8
SK2
100
AcDbTrace
 10
203.2
 20
-69.8179316996
 30
0.0
 11
199.898
 21
-69.3099316996
 31
0.0
 12
199.898
 22
-70.3259316996
 32
0.0
 13
199.898
 23
-70.3259316996
 33
0.0
  0
LINE
  5
304
330
2FF
100
AcDbEntity
  8
SK2
100
AcDbLine
 10
52.971002464
 20
-59.0250499835
 30
0.0
 11
51.9045962066
 21
-59.0250499835
 31
0.0
  0
LINE
  5
305
330
2FF
100
AcDbEntity
  8
SK2
100
AcDbLine
 10
51.9045962066
 20
-59.0250499835
 30
0.0
 11
51.9045962066
 21
-64.5812999746
 31
0.0
  0
LINE
  5
306
330
2FF
100
AcDbEntity
  8
SK2
100
AcDbLine
 10
51.9045962066
 20
-64.5812999746
 30
0.0
 11
52.971002464
 21
-64.5812999746
 31
0.0
  0
LINE
  5
307
330
2FF
100
AcDbEntity
  8
SK2
100
AcDbLine
 10
64.6085029513
 20
-59.0250499835
 30
0.0
 11
65.6749092087
 21
-59.0250499835
 31
0.0
  0
LINE
  5
308
330
2FF
100
AcDbEntity
  8
SK2
100
AcDbLine
 10
65.6749092087
 20
-59.0250499835
 30
0.0
 11
65.6749092087
 21
-64.5812999746
 31
0.0
  0
LINE
  5
309
330
2FF
100
AcDbEntity
  8
SK2
100
AcDbLine
 10
65.6749092087
 20
-64.5812999746
 30
0.0
 11
64.6085029513
 21
-64.5812999746
 31
0.0
  0
LINE
  5
30A
330
2FF
100
AcDbEntity
  8
SK2
100
AcDbLine
 10
-101.6
 20
-19.2922326599
 30
0.0
 11
-101.6
 21
-70.8179316996
 31
0.0
  0
LINE
  5
30B
330
2FF
100
AcDbEntity
  8
SK2
100
AcDbLine
 10
203.2
 20
-22.082
 30
0.0
 11
203.2
 21
-70.8179316996
 31
0.0
  0
LINE
  5
30C
330
2FF
100
AcDbEntity
  8
SK2
100
AcDbLine
 10
-101.6
 20
-69.8179316996
 30
0.0
 11
203.2
 21
-69.8179316996
 31
0.0
  0
MTEXT
  5
30D
330
2FF
100
AcDbEntity
  8
SK2
100
AcDbMText
 10
50.8576343524
 20
-65.2527224337
 30
0.0
 40
3.5
 41
0.0
 71
     1
 72
     1
  1

  7
SLDTEXTSTYLE0
 73
     1
 44
1.0
  0
MTEXT
  5
30E
330
2FF
100
AcDbEntity
  8
SK2
100
AcDbMText
 10
52.971002464
 20
-60.06956306
 30
0.0
 40
3.5
 41
0.0
 71
     1
 72
     1
  1
12,00
  7
SLDTEXTSTYLE0
 73
     1
 44
1.0
  0
MTEXT
  5
30F
330
2FF
100
AcDbEntity
  8
SK2
100
AcDbMText
 10
52.9710019984
 20
-65.3061946104
 30
0.0
 40
3.5
 41
0.0
 71
     1
 72
     1
  1
304,8
  7
SLDTEXTSTYLE0
 73
     1
 44
1.0
  0
MTEXT
  5
310
330
2FF
100
AcDbEntity
  8
SK2
100
AcDbMText
 10
68.0538146513
 20
-65.2527224337
 30
0.0
 40
3.5
 41
0.0
 71
     1
 72
     1
  1

  7
SLDTEXTSTYLE0
 73
     1
 44
1.0
  0
ENDBLK
  5
301
330
2FF
100
AcDbEntity
  8
0
100
AcDbBlockEnd
  0
BLOCK
  5
313
330
312
100
AcDbEntity
  8
0
100
AcDbBlockBegin
  2
_D_10
 70
     0
 10
0.0
 20
0.0
 30
0.0
  3
_D_10
  1

  0
SOLID
  5
315
330
312
100
AcDbEntity
  8
SK2
100
AcDbTrace
 10
143.51
 20
-58.8735902022
 30
0.0
 11
146.812
 21
-59.3815902022
 31
0.0
 12
146.812
 22
-58.3655902022
 32
0.0
 13
146.812
 23
-58.3655902022
 33
0.0
  0
SOLID
  5
316
330
312
100
AcDbEntity
  8
SK2
100
AcDbTrace
 10
203.2
 20
-58.8735902022
 30
0.0
 11
199.898
 21
-58.3655902022
 31
0.0
 12
199.898
 22
-59.3815902022
 32
0.0
 13
199.898
 23
-59.3815902022
 33
0.0
  0
LINE
  5
317
330
312
100
AcDbEntity
  8
SK2
100
AcDbLine
 10
161.1586356924
 20
-48.0807084862
 30
0.0
 11
160.092229435
 21
-48.0807084862
 31
0.0
  0
LINE
  5
318
330
312
100
AcDbEntity
  8
SK2
100
AcDbLine
 10
160.092229435
 20
-48.0807084862
 30
0.0
 11
160.092229435
 21
-53.6369584773
 31
0.0
  0
LINE
  5
319
330
312
100
AcDbEntity
  8
SK2
100
AcDbLine
 10
160.092229435
 20
-53.6369584773
 30
0.0
 11
161.1586356924
 21
-53.6369584773
 31
0.0
  0
LINE
  5
31A
330
312
100
AcDbEntity
  8
SK2
100
AcDbLine
 10
170.2100247533
 20
-48.0807084862
 30
0.0
 11
171.2764310108
 21
-48.0807084862
 31
0.0
  0
LINE
  5
31B
330
312
100
AcDbEntity
  8
SK2
100
AcDbLine
 10
171.2764310108
 20
-48.0807084862
 30
0.0
 11
171.2764310108
 21
-53.6369584773
 31
0.0
  0
LINE
  5
31C
330
312
100
AcDbEntity
  8
SK2
100
AcDbLine
 10
171.2764310108
 20
-53.6369584773
 30
0.0
 11
170.2100247533
 21
-53.6369584773
 31
0.0
  0
LINE
  5
31D
330
312
100
AcDbEntity
  8
SK2
100
AcDbLine
 10
143.51
 20
-16.9175
 30
0.0
 11
143.51
 21
-59.8735902022
 31
0.0
  0
LINE
  5
31E
330
312
100
AcDbEntity
  8
SK2
100
AcDbLine
 10
203.2
 20
-22.082
 30
0.0
 11
203.2
 21
-59.8735902022
 31
0.0
  0
LINE
  5
31F
330
312
100
AcDbEntity
  8
SK2
100
AcDbLine
 10
143.51
 20
-58.8735902022
 30
0.0
 11
203.2
 21
-58.8735902022
 31
0.0
  0
MTEXT
  5
320
330
312
100
AcDbEntity
  8
SK2
100
AcDbMText
 10
159.0452675808
 20
-54.3083809364
 30
0.0
 40
3.5
 41
0.0
 71
     1
 72
     1
  1

  7
SLDTEXTSTYLE0
 73
     1
 44
1.0
  0
MTEXT
  5
321
330
312
100
AcDbEntity
  8
SK2
100
AcDbMText
 10
161.1586356924
 20
-49.1252215627
 30
0.0
 40
3.5
 41
0.0
 71
     1
 72
     1
  1
2,35
  7
SLDTEXTSTYLE0
 73
     1
 44
1.0
  0
MTEXT
  5
322
330
312
100
AcDbEntity
  8
SK2
100
AcDbMText
 10
159.8655799793
 20
-54.361853113
 30
0.0
 40
3.5
 41
0.0
 71
     1
 72
     1
  1
59,69
  7
SLDTEXTSTYLE0
 73
     1
 44
1.0
  0
MTEXT
  5
323
330
312
100
AcDbEntity
  8
SK2
100
AcDbMText
 10
173.6553373847
 20
-54.3083809364
 30
0.0
 40
3.5
 41
0.0
 71
     1
 72
     1
  1

  7
SLDTEXTSTYLE0
 73
     1
 44
1.0
  0
ENDBLK
  5
314
330
312
100
AcDbEntity
  8
0
100
AcDbBlockEnd
  0
BLOCK
  5
327
330
326
100
AcDbEntity
  8
0
100
AcDbBlockBegin
  2
_D_11
 70
     0
 10
0.0
 20
0.0
 30
0.0
  3
_D_11
  1

  0
SOLID
  5
329
330
326
100
AcDbEntity
  8
SK2
100
AcDbTrace
 10
203.2
 20
-49.1544628284
 30
0.0
 11
206.502
 21
-49.6624628284
 31
0.0
 12
206.502
 22
-48.6464628284
 32
0.0
 13
206.502
 23
-48.6464628284
 33
0.0
  0
SOLID
  5
32A
330
326
100
AcDbEntity
  8
SK2
100
AcDbTrace
 10
192.532
 20
-49.1544628284
 30
0.0
 11
189.23
 21
-48.6464628284
 31
0.0
 12
189.23
 22
-49.6624628284
 32
0.0
 13
189.23
 23
-49.6624628284
 33
0.0
  0
LINE
  5
32B
330
326
100
AcDbEntity
  8
SK2
100
AcDbLine
 10
203.2
 20
-17.7336733566
 30
0.0
 11
203.2
 21
-50.1544628284
 31
0.0
  0
LINE
  5
32C
330
326
100
AcDbEntity
  8
SK2
100
AcDbLine
 10
192.532
 20
-32.75
 30
0.0
 11
192.532
 21
-50.1544628284
 31
0.0
  0
LINE
  5
32D
330
326
100
AcDbEntity
  8
SK2
100
AcDbLine
 10
203.2
 20
-49.1544628284
 30
0.0
 11
209.55
 21
-49.1544628284
 31
0.0
  0
LINE
  5
32E
330
326
100
AcDbEntity
  8
SK2
100
AcDbLine
 10
203.2
 20
-49.1544628284
 30
0.0
 11
192.532
 21
-49.1544628284
 31
0.0
  0
LINE
  5
32F
330
326
100
AcDbEntity
  8
SK2
100
AcDbLine
 10
192.532
 20
-49.1544628284
 30
0.0
 11
181.2562679026
 21
-49.1544628284
 31
0.0
  0
MTEXT
  5
330
330
326
100
AcDbEntity
  8
SK2
100
AcDbMText
 10
181.2562679026
 20
-44.6427259138
 30
0.0
 40
3.5
 41
0.0
 71
     1
 72
     1
  1
10,67
  7
SLDTEXTSTYLE0
 73
     1
 44
1.0
  0
ENDBLK
  5
328
330
326
100
AcDbEntity
  8
0
100
AcDbBlockEnd
  0
BLOCK
  5
333
330
332
100
AcDbEntity
  8
0
100
AcDbBlockBegin
  2
_D_12
 70
     0
 10
0.0
 20
0.0
 30
0.0
  3
_D_12
  1

  0
SOLID
  5
335
330
332
100
AcDbEntity
  8
SK2
100
AcDbTrace
 10
-120.2197948011
 20
47.2968145978
 30
0.0
 11
-120.7277948011
 21
43.9948145978
 31
0.0
 12
-119.7117948011
 22
43.9948145978
 32
0.0
 13
-119.7117948011
 23
43.9948145978
 33
0.0
  0
SOLID
  5
336
330
332
100
AcDbEntity
  8
SK2
100
AcDbTrace
 10
-120.2197948011
 20
-47.4754841997
 30
0.0
 11
-119.7117948011
 21
-44.1734841997
 31
0.0
 12
-120.7277948011
 22
-44.1734841997
 32
0.0
 13
-120.7277948011
 23
-44.1734841997
 33
0.0
  0
LINE
  5
337
330
332
100
AcDbEntity
  8
SK2
100
AcDbLine
 10
4.7701383033
 20
47.2968145978
 30
0.0
 11
-121.2197948011
 21
47.2968145978
 31
0.0
  0
LINE
  5
338
330
332
100
AcDbEntity
  8
SK2
100
AcDbLine
 10
2.95
 20
-47.4754841997
 30
0.0
 11
-121.2197948011
 21
-47.4754841997
 31
0.0
  0
LINE
  5
339
330
332
100
AcDbEntity
  8
SK2
100
AcDbLine
 10
-120.2197948011
 20
47.2968145978
 30
0.0
 11
-120.2197948011
 21
-47.4754841997
 31
0.0
  0
MTEXT
  5
33A
330
332
100
AcDbEntity
  8
SK2
100
AcDbMText
 10
-124.7315318903
 20
-8.7026892789
 30
0.0
 40
3.5
 41
0.0
 71
     1
 72
     1
  1
%%c
  7
SLDTEXTSTYLE0
 11
-7.044195017643634E-15
 21
1.0
 31
0.0
 73
     1
 44
1.0
  0
MTEXT
  5
33B
330
332
100
AcDbEntity
  8
SK2
100
AcDbMText
 10
-124.7850040669
 20
-3.4242518805
 30
0.0
 40
3.5
 41
0.0
 71
     1
 72
     1
  1
98,42
  7
SLDTEXTSTYLE0
 11
-7.044195017643634E-15
 21
1.0
 31
0.0
 73
     1
 44
1.0
  0
ENDBLK
  5
334
330
332
100
AcDbEntity
  8
0
100
AcDbBlockEnd
  0
BLOCK
  5
33E
330
33D
100
AcDbEntity
  8
0
100
AcDbBlockBegin
  2
_D_13
 70
     0
 10
0.0
 20
0.0
 30
0.0
  3
_D_13
  1

  0
SOLID
  5
340
330
33D
100
AcDbEntity
  8
SK2
100
AcDbTrace
 10
-110.0367696382
 20
-12.6999998465
 30
0.0
 11
-109.5287696382
 21
-9.3979998465
 31
0.0
 12
-110.5447696382
 22
-9.3979998465
 32
0.0
 13
-110.5447696382
 23
-9.3979998465
 33
0.0
  0
SOLID
  5
341
330
33D
100
AcDbEntity
  8
SK2
100
AcDbTrace
 10
-110.0367696382
 20
12.6999998465
 30
0.0
 11
-110.5447696382
 21
9.3979998465
 31
0.0
 12
-109.5287696382
 22
9.3979998465
 32
0.0
 13
-109.5287696382
 23
9.3979998465
 33
0.0
  0
LINE
  5
342
330
33D
100
AcDbEntity
  8
SK2
100
AcDbLine
 10
-95.967097044
 20
-12.6999998465
 30
0.0
 11
-111.0367696382
 21
-12.6999998465
 31
0.0
  0
LINE
  5
343
330
33D
100
AcDbEntity
  8
SK2
100
AcDbLine
 10
-95.967097044
 20
12.6999998465
 30
0.0
 11
-111.0367696382
 21
12.6999998465
 31
0.0
  0
LINE
  5
344
330
33D
100
AcDbEntity
  8
SK2
100
AcDbLine
 10
-110.0367696382
 20
-12.6999998465
 30
0.0
 11
-110.0367696382
 21
12.6999998465
 31
0.0
  0
MTEXT
  5
346
330
33D
100
AcDbEntity
  8
SK2
100
AcDbMText
 10
-114.5485065528
 20
-10.6961098127
 30
0.0
 40
3.5
 41
0.0
 71
     1
 72
     1
  1
1 - 8 UNC
  7
SLDTEXTSTYLE1
 11
6.123233995736766E-17
 21
1.0
 31
0.0
 73
     1
 44
1.0
  0
ENDBLK
  5
33F
330
33D
100
AcDbEntity
  8
0
100
AcDbBlockEnd
  0
ENDSEC
  0
SECTION
  2
ENTITIES
  0
LINE
  5
82
330
1F
100
AcDbEntity
  8
1
  6
SLD-Solid
370
    25
100
AcDbLine
 10
1.7476022729
 20
-34.925
 30
0.0
 11
2.1330363037
 21
-34.7452691597
 31
0.0
  0
LINE
  5
83
330
1F
100
AcDbEntity
  8
1
  6
SLD-Solid
370
    25
100
AcDbLine
 10
2.1330363037
 20
34.7452691597
 30
0.0
 11
1.7476022729
 21
34.925
 31
0.0
  0
LINE
  5
84
330
1F
100
AcDbEntity
  8
1
  6
SLD-Solid
370
    25
100
AcDbLine
 10
1.7476022729
 20
34.925
 30
0.0
 11
0.0
 21
34.925
 31
0.0
  0
LINE
  5
85
330
1F
100
AcDbEntity
  8
1
  6
SLD-Solid
370
    25
100
AcDbLine
 10
0.0
 20
-34.925
 30
0.0
 11
1.7476022729
 21
-34.925
 31
0.0
  0
LINE
  5
86
330
1F
100
AcDbEntity
  8
SK1
  6
SLD-Solid
370
    25
100
AcDbLine
 10
0.0
 20
34.925
 30
0.0
 11
-99.8030472773
 21
20.3702515116
 31
0.0
  0
LINE
  5
87
330
1F
100
AcDbEntity
  8
SK1
  6
SLD-Solid
370
    25
100
AcDbLine
 10
-99.8030472773
 20
-20.3702515116
 30
0.0
 11
0.0
 21
-34.925
 31
0.0
  0
LINE
  5
88
330
1F
100
AcDbEntity
  8
1
  6
SLD-Solid
370
    25
100
AcDbLine
 10
33.576
 20
34.925
 30
0.0
 11
19.812
 21
34.925
 31
0.0
  0
LINE
  5
89
330
1F
100
AcDbEntity
  8
1
  6
SLD-Solid
370
    25
100
AcDbLine
 10
19.812
 20
-34.925
 30
0.0
 11
33.576
 21
-34.925
 31
0.0
  0
LINE
  5
8A
330
1F
100
AcDbEntity
  8
1
  6
SLD-Solid
370
    25
100
AcDbLine
 10
139.125
 20
31.75
 30
0.0
 11
36.624
 21
31.75
 31
0.0
  0
LINE
  5
8B
330
1F
100
AcDbEntity
  8
1
  6
SLD-Solid
370
    25
100
AcDbLine
 10
164.525
 20
31.75
 30
0.0
 11
159.3185423075
 21
31.75
 31
0.0
  0
LINE
  5
8C
330
1F
100
AcDbEntity
  8
1
  6
SLD-Solid
370
    25
100
AcDbLine
 10
192.532
 20
31.75
 30
0.0
 11
184.7185423075
 21
31.75
 31
0.0
  0
LINE
  5
8D
330
1F
100
AcDbEntity
  8
1
  6
SLD-Solid
370
    25
100
AcDbLine
 10
185.7597470391
 20
-31.75
 30
0.0
 11
192.532
 21
-31.75
 31
0.0
  0
LINE
  5
8E
330
1F
100
AcDbEntity
  8
1
  6
SLD-Solid
370
    25
100
AcDbLine
 10
160.3597470391
 20
-31.75
 30
0.0
 11
163.4753124226
 21
-31.75
 31
0.0
  0
LINE
  5
8F
330
1F
100
AcDbEntity
  8
1
  6
SLD-Solid
370
    25
100
AcDbLine
 10
36.624
 20
-31.75
 30
0.0
 11
138.0753124226
 21
-31.75
 31
0.0
  0
LINE
  5
90
330
1F
100
AcDbEntity
  8
1
  6
SLD-Solid
370
    25
100
AcDbLine
 10
192.532
 20
-31.75
 30
0.0
 11
203.2
 21
-21.082
 31
0.0
  0
LINE
  5
91
330
1F
100
AcDbEntity
  8
1
  6
SLD-Solid
370
    25
100
AcDbLine
 10
203.2
 20
21.082
 30
0.0
 11
192.532
 21
31.75
 31
0.0
  0
LINE
  5
92
330
1F
100
AcDbEntity
  8
1
  6
SLD-Solid
370
    25
100
AcDbLine
 10
3.2
 20
-46.6976348437
 30
0.0
 11
3.2
 21
46.5560855313
 31
0.0
  0
LINE
  5
93
330
1F
100
AcDbEntity
  8
1
  6
SLD-Solid
370
    25
100
AcDbLine
 10
3.95
 20
47.2968145978
 30
0.0
 11
3.95
 21
-47.4754841997
 31
0.0
  0
LINE
  5
94
330
1F
100
AcDbEntity
  8
1
  6
SLD-Solid
370
    25
100
AcDbLine
 10
3.95
 20
-47.4754841997
 30
0.0
 11
7.5902766066
 21
-47.4754841997
 31
0.0
  0
LINE
  5
95
330
1F
100
AcDbEntity
  8
1
  6
SLD-Solid
370
    25
100
AcDbLine
 10
7.5902766066
 20
47.2968145978
 30
0.0
 11
3.95
 21
47.2968145978
 31
0.0
  0
LINE
  5
96
330
1F
100
AcDbEntity
  8
1
  6
SLD-Solid
370
    25
100
AcDbLine
 10
7.5902766066
 20
47.2968145978
 30
0.0
 11
7.5902766066
 21
-47.4754841997
 31
0.0
  0
LINE
  5
97
330
1F
100
AcDbEntity
  8
1
  6
SLD-Solid
370
    25
100
AcDbLine
 10
18.3
 20
-47.4754841997
 30
0.0
 11
18.3
 21
47.2968145978
 31
0.0
  0
LINE
  5
98
330
1F
100
AcDbEntity
  8
1
  6
SLD-Solid
370
    25
100
AcDbLine
 10
19.05
 20
46.5560855313
 30
0.0
 11
19.05
 21
-46.6976348437
 31
0.0
  0
LINE
  5
99
330
1F
100
AcDbEntity
  8
1
  6
SLD-Solid
370
    25
100
AcDbLine
 10
14.6397233934
 20
-47.4754841997
 30
0.0
 11
18.3
 21
-47.4754841997
 31
0.0
  0
LINE
  5
9A
330
1F
100
AcDbEntity
  8
1
  6
SLD-Solid
370
    25
100
AcDbLine
 10
14.6397233934
 20
47.2968145978
 30
0.0
 11
14.6397233934
 21
-47.4754841997
 31
0.0
  0
LINE
  5
9B
330
1F
100
AcDbEntity
  8
1
  6
SLD-Solid
370
    25
100
AcDbLine
 10
18.3
 20
47.2968145978
 30
0.0
 11
14.6397233934
 21
47.2968145978
 31
0.0
  0
LINE
  5
9C
330
1F
100
AcDbEntity
  8
1
  6
SLD-Solid
370
    25
100
AcDbLine
 10
9.2
 20
44.5790106634
 30
0.0
 11
9.2
 21
41.9587011964
 31
0.0
  0
LINE
  5
9D
330
1F
100
AcDbEntity
  8
1
  6
SLD-Solid
370
    25
100
AcDbLine
 10
9.2
 20
41.4830129515
 30
0.0
 11
9.2
 21
35.3885961177
 31
0.0
  0
LINE
  5
9E
330
1F
100
AcDbEntity
  8
1
  6
SLD-Solid
370
    25
100
AcDbLine
 10
9.2
 20
34.676688935
 30
0.0
 11
9.2
 21
-44.5790106634
 31
0.0
  0
LINE
  5
9F
330
1F
100
AcDbEntity
  8
1
  6
SLD-Solid
370
    25
100
AcDbLine
 10
13.03
 20
44.5790106634
 30
0.0
 11
13.03
 21
41.9871173317
 31
0.0
  0
LINE
  5
A0
330
1F
100
AcDbEntity
  8
1
  6
SLD-Solid
370
    25
100
AcDbLine
 10
13.03
 20
34.6324292339
 30
0.0
 11
13.03
 21
-44.5790106634
 31
0.0
  0
LINE
  5
A1
330
1F
100
AcDbEntity
  8
1
  6
SLD-Solid
370
    25
100
AcDbLine
 10
13.03
 20
41.453113616
 30
0.0
 11
13.03
 21
35.4316103884
 31
0.0
  0
LINE
  5
A2
330
1F
100
AcDbEntity
  8
1
  6
SLD-Solid
370
    25
100
AcDbLine
 10
12.28
 20
33.3554707167
 30
0.0
 11
12.28
 21
-43.7694359685
 31
0.0
  0
LINE
  5
A3
330
1F
100
AcDbEntity
  8
1
  6
SLD-Solid
370
    25
100
AcDbLine
 10
9.95
 20
33.3652595305
 30
0.0
 11
9.95
 21
-43.7694359685
 31
0.0
  0
LINE
  5
A4
330
1F
100
AcDbEntity
  8
1
  6
SLD-Solid
370
    25
100
AcDbLine
 10
9.95
 20
-43.7694359685
 30
0.0
 11
12.28
 21
-43.7694359685
 31
0.0
  0
LINE
  5
A5
330
1F
100
AcDbEntity
  8
1
  6
SLD-Solid
370
    25
100
AcDbLine
 10
1.7476022729
 20
34.925
 30
0.0
 11
1.7476022729
 21
-34.925
 31
0.0
  0
LINE
  5
A6
330
1F
100
AcDbEntity
  8
1
  6
SLD-Solid
370
    25
100
AcDbLine
 10
0.0
 20
34.925
 30
0.0
 11
0.0
 21
-34.925
 31
0.0
  0
LINE
  5
A7
330
1F
100
AcDbEntity
  8
1
  6
SLD-Solid
370
    25
100
AcDbLine
 10
35.1
 20
0.0
 30
0.0
 11
35.1
 21
-33.401
 31
0.0
  0
LINE
  5
A8
330
1F
100
AcDbEntity
  8
1
  6
SLD-Solid
370
    25
100
AcDbLine
 10
35.1
 20
33.401
 30
0.0
 11
35.1
 21
0.0
 31
0.0
  0
LINE
  5
A9
330
1F
100
AcDbEntity
  8
1
  6
SLD-Solid
370
    25
100
AcDbLine
 10
192.532
 20
31.75
 30
0.0
 11
192.532
 21
-31.75
 31
0.0
  0
LINE
  5
AA
330
1F
100
AcDbEntity
  8
1
  6
SLD-Solid
370
    25
100
AcDbLine
 10
203.2
 20
21.082
 30
0.0
 11
203.2
 21
-21.082
 31
0.0
  0
LINE
  5
AB
330
1F
100
AcDbEntity
  8
1
  6
SLD-Solid
370
    25
100
AcDbLine
 10
13.03
 20
35.4113240881
 30
0.0
 11
13.03
 21
35.4316103884
 31
0.0
  0
LINE
  5
AC
330
1F
100
AcDbEntity
  8
1
  6
SLD-Solid
370
    25
100
AcDbLine
 10
9.2
 20
35.3885961177
 30
0.0
 11
9.2
 21
35.3683101782
 31
0.0
  0
LINE
  5
AD
330
1F
100
AcDbEntity
  8
1
  6
SLD-Solid
370
    25
100
AcDbLine
 10
9.95
 20
40.2901760725
 30
0.0
 11
9.95
 21
35.4888548114
 31
0.0
  0
LINE
  5
AE
330
1F
100
AcDbEntity
  8
1
  6
SLD-Solid
370
    25
100
AcDbLine
 10
12.28
 20
40.2834337913
 30
0.0
 11
12.28
 21
35.4978726362
 31
0.0
  0
LINE
  5
AF
330
1F
100
AcDbEntity
  8
1
  6
SLD-Solid
370
    25
100
AcDbLine
 10
9.2
 20
41.9587011964
 30
0.0
 11
9.2
 21
41.9345423912
 31
0.0
  0
LINE
  5
B0
330
1F
100
AcDbEntity
  8
1
  6
SLD-Solid
370
    25
100
AcDbLine
 10
13.03
 20
41.9629580968
 30
0.0
 11
13.03
 21
41.9871173317
 31
0.0
  0
LINE
  5
B1
330
1F
100
AcDbEntity
  8
SK1
  6
SLD-Solid
370
    25
100
AcDbLine
 10
-101.6
 20
-18.2922326599
 30
0.0
 11
-101.6
 21
18.2922326599
 31
0.0
  0
LINE
  5
B2
330
1F
100
AcDbEntity
  8
1
  6
SLD-Solid
370
    25
100
AcDbLine
 10
9.95
 20
43.7694359685
 30
0.0
 11
9.95
 21
41.7091381742
 31
0.0
  0
LINE
  5
B3
330
1F
100
AcDbEntity
  8
1
  6
SLD-Solid
370
    25
100
AcDbLine
 10
12.28
 20
43.7694359685
 30
0.0
 11
12.28
 21
41.714962274
 31
0.0
  0
LINE
  5
B4
330
1F
100
AcDbEntity
  8
1
  6
SLD-Solid
370
    25
100
AcDbLine
 10
9.95
 20
43.7694359685
 30
0.0
 11
12.28
 21
43.7694359685
 31
0.0
  0
LINE
  5
B5
330
1F
100
AcDbEntity
  8
1
  6
SLD-Solid
370
    25
100
AcDbLine
 10
19.812
 20
0.0
 30
0.0
 11
19.812
 21
-34.925
 31
0.0
  0
LINE
  5
B6
330
1F
100
AcDbEntity
  8
1
  6
SLD-Solid
370
    25
100
AcDbLine
 10
19.812
 20
34.925
 30
0.0
 11
19.812
 21
0.0
 31
0.0
  0
LINE
  5
B7
330
1F
100
AcDbEntity
  8
1
  6
SLD-Solid
370
    25
100
AcDbLine
 10
2.1330363037
 20
34.7452691597
 30
0.0
 11
2.1330363037
 21
-34.7452691597
 31
0.0
  0
LINE
  5
B8
330
1F
100
AcDbEntity
  8
SK1
  6
SLD-Solid
370
    25
100
AcDbLine
 10
-99.8030472773
 20
0.0
 30
0.0
 11
-99.8030472773
 21
-20.3702515116
 31
0.0
  0
LINE
  5
B9
330
1F
100
AcDbEntity
  8
SK1
  6
SLD-Solid
370
    25
100
AcDbLine
 10
-99.8030472773
 20
20.3702515116
 30
0.0
 11
-99.8030472773
 21
0.0
 31
0.0
  0
LINE
  5
BA
330
1F
100
AcDbEntity
  8
1
  6
SLD-Solid
370
    25
100
AcDbLine
 10
33.576
 20
0.0
 30
0.0
 11
33.576
 21
34.925
 31
0.0
  0
LINE
  5
BB
330
1F
100
AcDbEntity
  8
1
  6
SLD-Solid
370
    25
100
AcDbLine
 10
33.576
 20
-34.925
 30
0.0
 11
33.576
 21
0.0
 31
0.0
  0
LINE
  5
BC
330
1F
100
AcDbEntity
  8
1
  6
SLD-Solid
370
    25
100
AcDbLine
 10
36.624
 20
0.0
 30
0.0
 11
36.624
 21
-31.75
 31
0.0
  0
LINE
  5
BD
330
1F
100
AcDbEntity
  8
1
  6
SLD-Solid
370
    25
100
AcDbLine
 10
36.624
 20
31.75
 30
0.0
 11
36.624
 21
0.0
 31
0.0
  0
LINE
  5
BE
330
1F
100
AcDbEntity
  8
SK3
  6
SLD-Dashed
370
    18
100
AcDbLine
 10
6.4723069743
 20
-13.9015950424
 30
0.0
 11
6.2738681408
 21
-13.1524141642
 31
0.0
  0
LINE
  5
BF
330
1F
100
AcDbEntity
  8
SK3
  6
SLD-Dashed
370
    18
100
AcDbLine
 10
6.2738681408
 20
-13.1524141642
 30
0.0
 11
5.9563427035
 21
-12.4698012947
 31
0.0
  0
LINE
  5
C0
330
1F
100
AcDbEntity
  8
SK3
  6
SLD-Dashed
370
    18
100
AcDbLine
 10
5.9563427035
 20
-12.4698012947
 30
0.0
 11
5.5479441909
 21
-11.914409583
 31
0.0
  0
LINE
  5
C1
330
1F
100
AcDbEntity
  8
SK3
  6
SLD-Dashed
370
    18
100
AcDbLine
 10
5.5479441909
 20
-11.914409583
 30
0.0
 11
5.084960603
 21
-11.53558802
 31
0.0
  0
LINE
  5
C2
330
1F
100
AcDbEntity
  8
SK3
  6
SLD-Dashed
370
    18
100
AcDbLine
 10
5.084960603
 20
-11.53558802
 30
0.0
 11
4.6085300634
 21
-11.366996564
 31
0.0
  0
LINE
  5
C3
330
1F
100
AcDbEntity
  8
SK3
  6
SLD-Dashed
370
    18
100
AcDbLine
 10
4.6085300634
 20
-11.366996564
 30
0.0
 11
4.1609855163
 21
-11.4236153057
 31
0.0
  0
LINE
  5
C4
330
1F
100
AcDbEntity
  8
SK3
  6
SLD-Dashed
370
    18
100
AcDbLine
 10
4.1609855163
 20
-11.4236153057
 30
0.0
 11
3.7820932588
 21
-11.7004134215
 31
0.0
  0
LINE
  5
C5
330
1F
100
AcDbEntity
  8
SK3
  6
SLD-Dashed
370
    18
100
AcDbLine
 10
3.7820932588
 20
-11.7004134215
 30
0.0
 11
3.5055195307
 21
-12.172796184
 31
0.0
  0
LINE
  5
C6
330
1F
100
AcDbEntity
  8
SK3
  6
SLD-Dashed
370
    18
100
AcDbLine
 10
3.5055195307
 20
-12.172796184
 30
0.0
 11
3.3558391214
 21
-12.7987903117
 31
0.0
  0
LINE
  5
C7
330
1F
100
AcDbEntity
  8
SK3
  6
SLD-Dashed
370
    18
100
AcDbLine
 10
3.3558391214
 20
-12.7987903117
 30
0.0
 11
3.3463517921
 21
-13.5227734794
 31
0.0
  0
LINE
  5
C8
330
1F
100
AcDbEntity
  8
SK3
  6
SLD-Dashed
370
    18
100
AcDbLine
 10
3.3463517921
 20
-13.5227734794
 30
0.0
 11
3.4779005338
 21
-14.2804166054
 31
0.0
  0
LINE
  5
C9
330
1F
100
AcDbEntity
  8
SK3
  6
SLD-Dashed
370
    18
100
AcDbLine
 10
3.4779005338
 20
-14.2804166054
 30
0.0
 11
3.7387966634
 21
-15.0043997731
 31
0.0
  0
LINE
  5
CA
330
1F
100
AcDbEntity
  8
SK3
  6
SLD-Dashed
370
    18
100
AcDbLine
 10
3.7387966634
 20
-15.0043997731
 30
0.0
 11
4.1058584148
 21
-15.6303939009
 31
0.0
  0
LINE
  5
CB
330
1F
100
AcDbEntity
  8
SK3
  6
SLD-Dashed
370
    18
100
AcDbLine
 10
4.1058584148
 20
-15.6303939009
 30
0.0
 11
4.5464707407
 21
-16.1027766634
 31
0.0
  0
LINE
  5
CC
330
1F
100
AcDbEntity
  8
SK3
  6
SLD-Dashed
370
    18
100
AcDbLine
 10
4.5464707407
 20
-16.1027766634
 30
0.0
 11
5.0214833023
 21
-16.3795747791
 31
0.0
  0
LINE
  5
CD
330
1F
100
AcDbEntity
  8
SK3
  6
SLD-Dashed
370
    18
100
AcDbLine
 10
5.0214833023
 20
-16.3795747791
 30
0.0
 11
5.4886891489
 21
-16.4361935208
 31
0.0
  0
LINE
  5
CE
330
1F
100
AcDbEntity
  8
SK3
  6
SLD-Dashed
370
    18
100
AcDbLine
 10
5.4886891489
 20
-16.4361935208
 30
0.0
 11
5.9065749908
 21
-16.2676020648
 31
0.0
  0
LINE
  5
CF
330
1F
100
AcDbEntity
  8
SK3
  6
SLD-Dashed
370
    18
100
AcDbLine
 10
5.9065749908
 20
-16.2676020648
 30
0.0
 11
6.238009837
 21
-15.8887805018
 31
0.0
  0
LINE
  5
D0
330
1F
100
AcDbEntity
  8
SK3
  6
SLD-Dashed
370
    18
100
AcDbLine
 10
6.238009837
 20
-15.8887805018
 30
0.0
 11
6.453544247
 21
-15.3333887902
 31
0.0
  0
LINE
  5
D1
330
1F
100
AcDbEntity
  8
SK3
  6
SLD-Dashed
370
    18
100
AcDbLine
 10
6.453544247
 20
-15.3333887902
 30
0.0
 11
6.5340270426
 21
-14.6507759207
 31
0.0
  0
LINE
  5
D2
330
1F
100
AcDbEntity
  8
SK3
  6
SLD-Dashed
370
    18
100
AcDbLine
 10
6.5340270426
 20
-14.6507759207
 30
0.0
 11
6.4723069743
 21
-13.9015950424
 31
0.0
  0
LINE
  5
D3
330
1F
100
AcDbEntity
  8
SK3
  6
SLD-Dashed
370
    18
100
AcDbLine
 10
6.4545594773
 20
-13.8826166832
 30
0.0
 11
6.5121013678
 21
-14.6227336269
 31
0.0
  0
LINE
  5
D4
330
1F
100
AcDbEntity
  8
SK3
  6
SLD-Dashed
370
    18
100
AcDbLine
 10
6.5121013678
 20
-14.6227336269
 30
0.0
 11
6.4220830584
 21
-15.2904027674
 31
0.0
  0
LINE
  5
D5
330
1F
100
AcDbEntity
  8
SK3
  6
SLD-Dashed
370
    18
100
AcDbLine
 10
6.4220830584
 20
-15.2904027674
 30
0.0
 11
6.1933161683
 21
-15.8202679974
 31
0.0
  0
LINE
  5
D6
330
1F
100
AcDbEntity
  8
SK3
  6
SLD-Dashed
370
    18
100
AcDbLine
 10
6.1933161683
 20
-15.8202679974
 30
0.0
 11
5.8481939947
 21
-16.1604624163
 31
0.0
  0
LINE
  5
D7
330
1F
100
AcDbEntity
  8
SK3
  6
SLD-Dashed
370
    18
100
AcDbLine
 10
5.8481939947
 20
-16.1604624163
 30
0.0
 11
5.4204995004
 21
-16.2776854242
 31
0.0
  0
LINE
  5
D8
330
1F
100
AcDbEntity
  8
SK3
  6
SLD-Dashed
370
    18
100
AcDbLine
 10
5.4204995004
 20
-16.2776854242
 30
0.0
 11
4.9520984027
 21
-16.1604624163
 31
0.0
  0
LINE
  5
D9
330
1F
100
AcDbEntity
  8
SK3
  6
SLD-Dashed
370
    18
100
AcDbLine
 10
4.9520984027
 20
-16.1604624163
 30
0.0
 11
4.4888410643
 21
-15.8202679974
 31
0.0
  0
LINE
  5
DA
330
1F
100
AcDbEntity
  8
SK3
  6
SLD-Dashed
370
    18
100
AcDbLine
 10
4.4888410643
 20
-15.8202679974
 30
0.0
 11
4.0760743414
 21
-15.2904027674
 31
0.0
  0
LINE
  5
DB
330
1F
100
AcDbEntity
  8
SK3
  6
SLD-Dashed
370
    18
100
AcDbLine
 10
4.0760743414
 20
-15.2904027674
 30
0.0
 11
3.7542027167
 21
-14.6227336269
 31
0.0
  0
LINE
  5
DC
330
1F
100
AcDbEntity
  8
SK3
  6
SLD-Dashed
370
    18
100
AcDbLine
 10
3.7542027167
 20
-14.6227336269
 30
0.0
 11
3.5547332273
 21
-13.8826166832
 31
0.0
  0
LINE
  5
DD
330
1F
100
AcDbEntity
  8
SK3
  6
SLD-Dashed
370
    18
100
AcDbLine
 10
3.5547332273
 20
-13.8826166832
 30
0.0
 11
3.4971913368
 21
-13.1424997395
 31
0.0
  0
LINE
  5
DE
330
1F
100
AcDbEntity
  8
SK3
  6
SLD-Dashed
370
    18
100
AcDbLine
 10
3.4971913368
 20
-13.1424997395
 30
0.0
 11
3.5872096462
 21
-12.4748305989
 31
0.0
  0
LINE
  5
DF
330
1F
100
AcDbEntity
  8
SK3
  6
SLD-Dashed
370
    18
100
AcDbLine
 10
3.5872096462
 20
-12.4748305989
 30
0.0
 11
3.8159765363
 21
-11.9449653689
 31
0.0
  0
LINE
  5
E0
330
1F
100
AcDbEntity
  8
SK3
  6
SLD-Dashed
370
    18
100
AcDbLine
 10
3.8159765363
 20
-11.9449653689
 30
0.0
 11
4.16109871
 21
-11.60477095
 31
0.0
  0
LINE
  5
E1
330
1F
100
AcDbEntity
  8
SK3
  6
SLD-Dashed
370
    18
100
AcDbLine
 10
4.16109871
 20
-11.60477095
 30
0.0
 11
4.5887932042
 21
-11.4875479421
 31
0.0
  0
LINE
  5
E2
330
1F
100
AcDbEntity
  8
SK3
  6
SLD-Dashed
370
    18
100
AcDbLine
 10
4.5887932042
 20
-11.4875479421
 30
0.0
 11
5.057194302
 21
-11.60477095
 31
0.0
  0
LINE
  5
E3
330
1F
100
AcDbEntity
  8
SK3
  6
SLD-Dashed
370
    18
100
AcDbLine
 10
5.057194302
 20
-11.60477095
 30
0.0
 11
5.5204516403
 21
-11.9449653689
 31
0.0
  0
LINE
  5
E4
330
1F
100
AcDbEntity
  8
SK3
  6
SLD-Dashed
370
    18
100
AcDbLine
 10
5.5204516403
 20
-11.9449653689
 30
0.0
 11
5.9332183632
 21
-12.4748305989
 31
0.0
  0
LINE
  5
E5
330
1F
100
AcDbEntity
  8
SK3
  6
SLD-Dashed
370
    18
100
AcDbLine
 10
5.9332183632
 20
-12.4748305989
 30
0.0
 11
6.255089988
 21
-13.1424997395
 31
0.0
  0
LINE
  5
E6
330
1F
100
AcDbEntity
  8
SK3
  6
SLD-Dashed
370
    18
100
AcDbLine
 10
6.255089988
 20
-13.1424997395
 30
0.0
 11
6.4545594773
 21
-13.8826166832
 31
0.0
  0
LINE
  5
E7
330
1F
100
AcDbEntity
  8
SK3
  6
SLD-Dashed
370
    18
100
AcDbLine
 10
17.1792841073
 20
-11.0168048658
 30
0.0
 11
16.979814618
 21
-10.2766879221
 31
0.0
  0
LINE
  5
E8
330
1F
100
AcDbEntity
  8
SK3
  6
SLD-Dashed
370
    18
100
AcDbLine
 10
16.979814618
 20
-10.2766879221
 30
0.0
 11
16.6579429932
 21
-9.6090187815
 31
0.0
  0
LINE
  5
E9
330
1F
100
AcDbEntity
  8
SK3
  6
SLD-Dashed
370
    18
100
AcDbLine
 10
16.6579429932
 20
-9.6090187815
 30
0.0
 11
16.2451762703
 21
-9.0791535516
 31
0.0
  0
LINE
  5
EA
330
1F
100
AcDbEntity
  8
SK3
  6
SLD-Dashed
370
    18
100
AcDbLine
 10
16.2451762703
 20
-9.0791535516
 30
0.0
 11
15.781918932
 21
-8.7389591326
 31
0.0
  0
LINE
  5
EB
330
1F
100
AcDbEntity
  8
SK3
  6
SLD-Dashed
370
    18
100
AcDbLine
 10
15.781918932
 20
-8.7389591326
 30
0.0
 11
15.3135178342
 21
-8.6217361247
 31
0.0
  0
LINE
  5
EC
330
1F
100
AcDbEntity
  8
SK3
  6
SLD-Dashed
370
    18
100
AcDbLine
 10
15.3135178342
 20
-8.6217361247
 30
0.0
 11
14.88582334
 21
-8.7389591326
 31
0.0
  0
LINE
  5
ED
330
1F
100
AcDbEntity
  8
SK3
  6
SLD-Dashed
370
    18
100
AcDbLine
 10
14.88582334
 20
-8.7389591326
 30
0.0
 11
14.5407011664
 21
-9.0791535516
 31
0.0
  0
LINE
  5
EE
330
1F
100
AcDbEntity
  8
SK3
  6
SLD-Dashed
370
    18
100
AcDbLine
 10
14.5407011664
 20
-9.0791535516
 30
0.0
 11
14.3119342763
 21
-9.6090187815
 31
0.0
  0
LINE
  5
EF
330
1F
100
AcDbEntity
  8
SK3
  6
SLD-Dashed
370
    18
100
AcDbLine
 10
14.3119342763
 20
-9.6090187815
 30
0.0
 11
14.2219159668
 21
-10.2766879221
 31
0.0
  0
LINE
  5
F0
330
1F
100
AcDbEntity
  8
SK3
  6
SLD-Dashed
370
    18
100
AcDbLine
 10
14.2219159668
 20
-10.2766879221
 30
0.0
 11
14.2794578574
 21
-11.0168048658
 31
0.0
  0
LINE
  5
F1
330
1F
100
AcDbEntity
  8
SK3
  6
SLD-Dashed
370
    18
100
AcDbLine
 10
14.2794578574
 20
-11.0168048658
 30
0.0
 11
14.4789273467
 21
-11.7569218095
 31
0.0
  0
LINE
  5
F2
330
1F
100
AcDbEntity
  8
SK3
  6
SLD-Dashed
370
    18
100
AcDbLine
 10
14.4789273467
 20
-11.7569218095
 30
0.0
 11
14.8007989714
 21
-12.42459095
 31
0.0
  0
LINE
  5
F3
330
1F
100
AcDbEntity
  8
SK3
  6
SLD-Dashed
370
    18
100
AcDbLine
 10
14.8007989714
 20
-12.42459095
 30
0.0
 11
15.2135656944
 21
-12.95445618
 31
0.0
  0
LINE
  5
F4
330
1F
100
AcDbEntity
  8
SK3
  6
SLD-Dashed
370
    18
100
AcDbLine
 10
15.2135656944
 20
-12.95445618
 30
0.0
 11
15.6768230327
 21
-13.294650599
 31
0.0
  0
LINE
  5
F5
330
1F
100
AcDbEntity
  8
SK3
  6
SLD-Dashed
370
    18
100
AcDbLine
 10
15.6768230327
 20
-13.294650599
 30
0.0
 11
16.1452241305
 21
-13.4118736069
 31
0.0
  0
LINE
  5
F6
330
1F
100
AcDbEntity
  8
SK3
  6
SLD-Dashed
370
    18
100
AcDbLine
 10
16.1452241305
 20
-13.4118736069
 30
0.0
 11
16.5729186247
 21
-13.294650599
 31
0.0
  0
LINE
  5
F7
330
1F
100
AcDbEntity
  8
SK3
  6
SLD-Dashed
370
    18
100
AcDbLine
 10
16.5729186247
 20
-13.294650599
 30
0.0
 11
16.9180407983
 21
-12.95445618
 31
0.0
  0
LINE
  5
F8
330
1F
100
AcDbEntity
  8
SK3
  6
SLD-Dashed
370
    18
100
AcDbLine
 10
16.9180407983
 20
-12.95445618
 30
0.0
 11
17.1468076884
 21
-12.42459095
 31
0.0
  0
LINE
  5
F9
330
1F
100
AcDbEntity
  8
SK3
  6
SLD-Dashed
370
    18
100
AcDbLine
 10
17.1468076884
 20
-12.42459095
 30
0.0
 11
17.2368259979
 21
-11.7569218095
 31
0.0
  0
LINE
  5
FA
330
1F
100
AcDbEntity
  8
SK3
  6
SLD-Dashed
370
    18
100
AcDbLine
 10
17.2368259979
 20
-11.7569218095
 30
0.0
 11
17.1792841073
 21
-11.0168048658
 31
0.0
  0
LINE
  5
FB
330
1F
100
AcDbEntity
  8
SK3
  6
SLD-Dashed
370
    18
100
AcDbLine
 10
201.7
 20
-15.875
 30
0.0
 11
201.7
 21
15.875
 31
0.0
  0
LINE
  5
FC
330
1F
100
AcDbEntity
  8
SK3
  6
SLD-Dashed
370
    18
100
AcDbLine
 10
203.2
 20
-16.7336733566
 30
0.0
 11
203.2
 21
16.7336733566
 31
0.0
  0
LINE
  5
FD
330
1F
100
AcDbEntity
  8
SK3
  6
SLD-Dashed
370
    18
100
AcDbLine
 10
143.36
 20
14.749336639
 30
0.0
 11
143.36
 21
-16.0378610301
 31
0.0
  0
LINE
  5
FE
330
1F
100
AcDbEntity
  8
SK3
  6
SLD-Dashed
370
    18
100
AcDbLine
 10
118.26
 20
-16.0675
 30
0.0
 11
118.26
 21
16.0675
 31
0.0
  0
LINE
  5
FF
330
1F
100
AcDbEntity
  8
SK3
  6
SLD-Dashed
370
    18
100
AcDbLine
 10
118.11
 20
-15.9175
 30
0.0
 11
118.11
 21
15.9175
 31
0.0
  0
LINE
  5
100
330
1F
100
AcDbEntity
  8
SK3
  6
SLD-Dashed
370
    18
100
AcDbLine
 10
143.51
 20
14.5261206552
 30
0.0
 11
143.51
 21
-15.9175
 31
0.0
  0
LINE
  5
101
330
1F
100
AcDbEntity
  8
SK3
  6
SLD-Dashed
370
    18
100
AcDbLine
 10
143.51
 20
14.4795372868
 30
0.0
 11
143.51
 21
-15.8460266932
 31
0.0
  0
LINE
  5
102
330
1F
100
AcDbEntity
  8
SK3
  6
SLD-Dashed
370
    18
100
AcDbLine
 10
116.7
 20
-15.875
 30
0.0
 11
116.7
 21
15.875
 31
0.0
  0
LINE
  5
103
330
1F
100
AcDbEntity
  8
SK3
  6
SLD-Dashed
370
    18
100
AcDbLine
 10
118.11
 20
15.875
 30
0.0
 11
118.11
 21
-15.875
 31
0.0
  0
LINE
  5
104
330
1F
100
AcDbEntity
  8
SK3
  6
SLD-Dashed
370
    18
100
AcDbLine
 10
113.8384013019
 20
-11.1125
 30
0.0
 11
113.8384013019
 21
11.1125
 31
0.0
  0
LINE
  5
105
330
1F
100
AcDbEntity
  8
SK3
  6
SLD-Dashed
370
    18
100
AcDbLine
 10
-99.7034043657
 20
-13.19
 30
0.0
 11
-99.7034043657
 21
13.19
 31
0.0
  0
LINE
  5
106
330
1F
100
AcDbEntity
  8
SK3
  6
SLD-Dashed
370
    18
100
AcDbLine
 10
-101.6
 20
-14.2776605984
 30
0.0
 11
-101.6
 21
14.2776605984
 31
0.0
  0
LINE
  5
107
330
1F
100
AcDbEntity
  8
SK3
  6
SLD-Dashed
370
    18
100
AcDbLine
 10
-95.25
 20
-13.19
 30
0.0
 11
-95.25
 21
13.19
 31
0.0
  0
LINE
  5
108
330
1F
100
AcDbEntity
  8
SK3
  6
SLD-Dashed
370
    18
100
AcDbLine
 10
-94.0505548158
 20
-11.1125
 30
0.0
 11
-94.0505548158
 21
11.1125
 31
0.0
  0
LINE
  5
109
330
1F
100
AcDbEntity
  8
SK3
  6
SLD-Dashed
370
    18
100
AcDbLine
 10
3.7
 20
37.875
 30
0.0
 11
3.7
 21
46.5560855313
 31
0.0
  0
LINE
  5
10A
330
1F
100
AcDbEntity
  8
SK3
  6
SLD-Dashed
370
    18
100
AcDbLine
 10
18.55
 20
46.5560855313
 30
0.0
 11
18.55
 21
37.875
 31
0.0
  0
LINE
  5
10B
330
1F
100
AcDbEntity
  8
SK3
  6
SLD-Dashed
370
    18
100
AcDbLine
 10
14.2727106199
 20
46.8162535878
 30
0.0
 11
18.3
 21
46.8162535878
 31
0.0
  0
LINE
  5
10C
330
1F
100
AcDbEntity
  8
SK3
  6
SLD-Dashed
370
    18
100
AcDbLine
 10
3.95
 20
46.8162535878
 30
0.0
 11
7.9572893801
 21
46.8162535878
 31
0.0
  0
LINE
  5
10D
330
1F
100
AcDbEntity
  8
1
  6
SLD-Dashed
370
    18
100
AcDbLine
 10
13.03
 20
44.5510215932
 30
0.0
 11
13.03
 21
44.5790106634
 31
0.0
  0
LINE
  5
10E
330
1F
100
AcDbEntity
  8
1
  6
SLD-Dashed
370
    18
100
AcDbLine
 10
9.2
 20
44.5790106634
 30
0.0
 11
9.2
 21
44.5510215932
 31
0.0
  0
LINE
  5
10F
330
1F
100
AcDbEntity
  8
1
  6
SLD-Dashed
370
    18
100
AcDbLine
 10
9.2
 20
-44.5790106634
 30
0.0
 11
9.2
 21
-44.5510215932
 31
0.0
  0
LINE
  5
110
330
1F
100
AcDbEntity
  8
1
  6
SLD-Dashed
370
    18
100
AcDbLine
 10
13.03
 20
-44.5510215932
 30
0.0
 11
13.03
 21
-44.5790106634
 31
0.0
  0
LINE
  5
111
330
1F
100
AcDbEntity
  8
SK3
  6
SLD-Dashed
370
    18
100
AcDbLine
 10
3.2
 20
-35.475
 30
0.0
 11
3.2
 21
-46.6976348437
 31
0.0
  0
LINE
  5
112
330
1F
100
AcDbEntity
  8
SK3
  6
SLD-Dashed
370
    18
100
AcDbLine
 10
19.05
 20
-46.6976348437
 30
0.0
 11
19.05
 21
-35.475
 31
0.0
  0
LINE
  5
113
330
1F
100
AcDbEntity
  8
SK3
  6
SLD-Dashed
370
    18
100
AcDbLine
 10
19.05
 20
-35.1
 30
0.0
 11
3.2
 21
-35.1
 31
0.0
  0
LINE
  5
114
330
1F
100
AcDbEntity
  8
SK3
  6
SLD-Dashed
370
    18
100
AcDbLine
 10
3.2
 20
-35.475
 30
0.0
 11
19.05
 21
-35.475
 31
0.0
  0
LINE
  5
115
330
1F
100
AcDbEntity
  8
SK3
  6
SLD-Dashed
370
    18
100
AcDbLine
 10
3.7
 20
37.5
 30
0.0
 11
18.55
 21
37.5
 31
0.0
  0
LINE
  5
116
330
1F
100
AcDbEntity
  8
SK3
  6
SLD-Dashed
370
    18
100
AcDbLine
 10
18.55
 20
37.875
 30
0.0
 11
3.7
 21
37.875
 31
0.0
  0
LINE
  5
117
330
1F
100
AcDbEntity
  8
SK3
  6
SLD-Dashed
370
    18
100
AcDbLine
 10
184.725
 20
29.65
 30
0.0
 11
164.525
 21
29.65
 31
0.0
  0
LINE
  5
118
330
1F
100
AcDbEntity
  8
SK3
  6
SLD-Dashed
370
    18
100
AcDbLine
 10
159.325
 20
29.65
 30
0.0
 11
139.125
 21
29.65
 31
0.0
  0
LINE
  5
119
330
1F
100
AcDbEntity
  8
SK3
  6
SLD-Dashed
370
    18
100
AcDbLine
 10
157.8864
 20
29.65
 30
0.0
 11
140.5636
 21
29.65
 31
0.0
  0
LINE
  5
11A
330
1F
100
AcDbEntity
  8
SK3
  6
SLD-Dashed
370
    18
100
AcDbLine
 10
143.51
 20
14.5261206552
 30
0.0
 11
143.51
 21
14.4795372868
 31
0.0
  0
LINE
  5
11B
330
1F
100
AcDbEntity
  8
SK3
  6
SLD-Dashed
370
    18
100
AcDbLine
 10
183.2864
 20
29.65
 30
0.0
 11
165.9636
 21
29.65
 31
0.0
  0
LINE
  5
11C
330
1F
100
AcDbEntity
  8
SK3
  6
SLD-Dashed
370
    18
100
AcDbLine
 10
6.4
 20
32.8
 30
0.0
 11
15.8
 21
32.8
 31
0.0
  0
LINE
  5
11D
330
1F
100
AcDbEntity
  8
SK3
  6
SLD-Dashed
370
    18
100
AcDbLine
 10
16.1
 20
33.1
 30
0.0
 11
6.1293102142
 21
33.1
 31
0.0
  0
LINE
  5
11E
330
1F
100
AcDbEntity
  8
SK3
  6
SLD-Dashed
370
    18
100
AcDbLine
 10
6.1
 20
37.5
 30
0.0
 11
16.0706897858
 21
37.5
 31
0.0
  0
LINE
  5
11F
330
1F
100
AcDbEntity
  8
1
  6
SLD-Dashed
370
    18
100
AcDbLine
 10
12.28
 20
43.7694359685
 30
0.0
 11
9.95
 21
43.7694359685
 31
0.0
  0
LINE
  5
120
330
1F
100
AcDbEntity
  8
1
  6
SLD-Dashed
370
    18
100
AcDbLine
 10
12.28
 20
-43.7694359685
 30
0.0
 11
9.95
 21
-43.7694359685
 31
0.0
  0
LINE
  5
121
330
1F
100
AcDbEntity
  8
1
  6
SLD-Dashed
370
    18
100
AcDbLine
 10
18.3
 20
-47.4754841997
 30
0.0
 11
14.6397233934
 21
-47.4754841997
 31
0.0
  0
LINE
  5
122
330
1F
100
AcDbEntity
  8
1
  6
SLD-Dashed
370
    18
100
AcDbLine
 10
7.5902766066
 20
-47.4754841997
 30
0.0
 11
3.95
 21
-47.4754841997
 31
0.0
  0
LINE
  5
123
330
1F
100
AcDbEntity
  8
SK3
  6
SLD-Dashed
370
    18
100
AcDbLine
 10
3.5547332273
 20
13.8826166832
 30
0.0
 11
3.4971913368
 21
13.1424997395
 31
0.0
  0
LINE
  5
124
330
1F
100
AcDbEntity
  8
SK3
  6
SLD-Dashed
370
    18
100
AcDbLine
 10
3.4971913368
 20
13.1424997395
 30
0.0
 11
3.5872096462
 21
12.4748305989
 31
0.0
  0
LINE
  5
125
330
1F
100
AcDbEntity
  8
SK3
  6
SLD-Dashed
370
    18
100
AcDbLine
 10
3.5872096462
 20
12.4748305989
 30
0.0
 11
3.8159765363
 21
11.9449653689
 31
0.0
  0
LINE
  5
126
330
1F
100
AcDbEntity
  8
SK3
  6
SLD-Dashed
370
    18
100
AcDbLine
 10
3.8159765363
 20
11.9449653689
 30
0.0
 11
4.16109871
 21
11.60477095
 31
0.0
  0
LINE
  5
127
330
1F
100
AcDbEntity
  8
SK3
  6
SLD-Dashed
370
    18
100
AcDbLine
 10
4.16109871
 20
11.60477095
 30
0.0
 11
4.5887932042
 21
11.4875479421
 31
0.0
  0
LINE
  5
128
330
1F
100
AcDbEntity
  8
SK3
  6
SLD-Dashed
370
    18
100
AcDbLine
 10
4.5887932042
 20
11.4875479421
 30
0.0
 11
5.057194302
 21
11.60477095
 31
0.0
  0
LINE
  5
129
330
1F
100
AcDbEntity
  8
SK3
  6
SLD-Dashed
370
    18
100
AcDbLine
 10
5.057194302
 20
11.60477095
 30
0.0
 11
5.5204516403
 21
11.9449653689
 31
0.0
  0
LINE
  5
12A
330
1F
100
AcDbEntity
  8
SK3
  6
SLD-Dashed
370
    18
100
AcDbLine
 10
5.5204516403
 20
11.9449653689
 30
0.0
 11
5.9332183632
 21
12.4748305989
 31
0.0
  0
LINE
  5
12B
330
1F
100
AcDbEntity
  8
SK3
  6
SLD-Dashed
370
    18
100
AcDbLine
 10
5.9332183632
 20
12.4748305989
 30
0.0
 11
6.255089988
 21
13.1424997395
 31
0.0
  0
LINE
  5
12C
330
1F
100
AcDbEntity
  8
SK3
  6
SLD-Dashed
370
    18
100
AcDbLine
 10
6.255089988
 20
13.1424997395
 30
0.0
 11
6.4545594773
 21
13.8826166832
 31
0.0
  0
LINE
  5
12D
330
1F
100
AcDbEntity
  8
SK3
  6
SLD-Dashed
370
    18
100
AcDbLine
 10
6.4545594773
 20
13.8826166832
 30
0.0
 11
6.5121013678
 21
14.6227336269
 31
0.0
  0
LINE
  5
12E
330
1F
100
AcDbEntity
  8
SK3
  6
SLD-Dashed
370
    18
100
AcDbLine
 10
6.5121013678
 20
14.6227336269
 30
0.0
 11
6.4220830584
 21
15.2904027674
 31
0.0
  0
LINE
  5
12F
330
1F
100
AcDbEntity
  8
SK3
  6
SLD-Dashed
370
    18
100
AcDbLine
 10
6.4220830584
 20
15.2904027674
 30
0.0
 11
6.1933161683
 21
15.8202679974
 31
0.0
  0
LINE
  5
130
330
1F
100
AcDbEntity
  8
SK3
  6
SLD-Dashed
370
    18
100
AcDbLine
 10
6.1933161683
 20
15.8202679974
 30
0.0
 11
5.8481939947
 21
16.1604624163
 31
0.0
  0
LINE
  5
131
330
1F
100
AcDbEntity
  8
SK3
  6
SLD-Dashed
370
    18
100
AcDbLine
 10
5.8481939947
 20
16.1604624163
 30
0.0
 11
5.4204995004
 21
16.2776854242
 31
0.0
  0
LINE
  5
132
330
1F
100
AcDbEntity
  8
SK3
  6
SLD-Dashed
370
    18
100
AcDbLine
 10
5.4204995004
 20
16.2776854242
 30
0.0
 11
4.9520984027
 21
16.1604624163
 31
0.0
  0
LINE
  5
133
330
1F
100
AcDbEntity
  8
SK3
  6
SLD-Dashed
370
    18
100
AcDbLine
 10
4.9520984027
 20
16.1604624163
 30
0.0
 11
4.4888410643
 21
15.8202679974
 31
0.0
  0
LINE
  5
134
330
1F
100
AcDbEntity
  8
SK3
  6
SLD-Dashed
370
    18
100
AcDbLine
 10
4.4888410643
 20
15.8202679974
 30
0.0
 11
4.0760743414
 21
15.2904027674
 31
0.0
  0
LINE
  5
135
330
1F
100
AcDbEntity
  8
SK3
  6
SLD-Dashed
370
    18
100
AcDbLine
 10
4.0760743414
 20
15.2904027674
 30
0.0
 11
3.7542027167
 21
14.6227336269
 31
0.0
  0
LINE
  5
136
330
1F
100
AcDbEntity
  8
SK3
  6
SLD-Dashed
370
    18
100
AcDbLine
 10
3.7542027167
 20
14.6227336269
 30
0.0
 11
3.5547332273
 21
13.8826166832
 31
0.0
  0
LINE
  5
137
330
1F
100
AcDbEntity
  8
SK3
  6
SLD-Dashed
370
    18
100
AcDbLine
 10
14.2794578574
 20
11.0168048658
 30
0.0
 11
14.4789273467
 21
11.7569218095
 31
0.0
  0
LINE
  5
138
330
1F
100
AcDbEntity
  8
SK3
  6
SLD-Dashed
370
    18
100
AcDbLine
 10
14.4789273467
 20
11.7569218095
 30
0.0
 11
14.8007989714
 21
12.42459095
 31
0.0
  0
LINE
  5
139
330
1F
100
AcDbEntity
  8
SK3
  6
SLD-Dashed
370
    18
100
AcDbLine
 10
14.8007989714
 20
12.42459095
 30
0.0
 11
15.2135656944
 21
12.95445618
 31
0.0
  0
LINE
  5
13A
330
1F
100
AcDbEntity
  8
SK3
  6
SLD-Dashed
370
    18
100
AcDbLine
 10
15.2135656944
 20
12.95445618
 30
0.0
 11
15.6768230327
 21
13.294650599
 31
0.0
  0
LINE
  5
13B
330
1F
100
AcDbEntity
  8
SK3
  6
SLD-Dashed
370
    18
100
AcDbLine
 10
15.6768230327
 20
13.294650599
 30
0.0
 11
16.1452241305
 21
13.4118736069
 31
0.0
  0
LINE
  5
13C
330
1F
100
AcDbEntity
  8
SK3
  6
SLD-Dashed
370
    18
100
AcDbLine
 10
16.1452241305
 20
13.4118736069
 30
0.0
 11
16.5729186247
 21
13.294650599
 31
0.0
  0
LINE
  5
13D
330
1F
100
AcDbEntity
  8
SK3
  6
SLD-Dashed
370
    18
100
AcDbLine
 10
16.5729186247
 20
13.294650599
 30
0.0
 11
16.9180407983
 21
12.95445618
 31
0.0
  0
LINE
  5
13E
330
1F
100
AcDbEntity
  8
SK3
  6
SLD-Dashed
370
    18
100
AcDbLine
 10
16.9180407983
 20
12.95445618
 30
0.0
 11
17.1468076884
 21
12.42459095
 31
0.0
  0
LINE
  5
13F
330
1F
100
AcDbEntity
  8
SK3
  6
SLD-Dashed
370
    18
100
AcDbLine
 10
17.1468076884
 20
12.42459095
 30
0.0
 11
17.2368259979
 21
11.7569218095
 31
0.0
  0
LINE
  5
140
330
1F
100
AcDbEntity
  8
SK3
  6
SLD-Dashed
370
    18
100
AcDbLine
 10
17.2368259979
 20
11.7569218095
 30
0.0
 11
17.1792841073
 21
11.0168048658
 31
0.0
  0
LINE
  5
141
330
1F
100
AcDbEntity
  8
SK3
  6
SLD-Dashed
370
    18
100
AcDbLine
 10
17.1792841073
 20
11.0168048658
 30
0.0
 11
16.979814618
 21
10.2766879221
 31
0.0
  0
LINE
  5
142
330
1F
100
AcDbEntity
  8
SK3
  6
SLD-Dashed
370
    18
100
AcDbLine
 10
16.979814618
 20
10.2766879221
 30
0.0
 11
16.6579429932
 21
9.6090187815
 31
0.0
  0
LINE
  5
143
330
1F
100
AcDbEntity
  8
SK3
  6
SLD-Dashed
370
    18
100
AcDbLine
 10
16.6579429932
 20
9.6090187815
 30
0.0
 11
16.2451762703
 21
9.0791535516
 31
0.0
  0
LINE
  5
144
330
1F
100
AcDbEntity
  8
SK3
  6
SLD-Dashed
370
    18
100
AcDbLine
 10
16.2451762703
 20
9.0791535516
 30
0.0
 11
15.781918932
 21
8.7389591326
 31
0.0
  0
LINE
  5
145
330
1F
100
AcDbEntity
  8
SK3
  6
SLD-Dashed
370
    18
100
AcDbLine
 10
15.781918932
 20
8.7389591326
 30
0.0
 11
15.3135178342
 21
8.6217361247
 31
0.0
  0
LINE
  5
146
330
1F
100
AcDbEntity
  8
SK3
  6
SLD-Dashed
370
    18
100
AcDbLine
 10
15.3135178342
 20
8.6217361247
 30
0.0
 11
14.88582334
 21
8.7389591326
 31
0.0
  0
LINE
  5
147
330
1F
100
AcDbEntity
  8
SK3
  6
SLD-Dashed
370
    18
100
AcDbLine
 10
14.88582334
 20
8.7389591326
 30
0.0
 11
14.5407011664
 21
9.0791535516
 31
0.0
  0
LINE
  5
148
330
1F
100
AcDbEntity
  8
SK3
  6
SLD-Dashed
370
    18
100
AcDbLine
 10
14.5407011664
 20
9.0791535516
 30
0.0
 11
14.3119342763
 21
9.6090187815
 31
0.0
  0
LINE
  5
149
330
1F
100
AcDbEntity
  8
SK3
  6
SLD-Dashed
370
    18
100
AcDbLine
 10
14.3119342763
 20
9.6090187815
 30
0.0
 11
14.2219159668
 21
10.2766879221
 31
0.0
  0
LINE
  5
14A
330
1F
100
AcDbEntity
  8
SK3
  6
SLD-Dashed
370
    18
100
AcDbLine
 10
14.2219159668
 20
10.2766879221
 30
0.0
 11
14.2794578574
 21
11.0168048658
 31
0.0
  0
LINE
  5
14B
330
1F
100
AcDbEntity
  8
SK3
  6
SLD-Dashed
370
    18
100
AcDbLine
 10
3.3949403416
 20
13.9015950424
 30
0.0
 11
3.5933791751
 21
14.6507759207
 31
0.0
  0
LINE
  5
14C
330
1F
100
AcDbEntity
  8
SK3
  6
SLD-Dashed
370
    18
100
AcDbLine
 10
3.5933791751
 20
14.6507759207
 30
0.0
 11
3.9109046124
 21
15.3333887902
 31
0.0
  0
LINE
  5
14D
330
1F
100
AcDbEntity
  8
SK3
  6
SLD-Dashed
370
    18
100
AcDbLine
 10
3.9109046124
 20
15.3333887902
 30
0.0
 11
4.319303125
 21
15.8887805018
 31
0.0
  0
LINE
  5
14E
330
1F
100
AcDbEntity
  8
SK3
  6
SLD-Dashed
370
    18
100
AcDbLine
 10
4.319303125
 20
15.8887805018
 30
0.0
 11
4.7822867129
 21
16.2676020648
 31
0.0
  0
LINE
  5
14F
330
1F
100
AcDbEntity
  8
SK3
  6
SLD-Dashed
370
    18
100
AcDbLine
 10
4.7822867129
 20
16.2676020648
 30
0.0
 11
5.2587172525
 21
16.4361935208
 31
0.0
  0
LINE
  5
150
330
1F
100
AcDbEntity
  8
SK3
  6
SLD-Dashed
370
    18
100
AcDbLine
 10
5.2587172525
 20
16.4361935208
 30
0.0
 11
5.7062617995
 21
16.3795747791
 31
0.0
  0
LINE
  5
151
330
1F
100
AcDbEntity
  8
SK3
  6
SLD-Dashed
370
    18
100
AcDbLine
 10
5.7062617995
 20
16.3795747791
 30
0.0
 11
6.0851540571
 21
16.1027766634
 31
0.0
  0
LINE
  5
152
330
1F
100
AcDbEntity
  8
SK3
  6
SLD-Dashed
370
    18
100
AcDbLine
 10
6.0851540571
 20
16.1027766634
 30
0.0
 11
6.3617277852
 21
15.6303939009
 31
0.0
  0
LINE
  5
153
330
1F
100
AcDbEntity
  8
SK3
  6
SLD-Dashed
370
    18
100
AcDbLine
 10
6.3617277852
 20
15.6303939009
 30
0.0
 11
6.5114081945
 21
15.0043997731
 31
0.0
  0
LINE
  5
154
330
1F
100
AcDbEntity
  8
SK3
  6
SLD-Dashed
370
    18
100
AcDbLine
 10
6.5114081945
 20
15.0043997731
 30
0.0
 11
6.5208955237
 21
14.2804166054
 31
0.0
  0
LINE
  5
155
330
1F
100
AcDbEntity
  8
SK3
  6
SLD-Dashed
370
    18
100
AcDbLine
 10
6.5208955237
 20
14.2804166054
 30
0.0
 11
6.3893467821
 21
13.5227734794
 31
0.0
  0
LINE
  5
156
330
1F
100
AcDbEntity
  8
SK3
  6
SLD-Dashed
370
    18
100
AcDbLine
 10
6.3893467821
 20
13.5227734794
 30
0.0
 11
6.1284506525
 21
12.7987903117
 31
0.0
  0
LINE
  5
157
330
1F
100
AcDbEntity
  8
SK3
  6
SLD-Dashed
370
    18
100
AcDbLine
 10
6.1284506525
 20
12.7987903117
 30
0.0
 11
5.761388901
 21
12.172796184
 31
0.0
  0
LINE
  5
158
330
1F
100
AcDbEntity
  8
SK3
  6
SLD-Dashed
370
    18
100
AcDbLine
 10
5.761388901
 20
12.172796184
 30
0.0
 11
5.3207765751
 21
11.7004134215
 31
0.0
  0
LINE
  5
159
330
1F
100
AcDbEntity
  8
SK3
  6
SLD-Dashed
370
    18
100
AcDbLine
 10
5.3207765751
 20
11.7004134215
 30
0.0
 11
4.8457640135
 21
11.4236153057
 31
0.0
  0
LINE
  5
15A
330
1F
100
AcDbEntity
  8
SK3
  6
SLD-Dashed
370
    18
100
AcDbLine
 10
4.8457640135
 20
11.4236153057
 30
0.0
 11
4.3785581669
 21
11.366996564
 31
0.0
  0
LINE
  5
15B
330
1F
100
AcDbEntity
  8
SK3
  6
SLD-Dashed
370
    18
100
AcDbLine
 10
4.3785581669
 20
11.366996564
 30
0.0
 11
3.9606723251
 21
11.53558802
 31
0.0
  0
LINE
  5
15C
330
1F
100
AcDbEntity
  8
SK3
  6
SLD-Dashed
370
    18
100
AcDbLine
 10
3.9606723251
 20
11.53558802
 30
0.0
 11
3.6292374788
 21
11.914409583
 31
0.0
  0
LINE
  5
15D
330
1F
100
AcDbEntity
  8
SK3
  6
SLD-Dashed
370
    18
100
AcDbLine
 10
3.6292374788
 20
11.914409583
 30
0.0
 11
3.4137030688
 21
12.4698012947
 31
0.0
  0
LINE
  5
15E
330
1F
100
AcDbEntity
  8
SK3
  6
SLD-Dashed
370
    18
100
AcDbLine
 10
3.4137030688
 20
12.4698012947
 30
0.0
 11
3.3332202732
 21
13.1524141642
 31
0.0
  0
LINE
  5
15F
330
1F
100
AcDbEntity
  8
SK3
  6
SLD-Dashed
370
    18
100
AcDbLine
 10
3.3332202732
 20
13.1524141642
 30
0.0
 11
3.3949403416
 21
13.9015950424
 31
0.0
  0
LINE
  5
160
330
1F
100
AcDbEntity
  8
SK3
  6
SLD-Dashed
370
    18
100
AcDbLine
 10
5.6371324082
 20
-16.2495686026
 30
0.0
 11
16.3618570383
 21
-13.3837567853
 31
0.0
  0
LINE
  5
161
330
1F
100
AcDbEntity
  8
SK3
  6
SLD-Dashed
370
    18
100
AcDbLine
 10
15.0968849264
 20
-8.6498529463
 30
0.0
 11
4.3721602964
 21
-11.5156647637
 31
0.0
  0
LINE
  5
162
330
1F
100
AcDbEntity
  8
SK3
  6
SLD-Dashed
370
    18
100
AcDbLine
 10
203.2
 20
16.7410254038
 30
0.0
 11
201.7
 21
15.875
 31
0.0
  0
LINE
  5
163
330
1F
100
AcDbEntity
  8
SK3
  6
SLD-Dashed
370
    18
100
AcDbLine
 10
201.7
 20
-15.875
 30
0.0
 11
203.2
 21
-16.7410254038
 31
0.0
  0
LINE
  5
164
330
1F
100
AcDbEntity
  8
SK3
  6
SLD-Dashed
370
    18
100
AcDbLine
 10
140.5679255805
 20
16.0675
 30
0.0
 11
118.26
 21
16.0675
 31
0.0
  0
LINE
  5
165
330
1F
100
AcDbEntity
  8
SK3
  6
SLD-Dashed
370
    18
100
AcDbLine
 10
118.26
 20
-16.0675
 30
0.0
 11
143.36
 21
-16.0675
 31
0.0
  0
LINE
  5
166
330
1F
100
AcDbEntity
  8
SK3
  6
SLD-Dashed
370
    18
100
AcDbLine
 10
165.9636
 20
15.875
 30
0.0
 11
157.868915258
 21
15.875
 31
0.0
  0
LINE
  5
167
330
1F
100
AcDbEntity
  8
SK3
  6
SLD-Dashed
370
    18
100
AcDbLine
 10
201.7
 20
15.875
 30
0.0
 11
183.2843000327
 21
15.875
 31
0.0
  0
LINE
  5
168
330
1F
100
AcDbEntity
  8
SK3
  6
SLD-Dashed
370
    18
100
AcDbLine
 10
143.51
 20
-15.875
 30
0.0
 11
201.7
 21
-15.875
 31
0.0
  0
LINE
  5
169
330
1F
100
AcDbEntity
  8
SK3
  6
SLD-Dashed
370
    18
100
AcDbLine
 10
118.11
 20
15.875
 30
0.0
 11
116.7
 21
15.875
 31
0.0
  0
LINE
  5
16A
330
1F
100
AcDbEntity
  8
SK3
  6
SLD-Dashed
370
    18
100
AcDbLine
 10
116.7
 20
-15.875
 30
0.0
 11
118.11
 21
-15.875
 31
0.0
  0
LINE
  5
16B
330
1F
100
AcDbEntity
  8
SK3
  6
SLD-Dashed
370
    18
100
AcDbLine
 10
116.7
 20
15.875
 30
0.0
 11
113.8384013019
 21
11.1125
 31
0.0
  0
LINE
  5
16C
330
1F
100
AcDbEntity
  8
SK3
  6
SLD-Dashed
370
    18
100
AcDbLine
 10
113.8384013019
 20
-11.1125
 30
0.0
 11
116.7
 21
-15.875
 31
0.0
  0
LINE
  5
16D
330
1F
100
AcDbEntity
  8
SK3
  6
SLD-Dashed
370
    18
100
AcDbLine
 10
-101.6
 20
-14.285
 30
0.0
 11
-99.7034043657
 21
-13.19
 31
0.0
  0
LINE
  5
16E
330
1F
100
AcDbEntity
  8
SK3
  6
SLD-Dashed
370
    18
100
AcDbLine
 10
-99.7034043657
 20
13.19
 30
0.0
 11
-101.6
 21
14.285
 31
0.0
  0
LINE
  5
16F
330
1F
100
AcDbEntity
  8
SK3
  6
SLD-Dashed
370
    18
100
AcDbLine
 10
-99.7034043657
 20
-13.19
 30
0.0
 11
-95.25
 21
-13.19
 31
0.0
  0
LINE
  5
170
330
1F
100
AcDbEntity
  8
SK3
  6
SLD-Dashed
370
    18
100
AcDbLine
 10
-95.25
 20
13.19
 30
0.0
 11
-99.7034043657
 21
13.19
 31
0.0
  0
LINE
  5
171
330
1F
100
AcDbEntity
  8
SK3
  6
SLD-Dashed
370
    18
100
AcDbLine
 10
-95.25
 20
-13.19
 30
0.0
 11
-94.0505548158
 21
-11.1125
 31
0.0
  0
LINE
  5
172
330
1F
100
AcDbEntity
  8
SK3
  6
SLD-Dashed
370
    18
100
AcDbLine
 10
-94.0505548158
 20
11.1125
 30
0.0
 11
-95.25
 21
13.19
 31
0.0
  0
LINE
  5
173
330
1F
100
AcDbEntity
  8
SK3
  6
SLD-Dashed
370
    18
100
AcDbLine
 10
-94.0505548158
 20
-11.1125
 30
0.0
 11
113.8384013019
 21
-11.1125
 31
0.0
  0
LINE
  5
174
330
1F
100
AcDbEntity
  8
SK3
  6
SLD-Dashed
370
    18
100
AcDbLine
 10
113.8384013019
 20
11.1125
 30
0.0
 11
-94.0505548158
 21
11.1125
 31
0.0
  0
LINE
  5
175
330
1F
100
AcDbEntity
  8
SK3
  6
SLD-Dashed
370
    18
100
AcDbLine
 10
164.525
 20
31.75
 30
0.0
 11
164.525
 21
29.65
 31
0.0
  0
LINE
  5
176
330
1F
100
AcDbEntity
  8
SK3
  6
SLD-Dashed
370
    18
100
AcDbLine
 10
184.725
 20
29.65
 30
0.0
 11
184.725
 21
31.75
 31
0.0
  0
LINE
  5
177
330
1F
100
AcDbEntity
  8
SK3
  6
SLD-Dashed
370
    18
100
AcDbLine
 10
139.125
 20
31.75
 30
0.0
 11
139.125
 21
29.65
 31
0.0
  0
LINE
  5
178
330
1F
100
AcDbEntity
  8
SK3
  6
SLD-Dashed
370
    18
100
AcDbLine
 10
159.325
 20
29.65
 30
0.0
 11
159.325
 21
31.75
 31
0.0
  0
LINE
  5
179
330
1F
100
AcDbEntity
  8
SK3
  6
SLD-Dashed
370
    18
100
AcDbLine
 10
140.5636
 20
29.65
 30
0.0
 11
140.5636
 21
16.0651855644
 31
0.0
  0
LINE
  5
17A
330
1F
100
AcDbEntity
  8
SK3
  6
SLD-Dashed
370
    18
100
AcDbLine
 10
157.8864
 20
15.8654893161
 30
0.0
 11
157.8864
 21
29.65
 31
0.0
  0
LINE
  5
17B
330
1F
100
AcDbEntity
  8
SK3
  6
SLD-Dashed
370
    18
100
AcDbLine
 10
165.9636
 20
29.65
 30
0.0
 11
165.9636
 21
15.875
 31
0.0
  0
LINE
  5
17C
330
1F
100
AcDbEntity
  8
SK3
  6
SLD-Dashed
370
    18
100
AcDbLine
 10
183.2864
 20
15.8738564563
 30
0.0
 11
183.2864
 21
29.65
 31
0.0
  0
LINE
  5
17D
330
1F
100
AcDbEntity
  8
SK3
  6
SLD-Dashed
370
    18
100
AcDbLine
 10
6.1
 20
37.5
 30
0.0
 11
6.1
 21
33.1
 31
0.0
  0
LINE
  5
17E
330
1F
100
AcDbEntity
  8
SK3
  6
SLD-Dashed
370
    18
100
AcDbLine
 10
16.1
 20
33.1
 30
0.0
 11
16.1
 21
37.5
 31
0.0
  0
LINE
  5
17F
330
1F
100
AcDbEntity
  8
SK3
  6
SLD-Dashed
370
    18
100
AcDbLine
 10
4.3721602964
 20
11.5156647637
 30
0.0
 11
15.0968849264
 21
8.6498529463
 31
0.0
  0
LINE
  5
180
330
1F
100
AcDbEntity
  8
SK3
  6
SLD-Dashed
370
    18
100
AcDbLine
 10
16.3618570383
 20
13.3837567853
 30
0.0
 11
5.6371324082
 21
16.2495686026
 31
0.0
  0
LINE
  5
181
330
1F
100
AcDbEntity
  8
SK3
  6
SLD-Solid
370
    18
100
AcDbLine
 10
-55.5999986827
 20
12.6999998465
 30
0.0
 11
-94.967097044
 21
12.6999998465
 31
0.0
  0
LINE
  5
182
330
1F
100
AcDbEntity
  8
SK3
  6
SLD-Solid
370
    18
100
AcDbLine
 10
-94.967097044
 20
-12.6999998465
 30
0.0
 11
-55.5999986827
 21
-12.6999998465
 31
0.0
  0
LINE
  5
183
330
1F
100
AcDbEntity
  8
SK3
  6
SLD-Solid
370
    18
100
AcDbLine
 10
-55.5999986827
 20
0.0
 30
0.0
 11
-55.5999986827
 21
-2.0903511904
 31
0.0
  0
LINE
  5
184
330
1F
100
AcDbEntity
  8
SK3
  6
SLD-Solid
370
    18
100
AcDbLine
 10
-55.5999986827
 20
-2.0903511904
 30
0.0
 11
-55.5999986827
 21
-4.1236830875
 31
0.0
  0
LINE
  5
185
330
1F
100
AcDbEntity
  8
SK3
  6
SLD-Solid
370
    18
100
AcDbLine
 10
-55.5999986827
 20
-4.1236830875
 30
0.0
 11
-55.5999986827
 21
-6.0445317067
 31
0.0
  0
LINE
  5
186
330
1F
100
AcDbEntity
  8
SK3
  6
SLD-Solid
370
    18
100
AcDbLine
 10
-55.5999986827
 20
-6.0445317067
 30
0.0
 11
-55.5999986827
 21
-7.8005013056
 31
0.0
  0
LINE
  5
187
330
1F
100
AcDbEntity
  8
SK3
  6
SLD-Solid
370
    18
100
AcDbLine
 10
-55.5999986827
 20
-7.8005013056
 30
0.0
 11
-55.5999986827
 21
-9.3436939642
 31
0.0
  0
LINE
  5
188
330
1F
100
AcDbEntity
  8
SK3
  6
SLD-Solid
370
    18
100
AcDbLine
 10
-55.5999986827
 20
-9.3436939642
 30
0.0
 11
-55.5999986827
 21
-10.6320139021
 31
0.0
  0
LINE
  5
189
330
1F
100
AcDbEntity
  8
SK3
  6
SLD-Solid
370
    18
100
AcDbLine
 10
-55.5999986827
 20
-10.6320139021
 30
0.0
 11
-55.5999986827
 21
-11.6303209215
 31
0.0
  0
LINE
  5
18A
330
1F
100
AcDbEntity
  8
SK3
  6
SLD-Solid
370
    18
100
AcDbLine
 10
-55.5999986827
 20
-11.6303209215
 30
0.0
 11
-55.5999986827
 21
-12.3113831505
 31
0.0
  0
LINE
  5
18B
330
1F
100
AcDbEntity
  8
SK3
  6
SLD-Solid
370
    18
100
AcDbLine
 10
-55.5999986827
 20
-12.3113831505
 30
0.0
 11
-55.5999986827
 21
-12.6566234976
 31
0.0
  0
LINE
  5
18C
330
1F
100
AcDbEntity
  8
SK3
  6
SLD-Solid
370
    18
100
AcDbLine
 10
-55.5999986827
 20
-12.6566234976
 30
0.0
 11
-55.5999986827
 21
-12.6999998465
 31
0.0
  0
LINE
  5
18D
330
1F
100
AcDbEntity
  8
SK3
  6
SLD-Solid
370
    18
100
AcDbLine
 10
-55.5999986827
 20
12.6999998465
 30
0.0
 11
-55.5999986827
 21
12.6566234976
 31
0.0
  0
LINE
  5
18E
330
1F
100
AcDbEntity
  8
SK3
  6
SLD-Solid
370
    18
100
AcDbLine
 10
-55.5999986827
 20
12.6566234976
 30
0.0
 11
-55.5999986827
 21
12.3113831505
 31
0.0
  0
LINE
  5
18F
330
1F
100
AcDbEntity
  8
SK3
  6
SLD-Solid
370
    18
100
AcDbLine
 10
-55.5999986827
 20
12.3113831505
 30
0.0
 11
-55.5999986827
 21
11.6303209215
 31
0.0
  0
LINE
  5
190
330
1F
100
AcDbEntity
  8
SK3
  6
SLD-Solid
370
    18
100
AcDbLine
 10
-55.5999986827
 20
11.6303209215
 30
0.0
 11
-55.5999986827
 21
10.6320139021
 31
0.0
  0
LINE
  5
191
330
1F
100
AcDbEntity
  8
SK3
  6
SLD-Solid
370
    18
100
AcDbLine
 10
-55.5999986827
 20
10.6320139021
 30
0.0
 11
-55.5999986827
 21
9.3436939642
 31
0.0
  0
LINE
  5
192
330
1F
100
AcDbEntity
  8
SK3
  6
SLD-Solid
370
    18
100
AcDbLine
 10
-55.5999986827
 20
9.3436939642
 30
0.0
 11
-55.5999986827
 21
7.8005013056
 31
0.0
  0
LINE
  5
193
330
1F
100
AcDbEntity
  8
SK3
  6
SLD-Solid
370
    18
100
AcDbLine
 10
-55.5999986827
 20
7.8005013056
 30
0.0
 11
-55.5999986827
 21
6.0445317067
 31
0.0
  0
LINE
  5
194
330
1F
100
AcDbEntity
  8
SK3
  6
SLD-Solid
370
    18
100
AcDbLine
 10
-55.5999986827
 20
6.0445317067
 30
0.0
 11
-55.5999986827
 21
4.1236830875
 31
0.0
  0
LINE
  5
195
330
1F
100
AcDbEntity
  8
SK3
  6
SLD-Solid
370
    18
100
AcDbLine
 10
-55.5999986827
 20
4.1236830875
 30
0.0
 11
-55.5999986827
 21
2.0903511904
 31
0.0
  0
LINE
  5
196
330
1F
100
AcDbEntity
  8
SK3
  6
SLD-Solid
370
    18
100
AcDbLine
 10
-55.5999986827
 20
2.0903511904
 30
0.0
 11
-55.5999986827
 21
0.0
 31
0.0
  0
LINE
  5
197
330
1F
100
AcDbEntity
  8
SK3
  6
SLD-Solid
370
    18
100
AcDbLine
 10
158.7499976158
 20
15.8207248896
 30
0.0
 11
158.7499976158
 21
29.6500008553
 31
0.0
  0
LINE
  5
198
330
1F
100
AcDbEntity
  8
SK3
  6
SLD-Solid
370
    18
100
AcDbLine
 10
139.6999955177
 20
29.6500008553
 30
0.0
 11
139.6999955177
 21
16.0022228956
 31
0.0
  0
LINE
  5
199
330
1F
100
AcDbEntity
  8
SK3
  6
SLD-Solid
370
    18
100
AcDbLine
 10
158.6590111256
 20
15.8207248896
 30
0.0
 11
158.5228145123
 21
15.7397370785
 31
0.0
  0
LINE
  5
19A
330
1F
100
AcDbEntity
  8
SK3
  6
SLD-Solid
370
    18
100
AcDbLine
 10
184.1499954462
 20
15.8207248896
 30
0.0
 11
184.1499954462
 21
29.6500008553
 31
0.0
  0
LINE
  5
19B
330
1F
100
AcDbEntity
  8
SK3
  6
SLD-Solid
370
    18
100
AcDbLine
 10
165.0999933481
 20
29.6500008553
 30
0.0
 11
165.0999933481
 21
15.8207248896
 31
0.0
  0
LINE
  5
19C
330
1F
100
AcDbEntity
  8
SK3
  6
SLD-Solid
370
    18
100
AcDbLine
 10
184.059008956
 20
15.8207248896
 30
0.0
 11
183.9228123426
 21
15.7397370785
 31
0.0
  0
LINE
  5
19D
330
1F
100
AcDbEntity
  8
4
  6
SLD-Center
370
    18
100
AcDbLine
 10
202.7826380734
 20
0.0
 30
0.0
 11
-0.5458347246
 21
0.0
 31
0.0
  0
LINE
  5
19E
330
1F
100
AcDbEntity
  8
4
  6
SLD-Center
370
    18
100
AcDbLine
 10
149.225
 20
13.97125
 30
0.0
 11
149.225
 21
31.65
 31
0.0
  0
LINE
  5
19F
330
1F
100
AcDbEntity
  8
4
  6
SLD-Center
370
    18
100
AcDbLine
 10
174.625
 20
13.875
 30
0.0
 11
174.625
 21
31.65
 31
0.0
  0
LINE
  5
1A0
330
1F
100
AcDbEntity
  8
SK4
  6
SLD-Center
370
    18
100
AcDbLine
 10
-101.8491330061
 20
0.0
 30
0.0
 11
206.6532224973
 21
0.0
 31
0.0
  0
LINE
  5
1A1
330
1F
100
AcDbEntity
  8
81
370
    18
100
AcDbLine
 10
203.2
 20
0.0
 30
0.0
 11
206.7355339059
 21
3.5355339059
 31
0.0
  0
LINE
  5
1A2
330
1F
100
AcDbEntity
  8
81
370
    18
100
AcDbLine
 10
203.2
 20
0.0
 30
0.0
 11
199.6644660941
 21
-3.5355339059
 31
0.0
  0
LINE
  5
1A3
330
1F
100
AcDbEntity
  8
81
370
    18
100
AcDbLine
 10
203.2
 20
0.0
 30
0.0
 11
199.6644660941
 21
3.5355339059
 31
0.0
  0
LINE
  5
1A4
330
1F
100
AcDbEntity
  8
81
100
AcDbLine
 10
203.2
 20
0.0
 30
0.0
 11
213.2
 21
0.0
 31
0.0
  0
LINE
  5
1A5
330
1F
100
AcDbEntity
  8
81
370
    18
100
AcDbLine
 10
203.2
 20
0.0
 30
0.0
 11
206.7355339059
 21
-3.5355339059
 31
0.0
  0
LINE
  5
1A6
330
1F
100
AcDbEntity
  8
80
370
    18
100
AcDbLine
 10
0.0
 20
0.0
 30
0.0
 11
-3.5355339059
 21
-3.5355339059
 31
0.0
  0
LINE
  5
1A7
330
1F
100
AcDbEntity
  8
80
370
    18
100
AcDbLine
 10
0.0
 20
0.0
 30
0.0
 11
3.5355339059
 21
3.5355339059
 31
0.0
  0
LINE
  5
1A8
330
1F
100
AcDbEntity
  8
80
370
    18
100
AcDbLine
 10
0.0
 20
0.0
 30
0.0
 11
-3.5355339059
 21
3.5355339059
 31
0.0
  0
LINE
  5
1A9
330
1F
100
AcDbEntity
  8
80
370
    18
100
AcDbLine
 10
0.0
 20
0.0
 30
0.0
 11
-10.0
 21
0.0
 31
0.0
  0
LINE
  5
1AA
330
1F
100
AcDbEntity
  8
80
370
    18
100
AcDbLine
 10
0.0
 20
0.0
 30
0.0
 11
3.5355339059
 21
-3.5355339059
 31
0.0
  0
ARC
  5
1AB
330
1F
100
AcDbEntity
  8
1
  6
SLD-Solid
370
    25
100
AcDbCircle
 10
19.812
 20
-35.687
 30
0.0
 40
0.7620000000000132
100
AcDbArc
 50
90.0
 51
129.6626327477
  0
ARC
  5
1AC
330
1F
100
AcDbEntity
  8
1
  6
SLD-Solid
370
    25
100
AcDbCircle
 10
19.812
 20
35.687
 30
0.0
 40
0.7620000000000005
100
AcDbArc
 50
180.0
 51
270.0
  0
ARC
  5
1AD
330
1F
100
AcDbEntity
  8
1
  6
SLD-Solid
370
    25
100
AcDbCircle
 10
2.45
 20
35.425
 30
0.0
 40
0.7500000000000142
100
AcDbArc
 50
245.0
 51
0.0
  0
ARC
  5
1AE
330
1F
100
AcDbEntity
  8
1
  6
SLD-Solid
370
    25
100
AcDbCircle
 10
2.45
 20
-35.425
 30
0.0
 40
0.7500000000000112
100
AcDbArc
 50
25.3025341702
 51
115.0
  0
ARC
  5
1AF
330
1F
100
AcDbEntity
  8
1
  6
SLD-Solid
370
    25
100
AcDbCircle
 10
33.576
 20
-33.401
 30
0.0
 40
1.524000000000001
100
AcDbArc
 50
270.0
 51
0.0
  0
ARC
  5
1B0
330
1F
100
AcDbEntity
  8
1
  6
SLD-Solid
370
    25
100
AcDbCircle
 10
33.576
 20
33.401
 30
0.0
 40
1.524000000000001
100
AcDbArc
 50
0.0
 51
90.0
  0
ARC
  5
1B1
330
1F
100
AcDbEntity
  8
1
  6
SLD-Solid
370
    25
100
AcDbCircle
 10
36.624
 20
-33.274
 30
0.0
 40
1.524000000000001
100
AcDbArc
 50
90.0
 51
180.0
  0
ARC
  5
1B2
330
1F
100
AcDbEntity
  8
1
  6
SLD-Solid
370
    25
100
AcDbCircle
 10
36.624
 20
33.274
 30
0.0
 40
1.524000000000001
100
AcDbArc
 50
180.0
 51
270.0
  0
ARC
  5
1B3
330
1F
100
AcDbEntity
  8
SK1
  6
SLD-Solid
370
    25
100
AcDbCircle
 10
-99.5
 20
18.2922326599
 30
0.0
 40
2.099999999999994
100
AcDbArc
 50
98.2972222222
 51
180.0
  0
ARC
  5
1B4
330
1F
100
AcDbEntity
  8
SK1
  6
SLD-Solid
370
    25
100
AcDbCircle
 10
-99.5
 20
-18.2922326599
 30
0.0
 40
2.100000000000009
100
AcDbArc
 50
180.0
 51
261.7027777778
  0
ARC
  5
1B5
330
1F
100
AcDbEntity
  8
1
370
    18
100
AcDbCircle
 10
149.2217711538
 20
61.9706771868
 30
0.0
 40
31.86273869837248
100
AcDbArc
 50
251.5254530091
 51
288.4745469909
  0
ARC
  5
1B6
330
1F
100
AcDbEntity
  8
1
370
    18
100
AcDbCircle
 10
149.2217711538
 20
61.9706771868
 30
0.0
 40
31.86273869837266
100
AcDbArc
 50
251.5254530091
 51
288.4745469909
  0
CIRCLE
  5
1B7
330
1F
100
AcDbEntity
  8
81
370
    18
100
AcDbCircle
 10
203.2
 20
0.0
 30
0.0
 40
2.499999999999998
  0
CIRCLE
  5
1B8
330
1F
100
AcDbEntity
  8
80
370
    18
100
AcDbCircle
 10
0.0
 20
0.0
 30
0.0
 40
2.500000000000009
  0
ARC
  5
1B9
330
1F
100
AcDbEntity
  8
SK3
  6
SLD-Dashed
370
    18
100
AcDbCircle
 10
118.26
 20
15.9175
 30
0.0
 40
0.1499999999999986
100
AcDbArc
 50
90.0
 51
180.0
  0
ARC
  5
1BA
330
1F
100
AcDbEntity
  8
SK3
  6
SLD-Dashed
370
    18
100
AcDbCircle
 10
118.26
 20
-15.9175
 30
0.0
 40
0.150000000000011
100
AcDbArc
 50
180.0
 51
270.0
  0
ARC
  5
1BB
330
1F
100
AcDbEntity
  8
SK3
  6
SLD-Dashed
370
    18
100
AcDbCircle
 10
143.36
 20
-15.9175
 30
0.0
 40
0.1499999999999968
100
AcDbArc
 50
270.0
 51
0.0
  0
ARC
  5
1BC
330
1F
100
AcDbEntity
  8
1
370
    18
100
AcDbCircle
 10
174.6217711538
 20
61.4822054844
 30
0.0
 40
31.39982214439249
100
AcDbArc
 50
251.243006622
 51
288.7569933781
  0
SPLINE
  5
1BD
330
1F
100
AcDbEntity
  8
1
  6
SLD-Solid
370
    25
100
AcDbSpline
210
0.0
220
0.0
230
1.0
 70
     8
 71
     3
 72
    12
 73
     8
 74
     0
 42
0.000000001
 43
0.00000001
 40
0.0
 40
0.0
 40
0.0
 40
0.0
 40
0.249999999999997
 40
0.249999999999997
 40
0.499999999999994
 40
0.499999999999994
 40
1.0
 40
1.0
 40
1.0
 40
1.0
 10
3.950000000000009
 20
-47.4754841997425
 30
0.0
 10
3.849084030890584
 20
-47.4754841997425
 30
0.0
 10
3.749978417477442
 20
-47.45437693482703
 30
0.0
 10
3.566847730075498
 20
-47.37426897057827
 30
0.0
 10
3.483455095947358
 20
-47.31511647588032
 30
0.0
 10
3.278048511272599
 20
-47.09831987092233
 30
0.0
 10
3.200000000000008
 20
-46.89926900274103
 30
0.0
 10
3.200000000000008
 20
-46.69763484374771
 30
0.0
  0
SPLINE
  5
1BE
330
1F
100
AcDbEntity
  8
1
  6
SLD-Solid
370
    25
100
AcDbSpline
210
0.0
220
0.0
230
1.0
 70
     8
 71
     3
 72
    17
 73
    13
 74
     0
 42
0.000000001
 43
0.00000001
 40
0.0
 40
0.0
 40
0.0
 40
0.0
 40
0.0631225275258774
 40
0.1266732402663625
 40
0.1906578596818708
 40
0.2550819704917091
 40
0.377967755988447
 40
0.5065287291742091
 40
0.7536275741715719
 40
0.8770326867278314
 40
0.9293515933661941
 40
1.0
 40
1.0
 40
1.0
 40
1.0
 10
3.949999999999943
 20
47.29681459776454
 30
0.0
 10
3.925201491242137
 20
47.29611182214925
 30
0.0
 10
3.875436255576629
 20
47.29470150371211
 30
0.0
 10
3.801280718130951
 20
47.28327895419434
 30
0.0
 10
3.728120549244793
 20
47.26498746193477
 30
0.0
 10
3.635342933437746
 20
47.23149463847582
 30
0.0
 10
3.52568230194135
 20
47.17267397047696
 30
0.0
 10
3.3747093005404
 20
47.04854698617521
 30
0.0
 10
3.264271220664495
 20
46.8823551441265
 30
0.0
 10
3.217384189877776
 20
46.72497704383451
 30
0.0
 10
3.202376761226163
 20
46.63086119235388
 30
0.0
 10
3.200867255993781
 20
46.58337040937716
 30
0.0
 10
3.200000000000011
 20
46.55608553132448
 30
0.0
  0
SPLINE
  5
1BF
330
1F
100
AcDbEntity
  8
1
  6
SLD-Solid
370
    25
100
AcDbSpline
210
0.0
220
0.0
230
1.0
 70
     8
 71
     3
 72
    12
 73
     8
 74
     0
 42
0.000000001
 43
0.00000001
 40
0.0
 40
0.0
 40
0.0
 40
0.0
 40
0.2499999999999983
 40
0.2499999999999983
 40
0.4999999999999967
 40
0.4999999999999967
 40
1.0
 40
1.0
 40
1.0
 40
1.0
 10
19.05000000000001
 20
-46.69763484374771
 30
0.0
 10
19.05000000000001
 20
-46.79851095846172
 30
0.0
 10
19.0313705936621
 20
-46.8973396642895
 30
0.0
 10
18.95815575330309
 20
-47.08411469648357
 30
0.0
 10
18.90402082648722
 20
-47.16991322230012
 30
0.0
 10
18.69812814693782
 20
-47.3875344447254
 30
0.0
 10
18.50197314321878
 20
-47.475484199743
 30
0.0
 10
18.30000000000012
 20
-47.47548419974304
 30
0.0
  0
SPLINE
  5
1C0
330
1F
100
AcDbEntity
  8
1
  6
SLD-Solid
370
    25
100
AcDbSpline
210
0.0
220
0.0
230
1.0
 70
     8
 71
     3
 72
    15
 73
    11
 74
     0
 42
0.000000001
 43
0.00000001
 40
0.0
 40
0.0
 40
0.0
 40
0.0
 40
0.0708675466398782
 40
0.1234206290199329
 40
0.2469923695820378
 40
0.4940839350896176
 40
0.6226370205665461
 40
0.7456896564301587
 40
0.8736712713971236
 40
1.0
 40
1.0
 40
1.0
 40
1.0
 10
19.04999999999997
 20
46.55608553132448
 30
0.0
 10
19.04912781744924
 20
46.58344641759023
 30
0.0
 10
19.04760885250488
 20
46.63109725289597
 30
0.0
 10
19.03252103266864
 20
46.72541301610956
 30
0.0
 10
18.9854843527477
 20
46.88286431586818
 30
0.0
 10
18.87493087106904
 20
47.04890219776885
 30
0.0
 10
18.7238472436153
 20
47.173075510994
 30
0.0
 10
18.59213990202895
 20
47.24320117900596
 30
0.0
 10
18.44967423040858
 20
47.28829435244305
 30
0.0
 10
18.34967476177422
 20
47.2939868487563
 30
0.0
 10
18.30000000000004
 20
47.29681459776463
 30
0.0
  0
SPLINE
  5
1C1
330
1F
100
AcDbEntity
  8
1
  6
SLD-Solid
370
    25
100
AcDbSpline
210
0.0
220
0.0
230
1.0
 70
     8
 71
     3
 72
     8
 73
     4
 74
     0
 42
0.000000001
 43
0.00000001
 40
0.0
 40
0.0
 40
0.0
 40
0.0
 40
1.0
 40
1.0
 40
1.0
 40
1.0
 10
7.590276606597335
 20
-47.4754841997425
 30
0.0
 10
8.12777499546441
 20
-46.51049654710809
 30
0.0
 10
8.664408048367864
 20
-45.54503249842017
 30
0.0
 10
9.199999999999985
 20
-44.57901066343647
 30
0.0
  0
SPLINE
  5
1C2
330
1F
100
AcDbEntity
  8
1
  6
SLD-Solid
370
    25
100
AcDbSpline
210
0.0
220
0.0
230
1.0
 70
     8
 71
     3
 72
     8
 73
     4
 74
     0
 42
0.000000001
 43
0.00000001
 40
0.0000000000000098
 40
0.0000000000000098
 40
0.0000000000000098
 40
0.0000000000000098
 40
0.0008790679015159
 40
0.0008790679015159
 40
0.0008790679015159
 40
0.0008790679015159
 10
7.957289380062113
 20
46.81625358783002
 30
0.0
 10
7.83533486386081
 20
46.97654627942826
 30
0.0
 10
7.712991580674012
 20
47.13673210499548
 30
0.0
 10
7.590276606597316
 20
47.29681459776454
 30
0.0
  0
SPLINE
  5
1C3
330
1F
100
AcDbEntity
  8
1
  6
SLD-Solid
370
    25
100
AcDbSpline
210
0.0
220
0.0
230
1.0
 70
     8
 71
     3
 72
     8
 73
     4
 74
     0
 42
0.000000001
 43
0.00000001
 40
0.0
 40
0.0
 40
0.0
 40
0.0
 40
1.0
 40
1.0
 40
1.0
 40
1.0
 10
7.957289380055702
 20
46.81625358784157
 30
0.0
 10
8.372088490919097
 20
46.07082082933733
 30
0.0
 10
8.786353866857958
 20
45.32508460154717
 30
0.0
 10
9.199999999999985
 20
44.57901066343646
 30
0.0
  0
SPLINE
  5
1C4
330
1F
100
AcDbEntity
  8
1
  6
SLD-Solid
370
    25
100
AcDbSpline
210
0.0
220
0.0
230
1.0
 70
     8
 71
     3
 72
    14
 73
    10
 74
     0
 42
0.000000001
 43
0.00000001
 40
0.0
 40
0.0
 40
0.0
 40
0.0
 40
0.25
 40
0.25
 40
0.5
 40
0.5
 40
0.75
 40
0.75
 40
1.0
 40
1.0
 40
1.0
 40
1.0
 10
9.200000000003941
 20
41.48301295145394
 30
0.0
 10
9.176680646158342
 20
41.55645645104897
 30
0.0
 10
9.157956892056715
 20
41.62429306843813
 30
0.0
 10
9.131927678785443
 20
41.74600607925063
 30
0.0
 10
9.125045582369026
 20
41.79860573441265
 30
0.0
 10
9.124954879644044
 20
41.88147815789065
 30
0.0
 10
9.131870505305214
 20
41.91255410941299
 30
0.0
 10
9.157670888230426
 20
41.95124091970114
 30
0.0
 10
9.176601575159578
 20
41.95960923610532
 30
0.0
 10
9.199999999999985
 20
41.95870119642319
 30
0.0
  0
SPLINE
  5
1C5
330
1F
100
AcDbEntity
  8
1
  6
SLD-Solid
370
    25
100
AcDbSpline
210
0.0
220
0.0
230
1.0
 70
     8
 71
     3
 72
    14
 73
    10
 74
     0
 42
0.000000001
 43
0.00000001
 40
0.0
 40
0.0
 40
0.0
 40
0.0
 40
0.25
 40
0.25
 40
0.5
 40
0.5
 40
0.75
 40
0.75
 40
1.0
 40
1.0
 40
1.0
 40
1.0
 10
9.199999999999985
 20
34.67668893498512
 30
0.0
 10
9.176680646155456
 20
34.76218380134761
 30
0.0
 10
9.15795689205487
 20
34.84409122905382
 30
0.0
 10
9.131927678785498
 20
34.99897222910005
 30
0.0
 10
9.1250455823699
 20
35.07047900120392
 30
0.0
 10
9.124954879646276
 20
35.19440944821522
 30
0.0
 10
9.131870505308019
 20
35.24816533561781
 30
0.0
 10
9.157670888234021
 20
35.33309634836908
 30
0.0
 10
9.176601575163396
 20
35.36545280972809
 30
0.0
 10
9.200000000003941
 20
35.38859611770599
 30
0.0
  0
SPLINE
  5
1C6
330
1F
100
AcDbEntity
  8
1
  6
SLD-Solid
370
    25
100
AcDbSpline
210
0.0
220
0.0
230
1.0
 70
     8
 71
     3
 72
    14
 73
    10
 74
     0
 42
0.000000001
 43
0.00000001
 40
0.0
 40
0.0
 40
0.0
 40
0.0
 40
0.25
 40
0.25
 40
0.5
 40
0.5
 40
0.75
 40
0.75
 40
1.0
 40
1.0
 40
1.0
 40
1.0
 10
13.02999999999771
 20
41.98711733167187
 30
0.0
 10
13.05904068228928
 20
41.99358445674472
 30
0.0
 10
13.08275209483144
 20
41.9892355902068
 30
0.0
 10
13.11609658322634
 20
41.95189511103436
 30
0.0
 10
13.12492140067673
 20
41.91935250781726
 30
0.0
 10
13.12507754967984
 20
41.82511380576903
 30
0.0
 10
13.11615053209224
 20
41.76334893396506
 30
0.0
 10
13.08319562521701
 20
41.62087672885623
 30
0.0
 10
13.05911019949794
 20
41.53942138186947
 30
0.0
 10
13.03000000000168
 20
41.45311361597116
 30
0.0
  0
SPLINE
  5
1C7
330
1F
100
AcDbEntity
  8
1
  6
SLD-Solid
370
    25
100
AcDbSpline
210
0.0
220
0.0
230
1.0
 70
     8
 71
     3
 72
     8
 73
     4
 74
     0
 42
0.000000001
 43
0.00000001
 40
0.0
 40
0.0
 40
0.0
 40
0.0
 40
1.0
 40
1.0
 40
1.0
 40
1.0
 10
13.03
 20
44.57901066343647
 30
0.0
 10
13.44364613314278
 20
45.32508460154332
 30
0.0
 10
13.8579115090824
 20
46.07082082932958
 30
0.0
 10
14.27271061994659
 20
46.81625358782995
 30
0.0
  0
SPLINE
  5
1C8
330
1F
100
AcDbEntity
  8
1
  6
SLD-Solid
370
    25
100
AcDbSpline
210
0.0
220
0.0
230
1.0
 70
     8
 71
     3
 72
     8
 73
     4
 74
     0
 42
0.000000001
 43
0.00000001
 40
0.0
 40
0.0
 40
0.0
 40
0.0
 40
0.0008790679015124
 40
0.0008790679015124
 40
0.0008790679015124
 40
0.0008790679015124
 10
14.63972339340267
 20
47.29681459776454
 30
0.0
 10
14.51700841932646
 20
47.13673210499613
 30
0.0
 10
14.3946651361474
 20
46.97654627942757
 30
0.0
 10
14.27271061994659
 20
46.81625358782995
 30
0.0
  0
SPLINE
  5
1C9
330
1F
100
AcDbEntity
  8
1
  6
SLD-Solid
370
    25
100
AcDbSpline
210
0.0
220
0.0
230
1.0
 70
     8
 71
     3
 72
     8
 73
     4
 74
     0
 42
0.000000001
 43
0.00000001
 40
0.0
 40
0.0
 40
0.0
 40
0.0
 40
1.0
 40
1.0
 40
1.0
 40
1.0
 10
13.03
 20
-44.57901066343648
 30
0.0
 10
13.56559195163211
 20
-45.54503249842018
 30
0.0
 10
14.10222500453559
 20
-46.5104965471081
 30
0.0
 10
14.63972339340267
 20
-47.4754841997425
 30
0.0
  0
SPLINE
  5
1CA
330
1F
100
AcDbEntity
  8
1
  6
SLD-Solid
370
    25
100
AcDbSpline
210
0.0
220
0.0
230
1.0
 70
     8
 71
     3
 72
    14
 73
    10
 74
     0
 42
0.000000001
 43
0.00000001
 40
0.0
 40
0.0
 40
0.0
 40
0.0
 40
0.25
 40
0.25
 40
0.5
 40
0.5
 40
0.75
 40
0.75
 40
1.0
 40
1.0
 40
1.0
 40
1.0
 10
13.03000000000168
 20
35.43161038841292
 30
0.0
 10
13.05904068229327
 20
35.41088512733864
 30
0.0
 10
13.08275209483534
 20
35.37953864703764
 30
0.0
 10
13.11609658322976
 20
35.28872072742507
 30
0.0
 10
13.12492140067979
 20
35.23076880195999
 30
0.0
 10
13.12507754968191
 20
35.08956907537842
 30
0.0
 10
13.11615053209369
 20
35.00648906177551
 30
0.0
 10
13.08319562521699
 20
34.82779421025362
 30
0.0
 10
13.05911019949711
 20
34.73111937885582
 30
0.0
 10
13.03
 20
34.63242923389119
 30
0.0
  0
SPLINE
  5
1CB
330
1F
100
AcDbEntity
  8
1
  6
SLD-Solid
370
    25
100
AcDbSpline
210
0.0
220
0.0
230
1.0
 70
     8
 71
     3
 72
    12
 73
     8
 74
     0
 42
0.000000001
 43
0.00000001
 40
0.0
 40
0.0
 40
0.0
 40
0.0
 40
0.2500000000000032
 40
0.2500000000000032
 40
0.5000000000000063
 40
0.5000000000000063
 40
1.0
 40
1.0
 40
1.0
 40
1.0
 10
12.28000000000003
 20
-43.76943596849289
 30
0.0
 10
12.37996960464106
 20
-43.76943596849289
 30
0.0
 10
12.47988502523367
 20
-43.79051518316404
 30
0.0
 10
12.66449294223869
 20
-43.87194262843689
 30
0.0
 10
12.74728498815326
 20
-43.93126060501207
 30
0.0
 10
12.95342033959715
 20
-44.15080408372863
 30
0.0
 10
13.03
 20
-44.35163254795798
 30
0.0
 10
13.03
 20
-44.551021593225
 30
0.0
  0
SPLINE
  5
1CC
330
1F
100
AcDbEntity
  8
1
  6
SLD-Solid
370
    25
100
AcDbSpline
210
0.0
220
0.0
230
1.0
 70
     8
 71
     3
 72
    16
 73
    12
 74
     0
 42
0.000000001
 43
0.00000001
 40
0.0
 40
0.0
 40
0.0
 40
0.0
 40
0.1249999999999994
 40
0.1249999999999994
 40
0.2499999999999988
 40
0.2499999999999988
 40
0.4999999999999992
 40
0.4999999999999992
 40
0.7499999999999997
 40
0.7499999999999997
 40
1.0
 40
1.0
 40
1.0
 40
1.0
 10
13.03000000000001
 20
34.61214293353756
 30
0.0
 10
13.03000000000001
 20
34.56119277402758
 30
0.0
 10
13.0206745626061
 20
34.49413963137994
 30
0.0
 10
12.99367590047851
 20
34.36331338142201
 30
0.0
 10
12.97626449755333
 20
34.29908556562462
 30
0.0
 10
12.91545405813534
 20
34.11096290842623
 30
0.0
 10
12.86271449633858
 20
33.99023971150846
 30
0.0
 10
12.73634152951911
 20
33.76817627154973
 30
0.0
 10
12.6609884163974
 20
33.6639423449675
 30
0.0
 10
12.48671204537782
 20
33.48358218869543
 30
0.0
 10
12.38972674335428
 20
33.40848998465464
 30
0.0
 10
12.28000000000003
 20
33.35547071674117
 30
0.0
  0
SPLINE
  5
1CD
330
1F
100
AcDbEntity
  8
1
  6
SLD-Solid
370
    25
100
AcDbSpline
210
0.0
220
0.0
230
1.0
 70
     8
 71
     3
 72
    12
 73
     8
 74
     0
 42
0.000000001
 43
0.00000001
 40
0.0
 40
0.0
 40
0.0
 40
0.0
 40
0.5
 40
0.5
 40
0.75
 40
0.75
 40
1.0
 40
1.0
 40
1.0
 40
1.0
 10
9.199999999999985
 20
-44.55102159322499
 30
0.0
 10
9.199999999999985
 20
-44.35094747116167
 30
0.0
 10
9.277613070150126
 20
-44.14958800989076
 30
0.0
 10
9.48251103730058
 20
-43.93153570225751
 30
0.0
 10
9.566272299852297
 20
-43.87162606259759
 30
0.0
 10
9.749092094904391
 20
-43.79094541821726
 30
0.0
 10
9.849426682175643
 20
-43.7694359684929
 30
0.0
 10
9.949999999999987
 20
-43.76943596849289
 30
0.0
  0
SPLINE
  5
1CE
330
1F
100
AcDbEntity
  8
1
  6
SLD-Solid
370
    25
100
AcDbSpline
210
0.0
220
0.0
230
1.0
 70
     8
 71
     3
 72
    16
 73
    12
 74
     0
 42
0.000000001
 43
0.00000001
 40
0.0
 40
0.0
 40
0.0
 40
0.0
 40
0.249999999999997
 40
0.249999999999997
 40
0.499999999999994
 40
0.499999999999994
 40
0.749999999999991
 40
0.749999999999991
 40
0.8749999999999954
 40
0.8749999999999954
 40
1.0
 40
1.0
 40
1.0
 40
1.0
 10
9.949999999999987
 20
33.36525953046025
 30
0.0
 10
9.839257595210649
 20
33.42015914282665
 30
0.0
 10
9.740416734001458
 20
33.49854219709403
 30
0.0
 10
9.564708009184075
 20
33.6855356989051
 30
0.0
 10
9.4908304832661
 20
33.79082769792042
 30
0.0
 10
9.364658348120031
 20
34.01955880125705
 30
0.0
 10
9.312951425518149
 20
34.14247439570438
 30
0.0
 10
9.253206550793827
 20
34.33488461785981
 30
0.0
 10
9.236028623043943
 20
34.4012196258066
 30
0.0
 10
9.209723703057032
 20
34.53368853253288
 30
0.0
 10
9.2
 20
34.60516910831218
 30
0.0
 10
9.2
 20
34.65640299543514
 30
0.0
  0
SPLINE
  5
1CF
330
1F
100
AcDbEntity
  8
1
  6
SLD-Solid
370
    25
100
AcDbSpline
210
0.0
220
0.0
230
1.0
 70
     8
 71
     3
 72
    12
 73
     8
 74
     0
 42
0.000000001
 43
0.00000001
 40
0.0
 40
0.0
 40
0.0
 40
0.0
 40
0.2499999999999995
 40
0.2499999999999995
 40
0.499999999999999
 40
0.499999999999999
 40
1.0
 40
1.0
 40
1.0
 40
1.0
 10
12.28000000000003
 20
33.35547071674117
 30
0.0
 10
12.10934456477526
 20
33.27301109054178
 30
0.0
 10
11.92465326465505
 20
33.21019284332255
 30
0.0
 10
11.52752277837882
 20
33.12414278909399
 30
0.0
 10
11.32193513118782
 20
33.10278110396342
 30
0.0
 10
10.69948105299426
 20
33.10504385732297
 30
0.0
 10
10.28831449591981
 20
33.19754297491611
 30
0.0
 10
9.949999999999987
 20
33.36525953046025
 30
0.0
  0
SPLINE
  5
1D0
330
1F
100
AcDbEntity
  8
1
  6
SLD-Solid
370
    25
100
AcDbSpline
210
0.0
220
0.0
230
1.0
 70
     8
 71
     3
 72
    16
 73
    12
 74
     0
 42
0.000000001
 43
0.00000001
 40
0.0
 40
0.0
 40
0.0
 40
0.0
 40
0.2499999999999999
 40
0.2499999999999999
 40
0.4999999999999998
 40
0.4999999999999998
 40
0.7499999999999997
 40
0.7499999999999997
 40
0.8749999999999998
 40
0.8749999999999998
 40
1.0
 40
1.0
 40
1.0
 40
1.0
 10
12.28000000000171
 20
35.49787263615901
 30
0.0
 10
12.38938127142976
 20
35.44920071538322
 30
0.0
 10
12.48719790588637
 20
35.41256913935561
 30
0.0
 10
12.66235653859027
 20
35.35237067244716
 30
0.0
 10
12.73630362704466
 20
35.33005450148765
 30
0.0
 10
12.86322577731906
 20
35.29810085202675
 30
0.0
 10
12.91570572130263
 20
35.28773767542295
 30
0.0
 10
12.97658934509599
 20
35.29443860847594
 30
0.0
 10
12.99409980252136
 20
35.30029296727561
 30
0.0
 10
13.02084597296217
 20
35.33271449864375
 30
0.0
 10
13.03000000000171
 20
35.36068432142831
 30
0.0
 10
13.03000000000168
 20
35.4113240880568
 30
0.0
  0
SPLINE
  5
1D1
330
1F
100
AcDbEntity
  8
1
  6
SLD-Solid
370
    25
100
AcDbSpline
210
0.0
220
0.0
230
1.0
 70
     8
 71
     3
 72
    16
 73
    12
 74
     0
 42
0.000000001
 43
0.00000001
 40
0.0
 40
0.0
 40
0.0
 40
0.0
 40
0.1250000000000023
 40
0.1250000000000023
 40
0.2500000000000046
 40
0.2500000000000046
 40
0.5000000000000031
 40
0.5000000000000031
 40
0.7500000000000016
 40
0.7500000000000016
 40
1.0
 40
1.0
 40
1.0
 40
1.0
 10
9.200000000003941
 20
35.36831017815614
 30
0.0
 10
9.200000000003941
 20
35.31693147875156
 30
0.0
 10
9.209688078861216
 20
35.29149399689033
 30
0.0
 10
9.236073415533202
 20
35.26518486787037
 30
0.0
 10
9.253070624738555
 20
35.26193032552647
 30
0.0
 10
9.313034815210717
 20
35.26168910608327
 30
0.0
 10
9.363922455823111
 20
35.27477154515098
 30
0.0
 10
9.490054525545661
 20
35.31156519648359
 30
0.0
 10
9.565092430039405
 20
35.33621653959832
 30
0.0
 10
9.738924647267181
 20
35.39932894997413
 30
0.0
 10
9.839445946351667
 20
35.43834692831612
 30
0.0
 10
9.950000000001666
 20
35.48885481142475
 30
0.0
  0
SPLINE
  5
1D2
330
1F
100
AcDbEntity
  8
1
  6
SLD-Solid
370
    25
100
AcDbSpline
210
0.0
220
0.0
230
1.0
 70
     8
 71
     3
 72
    12
 73
     8
 74
     0
 42
0.000000001
 43
0.00000001
 40
0.0
 40
0.0
 40
0.0
 40
0.0
 40
0.2499999999999994
 40
0.2499999999999994
 40
0.4999999999999989
 40
0.4999999999999989
 40
1.0
 40
1.0
 40
1.0
 40
1.0
 10
9.950000000001666
 20
35.48885481142475
 30
0.0
 10
10.11915676939407
 20
35.56613601508455
 30
0.0
 10
10.30270770520114
 20
35.62476545355777
 30
0.0
 10
10.69826560395278
 20
35.7059760569766
 30
0.0
 10
10.90345647830497
 20
35.72681273192291
 30
0.0
 10
11.52590240230723
 20
35.72953904175432
 30
0.0
 10
11.9386879690094
 20
35.64974792445469
 30
0.0
 10
12.28000000000171
 20
35.49787263615901
 30
0.0
  0
SPLINE
  5
1D3
330
1F
100
AcDbEntity
  8
1
  6
SLD-Solid
370
    25
100
AcDbSpline
210
0.0
220
0.0
230
1.0
 70
     8
 71
     3
 72
    16
 73
    12
 74
     0
 42
0.000000001
 43
0.00000001
 40
0.0
 40
0.0
 40
0.0
 40
0.0
 40
0.25
 40
0.25
 40
0.5
 40
0.5
 40
0.75
 40
0.75
 40
0.875
 40
0.875
 40
1.0
 40
1.0
 40
1.0
 40
1.0
 10
9.950000000001666
 20
40.29017607249153
 30
0.0
 10
9.83925759521205
 20
40.32798470963368
 30
0.0
 10
9.740416734002652
 20
40.39081531012292
 30
0.0
 10
9.564708009184839
 20
40.54795546549987
 30
0.0
 10
9.490830483266723
 20
40.63949231484327
 30
0.0
 10
9.364658348120363
 20
40.84247699028979
 30
0.0
 10
9.31295142551837
 20
40.95326880810654
 30
0.0
 10
9.253206550793939
 20
41.13218036853947
 30
0.0
 10
9.236028623044026
 20
41.194705815005
 30
0.0
 10
9.20972370305706
 20
41.32469951294956
 30
0.0
 10
9.2
 20
41.39783900363272
 30
0.0
 10
9.2
 20
41.45885414630703
 30
0.0
  0
SPLINE
  5
1D4
330
1F
100
AcDbEntity
  8
1
  6
SLD-Solid
370
    25
100
AcDbSpline
210
0.0
220
0.0
230
1.0
 70
     8
 71
     3
 72
    16
 73
    12
 74
     0
 42
0.000000001
 43
0.00000001
 40
0.0
 40
0.0
 40
0.0
 40
0.0
 40
0.1250000000000039
 40
0.1250000000000039
 40
0.2500000000000078
 40
0.2500000000000078
 40
0.5000000000000051
 40
0.5000000000000051
 40
0.7500000000000026
 40
0.7500000000000026
 40
1.0
 40
1.0
 40
1.0
 40
1.0
 10
13.03
 20
41.42895438114427
 30
0.0
 10
13.03000000000003
 20
41.36827713359687
 30
0.0
 10
13.0206745626061
 20
41.29860125514433
 30
0.0
 10
12.99367590047851
 20
41.16856540733126
 30
0.0
 10
12.97626449755332
 20
41.10738101936637
 30
0.0
 10
12.91545405813534
 20
40.93079740642431
 30
0.0
 10
12.86271449633858
 20
40.8213021261166
 30
0.0
 10
12.73634152951908
 20
40.62320356046862
 30
0.0
 10
12.6609884163974
 20
40.53226162144185
 30
0.0
 10
12.48671204537782
 20
40.38027498384223
 30
0.0
 10
12.38972674335428
 20
40.31995671599469
 30
0.0
 10
12.28000000000003
 20
40.28343379132394
 30
0.0
  0
SPLINE
  5
1D5
330
1F
100
AcDbEntity
  8
1
  6
SLD-Solid
370
    25
100
AcDbSpline
210
0.0
220
0.0
230
1.0
 70
     8
 71
     3
 72
    12
 73
     8
 74
     0
 42
0.000000001
 43
0.00000001
 40
0.0
 40
0.0
 40
0.0
 40
0.0
 40
0.25
 40
0.25
 40
0.5
 40
0.5
 40
1.0
 40
1.0
 40
1.0
 40
1.0
 10
12.28000000000003
 20
40.28343379132394
 30
0.0
 10
12.10934456477542
 20
40.22663054158886
 30
0.0
 10
11.92465326465537
 20
40.18318651206227
 30
0.0
 10
11.52752277837951
 20
40.12362389224989
 30
0.0
 10
11.32193513118868
 20
40.1088014771114
 30
0.0
 10
10.69948105299566
 20
40.11037023230868
 30
0.0
 10
10.28831449592146
 20
40.17467189827261
 30
0.0
 10
9.950000000001666
 20
40.29017607249153
 30
0.0
  0
SPLINE
  5
1D6
330
1F
100
AcDbEntity
  8
1
  6
SLD-Solid
370
    25
100
AcDbSpline
210
0.0
220
0.0
230
1.0
 70
     8
 71
     3
 72
    16
 73
    12
 74
     0
 42
0.000000001
 43
0.00000001
 40
0.0
 40
0.0
 40
0.0
 40
0.0
 40
0.1250000000000034
 40
0.1250000000000034
 40
0.2500000000000068
 40
0.2500000000000068
 40
0.5000000000000046
 40
0.5000000000000046
 40
0.7500000000000023
 40
0.7500000000000023
 40
1.0
 40
1.0
 40
1.0
 40
1.0
 10
9.199999999999985
 20
41.93454239124897
 30
0.0
 10
9.200000000002499
 20
41.87335478963717
 30
0.0
 10
9.209688078861273
 20
41.83111047963443
 30
0.0
 10
9.23607341553473
 20
41.77192904688964
 30
0.0
 10
9.253070624740594
 20
41.75174455463416
 30
0.0
 10
9.313034815213546
 20
41.70102846576495
 30
0.0
 10
9.363922455826138
 20
41.68155707128322
 30
0.0
 10
9.490054525548505
 20
41.65587219504382
 30
0.0
 10
9.565092430041695
 20
41.65088437918835
 30
0.0
 10
9.738924647267805
 20
41.66113961911417
 30
0.0
 10
9.839445946350999
 20
41.67651281331772
 30
0.0
 10
9.949999999999376
 20
41.70913817421359
 30
0.0
  0
SPLINE
  5
1D7
330
1F
100
AcDbEntity
  8
1
  6
SLD-Solid
370
    25
100
AcDbSpline
210
0.0
220
0.0
230
1.0
 70
     8
 71
     3
 72
    12
 73
     8
 74
     0
 42
0.000000001
 43
0.00000001
 40
0.0
 40
0.0
 40
0.0
 40
0.0
 40
0.2499999999999994
 40
0.2499999999999994
 40
0.4999999999999989
 40
0.4999999999999989
 40
1.0
 40
1.0
 40
1.0
 40
1.0
 10
9.949999999999376
 20
41.70913817421359
 30
0.0
 10
10.11915676939175
 20
41.75905765221817
 30
0.0
 10
10.30270770519875
 20
41.79673649998885
 30
0.0
 10
10.69826560395015
 20
41.84886357628272
 30
0.0
 10
10.90345647830221
 20
41.86219397810239
 30
0.0
 10
11.52590240230392
 20
41.86393994691747
 30
0.0
 10
11.93868796900573
 20
41.81303425518065
 30
0.0
 10
12.27999999999774
 20
41.71496227396757
 30
0.0
  0
SPLINE
  5
1D8
330
1F
100
AcDbEntity
  8
1
  6
SLD-Solid
370
    25
100
AcDbSpline
210
0.0
220
0.0
230
1.0
 70
     8
 71
     3
 72
    16
 73
    12
 74
     0
 42
0.000000001
 43
0.00000001
 40
0.0
 40
0.0
 40
0.0
 40
0.0
 40
0.2499999999999993
 40
0.2499999999999993
 40
0.4999999999999987
 40
0.4999999999999987
 40
0.749999999999998
 40
0.749999999999998
 40
0.874999999999999
 40
0.874999999999999
 40
1.0
 40
1.0
 40
1.0
 40
1.0
 10
12.27999999999774
 20
41.71496227396757
 30
0.0
 10
12.38938127142579
 20
41.68353285741465
 30
0.0
 10
12.4871979058824
 20
41.66923447164933
 30
0.0
 10
12.6623565385863
 20
41.66075308180662
 30
0.0
 10
12.73630362704069
 20
41.66679667497427
 30
0.0
 10
12.86322577731509
 20
41.69542238629031
 30
0.0
 10
12.91570572129866
 20
41.71723646207225
 30
0.0
 10
12.97658934509202
 20
41.77277628648087
 30
0.0
 10
12.9940998025174
 20
41.79517110958732
 30
0.0
 10
13.0208459729582
 20
41.85934368895651
 30
0.0
 10
13.02999999999774
 20
41.90265050045427
 30
0.0
 10
13.02999999999771
 20
41.96295809683886
 30
0.0
  0
SPLINE
  5
1D9
330
1F
100
AcDbEntity
  8
1
  6
SLD-Solid
370
    25
100
AcDbSpline
210
0.0
220
0.0
230
1.0
 70
     8
 71
     3
 72
    12
 73
     8
 74
     0
 42
0.000000001
 43
0.00000001
 40
0.0
 40
0.0
 40
0.0
 40
0.0
 40
0.5
 40
0.5
 40
0.75
 40
0.75
 40
1.0
 40
1.0
 40
1.0
 40
1.0
 10
9.199999999999985
 20
44.55102159322499
 30
0.0
 10
9.199999999999985
 20
44.35104831812288
 30
0.0
 10
9.27600396681734
 20
44.15150826736531
 30
0.0
 10
9.482759040153486
 20
43.93116827137958
 30
0.0
 10
9.566857937314932
 20
43.87128621650869
 30
0.0
 10
9.749511247261145
 20
43.7908422871647
 30
0.0
 10
9.850156242870487
 20
43.76943596849255
 30
0.0
 10
9.950000000002401
 20
43.76943596849289
 30
0.0
  0
SPLINE
  5
1DA
330
1F
100
AcDbEntity
  8
1
  6
SLD-Solid
370
    25
100
AcDbSpline
210
0.0
220
0.0
230
1.0
 70
     8
 71
     3
 72
    10
 73
     6
 74
     0
 42
0.000000001
 43
0.00000001
 40
0.0
 40
0.0
 40
0.0
 40
0.0
 40
0.5
 40
0.5
 40
1.0
 40
1.0
 40
1.0
 40
1.0
 10
12.28000000000003
 20
43.76943596849289
 30
0.0
 10
12.48122846377885
 20
43.76943596849291
 30
0.0
 10
12.67900932610888
 20
43.85856672856716
 30
0.0
 10
12.95290221427663
 20
44.1502294699326
 30
0.0
 10
13.03
 20
44.34957328976746
 30
0.0
 10
13.03
 20
44.55102159322499
 30
0.0
  0
SPLINE
  5
1DB
330
1F
100
AcDbEntity
  8
SK3
  6
SLD-Dashed
370
    18
100
AcDbSpline
210
0.0
220
0.0
230
1.0
 70
     8
 71
     3
 72
    30
 73
    26
 74
     0
 42
0.000000001
 43
0.00000001
 40
0.4999999999999934
 40
0.4999999999999934
 40
0.4999999999999934
 40
0.4999999999999934
 40
0.5624999999999941
 40
0.5624999999999941
 40
0.6249999999999949
 40
0.6249999999999949
 40
0.6874999999999956
 40
0.6874999999999956
 40
0.7499999999999962
 40
0.7499999999999962
 40
0.7812499999999968
 40
0.7812499999999968
 40
0.8124999999999972
 40
0.8124999999999972
 40
0.8437499999999977
 40
0.8437499999999977
 40
0.8749999999999981
 40
0.8749999999999981
 40
0.9062499999999986
 40
0.9062499999999986
 40
0.9374999999999991
 40
0.9374999999999991
 40
0.9687499999999996
 40
0.9687499999999996
 40
1.0
 40
1.0
 40
1.0
 40
1.0
 10
9.602846279599758
 20
-14.27915034605701
 30
0.0
 10
9.68645653869378
 20
-14.42125418637639
 30
0.0
 10
9.797407143447803
 20
-14.51131733768216
 30
0.0
 10
10.04010223607203
 20
-14.63242374926581
 30
0.0
 10
10.1757110634753
 20
-14.66434400040092
 30
0.0
 10
10.46843928875955
 20
-14.6878509066433
 30
0.0
 10
10.62555865364896
 20
-14.68003033606001
 30
0.0
 10
10.98145473780837
 20
-14.62436653420485
 30
0.0
 10
11.18157682258664
 20
-14.57632221838471
 30
0.0
 10
11.50801002825755
 20
-14.45860893436549
 30
0.0
 10
11.61873162334194
 20
-14.41242944660508
 30
0.0
 10
11.84220113938107
 20
-14.30063256215534
 30
0.0
 10
11.95412269444689
 20
-14.23490090158665
 30
0.0
 10
12.16107863552153
 20
-14.08747705033183
 30
0.0
 10
12.25901625186733
 20
-14.00366784802362
 30
0.0
 10
12.43052677631516
 20
-13.82249974419393
 30
0.0
 10
12.50593330594162
 20
-13.72350506925875
 30
0.0
 10
12.63000303324957
 20
-13.51367430078405
 30
0.0
 10
12.67841410243613
 20
-13.4039848685676
 30
0.0
 10
12.74789370637347
 20
-13.17359881812363
 30
0.0
 10
12.76810124630629
 20
-13.05468203931825
 30
0.0
 10
12.77891027826544
 20
-12.81644825424546
 30
0.0
 10
12.76940813581851
 20
-12.69449512908378
 30
0.0
 10
12.72129905847916
 20
-12.45817259633889
 30
0.0
 10
12.68301625646433
 20
-12.3430480331033
 30
0.0
 10
12.63040931107567
 20
-12.2323343638947
 30
0.0
  0
SPLINE
  5
1DC
330
1F
100
AcDbEntity
  8
SK3
  6
SLD-Dashed
370
    18
100
AcDbSpline
210
0.0
220
0.0
230
1.0
 70
     8
 71
     3
 72
    30
 73
    26
 74
     0
 42
0.000000001
 43
0.00000001
 40
0.0
 40
0.0
 40
0.0
 40
0.0
 40
0.0312499999999991
 40
0.0312499999999991
 40
0.0624999999999983
 40
0.0624999999999983
 40
0.0937499999999974
 40
0.0937499999999974
 40
0.1249999999999965
 40
0.1249999999999965
 40
0.187499999999996
 40
0.187499999999996
 40
0.2499999999999955
 40
0.2499999999999955
 40
0.312499999999995
 40
0.312499999999995
 40
0.3749999999999944
 40
0.3749999999999944
 40
0.4062499999999942
 40
0.4062499999999942
 40
0.4374999999999939
 40
0.4374999999999939
 40
0.4687499999999937
 40
0.4687499999999937
 40
0.4999999999999934
 40
0.4999999999999934
 40
0.4999999999999934
 40
0.4999999999999934
 10
12.63040931107567
 20
-12.2323343638947
 30
0.0
 10
12.57780236568703
 20
-12.12162069468611
 30
0.0
 10
12.51267206459308
 20
-12.01896209858504
 30
0.0
 10
12.35821503903349
 20
-11.83123217673027
 30
0.0
 10
12.2680065585952
 20
-11.74609765066666
 30
0.0
 10
12.07343499093627
 20
-11.60605794329097
 30
0.0
 10
11.96643370486067
 20
-11.5492012180452
 30
0.0
 10
11.74573264298215
 20
-11.4698171939369
 30
0.0
 10
11.63406552497762
 20
-11.44748668283022
 30
0.0
 10
11.29951801742689
 20
-11.42770686560522
 30
0.0
 10
11.09198428069952
 20
-11.47806879673262
 30
0.0
 10
10.72217844091647
 20
-11.64236243808863
 30
0.0
 10
10.55844908096595
 20
-11.75496051093635
 30
0.0
 10
10.25324958882709
 20
-12.02428585488716
 30
0.0
 10
10.11576882260312
 20
-12.17795893248197
 30
0.0
 10
9.86252561936532
 20
-12.52988094775973
 30
0.0
 10
9.746260896402015
 20
-12.72918710194006
 30
0.0
 10
9.60569266085047
 20
-13.06645756895027
 30
0.0
 10
9.565421636406112
 20
-13.18319961587416
 30
0.0
 10
9.503286004234598
 20
-13.4293677611186
 30
0.0
 10
9.482363995141297
 20
-13.5575206983002
 30
0.0
 10
9.47090841224374
 20
-13.80546799718778
 30
0.0
 10
9.480664817462667
 20
-13.92083957613646
 30
0.0
 10
9.525951505689648
 20
-14.12239475073259
 30
0.0
 10
9.561041150052754
 20
-14.20809842589733
 30
0.0
 10
9.602846279599758
 20
-14.27915034605701
 30
0.0
  0
SPLINE
  5
1DD
330
1F
100
AcDbEntity
  8
SK3
  6
SLD-Dashed
370
    18
100
AcDbSpline
210
0.0
220
0.0
230
1.0
 70
     8
 71
     3
 72
    26
 73
    22
 74
     0
 42
0.000000001
 43
0.00000001
 40
0.5000000000000062
 40
0.5000000000000062
 40
0.5000000000000062
 40
0.5000000000000062
 40
0.5625000000000058
 40
0.5625000000000058
 40
0.6250000000000051
 40
0.6250000000000051
 40
0.6562500000000046
 40
0.6562500000000046
 40
0.687500000000004
 40
0.687500000000004
 40
0.7187500000000034
 40
0.7187500000000034
 40
0.7500000000000029
 40
0.7500000000000029
 40
0.8125000000000022
 40
0.8125000000000022
 40
0.8750000000000014
 40
0.8750000000000014
 40
0.9375000000000008
 40
0.9375000000000008
 40
1.0
 40
1.0
 40
1.0
 40
1.0
 10
11.6386983177957
 20
-9.819390371339228
 30
0.0
 10
11.80317915771348
 20
-9.806594466981574
 30
0.0
 10
11.95081782962319
 20
-9.812432081454686
 30
0.0
 10
12.2261629968525
 20
-9.868839301598985
 30
0.0
 10
12.35236515469922
 20
-9.918953620877927
 30
0.0
 10
12.51874661426342
 20
-10.04837289060635
 30
0.0
 10
12.57051953396253
 20
-10.10115000339698
 30
0.0
 10
12.66070184098388
 20
-10.23071744026807
 30
0.0
 10
12.70001796005849
 20
-10.30921538460777
 30
0.0
 10
12.75624339139551
 20
-10.49493258066048
 30
0.0
 10
12.77323165300569
 20
-10.60488156995157
 30
0.0
 10
12.77649462889749
 20
-10.84110300053567
 30
0.0
 10
12.76278670669287
 20
-10.96977043023328
 30
0.0
 10
12.68516730486993
 20
-11.34647137591011
 30
0.0
 10
12.58996305158962
 20
-11.58088814423495
 30
0.0
 10
12.37315603453731
 20
-11.98947715399204
 30
0.0
 10
12.24747178673945
 20
-12.17132846963891
 30
0.0
 10
11.97676737519453
 20
-12.48981349043029
 30
0.0
 10
11.8310268635477
 20
-12.62828009284684
 30
0.0
 10
11.50508373269932
 20
-12.86276351579439
 30
0.0
 10
11.32747339457478
 20
-12.95749122616765
 30
0.0
 10
11.12500000000002
 20
-13.01159523973384
 30
0.0
  0
SPLINE
  5
1DE
330
1F
100
AcDbEntity
  8
SK3
  6
SLD-Dashed
370
    18
100
AcDbSpline
210
0.0
220
0.0
230
1.0
 70
     8
 71
     3
 72
    34
 73
    30
 74
     0
 42
0.000000001
 43
0.00000001
 40
0.0
 40
0.0
 40
0.0
 40
0.0
 40
0.0312500000000005
 40
0.0312500000000005
 40
0.0625000000000011
 40
0.0625000000000011
 40
0.0937500000000016
 40
0.0937500000000016
 40
0.1250000000000022
 40
0.1250000000000022
 40
0.1562500000000027
 40
0.1562500000000027
 40
0.1875000000000032
 40
0.1875000000000032
 40
0.2187500000000038
 40
0.2187500000000038
 40
0.2500000000000043
 40
0.2500000000000043
 40
0.2812500000000049
 40
0.2812500000000049
 40
0.3125000000000054
 40
0.3125000000000054
 40
0.3750000000000063
 40
0.3750000000000063
 40
0.4062500000000066
 40
0.4062500000000066
 40
0.4375000000000068
 40
0.4375000000000068
 40
0.5000000000000062
 40
0.5000000000000062
 40
0.5000000000000062
 40
0.5000000000000062
 10
11.12500000000002
 20
-13.01159523973385
 30
0.0
 10
11.02376330271267
 20
-13.03864724651695
 30
0.0
 10
10.91875434041335
 20
-13.05441768585464
 30
0.0
 10
10.69982193729481
 20
-13.05649587060872
 30
0.0
 10
10.58565504429786
 20
-13.04203538439391
 30
0.0
 10
10.36433306908853
 20
-12.97958779527627
 30
0.0
 10
10.25386240054307
 20
-12.93066318687883
 30
0.0
 10
10.04998753866615
 20
-12.80335962284303
 30
0.0
 10
9.955887873021027
 20
-12.72514830576758
 30
0.0
 10
9.789076352163583
 20
-12.54575166602605
 30
0.0
 10
9.71802220267208
 20
-12.44674722204856
 30
0.0
 10
9.600536001433193
 20
-12.23250861951092
 30
0.0
 10
9.555159683901222
 20
-12.11851015366412
 30
0.0
 10
9.49353895391432
 20
-11.88585378314763
 30
0.0
 10
9.476799814585949
 20
-11.76451266100637
 30
0.0
 10
9.473480888754688
 20
-11.52533259241784
 30
0.0
 10
9.486354225371821
 20
-11.40705029377198
 30
0.0
 10
9.541906609790443
 20
-11.17282024047877
 30
0.0
 10
9.583939125903788
 20
-11.06025657731945
 30
0.0
 10
9.694361385739578
 20
-10.846257319463
 30
0.0
 10
9.764046986917311
 20
-10.74326010657128
 30
0.0
 10
10.00399120049175
 20
-10.46156575413967
 30
0.0
 10
10.21277179464263
 20
-10.30327029353936
 30
0.0
 10
10.54446991129009
 20
-10.12219171688678
 30
0.0
 10
10.65925898590057
 20
-10.07012567259635
 30
0.0
 10
10.87934718809656
 20
-9.984066675225883
 30
0.0
 10
10.98764418607852
 20
-9.948726825148164
 30
0.0
 10
11.29210738731387
 20
-9.863765363482663
 30
0.0
 10
11.47421747787791
 20
-9.832186275696875
 30
0.0
 10
11.6386983177957
 20
-9.819390371339228
 30
0.0
  0
SPLINE
  5
1DF
330
1F
100
AcDbEntity
  8
1
  6
SLD-Dashed
370
    18
100
AcDbSpline
210
0.0
220
0.0
230
1.0
 70
    24
 71
     3
 72
    10
 73
     6
 74
     0
 42
0.000000001
 43
0.00000001
 40
0.0
 40
0.0
 40
0.0
 40
0.0
 40
0.0394528459531633
 40
0.5819127442326988
 40
0.9999999999999999
 40
0.9999999999999999
 40
0.9999999999999999
 40
0.9999999999999999
 10
19.05000000000001
 20
-35.1
 30
0.0
 10
19.05022539334032
 20
-35.1
 30
0.0
 10
19.0535498495115
 20
-35.09999999999999
 30
0.0
 10
19.20321084401897
 20
-35.09999999999999
 30
0.0
 10
19.26818709149165
 20
-35.1
 30
0.0
 10
19.29646861924536
 20
-35.1
 30
0.0
  0
SPLINE
  5
1E0
330
1F
100
AcDbEntity
  8
1
  6
SLD-Dashed
370
    18
100
AcDbSpline
210
0.0
220
0.0
230
1.0
 70
    24
 71
     3
 72
     8
 73
     4
 74
     0
 42
0.000000001
 43
0.00000001
 40
0.0
 40
0.0
 40
0.0
 40
0.0
 40
0.4999999999999999
 40
0.4999999999999999
 40
0.4999999999999999
 40
0.4999999999999999
 10
19.32612569054465
 20
-35.10000000000001
 30
0.0
 10
19.32611920536342
 20
-35.10000000000002
 30
0.0
 10
19.25867418916416
 20
-35.10000000000002
 30
0.0
 10
19.18940128836172
 20
-35.1
 30
0.0
  0
SPLINE
  5
1E1
330
1F
100
AcDbEntity
  8
1
  6
SLD-Dashed
370
    18
100
AcDbSpline
210
0.0
220
0.0
230
1.0
 70
    24
 71
     2
 72
     6
 73
     3
 74
     0
 42
0.000000001
 43
0.00000001
 40
0.4999999999999999
 40
0.4999999999999999
 40
0.4999999999999999
 40
1.0
 40
1.0
 40
1.0
 10
19.18940128836172
 20
-35.1
 30
0.0
 10
19.12012899024705
 20
-35.09999999999999
 30
0.0
 10
19.05000000000001
 20
-35.1
 30
0.0
  0
SPLINE
  5
1E2
330
1F
100
AcDbEntity
  8
1
  6
SLD-Dashed
370
    18
100
AcDbSpline
210
0.0
220
0.0
230
1.0
 70
    24
 71
     2
 72
     6
 73
     3
 74
     0
 42
0.000000001
 43
0.00000001
 40
0.0
 40
0.0
 40
0.0
 40
0.25
 40
0.25
 40
0.25
 10
3.200000000004088
 20
-35.10000000004254
 30
0.0
 10
3.17802308947961
 20
-35.1000000000299
 30
0.0
 10
3.159393676864672
 20
-35.10000000001922
 30
0.0
  0
SPLINE
  5
1E3
330
1F
100
AcDbEntity
  8
1
  6
SLD-Dashed
370
    18
100
AcDbSpline
210
0.0
220
0.0
230
1.0
 70
    24
 71
     3
 72
     8
 73
     4
 74
     0
 42
0.000000001
 43
0.00000001
 40
0.25
 40
0.25
 40
0.25
 40
0.25
 40
0.5
 40
0.5
 40
0.5
 40
0.5
 10
3.159393676864672
 20
-35.10000000001922
 30
0.0
 10
3.140764264251625
 20
-35.10000000000852
 30
0.0
 10
3.125935313376446
 20
-35.10000000000002
 30
0.0
 10
3.12592529748136
 20
-35.1
 30
0.0
  0
SPLINE
  5
1E4
330
1F
100
AcDbEntity
  8
1
  6
SLD-Dashed
370
    18
100
AcDbSpline
210
0.0
220
0.0
230
1.0
 70
    24
 71
     3
 72
     8
 73
     4
 74
     0
 42
0.000000001
 43
0.00000001
 40
0.5
 40
0.5
 40
0.5
 40
0.5
 40
0.75
 40
0.75
 40
0.75
 40
0.75
 10
3.12592529748136
 20
-35.1
 30
0.0
 10
3.125915281586247
 20
-35.09999999999999
 30
0.0
 10
3.140736475081146
 20
-35.10000000000851
 30
0.0
 10
3.15937402615353
 20
-35.10000000001921
 30
0.0
  0
SPLINE
  5
1E5
330
1F
100
AcDbEntity
  8
1
  6
SLD-Dashed
370
    18
100
AcDbSpline
210
0.0
220
0.0
230
1.0
 70
    24
 71
     2
 72
     6
 73
     3
 74
     0
 42
0.000000001
 43
0.00000001
 40
0.75
 40
0.75
 40
0.75
 40
1.0
 40
1.0
 40
1.0
 10
3.15937402615353
 20
-35.10000000001921
 30
0.0
 10
3.178011577227777
 20
-35.10000000002991
 30
0.0
 10
3.200000000004088
 20
-35.10000000004254
 30
0.0
  0
SPLINE
  5
1E6
330
1F
100
AcDbEntity
  8
SK3
  6
SLD-Dashed
370
    18
100
AcDbSpline
210
0.0
220
0.0
230
1.0
 70
     8
 71
     3
 72
    30
 73
    26
 74
     0
 42
0.000000001
 43
0.00000001
 40
0.5000000000000002
 40
0.5000000000000002
 40
0.5000000000000002
 40
0.5000000000000002
 40
0.5625000000000003
 40
0.5625000000000003
 40
0.6250000000000003
 40
0.6250000000000003
 40
0.6562500000000004
 40
0.6562500000000004
 40
0.6875000000000004
 40
0.6875000000000004
 40
0.7187500000000004
 40
0.7187500000000004
 40
0.7500000000000004
 40
0.7500000000000004
 40
0.7812500000000006
 40
0.7812500000000006
 40
0.8125000000000006
 40
0.8125000000000006
 40
0.8437500000000006
 40
0.8437500000000006
 40
0.8750000000000007
 40
0.8750000000000007
 40
0.9375000000000003
 40
0.9375000000000003
 40
1.0
 40
1.0
 40
1.0
 40
1.0
 10
11.1256340867126
 20
-2.20807613194432
 30
0.0
 10
10.91012831143848
 20
-2.207994055743366
 30
0.0
 10
10.69273190607926
 20
-2.250950739379302
 30
0.0
 10
10.29545710457802
 20
-2.4132215112748
 30
0.0
 10
10.11161887920198
 20
-2.533970605358101
 30
0.0
 10
9.88325685805247
 20
-2.756393500522293
 30
0.0
 10
9.81357030025859
 20
-2.838822643502548
 30
0.0
 10
9.693828420307693
 20
-3.012044829892139
 30
0.0
 10
9.643049505613192
 20
-3.103292515775097
 30
0.0
 10
9.559939885115263
 20
-3.294987142140763
 30
0.0
 10
9.528110569339097
 20
-3.39493763734118
 30
0.0
 10
9.485932078998157
 20
-3.595278526154773
 30
0.0
 10
9.475093311114874
 20
-3.696889173272891
 30
0.0
 10
9.474907881274753
 20
-3.901872321533113
 30
0.0
 10
9.48552400342549
 20
-4.002149034246283
 30
0.0
 10
9.527345716529704
 20
-4.198506717829973
 30
0.0
 10
9.559089732329273
 20
-4.295610098711378
 30
0.0
 10
9.641733638388356
 20
-4.479370670401453
 30
0.0
 10
9.692330936314525
 20
-4.566117382228348
 30
0.0
 10
9.811994061612566
 20
-4.729695673261633
 30
0.0
 10
9.881475262593517
 20
-4.80655485490828
 30
0.0
 10
10.10919445985289
 20
-5.012639596316023
 30
0.0
 10
10.29295795309711
 20
-5.122781885588331
 30
0.0
 10
10.68976853487481
 20
-5.270055084887759
 30
0.0
 10
10.90666257993485
 20
-5.309061659790622
 30
0.0
 10
11.12500000000002
 20
-5.309061659790622
 30
0.0
  0
SPLINE
  5
1E7
330
1F
100
AcDbEntity
  8
SK3
  6
SLD-Dashed
370
    18
100
AcDbSpline
210
0.0
220
0.0
230
1.0
 70
     8
 71
     3
 72
    34
 73
    30
 74
     0
 42
0.000000001
 43
0.00000001
 40
0.0
 40
0.0
 40
0.0
 40
0.0
 40
0.03125
 40
0.03125
 40
0.0625000000000001
 40
0.0625000000000001
 40
0.0937500000000001
 40
0.0937500000000001
 40
0.1250000000000001
 40
0.1250000000000001
 40
0.1875
 40
0.1875
 40
0.2499999999999999
 40
0.2499999999999999
 40
0.28125
 40
0.28125
 40
0.3125
 40
0.3125
 40
0.3437500000000001
 40
0.3437500000000001
 40
0.3750000000000001
 40
0.3750000000000001
 40
0.4062500000000001
 40
0.4062500000000001
 40
0.4375000000000002
 40
0.4375000000000002
 40
0.4687500000000002
 40
0.4687500000000002
 40
0.5000000000000002
 40
0.5000000000000002
 40
0.5000000000000002
 40
0.5000000000000002
 10
11.12500000000002
 20
-5.309061659790615
 30
0.0
 10
11.23416871003261
 20
-5.309061659790622
 30
0.0
 10
11.34148252556934
 20
-5.299537349621519
 30
0.0
 10
11.55256160023164
 20
-5.262182100287872
 30
0.0
 10
11.65743203047549
 20
-5.233886962156417
 30
0.0
 10
11.85717198594062
 20
-5.159939537795331
 30
0.0
 10
11.9518821704485
 20
-5.114630280030577
 30
0.0
 10
12.13112457505727
 20
-5.007215473783237
 30
0.0
 10
12.21587296426148
 20
-4.944611663283506
 30
0.0
 10
12.44381779984263
 20
-4.73859819754028
 30
0.0
 10
12.56670516675
 20
-4.571329361139978
 30
0.0
 10
12.73138667216642
 20
-4.206060482656683
 30
0.0
 10
12.77487792035799
 20
-4.00411281028136
 30
0.0
 10
12.77506064455625
 20
-3.700306253597553
 30
0.0
 10
12.76431481439132
 20
-3.596867972027996
 30
0.0
 10
12.72215926890362
 20
-3.395807648785797
 30
0.0
 10
12.69097028794158
 20
-3.297550131697892
 30
0.0
 10
12.60821939488965
 20
-3.105767645318995
 30
0.0
 10
12.55662183160311
 20
-3.012826865172874
 30
0.0
 10
12.43728120518577
 20
-2.839925186415147
 30
0.0
 10
12.36897548289649
 20
-2.758757585038227
 30
0.0
 10
12.21525208496077
 20
-2.608656191484385
 30
0.0
 10
12.13209058330412
 20
-2.541870610032901
 30
0.0
 10
11.95357507686054
 20
-2.424499981749671
 30
0.0
 10
11.85705358084935
 20
-2.373501415354244
 30
0.0
 10
11.6574094418268
 20
-2.291755408436388
 30
0.0
 10
11.55456819584583
 20
-2.260806334720901
 30
0.0
 10
11.34284591554825
 20
-2.218868681349184
 30
0.0
 10
11.23338697434965
 20
-2.2081171700448
 30
0.0
 10
11.1256340867126
 20
-2.20807613194432
 30
0.0
  0
SPLINE
  5
1E8
330
1F
100
AcDbEntity
  8
1
  6
SLD-Dashed
370
    18
100
AcDbSpline
210
0.0
220
0.0
230
1.0
 70
     8
 71
     3
 72
    29
 73
    25
 74
     0
 42
0.000000001
 43
0.00000001
 40
0.0
 40
0.0
 40
0.0
 40
0.0
 40
0.0462182259370825
 40
0.0479032960967153
 40
0.0927727904243244
 40
0.138870276671173
 40
0.1852283522276924
 40
0.2327443184548726
 40
0.2828540251487804
 40
0.3341948715599318
 40
0.3887165938410355
 40
0.4446474553962066
 40
0.4728021263391479
 40
0.5012669425329725
 40
0.5023847211728399
 40
0.5617317873098316
 40
0.6205351758929808
 40
0.6811085353204758
 40
0.7386537466216422
 40
0.7981039212236133
 40
0.8517332611776971
 40
0.9072586866860957
 40
0.9557374667140354
 40
1.0
 40
1.0
 40
1.0
 40
1.0
 10
138.0753124225963
 20
-31.74984099188136
 30
0.0
 10
138.1199799148312
 20
-31.73660955137168
 30
0.0
 10
138.1662759390305
 20
-31.7228957058125
 30
0.0
 10
138.2517167653105
 20
-31.69756503840315
 30
0.0
 10
138.5698769720557
 20
-31.6044744252038
 30
0.0
 10
139.1587535159659
 20
-31.44031492363772
 30
0.0
 10
140.0069507267111
 20
-31.21984871719917
 30
0.0
 10
141.0688753927703
 20
-30.9710746003036
 30
0.0
 10
142.3502861795509
 20
-30.71133507314922
 30
0.0
 10
143.8484710565731
 20
-30.4621344675861
 30
0.0
 10
145.5334170262855
 20
-30.25956836195606
 30
0.0
 10
147.0489665930761
 20
-30.1313116589602
 30
0.0
 10
148.3137148890042
 20
-30.11357272821511
 30
0.0
 10
148.9592071471793
 20
-30.09626572067
 30
0.0
 10
149.9546488252016
 20
-30.07212569177988
 30
0.0
 10
151.2981234107573
 20
-30.13558788002532
 30
0.0
 10
153.2456213013608
 20
-30.28572744401445
 30
0.0
 10
155.0610946645778
 20
-30.53030631937666
 30
0.0
 10
156.7094497536478
 20
-30.82624618322433
 30
0.0
 10
158.0738541182163
 20
-31.12809776528026
 30
0.0
 10
159.1592065222611
 20
-31.4035875269881
 30
0.0
 10
159.8845875657131
 20
-31.60553039846738
 30
0.0
 10
160.308812045671
 20
-31.73008585781457
 30
0.0
 10
160.3432912103068
 20
-31.74045729042698
 30
0.0
 10
160.3597470390829
 20
-31.74540725139719
 30
0.0
  0
SPLINE
  5
1E9
330
1F
100
AcDbEntity
  8
1
  6
SLD-Dashed
370
    18
100
AcDbSpline
210
0.0
220
0.0
230
1.0
 70
     8
 71
     3
 72
    28
 73
    24
 74
     0
 42
0.000000001
 43
0.00000001
 40
0.0
 40
0.0
 40
0.0
 40
0.0
 40
0.0479032960967152
 40
0.0927727904243243
 40
0.1388702766711732
 40
0.185228352227692
 40
0.2327443184548722
 40
0.28285402514878
 40
0.3341948715599314
 40
0.3887165938410349
 40
0.4446474553962069
 40
0.4728021263391226
 40
0.5012669425329753
 40
0.5023847211728403
 40
0.5617317873098319
 40
0.6205351758929802
 40
0.6811085353204758
 40
0.7386537466216422
 40
0.7981039212236131
 40
0.8517332611776967
 40
0.907258686686095
 40
0.9557374667140354
 40
1.0
 40
1.0
 40
1.0
 40
1.0
 10
163.4753124225963
 20
-31.74984099188136
 30
0.0
 10
163.5016012958159
 20
-31.74195259695028
 30
0.0
 10
163.552514120703
 20
-31.72667539330553
 30
0.0
 10
163.9539048582058
 20
-31.60912500042835
 30
0.0
 10
164.5631050366744
 20
-31.43904789820913
 30
0.0
 10
165.4057516000239
 20
-31.22019786502736
 30
0.0
 10
166.4692194931808
 20
-30.97097440912924
 30
0.0
 10
167.7501895258409
 20
-30.7113632156577
 30
0.0
 10
169.2484990489266
 20
-30.4621263170966
 30
0.0
 10
170.9334089413315
 20
-30.25957071603936
 30
0.0
 10
172.448967621686
 20
-30.13131135946134
 30
0.0
 10
173.7137146809811
 20
-30.11357278878489
 30
0.0
 10
174.359207148613
 20
-30.09626572025228
 30
0.0
 10
175.354648822477
 20
-30.07212569257358
 30
0.0
 10
176.6981234119914
 20
-30.1355878796658
 30
0.0
 10
178.6456213010196
 20
-30.28572744411377
 30
0.0
 10
180.4610946646652
 20
-30.53030631935124
 30
0.0
 10
182.1094497536239
 20
-30.82624618323126
 30
0.0
 10
183.4738541182221
 20
-31.12809776527856
 30
0.0
 10
184.5592065222596
 20
-31.40358752698856
 30
0.0
 10
185.2845875657136
 20
-31.60553039846727
 30
0.0
 10
185.7088120456709
 20
-31.73008585781459
 30
0.0
 10
185.7432912103068
 20
-31.74045729042699
 30
0.0
 10
185.7597470390829
 20
-31.74540725139719
 30
0.0
  0
SPLINE
  5
1EA
330
1F
100
AcDbEntity
  8
SK3
  6
SLD-Dashed
370
    18
100
AcDbSpline
210
0.0
220
0.0
230
1.0
 70
     8
 71
     3
 72
    18
 73
    14
 74
     0
 42
0.000000001
 43
0.00000001
 40
0.5000000000000058
 40
0.5000000000000058
 40
0.5000000000000058
 40
0.5000000000000058
 40
0.5625000000000061
 40
0.5625000000000061
 40
0.6250000000000063
 40
0.6250000000000063
 40
0.7500000000000068
 40
0.7500000000000068
 40
0.812500000000006
 40
0.812500000000006
 40
0.8750000000000051
 40
0.8750000000000051
 40
1.0
 40
1.0
 40
1.0
 40
1.0
 10
140.5636044281987
 20
16.06749756306283
 30
0.0
 10
140.5632925802103
 20
16.06766571867161
 30
0.0
 10
140.578809419865
 20
16.05928422186054
 30
0.0
 10
140.6418984635754
 20
16.02540577193155
 30
0.0
 10
140.6899853324369
 20
15.99963465786144
 30
0.0
 10
140.8796782041838
 20
15.89898148447955
 30
0.0
 10
141.06553274721
 20
15.80119231705878
 30
0.0
 10
141.4297819743896
 20
15.61727079172711
 30
0.0
 10
141.5661208774554
 20
15.54948426617107
 30
0.0
 10
141.8614948449186
 20
15.40614292089566
 30
0.0
 10
142.0210874264762
 20
15.33029590151549
 30
0.0
 10
142.5348304314384
 20
15.09339969093459
 30
0.0
 10
142.9260972967433
 20
14.92187588036497
 30
0.0
 10
143.36
 20
14.74933663898143
 30
0.0
  0
SPLINE
  5
1EB
330
1F
100
AcDbEntity
  8
SK3
  6
SLD-Dashed
370
    18
100
AcDbSpline
210
0.0
220
0.0
230
1.0
 70
     8
 71
     3
 72
    18
 73
    14
 74
     0
 42
0.000000001
 43
0.00000001
 40
0.0
 40
0.0
 40
0.0
 40
0.0
 40
0.1250000000000025
 40
0.1250000000000025
 40
0.1875000000000037
 40
0.1875000000000037
 40
0.2500000000000049
 40
0.2500000000000049
 40
0.3750000000000053
 40
0.3750000000000053
 40
0.4375000000000056
 40
0.4375000000000056
 40
0.5000000000000058
 40
0.5000000000000058
 40
0.5000000000000058
 40
0.5000000000000058
 10
143.36
 20
14.74933663898143
 30
0.0
 10
142.9263225249085
 20
14.92178631951075
 30
0.0
 10
142.5396107851037
 20
15.09128462585661
 30
0.0
 10
142.0262163411556
 20
15.32788721775891
 30
0.0
 10
141.8663129619449
 20
15.40383606857513
 30
0.0
 10
141.5697335218325
 20
15.54770065171219
 30
0.0
 10
141.4335302859041
 20
15.61540203356037
 30
0.0
 10
141.0702826657898
 20
15.79874733600898
 30
0.0
 10
140.8843314958473
 20
15.89653521482922
 30
0.0
 10
140.6935472234894
 20
15.99773378889543
 30
0.0
 10
140.6446555999645
 20
16.02392816376622
 30
0.0
 10
140.5800568118188
 20
16.0586115994254
 30
0.0
 10
140.5639162761872
 20
16.06732940745404
 30
0.0
 10
140.5636044281987
 20
16.06749756306283
 30
0.0
  0
SPLINE
  5
1EC
330
1F
100
AcDbEntity
  8
SK3
  6
SLD-Dashed
370
    18
100
AcDbSpline
210
0.0
220
0.0
230
1.0
 70
     8
 71
     3
 72
    10
 73
     6
 74
     0
 42
0.000000001
 43
0.00000001
 40
0.0
 40
0.0
 40
0.0
 40
0.0
 40
0.5
 40
0.5
 40
1.0
 40
1.0
 40
1.0
 40
1.0
 10
143.51
 20
14.52612065522044
 30
0.0
 10
143.5099999999962
 20
14.57973693626249
 30
0.0
 10
143.488055481042
 20
14.62953665980295
 30
0.0
 10
143.4325176211037
 20
14.70592998906473
 30
0.0
 10
143.3978925376768
 20
14.73426886075543
 30
0.0
 10
143.36
 20
14.74933663898143
 30
0.0
  0
SPLINE
  5
1ED
330
1F
100
AcDbEntity
  8
SK3
  6
SLD-Dashed
370
    18
100
AcDbSpline
210
0.0
220
0.0
230
1.0
 70
     8
 71
     3
 72
    10
 73
     6
 74
     0
 42
0.000000001
 43
0.00000001
 40
0.0
 40
0.0
 40
0.0
 40
0.0
 40
0.5
 40
0.5
 40
1.0
 40
1.0
 40
1.0
 40
1.0
 10
143.3599999999996
 20
14.74933663898193
 30
0.0
 10
143.3979638306291
 20
14.73424051146852
 30
0.0
 10
143.432672707758
 20
14.70569223278545
 30
0.0
 10
143.4878003907934
 20
14.62991192859181
 30
0.0
 10
143.5099999999999
 20
14.5800315849171
 30
0.0
 10
143.51
 20
14.52612065522044
 30
0.0
  0
SPLINE
  5
1EE
330
1F
100
AcDbEntity
  8
SK3
  6
SLD-Dashed
370
    18
100
AcDbSpline
210
0.0
220
0.0
230
1.0
 70
     8
 71
     3
 72
    42
 73
    38
 74
     0
 42
0.000000001
 43
0.00000001
 40
0.0
 40
0.0
 40
0.0
 40
0.0
 40
0.0625000000000001
 40
0.0625000000000001
 40
0.0937500000000001
 40
0.0937500000000001
 40
0.1250000000000001
 40
0.1250000000000001
 40
0.1406249999999992
 40
0.1406249999999992
 40
0.1562499999999982
 40
0.1562499999999982
 40
0.1874999999999982
 40
0.1874999999999982
 40
0.2031249999999983
 40
0.2031249999999983
 40
0.2187499999999983
 40
0.2187499999999983
 40
0.2499999999999984
 40
0.2499999999999984
 40
0.2812499999999984
 40
0.2812499999999984
 40
0.3124999999999984
 40
0.3124999999999984
 40
0.3437499999999985
 40
0.3437499999999985
 40
0.3749999999999985
 40
0.3749999999999985
 40
0.4062499999999986
 40
0.4062499999999986
 40
0.4374999999999986
 40
0.4374999999999986
 40
0.4687499999999986
 40
0.4687499999999986
 40
0.4843749999999985
 40
0.4843749999999985
 40
0.4999999999999983
 40
0.4999999999999983
 40
0.4999999999999983
 40
0.4999999999999983
 10
143.51
 20
14.47953728680585
 30
0.0
 10
144.1229505363585
 20
14.23760881589532
 30
0.0
 10
144.7975639926159
 20
14.00297914885795
 30
0.0
 10
145.914007014229
 20
13.70510177608297
 30
0.0
 10
146.304063832942
 20
13.61531271369804
 30
0.0
 10
147.0948631072227
 20
13.46782667625815
 30
0.0
 10
147.4988332482457
 20
13.40918988602862
 30
0.0
 10
148.1185709579937
 20
13.34832187734372
 30
0.0
 10
148.327454425394
 20
13.33254772123554
 30
0.0
 10
148.7500788350566
 20
13.31077724227399
 30
0.0
 10
148.9636844947677
 20
13.30486270542714
 30
0.0
 10
149.5978837291763
 20
13.30248324274262
 30
0.0
 10
150.0165426306158
 20
13.32110182637484
 30
0.0
 10
150.6385689440887
 20
13.37726847950783
 30
0.0
 10
150.8449148305247
 20
13.40069056244795
 30
0.0
 10
151.2556247771936
 20
13.45651591156047
 30
0.0
 10
151.4604979355131
 20
13.48904597869371
 30
0.0
 10
152.061753328091
 20
13.59733377934636
 30
0.0
 10
152.4481829314279
 20
13.68410572909695
 30
0.0
 10
153.1949884454043
 20
13.87900031170475
 30
0.0
 10
153.5576905617881
 20
13.98796195901621
 30
0.0
 10
154.2443107736078
 20
14.21563761864843
 30
0.0
 10
154.5683188750138
 20
14.33413632528416
 30
0.0
 10
155.1804589227617
 20
14.57339694691852
 30
0.0
 10
155.469515522052
 20
14.69460408056389
 30
0.0
 10
156.0074704248845
 20
14.93115266963035
 30
0.0
 10
156.2525607344343
 20
15.04474574952504
 30
0.0
 10
156.6966187857282
 20
15.25722294753986
 30
0.0
 10
156.8955869402117
 20
15.35613783390877
 30
0.0
 10
157.2454869839509
 20
15.53387513231597
 30
0.0
 10
157.3963615792323
 20
15.61270365635046
 30
0.0
 10
157.6368032177548
 20
15.73987924911418
 30
0.0
 10
157.7282173217643
 20
15.78916563140313
 30
0.0
 10
157.8214046840664
 20
15.83961067706281
 30
0.0
 10
157.8451158254593
 20
15.85250734910517
 30
0.0
 10
157.8773394142911
 20
15.87005260700777
 30
0.0
 10
157.8858091983743
 20
15.87467765940292
 30
0.0
 10
157.8863697699408
 20
15.87498350649991
 30
0.0
  0
SPLINE
  5
1EF
330
1F
100
AcDbEntity
  8
SK3
  6
SLD-Dashed
370
    18
100
AcDbSpline
210
0.0
220
0.0
230
1.0
 70
     8
 71
     2
 72
     6
 73
     3
 74
     0
 42
0.000000001
 43
0.00000001
 40
0.0
 40
0.0
 40
0.0
 40
0.031250000000001
 40
0.031250000000001
 40
0.031250000000001
 10
165.9636000000001
 20
15.87500000000001
 30
0.0
 10
166.0221394364078
 20
15.84284698199154
 30
0.0
 10
166.1358231125056
 20
15.78169506951551
 30
0.0
  0
SPLINE
  5
1F0
330
1F
100
AcDbEntity
  8
SK3
  6
SLD-Dashed
370
    18
100
AcDbSpline
210
0.0
220
0.0
230
1.0
 70
     8
 71
     3
 72
     8
 73
     4
 74
     0
 42
0.000000001
 43
0.00000001
 40
0.031250000000001
 40
0.031250000000001
 40
0.031250000000001
 40
0.031250000000001
 40
0.062500000000002
 40
0.062500000000002
 40
0.062500000000002
 40
0.062500000000002
 10
166.1358231125056
 20
15.78169506951551
 30
0.0
 10
166.2495067886033
 20
15.72054315703949
 30
0.0
 10
166.4214603747717
 20
15.62876620279951
 30
0.0
 10
166.6412113226708
 20
15.51569066088427
 30
0.0
  0
SPLINE
  5
1F1
330
1F
100
AcDbEntity
  8
SK3
  6
SLD-Dashed
370
    18
100
AcDbSpline
210
0.0
220
0.0
230
1.0
 70
     8
 71
     3
 72
     8
 73
     4
 74
     0
 42
0.000000001
 43
0.00000001
 40
0.062500000000002
 40
0.062500000000002
 40
0.062500000000002
 40
0.062500000000002
 40
0.093750000000003
 40
0.093750000000003
 40
0.093750000000003
 40
0.093750000000003
 10
166.6412113226708
 20
15.51569066088427
 30
0.0
 10
166.8609622705699
 20
15.40261511896902
 30
0.0
 10
167.1282064220033
 20
15.26830808056943
 30
0.0
 10
167.4424395589926
 20
15.11902607738746
 30
0.0
  0
SPLINE
  5
1F2
330
1F
100
AcDbEntity
  8
SK3
  6
SLD-Dashed
370
    18
100
AcDbSpline
210
0.0
220
0.0
230
1.0
 70
     8
 71
     3
 72
     8
 73
     4
 74
     0
 42
0.000000001
 43
0.00000001
 40
0.093750000000003
 40
0.093750000000003
 40
0.093750000000003
 40
0.093750000000003
 40
0.1093750000000035
 40
0.1093750000000035
 40
0.1093750000000035
 40
0.1093750000000035
 10
167.4424395589926
 20
15.11902607738746
 30
0.0
 10
167.5995561274874
 20
15.04438507579648
 30
0.0
 10
167.7679964418399
 20
14.96627020692808
 30
0.0
 10
167.9450244803106
 20
14.88683472010251
 30
0.0
  0
SPLINE
  5
1F3
330
1F
100
AcDbEntity
  8
SK3
  6
SLD-Dashed
370
    18
100
AcDbSpline
210
0.0
220
0.0
230
1.0
 70
     8
 71
     3
 72
     8
 73
     4
 74
     0
 42
0.000000001
 43
0.00000001
 40
0.1093750000000035
 40
0.1093750000000035
 40
0.1093750000000035
 40
0.1093750000000035
 40
0.125000000000004
 40
0.125000000000004
 40
0.125000000000004
 40
0.125000000000004
 10
167.9450244803106
 20
14.88683472010251
 30
0.0
 10
168.1220525187813
 20
14.80739923327694
 30
0.0
 10
168.3083552976365
 20
14.72630976214864
 30
0.0
 10
168.5039576572053
 20
14.64455306256508
 30
0.0
  0
SPLINE
  5
1F4
330
1F
100
AcDbEntity
  8
SK3
  6
SLD-Dashed
370
    18
100
AcDbSpline
210
0.0
220
0.0
230
1.0
 70
     8
 71
     3
 72
     8
 73
     4
 74
     0
 42
0.000000001
 43
0.00000001
 40
0.125000000000004
 40
0.125000000000004
 40
0.125000000000004
 40
0.125000000000004
 40
0.1406250000000045
 40
0.1406250000000045
 40
0.1406250000000045
 40
0.1406250000000045
 10
168.5039576572053
 20
14.64455306256508
 30
0.0
 10
168.6995600167743
 20
14.56279636298153
 30
0.0
 10
168.904460420034
 20
14.48036728957173
 30
0.0
 10
169.119040167601
 20
14.3983113147338
 30
0.0
  0
SPLINE
  5
1F5
330
1F
100
AcDbEntity
  8
SK3
  6
SLD-Dashed
370
    18
100
AcDbSpline
210
0.0
220
0.0
230
1.0
 70
     8
 71
     3
 72
     8
 73
     4
 74
     0
 42
0.000000001
 43
0.00000001
 40
0.1406250000000045
 40
0.1406250000000045
 40
0.1406250000000045
 40
0.1406250000000045
 40
0.1562500000000051
 40
0.1562500000000051
 40
0.1562500000000051
 40
0.1562500000000051
 10
169.119040167601
 20
14.3983113147338
 30
0.0
 10
169.3336199151681
 20
14.31625533989587
 30
0.0
 10
169.5589638962315
 20
14.23422790881259
 30
0.0
 10
169.7902495946239
 20
14.15523177211469
 30
0.0
  0
SPLINE
  5
1F6
330
1F
100
AcDbEntity
  8
SK3
  6
SLD-Dashed
370
    18
100
AcDbSpline
210
0.0
220
0.0
230
1.0
 70
     8
 71
     3
 72
     8
 73
     4
 74
     0
 42
0.000000001
 43
0.00000001
 40
0.1562500000000051
 40
0.1562500000000051
 40
0.1562500000000051
 40
0.1562500000000051
 40
0.1875000000000049
 40
0.1875000000000049
 40
0.1875000000000049
 40
0.1875000000000049
 10
169.7902495946239
 20
14.15523177211469
 30
0.0
 10
170.2528209914087
 20
13.99723949871887
 30
0.0
 10
170.7414351925368
 20
13.85014452235168
 30
0.0
 10
171.2585819353441
 20
13.72328479723578
 30
0.0
  0
SPLINE
  5
1F7
330
1F
100
AcDbEntity
  8
SK3
  6
SLD-Dashed
370
    18
100
AcDbSpline
210
0.0
220
0.0
230
1.0
 70
     8
 71
     3
 72
     8
 73
     4
 74
     0
 42
0.000000001
 43
0.00000001
 40
0.1875000000000049
 40
0.1875000000000049
 40
0.1875000000000049
 40
0.1875000000000049
 40
0.2031250000000048
 40
0.2031250000000048
 40
0.2031250000000048
 40
0.2031250000000048
 10
171.2585819353441
 20
13.72328479723578
 30
0.0
 10
171.5171553067477
 20
13.65985493467783
 30
0.0
 10
171.7829179748651
 20
13.60150748100226
 30
0.0
 10
172.0565791894962
 20
13.54963322381196
 30
0.0
  0
SPLINE
  5
1F8
330
1F
100
AcDbEntity
  8
SK3
  6
SLD-Dashed
370
    18
100
AcDbSpline
210
0.0
220
0.0
230
1.0
 70
     8
 71
     3
 72
     8
 73
     4
 74
     0
 42
0.000000001
 43
0.00000001
 40
0.2031250000000048
 40
0.2031250000000048
 40
0.2031250000000048
 40
0.2031250000000048
 40
0.2187500000000047
 40
0.2187500000000047
 40
0.2187500000000047
 40
0.2187500000000047
 10
172.0565791894962
 20
13.54963322381196
 30
0.0
 10
172.3302404041273
 20
13.49775896662166
 30
0.0
 10
172.6097626038025
 20
13.45287255242589
 30
0.0
 10
172.8899225243154
 20
13.41664149057535
 30
0.0
  0
SPLINE
  5
1F9
330
1F
100
AcDbEntity
  8
SK3
  6
SLD-Dashed
370
    18
100
AcDbSpline
210
0.0
220
0.0
230
1.0
 70
     8
 71
     3
 72
     8
 73
     4
 74
     0
 42
0.000000001
 43
0.00000001
 40
0.2187500000000047
 40
0.2187500000000047
 40
0.2187500000000047
 40
0.2187500000000047
 40
0.2500000000000046
 40
0.2500000000000046
 40
0.2500000000000046
 40
0.2500000000000046
 10
172.8899225243154
 20
13.41664149057535
 30
0.0
 10
173.4502423653413
 20
13.34417936687428
 30
0.0
 10
174.0192456231095
 20
13.30520190917926
 30
0.0
 10
174.5974471407667
 20
13.30400444227422
 30
0.0
  0
SPLINE
  5
1FA
330
1F
100
AcDbEntity
  8
SK3
  6
SLD-Dashed
370
    18
100
AcDbSpline
210
0.0
220
0.0
230
1.0
 70
     8
 71
     3
 72
     8
 73
     4
 74
     0
 42
0.000000001
 43
0.00000001
 40
0.2500000000000046
 40
0.2500000000000046
 40
0.2500000000000046
 40
0.2500000000000046
 40
0.2656250000000052
 40
0.2656250000000052
 40
0.2656250000000052
 40
0.2656250000000052
 10
174.5974471407667
 20
13.30400444227422
 30
0.0
 10
174.8865478995954
 20
13.30340570882169
 30
0.0
 10
175.1800416864991
 20
13.31243321379055
 30
0.0
 10
175.4686623517836
 20
13.33069920161044
 30
0.0
  0
SPLINE
  5
1FB
330
1F
100
AcDbEntity
  8
SK3
  6
SLD-Dashed
370
    18
100
AcDbSpline
210
0.0
220
0.0
230
1.0
 70
     8
 71
     3
 72
     8
 73
     4
 74
     0
 42
0.000000001
 43
0.00000001
 40
0.2656250000000052
 40
0.2656250000000052
 40
0.2656250000000052
 40
0.2656250000000052
 40
0.2812500000000059
 40
0.2812500000000059
 40
0.2812500000000059
 40
0.2812500000000059
 10
175.4686623517836
 20
13.33069920161044
 30
0.0
 10
175.7572830170682
 20
13.34896518943034
 30
0.0
 10
176.0418575099657
 20
13.37631127103654
 30
0.0
 10
176.3226061818924
 20
13.4118470684988
 30
0.0
  0
SPLINE
  5
1FC
330
1F
100
AcDbEntity
  8
SK3
  6
SLD-Dashed
370
    18
100
AcDbSpline
210
0.0
220
0.0
230
1.0
 70
     8
 71
     3
 72
     8
 73
     4
 74
     0
 42
0.000000001
 43
0.00000001
 40
0.2812500000000059
 40
0.2812500000000059
 40
0.2812500000000059
 40
0.2812500000000059
 40
0.2968750000000066
 40
0.2968750000000066
 40
0.2968750000000066
 40
0.2968750000000066
 10
176.3226061818924
 20
13.4118470684988
 30
0.0
 10
176.6033548538192
 20
13.44738286596105
 30
0.0
 10
176.8802772815189
 20
13.49110825327306
 30
0.0
 10
177.1535010905272
 20
13.54212290613245
 30
0.0
  0
SPLINE
  5
1FD
330
1F
100
AcDbEntity
  8
SK3
  6
SLD-Dashed
370
    18
100
AcDbSpline
210
0.0
220
0.0
230
1.0
 70
     8
 71
     3
 72
     8
 73
     4
 74
     0
 42
0.000000001
 43
0.00000001
 40
0.2968750000000066
 40
0.2968750000000066
 40
0.2968750000000066
 40
0.2968750000000066
 40
0.3125000000000072
 40
0.3125000000000072
 40
0.3125000000000072
 40
0.3125000000000072
 10
177.1535010905272
 20
13.54212290613245
 30
0.0
 10
177.4267248995355
 20
13.59313755899184
 30
0.0
 10
177.6972306486839
 20
13.65174116474148
 30
0.0
 10
177.9587250003354
 20
13.71530157954471
 30
0.0
  0
SPLINE
  5
1FE
330
1F
100
AcDbEntity
  8
SK3
  6
SLD-Dashed
370
    18
100
AcDbSpline
210
0.0
220
0.0
230
1.0
 70
     8
 71
     3
 72
     8
 73
     4
 74
     0
 42
0.000000001
 43
0.00000001
 40
0.3125000000000072
 40
0.3125000000000072
 40
0.3125000000000072
 40
0.3125000000000072
 40
0.3437500000000085
 40
0.3437500000000085
 40
0.3437500000000085
 40
0.3437500000000085
 10
177.9587250003354
 20
13.71530157954471
 30
0.0
 10
178.4817137036385
 20
13.84242240915118
 30
0.0
 10
178.9739927405394
 20
13.98994236980874
 30
0.0
 10
179.4387880939836
 20
14.14808576641301
 30
0.0
  0
SPLINE
  5
1FF
330
1F
100
AcDbEntity
  8
SK3
  6
SLD-Dashed
370
    18
100
AcDbSpline
210
0.0
220
0.0
230
1.0
 70
     8
 71
     3
 72
     8
 73
     4
 74
     0
 42
0.000000001
 43
0.00000001
 40
0.3437500000000085
 40
0.3437500000000085
 40
0.3437500000000085
 40
0.3437500000000085
 40
0.3593750000000092
 40
0.3593750000000092
 40
0.3593750000000092
 40
0.3593750000000092
 10
179.4387880939836
 20
14.14808576641301
 30
0.0
 10
179.6711857707057
 20
14.22715746471514
 30
0.0
 10
179.89713200858
 20
14.3091429379518
 30
0.0
 10
180.112335745327
 20
14.39119969363026
 30
0.0
  0
SPLINE
  5
200
330
1F
100
AcDbEntity
  8
SK3
  6
SLD-Dashed
370
    18
100
AcDbSpline
210
0.0
220
0.0
230
1.0
 70
     8
 71
     3
 72
     8
 73
     4
 74
     0
 42
0.000000001
 43
0.00000001
 40
0.3593750000000092
 40
0.3593750000000092
 40
0.3593750000000092
 40
0.3593750000000092
 40
0.3750000000000098
 40
0.3750000000000098
 40
0.3750000000000098
 40
0.3750000000000098
 10
180.112335745327
 20
14.39119969363026
 30
0.0
 10
180.3275394820741
 20
14.47325644930873
 30
0.0
 10
180.5330397953274
 20
14.55571752846426
 30
0.0
 10
180.7292294398123
 20
14.63753367524295
 30
0.0
  0
SPLINE
  5
201
330
1F
100
AcDbEntity
  8
SK3
  6
SLD-Dashed
370
    18
100
AcDbSpline
210
0.0
220
0.0
230
1.0
 70
     8
 71
     3
 72
     8
 73
     4
 74
     0
 42
0.000000001
 43
0.00000001
 40
0.3750000000000098
 40
0.3750000000000098
 40
0.3750000000000098
 40
0.3750000000000098
 40
0.4062500000000102
 40
0.4062500000000102
 40
0.4062500000000102
 40
0.4062500000000102
 10
180.7292294398123
 20
14.63753367524295
 30
0.0
 10
181.1216087287823
 20
14.80116596880032
 30
0.0
 10
181.4784010893689
 20
14.96287077651472
 30
0.0
 10
181.7943931506213
 20
15.11277516501109
 30
0.0
  0
SPLINE
  5
202
330
1F
100
AcDbEntity
  8
SK3
  6
SLD-Dashed
370
    18
100
AcDbSpline
210
0.0
220
0.0
230
1.0
 70
     8
 71
     3
 72
     8
 73
     4
 74
     0
 42
0.000000001
 43
0.00000001
 40
0.4062500000000102
 40
0.4062500000000102
 40
0.4062500000000102
 40
0.4062500000000102
 40
0.4375000000000105
 40
0.4375000000000105
 40
0.4375000000000105
 40
0.4375000000000105
 10
181.7943931506213
 20
15.11277516501109
 30
0.0
 10
182.1103852118738
 20
15.26267955350747
 30
0.0
 10
182.3781745064826
 20
15.39713768417576
 30
0.0
 10
182.598271339686
 20
15.51028145767374
 30
0.0
  0
SPLINE
  5
203
330
1F
100
AcDbEntity
  8
SK3
  6
SLD-Dashed
370
    18
100
AcDbSpline
210
0.0
220
0.0
230
1.0
 70
     8
 71
     3
 72
     8
 73
     4
 74
     0
 42
0.000000001
 43
0.00000001
 40
0.4375000000000105
 40
0.4375000000000105
 40
0.4375000000000105
 40
0.4375000000000105
 40
0.4531250000000107
 40
0.4531250000000107
 40
0.4531250000000107
 40
0.4531250000000107
 10
182.598271339686
 20
15.51028145767374
 30
0.0
 10
182.7083197562878
 20
15.56685334442275
 30
0.0
 10
182.8063469473736
 20
15.61809673831607
 30
0.0
 10
182.8917922486233
 20
15.66319345222731
 30
0.0
  0
SPLINE
  5
204
330
1F
100
AcDbEntity
  8
SK3
  6
SLD-Dashed
370
    18
100
AcDbSpline
210
0.0
220
0.0
230
1.0
 70
     8
 71
     3
 72
     8
 73
     4
 74
     0
 42
0.000000001
 43
0.00000001
 40
0.4531250000000107
 40
0.4531250000000107
 40
0.4531250000000107
 40
0.4531250000000107
 40
0.4687500000000108
 40
0.4687500000000108
 40
0.4687500000000108
 40
0.4687500000000108
 10
182.8917922486233
 20
15.66319345222731
 30
0.0
 10
182.9772375498729
 20
15.70829016613857
 30
0.0
 10
183.0502960669508
 20
15.74734850853299
 30
0.0
 10
183.1084443790562
 20
15.77861221947424
 30
0.0
  0
SPLINE
  5
205
330
1F
100
AcDbEntity
  8
SK3
  6
SLD-Dashed
370
    18
100
AcDbSpline
210
0.0
220
0.0
230
1.0
 70
     8
 71
     3
 72
     8
 73
     4
 74
     0
 42
0.000000001
 43
0.00000001
 40
0.4687500000000108
 40
0.4687500000000108
 40
0.4687500000000108
 40
0.4687500000000108
 40
0.5000000000000111
 40
0.5000000000000111
 40
0.5000000000000111
 40
0.5000000000000111
 10
183.1084443790562
 20
15.77861221947424
 30
0.0
 10
183.2247410032674
 20
15.84113964135673
 30
0.0
 10
183.2841309364126
 20
15.87376200515862
 30
0.0
 10
183.2863368421266
 20
15.87496554115249
 30
0.0
  0
SPLINE
  5
206
330
1F
100
AcDbEntity
  8
SK3
  6
SLD-Dashed
370
    18
100
AcDbSpline
210
0.0
220
0.0
230
1.0
 70
     8
 71
     3
 72
     8
 73
     4
 74
     0
 42
0.000000001
 43
0.00000001
 40
0.5156250000000112
 40
0.5156250000000112
 40
0.5156250000000112
 40
0.5156250000000112
 40
0.5312500000000114
 40
0.5312500000000114
 40
0.5312500000000114
 40
0.5312500000000114
 10
183.2457938118892
 20
15.85288178808852
 30
0.0
 10
183.2176179416641
 20
15.83755975573323
 30
0.0
 10
183.1751304111264
 20
15.8144952764229
 30
0.0
 10
183.1189251368287
 20
15.78424972148029
 30
0.0
  0
SPLINE
  5
207
330
1F
100
AcDbEntity
  8
SK3
  6
SLD-Dashed
370
    18
100
AcDbSpline
210
0.0
220
0.0
230
1.0
 70
     8
 71
     3
 72
     8
 73
     4
 74
     0
 42
0.000000001
 43
0.00000001
 40
0.5312500000000114
 40
0.5312500000000114
 40
0.5312500000000114
 40
0.5312500000000114
 40
0.5468750000000115
 40
0.5468750000000115
 40
0.5468750000000115
 40
0.5468750000000115
 10
183.1189251368287
 20
15.78424972148029
 30
0.0
 10
183.062719862531
 20
15.75400416653767
 30
0.0
 10
182.9927935715211
 20
15.71657469055191
 30
0.0
 10
182.9092924114647
 20
15.67243681750393
 30
0.0
  0
SPLINE
  5
208
330
1F
100
AcDbEntity
  8
SK3
  6
SLD-Dashed
370
    18
100
AcDbSpline
210
0.0
220
0.0
230
1.0
 70
     8
 71
     3
 72
     8
 73
     4
 74
     0
 42
0.000000001
 43
0.00000001
 40
0.5468750000000115
 40
0.5468750000000115
 40
0.5468750000000115
 40
0.5468750000000115
 40
0.5625000000000118
 40
0.5625000000000118
 40
0.5625000000000118
 40
0.5625000000000118
 10
182.9092924114647
 20
15.67243681750393
 30
0.0
 10
182.8257912514084
 20
15.62829894445596
 30
0.0
 10
182.7281755567633
 20
15.57717276535504
 30
0.0
 10
182.6180087097325
 20
15.52043695499126
 30
0.0
  0
SPLINE
  5
209
330
1F
100
AcDbEntity
  8
SK3
  6
SLD-Dashed
370
    18
100
AcDbSpline
210
0.0
220
0.0
230
1.0
 70
     8
 71
     3
 72
     8
 73
     4
 74
     0
 42
0.000000001
 43
0.00000001
 40
0.5625000000000118
 40
0.5625000000000118
 40
0.5625000000000118
 40
0.5625000000000118
 40
0.593750000000012
 40
0.593750000000012
 40
0.593750000000012
 40
0.593750000000012
 10
182.6180087097325
 20
15.52043695499126
 30
0.0
 10
182.3976750156707
 20
15.4069653342637
 30
0.0
 10
182.1304338274068
 20
15.27259090022862
 30
0.0
 10
181.8185237160927
 20
15.12423745165317
 30
0.0
  0
SPLINE
  5
20A
330
1F
100
AcDbEntity
  8
SK3
  6
SLD-Dashed
370
    18
100
AcDbSpline
210
0.0
220
0.0
230
1.0
 70
     8
 71
     3
 72
     8
 73
     4
 74
     0
 42
0.000000001
 43
0.00000001
 40
0.593750000000012
 40
0.593750000000012
 40
0.593750000000012
 40
0.593750000000012
 40
0.6250000000000122
 40
0.6250000000000122
 40
0.6250000000000122
 40
0.6250000000000122
 10
181.8185237160927
 20
15.12423745165317
 30
0.0
 10
181.5066136047786
 20
14.97588400307771
 30
0.0
 10
181.1474854027476
 20
14.81256836752257
 30
0.0
 10
180.7560071499396
 20
14.64872088998254
 30
0.0
  0
SPLINE
  5
20B
330
1F
100
AcDbEntity
  8
SK3
  6
SLD-Dashed
370
    18
100
AcDbSpline
210
0.0
220
0.0
230
1.0
 70
     8
 71
     3
 72
     8
 73
     4
 74
     0
 42
0.000000001
 43
0.00000001
 40
0.6250000000000122
 40
0.6250000000000122
 40
0.6250000000000122
 40
0.6250000000000122
 40
0.6562500000000124
 40
0.6562500000000124
 40
0.6562500000000124
 40
0.6562500000000124
 10
180.7560071499396
 20
14.64872088998254
 30
0.0
 10
180.3645288971316
 20
14.48487341244252
 30
0.0
 10
179.9382035917444
 20
14.31906330806092
 30
0.0
 10
179.473858272878
 20
14.16005655322244
 30
0.0
  0
SPLINE
  5
20C
330
1F
100
AcDbEntity
  8
SK3
  6
SLD-Dashed
370
    18
100
AcDbSpline
210
0.0
220
0.0
230
1.0
 70
     8
 71
     3
 72
     8
 73
     4
 74
     0
 42
0.000000001
 43
0.00000001
 40
0.6562500000000124
 40
0.6562500000000124
 40
0.6562500000000124
 40
0.6562500000000124
 40
0.6718750000000125
 40
0.6718750000000125
 40
0.6718750000000125
 40
0.6718750000000125
 10
179.473858272878
 20
14.16005655322244
 30
0.0
 10
179.2416856134448
 20
14.08055317580319
 30
0.0
 10
179.000623119552
 20
14.00309594177551
 30
0.0
 10
178.7547137178667
 20
13.93019419934759
 30
0.0
  0
SPLINE
  5
20D
330
1F
100
AcDbEntity
  8
SK3
  6
SLD-Dashed
370
    18
100
AcDbSpline
210
0.0
220
0.0
230
1.0
 70
     8
 71
     3
 72
     8
 73
     4
 74
     0
 42
0.000000001
 43
0.00000001
 40
0.6718750000000125
 40
0.6718750000000125
 40
0.6718750000000125
 40
0.6718750000000125
 40
0.6875000000000128
 40
0.6875000000000128
 40
0.6875000000000128
 40
0.6875000000000128
 10
178.7547137178667
 20
13.93019419934759
 30
0.0
 10
178.5088043161816
 20
13.85729245691966
 30
0.0
 10
178.2568979808987
 20
13.78854011742377
 30
0.0
 10
177.9987385413664
 20
13.72508239631008
 30
0.0
  0
SPLINE
  5
20E
330
1F
100
AcDbEntity
  8
SK3
  6
SLD-Dashed
370
    18
100
AcDbSpline
210
0.0
220
0.0
230
1.0
 70
     8
 71
     3
 72
     8
 73
     4
 74
     0
 42
0.000000001
 43
0.00000001
 40
0.6875000000000128
 40
0.6875000000000128
 40
0.6875000000000128
 40
0.6875000000000128
 40
0.7031250000000129
 40
0.7031250000000129
 40
0.7031250000000129
 40
0.7031250000000129
 10
177.9987385413664
 20
13.72508239631008
 30
0.0
 10
177.740579101834
 20
13.66162467519638
 30
0.0
 10
177.4761681888874
 20
13.60345869642513
 30
0.0
 10
177.2050390098579
 20
13.55184033009498
 30
0.0
  0
SPLINE
  5
20F
330
1F
100
AcDbEntity
  8
SK3
  6
SLD-Dashed
370
    18
100
AcDbSpline
210
0.0
220
0.0
230
1.0
 70
     8
 71
     3
 72
     8
 73
     4
 74
     0
 42
0.000000001
 43
0.00000001
 40
0.7031250000000129
 40
0.7031250000000129
 40
0.7031250000000129
 40
0.7031250000000129
 40
0.7187500000000131
 40
0.7187500000000131
 40
0.7187500000000131
 40
0.7187500000000131
 10
177.2050390098579
 20
13.55184033009498
 30
0.0
 10
176.9339098308286
 20
13.50022196376482
 30
0.0
 10
176.6549253830826
 20
13.45500373595052
 30
0.0
 10
176.3710037589339
 20
13.41805888220093
 30
0.0
  0
SPLINE
  5
210
330
1F
100
AcDbEntity
  8
SK3
  6
SLD-Dashed
370
    18
100
AcDbSpline
210
0.0
220
0.0
230
1.0
 70
     8
 71
     3
 72
     8
 73
     4
 74
     0
 42
0.000000001
 43
0.00000001
 40
0.7187500000000131
 40
0.7187500000000131
 40
0.7187500000000131
 40
0.7187500000000131
 40
0.7500000000000118
 40
0.7500000000000118
 40
0.7500000000000118
 40
0.7500000000000118
 10
176.3710037589339
 20
13.41805888220093
 30
0.0
 10
175.8031605106364
 20
13.34416917470174
 30
0.0
 10
175.2313829352746
 20
13.30533776158067
 30
0.0
 10
174.6556537331792
 20
13.30401122561756
 30
0.0
  0
SPLINE
  5
211
330
1F
100
AcDbEntity
  8
SK3
  6
SLD-Dashed
370
    18
100
AcDbSpline
210
0.0
220
0.0
230
1.0
 70
     8
 71
     3
 72
     8
 73
     4
 74
     0
 42
0.000000001
 43
0.00000001
 40
0.7500000000000118
 40
0.7500000000000118
 40
0.7500000000000118
 40
0.7500000000000118
 40
0.7656250000000112
 40
0.7656250000000112
 40
0.7656250000000112
 40
0.7656250000000112
 10
174.6556537331792
 20
13.30401122561756
 30
0.0
 10
174.3677891321314
 20
13.303347957636
 30
0.0
 10
174.0789322318322
 20
13.31203462842146
 30
0.0
 10
173.7890537126351
 20
13.33021309789754
 30
0.0
  0
SPLINE
  5
212
330
1F
100
AcDbEntity
  8
SK3
  6
SLD-Dashed
370
    18
100
AcDbSpline
210
0.0
220
0.0
230
1.0
 70
     8
 71
     3
 72
     8
 73
     4
 74
     0
 42
0.000000001
 43
0.00000001
 40
0.7656250000000112
 40
0.7656250000000112
 40
0.7656250000000112
 40
0.7656250000000112
 40
0.7812500000000105
 40
0.7812500000000105
 40
0.7812500000000105
 40
0.7812500000000105
 10
173.7890537126351
 20
13.33021309789754
 30
0.0
 10
173.4991751934379
 20
13.34839156737363
 30
0.0
 10
173.210507136444
 20
13.37603330718902
 30
0.0
 10
172.9284231433936
 20
13.4117168203915
 30
0.0
  0
SPLINE
  5
213
330
1F
100
AcDbEntity
  8
SK3
  6
SLD-Dashed
370
    18
100
AcDbSpline
210
0.0
220
0.0
230
1.0
 70
     8
 71
     3
 72
     8
 73
     4
 74
     0
 42
0.000000001
 43
0.00000001
 40
0.7812500000000105
 40
0.7812500000000105
 40
0.7812500000000105
 40
0.7812500000000105
 40
0.8125000000000093
 40
0.8125000000000093
 40
0.8125000000000093
 40
0.8125000000000093
 10
172.9284231433936
 20
13.4117168203915
 30
0.0
 10
172.3642551572928
 20
13.48308384679647
 30
0.0
 10
171.8194973879154
 20
13.58695550847304
 30
0.0
 10
171.2925704904425
 20
13.71498674721085
 30
0.0
  0
SPLINE
  5
214
330
1F
100
AcDbEntity
  8
SK3
  6
SLD-Dashed
370
    18
100
AcDbSpline
210
0.0
220
0.0
230
1.0
 70
     8
 71
     3
 72
     8
 73
     4
 74
     0
 42
0.000000001
 43
0.00000001
 40
0.8125000000000093
 40
0.8125000000000093
 40
0.8125000000000093
 40
0.8125000000000093
 40
0.8437500000000081
 40
0.8437500000000081
 40
0.8437500000000081
 40
0.8437500000000081
 10
171.2925704904425
 20
13.71498674721085
 30
0.0
 10
170.7656435929697
 20
13.84301798594866
 30
0.0
 10
170.2718863002264
 20
13.99126450238337
 30
0.0
 10
169.8084415235245
 20
14.14902860967169
 30
0.0
  0
SPLINE
  5
215
330
1F
100
AcDbEntity
  8
SK3
  6
SLD-Dashed
370
    18
100
AcDbSpline
210
0.0
220
0.0
230
1.0
 70
     8
 71
     3
 72
     8
 73
     4
 74
     0
 42
0.000000001
 43
0.00000001
 40
0.8437500000000081
 40
0.8437500000000081
 40
0.8437500000000081
 40
0.8437500000000081
 40
0.8750000000000069
 40
0.8750000000000069
 40
0.8750000000000069
 40
0.8750000000000069
 10
169.8084415235245
 20
14.14902860967169
 30
0.0
 10
169.3449967468227
 20
14.30679271696001
 30
0.0
 10
168.9086277868539
 20
14.47566408268015
 30
0.0
 10
168.5151849523296
 20
14.6398638981631
 30
0.0
  0
SPLINE
  5
216
330
1F
100
AcDbEntity
  8
SK3
  6
SLD-Dashed
370
    18
100
AcDbSpline
210
0.0
220
0.0
230
1.0
 70
     8
 71
     3
 72
     8
 73
     4
 74
     0
 42
0.000000001
 43
0.00000001
 40
0.8750000000000069
 40
0.8750000000000069
 40
0.8750000000000069
 40
0.8750000000000069
 40
0.9062500000000057
 40
0.9062500000000057
 40
0.9062500000000057
 40
0.9062500000000057
 10
168.5151849523296
 20
14.6398638981631
 30
0.0
 10
168.1217421178054
 20
14.80406371364604
 30
0.0
 10
167.7676829268649
 20
14.96468616557663
 30
0.0
 10
167.4529727054876
 20
15.11402496204207
 30
0.0
  0
SPLINE
  5
217
330
1F
100
AcDbEntity
  8
SK3
  6
SLD-Dashed
370
    18
100
AcDbSpline
210
0.0
220
0.0
230
1.0
 70
     8
 71
     3
 72
     8
 73
     4
 74
     0
 42
0.000000001
 43
0.00000001
 40
0.9062500000000057
 40
0.9062500000000057
 40
0.9062500000000057
 40
0.9062500000000057
 40
0.9218750000000048
 40
0.9218750000000048
 40
0.9218750000000048
 40
0.9218750000000048
 10
167.4529727054876
 20
15.11402496204207
 30
0.0
 10
167.295617594799
 20
15.18869436027476
 30
0.0
 10
167.1475493118364
 20
15.26087627536572
 30
0.0
 10
167.0127007336049
 20
15.32784639671077
 30
0.0
  0
SPLINE
  5
218
330
1F
100
AcDbEntity
  8
SK3
  6
SLD-Dashed
370
    18
100
AcDbSpline
210
0.0
220
0.0
230
1.0
 70
     8
 71
     3
 72
     8
 73
     4
 74
     0
 42
0.000000001
 43
0.00000001
 40
0.9218750000000048
 40
0.9218750000000048
 40
0.9218750000000048
 40
0.9218750000000048
 40
0.9375000000000038
 40
0.9375000000000038
 40
0.9375000000000038
 40
0.9375000000000038
 10
167.0127007336049
 20
15.32784639671077
 30
0.0
 10
166.8778521553733
 20
15.39481651805583
 30
0.0
 10
166.7555898853772
 20
15.45686015621581
 30
0.0
 10
166.6458016867432
 20
15.51332913214567
 30
0.0
  0
SPLINE
  5
219
330
1F
100
AcDbEntity
  8
SK3
  6
SLD-Dashed
370
    18
100
AcDbSpline
210
0.0
220
0.0
230
1.0
 70
     8
 71
     3
 72
     8
 73
     4
 74
     0
 42
0.000000001
 43
0.00000001
 40
0.9375000000000038
 40
0.9375000000000038
 40
0.9375000000000038
 40
0.9375000000000038
 40
0.9687500000000019
 40
0.9687500000000019
 40
0.9687500000000019
 40
0.9687500000000019
 10
166.6458016867432
 20
15.51332913214567
 30
0.0
 10
166.4262252894755
 20
15.62626708400542
 30
0.0
 10
166.2560941164224
 20
15.71701992894225
 30
0.0
 10
166.1396081449591
 20
15.7796593744477
 30
0.0
  0
SPLINE
  5
21A
330
1F
100
AcDbEntity
  8
SK3
  6
SLD-Dashed
370
    18
100
AcDbSpline
210
0.0
220
0.0
230
1.0
 70
     8
 71
     2
 72
     6
 73
     3
 74
     0
 42
0.000000001
 43
0.00000001
 40
0.9687500000000019
 40
0.9687500000000019
 40
0.9687500000000019
 40
1.0
 40
1.0
 40
1.0
 10
166.1396081449591
 20
15.7796593744477
 30
0.0
 10
166.0231221734959
 20
15.84229881995316
 30
0.0
 10
165.9636000000001
 20
15.87500000000001
 30
0.0
  0
SPLINE
  5
21B
330
1F
100
AcDbEntity
  8
SK3
  6
SLD-Dashed
370
    18
100
AcDbSpline
210
0.0
220
0.0
230
1.0
 70
     8
 71
     2
 72
     6
 73
     3
 74
     0
 42
0.000000001
 43
0.00000001
 40
0.0
 40
0.0
 40
0.0
 40
0.031250000000001
 40
0.031250000000001
 40
0.031250000000001
 10
165.9636000000001
 20
15.87500000000001
 30
0.0
 10
166.0221394364078
 20
15.84284698199154
 30
0.0
 10
166.1358231125056
 20
15.78169506951551
 30
0.0
  0
SPLINE
  5
21C
330
1F
100
AcDbEntity
  8
SK3
  6
SLD-Dashed
370
    18
100
AcDbSpline
210
0.0
220
0.0
230
1.0
 70
     8
 71
     3
 72
     8
 73
     4
 74
     0
 42
0.000000001
 43
0.00000001
 40
0.031250000000001
 40
0.031250000000001
 40
0.031250000000001
 40
0.031250000000001
 40
0.062500000000002
 40
0.062500000000002
 40
0.062500000000002
 40
0.062500000000002
 10
166.1358231125056
 20
15.78169506951551
 30
0.0
 10
166.2495067886033
 20
15.72054315703949
 30
0.0
 10
166.4214603747717
 20
15.62876620279951
 30
0.0
 10
166.6412113226708
 20
15.51569066088427
 30
0.0
  0
SPLINE
  5
21D
330
1F
100
AcDbEntity
  8
SK3
  6
SLD-Dashed
370
    18
100
AcDbSpline
210
0.0
220
0.0
230
1.0
 70
     8
 71
     3
 72
     8
 73
     4
 74
     0
 42
0.000000001
 43
0.00000001
 40
0.062500000000002
 40
0.062500000000002
 40
0.062500000000002
 40
0.062500000000002
 40
0.093750000000003
 40
0.093750000000003
 40
0.093750000000003
 40
0.093750000000003
 10
166.6412113226708
 20
15.51569066088427
 30
0.0
 10
166.8609622705699
 20
15.40261511896902
 30
0.0
 10
167.1282064220033
 20
15.26830808056943
 30
0.0
 10
167.4424395589926
 20
15.11902607738746
 30
0.0
  0
SPLINE
  5
21E
330
1F
100
AcDbEntity
  8
SK3
  6
SLD-Dashed
370
    18
100
AcDbSpline
210
0.0
220
0.0
230
1.0
 70
     8
 71
     3
 72
     8
 73
     4
 74
     0
 42
0.000000001
 43
0.00000001
 40
0.093750000000003
 40
0.093750000000003
 40
0.093750000000003
 40
0.093750000000003
 40
0.1093750000000035
 40
0.1093750000000035
 40
0.1093750000000035
 40
0.1093750000000035
 10
167.4424395589926
 20
15.11902607738746
 30
0.0
 10
167.5995561274874
 20
15.04438507579648
 30
0.0
 10
167.7679964418399
 20
14.96627020692808
 30
0.0
 10
167.9450244803106
 20
14.88683472010251
 30
0.0
  0
SPLINE
  5
21F
330
1F
100
AcDbEntity
  8
SK3
  6
SLD-Dashed
370
    18
100
AcDbSpline
210
0.0
220
0.0
230
1.0
 70
     8
 71
     3
 72
     8
 73
     4
 74
     0
 42
0.000000001
 43
0.00000001
 40
0.1093750000000035
 40
0.1093750000000035
 40
0.1093750000000035
 40
0.1093750000000035
 40
0.125000000000004
 40
0.125000000000004
 40
0.125000000000004
 40
0.125000000000004
 10
167.9450244803106
 20
14.88683472010251
 30
0.0
 10
168.1220525187813
 20
14.80739923327694
 30
0.0
 10
168.3083552976365
 20
14.72630976214864
 30
0.0
 10
168.5039576572053
 20
14.64455306256508
 30
0.0
  0
SPLINE
  5
220
330
1F
100
AcDbEntity
  8
SK3
  6
SLD-Dashed
370
    18
100
AcDbSpline
210
0.0
220
0.0
230
1.0
 70
     8
 71
     3
 72
     8
 73
     4
 74
     0
 42
0.000000001
 43
0.00000001
 40
0.125000000000004
 40
0.125000000000004
 40
0.125000000000004
 40
0.125000000000004
 40
0.1406250000000045
 40
0.1406250000000045
 40
0.1406250000000045
 40
0.1406250000000045
 10
168.5039576572053
 20
14.64455306256508
 30
0.0
 10
168.6995600167743
 20
14.56279636298153
 30
0.0
 10
168.904460420034
 20
14.48036728957173
 30
0.0
 10
169.119040167601
 20
14.3983113147338
 30
0.0
  0
SPLINE
  5
221
330
1F
100
AcDbEntity
  8
SK3
  6
SLD-Dashed
370
    18
100
AcDbSpline
210
0.0
220
0.0
230
1.0
 70
     8
 71
     3
 72
     8
 73
     4
 74
     0
 42
0.000000001
 43
0.00000001
 40
0.1406250000000045
 40
0.1406250000000045
 40
0.1406250000000045
 40
0.1406250000000045
 40
0.1562500000000051
 40
0.1562500000000051
 40
0.1562500000000051
 40
0.1562500000000051
 10
169.119040167601
 20
14.3983113147338
 30
0.0
 10
169.3336199151681
 20
14.31625533989587
 30
0.0
 10
169.5589638962315
 20
14.23422790881259
 30
0.0
 10
169.7902495946239
 20
14.15523177211469
 30
0.0
  0
SPLINE
  5
222
330
1F
100
AcDbEntity
  8
SK3
  6
SLD-Dashed
370
    18
100
AcDbSpline
210
0.0
220
0.0
230
1.0
 70
     8
 71
     3
 72
     8
 73
     4
 74
     0
 42
0.000000001
 43
0.00000001
 40
0.1562500000000051
 40
0.1562500000000051
 40
0.1562500000000051
 40
0.1562500000000051
 40
0.1875000000000049
 40
0.1875000000000049
 40
0.1875000000000049
 40
0.1875000000000049
 10
169.7902495946239
 20
14.15523177211469
 30
0.0
 10
170.2528209914087
 20
13.99723949871887
 30
0.0
 10
170.7414351925368
 20
13.85014452235168
 30
0.0
 10
171.2585819353441
 20
13.72328479723578
 30
0.0
  0
SPLINE
  5
223
330
1F
100
AcDbEntity
  8
SK3
  6
SLD-Dashed
370
    18
100
AcDbSpline
210
0.0
220
0.0
230
1.0
 70
     8
 71
     3
 72
     8
 73
     4
 74
     0
 42
0.000000001
 43
0.00000001
 40
0.1875000000000049
 40
0.1875000000000049
 40
0.1875000000000049
 40
0.1875000000000049
 40
0.2031250000000048
 40
0.2031250000000048
 40
0.2031250000000048
 40
0.2031250000000048
 10
171.2585819353441
 20
13.72328479723578
 30
0.0
 10
171.5171553067477
 20
13.65985493467783
 30
0.0
 10
171.7829179748651
 20
13.60150748100226
 30
0.0
 10
172.0565791894962
 20
13.54963322381196
 30
0.0
  0
SPLINE
  5
224
330
1F
100
AcDbEntity
  8
SK3
  6
SLD-Dashed
370
    18
100
AcDbSpline
210
0.0
220
0.0
230
1.0
 70
     8
 71
     3
 72
     8
 73
     4
 74
     0
 42
0.000000001
 43
0.00000001
 40
0.2031250000000048
 40
0.2031250000000048
 40
0.2031250000000048
 40
0.2031250000000048
 40
0.2187500000000047
 40
0.2187500000000047
 40
0.2187500000000047
 40
0.2187500000000047
 10
172.0565791894962
 20
13.54963322381196
 30
0.0
 10
172.3302404041273
 20
13.49775896662166
 30
0.0
 10
172.6097626038025
 20
13.45287255242589
 30
0.0
 10
172.8899225243154
 20
13.41664149057535
 30
0.0
  0
SPLINE
  5
225
330
1F
100
AcDbEntity
  8
SK3
  6
SLD-Dashed
370
    18
100
AcDbSpline
210
0.0
220
0.0
230
1.0
 70
     8
 71
     3
 72
     8
 73
     4
 74
     0
 42
0.000000001
 43
0.00000001
 40
0.2187500000000047
 40
0.2187500000000047
 40
0.2187500000000047
 40
0.2187500000000047
 40
0.2500000000000046
 40
0.2500000000000046
 40
0.2500000000000046
 40
0.2500000000000046
 10
172.8899225243154
 20
13.41664149057535
 30
0.0
 10
173.4502423653413
 20
13.34417936687428
 30
0.0
 10
174.0192456231095
 20
13.30520190917926
 30
0.0
 10
174.5974471407667
 20
13.30400444227422
 30
0.0
  0
SPLINE
  5
226
330
1F
100
AcDbEntity
  8
SK3
  6
SLD-Dashed
370
    18
100
AcDbSpline
210
0.0
220
0.0
230
1.0
 70
     8
 71
     3
 72
     8
 73
     4
 74
     0
 42
0.000000001
 43
0.00000001
 40
0.2500000000000046
 40
0.2500000000000046
 40
0.2500000000000046
 40
0.2500000000000046
 40
0.2656250000000052
 40
0.2656250000000052
 40
0.2656250000000052
 40
0.2656250000000052
 10
174.5974471407667
 20
13.30400444227422
 30
0.0
 10
174.8865478995954
 20
13.30340570882169
 30
0.0
 10
175.1800416864991
 20
13.31243321379055
 30
0.0
 10
175.4686623517836
 20
13.33069920161044
 30
0.0
  0
SPLINE
  5
227
330
1F
100
AcDbEntity
  8
SK3
  6
SLD-Dashed
370
    18
100
AcDbSpline
210
0.0
220
0.0
230
1.0
 70
     8
 71
     3
 72
     8
 73
     4
 74
     0
 42
0.000000001
 43
0.00000001
 40
0.2656250000000052
 40
0.2656250000000052
 40
0.2656250000000052
 40
0.2656250000000052
 40
0.2812500000000059
 40
0.2812500000000059
 40
0.2812500000000059
 40
0.2812500000000059
 10
175.4686623517836
 20
13.33069920161044
 30
0.0
 10
175.7572830170682
 20
13.34896518943034
 30
0.0
 10
176.0418575099657
 20
13.37631127103654
 30
0.0
 10
176.3226061818924
 20
13.4118470684988
 30
0.0
  0
SPLINE
  5
228
330
1F
100
AcDbEntity
  8
SK3
  6
SLD-Dashed
370
    18
100
AcDbSpline
210
0.0
220
0.0
230
1.0
 70
     8
 71
     3
 72
     8
 73
     4
 74
     0
 42
0.000000001
 43
0.00000001
 40
0.2812500000000059
 40
0.2812500000000059
 40
0.2812500000000059
 40
0.2812500000000059
 40
0.2968750000000066
 40
0.2968750000000066
 40
0.2968750000000066
 40
0.2968750000000066
 10
176.3226061818924
 20
13.4118470684988
 30
0.0
 10
176.6033548538192
 20
13.44738286596105
 30
0.0
 10
176.8802772815189
 20
13.49110825327306
 30
0.0
 10
177.1535010905272
 20
13.54212290613245
 30
0.0
  0
SPLINE
  5
229
330
1F
100
AcDbEntity
  8
SK3
  6
SLD-Dashed
370
    18
100
AcDbSpline
210
0.0
220
0.0
230
1.0
 70
     8
 71
     3
 72
     8
 73
     4
 74
     0
 42
0.000000001
 43
0.00000001
 40
0.2968750000000066
 40
0.2968750000000066
 40
0.2968750000000066
 40
0.2968750000000066
 40
0.3125000000000072
 40
0.3125000000000072
 40
0.3125000000000072
 40
0.3125000000000072
 10
177.1535010905272
 20
13.54212290613245
 30
0.0
 10
177.4267248995355
 20
13.59313755899184
 30
0.0
 10
177.6972306486839
 20
13.65174116474148
 30
0.0
 10
177.9587250003354
 20
13.71530157954471
 30
0.0
  0
SPLINE
  5
22A
330
1F
100
AcDbEntity
  8
SK3
  6
SLD-Dashed
370
    18
100
AcDbSpline
210
0.0
220
0.0
230
1.0
 70
     8
 71
     3
 72
     8
 73
     4
 74
     0
 42
0.000000001
 43
0.00000001
 40
0.3125000000000072
 40
0.3125000000000072
 40
0.3125000000000072
 40
0.3125000000000072
 40
0.3437500000000085
 40
0.3437500000000085
 40
0.3437500000000085
 40
0.3437500000000085
 10
177.9587250003354
 20
13.71530157954471
 30
0.0
 10
178.4817137036385
 20
13.84242240915118
 30
0.0
 10
178.9739927405394
 20
13.98994236980874
 30
0.0
 10
179.4387880939836
 20
14.14808576641301
 30
0.0
  0
SPLINE
  5
22B
330
1F
100
AcDbEntity
  8
SK3
  6
SLD-Dashed
370
    18
100
AcDbSpline
210
0.0
220
0.0
230
1.0
 70
     8
 71
     3
 72
     8
 73
     4
 74
     0
 42
0.000000001
 43
0.00000001
 40
0.3437500000000085
 40
0.3437500000000085
 40
0.3437500000000085
 40
0.3437500000000085
 40
0.3593750000000092
 40
0.3593750000000092
 40
0.3593750000000092
 40
0.3593750000000092
 10
179.4387880939836
 20
14.14808576641301
 30
0.0
 10
179.6711857707057
 20
14.22715746471514
 30
0.0
 10
179.89713200858
 20
14.3091429379518
 30
0.0
 10
180.112335745327
 20
14.39119969363026
 30
0.0
  0
SPLINE
  5
22C
330
1F
100
AcDbEntity
  8
SK3
  6
SLD-Dashed
370
    18
100
AcDbSpline
210
0.0
220
0.0
230
1.0
 70
     8
 71
     3
 72
     8
 73
     4
 74
     0
 42
0.000000001
 43
0.00000001
 40
0.3593750000000092
 40
0.3593750000000092
 40
0.3593750000000092
 40
0.3593750000000092
 40
0.3750000000000098
 40
0.3750000000000098
 40
0.3750000000000098
 40
0.3750000000000098
 10
180.112335745327
 20
14.39119969363026
 30
0.0
 10
180.3275394820741
 20
14.47325644930873
 30
0.0
 10
180.5330397953274
 20
14.55571752846426
 30
0.0
 10
180.7292294398123
 20
14.63753367524295
 30
0.0
  0
SPLINE
  5
22D
330
1F
100
AcDbEntity
  8
SK3
  6
SLD-Dashed
370
    18
100
AcDbSpline
210
0.0
220
0.0
230
1.0
 70
     8
 71
     3
 72
     8
 73
     4
 74
     0
 42
0.000000001
 43
0.00000001
 40
0.3750000000000098
 40
0.3750000000000098
 40
0.3750000000000098
 40
0.3750000000000098
 40
0.4062500000000102
 40
0.4062500000000102
 40
0.4062500000000102
 40
0.4062500000000102
 10
180.7292294398123
 20
14.63753367524295
 30
0.0
 10
181.1216087287823
 20
14.80116596880032
 30
0.0
 10
181.4784010893689
 20
14.96287077651472
 30
0.0
 10
181.7943931506213
 20
15.11277516501109
 30
0.0
  0
SPLINE
  5
22E
330
1F
100
AcDbEntity
  8
SK3
  6
SLD-Dashed
370
    18
100
AcDbSpline
210
0.0
220
0.0
230
1.0
 70
     8
 71
     3
 72
     8
 73
     4
 74
     0
 42
0.000000001
 43
0.00000001
 40
0.4062500000000102
 40
0.4062500000000102
 40
0.4062500000000102
 40
0.4062500000000102
 40
0.4375000000000105
 40
0.4375000000000105
 40
0.4375000000000105
 40
0.4375000000000105
 10
181.7943931506213
 20
15.11277516501109
 30
0.0
 10
182.1103852118738
 20
15.26267955350747
 30
0.0
 10
182.3781745064826
 20
15.39713768417576
 30
0.0
 10
182.598271339686
 20
15.51028145767374
 30
0.0
  0
SPLINE
  5
22F
330
1F
100
AcDbEntity
  8
SK3
  6
SLD-Dashed
370
    18
100
AcDbSpline
210
0.0
220
0.0
230
1.0
 70
     8
 71
     3
 72
     8
 73
     4
 74
     0
 42
0.000000001
 43
0.00000001
 40
0.4375000000000105
 40
0.4375000000000105
 40
0.4375000000000105
 40
0.4375000000000105
 40
0.4531250000000107
 40
0.4531250000000107
 40
0.4531250000000107
 40
0.4531250000000107
 10
182.598271339686
 20
15.51028145767374
 30
0.0
 10
182.7083197562878
 20
15.56685334442275
 30
0.0
 10
182.8063469473736
 20
15.61809673831607
 30
0.0
 10
182.8917922486233
 20
15.66319345222731
 30
0.0
  0
SPLINE
  5
230
330
1F
100
AcDbEntity
  8
SK3
  6
SLD-Dashed
370
    18
100
AcDbSpline
210
0.0
220
0.0
230
1.0
 70
     8
 71
     3
 72
     8
 73
     4
 74
     0
 42
0.000000001
 43
0.00000001
 40
0.4531250000000107
 40
0.4531250000000107
 40
0.4531250000000107
 40
0.4531250000000107
 40
0.4687500000000108
 40
0.4687500000000108
 40
0.4687500000000108
 40
0.4687500000000108
 10
182.8917922486233
 20
15.66319345222731
 30
0.0
 10
182.9772375498729
 20
15.70829016613857
 30
0.0
 10
183.0502960669508
 20
15.74734850853299
 30
0.0
 10
183.1084443790562
 20
15.77861221947424
 30
0.0
  0
SPLINE
  5
231
330
1F
100
AcDbEntity
  8
SK3
  6
SLD-Dashed
370
    18
100
AcDbSpline
210
0.0
220
0.0
230
1.0
 70
     8
 71
     3
 72
     8
 73
     4
 74
     0
 42
0.000000001
 43
0.00000001
 40
0.4687500000000108
 40
0.4687500000000108
 40
0.4687500000000108
 40
0.4687500000000108
 40
0.5000000000000111
 40
0.5000000000000111
 40
0.5000000000000111
 40
0.5000000000000111
 10
183.1084443790562
 20
15.77861221947424
 30
0.0
 10
183.2247410032674
 20
15.84113964135673
 30
0.0
 10
183.2841309364126
 20
15.87376200515862
 30
0.0
 10
183.2863368421266
 20
15.87496554115249
 30
0.0
  0
SPLINE
  5
232
330
1F
100
AcDbEntity
  8
SK3
  6
SLD-Dashed
370
    18
100
AcDbSpline
210
0.0
220
0.0
230
1.0
 70
     8
 71
     3
 72
     8
 73
     4
 74
     0
 42
0.000000001
 43
0.00000001
 40
0.5156250000000112
 40
0.5156250000000112
 40
0.5156250000000112
 40
0.5156250000000112
 40
0.5312500000000114
 40
0.5312500000000114
 40
0.5312500000000114
 40
0.5312500000000114
 10
183.2457938118892
 20
15.85288178808852
 30
0.0
 10
183.2176179416641
 20
15.83755975573323
 30
0.0
 10
183.1751304111264
 20
15.8144952764229
 30
0.0
 10
183.1189251368287
 20
15.78424972148029
 30
0.0
  0
SPLINE
  5
233
330
1F
100
AcDbEntity
  8
SK3
  6
SLD-Dashed
370
    18
100
AcDbSpline
210
0.0
220
0.0
230
1.0
 70
     8
 71
     3
 72
     8
 73
     4
 74
     0
 42
0.000000001
 43
0.00000001
 40
0.5312500000000114
 40
0.5312500000000114
 40
0.5312500000000114
 40
0.5312500000000114
 40
0.5468750000000115
 40
0.5468750000000115
 40
0.5468750000000115
 40
0.5468750000000115
 10
183.1189251368287
 20
15.78424972148029
 30
0.0
 10
183.062719862531
 20
15.75400416653767
 30
0.0
 10
182.9927935715211
 20
15.71657469055191
 30
0.0
 10
182.9092924114647
 20
15.67243681750393
 30
0.0
  0
SPLINE
  5
234
330
1F
100
AcDbEntity
  8
SK3
  6
SLD-Dashed
370
    18
100
AcDbSpline
210
0.0
220
0.0
230
1.0
 70
     8
 71
     3
 72
     8
 73
     4
 74
     0
 42
0.000000001
 43
0.00000001
 40
0.5468750000000115
 40
0.5468750000000115
 40
0.5468750000000115
 40
0.5468750000000115
 40
0.5625000000000118
 40
0.5625000000000118
 40
0.5625000000000118
 40
0.5625000000000118
 10
182.9092924114647
 20
15.67243681750393
 30
0.0
 10
182.8257912514084
 20
15.62829894445596
 30
0.0
 10
182.7281755567633
 20
15.57717276535504
 30
0.0
 10
182.6180087097325
 20
15.52043695499126
 30
0.0
  0
SPLINE
  5
235
330
1F
100
AcDbEntity
  8
SK3
  6
SLD-Dashed
370
    18
100
AcDbSpline
210
0.0
220
0.0
230
1.0
 70
     8
 71
     3
 72
     8
 73
     4
 74
     0
 42
0.000000001
 43
0.00000001
 40
0.5625000000000118
 40
0.5625000000000118
 40
0.5625000000000118
 40
0.5625000000000118
 40
0.593750000000012
 40
0.593750000000012
 40
0.593750000000012
 40
0.593750000000012
 10
182.6180087097325
 20
15.52043695499126
 30
0.0
 10
182.3976750156707
 20
15.4069653342637
 30
0.0
 10
182.1304338274068
 20
15.27259090022862
 30
0.0
 10
181.8185237160927
 20
15.12423745165317
 30
0.0
  0
SPLINE
  5
236
330
1F
100
AcDbEntity
  8
SK3
  6
SLD-Dashed
370
    18
100
AcDbSpline
210
0.0
220
0.0
230
1.0
 70
     8
 71
     3
 72
     8
 73
     4
 74
     0
 42
0.000000001
 43
0.00000001
 40
0.593750000000012
 40
0.593750000000012
 40
0.593750000000012
 40
0.593750000000012
 40
0.6250000000000122
 40
0.6250000000000122
 40
0.6250000000000122
 40
0.6250000000000122
 10
181.8185237160927
 20
15.12423745165317
 30
0.0
 10
181.5066136047786
 20
14.97588400307771
 30
0.0
 10
181.1474854027476
 20
14.81256836752257
 30
0.0
 10
180.7560071499396
 20
14.64872088998254
 30
0.0
  0
SPLINE
  5
237
330
1F
100
AcDbEntity
  8
SK3
  6
SLD-Dashed
370
    18
100
AcDbSpline
210
0.0
220
0.0
230
1.0
 70
     8
 71
     3
 72
     8
 73
     4
 74
     0
 42
0.000000001
 43
0.00000001
 40
0.6250000000000122
 40
0.6250000000000122
 40
0.6250000000000122
 40
0.6250000000000122
 40
0.6562500000000124
 40
0.6562500000000124
 40
0.6562500000000124
 40
0.6562500000000124
 10
180.7560071499396
 20
14.64872088998254
 30
0.0
 10
180.3645288971316
 20
14.48487341244252
 30
0.0
 10
179.9382035917444
 20
14.31906330806092
 30
0.0
 10
179.473858272878
 20
14.16005655322244
 30
0.0
  0
SPLINE
  5
238
330
1F
100
AcDbEntity
  8
SK3
  6
SLD-Dashed
370
    18
100
AcDbSpline
210
0.0
220
0.0
230
1.0
 70
     8
 71
     3
 72
     8
 73
     4
 74
     0
 42
0.000000001
 43
0.00000001
 40
0.6562500000000124
 40
0.6562500000000124
 40
0.6562500000000124
 40
0.6562500000000124
 40
0.6718750000000125
 40
0.6718750000000125
 40
0.6718750000000125
 40
0.6718750000000125
 10
179.473858272878
 20
14.16005655322244
 30
0.0
 10
179.2416856134448
 20
14.08055317580319
 30
0.0
 10
179.000623119552
 20
14.00309594177551
 30
0.0
 10
178.7547137178667
 20
13.93019419934759
 30
0.0
  0
SPLINE
  5
239
330
1F
100
AcDbEntity
  8
SK3
  6
SLD-Dashed
370
    18
100
AcDbSpline
210
0.0
220
0.0
230
1.0
 70
     8
 71
     3
 72
     8
 73
     4
 74
     0
 42
0.000000001
 43
0.00000001
 40
0.6718750000000125
 40
0.6718750000000125
 40
0.6718750000000125
 40
0.6718750000000125
 40
0.6875000000000128
 40
0.6875000000000128
 40
0.6875000000000128
 40
0.6875000000000128
 10
178.7547137178667
 20
13.93019419934759
 30
0.0
 10
178.5088043161816
 20
13.85729245691966
 30
0.0
 10
178.2568979808987
 20
13.78854011742377
 30
0.0
 10
177.9987385413664
 20
13.72508239631008
 30
0.0
  0
SPLINE
  5
23A
330
1F
100
AcDbEntity
  8
SK3
  6
SLD-Dashed
370
    18
100
AcDbSpline
210
0.0
220
0.0
230
1.0
 70
     8
 71
     3
 72
     8
 73
     4
 74
     0
 42
0.000000001
 43
0.00000001
 40
0.6875000000000128
 40
0.6875000000000128
 40
0.6875000000000128
 40
0.6875000000000128
 40
0.7031250000000129
 40
0.7031250000000129
 40
0.7031250000000129
 40
0.7031250000000129
 10
177.9987385413664
 20
13.72508239631008
 30
0.0
 10
177.740579101834
 20
13.66162467519638
 30
0.0
 10
177.4761681888874
 20
13.60345869642513
 30
0.0
 10
177.2050390098579
 20
13.55184033009498
 30
0.0
  0
SPLINE
  5
23B
330
1F
100
AcDbEntity
  8
SK3
  6
SLD-Dashed
370
    18
100
AcDbSpline
210
0.0
220
0.0
230
1.0
 70
     8
 71
     3
 72
     8
 73
     4
 74
     0
 42
0.000000001
 43
0.00000001
 40
0.7031250000000129
 40
0.7031250000000129
 40
0.7031250000000129
 40
0.7031250000000129
 40
0.7187500000000131
 40
0.7187500000000131
 40
0.7187500000000131
 40
0.7187500000000131
 10
177.2050390098579
 20
13.55184033009498
 30
0.0
 10
176.9339098308286
 20
13.50022196376482
 30
0.0
 10
176.6549253830826
 20
13.45500373595052
 30
0.0
 10
176.3710037589339
 20
13.41805888220093
 30
0.0
  0
SPLINE
  5
23C
330
1F
100
AcDbEntity
  8
SK3
  6
SLD-Dashed
370
    18
100
AcDbSpline
210
0.0
220
0.0
230
1.0
 70
     8
 71
     3
 72
     8
 73
     4
 74
     0
 42
0.000000001
 43
0.00000001
 40
0.7187500000000131
 40
0.7187500000000131
 40
0.7187500000000131
 40
0.7187500000000131
 40
0.7500000000000118
 40
0.7500000000000118
 40
0.7500000000000118
 40
0.7500000000000118
 10
176.3710037589339
 20
13.41805888220093
 30
0.0
 10
175.8031605106364
 20
13.34416917470174
 30
0.0
 10
175.2313829352746
 20
13.30533776158067
 30
0.0
 10
174.6556537331792
 20
13.30401122561756
 30
0.0
  0
SPLINE
  5
23D
330
1F
100
AcDbEntity
  8
SK3
  6
SLD-Dashed
370
    18
100
AcDbSpline
210
0.0
220
0.0
230
1.0
 70
     8
 71
     3
 72
     8
 73
     4
 74
     0
 42
0.000000001
 43
0.00000001
 40
0.7500000000000118
 40
0.7500000000000118
 40
0.7500000000000118
 40
0.7500000000000118
 40
0.7656250000000112
 40
0.7656250000000112
 40
0.7656250000000112
 40
0.7656250000000112
 10
174.6556537331792
 20
13.30401122561756
 30
0.0
 10
174.3677891321314
 20
13.303347957636
 30
0.0
 10
174.0789322318322
 20
13.31203462842146
 30
0.0
 10
173.7890537126351
 20
13.33021309789754
 30
0.0
  0
SPLINE
  5
23E
330
1F
100
AcDbEntity
  8
SK3
  6
SLD-Dashed
370
    18
100
AcDbSpline
210
0.0
220
0.0
230
1.0
 70
     8
 71
     3
 72
     8
 73
     4
 74
     0
 42
0.000000001
 43
0.00000001
 40
0.7656250000000112
 40
0.7656250000000112
 40
0.7656250000000112
 40
0.7656250000000112
 40
0.7812500000000105
 40
0.7812500000000105
 40
0.7812500000000105
 40
0.7812500000000105
 10
173.7890537126351
 20
13.33021309789754
 30
0.0
 10
173.4991751934379
 20
13.34839156737363
 30
0.0
 10
173.210507136444
 20
13.37603330718902
 30
0.0
 10
172.9284231433936
 20
13.4117168203915
 30
0.0
  0
SPLINE
  5
23F
330
1F
100
AcDbEntity
  8
SK3
  6
SLD-Dashed
370
    18
100
AcDbSpline
210
0.0
220
0.0
230
1.0
 70
     8
 71
     3
 72
     8
 73
     4
 74
     0
 42
0.000000001
 43
0.00000001
 40
0.7812500000000105
 40
0.7812500000000105
 40
0.7812500000000105
 40
0.7812500000000105
 40
0.8125000000000093
 40
0.8125000000000093
 40
0.8125000000000093
 40
0.8125000000000093
 10
172.9284231433936
 20
13.4117168203915
 30
0.0
 10
172.3642551572928
 20
13.48308384679647
 30
0.0
 10
171.8194973879154
 20
13.58695550847304
 30
0.0
 10
171.2925704904425
 20
13.71498674721085
 30
0.0
  0
SPLINE
  5
240
330
1F
100
AcDbEntity
  8
SK3
  6
SLD-Dashed
370
    18
100
AcDbSpline
210
0.0
220
0.0
230
1.0
 70
     8
 71
     3
 72
     8
 73
     4
 74
     0
 42
0.000000001
 43
0.00000001
 40
0.8125000000000093
 40
0.8125000000000093
 40
0.8125000000000093
 40
0.8125000000000093
 40
0.8437500000000081
 40
0.8437500000000081
 40
0.8437500000000081
 40
0.8437500000000081
 10
171.2925704904425
 20
13.71498674721085
 30
0.0
 10
170.7656435929697
 20
13.84301798594866
 30
0.0
 10
170.2718863002264
 20
13.99126450238337
 30
0.0
 10
169.8084415235245
 20
14.14902860967169
 30
0.0
  0
SPLINE
  5
241
330
1F
100
AcDbEntity
  8
SK3
  6
SLD-Dashed
370
    18
100
AcDbSpline
210
0.0
220
0.0
230
1.0
 70
     8
 71
     3
 72
     8
 73
     4
 74
     0
 42
0.000000001
 43
0.00000001
 40
0.8437500000000081
 40
0.8437500000000081
 40
0.8437500000000081
 40
0.8437500000000081
 40
0.8750000000000069
 40
0.8750000000000069
 40
0.8750000000000069
 40
0.8750000000000069
 10
169.8084415235245
 20
14.14902860967169
 30
0.0
 10
169.3449967468227
 20
14.30679271696001
 30
0.0
 10
168.9086277868539
 20
14.47566408268015
 30
0.0
 10
168.5151849523296
 20
14.6398638981631
 30
0.0
  0
SPLINE
  5
242
330
1F
100
AcDbEntity
  8
SK3
  6
SLD-Dashed
370
    18
100
AcDbSpline
210
0.0
220
0.0
230
1.0
 70
     8
 71
     3
 72
     8
 73
     4
 74
     0
 42
0.000000001
 43
0.00000001
 40
0.8750000000000069
 40
0.8750000000000069
 40
0.8750000000000069
 40
0.8750000000000069
 40
0.9062500000000057
 40
0.9062500000000057
 40
0.9062500000000057
 40
0.9062500000000057
 10
168.5151849523296
 20
14.6398638981631
 30
0.0
 10
168.1217421178054
 20
14.80406371364604
 30
0.0
 10
167.7676829268649
 20
14.96468616557663
 30
0.0
 10
167.4529727054876
 20
15.11402496204207
 30
0.0
  0
SPLINE
  5
243
330
1F
100
AcDbEntity
  8
SK3
  6
SLD-Dashed
370
    18
100
AcDbSpline
210
0.0
220
0.0
230
1.0
 70
     8
 71
     3
 72
     8
 73
     4
 74
     0
 42
0.000000001
 43
0.00000001
 40
0.9062500000000057
 40
0.9062500000000057
 40
0.9062500000000057
 40
0.9062500000000057
 40
0.9218750000000048
 40
0.9218750000000048
 40
0.9218750000000048
 40
0.9218750000000048
 10
167.4529727054876
 20
15.11402496204207
 30
0.0
 10
167.295617594799
 20
15.18869436027476
 30
0.0
 10
167.1475493118364
 20
15.26087627536572
 30
0.0
 10
167.0127007336049
 20
15.32784639671077
 30
0.0
  0
SPLINE
  5
244
330
1F
100
AcDbEntity
  8
SK3
  6
SLD-Dashed
370
    18
100
AcDbSpline
210
0.0
220
0.0
230
1.0
 70
     8
 71
     3
 72
     8
 73
     4
 74
     0
 42
0.000000001
 43
0.00000001
 40
0.9218750000000048
 40
0.9218750000000048
 40
0.9218750000000048
 40
0.9218750000000048
 40
0.9375000000000038
 40
0.9375000000000038
 40
0.9375000000000038
 40
0.9375000000000038
 10
167.0127007336049
 20
15.32784639671077
 30
0.0
 10
166.8778521553733
 20
15.39481651805583
 30
0.0
 10
166.7555898853772
 20
15.45686015621581
 30
0.0
 10
166.6458016867432
 20
15.51332913214567
 30
0.0
  0
SPLINE
  5
245
330
1F
100
AcDbEntity
  8
SK3
  6
SLD-Dashed
370
    18
100
AcDbSpline
210
0.0
220
0.0
230
1.0
 70
     8
 71
     3
 72
     8
 73
     4
 74
     0
 42
0.000000001
 43
0.00000001
 40
0.9375000000000038
 40
0.9375000000000038
 40
0.9375000000000038
 40
0.9375000000000038
 40
0.9687500000000019
 40
0.9687500000000019
 40
0.9687500000000019
 40
0.9687500000000019
 10
166.6458016867432
 20
15.51332913214567
 30
0.0
 10
166.4262252894755
 20
15.62626708400542
 30
0.0
 10
166.2560941164224
 20
15.71701992894225
 30
0.0
 10
166.1396081449591
 20
15.7796593744477
 30
0.0
  0
SPLINE
  5
246
330
1F
100
AcDbEntity
  8
SK3
  6
SLD-Dashed
370
    18
100
AcDbSpline
210
0.0
220
0.0
230
1.0
 70
     8
 71
     2
 72
     6
 73
     3
 74
     0
 42
0.000000001
 43
0.00000001
 40
0.9687500000000019
 40
0.9687500000000019
 40
0.9687500000000019
 40
1.0
 40
1.0
 40
1.0
 10
166.1396081449591
 20
15.7796593744477
 30
0.0
 10
166.0231221734959
 20
15.84229881995316
 30
0.0
 10
165.9636000000001
 20
15.87500000000001
 30
0.0
  0
SPLINE
  5
247
330
1F
100
AcDbEntity
  8
SK3
  6
SLD-Dashed
370
    18
100
AcDbSpline
210
0.0
220
0.0
230
1.0
 70
     8
 71
     3
 72
    18
 73
    14
 74
     0
 42
0.000000001
 43
0.00000001
 40
0.0
 40
0.0
 40
0.0
 40
0.0
 40
0.0502196103872347
 40
0.1000870260924176
 40
0.1855086368940258
 40
0.2501550808791989
 40
0.3746583157461278
 40
0.4998570853792991
 40
0.6242312608259506
 40
0.7494324099488462
 40
0.8740366596179966
 40
0.9370350243166855
 40
1.0
 40
1.0
 40
1.0
 40
1.0
 10
3.69999999999994
 20
46.55608553132443
 30
0.0
 10
3.700143854852845
 20
46.56278755186002
 30
0.0
 10
3.700430555691554
 20
46.57614459105338
 30
0.0
 10
3.703274054818754
 20
46.60076085239339
 30
0.0
 10
3.708850025263264
 20
46.62692328764689
 30
0.0
 10
3.720514169271273
 20
46.6616989075661
 30
0.0
 10
3.739456592416604
 20
46.69941980690711
 30
0.0
 10
3.770128279112245
 20
46.73918434013721
 30
0.0
 10
3.808028636439601
 20
46.77229285140238
 30
0.0
 10
3.851698646431299
 20
46.79720148409481
 30
0.0
 10
3.891711812143331
 20
46.81006094110496
 30
0.0
 10
3.924780356068886
 20
46.81548545401087
 30
0.0
 10
3.941594937699466
 20
46.81599758847398
 30
0.0
 10
3.950000000000009
 20
46.81625358783002
 30
0.0
  0
SPLINE
  5
248
330
1F
100
AcDbEntity
  8
SK3
  6
SLD-Dashed
370
    18
100
AcDbSpline
210
0.0
220
0.0
230
1.0
 70
     8
 71
     3
 72
    18
 73
    14
 74
     0
 42
0.000000001
 43
0.00000001
 40
0.0
 40
0.0
 40
0.0
 40
0.0
 40
0.0501962867734829
 40
0.1000306214437034
 40
0.1855667331187673
 40
0.2501823892320643
 40
0.3747066158220764
 40
0.4998232982189674
 40
0.6247294758455242
 40
0.7494251058857241
 40
0.8746331028690452
 40
0.9372230808189452
 40
1.0
 40
1.0
 40
1.0
 40
1.0
 10
18.30000000000002
 20
46.81625358782994
 30
0.0
 10
18.30669951182796
 20
46.81609127853699
 30
0.0
 10
18.32005022708194
 20
46.81576783032028
 30
0.0
 10
18.34463922095194
 20
46.8125677652622
 30
0.0
 10
18.37067201462222
 20
46.80630579793127
 30
0.0
 10
18.40500150194896
 20
46.7933155554719
 30
0.0
 10
18.44173939749913
 20
46.77247000397298
 30
0.0
 10
18.47965549617259
 20
46.73942242416843
 30
0.0
 10
18.51041281949083
 20
46.69961163074885
 30
0.0
 10
18.53306634505929
 20
46.6546887511002
 30
0.0
 10
18.54452340204196
 20
46.61434662644383
 30
0.0
 10
18.54932467505753
 20
46.58119847829339
 30
0.0
 10
18.5497746680164
 20
46.56446483112379
 30
0.0
 10
18.55000000000001
 20
46.55608553132448
 30
0.0
  0
SPLINE
  5
249
330
1F
100
AcDbEntity
  8
SK3
  6
SLD-Dashed
370
    18
100
AcDbSpline
210
0.0
220
0.0
230
1.0
 70
     8
 71
     3
 72
    30
 73
    26
 74
     0
 42
0.000000001
 43
0.00000001
 40
0.4999999999999979
 40
0.4999999999999979
 40
0.4999999999999979
 40
0.4999999999999979
 40
0.5624999999999978
 40
0.5624999999999978
 40
0.6249999999999977
 40
0.6249999999999977
 40
0.6562499999999978
 40
0.6562499999999978
 40
0.687499999999998
 40
0.687499999999998
 40
0.7187499999999981
 40
0.7187499999999981
 40
0.7499999999999982
 40
0.7499999999999982
 40
0.7812499999999984
 40
0.7812499999999984
 40
0.8124999999999986
 40
0.8124999999999986
 40
0.8437499999999988
 40
0.8437499999999988
 40
0.8749999999999989
 40
0.8749999999999989
 40
0.9374999999999994
 40
0.9374999999999994
 40
1.0
 40
1.0
 40
1.0
 40
1.0
 10
11.12436591328741
 20
5.309061551556929
 30
0.0
 10
11.33987168856151
 20
5.30913512189414
 30
0.0
 10
11.55726809392076
 20
5.270777053767752
 30
0.0
 10
11.954542895422
 20
5.12408212790752
 30
0.0
 10
12.13838112079801
 20
5.014350511864017
 30
0.0
 10
12.36674314194752
 20
4.808404051991823
 30
0.0
 10
12.43642969974143
 20
4.731543474868135
 30
0.0
 10
12.55617157969231
 20
4.568463540703789
 30
0.0
 10
12.6069504943868
 20
4.481836472086075
 30
0.0
 10
12.69006011488474
 20
4.297948630822695
 30
0.0
 10
12.7218894306609
 20
4.201137306228627
 30
0.0
 10
12.76406792100186
 20
4.004999015154096
 30
0.0
 10
12.77490668888515
 20
3.904499034786603
 30
0.0
 10
12.77509211872524
 20
3.699534720125429
 30
0.0
 10
12.76447599657453
 20
3.598169916606796
 30
0.0
 10
12.72265428347032
 20
3.397643705646352
 30
0.0
 10
12.69091026767075
 20
3.297408274791247
 30
0.0
 10
12.60826636161166
 20
3.105879249911001
 30
0.0
 10
12.55766906368547
 20
3.014523490936158
 30
0.0
 10
12.43800593838744
 20
2.840798433450351
 30
0.0
 10
12.36852473740652
 20
2.758380635546162
 30
0.0
 10
12.14080554014711
 20
2.535838019871832
 30
0.0
 10
11.9570420469029
 20
2.414653532234794
 30
0.0
 10
11.56023146512519
 20
2.251755559321195
 30
0.0
 10
11.34333742006517
 20
2.208076011197144
 30
0.0
 10
11.125
 20
2.208076011197144
 30
0.0
  0
SPLINE
  5
24A
330
1F
100
AcDbEntity
  8
SK3
  6
SLD-Dashed
370
    18
100
AcDbSpline
210
0.0
220
0.0
230
1.0
 70
     8
 71
     3
 72
    34
 73
    30
 74
     0
 42
0.000000001
 43
0.00000001
 40
0.0
 40
0.0
 40
0.0
 40
0.0
 40
0.0312499999999998
 40
0.0312499999999998
 40
0.0624999999999997
 40
0.0624999999999997
 40
0.0937499999999995
 40
0.0937499999999995
 40
0.1249999999999993
 40
0.1249999999999993
 40
0.1874999999999989
 40
0.1874999999999989
 40
0.2499999999999984
 40
0.2499999999999984
 40
0.2812499999999984
 40
0.2812499999999984
 40
0.3124999999999983
 40
0.3124999999999983
 40
0.3437499999999983
 40
0.3437499999999983
 40
0.3749999999999982
 40
0.3749999999999982
 40
0.4062499999999981
 40
0.4062499999999981
 40
0.4374999999999981
 40
0.4374999999999981
 40
0.468749999999998
 40
0.468749999999998
 40
0.4999999999999979
 40
0.4999999999999979
 40
0.4999999999999979
 40
0.4999999999999979
 10
11.125
 20
2.208076011197137
 30
0.0
 10
11.01583128996742
 20
2.208076011197144
 30
0.0
 10
10.90851747443068
 20
2.218712438100942
 30
0.0
 10
10.69743839976837
 20
2.260296858835588
 30
0.0
 10
10.59256796952453
 20
2.29175935325996
 30
0.0
 10
10.39282801405939
 20
2.373555205373627
 30
0.0
 10
10.29811782955152
 20
2.42350962822617
 30
0.0
 10
10.11887542494273
 20
2.541114583907885
 30
0.0
 10
10.03412703573854
 20
2.609294845854253
 30
0.0
 10
9.806182200157387
 20
2.831771837438372
 30
0.0
 10
9.683294833249992
 20
3.010016554592654
 30
0.0
 10
9.518613327833602
 20
3.390759943898578
 30
0.0
 10
9.475122079642004
 20
3.597272475835488
 30
0.0
 10
9.474939355443745
 20
3.901097591317404
 30
0.0
 10
9.48568518560869
 20
4.003434499602346
 30
0.0
 10
9.527840731096388
 20
4.200293854804624
 30
0.0
 10
9.559029712058424
 20
4.295473899993282
 30
0.0
 10
9.641780605110354
 20
4.479477843829412
 30
0.0
 10
9.693378168396883
 20
4.56772201717838
 30
0.0
 10
9.81271879481424
 20
4.730510706064041
 30
0.0
 10
9.881024517103501
 20
4.806208116124401
 30
0.0
 10
10.03474791503921
 20
4.945204256680401
 30
0.0
 10
10.11790941669588
 20
5.006521730708598
 30
0.0
 10
10.29642492313947
 20
5.11372891487772
 30
0.0
 10
10.39294641915066
 20
5.159988239582892
 30
0.0
 10
10.59259055817322
 20
5.233890455420352
 30
0.0
 10
10.69543180415419
 20
5.261724005488285
 30
0.0
 10
10.90715408445175
 20
5.299397422676641
 30
0.0
 10
11.01661302565036
 20
5.309024766388331
 30
0.0
 10
11.12436591328741
 20
5.309061551556929
 30
0.0
  0
SPLINE
  5
24B
330
1F
100
AcDbEntity
  8
SK3
  6
SLD-Dashed
370
    18
100
AcDbSpline
210
0.0
220
0.0
230
1.0
 70
     8
 71
     3
 72
    34
 73
    30
 74
     0
 42
0.000000001
 43
0.00000001
 40
0.499999999999998
 40
0.499999999999998
 40
0.499999999999998
 40
0.499999999999998
 40
0.5312499999999979
 40
0.5312499999999979
 40
0.5624999999999978
 40
0.5624999999999978
 40
0.5937499999999976
 40
0.5937499999999976
 40
0.6249999999999974
 40
0.6249999999999974
 40
0.6562499999999973
 40
0.6562499999999973
 40
0.6874999999999972
 40
0.6874999999999972
 40
0.7499999999999969
 40
0.7499999999999969
 40
0.8124999999999973
 40
0.8124999999999973
 40
0.8437499999999978
 40
0.8437499999999978
 40
0.8749999999999982
 40
0.8749999999999982
 40
0.9062499999999987
 40
0.9062499999999987
 40
0.937499999999999
 40
0.937499999999999
 40
0.9687499999999994
 40
0.9687499999999994
 40
1.0
 40
1.0
 40
1.0
 40
1.0
 10
9.638805742161708
 20
10.95392502366163
 30
0.0
 10
9.6938811607363
 20
10.84705887039521
 30
0.0
 10
9.76317928315662
 20
10.74439645836096
 30
0.0
 10
9.923515798149985
 20
10.55592715127709
 30
0.0
 10
10.01390276352453
 20
10.47020735344793
 30
0.0
 10
10.21445694949209
 20
10.31296552728878
 30
0.0
 10
10.32267837600208
 20
10.24333508542229
 30
0.0
 10
10.5430752649812
 20
10.12288935951391
 30
0.0
 10
10.65791658596822
 20
10.07070374731722
 30
0.0
 10
10.87819871140988
 20
9.984463182040875
 30
0.0
 10
10.98608094611136
 20
9.94920527973784
 30
0.0
 10
11.18968749579594
 20
9.892304259469
 30
0.0
 10
11.28527842069084
 20
9.870580048613832
 30
0.0
 10
11.55898297450221
 20
9.820769890309979
 30
0.0
 10
11.72337034356695
 20
9.808096789548742
 30
0.0
 10
12.02194861504764
 20
9.821477532699776
 30
0.0
 10
12.15920875119766
 20
9.84731018817673
 30
0.0
 10
12.34760730605759
 20
9.927824692744434
 30
0.0
 10
12.40688352391459
 20
9.961503747003372
 30
0.0
 10
12.5178029483755
 20
10.04749808647181
 30
0.0
 10
12.56969006353045
 20
10.1002182908583
 30
0.0
 10
12.65991931900842
 20
10.22933776798929
 30
0.0
 10
12.69929072119648
 20
10.30748393412819
 30
0.0
 10
12.75586568636477
 20
10.49302732041032
 30
0.0
 10
12.77303399215494
 20
10.60290348381506
 30
0.0
 10
12.77663319740259
 20
10.83901366027915
 30
0.0
 10
12.76306993948381
 20
10.96766771108133
 30
0.0
 10
12.7117084196995
 20
11.21837738140154
 30
0.0
 10
12.67469993892524
 20
11.34057418425336
 30
0.0
 10
12.63040931107559
 20
11.45745606890564
 30
0.0
  0
SPLINE
  5
24C
330
1F
100
AcDbEntity
  8
SK3
  6
SLD-Dashed
370
    18
100
AcDbSpline
210
0.0
220
0.0
230
1.0
 70
     8
 71
     3
 72
    26
 73
    22
 74
     0
 42
0.000000001
 43
0.00000001
 40
0.0
 40
0.0
 40
0.0
 40
0.0
 40
0.0624999999999995
 40
0.0624999999999995
 40
0.124999999999999
 40
0.124999999999999
 40
0.1874999999999986
 40
0.1874999999999986
 40
0.2499999999999981
 40
0.2499999999999981
 40
0.281249999999998
 40
0.281249999999998
 40
0.3124999999999979
 40
0.3124999999999979
 40
0.3749999999999981
 40
0.3749999999999981
 40
0.4374999999999984
 40
0.4374999999999984
 40
0.4687499999999982
 40
0.4687499999999982
 40
0.499999999999998
 40
0.499999999999998
 40
0.499999999999998
 40
0.499999999999998
 10
12.63040931107559
 20
11.45745606890564
 30
0.0
 10
12.54182805537629
 20
11.6912198382102
 30
0.0
 10
12.43200682775378
 20
11.89056157115178
 30
0.0
 10
12.18419932759159
 20
12.25514411813749
 30
0.0
 10
12.04834522926919
 20
12.41463399152626
 30
0.0
 10
11.7531401364613
 20
12.69173524411806
 30
0.0
 10
11.59091385222424
 20
12.81202758601131
 30
0.0
 10
11.23004729019511
 20
12.99241430793247
 30
0.0
 10
11.0272833419255
 20
13.05343833574648
 30
0.0
 10
10.69987000905186
 20
13.05646994226838
 30
0.0
 10
10.58531472788941
 20
13.0419760700552
 30
0.0
 10
10.36396153134629
 20
12.97944613660278
 30
0.0
 10
10.25449961952681
 20
12.93102694430326
 30
0.0
 10
9.947578697971318
 20
12.73948161914289
 30
0.0
 10
9.776646578307208
 20
12.55346040827498
 30
0.0
 10
9.542451961566181
 20
12.12678030999252
 30
0.0
 10
9.478612055377935
 20
11.88580640702583
 30
0.0
 10
9.473421112414268
 20
11.52565520755327
 30
0.0
 10
9.486345898652646
 20
11.4074936156688
 30
0.0
 10
9.541390615621022
 20
11.1745915190869
 30
0.0
 10
9.583730323587114
 20
11.06079117692805
 30
0.0
 10
9.638805742161708
 20
10.95392502366163
 30
0.0
  0
SPLINE
  5
24D
330
1F
100
AcDbEntity
  8
SK3
  6
SLD-Dashed
370
    18
100
AcDbSpline
210
0.0
220
0.0
230
1.0
 70
     8
 71
     3
 72
    18
 73
    14
 74
     0
 42
0.000000001
 43
0.00000001
 40
0.0
 40
0.0
 40
0.0
 40
0.0
 40
0.050196286773496
 40
0.1000306214437232
 40
0.1855667331187628
 40
0.2501823892320831
 40
0.3747066158220737
 40
0.4998232982189562
 40
0.6247294758455391
 40
0.7494251058857213
 40
0.8746331028690435
 40
0.9372230808189356
 40
1.0
 40
1.0
 40
1.0
 40
1.0
 10
3.949999999999995
 20
46.81625358783
 30
0.0
 10
3.943300488172041
 20
46.81609127853705
 30
0.0
 10
3.929949772918051
 20
46.81576783032033
 30
0.0
 10
3.905360779048059
 20
46.81256776526227
 30
0.0
 10
3.879327985377767
 20
46.80630579793136
 30
0.0
 10
3.844998498051075
 20
46.79331555547193
 30
0.0
 10
3.808260602500862
 20
46.77247000397303
 30
0.0
 10
3.770344503827392
 20
46.73942242416846
 30
0.0
 10
3.739587180509179
 20
46.69961163074886
 30
0.0
 10
3.716933654940704
 20
46.65468875110022
 30
0.0
 10
3.70547659795803
 20
46.61434662644386
 30
0.0
 10
3.700675324942462
 20
46.58119847829342
 30
0.0
 10
3.700225331983595
 20
46.5644648311238
 30
0.0
 10
3.699999999999981
 20
46.55608553132448
 30
0.0
  0
SPLINE
  5
24E
330
1F
100
AcDbEntity
  8
SK3
  6
SLD-Dashed
370
    18
100
AcDbSpline
210
0.0
220
0.0
230
1.0
 70
     8
 71
     3
 72
    18
 73
    14
 74
     0
 42
0.000000001
 43
0.00000001
 40
0.0
 40
0.0
 40
0.0
 40
0.0
 40
0.0502196103872572
 40
0.1000870260924107
 40
0.1855086368940309
 40
0.2501550808791911
 40
0.3746583157461272
 40
0.4998570853792874
 40
0.6242312608259419
 40
0.7494324099488491
 40
0.874036659617998
 40
0.9370350243166916
 40
1.0
 40
1.0
 40
1.0
 40
1.0
 10
18.55000000000007
 20
46.55608553132441
 30
0.0
 10
18.54985614514714
 20
46.56278755186001
 30
0.0
 10
18.54956944430842
 20
46.57614459105339
 30
0.0
 10
18.54672594518128
 20
46.60076085239339
 30
0.0
 10
18.54114997473672
 20
46.62692328764687
 30
0.0
 10
18.52948583072871
 20
46.66169890756608
 30
0.0
 10
18.51054340758342
 20
46.6994198069071
 30
0.0
 10
18.47987172088775
 20
46.73918434013713
 30
0.0
 10
18.44197136356042
 20
46.77229285140233
 30
0.0
 10
18.39830135356871
 20
46.79720148409474
 30
0.0
 10
18.35828818785669
 20
46.81006094110495
 30
0.0
 10
18.32521964393115
 20
46.8154854540108
 30
0.0
 10
18.30840506230055
 20
46.81599758847391
 30
0.0
 10
18.30000000000001
 20
46.81625358782995
 30
0.0
  0
SPLINE
  5
24F
330
1F
100
AcDbEntity
  8
1
  6
SLD-Dashed
370
    18
100
AcDbSpline
210
0.0
220
0.0
230
1.0
 70
     8
 71
     3
 72
     8
 73
     4
 74
     0
 42
0.000000001
 43
0.00000001
 40
0.0
 40
0.0
 40
0.0
 40
0.0
 40
1.0
 40
1.0
 40
1.0
 40
1.0
 10
9.200000000002019
 20
44.57901066343279
 30
0.0
 10
8.786353866861443
 20
45.32508460154088
 30
0.0
 10
8.372088490924053
 20
46.0708208293284
 30
0.0
 10
7.957289380062113
 20
46.81625358783002
 30
0.0
  0
SPLINE
  5
250
330
1F
100
AcDbEntity
  8
1
  6
SLD-Dashed
370
    18
100
AcDbSpline
210
0.0
220
0.0
230
1.0
 70
     8
 71
     3
 72
    10
 73
     6
 74
     0
 42
0.000000001
 43
0.00000001
 40
0.0
 40
0.0
 40
0.0
 40
0.0
 40
0.5
 40
0.5
 40
1.0
 40
1.0
 40
1.0
 40
1.0
 10
9.95000000000124
 20
43.7694359684941
 30
0.0
 10
9.74877153622242
 20
43.76943596849378
 30
0.0
 10
9.550990673892233
 20
43.85856672856774
 30
0.0
 10
9.277097785723972
 20
44.15022946993273
 30
0.0
 10
9.200000000000307
 20
44.34957328976746
 30
0.0
 10
9.199999999999985
 20
44.55102159322499
 30
0.0
  0
SPLINE
  5
251
330
1F
100
AcDbEntity
  8
1
  6
SLD-Dashed
370
    18
100
AcDbSpline
210
0.0
220
0.0
230
1.0
 70
     8
 71
     3
 72
    12
 73
     8
 74
     0
 42
0.000000001
 43
0.00000001
 40
0.0
 40
0.0
 40
0.0
 40
0.0
 40
0.5000000000000048
 40
0.5000000000000048
 40
0.7500000000000023
 40
0.7500000000000023
 40
1.0
 40
1.0
 40
1.0
 40
1.0
 10
13.02999999999993
 20
44.55102159322492
 30
0.0
 10
13.0299999999999
 20
44.35104831812322
 30
0.0
 10
12.95399603318284
 20
44.15150826736608
 30
0.0
 10
12.74724095984754
 20
43.93116827138051
 30
0.0
 10
12.66314206268639
 20
43.87128621650959
 30
0.0
 10
12.48048875274073
 20
43.79084228716531
 30
0.0
 10
12.37984375713171
 20
43.7694359684929
 30
0.0
 10
12.28000000000003
 20
43.76943596849289
 30
0.0
  0
SPLINE
  5
252
330
1F
100
AcDbEntity
  8
1
  6
SLD-Dashed
370
    18
100
AcDbSpline
210
0.0
220
0.0
230
1.0
 70
     8
 71
     3
 72
     8
 73
     4
 74
     0
 42
0.000000001
 43
0.00000001
 40
0.0
 40
0.0
 40
0.0
 40
0.0
 40
1.0
 40
1.0
 40
1.0
 40
1.0
 10
14.27271061995093
 20
46.81625358783777
 30
0.0
 10
13.8579115090853
 20
46.07082082933481
 30
0.0
 10
13.44364613314422
 20
45.32508460154593
 30
0.0
 10
13.03
 20
44.57901066343647
 30
0.0
  0
SPLINE
  5
253
330
1F
100
AcDbEntity
  8
1
  6
SLD-Dashed
370
    18
100
AcDbSpline
210
0.0
220
0.0
230
1.0
 70
     8
 71
     3
 72
    12
 73
     8
 74
     0
 42
0.000000001
 43
0.00000001
 40
0.0
 40
0.0
 40
0.0
 40
0.0
 40
0.2499999999999967
 40
0.2499999999999967
 40
0.4999999999999933
 40
0.4999999999999933
 40
1.0
 40
1.0
 40
1.0
 40
1.0
 10
3.1999999999998
 20
-46.69763484374749
 30
0.0
 10
3.199999999999842
 20
-46.79851095846151
 30
0.0
 10
3.218629406337783
 20
-46.89733966428926
 30
0.0
 10
3.291844246696873
 20
-47.08411469648331
 30
0.0
 10
3.345979173512786
 20
-47.16991322229986
 30
0.0
 10
3.551871853062272
 20
-47.38753444472503
 30
0.0
 10
3.74802685678137
 20
-47.47548419974255
 30
0.0
 10
3.950000000000009
 20
-47.4754841997425
 30
0.0
  0
SPLINE
  5
254
330
1F
100
AcDbEntity
  8
1
  6
SLD-Dashed
370
    18
100
AcDbSpline
210
0.0
220
0.0
230
1.0
 70
     8
 71
     3
 72
    12
 73
     8
 74
     0
 42
0.000000001
 43
0.00000001
 40
0.0
 40
0.0
 40
0.0
 40
0.0
 40
0.2499999999999985
 40
0.2499999999999985
 40
0.499999999999997
 40
0.499999999999997
 40
1.0
 40
1.0
 40
1.0
 40
1.0
 10
18.30000000000035
 20
-47.4754841997428
 30
0.0
 10
18.40091596910977
 20
-47.47548419974275
 30
0.0
 10
18.5000215825229
 20
-47.45437693482727
 30
0.0
 10
18.68315226992479
 20
-47.3742689705784
 30
0.0
 10
18.76654490405295
 20
-47.31511647588048
 30
0.0
 10
18.97195148872759
 20
-47.09831987092237
 30
0.0
 10
19.05000000000009
 20
-46.89926900274104
 30
0.0
 10
19.05000000000001
 20
-46.69763484374771
 30
0.0
  0
SPLINE
  5
255
330
1F
100
AcDbEntity
  8
1
  6
SLD-Dashed
370
    18
100
AcDbSpline
210
0.0
220
0.0
230
1.0
 70
     8
 71
     3
 72
     8
 73
     4
 74
     0
 42
0.000000001
 43
0.00000001
 40
0.0
 40
0.0
 40
0.0
 40
0.0
 40
1.0
 40
1.0
 40
1.0
 40
1.0
 10
14.63972339340267
 20
-47.4754841997425
 30
0.0
 10
14.10222500453559
 20
-46.5104965471081
 30
0.0
 10
13.56559195163211
 20
-45.54503249842018
 30
0.0
 10
13.03
 20
-44.57901066343648
 30
0.0
  0
SPLINE
  5
256
330
1F
100
AcDbEntity
  8
1
  6
SLD-Dashed
370
    18
100
AcDbSpline
210
0.0
220
0.0
230
1.0
 70
     8
 71
     3
 72
    12
 73
     8
 74
     0
 42
0.000000001
 43
0.00000001
 40
0.0
 40
0.0
 40
0.0
 40
0.0
 40
0.5
 40
0.5
 40
0.75
 40
0.75
 40
1.0
 40
1.0
 40
1.0
 40
1.0
 10
13.03000000000027
 20
-44.55102159322529
 30
0.0
 10
13.03000000000034
 20
-44.35094747116186
 30
0.0
 10
12.95238692985018
 20
-44.14958800989086
 30
0.0
 10
12.74748896269969
 20
-43.9315357022575
 30
0.0
 10
12.6637277001479
 20
-43.87162606259756
 30
0.0
 10
12.48090790509572
 20
-43.79094541821721
 30
0.0
 10
12.3805733178244
 20
-43.76943596849286
 30
0.0
 10
12.28000000000003
 20
-43.76943596849289
 30
0.0
  0
SPLINE
  5
257
330
1F
100
AcDbEntity
  8
1
  6
SLD-Dashed
370
    18
100
AcDbSpline
210
0.0
220
0.0
230
1.0
 70
     8
 71
     3
 72
    12
 73
     8
 74
     0
 42
0.000000001
 43
0.00000001
 40
0.0
 40
0.0
 40
0.0
 40
0.0
 40
0.2500000000000039
 40
0.2500000000000039
 40
0.5000000000000078
 40
0.5000000000000078
 40
1.0
 40
1.0
 40
1.0
 40
1.0
 10
9.949999999999834
 20
-43.76943596849305
 30
0.0
 10
9.850030395358797
 20
-43.76943596849308
 30
0.0
 10
9.750114974766216
 20
-43.79051518316424
 30
0.0
 10
9.565507057761256
 20
-43.87194262843707
 30
0.0
 10
9.482715011846734
 20
-43.93126060501224
 30
0.0
 10
9.276579660402879
 20
-44.15080408372874
 30
0.0
 10
9.200000000000028
 20
-44.35163254795803
 30
0.0
 10
9.199999999999985
 20
-44.55102159322499
 30
0.0
  0
SPLINE
  5
258
330
1F
100
AcDbEntity
  8
1
  6
SLD-Dashed
370
    18
100
AcDbSpline
210
0.0
220
0.0
230
1.0
 70
     8
 71
     3
 72
     8
 73
     4
 74
     0
 42
0.000000001
 43
0.00000001
 40
0.0
 40
0.0
 40
0.0
 40
0.0
 40
1.0
 40
1.0
 40
1.0
 40
1.0
 10
9.199999999999985
 20
-44.57901066343648
 30
0.0
 10
8.664408048367864
 20
-45.54503249842017
 30
0.0
 10
8.12777499546441
 20
-46.51049654710808
 30
0.0
 10
7.590276606597349
 20
-47.47548419974248
 30
0.0
  0
SPLINE
  5
259
330
1F
100
AcDbEntity
  8
SK3
  6
SLD-Dashed
370
    18
100
AcDbSpline
210
0.0
220
0.0
230
1.0
 70
     8
 71
     3
 72
    34
 73
    30
 74
     0
 42
0.000000001
 43
0.00000001
 40
0.5000000000000003
 40
0.5000000000000003
 40
0.5000000000000003
 40
0.5000000000000003
 40
0.5625000000000013
 40
0.5625000000000013
 40
0.5937500000000011
 40
0.5937500000000011
 40
0.625000000000001
 40
0.625000000000001
 40
0.6562500000000009
 40
0.6562500000000009
 40
0.6875000000000008
 40
0.6875000000000008
 40
0.7187500000000007
 40
0.7187500000000007
 40
0.7500000000000004
 40
0.7500000000000004
 40
0.7812500000000003
 40
0.7812500000000003
 40
0.8125000000000002
 40
0.8125000000000002
 40
0.8437500000000001
 40
0.8437500000000001
 40
0.875
 40
0.875
 40
0.9062499999999999
 40
0.9062499999999999
 40
0.9374999999999997
 40
0.9374999999999997
 40
1.0
 40
1.0
 40
1.0
 40
1.0
 10
10.60808274902045
 20
14.67518531385664
 30
0.0
 10
10.7714399435272
 20
14.66271400222904
 30
0.0
 10
10.9539607682107
 20
14.63137977172279
 30
0.0
 10
11.25812245907616
 20
14.54691770596562
 30
0.0
 10
11.36641585866906
 20
14.51171888144389
 30
0.0
 10
11.58574352105281
 20
14.42634662926307
 30
0.0
 10
11.69715944869879
 20
14.37625545607606
 30
0.0
 10
11.9211718066789
 20
14.25483711630821
 30
0.0
 10
12.02893523597723
 20
14.18587333985283
 30
0.0
 10
12.22961030853027
 20
14.02983333564747
 30
0.0
 10
12.3226774283587
 20
13.94226901556095
 30
0.0
 10
12.48372543018651
 20
13.75415019217112
 30
0.0
 10
12.553660539161
 20
13.65130323099262
 30
0.0
 10
12.66489321927142
 20
13.43691773984447
 30
0.0
 10
12.70717730188428
 20
13.32435113894572
 30
0.0
 10
12.76326417564931
 20
13.08988167819453
 30
0.0
 10
12.7763551192606
 20
12.97149039057748
 30
0.0
 10
12.77342672652903
 20
12.73211084337571
 30
0.0
 10
12.75684979458239
 20
12.61060743991048
 30
0.0
 10
12.69552150102995
 20
12.37773497196915
 30
0.0
 10
12.65033349294085
 20
12.26373909474826
 30
0.0
 10
12.53298957942556
 20
12.04909612932804
 30
0.0
 10
12.4621453620085
 20
11.95022400081661
 30
0.0
 10
12.29651277322139
 20
11.77143410287179
 30
0.0
 10
12.20150676240368
 20
11.69219588739501
 30
0.0
 10
11.99926684334574
 20
11.56533020093842
 30
0.0
 10
11.88885801145315
 20
11.5158749716928
 30
0.0
 10
11.55399205333034
 20
11.42069275726627
 30
0.0
 10
11.32716468948124
 20
11.42871083881324
 30
0.0
 10
11.12500000000001
 20
11.48273236161758
 30
0.0
  0
SPLINE
  5
25A
330
1F
100
AcDbEntity
  8
SK3
  6
SLD-Dashed
370
    18
100
AcDbSpline
210
0.0
220
0.0
230
1.0
 70
     8
 71
     3
 72
    30
 73
    26
 74
     0
 42
0.000000001
 43
0.00000001
 40
0.0
 40
0.0
 40
0.0
 40
0.0
 40
0.0624999999999997
 40
0.0624999999999997
 40
0.1249999999999995
 40
0.1249999999999995
 40
0.1562499999999993
 40
0.1562499999999993
 40
0.1874999999999992
 40
0.1874999999999992
 40
0.2187499999999991
 40
0.2187499999999991
 40
0.2499999999999989
 40
0.2499999999999989
 40
0.2812499999999988
 40
0.2812499999999988
 40
0.3124999999999987
 40
0.3124999999999987
 40
0.3437499999999986
 40
0.3437499999999986
 40
0.3749999999999984
 40
0.3749999999999984
 40
0.4374999999999994
 40
0.4374999999999994
 40
0.5000000000000003
 40
0.5000000000000003
 40
0.5000000000000003
 40
0.5000000000000003
 10
11.12500000000001
 20
11.48273236161759
 30
0.0
 10
10.92283531051877
 20
11.53675388442192
 30
0.0
 10
10.74714710048236
 20
11.63024516394927
 30
0.0
 10
10.42066988662171
 20
11.86454434722232
 30
0.0
 10
10.27375737476434
 20
12.0040738428721
 30
0.0
 10
10.07148943268484
 20
12.24177839203631
 30
0.0
 10
10.00699015299672
 20
12.32609339770681
 30
0.0
 10
9.883509956371176
 20
12.50701007175132
 30
0.0
 10
9.824268573097845
 20
12.60415729348404
 30
0.0
 10
9.71515470609033
 20
12.80934651131552
 30
0.0
 10
9.664396735733465
 20
12.91903622889809
 30
0.0
 10
9.576981863499118
 20
13.14891853741638
 30
0.0
 10
9.540303532497491
 20
13.26831266228053
 30
0.0
 10
9.487704529938009
 20
13.52080982106196
 30
0.0
 10
9.473745253197983
 20
13.64846695671307
 30
0.0
 10
9.476438089560556
 20
13.88700257856813
 30
0.0
 10
9.49319789642801
 20
13.99682053671475
 30
0.0
 10
9.549353346861217
 20
14.18374939795271
 30
0.0
 10
9.58858947784802
 20
14.26231510462442
 30
0.0
 10
9.678480018824306
 20
14.39201189392008
 30
0.0
 10
9.730204466999181
 20
14.44496665500975
 30
0.0
 10
9.89634859518447
 20
14.57471258814563
 30
0.0
 10
10.02083275682618
 20
14.62455209347292
 30
0.0
 10
10.29708420272973
 20
14.68178062150165
 30
0.0
 10
10.4447255545137
 20
14.68765662548424
 30
0.0
 10
10.60808274902045
 20
14.67518531385664
 30
0.0
  0
DIMENSION
  5
25B
330
1F
100
AcDbEntity
  8
2
100
AcDbDimension
  2
_D
 10
203.2
 20
85.3224800592
 30
0.0
 11
72.1874789125
 21
85.3224800592
 31
0.0
 70
   160
  1
<>
 71
     2
 42
-1.0
  3
SLDDIMSTYLE0
100
AcDbAlignedDimension
 13
0.0
 23
34.925
 33
0.0
 14
203.2
 24
21.082
 34
0.0
 50
0.0
100
AcDbRotatedDimension
  0
DIMENSION
  5
270
330
1F
100
AcDbEntity
  8
SK2
100
AcDbDimension
  2
_D_1
 10
203.2
 20
71.5632540277
 30
0.0
 11
93.5299506262
 21
71.5632540277
 31
0.0
 70
   160
  1
<>
 71
     2
 42
-1.0
  3
SLDDIMSTYLE0
100
AcDbAlignedDimension
 13
19.05
 23
46.5560855313
 33
0.0
 14
203.2
 24
21.082
 34
0.0
100
AcDbRotatedDimension
  0
DIMENSION
  5
283
330
1F
100
AcDbEntity
  8
SK2
100
AcDbDimension
  2
_D_2
 10
203.2
 20
57.4663706223
 30
0.0
 11
130.0784259262
 21
57.4663706223
 31
0.0
 70
   160
  1
<>
 71
     2
 42
-1.0
  3
SLDDIMSTYLE0
100
AcDbAlignedDimension
 13
35.1
 23
33.401
 33
0.0
 14
203.2
 24
21.082
 34
0.0
 50
0.0
100
AcDbRotatedDimension
  0
DIMENSION
  5
296
330
1F
100
AcDbEntity
  8
SK2
100
AcDbDimension
  2
_D_3
 10
203.2
 20
44.5683141939
 30
0.0
 11
187.0750181462
 21
44.5683141939
 31
0.0
 70
   160
  1
<>
 71
     2
 42
-1.0
  3
SLDDIMSTYLE0
100
AcDbAlignedDimension
 13
174.625
 23
31.65
 33
0.0
 14
203.2
 24
21.082
 34
0.0
100
AcDbRotatedDimension
  0
DIMENSION
  5
2A9
330
1F
100
AcDbEntity
  8
SK2
100
AcDbDimension
  2
_D_4
 10
174.625
 20
44.5683141939
 30
0.0
 11
160.9622658887
 21
44.5683141939
 31
0.0
 70
   160
  1
<>
 71
     2
 42
-1.0
  3
SLDDIMSTYLE0
100
AcDbAlignedDimension
 13
149.225
 23
31.65
 33
0.0
 14
174.625
 24
31.65
 34
0.0
100
AcDbRotatedDimension
  0
DIMENSION
  5
2BC
330
1F
100
AcDbEntity
  8
SK2
100
AcDbDimension
  2
_D_5
 10
0.0
 20
71.5632540277
 30
0.0
 11
10.0892372841
 21
71.5632540277
 31
0.0
 70
   160
  1
<>
 71
     2
 42
-1.0
  3
SLDDIMSTYLE1
100
AcDbAlignedDimension
 13
19.05
 23
35.687
 33
0.0
 14
0.0
 24
34.925
 34
0.0
100
AcDbRotatedDimension
  0
DIMENSION
  5
2C7
330
1F
100
AcDbEntity
  8
SK2
100
AcDbDimension
  2
_D_6
 10
222.637589232
 20
15.875
 30
0.0
 11
222.637589232
 21
-0.244720336
 31
0.0
 70
   160
  1
%%c<>
 71
     2
 42
-1.0
  3
SLDDIMSTYLE2
100
AcDbAlignedDimension
 13
201.7
 23
-15.875
 33
0.0
 14
201.7
 24
15.875
 34
0.0
 50
90.0
100
AcDbRotatedDimension
  0
DIMENSION
  5
2DA
330
1F
100
AcDbEntity
  8
SK2
100
AcDbDimension
  2
_D_7
 10
238.053421936
 20
-21.082
 30
0.0
 11
238.053421936
 21
1.8648146656
 31
0.0
 70
   160
  1
%%c<>
 71
     2
 42
-1.0
  3
SLDDIMSTYLE0
100
AcDbAlignedDimension
 13
203.2
 23
21.082
 33
0.0
 14
203.2
 24
-21.082
 34
0.0
 50
90.0
100
AcDbRotatedDimension
  0
DIMENSION
  5
2EC
330
1F
100
AcDbEntity
  8
SK2
100
AcDbDimension
  2
_D_8
 10
253.9560704098
 20
-31.75
 30
0.0
 11
253.9560704098
 21
1.8648146656
 31
0.0
 70
   160
  1
%%c<>
 71
     2
 42
-1.0
  3
SLDDIMSTYLE0
100
AcDbAlignedDimension
 13
192.532
 23
31.75
 33
0.0
 14
192.532
 24
-31.75
 34
0.0
 50
90.0
100
AcDbRotatedDimension
  0
DIMENSION
  5
2FE
330
1F
100
AcDbEntity
  8
SK2
100
AcDbDimension
  2
_D_9
 10
203.2
 20
-69.8179316996
 30
0.0
 11
58.7897523584
 21
-69.8179316996
 31
0.0
 70
   160
  1
<>
 71
     2
 42
-1.0
  3
SLDDIMSTYLE0
100
AcDbAlignedDimension
 13
-101.6
 23
-18.2922326599
 33
0.0
 14
203.2
 24
-21.082
 34
0.0
 50
0.0
100
AcDbRotatedDimension
  0
DIMENSION
  5
311
330
1F
100
AcDbEntity
  8
SK2
100
AcDbDimension
  2
_D_10
 10
203.2
 20
-58.8735902022
 30
0.0
 11
165.6843298736
 21
-58.8735902022
 31
0.0
 70
   160
  1
<>
 71
     2
 42
-1.0
  3
SLDDIMSTYLE0
100
AcDbAlignedDimension
 13
143.51
 23
-15.9175
 33
0.0
 14
203.2
 24
-21.082
 34
0.0
 50
0.0
100
AcDbRotatedDimension
  0
DIMENSION
  5
324
330
1F
100
AcDbEntity
  8
SK2
100
AcDbDimension
  2
_D_11
 10
192.532
 20
-49.1544628284
 30
0.0
 11
187.0750181462
 21
-49.1544628284
 31
0.0
 70
   160
  1
<>
 71
     2
 42
-1.0
  3
SLDDIMSTYLE3
100
AcDbAlignedDimension
 13
203.2
 23
-16.7336733566
 33
0.0
 14
192.532
 24
-31.75
 34
0.0
100
AcDbRotatedDimension
  0
DIMENSION
  5
331
330
1F
100
AcDbEntity
  8
SK2
100
AcDbDimension
  2
_D_12
 10
-120.2197948011
 20
-47.4754841997
 30
0.0
 11
-120.2197948011
 21
-0.244720336
 31
0.0
 70
   160
  1
%%c<>
 71
     2
 42
-1.0
  3
SLDDIMSTYLE1
100
AcDbAlignedDimension
 13
5.7701383033
 23
47.2968145978
 33
0.0
 14
3.95
 24
-47.4754841997
 34
0.0
 50
90.0
100
AcDbRotatedDimension
  0
DIMENSION
  5
33C
330
1F
100
AcDbEntity
  8
SK2
100
AcDbDimension
  2
_D_13
 10
-110.0367696382
 20
12.6999998465
 30
0.0
 11
-110.0367696382
 21
-0.244720336
 31
0.0
 70
   160
  1
<>
 71
     2
 42
-1.0
  3
SLDDIMSTYLE1
100
AcDbAlignedDimension
 13
-94.967097044
 23
-12.6999998465
 33
0.0
 14
-94.967097044
 24
12.6999998465
 34
0.0
 50
90.0
100
AcDbRotatedDimension
  0
MTEXT
  5
347
330
1F
100
AcDbEntity
  8
SK6
 62
     5
100
AcDbMText
 10
-46.7989930408
 20
-38.748237356
 30
0.0
 40
3.5
 41
0.0
 71
     1
 72
     1
  1
AA3B20-50 32 203
  7
SLDTEXTSTYLE0
 73
     1
 44
1.0
  0
MTEXT
  5
348
330
1F
100
AcDbEntity
  8
SK6
 62
     5
100
AcDbMText
 10
-50.5256179417
 20
42.2409101678
 30
0.0
 40
3.5
 41
0.0
 71
     1
 72
     1
  1
ASME B5.50 CAT 50
  7
SLDTEXTSTYLE0
 73
     1
 44
1.0
  0
ENDSEC
  0
SECTION
  2
OBJECTS
  0
DICTIONARY
  5
C
330
0
100
AcDbDictionary
281
     1
  3
ACAD_GROUP
350
D
  3
ACAD_LAYOUT
350
1A
  3
ACAD_MLINESTYLE
350
17
  3
ACAD_PLOTSETTINGS
350
19
  3
ACAD_PLOTSTYLENAME
350
E
  3
ACAD_SCALELIST
350
47
  0
DICTIONARY
  5
D
102
{ACAD_REACTORS
330
C
102
}
330
C
100
AcDbDictionary
281
     1
  0
DICTIONARY
  5
1A
102
{ACAD_REACTORS
330
C
102
}
330
C
100
AcDbDictionary
281
     1
  3
Layout1
350
1E
  3
Layout2
350
26
  3
Model
350
22
  0
DICTIONARY
  5
17
102
{ACAD_REACTORS
330
C
102
}
330
C
100
AcDbDictionary
281
     1
  3
Standard
350
18
  0
DICTIONARY
  5
19
102
{ACAD_REACTORS
330
C
102
}
330
C
100
AcDbDictionary
281
     1
  0
ACDBDICTIONARYWDFLT
  5
E
102
{ACAD_REACTORS
330
C
102
}
330
C
100
AcDbDictionary
281
     1
  3
Normal
350
F
100
AcDbDictionaryWithDefault
340
F
  0
DICTIONARY
  5
47
102
{ACAD_REACTORS
330
C
102
}
330
C
100
AcDbDictionary
281
     1
  3
A0
350
48
  3
A1
350
49
  3
A2
350
4A
  3
A3
350
4B
  3
A4
350
4C
  3
A5
350
4D
  3
A6
350
4E
  3
A7
350
4F
  3
A8
350
50
  3
A9
350
51
  3
B0
350
52
  3
B1
350
53
  3
B2
350
54
  3
B3
350
55
  3
B4
350
56
  3
B5
350
57
  3
B6
350
58
  3
B7
350
59
  3
B8
350
5A
  3
B9
350
5B
  3
C0
350
5C
  3
C1
350
5D
  3
C2
350
5E
  3
C3
350
5F
  3
C4
350
60
  3
C5
350
61
  3
C6
350
62
  3
C7
350
63
  3
C8
350
64
  3
C9
350
65
  3
D0
350
66
  3
D1
350
67
  3
D2
350
68
  0
LAYOUT
  5
1E
102
{ACAD_REACTORS
330
1A
102
}
330
1A
100
AcDbPlotSettings
  1

  2
none_device
  4

  6

 40
0.0
 41
0.0
 42
0.0
 43
0.0
 44
0.0
 45
0.0
 46
0.0
 47
0.0
 48
0.0
 49
0.0
140
0.0
141
0.0
142
1.0
143
1.0
 70
   688
 72
     1
 73
     0
 74
     5
  7

 75
    16
147
1.0
148
0.0
149
0.0
100
AcDbLayout
  1
Layout1
 70
     1
 71
     1
 10
0.0
 20
0.0
 11
420.0
 21
297.0
 12
0.0
 22
0.0
 32
0.0
 14
1.0000000000E+20
 24
1.0000000000E+20
 34
1.0000000000E+20
 15
-1.0000000000E+20
 25
-1.0000000000E+20
 35
-1.0000000000E+20
146
0.0
 13
0.0
 23
0.0
 33
0.0
 16
1.0
 26
0.0
 36
0.0
 17
0.0
 27
1.0
 37
0.0
 76
     0
330
1B
  0
LAYOUT
  5
26
102
{ACAD_REACTORS
330
1A
102
}
330
1A
100
AcDbPlotSettings
  1

  2
none_device
  4

  6

 40
0.0
 41
0.0
 42
0.0
 43
0.0
 44
0.0
 45
0.0
 46
0.0
 47
0.0
 48
0.0
 49
0.0
140
0.0
141
0.0
142
1.0
143
1.0
 70
   688
 72
     1
 73
     0
 74
     5
  7

 75
    16
147
1.0
148
0.0
149
0.0
100
AcDbLayout
  1
Layout2
 70
     1
 71
     2
 10
0.0
 20
0.0
 11
0.0
 21
0.0
 12
0.0
 22
0.0
 32
0.0
 14
0.0
 24
0.0
 34
0.0
 15
0.0
 25
0.0
 35
0.0
146
0.0
 13
0.0
 23
0.0
 33
0.0
 16
1.0
 26
0.0
 36
0.0
 17
0.0
 27
1.0
 37
0.0
 76
     0
330
23
  0
LAYOUT
  5
22
102
{ACAD_REACTORS
330
1A
102
}
330
1A
100
AcDbPlotSettings
  1

  2
none_device
  4
Letter_(8.50_x_11.00_Inches)
  6

 40
6.35
 41
6.35
 42
6.35000508
 43
6.35000508
 44
215.9
 45
279.4
 46
0.0
 47
0.0
 48
0.0
 49
0.0
140
0.0
141
0.0
142
1.0
143
1.0
 70
  1712
 72
     1
 73
     0
 74
     0
  7

 75
     0
147
1.0
148
0.0
149
0.0
100
AcDbLayout
  1
Model
 70
     1
 71
     0
 10
0.0
 20
0.0
 11
297.0
 21
210.0
 12
0.0
 22
0.0
 32
0.0
 14
0.0
 24
0.0
 34
0.0
 15
297.0
 25
210.0
 35
0.0
146
0.0
 13
0.0
 23
0.0
 33
0.0
 16
1.0
 26
0.0
 36
0.0
 17
0.0
 27
1.0
 37
0.0
 76
     0
330
1F
331
29
  0
MLINESTYLE
  5
18
102
{ACAD_REACTORS
330
17
102
}
330
17
100
AcDbMlineStyle
  2
Standard
 70
     0
  3

 62
   256
 51
90.0
 52
90.0
 71
     2
 49
0.5
 62
   256
  6
BYLAYER
 49
-0.5
 62
   256
  6
BYLAYER
  0
ACDBPLACEHOLDER
  5
F
102
{ACAD_REACTORS
330
E
102
}
330
E
  0
SCALE
  5
48
102
{ACAD_REACTORS
330
47
102
}
330
47
100
AcDbScale
 70
     0
300
1:1
140
1.0
141
1.0
290
     1
  0
SCALE
  5
49
102
{ACAD_REACTORS
330
47
102
}
330
47
100
AcDbScale
 70
     0
300
1:2
140
1.0
141
2.0
290
     0
  0
SCALE
  5
4A
102
{ACAD_REACTORS
330
47
102
}
330
47
100
AcDbScale
 70
     0
300
1:4
140
1.0
141
4.0
290
     0
  0
SCALE
  5
4B
102
{ACAD_REACTORS
330
47
102
}
330
47
100
AcDbScale
 70
     0
300
1:5
140
1.0
141
5.0
290
     0
  0
SCALE
  5
4C
102
{ACAD_REACTORS
330
47
102
}
330
47
100
AcDbScale
 70
     0
300
1:8
140
1.0
141
8.0
290
     0
  0
SCALE
  5
4D
102
{ACAD_REACTORS
330
47
102
}
330
47
100
AcDbScale
 70
     0
300
1:10
140
1.0
141
10.0
290
     0
  0
SCALE
  5
4E
102
{ACAD_REACTORS
330
47
102
}
330
47
100
AcDbScale
 70
     0
300
1:16
140
1.0
141
16.0
290
     0
  0
SCALE
  5
4F
102
{ACAD_REACTORS
330
47
102
}
330
47
100
AcDbScale
 70
     0
300
1:20
140
1.0
141
20.0
290
     0
  0
SCALE
  5
50
102
{ACAD_REACTORS
330
47
102
}
330
47
100
AcDbScale
 70
     0
300
1:30
140
1.0
141
30.0
290
     0
  0
SCALE
  5
51
102
{ACAD_REACTORS
330
47
102
}
330
47
100
AcDbScale
 70
     0
300
1:40
140
1.0
141
40.0
290
     0
  0
SCALE
  5
52
102
{ACAD_REACTORS
330
47
102
}
330
47
100
AcDbScale
 70
     0
300
1:50
140
1.0
141
50.0
290
     0
  0
SCALE
  5
53
102
{ACAD_REACTORS
330
47
102
}
330
47
100
AcDbScale
 70
     0
300
1:100
140
1.0
141
100.0
290
     0
  0
SCALE
  5
54
102
{ACAD_REACTORS
330
47
102
}
330
47
100
AcDbScale
 70
     0
300
2:1
140
2.0
141
1.0
290
     0
  0
SCALE
  5
55
102
{ACAD_REACTORS
330
47
102
}
330
47
100
AcDbScale
 70
     0
300
4:1
140
4.0
141
1.0
290
     0
  0
SCALE
  5
56
102
{ACAD_REACTORS
330
47
102
}
330
47
100
AcDbScale
 70
     0
300
8:1
140
8.0
141
1.0
290
     0
  0
SCALE
  5
57
102
{ACAD_REACTORS
330
47
102
}
330
47
100
AcDbScale
 70
     0
300
10:1
140
10.0
141
1.0
290
     0
  0
SCALE
  5
58
102
{ACAD_REACTORS
330
47
102
}
330
47
100
AcDbScale
 70
     0
300
100:1
140
100.0
141
1.0
290
     0
  0
SCALE
  5
59
102
{ACAD_REACTORS
330
47
102
}
330
47
100
AcDbScale
 70
     0
300
1/128" = 1'-0"
140
0.0078125
141
12.0
290
     0
  0
SCALE
  5
5A
102
{ACAD_REACTORS
330
47
102
}
330
47
100
AcDbScale
 70
     0
300
1/64" = 1'-0"
140
0.015625
141
12.0
290
     0
  0
SCALE
  5
5B
102
{ACAD_REACTORS
330
47
102
}
330
47
100
AcDbScale
 70
     0
300
1/32" = 1'-0"
140
0.03125
141
12.0
290
     0
  0
SCALE
  5
5C
102
{ACAD_REACTORS
330
47
102
}
330
47
100
AcDbScale
 70
     0
300
1/16" = 1'-0"
140
0.0625
141
12.0
290
     0
  0
SCALE
  5
5D
102
{ACAD_REACTORS
330
47
102
}
330
47
100
AcDbScale
 70
     0
300
3/32" = 1'-0"
140
0.09375
141
12.0
290
     0
  0
SCALE
  5
5E
102
{ACAD_REACTORS
330
47
102
}
330
47
100
AcDbScale
 70
     0
300
1/8" = 1'-0"
140
0.125
141
12.0
290
     0
  0
SCALE
  5
5F
102
{ACAD_REACTORS
330
47
102
}
330
47
100
AcDbScale
 70
     0
300
3/16" = 1'-0"
140
0.1875
141
12.0
290
     0
  0
SCALE
  5
60
102
{ACAD_REACTORS
330
47
102
}
330
47
100
AcDbScale
 70
     0
300
1/4" = 1'-0"
140
0.25
141
12.0
290
     0
  0
SCALE
  5
61
102
{ACAD_REACTORS
330
47
102
}
330
47
100
AcDbScale
 70
     0
300
3/8" = 1'-0"
140
0.375
141
12.0
290
     0
  0
SCALE
  5
62
102
{ACAD_REACTORS
330
47
102
}
330
47
100
AcDbScale
 70
     0
300
1/2" = 1'-0"
140
0.5
141
12.0
290
     0
  0
SCALE
  5
63
102
{ACAD_REACTORS
330
47
102
}
330
47
100
AcDbScale
 70
     0
300
3/4" = 1'-0"
140
0.75
141
12.0
290
     0
  0
SCALE
  5
64
102
{ACAD_REACTORS
330
47
102
}
330
47
100
AcDbScale
 70
     0
300
1" = 1'-0"
140
1.0
141
12.0
290
     0
  0
SCALE
  5
65
102
{ACAD_REACTORS
330
47
102
}
330
47
100
AcDbScale
 70
     0
300
1-1/2" = 1'-0"
140
1.5
141
12.0
290
     0
  0
SCALE
  5
66
102
{ACAD_REACTORS
330
47
102
}
330
47
100
AcDbScale
 70
     0
300
3" = 1'-0"
140
3.0
141
12.0
290
     0
  0
SCALE
  5
67
102
{ACAD_REACTORS
330
47
102
}
330
47
100
AcDbScale
 70
     0
300
6" = 1'-0"
140
6.0
141
12.0
290
     0
  0
SCALE
  5
68
102
{ACAD_REACTORS
330
47
102
}
330
47
100
AcDbScale
 70
     0
300
1'-0" = 1'-0"
140
12.0
141
12.0
290
     0
  0
ENDSEC
  0
EOF
