  0
SECTION
  2
HEADER
  9
$ACADVER
  1
AC1015
  9
$ACADMAINTVER
 70
     6
  9
$DWGCODEPAGE
  3
ANSI_1250
  9
$INSBASE
 10
0.0
 20
0.0
 30
0.0
  9
$EXTMIN
 10
0.0
 20
0.0
 30
0.0
  9
$EXTMAX
 10
297.0
 20
210.0
 30
0.0
  9
$LIMMIN
 10
0.0
 20
0.0
  9
$LIMMAX
 10
297.0
 20
210.0
  9
$ORTHOMODE
 70
     0
  9
$REGENMODE
 70
     1
  9
$FILLMODE
 70
     1
  9
$QTEXTMODE
 70
     0
  9
$MIRRTEXT
 70
     1
  9
$LTSCALE
 40
1.0
  9
$ATTMODE
 70
     1
  9
$TEXTSIZE
 40
3.5
  9
$TRACEWID
 40
1.0
  9
$TEXTSTYLE
  7
Standard
  9
$CLAYER
  8
0
  9
$CELTYPE
  6
ByLayer
  9
$CECOLOR
 62
   256
  9
$CELTSCALE
 40
1.0
  9
$DISPSILH
 70
     0
  9
$DIMSCALE
 40
1.0
  9
$DIMASZ
 40
3.302
  9
$DIMEXO
 40
1.0
  9
$DIMDLI
 40
3.75
  9
$DIMRND
 40
0.0
  9
$DIMDLE
 40
0.0
  9
$DIMEXE
 40
1.0
  9
$DIMTP
 40
0.0
  9
$DIMTM
 40
0.0
  9
$DIMTXT
 40
3.5
  9
$DIMCEN
 40
2.5
  9
$DIMTSZ
 40
0.0
  9
$DIMTOL
 70
     0
  9
$DIMLIM
 70
     0
  9
$DIMTIH
 70
     1
  9
$DIMTOH
 70
     1
  9
$DIMSE1
 70
     0
  9
$DIMSE2
 70
     0
  9
$DIMTAD
 70
     1
  9
$DIMZIN
 70
     0
  9
$DIMBLK
  1

  9
$DIMASO
 70
     1
  9
$DIMSHO
 70
     1
  9
$DIMPOST
  1

  9
$DIMAPOST
  1

  9
$DIMALT
 70
     0
  9
$DIMALTD
 70
     3
  9
$DIMALTF
 40
0.0393700787
  9
$DIMLFAC
 40
1.0
  9
$DIMTOFL
 70
     1
  9
$DIMTVP
 40
0.0
  9
$DIMTIX
 70
     0
  9
$DIMSOXD
 70
     0
  9
$DIMSAH
 70
     0
  9
$DIMBLK1
  1

  9
$DIMBLK2
  1

  9
$DIMSTYLE
  2
ISO-25
  9
$DIMCLRD
 70
     0
  9
$DIMCLRE
 70
     0
  9
$DIMCLRT
 70
     0
  9
$DIMTFAC
 40
1.0
  9
$DIMGAP
 40
1.524
  9
$DIMJUST
 70
     0
  9
$DIMSD1
 70
     0
  9
$DIMSD2
 70
     0
  9
$DIMTOLJ
 70
     0
  9
$DIMTZIN
 70
     0
  9
$DIMALTZ
 70
     0
  9
$DIMALTTZ
 70
     0
  9
$DIMUPT
 70
     0
  9
$DIMDEC
 70
     2
  9
$DIMTDEC
 70
     2
  9
$DIMALTU
 70
     2
  9
$DIMALTTD
 70
     3
  9
$DIMTXSTY
  7
Standard
  9
$DIMAUNIT
 70
     0
  9
$DIMADEC
 70
     2
  9
$DIMALTRND
 40
0.0
  9
$DIMAZIN
 70
     0
  9
$DIMDSEP
 70
    44
  9
$DIMATFIT
 70
     3
  9
$DIMFRAC
 70
     0
  9
$DIMLDRBLK
  1

  9
$DIMLUNIT
 70
     2
  9
$DIMLWD
 70
    -2
  9
$DIMLWE
 70
    -2
  9
$DIMTMOVE
 70
     0
  9
$LUNITS
 70
     2
  9
$LUPREC
 70
     2
  9
$SKETCHINC
 40
1.0
  9
$FILLETRAD
 40
10.0
  9
$AUNITS
 70
     0
  9
$AUPREC
 70
     2
  9
$MENU
  1
.
  9
$ELEVATION
 40
0.0
  9
$PELEVATION
 40
0.0
  9
$THICKNESS
 40
0.0
  9
$LIMCHECK
 70
     0
  9
$CHAMFERA
 40
0.0
  9
$CHAMFERB
 40
0.0
  9
$CHAMFERC
 40
0.0
  9
$CHAMFERD
 40
0.0
  9
$SKPOLY
 70
     0
  9
$TDCREATE
 40
2459278.336907199
  9
$TDUCREATE
 40
2459278.295240533
  9
$TDUPDATE
 40
2459278.336908935
  9
$TDUUPDATE
 40
2459278.295242269
  9
$TDINDWG
 40
0.0000000116
  9
$TDUSRTIMER
 40
0.0000000116
  9
$USRTIMER
 70
     1
  9
$ANGBASE
 50
0.0
  9
$ANGDIR
 70
     0
  9
$PDMODE
 70
     0
  9
$PDSIZE
 40
-1.0
  9
$PLINEWID
 40
0.0
  9
$SPLFRAME
 70
     0
  9
$SPLINETYPE
 70
     6
  9
$SPLINESEGS
 70
     8
  9
$HANDSEED
  5
37B
  9
$SURFTAB1
 70
     6
  9
$SURFTAB2
 70
     6
  9
$SURFTYPE
 70
     6
  9
$SURFU
 70
     6
  9
$SURFV
 70
     6
  9
$UCSBASE
  2

  9
$UCSNAME
  2

  9
$UCSORG
 10
0.0
 20
0.0
 30
0.0
  9
$UCSXDIR
 10
1.0
 20
0.0
 30
0.0
  9
$UCSYDIR
 10
0.0
 20
1.0
 30
0.0
  9
$UCSORTHOREF
  2

  9
$UCSORTHOVIEW
 70
     0
  9
$UCSORGTOP
 10
0.0
 20
0.0
 30
0.0
  9
$UCSORGBOTTOM
 10
0.0
 20
0.0
 30
0.0
  9
$UCSORGLEFT
 10
0.0
 20
0.0
 30
0.0
  9
$UCSORGRIGHT
 10
0.0
 20
0.0
 30
0.0
  9
$UCSORGFRONT
 10
0.0
 20
0.0
 30
0.0
  9
$UCSORGBACK
 10
0.0
 20
0.0
 30
0.0
  9
$PUCSBASE
  2

  9
$PUCSNAME
  2

  9
$PUCSORG
 10
0.0
 20
0.0
 30
0.0
  9
$PUCSXDIR
 10
1.0
 20
0.0
 30
0.0
  9
$PUCSYDIR
 10
0.0
 20
1.0
 30
0.0
  9
$PUCSORTHOREF
  2

  9
$PUCSORTHOVIEW
 70
     0
  9
$PUCSORGTOP
 10
0.0
 20
0.0
 30
0.0
  9
$PUCSORGBOTTOM
 10
0.0
 20
0.0
 30
0.0
  9
$PUCSORGLEFT
 10
0.0
 20
0.0
 30
0.0
  9
$PUCSORGRIGHT
 10
0.0
 20
0.0
 30
0.0
  9
$PUCSORGFRONT
 10
0.0
 20
0.0
 30
0.0
  9
$PUCSORGBACK
 10
0.0
 20
0.0
 30
0.0
  9
$USERI1
 70
     0
  9
$USERI2
 70
     0
  9
$USERI3
 70
     0
  9
$USERI4
 70
     0
  9
$USERI5
 70
     0
  9
$USERR1
 40
0.0
  9
$USERR2
 40
0.0
  9
$USERR3
 40
0.0
  9
$USERR4
 40
0.0
  9
$USERR5
 40
0.0
  9
$WORLDVIEW
 70
     1
  9
$SHADEDGE
 70
     3
  9
$SHADEDIF
 70
    70
  9
$TILEMODE
 70
     1
  9
$MAXACTVP
 70
    64
  9
$PINSBASE
 10
0.0
 20
0.0
 30
0.0
  9
$PLIMCHECK
 70
     0
  9
$PEXTMIN
 10
1.0000000000E+20
 20
1.0000000000E+20
 30
1.0000000000E+20
  9
$PEXTMAX
 10
-1.0000000000E+20
 20
-1.0000000000E+20
 30
-1.0000000000E+20
  9
$PLIMMIN
 10
0.0
 20
0.0
  9
$PLIMMAX
 10
420.0
 20
297.0
  9
$UNITMODE
 70
     0
  9
$VISRETAIN
 70
     1
  9
$PLINEGEN
 70
     0
  9
$PSLTSCALE
 70
     1
  9
$TREEDEPTH
 70
  3020
  9
$CMLSTYLE
  2
Standard
  9
$CMLJUST
 70
     0
  9
$CMLSCALE
 40
20.0
  9
$PROXYGRAPHICS
 70
     1
  9
$MEASUREMENT
 70
     1
  9
$CELWEIGHT
370
    -1
  9
$ENDCAPS
280
     0
  9
$JOINSTYLE
280
     0
  9
$LWDISPLAY
290
     1
  9
$INSUNITS
 70
     4
  9
$HYPERLINKBASE
  1

  9
$STYLESHEET
  1

  9
$XEDIT
290
     1
  9
$CEPSNTYPE
380
     0
  9
$PSTYLEMODE
290
     1
  9
$FINGERPRINTGUID
  2
{6FF97D3A-7034-40AB-8186-70A47D3D0CC9}
  9
$VERSIONGUID
  2
{FAEB1C32-E019-11D5-929B-00C0DF256EC4}
  9
$EXTNAMES
290
     1
  9
$PSVPSCALE
 40
0.0
  9
$OLESTARTUP
290
     0
  0
ENDSEC
  0
SECTION
  2
CLASSES
  0
CLASS
  1
ACDBDICTIONARYWDFLT
  2
AcDbDictionaryWithDefault
  3
ObjectDBX Classes
 90
        0
280
     0
281
     0
  0
CLASS
  1
VISUALSTYLE
  2
AcDbVisualStyle
  3
ObjectDBX Classes
 90
     4095
280
     0
281
     0
  0
CLASS
  1
MATERIAL
  2
AcDbMaterial
  3
ObjectDBX Classes
 90
     1153
280
     0
281
     0
  0
CLASS
  1
SCALE
  2
AcDbScale
  3
ObjectDBX Classes
 90
     1153
280
     0
281
     0
  0
CLASS
  1
TABLESTYLE
  2
AcDbTableStyle
  3
ObjectDBX Classes
 90
     4095
280
     0
281
     0
  0
CLASS
  1
MLEADERSTYLE
  2
AcDbMLeaderStyle
  3
ACDB_MLEADERSTYLE_CLASS
 90
     4095
280
     0
281
     0
  0
CLASS
  1
SUN
  2
AcDbSun
  3
SCENEOE
 90
     1153
280
     0
281
     0
  0
CLASS
  1
ACDBPLACEHOLDER
  2
AcDbPlaceHolder
  3
ObjectDBX Classes
 90
        0
280
     0
281
     0
  0
CLASS
  1
LAYOUT
  2
AcDbLayout
  3
ObjectDBX Classes
 90
        0
280
     0
281
     0
  0
ENDSEC
  0
SECTION
  2
TABLES
  0
TABLE
  2
VPORT
  5
8
330
0
100
AcDbSymbolTable
 70
     1
  0
VPORT
  5
29
330
8
100
AcDbSymbolTableRecord
100
AcDbViewportTableRecord
  2
*Active
 70
     0
 10
0.0
 20
0.0
 11
1.0
 21
1.0
 12
148.5
 22
105.0
 13
0.0
 23
0.0
 14
10.0
 24
10.0
 15
10.0
 25
10.0
 16
0.0
 26
0.0
 36
1.0
 17
0.0
 27
0.0
 37
0.0
 40
210.0
 41
1.4142857143
 42
50.0
 43
0.0
 44
0.0
 50
0.0
 51
0.0
 71
     0
 72
  2000
 73
     1
 74
     3
 75
     0
 76
     0
 77
     0
 78
     0
281
     0
 65
     1
110
0.0
120
0.0
130
0.0
111
1.0
121
0.0
131
0.0
112
0.0
122
1.0
132
0.0
 79
     0
146
0.0
  0
ENDTAB
  0
TABLE
  2
LTYPE
  5
5
330
0
100
AcDbSymbolTable
 70
     8
  0
LTYPE
  5
14
330
5
100
AcDbSymbolTableRecord
100
AcDbLinetypeTableRecord
  2
ByBlock
 70
     0
  3

 72
    65
 73
     0
 40
0.0
  0
LTYPE
  5
15
330
5
100
AcDbSymbolTableRecord
100
AcDbLinetypeTableRecord
  2
ByLayer
 70
     0
  3

 72
    65
 73
     0
 40
0.0
  0
LTYPE
  5
16
330
5
100
AcDbSymbolTableRecord
100
AcDbLinetypeTableRecord
  2
Continuous
 70
     0
  3
Solid line
 72
    65
 73
     0
 40
0.0
  0
LTYPE
  5
6E
330
5
100
AcDbSymbolTableRecord
100
AcDbLinetypeTableRecord
  2
SLD-Solid
 70
     0
  3
SolidWorks Line Style
 72
    65
 73
     0
 40
0.0
  0
LTYPE
  5
6F
330
5
100
AcDbSymbolTableRecord
100
AcDbLinetypeTableRecord
  2
SLD-Dashed
 70
     0
  3
SolidWorks Line Style
 72
    65
 73
     2
 40
1.905
 49
1.27
 74
     0
 49
-0.635
 74
     0
  0
LTYPE
  5
70
330
5
100
AcDbSymbolTableRecord
100
AcDbLinetypeTableRecord
  2
SLD-Phantom
 70
     0
  3
SolidWorks Line Style
 72
    65
 73
     6
 40
12.7
 49
6.35
 74
     0
 49
-1.27
 74
     0
 49
1.27
 74
     0
 49
-1.27
 74
     0
 49
1.27
 74
     0
 49
-1.27
 74
     0
  0
LTYPE
  5
71
330
5
100
AcDbSymbolTableRecord
100
AcDbLinetypeTableRecord
  2
SLD-Chain
 70
     0
  3
SolidWorks Line Style
 72
    65
 73
     4
 40
10.16
 49
6.35
 74
     0
 49
-1.27
 74
     0
 49
1.27
 74
     0
 49
-1.27
 74
     0
  0
LTYPE
  5
72
330
5
100
AcDbSymbolTableRecord
100
AcDbLinetypeTableRecord
  2
SLD-Center
 70
     0
  3
SolidWorks Line Style
 72
    65
 73
     4
 40
19.05
 49
15.24
 74
     0
 49
-1.27
 74
     0
 49
1.27
 74
     0
 49
-1.27
 74
     0
  0
LTYPE
  5
73
330
5
100
AcDbSymbolTableRecord
100
AcDbLinetypeTableRecord
  2
SLD-Stitch
 70
     0
  3
SolidWorks Line Style
 72
    65
 73
     2
 40
0.635
 49
0.0
 74
     0
 49
-0.635
 74
     0
  0
LTYPE
  5
74
330
5
100
AcDbSymbolTableRecord
100
AcDbLinetypeTableRecord
  2
SLD-Thin-Thick-Chain
 70
     0
  3
SolidWorks Line Style
 72
    65
 73
     4
 40
10.16
 49
6.35
 74
     0
 49
-1.27
 74
     0
 49
1.27
 74
     0
 49
-1.27
 74
     0
  0
ENDTAB
  0
TABLE
  2
LAYER
  5
2
330
0
100
AcDbSymbolTable
 70
    14
  0
LAYER
  5
10
330
2
100
AcDbSymbolTableRecord
100
AcDbLayerTableRecord
  2
0
 70
     0
 62
     7
  6
Continuous
370
    -3
390
F
  0
LAYER
  5
75
330
2
100
AcDbSymbolTableRecord
100
AcDbLayerTableRecord
  2
SLD-0
 70
     0
 62
   179
  6
SLD-Solid
370
    -3
390
F
  0
LAYER
  5
76
330
2
100
AcDbSymbolTableRecord
100
AcDbLayerTableRecord
  2
80
 70
     0
 62
    -6
  6
SLD-Solid
290
     0
370
    -3
390
F
  0
LAYER
  5
77
330
2
100
AcDbSymbolTableRecord
100
AcDbLayerTableRecord
  2
81
 70
     0
 62
    -3
  6
SLD-Solid
290
     0
370
    -3
390
F
  0
LAYER
  5
78
330
2
100
AcDbSymbolTableRecord
100
AcDbLayerTableRecord
  2
1
 70
     0
 62
     4
  6
SLD-Solid
290
     0
370
    -3
390
F
  0
LAYER
  5
79
330
2
100
AcDbSymbolTableRecord
100
AcDbLayerTableRecord
  2
4
 70
     0
 62
    -2
  6
SLD-Chain
290
     0
370
    -3
390
F
  0
LAYER
  5
7A
330
2
100
AcDbSymbolTableRecord
100
AcDbLayerTableRecord
  2
2
 70
     0
 62
     7
  6
SLD-Solid
290
     0
370
    -3
390
F
  0
LAYER
  5
7B
330
2
100
AcDbSymbolTableRecord
100
AcDbLayerTableRecord
  2
SK3
 70
     0
 62
     1
  6
SLD-Dashed
290
     0
370
    -3
390
F
  0
LAYER
  5
7C
330
2
100
AcDbSymbolTableRecord
100
AcDbLayerTableRecord
  2
SK4
 70
     0
 62
     2
  6
SLD-Chain
290
     0
370
    -3
390
F
  0
LAYER
  5
7D
330
2
100
AcDbSymbolTableRecord
100
AcDbLayerTableRecord
  2
SK2
 70
     0
 62
     7
  6
SLD-Solid
290
     0
370
    -3
390
F
  0
LAYER
  5
7E
330
2
100
AcDbSymbolTableRecord
100
AcDbLayerTableRecord
  2
SK6
 70
     0
 62
     5
  6
SLD-Solid
290
     0
370
    -3
390
F
  0
LAYER
  5
7F
330
2
100
AcDbSymbolTableRecord
100
AcDbLayerTableRecord
  2
6
 70
     0
 62
     5
  6
SLD-Solid
370
    -3
390
F
  0
LAYER
  5
80
330
2
100
AcDbSymbolTableRecord
100
AcDbLayerTableRecord
  2
SK1
 70
     0
 62
     4
  6
SLD-Solid
370
    -3
390
F
  0
LAYER
  5
81
330
2
100
AcDbSymbolTableRecord
100
AcDbLayerTableRecord
  2
LAYER5
 70
     0
 62
   218
  6
SLD-Solid
370
    -3
390
F
  0
ENDTAB
  0
TABLE
  2
STYLE
  5
3
330
0
100
AcDbSymbolTable
 70
     3
  0
STYLE
  5
11
330
3
100
AcDbSymbolTableRecord
100
AcDbTextStyleTableRecord
  2
Standard
 70
     0
 40
0.0
 41
1.0
 50
0.0
 71
     0
 42
3.5
  3
txt
  4

  0
STYLE
  5
28B
330
3
100
AcDbSymbolTableRecord
100
AcDbTextStyleTableRecord
  2
SLDTEXTSTYLE0
 70
     0
 40
0.0
 41
0.75
 50
0.0
 71
     0
 42
3.5
  3
TXT
  4

  0
STYLE
  5
377
330
3
100
AcDbSymbolTableRecord
100
AcDbTextStyleTableRecord
  2
SLDTEXTSTYLE1
 70
     0
 40
0.0
 41
0.6666666667
 50
0.0
 71
     0
 42
3.5
  3
TXT
  4

  0
ENDTAB
  0
TABLE
  2
VIEW
  5
6
330
0
100
AcDbSymbolTable
 70
     0
  0
ENDTAB
  0
TABLE
  2
UCS
  5
7
330
0
100
AcDbSymbolTable
 70
     0
  0
ENDTAB
  0
TABLE
  2
APPID
  5
9
330
0
100
AcDbSymbolTable
 70
     1
  0
APPID
  5
12
330
9
100
AcDbSymbolTableRecord
100
AcDbRegAppTableRecord
  2
ACAD
 70
     0
  0
ENDTAB
  0
TABLE
  2
DIMSTYLE
  5
A
330
0
100
AcDbSymbolTable
 70
     6
100
AcDbDimStyleTable
  0
DIMSTYLE
105
27
330
A
100
AcDbSymbolTableRecord
100
AcDbDimStyleTableRecord
  2
ISO-25
 70
     0
 41
2.5
 42
0.625
 43
3.75
 44
1.25
 73
     0
 74
     0
 77
     1
 78
     8
140
2.5
141
2.5
143
0.0393700787
147
0.625
171
     3
172
     1
178
     0
271
     2
272
     2
274
     3
278
    44
283
     0
284
     8
340
11
  0
DIMSTYLE
105
28C
102
{ACAD_REACTORS
330
28A
330
29F
330
2B2
330
2C5
330
2D8
330
309
330
31B
330
341
102
}
330
A
100
AcDbSymbolTableRecord
100
AcDbDimStyleTableRecord
  2
SLDDIMSTYLE0
 70
     0
 41
3.302
 44
0.0
 45
0.000000001
 73
     0
 74
     0
 77
     1
 78
    12
 79
     3
140
3.5
143
0.0393700787
147
0.875
148
0.000000001
170
     1
173
     1
178
     0
271
     2
272
     2
276
     2
284
    12
340
28B
  0
DIMSTYLE
105
2EC
102
{ACAD_REACTORS
330
2EB
330
361
102
}
330
A
100
AcDbSymbolTableRecord
100
AcDbDimStyleTableRecord
  2
SLDDIMSTYLE1
 70
     0
 41
3.302
 44
0.0
 45
0.000000001
 73
     0
 74
     0
 77
     1
 78
    12
 79
     3
140
3.5
147
0.875
173
     1
178
     0
271
     2
272
     2
276
     2
284
    12
340
28B
  0
DIMSTYLE
105
2F7
102
{ACAD_REACTORS
330
2F6
102
}
330
A
100
AcDbSymbolTableRecord
100
AcDbDimStyleTableRecord
  2
SLDDIMSTYLE2
 70
     0
 41
3.302
 44
0.0
 45
0.000000001
 73
     0
 74
     0
 77
     1
 78
    12
 79
     3
140
3.5
143
0.0393700787
147
0.875
148
0.000000001
170
     1
171
     3
173
     1
178
     0
271
     3
272
     2
274
     3
276
     2
284
    12
340
28B
  0
DIMSTYLE
105
32E
102
{ACAD_REACTORS
330
32D
102
}
330
A
100
AcDbSymbolTableRecord
100
AcDbDimStyleTableRecord
  2
SLDDIMSTYLE3
 70
     0
 41
3.302
 44
0.0
 45
0.000000001
 73
     0
 74
     0
 77
     1
 78
    12
 79
     3
140
3.5
143
0.0393700787
147
0.875
148
0.000000001
170
     1
173
     1
178
     0
271
     3
272
     2
276
     2
284
    12
340
28B
  0
DIMSTYLE
105
355
102
{ACAD_REACTORS
330
354
330
36C
102
}
330
A
100
AcDbSymbolTableRecord
100
AcDbDimStyleTableRecord
  2
SLDDIMSTYLE4
 70
     0
 41
3.302
 44
0.0
 45
0.000000001
 73
     0
 74
     0
 77
     1
 78
    12
 79
     3
140
3.5
147
0.875
172
     1
173
     1
178
     0
271
     2
272
     2
276
     2
284
    12
289
     0
340
28B
  0
ENDTAB
  0
TABLE
  2
BLOCK_RECORD
  5
1
330
0
100
AcDbSymbolTable
 70
    15
  0
BLOCK_RECORD
  5
1F
330
1
100
AcDbSymbolTableRecord
100
AcDbBlockTableRecord
  2
*Model_Space
340
22
  0
BLOCK_RECORD
  5
1B
330
1
100
AcDbSymbolTableRecord
100
AcDbBlockTableRecord
  2
*Paper_Space
340
1E
  0
BLOCK_RECORD
  5
23
330
1
100
AcDbSymbolTableRecord
100
AcDbBlockTableRecord
  2
*Paper_Space0
340
26
  0
BLOCK_RECORD
  5
28D
330
1
100
AcDbSymbolTableRecord
100
AcDbBlockTableRecord
  2
_D
340
0
  0
BLOCK_RECORD
  5
2A0
330
1
100
AcDbSymbolTableRecord
100
AcDbBlockTableRecord
  2
_D_1
340
0
  0
BLOCK_RECORD
  5
2B3
330
1
100
AcDbSymbolTableRecord
100
AcDbBlockTableRecord
  2
_D_2
340
0
  0
BLOCK_RECORD
  5
2C6
330
1
100
AcDbSymbolTableRecord
100
AcDbBlockTableRecord
  2
_D_3
340
0
  0
BLOCK_RECORD
  5
2D9
330
1
100
AcDbSymbolTableRecord
100
AcDbBlockTableRecord
  2
_D_4
340
0
  0
BLOCK_RECORD
  5
2ED
330
1
100
AcDbSymbolTableRecord
100
AcDbBlockTableRecord
  2
_D_5
340
0
  0
BLOCK_RECORD
  5
2F8
330
1
100
AcDbSymbolTableRecord
100
AcDbBlockTableRecord
  2
_D_6
340
0
  0
BLOCK_RECORD
  5
30A
330
1
100
AcDbSymbolTableRecord
100
AcDbBlockTableRecord
  2
_D_7
340
0
  0
BLOCK_RECORD
  5
31C
330
1
100
AcDbSymbolTableRecord
100
AcDbBlockTableRecord
  2
_D_8
340
0
  0
BLOCK_RECORD
  5
32F
330
1
100
AcDbSymbolTableRecord
100
AcDbBlockTableRecord
  2
_D_9
340
0
  0
BLOCK_RECORD
  5
342
330
1
100
AcDbSymbolTableRecord
100
AcDbBlockTableRecord
  2
_D_10
340
0
  0
BLOCK_RECORD
  5
356
330
1
100
AcDbSymbolTableRecord
100
AcDbBlockTableRecord
  2
_D_11
340
0
  0
BLOCK_RECORD
  5
362
330
1
100
AcDbSymbolTableRecord
100
AcDbBlockTableRecord
  2
_D_12
340
0
  0
BLOCK_RECORD
  5
36D
330
1
100
AcDbSymbolTableRecord
100
AcDbBlockTableRecord
  2
_D_13
340
0
  0
ENDTAB
  0
ENDSEC
  0
SECTION
  2
BLOCKS
  0
BLOCK
  5
20
330
1F
100
AcDbEntity
  8
0
100
AcDbBlockBegin
  2
*Model_Space
 70
     0
 10
0.0
 20
0.0
 30
0.0
  3
*Model_Space
  1

  0
ENDBLK
  5
21
330
1F
100
AcDbEntity
  8
0
100
AcDbBlockEnd
  0
BLOCK
  5
1C
330
1B
100
AcDbEntity
 67
     1
  8
0
100
AcDbBlockBegin
  2
*Paper_Space
 70
     0
 10
0.0
 20
0.0
 30
0.0
  3
*Paper_Space
  1

  0
ENDBLK
  5
1D
330
1B
100
AcDbEntity
 67
     1
  8
0
100
AcDbBlockEnd
  0
BLOCK
  5
24
330
23
100
AcDbEntity
  8
0
100
AcDbBlockBegin
  2
*Paper_Space0
 70
     0
 10
0.0
 20
0.0
 30
0.0
  3
*Paper_Space0
  1

  0
ENDBLK
  5
25
330
23
100
AcDbEntity
  8
0
100
AcDbBlockEnd
  0
BLOCK
  5
28E
330
28D
100
AcDbEntity
  8
0
100
AcDbBlockBegin
  2
_D
 70
     0
 10
0.0
 20
0.0
 30
0.0
  3
_D
  1

  0
SOLID
  5
290
330
28D
100
AcDbEntity
  8
2
100
AcDbTrace
 10
0.0
 20
76.6212817353
 30
0.0
 11
3.302
 21
76.1132817353
 31
0.0
 12
3.302
 22
77.1292817353
 32
0.0
 13
3.302
 23
77.1292817353
 33
0.0
  0
SOLID
  5
291
330
28D
100
AcDbEntity
  8
2
100
AcDbTrace
 10
101.6
 20
76.6212817353
 30
0.0
 11
98.298
 21
77.1292817353
 31
0.0
 12
98.298
 22
76.1132817353
 32
0.0
 13
98.298
 23
76.1132817353
 33
0.0
  0
LINE
  5
292
330
28D
100
AcDbEntity
  8
2
100
AcDbLine
 10
31.7114874214
 20
87.4141634514
 30
0.0
 11
30.645081164
 21
87.4141634514
 31
0.0
  0
LINE
  5
293
330
28D
100
AcDbEntity
  8
2
100
AcDbLine
 10
30.645081164
 20
87.4141634514
 30
0.0
 11
30.645081164
 21
81.8579134603
 31
0.0
  0
LINE
  5
294
330
28D
100
AcDbEntity
  8
2
100
AcDbLine
 10
30.645081164
 20
81.8579134603
 30
0.0
 11
31.7114874214
 21
81.8579134603
 31
0.0
  0
LINE
  5
295
330
28D
100
AcDbEntity
  8
2
100
AcDbLine
 10
40.7628764823
 20
87.4141634514
 30
0.0
 11
41.8292827398
 21
87.4141634514
 31
0.0
  0
LINE
  5
296
330
28D
100
AcDbEntity
  8
2
100
AcDbLine
 10
41.8292827398
 20
87.4141634514
 30
0.0
 11
41.8292827398
 21
81.8579134603
 31
0.0
  0
LINE
  5
297
330
28D
100
AcDbEntity
  8
2
100
AcDbLine
 10
41.8292827398
 20
81.8579134603
 30
0.0
 11
40.7628764823
 21
81.8579134603
 31
0.0
  0
LINE
  5
298
330
28D
100
AcDbEntity
  8
2
100
AcDbLine
 10
0.0
 20
35.925
 30
0.0
 11
0.0
 21
77.6212817353
 31
0.0
  0
LINE
  5
299
330
28D
100
AcDbEntity
  8
2
100
AcDbLine
 10
101.6
 20
22.082
 30
0.0
 11
101.6
 21
77.6212817353
 31
0.0
  0
LINE
  5
29A
330
28D
100
AcDbEntity
  8
2
100
AcDbLine
 10
0.0
 20
76.6212817353
 30
0.0
 11
101.6
 21
76.6212817353
 31
0.0
  0
MTEXT
  5
29B
330
28D
100
AcDbEntity
  8
2
100
AcDbMText
 10
29.5981193098
 20
81.1864910012
 30
0.0
 40
3.5
 41
0.0
 71
     1
 72
     1
  1

  7
SLDTEXTSTYLE0
 73
     1
 44
1.0
  0
MTEXT
  5
29C
330
28D
100
AcDbEntity
  8
2
100
AcDbMText
 10
31.7114874214
 20
86.3696503749
 30
0.0
 40
3.5
 41
0.0
 71
     1
 72
     1
  1
4,00
  7
SLDTEXTSTYLE0
 73
     1
 44
1.0
  0
MTEXT
  5
29D
330
28D
100
AcDbEntity
  8
2
100
AcDbMText
 10
30.4184317082
 20
81.1330188245
 30
0.0
 40
3.5
 41
0.0
 71
     1
 72
     1
  1
101,6
  7
SLDTEXTSTYLE0
 73
     1
 44
1.0
  0
MTEXT
  5
29E
330
28D
100
AcDbEntity
  8
2
100
AcDbMText
 10
44.2081891137
 20
81.1864910012
 30
0.0
 40
3.5
 41
0.0
 71
     1
 72
     1
  1

  7
SLDTEXTSTYLE0
 73
     1
 44
1.0
  0
ENDBLK
  5
28F
330
28D
100
AcDbEntity
  8
0
100
AcDbBlockEnd
  0
BLOCK
  5
2A1
330
2A0
100
AcDbEntity
  8
0
100
AcDbBlockBegin
  2
_D_1
 70
     0
 10
0.0
 20
0.0
 30
0.0
  3
_D_1
  1

  0
SOLID
  5
2A3
330
2A0
100
AcDbEntity
  8
SK2
100
AcDbTrace
 10
19.05
 20
65.3708139095
 30
0.0
 11
22.352
 21
64.8628139095
 31
0.0
 12
22.352
 22
65.8788139095
 32
0.0
 13
22.352
 23
65.8788139095
 33
0.0
  0
SOLID
  5
2A4
330
2A0
100
AcDbEntity
  8
SK2
100
AcDbTrace
 10
101.6
 20
65.3708139095
 30
0.0
 11
98.298
 21
65.8788139095
 31
0.0
 12
98.298
 22
64.8628139095
 32
0.0
 13
98.298
 23
64.8628139095
 33
0.0
  0
LINE
  5
2A5
330
2A0
100
AcDbEntity
  8
SK2
100
AcDbLine
 10
51.2217923851
 20
76.1636956256
 30
0.0
 11
50.1553861277
 21
76.1636956256
 31
0.0
  0
LINE
  5
2A6
330
2A0
100
AcDbEntity
  8
SK2
100
AcDbLine
 10
50.1553861277
 20
76.1636956256
 30
0.0
 11
50.1553861277
 21
70.6074456345
 31
0.0
  0
LINE
  5
2A7
330
2A0
100
AcDbEntity
  8
SK2
100
AcDbLine
 10
50.1553861277
 20
70.6074456345
 30
0.0
 11
51.2217923851
 21
70.6074456345
 31
0.0
  0
LINE
  5
2A8
330
2A0
100
AcDbEntity
  8
SK2
100
AcDbLine
 10
60.2731814461
 20
76.1636956256
 30
0.0
 11
61.3395877035
 21
76.1636956256
 31
0.0
  0
LINE
  5
2A9
330
2A0
100
AcDbEntity
  8
SK2
100
AcDbLine
 10
61.3395877035
 20
76.1636956256
 30
0.0
 11
61.3395877035
 21
70.6074456345
 31
0.0
  0
LINE
  5
2AA
330
2A0
100
AcDbEntity
  8
SK2
100
AcDbLine
 10
61.3395877035
 20
70.6074456345
 30
0.0
 11
60.2731814461
 21
70.6074456345
 31
0.0
  0
LINE
  5
2AB
330
2A0
100
AcDbEntity
  8
SK2
100
AcDbLine
 10
19.05
 20
47.5560855313
 30
0.0
 11
19.05
 21
66.3708139095
 31
0.0
  0
LINE
  5
2AC
330
2A0
100
AcDbEntity
  8
SK2
100
AcDbLine
 10
101.6
 20
22.082
 30
0.0
 11
101.6
 21
66.3708139095
 31
0.0
  0
LINE
  5
2AD
330
2A0
100
AcDbEntity
  8
SK2
100
AcDbLine
 10
19.05
 20
65.3708139095
 30
0.0
 11
101.6
 21
65.3708139095
 31
0.0
  0
MTEXT
  5
2AE
330
2A0
100
AcDbEntity
  8
SK2
100
AcDbMText
 10
49.1084242735
 20
69.9360231754
 30
0.0
 40
3.5
 41
0.0
 71
     1
 72
     1
  1

  7
SLDTEXTSTYLE0
 73
     1
 44
1.0
  0
MTEXT
  5
2AF
330
2A0
100
AcDbEntity
  8
SK2
100
AcDbMText
 10
51.2217923851
 20
75.1191825491
 30
0.0
 40
3.5
 41
0.0
 71
     1
 72
     1
  1
3,25
  7
SLDTEXTSTYLE0
 73
     1
 44
1.0
  0
MTEXT
  5
2B0
330
2A0
100
AcDbEntity
  8
SK2
100
AcDbMText
 10
49.928736672
 20
69.8825509987
 30
0.0
 40
3.5
 41
0.0
 71
     1
 72
     1
  1
82,55
  7
SLDTEXTSTYLE0
 73
     1
 44
1.0
  0
MTEXT
  5
2B1
330
2A0
100
AcDbEntity
  8
SK2
100
AcDbMText
 10
63.7184940774
 20
69.9360231754
 30
0.0
 40
3.5
 41
0.0
 71
     1
 72
     1
  1

  7
SLDTEXTSTYLE0
 73
     1
 44
1.0
  0
ENDBLK
  5
2A2
330
2A0
100
AcDbEntity
  8
0
100
AcDbBlockEnd
  0
BLOCK
  5
2B4
330
2B3
100
AcDbEntity
  8
0
100
AcDbBlockBegin
  2
_D_2
 70
     0
 10
0.0
 20
0.0
 30
0.0
  3
_D_2
  1

  0
SOLID
  5
2B6
330
2B3
100
AcDbEntity
  8
SK2
100
AcDbTrace
 10
35.1
 20
52.4114142621
 30
0.0
 11
38.402
 21
51.9034142621
 31
0.0
 12
38.402
 22
52.9194142621
 32
0.0
 13
38.402
 23
52.9194142621
 33
0.0
  0
SOLID
  5
2B7
330
2B3
100
AcDbEntity
  8
SK2
100
AcDbTrace
 10
101.6
 20
52.4114142621
 30
0.0
 11
98.298
 21
52.9194142621
 31
0.0
 12
98.298
 22
51.9034142621
 32
0.0
 13
98.298
 23
51.9034142621
 33
0.0
  0
LINE
  5
2B8
330
2B3
100
AcDbEntity
  8
SK2
100
AcDbLine
 10
62.0450272555
 20
63.2042959782
 30
0.0
 11
60.9786209981
 21
63.2042959782
 31
0.0
  0
LINE
  5
2B9
330
2B3
100
AcDbEntity
  8
SK2
100
AcDbLine
 10
60.9786209981
 20
63.2042959782
 30
0.0
 11
60.9786209981
 21
57.6480459871
 31
0.0
  0
LINE
  5
2BA
330
2B3
100
AcDbEntity
  8
SK2
100
AcDbLine
 10
60.9786209981
 20
57.6480459871
 30
0.0
 11
62.0450272555
 21
57.6480459871
 31
0.0
  0
LINE
  5
2BB
330
2B3
100
AcDbEntity
  8
SK2
100
AcDbLine
 10
71.0964163164
 20
63.2042959782
 30
0.0
 11
72.1628225739
 21
63.2042959782
 31
0.0
  0
LINE
  5
2BC
330
2B3
100
AcDbEntity
  8
SK2
100
AcDbLine
 10
72.1628225739
 20
63.2042959782
 30
0.0
 11
72.1628225739
 21
57.6480459871
 31
0.0
  0
LINE
  5
2BD
330
2B3
100
AcDbEntity
  8
SK2
100
AcDbLine
 10
72.1628225739
 20
57.6480459871
 30
0.0
 11
71.0964163164
 21
57.6480459871
 31
0.0
  0
LINE
  5
2BE
330
2B3
100
AcDbEntity
  8
SK2
100
AcDbLine
 10
35.1
 20
34.401
 30
0.0
 11
35.1
 21
53.4114142621
 31
0.0
  0
LINE
  5
2BF
330
2B3
100
AcDbEntity
  8
SK2
100
AcDbLine
 10
101.6
 20
22.082
 30
0.0
 11
101.6
 21
53.4114142621
 31
0.0
  0
LINE
  5
2C0
330
2B3
100
AcDbEntity
  8
SK2
100
AcDbLine
 10
35.1
 20
52.4114142621
 30
0.0
 11
101.6
 21
52.4114142621
 31
0.0
  0
MTEXT
  5
2C1
330
2B3
100
AcDbEntity
  8
SK2
100
AcDbMText
 10
59.9316591439
 20
56.976623528
 30
0.0
 40
3.5
 41
0.0
 71
     1
 72
     1
  1

  7
SLDTEXTSTYLE0
 73
     1
 44
1.0
  0
MTEXT
  5
2C2
330
2B3
100
AcDbEntity
  8
SK2
100
AcDbMText
 10
62.0450272555
 20
62.1597829017
 30
0.0
 40
3.5
 41
0.0
 71
     1
 72
     1
  1
2,62
  7
SLDTEXTSTYLE0
 73
     1
 44
1.0
  0
MTEXT
  5
2C3
330
2B3
100
AcDbEntity
  8
SK2
100
AcDbMText
 10
62.0450272555
 20
56.9231513513
 30
0.0
 40
3.5
 41
0.0
 71
     1
 72
     1
  1
66,5
  7
SLDTEXTSTYLE0
 73
     1
 44
1.0
  0
MTEXT
  5
2C4
330
2B3
100
AcDbEntity
  8
SK2
100
AcDbMText
 10
74.5417289478
 20
56.976623528
 30
0.0
 40
3.5
 41
0.0
 71
     1
 72
     1
  1

  7
SLDTEXTSTYLE0
 73
     1
 44
1.0
  0
ENDBLK
  5
2B5
330
2B3
100
AcDbEntity
  8
0
100
AcDbBlockEnd
  0
BLOCK
  5
2C7
330
2C6
100
AcDbEntity
  8
0
100
AcDbBlockBegin
  2
_D_3
 70
     0
 10
0.0
 20
0.0
 30
0.0
  3
_D_3
  1

  0
SOLID
  5
2C9
330
2C6
100
AcDbEntity
  8
SK2
100
AcDbTrace
 10
73.279
 20
38.8823706741
 30
0.0
 11
76.581
 21
38.3743706741
 31
0.0
 12
76.581
 22
39.3903706741
 32
0.0
 13
76.581
 23
39.3903706741
 33
0.0
  0
SOLID
  5
2CA
330
2C6
100
AcDbEntity
  8
SK2
100
AcDbTrace
 10
101.6
 20
38.8823706741
 30
0.0
 11
98.298
 21
39.3903706741
 31
0.0
 12
98.298
 22
38.3743706741
 32
0.0
 13
98.298
 23
38.3743706741
 33
0.0
  0
LINE
  5
2CB
330
2C6
100
AcDbEntity
  8
SK2
100
AcDbLine
 10
80.7008663084
 20
49.6752523902
 30
0.0
 11
79.634460051
 21
49.6752523902
 31
0.0
  0
LINE
  5
2CC
330
2C6
100
AcDbEntity
  8
SK2
100
AcDbLine
 10
79.634460051
 20
49.6752523902
 30
0.0
 11
79.634460051
 21
44.1190023991
 31
0.0
  0
LINE
  5
2CD
330
2C6
100
AcDbEntity
  8
SK2
100
AcDbLine
 10
79.634460051
 20
44.1190023991
 30
0.0
 11
80.7008663084
 21
44.1190023991
 31
0.0
  0
LINE
  5
2CE
330
2C6
100
AcDbEntity
  8
SK2
100
AcDbLine
 10
89.7522553693
 20
49.6752523902
 30
0.0
 11
90.8186616268
 21
49.6752523902
 31
0.0
  0
LINE
  5
2CF
330
2C6
100
AcDbEntity
  8
SK2
100
AcDbLine
 10
90.8186616268
 20
49.6752523902
 30
0.0
 11
90.8186616268
 21
44.1190023991
 31
0.0
  0
LINE
  5
2D0
330
2C6
100
AcDbEntity
  8
SK2
100
AcDbLine
 10
90.8186616268
 20
44.1190023991
 30
0.0
 11
89.7522553693
 21
44.1190023991
 31
0.0
  0
LINE
  5
2D1
330
2C6
100
AcDbEntity
  8
SK2
100
AcDbLine
 10
73.279
 20
32.65
 30
0.0
 11
73.279
 21
39.8823706741
 31
0.0
  0
LINE
  5
2D2
330
2C6
100
AcDbEntity
  8
SK2
100
AcDbLine
 10
101.6
 20
22.082
 30
0.0
 11
101.6
 21
39.8823706741
 31
0.0
  0
LINE
  5
2D3
330
2C6
100
AcDbEntity
  8
SK2
100
AcDbLine
 10
73.279
 20
38.8823706741
 30
0.0
 11
101.6
 21
38.8823706741
 31
0.0
  0
MTEXT
  5
2D4
330
2C6
100
AcDbEntity
  8
SK2
100
AcDbMText
 10
78.5874981968
 20
43.44757994
 30
0.0
 40
3.5
 41
0.0
 71
     1
 72
     1
  1

  7
SLDTEXTSTYLE0
 73
     1
 44
1.0
  0
MTEXT
  5
2D5
330
2C6
100
AcDbEntity
  8
SK2
100
AcDbMText
 10
80.7008663084
 20
48.6307393137
 30
0.0
 40
3.5
 41
0.0
 71
     1
 72
     1
  1
1,12
  7
SLDTEXTSTYLE0
 73
     1
 44
1.0
  0
MTEXT
  5
2D6
330
2C6
100
AcDbEntity
  8
SK2
100
AcDbMText
 10
79.4078105953
 20
43.3941077633
 30
0.0
 40
3.5
 41
0.0
 71
     1
 72
     1
  1
28,32
  7
SLDTEXTSTYLE0
 73
     1
 44
1.0
  0
MTEXT
  5
2D7
330
2C6
100
AcDbEntity
  8
SK2
100
AcDbMText
 10
93.1975680007
 20
43.44757994
 30
0.0
 40
3.5
 41
0.0
 71
     1
 72
     1
  1

  7
SLDTEXTSTYLE0
 73
     1
 44
1.0
  0
ENDBLK
  5
2C8
330
2C6
100
AcDbEntity
  8
0
100
AcDbBlockEnd
  0
BLOCK
  5
2DA
330
2D9
100
AcDbEntity
  8
0
100
AcDbBlockBegin
  2
_D_4
 70
     0
 10
0.0
 20
0.0
 30
0.0
  3
_D_4
  1

  0
SOLID
  5
2DC
330
2D9
100
AcDbEntity
  8
SK2
100
AcDbTrace
 10
47.879
 20
38.8823706741
 30
0.0
 11
51.181
 21
38.3743706741
 31
0.0
 12
51.181
 22
39.3903706741
 32
0.0
 13
51.181
 23
39.3903706741
 33
0.0
  0
SOLID
  5
2DD
330
2D9
100
AcDbEntity
  8
SK2
100
AcDbTrace
 10
73.279
 20
38.8823706741
 30
0.0
 11
69.977
 21
39.3903706741
 31
0.0
 12
69.977
 22
38.3743706741
 32
0.0
 13
69.977
 23
38.3743706741
 33
0.0
  0
LINE
  5
2DE
330
2D9
100
AcDbEntity
  8
SK2
100
AcDbLine
 10
54.7153330612
 20
49.6752523902
 30
0.0
 11
53.6489268038
 21
49.6752523902
 31
0.0
  0
LINE
  5
2DF
330
2D9
100
AcDbEntity
  8
SK2
100
AcDbLine
 10
53.6489268038
 20
49.6752523902
 30
0.0
 11
53.6489268038
 21
44.1190023991
 31
0.0
  0
LINE
  5
2E0
330
2D9
100
AcDbEntity
  8
SK2
100
AcDbLine
 10
53.6489268038
 20
44.1190023991
 30
0.0
 11
54.7153330612
 21
44.1190023991
 31
0.0
  0
LINE
  5
2E1
330
2D9
100
AcDbEntity
  8
SK2
100
AcDbLine
 10
63.7667221222
 20
49.6752523902
 30
0.0
 11
64.8331283796
 21
49.6752523902
 31
0.0
  0
LINE
  5
2E2
330
2D9
100
AcDbEntity
  8
SK2
100
AcDbLine
 10
64.8331283796
 20
49.6752523902
 30
0.0
 11
64.8331283796
 21
44.1190023991
 31
0.0
  0
LINE
  5
2E3
330
2D9
100
AcDbEntity
  8
SK2
100
AcDbLine
 10
64.8331283796
 20
44.1190023991
 30
0.0
 11
63.7667221222
 21
44.1190023991
 31
0.0
  0
LINE
  5
2E4
330
2D9
100
AcDbEntity
  8
SK2
100
AcDbLine
 10
47.879
 20
32.65
 30
0.0
 11
47.879
 21
39.8823706741
 31
0.0
  0
LINE
  5
2E5
330
2D9
100
AcDbEntity
  8
SK2
100
AcDbLine
 10
73.279
 20
32.65
 30
0.0
 11
73.279
 21
39.8823706741
 31
0.0
  0
LINE
  5
2E6
330
2D9
100
AcDbEntity
  8
SK2
100
AcDbLine
 10
47.879
 20
38.8823706741
 30
0.0
 11
73.279
 21
38.8823706741
 31
0.0
  0
MTEXT
  5
2E7
330
2D9
100
AcDbEntity
  8
SK2
100
AcDbMText
 10
52.6019649496
 20
43.44757994
 30
0.0
 40
3.5
 41
0.0
 71
     1
 72
     1
  1

  7
SLDTEXTSTYLE0
 73
     1
 44
1.0
  0
MTEXT
  5
2E8
330
2D9
100
AcDbEntity
  8
SK2
100
AcDbMText
 10
54.7153330612
 20
48.6307393137
 30
0.0
 40
3.5
 41
0.0
 71
     1
 72
     1
  1
1,00
  7
SLDTEXTSTYLE0
 73
     1
 44
1.0
  0
MTEXT
  5
2E9
330
2D9
100
AcDbEntity
  8
SK2
100
AcDbMText
 10
54.7153330612
 20
43.3941077633
 30
0.0
 40
3.5
 41
0.0
 71
     1
 72
     1
  1
25,4
  7
SLDTEXTSTYLE0
 73
     1
 44
1.0
  0
MTEXT
  5
2EA
330
2D9
100
AcDbEntity
  8
SK2
100
AcDbMText
 10
67.2120347535
 20
43.44757994
 30
0.0
 40
3.5
 41
0.0
 71
     1
 72
     1
  1

  7
SLDTEXTSTYLE0
 73
     1
 44
1.0
  0
ENDBLK
  5
2DB
330
2D9
100
AcDbEntity
  8
0
100
AcDbBlockEnd
  0
BLOCK
  5
2EE
330
2ED
100
AcDbEntity
  8
0
100
AcDbBlockBegin
  2
_D_5
 70
     0
 10
0.0
 20
0.0
 30
0.0
  3
_D_5
  1

  0
SOLID
  5
2F0
330
2ED
100
AcDbEntity
  8
SK2
100
AcDbTrace
 10
0.0
 20
65.3708139095
 30
0.0
 11
3.302
 21
64.8628139095
 31
0.0
 12
3.302
 22
65.8788139095
 32
0.0
 13
3.302
 23
65.8788139095
 33
0.0
  0
SOLID
  5
2F1
330
2ED
100
AcDbEntity
  8
SK2
100
AcDbTrace
 10
19.05
 20
65.3708139095
 30
0.0
 11
15.748
 21
65.8788139095
 31
0.0
 12
15.748
 22
64.8628139095
 32
0.0
 13
15.748
 23
64.8628139095
 33
0.0
  0
LINE
  5
2F2
330
2ED
100
AcDbEntity
  8
SK2
100
AcDbLine
 10
0.0
 20
35.925
 30
0.0
 11
0.0
 21
66.3708139095
 31
0.0
  0
LINE
  5
2F3
330
2ED
100
AcDbEntity
  8
SK2
100
AcDbLine
 10
19.05
 20
47.5560855313
 30
0.0
 11
19.05
 21
66.3708139095
 31
0.0
  0
LINE
  5
2F4
330
2ED
100
AcDbEntity
  8
SK2
100
AcDbLine
 10
0.0
 20
65.3708139095
 30
0.0
 11
19.05
 21
65.3708139095
 31
0.0
  0
MTEXT
  5
2F5
330
2ED
100
AcDbEntity
  8
SK2
100
AcDbMText
 10
3.5027551682
 20
69.8825508241
 30
0.0
 40
3.5
 41
0.0
 71
     1
 72
     1
  1
19,05
  7
SLDTEXTSTYLE0
 73
     1
 44
1.0
  0
ENDBLK
  5
2EF
330
2ED
100
AcDbEntity
  8
0
100
AcDbBlockEnd
  0
BLOCK
  5
2F9
330
2F8
100
AcDbEntity
  8
0
100
AcDbBlockBegin
  2
_D_6
 70
     0
 10
0.0
 20
0.0
 30
0.0
  3
_D_6
  1

  0
SOLID
  5
2FB
330
2F8
100
AcDbEntity
  8
SK2
100
AcDbTrace
 10
119.0866956791
 20
-15.875
 30
0.0
 11
119.5946956791
 21
-12.573
 31
0.0
 12
118.5786956791
 22
-12.573
 32
0.0
 13
118.5786956791
 23
-12.573
 33
0.0
  0
SOLID
  5
2FC
330
2F8
100
AcDbEntity
  8
SK2
100
AcDbTrace
 10
119.0866956791
 20
15.875
 30
0.0
 11
118.5786956791
 21
12.573
 31
0.0
 12
119.5946956791
 22
12.573
 32
0.0
 13
119.5946956791
 23
12.573
 33
0.0
  0
LINE
  5
2FD
330
2F8
100
AcDbEntity
  8
SK2
100
AcDbLine
 10
108.2938139631
 20
-5.7448912735
 30
0.0
 11
108.2938139631
 21
-6.811297531
 31
0.0
  0
LINE
  5
2FE
330
2F8
100
AcDbEntity
  8
SK2
100
AcDbLine
 10
108.2938139631
 20
-6.811297531
 30
0.0
 11
113.8500639541
 21
-6.811297531
 31
0.0
  0
LINE
  5
2FF
330
2F8
100
AcDbEntity
  8
SK2
100
AcDbLine
 10
113.8500639541
 20
-6.811297531
 30
0.0
 11
113.8500639541
 21
-5.7448912735
 31
0.0
  0
LINE
  5
300
330
2F8
100
AcDbEntity
  8
SK2
100
AcDbLine
 10
108.2938139631
 20
5.8926092137
 30
0.0
 11
108.2938139631
 21
6.9590154712
 31
0.0
  0
LINE
  5
301
330
2F8
100
AcDbEntity
  8
SK2
100
AcDbLine
 10
108.2938139631
 20
6.9590154712
 30
0.0
 11
113.8500639541
 21
6.9590154712
 31
0.0
  0
LINE
  5
302
330
2F8
100
AcDbEntity
  8
SK2
100
AcDbLine
 10
113.8500639541
 20
6.9590154712
 30
0.0
 11
113.8500639541
 21
5.8926092137
 31
0.0
  0
LINE
  5
303
330
2F8
100
AcDbEntity
  8
SK2
100
AcDbLine
 10
101.1
 20
-15.875
 30
0.0
 11
120.0866956791
 21
-15.875
 31
0.0
  0
LINE
  5
304
330
2F8
100
AcDbEntity
  8
SK2
100
AcDbLine
 10
101.1
 20
15.875
 30
0.0
 11
120.0866956791
 21
15.875
 31
0.0
  0
LINE
  5
305
330
2F8
100
AcDbEntity
  8
SK2
100
AcDbLine
 10
119.0866956791
 20
-15.875
 30
0.0
 11
119.0866956791
 21
15.875
 31
0.0
  0
MTEXT
  5
306
330
2F8
100
AcDbEntity
  8
SK2
100
AcDbMText
 10
109.3383270395
 20
-5.7448912735
 30
0.0
 40
3.5
 41
0.0
 71
     1
 72
     1
  1
1,250
  7
SLDTEXTSTYLE0
 11
2.832769448823990E-16
 21
1.0
 31
0.0
 73
     1
 44
1.0
  0
MTEXT
  5
307
330
2F8
100
AcDbEntity
  8
SK2
100
AcDbMText
 10
114.5749585899
 20
-8.3841104384
 30
0.0
 40
3.5
 41
0.0
 71
     1
 72
     1
  1
%%c
  7
SLDTEXTSTYLE0
 11
2.832769448823990E-16
 21
1.0
 31
0.0
 73
     1
 44
1.0
  0
MTEXT
  5
308
330
2F8
100
AcDbEntity
  8
SK2
100
AcDbMText
 10
114.5749585899
 20
-3.10567304
 30
0.0
 40
3.5
 41
0.0
 71
     1
 72
     1
  1
31,75
  7
SLDTEXTSTYLE0
 11
2.832769448823990E-16
 21
1.0
 31
0.0
 73
     1
 44
1.0
  0
ENDBLK
  5
2FA
330
2F8
100
AcDbEntity
  8
0
100
AcDbBlockEnd
  0
BLOCK
  5
30B
330
30A
100
AcDbEntity
  8
0
100
AcDbBlockBegin
  2
_D_7
 70
     0
 10
0.0
 20
0.0
 30
0.0
  3
_D_7
  1

  0
SOLID
  5
30D
330
30A
100
AcDbEntity
  8
SK2
100
AcDbTrace
 10
132.3800341842
 20
21.082
 30
0.0
 11
131.8720341842
 21
17.78
 31
0.0
 12
132.8880341842
 22
17.78
 32
0.0
 13
132.8880341842
 23
17.78
 33
0.0
  0
SOLID
  5
30E
330
30A
100
AcDbEntity
  8
SK2
100
AcDbTrace
 10
132.3800341842
 20
-21.082
 30
0.0
 11
132.8880341842
 21
-17.78
 31
0.0
 12
131.8720341842
 22
-17.78
 32
0.0
 13
131.8720341842
 23
-17.78
 33
0.0
  0
LINE
  5
30F
330
30A
100
AcDbEntity
  8
SK2
100
AcDbLine
 10
121.5871524682
 20
-4.451836026
 30
0.0
 11
121.5871524682
 21
-5.5182422835
 31
0.0
  0
LINE
  5
310
330
30A
100
AcDbEntity
  8
SK2
100
AcDbLine
 10
121.5871524682
 20
-5.5182422835
 30
0.0
 11
127.1434024593
 21
-5.5182422835
 31
0.0
  0
LINE
  5
311
330
30A
100
AcDbEntity
  8
SK2
100
AcDbLine
 10
127.1434024593
 20
-5.5182422835
 30
0.0
 11
127.1434024593
 21
-4.451836026
 31
0.0
  0
LINE
  5
312
330
30A
100
AcDbEntity
  8
SK2
100
AcDbLine
 10
121.5871524682
 20
4.5995530349
 30
0.0
 11
121.5871524682
 21
5.6659592923
 31
0.0
  0
LINE
  5
313
330
30A
100
AcDbEntity
  8
SK2
100
AcDbLine
 10
121.5871524682
 20
5.6659592923
 30
0.0
 11
127.1434024593
 21
5.6659592923
 31
0.0
  0
LINE
  5
314
330
30A
100
AcDbEntity
  8
SK2
100
AcDbLine
 10
127.1434024593
 20
5.6659592923
 30
0.0
 11
127.1434024593
 21
4.5995530349
 31
0.0
  0
LINE
  5
315
330
30A
100
AcDbEntity
  8
SK2
100
AcDbLine
 10
102.6
 20
21.082
 30
0.0
 11
133.3800341842
 21
21.082
 31
0.0
  0
LINE
  5
316
330
30A
100
AcDbEntity
  8
SK2
100
AcDbLine
 10
102.6
 20
-21.082
 30
0.0
 11
133.3800341842
 21
-21.082
 31
0.0
  0
LINE
  5
317
330
30A
100
AcDbEntity
  8
SK2
100
AcDbLine
 10
132.3800341842
 20
21.082
 30
0.0
 11
132.3800341842
 21
-21.082
 31
0.0
  0
MTEXT
  5
318
330
30A
100
AcDbEntity
  8
SK2
100
AcDbMText
 10
122.6316655447
 20
-4.451836026
 30
0.0
 40
3.5
 41
0.0
 71
     1
 72
     1
  1
1,66
  7
SLDTEXTSTYLE0
 11
-7.044195017643634E-15
 21
1.0
 31
0.0
 73
     1
 44
1.0
  0
MTEXT
  5
319
330
30A
100
AcDbEntity
  8
SK2
100
AcDbMText
 10
127.868297095
 20
-8.3841104384
 30
0.0
 40
3.5
 41
0.0
 71
     1
 72
     1
  1
%%c
  7
SLDTEXTSTYLE0
 11
-7.044195017643634E-15
 21
1.0
 31
0.0
 73
     1
 44
1.0
  0
MTEXT
  5
31A
330
30A
100
AcDbEntity
  8
SK2
100
AcDbMText
 10
127.868297095
 20
-3.10567304
 30
0.0
 40
3.5
 41
0.0
 71
     1
 72
     1
  1
42,16
  7
SLDTEXTSTYLE0
 11
-7.044195017643634E-15
 21
1.0
 31
0.0
 73
     1
 44
1.0
  0
ENDBLK
  5
30C
330
30A
100
AcDbEntity
  8
0
100
AcDbBlockEnd
  0
BLOCK
  5
31D
330
31C
100
AcDbEntity
  8
0
100
AcDbBlockBegin
  2
_D_8
 70
     0
 10
0.0
 20
0.0
 30
0.0
  3
_D_8
  1

  0
SOLID
  5
31F
330
31C
100
AcDbEntity
  8
SK2
100
AcDbTrace
 10
147.3936870842
 20
31.75
 30
0.0
 11
146.8856870842
 21
28.448
 31
0.0
 12
147.9016870842
 22
28.448
 32
0.0
 13
147.9016870842
 23
28.448
 33
0.0
  0
SOLID
  5
320
330
31C
100
AcDbEntity
  8
SK2
100
AcDbTrace
 10
147.3936870842
 20
-31.75
 30
0.0
 11
147.9016870842
 21
-28.448
 31
0.0
 12
146.8856870842
 22
-28.448
 32
0.0
 13
146.8856870842
 23
-28.448
 33
0.0
  0
LINE
  5
321
330
31C
100
AcDbEntity
  8
SK2
100
AcDbLine
 10
136.6008053681
 20
-4.451836026
 30
0.0
 11
136.6008053681
 21
-5.5182422835
 31
0.0
  0
LINE
  5
322
330
31C
100
AcDbEntity
  8
SK2
100
AcDbLine
 10
136.6008053681
 20
-5.5182422835
 30
0.0
 11
142.1570553592
 21
-5.5182422835
 31
0.0
  0
LINE
  5
323
330
31C
100
AcDbEntity
  8
SK2
100
AcDbLine
 10
142.1570553592
 20
-5.5182422835
 30
0.0
 11
142.1570553592
 21
-4.451836026
 31
0.0
  0
LINE
  5
324
330
31C
100
AcDbEntity
  8
SK2
100
AcDbLine
 10
136.6008053681
 20
4.5995530349
 30
0.0
 11
136.6008053681
 21
5.6659592923
 31
0.0
  0
LINE
  5
325
330
31C
100
AcDbEntity
  8
SK2
100
AcDbLine
 10
136.6008053681
 20
5.6659592923
 30
0.0
 11
142.1570553592
 21
5.6659592923
 31
0.0
  0
LINE
  5
326
330
31C
100
AcDbEntity
  8
SK2
100
AcDbLine
 10
142.1570553592
 20
5.6659592923
 30
0.0
 11
142.1570553592
 21
4.5995530349
 31
0.0
  0
LINE
  5
327
330
31C
100
AcDbEntity
  8
SK2
100
AcDbLine
 10
91.932
 20
31.75
 30
0.0
 11
148.3936870842
 21
31.75
 31
0.0
  0
LINE
  5
328
330
31C
100
AcDbEntity
  8
SK2
100
AcDbLine
 10
91.932
 20
-31.75
 30
0.0
 11
148.3936870842
 21
-31.75
 31
0.0
  0
LINE
  5
329
330
31C
100
AcDbEntity
  8
SK2
100
AcDbLine
 10
147.3936870842
 20
31.75
 30
0.0
 11
147.3936870842
 21
-31.75
 31
0.0
  0
MTEXT
  5
32A
330
31C
100
AcDbEntity
  8
SK2
100
AcDbMText
 10
137.6453184446
 20
-4.451836026
 30
0.0
 40
3.5
 41
0.0
 71
     1
 72
     1
  1
2,50
  7
SLDTEXTSTYLE0
 11
-7.044195017643634E-15
 21
1.0
 31
0.0
 73
     1
 44
1.0
  0
MTEXT
  5
32B
330
31C
100
AcDbEntity
  8
SK2
100
AcDbMText
 10
142.881949995
 20
-7.0910551909
 30
0.0
 40
3.5
 41
0.0
 71
     1
 72
     1
  1
%%c
  7
SLDTEXTSTYLE0
 11
-7.044195017643634E-15
 21
1.0
 31
0.0
 73
     1
 44
1.0
  0
MTEXT
  5
32C
330
31C
100
AcDbEntity
  8
SK2
100
AcDbMText
 10
142.881949995
 20
-1.8126177925
 30
0.0
 40
3.5
 41
0.0
 71
     1
 72
     1
  1
63,5
  7
SLDTEXTSTYLE0
 11
-7.044195017643634E-15
 21
1.0
 31
0.0
 73
     1
 44
1.0
  0
ENDBLK
  5
31E
330
31C
100
AcDbEntity
  8
0
100
AcDbBlockEnd
  0
BLOCK
  5
330
330
32F
100
AcDbEntity
  8
0
100
AcDbBlockBegin
  2
_D_9
 70
     0
 10
0.0
 20
0.0
 30
0.0
  3
_D_9
  1

  0
SOLID
  5
332
330
32F
100
AcDbEntity
  8
SK2
100
AcDbTrace
 10
-101.6
 20
-73.4688153996
 30
0.0
 11
-98.298
 21
-73.9768153996
 31
0.0
 12
-98.298
 22
-72.9608153996
 32
0.0
 13
-98.298
 23
-72.9608153996
 33
0.0
  0
SOLID
  5
333
330
32F
100
AcDbEntity
  8
SK2
100
AcDbTrace
 10
101.6
 20
-73.4688153996
 30
0.0
 11
98.298
 21
-72.9608153996
 31
0.0
 12
98.298
 22
-73.9768153996
 32
0.0
 13
98.298
 23
-73.9768153996
 33
0.0
  0
LINE
  5
334
330
32F
100
AcDbEntity
  8
SK2
100
AcDbLine
 10
-11.9861603459
 20
-62.6759336836
 30
0.0
 11
-13.0525666034
 21
-62.6759336836
 31
0.0
  0
LINE
  5
335
330
32F
100
AcDbEntity
  8
SK2
100
AcDbLine
 10
-13.0525666034
 20
-62.6759336836
 30
0.0
 11
-13.0525666034
 21
-68.2321836746
 31
0.0
  0
LINE
  5
336
330
32F
100
AcDbEntity
  8
SK2
100
AcDbLine
 10
-13.0525666034
 20
-68.2321836746
 30
0.0
 11
-11.9861603459
 21
-68.2321836746
 31
0.0
  0
LINE
  5
337
330
32F
100
AcDbEntity
  8
SK2
100
AcDbLine
 10
-2.934771285
 20
-62.6759336836
 30
0.0
 11
-1.8683650275
 21
-62.6759336836
 31
0.0
  0
LINE
  5
338
330
32F
100
AcDbEntity
  8
SK2
100
AcDbLine
 10
-1.8683650275
 20
-62.6759336836
 30
0.0
 11
-1.8683650275
 21
-68.2321836746
 31
0.0
  0
LINE
  5
339
330
32F
100
AcDbEntity
  8
SK2
100
AcDbLine
 10
-1.8683650275
 20
-68.2321836746
 30
0.0
 11
-2.934771285
 21
-68.2321836746
 31
0.0
  0
LINE
  5
33A
330
32F
100
AcDbEntity
  8
SK2
100
AcDbLine
 10
-101.6
 20
-19.2922326599
 30
0.0
 11
-101.6
 21
-74.4688153996
 31
0.0
  0
LINE
  5
33B
330
32F
100
AcDbEntity
  8
SK2
100
AcDbLine
 10
101.6
 20
-22.082
 30
0.0
 11
101.6
 21
-74.4688153996
 31
0.0
  0
LINE
  5
33C
330
32F
100
AcDbEntity
  8
SK2
100
AcDbLine
 10
-101.6
 20
-73.4688153996
 30
0.0
 11
101.6
 21
-73.4688153996
 31
0.0
  0
MTEXT
  5
33D
330
32F
100
AcDbEntity
  8
SK2
100
AcDbMText
 10
-14.0995284576
 20
-68.9036061338
 30
0.0
 40
3.5
 41
0.0
 71
     1
 72
     1
  1

  7
SLDTEXTSTYLE0
 73
     1
 44
1.0
  0
MTEXT
  5
33E
330
32F
100
AcDbEntity
  8
SK2
100
AcDbMText
 10
-11.9861603459
 20
-63.7204467601
 30
0.0
 40
3.5
 41
0.0
 71
     1
 72
     1
  1
8,00
  7
SLDTEXTSTYLE0
 73
     1
 44
1.0
  0
MTEXT
  5
33F
330
32F
100
AcDbEntity
  8
SK2
100
AcDbMText
 10
-13.2792160591
 20
-68.9570783104
 30
0.0
 40
3.5
 41
0.0
 71
     1
 72
     1
  1
203,2
  7
SLDTEXTSTYLE0
 73
     1
 44
1.0
  0
MTEXT
  5
340
330
32F
100
AcDbEntity
  8
SK2
100
AcDbMText
 10
0.5105413463
 20
-68.9036061338
 30
0.0
 40
3.5
 41
0.0
 71
     1
 72
     1
  1

  7
SLDTEXTSTYLE0
 73
     1
 44
1.0
  0
ENDBLK
  5
331
330
32F
100
AcDbEntity
  8
0
100
AcDbBlockEnd
  0
BLOCK
  5
343
330
342
100
AcDbEntity
  8
0
100
AcDbBlockBegin
  2
_D_10
 70
     0
 10
0.0
 20
0.0
 30
0.0
  3
_D_10
  1

  0
SOLID
  5
345
330
342
100
AcDbEntity
  8
SK2
100
AcDbTrace
 10
41.91
 20
-61.3830996754
 30
0.0
 11
45.212
 21
-61.8910996754
 31
0.0
 12
45.212
 22
-60.8750996754
 32
0.0
 13
45.212
 23
-60.8750996754
 33
0.0
  0
SOLID
  5
346
330
342
100
AcDbEntity
  8
SK2
100
AcDbTrace
 10
101.6
 20
-61.3830996754
 30
0.0
 11
98.298
 21
-60.8750996754
 31
0.0
 12
98.298
 22
-61.8910996754
 32
0.0
 13
98.298
 23
-61.8910996754
 33
0.0
  0
LINE
  5
347
330
342
100
AcDbEntity
  8
SK2
100
AcDbLine
 10
68.2248127335
 20
-50.5902179594
 30
0.0
 11
67.1584064761
 21
-50.5902179594
 31
0.0
  0
LINE
  5
348
330
342
100
AcDbEntity
  8
SK2
100
AcDbLine
 10
67.1584064761
 20
-50.5902179594
 30
0.0
 11
67.1584064761
 21
-56.1464679504
 31
0.0
  0
LINE
  5
349
330
342
100
AcDbEntity
  8
SK2
100
AcDbLine
 10
67.1584064761
 20
-56.1464679504
 30
0.0
 11
68.2248127335
 21
-56.1464679504
 31
0.0
  0
LINE
  5
34A
330
342
100
AcDbEntity
  8
SK2
100
AcDbLine
 10
77.2762017944
 20
-50.5902179594
 30
0.0
 11
78.3426080519
 21
-50.5902179594
 31
0.0
  0
LINE
  5
34B
330
342
100
AcDbEntity
  8
SK2
100
AcDbLine
 10
78.3426080519
 20
-50.5902179594
 30
0.0
 11
78.3426080519
 21
-56.1464679504
 31
0.0
  0
LINE
  5
34C
330
342
100
AcDbEntity
  8
SK2
100
AcDbLine
 10
78.3426080519
 20
-56.1464679504
 30
0.0
 11
77.2762017944
 21
-56.1464679504
 31
0.0
  0
LINE
  5
34D
330
342
100
AcDbEntity
  8
SK2
100
AcDbLine
 10
41.91
 20
-16.9175
 30
0.0
 11
41.91
 21
-62.3830996754
 31
0.0
  0
LINE
  5
34E
330
342
100
AcDbEntity
  8
SK2
100
AcDbLine
 10
101.6
 20
-22.082
 30
0.0
 11
101.6
 21
-62.3830996754
 31
0.0
  0
LINE
  5
34F
330
342
100
AcDbEntity
  8
SK2
100
AcDbLine
 10
41.91
 20
-61.3830996754
 30
0.0
 11
101.6
 21
-61.3830996754
 31
0.0
  0
MTEXT
  5
350
330
342
100
AcDbEntity
  8
SK2
100
AcDbMText
 10
66.1114446219
 20
-56.8178904096
 30
0.0
 40
3.5
 41
0.0
 71
     1
 72
     1
  1

  7
SLDTEXTSTYLE0
 73
     1
 44
1.0
  0
MTEXT
  5
351
330
342
100
AcDbEntity
  8
SK2
100
AcDbMText
 10
68.2248127335
 20
-51.6347310359
 30
0.0
 40
3.5
 41
0.0
 71
     1
 72
     1
  1
2,35
  7
SLDTEXTSTYLE0
 73
     1
 44
1.0
  0
MTEXT
  5
352
330
342
100
AcDbEntity
  8
SK2
100
AcDbMText
 10
66.9317570203
 20
-56.8713625862
 30
0.0
 40
3.5
 41
0.0
 71
     1
 72
     1
  1
59,69
  7
SLDTEXTSTYLE0
 73
     1
 44
1.0
  0
MTEXT
  5
353
330
342
100
AcDbEntity
  8
SK2
100
AcDbMText
 10
80.7215144257
 20
-56.8178904096
 30
0.0
 40
3.5
 41
0.0
 71
     1
 72
     1
  1

  7
SLDTEXTSTYLE0
 73
     1
 44
1.0
  0
ENDBLK
  5
344
330
342
100
AcDbEntity
  8
0
100
AcDbBlockEnd
  0
BLOCK
  5
357
330
356
100
AcDbEntity
  8
0
100
AcDbBlockBegin
  2
_D_11
 70
     0
 10
0.0
 20
0.0
 30
0.0
  3
_D_11
  1

  0
SOLID
  5
359
330
356
100
AcDbEntity
  8
SK2
100
AcDbTrace
 10
90.932
 20
-46.0216200226
 30
0.0
 11
87.63
 21
-45.5136200226
 31
0.0
 12
87.63
 22
-46.5296200226
 32
0.0
 13
87.63
 23
-46.5296200226
 33
0.0
  0
SOLID
  5
35A
330
356
100
AcDbEntity
  8
SK2
100
AcDbTrace
 10
101.6
 20
-46.0216200226
 30
0.0
 11
104.902
 21
-46.5296200226
 31
0.0
 12
104.902
 22
-45.5136200226
 32
0.0
 13
104.902
 23
-45.5136200226
 33
0.0
  0
LINE
  5
35B
330
356
100
AcDbEntity
  8
SK2
100
AcDbLine
 10
90.932
 20
-32.75
 30
0.0
 11
90.932
 21
-47.0216200226
 31
0.0
  0
LINE
  5
35C
330
356
100
AcDbEntity
  8
SK2
100
AcDbLine
 10
101.6
 20
-22.082
 30
0.0
 11
101.6
 21
-47.0216200226
 31
0.0
  0
LINE
  5
35D
330
356
100
AcDbEntity
  8
SK2
100
AcDbLine
 10
90.932
 20
-46.0216200226
 30
0.0
 11
76.9593892223
 21
-46.0216200226
 31
0.0
  0
LINE
  5
35E
330
356
100
AcDbEntity
  8
SK2
100
AcDbLine
 10
90.932
 20
-46.0216200226
 30
0.0
 11
101.6
 21
-46.0216200226
 31
0.0
  0
LINE
  5
35F
330
356
100
AcDbEntity
  8
SK2
100
AcDbLine
 10
101.6
 20
-46.0216200226
 30
0.0
 11
107.95
 21
-46.0216200226
 31
0.0
  0
MTEXT
  5
360
330
356
100
AcDbEntity
  8
SK2
100
AcDbMText
 10
76.9593892223
 20
-41.509883108
 30
0.0
 40
3.5
 41
0.0
 71
     1
 72
     1
  1
10,67
  7
SLDTEXTSTYLE0
 73
     1
 44
1.0
  0
ENDBLK
  5
358
330
356
100
AcDbEntity
  8
0
100
AcDbBlockEnd
  0
BLOCK
  5
363
330
362
100
AcDbEntity
  8
0
100
AcDbBlockBegin
  2
_D_12
 70
     0
 10
0.0
 20
0.0
 30
0.0
  3
_D_12
  1

  0
SOLID
  5
365
330
362
100
AcDbEntity
  8
SK2
100
AcDbTrace
 10
-122.0725897736
 20
47.2968145978
 30
0.0
 11
-122.5805897736
 21
43.9948145978
 31
0.0
 12
-121.5645897736
 22
43.9948145978
 32
0.0
 13
-121.5645897736
 23
43.9948145978
 33
0.0
  0
SOLID
  5
366
330
362
100
AcDbEntity
  8
SK2
100
AcDbTrace
 10
-122.0725897736
 20
-47.4754841997
 30
0.0
 11
-121.5645897736
 21
-44.1734841997
 31
0.0
 12
-122.5805897736
 22
-44.1734841997
 32
0.0
 13
-122.5805897736
 23
-44.1734841997
 33
0.0
  0
LINE
  5
367
330
362
100
AcDbEntity
  8
SK2
100
AcDbLine
 10
2.95
 20
47.2968145978
 30
0.0
 11
-123.0725897736
 21
47.2968145978
 31
0.0
  0
LINE
  5
368
330
362
100
AcDbEntity
  8
SK2
100
AcDbLine
 10
2.95
 20
-47.4754841997
 30
0.0
 11
-123.0725897736
 21
-47.4754841997
 31
0.0
  0
LINE
  5
369
330
362
100
AcDbEntity
  8
SK2
100
AcDbLine
 10
-122.0725897736
 20
47.2968145978
 30
0.0
 11
-122.0725897736
 21
-47.4754841997
 31
0.0
  0
MTEXT
  5
36A
330
362
100
AcDbEntity
  8
SK2
100
AcDbMText
 10
-126.5843268628
 20
-8.2205901073
 30
0.0
 40
3.5
 41
0.0
 71
     1
 72
     1
  1
%%c
  7
SLDTEXTSTYLE0
 11
-3.491481338843133E-15
 21
1.0
 31
0.0
 73
     1
 44
1.0
  0
MTEXT
  5
36B
330
362
100
AcDbEntity
  8
SK2
100
AcDbMText
 10
-126.6377990395
 20
-2.9421527089
 30
0.0
 40
3.5
 41
0.0
 71
     1
 72
     1
  1
98,42
  7
SLDTEXTSTYLE0
 11
-3.491481338843133E-15
 21
1.0
 31
0.0
 73
     1
 44
1.0
  0
ENDBLK
  5
364
330
362
100
AcDbEntity
  8
0
100
AcDbBlockEnd
  0
BLOCK
  5
36E
330
36D
100
AcDbEntity
  8
0
100
AcDbBlockBegin
  2
_D_13
 70
     0
 10
0.0
 20
0.0
 30
0.0
  3
_D_13
  1

  0
SOLID
  5
370
330
36D
100
AcDbEntity
  8
SK2
100
AcDbTrace
 10
-112.7042448135
 20
12.6999998465
 30
0.0
 11
-112.1962448135
 21
16.0019998465
 31
0.0
 12
-113.2122448135
 22
16.0019998465
 32
0.0
 13
-113.2122448135
 23
16.0019998465
 33
0.0
  0
SOLID
  5
371
330
36D
100
AcDbEntity
  8
SK2
100
AcDbTrace
 10
-112.7042448135
 20
-12.6999998465
 30
0.0
 11
-113.2122448135
 21
-16.0019998465
 31
0.0
 12
-112.1962448135
 22
-16.0019998465
 32
0.0
 13
-112.1962448135
 23
-16.0019998465
 33
0.0
  0
LINE
  5
372
330
36D
100
AcDbEntity
  8
SK2
100
AcDbLine
 10
-95.967097044
 20
12.6999998465
 30
0.0
 11
-113.7042448135
 21
12.6999998465
 31
0.0
  0
LINE
  5
373
330
36D
100
AcDbEntity
  8
SK2
100
AcDbLine
 10
-95.967097044
 20
-12.6999998465
 30
0.0
 11
-113.7042448135
 21
-12.6999998465
 31
0.0
  0
LINE
  5
374
330
36D
100
AcDbEntity
  8
SK2
100
AcDbLine
 10
-112.7042448135
 20
12.6999998465
 30
0.0
 11
-112.7042448135
 21
19.0499998465
 31
0.0
  0
LINE
  5
375
330
36D
100
AcDbEntity
  8
SK2
100
AcDbLine
 10
-112.7042448135
 20
12.6999998465
 30
0.0
 11
-112.7042448135
 21
-12.6999998465
 31
0.0
  0
LINE
  5
376
330
36D
100
AcDbEntity
  8
SK2
100
AcDbLine
 10
-112.7042448135
 20
-12.6999998465
 30
0.0
 11
-112.7042448135
 21
-19.0499998465
 31
0.0
  0
MTEXT
  5
378
330
36D
100
AcDbEntity
  8
SK2
100
AcDbMText
 10
-117.2159817281
 20
-12.5032952762
 30
0.0
 40
3.5
 41
0.0
 71
     1
 72
     1
  1
1 - 8 UNC
  7
SLDTEXTSTYLE1
 11
-7.044195017643634E-15
 21
1.0
 31
0.0
 73
     1
 44
1.0
  0
ENDBLK
  5
36F
330
36D
100
AcDbEntity
  8
0
100
AcDbBlockEnd
  0
ENDSEC
  0
SECTION
  2
ENTITIES
  0
LINE
  5
82
330
1F
100
AcDbEntity
  8
1
  6
SLD-Solid
370
    25
100
AcDbLine
 10
1.7476022729
 20
34.925
 30
0.0
 11
0.0
 21
34.925
 31
0.0
  0
LINE
  5
83
330
1F
100
AcDbEntity
  8
1
  6
SLD-Solid
370
    25
100
AcDbLine
 10
0.0
 20
-34.925
 30
0.0
 11
1.7476022729
 21
-34.925
 31
0.0
  0
LINE
  5
84
330
1F
100
AcDbEntity
  8
1
  6
SLD-Solid
370
    25
100
AcDbLine
 10
33.576
 20
34.925
 30
0.0
 11
19.812
 21
34.925
 31
0.0
  0
LINE
  5
85
330
1F
100
AcDbEntity
  8
1
  6
SLD-Solid
370
    25
100
AcDbLine
 10
19.812
 20
-34.925
 30
0.0
 11
33.576
 21
-34.925
 31
0.0
  0
LINE
  5
86
330
1F
100
AcDbEntity
  8
1
  6
SLD-Solid
370
    25
100
AcDbLine
 10
1.7476022729
 20
-34.925
 30
0.0
 11
2.1330363037
 21
-34.7452691597
 31
0.0
  0
LINE
  5
87
330
1F
100
AcDbEntity
  8
1
  6
SLD-Solid
370
    25
100
AcDbLine
 10
2.1330363037
 20
34.7452691597
 30
0.0
 11
1.7476022729
 21
34.925
 31
0.0
  0
LINE
  5
88
330
1F
100
AcDbEntity
  8
SK1
  6
SLD-Solid
370
    25
100
AcDbLine
 10
0.0
 20
34.925
 30
0.0
 11
-99.8030472773
 21
20.3702515116
 31
0.0
  0
LINE
  5
89
330
1F
100
AcDbEntity
  8
SK1
  6
SLD-Solid
370
    25
100
AcDbLine
 10
-99.8030472773
 20
-20.3702515116
 30
0.0
 11
0.0
 21
-34.925
 31
0.0
  0
LINE
  5
8A
330
1F
100
AcDbEntity
  8
1
  6
SLD-Solid
370
    25
100
AcDbLine
 10
37.779
 20
31.75
 30
0.0
 11
36.624
 21
31.75
 31
0.0
  0
LINE
  5
8B
330
1F
100
AcDbEntity
  8
1
  6
SLD-Solid
370
    25
100
AcDbLine
 10
63.179
 20
31.75
 30
0.0
 11
57.9725423075
 21
31.75
 31
0.0
  0
LINE
  5
8C
330
1F
100
AcDbEntity
  8
1
  6
SLD-Solid
370
    25
100
AcDbLine
 10
90.932
 20
31.75
 30
0.0
 11
83.3725423075
 21
31.75
 31
0.0
  0
LINE
  5
8D
330
1F
100
AcDbEntity
  8
1
  6
SLD-Solid
370
    25
100
AcDbLine
 10
84.4137470391
 20
-31.75
 30
0.0
 11
90.932
 21
-31.75
 31
0.0
  0
LINE
  5
8E
330
1F
100
AcDbEntity
  8
1
  6
SLD-Solid
370
    25
100
AcDbLine
 10
59.0292242129
 20
-31.75
 30
0.0
 11
62.1293124226
 21
-31.75
 31
0.0
  0
LINE
  5
8F
330
1F
100
AcDbEntity
  8
1
  6
SLD-Solid
370
    25
100
AcDbLine
 10
90.932
 20
-31.75
 30
0.0
 11
101.6
 21
-21.082
 31
0.0
  0
LINE
  5
90
330
1F
100
AcDbEntity
  8
1
  6
SLD-Solid
370
    25
100
AcDbLine
 10
101.6
 20
21.082
 30
0.0
 11
90.932
 21
31.75
 31
0.0
  0
LINE
  5
91
330
1F
100
AcDbEntity
  8
1
  6
SLD-Solid
370
    25
100
AcDbLine
 10
3.95
 20
-47.4754841997
 30
0.0
 11
7.5902766066
 21
-47.4754841997
 31
0.0
  0
LINE
  5
92
330
1F
100
AcDbEntity
  8
1
  6
SLD-Solid
370
    25
100
AcDbLine
 10
3.95
 20
47.2968145978
 30
0.0
 11
3.95
 21
-47.4754841997
 31
0.0
  0
LINE
  5
93
330
1F
100
AcDbEntity
  8
1
  6
SLD-Solid
370
    25
100
AcDbLine
 10
7.5902766066
 20
47.2968145978
 30
0.0
 11
3.95
 21
47.2968145978
 31
0.0
  0
LINE
  5
94
330
1F
100
AcDbEntity
  8
1
  6
SLD-Solid
370
    25
100
AcDbLine
 10
7.5902766066
 20
47.2968145978
 30
0.0
 11
7.5902766066
 21
-47.4754841997
 31
0.0
  0
LINE
  5
95
330
1F
100
AcDbEntity
  8
1
  6
SLD-Solid
370
    25
100
AcDbLine
 10
3.2
 20
-46.6976348437
 30
0.0
 11
3.2
 21
46.5560855313
 31
0.0
  0
LINE
  5
96
330
1F
100
AcDbEntity
  8
1
  6
SLD-Solid
370
    25
100
AcDbLine
 10
14.6397233934
 20
-47.4754841997
 30
0.0
 11
18.3
 21
-47.4754841997
 31
0.0
  0
LINE
  5
97
330
1F
100
AcDbEntity
  8
1
  6
SLD-Solid
370
    25
100
AcDbLine
 10
14.6397233934
 20
47.2968145978
 30
0.0
 11
14.6397233934
 21
-47.4754841997
 31
0.0
  0
LINE
  5
98
330
1F
100
AcDbEntity
  8
1
  6
SLD-Solid
370
    25
100
AcDbLine
 10
18.3
 20
47.2968145978
 30
0.0
 11
14.6397233934
 21
47.2968145978
 31
0.0
  0
LINE
  5
99
330
1F
100
AcDbEntity
  8
1
  6
SLD-Solid
370
    25
100
AcDbLine
 10
18.3
 20
-47.4754841997
 30
0.0
 11
18.3
 21
47.2968145978
 31
0.0
  0
LINE
  5
9A
330
1F
100
AcDbEntity
  8
1
  6
SLD-Solid
370
    25
100
AcDbLine
 10
19.05
 20
46.5560855313
 30
0.0
 11
19.05
 21
-46.6976348437
 31
0.0
  0
LINE
  5
9B
330
1F
100
AcDbEntity
  8
1
  6
SLD-Solid
370
    25
100
AcDbLine
 10
13.03
 20
44.5790106634
 30
0.0
 11
13.03
 21
41.9871173317
 31
0.0
  0
LINE
  5
9C
330
1F
100
AcDbEntity
  8
1
  6
SLD-Solid
370
    25
100
AcDbLine
 10
13.03
 20
34.6324292339
 30
0.0
 11
13.03
 21
-44.5790106634
 31
0.0
  0
LINE
  5
9D
330
1F
100
AcDbEntity
  8
1
  6
SLD-Solid
370
    25
100
AcDbLine
 10
13.03
 20
41.453113616
 30
0.0
 11
13.03
 21
35.4316103884
 31
0.0
  0
LINE
  5
9E
330
1F
100
AcDbEntity
  8
1
  6
SLD-Solid
370
    25
100
AcDbLine
 10
9.2
 20
44.5790106634
 30
0.0
 11
9.2
 21
41.9587011964
 31
0.0
  0
LINE
  5
9F
330
1F
100
AcDbEntity
  8
1
  6
SLD-Solid
370
    25
100
AcDbLine
 10
9.2
 20
41.4830129515
 30
0.0
 11
9.2
 21
35.3885961177
 31
0.0
  0
LINE
  5
A0
330
1F
100
AcDbEntity
  8
1
  6
SLD-Solid
370
    25
100
AcDbLine
 10
9.2
 20
34.676688935
 30
0.0
 11
9.2
 21
-44.5790106634
 31
0.0
  0
LINE
  5
A1
330
1F
100
AcDbEntity
  8
1
  6
SLD-Solid
370
    25
100
AcDbLine
 10
12.28
 20
33.3554707167
 30
0.0
 11
12.28
 21
-43.7694359685
 31
0.0
  0
LINE
  5
A2
330
1F
100
AcDbEntity
  8
1
  6
SLD-Solid
370
    25
100
AcDbLine
 10
9.95
 20
33.3652595305
 30
0.0
 11
9.95
 21
-43.7694359685
 31
0.0
  0
LINE
  5
A3
330
1F
100
AcDbEntity
  8
1
  6
SLD-Solid
370
    25
100
AcDbLine
 10
9.95
 20
-43.7694359685
 30
0.0
 11
12.28
 21
-43.7694359685
 31
0.0
  0
LINE
  5
A4
330
1F
100
AcDbEntity
  8
1
  6
SLD-Solid
370
    25
100
AcDbLine
 10
0.0
 20
34.925
 30
0.0
 11
0.0
 21
-34.925
 31
0.0
  0
LINE
  5
A5
330
1F
100
AcDbEntity
  8
1
  6
SLD-Solid
370
    25
100
AcDbLine
 10
1.7476022729
 20
34.925
 30
0.0
 11
1.7476022729
 21
-34.925
 31
0.0
  0
LINE
  5
A6
330
1F
100
AcDbEntity
  8
1
  6
SLD-Solid
370
    25
100
AcDbLine
 10
35.1
 20
0.0
 30
0.0
 11
35.1
 21
-33.401
 31
0.0
  0
LINE
  5
A7
330
1F
100
AcDbEntity
  8
1
  6
SLD-Solid
370
    25
100
AcDbLine
 10
35.1
 20
33.401
 30
0.0
 11
35.1
 21
0.0
 31
0.0
  0
LINE
  5
A8
330
1F
100
AcDbEntity
  8
1
  6
SLD-Solid
370
    25
100
AcDbLine
 10
90.932
 20
31.75
 30
0.0
 11
90.932
 21
-31.75
 31
0.0
  0
LINE
  5
A9
330
1F
100
AcDbEntity
  8
1
  6
SLD-Solid
370
    25
100
AcDbLine
 10
101.6
 20
21.082
 30
0.0
 11
101.6
 21
-21.082
 31
0.0
  0
LINE
  5
AA
330
1F
100
AcDbEntity
  8
1
  6
SLD-Solid
370
    25
100
AcDbLine
 10
13.03
 20
35.4113240881
 30
0.0
 11
13.03
 21
35.4316103884
 31
0.0
  0
LINE
  5
AB
330
1F
100
AcDbEntity
  8
1
  6
SLD-Solid
370
    25
100
AcDbLine
 10
9.2
 20
35.3885961177
 30
0.0
 11
9.2
 21
35.3683101782
 31
0.0
  0
LINE
  5
AC
330
1F
100
AcDbEntity
  8
1
  6
SLD-Solid
370
    25
100
AcDbLine
 10
9.95
 20
40.2901760725
 30
0.0
 11
9.95
 21
35.4888548114
 31
0.0
  0
LINE
  5
AD
330
1F
100
AcDbEntity
  8
1
  6
SLD-Solid
370
    25
100
AcDbLine
 10
12.28
 20
40.2834337913
 30
0.0
 11
12.28
 21
35.4978726362
 31
0.0
  0
LINE
  5
AE
330
1F
100
AcDbEntity
  8
1
  6
SLD-Solid
370
    25
100
AcDbLine
 10
9.2
 20
41.9587011964
 30
0.0
 11
9.2
 21
41.9345423912
 31
0.0
  0
LINE
  5
AF
330
1F
100
AcDbEntity
  8
1
  6
SLD-Solid
370
    25
100
AcDbLine
 10
13.03
 20
41.9629580968
 30
0.0
 11
13.03
 21
41.9871173317
 31
0.0
  0
LINE
  5
B0
330
1F
100
AcDbEntity
  8
SK1
  6
SLD-Solid
370
    25
100
AcDbLine
 10
-101.6
 20
-18.2922326599
 30
0.0
 11
-101.6
 21
18.2922326599
 31
0.0
  0
LINE
  5
B1
330
1F
100
AcDbEntity
  8
1
  6
SLD-Solid
370
    25
100
AcDbLine
 10
9.95
 20
43.7694359685
 30
0.0
 11
9.95
 21
41.7091381742
 31
0.0
  0
LINE
  5
B2
330
1F
100
AcDbEntity
  8
1
  6
SLD-Solid
370
    25
100
AcDbLine
 10
12.28
 20
43.7694359685
 30
0.0
 11
12.28
 21
41.714962274
 31
0.0
  0
LINE
  5
B3
330
1F
100
AcDbEntity
  8
1
  6
SLD-Solid
370
    25
100
AcDbLine
 10
9.95
 20
43.7694359685
 30
0.0
 11
12.28
 21
43.7694359685
 31
0.0
  0
LINE
  5
B4
330
1F
100
AcDbEntity
  8
1
  6
SLD-Solid
370
    25
100
AcDbLine
 10
19.812
 20
0.0
 30
0.0
 11
19.812
 21
-34.925
 31
0.0
  0
LINE
  5
B5
330
1F
100
AcDbEntity
  8
1
  6
SLD-Solid
370
    25
100
AcDbLine
 10
19.812
 20
34.925
 30
0.0
 11
19.812
 21
0.0
 31
0.0
  0
LINE
  5
B6
330
1F
100
AcDbEntity
  8
1
  6
SLD-Solid
370
    25
100
AcDbLine
 10
2.1330363037
 20
34.7452691597
 30
0.0
 11
2.1330363037
 21
-34.7452691597
 31
0.0
  0
LINE
  5
B7
330
1F
100
AcDbEntity
  8
1
  6
SLD-Solid
370
    25
100
AcDbLine
 10
33.576
 20
0.0
 30
0.0
 11
33.576
 21
34.925
 31
0.0
  0
LINE
  5
B8
330
1F
100
AcDbEntity
  8
1
  6
SLD-Solid
370
    25
100
AcDbLine
 10
33.576
 20
-34.925
 30
0.0
 11
33.576
 21
0.0
 31
0.0
  0
LINE
  5
B9
330
1F
100
AcDbEntity
  8
SK1
  6
SLD-Solid
370
    25
100
AcDbLine
 10
-99.8030472773
 20
0.0
 30
0.0
 11
-99.8030472773
 21
-20.3702515116
 31
0.0
  0
LINE
  5
BA
330
1F
100
AcDbEntity
  8
SK1
  6
SLD-Solid
370
    25
100
AcDbLine
 10
-99.8030472773
 20
20.3702515116
 30
0.0
 11
-99.8030472773
 21
0.0
 31
0.0
  0
LINE
  5
BB
330
1F
100
AcDbEntity
  8
1
  6
SLD-Solid
370
    25
100
AcDbLine
 10
36.624
 20
0.0
 30
0.0
 11
36.624
 21
-31.75
 31
0.0
  0
LINE
  5
BC
330
1F
100
AcDbEntity
  8
1
  6
SLD-Solid
370
    25
100
AcDbLine
 10
36.624
 20
31.75
 30
0.0
 11
36.624
 21
0.0
 31
0.0
  0
LINE
  5
BD
330
1F
100
AcDbEntity
  8
SK3
  6
SLD-Dashed
370
    18
100
AcDbLine
 10
6.4723069743
 20
-13.9015950424
 30
0.0
 11
6.3056572614
 21
-13.2437532254
 31
0.0
  0
LINE
  5
BE
330
1F
100
AcDbEntity
  8
SK3
  6
SLD-Dashed
370
    18
100
AcDbLine
 10
6.3056572614
 20
-13.2437532254
 30
0.0
 11
6.0455057258
 21
-12.630742241
 31
0.0
  0
LINE
  5
BF
330
1F
100
AcDbEntity
  8
SK3
  6
SLD-Dashed
370
    18
100
AcDbLine
 10
6.0455057258
 20
-12.630742241
 30
0.0
 11
5.7095812647
 21
-12.1043377749
 31
0.0
  0
LINE
  5
C0
330
1F
100
AcDbEntity
  8
SK3
  6
SLD-Dashed
370
    18
100
AcDbLine
 10
5.7095812647
 20
-12.1043377749
 30
0.0
 11
5.3207765751
 21
-11.7004134215
 31
0.0
  0
LINE
  5
C1
330
1F
100
AcDbEntity
  8
SK3
  6
SLD-Dashed
370
    18
100
AcDbLine
 10
5.3207765751
 20
-11.7004134215
 30
0.0
 11
4.905588054
 21
-11.4464959579
 31
0.0
  0
LINE
  5
C2
330
1F
100
AcDbEntity
  8
SK3
  6
SLD-Dashed
370
    18
100
AcDbLine
 10
4.905588054
 20
-11.4464959579
 30
0.0
 11
4.492310113
 21
-11.3598894396
 31
0.0
  0
LINE
  5
C3
330
1F
100
AcDbEntity
  8
SK3
  6
SLD-Dashed
370
    18
100
AcDbLine
 10
4.492310113
 20
-11.3598894396
 30
0.0
 11
4.1091069607
 21
-11.4464959579
 31
0.0
  0
LINE
  5
C4
330
1F
100
AcDbEntity
  8
SK3
  6
SLD-Dashed
370
    18
100
AcDbLine
 10
4.1091069607
 20
-11.4464959579
 30
0.0
 11
3.7820932588
 21
-11.7004134215
 31
0.0
  0
LINE
  5
C5
330
1F
100
AcDbEntity
  8
SK3
  6
SLD-Dashed
370
    18
100
AcDbLine
 10
3.7820932588
 20
-11.7004134215
 30
0.0
 11
3.5335544506
 21
-12.1043377749
 31
0.0
  0
LINE
  5
C6
330
1F
100
AcDbEntity
  8
SK3
  6
SLD-Dashed
370
    18
100
AcDbLine
 10
3.5335544506
 20
-12.1043377749
 30
0.0
 11
3.3804280451
 21
-12.630742241
 31
0.0
  0
LINE
  5
C7
330
1F
100
AcDbEntity
  8
SK3
  6
SLD-Dashed
370
    18
100
AcDbLine
 10
3.3804280451
 20
-12.630742241
 30
0.0
 11
3.3331493539
 21
-13.2437532254
 31
0.0
  0
LINE
  5
C8
330
1F
100
AcDbEntity
  8
SK3
  6
SLD-Dashed
370
    18
100
AcDbLine
 10
3.3331493539
 20
-13.2437532254
 30
0.0
 11
3.3949403416
 21
-13.9015950424
 31
0.0
  0
LINE
  5
C9
330
1F
100
AcDbEntity
  8
SK3
  6
SLD-Dashed
370
    18
100
AcDbLine
 10
3.3949403416
 20
-13.9015950424
 30
0.0
 11
3.5615900545
 21
-14.5594368595
 31
0.0
  0
LINE
  5
CA
330
1F
100
AcDbEntity
  8
SK3
  6
SLD-Dashed
370
    18
100
AcDbLine
 10
3.5615900545
 20
-14.5594368595
 30
0.0
 11
3.8217415901
 21
-15.1724478438
 31
0.0
  0
LINE
  5
CB
330
1F
100
AcDbEntity
  8
SK3
  6
SLD-Dashed
370
    18
100
AcDbLine
 10
3.8217415901
 20
-15.1724478438
 30
0.0
 11
4.1576660511
 21
-15.6988523099
 31
0.0
  0
LINE
  5
CC
330
1F
100
AcDbEntity
  8
SK3
  6
SLD-Dashed
370
    18
100
AcDbLine
 10
4.1576660511
 20
-15.6988523099
 30
0.0
 11
4.5464707407
 21
-16.1027766634
 31
0.0
  0
LINE
  5
CD
330
1F
100
AcDbEntity
  8
SK3
  6
SLD-Dashed
370
    18
100
AcDbLine
 10
4.5464707407
 20
-16.1027766634
 30
0.0
 11
4.9616592619
 21
-16.356694127
 31
0.0
  0
LINE
  5
CE
330
1F
100
AcDbEntity
  8
SK3
  6
SLD-Dashed
370
    18
100
AcDbLine
 10
4.9616592619
 20
-16.356694127
 30
0.0
 11
5.3749372029
 21
-16.4433006452
 31
0.0
  0
LINE
  5
CF
330
1F
100
AcDbEntity
  8
SK3
  6
SLD-Dashed
370
    18
100
AcDbLine
 10
5.3749372029
 20
-16.4433006452
 30
0.0
 11
5.7581403551
 21
-16.356694127
 31
0.0
  0
LINE
  5
D0
330
1F
100
AcDbEntity
  8
SK3
  6
SLD-Dashed
370
    18
100
AcDbLine
 10
5.7581403551
 20
-16.356694127
 30
0.0
 11
6.0851540571
 21
-16.1027766634
 31
0.0
  0
LINE
  5
D1
330
1F
100
AcDbEntity
  8
SK3
  6
SLD-Dashed
370
    18
100
AcDbLine
 10
6.0851540571
 20
-16.1027766634
 30
0.0
 11
6.3336928653
 21
-15.6988523099
 31
0.0
  0
LINE
  5
D2
330
1F
100
AcDbEntity
  8
SK3
  6
SLD-Dashed
370
    18
100
AcDbLine
 10
6.3336928653
 20
-15.6988523099
 30
0.0
 11
6.4868192707
 21
-15.1724478438
 31
0.0
  0
LINE
  5
D3
330
1F
100
AcDbEntity
  8
SK3
  6
SLD-Dashed
370
    18
100
AcDbLine
 10
6.4868192707
 20
-15.1724478438
 30
0.0
 11
6.5340979619
 21
-14.5594368595
 31
0.0
  0
LINE
  5
D4
330
1F
100
AcDbEntity
  8
SK3
  6
SLD-Dashed
370
    18
100
AcDbLine
 10
6.5340979619
 20
-14.5594368595
 30
0.0
 11
6.4723069743
 21
-13.9015950424
 31
0.0
  0
LINE
  5
D5
330
1F
100
AcDbEntity
  8
SK3
  6
SLD-Dashed
370
    18
100
AcDbLine
 10
6.4545594773
 20
-13.8826166832
 30
0.0
 11
6.5129886022
 21
-14.5287984962
 31
0.0
  0
LINE
  5
D6
330
1F
100
AcDbEntity
  8
SK3
  6
SLD-Dashed
370
    18
100
AcDbLine
 10
6.5129886022
 20
-14.5287984962
 30
0.0
 11
6.4595508826
 21
-15.1270559603
 31
0.0
  0
LINE
  5
D7
330
1F
100
AcDbEntity
  8
SK3
  6
SLD-Dashed
370
    18
100
AcDbLine
 10
6.4595508826
 20
-15.1270559603
 30
0.0
 11
6.2982095497
 21
-15.6330190561
 31
0.0
  0
LINE
  5
D8
330
1F
100
AcDbEntity
  8
SK3
  6
SLD-Dashed
370
    18
100
AcDbLine
 10
6.2982095497
 20
-15.6330190561
 30
0.0
 11
6.0409305521
 21
-16.0091628154
 31
0.0
  0
LINE
  5
D9
330
1F
100
AcDbEntity
  8
SK3
  6
SLD-Dashed
370
    18
100
AcDbLine
 10
6.0409305521
 20
-16.0091628154
 30
0.0
 11
5.7067950961
 21
-16.2275903765
 31
0.0
  0
LINE
  5
DA
330
1F
100
AcDbEntity
  8
SK3
  6
SLD-Dashed
370
    18
100
AcDbLine
 10
5.7067950961
 20
-16.2275903765
 30
0.0
 11
5.32058448
 21
-16.2721019662
 31
0.0
  0
LINE
  5
DB
330
1F
100
AcDbEntity
  8
SK3
  6
SLD-Dashed
370
    18
100
AcDbLine
 10
5.32058448
 20
-16.2721019662
 30
0.0
 11
4.9109421782
 21
-16.1393963637
 31
0.0
  0
LINE
  5
DC
330
1F
100
AcDbEntity
  8
SK3
  6
SLD-Dashed
370
    18
100
AcDbLine
 10
4.9109421782
 20
-16.1393963637
 30
0.0
 11
4.5082494863
 21
-15.8393157363
 31
0.0
  0
LINE
  5
DD
330
1F
100
AcDbEntity
  8
SK3
  6
SLD-Dashed
370
    18
100
AcDbLine
 10
4.5082494863
 20
-15.8393157363
 30
0.0
 11
4.1423722791
 21
-15.3941156915
 31
0.0
  0
LINE
  5
DE
330
1F
100
AcDbEntity
  8
SK3
  6
SLD-Dashed
370
    18
100
AcDbLine
 10
4.1423722791
 20
-15.3941156915
 30
0.0
 11
3.8404459953
 21
-14.8368146799
 31
0.0
  0
LINE
  5
DF
330
1F
100
AcDbEntity
  8
SK3
  6
SLD-Dashed
370
    18
100
AcDbLine
 10
3.8404459953
 20
-14.8368146799
 30
0.0
 11
3.6248631261
 21
-14.208745168
 31
0.0
  0
LINE
  5
E0
330
1F
100
AcDbEntity
  8
SK3
  6
SLD-Dashed
370
    18
100
AcDbLine
 10
3.6248631261
 20
-14.208745168
 30
0.0
 11
3.5116124667
 21
-13.5564881983
 31
0.0
  0
LINE
  5
E1
330
1F
100
AcDbEntity
  8
SK3
  6
SLD-Dashed
370
    18
100
AcDbLine
 10
3.5116124667
 20
-13.5564881983
 30
0.0
 11
3.5090933004
 21
-12.9284186865
 31
0.0
  0
LINE
  5
E2
330
1F
100
AcDbEntity
  8
SK3
  6
SLD-Dashed
370
    18
100
AcDbLine
 10
3.5090933004
 20
-12.9284186865
 30
0.0
 11
3.6174924623
 21
-12.3711176748
 31
0.0
  0
LINE
  5
E3
330
1F
100
AcDbEntity
  8
SK3
  6
SLD-Dashed
370
    18
100
AcDbLine
 10
3.6174924623
 20
-12.3711176748
 30
0.0
 11
3.8287704824
 21
-11.92591763
 31
0.0
  0
LINE
  5
E4
330
1F
100
AcDbEntity
  8
SK3
  6
SLD-Dashed
370
    18
100
AcDbLine
 10
3.8287704824
 20
-11.92591763
 30
0.0
 11
4.1272578365
 21
-11.6258370026
 31
0.0
  0
LINE
  5
E5
330
1F
100
AcDbEntity
  8
SK3
  6
SLD-Dashed
370
    18
100
AcDbLine
 10
4.1272578365
 20
-11.6258370026
 30
0.0
 11
4.490817083
 21
-11.4931314001
 31
0.0
  0
LINE
  5
E6
330
1F
100
AcDbEntity
  8
SK3
  6
SLD-Dashed
370
    18
100
AcDbLine
 10
4.490817083
 20
-11.4931314001
 30
0.0
 11
4.8924846959
 21
-11.5376429899
 31
0.0
  0
LINE
  5
E7
330
1F
100
AcDbEntity
  8
SK3
  6
SLD-Dashed
370
    18
100
AcDbLine
 10
4.8924846959
 20
-11.5376429899
 30
0.0
 11
5.3024708256
 21
-11.7560705509
 31
0.0
  0
LINE
  5
E8
330
1F
100
AcDbEntity
  8
SK3
  6
SLD-Dashed
370
    18
100
AcDbLine
 10
5.3024708256
 20
-11.7560705509
 30
0.0
 11
5.6903686767
 21
-12.1322143103
 31
0.0
  0
LINE
  5
E9
330
1F
100
AcDbEntity
  8
SK3
  6
SLD-Dashed
370
    18
100
AcDbLine
 10
5.6903686767
 20
-12.1322143103
 30
0.0
 11
6.0274096399
 21
-12.6381774061
 31
0.0
  0
LINE
  5
EA
330
1F
100
AcDbEntity
  8
SK3
  6
SLD-Dashed
370
    18
100
AcDbLine
 10
6.0274096399
 20
-12.6381774061
 30
0.0
 11
6.2885969289
 21
-13.2364348701
 31
0.0
  0
LINE
  5
EB
330
1F
100
AcDbEntity
  8
SK3
  6
SLD-Dashed
370
    18
100
AcDbLine
 10
6.2885969289
 20
-13.2364348701
 30
0.0
 11
6.4545594773
 21
-13.8826166832
 31
0.0
  0
LINE
  5
EC
330
1F
100
AcDbEntity
  8
SK3
  6
SLD-Dashed
370
    18
100
AcDbLine
 10
17.1792841073
 20
-11.0168048658
 30
0.0
 11
17.0133215589
 21
-10.3706230527
 31
0.0
  0
LINE
  5
ED
330
1F
100
AcDbEntity
  8
SK3
  6
SLD-Dashed
370
    18
100
AcDbLine
 10
17.0133215589
 20
-10.3706230527
 30
0.0
 11
16.7521342699
 21
-9.7723655887
 31
0.0
  0
LINE
  5
EE
330
1F
100
AcDbEntity
  8
SK3
  6
SLD-Dashed
370
    18
100
AcDbLine
 10
16.7521342699
 20
-9.7723655887
 30
0.0
 11
16.4150933067
 21
-9.2664024929
 31
0.0
  0
LINE
  5
EF
330
1F
100
AcDbEntity
  8
SK3
  6
SLD-Dashed
370
    18
100
AcDbLine
 10
16.4150933067
 20
-9.2664024929
 30
0.0
 11
16.0271954557
 21
-8.8902587335
 31
0.0
  0
LINE
  5
F0
330
1F
100
AcDbEntity
  8
SK3
  6
SLD-Dashed
370
    18
100
AcDbLine
 10
16.0271954557
 20
-8.8902587335
 30
0.0
 11
15.6172093259
 21
-8.6718311725
 31
0.0
  0
LINE
  5
F1
330
1F
100
AcDbEntity
  8
SK3
  6
SLD-Dashed
370
    18
100
AcDbLine
 10
15.6172093259
 20
-8.6718311725
 30
0.0
 11
15.2155417131
 21
-8.6273195827
 31
0.0
  0
LINE
  5
F2
330
1F
100
AcDbEntity
  8
SK3
  6
SLD-Dashed
370
    18
100
AcDbLine
 10
15.2155417131
 20
-8.6273195827
 30
0.0
 11
14.8519824665
 21
-8.7600251853
 31
0.0
  0
LINE
  5
F3
330
1F
100
AcDbEntity
  8
SK3
  6
SLD-Dashed
370
    18
100
AcDbLine
 10
14.8519824665
 20
-8.7600251853
 30
0.0
 11
14.5534951125
 21
-9.0601058126
 31
0.0
  0
LINE
  5
F4
330
1F
100
AcDbEntity
  8
SK3
  6
SLD-Dashed
370
    18
100
AcDbLine
 10
14.5534951125
 20
-9.0601058126
 30
0.0
 11
14.3422170924
 21
-9.5053058575
 31
0.0
  0
LINE
  5
F5
330
1F
100
AcDbEntity
  8
SK3
  6
SLD-Dashed
370
    18
100
AcDbLine
 10
14.3422170924
 20
-9.5053058575
 30
0.0
 11
14.2338179305
 21
-10.0626068691
 31
0.0
  0
LINE
  5
F6
330
1F
100
AcDbEntity
  8
SK3
  6
SLD-Dashed
370
    18
100
AcDbLine
 10
14.2338179305
 20
-10.0626068691
 30
0.0
 11
14.2363370967
 21
-10.690676381
 31
0.0
  0
LINE
  5
F7
330
1F
100
AcDbEntity
  8
SK3
  6
SLD-Dashed
370
    18
100
AcDbLine
 10
14.2363370967
 20
-10.690676381
 30
0.0
 11
14.3495877561
 21
-11.3429333506
 31
0.0
  0
LINE
  5
F8
330
1F
100
AcDbEntity
  8
SK3
  6
SLD-Dashed
370
    18
100
AcDbLine
 10
14.3495877561
 20
-11.3429333506
 30
0.0
 11
14.5651706253
 21
-11.9710028625
 31
0.0
  0
LINE
  5
F9
330
1F
100
AcDbEntity
  8
SK3
  6
SLD-Dashed
370
    18
100
AcDbLine
 10
14.5651706253
 20
-11.9710028625
 30
0.0
 11
14.8670969091
 21
-12.5283038741
 31
0.0
  0
LINE
  5
FA
330
1F
100
AcDbEntity
  8
SK3
  6
SLD-Dashed
370
    18
100
AcDbLine
 10
14.8670969091
 20
-12.5283038741
 30
0.0
 11
15.2329741163
 21
-12.9735039189
 31
0.0
  0
LINE
  5
FB
330
1F
100
AcDbEntity
  8
SK3
  6
SLD-Dashed
370
    18
100
AcDbLine
 10
15.2329741163
 20
-12.9735039189
 30
0.0
 11
15.6356668082
 21
-13.2735845463
 31
0.0
  0
LINE
  5
FC
330
1F
100
AcDbEntity
  8
SK3
  6
SLD-Dashed
370
    18
100
AcDbLine
 10
15.6356668082
 20
-13.2735845463
 30
0.0
 11
16.04530911
 21
-13.4062901488
 31
0.0
  0
LINE
  5
FD
330
1F
100
AcDbEntity
  8
SK3
  6
SLD-Dashed
370
    18
100
AcDbLine
 10
16.04530911
 20
-13.4062901488
 30
0.0
 11
16.4315197262
 21
-13.3617785591
 31
0.0
  0
LINE
  5
FE
330
1F
100
AcDbEntity
  8
SK3
  6
SLD-Dashed
370
    18
100
AcDbLine
 10
16.4315197262
 20
-13.3617785591
 30
0.0
 11
16.7656551822
 21
-13.1433509981
 31
0.0
  0
LINE
  5
FF
330
1F
100
AcDbEntity
  8
SK3
  6
SLD-Dashed
370
    18
100
AcDbLine
 10
16.7656551822
 20
-13.1433509981
 30
0.0
 11
17.0229341797
 21
-12.7672072387
 31
0.0
  0
LINE
  5
100
330
1F
100
AcDbEntity
  8
SK3
  6
SLD-Dashed
370
    18
100
AcDbLine
 10
17.0229341797
 20
-12.7672072387
 30
0.0
 11
17.1842755126
 21
-12.2612441429
 31
0.0
  0
LINE
  5
101
330
1F
100
AcDbEntity
  8
SK3
  6
SLD-Dashed
370
    18
100
AcDbLine
 10
17.1842755126
 20
-12.2612441429
 30
0.0
 11
17.2377132322
 21
-11.6629866788
 31
0.0
  0
LINE
  5
102
330
1F
100
AcDbEntity
  8
SK3
  6
SLD-Dashed
370
    18
100
AcDbLine
 10
17.2377132322
 20
-11.6629866788
 30
0.0
 11
17.1792841073
 21
-11.0168048658
 31
0.0
  0
LINE
  5
103
330
1F
100
AcDbEntity
  8
SK3
  6
SLD-Dashed
370
    18
100
AcDbLine
 10
100.1
 20
-15.875
 30
0.0
 11
100.1
 21
15.875
 31
0.0
  0
LINE
  5
104
330
1F
100
AcDbEntity
  8
SK3
  6
SLD-Dashed
370
    18
100
AcDbLine
 10
101.6
 20
-16.7195384177
 30
0.0
 11
101.6
 21
16.7195384177
 31
0.0
  0
LINE
  5
105
330
1F
100
AcDbEntity
  8
SK3
  6
SLD-Dashed
370
    18
100
AcDbLine
 10
16.66
 20
-16.0621731018
 30
0.0
 11
16.66
 21
16.0621731018
 31
0.0
  0
LINE
  5
106
330
1F
100
AcDbEntity
  8
SK3
  6
SLD-Dashed
370
    18
100
AcDbLine
 10
41.76
 20
14.8521670907
 30
0.0
 11
41.76
 21
-16.045873668
 31
0.0
  0
LINE
  5
107
330
1F
100
AcDbEntity
  8
SK3
  6
SLD-Dashed
370
    18
100
AcDbLine
 10
41.91
 20
14.6279156851
 30
0.0
 11
41.91
 21
-15.9175
 31
0.0
  0
LINE
  5
108
330
1F
100
AcDbEntity
  8
SK3
  6
SLD-Dashed
370
    18
100
AcDbLine
 10
16.51
 20
-15.9175
 30
0.0
 11
16.51
 21
15.9175
 31
0.0
  0
LINE
  5
109
330
1F
100
AcDbEntity
  8
SK3
  6
SLD-Dashed
370
    18
100
AcDbLine
 10
41.91
 20
14.5816575203
 30
0.0
 11
41.91
 21
-15.8538653443
 31
0.0
  0
LINE
  5
10A
330
1F
100
AcDbEntity
  8
SK3
  6
SLD-Dashed
370
    18
100
AcDbLine
 10
15.1
 20
-15.875
 30
0.0
 11
15.1
 21
15.875
 31
0.0
  0
LINE
  5
10B
330
1F
100
AcDbEntity
  8
SK3
  6
SLD-Dashed
370
    18
100
AcDbLine
 10
16.51
 20
15.8697369218
 30
0.0
 11
16.51
 21
-15.8697369218
 31
0.0
  0
LINE
  5
10C
330
1F
100
AcDbEntity
  8
SK3
  6
SLD-Dashed
370
    18
100
AcDbLine
 10
12.2384013019
 20
2.6335297849
 30
0.0
 11
12.2384013019
 21
-11.1125
 31
0.0
  0
LINE
  5
10D
330
1F
100
AcDbEntity
  8
SK3
  6
SLD-Dashed
370
    18
100
AcDbLine
 10
12.2384013019
 20
-2.6335297849
 30
0.0
 11
12.2384013019
 21
11.1125
 31
0.0
  0
LINE
  5
10E
330
1F
100
AcDbEntity
  8
SK3
  6
SLD-Dashed
370
    18
100
AcDbLine
 10
-99.7034043657
 20
-13.19
 30
0.0
 11
-99.7034043657
 21
13.19
 31
0.0
  0
LINE
  5
10F
330
1F
100
AcDbEntity
  8
SK3
  6
SLD-Dashed
370
    18
100
AcDbLine
 10
-101.6
 20
-14.2640498169
 30
0.0
 11
-101.6
 21
14.2640498169
 31
0.0
  0
LINE
  5
110
330
1F
100
AcDbEntity
  8
SK3
  6
SLD-Dashed
370
    18
100
AcDbLine
 10
-95.25
 20
-13.19
 30
0.0
 11
-95.25
 21
13.19
 31
0.0
  0
LINE
  5
111
330
1F
100
AcDbEntity
  8
SK3
  6
SLD-Dashed
370
    18
100
AcDbLine
 10
-94.0505548158
 20
-11.1125
 30
0.0
 11
-94.0505548158
 21
11.1125
 31
0.0
  0
LINE
  5
112
330
1F
100
AcDbEntity
  8
SK3
  6
SLD-Dashed
370
    18
100
AcDbLine
 10
3.7
 20
37.875
 30
0.0
 11
3.7
 21
46.5560855313
 31
0.0
  0
LINE
  5
113
330
1F
100
AcDbEntity
  8
SK3
  6
SLD-Dashed
370
    18
100
AcDbLine
 10
18.55
 20
46.5560855313
 30
0.0
 11
18.55
 21
37.875
 31
0.0
  0
LINE
  5
114
330
1F
100
AcDbEntity
  8
SK3
  6
SLD-Dashed
370
    18
100
AcDbLine
 10
14.2727106199
 20
46.8162535878
 30
0.0
 11
18.3
 21
46.8162535878
 31
0.0
  0
LINE
  5
115
330
1F
100
AcDbEntity
  8
SK3
  6
SLD-Dashed
370
    18
100
AcDbLine
 10
3.95
 20
46.8162535878
 30
0.0
 11
7.9572893801
 21
46.8162535878
 31
0.0
  0
LINE
  5
116
330
1F
100
AcDbEntity
  8
1
  6
SLD-Dashed
370
    18
100
AcDbLine
 10
13.03
 20
44.5510215932
 30
0.0
 11
13.03
 21
44.5790106634
 31
0.0
  0
LINE
  5
117
330
1F
100
AcDbEntity
  8
1
  6
SLD-Dashed
370
    18
100
AcDbLine
 10
9.2
 20
44.5790106634
 30
0.0
 11
9.2
 21
44.5510215932
 31
0.0
  0
LINE
  5
118
330
1F
100
AcDbEntity
  8
1
  6
SLD-Dashed
370
    18
100
AcDbLine
 10
9.2
 20
-44.5790106634
 30
0.0
 11
9.2
 21
-44.5510215932
 31
0.0
  0
LINE
  5
119
330
1F
100
AcDbEntity
  8
1
  6
SLD-Dashed
370
    18
100
AcDbLine
 10
13.03
 20
-44.5510215932
 30
0.0
 11
13.03
 21
-44.5790106634
 31
0.0
  0
LINE
  5
11A
330
1F
100
AcDbEntity
  8
SK3
  6
SLD-Dashed
370
    18
100
AcDbLine
 10
3.2
 20
-35.475
 30
0.0
 11
3.2
 21
-46.6976348437
 31
0.0
  0
LINE
  5
11B
330
1F
100
AcDbEntity
  8
SK3
  6
SLD-Dashed
370
    18
100
AcDbLine
 10
19.05
 20
-46.6976348437
 30
0.0
 11
19.05
 21
-35.475
 31
0.0
  0
LINE
  5
11C
330
1F
100
AcDbEntity
  8
SK3
  6
SLD-Dashed
370
    18
100
AcDbLine
 10
19.05
 20
-35.1
 30
0.0
 11
3.2
 21
-35.1
 31
0.0
  0
LINE
  5
11D
330
1F
100
AcDbEntity
  8
SK3
  6
SLD-Dashed
370
    18
100
AcDbLine
 10
3.2
 20
-35.475
 30
0.0
 11
19.05
 21
-35.475
 31
0.0
  0
LINE
  5
11E
330
1F
100
AcDbEntity
  8
SK3
  6
SLD-Dashed
370
    18
100
AcDbLine
 10
3.7
 20
37.5
 30
0.0
 11
18.55
 21
37.5
 31
0.0
  0
LINE
  5
11F
330
1F
100
AcDbEntity
  8
SK3
  6
SLD-Dashed
370
    18
100
AcDbLine
 10
18.55
 20
37.875
 30
0.0
 11
3.7
 21
37.875
 31
0.0
  0
LINE
  5
120
330
1F
100
AcDbEntity
  8
SK3
  6
SLD-Dashed
370
    18
100
AcDbLine
 10
83.379
 20
29.65
 30
0.0
 11
63.179
 21
29.65
 31
0.0
  0
LINE
  5
121
330
1F
100
AcDbEntity
  8
SK3
  6
SLD-Dashed
370
    18
100
AcDbLine
 10
57.979
 20
29.65
 30
0.0
 11
37.779
 21
29.65
 31
0.0
  0
LINE
  5
122
330
1F
100
AcDbEntity
  8
SK3
  6
SLD-Dashed
370
    18
100
AcDbLine
 10
56.5404
 20
29.65
 30
0.0
 11
39.2386987351
 21
29.65
 31
0.0
  0
LINE
  5
123
330
1F
100
AcDbEntity
  8
SK3
  6
SLD-Dashed
370
    18
100
AcDbLine
 10
41.91
 20
14.6279156851
 30
0.0
 11
41.91
 21
14.5816575203
 31
0.0
  0
LINE
  5
124
330
1F
100
AcDbEntity
  8
SK3
  6
SLD-Dashed
370
    18
100
AcDbLine
 10
81.9404
 20
29.65
 30
0.0
 11
64.6386987351
 21
29.65
 31
0.0
  0
LINE
  5
125
330
1F
100
AcDbEntity
  8
SK3
  6
SLD-Dashed
370
    18
100
AcDbLine
 10
6.4000002988
 20
32.8
 30
0.0
 11
15.8
 21
32.8
 31
0.0
  0
LINE
  5
126
330
1F
100
AcDbEntity
  8
SK3
  6
SLD-Dashed
370
    18
100
AcDbLine
 10
16.1
 20
33.1
 30
0.0
 11
6.1
 21
33.1
 31
0.0
  0
LINE
  5
127
330
1F
100
AcDbEntity
  8
SK3
  6
SLD-Dashed
370
    18
100
AcDbLine
 10
6.1
 20
37.5
 30
0.0
 11
16.1
 21
37.5
 31
0.0
  0
LINE
  5
128
330
1F
100
AcDbEntity
  8
1
  6
SLD-Dashed
370
    18
100
AcDbLine
 10
12.28
 20
43.7694359685
 30
0.0
 11
9.95
 21
43.7694359685
 31
0.0
  0
LINE
  5
129
330
1F
100
AcDbEntity
  8
1
  6
SLD-Dashed
370
    18
100
AcDbLine
 10
12.28
 20
-43.7694359685
 30
0.0
 11
9.95
 21
-43.7694359685
 31
0.0
  0
LINE
  5
12A
330
1F
100
AcDbEntity
  8
1
  6
SLD-Dashed
370
    18
100
AcDbLine
 10
18.3
 20
-47.4754841997
 30
0.0
 11
14.6397233934
 21
-47.4754841997
 31
0.0
  0
LINE
  5
12B
330
1F
100
AcDbEntity
  8
1
  6
SLD-Dashed
370
    18
100
AcDbLine
 10
7.5902766066
 20
-47.4754841997
 30
0.0
 11
3.95
 21
-47.4754841997
 31
0.0
  0
LINE
  5
12C
330
1F
100
AcDbEntity
  8
SK3
  6
SLD-Dashed
370
    18
100
AcDbLine
 10
3.5547332273
 20
13.8826166832
 30
0.0
 11
3.4963041025
 21
13.2364348701
 31
0.0
  0
LINE
  5
12D
330
1F
100
AcDbEntity
  8
SK3
  6
SLD-Dashed
370
    18
100
AcDbLine
 10
3.4963041025
 20
13.2364348701
 30
0.0
 11
3.5497418221
 21
12.6381774061
 31
0.0
  0
LINE
  5
12E
330
1F
100
AcDbEntity
  8
SK3
  6
SLD-Dashed
370
    18
100
AcDbLine
 10
3.5497418221
 20
12.6381774061
 30
0.0
 11
3.7110831549
 21
12.1322143103
 31
0.0
  0
LINE
  5
12F
330
1F
100
AcDbEntity
  8
SK3
  6
SLD-Dashed
370
    18
100
AcDbLine
 10
3.7110831549
 20
12.1322143103
 30
0.0
 11
3.9683621525
 21
11.7560705509
 31
0.0
  0
LINE
  5
130
330
1F
100
AcDbEntity
  8
SK3
  6
SLD-Dashed
370
    18
100
AcDbLine
 10
3.9683621525
 20
11.7560705509
 30
0.0
 11
4.3024976085
 21
11.5376429899
 31
0.0
  0
LINE
  5
131
330
1F
100
AcDbEntity
  8
SK3
  6
SLD-Dashed
370
    18
100
AcDbLine
 10
4.3024976085
 20
11.5376429899
 30
0.0
 11
4.6887082247
 21
11.4931314001
 31
0.0
  0
LINE
  5
132
330
1F
100
AcDbEntity
  8
SK3
  6
SLD-Dashed
370
    18
100
AcDbLine
 10
4.6887082247
 20
11.4931314001
 30
0.0
 11
5.0983505265
 21
11.6258370026
 31
0.0
  0
LINE
  5
133
330
1F
100
AcDbEntity
  8
SK3
  6
SLD-Dashed
370
    18
100
AcDbLine
 10
5.0983505265
 20
11.6258370026
 30
0.0
 11
5.5010432183
 21
11.92591763
 31
0.0
  0
LINE
  5
134
330
1F
100
AcDbEntity
  8
SK3
  6
SLD-Dashed
370
    18
100
AcDbLine
 10
5.5010432183
 20
11.92591763
 30
0.0
 11
5.8669204255
 21
12.3711176748
 31
0.0
  0
LINE
  5
135
330
1F
100
AcDbEntity
  8
SK3
  6
SLD-Dashed
370
    18
100
AcDbLine
 10
5.8669204255
 20
12.3711176748
 30
0.0
 11
6.1688467093
 21
12.9284186865
 31
0.0
  0
LINE
  5
136
330
1F
100
AcDbEntity
  8
SK3
  6
SLD-Dashed
370
    18
100
AcDbLine
 10
6.1688467093
 20
12.9284186865
 30
0.0
 11
6.3844295785
 21
13.5564881983
 31
0.0
  0
LINE
  5
137
330
1F
100
AcDbEntity
  8
SK3
  6
SLD-Dashed
370
    18
100
AcDbLine
 10
6.3844295785
 20
13.5564881983
 30
0.0
 11
6.4976802379
 21
14.208745168
 31
0.0
  0
LINE
  5
138
330
1F
100
AcDbEntity
  8
SK3
  6
SLD-Dashed
370
    18
100
AcDbLine
 10
6.4976802379
 20
14.208745168
 30
0.0
 11
6.5001994042
 21
14.8368146799
 31
0.0
  0
LINE
  5
139
330
1F
100
AcDbEntity
  8
SK3
  6
SLD-Dashed
370
    18
100
AcDbLine
 10
6.5001994042
 20
14.8368146799
 30
0.0
 11
6.3918002423
 21
15.3941156915
 31
0.0
  0
LINE
  5
13A
330
1F
100
AcDbEntity
  8
SK3
  6
SLD-Dashed
370
    18
100
AcDbLine
 10
6.3918002423
 20
15.3941156915
 30
0.0
 11
6.1805222222
 21
15.8393157363
 31
0.0
  0
LINE
  5
13B
330
1F
100
AcDbEntity
  8
SK3
  6
SLD-Dashed
370
    18
100
AcDbLine
 10
6.1805222222
 20
15.8393157363
 30
0.0
 11
5.8820348681
 21
16.1393963637
 31
0.0
  0
LINE
  5
13C
330
1F
100
AcDbEntity
  8
SK3
  6
SLD-Dashed
370
    18
100
AcDbLine
 10
5.8820348681
 20
16.1393963637
 30
0.0
 11
5.5184756216
 21
16.2721019662
 31
0.0
  0
LINE
  5
13D
330
1F
100
AcDbEntity
  8
SK3
  6
SLD-Dashed
370
    18
100
AcDbLine
 10
5.5184756216
 20
16.2721019662
 30
0.0
 11
5.1168080088
 21
16.2275903765
 31
0.0
  0
LINE
  5
13E
330
1F
100
AcDbEntity
  8
SK3
  6
SLD-Dashed
370
    18
100
AcDbLine
 10
5.1168080088
 20
16.2275903765
 30
0.0
 11
4.706821879
 21
16.0091628154
 31
0.0
  0
LINE
  5
13F
330
1F
100
AcDbEntity
  8
SK3
  6
SLD-Dashed
370
    18
100
AcDbLine
 10
4.706821879
 20
16.0091628154
 30
0.0
 11
4.318924028
 21
15.6330190561
 31
0.0
  0
LINE
  5
140
330
1F
100
AcDbEntity
  8
SK3
  6
SLD-Dashed
370
    18
100
AcDbLine
 10
4.318924028
 20
15.6330190561
 30
0.0
 11
3.9818830648
 21
15.1270559603
 31
0.0
  0
LINE
  5
141
330
1F
100
AcDbEntity
  8
SK3
  6
SLD-Dashed
370
    18
100
AcDbLine
 10
3.9818830648
 20
15.1270559603
 30
0.0
 11
3.7206957757
 21
14.5287984962
 31
0.0
  0
LINE
  5
142
330
1F
100
AcDbEntity
  8
SK3
  6
SLD-Dashed
370
    18
100
AcDbLine
 10
3.7206957757
 20
14.5287984962
 30
0.0
 11
3.5547332273
 21
13.8826166832
 31
0.0
  0
LINE
  5
143
330
1F
100
AcDbEntity
  8
SK3
  6
SLD-Dashed
370
    18
100
AcDbLine
 10
14.2794578574
 20
11.0168048658
 30
0.0
 11
14.4454204058
 21
11.6629866788
 31
0.0
  0
LINE
  5
144
330
1F
100
AcDbEntity
  8
SK3
  6
SLD-Dashed
370
    18
100
AcDbLine
 10
14.4454204058
 20
11.6629866788
 30
0.0
 11
14.7066076948
 21
12.2612441429
 31
0.0
  0
LINE
  5
145
330
1F
100
AcDbEntity
  8
SK3
  6
SLD-Dashed
370
    18
100
AcDbLine
 10
14.7066076948
 20
12.2612441429
 30
0.0
 11
15.043648658
 21
12.7672072387
 31
0.0
  0
LINE
  5
146
330
1F
100
AcDbEntity
  8
SK3
  6
SLD-Dashed
370
    18
100
AcDbLine
 10
15.043648658
 20
12.7672072387
 30
0.0
 11
15.431546509
 21
13.1433509981
 31
0.0
  0
LINE
  5
147
330
1F
100
AcDbEntity
  8
SK3
  6
SLD-Dashed
370
    18
100
AcDbLine
 10
15.431546509
 20
13.1433509981
 30
0.0
 11
15.8415326388
 21
13.3617785591
 31
0.0
  0
LINE
  5
148
330
1F
100
AcDbEntity
  8
SK3
  6
SLD-Dashed
370
    18
100
AcDbLine
 10
15.8415326388
 20
13.3617785591
 30
0.0
 11
16.2432002516
 21
13.4062901488
 31
0.0
  0
LINE
  5
149
330
1F
100
AcDbEntity
  8
SK3
  6
SLD-Dashed
370
    18
100
AcDbLine
 10
16.2432002516
 20
13.4062901488
 30
0.0
 11
16.6067594981
 21
13.2735845463
 31
0.0
  0
LINE
  5
14A
330
1F
100
AcDbEntity
  8
SK3
  6
SLD-Dashed
370
    18
100
AcDbLine
 10
16.6067594981
 20
13.2735845463
 30
0.0
 11
16.9052468522
 21
12.9735039189
 31
0.0
  0
LINE
  5
14B
330
1F
100
AcDbEntity
  8
SK3
  6
SLD-Dashed
370
    18
100
AcDbLine
 10
16.9052468522
 20
12.9735039189
 30
0.0
 11
17.1165248723
 21
12.5283038741
 31
0.0
  0
LINE
  5
14C
330
1F
100
AcDbEntity
  8
SK3
  6
SLD-Dashed
370
    18
100
AcDbLine
 10
17.1165248723
 20
12.5283038741
 30
0.0
 11
17.2249240342
 21
11.9710028625
 31
0.0
  0
LINE
  5
14D
330
1F
100
AcDbEntity
  8
SK3
  6
SLD-Dashed
370
    18
100
AcDbLine
 10
17.2249240342
 20
11.9710028625
 30
0.0
 11
17.2224048679
 21
11.3429333506
 31
0.0
  0
LINE
  5
14E
330
1F
100
AcDbEntity
  8
SK3
  6
SLD-Dashed
370
    18
100
AcDbLine
 10
17.2224048679
 20
11.3429333506
 30
0.0
 11
17.1091542086
 21
10.690676381
 31
0.0
  0
LINE
  5
14F
330
1F
100
AcDbEntity
  8
SK3
  6
SLD-Dashed
370
    18
100
AcDbLine
 10
17.1091542086
 20
10.690676381
 30
0.0
 11
16.8935713394
 21
10.0626068691
 31
0.0
  0
LINE
  5
150
330
1F
100
AcDbEntity
  8
SK3
  6
SLD-Dashed
370
    18
100
AcDbLine
 10
16.8935713394
 20
10.0626068691
 30
0.0
 11
16.5916450556
 21
9.5053058575
 31
0.0
  0
LINE
  5
151
330
1F
100
AcDbEntity
  8
SK3
  6
SLD-Dashed
370
    18
100
AcDbLine
 10
16.5916450556
 20
9.5053058575
 30
0.0
 11
16.2257678484
 21
9.0601058126
 31
0.0
  0
LINE
  5
152
330
1F
100
AcDbEntity
  8
SK3
  6
SLD-Dashed
370
    18
100
AcDbLine
 10
16.2257678484
 20
9.0601058126
 30
0.0
 11
15.8230751565
 21
8.7600251853
 31
0.0
  0
LINE
  5
153
330
1F
100
AcDbEntity
  8
SK3
  6
SLD-Dashed
370
    18
100
AcDbLine
 10
15.8230751565
 20
8.7600251853
 30
0.0
 11
15.4134328547
 21
8.6273195827
 31
0.0
  0
LINE
  5
154
330
1F
100
AcDbEntity
  8
SK3
  6
SLD-Dashed
370
    18
100
AcDbLine
 10
15.4134328547
 20
8.6273195827
 30
0.0
 11
15.0272222385
 21
8.6718311725
 31
0.0
  0
LINE
  5
155
330
1F
100
AcDbEntity
  8
SK3
  6
SLD-Dashed
370
    18
100
AcDbLine
 10
15.0272222385
 20
8.6718311725
 30
0.0
 11
14.6930867825
 21
8.8902587335
 31
0.0
  0
LINE
  5
156
330
1F
100
AcDbEntity
  8
SK3
  6
SLD-Dashed
370
    18
100
AcDbLine
 10
14.6930867825
 20
8.8902587335
 30
0.0
 11
14.435807785
 21
9.2664024929
 31
0.0
  0
LINE
  5
157
330
1F
100
AcDbEntity
  8
SK3
  6
SLD-Dashed
370
    18
100
AcDbLine
 10
14.435807785
 20
9.2664024929
 30
0.0
 11
14.2744664521
 21
9.7723655887
 31
0.0
  0
LINE
  5
158
330
1F
100
AcDbEntity
  8
SK3
  6
SLD-Dashed
370
    18
100
AcDbLine
 10
14.2744664521
 20
9.7723655887
 30
0.0
 11
14.2210287325
 21
10.3706230527
 31
0.0
  0
LINE
  5
159
330
1F
100
AcDbEntity
  8
SK3
  6
SLD-Dashed
370
    18
100
AcDbLine
 10
14.2210287325
 20
10.3706230527
 30
0.0
 11
14.2794578574
 21
11.0168048658
 31
0.0
  0
LINE
  5
15A
330
1F
100
AcDbEntity
  8
SK3
  6
SLD-Dashed
370
    18
100
AcDbLine
 10
3.3949403416
 20
13.9015950424
 30
0.0
 11
3.5615900545
 21
14.5594368595
 31
0.0
  0
LINE
  5
15B
330
1F
100
AcDbEntity
  8
SK3
  6
SLD-Dashed
370
    18
100
AcDbLine
 10
3.5615900545
 20
14.5594368595
 30
0.0
 11
3.8217415901
 21
15.1724478438
 31
0.0
  0
LINE
  5
15C
330
1F
100
AcDbEntity
  8
SK3
  6
SLD-Dashed
370
    18
100
AcDbLine
 10
3.8217415901
 20
15.1724478438
 30
0.0
 11
4.1576660511
 21
15.6988523099
 31
0.0
  0
LINE
  5
15D
330
1F
100
AcDbEntity
  8
SK3
  6
SLD-Dashed
370
    18
100
AcDbLine
 10
4.1576660511
 20
15.6988523099
 30
0.0
 11
4.5464707407
 21
16.1027766634
 31
0.0
  0
LINE
  5
15E
330
1F
100
AcDbEntity
  8
SK3
  6
SLD-Dashed
370
    18
100
AcDbLine
 10
4.5464707407
 20
16.1027766634
 30
0.0
 11
4.9616592619
 21
16.356694127
 31
0.0
  0
LINE
  5
15F
330
1F
100
AcDbEntity
  8
SK3
  6
SLD-Dashed
370
    18
100
AcDbLine
 10
4.9616592619
 20
16.356694127
 30
0.0
 11
5.3749372029
 21
16.4433006452
 31
0.0
  0
LINE
  5
160
330
1F
100
AcDbEntity
  8
SK3
  6
SLD-Dashed
370
    18
100
AcDbLine
 10
5.3749372029
 20
16.4433006452
 30
0.0
 11
5.7581403551
 21
16.356694127
 31
0.0
  0
LINE
  5
161
330
1F
100
AcDbEntity
  8
SK3
  6
SLD-Dashed
370
    18
100
AcDbLine
 10
5.7581403551
 20
16.356694127
 30
0.0
 11
6.0851540571
 21
16.1027766634
 31
0.0
  0
LINE
  5
162
330
1F
100
AcDbEntity
  8
SK3
  6
SLD-Dashed
370
    18
100
AcDbLine
 10
6.0851540571
 20
16.1027766634
 30
0.0
 11
6.3336928653
 21
15.6988523099
 31
0.0
  0
LINE
  5
163
330
1F
100
AcDbEntity
  8
SK3
  6
SLD-Dashed
370
    18
100
AcDbLine
 10
6.3336928653
 20
15.6988523099
 30
0.0
 11
6.4868192707
 21
15.1724478438
 31
0.0
  0
LINE
  5
164
330
1F
100
AcDbEntity
  8
SK3
  6
SLD-Dashed
370
    18
100
AcDbLine
 10
6.4868192707
 20
15.1724478438
 30
0.0
 11
6.5340979619
 21
14.5594368595
 31
0.0
  0
LINE
  5
165
330
1F
100
AcDbEntity
  8
SK3
  6
SLD-Dashed
370
    18
100
AcDbLine
 10
6.5340979619
 20
14.5594368595
 30
0.0
 11
6.4723069743
 21
13.9015950424
 31
0.0
  0
LINE
  5
166
330
1F
100
AcDbEntity
  8
SK3
  6
SLD-Dashed
370
    18
100
AcDbLine
 10
6.4723069743
 20
13.9015950424
 30
0.0
 11
6.3056572614
 21
13.2437532254
 31
0.0
  0
LINE
  5
167
330
1F
100
AcDbEntity
  8
SK3
  6
SLD-Dashed
370
    18
100
AcDbLine
 10
6.3056572614
 20
13.2437532254
 30
0.0
 11
6.0455057258
 21
12.630742241
 31
0.0
  0
LINE
  5
168
330
1F
100
AcDbEntity
  8
SK3
  6
SLD-Dashed
370
    18
100
AcDbLine
 10
6.0455057258
 20
12.630742241
 30
0.0
 11
5.7095812647
 21
12.1043377749
 31
0.0
  0
LINE
  5
169
330
1F
100
AcDbEntity
  8
SK3
  6
SLD-Dashed
370
    18
100
AcDbLine
 10
5.7095812647
 20
12.1043377749
 30
0.0
 11
5.3207765751
 21
11.7004134215
 31
0.0
  0
LINE
  5
16A
330
1F
100
AcDbEntity
  8
SK3
  6
SLD-Dashed
370
    18
100
AcDbLine
 10
5.3207765751
 20
11.7004134215
 30
0.0
 11
4.905588054
 21
11.4464959579
 31
0.0
  0
LINE
  5
16B
330
1F
100
AcDbEntity
  8
SK3
  6
SLD-Dashed
370
    18
100
AcDbLine
 10
4.905588054
 20
11.4464959579
 30
0.0
 11
4.492310113
 21
11.3598894396
 31
0.0
  0
LINE
  5
16C
330
1F
100
AcDbEntity
  8
SK3
  6
SLD-Dashed
370
    18
100
AcDbLine
 10
4.492310113
 20
11.3598894396
 30
0.0
 11
4.1091069607
 21
11.4464959579
 31
0.0
  0
LINE
  5
16D
330
1F
100
AcDbEntity
  8
SK3
  6
SLD-Dashed
370
    18
100
AcDbLine
 10
4.1091069607
 20
11.4464959579
 30
0.0
 11
3.7820932588
 21
11.7004134215
 31
0.0
  0
LINE
  5
16E
330
1F
100
AcDbEntity
  8
SK3
  6
SLD-Dashed
370
    18
100
AcDbLine
 10
3.7820932588
 20
11.7004134215
 30
0.0
 11
3.5335544506
 21
12.1043377749
 31
0.0
  0
LINE
  5
16F
330
1F
100
AcDbEntity
  8
SK3
  6
SLD-Dashed
370
    18
100
AcDbLine
 10
3.5335544506
 20
12.1043377749
 30
0.0
 11
3.3804280451
 21
12.630742241
 31
0.0
  0
LINE
  5
170
330
1F
100
AcDbEntity
  8
SK3
  6
SLD-Dashed
370
    18
100
AcDbLine
 10
3.3804280451
 20
12.630742241
 30
0.0
 11
3.3331493539
 21
13.2437532254
 31
0.0
  0
LINE
  5
171
330
1F
100
AcDbEntity
  8
SK3
  6
SLD-Dashed
370
    18
100
AcDbLine
 10
3.3331493539
 20
13.2437532254
 30
0.0
 11
3.3949403416
 21
13.9015950424
 31
0.0
  0
LINE
  5
172
330
1F
100
AcDbEntity
  8
SK3
  6
SLD-Dashed
370
    18
100
AcDbLine
 10
5.6371324082
 20
-16.2495686026
 30
0.0
 11
16.3618570383
 21
-13.3837567853
 31
0.0
  0
LINE
  5
173
330
1F
100
AcDbEntity
  8
SK3
  6
SLD-Dashed
370
    18
100
AcDbLine
 10
15.0968849264
 20
-8.6498529463
 30
0.0
 11
4.3721602964
 21
-11.5156647637
 31
0.0
  0
LINE
  5
174
330
1F
100
AcDbEntity
  8
SK3
  6
SLD-Dashed
370
    18
100
AcDbLine
 10
101.6
 20
16.7410254038
 30
0.0
 11
100.1
 21
15.875
 31
0.0
  0
LINE
  5
175
330
1F
100
AcDbEntity
  8
SK3
  6
SLD-Dashed
370
    18
100
AcDbLine
 10
100.1
 20
-15.875
 30
0.0
 11
101.6
 21
-16.7410254038
 31
0.0
  0
LINE
  5
176
330
1F
100
AcDbEntity
  8
SK3
  6
SLD-Dashed
370
    18
100
AcDbLine
 10
16.66
 20
-16.0675
 30
0.0
 11
41.76
 21
-16.0675
 31
0.0
  0
LINE
  5
177
330
1F
100
AcDbEntity
  8
SK3
  6
SLD-Dashed
370
    18
100
AcDbLine
 10
39.2368793258
 20
16.0675
 30
0.0
 11
16.66
 21
16.0675
 31
0.0
  0
LINE
  5
178
330
1F
100
AcDbEntity
  8
SK3
  6
SLD-Dashed
370
    18
100
AcDbLine
 10
64.6176
 20
15.875
 30
0.0
 11
56.5159651527
 21
15.875
 31
0.0
  0
LINE
  5
179
330
1F
100
AcDbEntity
  8
SK3
  6
SLD-Dashed
370
    18
100
AcDbLine
 10
100.1
 20
15.875
 30
0.0
 11
81.9383000327
 21
15.875
 31
0.0
  0
LINE
  5
17A
330
1F
100
AcDbEntity
  8
SK3
  6
SLD-Dashed
370
    18
100
AcDbLine
 10
41.91
 20
-15.875
 30
0.0
 11
100.1
 21
-15.875
 31
0.0
  0
LINE
  5
17B
330
1F
100
AcDbEntity
  8
SK3
  6
SLD-Dashed
370
    18
100
AcDbLine
 10
16.51
 20
15.875
 30
0.0
 11
15.1
 21
15.875
 31
0.0
  0
LINE
  5
17C
330
1F
100
AcDbEntity
  8
SK3
  6
SLD-Dashed
370
    18
100
AcDbLine
 10
15.1
 20
-15.875
 30
0.0
 11
16.51
 21
-15.875
 31
0.0
  0
LINE
  5
17D
330
1F
100
AcDbEntity
  8
SK3
  6
SLD-Dashed
370
    18
100
AcDbLine
 10
15.1
 20
15.875
 30
0.0
 11
12.2384013019
 21
11.1125
 31
0.0
  0
LINE
  5
17E
330
1F
100
AcDbEntity
  8
SK3
  6
SLD-Dashed
370
    18
100
AcDbLine
 10
12.2384013019
 20
-11.1125
 30
0.0
 11
15.1
 21
-15.875
 31
0.0
  0
LINE
  5
17F
330
1F
100
AcDbEntity
  8
SK3
  6
SLD-Dashed
370
    18
100
AcDbLine
 10
-101.6
 20
-14.285
 30
0.0
 11
-99.7034043657
 21
-13.19
 31
0.0
  0
LINE
  5
180
330
1F
100
AcDbEntity
  8
SK3
  6
SLD-Dashed
370
    18
100
AcDbLine
 10
-99.7034043657
 20
13.19
 30
0.0
 11
-101.6
 21
14.285
 31
0.0
  0
LINE
  5
181
330
1F
100
AcDbEntity
  8
SK3
  6
SLD-Dashed
370
    18
100
AcDbLine
 10
-99.7034043657
 20
-13.19
 30
0.0
 11
-95.25
 21
-13.19
 31
0.0
  0
LINE
  5
182
330
1F
100
AcDbEntity
  8
SK3
  6
SLD-Dashed
370
    18
100
AcDbLine
 10
-95.25
 20
13.19
 30
0.0
 11
-99.7034043657
 21
13.19
 31
0.0
  0
LINE
  5
183
330
1F
100
AcDbEntity
  8
SK3
  6
SLD-Dashed
370
    18
100
AcDbLine
 10
-95.25
 20
-13.19
 30
0.0
 11
-94.0505548158
 21
-11.1125
 31
0.0
  0
LINE
  5
184
330
1F
100
AcDbEntity
  8
SK3
  6
SLD-Dashed
370
    18
100
AcDbLine
 10
-94.0505548158
 20
11.1125
 30
0.0
 11
-95.25
 21
13.19
 31
0.0
  0
LINE
  5
185
330
1F
100
AcDbEntity
  8
SK3
  6
SLD-Dashed
370
    18
100
AcDbLine
 10
-94.0505548158
 20
-11.1125
 30
0.0
 11
12.2384013019
 21
-11.1125
 31
0.0
  0
LINE
  5
186
330
1F
100
AcDbEntity
  8
SK3
  6
SLD-Dashed
370
    18
100
AcDbLine
 10
12.2384013019
 20
11.1125
 30
0.0
 11
-94.0505548158
 21
11.1125
 31
0.0
  0
LINE
  5
187
330
1F
100
AcDbEntity
  8
SK3
  6
SLD-Dashed
370
    18
100
AcDbLine
 10
63.179
 20
31.75
 30
0.0
 11
63.179
 21
29.65
 31
0.0
  0
LINE
  5
188
330
1F
100
AcDbEntity
  8
SK3
  6
SLD-Dashed
370
    18
100
AcDbLine
 10
83.379
 20
29.65
 30
0.0
 11
83.379
 21
31.75
 31
0.0
  0
LINE
  5
189
330
1F
100
AcDbEntity
  8
SK3
  6
SLD-Dashed
370
    18
100
AcDbLine
 10
37.779
 20
31.75
 30
0.0
 11
37.779
 21
29.65
 31
0.0
  0
LINE
  5
18A
330
1F
100
AcDbEntity
  8
SK3
  6
SLD-Dashed
370
    18
100
AcDbLine
 10
57.979
 20
29.65
 30
0.0
 11
57.979
 21
31.75
 31
0.0
  0
LINE
  5
18B
330
1F
100
AcDbEntity
  8
SK3
  6
SLD-Dashed
370
    18
100
AcDbLine
 10
39.2176
 20
29.65
 30
0.0
 11
39.2176
 21
16.0571379567
 31
0.0
  0
LINE
  5
18C
330
1F
100
AcDbEntity
  8
SK3
  6
SLD-Dashed
370
    18
100
AcDbLine
 10
56.5404
 20
15.8616843704
 30
0.0
 11
56.5404
 21
29.65
 31
0.0
  0
LINE
  5
18D
330
1F
100
AcDbEntity
  8
SK3
  6
SLD-Dashed
370
    18
100
AcDbLine
 10
64.6176
 20
29.65
 30
0.0
 11
64.6176
 21
15.875
 31
0.0
  0
LINE
  5
18E
330
1F
100
AcDbEntity
  8
SK3
  6
SLD-Dashed
370
    18
100
AcDbLine
 10
81.9404
 20
15.8738564563
 30
0.0
 11
81.9404
 21
29.65
 31
0.0
  0
LINE
  5
18F
330
1F
100
AcDbEntity
  8
SK3
  6
SLD-Dashed
370
    18
100
AcDbLine
 10
6.1
 20
37.5
 30
0.0
 11
6.1
 21
33.1
 31
0.0
  0
LINE
  5
190
330
1F
100
AcDbEntity
  8
SK3
  6
SLD-Dashed
370
    18
100
AcDbLine
 10
16.1
 20
33.1
 30
0.0
 11
16.1
 21
37.5
 31
0.0
  0
LINE
  5
191
330
1F
100
AcDbEntity
  8
SK3
  6
SLD-Dashed
370
    18
100
AcDbLine
 10
4.3721602964
 20
11.5156647637
 30
0.0
 11
15.0968849264
 21
8.6498529463
 31
0.0
  0
LINE
  5
192
330
1F
100
AcDbEntity
  8
SK3
  6
SLD-Dashed
370
    18
100
AcDbLine
 10
16.3618570383
 20
13.3837567853
 30
0.0
 11
5.6371324082
 21
16.2495686026
 31
0.0
  0
LINE
  5
193
330
1F
100
AcDbEntity
  8
SK3
  6
SLD-Solid
370
    18
100
AcDbLine
 10
-55.5999986827
 20
12.6999998465
 30
0.0
 11
-94.967097044
 21
12.6999998465
 31
0.0
  0
LINE
  5
194
330
1F
100
AcDbEntity
  8
SK3
  6
SLD-Solid
370
    18
100
AcDbLine
 10
-94.967097044
 20
-12.6999998465
 30
0.0
 11
-55.5999986827
 21
-12.6999998465
 31
0.0
  0
LINE
  5
195
330
1F
100
AcDbEntity
  8
SK3
  6
SLD-Solid
370
    18
100
AcDbLine
 10
-55.5999986827
 20
0.0
 30
0.0
 11
-55.5999986827
 21
-1.7674983246
 31
0.0
  0
LINE
  5
196
330
1F
100
AcDbEntity
  8
SK3
  6
SLD-Solid
370
    18
100
AcDbLine
 10
-55.5999986827
 20
0.0
 30
0.0
 11
-55.5999986827
 21
-1.7674983246
 31
0.0
  0
LINE
  5
197
330
1F
100
AcDbEntity
  8
SK3
  6
SLD-Solid
370
    18
100
AcDbLine
 10
-55.6000106643
 20
-1.7674983246
 30
0.0
 11
-55.5999986827
 21
-3.5005945247
 31
0.0
  0
LINE
  5
198
330
1F
100
AcDbEntity
  8
SK3
  6
SLD-Solid
370
    18
100
AcDbLine
 10
-55.5999986827
 20
-3.5005945247
 30
0.0
 11
-55.5999986827
 21
-5.1655555144
 31
0.0
  0
LINE
  5
199
330
1F
100
AcDbEntity
  8
SK3
  6
SLD-Solid
370
    18
100
AcDbLine
 10
-55.5999986827
 20
-5.1655555144
 30
0.0
 11
-55.5999986827
 21
-6.7299748771
 31
0.0
  0
LINE
  5
19A
330
1F
100
AcDbEntity
  8
SK3
  6
SLD-Solid
370
    18
100
AcDbLine
 10
-55.5999986827
 20
-6.7299748771
 30
0.0
 11
-55.5999986827
 21
-8.1634027883
 31
0.0
  0
LINE
  5
19B
330
1F
100
AcDbEntity
  8
SK3
  6
SLD-Solid
370
    18
100
AcDbLine
 10
-55.5999986827
 20
-8.1634027883
 30
0.0
 11
-55.5999986827
 21
-9.4379391521
 31
0.0
  0
LINE
  5
19C
330
1F
100
AcDbEntity
  8
SK3
  6
SLD-Solid
370
    18
100
AcDbLine
 10
-55.5999986827
 20
-9.4379391521
 30
0.0
 11
-55.5999986827
 21
-10.5287767947
 31
0.0
  0
LINE
  5
19D
330
1F
100
AcDbEntity
  8
SK3
  6
SLD-Solid
370
    18
100
AcDbLine
 10
-55.5999986827
 20
-10.5287767947
 30
0.0
 11
-55.5999986827
 21
-11.4146843553
 31
0.0
  0
LINE
  5
19E
330
1F
100
AcDbEntity
  8
SK3
  6
SLD-Solid
370
    18
100
AcDbLine
 10
-55.5999986827
 20
-11.4146843553
 30
0.0
 11
-55.5999986827
 21
-12.0784174651
 31
0.0
  0
LINE
  5
19F
330
1F
100
AcDbEntity
  8
SK3
  6
SLD-Solid
370
    18
100
AcDbLine
 10
-55.5999986827
 20
-12.0784174651
 30
0.0
 11
-55.5999986827
 21
-12.5070586801
 31
0.0
  0
LINE
  5
1A0
330
1F
100
AcDbEntity
  8
SK3
  6
SLD-Solid
370
    18
100
AcDbLine
 10
-55.5999986827
 20
-12.5070586801
 30
0.0
 11
-55.5999986827
 21
-12.6922633499
 31
0.0
  0
LINE
  5
1A1
330
1F
100
AcDbEntity
  8
SK3
  6
SLD-Solid
370
    18
100
AcDbLine
 10
-55.5999986827
 20
-12.6922633499
 30
0.0
 11
-55.5999986827
 21
-12.6999998465
 31
0.0
  0
LINE
  5
1A2
330
1F
100
AcDbEntity
  8
SK3
  6
SLD-Solid
370
    18
100
AcDbLine
 10
-55.6000106643
 20
12.6999998465
 30
0.0
 11
-55.5999986827
 21
12.6922633499
 31
0.0
  0
LINE
  5
1A3
330
1F
100
AcDbEntity
  8
SK3
  6
SLD-Solid
370
    18
100
AcDbLine
 10
-55.5999986827
 20
12.6922633499
 30
0.0
 11
-55.5999986827
 21
12.5070586801
 31
0.0
  0
LINE
  5
1A4
330
1F
100
AcDbEntity
  8
SK3
  6
SLD-Solid
370
    18
100
AcDbLine
 10
-55.5999986827
 20
12.5070586801
 30
0.0
 11
-55.5999986827
 21
12.0784174651
 31
0.0
  0
LINE
  5
1A5
330
1F
100
AcDbEntity
  8
SK3
  6
SLD-Solid
370
    18
100
AcDbLine
 10
-55.5999986827
 20
12.0784174651
 30
0.0
 11
-55.5999986827
 21
11.4146843553
 31
0.0
  0
LINE
  5
1A6
330
1F
100
AcDbEntity
  8
SK3
  6
SLD-Solid
370
    18
100
AcDbLine
 10
-55.5999986827
 20
11.4146843553
 30
0.0
 11
-55.5999986827
 21
10.5287767947
 31
0.0
  0
LINE
  5
1A7
330
1F
100
AcDbEntity
  8
SK3
  6
SLD-Solid
370
    18
100
AcDbLine
 10
-55.5999986827
 20
10.5287767947
 30
0.0
 11
-55.5999986827
 21
9.4379391521
 31
0.0
  0
LINE
  5
1A8
330
1F
100
AcDbEntity
  8
SK3
  6
SLD-Solid
370
    18
100
AcDbLine
 10
-55.5999986827
 20
9.4379391521
 30
0.0
 11
-55.5999986827
 21
8.1634027883
 31
0.0
  0
LINE
  5
1A9
330
1F
100
AcDbEntity
  8
SK3
  6
SLD-Solid
370
    18
100
AcDbLine
 10
-55.5999986827
 20
8.1634027883
 30
0.0
 11
-55.5999986827
 21
6.7299748771
 31
0.0
  0
LINE
  5
1AA
330
1F
100
AcDbEntity
  8
SK3
  6
SLD-Solid
370
    18
100
AcDbLine
 10
-55.5999986827
 20
6.7299748771
 30
0.0
 11
-55.5999986827
 21
5.1655555144
 31
0.0
  0
LINE
  5
1AB
330
1F
100
AcDbEntity
  8
SK3
  6
SLD-Solid
370
    18
100
AcDbLine
 10
-55.5999986827
 20
5.1655555144
 30
0.0
 11
-55.5999986827
 21
3.5005945247
 31
0.0
  0
LINE
  5
1AC
330
1F
100
AcDbEntity
  8
SK3
  6
SLD-Solid
370
    18
100
AcDbLine
 10
-55.5999986827
 20
3.5005945247
 30
0.0
 11
-55.5999986827
 21
1.7674983246
 31
0.0
  0
LINE
  5
1AD
330
1F
100
AcDbEntity
  8
SK3
  6
SLD-Solid
370
    18
100
AcDbLine
 10
-55.5999986827
 20
1.7674983246
 30
0.0
 11
-55.5999986827
 21
0.0
 31
0.0
  0
LINE
  5
1AE
330
1F
100
AcDbEntity
  8
SK3
  6
SLD-Solid
370
    18
100
AcDbLine
 10
-55.6000106643
 20
-1.7674983246
 30
0.0
 11
-55.5999986827
 21
-3.5005945247
 31
0.0
  0
LINE
  5
1AF
330
1F
100
AcDbEntity
  8
SK3
  6
SLD-Solid
370
    18
100
AcDbLine
 10
-55.5999986827
 20
-3.5005945247
 30
0.0
 11
-55.5999986827
 21
-5.1655555144
 31
0.0
  0
LINE
  5
1B0
330
1F
100
AcDbEntity
  8
SK3
  6
SLD-Solid
370
    18
100
AcDbLine
 10
-55.5999986827
 20
-5.1655555144
 30
0.0
 11
-55.5999986827
 21
-6.7299748771
 31
0.0
  0
LINE
  5
1B1
330
1F
100
AcDbEntity
  8
SK3
  6
SLD-Solid
370
    18
100
AcDbLine
 10
-55.5999986827
 20
-6.7299748771
 30
0.0
 11
-55.5999986827
 21
-8.1634027883
 31
0.0
  0
LINE
  5
1B2
330
1F
100
AcDbEntity
  8
SK3
  6
SLD-Solid
370
    18
100
AcDbLine
 10
-55.5999986827
 20
-8.1634027883
 30
0.0
 11
-55.5999986827
 21
-9.4379391521
 31
0.0
  0
LINE
  5
1B3
330
1F
100
AcDbEntity
  8
SK3
  6
SLD-Solid
370
    18
100
AcDbLine
 10
-55.5999986827
 20
-9.4379391521
 30
0.0
 11
-55.5999986827
 21
-10.5287767947
 31
0.0
  0
LINE
  5
1B4
330
1F
100
AcDbEntity
  8
SK3
  6
SLD-Solid
370
    18
100
AcDbLine
 10
-55.5999986827
 20
-10.5287767947
 30
0.0
 11
-55.5999986827
 21
-11.4146843553
 31
0.0
  0
LINE
  5
1B5
330
1F
100
AcDbEntity
  8
SK3
  6
SLD-Solid
370
    18
100
AcDbLine
 10
-55.5999986827
 20
-11.4146843553
 30
0.0
 11
-55.5999986827
 21
-12.0784174651
 31
0.0
  0
LINE
  5
1B6
330
1F
100
AcDbEntity
  8
SK3
  6
SLD-Solid
370
    18
100
AcDbLine
 10
-55.5999986827
 20
-12.0784174651
 30
0.0
 11
-55.5999986827
 21
-12.5070586801
 31
0.0
  0
LINE
  5
1B7
330
1F
100
AcDbEntity
  8
SK3
  6
SLD-Solid
370
    18
100
AcDbLine
 10
-55.5999986827
 20
-12.5070586801
 30
0.0
 11
-55.5999986827
 21
-12.6922633499
 31
0.0
  0
LINE
  5
1B8
330
1F
100
AcDbEntity
  8
SK3
  6
SLD-Solid
370
    18
100
AcDbLine
 10
-55.5999986827
 20
-12.6922633499
 30
0.0
 11
-55.5999986827
 21
-12.6999998465
 31
0.0
  0
LINE
  5
1B9
330
1F
100
AcDbEntity
  8
SK3
  6
SLD-Solid
370
    18
100
AcDbLine
 10
-55.6000106643
 20
12.6999998465
 30
0.0
 11
-55.5999986827
 21
12.6922633499
 31
0.0
  0
LINE
  5
1BA
330
1F
100
AcDbEntity
  8
SK3
  6
SLD-Solid
370
    18
100
AcDbLine
 10
-55.5999986827
 20
12.6922633499
 30
0.0
 11
-55.5999986827
 21
12.5070586801
 31
0.0
  0
LINE
  5
1BB
330
1F
100
AcDbEntity
  8
SK3
  6
SLD-Solid
370
    18
100
AcDbLine
 10
-55.5999986827
 20
12.5070586801
 30
0.0
 11
-55.5999986827
 21
12.0784174651
 31
0.0
  0
LINE
  5
1BC
330
1F
100
AcDbEntity
  8
SK3
  6
SLD-Solid
370
    18
100
AcDbLine
 10
-55.5999986827
 20
12.0784174651
 30
0.0
 11
-55.5999986827
 21
11.4146843553
 31
0.0
  0
LINE
  5
1BD
330
1F
100
AcDbEntity
  8
SK3
  6
SLD-Solid
370
    18
100
AcDbLine
 10
-55.5999986827
 20
11.4146843553
 30
0.0
 11
-55.5999986827
 21
10.5287767947
 31
0.0
  0
LINE
  5
1BE
330
1F
100
AcDbEntity
  8
SK3
  6
SLD-Solid
370
    18
100
AcDbLine
 10
-55.5999986827
 20
10.5287767947
 30
0.0
 11
-55.5999986827
 21
9.4379391521
 31
0.0
  0
LINE
  5
1BF
330
1F
100
AcDbEntity
  8
SK3
  6
SLD-Solid
370
    18
100
AcDbLine
 10
-55.5999986827
 20
9.4379391521
 30
0.0
 11
-55.5999986827
 21
8.1634027883
 31
0.0
  0
LINE
  5
1C0
330
1F
100
AcDbEntity
  8
SK3
  6
SLD-Solid
370
    18
100
AcDbLine
 10
-55.5999986827
 20
8.1634027883
 30
0.0
 11
-55.5999986827
 21
6.7299748771
 31
0.0
  0
LINE
  5
1C1
330
1F
100
AcDbEntity
  8
SK3
  6
SLD-Solid
370
    18
100
AcDbLine
 10
-55.5999986827
 20
6.7299748771
 30
0.0
 11
-55.5999986827
 21
5.1655555144
 31
0.0
  0
LINE
  5
1C2
330
1F
100
AcDbEntity
  8
SK3
  6
SLD-Solid
370
    18
100
AcDbLine
 10
-55.5999986827
 20
5.1655555144
 30
0.0
 11
-55.5999986827
 21
3.5005945247
 31
0.0
  0
LINE
  5
1C3
330
1F
100
AcDbEntity
  8
SK3
  6
SLD-Solid
370
    18
100
AcDbLine
 10
-55.5999986827
 20
3.5005945247
 30
0.0
 11
-55.5999986827
 21
1.7674983246
 31
0.0
  0
LINE
  5
1C4
330
1F
100
AcDbEntity
  8
SK3
  6
SLD-Solid
370
    18
100
AcDbLine
 10
-55.5999986827
 20
1.7674983246
 30
0.0
 11
-55.5999986827
 21
0.0
 31
0.0
  0
LINE
  5
1C5
330
1F
100
AcDbEntity
  8
SK3
  6
SLD-Solid
370
    18
100
AcDbLine
 10
57.4040003121
 20
15.8580150455
 30
0.0
 11
57.4040003121
 21
29.6500008553
 31
0.0
  0
LINE
  5
1C6
330
1F
100
AcDbEntity
  8
SK3
  6
SLD-Solid
370
    18
100
AcDbLine
 10
38.353998214
 20
29.6500008553
 30
0.0
 11
38.353998214
 21
16.0566009581
 31
0.0
  0
LINE
  5
1C7
330
1F
100
AcDbEntity
  8
SK3
  6
SLD-Solid
370
    18
100
AcDbLine
 10
38.3720174432
 20
16.0566009581
 30
0.0
 11
38.4380742908
 21
16.0178020597
 31
0.0
  0
LINE
  5
1C8
330
1F
100
AcDbEntity
  8
SK3
  6
SLD-Solid
370
    18
100
AcDbLine
 10
57.3758967221
 20
15.8580150455
 30
0.0
 11
57.3822706938
 21
15.8617272973
 31
0.0
  0
LINE
  5
1C9
330
1F
100
AcDbEntity
  8
SK3
  6
SLD-Solid
370
    18
100
AcDbLine
 10
82.8040018678
 20
15.8580150455
 30
0.0
 11
82.8040018678
 21
29.6500008553
 31
0.0
  0
LINE
  5
1CA
330
1F
100
AcDbEntity
  8
SK3
  6
SLD-Solid
370
    18
100
AcDbLine
 10
63.7539997697
 20
29.6500008553
 30
0.0
 11
63.7539997697
 21
15.8580150455
 31
0.0
  0
LINE
  5
1CB
330
1F
100
AcDbEntity
  8
SK3
  6
SLD-Solid
370
    18
100
AcDbLine
 10
82.7758982778
 20
15.8580150455
 30
0.0
 11
82.7822685242
 21
15.8617272973
 31
0.0
  0
LINE
  5
1CC
330
1F
100
AcDbEntity
  8
4
  6
SLD-Center
370
    18
100
AcDbLine
 10
102.7989612494
 20
0.0
 30
0.0
 11
-0.6714708831
 21
0.0
 31
0.0
  0
LINE
  5
1CD
330
1F
100
AcDbEntity
  8
4
  6
SLD-Center
370
    18
100
AcDbLine
 10
47.879
 20
13.97125
 30
0.0
 11
47.879
 21
31.65
 31
0.0
  0
LINE
  5
1CE
330
1F
100
AcDbEntity
  8
4
  6
SLD-Center
370
    18
100
AcDbLine
 10
73.279
 20
13.875
 30
0.0
 11
73.279
 21
31.65
 31
0.0
  0
LINE
  5
1CF
330
1F
100
AcDbEntity
  8
SK4
  6
SLD-Center
370
    18
100
AcDbLine
 10
-100.3140935105
 20
0.0
 30
0.0
 11
103.1
 21
0.0
 31
0.0
  0
LINE
  5
1D0
330
1F
100
AcDbEntity
  8
81
370
    18
100
AcDbLine
 10
101.6
 20
0.0
 30
0.0
 11
105.1355339059
 21
3.5355339059
 31
0.0
  0
LINE
  5
1D1
330
1F
100
AcDbEntity
  8
81
370
    18
100
AcDbLine
 10
101.6
 20
0.0
 30
0.0
 11
98.0644660941
 21
-3.5355339059
 31
0.0
  0
LINE
  5
1D2
330
1F
100
AcDbEntity
  8
81
370
    18
100
AcDbLine
 10
101.6
 20
0.0
 30
0.0
 11
98.0644660941
 21
3.5355339059
 31
0.0
  0
LINE
  5
1D3
330
1F
100
AcDbEntity
  8
81
100
AcDbLine
 10
101.6
 20
0.0
 30
0.0
 11
111.6
 21
0.0
 31
0.0
  0
LINE
  5
1D4
330
1F
100
AcDbEntity
  8
81
370
    18
100
AcDbLine
 10
101.6
 20
0.0
 30
0.0
 11
105.1355339059
 21
-3.5355339059
 31
0.0
  0
LINE
  5
1D5
330
1F
100
AcDbEntity
  8
80
370
    18
100
AcDbLine
 10
0.0
 20
0.0
 30
0.0
 11
-3.5355339059
 21
-3.5355339059
 31
0.0
  0
LINE
  5
1D6
330
1F
100
AcDbEntity
  8
80
370
    18
100
AcDbLine
 10
0.0
 20
0.0
 30
0.0
 11
3.5355339059
 21
3.5355339059
 31
0.0
  0
LINE
  5
1D7
330
1F
100
AcDbEntity
  8
80
370
    18
100
AcDbLine
 10
0.0
 20
0.0
 30
0.0
 11
-3.5355339059
 21
3.5355339059
 31
0.0
  0
LINE
  5
1D8
330
1F
100
AcDbEntity
  8
80
370
    18
100
AcDbLine
 10
0.0
 20
0.0
 30
0.0
 11
-10.0
 21
0.0
 31
0.0
  0
LINE
  5
1D9
330
1F
100
AcDbEntity
  8
80
370
    18
100
AcDbLine
 10
0.0
 20
0.0
 30
0.0
 11
3.5355339059
 21
-3.5355339059
 31
0.0
  0
ARC
  5
1DA
330
1F
100
AcDbEntity
  8
1
  6
SLD-Solid
370
    25
100
AcDbCircle
 10
19.812
 20
-35.687
 30
0.0
 40
0.7620000000000147
100
AcDbArc
 50
90.0
 51
129.6580997298
  0
ARC
  5
1DB
330
1F
100
AcDbEntity
  8
1
  6
SLD-Solid
370
    25
100
AcDbCircle
 10
19.812
 20
35.687
 30
0.0
 40
0.7620000000000147
100
AcDbArc
 50
180.0
 51
270.0
  0
ARC
  5
1DC
330
1F
100
AcDbEntity
  8
1
  6
SLD-Solid
370
    25
100
AcDbCircle
 10
2.45
 20
35.425
 30
0.0
 40
0.7500000000000284
100
AcDbArc
 50
245.0
 51
0.0
  0
ARC
  5
1DD
330
1F
100
AcDbEntity
  8
1
  6
SLD-Solid
370
    25
100
AcDbCircle
 10
2.45
 20
-35.425
 30
0.0
 40
0.7500000000000011
100
AcDbArc
 50
25.5336708908
 51
115.0
  0
ARC
  5
1DE
330
1F
100
AcDbEntity
  8
1
  6
SLD-Solid
370
    25
100
AcDbCircle
 10
33.576
 20
-33.401
 30
0.0
 40
1.524000000000001
100
AcDbArc
 50
270.0
 51
0.0
  0
ARC
  5
1DF
330
1F
100
AcDbEntity
  8
1
  6
SLD-Solid
370
    25
100
AcDbCircle
 10
33.576
 20
33.401
 30
0.0
 40
1.524000000000001
100
AcDbArc
 50
0.0
 51
90.0
  0
ARC
  5
1E0
330
1F
100
AcDbEntity
  8
1
  6
SLD-Solid
370
    25
100
AcDbCircle
 10
36.624
 20
-33.274
 30
0.0
 40
1.524000000000022
100
AcDbArc
 50
90.0
 51
180.0
  0
ARC
  5
1E1
330
1F
100
AcDbEntity
  8
1
  6
SLD-Solid
370
    25
100
AcDbCircle
 10
36.624
 20
33.274
 30
0.0
 40
1.524000000000022
100
AcDbArc
 50
180.0
 51
270.0
  0
ARC
  5
1E2
330
1F
100
AcDbEntity
  8
SK1
  6
SLD-Solid
370
    25
100
AcDbCircle
 10
-99.5
 20
18.2922326599
 30
0.0
 40
2.100000000000018
100
AcDbArc
 50
98.2972222222
 51
180.0
  0
ARC
  5
1E3
330
1F
100
AcDbEntity
  8
SK1
  6
SLD-Solid
370
    25
100
AcDbCircle
 10
-99.5
 20
-18.2922326599
 30
0.0
 40
2.100000000000009
100
AcDbArc
 50
180.0
 51
261.7027777778
  0
ARC
  5
1E4
330
1F
100
AcDbEntity
  8
1
370
    18
100
AcDbCircle
 10
73.2715297308
 20
-68.1596307374
 30
0.0
 40
38.07637347459253
100
AcDbArc
 50
72.9846370134
 51
107.0153629866
  0
ARC
  5
1E5
330
1F
100
AcDbEntity
  8
1
370
    18
100
AcDbCircle
 10
47.879
 20
61.3939136471
 30
0.0
 40
31.31727344959475
100
AcDbArc
 50
251.1854715725
 51
288.8145284275
  0
CIRCLE
  5
1E6
330
1F
100
AcDbEntity
  8
81
370
    18
100
AcDbCircle
 10
101.6
 20
0.0
 30
0.0
 40
2.499999999999984
  0
CIRCLE
  5
1E7
330
1F
100
AcDbEntity
  8
80
370
    18
100
AcDbCircle
 10
0.0
 20
0.0
 30
0.0
 40
2.500000000000009
  0
ARC
  5
1E8
330
1F
100
AcDbEntity
  8
SK3
  6
SLD-Dashed
370
    18
100
AcDbCircle
 10
41.76
 20
-15.9175
 30
0.0
 40
0.1500000000000128
100
AcDbArc
 50
270.0
 51
0.0
  0
ARC
  5
1E9
330
1F
100
AcDbEntity
  8
SK3
  6
SLD-Dashed
370
    18
100
AcDbCircle
 10
16.66
 20
-15.9175
 30
0.0
 40
0.1500000000000092
100
AcDbArc
 50
180.0
 51
270.0
  0
ARC
  5
1EA
330
1F
100
AcDbEntity
  8
SK3
  6
SLD-Dashed
370
    18
100
AcDbCircle
 10
16.66
 20
15.9175
 30
0.0
 40
0.1500000000000092
100
AcDbArc
 50
90.0
 51
180.0
  0
ARC
  5
1EB
330
1F
100
AcDbEntity
  8
1
370
    18
100
AcDbCircle
 10
73.2757711538
 20
61.9667308266
 30
0.0
 40
31.85899574031665
100
AcDbArc
 50
251.5232040235
 51
288.4767959765
  0
SPLINE
  5
1EC
330
1F
100
AcDbEntity
  8
1
  6
SLD-Solid
370
    25
100
AcDbSpline
210
0.0
220
0.0
230
1.0
 70
     8
 71
     3
 72
    12
 73
     8
 74
     0
 42
0.000000001
 43
0.00000001
 40
0.0
 40
0.0
 40
0.0
 40
0.0
 40
0.249999999999997
 40
0.249999999999997
 40
0.499999999999994
 40
0.499999999999994
 40
1.0
 40
1.0
 40
1.0
 40
1.0
 10
3.950000000000009
 20
-47.4754841997425
 30
0.0
 10
3.849084030890598
 20
-47.4754841997425
 30
0.0
 10
3.749978417477457
 20
-47.45437693482703
 30
0.0
 10
3.566847730075526
 20
-47.37426897057827
 30
0.0
 10
3.483455095947358
 20
-47.31511647588032
 30
0.0
 10
3.278048511272585
 20
-47.09831987092233
 30
0.0
 10
3.200000000000008
 20
-46.89926900274103
 30
0.0
 10
3.200000000000008
 20
-46.69763484374771
 30
0.0
  0
SPLINE
  5
1ED
330
1F
100
AcDbEntity
  8
1
  6
SLD-Solid
370
    25
100
AcDbSpline
210
0.0
220
0.0
230
1.0
 70
     8
 71
     3
 72
    17
 73
    13
 74
     0
 42
0.000000001
 43
0.00000001
 40
0.0
 40
0.0
 40
0.0
 40
0.0
 40
0.0631225276679373
 40
0.1266732404557616
 40
0.190657859823915
 40
0.2550819704917502
 40
0.37796775618313
 40
0.5065287291742231
 40
0.753627574171531
 40
0.8770326867277551
 40
0.929351593520063
 40
0.9999999999999999
 40
0.9999999999999999
 40
0.9999999999999999
 40
0.9999999999999999
 10
3.950000000000009
 20
47.29681459776455
 30
0.0
 10
3.925201491186317
 20
47.2961118221463
 30
0.0
 10
3.875436255446299
 20
47.29470150370426
 30
0.0
 10
3.801280717948065
 20
47.28327895415904
 30
0.0
 10
3.728120549120999
 20
47.26498746189473
 30
0.0
 10
3.635342933316934
 20
47.23149463842289
 30
0.0
 10
3.525682301876172
 20
47.17267397043141
 30
0.0
 10
3.374709300498019
 20
47.04854698611184
 30
0.0
 10
3.264271220664449
 20
46.88235514412619
 30
0.0
 10
3.217384189860724
 20
46.72497704377739
 30
0.0
 10
3.202376761219918
 20
46.63086119229422
 30
0.0
 10
3.200867255990325
 20
46.58337040931763
 30
0.0
 10
3.200000000000037
 20
46.55608553132451
 30
0.0
  0
SPLINE
  5
1EE
330
1F
100
AcDbEntity
  8
1
  6
SLD-Solid
370
    25
100
AcDbSpline
210
0.0
220
0.0
230
1.0
 70
     8
 71
     3
 72
    12
 73
     8
 74
     0
 42
0.000000001
 43
0.00000001
 40
0.0
 40
0.0
 40
0.0
 40
0.0
 40
0.2499999999999983
 40
0.2499999999999983
 40
0.4999999999999967
 40
0.4999999999999967
 40
1.0
 40
1.0
 40
1.0
 40
1.0
 10
19.05000000000001
 20
-46.69763484374771
 30
0.0
 10
19.05000000000018
 20
-46.79851095846152
 30
0.0
 10
19.03137059366222
 20
-46.89733966428929
 30
0.0
 10
18.95815575330312
 20
-47.08411469648333
 30
0.0
 10
18.90402082648723
 20
-47.16991322229986
 30
0.0
 10
18.69812814693772
 20
-47.38753444472504
 30
0.0
 10
18.50197314321863
 20
-47.47548419974255
 30
0.0
 10
18.30000000000001
 20
-47.4754841997425
 30
0.0
  0
SPLINE
  5
1EF
330
1F
100
AcDbEntity
  8
1
  6
SLD-Solid
370
    25
100
AcDbSpline
210
0.0
220
0.0
230
1.0
 70
     8
 71
     3
 72
    15
 73
    11
 74
     0
 42
0.000000001
 43
0.00000001
 40
0.0
 40
0.0
 40
0.0
 40
0.0
 40
0.070867546718904
 40
0.1234206290198622
 40
0.2469923695819581
 40
0.4940839350894875
 40
0.6226370203369791
 40
0.7456896564301834
 40
0.8736712713987574
 40
1.0
 40
1.0
 40
1.0
 40
1.0
 10
19.05
 20
46.5560855313245
 30
0.0
 10
19.04912781744743
 20
46.5834464176208
 30
0.0
 10
19.04760885250167
 20
46.63109725292664
 30
0.0
 10
19.03252103265984
 20
46.72541301613892
 30
0.0
 10
18.98548435274788
 20
46.88286431586829
 30
0.0
 10
18.87493087111877
 20
47.04890219769221
 30
0.0
 10
18.72384724369283
 20
47.17307551094378
 30
0.0
 10
18.59213990211467
 20
47.24320117897883
 30
0.0
 10
18.449674230408
 20
47.28829435244312
 30
0.0
 10
18.3496747617736
 20
47.29398684875634
 30
0.0
 10
18.30000000000001
 20
47.29681459776457
 30
0.0
  0
SPLINE
  5
1F0
330
1F
100
AcDbEntity
  8
1
  6
SLD-Solid
370
    25
100
AcDbSpline
210
0.0
220
0.0
230
1.0
 70
     8
 71
     3
 72
    14
 73
    10
 74
     0
 42
0.000000001
 43
0.00000001
 40
0.0
 40
0.0
 40
0.0
 40
0.0
 40
0.25
 40
0.25
 40
0.5
 40
0.5
 40
0.75
 40
0.75
 40
1.0
 40
1.0
 40
1.0
 40
1.0
 10
13.02999999999605
 20
41.98711733167132
 30
0.0
 10
13.05904068228764
 20
41.99358445674416
 30
0.0
 10
13.08275209482979
 20
41.98923559020626
 30
0.0
 10
13.11609658322469
 20
41.95189511103381
 30
0.0
 10
13.12492140067506
 20
41.91935250781671
 30
0.0
 10
13.12507754967818
 20
41.82511380576849
 30
0.0
 10
13.11615053209059
 20
41.76334893396454
 30
0.0
 10
13.08319562521534
 20
41.62087672885567
 30
0.0
 10
13.05911019949627
 20
41.53942138186891
 30
0.0
 10
13.03000000000001
 20
41.45311361597064
 30
0.0
  0
SPLINE
  5
1F1
330
1F
100
AcDbEntity
  8
1
  6
SLD-Solid
370
    25
100
AcDbSpline
210
0.0
220
0.0
230
1.0
 70
     8
 71
     3
 72
     8
 73
     4
 74
     0
 42
0.000000001
 43
0.00000001
 40
0.0
 40
0.0
 40
0.0
 40
0.0
 40
1.0
 40
1.0
 40
1.0
 40
1.0
 10
13.02999999999999
 20
44.57901066343648
 30
0.0
 10
13.44364613314278
 20
45.32508460154333
 30
0.0
 10
13.85791150908241
 20
46.07082082932961
 30
0.0
 10
14.27271061994661
 20
46.81625358782996
 30
0.0
  0
SPLINE
  5
1F2
330
1F
100
AcDbEntity
  8
1
  6
SLD-Solid
370
    25
100
AcDbSpline
210
0.0
220
0.0
230
1.0
 70
     8
 71
     3
 72
     8
 73
     4
 74
     0
 42
0.000000001
 43
0.00000001
 40
0.0
 40
0.0
 40
0.0
 40
0.0
 40
0.0008790679015123
 40
0.0008790679015123
 40
0.0008790679015123
 40
0.0008790679015123
 10
14.63972339340267
 20
47.29681459776457
 30
0.0
 10
14.51700841932646
 20
47.13673210499615
 30
0.0
 10
14.3946651361474
 20
46.97654627942757
 30
0.0
 10
14.27271061994661
 20
46.81625358782996
 30
0.0
  0
SPLINE
  5
1F3
330
1F
100
AcDbEntity
  8
1
  6
SLD-Solid
370
    25
100
AcDbSpline
210
0.0
220
0.0
230
1.0
 70
     8
 71
     3
 72
     8
 73
     4
 74
     0
 42
0.000000001
 43
0.00000001
 40
0.0
 40
0.0
 40
0.0
 40
0.0
 40
1.0
 40
1.0
 40
1.0
 40
1.0
 10
13.02999999999999
 20
-44.57901066343648
 30
0.0
 10
13.56559195163212
 20
-45.54503249842018
 30
0.0
 10
14.10222500453559
 20
-46.5104965471081
 30
0.0
 10
14.63972339340267
 20
-47.4754841997425
 30
0.0
  0
SPLINE
  5
1F4
330
1F
100
AcDbEntity
  8
1
  6
SLD-Solid
370
    25
100
AcDbSpline
210
0.0
220
0.0
230
1.0
 70
     8
 71
     3
 72
    14
 73
    10
 74
     0
 42
0.000000001
 43
0.00000001
 40
0.0
 40
0.0
 40
0.0
 40
0.0
 40
0.25
 40
0.25
 40
0.5
 40
0.5
 40
0.75
 40
0.75
 40
1.0
 40
1.0
 40
1.0
 40
1.0
 10
13.03000000000001
 20
35.43161038841293
 30
0.0
 10
13.05904068229166
 20
35.41088512733871
 30
0.0
 10
13.08275209483378
 20
35.37953864703776
 30
0.0
 10
13.11609658322844
 20
35.28872072742526
 30
0.0
 10
13.12492140067856
 20
35.23076880196021
 30
0.0
 10
13.12507754968096
 20
35.08956907537863
 30
0.0
 10
13.1161505320929
 20
35.00648906177569
 30
0.0
 10
13.08319562521661
 20
34.82779421025374
 30
0.0
 10
13.05911019949696
 20
34.73111937885588
 30
0.0
 10
13.02999999999999
 20
34.63242923389119
 30
0.0
  0
SPLINE
  5
1F5
330
1F
100
AcDbEntity
  8
1
  6
SLD-Solid
370
    25
100
AcDbSpline
210
0.0
220
0.0
230
1.0
 70
     8
 71
     3
 72
     8
 73
     4
 74
     0
 42
0.000000001
 43
0.00000001
 40
0.0
 40
0.0
 40
0.0
 40
0.0
 40
1.0
 40
1.0
 40
1.0
 40
1.0
 10
7.590276606597335
 20
-47.4754841997425
 30
0.0
 10
8.127774995464424
 20
-46.51049654710809
 30
0.0
 10
8.664408048367891
 20
-45.54503249842017
 30
0.0
 10
9.199999999999985
 20
-44.57901066343647
 30
0.0
  0
SPLINE
  5
1F6
330
1F
100
AcDbEntity
  8
1
  6
SLD-Solid
370
    25
100
AcDbSpline
210
0.0
220
0.0
230
1.0
 70
     8
 71
     3
 72
     8
 73
     4
 74
     0
 42
0.000000001
 43
0.00000001
 40
0.0000000000000098
 40
0.0000000000000098
 40
0.0000000000000098
 40
0.0000000000000098
 40
0.000879067901516
 40
0.000879067901516
 40
0.000879067901516
 40
0.000879067901516
 10
7.957289380062154
 20
46.81625358782994
 30
0.0
 10
7.835334863860844
 20
46.97654627942821
 30
0.0
 10
7.712991580674039
 20
47.13673210499547
 30
0.0
 10
7.590276606597335
 20
47.29681459776455
 30
0.0
  0
SPLINE
  5
1F7
330
1F
100
AcDbEntity
  8
1
  6
SLD-Solid
370
    25
100
AcDbSpline
210
0.0
220
0.0
230
1.0
 70
     8
 71
     3
 72
     8
 73
     4
 74
     0
 42
0.000000001
 43
0.00000001
 40
0.0
 40
0.0
 40
0.0
 40
0.0
 40
1.0
 40
1.0
 40
1.0
 40
1.0
 10
7.957289380062154
 20
46.81625358782994
 30
0.0
 10
8.372088490919129
 20
46.07082082933728
 30
0.0
 10
8.786353866857986
 20
45.32508460154716
 30
0.0
 10
9.199999999999985
 20
44.57901066343646
 30
0.0
  0
SPLINE
  5
1F8
330
1F
100
AcDbEntity
  8
1
  6
SLD-Solid
370
    25
100
AcDbSpline
210
0.0
220
0.0
230
1.0
 70
     8
 71
     3
 72
    14
 73
    10
 74
     0
 42
0.000000001
 43
0.00000001
 40
0.0
 40
0.0
 40
0.0
 40
0.0
 40
0.25
 40
0.25
 40
0.5
 40
0.5
 40
0.75
 40
0.75
 40
1.0
 40
1.0
 40
1.0
 40
1.0
 10
9.200000000002289
 20
41.48301295145396
 30
0.0
 10
9.176680646156953
 20
41.55645645104905
 30
0.0
 10
9.157956892055562
 20
41.62429306843829
 30
0.0
 10
9.131927678784708
 20
41.74600607925086
 30
0.0
 10
9.125045582368458
 20
41.79860573441294
 30
0.0
 10
9.124954879643765
 20
41.88147815789092
 30
0.0
 10
9.131870505305063
 20
41.91255410941322
 30
0.0
 10
9.157670888230413
 20
41.9512409197013
 30
0.0
 10
9.176601575159538
 20
41.95960923610544
 30
0.0
 10
9.199999999999985
 20
41.9587011964232
 30
0.0
  0
SPLINE
  5
1F9
330
1F
100
AcDbEntity
  8
1
  6
SLD-Solid
370
    25
100
AcDbSpline
210
0.0
220
0.0
230
1.0
 70
     8
 71
     3
 72
    14
 73
    10
 74
     0
 42
0.000000001
 43
0.00000001
 40
0.0
 40
0.0
 40
0.0
 40
0.0
 40
0.25
 40
0.25
 40
0.5
 40
0.5
 40
0.75
 40
0.75
 40
1.0
 40
1.0
 40
1.0
 40
1.0
 10
9.199999999999985
 20
34.67668893498509
 30
0.0
 10
9.17668064615526
 20
34.76218380134753
 30
0.0
 10
9.15795689205448
 20
34.84409122905369
 30
0.0
 10
9.131927678784734
 20
34.99897222909987
 30
0.0
 10
9.125045582368985
 20
35.07047900120375
 30
0.0
 10
9.12495487964507
 20
35.19440944821503
 30
0.0
 10
9.131870505306672
 20
35.24816533561763
 30
0.0
 10
9.157670888232495
 20
35.33309634836898
 30
0.0
 10
9.176601575161786
 20
35.36545280972803
 30
0.0
 10
9.200000000002289
 20
35.38859611770599
 30
0.0
  0
SPLINE
  5
1FA
330
1F
100
AcDbEntity
  8
1
  6
SLD-Solid
370
    25
100
AcDbSpline
210
0.0
220
0.0
230
1.0
 70
     8
 71
     3
 72
    12
 73
     8
 74
     0
 42
0.000000001
 43
0.00000001
 40
0.0
 40
0.0
 40
0.0
 40
0.0
 40
0.2500000000000032
 40
0.2500000000000032
 40
0.5000000000000063
 40
0.5000000000000063
 40
1.0
 40
1.0
 40
1.0
 40
1.0
 10
12.28000000000001
 20
-43.76943596849289
 30
0.0
 10
12.37996960464108
 20
-43.76943596849289
 30
0.0
 10
12.47988502523367
 20
-43.79051518316404
 30
0.0
 10
12.6644929422387
 20
-43.87194262843689
 30
0.0
 10
12.74728498815325
 20
-43.93126060501207
 30
0.0
 10
12.95342033959715
 20
-44.15080408372863
 30
0.0
 10
13.03000000000001
 20
-44.35163254795798
 30
0.0
 10
13.03000000000001
 20
-44.551021593225
 30
0.0
  0
SPLINE
  5
1FB
330
1F
100
AcDbEntity
  8
1
  6
SLD-Solid
370
    25
100
AcDbSpline
210
0.0
220
0.0
230
1.0
 70
     8
 71
     3
 72
    16
 73
    12
 74
     0
 42
0.000000001
 43
0.00000001
 40
0.0
 40
0.0
 40
0.0
 40
0.0
 40
0.1249999999999994
 40
0.1249999999999994
 40
0.2499999999999988
 40
0.2499999999999988
 40
0.4999999999999992
 40
0.4999999999999992
 40
0.7499999999999997
 40
0.7499999999999997
 40
1.0
 40
1.0
 40
1.0
 40
1.0
 10
13.03000000000002
 20
34.61214293353757
 30
0.0
 10
13.03000000000002
 20
34.56119277402759
 30
0.0
 10
13.02067456260612
 20
34.49413963137994
 30
0.0
 10
12.99367590047851
 20
34.36331338142202
 30
0.0
 10
12.97626449755333
 20
34.29908556562462
 30
0.0
 10
12.91545405813533
 20
34.11096290842622
 30
0.0
 10
12.86271449633861
 20
33.99023971150845
 30
0.0
 10
12.73634152951908
 20
33.76817627154972
 30
0.0
 10
12.6609884163974
 20
33.66394234496751
 30
0.0
 10
12.48671204537785
 20
33.48358218869544
 30
0.0
 10
12.38972674335431
 20
33.40848998465466
 30
0.0
 10
12.28000000000001
 20
33.35547071674119
 30
0.0
  0
SPLINE
  5
1FC
330
1F
100
AcDbEntity
  8
1
  6
SLD-Solid
370
    25
100
AcDbSpline
210
0.0
220
0.0
230
1.0
 70
     8
 71
     3
 72
    12
 73
     8
 74
     0
 42
0.000000001
 43
0.00000001
 40
0.0
 40
0.0
 40
0.0
 40
0.0
 40
0.5
 40
0.5
 40
0.75
 40
0.75
 40
1.0
 40
1.0
 40
1.0
 40
1.0
 10
9.199999999999985
 20
-44.55102159322499
 30
0.0
 10
9.199999999999985
 20
-44.35094747116167
 30
0.0
 10
9.277613070150126
 20
-44.14958800989076
 30
0.0
 10
9.48251103730058
 20
-43.93153570225751
 30
0.0
 10
9.566272299852297
 20
-43.87162606259759
 30
0.0
 10
9.749092094904377
 20
-43.79094541821726
 30
0.0
 10
9.849426682175643
 20
-43.7694359684929
 30
0.0
 10
9.949999999999987
 20
-43.76943596849289
 30
0.0
  0
SPLINE
  5
1FD
330
1F
100
AcDbEntity
  8
1
  6
SLD-Solid
370
    25
100
AcDbSpline
210
0.0
220
0.0
230
1.0
 70
     8
 71
     3
 72
    16
 73
    12
 74
     0
 42
0.000000001
 43
0.00000001
 40
0.0
 40
0.0
 40
0.0
 40
0.0
 40
0.249999999999997
 40
0.249999999999997
 40
0.499999999999994
 40
0.499999999999994
 40
0.749999999999991
 40
0.749999999999991
 40
0.8749999999999954
 40
0.8749999999999954
 40
1.0
 40
1.0
 40
1.0
 40
1.0
 10
9.949999999999987
 20
33.36525953046024
 30
0.0
 10
9.839257595210649
 20
33.42015914282666
 30
0.0
 10
9.740416734001444
 20
33.49854219709403
 30
0.0
 10
9.564708009184047
 20
33.68553569890509
 30
0.0
 10
9.4908304832661
 20
33.79082769792044
 30
0.0
 10
9.364658348120031
 20
34.01955880125704
 30
0.0
 10
9.312951425518134
 20
34.14247439570439
 30
0.0
 10
9.253206550793841
 20
34.3348846178598
 30
0.0
 10
9.236028623043957
 20
34.40121962580661
 30
0.0
 10
9.209723703057032
 20
34.53368853253289
 30
0.0
 10
9.200000000000014
 20
34.60516910831217
 30
0.0
 10
9.200000000000014
 20
34.65640299543515
 30
0.0
  0
SPLINE
  5
1FE
330
1F
100
AcDbEntity
  8
1
  6
SLD-Solid
370
    25
100
AcDbSpline
210
0.0
220
0.0
230
1.0
 70
     8
 71
     3
 72
    12
 73
     8
 74
     0
 42
0.000000001
 43
0.00000001
 40
0.0
 40
0.0
 40
0.0
 40
0.0
 40
0.2499999999999995
 40
0.2499999999999995
 40
0.499999999999999
 40
0.499999999999999
 40
1.0
 40
1.0
 40
1.0
 40
1.0
 10
12.28000000000001
 20
33.35547071674119
 30
0.0
 10
12.10934456477528
 20
33.27301109054177
 30
0.0
 10
11.92465326465505
 20
33.21019284332255
 30
0.0
 10
11.52752277837882
 20
33.12414278909401
 30
0.0
 10
11.32193513118782
 20
33.10278110396343
 30
0.0
 10
10.69948105299426
 20
33.10504385732298
 30
0.0
 10
10.28831449591983
 20
33.19754297491613
 30
0.0
 10
9.949999999999987
 20
33.36525953046024
 30
0.0
  0
SPLINE
  5
1FF
330
1F
100
AcDbEntity
  8
1
  6
SLD-Solid
370
    25
100
AcDbSpline
210
0.0
220
0.0
230
1.0
 70
     8
 71
     3
 72
    26
 73
    22
 74
     0
 42
0.000000001
 43
0.00000001
 40
0.0
 40
0.0
 40
0.0
 40
0.0
 40
0.0468248203706365
 40
0.0951185494425404
 40
0.1419276871581976
 40
0.1900320223524977
 40
0.2382092826404227
 40
0.2875644214586904
 40
0.3401533887098744
 40
0.3940629868964722
 40
0.4506004012051961
 40
0.5086612151259527
 40
0.5672618592253483
 40
0.6275648721044841
 40
0.6859888772953319
 40
0.7462622844079992
 40
0.8019579302444442
 40
0.8595866980245219
 40
0.9103215221436171
 40
0.9628240090403288
 40
1.0
 40
1.0
 40
1.0
 40
1.0
 10
59.02922421299231
 20
-31.75
 30
0.0
 10
59.00374487095792
 20
-31.74235940292998
 30
0.0
 10
58.95198689226455
 20
-31.72683852096137
 30
0.0
 10
58.5375400666954
 20
-31.60537923380918
 30
0.0
 10
57.88843858519696
 20
-31.42475686561656
 30
0.0
 10
57.00903754660377
 20
-31.19790621478466
 30
0.0
 10
55.91310444515607
 20
-30.94449487984184
 30
0.0
 10
54.60564166183901
 20
-30.68393497487257
 30
0.0
 10
53.09346135348045
 20
-30.43973231752929
 30
0.0
 10
51.38570395231238
 20
-30.23807016436755
 30
0.0
 10
49.53166925326963
 20
-30.10793301689646
 30
0.0
 10
47.58194907568821
 20
-30.07166914693164
 30
0.0
 10
45.5978207339425
 20
-30.13999698238337
 30
0.0
 10
43.67277848848541
 20
-30.3086519265767
 30
0.0
 10
41.85227379221462
 20
-30.56007158217064
 30
0.0
 10
40.2532931816825
 20
-30.85555119501833
 30
0.0
 10
38.89180885201368
 20
-31.16117323700259
 30
0.0
 10
37.86333761814228
 20
-31.42575980268207
 30
0.0
 10
37.15576803878975
 20
-31.62380687515981
 30
0.0
 10
36.77677727603598
 20
-31.73563634218472
 30
0.0
 10
36.75721873676135
 20
-31.74151770392632
 30
0.0
 10
36.74911079273019
 20
-31.74395580787459
 30
0.0
  0
SPLINE
  5
200
330
1F
100
AcDbEntity
  8
1
  6
SLD-Solid
370
    25
100
AcDbSpline
210
0.0
220
0.0
230
1.0
 70
     8
 71
     3
 72
    12
 73
     8
 74
     0
 42
0.000000001
 43
0.00000001
 40
0.0
 40
0.0
 40
0.0
 40
0.0
 40
0.2499999999999994
 40
0.2499999999999994
 40
0.4999999999999989
 40
0.4999999999999989
 40
1.0
 40
1.0
 40
1.0
 40
1.0
 10
9.949999999999987
 20
35.48885481142726
 30
0.0
 10
10.11915676939237
 20
35.56613601508703
 30
0.0
 10
10.30270770519948
 20
35.62476545356025
 30
0.0
 10
10.6982656039511
 20
35.70597605697909
 30
0.0
 10
10.90345647830329
 20
35.72681273192542
 30
0.0
 10
11.52590240230555
 20
35.72953904175679
 30
0.0
 10
11.93868796900774
 20
35.6497479244572
 30
0.0
 10
12.28000000000001
 20
35.4978726361615
 30
0.0
  0
SPLINE
  5
201
330
1F
100
AcDbEntity
  8
1
  6
SLD-Solid
370
    25
100
AcDbSpline
210
0.0
220
0.0
230
1.0
 70
     8
 71
     3
 72
    16
 73
    12
 74
     0
 42
0.000000001
 43
0.00000001
 40
0.0
 40
0.0
 40
0.0
 40
0.0
 40
0.2499999999999999
 40
0.2499999999999999
 40
0.4999999999999998
 40
0.4999999999999998
 40
0.7499999999999997
 40
0.7499999999999997
 40
0.8749999999999998
 40
0.8749999999999998
 40
1.0
 40
1.0
 40
1.0
 40
1.0
 10
12.28000000000001
 20
35.4978726361615
 30
0.0
 10
12.38938127142808
 20
35.44920071538571
 30
0.0
 10
12.48719790588468
 20
35.41256913935808
 30
0.0
 10
12.6623565385886
 20
35.35237067244964
 30
0.0
 10
12.73630362704301
 20
35.33005450149012
 30
0.0
 10
12.86322577731738
 20
35.29810085202922
 30
0.0
 10
12.91570572130093
 20
35.28773767542543
 30
0.0
 10
12.97658934509433
 20
35.29443860847842
 30
0.0
 10
12.99409980251967
 20
35.3002929672781
 30
0.0
 10
13.02084597296049
 20
35.33271449864624
 30
0.0
 10
13.03000000000001
 20
35.3606843214308
 30
0.0
 10
13.03000000000001
 20
35.41132408805927
 30
0.0
  0
SPLINE
  5
202
330
1F
100
AcDbEntity
  8
1
  6
SLD-Solid
370
    25
100
AcDbSpline
210
0.0
220
0.0
230
1.0
 70
     8
 71
     3
 72
    16
 73
    12
 74
     0
 42
0.000000001
 43
0.00000001
 40
0.0
 40
0.0
 40
0.0
 40
0.0
 40
0.1250000000000023
 40
0.1250000000000023
 40
0.2500000000000046
 40
0.2500000000000046
 40
0.5000000000000031
 40
0.5000000000000031
 40
0.7500000000000016
 40
0.7500000000000016
 40
1.0
 40
1.0
 40
1.0
 40
1.0
 10
9.200000000002289
 20
35.36831017815865
 30
0.0
 10
9.200000000002289
 20
35.31693147875407
 30
0.0
 10
9.209688078859552
 20
35.29149399689284
 30
0.0
 10
9.236073415531509
 20
35.26518486787288
 30
0.0
 10
9.253070624736903
 20
35.261930325529
 30
0.0
 10
9.313034815209036
 20
35.2616891060858
 30
0.0
 10
9.363922455821461
 20
35.2747715451535
 30
0.0
 10
9.490054525543995
 20
35.31156519648611
 30
0.0
 10
9.565092430037724
 20
35.33621653960083
 30
0.0
 10
9.738924647265529
 20
35.39932894997663
 30
0.0
 10
9.83944594635
 20
35.43834692831864
 30
0.0
 10
9.949999999999987
 20
35.48885481142726
 30
0.0
  0
SPLINE
  5
203
330
1F
100
AcDbEntity
  8
1
  6
SLD-Solid
370
    25
100
AcDbSpline
210
0.0
220
0.0
230
1.0
 70
     8
 71
     3
 72
    16
 73
    12
 74
     0
 42
0.000000001
 43
0.00000001
 40
0.0
 40
0.0
 40
0.0
 40
0.0
 40
0.2499999999999998
 40
0.2499999999999998
 40
0.4999999999999996
 40
0.4999999999999996
 40
0.7499999999999993
 40
0.7499999999999993
 40
0.8749999999999997
 40
0.8749999999999997
 40
1.0
 40
1.0
 40
1.0
 40
1.0
 10
9.949999999999987
 20
40.29017607249211
 30
0.0
 10
9.839257595210649
 20
40.32798470963449
 30
0.0
 10
9.740416734001444
 20
40.3908153101238
 30
0.0
 10
9.564708009184075
 20
40.54795546550075
 30
0.0
 10
9.490830483266127
 20
40.63949231484412
 30
0.0
 10
9.364658348120031
 20
40.84247699029051
 30
0.0
 10
9.312951425518134
 20
40.95326880810713
 30
0.0
 10
9.253206550793841
 20
41.13218036853986
 30
0.0
 10
9.236028623043957
 20
41.19470581500533
 30
0.0
 10
9.209723703057032
 20
41.32469951294973
 30
0.0
 10
9.200000000000014
 20
41.3978390036328
 30
0.0
 10
9.200000000000014
 20
41.45885414630704
 30
0.0
  0
SPLINE
  5
204
330
1F
100
AcDbEntity
  8
1
  6
SLD-Solid
370
    25
100
AcDbSpline
210
0.0
220
0.0
230
1.0
 70
     8
 71
     3
 72
    16
 73
    12
 74
     0
 42
0.000000001
 43
0.00000001
 40
0.0
 40
0.0
 40
0.0
 40
0.0
 40
0.1250000000000039
 40
0.1250000000000039
 40
0.2500000000000078
 40
0.2500000000000078
 40
0.5000000000000051
 40
0.5000000000000051
 40
0.7500000000000026
 40
0.7500000000000026
 40
1.0
 40
1.0
 40
1.0
 40
1.0
 10
13.02999999999835
 20
41.42895438114486
 30
0.0
 10
13.02999999999835
 20
41.36827713359745
 30
0.0
 10
13.02067456260444
 20
41.29860125514492
 30
0.0
 10
12.99367590047684
 20
41.16856540733187
 30
0.0
 10
12.97626449755165
 20
41.10738101936696
 30
0.0
 10
12.91545405813366
 20
40.9307974064249
 30
0.0
 10
12.86271449633694
 20
40.82130212611719
 30
0.0
 10
12.73634152951741
 20
40.62320356046919
 30
0.0
 10
12.66098841639574
 20
40.53226162144244
 30
0.0
 10
12.48671204537619
 20
40.38027498384282
 30
0.0
 10
12.38972674335259
 20
40.31995671599528
 30
0.0
 10
12.27999999999835
 20
40.28343379132451
 30
0.0
  0
SPLINE
  5
205
330
1F
100
AcDbEntity
  8
1
  6
SLD-Solid
370
    25
100
AcDbSpline
210
0.0
220
0.0
230
1.0
 70
     8
 71
     3
 72
    12
 73
     8
 74
     0
 42
0.000000001
 43
0.00000001
 40
0.0
 40
0.0
 40
0.0
 40
0.0
 40
0.25
 40
0.25
 40
0.5
 40
0.5
 40
1.0
 40
1.0
 40
1.0
 40
1.0
 10
12.27999999999835
 20
40.28343379132451
 30
0.0
 10
12.10934456477361
 20
40.22663054158942
 30
0.0
 10
11.92465326465339
 20
40.18318651206279
 30
0.0
 10
11.52752277837718
 20
40.12362389225038
 30
0.0
 10
11.32193513118615
 20
40.10880147711193
 30
0.0
 10
10.69948105299262
 20
40.11037023230934
 30
0.0
 10
10.28831449592008
 20
40.17467189827313
 30
0.0
 10
9.949999999999987
 20
40.29017607249211
 30
0.0
  0
SPLINE
  5
206
330
1F
100
AcDbEntity
  8
1
  6
SLD-Solid
370
    25
100
AcDbSpline
210
0.0
220
0.0
230
1.0
 70
     8
 71
     3
 72
    16
 73
    12
 74
     0
 42
0.000000001
 43
0.00000001
 40
0.0
 40
0.0
 40
0.0
 40
0.0
 40
0.1250000000000007
 40
0.1250000000000007
 40
0.2500000000000013
 40
0.2500000000000013
 40
0.5000000000000009
 40
0.5000000000000009
 40
0.7500000000000004
 40
0.7500000000000004
 40
1.0
 40
1.0
 40
1.0
 40
1.0
 10
9.199999999999985
 20
41.93454239124897
 30
0.0
 10
9.200000000002484
 20
41.8733547896372
 30
0.0
 10
9.209688078861245
 20
41.83111047963452
 30
0.0
 10
9.236073415534618
 20
41.77192904688972
 30
0.0
 10
9.253070624740456
 20
41.75174455463428
 30
0.0
 10
9.313034815213312
 20
41.70102846576503
 30
0.0
 10
9.36392245582579
 20
41.68155707128332
 30
0.0
 10
9.490054525547881
 20
41.65587219504386
 30
0.0
 10
9.565092430040888
 20
41.65088437918836
 30
0.0
 10
9.738924647266584
 20
41.661139619114
 30
0.0
 10
9.839445946349556
 20
41.6765128133174
 30
0.0
 10
9.949999999997683
 20
41.70913817421308
 30
0.0
  0
SPLINE
  5
207
330
1F
100
AcDbEntity
  8
1
  6
SLD-Solid
370
    25
100
AcDbSpline
210
0.0
220
0.0
230
1.0
 70
     8
 71
     3
 72
    12
 73
     8
 74
     0
 42
0.000000001
 43
0.00000001
 40
0.0
 40
0.0
 40
0.0
 40
0.0
 40
0.25
 40
0.25
 40
0.5
 40
0.5
 40
1.0
 40
1.0
 40
1.0
 40
1.0
 10
9.949999999997683
 20
41.70913817421308
 30
0.0
 10
10.1191567693899
 20
41.7590576522176
 30
0.0
 10
10.30270770519864
 20
41.7967364999886
 30
0.0
 10
10.69826560394985
 20
41.84886357628228
 30
0.0
 10
10.90345647830171
 20
41.86219397810193
 30
0.0
 10
11.52590240230295
 20
41.86393994691687
 30
0.0
 10
11.93868796900432
 20
41.81303425518007
 30
0.0
 10
12.27999999999604
 20
41.71496227396704
 30
0.0
  0
SPLINE
  5
208
330
1F
100
AcDbEntity
  8
1
  6
SLD-Solid
370
    25
100
AcDbSpline
210
0.0
220
0.0
230
1.0
 70
     8
 71
     3
 72
    16
 73
    12
 74
     0
 42
0.000000001
 43
0.00000001
 40
0.0
 40
0.0
 40
0.0
 40
0.0
 40
0.2500000000000007
 40
0.2500000000000007
 40
0.5000000000000013
 40
0.5000000000000013
 40
0.750000000000002
 40
0.750000000000002
 40
0.875000000000001
 40
0.875000000000001
 40
1.0
 40
1.0
 40
1.0
 40
1.0
 10
12.27999999999604
 20
41.71496227396704
 30
0.0
 10
12.38938127142411
 20
41.68353285741415
 30
0.0
 10
12.48719790588074
 20
41.6692344716488
 30
0.0
 10
12.66235653858464
 20
41.66075308180609
 30
0.0
 10
12.73630362703904
 20
41.66679667497374
 30
0.0
 10
12.86322577731341
 20
41.69542238628978
 30
0.0
 10
12.91570572129697
 20
41.71723646207173
 30
0.0
 10
12.97658934509036
 20
41.77277628648037
 30
0.0
 10
12.9940998025157
 20
41.79517110958682
 30
0.0
 10
13.02084597295652
 20
41.859343688956
 30
0.0
 10
13.02999999999605
 20
41.90265050045375
 30
0.0
 10
13.02999999999605
 20
41.96295809683835
 30
0.0
  0
SPLINE
  5
209
330
1F
100
AcDbEntity
  8
1
  6
SLD-Solid
370
    25
100
AcDbSpline
210
0.0
220
0.0
230
1.0
 70
     8
 71
     3
 72
    12
 73
     8
 74
     0
 42
0.000000001
 43
0.00000001
 40
0.0
 40
0.0
 40
0.0
 40
0.0
 40
0.5
 40
0.5
 40
0.75
 40
0.75
 40
1.0
 40
1.0
 40
1.0
 40
1.0
 10
9.199999999999985
 20
44.55102159322499
 30
0.0
 10
9.199999999999985
 20
44.35104831812288
 30
0.0
 10
9.276003966817326
 20
44.1515082673653
 30
0.0
 10
9.482759040153471
 20
43.93116827137958
 30
0.0
 10
9.566857937314932
 20
43.87128621650868
 30
0.0
 10
9.749511247261145
 20
43.79084228716471
 30
0.0
 10
9.850156242870472
 20
43.76943596849256
 30
0.0
 10
9.950000000002401
 20
43.76943596849289
 30
0.0
  0
SPLINE
  5
20A
330
1F
100
AcDbEntity
  8
1
  6
SLD-Solid
370
    25
100
AcDbSpline
210
0.0
220
0.0
230
1.0
 70
     8
 71
     3
 72
    10
 73
     6
 74
     0
 42
0.000000001
 43
0.00000001
 40
0.0
 40
0.0
 40
0.0
 40
0.0
 40
0.5
 40
0.5
 40
1.0
 40
1.0
 40
1.0
 40
1.0
 10
12.28000000000001
 20
43.76943596849289
 30
0.0
 10
12.48122846377883
 20
43.76943596849292
 30
0.0
 10
12.67900932610888
 20
43.85856672856717
 30
0.0
 10
12.95290221427664
 20
44.1502294699326
 30
0.0
 10
13.03000000000001
 20
44.34957328976746
 30
0.0
 10
13.03000000000001
 20
44.55102159322499
 30
0.0
  0
SPLINE
  5
20B
330
1F
100
AcDbEntity
  8
SK3
  6
SLD-Dashed
370
    18
100
AcDbSpline
210
0.0
220
0.0
230
1.0
 70
     8
 71
     3
 72
    30
 73
    26
 74
     0
 42
0.000000001
 43
0.00000001
 40
0.4999999999999934
 40
0.4999999999999934
 40
0.4999999999999934
 40
0.4999999999999934
 40
0.5624999999999941
 40
0.5624999999999941
 40
0.6249999999999949
 40
0.6249999999999949
 40
0.6874999999999956
 40
0.6874999999999956
 40
0.7499999999999962
 40
0.7499999999999962
 40
0.7812499999999968
 40
0.7812499999999968
 40
0.8124999999999972
 40
0.8124999999999972
 40
0.8437499999999977
 40
0.8437499999999977
 40
0.8749999999999981
 40
0.8749999999999981
 40
0.9062499999999986
 40
0.9062499999999986
 40
0.9374999999999991
 40
0.9374999999999991
 40
0.9687499999999996
 40
0.9687499999999996
 40
1.0
 40
1.0
 40
1.0
 40
1.0
 10
9.602846279599758
 20
-14.27915034605702
 30
0.0
 10
9.686456538693767
 20
-14.4212541863764
 30
0.0
 10
9.797407143447817
 20
-14.51131733768215
 30
0.0
 10
10.04010223607202
 20
-14.63242374926581
 30
0.0
 10
10.17571106347529
 20
-14.66434400040093
 30
0.0
 10
10.46843928875954
 20
-14.6878509066433
 30
0.0
 10
10.62555865364897
 20
-14.68003033606001
 30
0.0
 10
10.98145473780837
 20
-14.62436653420486
 30
0.0
 10
11.18157682258661
 20
-14.5763222183847
 30
0.0
 10
11.50801002825755
 20
-14.45860893436549
 30
0.0
 10
11.61873162334193
 20
-14.41242944660508
 30
0.0
 10
11.84220113938106
 20
-14.30063256215535
 30
0.0
 10
11.9541226944469
 20
-14.23490090158665
 30
0.0
 10
12.16107863552154
 20
-14.08747705033184
 30
0.0
 10
12.25901625186734
 20
-14.00366784802362
 30
0.0
 10
12.43052677631515
 20
-13.82249974419393
 30
0.0
 10
12.50593330594163
 20
-13.72350506925875
 30
0.0
 10
12.6300030332496
 20
-13.51367430078405
 30
0.0
 10
12.67841410243614
 20
-13.4039848685676
 30
0.0
 10
12.7478937063735
 20
-13.17359881812363
 30
0.0
 10
12.76810124630629
 20
-13.05468203931825
 30
0.0
 10
12.77891027826544
 20
-12.81644825424547
 30
0.0
 10
12.76940813581853
 20
-12.69449512908379
 30
0.0
 10
12.72129905847916
 20
-12.45817259633889
 30
0.0
 10
12.68301625646431
 20
-12.3430480331033
 30
0.0
 10
12.63040931107567
 20
-12.2323343638947
 30
0.0
  0
SPLINE
  5
20C
330
1F
100
AcDbEntity
  8
SK3
  6
SLD-Dashed
370
    18
100
AcDbSpline
210
0.0
220
0.0
230
1.0
 70
     8
 71
     3
 72
    30
 73
    26
 74
     0
 42
0.000000001
 43
0.00000001
 40
0.0
 40
0.0
 40
0.0
 40
0.0
 40
0.0312499999999991
 40
0.0312499999999991
 40
0.0624999999999983
 40
0.0624999999999983
 40
0.0937499999999974
 40
0.0937499999999974
 40
0.1249999999999965
 40
0.1249999999999965
 40
0.187499999999996
 40
0.187499999999996
 40
0.2499999999999955
 40
0.2499999999999955
 40
0.312499999999995
 40
0.312499999999995
 40
0.3749999999999944
 40
0.3749999999999944
 40
0.4062499999999942
 40
0.4062499999999942
 40
0.4374999999999939
 40
0.4374999999999939
 40
0.4687499999999937
 40
0.4687499999999937
 40
0.4999999999999934
 40
0.4999999999999934
 40
0.4999999999999934
 40
0.4999999999999934
 10
12.63040931107567
 20
-12.2323343638947
 30
0.0
 10
12.57780236568703
 20
-12.12162069468611
 30
0.0
 10
12.51267206459308
 20
-12.01896209858505
 30
0.0
 10
12.35821503903348
 20
-11.83123217673026
 30
0.0
 10
12.2680065585952
 20
-11.74609765066666
 30
0.0
 10
12.07343499093627
 20
-11.60605794329096
 30
0.0
 10
11.96643370486067
 20
-11.5492012180452
 30
0.0
 10
11.74573264298215
 20
-11.4698171939369
 30
0.0
 10
11.63406552497759
 20
-11.44748668283022
 30
0.0
 10
11.2995180174269
 20
-11.42770686560521
 30
0.0
 10
11.09198428069952
 20
-11.47806879673262
 30
0.0
 10
10.72217844091647
 20
-11.64236243808863
 30
0.0
 10
10.55844908096595
 20
-11.75496051093636
 30
0.0
 10
10.25324958882709
 20
-12.02428585488716
 30
0.0
 10
10.11576882260312
 20
-12.17795893248196
 30
0.0
 10
9.86252561936532
 20
-12.52988094775973
 30
0.0
 10
9.746260896402015
 20
-12.72918710194006
 30
0.0
 10
9.605692660850485
 20
-13.06645756895028
 30
0.0
 10
9.565421636406112
 20
-13.18319961587416
 30
0.0
 10
9.503286004234612
 20
-13.42936776111859
 30
0.0
 10
9.482363995141297
 20
-13.5575206983002
 30
0.0
 10
9.47090841224374
 20
-13.80546799718779
 30
0.0
 10
9.480664817462653
 20
-13.92083957613646
 30
0.0
 10
9.525951505689662
 20
-14.1223947507326
 30
0.0
 10
9.561041150052768
 20
-14.20809842589733
 30
0.0
 10
9.602846279599758
 20
-14.27915034605702
 30
0.0
  0
SPLINE
  5
20D
330
1F
100
AcDbEntity
  8
SK3
  6
SLD-Dashed
370
    18
100
AcDbSpline
210
0.0
220
0.0
230
1.0
 70
     8
 71
     3
 72
    26
 73
    22
 74
     0
 42
0.000000001
 43
0.00000001
 40
0.5000000000000062
 40
0.5000000000000062
 40
0.5000000000000062
 40
0.5000000000000062
 40
0.5625000000000058
 40
0.5625000000000058
 40
0.6250000000000051
 40
0.6250000000000051
 40
0.6562500000000046
 40
0.6562500000000046
 40
0.687500000000004
 40
0.687500000000004
 40
0.7187500000000034
 40
0.7187500000000034
 40
0.7500000000000029
 40
0.7500000000000029
 40
0.8125000000000022
 40
0.8125000000000022
 40
0.8750000000000014
 40
0.8750000000000014
 40
0.9375000000000008
 40
0.9375000000000008
 40
1.0
 40
1.0
 40
1.0
 40
1.0
 10
11.63869831779571
 20
-9.819390371339221
 30
0.0
 10
11.80317915771348
 20
-9.806594466981581
 30
0.0
 10
11.95081782962318
 20
-9.812432081454679
 30
0.0
 10
12.2261629968525
 20
-9.868839301598985
 30
0.0
 10
12.3523651546992
 20
-9.91895362087792
 30
0.0
 10
12.51874661426344
 20
-10.04837289060636
 30
0.0
 10
12.57051953396254
 20
-10.10115000339698
 30
0.0
 10
12.66070184098386
 20
-10.23071744026807
 30
0.0
 10
12.70001796005851
 20
-10.30921538460777
 30
0.0
 10
12.7562433913955
 20
-10.49493258066049
 30
0.0
 10
12.7732316530057
 20
-10.60488156995157
 30
0.0
 10
12.77649462889752
 20
-10.84110300053567
 30
0.0
 10
12.76278670669287
 20
-10.96977043023328
 30
0.0
 10
12.68516730486996
 20
-11.34647137591011
 30
0.0
 10
12.58996305158963
 20
-11.58088814423495
 30
0.0
 10
12.37315603453734
 20
-11.98947715399203
 30
0.0
 10
12.24747178673946
 20
-12.17132846963891
 30
0.0
 10
11.97676737519451
 20
-12.4898134904303
 30
0.0
 10
11.8310268635477
 20
-12.62828009284684
 30
0.0
 10
11.50508373269932
 20
-12.86276351579439
 30
0.0
 10
11.32747339457477
 20
-12.95749122616766
 30
0.0
 10
11.12500000000002
 20
-13.01159523973385
 30
0.0
  0
SPLINE
  5
20E
330
1F
100
AcDbEntity
  8
SK3
  6
SLD-Dashed
370
    18
100
AcDbSpline
210
0.0
220
0.0
230
1.0
 70
     8
 71
     3
 72
    34
 73
    30
 74
     0
 42
0.000000001
 43
0.00000001
 40
0.0
 40
0.0
 40
0.0
 40
0.0
 40
0.0312500000000005
 40
0.0312500000000005
 40
0.0625000000000011
 40
0.0625000000000011
 40
0.0937500000000016
 40
0.0937500000000016
 40
0.1250000000000022
 40
0.1250000000000022
 40
0.1562500000000027
 40
0.1562500000000027
 40
0.1875000000000032
 40
0.1875000000000032
 40
0.2187500000000038
 40
0.2187500000000038
 40
0.2500000000000043
 40
0.2500000000000043
 40
0.2812500000000049
 40
0.2812500000000049
 40
0.3125000000000054
 40
0.3125000000000054
 40
0.3750000000000063
 40
0.3750000000000063
 40
0.4062500000000066
 40
0.4062500000000066
 40
0.4375000000000068
 40
0.4375000000000068
 40
0.5000000000000062
 40
0.5000000000000062
 40
0.5000000000000062
 40
0.5000000000000062
 10
11.12500000000002
 20
-13.01159523973387
 30
0.0
 10
11.02376330271265
 20
-13.03864724651696
 30
0.0
 10
10.91875434041334
 20
-13.05441768585464
 30
0.0
 10
10.69982193729479
 20
-13.05649587060873
 30
0.0
 10
10.58565504429784
 20
-13.04203538439394
 30
0.0
 10
10.36433306908851
 20
-12.97958779527629
 30
0.0
 10
10.25386240054307
 20
-12.93066318687885
 30
0.0
 10
10.04998753866614
 20
-12.80335962284305
 30
0.0
 10
9.955887873021007
 20
-12.7251483057676
 30
0.0
 10
9.789076352163576
 20
-12.54575166602606
 30
0.0
 10
9.718022202672085
 20
-12.44674722204858
 30
0.0
 10
9.600536001433197
 20
-12.23250861951095
 30
0.0
 10
9.555159683901211
 20
-12.11851015366415
 30
0.0
 10
9.493538953914321
 20
-11.88585378314765
 30
0.0
 10
9.476799814585949
 20
-11.76451266100639
 30
0.0
 10
9.473480888754672
 20
-11.52533259241785
 30
0.0
 10
9.48635422537182
 20
-11.407050293772
 30
0.0
 10
9.54190660979044
 20
-11.17282024047879
 30
0.0
 10
9.583939125903782
 20
-11.06025657731948
 30
0.0
 10
9.694361385739573
 20
-10.84625731946302
 30
0.0
 10
9.76404698691733
 20
-10.7432601065713
 30
0.0
 10
10.00399120049176
 20
-10.46156575413968
 30
0.0
 10
10.21277179464264
 20
-10.30327029353937
 30
0.0
 10
10.5444699112901
 20
-10.1221917168868
 30
0.0
 10
10.65925898590059
 20
-10.07012567259635
 30
0.0
 10
10.87934718809658
 20
-9.984066675225888
 30
0.0
 10
10.98764418607853
 20
-9.948726825148169
 30
0.0
 10
11.29210738731387
 20
-9.863765363482681
 30
0.0
 10
11.47421747787791
 20
-9.832186275696877
 30
0.0
 10
11.63869831779571
 20
-9.819390371339221
 30
0.0
  0
SPLINE
  5
20F
330
1F
100
AcDbEntity
  8
SK3
  6
SLD-Dashed
370
    18
100
AcDbSpline
210
0.0
220
0.0
230
1.0
 70
    24
 71
     3
 72
    10
 73
     6
 74
     0
 42
0.000000001
 43
0.00000001
 40
0.0
 40
0.0
 40
0.0
 40
0.0
 40
0.0560555825067823
 40
0.826796066494382
 40
1.0
 40
1.0
 40
1.0
 40
1.0
 10
19.04999999999998
 20
-35.1
 30
0.0
 10
19.05021402441967
 20
-35.10000000000001
 30
0.0
 10
19.05337079383307
 20
-35.09999999999998
 30
0.0
 10
19.16747617331638
 20
-35.10000000000001
 30
0.0
 10
19.21674842841276
 20
-35.1
 30
0.0
 10
19.22578937217725
 20
-35.1
 30
0.0
  0
SPLINE
  5
210
330
1F
100
AcDbEntity
  8
1
  6
SLD-Dashed
370
    18
100
AcDbSpline
210
0.0
220
0.0
230
1.0
 70
    24
 71
     3
 72
     8
 73
     4
 74
     0
 42
0.000000001
 43
0.00000001
 40
0.0
 40
0.0
 40
0.0
 40
0.0
 40
0.5
 40
0.5
 40
0.5
 40
0.5
 10
19.32612109007267
 20
-35.10000000000004
 30
0.0
 10
19.32611593961733
 20
-35.10000000000004
 30
0.0
 10
19.25867341139639
 20
-35.10000000000002
 30
0.0
 10
19.18940244946851
 20
-35.09999999999999
 30
0.0
  0
SPLINE
  5
211
330
1F
100
AcDbEntity
  8
SK3
  6
SLD-Dashed
370
    18
100
AcDbSpline
210
0.0
220
0.0
230
1.0
 70
    24
 71
     2
 72
     6
 73
     3
 74
     0
 42
0.000000001
 43
0.00000001
 40
0.5
 40
0.5
 40
0.5
 40
1.0
 40
1.0
 40
1.0
 10
19.18940244946851
 20
-35.09999999999999
 30
0.0
 10
19.12012975922609
 20
-35.09999999999999
 30
0.0
 10
19.05000000000001
 20
-35.1
 30
0.0
  0
SPLINE
  5
212
330
1F
100
AcDbEntity
  8
1
  6
SLD-Dashed
370
    18
100
AcDbSpline
210
0.0
220
0.0
230
1.0
 70
    24
 71
     2
 72
     6
 73
     3
 74
     0
 42
0.000000001
 43
0.00000001
 40
0.0
 40
0.0
 40
0.0
 40
0.25
 40
0.25
 40
0.25
 10
3.200000000012332
 20
-35.09999999995728
 30
0.0
 10
3.178023089483395
 20
-35.09999999996995
 30
0.0
 10
3.159393676864672
 20
-35.0999999999807
 30
0.0
  0
SPLINE
  5
213
330
1F
100
AcDbEntity
  8
1
  6
SLD-Dashed
370
    18
100
AcDbSpline
210
0.0
220
0.0
230
1.0
 70
    24
 71
     3
 72
     8
 73
     4
 74
     0
 42
0.000000001
 43
0.00000001
 40
0.25
 40
0.25
 40
0.25
 40
0.25
 40
0.5
 40
0.5
 40
0.5
 40
0.5
 10
3.159393676864672
 20
-35.0999999999807
 30
0.0
 10
3.140764264251625
 20
-35.09999999999144
 30
0.0
 10
3.12593531337646
 20
-35.1
 30
0.0
 10
3.12592529748136
 20
-35.1
 30
0.0
  0
SPLINE
  5
214
330
1F
100
AcDbEntity
  8
1
  6
SLD-Dashed
370
    18
100
AcDbSpline
210
0.0
220
0.0
230
1.0
 70
    24
 71
     3
 72
     8
 73
     4
 74
     0
 42
0.000000001
 43
0.00000001
 40
0.5
 40
0.5
 40
0.5
 40
0.5
 40
0.75
 40
0.75
 40
0.75
 40
0.75
 10
3.12592529748136
 20
-35.1
 30
0.0
 10
3.125915281586261
 20
-35.10000000000001
 30
0.0
 10
3.140736475081146
 20
-35.09999999999146
 30
0.0
 10
3.159374026153516
 20
-35.09999999998071
 30
0.0
  0
SPLINE
  5
215
330
1F
100
AcDbEntity
  8
1
  6
SLD-Dashed
370
    18
100
AcDbSpline
210
0.0
220
0.0
230
1.0
 70
    24
 71
     2
 72
     6
 73
     3
 74
     0
 42
0.000000001
 43
0.00000001
 40
0.75
 40
0.75
 40
0.75
 40
1.0
 40
1.0
 40
1.0
 10
3.159374026153516
 20
-35.09999999998071
 30
0.0
 10
3.178011577231548
 20
-35.09999999996995
 30
0.0
 10
3.200000000012332
 20
-35.09999999995728
 30
0.0
  0
SPLINE
  5
216
330
1F
100
AcDbEntity
  8
SK3
  6
SLD-Dashed
370
    18
100
AcDbSpline
210
0.0
220
0.0
230
1.0
 70
     8
 71
     3
 72
    22
 73
    18
 74
     0
 42
0.000000001
 43
0.00000001
 40
0.0
 40
0.0
 40
0.0
 40
0.0
 40
0.125
 40
0.125
 40
0.25
 40
0.25
 40
0.375
 40
0.375
 40
0.5
 40
0.5
 40
0.625
 40
0.625
 40
0.75
 40
0.75
 40
0.875
 40
0.875
 40
1.0
 40
1.0
 40
1.0
 40
1.0
 10
12.23840130188122
 20
-2.633529784903131
 30
0.0
 10
12.30254944032583
 20
-2.727592424024157
 30
0.0
 10
12.36472499875488
 20
-2.827428298531123
 30
0.0
 10
12.48380373934413
 20
-3.043077205588253
 30
0.0
 10
12.54111139274813
 20
-3.159775507934448
 30
0.0
 10
12.6431926660476
 20
-3.408805924847782
 30
0.0
 10
12.68873560753073
 20
-3.543295418315245
 30
0.0
 10
12.75455052466179
 20
-3.821048561240804
 30
0.0
 10
12.77492195351565
 20
-3.968105163482644
 30
0.0
 10
12.77507757757074
 20
-4.242521430944259
 30
0.0
 10
12.75488086908894
 20
-4.364820825527249
 30
0.0
 10
12.6887616213045
 20
-4.562895300293343
 30
0.0
 10
12.64297763772476
 20
-4.641514729054601
 30
0.0
 10
12.54130756704197
 20
-4.764811731982385
 30
0.0
 10
12.48436834286554
 20
-4.811205827528191
 30
0.0
 10
12.36473016364562
 20
-4.881860443433958
 30
0.0
 10
12.30246595803225
 20
-4.905943753158767
 30
0.0
 10
12.23840130188122
 20
-4.922091341548203
 30
0.0
  0
SPLINE
  5
217
330
1F
100
AcDbEntity
  8
SK3
  6
SLD-Dashed
370
    18
100
AcDbSpline
210
0.0
220
0.0
230
1.0
 70
     8
 71
     3
 72
    34
 73
    30
 74
     0
 42
0.000000001
 43
0.00000001
 40
0.0
 40
0.0
 40
0.0
 40
0.0
 40
0.125
 40
0.125
 40
0.1875
 40
0.1875
 40
0.25
 40
0.25
 40
0.3125000000000001
 40
0.3125000000000001
 40
0.375
 40
0.375
 40
0.4375
 40
0.4375
 40
0.5
 40
0.5
 40
0.5625
 40
0.5625
 40
0.625
 40
0.625
 40
0.6875
 40
0.6875
 40
0.7499999999999999
 40
0.7499999999999999
 40
0.8124999999999999
 40
0.8124999999999999
 40
0.8749999999999999
 40
0.8749999999999999
 40
1.0
 40
1.0
 40
1.0
 40
1.0
 10
12.23840130188122
 20
-2.633529784903097
 30
0.0
 10
12.00373289215792
 20
-2.42381392671856
 30
0.0
 10
11.70861505659013
 20
-2.281430297384507
 30
0.0
 10
11.23668611030373
 20
-2.204202561088164
 30
0.0
 10
11.07602096426782
 20
-2.201248768769717
 30
0.0
 10
10.76103677258874
 20
-2.240604138146724
 30
0.0
 10
10.60501174249998
 20
-2.283473956307416
 30
0.0
 10
10.31543281005734
 20
-2.409240758783987
 30
0.0
 10
10.17803523673108
 20
-2.493909881732162
 30
0.0
 10
9.937129855949827
 20
-2.693923517633825
 30
0.0
 10
9.830107795944649
 20
-2.812064867183432
 30
0.0
 10
9.65699662763972
 20
-3.068510753634811
 30
0.0
 10
9.589292919936238
 20
-3.20863059824282
 30
0.0
 10
9.498295909433574
 20
-3.499838807558477
 30
0.0
 10
9.475144203532654
 20
-3.648505181501851
 30
0.0
 10
9.474857116615192
 20
-3.950118675941687
 30
0.0
 10
9.497641843851213
 20
-4.09616974169548
 30
0.0
 10
9.588262593711566
 20
-4.37922317375418
 30
0.0
 10
9.655482715780511
 20
-4.51257394527748
 30
0.0
 10
9.828406372645732
 20
-4.754952330057072
 30
0.0
 10
9.9349725401367
 20
-4.864558491500248
 30
0.0
 10
10.17559986679972
 20
-5.049122690644587
 30
0.0
 10
10.31284689355766
 20
-5.126309542839262
 30
0.0
 10
10.60196361543009
 20
-5.240514403732174
 30
0.0
 10
10.75772557743534
 20
-5.279283524896212
 30
0.0
 10
11.07412703225963
 20
-5.315205035075113
 30
0.0
 10
11.23624970578826
 20
-5.312481007149684
 30
0.0
 10
11.70483693663668
 20
-5.244051833314257
 30
0.0
 10
12.00421877861294
 20
-5.115225697449703
 30
0.0
 10
12.23840130188122
 20
-4.922091341548216
 30
0.0
  0
SPLINE
  5
218
330
1F
100
AcDbEntity
  8
1
  6
SLD-Dashed
370
    18
100
AcDbSpline
210
0.0
220
0.0
230
1.0
 70
     8
 71
     3
 72
    29
 73
    25
 74
     0
 42
0.000000001
 43
0.00000001
 40
0.0
 40
0.0
 40
0.0
 40
0.0
 40
0.0462182259372798
 40
0.0479032960967153
 40
0.0927727904243244
 40
0.138870276671173
 40
0.1852283522276915
 40
0.2327443184548723
 40
0.2828540251487802
 40
0.3341948715599324
 40
0.3887165938410361
 40
0.4446474553962076
 40
0.4728021263391721
 40
0.501266942532972
 40
0.5023847211728393
 40
0.5617317873098314
 40
0.6205351758929802
 40
0.6811085353204759
 40
0.738653746621642
 40
0.7981039212236125
 40
0.8517332611776961
 40
0.9072586866860952
 40
0.9557374667140356
 40
1.0
 40
1.0
 40
1.0
 40
1.0
 10
62.12931242259634
 20
-31.74984099188138
 30
0.0
 10
62.17397991483117
 20
-31.73660955137164
 30
0.0
 10
62.22027593903012
 20
-31.72289570581244
 30
0.0
 10
62.30571676531122
 20
-31.69756503840311
 30
0.0
 10
62.62387697205574
 20
-31.60447442520376
 30
0.0
 10
63.21275351596586
 20
-31.44031492363774
 30
0.0
 10
64.06095072671106
 20
-31.21984871719918
 30
0.0
 10
65.12287539277031
 20
-30.97107460030361
 30
0.0
 10
66.40428617955091
 20
-30.71133507314924
 30
0.0
 10
67.90247105657313
 20
-30.46213446758613
 30
0.0
 10
69.5874170262855
 20
-30.25956836195608
 30
0.0
 10
71.10296659307636
 20
-30.13131165896019
 30
0.0
 10
72.36771488900443
 20
-30.11357272821512
 30
0.0
 10
73.01320714717954
 20
-30.09626572067004
 30
0.0
 10
74.00864882520148
 20
-30.07212569177983
 30
0.0
 10
75.35212341075729
 20
-30.13558788002536
 30
0.0
 10
77.29962130136076
 20
-30.28572744401446
 30
0.0
 10
79.11509466457781
 20
-30.53030631937667
 30
0.0
 10
80.76344975364772
 20
-30.82624618322433
 30
0.0
 10
82.12785411821628
 20
-31.12809776528025
 30
0.0
 10
83.21320652226113
 20
-31.40358752698812
 30
0.0
 10
83.93858756571318
 20
-31.6055303984674
 30
0.0
 10
84.36281204567095
 20
-31.73008585781458
 30
0.0
 10
84.39729121030679
 20
-31.74045729042699
 30
0.0
 10
84.41374703908295
 20
-31.7454072513972
 30
0.0
  0
SPLINE
  5
219
330
1F
100
AcDbEntity
  8
SK3
  6
SLD-Dashed
370
    18
100
AcDbSpline
210
0.0
220
0.0
230
1.0
 70
     8
 71
     3
 72
    14
 73
    10
 74
     0
 42
0.000000001
 43
0.00000001
 40
0.4999999999999993
 40
0.4999999999999993
 40
0.4999999999999993
 40
0.4999999999999993
 40
0.6249999999999994
 40
0.6249999999999994
 40
0.7499999999999996
 40
0.7499999999999996
 40
0.8749999999999998
 40
0.8749999999999998
 40
1.0
 40
1.0
 40
1.0
 40
1.0
 10
39.21760177102263
 20
16.06749904530672
 30
0.0
 10
39.21723342933375
 20
16.06769760477405
 30
0.0
 10
39.27380799280245
 20
16.03697452672877
 30
0.0
 10
39.50373434354146
 20
15.9147823518408
 30
0.0
 10
39.67274033040072
 20
15.82566590242582
 30
0.0
 10
40.11154868891278
 20
15.60263770522225
 30
0.0
 10
40.38429900622418
 20
15.46735210581524
 30
0.0
 10
41.00959472210727
 20
15.17422706601902
 30
0.0
 10
41.36344611265835
 20
15.01554481341143
 30
0.0
 10
41.75999999999999
 20
14.85216709069759
 30
0.0
  0
SPLINE
  5
21A
330
1F
100
AcDbEntity
  8
SK3
  6
SLD-Dashed
370
    18
100
AcDbSpline
210
0.0
220
0.0
230
1.0
 70
     8
 71
     3
 72
    18
 73
    14
 74
     0
 42
0.000000001
 43
0.00000001
 40
0.0
 40
0.0
 40
0.0
 40
0.0
 40
0.1249999999999997
 40
0.1249999999999997
 40
0.1874999999999996
 40
0.1874999999999996
 40
0.2499999999999994
 40
0.2499999999999994
 40
0.3749999999999992
 40
0.3749999999999992
 40
0.4374999999999993
 40
0.4374999999999993
 40
0.4999999999999993
 40
0.4999999999999993
 40
0.4999999999999993
 40
0.4999999999999993
 10
41.75999999999999
 20
14.85216709069759
 30
0.0
 10
41.3636395508255
 20
15.01546511809574
 30
0.0
 10
41.01059241809471
 20
15.17379135337927
 30
0.0
 10
40.54313714864674
 20
15.39287639859888
 30
0.0
 10
40.39776701058198
 20
15.46285219082376
 30
0.0
 10
40.12860750151118
 20
15.59485603376765
 30
0.0
 10
40.00467612801239
 20
15.65696991062471
 30
0.0
 10
39.6746717831972
 20
15.8246581000678
 30
0.0
 10
39.50664699800538
 20
15.91325179923994
 30
0.0
 10
39.33481817567127
 20
16.00454294173034
 30
0.0
 10
39.29087663158273
 20
16.0280990414248
 30
0.0
 10
39.23229682225812
 20
16.05956324856124
 30
0.0
 10
39.21778594186706
 20
16.06739976557306
 30
0.0
 10
39.21760177102263
 20
16.06749904530671
 30
0.0
  0
SPLINE
  5
21B
330
1F
100
AcDbEntity
  8
SK3
  6
SLD-Dashed
370
    18
100
AcDbSpline
210
0.0
220
0.0
230
1.0
 70
     8
 71
     3
 72
    10
 73
     6
 74
     0
 42
0.000000001
 43
0.00000001
 40
0.0
 40
0.0
 40
0.0
 40
0.0
 40
0.5
 40
0.5
 40
1.0
 40
1.0
 40
1.0
 40
1.0
 10
41.75999999999999
 20
14.85216709069759
 30
0.0
 10
41.79722106016157
 20
14.83683224658104
 30
0.0
 10
41.83158506320756
 20
14.80859095361584
 30
0.0
 10
41.88687407554334
 20
14.73312823480172
 30
0.0
 10
41.91
 20
14.68284792511129
 30
0.0
 10
41.91
 20
14.62791568508651
 30
0.0
  0
SPLINE
  5
21C
330
1F
100
AcDbEntity
  8
SK3
  6
SLD-Dashed
370
    18
100
AcDbSpline
210
0.0
220
0.0
230
1.0
 70
     8
 71
     3
 72
    10
 73
     6
 74
     0
 42
0.000000001
 43
0.00000001
 40
0.0
 40
0.0
 40
0.0
 40
0.0
 40
0.5
 40
0.5
 40
1.0
 40
1.0
 40
1.0
 40
1.0
 10
41.91
 20
14.62791568508651
 30
0.0
 10
41.91
 20
14.68300247580896
 30
0.0
 10
41.88698035521652
 20
14.73297165868502
 30
0.0
 10
41.83152716008795
 20
14.80868149163082
 30
0.0
 10
41.79717811874359
 20
14.83684993817683
 30
0.0
 10
41.75999999999999
 20
14.85216709069759
 30
0.0
  0
SPLINE
  5
21D
330
1F
100
AcDbEntity
  8
SK3
  6
SLD-Dashed
370
    18
100
AcDbSpline
210
0.0
220
0.0
230
1.0
 70
     8
 71
     3
 72
    42
 73
    38
 74
     0
 42
0.000000001
 43
0.00000001
 40
0.0
 40
0.0
 40
0.0
 40
0.0
 40
0.0624999999999997
 40
0.0624999999999997
 40
0.0937499999999995
 40
0.0937499999999995
 40
0.1249999999999993
 40
0.1249999999999993
 40
0.1406249999999994
 40
0.1406249999999994
 40
0.1562499999999995
 40
0.1562499999999995
 40
0.1875000000000003
 40
0.1875000000000003
 40
0.2031250000000007
 40
0.2031250000000007
 40
0.2187500000000011
 40
0.2187500000000011
 40
0.2500000000000014
 40
0.2500000000000014
 40
0.2812500000000018
 40
0.2812500000000018
 40
0.3125000000000021
 40
0.3125000000000021
 40
0.3437500000000024
 40
0.3437500000000024
 40
0.3750000000000028
 40
0.3750000000000028
 40
0.4062500000000032
 40
0.4062500000000032
 40
0.4218750000000033
 40
0.4218750000000033
 40
0.4375000000000036
 40
0.4375000000000036
 40
0.4687500000000039
 40
0.4687500000000039
 40
0.5000000000000042
 40
0.5000000000000042
 40
0.5000000000000042
 40
0.5000000000000042
 10
41.91
 20
14.58165752032325
 30
0.0
 10
42.51157896765078
 20
14.33540123204445
 30
0.0
 10
43.17962322244153
 20
14.09161777054116
 30
0.0
 10
44.29307443632016
 20
13.77418167266739
 30
0.0
 10
44.68329924780087
 20
13.67689399290493
 30
0.0
 10
45.47708809444303
 20
13.51347870822349
 30
0.0
 10
45.88385906068551
 20
13.446357210913
 30
0.0
 10
46.51002021733436
 20
13.37261831670533
 30
0.0
 10
46.72141720820417
 20
13.35253183387611
 30
0.0
 10
47.14988512821822
 20
13.32222642620468
 30
0.0
 10
47.36674343505815
 20
13.31210071197417
 30
0.0
 10
48.01142606610858
 20
13.29769475708685
 30
0.0
 10
48.43818029239124
 20
13.30901251572776
 30
0.0
 10
49.07390211228935
 20
13.35585658892957
 30
0.0
 10
49.2850726135238
 20
13.37644111604538
 30
0.0
 10
49.70594105763426
 20
13.42720560521055
 30
0.0
 10
49.91612416412447
 20
13.45750773345704
 30
0.0
 10
50.53316636591132
 20
13.56008230513076
 30
0.0
 10
50.93029790623621
 20
13.64433121528522
 30
0.0
 10
51.6988034409675
 20
13.83648270795118
 30
0.0
 10
52.07260477628498
 20
13.94525945919515
 30
0.0
 10
52.77942406523009
 20
14.1738525596846
 30
0.0
 10
53.11333054072606
 20
14.29367168570397
 30
0.0
 10
53.74491230895881
 20
14.53684151614484
 30
0.0
 10
54.04432865037381
 20
14.66100207211089
 30
0.0
 10
54.59795196883413
 20
14.90228237387883
 30
0.0
 10
54.85068415588273
 20
15.01863737900679
 30
0.0
 10
55.30940535780307
 20
15.2369948655889
 30
0.0
 10
55.51539961031379
 20
15.33903205550727
 30
0.0
 10
55.78755469343916
 20
15.47691490468914
 30
0.0
 10
55.87227229590905
 20
15.52043357451191
 30
0.0
 10
56.02599666991756
 20
15.60016061083785
 30
0.0
 10
56.09541851975205
 20
15.63657674443711
 30
0.0
 10
56.28158630748428
 20
15.73493334928729
 30
0.0
 10
56.37636323414325
 20
15.78600693566273
 30
0.0
 10
56.50536672178663
 20
15.8558202518372
 30
0.0
 10
56.5392921648471
 20
15.87439556646354
 30
0.0
 10
56.54037266989942
 20
15.87498508871364
 30
0.0
  0
SPLINE
  5
21E
330
1F
100
AcDbEntity
  8
SK3
  6
SLD-Dashed
370
    18
100
AcDbSpline
210
0.0
220
0.0
230
1.0
 70
     8
 71
     2
 72
     6
 73
     3
 74
     0
 42
0.000000001
 43
0.00000001
 40
0.0
 40
0.0
 40
0.0
 40
0.0312499999999991
 40
0.0312499999999991
 40
0.0312499999999991
 10
64.61760000000002
 20
15.875
 30
0.0
 10
64.67613943640785
 20
15.84284698199151
 30
0.0
 10
64.78982311250562
 20
15.78169506951549
 30
0.0
  0
SPLINE
  5
21F
330
1F
100
AcDbEntity
  8
SK3
  6
SLD-Dashed
370
    18
100
AcDbSpline
210
0.0
220
0.0
230
1.0
 70
     8
 71
     3
 72
     8
 73
     4
 74
     0
 42
0.000000001
 43
0.00000001
 40
0.0312499999999991
 40
0.0312499999999991
 40
0.0312499999999991
 40
0.0312499999999991
 40
0.0624999999999982
 40
0.0624999999999982
 40
0.0624999999999982
 40
0.0624999999999982
 10
64.78982311250562
 20
15.78169506951549
 30
0.0
 10
64.90350678860335
 20
15.72054315703945
 30
0.0
 10
65.07546037477171
 20
15.62876620279949
 30
0.0
 10
65.29521132267074
 20
15.51569066088425
 30
0.0
  0
SPLINE
  5
220
330
1F
100
AcDbEntity
  8
SK3
  6
SLD-Dashed
370
    18
100
AcDbSpline
210
0.0
220
0.0
230
1.0
 70
     8
 71
     3
 72
     8
 73
     4
 74
     0
 42
0.000000001
 43
0.00000001
 40
0.0624999999999982
 40
0.0624999999999982
 40
0.0624999999999982
 40
0.0624999999999982
 40
0.0937499999999973
 40
0.0937499999999973
 40
0.0937499999999973
 40
0.0937499999999973
 10
65.29521132267074
 20
15.51569066088425
 30
0.0
 10
65.51496227056977
 20
15.402615118969
 30
0.0
 10
65.78220642200341
 20
15.26830808056941
 30
0.0
 10
66.09643955899274
 20
15.11902607738745
 30
0.0
  0
SPLINE
  5
221
330
1F
100
AcDbEntity
  8
SK3
  6
SLD-Dashed
370
    18
100
AcDbSpline
210
0.0
220
0.0
230
1.0
 70
     8
 71
     3
 72
     8
 73
     4
 74
     0
 42
0.000000001
 43
0.00000001
 40
0.0937499999999973
 40
0.0937499999999973
 40
0.0937499999999973
 40
0.0937499999999973
 40
0.1093749999999969
 40
0.1093749999999969
 40
0.1093749999999969
 40
0.1093749999999969
 10
66.09643955899274
 20
15.11902607738745
 30
0.0
 10
66.25355612748737
 20
15.04438507579649
 30
0.0
 10
66.42199644183997
 20
14.96627020692806
 30
0.0
 10
66.59902448031066
 20
14.88683472010249
 30
0.0
  0
SPLINE
  5
222
330
1F
100
AcDbEntity
  8
SK3
  6
SLD-Dashed
370
    18
100
AcDbSpline
210
0.0
220
0.0
230
1.0
 70
     8
 71
     3
 72
     8
 73
     4
 74
     0
 42
0.000000001
 43
0.00000001
 40
0.1093749999999969
 40
0.1093749999999969
 40
0.1093749999999969
 40
0.1093749999999969
 40
0.1249999999999964
 40
0.1249999999999964
 40
0.1249999999999964
 40
0.1249999999999964
 10
66.59902448031066
 20
14.88683472010249
 30
0.0
 10
66.77605251878136
 20
14.80739923327694
 30
0.0
 10
66.96235529763655
 20
14.72630976214864
 30
0.0
 10
67.15795765720542
 20
14.64455306256508
 30
0.0
  0
SPLINE
  5
223
330
1F
100
AcDbEntity
  8
SK3
  6
SLD-Dashed
370
    18
100
AcDbSpline
210
0.0
220
0.0
230
1.0
 70
     8
 71
     3
 72
     8
 73
     4
 74
     0
 42
0.000000001
 43
0.00000001
 40
0.1249999999999964
 40
0.1249999999999964
 40
0.1249999999999964
 40
0.1249999999999964
 40
0.1406249999999959
 40
0.1406249999999959
 40
0.1406249999999959
 40
0.1406249999999959
 10
67.15795765720542
 20
14.64455306256508
 30
0.0
 10
67.35356001677425
 20
14.56279636298152
 30
0.0
 10
67.55846042003397
 20
14.48036728957172
 30
0.0
 10
67.77304016760102
 20
14.39831131473378
 30
0.0
  0
SPLINE
  5
224
330
1F
100
AcDbEntity
  8
SK3
  6
SLD-Dashed
370
    18
100
AcDbSpline
210
0.0
220
0.0
230
1.0
 70
     8
 71
     3
 72
     8
 73
     4
 74
     0
 42
0.000000001
 43
0.00000001
 40
0.1406249999999959
 40
0.1406249999999959
 40
0.1406249999999959
 40
0.1406249999999959
 40
0.1562499999999955
 40
0.1562499999999955
 40
0.1562499999999955
 40
0.1562499999999955
 10
67.77304016760102
 20
14.39831131473378
 30
0.0
 10
67.98761991516808
 20
14.31625533989585
 30
0.0
 10
68.21296389623147
 20
14.23422790881257
 30
0.0
 10
68.44424959462388
 20
14.15523177211465
 30
0.0
  0
SPLINE
  5
225
330
1F
100
AcDbEntity
  8
SK3
  6
SLD-Dashed
370
    18
100
AcDbSpline
210
0.0
220
0.0
230
1.0
 70
     8
 71
     3
 72
     8
 73
     4
 74
     0
 42
0.000000001
 43
0.00000001
 40
0.1562499999999955
 40
0.1562499999999955
 40
0.1562499999999955
 40
0.1562499999999955
 40
0.1874999999999951
 40
0.1874999999999951
 40
0.1874999999999951
 40
0.1874999999999951
 10
68.44424959462388
 20
14.15523177211465
 30
0.0
 10
68.90682099140876
 20
13.99723949871885
 30
0.0
 10
69.39543519253668
 20
13.85014452235166
 30
0.0
 10
69.91258193534397
 20
13.72328479723575
 30
0.0
  0
SPLINE
  5
226
330
1F
100
AcDbEntity
  8
SK3
  6
SLD-Dashed
370
    18
100
AcDbSpline
210
0.0
220
0.0
230
1.0
 70
     8
 71
     3
 72
     8
 73
     4
 74
     0
 42
0.000000001
 43
0.00000001
 40
0.1874999999999951
 40
0.1874999999999951
 40
0.1874999999999951
 40
0.1874999999999951
 40
0.2031249999999949
 40
0.2031249999999949
 40
0.2031249999999949
 40
0.2031249999999949
 10
69.91258193534397
 20
13.72328479723575
 30
0.0
 10
70.17115530674761
 20
13.65985493467782
 30
0.0
 10
70.43691797486515
 20
13.60150748100225
 30
0.0
 10
70.71057918949624
 20
13.54963322381195
 30
0.0
  0
SPLINE
  5
227
330
1F
100
AcDbEntity
  8
SK3
  6
SLD-Dashed
370
    18
100
AcDbSpline
210
0.0
220
0.0
230
1.0
 70
     8
 71
     3
 72
     8
 73
     4
 74
     0
 42
0.000000001
 43
0.00000001
 40
0.2031249999999949
 40
0.2031249999999949
 40
0.2031249999999949
 40
0.2031249999999949
 40
0.2187499999999948
 40
0.2187499999999948
 40
0.2187499999999948
 40
0.2187499999999948
 10
70.71057918949624
 20
13.54963322381195
 30
0.0
 10
70.98424040412732
 20
13.49775896662164
 30
0.0
 10
71.26376260380258
 20
13.45287255242589
 30
0.0
 10
71.54392252431546
 20
13.41664149057535
 30
0.0
  0
SPLINE
  5
228
330
1F
100
AcDbEntity
  8
SK3
  6
SLD-Dashed
370
    18
100
AcDbSpline
210
0.0
220
0.0
230
1.0
 70
     8
 71
     3
 72
     8
 73
     4
 74
     0
 42
0.000000001
 43
0.00000001
 40
0.2187499999999948
 40
0.2187499999999948
 40
0.2187499999999948
 40
0.2187499999999948
 40
0.2499999999999944
 40
0.2499999999999944
 40
0.2499999999999944
 40
0.2499999999999944
 10
71.54392252431546
 20
13.41664149057535
 30
0.0
 10
72.10424236534132
 20
13.34417936687426
 30
0.0
 10
72.67324562310948
 20
13.30520190917926
 30
0.0
 10
73.25144714076679
 20
13.3040044422742
 30
0.0
  0
SPLINE
  5
229
330
1F
100
AcDbEntity
  8
SK3
  6
SLD-Dashed
370
    18
100
AcDbSpline
210
0.0
220
0.0
230
1.0
 70
     8
 71
     3
 72
     8
 73
     4
 74
     0
 42
0.000000001
 43
0.00000001
 40
0.2499999999999944
 40
0.2499999999999944
 40
0.2499999999999944
 40
0.2499999999999944
 40
0.2656249999999946
 40
0.2656249999999946
 40
0.2656249999999946
 40
0.2656249999999946
 10
73.25144714076679
 20
13.3040044422742
 30
0.0
 10
73.54054789959544
 20
13.30340570882167
 30
0.0
 10
73.83404168649912
 20
13.31243321379054
 30
0.0
 10
74.12266235178363
 20
13.33069920161044
 30
0.0
  0
SPLINE
  5
22A
330
1F
100
AcDbEntity
  8
SK3
  6
SLD-Dashed
370
    18
100
AcDbSpline
210
0.0
220
0.0
230
1.0
 70
     8
 71
     3
 72
     8
 73
     4
 74
     0
 42
0.000000001
 43
0.00000001
 40
0.2656249999999946
 40
0.2656249999999946
 40
0.2656249999999946
 40
0.2656249999999946
 40
0.2812499999999947
 40
0.2812499999999947
 40
0.2812499999999947
 40
0.2812499999999947
 10
74.12266235178363
 20
13.33069920161044
 30
0.0
 10
74.41128301706814
 20
13.34896518943032
 30
0.0
 10
74.69585750996569
 20
13.37631127103653
 30
0.0
 10
74.97660618189248
 20
13.41184706849879
 30
0.0
  0
SPLINE
  5
22B
330
1F
100
AcDbEntity
  8
SK3
  6
SLD-Dashed
370
    18
100
AcDbSpline
210
0.0
220
0.0
230
1.0
 70
     8
 71
     3
 72
     8
 73
     4
 74
     0
 42
0.000000001
 43
0.00000001
 40
0.2812499999999947
 40
0.2812499999999947
 40
0.2812499999999947
 40
0.2812499999999947
 40
0.2968749999999949
 40
0.2968749999999949
 40
0.2968749999999949
 40
0.2968749999999949
 10
74.97660618189248
 20
13.41184706849879
 30
0.0
 10
75.25735485381924
 20
13.44738286596103
 30
0.0
 10
75.53427728151887
 20
13.49110825327306
 30
0.0
 10
75.80750109052717
 20
13.54212290613244
 30
0.0
  0
SPLINE
  5
22C
330
1F
100
AcDbEntity
  8
SK3
  6
SLD-Dashed
370
    18
100
AcDbSpline
210
0.0
220
0.0
230
1.0
 70
     8
 71
     3
 72
     8
 73
     4
 74
     0
 42
0.000000001
 43
0.00000001
 40
0.2968749999999949
 40
0.2968749999999949
 40
0.2968749999999949
 40
0.2968749999999949
 40
0.3124999999999951
 40
0.3124999999999951
 40
0.3124999999999951
 40
0.3124999999999951
 10
75.80750109052717
 20
13.54212290613244
 30
0.0
 10
76.08072489953547
 20
13.59313755899182
 30
0.0
 10
76.35123064868388
 20
13.65174116474148
 30
0.0
 10
76.61272500033542
 20
13.7153015795447
 30
0.0
  0
SPLINE
  5
22D
330
1F
100
AcDbEntity
  8
SK3
  6
SLD-Dashed
370
    18
100
AcDbSpline
210
0.0
220
0.0
230
1.0
 70
     8
 71
     3
 72
     8
 73
     4
 74
     0
 42
0.000000001
 43
0.00000001
 40
0.3124999999999951
 40
0.3124999999999951
 40
0.3124999999999951
 40
0.3124999999999951
 40
0.3437499999999954
 40
0.3437499999999954
 40
0.3437499999999954
 40
0.3437499999999954
 10
76.61272500033542
 20
13.7153015795447
 30
0.0
 10
77.13571370363856
 20
13.84242240915116
 30
0.0
 10
77.6279927405393
 20
13.98994236980872
 30
0.0
 10
78.0927880939836
 20
14.14808576641298
 30
0.0
  0
SPLINE
  5
22E
330
1F
100
AcDbEntity
  8
SK3
  6
SLD-Dashed
370
    18
100
AcDbSpline
210
0.0
220
0.0
230
1.0
 70
     8
 71
     3
 72
     8
 73
     4
 74
     0
 42
0.000000001
 43
0.00000001
 40
0.3437499999999954
 40
0.3437499999999954
 40
0.3437499999999954
 40
0.3437499999999954
 40
0.3593749999999956
 40
0.3593749999999956
 40
0.3593749999999956
 40
0.3593749999999956
 10
78.0927880939836
 20
14.14808576641298
 30
0.0
 10
78.32518577070577
 20
14.22715746471513
 30
0.0
 10
78.55113200857994
 20
14.30914293795177
 30
0.0
 10
78.76633574532701
 20
14.39119969363023
 30
0.0
  0
SPLINE
  5
22F
330
1F
100
AcDbEntity
  8
SK3
  6
SLD-Dashed
370
    18
100
AcDbSpline
210
0.0
220
0.0
230
1.0
 70
     8
 71
     3
 72
     8
 73
     4
 74
     0
 42
0.000000001
 43
0.00000001
 40
0.3593749999999956
 40
0.3593749999999956
 40
0.3593749999999956
 40
0.3593749999999956
 40
0.3749999999999958
 40
0.3749999999999958
 40
0.3749999999999958
 40
0.3749999999999958
 10
78.76633574532701
 20
14.39119969363023
 30
0.0
 10
78.9815394820741
 20
14.47325644930872
 30
0.0
 10
79.18703979532724
 20
14.55571752846424
 30
0.0
 10
79.38322943981224
 20
14.63753367524293
 30
0.0
  0
SPLINE
  5
230
330
1F
100
AcDbEntity
  8
SK3
  6
SLD-Dashed
370
    18
100
AcDbSpline
210
0.0
220
0.0
230
1.0
 70
     8
 71
     3
 72
     8
 73
     4
 74
     0
 42
0.000000001
 43
0.00000001
 40
0.3749999999999958
 40
0.3749999999999958
 40
0.3749999999999958
 40
0.3749999999999958
 40
0.4062499999999956
 40
0.4062499999999956
 40
0.4062499999999956
 40
0.4062499999999956
 10
79.38322943981224
 20
14.63753367524293
 30
0.0
 10
79.77560872878234
 20
14.80116596880032
 30
0.0
 10
80.13240108936887
 20
14.9628707765147
 30
0.0
 10
80.44839315062133
 20
15.11277516501108
 30
0.0
  0
SPLINE
  5
231
330
1F
100
AcDbEntity
  8
SK3
  6
SLD-Dashed
370
    18
100
AcDbSpline
210
0.0
220
0.0
230
1.0
 70
     8
 71
     3
 72
     8
 73
     4
 74
     0
 42
0.000000001
 43
0.00000001
 40
0.4062499999999956
 40
0.4062499999999956
 40
0.4062499999999956
 40
0.4062499999999956
 40
0.4374999999999953
 40
0.4374999999999953
 40
0.4374999999999953
 40
0.4374999999999953
 10
80.44839315062133
 20
15.11277516501108
 30
0.0
 10
80.76438521187376
 20
15.26267955350745
 30
0.0
 10
81.03217450648248
 20
15.39713768417575
 30
0.0
 10
81.25227133968599
 20
15.51028145767373
 30
0.0
  0
SPLINE
  5
232
330
1F
100
AcDbEntity
  8
SK3
  6
SLD-Dashed
370
    18
100
AcDbSpline
210
0.0
220
0.0
230
1.0
 70
     8
 71
     3
 72
     8
 73
     4
 74
     0
 42
0.000000001
 43
0.00000001
 40
0.4374999999999953
 40
0.4374999999999953
 40
0.4374999999999953
 40
0.4374999999999953
 40
0.4531249999999954
 40
0.4531249999999954
 40
0.4531249999999954
 40
0.4531249999999954
 10
81.25227133968599
 20
15.51028145767373
 30
0.0
 10
81.36231975628777
 20
15.56685334442273
 30
0.0
 10
81.46034694737355
 20
15.61809673831604
 30
0.0
 10
81.54579224862319
 20
15.6631934522273
 30
0.0
  0
SPLINE
  5
233
330
1F
100
AcDbEntity
  8
SK3
  6
SLD-Dashed
370
    18
100
AcDbSpline
210
0.0
220
0.0
230
1.0
 70
     8
 71
     3
 72
     8
 73
     4
 74
     0
 42
0.000000001
 43
0.00000001
 40
0.4531249999999954
 40
0.4531249999999954
 40
0.4531249999999954
 40
0.4531249999999954
 40
0.4687499999999955
 40
0.4687499999999955
 40
0.4687499999999955
 40
0.4687499999999955
 10
81.54579224862319
 20
15.6631934522273
 30
0.0
 10
81.63123754987278
 20
15.70829016613856
 30
0.0
 10
81.70429606695073
 20
15.74734850853299
 30
0.0
 10
81.76244437905628
 20
15.77861221947421
 30
0.0
  0
SPLINE
  5
234
330
1F
100
AcDbEntity
  8
SK3
  6
SLD-Dashed
370
    18
100
AcDbSpline
210
0.0
220
0.0
230
1.0
 70
     8
 71
     3
 72
     8
 73
     4
 74
     0
 42
0.000000001
 43
0.00000001
 40
0.4687499999999955
 40
0.4687499999999955
 40
0.4687499999999955
 40
0.4687499999999955
 40
0.4999999999999954
 40
0.4999999999999954
 40
0.4999999999999954
 40
0.4999999999999954
 10
81.76244437905628
 20
15.77861221947421
 30
0.0
 10
81.8787410032674
 20
15.84113964135671
 30
0.0
 10
81.93813093641263
 20
15.87376200515862
 30
0.0
 10
81.94033684212657
 20
15.87496554115249
 30
0.0
  0
SPLINE
  5
235
330
1F
100
AcDbEntity
  8
SK3
  6
SLD-Dashed
370
    18
100
AcDbSpline
210
0.0
220
0.0
230
1.0
 70
     8
 71
     3
 72
     8
 73
     4
 74
     0
 42
0.000000001
 43
0.00000001
 40
0.5156249999999954
 40
0.5156249999999954
 40
0.5156249999999954
 40
0.5156249999999954
 40
0.5312499999999954
 40
0.5312499999999954
 40
0.5312499999999954
 40
0.5312499999999954
 10
81.89979381188934
 20
15.85288178808852
 30
0.0
 10
81.87161794166411
 20
15.83755975573323
 30
0.0
 10
81.82913041112639
 20
15.81449527642288
 30
0.0
 10
81.77292513682872
 20
15.78424972148026
 30
0.0
  0
SPLINE
  5
236
330
1F
100
AcDbEntity
  8
SK3
  6
SLD-Dashed
370
    18
100
AcDbSpline
210
0.0
220
0.0
230
1.0
 70
     8
 71
     3
 72
     8
 73
     4
 74
     0
 42
0.000000001
 43
0.00000001
 40
0.5312499999999954
 40
0.5312499999999954
 40
0.5312499999999954
 40
0.5312499999999954
 40
0.5468749999999954
 40
0.5468749999999954
 40
0.5468749999999954
 40
0.5468749999999954
 10
81.77292513682872
 20
15.78424972148026
 30
0.0
 10
81.71671986253101
 20
15.75400416653766
 30
0.0
 10
81.64679357152113
 20
15.71657469055189
 30
0.0
 10
81.56329241146479
 20
15.67243681750391
 30
0.0
  0
SPLINE
  5
237
330
1F
100
AcDbEntity
  8
SK3
  6
SLD-Dashed
370
    18
100
AcDbSpline
210
0.0
220
0.0
230
1.0
 70
     8
 71
     3
 72
     8
 73
     4
 74
     0
 42
0.000000001
 43
0.00000001
 40
0.5468749999999954
 40
0.5468749999999954
 40
0.5468749999999954
 40
0.5468749999999954
 40
0.5624999999999954
 40
0.5624999999999954
 40
0.5624999999999954
 40
0.5624999999999954
 10
81.56329241146479
 20
15.67243681750391
 30
0.0
 10
81.47979125140839
 20
15.62829894445594
 30
0.0
 10
81.3821755567633
 20
15.57717276535502
 30
0.0
 10
81.27200870973245
 20
15.52043695499125
 30
0.0
  0
SPLINE
  5
238
330
1F
100
AcDbEntity
  8
SK3
  6
SLD-Dashed
370
    18
100
AcDbSpline
210
0.0
220
0.0
230
1.0
 70
     8
 71
     3
 72
     8
 73
     4
 74
     0
 42
0.000000001
 43
0.00000001
 40
0.5624999999999954
 40
0.5624999999999954
 40
0.5624999999999954
 40
0.5624999999999954
 40
0.5937499999999957
 40
0.5937499999999957
 40
0.5937499999999957
 40
0.5937499999999957
 10
81.27200870973245
 20
15.52043695499125
 30
0.0
 10
81.05167501567071
 20
15.40696533426368
 30
0.0
 10
80.78443382740677
 20
15.2725909002286
 30
0.0
 10
80.47252371609271
 20
15.12423745165313
 30
0.0
  0
SPLINE
  5
239
330
1F
100
AcDbEntity
  8
SK3
  6
SLD-Dashed
370
    18
100
AcDbSpline
210
0.0
220
0.0
230
1.0
 70
     8
 71
     3
 72
     8
 73
     4
 74
     0
 42
0.000000001
 43
0.00000001
 40
0.5937499999999957
 40
0.5937499999999957
 40
0.5937499999999957
 40
0.5937499999999957
 40
0.6249999999999959
 40
0.6249999999999959
 40
0.6249999999999959
 40
0.6249999999999959
 10
80.47252371609271
 20
15.12423745165313
 30
0.0
 10
80.16061360477863
 20
14.97588400307769
 30
0.0
 10
79.80148540274759
 20
14.81256836752255
 30
0.0
 10
79.41000714993959
 20
14.64872088998252
 30
0.0
  0
SPLINE
  5
23A
330
1F
100
AcDbEntity
  8
SK3
  6
SLD-Dashed
370
    18
100
AcDbSpline
210
0.0
220
0.0
230
1.0
 70
     8
 71
     3
 72
     8
 73
     4
 74
     0
 42
0.000000001
 43
0.00000001
 40
0.6249999999999959
 40
0.6249999999999959
 40
0.6249999999999959
 40
0.6249999999999959
 40
0.6562499999999962
 40
0.6562499999999962
 40
0.6562499999999962
 40
0.6562499999999962
 10
79.41000714993959
 20
14.64872088998252
 30
0.0
 10
79.01852889713165
 20
14.48487341244249
 30
0.0
 10
78.59220359174441
 20
14.31906330806093
 30
0.0
 10
78.12785827287799
 20
14.16005655322242
 30
0.0
  0
SPLINE
  5
23B
330
1F
100
AcDbEntity
  8
SK3
  6
SLD-Dashed
370
    18
100
AcDbSpline
210
0.0
220
0.0
230
1.0
 70
     8
 71
     3
 72
     8
 73
     4
 74
     0
 42
0.000000001
 43
0.00000001
 40
0.6562499999999962
 40
0.6562499999999962
 40
0.6562499999999962
 40
0.6562499999999962
 40
0.6718749999999963
 40
0.6718749999999963
 40
0.6718749999999963
 40
0.6718749999999963
 10
78.12785827287799
 20
14.16005655322242
 30
0.0
 10
77.89568561344475
 20
14.08055317580317
 30
0.0
 10
77.65462311955199
 20
14.00309594177553
 30
0.0
 10
77.40871371786679
 20
13.93019419934757
 30
0.0
  0
SPLINE
  5
23C
330
1F
100
AcDbEntity
  8
SK3
  6
SLD-Dashed
370
    18
100
AcDbSpline
210
0.0
220
0.0
230
1.0
 70
     8
 71
     3
 72
     8
 73
     4
 74
     0
 42
0.000000001
 43
0.00000001
 40
0.6718749999999963
 40
0.6718749999999963
 40
0.6718749999999963
 40
0.6718749999999963
 40
0.6874999999999964
 40
0.6874999999999964
 40
0.6874999999999964
 40
0.6874999999999964
 10
77.40871371786679
 20
13.93019419934757
 30
0.0
 10
77.16280431618158
 20
13.85729245691965
 30
0.0
 10
76.91089798089864
 20
13.78854011742377
 30
0.0
 10
76.65273854136633
 20
13.72508239631007
 30
0.0
  0
SPLINE
  5
23D
330
1F
100
AcDbEntity
  8
SK3
  6
SLD-Dashed
370
    18
100
AcDbSpline
210
0.0
220
0.0
230
1.0
 70
     8
 71
     3
 72
     8
 73
     4
 74
     0
 42
0.000000001
 43
0.00000001
 40
0.6874999999999964
 40
0.6874999999999964
 40
0.6874999999999964
 40
0.6874999999999964
 40
0.7031249999999966
 40
0.7031249999999966
 40
0.7031249999999966
 40
0.7031249999999966
 10
76.65273854136633
 20
13.72508239631007
 30
0.0
 10
76.39457910183405
 20
13.66162467519637
 30
0.0
 10
76.1301681888873
 20
13.60345869642511
 30
0.0
 10
75.85903900985791
 20
13.55184033009497
 30
0.0
  0
SPLINE
  5
23E
330
1F
100
AcDbEntity
  8
SK3
  6
SLD-Dashed
370
    18
100
AcDbSpline
210
0.0
220
0.0
230
1.0
 70
     8
 71
     3
 72
     8
 73
     4
 74
     0
 42
0.000000001
 43
0.00000001
 40
0.7031249999999966
 40
0.7031249999999966
 40
0.7031249999999966
 40
0.7031249999999966
 40
0.7187499999999967
 40
0.7187499999999967
 40
0.7187499999999967
 40
0.7187499999999967
 10
75.85903900985791
 20
13.55184033009497
 30
0.0
 10
75.5879098308285
 20
13.50022196376481
 30
0.0
 10
75.30892538308265
 20
13.4550037359505
 30
0.0
 10
75.02500375893386
 20
13.41805888220091
 30
0.0
  0
SPLINE
  5
23F
330
1F
100
AcDbEntity
  8
SK3
  6
SLD-Dashed
370
    18
100
AcDbSpline
210
0.0
220
0.0
230
1.0
 70
     8
 71
     3
 72
     8
 73
     4
 74
     0
 42
0.000000001
 43
0.00000001
 40
0.7187499999999967
 40
0.7187499999999967
 40
0.7187499999999967
 40
0.7187499999999967
 40
0.7499999999999961
 40
0.7499999999999961
 40
0.7499999999999961
 40
0.7499999999999961
 10
75.02500375893386
 20
13.41805888220091
 30
0.0
 10
74.4571605106363
 20
13.34416917470173
 30
0.0
 10
73.8853829352746
 20
13.30533776158065
 30
0.0
 10
73.30965373317908
 20
13.30401122561754
 30
0.0
  0
SPLINE
  5
240
330
1F
100
AcDbEntity
  8
SK3
  6
SLD-Dashed
370
    18
100
AcDbSpline
210
0.0
220
0.0
230
1.0
 70
     8
 71
     3
 72
     8
 73
     4
 74
     0
 42
0.000000001
 43
0.00000001
 40
0.7499999999999961
 40
0.7499999999999961
 40
0.7499999999999961
 40
0.7499999999999961
 40
0.7656249999999962
 40
0.7656249999999962
 40
0.7656249999999962
 40
0.7656249999999962
 10
73.30965373317908
 20
13.30401122561754
 30
0.0
 10
73.02178913213133
 20
13.303347957636
 30
0.0
 10
72.73293223183222
 20
13.31203462842147
 30
0.0
 10
72.44305371263502
 20
13.33021309789753
 30
0.0
  0
SPLINE
  5
241
330
1F
100
AcDbEntity
  8
SK3
  6
SLD-Dashed
370
    18
100
AcDbSpline
210
0.0
220
0.0
230
1.0
 70
     8
 71
     3
 72
     8
 73
     4
 74
     0
 42
0.000000001
 43
0.00000001
 40
0.7656249999999962
 40
0.7656249999999962
 40
0.7656249999999962
 40
0.7656249999999962
 40
0.7812499999999963
 40
0.7812499999999963
 40
0.7812499999999963
 40
0.7812499999999963
 10
72.44305371263502
 20
13.33021309789753
 30
0.0
 10
72.1531751934378
 20
13.34839156737361
 30
0.0
 10
71.86450713644402
 20
13.37603330718902
 30
0.0
 10
71.5824231433937
 20
13.41171682039151
 30
0.0
  0
SPLINE
  5
242
330
1F
100
AcDbEntity
  8
SK3
  6
SLD-Dashed
370
    18
100
AcDbSpline
210
0.0
220
0.0
230
1.0
 70
     8
 71
     3
 72
     8
 73
     4
 74
     0
 42
0.000000001
 43
0.00000001
 40
0.7812499999999963
 40
0.7812499999999963
 40
0.7812499999999963
 40
0.7812499999999963
 40
0.8124999999999966
 40
0.8124999999999966
 40
0.8124999999999966
 40
0.8124999999999966
 10
71.5824231433937
 20
13.41171682039151
 30
0.0
 10
71.01825515729293
 20
13.48308384679646
 30
0.0
 10
70.47349738791544
 20
13.58695550847303
 30
0.0
 10
69.94657049044258
 20
13.71498674721085
 30
0.0
  0
SPLINE
  5
243
330
1F
100
AcDbEntity
  8
SK3
  6
SLD-Dashed
370
    18
100
AcDbSpline
210
0.0
220
0.0
230
1.0
 70
     8
 71
     3
 72
     8
 73
     4
 74
     0
 42
0.000000001
 43
0.00000001
 40
0.8124999999999966
 40
0.8124999999999966
 40
0.8124999999999966
 40
0.8124999999999966
 40
0.8437499999999968
 40
0.8437499999999968
 40
0.8437499999999968
 40
0.8437499999999968
 10
69.94657049044258
 20
13.71498674721085
 30
0.0
 10
69.41964359296973
 20
13.84301798594866
 30
0.0
 10
68.92588630022642
 20
13.99126450238336
 30
0.0
 10
68.46244152352457
 20
14.14902860967167
 30
0.0
  0
SPLINE
  5
244
330
1F
100
AcDbEntity
  8
SK3
  6
SLD-Dashed
370
    18
100
AcDbSpline
210
0.0
220
0.0
230
1.0
 70
     8
 71
     3
 72
     8
 73
     4
 74
     0
 42
0.000000001
 43
0.00000001
 40
0.8437499999999968
 40
0.8437499999999968
 40
0.8437499999999968
 40
0.8437499999999968
 40
0.874999999999997
 40
0.874999999999997
 40
0.874999999999997
 40
0.874999999999997
 10
68.46244152352457
 20
14.14902860967167
 30
0.0
 10
67.99899674682267
 20
14.30679271695998
 30
0.0
 10
67.56262778685388
 20
14.47566408268015
 30
0.0
 10
67.16918495232969
 20
14.63986389816309
 30
0.0
  0
SPLINE
  5
245
330
1F
100
AcDbEntity
  8
SK3
  6
SLD-Dashed
370
    18
100
AcDbSpline
210
0.0
220
0.0
230
1.0
 70
     8
 71
     3
 72
     8
 73
     4
 74
     0
 42
0.000000001
 43
0.00000001
 40
0.874999999999997
 40
0.874999999999997
 40
0.874999999999997
 40
0.874999999999997
 40
0.9062499999999973
 40
0.9062499999999973
 40
0.9062499999999973
 40
0.9062499999999973
 10
67.16918495232969
 20
14.63986389816309
 30
0.0
 10
66.77574211780549
 20
14.80406371364604
 30
0.0
 10
66.42168292686499
 20
14.96468616557664
 30
0.0
 10
66.1069727054877
 20
15.11402496204205
 30
0.0
  0
SPLINE
  5
246
330
1F
100
AcDbEntity
  8
SK3
  6
SLD-Dashed
370
    18
100
AcDbSpline
210
0.0
220
0.0
230
1.0
 70
     8
 71
     3
 72
     8
 73
     4
 74
     0
 42
0.000000001
 43
0.00000001
 40
0.9062499999999973
 40
0.9062499999999973
 40
0.9062499999999973
 40
0.9062499999999973
 40
0.9218749999999977
 40
0.9218749999999977
 40
0.9218749999999977
 40
0.9218749999999977
 10
66.1069727054877
 20
15.11402496204205
 30
0.0
 10
65.94961759479907
 20
15.18869436027474
 30
0.0
 10
65.80154931183641
 20
15.26087627536569
 30
0.0
 10
65.66670073360493
 20
15.32784639671077
 30
0.0
  0
SPLINE
  5
247
330
1F
100
AcDbEntity
  8
SK3
  6
SLD-Dashed
370
    18
100
AcDbSpline
210
0.0
220
0.0
230
1.0
 70
     8
 71
     3
 72
     8
 73
     4
 74
     0
 42
0.000000001
 43
0.00000001
 40
0.9218749999999977
 40
0.9218749999999977
 40
0.9218749999999977
 40
0.9218749999999977
 40
0.937499999999998
 40
0.937499999999998
 40
0.937499999999998
 40
0.937499999999998
 10
65.66670073360493
 20
15.32784639671077
 30
0.0
 10
65.53185215537341
 20
15.39481651805581
 30
0.0
 10
65.40958988537717
 20
15.45686015621579
 30
0.0
 10
65.29980168674324
 20
15.51332913214566
 30
0.0
  0
SPLINE
  5
248
330
1F
100
AcDbEntity
  8
SK3
  6
SLD-Dashed
370
    18
100
AcDbSpline
210
0.0
220
0.0
230
1.0
 70
     8
 71
     3
 72
     8
 73
     4
 74
     0
 42
0.000000001
 43
0.00000001
 40
0.937499999999998
 40
0.937499999999998
 40
0.937499999999998
 40
0.937499999999998
 40
0.968749999999999
 40
0.968749999999999
 40
0.968749999999999
 40
0.968749999999999
 10
65.29980168674324
 20
15.51332913214566
 30
0.0
 10
65.08022528947535
 20
15.62626708400541
 30
0.0
 10
64.91009411642226
 20
15.71701992894223
 30
0.0
 10
64.79360814495908
 20
15.77965937444768
 30
0.0
  0
SPLINE
  5
249
330
1F
100
AcDbEntity
  8
SK3
  6
SLD-Dashed
370
    18
100
AcDbSpline
210
0.0
220
0.0
230
1.0
 70
     8
 71
     2
 72
     6
 73
     3
 74
     0
 42
0.000000001
 43
0.00000001
 40
0.968749999999999
 40
0.968749999999999
 40
0.968749999999999
 40
1.0
 40
1.0
 40
1.0
 10
64.79360814495908
 20
15.77965937444768
 30
0.0
 10
64.67712217349589
 20
15.84229881995315
 30
0.0
 10
64.61760000000002
 20
15.875
 30
0.0
  0
SPLINE
  5
24A
330
1F
100
AcDbEntity
  8
SK3
  6
SLD-Dashed
370
    18
100
AcDbSpline
210
0.0
220
0.0
230
1.0
 70
     8
 71
     2
 72
     6
 73
     3
 74
     0
 42
0.000000001
 43
0.00000001
 40
0.0
 40
0.0
 40
0.0
 40
0.0312499999999991
 40
0.0312499999999991
 40
0.0312499999999991
 10
64.61760000000002
 20
15.875
 30
0.0
 10
64.67613943640785
 20
15.84284698199151
 30
0.0
 10
64.78982311250562
 20
15.78169506951549
 30
0.0
  0
SPLINE
  5
24B
330
1F
100
AcDbEntity
  8
SK3
  6
SLD-Dashed
370
    18
100
AcDbSpline
210
0.0
220
0.0
230
1.0
 70
     8
 71
     3
 72
     8
 73
     4
 74
     0
 42
0.000000001
 43
0.00000001
 40
0.0312499999999991
 40
0.0312499999999991
 40
0.0312499999999991
 40
0.0312499999999991
 40
0.0624999999999982
 40
0.0624999999999982
 40
0.0624999999999982
 40
0.0624999999999982
 10
64.78982311250562
 20
15.78169506951549
 30
0.0
 10
64.90350678860335
 20
15.72054315703945
 30
0.0
 10
65.07546037477171
 20
15.62876620279949
 30
0.0
 10
65.29521132267074
 20
15.51569066088425
 30
0.0
  0
SPLINE
  5
24C
330
1F
100
AcDbEntity
  8
SK3
  6
SLD-Dashed
370
    18
100
AcDbSpline
210
0.0
220
0.0
230
1.0
 70
     8
 71
     3
 72
     8
 73
     4
 74
     0
 42
0.000000001
 43
0.00000001
 40
0.0624999999999982
 40
0.0624999999999982
 40
0.0624999999999982
 40
0.0624999999999982
 40
0.0937499999999973
 40
0.0937499999999973
 40
0.0937499999999973
 40
0.0937499999999973
 10
65.29521132267074
 20
15.51569066088425
 30
0.0
 10
65.51496227056977
 20
15.402615118969
 30
0.0
 10
65.78220642200341
 20
15.26830808056941
 30
0.0
 10
66.09643955899274
 20
15.11902607738745
 30
0.0
  0
SPLINE
  5
24D
330
1F
100
AcDbEntity
  8
SK3
  6
SLD-Dashed
370
    18
100
AcDbSpline
210
0.0
220
0.0
230
1.0
 70
     8
 71
     3
 72
     8
 73
     4
 74
     0
 42
0.000000001
 43
0.00000001
 40
0.0937499999999973
 40
0.0937499999999973
 40
0.0937499999999973
 40
0.0937499999999973
 40
0.1093749999999969
 40
0.1093749999999969
 40
0.1093749999999969
 40
0.1093749999999969
 10
66.09643955899274
 20
15.11902607738745
 30
0.0
 10
66.25355612748737
 20
15.04438507579649
 30
0.0
 10
66.42199644183997
 20
14.96627020692806
 30
0.0
 10
66.59902448031066
 20
14.88683472010249
 30
0.0
  0
SPLINE
  5
24E
330
1F
100
AcDbEntity
  8
SK3
  6
SLD-Dashed
370
    18
100
AcDbSpline
210
0.0
220
0.0
230
1.0
 70
     8
 71
     3
 72
     8
 73
     4
 74
     0
 42
0.000000001
 43
0.00000001
 40
0.1093749999999969
 40
0.1093749999999969
 40
0.1093749999999969
 40
0.1093749999999969
 40
0.1249999999999964
 40
0.1249999999999964
 40
0.1249999999999964
 40
0.1249999999999964
 10
66.59902448031066
 20
14.88683472010249
 30
0.0
 10
66.77605251878136
 20
14.80739923327694
 30
0.0
 10
66.96235529763655
 20
14.72630976214864
 30
0.0
 10
67.15795765720542
 20
14.64455306256508
 30
0.0
  0
SPLINE
  5
24F
330
1F
100
AcDbEntity
  8
SK3
  6
SLD-Dashed
370
    18
100
AcDbSpline
210
0.0
220
0.0
230
1.0
 70
     8
 71
     3
 72
     8
 73
     4
 74
     0
 42
0.000000001
 43
0.00000001
 40
0.1249999999999964
 40
0.1249999999999964
 40
0.1249999999999964
 40
0.1249999999999964
 40
0.1406249999999959
 40
0.1406249999999959
 40
0.1406249999999959
 40
0.1406249999999959
 10
67.15795765720542
 20
14.64455306256508
 30
0.0
 10
67.35356001677425
 20
14.56279636298152
 30
0.0
 10
67.55846042003397
 20
14.48036728957172
 30
0.0
 10
67.77304016760102
 20
14.39831131473378
 30
0.0
  0
SPLINE
  5
250
330
1F
100
AcDbEntity
  8
SK3
  6
SLD-Dashed
370
    18
100
AcDbSpline
210
0.0
220
0.0
230
1.0
 70
     8
 71
     3
 72
     8
 73
     4
 74
     0
 42
0.000000001
 43
0.00000001
 40
0.1406249999999959
 40
0.1406249999999959
 40
0.1406249999999959
 40
0.1406249999999959
 40
0.1562499999999955
 40
0.1562499999999955
 40
0.1562499999999955
 40
0.1562499999999955
 10
67.77304016760102
 20
14.39831131473378
 30
0.0
 10
67.98761991516808
 20
14.31625533989585
 30
0.0
 10
68.21296389623147
 20
14.23422790881257
 30
0.0
 10
68.44424959462388
 20
14.15523177211465
 30
0.0
  0
SPLINE
  5
251
330
1F
100
AcDbEntity
  8
SK3
  6
SLD-Dashed
370
    18
100
AcDbSpline
210
0.0
220
0.0
230
1.0
 70
     8
 71
     3
 72
     8
 73
     4
 74
     0
 42
0.000000001
 43
0.00000001
 40
0.1562499999999955
 40
0.1562499999999955
 40
0.1562499999999955
 40
0.1562499999999955
 40
0.1874999999999951
 40
0.1874999999999951
 40
0.1874999999999951
 40
0.1874999999999951
 10
68.44424959462388
 20
14.15523177211465
 30
0.0
 10
68.90682099140876
 20
13.99723949871885
 30
0.0
 10
69.39543519253668
 20
13.85014452235166
 30
0.0
 10
69.91258193534397
 20
13.72328479723575
 30
0.0
  0
SPLINE
  5
252
330
1F
100
AcDbEntity
  8
SK3
  6
SLD-Dashed
370
    18
100
AcDbSpline
210
0.0
220
0.0
230
1.0
 70
     8
 71
     3
 72
     8
 73
     4
 74
     0
 42
0.000000001
 43
0.00000001
 40
0.1874999999999951
 40
0.1874999999999951
 40
0.1874999999999951
 40
0.1874999999999951
 40
0.2031249999999949
 40
0.2031249999999949
 40
0.2031249999999949
 40
0.2031249999999949
 10
69.91258193534397
 20
13.72328479723575
 30
0.0
 10
70.17115530674761
 20
13.65985493467782
 30
0.0
 10
70.43691797486515
 20
13.60150748100225
 30
0.0
 10
70.71057918949624
 20
13.54963322381195
 30
0.0
  0
SPLINE
  5
253
330
1F
100
AcDbEntity
  8
SK3
  6
SLD-Dashed
370
    18
100
AcDbSpline
210
0.0
220
0.0
230
1.0
 70
     8
 71
     3
 72
     8
 73
     4
 74
     0
 42
0.000000001
 43
0.00000001
 40
0.2031249999999949
 40
0.2031249999999949
 40
0.2031249999999949
 40
0.2031249999999949
 40
0.2187499999999948
 40
0.2187499999999948
 40
0.2187499999999948
 40
0.2187499999999948
 10
70.71057918949624
 20
13.54963322381195
 30
0.0
 10
70.98424040412732
 20
13.49775896662164
 30
0.0
 10
71.26376260380258
 20
13.45287255242589
 30
0.0
 10
71.54392252431546
 20
13.41664149057535
 30
0.0
  0
SPLINE
  5
254
330
1F
100
AcDbEntity
  8
SK3
  6
SLD-Dashed
370
    18
100
AcDbSpline
210
0.0
220
0.0
230
1.0
 70
     8
 71
     3
 72
     8
 73
     4
 74
     0
 42
0.000000001
 43
0.00000001
 40
0.2187499999999948
 40
0.2187499999999948
 40
0.2187499999999948
 40
0.2187499999999948
 40
0.2499999999999944
 40
0.2499999999999944
 40
0.2499999999999944
 40
0.2499999999999944
 10
71.54392252431546
 20
13.41664149057535
 30
0.0
 10
72.10424236534132
 20
13.34417936687426
 30
0.0
 10
72.67324562310948
 20
13.30520190917926
 30
0.0
 10
73.25144714076679
 20
13.3040044422742
 30
0.0
  0
SPLINE
  5
255
330
1F
100
AcDbEntity
  8
SK3
  6
SLD-Dashed
370
    18
100
AcDbSpline
210
0.0
220
0.0
230
1.0
 70
     8
 71
     3
 72
     8
 73
     4
 74
     0
 42
0.000000001
 43
0.00000001
 40
0.2499999999999944
 40
0.2499999999999944
 40
0.2499999999999944
 40
0.2499999999999944
 40
0.2656249999999946
 40
0.2656249999999946
 40
0.2656249999999946
 40
0.2656249999999946
 10
73.25144714076679
 20
13.3040044422742
 30
0.0
 10
73.54054789959544
 20
13.30340570882167
 30
0.0
 10
73.83404168649912
 20
13.31243321379054
 30
0.0
 10
74.12266235178363
 20
13.33069920161044
 30
0.0
  0
SPLINE
  5
256
330
1F
100
AcDbEntity
  8
SK3
  6
SLD-Dashed
370
    18
100
AcDbSpline
210
0.0
220
0.0
230
1.0
 70
     8
 71
     3
 72
     8
 73
     4
 74
     0
 42
0.000000001
 43
0.00000001
 40
0.2656249999999946
 40
0.2656249999999946
 40
0.2656249999999946
 40
0.2656249999999946
 40
0.2812499999999947
 40
0.2812499999999947
 40
0.2812499999999947
 40
0.2812499999999947
 10
74.12266235178363
 20
13.33069920161044
 30
0.0
 10
74.41128301706814
 20
13.34896518943032
 30
0.0
 10
74.69585750996569
 20
13.37631127103653
 30
0.0
 10
74.97660618189248
 20
13.41184706849879
 30
0.0
  0
SPLINE
  5
257
330
1F
100
AcDbEntity
  8
SK3
  6
SLD-Dashed
370
    18
100
AcDbSpline
210
0.0
220
0.0
230
1.0
 70
     8
 71
     3
 72
     8
 73
     4
 74
     0
 42
0.000000001
 43
0.00000001
 40
0.2812499999999947
 40
0.2812499999999947
 40
0.2812499999999947
 40
0.2812499999999947
 40
0.2968749999999949
 40
0.2968749999999949
 40
0.2968749999999949
 40
0.2968749999999949
 10
74.97660618189248
 20
13.41184706849879
 30
0.0
 10
75.25735485381924
 20
13.44738286596103
 30
0.0
 10
75.53427728151887
 20
13.49110825327306
 30
0.0
 10
75.80750109052717
 20
13.54212290613244
 30
0.0
  0
SPLINE
  5
258
330
1F
100
AcDbEntity
  8
SK3
  6
SLD-Dashed
370
    18
100
AcDbSpline
210
0.0
220
0.0
230
1.0
 70
     8
 71
     3
 72
     8
 73
     4
 74
     0
 42
0.000000001
 43
0.00000001
 40
0.2968749999999949
 40
0.2968749999999949
 40
0.2968749999999949
 40
0.2968749999999949
 40
0.3124999999999951
 40
0.3124999999999951
 40
0.3124999999999951
 40
0.3124999999999951
 10
75.80750109052717
 20
13.54212290613244
 30
0.0
 10
76.08072489953547
 20
13.59313755899182
 30
0.0
 10
76.35123064868388
 20
13.65174116474148
 30
0.0
 10
76.61272500033542
 20
13.7153015795447
 30
0.0
  0
SPLINE
  5
259
330
1F
100
AcDbEntity
  8
SK3
  6
SLD-Dashed
370
    18
100
AcDbSpline
210
0.0
220
0.0
230
1.0
 70
     8
 71
     3
 72
     8
 73
     4
 74
     0
 42
0.000000001
 43
0.00000001
 40
0.3124999999999951
 40
0.3124999999999951
 40
0.3124999999999951
 40
0.3124999999999951
 40
0.3437499999999954
 40
0.3437499999999954
 40
0.3437499999999954
 40
0.3437499999999954
 10
76.61272500033542
 20
13.7153015795447
 30
0.0
 10
77.13571370363856
 20
13.84242240915116
 30
0.0
 10
77.6279927405393
 20
13.98994236980872
 30
0.0
 10
78.0927880939836
 20
14.14808576641298
 30
0.0
  0
SPLINE
  5
25A
330
1F
100
AcDbEntity
  8
SK3
  6
SLD-Dashed
370
    18
100
AcDbSpline
210
0.0
220
0.0
230
1.0
 70
     8
 71
     3
 72
     8
 73
     4
 74
     0
 42
0.000000001
 43
0.00000001
 40
0.3437499999999954
 40
0.3437499999999954
 40
0.3437499999999954
 40
0.3437499999999954
 40
0.3593749999999956
 40
0.3593749999999956
 40
0.3593749999999956
 40
0.3593749999999956
 10
78.0927880939836
 20
14.14808576641298
 30
0.0
 10
78.32518577070577
 20
14.22715746471513
 30
0.0
 10
78.55113200857994
 20
14.30914293795177
 30
0.0
 10
78.76633574532701
 20
14.39119969363023
 30
0.0
  0
SPLINE
  5
25B
330
1F
100
AcDbEntity
  8
SK3
  6
SLD-Dashed
370
    18
100
AcDbSpline
210
0.0
220
0.0
230
1.0
 70
     8
 71
     3
 72
     8
 73
     4
 74
     0
 42
0.000000001
 43
0.00000001
 40
0.3593749999999956
 40
0.3593749999999956
 40
0.3593749999999956
 40
0.3593749999999956
 40
0.3749999999999958
 40
0.3749999999999958
 40
0.3749999999999958
 40
0.3749999999999958
 10
78.76633574532701
 20
14.39119969363023
 30
0.0
 10
78.9815394820741
 20
14.47325644930872
 30
0.0
 10
79.18703979532724
 20
14.55571752846424
 30
0.0
 10
79.38322943981224
 20
14.63753367524293
 30
0.0
  0
SPLINE
  5
25C
330
1F
100
AcDbEntity
  8
SK3
  6
SLD-Dashed
370
    18
100
AcDbSpline
210
0.0
220
0.0
230
1.0
 70
     8
 71
     3
 72
     8
 73
     4
 74
     0
 42
0.000000001
 43
0.00000001
 40
0.3749999999999958
 40
0.3749999999999958
 40
0.3749999999999958
 40
0.3749999999999958
 40
0.4062499999999956
 40
0.4062499999999956
 40
0.4062499999999956
 40
0.4062499999999956
 10
79.38322943981224
 20
14.63753367524293
 30
0.0
 10
79.77560872878234
 20
14.80116596880032
 30
0.0
 10
80.13240108936887
 20
14.9628707765147
 30
0.0
 10
80.44839315062133
 20
15.11277516501108
 30
0.0
  0
SPLINE
  5
25D
330
1F
100
AcDbEntity
  8
SK3
  6
SLD-Dashed
370
    18
100
AcDbSpline
210
0.0
220
0.0
230
1.0
 70
     8
 71
     3
 72
     8
 73
     4
 74
     0
 42
0.000000001
 43
0.00000001
 40
0.4062499999999956
 40
0.4062499999999956
 40
0.4062499999999956
 40
0.4062499999999956
 40
0.4374999999999953
 40
0.4374999999999953
 40
0.4374999999999953
 40
0.4374999999999953
 10
80.44839315062133
 20
15.11277516501108
 30
0.0
 10
80.76438521187376
 20
15.26267955350745
 30
0.0
 10
81.03217450648248
 20
15.39713768417575
 30
0.0
 10
81.25227133968599
 20
15.51028145767373
 30
0.0
  0
SPLINE
  5
25E
330
1F
100
AcDbEntity
  8
SK3
  6
SLD-Dashed
370
    18
100
AcDbSpline
210
0.0
220
0.0
230
1.0
 70
     8
 71
     3
 72
     8
 73
     4
 74
     0
 42
0.000000001
 43
0.00000001
 40
0.4374999999999953
 40
0.4374999999999953
 40
0.4374999999999953
 40
0.4374999999999953
 40
0.4531249999999954
 40
0.4531249999999954
 40
0.4531249999999954
 40
0.4531249999999954
 10
81.25227133968599
 20
15.51028145767373
 30
0.0
 10
81.36231975628777
 20
15.56685334442273
 30
0.0
 10
81.46034694737355
 20
15.61809673831604
 30
0.0
 10
81.54579224862319
 20
15.6631934522273
 30
0.0
  0
SPLINE
  5
25F
330
1F
100
AcDbEntity
  8
SK3
  6
SLD-Dashed
370
    18
100
AcDbSpline
210
0.0
220
0.0
230
1.0
 70
     8
 71
     3
 72
     8
 73
     4
 74
     0
 42
0.000000001
 43
0.00000001
 40
0.4531249999999954
 40
0.4531249999999954
 40
0.4531249999999954
 40
0.4531249999999954
 40
0.4687499999999955
 40
0.4687499999999955
 40
0.4687499999999955
 40
0.4687499999999955
 10
81.54579224862319
 20
15.6631934522273
 30
0.0
 10
81.63123754987278
 20
15.70829016613856
 30
0.0
 10
81.70429606695073
 20
15.74734850853299
 30
0.0
 10
81.76244437905628
 20
15.77861221947421
 30
0.0
  0
SPLINE
  5
260
330
1F
100
AcDbEntity
  8
SK3
  6
SLD-Dashed
370
    18
100
AcDbSpline
210
0.0
220
0.0
230
1.0
 70
     8
 71
     3
 72
     8
 73
     4
 74
     0
 42
0.000000001
 43
0.00000001
 40
0.4687499999999955
 40
0.4687499999999955
 40
0.4687499999999955
 40
0.4687499999999955
 40
0.4999999999999954
 40
0.4999999999999954
 40
0.4999999999999954
 40
0.4999999999999954
 10
81.76244437905628
 20
15.77861221947421
 30
0.0
 10
81.8787410032674
 20
15.84113964135671
 30
0.0
 10
81.93813093641263
 20
15.87376200515862
 30
0.0
 10
81.94033684212657
 20
15.87496554115249
 30
0.0
  0
SPLINE
  5
261
330
1F
100
AcDbEntity
  8
SK3
  6
SLD-Dashed
370
    18
100
AcDbSpline
210
0.0
220
0.0
230
1.0
 70
     8
 71
     3
 72
     8
 73
     4
 74
     0
 42
0.000000001
 43
0.00000001
 40
0.5156249999999954
 40
0.5156249999999954
 40
0.5156249999999954
 40
0.5156249999999954
 40
0.5312499999999954
 40
0.5312499999999954
 40
0.5312499999999954
 40
0.5312499999999954
 10
81.89979381188934
 20
15.85288178808852
 30
0.0
 10
81.87161794166411
 20
15.83755975573323
 30
0.0
 10
81.82913041112639
 20
15.81449527642288
 30
0.0
 10
81.77292513682872
 20
15.78424972148026
 30
0.0
  0
SPLINE
  5
262
330
1F
100
AcDbEntity
  8
SK3
  6
SLD-Dashed
370
    18
100
AcDbSpline
210
0.0
220
0.0
230
1.0
 70
     8
 71
     3
 72
     8
 73
     4
 74
     0
 42
0.000000001
 43
0.00000001
 40
0.5312499999999954
 40
0.5312499999999954
 40
0.5312499999999954
 40
0.5312499999999954
 40
0.5468749999999954
 40
0.5468749999999954
 40
0.5468749999999954
 40
0.5468749999999954
 10
81.77292513682872
 20
15.78424972148026
 30
0.0
 10
81.71671986253101
 20
15.75400416653766
 30
0.0
 10
81.64679357152113
 20
15.71657469055189
 30
0.0
 10
81.56329241146479
 20
15.67243681750391
 30
0.0
  0
SPLINE
  5
263
330
1F
100
AcDbEntity
  8
SK3
  6
SLD-Dashed
370
    18
100
AcDbSpline
210
0.0
220
0.0
230
1.0
 70
     8
 71
     3
 72
     8
 73
     4
 74
     0
 42
0.000000001
 43
0.00000001
 40
0.5468749999999954
 40
0.5468749999999954
 40
0.5468749999999954
 40
0.5468749999999954
 40
0.5624999999999954
 40
0.5624999999999954
 40
0.5624999999999954
 40
0.5624999999999954
 10
81.56329241146479
 20
15.67243681750391
 30
0.0
 10
81.47979125140839
 20
15.62829894445594
 30
0.0
 10
81.3821755567633
 20
15.57717276535502
 30
0.0
 10
81.27200870973245
 20
15.52043695499125
 30
0.0
  0
SPLINE
  5
264
330
1F
100
AcDbEntity
  8
SK3
  6
SLD-Dashed
370
    18
100
AcDbSpline
210
0.0
220
0.0
230
1.0
 70
     8
 71
     3
 72
     8
 73
     4
 74
     0
 42
0.000000001
 43
0.00000001
 40
0.5624999999999954
 40
0.5624999999999954
 40
0.5624999999999954
 40
0.5624999999999954
 40
0.5937499999999957
 40
0.5937499999999957
 40
0.5937499999999957
 40
0.5937499999999957
 10
81.27200870973245
 20
15.52043695499125
 30
0.0
 10
81.05167501567071
 20
15.40696533426368
 30
0.0
 10
80.78443382740677
 20
15.2725909002286
 30
0.0
 10
80.47252371609271
 20
15.12423745165313
 30
0.0
  0
SPLINE
  5
265
330
1F
100
AcDbEntity
  8
SK3
  6
SLD-Dashed
370
    18
100
AcDbSpline
210
0.0
220
0.0
230
1.0
 70
     8
 71
     3
 72
     8
 73
     4
 74
     0
 42
0.000000001
 43
0.00000001
 40
0.5937499999999957
 40
0.5937499999999957
 40
0.5937499999999957
 40
0.5937499999999957
 40
0.6249999999999959
 40
0.6249999999999959
 40
0.6249999999999959
 40
0.6249999999999959
 10
80.47252371609271
 20
15.12423745165313
 30
0.0
 10
80.16061360477863
 20
14.97588400307769
 30
0.0
 10
79.80148540274759
 20
14.81256836752255
 30
0.0
 10
79.41000714993959
 20
14.64872088998252
 30
0.0
  0
SPLINE
  5
266
330
1F
100
AcDbEntity
  8
SK3
  6
SLD-Dashed
370
    18
100
AcDbSpline
210
0.0
220
0.0
230
1.0
 70
     8
 71
     3
 72
     8
 73
     4
 74
     0
 42
0.000000001
 43
0.00000001
 40
0.6249999999999959
 40
0.6249999999999959
 40
0.6249999999999959
 40
0.6249999999999959
 40
0.6562499999999962
 40
0.6562499999999962
 40
0.6562499999999962
 40
0.6562499999999962
 10
79.41000714993959
 20
14.64872088998252
 30
0.0
 10
79.01852889713165
 20
14.48487341244249
 30
0.0
 10
78.59220359174441
 20
14.31906330806093
 30
0.0
 10
78.12785827287799
 20
14.16005655322242
 30
0.0
  0
SPLINE
  5
267
330
1F
100
AcDbEntity
  8
SK3
  6
SLD-Dashed
370
    18
100
AcDbSpline
210
0.0
220
0.0
230
1.0
 70
     8
 71
     3
 72
     8
 73
     4
 74
     0
 42
0.000000001
 43
0.00000001
 40
0.6562499999999962
 40
0.6562499999999962
 40
0.6562499999999962
 40
0.6562499999999962
 40
0.6718749999999963
 40
0.6718749999999963
 40
0.6718749999999963
 40
0.6718749999999963
 10
78.12785827287799
 20
14.16005655322242
 30
0.0
 10
77.89568561344475
 20
14.08055317580317
 30
0.0
 10
77.65462311955199
 20
14.00309594177553
 30
0.0
 10
77.40871371786679
 20
13.93019419934757
 30
0.0
  0
SPLINE
  5
268
330
1F
100
AcDbEntity
  8
SK3
  6
SLD-Dashed
370
    18
100
AcDbSpline
210
0.0
220
0.0
230
1.0
 70
     8
 71
     3
 72
     8
 73
     4
 74
     0
 42
0.000000001
 43
0.00000001
 40
0.6718749999999963
 40
0.6718749999999963
 40
0.6718749999999963
 40
0.6718749999999963
 40
0.6874999999999964
 40
0.6874999999999964
 40
0.6874999999999964
 40
0.6874999999999964
 10
77.40871371786679
 20
13.93019419934757
 30
0.0
 10
77.16280431618158
 20
13.85729245691965
 30
0.0
 10
76.91089798089864
 20
13.78854011742377
 30
0.0
 10
76.65273854136633
 20
13.72508239631007
 30
0.0
  0
SPLINE
  5
269
330
1F
100
AcDbEntity
  8
SK3
  6
SLD-Dashed
370
    18
100
AcDbSpline
210
0.0
220
0.0
230
1.0
 70
     8
 71
     3
 72
     8
 73
     4
 74
     0
 42
0.000000001
 43
0.00000001
 40
0.6874999999999964
 40
0.6874999999999964
 40
0.6874999999999964
 40
0.6874999999999964
 40
0.7031249999999966
 40
0.7031249999999966
 40
0.7031249999999966
 40
0.7031249999999966
 10
76.65273854136633
 20
13.72508239631007
 30
0.0
 10
76.39457910183405
 20
13.66162467519637
 30
0.0
 10
76.1301681888873
 20
13.60345869642511
 30
0.0
 10
75.85903900985791
 20
13.55184033009497
 30
0.0
  0
SPLINE
  5
26A
330
1F
100
AcDbEntity
  8
SK3
  6
SLD-Dashed
370
    18
100
AcDbSpline
210
0.0
220
0.0
230
1.0
 70
     8
 71
     3
 72
     8
 73
     4
 74
     0
 42
0.000000001
 43
0.00000001
 40
0.7031249999999966
 40
0.7031249999999966
 40
0.7031249999999966
 40
0.7031249999999966
 40
0.7187499999999967
 40
0.7187499999999967
 40
0.7187499999999967
 40
0.7187499999999967
 10
75.85903900985791
 20
13.55184033009497
 30
0.0
 10
75.5879098308285
 20
13.50022196376481
 30
0.0
 10
75.30892538308265
 20
13.4550037359505
 30
0.0
 10
75.02500375893386
 20
13.41805888220091
 30
0.0
  0
SPLINE
  5
26B
330
1F
100
AcDbEntity
  8
SK3
  6
SLD-Dashed
370
    18
100
AcDbSpline
210
0.0
220
0.0
230
1.0
 70
     8
 71
     3
 72
     8
 73
     4
 74
     0
 42
0.000000001
 43
0.00000001
 40
0.7187499999999967
 40
0.7187499999999967
 40
0.7187499999999967
 40
0.7187499999999967
 40
0.7499999999999961
 40
0.7499999999999961
 40
0.7499999999999961
 40
0.7499999999999961
 10
75.02500375893386
 20
13.41805888220091
 30
0.0
 10
74.4571605106363
 20
13.34416917470173
 30
0.0
 10
73.8853829352746
 20
13.30533776158065
 30
0.0
 10
73.30965373317908
 20
13.30401122561754
 30
0.0
  0
SPLINE
  5
26C
330
1F
100
AcDbEntity
  8
SK3
  6
SLD-Dashed
370
    18
100
AcDbSpline
210
0.0
220
0.0
230
1.0
 70
     8
 71
     3
 72
     8
 73
     4
 74
     0
 42
0.000000001
 43
0.00000001
 40
0.7499999999999961
 40
0.7499999999999961
 40
0.7499999999999961
 40
0.7499999999999961
 40
0.7656249999999962
 40
0.7656249999999962
 40
0.7656249999999962
 40
0.7656249999999962
 10
73.30965373317908
 20
13.30401122561754
 30
0.0
 10
73.02178913213133
 20
13.303347957636
 30
0.0
 10
72.73293223183222
 20
13.31203462842147
 30
0.0
 10
72.44305371263502
 20
13.33021309789753
 30
0.0
  0
SPLINE
  5
26D
330
1F
100
AcDbEntity
  8
SK3
  6
SLD-Dashed
370
    18
100
AcDbSpline
210
0.0
220
0.0
230
1.0
 70
     8
 71
     3
 72
     8
 73
     4
 74
     0
 42
0.000000001
 43
0.00000001
 40
0.7656249999999962
 40
0.7656249999999962
 40
0.7656249999999962
 40
0.7656249999999962
 40
0.7812499999999963
 40
0.7812499999999963
 40
0.7812499999999963
 40
0.7812499999999963
 10
72.44305371263502
 20
13.33021309789753
 30
0.0
 10
72.1531751934378
 20
13.34839156737361
 30
0.0
 10
71.86450713644402
 20
13.37603330718902
 30
0.0
 10
71.5824231433937
 20
13.41171682039151
 30
0.0
  0
SPLINE
  5
26E
330
1F
100
AcDbEntity
  8
SK3
  6
SLD-Dashed
370
    18
100
AcDbSpline
210
0.0
220
0.0
230
1.0
 70
     8
 71
     3
 72
     8
 73
     4
 74
     0
 42
0.000000001
 43
0.00000001
 40
0.7812499999999963
 40
0.7812499999999963
 40
0.7812499999999963
 40
0.7812499999999963
 40
0.8124999999999966
 40
0.8124999999999966
 40
0.8124999999999966
 40
0.8124999999999966
 10
71.5824231433937
 20
13.41171682039151
 30
0.0
 10
71.01825515729293
 20
13.48308384679646
 30
0.0
 10
70.47349738791544
 20
13.58695550847303
 30
0.0
 10
69.94657049044258
 20
13.71498674721085
 30
0.0
  0
SPLINE
  5
26F
330
1F
100
AcDbEntity
  8
SK3
  6
SLD-Dashed
370
    18
100
AcDbSpline
210
0.0
220
0.0
230
1.0
 70
     8
 71
     3
 72
     8
 73
     4
 74
     0
 42
0.000000001
 43
0.00000001
 40
0.8124999999999966
 40
0.8124999999999966
 40
0.8124999999999966
 40
0.8124999999999966
 40
0.8437499999999968
 40
0.8437499999999968
 40
0.8437499999999968
 40
0.8437499999999968
 10
69.94657049044258
 20
13.71498674721085
 30
0.0
 10
69.41964359296973
 20
13.84301798594866
 30
0.0
 10
68.92588630022642
 20
13.99126450238336
 30
0.0
 10
68.46244152352457
 20
14.14902860967167
 30
0.0
  0
SPLINE
  5
270
330
1F
100
AcDbEntity
  8
SK3
  6
SLD-Dashed
370
    18
100
AcDbSpline
210
0.0
220
0.0
230
1.0
 70
     8
 71
     3
 72
     8
 73
     4
 74
     0
 42
0.000000001
 43
0.00000001
 40
0.8437499999999968
 40
0.8437499999999968
 40
0.8437499999999968
 40
0.8437499999999968
 40
0.874999999999997
 40
0.874999999999997
 40
0.874999999999997
 40
0.874999999999997
 10
68.46244152352457
 20
14.14902860967167
 30
0.0
 10
67.99899674682267
 20
14.30679271695998
 30
0.0
 10
67.56262778685388
 20
14.47566408268015
 30
0.0
 10
67.16918495232969
 20
14.63986389816309
 30
0.0
  0
SPLINE
  5
271
330
1F
100
AcDbEntity
  8
SK3
  6
SLD-Dashed
370
    18
100
AcDbSpline
210
0.0
220
0.0
230
1.0
 70
     8
 71
     3
 72
     8
 73
     4
 74
     0
 42
0.000000001
 43
0.00000001
 40
0.874999999999997
 40
0.874999999999997
 40
0.874999999999997
 40
0.874999999999997
 40
0.9062499999999973
 40
0.9062499999999973
 40
0.9062499999999973
 40
0.9062499999999973
 10
67.16918495232969
 20
14.63986389816309
 30
0.0
 10
66.77574211780549
 20
14.80406371364604
 30
0.0
 10
66.42168292686499
 20
14.96468616557664
 30
0.0
 10
66.1069727054877
 20
15.11402496204205
 30
0.0
  0
SPLINE
  5
272
330
1F
100
AcDbEntity
  8
SK3
  6
SLD-Dashed
370
    18
100
AcDbSpline
210
0.0
220
0.0
230
1.0
 70
     8
 71
     3
 72
     8
 73
     4
 74
     0
 42
0.000000001
 43
0.00000001
 40
0.9062499999999973
 40
0.9062499999999973
 40
0.9062499999999973
 40
0.9062499999999973
 40
0.9218749999999977
 40
0.9218749999999977
 40
0.9218749999999977
 40
0.9218749999999977
 10
66.1069727054877
 20
15.11402496204205
 30
0.0
 10
65.94961759479907
 20
15.18869436027474
 30
0.0
 10
65.80154931183641
 20
15.26087627536569
 30
0.0
 10
65.66670073360493
 20
15.32784639671077
 30
0.0
  0
SPLINE
  5
273
330
1F
100
AcDbEntity
  8
SK3
  6
SLD-Dashed
370
    18
100
AcDbSpline
210
0.0
220
0.0
230
1.0
 70
     8
 71
     3
 72
     8
 73
     4
 74
     0
 42
0.000000001
 43
0.00000001
 40
0.9218749999999977
 40
0.9218749999999977
 40
0.9218749999999977
 40
0.9218749999999977
 40
0.937499999999998
 40
0.937499999999998
 40
0.937499999999998
 40
0.937499999999998
 10
65.66670073360493
 20
15.32784639671077
 30
0.0
 10
65.53185215537341
 20
15.39481651805581
 30
0.0
 10
65.40958988537717
 20
15.45686015621579
 30
0.0
 10
65.29980168674324
 20
15.51332913214566
 30
0.0
  0
SPLINE
  5
274
330
1F
100
AcDbEntity
  8
SK3
  6
SLD-Dashed
370
    18
100
AcDbSpline
210
0.0
220
0.0
230
1.0
 70
     8
 71
     3
 72
     8
 73
     4
 74
     0
 42
0.000000001
 43
0.00000001
 40
0.937499999999998
 40
0.937499999999998
 40
0.937499999999998
 40
0.937499999999998
 40
0.968749999999999
 40
0.968749999999999
 40
0.968749999999999
 40
0.968749999999999
 10
65.29980168674324
 20
15.51332913214566
 30
0.0
 10
65.08022528947535
 20
15.62626708400541
 30
0.0
 10
64.91009411642226
 20
15.71701992894223
 30
0.0
 10
64.79360814495908
 20
15.77965937444768
 30
0.0
  0
SPLINE
  5
275
330
1F
100
AcDbEntity
  8
SK3
  6
SLD-Dashed
370
    18
100
AcDbSpline
210
0.0
220
0.0
230
1.0
 70
     8
 71
     2
 72
     6
 73
     3
 74
     0
 42
0.000000001
 43
0.00000001
 40
0.968749999999999
 40
0.968749999999999
 40
0.968749999999999
 40
1.0
 40
1.0
 40
1.0
 10
64.79360814495908
 20
15.77965937444768
 30
0.0
 10
64.67712217349589
 20
15.84229881995315
 30
0.0
 10
64.61760000000002
 20
15.875
 30
0.0
  0
SPLINE
  5
276
330
1F
100
AcDbEntity
  8
SK3
  6
SLD-Dashed
370
    18
100
AcDbSpline
210
0.0
220
0.0
230
1.0
 70
     8
 71
     3
 72
    22
 73
    18
 74
     0
 42
0.000000001
 43
0.00000001
 40
0.0
 40
0.0
 40
0.0
 40
0.0
 40
0.125
 40
0.125
 40
0.25
 40
0.25
 40
0.375
 40
0.375
 40
0.5
 40
0.5
 40
0.625
 40
0.625
 40
0.75
 40
0.75
 40
0.875
 40
0.875
 40
1.0
 40
1.0
 40
1.0
 40
1.0
 10
12.23840130188122
 20
2.633529784903124
 30
0.0
 10
12.30255241877129
 20
2.727596791421982
 30
0.0
 10
12.36472510463676
 20
2.827429822617952
 30
0.0
 10
12.48378535885045
 20
3.043042586797134
 30
0.0
 10
12.54109763018252
 20
3.159745397626423
 30
0.0
 10
12.6431836637621
 20
3.408780500371286
 30
0.0
 10
12.68873695324033
 20
3.543298819547167
 30
0.0
 10
12.75455307900933
 20
3.821061619226116
 30
0.0
 10
12.7749209105919
 20
3.968125873780051
 30
0.0
 10
12.77507860768995
 20
4.242478294048794
 30
0.0
 10
12.75488125220309
 20
4.364820178849927
 30
0.0
 10
12.68876038781172
 20
4.562898494457096
 30
0.0
 10
12.64297795237509
 20
4.641514459164983
 30
0.0
 10
12.54130651121485
 20
4.764812900708806
 30
0.0
 10
12.48438242243771
 20
4.811196467080947
 30
0.0
 10
12.36473054465056
 20
4.881861263784357
 30
0.0
 10
12.30246410768537
 20
4.905944219541366
 30
0.0
 10
12.23840130188122
 20
4.922091341548196
 30
0.0
  0
SPLINE
  5
277
330
1F
100
AcDbEntity
  8
SK3
  6
SLD-Dashed
370
    18
100
AcDbSpline
210
0.0
220
0.0
230
1.0
 70
     8
 71
     3
 72
    18
 73
    14
 74
     0
 42
0.000000001
 43
0.00000001
 40
0.0
 40
0.0
 40
0.0
 40
0.0
 40
0.0501962867734974
 40
0.1000306214437302
 40
0.1855667331187636
 40
0.250182389232072
 40
0.3747066158220824
 40
0.4998232982189783
 40
0.6247294758455333
 40
0.7494251058857277
 40
0.8746331028690638
 40
0.9372230808189287
 40
1.0
 40
1.0
 40
1.0
 40
1.0
 10
18.30000000000001
 20
46.81625358782996
 30
0.0
 10
18.30669951182798
 20
46.81609127853697
 30
0.0
 10
18.32005022708197
 20
46.81576783032029
 30
0.0
 10
18.34463922095195
 20
46.81256776526224
 30
0.0
 10
18.37067201462223
 20
46.80630579793129
 30
0.0
 10
18.40500150194893
 20
46.79331555547192
 30
0.0
 10
18.44173939749916
 20
46.77247000397297
 30
0.0
 10
18.47965549617259
 20
46.73942242416845
 30
0.0
 10
18.51041281949081
 20
46.69961163074884
 30
0.0
 10
18.5330663450593
 20
46.65468875110025
 30
0.0
 10
18.54452340204196
 20
46.61434662644387
 30
0.0
 10
18.54932467505754
 20
46.58119847829342
 30
0.0
 10
18.54977466801638
 20
46.56446483112381
 30
0.0
 10
18.55000000000001
 20
46.55608553132448
 30
0.0
  0
SPLINE
  5
278
330
1F
100
AcDbEntity
  8
SK3
  6
SLD-Dashed
370
    18
100
AcDbSpline
210
0.0
220
0.0
230
1.0
 70
     8
 71
     3
 72
    18
 73
    14
 74
     0
 42
0.000000001
 43
0.00000001
 40
0.0
 40
0.0
 40
0.0
 40
0.0
 40
0.0502196103872103
 40
0.1000870260924036
 40
0.1855086368940136
 40
0.2501550808791957
 40
0.3746583157461303
 40
0.4998570853792911
 40
0.6242312608259597
 40
0.7494324099488388
 40
0.874036659617996
 40
0.9370350243166863
 40
1.0
 40
1.0
 40
1.0
 40
1.0
 10
3.699999999999996
 20
46.55608553132444
 30
0.0
 10
3.700143854852942
 20
46.56278755186003
 30
0.0
 10
3.700430555691623
 20
46.57614459105337
 30
0.0
 10
3.703274054818823
 20
46.60076085239339
 30
0.0
 10
3.708850025263361
 20
46.62692328764685
 30
0.0
 10
3.720514169271342
 20
46.66169890756609
 30
0.0
 10
3.73945659241666
 20
46.69941980690712
 30
0.0
 10
3.770128279112301
 20
46.73918434013717
 30
0.0
 10
3.808028636439615
 20
46.77229285140235
 30
0.0
 10
3.851698646431326
 20
46.79720148409474
 30
0.0
 10
3.891711812143372
 20
46.81006094110496
 30
0.0
 10
3.924780356068899
 20
46.81548545401078
 30
0.0
 10
3.941594937699494
 20
46.81599758847395
 30
0.0
 10
3.950000000000009
 20
46.81625358782994
 30
0.0
  0
SPLINE
  5
279
330
1F
100
AcDbEntity
  8
SK3
  6
SLD-Dashed
370
    18
100
AcDbSpline
210
0.0
220
0.0
230
1.0
 70
     8
 71
     3
 72
    34
 73
    30
 74
     0
 42
0.000000001
 43
0.00000001
 40
0.0
 40
0.0
 40
0.0
 40
0.0
 40
0.0624999999999994
 40
0.0624999999999994
 40
0.1249999999999989
 40
0.1249999999999989
 40
0.2499999999999984
 40
0.2499999999999984
 40
0.3124999999999985
 40
0.3124999999999985
 40
0.3749999999999986
 40
0.3749999999999986
 40
0.4374999999999986
 40
0.4374999999999986
 40
0.4999999999999987
 40
0.4999999999999987
 40
0.5624999999999988
 40
0.5624999999999988
 40
0.6249999999999989
 40
0.6249999999999989
 40
0.687499999999999
 40
0.687499999999999
 40
0.7499999999999991
 40
0.7499999999999991
 40
0.8124999999999992
 40
0.8124999999999992
 40
0.8749999999999993
 40
0.8749999999999993
 40
1.0
 40
1.0
 40
1.0
 40
1.0
 10
12.23840130188122
 20
2.633529784903124
 30
0.0
 10
12.12185566809726
 20
2.529376577253759
 30
0.0
 10
11.98784137692346
 20
2.439888179309124
 30
0.0
 10
11.70316086846782
 20
2.303670613924363
 30
0.0
 10
11.54981004574568
 20
2.255275674120233
 30
0.0
 10
11.07723155342882
 20
2.178446405396508
 30
0.0
 10
10.74761855482526
 20
2.220893920852923
 30
0.0
 10
10.31220326283491
 20
2.410970490788783
 30
0.0
 10
10.17684565584107
 20
2.494571386982919
 30
0.0
 10
9.934204229583909
 20
2.696684271477456
 30
0.0
 10
9.82984005339696
 20
2.812154863061897
 30
0.0
 10
9.655258171052921
 20
3.071396270631785
 30
0.0
 10
9.588706144445986
 20
3.210052965953392
 30
0.0
 10
9.49806028731448
 20
3.501052417508657
 30
0.0
 10
9.474951067117349
 20
3.652158266096175
 30
0.0
 10
9.475049090481358
 20
3.950197783166076
 30
0.0
 10
9.498547686241782
 20
4.099880362105984
 30
0.0
 10
9.58895498859405
 20
4.380488876157135
 30
0.0
 10
9.657217621840243
 20
4.515523387622719
 30
0.0
 10
9.83016190995148
 20
4.756884695269386
 30
0.0
 10
9.936939654885984
 20
4.866438085502481
 30
0.0
 10
10.17856863937747
 20
5.051021325429214
 30
0.0
 10
10.31409927201243
 20
5.127070895937044
 30
0.0
 10
10.60588483660668
 20
5.241791917627692
 30
0.0
 10
10.7582866707788
 20
5.279470910367706
 30
0.0
 10
11.07639443078479
 20
5.315337667611303
 30
0.0
 10
11.23531203065883
 20
5.31262213076808
 30
0.0
 10
11.70685477517036
 20
5.243748776194463
 30
0.0
 10
12.00524229322936
 20
5.114381587336584
 30
0.0
 10
12.23840130188122
 20
4.922091341548196
 30
0.0
  0
SPLINE
  5
27A
330
1F
100
AcDbEntity
  8
SK3
  6
SLD-Dashed
370
    18
100
AcDbSpline
210
0.0
220
0.0
230
1.0
 70
     8
 71
     3
 72
    34
 73
    30
 74
     0
 42
0.000000001
 43
0.00000001
 40
0.499999999999998
 40
0.499999999999998
 40
0.499999999999998
 40
0.499999999999998
 40
0.5312499999999979
 40
0.5312499999999979
 40
0.5624999999999978
 40
0.5624999999999978
 40
0.5937499999999976
 40
0.5937499999999976
 40
0.6249999999999974
 40
0.6249999999999974
 40
0.6562499999999973
 40
0.6562499999999973
 40
0.6874999999999972
 40
0.6874999999999972
 40
0.7499999999999969
 40
0.7499999999999969
 40
0.8124999999999973
 40
0.8124999999999973
 40
0.8437499999999978
 40
0.8437499999999978
 40
0.8749999999999982
 40
0.8749999999999982
 40
0.9062499999999987
 40
0.9062499999999987
 40
0.937499999999999
 40
0.937499999999999
 40
0.9687499999999994
 40
0.9687499999999994
 40
1.0
 40
1.0
 40
1.0
 40
1.0
 10
9.638805742161722
 20
10.95392502366163
 30
0.0
 10
9.6938811607363
 20
10.84705887039521
 30
0.0
 10
9.763179283156648
 20
10.74439645836096
 30
0.0
 10
9.923515798149985
 20
10.55592715127708
 30
0.0
 10
10.01390276352454
 20
10.47020735344792
 30
0.0
 10
10.21445694949211
 20
10.31296552728877
 30
0.0
 10
10.32267837600209
 20
10.2433350854223
 30
0.0
 10
10.54307526498122
 20
10.12288935951391
 30
0.0
 10
10.65791658596824
 20
10.07070374731722
 30
0.0
 10
10.87819871140988
 20
9.984463182040882
 30
0.0
 10
10.98608094611136
 20
9.949205279737832
 30
0.0
 10
11.18968749579594
 20
9.892304259468993
 30
0.0
 10
11.28527842069083
 20
9.870580048613824
 30
0.0
 10
11.55898297450223
 20
9.820769890309986
 30
0.0
 10
11.72337034356696
 20
9.808096789548735
 30
0.0
 10
12.02194861504766
 20
9.821477532699769
 30
0.0
 10
12.15920875119766
 20
9.847310188176722
 30
0.0
 10
12.34760730605758
 20
9.927824692744434
 30
0.0
 10
12.40688352391459
 20
9.961503747003372
 30
0.0
 10
12.51780294837551
 20
10.04749808647182
 30
0.0
 10
12.56969006353048
 20
10.1002182908583
 30
0.0
 10
12.65991931900842
 20
10.22933776798929
 30
0.0
 10
12.69929072119649
 20
10.3074839341282
 30
0.0
 10
12.7558656863648
 20
10.49302732041031
 30
0.0
 10
12.77303399215493
 20
10.60290348381507
 30
0.0
 10
12.7766331974026
 20
10.83901366027914
 30
0.0
 10
12.76306993948381
 20
10.96766771108132
 30
0.0
 10
12.71170841969951
 20
11.21837738140155
 30
0.0
 10
12.67469993892523
 20
11.34057418425337
 30
0.0
 10
12.63040931107559
 20
11.45745606890564
 30
0.0
  0
SPLINE
  5
27B
330
1F
100
AcDbEntity
  8
SK3
  6
SLD-Dashed
370
    18
100
AcDbSpline
210
0.0
220
0.0
230
1.0
 70
     8
 71
     3
 72
    26
 73
    22
 74
     0
 42
0.000000001
 43
0.00000001
 40
0.0
 40
0.0
 40
0.0
 40
0.0
 40
0.0624999999999995
 40
0.0624999999999995
 40
0.124999999999999
 40
0.124999999999999
 40
0.1874999999999986
 40
0.1874999999999986
 40
0.2499999999999981
 40
0.2499999999999981
 40
0.281249999999998
 40
0.281249999999998
 40
0.3124999999999979
 40
0.3124999999999979
 40
0.3749999999999981
 40
0.3749999999999981
 40
0.4374999999999984
 40
0.4374999999999984
 40
0.4687499999999982
 40
0.4687499999999982
 40
0.499999999999998
 40
0.499999999999998
 40
0.499999999999998
 40
0.499999999999998
 10
12.63040931107559
 20
11.45745606890564
 30
0.0
 10
12.54182805537632
 20
11.6912198382102
 30
0.0
 10
12.43200682775378
 20
11.89056157115177
 30
0.0
 10
12.18419932759157
 20
12.25514411813748
 30
0.0
 10
12.04834522926918
 20
12.41463399152624
 30
0.0
 10
11.75314013646128
 20
12.69173524411806
 30
0.0
 10
11.59091385222424
 20
12.81202758601131
 30
0.0
 10
11.23004729019511
 20
12.99241430793247
 30
0.0
 10
11.02728334192551
 20
13.05343833574649
 30
0.0
 10
10.69987000905187
 20
13.05646994226838
 30
0.0
 10
10.58531472788943
 20
13.0419760700552
 30
0.0
 10
10.36396153134628
 20
12.97944613660278
 30
0.0
 10
10.25449961952679
 20
12.93102694430326
 30
0.0
 10
9.947578697971304
 20
12.73948161914289
 30
0.0
 10
9.77664657830718
 20
12.55346040827499
 30
0.0
 10
9.542451961566167
 20
12.12678030999252
 30
0.0
 10
9.478612055377923
 20
11.88580640702583
 30
0.0
 10
9.473421112414282
 20
11.52565520755326
 30
0.0
 10
9.486345898652631
 20
11.40749361566878
 30
0.0
 10
9.541390615621037
 20
11.1745915190869
 30
0.0
 10
9.583730323587114
 20
11.06079117692804
 30
0.0
 10
9.638805742161722
 20
10.95392502366163
 30
0.0
  0
SPLINE
  5
27C
330
1F
100
AcDbEntity
  8
SK3
  6
SLD-Dashed
370
    18
100
AcDbSpline
210
0.0
220
0.0
230
1.0
 70
     8
 71
     3
 72
    18
 73
    14
 74
     0
 42
0.000000001
 43
0.00000001
 40
0.0
 40
0.0
 40
0.0
 40
0.0
 40
0.0501962867734932
 40
0.1000306214437242
 40
0.185566733118763
 40
0.2501823892320759
 40
0.3747066158220738
 40
0.499823298218966
 40
0.6247294758455325
 40
0.7494251058857301
 40
0.8746331028690641
 40
0.9372230808189376
 40
1.0
 40
1.0
 40
1.0
 40
1.0
 10
3.949999999999995
 20
46.81625358782993
 30
0.0
 10
3.943300488172041
 20
46.81609127853696
 30
0.0
 10
3.929949772918051
 20
46.81576783032028
 30
0.0
 10
3.905360779048073
 20
46.81256776526222
 30
0.0
 10
3.879327985377795
 20
46.80630579793131
 30
0.0
 10
3.844998498051089
 20
46.79331555547188
 30
0.0
 10
3.808260602500904
 20
46.77247000397298
 30
0.0
 10
3.770344503827461
 20
46.73942242416844
 30
0.0
 10
3.739587180509263
 20
46.69961163074884
 30
0.0
 10
3.716933654940732
 20
46.65468875110018
 30
0.0
 10
3.705476597958113
 20
46.61434662644387
 30
0.0
 10
3.700675324942518
 20
46.58119847829342
 30
0.0
 10
3.70022533198365
 20
46.56446483112381
 30
0.0
 10
3.700000000000037
 20
46.55608553132448
 30
0.0
  0
SPLINE
  5
27D
330
1F
100
AcDbEntity
  8
SK3
  6
SLD-Dashed
370
    18
100
AcDbSpline
210
0.0
220
0.0
230
1.0
 70
     8
 71
     3
 72
    18
 73
    14
 74
     0
 42
0.000000001
 43
0.00000001
 40
0.0
 40
0.0
 40
0.0
 40
0.0
 40
0.0502196103872228
 40
0.1000870260924098
 40
0.1855086368940469
 40
0.2501550808791907
 40
0.3746583157461306
 40
0.4998570853792907
 40
0.6242312608259453
 40
0.7494324099488449
 40
0.8740366596180048
 40
0.9370350243166926
 40
1.0
 40
1.0
 40
1.0
 40
1.0
 10
18.55000000000005
 20
46.55608553132444
 30
0.0
 10
18.54985614514713
 20
46.56278755186004
 30
0.0
 10
18.54956944430845
 20
46.5761445910534
 30
0.0
 10
18.54672594518126
 20
46.60076085239339
 30
0.0
 10
18.54114997473672
 20
46.6269232876469
 30
0.0
 10
18.5294858307287
 20
46.66169890756609
 30
0.0
 10
18.51054340758338
 20
46.69941980690713
 30
0.0
 10
18.47987172088772
 20
46.73918434013715
 30
0.0
 10
18.44197136356041
 20
46.77229285140239
 30
0.0
 10
18.39830135356874
 20
46.79720148409477
 30
0.0
 10
18.35828818785668
 20
46.81006094110496
 30
0.0
 10
18.32521964393113
 20
46.81548545401079
 30
0.0
 10
18.30840506230055
 20
46.81599758847395
 30
0.0
 10
18.30000000000001
 20
46.81625358782996
 30
0.0
  0
SPLINE
  5
27E
330
1F
100
AcDbEntity
  8
1
  6
SLD-Dashed
370
    18
100
AcDbSpline
210
0.0
220
0.0
230
1.0
 70
     8
 71
     3
 72
     8
 73
     4
 74
     0
 42
0.000000001
 43
0.00000001
 40
0.0
 40
0.0
 40
0.0
 40
0.0
 40
1.0
 40
1.0
 40
1.0
 40
1.0
 10
9.200000000002024
 20
44.57901066343279
 30
0.0
 10
8.786353866861477
 20
45.32508460154085
 30
0.0
 10
8.372088490924082
 20
46.07082082932836
 30
0.0
 10
7.957289380062154
 20
46.81625358782994
 30
0.0
  0
SPLINE
  5
27F
330
1F
100
AcDbEntity
  8
1
  6
SLD-Dashed
370
    18
100
AcDbSpline
210
0.0
220
0.0
230
1.0
 70
     8
 71
     3
 72
    10
 73
     6
 74
     0
 42
0.000000001
 43
0.00000001
 40
0.0
 40
0.0
 40
0.0
 40
0.0
 40
0.5
 40
0.5
 40
1.0
 40
1.0
 40
1.0
 40
1.0
 10
9.950000000001234
 20
43.76943596849411
 30
0.0
 10
9.748771536222415
 20
43.76943596849377
 30
0.0
 10
9.550990673892228
 20
43.85856672856773
 30
0.0
 10
9.277097785723997
 20
44.15022946993273
 30
0.0
 10
9.200000000000319
 20
44.34957328976746
 30
0.0
 10
9.199999999999985
 20
44.55102159322499
 30
0.0
  0
SPLINE
  5
280
330
1F
100
AcDbEntity
  8
1
  6
SLD-Dashed
370
    18
100
AcDbSpline
210
0.0
220
0.0
230
1.0
 70
     8
 71
     3
 72
    12
 73
     8
 74
     0
 42
0.000000001
 43
0.00000001
 40
0.0
 40
0.0
 40
0.0
 40
0.0
 40
0.5000000000000048
 40
0.5000000000000048
 40
0.7500000000000023
 40
0.7500000000000023
 40
1.0
 40
1.0
 40
1.0
 40
1.0
 10
13.02999999999993
 20
44.55102159322491
 30
0.0
 10
13.02999999999993
 20
44.35104831812321
 30
0.0
 10
12.95399603318284
 20
44.1515082673661
 30
0.0
 10
12.74724095984753
 20
43.93116827138052
 30
0.0
 10
12.6631420626864
 20
43.87128621650958
 30
0.0
 10
12.48048875274074
 20
43.79084228716532
 30
0.0
 10
12.37984375713169
 20
43.76943596849291
 30
0.0
 10
12.28000000000001
 20
43.76943596849289
 30
0.0
  0
SPLINE
  5
281
330
1F
100
AcDbEntity
  8
1
  6
SLD-Dashed
370
    18
100
AcDbSpline
210
0.0
220
0.0
230
1.0
 70
     8
 71
     3
 72
     8
 73
     4
 74
     0
 42
0.000000001
 43
0.00000001
 40
0.0
 40
0.0
 40
0.0
 40
0.0
 40
1.0
 40
1.0
 40
1.0
 40
1.0
 10
14.27271061995095
 20
46.81625358783775
 30
0.0
 10
13.85791150908533
 20
46.07082082933479
 30
0.0
 10
13.44364613314425
 20
45.32508460154592
 30
0.0
 10
13.02999999999999
 20
44.57901066343648
 30
0.0
  0
SPLINE
  5
282
330
1F
100
AcDbEntity
  8
1
  6
SLD-Dashed
370
    18
100
AcDbSpline
210
0.0
220
0.0
230
1.0
 70
     8
 71
     3
 72
    12
 73
     8
 74
     0
 42
0.000000001
 43
0.00000001
 40
0.0
 40
0.0
 40
0.0
 40
0.0
 40
0.2499999999999967
 40
0.2499999999999967
 40
0.4999999999999933
 40
0.4999999999999933
 40
1.0
 40
1.0
 40
1.0
 40
1.0
 10
3.19999999999979
 20
-46.69763484374749
 30
0.0
 10
3.199999999999831
 20
-46.7985109584615
 30
0.0
 10
3.218629406337773
 20
-46.89733966428926
 30
0.0
 10
3.291844246696889
 20
-47.08411469648331
 30
0.0
 10
3.345979173512774
 20
-47.16991322229985
 30
0.0
 10
3.551871853062272
 20
-47.38753444472503
 30
0.0
 10
3.74802685678137
 20
-47.47548419974255
 30
0.0
 10
3.950000000000009
 20
-47.4754841997425
 30
0.0
  0
SPLINE
  5
283
330
1F
100
AcDbEntity
  8
1
  6
SLD-Dashed
370
    18
100
AcDbSpline
210
0.0
220
0.0
230
1.0
 70
     8
 71
     3
 72
    12
 73
     8
 74
     0
 42
0.000000001
 43
0.00000001
 40
0.0
 40
0.0
 40
0.0
 40
0.0
 40
0.2499999999999985
 40
0.2499999999999985
 40
0.499999999999997
 40
0.499999999999997
 40
1.0
 40
1.0
 40
1.0
 40
1.0
 10
18.30000000000003
 20
-47.47548419974247
 30
0.0
 10
18.40091596910944
 20
-47.47548419974247
 30
0.0
 10
18.50002158252259
 20
-47.45437693482703
 30
0.0
 10
18.68315226992453
 20
-47.37426897057825
 30
0.0
 10
18.76654490405268
 20
-47.31511647588035
 30
0.0
 10
18.97195148872743
 20
-47.09831987092234
 30
0.0
 10
19.05000000000001
 20
-46.89926900274104
 30
0.0
 10
19.05000000000001
 20
-46.69763484374771
 30
0.0
  0
SPLINE
  5
284
330
1F
100
AcDbEntity
  8
1
  6
SLD-Dashed
370
    18
100
AcDbSpline
210
0.0
220
0.0
230
1.0
 70
     8
 71
     3
 72
     8
 73
     4
 74
     0
 42
0.000000001
 43
0.00000001
 40
0.0
 40
0.0
 40
0.0
 40
0.0
 40
1.0
 40
1.0
 40
1.0
 40
1.0
 10
14.63972339340267
 20
-47.4754841997425
 30
0.0
 10
14.10222500453559
 20
-46.5104965471081
 30
0.0
 10
13.56559195163212
 20
-45.54503249842018
 30
0.0
 10
13.02999999999999
 20
-44.57901066343648
 30
0.0
  0
SPLINE
  5
285
330
1F
100
AcDbEntity
  8
1
  6
SLD-Dashed
370
    18
100
AcDbSpline
210
0.0
220
0.0
230
1.0
 70
     8
 71
     3
 72
    12
 73
     8
 74
     0
 42
0.000000001
 43
0.00000001
 40
0.0
 40
0.0
 40
0.0
 40
0.0
 40
0.5
 40
0.5
 40
0.75
 40
0.75
 40
1.0
 40
1.0
 40
1.0
 40
1.0
 10
13.03000000000026
 20
-44.55102159322526
 30
0.0
 10
13.03000000000032
 20
-44.35094747116184
 30
0.0
 10
12.95238692985018
 20
-44.14958800989084
 30
0.0
 10
12.74748896269967
 20
-43.93153570225748
 30
0.0
 10
12.66372770014787
 20
-43.87162606259754
 30
0.0
 10
12.48090790509571
 20
-43.79094541821721
 30
0.0
 10
12.38057331782438
 20
-43.76943596849286
 30
0.0
 10
12.28000000000001
 20
-43.76943596849289
 30
0.0
  0
SPLINE
  5
286
330
1F
100
AcDbEntity
  8
1
  6
SLD-Dashed
370
    18
100
AcDbSpline
210
0.0
220
0.0
230
1.0
 70
     8
 71
     3
 72
    12
 73
     8
 74
     0
 42
0.000000001
 43
0.00000001
 40
0.0
 40
0.0
 40
0.0
 40
0.0
 40
0.2500000000000039
 40
0.2500000000000039
 40
0.5000000000000078
 40
0.5000000000000078
 40
1.0
 40
1.0
 40
1.0
 40
1.0
 10
9.94999999999982
 20
-43.76943596849306
 30
0.0
 10
9.850030395358782
 20
-43.7694359684931
 30
0.0
 10
9.750114974766245
 20
-43.79051518316425
 30
0.0
 10
9.565507057761241
 20
-43.87194262843708
 30
0.0
 10
9.482715011846722
 20
-43.93126060501225
 30
0.0
 10
9.276579660402906
 20
-44.15080408372874
 30
0.0
 10
9.200000000000042
 20
-44.35163254795803
 30
0.0
 10
9.199999999999985
 20
-44.55102159322499
 30
0.0
  0
SPLINE
  5
287
330
1F
100
AcDbEntity
  8
1
  6
SLD-Dashed
370
    18
100
AcDbSpline
210
0.0
220
0.0
230
1.0
 70
     8
 71
     3
 72
     8
 73
     4
 74
     0
 42
0.000000001
 43
0.00000001
 40
0.0
 40
0.0
 40
0.0
 40
0.0
 40
1.0
 40
1.0
 40
1.0
 40
1.0
 10
9.199999999999985
 20
-44.57901066343648
 30
0.0
 10
8.664408048367891
 20
-45.54503249842017
 30
0.0
 10
8.127774995464424
 20
-46.51049654710808
 30
0.0
 10
7.590276606597349
 20
-47.47548419974248
 30
0.0
  0
SPLINE
  5
288
330
1F
100
AcDbEntity
  8
SK3
  6
SLD-Dashed
370
    18
100
AcDbSpline
210
0.0
220
0.0
230
1.0
 70
     8
 71
     3
 72
    34
 73
    30
 74
     0
 42
0.000000001
 43
0.00000001
 40
0.5000000000000003
 40
0.5000000000000003
 40
0.5000000000000003
 40
0.5000000000000003
 40
0.5625000000000013
 40
0.5625000000000013
 40
0.5937500000000011
 40
0.5937500000000011
 40
0.625000000000001
 40
0.625000000000001
 40
0.6562500000000009
 40
0.6562500000000009
 40
0.6875000000000008
 40
0.6875000000000008
 40
0.7187500000000007
 40
0.7187500000000007
 40
0.7500000000000004
 40
0.7500000000000004
 40
0.7812500000000003
 40
0.7812500000000003
 40
0.8125000000000002
 40
0.8125000000000002
 40
0.8437500000000001
 40
0.8437500000000001
 40
0.875
 40
0.875
 40
0.9062499999999999
 40
0.9062499999999999
 40
0.9374999999999997
 40
0.9374999999999997
 40
1.0
 40
1.0
 40
1.0
 40
1.0
 10
10.60808274902045
 20
14.67518531385664
 30
0.0
 10
10.7714399435272
 20
14.66271400222903
 30
0.0
 10
10.9539607682107
 20
14.63137977172278
 30
0.0
 10
11.25812245907615
 20
14.54691770596561
 30
0.0
 10
11.36641585866904
 20
14.51171888144388
 30
0.0
 10
11.58574352105282
 20
14.42634662926308
 30
0.0
 10
11.69715944869879
 20
14.37625545607606
 30
0.0
 10
11.9211718066789
 20
14.25483711630821
 30
0.0
 10
12.0289352359772
 20
14.18587333985283
 30
0.0
 10
12.22961030853029
 20
14.02983333564747
 30
0.0
 10
12.32267742835869
 20
13.94226901556095
 30
0.0
 10
12.48372543018653
 20
13.75415019217112
 30
0.0
 10
12.55366053916099
 20
13.65130323099262
 30
0.0
 10
12.66489321927142
 20
13.43691773984447
 30
0.0
 10
12.70717730188431
 20
13.32435113894573
 30
0.0
 10
12.7632641756493
 20
13.08988167819453
 30
0.0
 10
12.77635511926062
 20
12.97149039057749
 30
0.0
 10
12.77342672652903
 20
12.73211084337569
 30
0.0
 10
12.75684979458239
 20
12.61060743991048
 30
0.0
 10
12.69552150102998
 20
12.37773497196916
 30
0.0
 10
12.65033349294084
 20
12.26373909474826
 30
0.0
 10
12.53298957942559
 20
12.04909612932804
 30
0.0
 10
12.46214536200849
 20
11.95022400081662
 30
0.0
 10
12.29651277322139
 20
11.77143410287179
 30
0.0
 10
12.20150676240367
 20
11.69219588739501
 30
0.0
 10
11.99926684334574
 20
11.56533020093843
 30
0.0
 10
11.88885801145315
 20
11.5158749716928
 30
0.0
 10
11.55399205333033
 20
11.42069275726626
 30
0.0
 10
11.32716468948122
 20
11.42871083881322
 30
0.0
 10
11.12500000000002
 20
11.48273236161756
 30
0.0
  0
SPLINE
  5
289
330
1F
100
AcDbEntity
  8
SK3
  6
SLD-Dashed
370
    18
100
AcDbSpline
210
0.0
220
0.0
230
1.0
 70
     8
 71
     3
 72
    30
 73
    26
 74
     0
 42
0.000000001
 43
0.00000001
 40
0.0
 40
0.0
 40
0.0
 40
0.0
 40
0.0624999999999997
 40
0.0624999999999997
 40
0.1249999999999995
 40
0.1249999999999995
 40
0.1562499999999993
 40
0.1562499999999993
 40
0.1874999999999992
 40
0.1874999999999992
 40
0.2187499999999991
 40
0.2187499999999991
 40
0.2499999999999989
 40
0.2499999999999989
 40
0.2812499999999988
 40
0.2812499999999988
 40
0.3124999999999987
 40
0.3124999999999987
 40
0.3437499999999986
 40
0.3437499999999986
 40
0.3749999999999984
 40
0.3749999999999984
 40
0.4374999999999994
 40
0.4374999999999994
 40
0.5000000000000003
 40
0.5000000000000003
 40
0.5000000000000003
 40
0.5000000000000003
 10
11.12500000000002
 20
11.48273236161756
 30
0.0
 10
10.9228353105188
 20
11.53675388442192
 30
0.0
 10
10.74714710048239
 20
11.63024516394925
 30
0.0
 10
10.42066988662174
 20
11.86454434722231
 30
0.0
 10
10.27375737476435
 20
12.00407384287208
 30
0.0
 10
10.07148943268485
 20
12.2417783920363
 30
0.0
 10
10.00699015299672
 20
12.32609339770681
 30
0.0
 10
9.883509956371189
 20
12.50701007175131
 30
0.0
 10
9.824268573097871
 20
12.60415729348405
 30
0.0
 10
9.71515470609033
 20
12.80934651131552
 30
0.0
 10
9.664396735733465
 20
12.91903622889809
 30
0.0
 10
9.576981863499118
 20
13.14891853741637
 30
0.0
 10
9.540303532497491
 20
13.26831266228051
 30
0.0
 10
9.487704529937997
 20
13.52080982106195
 30
0.0
 10
9.473745253197968
 20
13.64846695671307
 30
0.0
 10
9.476438089560556
 20
13.88700257856812
 30
0.0
 10
9.493197896427997
 20
13.99682053671475
 30
0.0
 10
9.549353346861217
 20
14.18374939795271
 30
0.0
 10
9.58858947784802
 20
14.26231510462442
 30
0.0
 10
9.67848001882432
 20
14.39201189392007
 30
0.0
 10
9.730204466999181
 20
14.44496665500975
 30
0.0
 10
9.896348595184485
 20
14.57471258814563
 30
0.0
 10
10.02083275682619
 20
14.62455209347292
 30
0.0
 10
10.29708420272973
 20
14.68178062150165
 30
0.0
 10
10.4447255545137
 20
14.68765662548424
 30
0.0
 10
10.60808274902045
 20
14.67518531385664
 30
0.0
  0
DIMENSION
  5
28A
330
1F
100
AcDbEntity
  8
2
100
AcDbDimension
  2
_D
 10
101.6
 20
76.6212817353
 30
0.0
 11
36.2371816026
 21
76.6212817353
 31
0.0
 70
   160
  1
<>
 71
     2
 42
-1.0
  3
SLDDIMSTYLE0
100
AcDbAlignedDimension
 13
0.0
 23
34.925
 33
0.0
 14
101.6
 24
21.082
 34
0.0
 50
0.0
100
AcDbRotatedDimension
  0
DIMENSION
  5
29F
330
1F
100
AcDbEntity
  8
SK2
100
AcDbDimension
  2
_D_1
 10
101.6
 20
65.3708139095
 30
0.0
 11
55.7474865664
 21
65.3708139095
 31
0.0
 70
   160
  1
<>
 71
     2
 42
-1.0
  3
SLDDIMSTYLE0
100
AcDbAlignedDimension
 13
19.05
 23
46.5560855313
 33
0.0
 14
101.6
 24
21.082
 34
0.0
100
AcDbRotatedDimension
  0
DIMENSION
  5
2B2
330
1F
100
AcDbEntity
  8
SK2
100
AcDbDimension
  2
_D_2
 10
101.6
 20
52.4114142621
 30
0.0
 11
66.5707214367
 21
52.4114142621
 31
0.0
 70
   160
  1
<>
 71
     2
 42
-1.0
  3
SLDDIMSTYLE0
100
AcDbAlignedDimension
 13
35.1
 23
33.401
 33
0.0
 14
101.6
 24
21.082
 34
0.0
100
AcDbRotatedDimension
  0
DIMENSION
  5
2C5
330
1F
100
AcDbEntity
  8
SK2
100
AcDbDimension
  2
_D_3
 10
101.6
 20
38.8823706741
 30
0.0
 11
85.2265604896
 21
38.8823706741
 31
0.0
 70
   160
  1
<>
 71
     2
 42
-1.0
  3
SLDDIMSTYLE0
100
AcDbAlignedDimension
 13
73.279
 23
31.65
 33
0.0
 14
101.6
 24
21.082
 34
0.0
100
AcDbRotatedDimension
  0
DIMENSION
  5
2D8
330
1F
100
AcDbEntity
  8
SK2
100
AcDbDimension
  2
_D_4
 10
73.279
 20
38.8823706741
 30
0.0
 11
59.2410272425
 21
38.8823706741
 31
0.0
 70
   160
  1
<>
 71
     2
 42
-1.0
  3
SLDDIMSTYLE0
100
AcDbAlignedDimension
 13
47.879
 23
31.65
 33
0.0
 14
73.279
 24
31.65
 34
0.0
100
AcDbRotatedDimension
  0
DIMENSION
  5
2EB
330
1F
100
AcDbEntity
  8
SK2
100
AcDbDimension
  2
_D_5
 10
19.05
 20
65.3708139095
 30
0.0
 11
9.3215054118
 21
65.3708139095
 31
0.0
 70
   160
  1
<>
 71
     2
 42
-1.0
  3
SLDDIMSTYLE1
100
AcDbAlignedDimension
 13
0.0
 23
34.925
 33
0.0
 14
19.05
 24
46.5560855313
 34
0.0
100
AcDbRotatedDimension
  0
DIMENSION
  5
2F6
330
1F
100
AcDbEntity
  8
SK2
100
AcDbDimension
  2
_D_6
 10
119.0866956791
 20
15.875
 30
0.0
 11
119.0866956791
 21
0.0738585044
 31
0.0
 70
   160
  1
%%c<>
 71
     2
 42
-1.0
  3
SLDDIMSTYLE2
100
AcDbAlignedDimension
 13
100.1
 23
-15.875
 33
0.0
 14
100.1
 24
15.875
 34
0.0
 50
90.0
100
AcDbRotatedDimension
  0
DIMENSION
  5
309
330
1F
100
AcDbEntity
  8
SK2
100
AcDbDimension
  2
_D_7
 10
132.3800341842
 20
-21.082
 30
0.0
 11
132.3800341842
 21
0.0738585044
 31
0.0
 70
   160
  1
%%c<>
 71
     2
 42
-1.0
  3
SLDDIMSTYLE0
100
AcDbAlignedDimension
 13
101.6
 23
21.082
 33
0.0
 14
101.6
 24
-21.082
 34
0.0
 50
90.0
100
AcDbRotatedDimension
  0
DIMENSION
  5
31B
330
1F
100
AcDbEntity
  8
SK2
100
AcDbDimension
  2
_D_8
 10
147.3936870842
 20
-31.75
 30
0.0
 11
147.3936870842
 21
0.0738585044
 31
0.0
 70
   160
  1
%%c<>
 71
     2
 42
-1.0
  3
SLDDIMSTYLE0
100
AcDbAlignedDimension
 13
90.932
 23
31.75
 33
0.0
 14
90.932
 24
-31.75
 34
0.0
 50
90.0
100
AcDbRotatedDimension
  0
DIMENSION
  5
32D
330
1F
100
AcDbEntity
  8
SK2
100
AcDbDimension
  2
_D_9
 10
101.6
 20
-73.4688153996
 30
0.0
 11
-7.4604661647
 21
-73.4688153996
 31
0.0
 70
   160
  1
<>
 71
     2
 42
-1.0
  3
SLDDIMSTYLE3
100
AcDbAlignedDimension
 13
-101.6
 23
-18.2922326599
 33
0.0
 14
101.6
 24
-21.082
 34
0.0
 50
0.0
100
AcDbRotatedDimension
  0
DIMENSION
  5
341
330
1F
100
AcDbEntity
  8
SK2
100
AcDbDimension
  2
_D_10
 10
101.6
 20
-61.3830996754
 30
0.0
 11
72.7505069147
 21
-61.3830996754
 31
0.0
 70
   160
  1
<>
 71
     2
 42
-1.0
  3
SLDDIMSTYLE0
100
AcDbAlignedDimension
 13
41.91
 23
-15.9175
 33
0.0
 14
101.6
 24
-21.082
 34
0.0
100
AcDbRotatedDimension
  0
DIMENSION
  5
354
330
1F
100
AcDbEntity
  8
SK2
100
AcDbDimension
  2
_D_11
 10
101.6
 20
-46.0216200226
 30
0.0
 11
82.7781394659
 21
-46.0216200226
 31
0.0
 70
   160
  1
<>
 71
     2
 42
-1.0
  3
SLDDIMSTYLE4
100
AcDbAlignedDimension
 13
90.932
 23
-31.75
 33
0.0
 14
101.6
 24
-21.082
 34
0.0
100
AcDbRotatedDimension
  0
DIMENSION
  5
361
330
1F
100
AcDbEntity
  8
SK2
100
AcDbDimension
  2
_D_12
 10
-122.0725897736
 20
-47.4754841997
 30
0.0
 11
-122.0725897736
 21
0.2373788355
 31
0.0
 70
   160
  1
%%c<>
 71
     2
 42
-1.0
  3
SLDDIMSTYLE1
100
AcDbAlignedDimension
 13
3.95
 23
47.2968145978
 33
0.0
 14
3.95
 24
-47.4754841997
 34
0.0
 50
90.0
100
AcDbRotatedDimension
  0
DIMENSION
  5
36C
330
1F
100
AcDbEntity
  8
SK2
100
AcDbDimension
  2
_D_13
 10
-112.7042448135
 20
-12.6999998465
 30
0.0
 11
-112.7042448135
 21
-2.0519057996
 31
0.0
 70
   160
  1
<>
 71
     2
 42
-1.0
  3
SLDDIMSTYLE4
100
AcDbAlignedDimension
 13
-94.967097044
 23
12.6999998465
 33
0.0
 14
-94.967097044
 24
-12.6999998465
 34
0.0
 50
90.0
100
AcDbRotatedDimension
  0
MTEXT
  5
379
330
1F
100
AcDbEntity
  8
SK6
 62
     5
100
AcDbMText
 10
-61.4555425356
 20
-36.7196618641
 30
0.0
 40
3.5
 41
0.0
 71
     1
 72
     1
  1
AA3B20-50 32 101
  7
SLDTEXTSTYLE0
 73
     1
 44
1.0
  0
MTEXT
  5
37A
330
1F
100
AcDbEntity
  8
SK6
 62
     5
100
AcDbMText
 10
-67.040959687
 20
42.3684133409
 30
0.0
 40
3.5
 41
0.0
 71
     1
 72
     1
  1
ASME B5.50 CAT 50
  7
SLDTEXTSTYLE0
 73
     1
 44
1.0
  0
ENDSEC
  0
SECTION
  2
OBJECTS
  0
DICTIONARY
  5
C
330
0
100
AcDbDictionary
281
     1
  3
ACAD_GROUP
350
D
  3
ACAD_LAYOUT
350
1A
  3
ACAD_MLINESTYLE
350
17
  3
ACAD_PLOTSETTINGS
350
19
  3
ACAD_PLOTSTYLENAME
350
E
  3
ACAD_SCALELIST
350
47
  0
DICTIONARY
  5
D
102
{ACAD_REACTORS
330
C
102
}
330
C
100
AcDbDictionary
281
     1
  0
DICTIONARY
  5
1A
102
{ACAD_REACTORS
330
C
102
}
330
C
100
AcDbDictionary
281
     1
  3
Layout1
350
1E
  3
Layout2
350
26
  3
Model
350
22
  0
DICTIONARY
  5
17
102
{ACAD_REACTORS
330
C
102
}
330
C
100
AcDbDictionary
281
     1
  3
Standard
350
18
  0
DICTIONARY
  5
19
102
{ACAD_REACTORS
330
C
102
}
330
C
100
AcDbDictionary
281
     1
  0
ACDBDICTIONARYWDFLT
  5
E
102
{ACAD_REACTORS
330
C
102
}
330
C
100
AcDbDictionary
281
     1
  3
Normal
350
F
100
AcDbDictionaryWithDefault
340
F
  0
DICTIONARY
  5
47
102
{ACAD_REACTORS
330
C
102
}
330
C
100
AcDbDictionary
281
     1
  3
A0
350
48
  3
A1
350
49
  3
A2
350
4A
  3
A3
350
4B
  3
A4
350
4C
  3
A5
350
4D
  3
A6
350
4E
  3
A7
350
4F
  3
A8
350
50
  3
A9
350
51
  3
B0
350
52
  3
B1
350
53
  3
B2
350
54
  3
B3
350
55
  3
B4
350
56
  3
B5
350
57
  3
B6
350
58
  3
B7
350
59
  3
B8
350
5A
  3
B9
350
5B
  3
C0
350
5C
  3
C1
350
5D
  3
C2
350
5E
  3
C3
350
5F
  3
C4
350
60
  3
C5
350
61
  3
C6
350
62
  3
C7
350
63
  3
C8
350
64
  3
C9
350
65
  3
D0
350
66
  3
D1
350
67
  3
D2
350
68
  0
LAYOUT
  5
1E
102
{ACAD_REACTORS
330
1A
102
}
330
1A
100
AcDbPlotSettings
  1

  2
none_device
  4

  6

 40
0.0
 41
0.0
 42
0.0
 43
0.0
 44
0.0
 45
0.0
 46
0.0
 47
0.0
 48
0.0
 49
0.0
140
0.0
141
0.0
142
1.0
143
1.0
 70
   688
 72
     1
 73
     0
 74
     5
  7

 75
    16
147
1.0
148
0.0
149
0.0
100
AcDbLayout
  1
Layout1
 70
     1
 71
     1
 10
0.0
 20
0.0
 11
420.0
 21
297.0
 12
0.0
 22
0.0
 32
0.0
 14
1.0000000000E+20
 24
1.0000000000E+20
 34
1.0000000000E+20
 15
-1.0000000000E+20
 25
-1.0000000000E+20
 35
-1.0000000000E+20
146
0.0
 13
0.0
 23
0.0
 33
0.0
 16
1.0
 26
0.0
 36
0.0
 17
0.0
 27
1.0
 37
0.0
 76
     0
330
1B
  0
LAYOUT
  5
26
102
{ACAD_REACTORS
330
1A
102
}
330
1A
100
AcDbPlotSettings
  1

  2
none_device
  4

  6

 40
0.0
 41
0.0
 42
0.0
 43
0.0
 44
0.0
 45
0.0
 46
0.0
 47
0.0
 48
0.0
 49
0.0
140
0.0
141
0.0
142
1.0
143
1.0
 70
   688
 72
     1
 73
     0
 74
     5
  7

 75
    16
147
1.0
148
0.0
149
0.0
100
AcDbLayout
  1
Layout2
 70
     1
 71
     2
 10
0.0
 20
0.0
 11
0.0
 21
0.0
 12
0.0
 22
0.0
 32
0.0
 14
0.0
 24
0.0
 34
0.0
 15
0.0
 25
0.0
 35
0.0
146
0.0
 13
0.0
 23
0.0
 33
0.0
 16
1.0
 26
0.0
 36
0.0
 17
0.0
 27
1.0
 37
0.0
 76
     0
330
23
  0
LAYOUT
  5
22
102
{ACAD_REACTORS
330
1A
102
}
330
1A
100
AcDbPlotSettings
  1

  2
none_device
  4
Letter_(8.50_x_11.00_Inches)
  6

 40
6.35
 41
6.35
 42
6.35000508
 43
6.35000508
 44
215.9
 45
279.4
 46
0.0
 47
0.0
 48
0.0
 49
0.0
140
0.0
141
0.0
142
1.0
143
1.0
 70
  1712
 72
     1
 73
     0
 74
     0
  7

 75
     0
147
1.0
148
0.0
149
0.0
100
AcDbLayout
  1
Model
 70
     1
 71
     0
 10
0.0
 20
0.0
 11
297.0
 21
210.0
 12
0.0
 22
0.0
 32
0.0
 14
0.0
 24
0.0
 34
0.0
 15
297.0
 25
210.0
 35
0.0
146
0.0
 13
0.0
 23
0.0
 33
0.0
 16
1.0
 26
0.0
 36
0.0
 17
0.0
 27
1.0
 37
0.0
 76
     0
330
1F
331
29
  0
MLINESTYLE
  5
18
102
{ACAD_REACTORS
330
17
102
}
330
17
100
AcDbMlineStyle
  2
Standard
 70
     0
  3

 62
   256
 51
90.0
 52
90.0
 71
     2
 49
0.5
 62
   256
  6
BYLAYER
 49
-0.5
 62
   256
  6
BYLAYER
  0
ACDBPLACEHOLDER
  5
F
102
{ACAD_REACTORS
330
E
102
}
330
E
  0
SCALE
  5
48
102
{ACAD_REACTORS
330
47
102
}
330
47
100
AcDbScale
 70
     0
300
1:1
140
1.0
141
1.0
290
     1
  0
SCALE
  5
49
102
{ACAD_REACTORS
330
47
102
}
330
47
100
AcDbScale
 70
     0
300
1:2
140
1.0
141
2.0
290
     0
  0
SCALE
  5
4A
102
{ACAD_REACTORS
330
47
102
}
330
47
100
AcDbScale
 70
     0
300
1:4
140
1.0
141
4.0
290
     0
  0
SCALE
  5
4B
102
{ACAD_REACTORS
330
47
102
}
330
47
100
AcDbScale
 70
     0
300
1:5
140
1.0
141
5.0
290
     0
  0
SCALE
  5
4C
102
{ACAD_REACTORS
330
47
102
}
330
47
100
AcDbScale
 70
     0
300
1:8
140
1.0
141
8.0
290
     0
  0
SCALE
  5
4D
102
{ACAD_REACTORS
330
47
102
}
330
47
100
AcDbScale
 70
     0
300
1:10
140
1.0
141
10.0
290
     0
  0
SCALE
  5
4E
102
{ACAD_REACTORS
330
47
102
}
330
47
100
AcDbScale
 70
     0
300
1:16
140
1.0
141
16.0
290
     0
  0
SCALE
  5
4F
102
{ACAD_REACTORS
330
47
102
}
330
47
100
AcDbScale
 70
     0
300
1:20
140
1.0
141
20.0
290
     0
  0
SCALE
  5
50
102
{ACAD_REACTORS
330
47
102
}
330
47
100
AcDbScale
 70
     0
300
1:30
140
1.0
141
30.0
290
     0
  0
SCALE
  5
51
102
{ACAD_REACTORS
330
47
102
}
330
47
100
AcDbScale
 70
     0
300
1:40
140
1.0
141
40.0
290
     0
  0
SCALE
  5
52
102
{ACAD_REACTORS
330
47
102
}
330
47
100
AcDbScale
 70
     0
300
1:50
140
1.0
141
50.0
290
     0
  0
SCALE
  5
53
102
{ACAD_REACTORS
330
47
102
}
330
47
100
AcDbScale
 70
     0
300
1:100
140
1.0
141
100.0
290
     0
  0
SCALE
  5
54
102
{ACAD_REACTORS
330
47
102
}
330
47
100
AcDbScale
 70
     0
300
2:1
140
2.0
141
1.0
290
     0
  0
SCALE
  5
55
102
{ACAD_REACTORS
330
47
102
}
330
47
100
AcDbScale
 70
     0
300
4:1
140
4.0
141
1.0
290
     0
  0
SCALE
  5
56
102
{ACAD_REACTORS
330
47
102
}
330
47
100
AcDbScale
 70
     0
300
8:1
140
8.0
141
1.0
290
     0
  0
SCALE
  5
57
102
{ACAD_REACTORS
330
47
102
}
330
47
100
AcDbScale
 70
     0
300
10:1
140
10.0
141
1.0
290
     0
  0
SCALE
  5
58
102
{ACAD_REACTORS
330
47
102
}
330
47
100
AcDbScale
 70
     0
300
100:1
140
100.0
141
1.0
290
     0
  0
SCALE
  5
59
102
{ACAD_REACTORS
330
47
102
}
330
47
100
AcDbScale
 70
     0
300
1/128" = 1'-0"
140
0.0078125
141
12.0
290
     0
  0
SCALE
  5
5A
102
{ACAD_REACTORS
330
47
102
}
330
47
100
AcDbScale
 70
     0
300
1/64" = 1'-0"
140
0.015625
141
12.0
290
     0
  0
SCALE
  5
5B
102
{ACAD_REACTORS
330
47
102
}
330
47
100
AcDbScale
 70
     0
300
1/32" = 1'-0"
140
0.03125
141
12.0
290
     0
  0
SCALE
  5
5C
102
{ACAD_REACTORS
330
47
102
}
330
47
100
AcDbScale
 70
     0
300
1/16" = 1'-0"
140
0.0625
141
12.0
290
     0
  0
SCALE
  5
5D
102
{ACAD_REACTORS
330
47
102
}
330
47
100
AcDbScale
 70
     0
300
3/32" = 1'-0"
140
0.09375
141
12.0
290
     0
  0
SCALE
  5
5E
102
{ACAD_REACTORS
330
47
102
}
330
47
100
AcDbScale
 70
     0
300
1/8" = 1'-0"
140
0.125
141
12.0
290
     0
  0
SCALE
  5
5F
102
{ACAD_REACTORS
330
47
102
}
330
47
100
AcDbScale
 70
     0
300
3/16" = 1'-0"
140
0.1875
141
12.0
290
     0
  0
SCALE
  5
60
102
{ACAD_REACTORS
330
47
102
}
330
47
100
AcDbScale
 70
     0
300
1/4" = 1'-0"
140
0.25
141
12.0
290
     0
  0
SCALE
  5
61
102
{ACAD_REACTORS
330
47
102
}
330
47
100
AcDbScale
 70
     0
300
3/8" = 1'-0"
140
0.375
141
12.0
290
     0
  0
SCALE
  5
62
102
{ACAD_REACTORS
330
47
102
}
330
47
100
AcDbScale
 70
     0
300
1/2" = 1'-0"
140
0.5
141
12.0
290
     0
  0
SCALE
  5
63
102
{ACAD_REACTORS
330
47
102
}
330
47
100
AcDbScale
 70
     0
300
3/4" = 1'-0"
140
0.75
141
12.0
290
     0
  0
SCALE
  5
64
102
{ACAD_REACTORS
330
47
102
}
330
47
100
AcDbScale
 70
     0
300
1" = 1'-0"
140
1.0
141
12.0
290
     0
  0
SCALE
  5
65
102
{ACAD_REACTORS
330
47
102
}
330
47
100
AcDbScale
 70
     0
300
1-1/2" = 1'-0"
140
1.5
141
12.0
290
     0
  0
SCALE
  5
66
102
{ACAD_REACTORS
330
47
102
}
330
47
100
AcDbScale
 70
     0
300
3" = 1'-0"
140
3.0
141
12.0
290
     0
  0
SCALE
  5
67
102
{ACAD_REACTORS
330
47
102
}
330
47
100
AcDbScale
 70
     0
300
6" = 1'-0"
140
6.0
141
12.0
290
     0
  0
SCALE
  5
68
102
{ACAD_REACTORS
330
47
102
}
330
47
100
AcDbScale
 70
     0
300
1'-0" = 1'-0"
140
12.0
141
12.0
290
     0
  0
ENDSEC
  0
EOF
