  0
SECTION
  2
HEADER
  9
$ACADVER
  1
AC1015
  9
$ACADMAINTVER
 70
     6
  9
$DWGCODEPAGE
  3
ANSI_1250
  9
$INSBASE
 10
0.0
 20
0.0
 30
0.0
  9
$EXTMIN
 10
0.0
 20
0.0
 30
0.0
  9
$EXTMAX
 10
297.0
 20
210.0
 30
0.0
  9
$LIMMIN
 10
0.0
 20
0.0
  9
$LIMMAX
 10
297.0
 20
210.0
  9
$ORTHOMODE
 70
     0
  9
$REGENMODE
 70
     1
  9
$FILLMODE
 70
     1
  9
$QTEXTMODE
 70
     0
  9
$MIRRTEXT
 70
     1
  9
$LTSCALE
 40
1.0
  9
$ATTMODE
 70
     1
  9
$TEXTSIZE
 40
3.5
  9
$TRACEWID
 40
1.0
  9
$TEXTSTYLE
  7
Standard
  9
$CLAYER
  8
0
  9
$CELTYPE
  6
ByLayer
  9
$CECOLOR
 62
   256
  9
$CELTSCALE
 40
1.0
  9
$DISPSILH
 70
     0
  9
$DIMSCALE
 40
1.0
  9
$DIMASZ
 40
3.302
  9
$DIMEXO
 40
1.0
  9
$DIMDLI
 40
3.75
  9
$DIMRND
 40
0.0
  9
$DIMDLE
 40
0.0
  9
$DIMEXE
 40
1.0
  9
$DIMTP
 40
0.0
  9
$DIMTM
 40
0.0
  9
$DIMTXT
 40
3.5
  9
$DIMCEN
 40
2.5
  9
$DIMTSZ
 40
0.0
  9
$DIMTOL
 70
     0
  9
$DIMLIM
 70
     0
  9
$DIMTIH
 70
     1
  9
$DIMTOH
 70
     1
  9
$DIMSE1
 70
     0
  9
$DIMSE2
 70
     0
  9
$DIMTAD
 70
     1
  9
$DIMZIN
 70
     0
  9
$DIMBLK
  1

  9
$DIMASO
 70
     1
  9
$DIMSHO
 70
     1
  9
$DIMPOST
  1

  9
$DIMAPOST
  1

  9
$DIMALT
 70
     0
  9
$DIMALTD
 70
     3
  9
$DIMALTF
 40
0.0393700787
  9
$DIMLFAC
 40
1.0
  9
$DIMTOFL
 70
     1
  9
$DIMTVP
 40
0.0
  9
$DIMTIX
 70
     0
  9
$DIMSOXD
 70
     0
  9
$DIMSAH
 70
     0
  9
$DIMBLK1
  1

  9
$DIMBLK2
  1

  9
$DIMSTYLE
  2
ISO-25
  9
$DIMCLRD
 70
     0
  9
$DIMCLRE
 70
     0
  9
$DIMCLRT
 70
     0
  9
$DIMTFAC
 40
1.0
  9
$DIMGAP
 40
1.524
  9
$DIMJUST
 70
     0
  9
$DIMSD1
 70
     0
  9
$DIMSD2
 70
     0
  9
$DIMTOLJ
 70
     0
  9
$DIMTZIN
 70
     0
  9
$DIMALTZ
 70
     0
  9
$DIMALTTZ
 70
     0
  9
$DIMUPT
 70
     0
  9
$DIMDEC
 70
     2
  9
$DIMTDEC
 70
     2
  9
$DIMALTU
 70
     2
  9
$DIMALTTD
 70
     3
  9
$DIMTXSTY
  7
Standard
  9
$DIMAUNIT
 70
     0
  9
$DIMADEC
 70
     2
  9
$DIMALTRND
 40
0.0
  9
$DIMAZIN
 70
     0
  9
$DIMDSEP
 70
    44
  9
$DIMATFIT
 70
     3
  9
$DIMFRAC
 70
     0
  9
$DIMLDRBLK
  1

  9
$DIMLUNIT
 70
     2
  9
$DIMLWD
 70
    -2
  9
$DIMLWE
 70
    -2
  9
$DIMTMOVE
 70
     0
  9
$LUNITS
 70
     2
  9
$LUPREC
 70
     2
  9
$SKETCHINC
 40
1.0
  9
$FILLETRAD
 40
10.0
  9
$AUNITS
 70
     0
  9
$AUPREC
 70
     2
  9
$MENU
  1
.
  9
$ELEVATION
 40
0.0
  9
$PELEVATION
 40
0.0
  9
$THICKNESS
 40
0.0
  9
$LIMCHECK
 70
     0
  9
$CHAMFERA
 40
0.0
  9
$CHAMFERB
 40
0.0
  9
$CHAMFERC
 40
0.0
  9
$CHAMFERD
 40
0.0
  9
$SKPOLY
 70
     0
  9
$TDCREATE
 40
2459278.336717199
  9
$TDUCREATE
 40
2459278.295050533
  9
$TDUPDATE
 40
2459278.336719259
  9
$TDUUPDATE
 40
2459278.295052593
  9
$TDINDWG
 40
0.0000000116
  9
$TDUSRTIMER
 40
0.0000000116
  9
$USRTIMER
 70
     1
  9
$ANGBASE
 50
0.0
  9
$ANGDIR
 70
     0
  9
$PDMODE
 70
     0
  9
$PDSIZE
 40
-1.0
  9
$PLINEWID
 40
0.0
  9
$SPLFRAME
 70
     0
  9
$SPLINETYPE
 70
     6
  9
$SPLINESEGS
 70
     8
  9
$HANDSEED
  5
389
  9
$SURFTAB1
 70
     6
  9
$SURFTAB2
 70
     6
  9
$SURFTYPE
 70
     6
  9
$SURFU
 70
     6
  9
$SURFV
 70
     6
  9
$UCSBASE
  2

  9
$UCSNAME
  2

  9
$UCSORG
 10
0.0
 20
0.0
 30
0.0
  9
$UCSXDIR
 10
1.0
 20
0.0
 30
0.0
  9
$UCSYDIR
 10
0.0
 20
1.0
 30
0.0
  9
$UCSORTHOREF
  2

  9
$UCSORTHOVIEW
 70
     0
  9
$UCSORGTOP
 10
0.0
 20
0.0
 30
0.0
  9
$UCSORGBOTTOM
 10
0.0
 20
0.0
 30
0.0
  9
$UCSORGLEFT
 10
0.0
 20
0.0
 30
0.0
  9
$UCSORGRIGHT
 10
0.0
 20
0.0
 30
0.0
  9
$UCSORGFRONT
 10
0.0
 20
0.0
 30
0.0
  9
$UCSORGBACK
 10
0.0
 20
0.0
 30
0.0
  9
$PUCSBASE
  2

  9
$PUCSNAME
  2

  9
$PUCSORG
 10
0.0
 20
0.0
 30
0.0
  9
$PUCSXDIR
 10
1.0
 20
0.0
 30
0.0
  9
$PUCSYDIR
 10
0.0
 20
1.0
 30
0.0
  9
$PUCSORTHOREF
  2

  9
$PUCSORTHOVIEW
 70
     0
  9
$PUCSORGTOP
 10
0.0
 20
0.0
 30
0.0
  9
$PUCSORGBOTTOM
 10
0.0
 20
0.0
 30
0.0
  9
$PUCSORGLEFT
 10
0.0
 20
0.0
 30
0.0
  9
$PUCSORGRIGHT
 10
0.0
 20
0.0
 30
0.0
  9
$PUCSORGFRONT
 10
0.0
 20
0.0
 30
0.0
  9
$PUCSORGBACK
 10
0.0
 20
0.0
 30
0.0
  9
$USERI1
 70
     0
  9
$USERI2
 70
     0
  9
$USERI3
 70
     0
  9
$USERI4
 70
     0
  9
$USERI5
 70
     0
  9
$USERR1
 40
0.0
  9
$USERR2
 40
0.0
  9
$USERR3
 40
0.0
  9
$USERR4
 40
0.0
  9
$USERR5
 40
0.0
  9
$WORLDVIEW
 70
     1
  9
$SHADEDGE
 70
     3
  9
$SHADEDIF
 70
    70
  9
$TILEMODE
 70
     1
  9
$MAXACTVP
 70
    64
  9
$PINSBASE
 10
0.0
 20
0.0
 30
0.0
  9
$PLIMCHECK
 70
     0
  9
$PEXTMIN
 10
1.0000000000E+20
 20
1.0000000000E+20
 30
1.0000000000E+20
  9
$PEXTMAX
 10
-1.0000000000E+20
 20
-1.0000000000E+20
 30
-1.0000000000E+20
  9
$PLIMMIN
 10
0.0
 20
0.0
  9
$PLIMMAX
 10
420.0
 20
297.0
  9
$UNITMODE
 70
     0
  9
$VISRETAIN
 70
     1
  9
$PLINEGEN
 70
     0
  9
$PSLTSCALE
 70
     1
  9
$TREEDEPTH
 70
  3020
  9
$CMLSTYLE
  2
Standard
  9
$CMLJUST
 70
     0
  9
$CMLSCALE
 40
20.0
  9
$PROXYGRAPHICS
 70
     1
  9
$MEASUREMENT
 70
     1
  9
$CELWEIGHT
370
    -1
  9
$ENDCAPS
280
     0
  9
$JOINSTYLE
280
     0
  9
$LWDISPLAY
290
     1
  9
$INSUNITS
 70
     4
  9
$HYPERLINKBASE
  1

  9
$STYLESHEET
  1

  9
$XEDIT
290
     1
  9
$CEPSNTYPE
380
     0
  9
$PSTYLEMODE
290
     1
  9
$FINGERPRINTGUID
  2
{6352C973-3D73-406F-8E52-197EC1B0EDFC}
  9
$VERSIONGUID
  2
{FAEB1C32-E019-11D5-929B-00C0DF256EC4}
  9
$EXTNAMES
290
     1
  9
$PSVPSCALE
 40
0.0
  9
$OLESTARTUP
290
     0
  0
ENDSEC
  0
SECTION
  2
CLASSES
  0
CLASS
  1
ACDBDICTIONARYWDFLT
  2
AcDbDictionaryWithDefault
  3
ObjectDBX Classes
 90
        0
280
     0
281
     0
  0
CLASS
  1
VISUALSTYLE
  2
AcDbVisualStyle
  3
ObjectDBX Classes
 90
     4095
280
     0
281
     0
  0
CLASS
  1
MATERIAL
  2
AcDbMaterial
  3
ObjectDBX Classes
 90
     1153
280
     0
281
     0
  0
CLASS
  1
SCALE
  2
AcDbScale
  3
ObjectDBX Classes
 90
     1153
280
     0
281
     0
  0
CLASS
  1
TABLESTYLE
  2
AcDbTableStyle
  3
ObjectDBX Classes
 90
     4095
280
     0
281
     0
  0
CLASS
  1
MLEADERSTYLE
  2
AcDbMLeaderStyle
  3
ACDB_MLEADERSTYLE_CLASS
 90
     4095
280
     0
281
     0
  0
CLASS
  1
SUN
  2
AcDbSun
  3
SCENEOE
 90
     1153
280
     0
281
     0
  0
CLASS
  1
ACDBPLACEHOLDER
  2
AcDbPlaceHolder
  3
ObjectDBX Classes
 90
        0
280
     0
281
     0
  0
CLASS
  1
LAYOUT
  2
AcDbLayout
  3
ObjectDBX Classes
 90
        0
280
     0
281
     0
  0
ENDSEC
  0
SECTION
  2
TABLES
  0
TABLE
  2
VPORT
  5
8
330
0
100
AcDbSymbolTable
 70
     1
  0
VPORT
  5
29
330
8
100
AcDbSymbolTableRecord
100
AcDbViewportTableRecord
  2
*Active
 70
     0
 10
0.0
 20
0.0
 11
1.0
 21
1.0
 12
148.5
 22
105.0
 13
0.0
 23
0.0
 14
10.0
 24
10.0
 15
10.0
 25
10.0
 16
0.0
 26
0.0
 36
1.0
 17
0.0
 27
0.0
 37
0.0
 40
210.0
 41
1.4142857143
 42
50.0
 43
0.0
 44
0.0
 50
0.0
 51
0.0
 71
     0
 72
  2000
 73
     1
 74
     3
 75
     0
 76
     0
 77
     0
 78
     0
281
     0
 65
     1
110
0.0
120
0.0
130
0.0
111
1.0
121
0.0
131
0.0
112
0.0
122
1.0
132
0.0
 79
     0
146
0.0
  0
ENDTAB
  0
TABLE
  2
LTYPE
  5
5
330
0
100
AcDbSymbolTable
 70
     8
  0
LTYPE
  5
14
330
5
100
AcDbSymbolTableRecord
100
AcDbLinetypeTableRecord
  2
ByBlock
 70
     0
  3

 72
    65
 73
     0
 40
0.0
  0
LTYPE
  5
15
330
5
100
AcDbSymbolTableRecord
100
AcDbLinetypeTableRecord
  2
ByLayer
 70
     0
  3

 72
    65
 73
     0
 40
0.0
  0
LTYPE
  5
16
330
5
100
AcDbSymbolTableRecord
100
AcDbLinetypeTableRecord
  2
Continuous
 70
     0
  3
Solid line
 72
    65
 73
     0
 40
0.0
  0
LTYPE
  5
6E
330
5
100
AcDbSymbolTableRecord
100
AcDbLinetypeTableRecord
  2
SLD-Solid
 70
     0
  3
SolidWorks Line Style
 72
    65
 73
     0
 40
0.0
  0
LTYPE
  5
6F
330
5
100
AcDbSymbolTableRecord
100
AcDbLinetypeTableRecord
  2
SLD-Dashed
 70
     0
  3
SolidWorks Line Style
 72
    65
 73
     2
 40
1.905
 49
1.27
 74
     0
 49
-0.635
 74
     0
  0
LTYPE
  5
70
330
5
100
AcDbSymbolTableRecord
100
AcDbLinetypeTableRecord
  2
SLD-Phantom
 70
     0
  3
SolidWorks Line Style
 72
    65
 73
     6
 40
12.7
 49
6.35
 74
     0
 49
-1.27
 74
     0
 49
1.27
 74
     0
 49
-1.27
 74
     0
 49
1.27
 74
     0
 49
-1.27
 74
     0
  0
LTYPE
  5
71
330
5
100
AcDbSymbolTableRecord
100
AcDbLinetypeTableRecord
  2
SLD-Chain
 70
     0
  3
SolidWorks Line Style
 72
    65
 73
     4
 40
10.16
 49
6.35
 74
     0
 49
-1.27
 74
     0
 49
1.27
 74
     0
 49
-1.27
 74
     0
  0
LTYPE
  5
72
330
5
100
AcDbSymbolTableRecord
100
AcDbLinetypeTableRecord
  2
SLD-Center
 70
     0
  3
SolidWorks Line Style
 72
    65
 73
     4
 40
19.05
 49
15.24
 74
     0
 49
-1.27
 74
     0
 49
1.27
 74
     0
 49
-1.27
 74
     0
  0
LTYPE
  5
73
330
5
100
AcDbSymbolTableRecord
100
AcDbLinetypeTableRecord
  2
SLD-Stitch
 70
     0
  3
SolidWorks Line Style
 72
    65
 73
     2
 40
0.635
 49
0.0
 74
     0
 49
-0.635
 74
     0
  0
LTYPE
  5
74
330
5
100
AcDbSymbolTableRecord
100
AcDbLinetypeTableRecord
  2
SLD-Thin-Thick-Chain
 70
     0
  3
SolidWorks Line Style
 72
    65
 73
     4
 40
10.16
 49
6.35
 74
     0
 49
-1.27
 74
     0
 49
1.27
 74
     0
 49
-1.27
 74
     0
  0
ENDTAB
  0
TABLE
  2
LAYER
  5
2
330
0
100
AcDbSymbolTable
 70
    14
  0
LAYER
  5
10
330
2
100
AcDbSymbolTableRecord
100
AcDbLayerTableRecord
  2
0
 70
     0
 62
     7
  6
Continuous
370
    -3
390
F
  0
LAYER
  5
75
330
2
100
AcDbSymbolTableRecord
100
AcDbLayerTableRecord
  2
SLD-0
 70
     0
 62
   179
  6
SLD-Solid
370
    -3
390
F
  0
LAYER
  5
76
330
2
100
AcDbSymbolTableRecord
100
AcDbLayerTableRecord
  2
80
 70
     0
 62
    -6
  6
SLD-Solid
290
     0
370
    -3
390
F
  0
LAYER
  5
77
330
2
100
AcDbSymbolTableRecord
100
AcDbLayerTableRecord
  2
81
 70
     0
 62
    -3
  6
SLD-Solid
290
     0
370
    -3
390
F
  0
LAYER
  5
78
330
2
100
AcDbSymbolTableRecord
100
AcDbLayerTableRecord
  2
1
 70
     0
 62
     4
  6
SLD-Solid
290
     0
370
    -3
390
F
  0
LAYER
  5
79
330
2
100
AcDbSymbolTableRecord
100
AcDbLayerTableRecord
  2
4
 70
     0
 62
    -2
  6
SLD-Chain
290
     0
370
    -3
390
F
  0
LAYER
  5
7A
330
2
100
AcDbSymbolTableRecord
100
AcDbLayerTableRecord
  2
2
 70
     0
 62
     7
  6
SLD-Solid
290
     0
370
    -3
390
F
  0
LAYER
  5
7B
330
2
100
AcDbSymbolTableRecord
100
AcDbLayerTableRecord
  2
SK3
 70
     0
 62
     1
  6
SLD-Dashed
290
     0
370
    -3
390
F
  0
LAYER
  5
7C
330
2
100
AcDbSymbolTableRecord
100
AcDbLayerTableRecord
  2
SK4
 70
     0
 62
     2
  6
SLD-Chain
290
     0
370
    -3
390
F
  0
LAYER
  5
7D
330
2
100
AcDbSymbolTableRecord
100
AcDbLayerTableRecord
  2
SK2
 70
     0
 62
     7
  6
SLD-Solid
290
     0
370
    -3
390
F
  0
LAYER
  5
7E
330
2
100
AcDbSymbolTableRecord
100
AcDbLayerTableRecord
  2
SK6
 70
     0
 62
     5
  6
SLD-Solid
290
     0
370
    -3
390
F
  0
LAYER
  5
7F
330
2
100
AcDbSymbolTableRecord
100
AcDbLayerTableRecord
  2
6
 70
     0
 62
     5
  6
SLD-Solid
370
    -3
390
F
  0
LAYER
  5
80
330
2
100
AcDbSymbolTableRecord
100
AcDbLayerTableRecord
  2
SK1
 70
     0
 62
     4
  6
SLD-Solid
370
    -3
390
F
  0
LAYER
  5
81
330
2
100
AcDbSymbolTableRecord
100
AcDbLayerTableRecord
  2
LAYER5
 70
     0
 62
   218
  6
SLD-Solid
370
    -3
390
F
  0
ENDTAB
  0
TABLE
  2
STYLE
  5
3
330
0
100
AcDbSymbolTable
 70
     3
  0
STYLE
  5
11
330
3
100
AcDbSymbolTableRecord
100
AcDbTextStyleTableRecord
  2
Standard
 70
     0
 40
0.0
 41
1.0
 50
0.0
 71
     0
 42
3.5
  3
txt
  4

  0
STYLE
  5
289
330
3
100
AcDbSymbolTableRecord
100
AcDbTextStyleTableRecord
  2
SLDTEXTSTYLE0
 70
     0
 40
0.0
 41
0.75
 50
0.0
 71
     0
 42
3.5
  3
TXT
  4

  0
STYLE
  5
37B
330
3
100
AcDbSymbolTableRecord
100
AcDbTextStyleTableRecord
  2
SLDTEXTSTYLE1
 70
     0
 40
0.0
 41
0.6666666667
 50
0.0
 71
     0
 42
3.5
  3
TXT
  4

  0
ENDTAB
  0
TABLE
  2
VIEW
  5
6
330
0
100
AcDbSymbolTable
 70
     0
  0
ENDTAB
  0
TABLE
  2
UCS
  5
7
330
0
100
AcDbSymbolTable
 70
     0
  0
ENDTAB
  0
TABLE
  2
APPID
  5
9
330
0
100
AcDbSymbolTable
 70
     1
  0
APPID
  5
12
330
9
100
AcDbSymbolTableRecord
100
AcDbRegAppTableRecord
  2
ACAD
 70
     0
  0
ENDTAB
  0
TABLE
  2
DIMSTYLE
  5
A
330
0
100
AcDbSymbolTable
 70
     5
100
AcDbDimStyleTable
  0
DIMSTYLE
105
27
330
A
100
AcDbSymbolTableRecord
100
AcDbDimStyleTableRecord
  2
ISO-25
 70
     0
 41
2.5
 42
0.625
 43
3.75
 44
1.25
 73
     0
 74
     0
 77
     1
 78
     8
140
2.5
141
2.5
143
0.0393700787
147
0.625
171
     3
172
     1
178
     0
271
     2
272
     2
274
     3
278
    44
283
     0
284
     8
340
11
  0
DIMSTYLE
105
28A
102
{ACAD_REACTORS
330
288
330
29D
330
2B0
330
2C3
330
2D6
330
2E9
330
2FC
330
30E
330
320
330
346
102
}
330
A
100
AcDbSymbolTableRecord
100
AcDbDimStyleTableRecord
  2
SLDDIMSTYLE0
 70
     0
 41
3.302
 44
0.0
 45
0.000000001
 73
     0
 74
     0
 77
     1
 78
    12
 79
     3
140
3.5
143
0.0393700787
147
0.875
148
0.000000001
170
     1
173
     1
178
     0
271
     2
272
     2
276
     2
284
    12
340
289
  0
DIMSTYLE
105
333
102
{ACAD_REACTORS
330
332
102
}
330
A
100
AcDbSymbolTableRecord
100
AcDbDimStyleTableRecord
  2
SLDDIMSTYLE1
 70
     0
 41
3.302
 44
0.0
 45
0.000000001
 73
     0
 74
     0
 77
     1
 78
    12
 79
     3
140
3.5
143
0.0393700787
147
0.875
148
0.000000001
170
     1
173
     1
178
     0
271
     3
272
     2
276
     2
284
    12
340
289
  0
DIMSTYLE
105
35A
102
{ACAD_REACTORS
330
359
102
}
330
A
100
AcDbSymbolTableRecord
100
AcDbDimStyleTableRecord
  2
SLDDIMSTYLE2
 70
     0
 41
3.302
 44
0.0
 45
0.000000001
 73
     0
 74
     0
 77
     1
 78
    12
 79
     3
140
3.5
147
0.875
172
     1
173
     1
178
     0
271
     2
272
     2
276
     2
284
    12
289
     0
340
289
  0
DIMSTYLE
105
367
102
{ACAD_REACTORS
330
366
330
372
330
37D
102
}
330
A
100
AcDbSymbolTableRecord
100
AcDbDimStyleTableRecord
  2
SLDDIMSTYLE3
 70
     0
 41
3.302
 44
0.0
 45
0.000000001
 73
     0
 74
     0
 77
     1
 78
    12
 79
     3
140
3.5
147
0.875
173
     1
178
     0
271
     2
272
     2
276
     2
284
    12
340
289
  0
ENDTAB
  0
TABLE
  2
BLOCK_RECORD
  5
1
330
0
100
AcDbSymbolTable
 70
    16
  0
BLOCK_RECORD
  5
1F
330
1
100
AcDbSymbolTableRecord
100
AcDbBlockTableRecord
  2
*Model_Space
340
22
  0
BLOCK_RECORD
  5
1B
330
1
100
AcDbSymbolTableRecord
100
AcDbBlockTableRecord
  2
*Paper_Space
340
1E
  0
BLOCK_RECORD
  5
23
330
1
100
AcDbSymbolTableRecord
100
AcDbBlockTableRecord
  2
*Paper_Space0
340
26
  0
BLOCK_RECORD
  5
28B
330
1
100
AcDbSymbolTableRecord
100
AcDbBlockTableRecord
  2
_D
340
0
  0
BLOCK_RECORD
  5
29E
330
1
100
AcDbSymbolTableRecord
100
AcDbBlockTableRecord
  2
_D_1
340
0
  0
BLOCK_RECORD
  5
2B1
330
1
100
AcDbSymbolTableRecord
100
AcDbBlockTableRecord
  2
_D_2
340
0
  0
BLOCK_RECORD
  5
2C4
330
1
100
AcDbSymbolTableRecord
100
AcDbBlockTableRecord
  2
_D_3
340
0
  0
BLOCK_RECORD
  5
2D7
330
1
100
AcDbSymbolTableRecord
100
AcDbBlockTableRecord
  2
_D_4
340
0
  0
BLOCK_RECORD
  5
2EA
330
1
100
AcDbSymbolTableRecord
100
AcDbBlockTableRecord
  2
_D_5
340
0
  0
BLOCK_RECORD
  5
2FD
330
1
100
AcDbSymbolTableRecord
100
AcDbBlockTableRecord
  2
_D_6
340
0
  0
BLOCK_RECORD
  5
30F
330
1
100
AcDbSymbolTableRecord
100
AcDbBlockTableRecord
  2
_D_7
340
0
  0
BLOCK_RECORD
  5
321
330
1
100
AcDbSymbolTableRecord
100
AcDbBlockTableRecord
  2
_D_8
340
0
  0
BLOCK_RECORD
  5
334
330
1
100
AcDbSymbolTableRecord
100
AcDbBlockTableRecord
  2
_D_9
340
0
  0
BLOCK_RECORD
  5
347
330
1
100
AcDbSymbolTableRecord
100
AcDbBlockTableRecord
  2
_D_10
340
0
  0
BLOCK_RECORD
  5
35B
330
1
100
AcDbSymbolTableRecord
100
AcDbBlockTableRecord
  2
_D_11
340
0
  0
BLOCK_RECORD
  5
368
330
1
100
AcDbSymbolTableRecord
100
AcDbBlockTableRecord
  2
_D_12
340
0
  0
BLOCK_RECORD
  5
373
330
1
100
AcDbSymbolTableRecord
100
AcDbBlockTableRecord
  2
_D_13
340
0
  0
BLOCK_RECORD
  5
37E
330
1
100
AcDbSymbolTableRecord
100
AcDbBlockTableRecord
  2
_D_14
340
0
  0
ENDTAB
  0
ENDSEC
  0
SECTION
  2
BLOCKS
  0
BLOCK
  5
20
330
1F
100
AcDbEntity
  8
0
100
AcDbBlockBegin
  2
*Model_Space
 70
     0
 10
0.0
 20
0.0
 30
0.0
  3
*Model_Space
  1

  0
ENDBLK
  5
21
330
1F
100
AcDbEntity
  8
0
100
AcDbBlockEnd
  0
BLOCK
  5
1C
330
1B
100
AcDbEntity
 67
     1
  8
0
100
AcDbBlockBegin
  2
*Paper_Space
 70
     0
 10
0.0
 20
0.0
 30
0.0
  3
*Paper_Space
  1

  0
ENDBLK
  5
1D
330
1B
100
AcDbEntity
 67
     1
  8
0
100
AcDbBlockEnd
  0
BLOCK
  5
24
330
23
100
AcDbEntity
  8
0
100
AcDbBlockBegin
  2
*Paper_Space0
 70
     0
 10
0.0
 20
0.0
 30
0.0
  3
*Paper_Space0
  1

  0
ENDBLK
  5
25
330
23
100
AcDbEntity
  8
0
100
AcDbBlockEnd
  0
BLOCK
  5
28C
330
28B
100
AcDbEntity
  8
0
100
AcDbBlockBegin
  2
_D
 70
     0
 10
0.0
 20
0.0
 30
0.0
  3
_D
  1

  0
SOLID
  5
28E
330
28B
100
AcDbEntity
  8
2
100
AcDbTrace
 10
203.1999975443
 20
82.7147931916
 30
0.0
 11
199.8979975443
 21
83.2227931916
 31
0.0
 12
199.8979975443
 22
82.2067931916
 32
0.0
 13
199.8979975443
 23
82.2067931916
 33
0.0
  0
SOLID
  5
28F
330
28B
100
AcDbEntity
  8
2
100
AcDbTrace
 10
0.0
 20
82.7147931916
 30
0.0
 11
3.302
 21
82.2067931916
 31
0.0
 12
3.302
 22
83.2227931916
 32
0.0
 13
3.302
 23
83.2227931916
 33
0.0
  0
LINE
  5
290
330
28B
100
AcDbEntity
  8
2
100
AcDbLine
 10
69.0507933498
 20
93.5076749077
 30
0.0
 11
67.9843870923
 21
93.5076749077
 31
0.0
  0
LINE
  5
291
330
28B
100
AcDbEntity
  8
2
100
AcDbLine
 10
67.9843870923
 20
93.5076749077
 30
0.0
 11
67.9843870923
 21
87.9514249166
 31
0.0
  0
LINE
  5
292
330
28B
100
AcDbEntity
  8
2
100
AcDbLine
 10
67.9843870923
 20
87.9514249166
 30
0.0
 11
69.0507933498
 21
87.9514249166
 31
0.0
  0
LINE
  5
293
330
28B
100
AcDbEntity
  8
2
100
AcDbLine
 10
78.1021824107
 20
93.5076749077
 30
0.0
 11
79.1685886682
 21
93.5076749077
 31
0.0
  0
LINE
  5
294
330
28B
100
AcDbEntity
  8
2
100
AcDbLine
 10
79.1685886682
 20
93.5076749077
 30
0.0
 11
79.1685886682
 21
87.9514249166
 31
0.0
  0
LINE
  5
295
330
28B
100
AcDbEntity
  8
2
100
AcDbLine
 10
79.1685886682
 20
87.9514249166
 30
0.0
 11
78.1021824107
 21
87.9514249166
 31
0.0
  0
LINE
  5
296
330
28B
100
AcDbEntity
  8
2
100
AcDbLine
 10
203.1999975443
 20
14.5660255328
 30
0.0
 11
203.1999975443
 21
83.7147931916
 31
0.0
  0
LINE
  5
297
330
28B
100
AcDbEntity
  8
2
100
AcDbLine
 10
0.0
 20
35.9249988794
 30
0.0
 11
0.0
 21
83.7147931916
 31
0.0
  0
LINE
  5
298
330
28B
100
AcDbEntity
  8
2
100
AcDbLine
 10
203.1999975443
 20
82.7147931916
 30
0.0
 11
0.0
 21
82.7147931916
 31
0.0
  0
MTEXT
  5
299
330
28B
100
AcDbEntity
  8
2
100
AcDbMText
 10
66.9374252381
 20
87.2800024575
 30
0.0
 40
3.5
 41
0.0
 71
     1
 72
     1
  1

  7
SLDTEXTSTYLE0
 73
     1
 44
1.0
  0
MTEXT
  5
29A
330
28B
100
AcDbEntity
  8
2
100
AcDbMText
 10
69.0507933498
 20
92.4631618312
 30
0.0
 40
3.5
 41
0.0
 71
     1
 72
     1
  1
8,00
  7
SLDTEXTSTYLE0
 73
     1
 44
1.0
  0
MTEXT
  5
29B
330
28B
100
AcDbEntity
  8
2
100
AcDbMText
 10
67.7577376366
 20
87.2265302808
 30
0.0
 40
3.5
 41
0.0
 71
     1
 72
     1
  1
203,2
  7
SLDTEXTSTYLE0
 73
     1
 44
1.0
  0
MTEXT
  5
29C
330
28B
100
AcDbEntity
  8
2
100
AcDbMText
 10
81.547495042
 20
87.2800024575
 30
0.0
 40
3.5
 41
0.0
 71
     1
 72
     1
  1

  7
SLDTEXTSTYLE0
 73
     1
 44
1.0
  0
ENDBLK
  5
28D
330
28B
100
AcDbEntity
  8
0
100
AcDbBlockEnd
  0
BLOCK
  5
29F
330
29E
100
AcDbEntity
  8
0
100
AcDbBlockBegin
  2
_D_1
 70
     0
 10
0.0
 20
0.0
 30
0.0
  3
_D_1
  1

  0
SOLID
  5
2A1
330
29E
100
AcDbEntity
  8
SK2
100
AcDbTrace
 10
19.05
 20
70.2724045703
 30
0.0
 11
22.352
 21
69.7644045703
 31
0.0
 12
22.352
 22
70.7804045703
 32
0.0
 13
22.352
 23
70.7804045703
 33
0.0
  0
SOLID
  5
2A2
330
29E
100
AcDbEntity
  8
SK2
100
AcDbTrace
 10
203.1999975443
 20
70.2724045703
 30
0.0
 11
199.8979975443
 21
70.7804045703
 31
0.0
 12
199.8979975443
 22
69.7644045703
 32
0.0
 13
199.8979975443
 23
69.7644045703
 33
0.0
  0
LINE
  5
2A3
330
29E
100
AcDbEntity
  8
SK2
100
AcDbLine
 10
85.7859969278
 20
81.0652862863
 30
0.0
 11
84.7195906703
 21
81.0652862863
 31
0.0
  0
LINE
  5
2A4
330
29E
100
AcDbEntity
  8
SK2
100
AcDbLine
 10
84.7195906703
 20
81.0652862863
 30
0.0
 11
84.7195906703
 21
75.5090362953
 31
0.0
  0
LINE
  5
2A5
330
29E
100
AcDbEntity
  8
SK2
100
AcDbLine
 10
84.7195906703
 20
75.5090362953
 30
0.0
 11
85.7859969278
 21
75.5090362953
 31
0.0
  0
LINE
  5
2A6
330
29E
100
AcDbEntity
  8
SK2
100
AcDbLine
 10
94.8373859887
 20
81.0652862863
 30
0.0
 11
95.9037922461
 21
81.0652862863
 31
0.0
  0
LINE
  5
2A7
330
29E
100
AcDbEntity
  8
SK2
100
AcDbLine
 10
95.9037922461
 20
81.0652862863
 30
0.0
 11
95.9037922461
 21
75.5090362953
 31
0.0
  0
LINE
  5
2A8
330
29E
100
AcDbEntity
  8
SK2
100
AcDbLine
 10
95.9037922461
 20
75.5090362953
 30
0.0
 11
94.8373859887
 21
75.5090362953
 31
0.0
  0
LINE
  5
2A9
330
29E
100
AcDbEntity
  8
SK2
100
AcDbLine
 10
19.05
 20
47.5560855313
 30
0.0
 11
19.05
 21
71.2724045703
 31
0.0
  0
LINE
  5
2AA
330
29E
100
AcDbEntity
  8
SK2
100
AcDbLine
 10
203.1999975443
 20
18.7800003439
 30
0.0
 11
203.1999975443
 21
71.2724045703
 31
0.0
  0
LINE
  5
2AB
330
29E
100
AcDbEntity
  8
SK2
100
AcDbLine
 10
19.05
 20
70.2724045703
 30
0.0
 11
203.1999975443
 21
70.2724045703
 31
0.0
  0
MTEXT
  5
2AC
330
29E
100
AcDbEntity
  8
SK2
100
AcDbMText
 10
83.2193299046
 20
74.8376138362
 30
0.0
 40
3.5
 41
0.0
 71
     1
 72
     1
  1

  7
SLDTEXTSTYLE0
 73
     1
 44
1.0
  0
MTEXT
  5
2AD
330
29E
100
AcDbEntity
  8
SK2
100
AcDbMText
 10
85.7859969278
 20
80.0207732099
 30
0.0
 40
3.5
 41
0.0
 71
     1
 72
     1
  1
7,25
  7
SLDTEXTSTYLE0
 73
     1
 44
1.0
  0
MTEXT
  5
2AE
330
29E
100
AcDbEntity
  8
SK2
100
AcDbMText
 10
83.1998855014
 20
74.7841416595
 30
0.0
 40
3.5
 41
0.0
 71
     1
 72
     1
  1
184,15
  7
SLDTEXTSTYLE0
 73
     1
 44
1.0
  0
MTEXT
  5
2AF
330
29E
100
AcDbEntity
  8
SK2
100
AcDbMText
 10
98.7359975314
 20
74.8376138362
 30
0.0
 40
3.5
 41
0.0
 71
     1
 72
     1
  1

  7
SLDTEXTSTYLE0
 73
     1
 44
1.0
  0
ENDBLK
  5
2A0
330
29E
100
AcDbEntity
  8
0
100
AcDbBlockEnd
  0
BLOCK
  5
2B2
330
2B1
100
AcDbEntity
  8
0
100
AcDbBlockBegin
  2
_D_2
 70
     0
 10
0.0
 20
0.0
 30
0.0
  3
_D_2
  1

  0
SOLID
  5
2B4
330
2B1
100
AcDbEntity
  8
SK2
100
AcDbTrace
 10
35.1000012815
 20
57.8274896348
 30
0.0
 11
38.4020012815
 21
57.3194896348
 31
0.0
 12
38.4020012815
 22
58.3354896348
 32
0.0
 13
38.4020012815
 23
58.3354896348
 33
0.0
  0
SOLID
  5
2B5
330
2B1
100
AcDbEntity
  8
SK2
100
AcDbTrace
 10
203.1999975443
 20
57.8274896348
 30
0.0
 11
199.8979975443
 21
58.3354896348
 31
0.0
 12
199.8979975443
 22
57.3194896348
 32
0.0
 13
199.8979975443
 23
57.3194896348
 33
0.0
  0
LINE
  5
2B6
330
2B1
100
AcDbEntity
  8
SK2
100
AcDbLine
 10
103.7748638242
 20
68.6203713508
 30
0.0
 11
102.7084575667
 21
68.6203713508
 31
0.0
  0
LINE
  5
2B7
330
2B1
100
AcDbEntity
  8
SK2
100
AcDbLine
 10
102.7084575667
 20
68.6203713508
 30
0.0
 11
102.7084575667
 21
63.0641213598
 31
0.0
  0
LINE
  5
2B8
330
2B1
100
AcDbEntity
  8
SK2
100
AcDbLine
 10
102.7084575667
 20
63.0641213598
 30
0.0
 11
103.7748638242
 21
63.0641213598
 31
0.0
  0
LINE
  5
2B9
330
2B1
100
AcDbEntity
  8
SK2
100
AcDbLine
 10
112.8262528851
 20
68.6203713508
 30
0.0
 11
113.8926591425
 21
68.6203713508
 31
0.0
  0
LINE
  5
2BA
330
2B1
100
AcDbEntity
  8
SK2
100
AcDbLine
 10
113.8926591425
 20
68.6203713508
 30
0.0
 11
113.8926591425
 21
63.0641213598
 31
0.0
  0
LINE
  5
2BB
330
2B1
100
AcDbEntity
  8
SK2
100
AcDbLine
 10
113.8926591425
 20
63.0641213598
 30
0.0
 11
112.8262528851
 21
63.0641213598
 31
0.0
  0
LINE
  5
2BC
330
2B1
100
AcDbEntity
  8
SK2
100
AcDbLine
 10
35.1000012815
 20
34.4010005603
 30
0.0
 11
35.1000012815
 21
58.8274896348
 31
0.0
  0
LINE
  5
2BD
330
2B1
100
AcDbEntity
  8
SK2
100
AcDbLine
 10
203.1999975443
 20
18.7800003439
 30
0.0
 11
203.1999975443
 21
58.8274896348
 31
0.0
  0
LINE
  5
2BE
330
2B1
100
AcDbEntity
  8
SK2
100
AcDbLine
 10
35.1000012815
 20
57.8274896348
 30
0.0
 11
203.1999975443
 21
57.8274896348
 31
0.0
  0
MTEXT
  5
2BF
330
2B1
100
AcDbEntity
  8
SK2
100
AcDbMText
 10
101.6614957125
 20
62.3926989007
 30
0.0
 40
3.5
 41
0.0
 71
     1
 72
     1
  1

  7
SLDTEXTSTYLE0
 73
     1
 44
1.0
  0
MTEXT
  5
2C0
330
2B1
100
AcDbEntity
  8
SK2
100
AcDbMText
 10
103.7748638242
 20
67.5758582744
 30
0.0
 40
3.5
 41
0.0
 71
     1
 72
     1
  1
6,62
  7
SLDTEXTSTYLE0
 73
     1
 44
1.0
  0
MTEXT
  5
2C1
330
2B1
100
AcDbEntity
  8
SK2
100
AcDbMText
 10
102.481808111
 20
62.339226724
 30
0.0
 40
3.5
 41
0.0
 71
     1
 72
     1
  1
168,1
  7
SLDTEXTSTYLE0
 73
     1
 44
1.0
  0
MTEXT
  5
2C2
330
2B1
100
AcDbEntity
  8
SK2
100
AcDbMText
 10
116.2715655164
 20
62.3926989007
 30
0.0
 40
3.5
 41
0.0
 71
     1
 72
     1
  1

  7
SLDTEXTSTYLE0
 73
     1
 44
1.0
  0
ENDBLK
  5
2B3
330
2B1
100
AcDbEntity
  8
0
100
AcDbBlockEnd
  0
BLOCK
  5
2C5
330
2C4
100
AcDbEntity
  8
0
100
AcDbBlockBegin
  2
_D_3
 70
     0
 10
0.0
 20
0.0
 30
0.0
  3
_D_3
  1

  0
SOLID
  5
2C7
330
2C4
100
AcDbEntity
  8
SK2
100
AcDbTrace
 10
203.1999975443
 20
45.3341885519
 30
0.0
 11
199.8979975443
 21
45.8421885519
 31
0.0
 12
199.8979975443
 22
44.8261885519
 32
0.0
 13
199.8979975443
 23
44.8261885519
 33
0.0
  0
SOLID
  5
2C8
330
2C4
100
AcDbEntity
  8
SK2
100
AcDbTrace
 10
88.8999998569
 20
45.3341885519
 30
0.0
 11
92.2019998569
 21
44.8261885519
 31
0.0
 12
92.2019998569
 22
45.8421885519
 32
0.0
 13
92.2019998569
 23
45.8421885519
 33
0.0
  0
LINE
  5
2C9
330
2C4
100
AcDbEntity
  8
SK2
100
AcDbLine
 10
135.3762998776
 20
56.1270702679
 30
0.0
 11
134.3098936202
 21
56.1270702679
 31
0.0
  0
LINE
  5
2CA
330
2C4
100
AcDbEntity
  8
SK2
100
AcDbLine
 10
134.3098936202
 20
56.1270702679
 30
0.0
 11
134.3098936202
 21
50.5708202769
 31
0.0
  0
LINE
  5
2CB
330
2C4
100
AcDbEntity
  8
SK2
100
AcDbLine
 10
134.3098936202
 20
50.5708202769
 30
0.0
 11
135.3762998776
 21
50.5708202769
 31
0.0
  0
LINE
  5
2CC
330
2C4
100
AcDbEntity
  8
SK2
100
AcDbLine
 10
144.4276889385
 20
56.1270702679
 30
0.0
 11
145.494095196
 21
56.1270702679
 31
0.0
  0
LINE
  5
2CD
330
2C4
100
AcDbEntity
  8
SK2
100
AcDbLine
 10
145.494095196
 20
56.1270702679
 30
0.0
 11
145.494095196
 21
50.5708202769
 31
0.0
  0
LINE
  5
2CE
330
2C4
100
AcDbEntity
  8
SK2
100
AcDbLine
 10
145.494095196
 20
50.5708202769
 30
0.0
 11
144.4276889385
 21
50.5708202769
 31
0.0
  0
LINE
  5
2CF
330
2C4
100
AcDbEntity
  8
SK2
100
AcDbLine
 10
203.1999975443
 20
18.7800003439
 30
0.0
 11
203.1999975443
 21
46.3341885519
 31
0.0
  0
LINE
  5
2D0
330
2C4
100
AcDbEntity
  8
SK2
100
AcDbLine
 10
88.8999998569
 20
26.399999693
 30
0.0
 11
88.8999998569
 21
46.3341885519
 31
0.0
  0
LINE
  5
2D1
330
2C4
100
AcDbEntity
  8
SK2
100
AcDbLine
 10
203.1999975443
 20
45.3341885519
 30
0.0
 11
88.8999998569
 21
45.3341885519
 31
0.0
  0
MTEXT
  5
2D2
330
2C4
100
AcDbEntity
  8
SK2
100
AcDbMText
 10
133.262931766
 20
49.8993978177
 30
0.0
 40
3.5
 41
0.0
 71
     1
 72
     1
  1

  7
SLDTEXTSTYLE0
 73
     1
 44
1.0
  0
MTEXT
  5
2D3
330
2C4
100
AcDbEntity
  8
SK2
100
AcDbMText
 10
135.3762998776
 20
55.0825571914
 30
0.0
 40
3.5
 41
0.0
 71
     1
 72
     1
  1
4,50
  7
SLDTEXTSTYLE0
 73
     1
 44
1.0
  0
MTEXT
  5
2D4
330
2C4
100
AcDbEntity
  8
SK2
100
AcDbMText
 10
134.0832441645
 20
49.8459256411
 30
0.0
 40
3.5
 41
0.0
 71
     1
 72
     1
  1
114,3
  7
SLDTEXTSTYLE0
 73
     1
 44
1.0
  0
MTEXT
  5
2D5
330
2C4
100
AcDbEntity
  8
SK2
100
AcDbMText
 10
147.8730015699
 20
49.8993978177
 30
0.0
 40
3.5
 41
0.0
 71
     1
 72
     1
  1

  7
SLDTEXTSTYLE0
 73
     1
 44
1.0
  0
ENDBLK
  5
2C6
330
2C4
100
AcDbEntity
  8
0
100
AcDbBlockEnd
  0
BLOCK
  5
2D8
330
2D7
100
AcDbEntity
  8
0
100
AcDbBlockBegin
  2
_D_4
 70
     0
 10
0.0
 20
0.0
 30
0.0
  3
_D_4
  1

  0
SOLID
  5
2DA
330
2D7
100
AcDbEntity
  8
SK2
100
AcDbTrace
 10
174.625
 20
32.5067793173
 30
0.0
 11
177.927
 21
31.9987793173
 31
0.0
 12
177.927
 22
33.0147793173
 32
0.0
 13
177.927
 23
33.0147793173
 33
0.0
  0
SOLID
  5
2DB
330
2D7
100
AcDbEntity
  8
SK2
100
AcDbTrace
 10
203.1999975443
 20
32.5067793173
 30
0.0
 11
199.8979975443
 21
33.0147793173
 31
0.0
 12
199.8979975443
 22
31.9987793173
 32
0.0
 13
199.8979975443
 23
31.9987793173
 33
0.0
  0
LINE
  5
2DC
330
2D7
100
AcDbEntity
  8
SK2
100
AcDbLine
 10
185.3475929275
 20
43.2996610333
 30
0.0
 11
184.28118667
 21
43.2996610333
 31
0.0
  0
LINE
  5
2DD
330
2D7
100
AcDbEntity
  8
SK2
100
AcDbLine
 10
184.28118667
 20
43.2996610333
 30
0.0
 11
184.28118667
 21
37.7434110423
 31
0.0
  0
LINE
  5
2DE
330
2D7
100
AcDbEntity
  8
SK2
100
AcDbLine
 10
184.28118667
 20
37.7434110423
 30
0.0
 11
185.3475929275
 21
37.7434110423
 31
0.0
  0
LINE
  5
2DF
330
2D7
100
AcDbEntity
  8
SK2
100
AcDbLine
 10
194.3989819884
 20
43.2996610333
 30
0.0
 11
195.4653882458
 21
43.2996610333
 31
0.0
  0
LINE
  5
2E0
330
2D7
100
AcDbEntity
  8
SK2
100
AcDbLine
 10
195.4653882458
 20
43.2996610333
 30
0.0
 11
195.4653882458
 21
37.7434110423
 31
0.0
  0
LINE
  5
2E1
330
2D7
100
AcDbEntity
  8
SK2
100
AcDbLine
 10
195.4653882458
 20
37.7434110423
 30
0.0
 11
194.3989819884
 21
37.7434110423
 31
0.0
  0
LINE
  5
2E2
330
2D7
100
AcDbEntity
  8
SK2
100
AcDbLine
 10
174.625
 20
26.3
 30
0.0
 11
174.625
 21
33.5067793173
 31
0.0
  0
LINE
  5
2E3
330
2D7
100
AcDbEntity
  8
SK2
100
AcDbLine
 10
203.1999975443
 20
18.7800003439
 30
0.0
 11
203.1999975443
 21
33.5067793173
 31
0.0
  0
LINE
  5
2E4
330
2D7
100
AcDbEntity
  8
SK2
100
AcDbLine
 10
174.625
 20
32.5067793173
 30
0.0
 11
203.1999975443
 21
32.5067793173
 31
0.0
  0
MTEXT
  5
2E5
330
2D7
100
AcDbEntity
  8
SK2
100
AcDbMText
 10
183.2342248158
 20
37.0719885831
 30
0.0
 40
3.5
 41
0.0
 71
     1
 72
     1
  1

  7
SLDTEXTSTYLE0
 73
     1
 44
1.0
  0
MTEXT
  5
2E6
330
2D7
100
AcDbEntity
  8
SK2
100
AcDbMText
 10
185.3475929275
 20
42.2551479568
 30
0.0
 40
3.5
 41
0.0
 71
     1
 72
     1
  1
1,12
  7
SLDTEXTSTYLE0
 73
     1
 44
1.0
  0
MTEXT
  5
2E7
330
2D7
100
AcDbEntity
  8
SK2
100
AcDbMText
 10
184.0545372143
 20
37.0185164065
 30
0.0
 40
3.5
 41
0.0
 71
     1
 72
     1
  1
28,57
  7
SLDTEXTSTYLE0
 73
     1
 44
1.0
  0
MTEXT
  5
2E8
330
2D7
100
AcDbEntity
  8
SK2
100
AcDbMText
 10
197.8442946197
 20
37.0719885831
 30
0.0
 40
3.5
 41
0.0
 71
     1
 72
     1
  1

  7
SLDTEXTSTYLE0
 73
     1
 44
1.0
  0
ENDBLK
  5
2D9
330
2D7
100
AcDbEntity
  8
0
100
AcDbBlockEnd
  0
BLOCK
  5
2EB
330
2EA
100
AcDbEntity
  8
0
100
AcDbBlockBegin
  2
_D_5
 70
     0
 10
0.0
 20
0.0
 30
0.0
  3
_D_5
  1

  0
SOLID
  5
2ED
330
2EA
100
AcDbEntity
  8
SK2
100
AcDbTrace
 10
149.225
 20
32.5067793173
 30
0.0
 11
152.527
 21
31.9987793173
 31
0.0
 12
152.527
 22
33.0147793173
 32
0.0
 13
152.527
 23
33.0147793173
 33
0.0
  0
SOLID
  5
2EE
330
2EA
100
AcDbEntity
  8
SK2
100
AcDbTrace
 10
174.625
 20
32.5067793173
 30
0.0
 11
171.323
 21
33.0147793173
 31
0.0
 12
171.323
 22
31.9987793173
 32
0.0
 13
171.323
 23
31.9987793173
 33
0.0
  0
LINE
  5
2EF
330
2EA
100
AcDbEntity
  8
SK2
100
AcDbLine
 10
155.9907930314
 20
43.2996610333
 30
0.0
 11
154.9243867739
 21
43.2996610333
 31
0.0
  0
LINE
  5
2F0
330
2EA
100
AcDbEntity
  8
SK2
100
AcDbLine
 10
154.9243867739
 20
43.2996610333
 30
0.0
 11
154.9243867739
 21
37.7434110423
 31
0.0
  0
LINE
  5
2F1
330
2EA
100
AcDbEntity
  8
SK2
100
AcDbLine
 10
154.9243867739
 20
37.7434110423
 30
0.0
 11
155.9907930314
 21
37.7434110423
 31
0.0
  0
LINE
  5
2F2
330
2EA
100
AcDbEntity
  8
SK2
100
AcDbLine
 10
165.0421820923
 20
43.2996610333
 30
0.0
 11
166.1085883497
 21
43.2996610333
 31
0.0
  0
LINE
  5
2F3
330
2EA
100
AcDbEntity
  8
SK2
100
AcDbLine
 10
166.1085883497
 20
43.2996610333
 30
0.0
 11
166.1085883497
 21
37.7434110423
 31
0.0
  0
LINE
  5
2F4
330
2EA
100
AcDbEntity
  8
SK2
100
AcDbLine
 10
166.1085883497
 20
37.7434110423
 30
0.0
 11
165.0421820923
 21
37.7434110423
 31
0.0
  0
LINE
  5
2F5
330
2EA
100
AcDbEntity
  8
SK2
100
AcDbLine
 10
149.225
 20
26.3
 30
0.0
 11
149.225
 21
33.5067793173
 31
0.0
  0
LINE
  5
2F6
330
2EA
100
AcDbEntity
  8
SK2
100
AcDbLine
 10
174.625
 20
26.3
 30
0.0
 11
174.625
 21
33.5067793173
 31
0.0
  0
LINE
  5
2F7
330
2EA
100
AcDbEntity
  8
SK2
100
AcDbLine
 10
149.225
 20
32.5067793173
 30
0.0
 11
174.625
 21
32.5067793173
 31
0.0
  0
MTEXT
  5
2F8
330
2EA
100
AcDbEntity
  8
SK2
100
AcDbMText
 10
153.8774249197
 20
37.0719885831
 30
0.0
 40
3.5
 41
0.0
 71
     1
 72
     1
  1

  7
SLDTEXTSTYLE0
 73
     1
 44
1.0
  0
MTEXT
  5
2F9
330
2EA
100
AcDbEntity
  8
SK2
100
AcDbMText
 10
155.9907930314
 20
42.2551479568
 30
0.0
 40
3.5
 41
0.0
 71
     1
 72
     1
  1
1,00
  7
SLDTEXTSTYLE0
 73
     1
 44
1.0
  0
MTEXT
  5
2FA
330
2EA
100
AcDbEntity
  8
SK2
100
AcDbMText
 10
155.9907930314
 20
37.0185164065
 30
0.0
 40
3.5
 41
0.0
 71
     1
 72
     1
  1
25,4
  7
SLDTEXTSTYLE0
 73
     1
 44
1.0
  0
MTEXT
  5
2FB
330
2EA
100
AcDbEntity
  8
SK2
100
AcDbMText
 10
168.4874947236
 20
37.0719885831
 30
0.0
 40
3.5
 41
0.0
 71
     1
 72
     1
  1

  7
SLDTEXTSTYLE0
 73
     1
 44
1.0
  0
ENDBLK
  5
2EC
330
2EA
100
AcDbEntity
  8
0
100
AcDbBlockEnd
  0
BLOCK
  5
2FE
330
2FD
100
AcDbEntity
  8
0
100
AcDbBlockBegin
  2
_D_6
 70
     0
 10
0.0
 20
0.0
 30
0.0
  3
_D_6
  1

  0
SOLID
  5
300
330
2FD
100
AcDbEntity
  8
SK2
100
AcDbTrace
 10
220.5348126128
 20
12.6999998465
 30
0.0
 11
220.0268126128
 21
9.3979998465
 31
0.0
 12
221.0428126128
 22
9.3979998465
 32
0.0
 13
221.0428126128
 23
9.3979998465
 33
0.0
  0
SOLID
  5
301
330
2FD
100
AcDbEntity
  8
SK2
100
AcDbTrace
 10
220.5348126128
 20
-12.6999998465
 30
0.0
 11
221.0428126128
 21
-9.3979998465
 31
0.0
 12
220.0268126128
 22
-9.3979998465
 32
0.0
 13
220.0268126128
 23
-9.3979998465
 33
0.0
  0
LINE
  5
302
330
2FD
100
AcDbEntity
  8
SK2
100
AcDbLine
 10
209.7419308968
 20
-4.1107954218
 30
0.0
 11
209.7419308968
 21
-5.1772016793
 31
0.0
  0
LINE
  5
303
330
2FD
100
AcDbEntity
  8
SK2
100
AcDbLine
 10
209.7419308968
 20
-5.1772016793
 30
0.0
 11
215.2981808878
 21
-5.1772016793
 31
0.0
  0
LINE
  5
304
330
2FD
100
AcDbEntity
  8
SK2
100
AcDbLine
 10
215.2981808878
 20
-5.1772016793
 30
0.0
 11
215.2981808878
 21
-4.1107954218
 31
0.0
  0
LINE
  5
305
330
2FD
100
AcDbEntity
  8
SK2
100
AcDbLine
 10
209.7419308968
 20
4.9405936391
 30
0.0
 11
209.7419308968
 21
6.0069998965
 31
0.0
  0
LINE
  5
306
330
2FD
100
AcDbEntity
  8
SK2
100
AcDbLine
 10
209.7419308968
 20
6.0069998965
 30
0.0
 11
215.2981808878
 21
6.0069998965
 31
0.0
  0
LINE
  5
307
330
2FD
100
AcDbEntity
  8
SK2
100
AcDbLine
 10
215.2981808878
 20
6.0069998965
 30
0.0
 11
215.2981808878
 21
4.9405936391
 31
0.0
  0
LINE
  5
308
330
2FD
100
AcDbEntity
  8
SK2
100
AcDbLine
 10
202.700001955
 20
12.6999998465
 30
0.0
 11
221.5348126128
 21
12.6999998465
 31
0.0
  0
LINE
  5
309
330
2FD
100
AcDbEntity
  8
SK2
100
AcDbLine
 10
202.700001955
 20
-12.6999998465
 30
0.0
 11
221.5348126128
 21
-12.6999998465
 31
0.0
  0
LINE
  5
30A
330
2FD
100
AcDbEntity
  8
SK2
100
AcDbLine
 10
220.5348126128
 20
12.6999998465
 30
0.0
 11
220.5348126128
 21
-12.6999998465
 31
0.0
  0
MTEXT
  5
30B
330
2FD
100
AcDbEntity
  8
SK2
100
AcDbMText
 10
210.7864439733
 20
-4.1107954218
 30
0.0
 40
3.5
 41
0.0
 71
     1
 72
     1
  1
1,00
  7
SLDTEXTSTYLE0
 11
-7.044195017643634E-15
 21
1.0
 31
0.0
 73
     1
 44
1.0
  0
MTEXT
  5
30C
330
2FD
100
AcDbEntity
  8
SK2
100
AcDbMText
 10
216.0230755236
 20
-6.7500145867
 30
0.0
 40
3.5
 41
0.0
 71
     1
 72
     1
  1
%%c
  7
SLDTEXTSTYLE0
 11
-7.044195017643634E-15
 21
1.0
 31
0.0
 73
     1
 44
1.0
  0
MTEXT
  5
30D
330
2FD
100
AcDbEntity
  8
SK2
100
AcDbMText
 10
216.0230755236
 20
-1.4715771883
 30
0.0
 40
3.5
 41
0.0
 71
     1
 72
     1
  1
25,4
  7
SLDTEXTSTYLE0
 11
-7.044195017643634E-15
 21
1.0
 31
0.0
 73
     1
 44
1.0
  0
ENDBLK
  5
2FF
330
2FD
100
AcDbEntity
  8
0
100
AcDbBlockEnd
  0
BLOCK
  5
310
330
30F
100
AcDbEntity
  8
0
100
AcDbBlockBegin
  2
_D_7
 70
     0
 10
0.0
 20
0.0
 30
0.0
  3
_D_7
  1

  0
SOLID
  5
312
330
30F
100
AcDbEntity
  8
SK2
100
AcDbTrace
 10
234.7091172609
 20
17.7800003439
 30
0.0
 11
234.2011172609
 21
14.4780003439
 31
0.0
 12
235.2171172609
 22
14.4780003439
 32
0.0
 13
235.2171172609
 23
14.4780003439
 33
0.0
  0
SOLID
  5
313
330
30F
100
AcDbEntity
  8
SK2
100
AcDbTrace
 10
234.7091172609
 20
-17.7800003439
 30
0.0
 11
235.2171172609
 21
-14.4780003439
 31
0.0
 12
234.2011172609
 22
-14.4780003439
 32
0.0
 13
234.2011172609
 23
-14.4780003439
 33
0.0
  0
LINE
  5
314
330
30F
100
AcDbEntity
  8
SK2
100
AcDbLine
 10
223.9162355448
 20
-4.1107954218
 30
0.0
 11
223.9162355448
 21
-5.1772016793
 31
0.0
  0
LINE
  5
315
330
30F
100
AcDbEntity
  8
SK2
100
AcDbLine
 10
223.9162355448
 20
-5.1772016793
 30
0.0
 11
229.4724855359
 21
-5.1772016793
 31
0.0
  0
LINE
  5
316
330
30F
100
AcDbEntity
  8
SK2
100
AcDbLine
 10
229.4724855359
 20
-5.1772016793
 30
0.0
 11
229.4724855359
 21
-4.1107954218
 31
0.0
  0
LINE
  5
317
330
30F
100
AcDbEntity
  8
SK2
100
AcDbLine
 10
223.9162355448
 20
4.9405936391
 30
0.0
 11
223.9162355448
 21
6.0069998965
 31
0.0
  0
LINE
  5
318
330
30F
100
AcDbEntity
  8
SK2
100
AcDbLine
 10
223.9162355448
 20
6.0069998965
 30
0.0
 11
229.4724855359
 21
6.0069998965
 31
0.0
  0
LINE
  5
319
330
30F
100
AcDbEntity
  8
SK2
100
AcDbLine
 10
229.4724855359
 20
6.0069998965
 30
0.0
 11
229.4724855359
 21
4.9405936391
 31
0.0
  0
LINE
  5
31A
330
30F
100
AcDbEntity
  8
SK2
100
AcDbLine
 10
204.1999975443
 20
17.7800003439
 30
0.0
 11
235.7091172609
 21
17.7800003439
 31
0.0
  0
LINE
  5
31B
330
30F
100
AcDbEntity
  8
SK2
100
AcDbLine
 10
204.1999975443
 20
-17.7800003439
 30
0.0
 11
235.7091172609
 21
-17.7800003439
 31
0.0
  0
LINE
  5
31C
330
30F
100
AcDbEntity
  8
SK2
100
AcDbLine
 10
234.7091172609
 20
17.7800003439
 30
0.0
 11
234.7091172609
 21
-17.7800003439
 31
0.0
  0
MTEXT
  5
31D
330
30F
100
AcDbEntity
  8
SK2
100
AcDbMText
 10
224.9607486213
 20
-4.1107954218
 30
0.0
 40
3.5
 41
0.0
 71
     1
 72
     1
  1
1,40
  7
SLDTEXTSTYLE0
 11
-7.044195017643634E-15
 21
1.0
 31
0.0
 73
     1
 44
1.0
  0
MTEXT
  5
31E
330
30F
100
AcDbEntity
  8
SK2
100
AcDbMText
 10
230.1973801717
 20
-8.0430698342
 30
0.0
 40
3.5
 41
0.0
 71
     1
 72
     1
  1
%%c
  7
SLDTEXTSTYLE0
 11
-7.044195017643634E-15
 21
1.0
 31
0.0
 73
     1
 44
1.0
  0
MTEXT
  5
31F
330
30F
100
AcDbEntity
  8
SK2
100
AcDbMText
 10
230.1973801717
 20
-2.7646324358
 30
0.0
 40
3.5
 41
0.0
 71
     1
 72
     1
  1
35,56
  7
SLDTEXTSTYLE0
 11
-7.044195017643634E-15
 21
1.0
 31
0.0
 73
     1
 44
1.0
  0
ENDBLK
  5
311
330
30F
100
AcDbEntity
  8
0
100
AcDbBlockEnd
  0
BLOCK
  5
322
330
321
100
AcDbEntity
  8
0
100
AcDbBlockBegin
  2
_D_8
 70
     0
 10
0.0
 20
0.0
 30
0.0
  3
_D_8
  1

  0
SOLID
  5
324
330
321
100
AcDbEntity
  8
SK2
100
AcDbTrace
 10
251.0640841624
 20
25.399999693
 30
0.0
 11
250.5560841624
 21
22.097999693
 31
0.0
 12
251.5720841624
 22
22.097999693
 32
0.0
 13
251.5720841624
 23
22.097999693
 33
0.0
  0
SOLID
  5
325
330
321
100
AcDbEntity
  8
SK2
100
AcDbTrace
 10
251.0640841624
 20
-25.399999693
 30
0.0
 11
251.5720841624
 21
-22.097999693
 31
0.0
 12
250.5560841624
 22
-22.097999693
 32
0.0
 13
250.5560841624
 23
-22.097999693
 33
0.0
  0
LINE
  5
326
330
321
100
AcDbEntity
  8
SK2
100
AcDbLine
 10
240.2712024464
 20
-4.1107954218
 30
0.0
 11
240.2712024464
 21
-5.1772016793
 31
0.0
  0
LINE
  5
327
330
321
100
AcDbEntity
  8
SK2
100
AcDbLine
 10
240.2712024464
 20
-5.1772016793
 30
0.0
 11
245.8274524375
 21
-5.1772016793
 31
0.0
  0
LINE
  5
328
330
321
100
AcDbEntity
  8
SK2
100
AcDbLine
 10
245.8274524375
 20
-5.1772016793
 30
0.0
 11
245.8274524375
 21
-4.1107954218
 31
0.0
  0
LINE
  5
329
330
321
100
AcDbEntity
  8
SK2
100
AcDbLine
 10
240.2712024464
 20
4.9405936391
 30
0.0
 11
240.2712024464
 21
6.0069998965
 31
0.0
  0
LINE
  5
32A
330
321
100
AcDbEntity
  8
SK2
100
AcDbLine
 10
240.2712024464
 20
6.0069998965
 30
0.0
 11
245.8274524375
 21
6.0069998965
 31
0.0
  0
LINE
  5
32B
330
321
100
AcDbEntity
  8
SK2
100
AcDbLine
 10
245.8274524375
 20
6.0069998965
 30
0.0
 11
245.8274524375
 21
4.9405936391
 31
0.0
  0
LINE
  5
32C
330
321
100
AcDbEntity
  8
SK2
100
AcDbLine
 10
196.5800056458
 20
25.399999693
 30
0.0
 11
252.0640841624
 21
25.399999693
 31
0.0
  0
LINE
  5
32D
330
321
100
AcDbEntity
  8
SK2
100
AcDbLine
 10
196.5800056458
 20
-25.399999693
 30
0.0
 11
252.0640841624
 21
-25.399999693
 31
0.0
  0
LINE
  5
32E
330
321
100
AcDbEntity
  8
SK2
100
AcDbLine
 10
251.0640841624
 20
25.399999693
 30
0.0
 11
251.0640841624
 21
-25.399999693
 31
0.0
  0
MTEXT
  5
32F
330
321
100
AcDbEntity
  8
SK2
100
AcDbMText
 10
241.3157155229
 20
-4.1107954218
 30
0.0
 40
3.5
 41
0.0
 71
     1
 72
     1
  1
2,00
  7
SLDTEXTSTYLE0
 11
-7.044195017643634E-15
 21
1.0
 31
0.0
 73
     1
 44
1.0
  0
MTEXT
  5
330
330
321
100
AcDbEntity
  8
SK2
100
AcDbMText
 10
246.5523470732
 20
-6.7500145867
 30
0.0
 40
3.5
 41
0.0
 71
     1
 72
     1
  1
%%c
  7
SLDTEXTSTYLE0
 11
-7.044195017643634E-15
 21
1.0
 31
0.0
 73
     1
 44
1.0
  0
MTEXT
  5
331
330
321
100
AcDbEntity
  8
SK2
100
AcDbMText
 10
246.5523470732
 20
-1.4715771883
 30
0.0
 40
3.5
 41
0.0
 71
     1
 72
     1
  1
50,8
  7
SLDTEXTSTYLE0
 11
-7.044195017643634E-15
 21
1.0
 31
0.0
 73
     1
 44
1.0
  0
ENDBLK
  5
323
330
321
100
AcDbEntity
  8
0
100
AcDbBlockEnd
  0
BLOCK
  5
335
330
334
100
AcDbEntity
  8
0
100
AcDbBlockBegin
  2
_D_9
 70
     0
 10
0.0
 20
0.0
 30
0.0
  3
_D_9
  1

  0
SOLID
  5
337
330
334
100
AcDbEntity
  8
SK2
100
AcDbTrace
 10
-101.6000003646
 20
-60.4130058866
 30
0.0
 11
-98.2980003646
 21
-60.9210058866
 31
0.0
 12
-98.2980003646
 22
-59.9050058866
 32
0.0
 13
-98.2980003646
 23
-59.9050058866
 33
0.0
  0
SOLID
  5
338
330
334
100
AcDbEntity
  8
SK2
100
AcDbTrace
 10
203.1999975443
 20
-60.4130058866
 30
0.0
 11
199.8979975443
 21
-59.9050058866
 31
0.0
 12
199.8979975443
 22
-60.9210058866
 32
0.0
 13
199.8979975443
 23
-60.9210058866
 33
0.0
  0
LINE
  5
339
330
334
100
AcDbEntity
  8
SK2
100
AcDbLine
 10
45.9757251081
 20
-49.6201241705
 30
0.0
 11
44.9093188507
 21
-49.6201241705
 31
0.0
  0
LINE
  5
33A
330
334
100
AcDbEntity
  8
SK2
100
AcDbLine
 10
44.9093188507
 20
-49.6201241705
 30
0.0
 11
44.9093188507
 21
-55.1763741616
 31
0.0
  0
LINE
  5
33B
330
334
100
AcDbEntity
  8
SK2
100
AcDbLine
 10
44.9093188507
 20
-55.1763741616
 30
0.0
 11
45.9757251081
 21
-55.1763741616
 31
0.0
  0
LINE
  5
33C
330
334
100
AcDbEntity
  8
SK2
100
AcDbLine
 10
57.6132255954
 20
-49.6201241705
 30
0.0
 11
58.6796318529
 21
-49.6201241705
 31
0.0
  0
LINE
  5
33D
330
334
100
AcDbEntity
  8
SK2
100
AcDbLine
 10
58.6796318529
 20
-49.6201241705
 30
0.0
 11
58.6796318529
 21
-55.1763741616
 31
0.0
  0
LINE
  5
33E
330
334
100
AcDbEntity
  8
SK2
100
AcDbLine
 10
58.6796318529
 20
-55.1763741616
 30
0.0
 11
57.6132255954
 21
-55.1763741616
 31
0.0
  0
LINE
  5
33F
330
334
100
AcDbEntity
  8
SK2
100
AcDbLine
 10
-101.6000003646
 20
-19.2922329752
 30
0.0
 11
-101.6000003646
 21
-61.4130058866
 31
0.0
  0
LINE
  5
340
330
334
100
AcDbEntity
  8
SK2
100
AcDbLine
 10
203.1999975443
 20
-18.7800003439
 30
0.0
 11
203.1999975443
 21
-61.4130058866
 31
0.0
  0
LINE
  5
341
330
334
100
AcDbEntity
  8
SK2
100
AcDbLine
 10
-101.6000003646
 20
-60.4130058866
 30
0.0
 11
203.1999975443
 21
-60.4130058866
 31
0.0
  0
MTEXT
  5
342
330
334
100
AcDbEntity
  8
SK2
100
AcDbMText
 10
43.8623569965
 20
-55.8477966207
 30
0.0
 40
3.5
 41
0.0
 71
     1
 72
     1
  1

  7
SLDTEXTSTYLE0
 73
     1
 44
1.0
  0
MTEXT
  5
343
330
334
100
AcDbEntity
  8
SK2
100
AcDbMText
 10
45.9757251081
 20
-50.664637247
 30
0.0
 40
3.5
 41
0.0
 71
     1
 72
     1
  1
12,00
  7
SLDTEXTSTYLE0
 73
     1
 44
1.0
  0
MTEXT
  5
344
330
334
100
AcDbEntity
  8
SK2
100
AcDbMText
 10
45.9757246425
 20
-55.9012687974
 30
0.0
 40
3.5
 41
0.0
 71
     1
 72
     1
  1
304,8
  7
SLDTEXTSTYLE0
 73
     1
 44
1.0
  0
MTEXT
  5
345
330
334
100
AcDbEntity
  8
SK2
100
AcDbMText
 10
61.0585372954
 20
-55.8477966207
 30
0.0
 40
3.5
 41
0.0
 71
     1
 72
     1
  1

  7
SLDTEXTSTYLE0
 73
     1
 44
1.0
  0
ENDBLK
  5
336
330
334
100
AcDbEntity
  8
0
100
AcDbBlockEnd
  0
BLOCK
  5
348
330
347
100
AcDbEntity
  8
0
100
AcDbBlockBegin
  2
_D_10
 70
     0
 10
0.0
 20
0.0
 30
0.0
  3
_D_10
  1

  0
SOLID
  5
34A
330
347
100
AcDbEntity
  8
SK2
100
AcDbTrace
 10
133.3499999002
 20
-49.114723305
 30
0.0
 11
136.6519999002
 21
-49.622723305
 31
0.0
 12
136.6519999002
 22
-48.606723305
 32
0.0
 13
136.6519999002
 23
-48.606723305
 33
0.0
  0
SOLID
  5
34B
330
347
100
AcDbEntity
  8
SK2
100
AcDbTrace
 10
203.1999975443
 20
-49.114723305
 30
0.0
 11
199.8979975443
 21
-48.606723305
 31
0.0
 12
199.8979975443
 22
-49.622723305
 32
0.0
 13
199.8979975443
 23
-49.622723305
 33
0.0
  0
LINE
  5
34C
330
347
100
AcDbEntity
  8
SK2
100
AcDbLine
 10
163.8612363083
 20
-38.321841589
 30
0.0
 11
162.7948300508
 21
-38.321841589
 31
0.0
  0
LINE
  5
34D
330
347
100
AcDbEntity
  8
SK2
100
AcDbLine
 10
162.7948300508
 20
-38.321841589
 30
0.0
 11
162.7948300508
 21
-43.87809158
 31
0.0
  0
LINE
  5
34E
330
347
100
AcDbEntity
  8
SK2
100
AcDbLine
 10
162.7948300508
 20
-43.87809158
 30
0.0
 11
163.8612363083
 21
-43.87809158
 31
0.0
  0
LINE
  5
34F
330
347
100
AcDbEntity
  8
SK2
100
AcDbLine
 10
172.9126253692
 20
-38.321841589
 30
0.0
 11
173.9790316267
 21
-38.321841589
 31
0.0
  0
LINE
  5
350
330
347
100
AcDbEntity
  8
SK2
100
AcDbLine
 10
173.9790316267
 20
-38.321841589
 30
0.0
 11
173.9790316267
 21
-43.87809158
 31
0.0
  0
LINE
  5
351
330
347
100
AcDbEntity
  8
SK2
100
AcDbLine
 10
173.9790316267
 20
-43.87809158
 30
0.0
 11
172.9126253692
 21
-43.87809158
 31
0.0
  0
LINE
  5
352
330
347
100
AcDbEntity
  8
SK2
100
AcDbLine
 10
133.3499999002
 20
-13.7250003845
 30
0.0
 11
133.3499999002
 21
-50.114723305
 31
0.0
  0
LINE
  5
353
330
347
100
AcDbEntity
  8
SK2
100
AcDbLine
 10
203.1999975443
 20
-18.7800003439
 30
0.0
 11
203.1999975443
 21
-50.114723305
 31
0.0
  0
LINE
  5
354
330
347
100
AcDbEntity
  8
SK2
100
AcDbLine
 10
133.3499999002
 20
-49.114723305
 30
0.0
 11
203.1999975443
 21
-49.114723305
 31
0.0
  0
MTEXT
  5
355
330
347
100
AcDbEntity
  8
SK2
100
AcDbMText
 10
161.7478681966
 20
-44.5495140392
 30
0.0
 40
3.5
 41
0.0
 71
     1
 72
     1
  1

  7
SLDTEXTSTYLE0
 73
     1
 44
1.0
  0
MTEXT
  5
356
330
347
100
AcDbEntity
  8
SK2
100
AcDbMText
 10
163.8612363083
 20
-39.3663546655
 30
0.0
 40
3.5
 41
0.0
 71
     1
 72
     1
  1
2,75
  7
SLDTEXTSTYLE0
 73
     1
 44
1.0
  0
MTEXT
  5
357
330
347
100
AcDbEntity
  8
SK2
100
AcDbMText
 10
162.5681805951
 20
-44.6029862158
 30
0.0
 40
3.5
 41
0.0
 71
     1
 72
     1
  1
69,85
  7
SLDTEXTSTYLE0
 73
     1
 44
1.0
  0
MTEXT
  5
358
330
347
100
AcDbEntity
  8
SK2
100
AcDbMText
 10
176.3579380005
 20
-44.5495140392
 30
0.0
 40
3.5
 41
0.0
 71
     1
 72
     1
  1

  7
SLDTEXTSTYLE0
 73
     1
 44
1.0
  0
ENDBLK
  5
349
330
347
100
AcDbEntity
  8
0
100
AcDbBlockEnd
  0
BLOCK
  5
35C
330
35B
100
AcDbEntity
  8
0
100
AcDbBlockBegin
  2
_D_11
 70
     0
 10
0.0
 20
0.0
 30
0.0
  3
_D_11
  1

  0
SOLID
  5
35E
330
35B
100
AcDbEntity
  8
SK2
100
AcDbTrace
 10
195.5800056458
 20
-39.5615227991
 30
0.0
 11
192.2780056458
 21
-39.0535227991
 31
0.0
 12
192.2780056458
 22
-40.0695227991
 32
0.0
 13
192.2780056458
 23
-40.0695227991
 33
0.0
  0
SOLID
  5
35F
330
35B
100
AcDbEntity
  8
SK2
100
AcDbTrace
 10
203.1999975443
 20
-39.5615227991
 30
0.0
 11
206.5019975443
 21
-40.0695227991
 31
0.0
 12
206.5019975443
 22
-39.0535227991
 32
0.0
 13
206.5019975443
 23
-39.0535227991
 33
0.0
  0
LINE
  5
360
330
35B
100
AcDbEntity
  8
SK2
100
AcDbLine
 10
195.5800056458
 20
-26.399999693
 30
0.0
 11
195.5800056458
 21
-40.5615227991
 31
0.0
  0
LINE
  5
361
330
35B
100
AcDbEntity
  8
SK2
100
AcDbLine
 10
203.1999975443
 20
-18.7800003439
 30
0.0
 11
203.1999975443
 21
-40.5615227991
 31
0.0
  0
LINE
  5
362
330
35B
100
AcDbEntity
  8
SK2
100
AcDbLine
 10
195.5800056458
 20
-39.5615227991
 30
0.0
 11
185.3475925782
 21
-39.5615227991
 31
0.0
  0
LINE
  5
363
330
35B
100
AcDbEntity
  8
SK2
100
AcDbLine
 10
195.5800056458
 20
-39.5615227991
 30
0.0
 11
203.1999975443
 21
-39.5615227991
 31
0.0
  0
LINE
  5
364
330
35B
100
AcDbEntity
  8
SK2
100
AcDbLine
 10
203.1999975443
 20
-39.5615227991
 30
0.0
 11
209.5499975443
 21
-39.5615227991
 31
0.0
  0
MTEXT
  5
365
330
35B
100
AcDbEntity
  8
SK2
100
AcDbMText
 10
185.3475925782
 20
-35.0497858846
 30
0.0
 40
3.5
 41
0.0
 71
     1
 72
     1
  1
7,62
  7
SLDTEXTSTYLE0
 73
     1
 44
1.0
  0
ENDBLK
  5
35D
330
35B
100
AcDbEntity
  8
0
100
AcDbBlockEnd
  0
BLOCK
  5
369
330
368
100
AcDbEntity
  8
0
100
AcDbBlockBegin
  2
_D_12
 70
     0
 10
0.0
 20
0.0
 30
0.0
  3
_D_12
  1

  0
SOLID
  5
36B
330
368
100
AcDbEntity
  8
SK2
100
AcDbTrace
 10
-123.9064022557
 20
47.2967813328
 30
0.0
 11
-124.414401411
 21
43.9947812028
 31
0.0
 12
-123.398401411
 22
43.9947814627
 32
0.0
 13
-123.398401411
 23
43.9947814627
 33
0.0
  0
SOLID
  5
36C
330
368
100
AcDbEntity
  8
SK2
100
AcDbTrace
 10
-123.9063780114
 20
-47.4755169075
 30
0.0
 11
-123.3983788561
 21
-44.1735167776
 31
0.0
 12
-124.4143788561
 22
-44.1735170375
 32
0.0
 13
-124.4143788561
 23
-44.1735170375
 33
0.0
  0
LINE
  5
36D
330
368
100
AcDbEntity
  8
SK2
100
AcDbLine
 10
4.7701383033
 20
47.2968142504
 30
0.0
 11
-124.9064022557
 21
47.2967810769
 31
0.0
  0
LINE
  5
36E
330
368
100
AcDbEntity
  8
SK2
100
AcDbLine
 10
2.95
 20
-47.4754844556
 30
0.0
 11
-124.9063780114
 21
-47.4755171633
 31
0.0
  0
LINE
  5
36F
330
368
100
AcDbEntity
  8
SK2
100
AcDbLine
 10
-123.9064022557
 20
47.2967813328
 30
0.0
 11
-123.9063780114
 21
-47.4755169075
 31
0.0
  0
MTEXT
  5
370
330
368
100
AcDbEntity
  8
SK2
100
AcDbMText
 10
-128.418125188
 20
-8.0430709884
 30
0.0
 40
3.5
 41
0.0
 71
     1
 72
     1
  1
%%c
  7
SLDTEXTSTYLE0
 11
-2.558165874076360E-7
 21
0.9999999999999672
 31
0.0
 73
     1
 44
1.0
  0
MTEXT
  5
371
330
368
100
AcDbEntity
  8
SK2
100
AcDbMText
 10
-128.471598715
 20
-2.7646336037
 30
0.0
 40
3.5
 41
0.0
 71
     1
 72
     1
  1
98,42
  7
SLDTEXTSTYLE0
 11
-2.558165874076360E-7
 21
0.9999999999999672
 31
0.0
 73
     1
 44
1.0
  0
ENDBLK
  5
36A
330
368
100
AcDbEntity
  8
0
100
AcDbBlockEnd
  0
BLOCK
  5
374
330
373
100
AcDbEntity
  8
0
100
AcDbBlockBegin
  2
_D_13
 70
     0
 10
0.0
 20
0.0
 30
0.0
  3
_D_13
  1

  0
SOLID
  5
376
330
373
100
AcDbEntity
  8
SK2
100
AcDbTrace
 10
-112.2742830867
 20
12.6999998465
 30
0.0
 11
-112.7822830867
 21
9.3979998465
 31
0.0
 12
-111.7662830867
 22
9.3979998465
 32
0.0
 13
-111.7662830867
 23
9.3979998465
 33
0.0
  0
SOLID
  5
377
330
373
100
AcDbEntity
  8
SK2
100
AcDbTrace
 10
-112.2742830867
 20
-12.6999998465
 30
0.0
 11
-111.7662830867
 21
-9.3979998465
 31
0.0
 12
-112.7822830867
 22
-9.3979998465
 32
0.0
 13
-112.7822830867
 23
-9.3979998465
 33
0.0
  0
LINE
  5
378
330
373
100
AcDbEntity
  8
SK2
100
AcDbLine
 10
-95.967097044
 20
12.6999998465
 30
0.0
 11
-113.2742830867
 21
12.6999998465
 31
0.0
  0
LINE
  5
379
330
373
100
AcDbEntity
  8
SK2
100
AcDbLine
 10
-95.967097044
 20
-12.6999998465
 30
0.0
 11
-113.2742830867
 21
-12.6999998465
 31
0.0
  0
LINE
  5
37A
330
373
100
AcDbEntity
  8
SK2
100
AcDbLine
 10
-112.2742830867
 20
12.6999998465
 30
0.0
 11
-112.2742830867
 21
-12.6999998465
 31
0.0
  0
MTEXT
  5
37C
330
373
100
AcDbEntity
  8
SK2
100
AcDbMText
 10
-116.7860200013
 20
-10.036490368
 30
0.0
 40
3.5
 41
0.0
 71
     1
 72
     1
  1
1 - 8 UNC
  7
SLDTEXTSTYLE1
 11
-7.044195017643634E-15
 21
1.0
 31
0.0
 73
     1
 44
1.0
  0
ENDBLK
  5
375
330
373
100
AcDbEntity
  8
0
100
AcDbBlockEnd
  0
BLOCK
  5
37F
330
37E
100
AcDbEntity
  8
0
100
AcDbBlockBegin
  2
_D_14
 70
     0
 10
0.0
 20
0.0
 30
0.0
  3
_D_14
  1

  0
SOLID
  5
381
330
37E
100
AcDbEntity
  8
SK2
100
AcDbTrace
 10
0.0
 20
70.2724045703
 30
0.0
 11
3.302
 21
69.7644045703
 31
0.0
 12
3.302
 22
70.7804045703
 32
0.0
 13
3.302
 23
70.7804045703
 33
0.0
  0
SOLID
  5
382
330
37E
100
AcDbEntity
  8
SK2
100
AcDbTrace
 10
19.05
 20
70.2724045703
 30
0.0
 11
15.748
 21
70.7804045703
 31
0.0
 12
15.748
 22
69.7644045703
 32
0.0
 13
15.748
 23
69.7644045703
 33
0.0
  0
LINE
  5
383
330
37E
100
AcDbEntity
  8
SK2
100
AcDbLine
 10
0.0
 20
35.9249988794
 30
0.0
 11
0.0
 21
71.2724045703
 31
0.0
  0
LINE
  5
384
330
37E
100
AcDbEntity
  8
SK2
100
AcDbLine
 10
19.05
 20
47.5560855313
 30
0.0
 11
19.05
 21
71.2724045703
 31
0.0
  0
LINE
  5
385
330
37E
100
AcDbEntity
  8
SK2
100
AcDbLine
 10
0.0
 20
70.2724045703
 30
0.0
 11
19.05
 21
70.2724045703
 31
0.0
  0
MTEXT
  5
386
330
37E
100
AcDbEntity
  8
SK2
100
AcDbMText
 10
3.1077499082
 20
74.7841414849
 30
0.0
 40
3.5
 41
0.0
 71
     1
 72
     1
  1
19,05
  7
SLDTEXTSTYLE0
 73
     1
 44
1.0
  0
ENDBLK
  5
380
330
37E
100
AcDbEntity
  8
0
100
AcDbBlockEnd
  0
ENDSEC
  0
SECTION
  2
ENTITIES
  0
LINE
  5
82
330
1F
100
AcDbEntity
  8
1
  6
SLD-Solid
370
    25
100
AcDbLine
 10
33.5760024077
 20
34.925000084
 30
0.0
 11
19.8120019258
 21
34.9250019636
 31
0.0
  0
LINE
  5
83
330
1F
100
AcDbEntity
  8
1
  6
SLD-Solid
370
    25
100
AcDbLine
 10
19.8119980742
 20
-34.924999157
 30
0.0
 11
33.575998556
 21
-34.9249987954
 31
0.0
  0
LINE
  5
84
330
1F
100
AcDbEntity
  8
SK1
  6
SLD-Solid
370
    25
100
AcDbLine
 10
0.0
 20
34.9249988794
 30
0.0
 11
-99.803045392
 21
20.3702524304
 31
0.0
  0
LINE
  5
85
330
1F
100
AcDbEntity
  8
SK1
  6
SLD-Solid
370
    25
100
AcDbLine
 10
-99.803045392
 20
-20.3702524304
 30
0.0
 11
0.0
 21
-34.9249988794
 31
0.0
  0
LINE
  5
86
330
1F
100
AcDbEntity
  8
1
  6
SLD-Solid
370
    25
100
AcDbLine
 10
1.7476022476
 20
34.9249988794
 30
0.0
 11
0.0
 21
34.9249988794
 31
0.0
  0
LINE
  5
87
330
1F
100
AcDbEntity
  8
1
  6
SLD-Solid
370
    25
100
AcDbLine
 10
0.0
 20
-34.9249988794
 30
0.0
 11
1.7476022476
 21
-34.9249988794
 31
0.0
  0
LINE
  5
88
330
1F
100
AcDbEntity
  8
1
  6
SLD-Solid
370
    25
100
AcDbLine
 10
1.7476022476
 20
-34.9249988794
 30
0.0
 11
2.1330363037
 21
-34.7452691597
 31
0.0
  0
LINE
  5
89
330
1F
100
AcDbEntity
  8
1
  6
SLD-Solid
370
    25
100
AcDbLine
 10
2.1330363037
 20
34.7452691597
 30
0.0
 11
1.7476022476
 21
34.9249988794
 31
0.0
  0
LINE
  5
8A
330
1F
100
AcDbEntity
  8
1
  6
SLD-Solid
370
    25
100
AcDbLine
 10
36.4382711207
 20
-31.8414903447
 30
0.0
 11
88.8999998569
 21
-25.399999693
 31
0.0
  0
LINE
  5
8B
330
1F
100
AcDbEntity
  8
1
  6
SLD-Solid
370
    25
100
AcDbLine
 10
88.8999998569
 20
25.399999693
 30
0.0
 11
36.4382711207
 21
31.8414903447
 31
0.0
  0
LINE
  5
8C
330
1F
100
AcDbEntity
  8
1
  6
SLD-Solid
370
    25
100
AcDbLine
 10
139.1
 20
25.399999693
 30
0.0
 11
88.8999998569
 21
25.399999693
 31
0.0
  0
LINE
  5
8D
330
1F
100
AcDbEntity
  8
1
  6
SLD-Solid
370
    25
100
AcDbLine
 10
164.5
 20
25.4
 30
0.0
 11
159.3268532753
 21
25.4
 31
0.0
  0
LINE
  5
8E
330
1F
100
AcDbEntity
  8
1
  6
SLD-Solid
370
    25
100
AcDbLine
 10
195.5800056458
 20
25.399999693
 30
0.0
 11
184.7268491983
 21
25.399999693
 31
0.0
  0
LINE
  5
8F
330
1F
100
AcDbEntity
  8
1
  6
SLD-Solid
370
    25
100
AcDbLine
 10
185.4614913464
 20
-25.399999693
 30
0.0
 11
195.5800056458
 21
-25.399999693
 31
0.0
  0
LINE
  5
90
330
1F
100
AcDbEntity
  8
1
  6
SLD-Solid
370
    25
100
AcDbLine
 10
160.061493516
 20
-25.399999693
 30
0.0
 11
163.7824177742
 21
-25.399999693
 31
0.0
  0
LINE
  5
91
330
1F
100
AcDbEntity
  8
1
  6
SLD-Solid
370
    25
100
AcDbLine
 10
88.8999998569
 20
-25.399999693
 30
0.0
 11
138.3824199438
 21
-25.399999693
 31
0.0
  0
LINE
  5
92
330
1F
100
AcDbEntity
  8
1
  6
SLD-Solid
370
    25
100
AcDbLine
 10
195.5800056458
 20
-25.399999693
 30
0.0
 11
203.1999975443
 21
-17.7800003439
 31
0.0
  0
LINE
  5
93
330
1F
100
AcDbEntity
  8
1
  6
SLD-Solid
370
    25
100
AcDbLine
 10
203.1999975443
 20
17.7800003439
 30
0.0
 11
195.5800056458
 21
25.399999693
 31
0.0
  0
LINE
  5
94
330
1F
100
AcDbEntity
  8
1
  6
SLD-Solid
370
    25
100
AcDbLine
 10
3.2
 20
-46.6976348437
 30
0.0
 11
3.2
 21
46.5560853481
 31
0.0
  0
LINE
  5
95
330
1F
100
AcDbEntity
  8
1
  6
SLD-Solid
370
    25
100
AcDbLine
 10
3.95
 20
47.2968144146
 30
0.0
 11
3.95
 21
-47.4754841997
 31
0.0
  0
LINE
  5
96
330
1F
100
AcDbEntity
  8
1
  6
SLD-Solid
370
    25
100
AcDbLine
 10
18.3
 20
-47.4754841997
 30
0.0
 11
18.3
 21
47.2968145978
 31
0.0
  0
LINE
  5
97
330
1F
100
AcDbEntity
  8
1
  6
SLD-Solid
370
    25
100
AcDbLine
 10
19.05
 20
46.5560855313
 30
0.0
 11
19.05
 21
-46.6976348437
 31
0.0
  0
LINE
  5
98
330
1F
100
AcDbEntity
  8
1
  6
SLD-Solid
370
    25
100
AcDbLine
 10
3.95
 20
-47.4754841997
 30
0.0
 11
7.5902766548
 21
-47.4754832685
 31
0.0
  0
LINE
  5
99
330
1F
100
AcDbEntity
  8
1
  6
SLD-Solid
370
    25
100
AcDbLine
 10
7.5902766066
 20
47.2968145978
 30
0.0
 11
3.95
 21
47.2968144146
 31
0.0
  0
LINE
  5
9A
330
1F
100
AcDbEntity
  8
1
  6
SLD-Solid
370
    25
100
AcDbLine
 10
7.5902766066
 20
47.2968145978
 30
0.0
 11
7.5902766548
 21
-47.4754832685
 31
0.0
  0
LINE
  5
9B
330
1F
100
AcDbEntity
  8
1
  6
SLD-Solid
370
    25
100
AcDbLine
 10
14.6397231147
 20
-47.4754832685
 30
0.0
 11
18.3
 21
-47.4754841997
 31
0.0
  0
LINE
  5
9C
330
1F
100
AcDbEntity
  8
1
  6
SLD-Solid
370
    25
100
AcDbLine
 10
14.6397233934
 20
47.2968145978
 30
0.0
 11
14.6397231147
 21
-47.4754832685
 31
0.0
  0
LINE
  5
9D
330
1F
100
AcDbEntity
  8
1
  6
SLD-Solid
370
    25
100
AcDbLine
 10
18.3
 20
47.2968145978
 30
0.0
 11
14.6397233934
 21
47.2968145978
 31
0.0
  0
LINE
  5
9E
330
1F
100
AcDbEntity
  8
1
  6
SLD-Solid
370
    25
100
AcDbLine
 10
13.030000031
 20
44.5790104568
 30
0.0
 11
13.0300002041
 21
41.9871172983
 31
0.0
  0
LINE
  5
9F
330
1F
100
AcDbEntity
  8
1
  6
SLD-Solid
370
    25
100
AcDbLine
 10
13.03
 20
34.6324294806
 30
0.0
 11
13.03
 21
-44.5790106634
 31
0.0
  0
LINE
  5
A0
330
1F
100
AcDbEntity
  8
1
  6
SLD-Solid
370
    25
100
AcDbLine
 10
13.03
 20
41.4531135826
 30
0.0
 11
13.03
 21
35.4316106351
 31
0.0
  0
LINE
  5
A1
330
1F
100
AcDbEntity
  8
1
  6
SLD-Solid
370
    25
100
AcDbLine
 10
9.2
 20
44.5790106634
 30
0.0
 11
9.2000002041
 21
41.9587008655
 31
0.0
  0
LINE
  5
A2
330
1F
100
AcDbEntity
  8
1
  6
SLD-Solid
370
    25
100
AcDbLine
 10
9.1999997959
 20
41.4830126205
 30
0.0
 11
9.2
 21
35.3885961177
 31
0.0
  0
LINE
  5
A3
330
1F
100
AcDbEntity
  8
1
  6
SLD-Solid
370
    25
100
AcDbLine
 10
9.2
 20
34.676688935
 30
0.0
 11
9.2
 21
-44.5790106634
 31
0.0
  0
LINE
  5
A4
330
1F
100
AcDbEntity
  8
1
  6
SLD-Solid
370
    25
100
AcDbLine
 10
12.28
 20
33.3554707167
 30
0.0
 11
12.28
 21
-43.7694359685
 31
0.0
  0
LINE
  5
A5
330
1F
100
AcDbEntity
  8
1
  6
SLD-Solid
370
    25
100
AcDbLine
 10
9.95
 20
33.3652595305
 30
0.0
 11
9.95
 21
-43.7694359685
 31
0.0
  0
LINE
  5
A6
330
1F
100
AcDbEntity
  8
1
  6
SLD-Solid
370
    25
100
AcDbLine
 10
9.95
 20
-43.7694359685
 30
0.0
 11
12.28
 21
-43.7694359685
 31
0.0
  0
LINE
  5
A7
330
1F
100
AcDbEntity
  8
1
  6
SLD-Solid
370
    25
100
AcDbLine
 10
0.0
 20
34.9249988794
 30
0.0
 11
0.0
 21
-34.9249988794
 31
0.0
  0
LINE
  5
A8
330
1F
100
AcDbEntity
  8
1
  6
SLD-Solid
370
    25
100
AcDbLine
 10
35.1000012815
 20
0.0000005603
 30
0.0
 11
35.0999975979
 21
-33.4009994397
 31
0.0
  0
LINE
  5
A9
330
1F
100
AcDbEntity
  8
1
  6
SLD-Solid
370
    25
100
AcDbLine
 10
35.1000012815
 20
33.4010005603
 30
0.0
 11
35.1000012815
 21
0.0000005603
 31
0.0
  0
LINE
  5
AA
330
1F
100
AcDbEntity
  8
1
  6
SLD-Solid
370
    25
100
AcDbLine
 10
1.7476022476
 20
34.9249988794
 30
0.0
 11
1.7476022476
 21
-34.9249988794
 31
0.0
  0
LINE
  5
AB
330
1F
100
AcDbEntity
  8
1
  6
SLD-Solid
370
    25
100
AcDbLine
 10
88.8999998569
 20
25.399999693
 30
0.0
 11
88.8999998569
 21
-25.399999693
 31
0.0
  0
LINE
  5
AC
330
1F
100
AcDbEntity
  8
1
  6
SLD-Solid
370
    25
100
AcDbLine
 10
13.03
 20
35.4113240881
 30
0.0
 11
13.03
 21
35.4316106351
 31
0.0
  0
LINE
  5
AD
330
1F
100
AcDbEntity
  8
1
  6
SLD-Solid
370
    25
100
AcDbLine
 10
9.2
 20
35.3885961177
 30
0.0
 11
9.2
 21
35.3683101782
 31
0.0
  0
LINE
  5
AE
330
1F
100
AcDbEntity
  8
1
  6
SLD-Solid
370
    25
100
AcDbLine
 10
9.95
 20
40.2901760725
 30
0.0
 11
9.95
 21
35.4888548114
 31
0.0
  0
LINE
  5
AF
330
1F
100
AcDbEntity
  8
1
  6
SLD-Solid
370
    25
100
AcDbLine
 10
12.28
 20
40.2834337913
 30
0.0
 11
12.28
 21
35.4978726362
 31
0.0
  0
LINE
  5
B0
330
1F
100
AcDbEntity
  8
1
  6
SLD-Solid
370
    25
100
AcDbLine
 10
195.5800056458
 20
25.399999693
 30
0.0
 11
195.5800056458
 21
-25.399999693
 31
0.0
  0
LINE
  5
B1
330
1F
100
AcDbEntity
  8
1
  6
SLD-Solid
370
    25
100
AcDbLine
 10
149.7206091881
 20
23.2999995351
 30
0.0
 11
148.72939431
 21
23.299999693
 31
0.0
  0
LINE
  5
B2
330
1F
100
AcDbEntity
  8
1
  6
SLD-Solid
370
    25
100
AcDbLine
 10
175.1206070185
 20
23.2999995351
 30
0.0
 11
174.12939431
 21
23.3
 31
0.0
  0
LINE
  5
B3
330
1F
100
AcDbEntity
  8
1
  6
SLD-Solid
370
    25
100
AcDbLine
 10
203.1999975443
 20
17.7800003439
 30
0.0
 11
203.1999975443
 21
-17.7800003439
 31
0.0
  0
LINE
  5
B4
330
1F
100
AcDbEntity
  8
1
  6
SLD-Solid
370
    25
100
AcDbLine
 10
9.2000002041
 20
41.9587008655
 30
0.0
 11
9.2000002041
 21
41.9345423579
 31
0.0
  0
LINE
  5
B5
330
1F
100
AcDbEntity
  8
1
  6
SLD-Solid
370
    25
100
AcDbLine
 10
13.0300002041
 20
41.9629580635
 30
0.0
 11
13.0300002041
 21
41.9871172983
 31
0.0
  0
LINE
  5
B6
330
1F
100
AcDbEntity
  8
SK1
  6
SLD-Solid
370
    25
100
AcDbLine
 10
-101.6000003646
 20
-18.2922329752
 30
0.0
 11
-101.6000003646
 21
18.2922323447
 31
0.0
  0
LINE
  5
B7
330
1F
100
AcDbEntity
  8
1
  6
SLD-Solid
370
    25
100
AcDbLine
 10
9.95
 20
43.7694359685
 30
0.0
 11
9.9500002041
 21
41.7091381409
 31
0.0
  0
LINE
  5
B8
330
1F
100
AcDbEntity
  8
1
  6
SLD-Solid
370
    25
100
AcDbLine
 10
12.28
 20
43.7694359685
 30
0.0
 11
12.2800002041
 21
41.7149622406
 31
0.0
  0
LINE
  5
B9
330
1F
100
AcDbEntity
  8
1
  6
SLD-Solid
370
    25
100
AcDbLine
 10
9.95
 20
43.7694359685
 30
0.0
 11
12.28
 21
43.7694359685
 31
0.0
  0
LINE
  5
BA
330
1F
100
AcDbEntity
  8
1
  6
SLD-Solid
370
    25
100
AcDbLine
 10
19.8120009154
 20
0.000000843
 30
0.0
 11
19.8119980742
 21
-34.924999157
 31
0.0
  0
LINE
  5
BB
330
1F
100
AcDbEntity
  8
1
  6
SLD-Solid
370
    25
100
AcDbLine
 10
19.8120019258
 20
34.9250019636
 30
0.0
 11
19.8120009154
 21
0.000000843
 31
0.0
  0
LINE
  5
BC
330
1F
100
AcDbEntity
  8
1
  6
SLD-Solid
370
    25
100
AcDbLine
 10
2.1330363037
 20
34.7452691597
 30
0.0
 11
2.1330363037
 21
-34.7452691597
 31
0.0
  0
LINE
  5
BD
330
1F
100
AcDbEntity
  8
1
  6
SLD-Solid
370
    25
100
AcDbLine
 10
33.5760004818
 20
0.000000084
 30
0.0
 11
33.5760024077
 21
34.925000084
 31
0.0
  0
LINE
  5
BE
330
1F
100
AcDbEntity
  8
1
  6
SLD-Solid
370
    25
100
AcDbLine
 10
33.575998556
 20
-34.9249987954
 30
0.0
 11
33.5760004818
 21
0.000000084
 31
0.0
  0
LINE
  5
BF
330
1F
100
AcDbEntity
  8
SK1
  6
SLD-Solid
370
    25
100
AcDbLine
 10
-99.803045392
 20
0.0
 30
0.0
 11
-99.803045392
 21
-20.3702524304
 31
0.0
  0
LINE
  5
C0
330
1F
100
AcDbEntity
  8
SK1
  6
SLD-Solid
370
    25
100
AcDbLine
 10
-99.803045392
 20
20.3702524304
 30
0.0
 11
-99.803045392
 21
0.0
 31
0.0
  0
LINE
  5
C1
330
1F
100
AcDbEntity
  8
1
  6
SLD-Solid
370
    25
100
AcDbLine
 10
36.4382711207
 20
0.0
 30
0.0
 11
36.4382711207
 21
-31.8414903447
 31
0.0
  0
LINE
  5
C2
330
1F
100
AcDbEntity
  8
1
  6
SLD-Solid
370
    25
100
AcDbLine
 10
36.4382711207
 20
31.8414903447
 30
0.0
 11
36.4382711207
 21
0.0
 31
0.0
  0
LINE
  5
C3
330
1F
100
AcDbEntity
  8
SK3
  6
SLD-Dashed
370
    18
100
AcDbLine
 10
6.4723067917
 20
-13.9015950263
 30
0.0
 11
6.2738680281
 21
-13.1524140015
 31
0.0
  0
LINE
  5
C4
330
1F
100
AcDbEntity
  8
SK3
  6
SLD-Dashed
370
    18
100
AcDbLine
 10
6.2738680281
 20
-13.1524140015
 30
0.0
 11
5.9563429095
 21
-12.4698011205
 31
0.0
  0
LINE
  5
C5
330
1F
100
AcDbEntity
  8
SK3
  6
SLD-Dashed
370
    18
100
AcDbLine
 10
5.9563429095
 20
-12.4698011205
 30
0.0
 11
5.5479439907
 21
-11.9144096971
 31
0.0
  0
LINE
  5
C6
330
1F
100
AcDbEntity
  8
SK3
  6
SLD-Dashed
370
    18
100
AcDbLine
 10
5.5479439907
 20
-11.9144096971
 30
0.0
 11
5.0849607214
 21
-11.5355877206
 31
0.0
  0
LINE
  5
C7
330
1F
100
AcDbEntity
  8
SK3
  6
SLD-Dashed
370
    18
100
AcDbLine
 10
5.0849607214
 20
-11.5355877206
 30
0.0
 11
4.6085300855
 21
-11.3669969141
 31
0.0
  0
LINE
  5
C8
330
1F
100
AcDbEntity
  8
SK3
  6
SLD-Dashed
370
    18
100
AcDbLine
 10
4.6085300855
 20
-11.3669969141
 30
0.0
 11
4.1609853506
 21
-11.4236157387
 31
0.0
  0
LINE
  5
C9
330
1F
100
AcDbEntity
  8
SK3
  6
SLD-Dashed
370
    18
100
AcDbLine
 10
4.1609853506
 20
-11.4236157387
 30
0.0
 11
3.7820932921
 21
-11.7004131898
 31
0.0
  0
LINE
  5
CA
330
1F
100
AcDbEntity
  8
SK3
  6
SLD-Dashed
370
    18
100
AcDbLine
 10
3.7820932921
 20
-11.7004131898
 30
0.0
 11
3.5055195913
 21
-12.1727958322
 31
0.0
  0
LINE
  5
CB
330
1F
100
AcDbEntity
  8
SK3
  6
SLD-Dashed
370
    18
100
AcDbLine
 10
3.5055195913
 20
-12.1727958322
 30
0.0
 11
3.3558390569
 21
-12.7987898886
 31
0.0
  0
LINE
  5
CC
330
1F
100
AcDbEntity
  8
SK3
  6
SLD-Dashed
370
    18
100
AcDbLine
 10
3.3558390569
 20
-12.7987898886
 30
0.0
 11
3.3463519067
 21
-13.5227730498
 31
0.0
  0
LINE
  5
CD
330
1F
100
AcDbEntity
  8
SK3
  6
SLD-Dashed
370
    18
100
AcDbLine
 10
3.3463519067
 20
-13.5227730498
 30
0.0
 11
3.4779005218
 21
-14.2804170027
 31
0.0
  0
LINE
  5
CE
330
1F
100
AcDbEntity
  8
SK3
  6
SLD-Dashed
370
    18
100
AcDbLine
 10
3.4779005218
 20
-14.2804170027
 30
0.0
 11
3.7387965713
 21
-15.0044001639
 31
0.0
  0
LINE
  5
CF
330
1F
100
AcDbEntity
  8
SK3
  6
SLD-Dashed
370
    18
100
AcDbLine
 10
3.7387965713
 20
-15.0044001639
 30
0.0
 11
4.1058585048
 21
-15.6303942204
 31
0.0
  0
LINE
  5
D0
330
1F
100
AcDbEntity
  8
SK3
  6
SLD-Dashed
370
    18
100
AcDbLine
 10
4.1058585048
 20
-15.6303942204
 30
0.0
 11
4.5464709401
 21
-16.1027759314
 31
0.0
  0
LINE
  5
D1
330
1F
100
AcDbEntity
  8
SK3
  6
SLD-Dashed
370
    18
100
AcDbLine
 10
4.5464709401
 20
-16.1027759314
 30
0.0
 11
5.0214831717
 21
-16.3795743138
 31
0.0
  0
LINE
  5
D2
330
1F
100
AcDbEntity
  8
SK3
  6
SLD-Dashed
370
    18
100
AcDbLine
 10
5.0214831717
 20
-16.3795743138
 30
0.0
 11
5.4886890575
 21
-16.4361931384
 31
0.0
  0
LINE
  5
D3
330
1F
100
AcDbEntity
  8
SK3
  6
SLD-Dashed
370
    18
100
AcDbLine
 10
5.4886890575
 20
-16.4361931384
 30
0.0
 11
5.9065748937
 21
-16.2676014006
 31
0.0
  0
LINE
  5
D4
330
1F
100
AcDbEntity
  8
SK3
  6
SLD-Dashed
370
    18
100
AcDbLine
 10
5.9065748937
 20
-16.2676014006
 30
0.0
 11
6.2380097806
 21
-15.8887803555
 31
0.0
  0
LINE
  5
D5
330
1F
100
AcDbEntity
  8
SK3
  6
SLD-Dashed
370
    18
100
AcDbLine
 10
6.2380097806
 20
-15.8887803555
 30
0.0
 11
6.4535443671
 21
-15.333388932
 31
0.0
  0
LINE
  5
D6
330
1F
100
AcDbEntity
  8
SK3
  6
SLD-Dashed
370
    18
100
AcDbLine
 10
6.4535443671
 20
-15.333388932
 30
0.0
 11
6.5340269357
 21
-14.650776051
 31
0.0
  0
LINE
  5
D7
330
1F
100
AcDbEntity
  8
SK3
  6
SLD-Dashed
370
    18
100
AcDbLine
 10
6.5340269357
 20
-14.650776051
 30
0.0
 11
6.4723067917
 21
-13.9015950263
 31
0.0
  0
LINE
  5
D8
330
1F
100
AcDbEntity
  8
SK3
  6
SLD-Dashed
370
    18
100
AcDbLine
 10
6.4545595087
 20
-13.8826165348
 30
0.0
 11
6.512101274
 21
-14.6227339283
 31
0.0
  0
LINE
  5
D9
330
1F
100
AcDbEntity
  8
SK3
  6
SLD-Dashed
370
    18
100
AcDbLine
 10
6.512101274
 20
-14.6227339283
 30
0.0
 11
6.4220828936
 21
-15.2904028073
 31
0.0
  0
LINE
  5
DA
330
1F
100
AcDbEntity
  8
SK3
  6
SLD-Dashed
370
    18
100
AcDbLine
 10
6.4220828936
 20
-15.2904028073
 30
0.0
 11
6.193316076
 21
-15.8202685416
 31
0.0
  0
LINE
  5
DB
330
1F
100
AcDbEntity
  8
SK3
  6
SLD-Dashed
370
    18
100
AcDbLine
 10
6.193316076
 20
-15.8202685416
 30
0.0
 11
5.8481940068
 21
-16.1604620516
 31
0.0
  0
LINE
  5
DC
330
1F
100
AcDbEntity
  8
SK3
  6
SLD-Dashed
370
    18
100
AcDbLine
 10
5.8481940068
 20
-16.1604620516
 30
0.0
 11
5.4204994813
 21
-16.2776857615
 31
0.0
  0
LINE
  5
DD
330
1F
100
AcDbEntity
  8
SK3
  6
SLD-Dashed
370
    18
100
AcDbLine
 10
5.4204994813
 20
-16.2776857615
 30
0.0
 11
4.9520982429
 21
-16.1604620516
 31
0.0
  0
LINE
  5
DE
330
1F
100
AcDbEntity
  8
SK3
  6
SLD-Dashed
370
    18
100
AcDbLine
 10
4.9520982429
 20
-16.1604620516
 30
0.0
 11
4.4888411649
 21
-15.8202685416
 31
0.0
  0
LINE
  5
DF
330
1F
100
AcDbEntity
  8
SK3
  6
SLD-Dashed
370
    18
100
AcDbLine
 10
4.4888411649
 20
-15.8202685416
 30
0.0
 11
4.0760743432
 21
-15.2904028073
 31
0.0
  0
LINE
  5
E0
330
1F
100
AcDbEntity
  8
SK3
  6
SLD-Dashed
370
    18
100
AcDbLine
 10
4.0760743432
 20
-15.2904028073
 30
0.0
 11
3.7542027421
 21
-14.6227339283
 31
0.0
  0
LINE
  5
E1
330
1F
100
AcDbEntity
  8
SK3
  6
SLD-Dashed
370
    18
100
AcDbLine
 10
3.7542027421
 20
-14.6227339283
 30
0.0
 11
3.5547332373
 21
-13.8826165348
 31
0.0
  0
LINE
  5
E2
330
1F
100
AcDbEntity
  8
SK3
  6
SLD-Dashed
370
    18
100
AcDbLine
 10
3.5547332373
 20
-13.8826165348
 30
0.0
 11
3.4971912391
 21
-13.1425000727
 31
0.0
  0
LINE
  5
E3
330
1F
100
AcDbEntity
  8
SK3
  6
SLD-Dashed
370
    18
100
AcDbLine
 10
3.4971912391
 20
-13.1425000727
 30
0.0
 11
3.5872096196
 21
-12.4748302624
 31
0.0
  0
LINE
  5
E4
330
1F
100
AcDbEntity
  8
SK3
  6
SLD-Dashed
370
    18
100
AcDbLine
 10
3.5872096196
 20
-12.4748302624
 30
0.0
 11
3.8159764372
 21
-11.9449654594
 31
0.0
  0
LINE
  5
E5
330
1F
100
AcDbEntity
  8
SK3
  6
SLD-Dashed
370
    18
100
AcDbLine
 10
3.8159764372
 20
-11.9449654594
 30
0.0
 11
4.1610985063
 21
-11.604771018
 31
0.0
  0
LINE
  5
E6
330
1F
100
AcDbEntity
  8
SK3
  6
SLD-Dashed
370
    18
100
AcDbLine
 10
4.1610985063
 20
-11.604771018
 30
0.0
 11
4.5887930319
 21
-11.4875482395
 31
0.0
  0
LINE
  5
E7
330
1F
100
AcDbEntity
  8
SK3
  6
SLD-Dashed
370
    18
100
AcDbLine
 10
4.5887930319
 20
-11.4875482395
 30
0.0
 11
5.0571942702
 21
-11.604771018
 31
0.0
  0
LINE
  5
E8
330
1F
100
AcDbEntity
  8
SK3
  6
SLD-Dashed
370
    18
100
AcDbLine
 10
5.0571942702
 20
-11.604771018
 30
0.0
 11
5.5204518139
 21
-11.9449654594
 31
0.0
  0
LINE
  5
E9
330
1F
100
AcDbEntity
  8
SK3
  6
SLD-Dashed
370
    18
100
AcDbLine
 10
5.5204518139
 20
-11.9449654594
 30
0.0
 11
5.93321817
 21
-12.4748302624
 31
0.0
  0
LINE
  5
EA
330
1F
100
AcDbEntity
  8
SK3
  6
SLD-Dashed
370
    18
100
AcDbLine
 10
5.93321817
 20
-12.4748302624
 30
0.0
 11
6.255089771
 21
-13.1425000727
 31
0.0
  0
LINE
  5
EB
330
1F
100
AcDbEntity
  8
SK3
  6
SLD-Dashed
370
    18
100
AcDbLine
 10
6.255089771
 20
-13.1425000727
 30
0.0
 11
6.4545595087
 21
-13.8826165348
 31
0.0
  0
LINE
  5
EC
330
1F
100
AcDbEntity
  8
SK3
  6
SLD-Dashed
370
    18
100
AcDbLine
 10
17.1792842448
 20
-11.0168047249
 30
0.0
 11
16.9798154384
 21
-10.2766882628
 31
0.0
  0
LINE
  5
ED
330
1F
100
AcDbEntity
  8
SK3
  6
SLD-Dashed
370
    18
100
AcDbLine
 10
16.9798154384
 20
-10.2766882628
 30
0.0
 11
16.657942906
 21
-9.6090184525
 31
0.0
  0
LINE
  5
EE
330
1F
100
AcDbEntity
  8
SK3
  6
SLD-Dashed
370
    18
100
AcDbLine
 10
16.657942906
 20
-9.6090184525
 30
0.0
 11
16.2451770157
 21
-9.0791536495
 31
0.0
  0
LINE
  5
EF
330
1F
100
AcDbEntity
  8
SK3
  6
SLD-Dashed
370
    18
100
AcDbLine
 10
16.2451770157
 20
-9.0791536495
 30
0.0
 11
15.7819185406
 21
-8.7389592081
 31
0.0
  0
LINE
  5
F0
330
1F
100
AcDbEntity
  8
SK3
  6
SLD-Dashed
370
    18
100
AcDbLine
 10
15.7819185406
 20
-8.7389592081
 30
0.0
 11
15.3135182336
 21
-8.6217364296
 31
0.0
  0
LINE
  5
F1
330
1F
100
AcDbEntity
  8
SK3
  6
SLD-Dashed
370
    18
100
AcDbLine
 10
15.3135182336
 20
-8.6217364296
 30
0.0
 11
14.8858232424
 21
-8.7389592081
 31
0.0
  0
LINE
  5
F2
330
1F
100
AcDbEntity
  8
SK3
  6
SLD-Dashed
370
    18
100
AcDbLine
 10
14.8858232424
 20
-8.7389592081
 30
0.0
 11
14.5407011732
 21
-9.0791536495
 31
0.0
  0
LINE
  5
F3
330
1F
100
AcDbEntity
  8
SK3
  6
SLD-Dashed
370
    18
100
AcDbLine
 10
14.5407011732
 20
-9.0791536495
 30
0.0
 11
14.31193389
 21
-9.6090184525
 31
0.0
  0
LINE
  5
F4
330
1F
100
AcDbEntity
  8
SK3
  6
SLD-Dashed
370
    18
100
AcDbLine
 10
14.31193389
 20
-9.6090184525
 30
0.0
 11
14.2219159752
 21
-10.2766882628
 31
0.0
  0
LINE
  5
F5
330
1F
100
AcDbEntity
  8
SK3
  6
SLD-Dashed
370
    18
100
AcDbLine
 10
14.2219159752
 20
-10.2766882628
 30
0.0
 11
14.2794577405
 21
-11.0168047249
 31
0.0
  0
LINE
  5
F6
330
1F
100
AcDbEntity
  8
SK3
  6
SLD-Dashed
370
    18
100
AcDbLine
 10
14.2794577405
 20
-11.0168047249
 30
0.0
 11
14.4789274782
 21
-11.7569221184
 31
0.0
  0
LINE
  5
F7
330
1F
100
AcDbEntity
  8
SK3
  6
SLD-Dashed
370
    18
100
AcDbLine
 10
14.4789274782
 20
-11.7569221184
 30
0.0
 11
14.8007990792
 21
-12.4245909974
 31
0.0
  0
LINE
  5
F8
330
1F
100
AcDbEntity
  8
SK3
  6
SLD-Dashed
370
    18
100
AcDbLine
 10
14.8007990792
 20
-12.4245909974
 30
0.0
 11
15.2135659009
 21
-12.9544558004
 31
0.0
  0
LINE
  5
F9
330
1F
100
AcDbEntity
  8
SK3
  6
SLD-Dashed
370
    18
100
AcDbLine
 10
15.2135659009
 20
-12.9544558004
 30
0.0
 11
15.6768225133
 21
-13.2946502417
 31
0.0
  0
LINE
  5
FA
330
1F
100
AcDbEntity
  8
SK3
  6
SLD-Dashed
370
    18
100
AcDbLine
 10
15.6768225133
 20
-13.2946502417
 30
0.0
 11
16.1452237517
 21
-13.4118739516
 31
0.0
  0
LINE
  5
FB
330
1F
100
AcDbEntity
  8
SK3
  6
SLD-Dashed
370
    18
100
AcDbLine
 10
16.1452237517
 20
-13.4118739516
 30
0.0
 11
16.5729187429
 21
-13.2946502417
 31
0.0
  0
LINE
  5
FC
330
1F
100
AcDbEntity
  8
SK3
  6
SLD-Dashed
370
    18
100
AcDbLine
 10
16.5729187429
 20
-13.2946502417
 30
0.0
 11
16.918040812
 21
-12.9544558004
 31
0.0
  0
LINE
  5
FD
330
1F
100
AcDbEntity
  8
SK3
  6
SLD-Dashed
370
    18
100
AcDbLine
 10
16.918040812
 20
-12.9544558004
 30
0.0
 11
17.146807164
 21
-12.4245909974
 31
0.0
  0
LINE
  5
FE
330
1F
100
AcDbEntity
  8
SK3
  6
SLD-Dashed
370
    18
100
AcDbLine
 10
17.146807164
 20
-12.4245909974
 30
0.0
 11
17.2368250787
 21
-11.7569221184
 31
0.0
  0
LINE
  5
FF
330
1F
100
AcDbEntity
  8
SK3
  6
SLD-Dashed
370
    18
100
AcDbLine
 10
17.2368250787
 20
-11.7569221184
 30
0.0
 11
17.1792842448
 21
-11.0168047249
 31
0.0
  0
LINE
  5
100
330
1F
100
AcDbEntity
  8
1
  6
SLD-Dashed
370
    18
100
AcDbLine
 10
148.72939431
 20
23.299999693
 30
0.0
 11
149.7206091881
 21
23.2999995351
 31
0.0
  0
LINE
  5
101
330
1F
100
AcDbEntity
  8
1
  6
SLD-Dashed
370
    18
100
AcDbLine
 10
174.12939431
 20
23.3
 30
0.0
 11
175.1206070185
 21
23.2999995351
 31
0.0
  0
LINE
  5
102
330
1F
100
AcDbEntity
  8
SK3
  6
SLD-Dashed
370
    18
100
AcDbLine
 10
-99.7034013271
 20
-13.190000318
 30
0.0
 11
-99.7034013271
 21
13.190000318
 31
0.0
  0
LINE
  5
103
330
1F
100
AcDbEntity
  8
SK3
  6
SLD-Dashed
370
    18
100
AcDbLine
 10
-101.5999987721
 20
-14.2776602879
 30
0.0
 11
-101.5999987721
 21
14.2776602879
 31
0.0
  0
LINE
  5
104
330
1F
100
AcDbEntity
  8
SK3
  6
SLD-Dashed
370
    18
100
AcDbLine
 10
201.700001955
 20
-12.6999998465
 30
0.0
 11
201.700001955
 21
12.6999998465
 31
0.0
  0
LINE
  5
105
330
1F
100
AcDbEntity
  8
SK3
  6
SLD-Dashed
370
    18
100
AcDbLine
 10
203.1999975443
 20
-13.5660255328
 30
0.0
 11
203.1999975443
 21
13.5660255328
 31
0.0
  0
LINE
  5
106
330
1F
100
AcDbEntity
  8
SK3
  6
SLD-Dashed
370
    18
100
AcDbLine
 10
-95.2500030398
 20
-13.190000318
 30
0.0
 11
-95.2500030398
 21
13.190000318
 31
0.0
  0
LINE
  5
107
330
1F
100
AcDbEntity
  8
SK3
  6
SLD-Dashed
370
    18
100
AcDbLine
 10
-94.0505564213
 20
-11.1124999821
 30
0.0
 11
-94.0505564213
 21
11.1124999821
 31
0.0
  0
LINE
  5
108
330
1F
100
AcDbEntity
  8
SK3
  6
SLD-Dashed
370
    18
100
AcDbLine
 10
3.7000000011
 20
37.8750003874
 30
0.0
 11
3.7000000011
 21
46.5560853481
 31
0.0
  0
LINE
  5
109
330
1F
100
AcDbEntity
  8
SK3
  6
SLD-Dashed
370
    18
100
AcDbLine
 10
18.5499992222
 20
46.5560853481
 30
0.0
 11
18.5499992222
 21
37.8750003874
 31
0.0
  0
LINE
  5
10A
330
1F
100
AcDbEntity
  8
SK3
  6
SLD-Dashed
370
    18
100
AcDbLine
 10
14.2727106199
 20
46.8162535878
 30
0.0
 11
18.3000005782
 21
46.816252172
 31
0.0
  0
LINE
  5
10B
330
1F
100
AcDbEntity
  8
SK3
  6
SLD-Dashed
370
    18
100
AcDbLine
 10
3.9499998093
 20
46.816252172
 30
0.0
 11
7.9572893801
 21
46.8162535878
 31
0.0
  0
LINE
  5
10C
330
1F
100
AcDbEntity
  8
1
  6
SLD-Dashed
370
    18
100
AcDbLine
 10
13.03
 20
44.5510215932
 30
0.0
 11
13.030000031
 21
44.5790104568
 31
0.0
  0
LINE
  5
10D
330
1F
100
AcDbEntity
  8
1
  6
SLD-Dashed
370
    18
100
AcDbLine
 10
9.2
 20
44.5790106634
 30
0.0
 11
9.2
 21
44.5510215932
 31
0.0
  0
LINE
  5
10E
330
1F
100
AcDbEntity
  8
1
  6
SLD-Dashed
370
    18
100
AcDbLine
 10
9.2
 20
-44.5790106634
 30
0.0
 11
9.2
 21
-44.5510215932
 31
0.0
  0
LINE
  5
10F
330
1F
100
AcDbEntity
  8
1
  6
SLD-Dashed
370
    18
100
AcDbLine
 10
13.03
 20
-44.5510215932
 30
0.0
 11
13.03
 21
-44.5790106634
 31
0.0
  0
LINE
  5
110
330
1F
100
AcDbEntity
  8
SK3
  6
SLD-Dashed
370
    18
100
AcDbLine
 10
3.2
 20
-35.4750007391
 30
0.0
 11
3.2
 21
-46.6976348437
 31
0.0
  0
LINE
  5
111
330
1F
100
AcDbEntity
  8
SK3
  6
SLD-Dashed
370
    18
100
AcDbLine
 10
19.05
 20
-46.6976348437
 30
0.0
 11
19.0500002354
 21
-35.4750007391
 31
0.0
  0
LINE
  5
112
330
1F
100
AcDbEntity
  8
SK3
  6
SLD-Dashed
370
    18
100
AcDbLine
 10
19.05
 20
-35.1
 30
0.0
 11
3.2
 21
-35.1
 31
0.0
  0
LINE
  5
113
330
1F
100
AcDbEntity
  8
SK3
  6
SLD-Dashed
370
    18
100
AcDbLine
 10
3.2
 20
-35.4750007391
 30
0.0
 11
19.0500002354
 21
-35.4750007391
 31
0.0
  0
LINE
  5
114
330
1F
100
AcDbEntity
  8
SK3
  6
SLD-Dashed
370
    18
100
AcDbLine
 10
3.7000000011
 20
37.5000014901
 30
0.0
 11
18.5499992222
 21
37.5000014901
 31
0.0
  0
LINE
  5
115
330
1F
100
AcDbEntity
  8
SK3
  6
SLD-Dashed
370
    18
100
AcDbLine
 10
18.5499992222
 20
37.8750003874
 30
0.0
 11
3.7000000011
 21
37.8750003874
 31
0.0
  0
LINE
  5
116
330
1F
100
AcDbEntity
  8
SK3
  6
SLD-Dashed
370
    18
100
AcDbLine
 10
133.2000046968
 20
-12.8678102046
 30
0.0
 11
133.2000046968
 21
12.8678102046
 31
0.0
  0
LINE
  5
117
330
1F
100
AcDbEntity
  8
SK3
  6
SLD-Dashed
370
    18
100
AcDbLine
 10
89.0500023961
 20
-12.8678102046
 30
0.0
 11
89.0500023961
 21
12.8678102046
 31
0.0
  0
LINE
  5
118
330
1F
100
AcDbEntity
  8
SK3
  6
SLD-Dashed
370
    18
100
AcDbLine
 10
133.3499999002
 20
-12.7250003845
 30
0.0
 11
133.3499999002
 21
12.7250001549
 31
0.0
  0
LINE
  5
119
330
1F
100
AcDbEntity
  8
SK3
  6
SLD-Dashed
370
    18
100
AcDbLine
 10
88.8999998569
 20
-12.6953348517
 30
0.0
 11
88.8999998569
 21
12.6953348517
 31
0.0
  0
LINE
  5
11A
330
1F
100
AcDbEntity
  8
SK3
  6
SLD-Dashed
370
    18
100
AcDbLine
 10
133.3499997854
 20
12.6703931019
 30
0.0
 11
133.3499997854
 21
-12.6703931019
 31
0.0
  0
LINE
  5
11B
330
1F
100
AcDbEntity
  8
SK3
  6
SLD-Dashed
370
    18
100
AcDbLine
 10
87.3999968171
 20
-12.6999998465
 30
0.0
 11
87.3999968171
 21
12.6999998465
 31
0.0
  0
LINE
  5
11C
330
1F
100
AcDbEntity
  8
SK3
  6
SLD-Dashed
370
    18
100
AcDbLine
 10
88.8999998569
 20
12.6703931019
 30
0.0
 11
88.8999998569
 21
-12.6703931019
 31
0.0
  0
LINE
  5
11D
330
1F
100
AcDbEntity
  8
SK3
  6
SLD-Dashed
370
    18
100
AcDbLine
 10
86.4461362362
 20
-11.1124999821
 30
0.0
 11
86.4461362362
 21
11.1124999821
 31
0.0
  0
LINE
  5
11E
330
1F
100
AcDbEntity
  8
SK3
  6
SLD-Dashed
370
    18
100
AcDbLine
 10
149.7206091881
 20
23.2999995351
 30
0.0
 11
159.3499928713
 21
23.2999995351
 31
0.0
  0
LINE
  5
11F
330
1F
100
AcDbEntity
  8
SK3
  6
SLD-Dashed
370
    18
100
AcDbLine
 10
174.12939431
 20
23.3
 30
0.0
 11
164.5
 21
23.2999995351
 31
0.0
  0
LINE
  5
120
330
1F
100
AcDbEntity
  8
SK3
  6
SLD-Dashed
370
    18
100
AcDbLine
 10
175.1206070185
 20
23.2999995351
 30
0.0
 11
184.7500056028
 21
23.2999995351
 31
0.0
  0
LINE
  5
121
330
1F
100
AcDbEntity
  8
SK3
  6
SLD-Dashed
370
    18
100
AcDbLine
 10
148.72939431
 20
23.299999693
 30
0.0
 11
139.1
 21
23.2999992281
 31
0.0
  0
LINE
  5
122
330
1F
100
AcDbEntity
  8
SK3
  6
SLD-Dashed
370
    18
100
AcDbLine
 10
183.2863986492
 20
23.2999995351
 30
0.0
 11
165.9636050463
 21
23.2999995351
 31
0.0
  0
LINE
  5
123
330
1F
100
AcDbEntity
  8
SK3
  6
SLD-Dashed
370
    18
100
AcDbLine
 10
157.8864008188
 20
23.2999995351
 30
0.0
 11
140.5636072159
 21
23.2999995351
 31
0.0
  0
LINE
  5
124
330
1F
100
AcDbEntity
  8
SK3
  6
SLD-Dashed
370
    18
100
AcDbLine
 10
16.1000005901
 20
33.100001514
 30
0.0
 11
6.1293100007
 21
33.100001514
 31
0.0
  0
LINE
  5
125
330
1F
100
AcDbEntity
  8
SK3
  6
SLD-Dashed
370
    18
100
AcDbLine
 10
6.0999998823
 20
37.5000014901
 30
0.0
 11
16.070690006
 21
37.5000014901
 31
0.0
  0
LINE
  5
126
330
1F
100
AcDbEntity
  8
SK3
  6
SLD-Dashed
370
    18
100
AcDbLine
 10
6.3999998383
 20
32.8000001609
 30
0.0
 11
15.7999992371
 21
32.8000001609
 31
0.0
  0
LINE
  5
127
330
1F
100
AcDbEntity
  8
1
  6
SLD-Dashed
370
    18
100
AcDbLine
 10
12.28
 20
43.7694359685
 30
0.0
 11
9.95
 21
43.7694359685
 31
0.0
  0
LINE
  5
128
330
1F
100
AcDbEntity
  8
1
  6
SLD-Dashed
370
    18
100
AcDbLine
 10
12.28
 20
-43.7694359685
 30
0.0
 11
9.95
 21
-43.7694359685
 31
0.0
  0
LINE
  5
129
330
1F
100
AcDbEntity
  8
1
  6
SLD-Dashed
370
    18
100
AcDbLine
 10
7.5902766548
 20
-47.4754832685
 30
0.0
 11
3.95
 21
-47.4754841997
 31
0.0
  0
LINE
  5
12A
330
1F
100
AcDbEntity
  8
1
  6
SLD-Dashed
370
    18
100
AcDbLine
 10
18.3
 20
-47.4754841997
 30
0.0
 11
14.6397231147
 21
-47.4754832685
 31
0.0
  0
LINE
  5
12B
330
1F
100
AcDbEntity
  8
SK3
  6
SLD-Dashed
370
    18
100
AcDbLine
 10
3.5547332373
 20
13.8826165348
 30
0.0
 11
3.4971912391
 21
13.1425000727
 31
0.0
  0
LINE
  5
12C
330
1F
100
AcDbEntity
  8
SK3
  6
SLD-Dashed
370
    18
100
AcDbLine
 10
3.4971912391
 20
13.1425000727
 30
0.0
 11
3.5872096196
 21
12.4748302624
 31
0.0
  0
LINE
  5
12D
330
1F
100
AcDbEntity
  8
SK3
  6
SLD-Dashed
370
    18
100
AcDbLine
 10
3.5872096196
 20
12.4748302624
 30
0.0
 11
3.8159764372
 21
11.9449654594
 31
0.0
  0
LINE
  5
12E
330
1F
100
AcDbEntity
  8
SK3
  6
SLD-Dashed
370
    18
100
AcDbLine
 10
3.8159764372
 20
11.9449654594
 30
0.0
 11
4.1610985063
 21
11.604771018
 31
0.0
  0
LINE
  5
12F
330
1F
100
AcDbEntity
  8
SK3
  6
SLD-Dashed
370
    18
100
AcDbLine
 10
4.1610985063
 20
11.604771018
 30
0.0
 11
4.5887930319
 21
11.4875482395
 31
0.0
  0
LINE
  5
130
330
1F
100
AcDbEntity
  8
SK3
  6
SLD-Dashed
370
    18
100
AcDbLine
 10
4.5887930319
 20
11.4875482395
 30
0.0
 11
5.0571942702
 21
11.604771018
 31
0.0
  0
LINE
  5
131
330
1F
100
AcDbEntity
  8
SK3
  6
SLD-Dashed
370
    18
100
AcDbLine
 10
5.0571942702
 20
11.604771018
 30
0.0
 11
5.5204518139
 21
11.9449654594
 31
0.0
  0
LINE
  5
132
330
1F
100
AcDbEntity
  8
SK3
  6
SLD-Dashed
370
    18
100
AcDbLine
 10
5.5204518139
 20
11.9449654594
 30
0.0
 11
5.93321817
 21
12.4748302624
 31
0.0
  0
LINE
  5
133
330
1F
100
AcDbEntity
  8
SK3
  6
SLD-Dashed
370
    18
100
AcDbLine
 10
5.93321817
 20
12.4748302624
 30
0.0
 11
6.255089771
 21
13.1425000727
 31
0.0
  0
LINE
  5
134
330
1F
100
AcDbEntity
  8
SK3
  6
SLD-Dashed
370
    18
100
AcDbLine
 10
6.255089771
 20
13.1425000727
 30
0.0
 11
6.4545595087
 21
13.8826165348
 31
0.0
  0
LINE
  5
135
330
1F
100
AcDbEntity
  8
SK3
  6
SLD-Dashed
370
    18
100
AcDbLine
 10
6.4545595087
 20
13.8826165348
 30
0.0
 11
6.512101274
 21
14.6227339283
 31
0.0
  0
LINE
  5
136
330
1F
100
AcDbEntity
  8
SK3
  6
SLD-Dashed
370
    18
100
AcDbLine
 10
6.512101274
 20
14.6227339283
 30
0.0
 11
6.4220828936
 21
15.2904028073
 31
0.0
  0
LINE
  5
137
330
1F
100
AcDbEntity
  8
SK3
  6
SLD-Dashed
370
    18
100
AcDbLine
 10
6.4220828936
 20
15.2904028073
 30
0.0
 11
6.193316076
 21
15.8202685416
 31
0.0
  0
LINE
  5
138
330
1F
100
AcDbEntity
  8
SK3
  6
SLD-Dashed
370
    18
100
AcDbLine
 10
6.193316076
 20
15.8202685416
 30
0.0
 11
5.8481940068
 21
16.1604620516
 31
0.0
  0
LINE
  5
139
330
1F
100
AcDbEntity
  8
SK3
  6
SLD-Dashed
370
    18
100
AcDbLine
 10
5.8481940068
 20
16.1604620516
 30
0.0
 11
5.4204994813
 21
16.2776857615
 31
0.0
  0
LINE
  5
13A
330
1F
100
AcDbEntity
  8
SK3
  6
SLD-Dashed
370
    18
100
AcDbLine
 10
5.4204994813
 20
16.2776857615
 30
0.0
 11
4.9520982429
 21
16.1604620516
 31
0.0
  0
LINE
  5
13B
330
1F
100
AcDbEntity
  8
SK3
  6
SLD-Dashed
370
    18
100
AcDbLine
 10
4.9520982429
 20
16.1604620516
 30
0.0
 11
4.4888411649
 21
15.8202685416
 31
0.0
  0
LINE
  5
13C
330
1F
100
AcDbEntity
  8
SK3
  6
SLD-Dashed
370
    18
100
AcDbLine
 10
4.4888411649
 20
15.8202685416
 30
0.0
 11
4.0760743432
 21
15.2904028073
 31
0.0
  0
LINE
  5
13D
330
1F
100
AcDbEntity
  8
SK3
  6
SLD-Dashed
370
    18
100
AcDbLine
 10
4.0760743432
 20
15.2904028073
 30
0.0
 11
3.7542027421
 21
14.6227339283
 31
0.0
  0
LINE
  5
13E
330
1F
100
AcDbEntity
  8
SK3
  6
SLD-Dashed
370
    18
100
AcDbLine
 10
3.7542027421
 20
14.6227339283
 30
0.0
 11
3.5547332373
 21
13.8826165348
 31
0.0
  0
LINE
  5
13F
330
1F
100
AcDbEntity
  8
SK3
  6
SLD-Dashed
370
    18
100
AcDbLine
 10
14.2794577405
 20
11.0168047249
 30
0.0
 11
14.4789274782
 21
11.7569221184
 31
0.0
  0
LINE
  5
140
330
1F
100
AcDbEntity
  8
SK3
  6
SLD-Dashed
370
    18
100
AcDbLine
 10
14.4789274782
 20
11.7569221184
 30
0.0
 11
14.8007990792
 21
12.4245909974
 31
0.0
  0
LINE
  5
141
330
1F
100
AcDbEntity
  8
SK3
  6
SLD-Dashed
370
    18
100
AcDbLine
 10
14.8007990792
 20
12.4245909974
 30
0.0
 11
15.2135659009
 21
12.9544558004
 31
0.0
  0
LINE
  5
142
330
1F
100
AcDbEntity
  8
SK3
  6
SLD-Dashed
370
    18
100
AcDbLine
 10
15.2135659009
 20
12.9544558004
 30
0.0
 11
15.6768225133
 21
13.2946502417
 31
0.0
  0
LINE
  5
143
330
1F
100
AcDbEntity
  8
SK3
  6
SLD-Dashed
370
    18
100
AcDbLine
 10
15.6768225133
 20
13.2946502417
 30
0.0
 11
16.1452237517
 21
13.4118739516
 31
0.0
  0
LINE
  5
144
330
1F
100
AcDbEntity
  8
SK3
  6
SLD-Dashed
370
    18
100
AcDbLine
 10
16.1452237517
 20
13.4118739516
 30
0.0
 11
16.5729187429
 21
13.2946502417
 31
0.0
  0
LINE
  5
145
330
1F
100
AcDbEntity
  8
SK3
  6
SLD-Dashed
370
    18
100
AcDbLine
 10
16.5729187429
 20
13.2946502417
 30
0.0
 11
16.918040812
 21
12.9544558004
 31
0.0
  0
LINE
  5
146
330
1F
100
AcDbEntity
  8
SK3
  6
SLD-Dashed
370
    18
100
AcDbLine
 10
16.918040812
 20
12.9544558004
 30
0.0
 11
17.146807164
 21
12.4245909974
 31
0.0
  0
LINE
  5
147
330
1F
100
AcDbEntity
  8
SK3
  6
SLD-Dashed
370
    18
100
AcDbLine
 10
17.146807164
 20
12.4245909974
 30
0.0
 11
17.2368250787
 21
11.7569221184
 31
0.0
  0
LINE
  5
148
330
1F
100
AcDbEntity
  8
SK3
  6
SLD-Dashed
370
    18
100
AcDbLine
 10
17.2368250787
 20
11.7569221184
 30
0.0
 11
17.1792842448
 21
11.0168047249
 31
0.0
  0
LINE
  5
149
330
1F
100
AcDbEntity
  8
SK3
  6
SLD-Dashed
370
    18
100
AcDbLine
 10
17.1792842448
 20
11.0168047249
 30
0.0
 11
16.9798154384
 21
10.2766882628
 31
0.0
  0
LINE
  5
14A
330
1F
100
AcDbEntity
  8
SK3
  6
SLD-Dashed
370
    18
100
AcDbLine
 10
16.9798154384
 20
10.2766882628
 30
0.0
 11
16.657942906
 21
9.6090184525
 31
0.0
  0
LINE
  5
14B
330
1F
100
AcDbEntity
  8
SK3
  6
SLD-Dashed
370
    18
100
AcDbLine
 10
16.657942906
 20
9.6090184525
 30
0.0
 11
16.2451770157
 21
9.0791536495
 31
0.0
  0
LINE
  5
14C
330
1F
100
AcDbEntity
  8
SK3
  6
SLD-Dashed
370
    18
100
AcDbLine
 10
16.2451770157
 20
9.0791536495
 30
0.0
 11
15.7819185406
 21
8.7389592081
 31
0.0
  0
LINE
  5
14D
330
1F
100
AcDbEntity
  8
SK3
  6
SLD-Dashed
370
    18
100
AcDbLine
 10
15.7819185406
 20
8.7389592081
 30
0.0
 11
15.3135182336
 21
8.6217364296
 31
0.0
  0
LINE
  5
14E
330
1F
100
AcDbEntity
  8
SK3
  6
SLD-Dashed
370
    18
100
AcDbLine
 10
15.3135182336
 20
8.6217364296
 30
0.0
 11
14.8858232424
 21
8.7389592081
 31
0.0
  0
LINE
  5
14F
330
1F
100
AcDbEntity
  8
SK3
  6
SLD-Dashed
370
    18
100
AcDbLine
 10
14.8858232424
 20
8.7389592081
 30
0.0
 11
14.5407011732
 21
9.0791536495
 31
0.0
  0
LINE
  5
150
330
1F
100
AcDbEntity
  8
SK3
  6
SLD-Dashed
370
    18
100
AcDbLine
 10
14.5407011732
 20
9.0791536495
 30
0.0
 11
14.31193389
 21
9.6090184525
 31
0.0
  0
LINE
  5
151
330
1F
100
AcDbEntity
  8
SK3
  6
SLD-Dashed
370
    18
100
AcDbLine
 10
14.31193389
 20
9.6090184525
 30
0.0
 11
14.2219159752
 21
10.2766882628
 31
0.0
  0
LINE
  5
152
330
1F
100
AcDbEntity
  8
SK3
  6
SLD-Dashed
370
    18
100
AcDbLine
 10
14.2219159752
 20
10.2766882628
 30
0.0
 11
14.2794577405
 21
11.0168047249
 31
0.0
  0
LINE
  5
153
330
1F
100
AcDbEntity
  8
SK3
  6
SLD-Dashed
370
    18
100
AcDbLine
 10
3.3949404024
 20
13.9015950263
 30
0.0
 11
3.593379166
 21
14.650776051
 31
0.0
  0
LINE
  5
154
330
1F
100
AcDbEntity
  8
SK3
  6
SLD-Dashed
370
    18
100
AcDbLine
 10
3.593379166
 20
14.650776051
 30
0.0
 11
3.9109047502
 21
15.333388932
 31
0.0
  0
LINE
  5
155
330
1F
100
AcDbEntity
  8
SK3
  6
SLD-Dashed
370
    18
100
AcDbLine
 10
3.9109047502
 20
15.333388932
 30
0.0
 11
4.3193032034
 21
15.8887803555
 31
0.0
  0
LINE
  5
156
330
1F
100
AcDbEntity
  8
SK3
  6
SLD-Dashed
370
    18
100
AcDbLine
 10
4.3193032034
 20
15.8887803555
 30
0.0
 11
4.7822869383
 21
16.2676014006
 31
0.0
  0
LINE
  5
157
330
1F
100
AcDbEntity
  8
SK3
  6
SLD-Dashed
370
    18
100
AcDbLine
 10
4.7822869383
 20
16.2676014006
 30
0.0
 11
5.2587171085
 21
16.4361931384
 31
0.0
  0
LINE
  5
158
330
1F
100
AcDbEntity
  8
SK3
  6
SLD-Dashed
370
    18
100
AcDbLine
 10
5.2587171085
 20
16.4361931384
 30
0.0
 11
5.7062618434
 21
16.3795743138
 31
0.0
  0
LINE
  5
159
330
1F
100
AcDbEntity
  8
SK3
  6
SLD-Dashed
370
    18
100
AcDbLine
 10
5.7062618434
 20
16.3795743138
 30
0.0
 11
6.0851541348
 21
16.1027759314
 31
0.0
  0
LINE
  5
15A
330
1F
100
AcDbEntity
  8
SK3
  6
SLD-Dashed
370
    18
100
AcDbLine
 10
6.0851541348
 20
16.1027759314
 30
0.0
 11
6.3617276028
 21
15.6303942204
 31
0.0
  0
LINE
  5
15B
330
1F
100
AcDbEntity
  8
SK3
  6
SLD-Dashed
370
    18
100
AcDbLine
 10
6.3617276028
 20
15.6303942204
 30
0.0
 11
6.51140837
 21
15.0044001639
 31
0.0
  0
LINE
  5
15C
330
1F
100
AcDbEntity
  8
SK3
  6
SLD-Dashed
370
    18
100
AcDbLine
 10
6.51140837
 20
15.0044001639
 30
0.0
 11
6.5208957531
 21
14.2804170027
 31
0.0
  0
LINE
  5
15D
330
1F
100
AcDbEntity
  8
SK3
  6
SLD-Dashed
370
    18
100
AcDbLine
 10
6.5208957531
 20
14.2804170027
 30
0.0
 11
6.3893469051
 21
13.5227730498
 31
0.0
  0
LINE
  5
15E
330
1F
100
AcDbEntity
  8
SK3
  6
SLD-Dashed
370
    18
100
AcDbLine
 10
6.3893469051
 20
13.5227730498
 30
0.0
 11
6.1284508556
 21
12.7987898886
 31
0.0
  0
LINE
  5
15F
330
1F
100
AcDbEntity
  8
SK3
  6
SLD-Dashed
370
    18
100
AcDbLine
 10
6.1284508556
 20
12.7987898886
 30
0.0
 11
5.7613886893
 21
12.1727958322
 31
0.0
  0
LINE
  5
160
330
1F
100
AcDbEntity
  8
SK3
  6
SLD-Dashed
370
    18
100
AcDbLine
 10
5.7613886893
 20
12.1727958322
 30
0.0
 11
5.3207767196
 21
11.7004131898
 31
0.0
  0
LINE
  5
161
330
1F
100
AcDbEntity
  8
SK3
  6
SLD-Dashed
370
    18
100
AcDbLine
 10
5.3207767196
 20
11.7004131898
 30
0.0
 11
4.8457640223
 21
11.4236157387
 31
0.0
  0
LINE
  5
162
330
1F
100
AcDbEntity
  8
SK3
  6
SLD-Dashed
370
    18
100
AcDbLine
 10
4.8457640223
 20
11.4236157387
 30
0.0
 11
4.3785581365
 21
11.3669969141
 31
0.0
  0
LINE
  5
163
330
1F
100
AcDbEntity
  8
SK3
  6
SLD-Dashed
370
    18
100
AcDbLine
 10
4.3785581365
 20
11.3669969141
 30
0.0
 11
3.9606723003
 21
11.5355877206
 31
0.0
  0
LINE
  5
164
330
1F
100
AcDbEntity
  8
SK3
  6
SLD-Dashed
370
    18
100
AcDbLine
 10
3.9606723003
 20
11.5355877206
 30
0.0
 11
3.6292374134
 21
11.9144096971
 31
0.0
  0
LINE
  5
165
330
1F
100
AcDbEntity
  8
SK3
  6
SLD-Dashed
370
    18
100
AcDbLine
 10
3.6292374134
 20
11.9144096971
 30
0.0
 11
3.4137030598
 21
12.4698011205
 31
0.0
  0
LINE
  5
166
330
1F
100
AcDbEntity
  8
SK3
  6
SLD-Dashed
370
    18
100
AcDbLine
 10
3.4137030598
 20
12.4698011205
 30
0.0
 11
3.3332202584
 21
13.1524140015
 31
0.0
  0
LINE
  5
167
330
1F
100
AcDbEntity
  8
SK3
  6
SLD-Dashed
370
    18
100
AcDbLine
 10
3.3332202584
 20
13.1524140015
 30
0.0
 11
3.3949404024
 21
13.9015950263
 31
0.0
  0
LINE
  5
168
330
1F
100
AcDbEntity
  8
SK3
  6
SLD-Dashed
370
    18
100
AcDbLine
 10
5.6371325627
 20
-16.2495691329
 30
0.0
 11
16.3618568331
 21
-13.3837563917
 31
0.0
  0
LINE
  5
169
330
1F
100
AcDbEntity
  8
SK3
  6
SLD-Dashed
370
    18
100
AcDbLine
 10
15.0968851522
 20
-8.6498530582
 30
0.0
 11
4.3721604161
 21
-11.5156648681
 31
0.0
  0
LINE
  5
16A
330
1F
100
AcDbEntity
  8
SK3
  6
SLD-Dashed
370
    18
100
AcDbLine
 10
-101.5999987721
 20
-14.2850000411
 30
0.0
 11
-99.7034013271
 21
-13.190000318
 31
0.0
  0
LINE
  5
16B
330
1F
100
AcDbEntity
  8
SK3
  6
SLD-Dashed
370
    18
100
AcDbLine
 10
-99.7034013271
 20
13.190000318
 30
0.0
 11
-101.5999987721
 21
14.2850000411
 31
0.0
  0
LINE
  5
16C
330
1F
100
AcDbEntity
  8
SK3
  6
SLD-Dashed
370
    18
100
AcDbLine
 10
203.1999975443
 20
13.5660255328
 30
0.0
 11
201.700001955
 21
12.6999998465
 31
0.0
  0
LINE
  5
16D
330
1F
100
AcDbEntity
  8
SK3
  6
SLD-Dashed
370
    18
100
AcDbLine
 10
201.700001955
 20
-12.6999998465
 30
0.0
 11
203.1999975443
 21
-13.5660255328
 31
0.0
  0
LINE
  5
16E
330
1F
100
AcDbEntity
  8
SK3
  6
SLD-Dashed
370
    18
100
AcDbLine
 10
-99.7034013271
 20
-13.190000318
 30
0.0
 11
-95.2500030398
 21
-13.190000318
 31
0.0
  0
LINE
  5
16F
330
1F
100
AcDbEntity
  8
SK3
  6
SLD-Dashed
370
    18
100
AcDbLine
 10
-95.2500030398
 20
13.190000318
 30
0.0
 11
-99.7034013271
 21
13.190000318
 31
0.0
  0
LINE
  5
170
330
1F
100
AcDbEntity
  8
SK3
  6
SLD-Dashed
370
    18
100
AcDbLine
 10
-95.2500030398
 20
-13.190000318
 30
0.0
 11
-94.0505564213
 21
-11.1124999821
 31
0.0
  0
LINE
  5
171
330
1F
100
AcDbEntity
  8
SK3
  6
SLD-Dashed
370
    18
100
AcDbLine
 10
-94.0505564213
 20
11.1124999821
 30
0.0
 11
-95.2500030398
 21
13.190000318
 31
0.0
  0
LINE
  5
172
330
1F
100
AcDbEntity
  8
SK3
  6
SLD-Dashed
370
    18
100
AcDbLine
 10
89.0500023961
 20
-12.8750000149
 30
0.0
 11
133.2000046968
 21
-12.8750000149
 31
0.0
  0
LINE
  5
173
330
1F
100
AcDbEntity
  8
SK3
  6
SLD-Dashed
370
    18
100
AcDbLine
 10
133.2000046968
 20
12.8749997853
 30
0.0
 11
89.0500023961
 21
12.8749997853
 31
0.0
  0
LINE
  5
174
330
1F
100
AcDbEntity
  8
SK3
  6
SLD-Dashed
370
    18
100
AcDbLine
 10
140.5636
 20
12.7
 30
0.0
 11
133.3499997854
 21
12.6999998465
 31
0.0
  0
LINE
  5
175
330
1F
100
AcDbEntity
  8
SK3
  6
SLD-Dashed
370
    18
100
AcDbLine
 10
165.9636
 20
12.7
 30
0.0
 11
157.8744351864
 21
12.6999998465
 31
0.0
  0
LINE
  5
176
330
1F
100
AcDbEntity
  8
SK3
  6
SLD-Dashed
370
    18
100
AcDbLine
 10
201.700001955
 20
12.6999998465
 30
0.0
 11
183.2744330168
 21
12.6999998465
 31
0.0
  0
LINE
  5
177
330
1F
100
AcDbEntity
  8
SK3
  6
SLD-Dashed
370
    18
100
AcDbLine
 10
133.3499997854
 20
-12.6999998465
 30
0.0
 11
201.700001955
 21
-12.6999998465
 31
0.0
  0
LINE
  5
178
330
1F
100
AcDbEntity
  8
SK3
  6
SLD-Dashed
370
    18
100
AcDbLine
 10
88.8999998569
 20
12.6999998465
 30
0.0
 11
87.3999968171
 21
12.6999998465
 31
0.0
  0
LINE
  5
179
330
1F
100
AcDbEntity
  8
SK3
  6
SLD-Dashed
370
    18
100
AcDbLine
 10
87.3999968171
 20
-12.6999998465
 30
0.0
 11
88.8999998569
 21
-12.6999998465
 31
0.0
  0
LINE
  5
17A
330
1F
100
AcDbEntity
  8
SK3
  6
SLD-Dashed
370
    18
100
AcDbLine
 10
87.3999968171
 20
12.6999998465
 30
0.0
 11
86.4461362362
 21
11.1124999821
 31
0.0
  0
LINE
  5
17B
330
1F
100
AcDbEntity
  8
SK3
  6
SLD-Dashed
370
    18
100
AcDbLine
 10
86.4461362362
 20
-11.1124999821
 30
0.0
 11
87.3999968171
 21
-12.6999998465
 31
0.0
  0
LINE
  5
17C
330
1F
100
AcDbEntity
  8
SK3
  6
SLD-Dashed
370
    18
100
AcDbLine
 10
-94.0505564213
 20
-11.1124999821
 30
0.0
 11
86.4461362362
 21
-11.1124999821
 31
0.0
  0
LINE
  5
17D
330
1F
100
AcDbEntity
  8
SK3
  6
SLD-Dashed
370
    18
100
AcDbLine
 10
86.4461362362
 20
11.1124999821
 30
0.0
 11
-94.0505564213
 21
11.1124999821
 31
0.0
  0
LINE
  5
17E
330
1F
100
AcDbEntity
  8
SK3
  6
SLD-Dashed
370
    18
100
AcDbLine
 10
159.3499928713
 20
23.2999995351
 30
0.0
 11
159.3499928713
 21
25.399999693
 31
0.0
  0
LINE
  5
17F
330
1F
100
AcDbEntity
  8
SK3
  6
SLD-Dashed
370
    18
100
AcDbLine
 10
164.5
 20
25.4
 30
0.0
 11
164.5
 21
23.2999995351
 31
0.0
  0
LINE
  5
180
330
1F
100
AcDbEntity
  8
SK3
  6
SLD-Dashed
370
    18
100
AcDbLine
 10
184.7500056028
 20
23.2999995351
 30
0.0
 11
184.7500056028
 21
25.399999693
 31
0.0
  0
LINE
  5
181
330
1F
100
AcDbEntity
  8
SK3
  6
SLD-Dashed
370
    18
100
AcDbLine
 10
139.1
 20
25.399999693
 30
0.0
 11
139.1
 21
23.2999992281
 31
0.0
  0
LINE
  5
182
330
1F
100
AcDbEntity
  8
SK3
  6
SLD-Dashed
370
    18
100
AcDbLine
 10
165.9636050463
 20
23.2999995351
 30
0.0
 11
165.9636
 21
12.7
 31
0.0
  0
LINE
  5
183
330
1F
100
AcDbEntity
  8
SK3
  6
SLD-Dashed
370
    18
100
AcDbLine
 10
183.2863986492
 20
12.6918610185
 30
0.0
 11
183.2863986492
 21
23.2999995351
 31
0.0
  0
LINE
  5
184
330
1F
100
AcDbEntity
  8
SK3
  6
SLD-Dashed
370
    18
100
AcDbLine
 10
140.5636072159
 20
23.2999995351
 30
0.0
 11
140.5636
 21
12.7
 31
0.0
  0
LINE
  5
185
330
1F
100
AcDbEntity
  8
SK3
  6
SLD-Dashed
370
    18
100
AcDbLine
 10
157.8864008188
 20
12.6918610185
 30
0.0
 11
157.8864008188
 21
23.2999995351
 31
0.0
  0
LINE
  5
186
330
1F
100
AcDbEntity
  8
SK3
  6
SLD-Dashed
370
    18
100
AcDbLine
 10
6.0999998823
 20
37.5000014901
 30
0.0
 11
6.0999998823
 21
33.100001514
 31
0.0
  0
LINE
  5
187
330
1F
100
AcDbEntity
  8
SK3
  6
SLD-Dashed
370
    18
100
AcDbLine
 10
16.1000005901
 20
33.100001514
 30
0.0
 11
16.1000005901
 21
37.5000014901
 31
0.0
  0
LINE
  5
188
330
1F
100
AcDbEntity
  8
SK3
  6
SLD-Dashed
370
    18
100
AcDbLine
 10
4.3721604161
 20
11.5156648681
 30
0.0
 11
15.0968851522
 21
8.6498530582
 31
0.0
  0
LINE
  5
189
330
1F
100
AcDbEntity
  8
SK3
  6
SLD-Dashed
370
    18
100
AcDbLine
 10
16.3618568331
 20
13.3837563917
 30
0.0
 11
5.6371325627
 21
16.2495691329
 31
0.0
  0
LINE
  5
18A
330
1F
100
AcDbEntity
  8
SK3
  6
SLD-Solid
370
    18
100
AcDbLine
 10
-55.5999986827
 20
12.6999998465
 30
0.0
 11
-94.967097044
 21
12.6999998465
 31
0.0
  0
LINE
  5
18B
330
1F
100
AcDbEntity
  8
SK3
  6
SLD-Solid
370
    18
100
AcDbLine
 10
-94.967097044
 20
-12.6999998465
 30
0.0
 11
-55.5999986827
 21
-12.6999998465
 31
0.0
  0
LINE
  5
18C
330
1F
100
AcDbEntity
  8
SK3
  6
SLD-Solid
370
    18
100
AcDbLine
 10
-55.5999986827
 20
0.0
 30
0.0
 11
-55.5999986827
 21
-2.0903511904
 31
0.0
  0
LINE
  5
18D
330
1F
100
AcDbEntity
  8
SK3
  6
SLD-Solid
370
    18
100
AcDbLine
 10
-55.5999986827
 20
-2.0903511904
 30
0.0
 11
-55.5999986827
 21
-4.1236830875
 31
0.0
  0
LINE
  5
18E
330
1F
100
AcDbEntity
  8
SK3
  6
SLD-Solid
370
    18
100
AcDbLine
 10
-55.5999986827
 20
-4.1236830875
 30
0.0
 11
-55.5999986827
 21
-6.0445317067
 31
0.0
  0
LINE
  5
18F
330
1F
100
AcDbEntity
  8
SK3
  6
SLD-Solid
370
    18
100
AcDbLine
 10
-55.5999986827
 20
-6.0445317067
 30
0.0
 11
-55.5999986827
 21
-7.8005013056
 31
0.0
  0
LINE
  5
190
330
1F
100
AcDbEntity
  8
SK3
  6
SLD-Solid
370
    18
100
AcDbLine
 10
-55.5999986827
 20
-7.8005013056
 30
0.0
 11
-55.5999986827
 21
-9.3436939642
 31
0.0
  0
LINE
  5
191
330
1F
100
AcDbEntity
  8
SK3
  6
SLD-Solid
370
    18
100
AcDbLine
 10
-55.5999986827
 20
-9.3436939642
 30
0.0
 11
-55.5999986827
 21
-10.6320139021
 31
0.0
  0
LINE
  5
192
330
1F
100
AcDbEntity
  8
SK3
  6
SLD-Solid
370
    18
100
AcDbLine
 10
-55.5999986827
 20
-10.6320139021
 30
0.0
 11
-55.5999986827
 21
-11.6303209215
 31
0.0
  0
LINE
  5
193
330
1F
100
AcDbEntity
  8
SK3
  6
SLD-Solid
370
    18
100
AcDbLine
 10
-55.5999986827
 20
-11.6303209215
 30
0.0
 11
-55.5999986827
 21
-12.3113831505
 31
0.0
  0
LINE
  5
194
330
1F
100
AcDbEntity
  8
SK3
  6
SLD-Solid
370
    18
100
AcDbLine
 10
-55.5999986827
 20
-12.3113831505
 30
0.0
 11
-55.5999986827
 21
-12.6566234976
 31
0.0
  0
LINE
  5
195
330
1F
100
AcDbEntity
  8
SK3
  6
SLD-Solid
370
    18
100
AcDbLine
 10
-55.5999986827
 20
-12.6566234976
 30
0.0
 11
-55.5999986827
 21
-12.6999998465
 31
0.0
  0
LINE
  5
196
330
1F
100
AcDbEntity
  8
SK3
  6
SLD-Solid
370
    18
100
AcDbLine
 10
-55.5999986827
 20
12.6999998465
 30
0.0
 11
-55.5999986827
 21
12.6566234976
 31
0.0
  0
LINE
  5
197
330
1F
100
AcDbEntity
  8
SK3
  6
SLD-Solid
370
    18
100
AcDbLine
 10
-55.5999986827
 20
12.6566234976
 30
0.0
 11
-55.5999986827
 21
12.3113831505
 31
0.0
  0
LINE
  5
198
330
1F
100
AcDbEntity
  8
SK3
  6
SLD-Solid
370
    18
100
AcDbLine
 10
-55.5999986827
 20
12.3113831505
 30
0.0
 11
-55.5999986827
 21
11.6303209215
 31
0.0
  0
LINE
  5
199
330
1F
100
AcDbEntity
  8
SK3
  6
SLD-Solid
370
    18
100
AcDbLine
 10
-55.5999986827
 20
11.6303209215
 30
0.0
 11
-55.5999986827
 21
10.6320139021
 31
0.0
  0
LINE
  5
19A
330
1F
100
AcDbEntity
  8
SK3
  6
SLD-Solid
370
    18
100
AcDbLine
 10
-55.5999986827
 20
10.6320139021
 30
0.0
 11
-55.5999986827
 21
9.3436939642
 31
0.0
  0
LINE
  5
19B
330
1F
100
AcDbEntity
  8
SK3
  6
SLD-Solid
370
    18
100
AcDbLine
 10
-55.5999986827
 20
9.3436939642
 30
0.0
 11
-55.5999986827
 21
7.8005013056
 31
0.0
  0
LINE
  5
19C
330
1F
100
AcDbEntity
  8
SK3
  6
SLD-Solid
370
    18
100
AcDbLine
 10
-55.5999986827
 20
7.8005013056
 30
0.0
 11
-55.5999986827
 21
6.0445317067
 31
0.0
  0
LINE
  5
19D
330
1F
100
AcDbEntity
  8
SK3
  6
SLD-Solid
370
    18
100
AcDbLine
 10
-55.5999986827
 20
6.0445317067
 30
0.0
 11
-55.5999986827
 21
4.1236830875
 31
0.0
  0
LINE
  5
19E
330
1F
100
AcDbEntity
  8
SK3
  6
SLD-Solid
370
    18
100
AcDbLine
 10
-55.5999986827
 20
4.1236830875
 30
0.0
 11
-55.5999986827
 21
2.0903511904
 31
0.0
  0
LINE
  5
19F
330
1F
100
AcDbEntity
  8
SK3
  6
SLD-Solid
370
    18
100
AcDbLine
 10
-55.5999986827
 20
2.0903511904
 30
0.0
 11
-55.5999986827
 21
0.0
 31
0.0
  0
LINE
  5
1A0
330
1F
100
AcDbEntity
  8
SK3
  6
SLD-Solid
370
    18
100
AcDbLine
 10
184.1499954462
 20
12.6269608736
 30
0.0
 11
184.1499954462
 21
23.2999995351
 31
0.0
  0
LINE
  5
1A1
330
1F
100
AcDbEntity
  8
SK3
  6
SLD-Solid
370
    18
100
AcDbLine
 10
165.0999933481
 20
23.2999995351
 30
0.0
 11
165.0999933481
 21
12.6269608736
 31
0.0
  0
LINE
  5
1A2
330
1F
100
AcDbEntity
  8
SK3
  6
SLD-Solid
370
    18
100
AcDbLine
 10
184.0523779392
 20
12.6269608736
 30
0.0
 11
184.0292662382
 21
12.6097053289
 31
0.0
  0
LINE
  5
1A3
330
1F
100
AcDbEntity
  8
SK3
  6
SLD-Solid
370
    18
100
AcDbLine
 10
158.7499976158
 20
12.6269608736
 30
0.0
 11
158.7499976158
 21
23.2999995351
 31
0.0
  0
LINE
  5
1A4
330
1F
100
AcDbEntity
  8
SK3
  6
SLD-Solid
370
    18
100
AcDbLine
 10
139.6999955177
 20
23.2999995351
 30
0.0
 11
139.6999955177
 21
12.6269608736
 31
0.0
  0
LINE
  5
1A5
330
1F
100
AcDbEntity
  8
SK3
  6
SLD-Solid
370
    18
100
AcDbLine
 10
158.6523801088
 20
12.6269608736
 30
0.0
 11
158.6292684078
 21
12.6097053289
 31
0.0
  0
LINE
  5
1A6
330
1F
100
AcDbEntity
  8
4
  6
SLD-Center
370
    18
100
AcDbLine
 10
203.9945447901
 20
0.0
 30
0.0
 11
-0.0986078014
 21
0.0
 31
0.0
  0
LINE
  5
1A7
330
1F
100
AcDbEntity
  8
4
  6
SLD-Center
370
    18
100
AcDbLine
 10
149.225
 20
10.7
 30
0.0
 11
149.225
 21
25.3
 31
0.0
  0
LINE
  5
1A8
330
1F
100
AcDbEntity
  8
4
  6
SLD-Center
370
    18
100
AcDbLine
 10
174.625
 20
10.7
 30
0.0
 11
174.625
 21
25.3
 31
0.0
  0
LINE
  5
1A9
330
1F
100
AcDbEntity
  8
SK4
  6
SLD-Center
370
    18
100
AcDbLine
 10
-104.0262269782
 20
0.0
 30
0.0
 11
204.7
 21
0.0
 31
0.0
  0
LINE
  5
1AA
330
1F
100
AcDbEntity
  8
81
370
    18
100
AcDbLine
 10
203.1999975443
 20
0.0
 30
0.0
 11
206.7355314502
 21
3.5355339059
 31
0.0
  0
LINE
  5
1AB
330
1F
100
AcDbEntity
  8
81
370
    18
100
AcDbLine
 10
203.1999975443
 20
0.0
 30
0.0
 11
199.6644636384
 21
-3.5355339059
 31
0.0
  0
LINE
  5
1AC
330
1F
100
AcDbEntity
  8
81
370
    18
100
AcDbLine
 10
203.1999975443
 20
0.0
 30
0.0
 11
199.6644636384
 21
3.5355339059
 31
0.0
  0
LINE
  5
1AD
330
1F
100
AcDbEntity
  8
81
100
AcDbLine
 10
203.1999975443
 20
0.0
 30
0.0
 11
213.1999975443
 21
0.0
 31
0.0
  0
LINE
  5
1AE
330
1F
100
AcDbEntity
  8
81
370
    18
100
AcDbLine
 10
203.1999975443
 20
0.0
 30
0.0
 11
206.7355314502
 21
-3.5355339059
 31
0.0
  0
LINE
  5
1AF
330
1F
100
AcDbEntity
  8
80
370
    18
100
AcDbLine
 10
0.0
 20
0.0
 30
0.0
 11
-3.5355339059
 21
-3.5355339059
 31
0.0
  0
LINE
  5
1B0
330
1F
100
AcDbEntity
  8
80
370
    18
100
AcDbLine
 10
0.0
 20
0.0
 30
0.0
 11
3.5355339059
 21
3.5355339059
 31
0.0
  0
LINE
  5
1B1
330
1F
100
AcDbEntity
  8
80
370
    18
100
AcDbLine
 10
0.0
 20
0.0
 30
0.0
 11
-3.5355339059
 21
3.5355339059
 31
0.0
  0
LINE
  5
1B2
330
1F
100
AcDbEntity
  8
80
370
    18
100
AcDbLine
 10
0.0
 20
0.0
 30
0.0
 11
-10.0
 21
0.0
 31
0.0
  0
LINE
  5
1B3
330
1F
100
AcDbEntity
  8
80
370
    18
100
AcDbLine
 10
0.0
 20
0.0
 30
0.0
 11
3.5355339059
 21
-3.5355339059
 31
0.0
  0
ARC
  5
1B4
330
1F
100
AcDbEntity
  8
1
  6
SLD-Solid
370
    25
100
AcDbCircle
 10
19.8119980322
 20
-35.686999157
 30
0.0
 40
0.7620000000000023
100
AcDbArc
 50
89.9999968406
 51
129.6626295883
  0
ARC
  5
1B5
330
1F
100
AcDbEntity
  8
1
  6
SLD-Solid
370
    25
100
AcDbCircle
 10
19.8120019678
 20
35.6870019636
 30
0.0
 40
0.7620000000000159
100
AcDbArc
 50
179.9999968406
 51
269.9999968406
  0
ARC
  5
1B6
330
1F
100
AcDbEntity
  8
1
  6
SLD-Solid
370
    25
100
AcDbCircle
 10
2.45
 20
35.425
 30
0.0
 40
0.750000000000007
100
AcDbArc
 50
245.0
 51
0.0
  0
ARC
  5
1B7
330
1F
100
AcDbEntity
  8
1
  6
SLD-Solid
370
    25
100
AcDbCircle
 10
2.45
 20
-35.425
 30
0.0
 40
0.7500000000000173
100
AcDbArc
 50
25.302559916
 51
115.0
  0
ARC
  5
1B8
330
1F
100
AcDbEntity
  8
1
  6
SLD-Solid
370
    25
100
AcDbCircle
 10
33.5759981582
 20
-33.4009993557
 30
0.0
 40
1.523999439716379
100
AcDbArc
 50
270.0000149559
 51
359.9999968406
  0
ARC
  5
1B9
330
1F
100
AcDbEntity
  8
1
  6
SLD-Solid
370
    25
100
AcDbCircle
 10
33.5760018418
 20
33.4010006443
 30
0.0
 40
1.523999439716393
100
AcDbArc
 50
359.9999968406
 51
89.9999787254
  0
ARC
  5
1BA
330
1F
100
AcDbEntity
  8
1
  6
SLD-Solid
370
    25
100
AcDbCircle
 10
36.624
 20
-33.3541306798
 30
0.0
 40
1.523999999999999
100
AcDbArc
 50
97.0
 51
180.0
  0
ARC
  5
1BB
330
1F
100
AcDbEntity
  8
1
  6
SLD-Solid
370
    25
100
AcDbCircle
 10
36.624
 20
33.3541306798
 30
0.0
 40
1.524000000000013
100
AcDbArc
 50
180.0
 51
263.0
  0
ARC
  5
1BC
330
1F
100
AcDbEntity
  8
SK1
  6
SLD-Solid
370
    25
100
AcDbCircle
 10
-99.500000046
 20
18.2922329752
 30
0.0
 40
2.100000318602819
100
AcDbArc
 50
98.2971677069
 51
180.0000172034
  0
ARC
  5
1BD
330
1F
100
AcDbEntity
  8
SK1
  6
SLD-Solid
370
    25
100
AcDbCircle
 10
-99.500000046
 20
-18.2922329752
 30
0.0
 40
2.100000318602814
100
AcDbArc
 50
180.0
 51
261.7028322931
  0
ARC
  5
1BE
330
1F
100
AcDbEntity
  8
1
370
    18
100
AcDbCircle
 10
149.2166168008
 20
-54.9654581364
 30
0.0
 40
31.49170817741497
100
AcDbArc
 50
69.8565074731
 51
110.1227970832
  0
ARC
  5
1BF
330
1F
100
AcDbEntity
  8
1
370
    18
100
AcDbCircle
 10
174.6164863747
 20
-55.6756194954
 30
0.0
 40
32.15940433609664
100
AcDbArc
 50
70.2920096956
 51
109.6872948607
  0
CIRCLE
  5
1C0
330
1F
100
AcDbEntity
  8
81
370
    18
100
AcDbCircle
 10
203.1999975443
 20
0.0
 30
0.0
 40
2.499999999999998
  0
CIRCLE
  5
1C1
330
1F
100
AcDbEntity
  8
80
370
    18
100
AcDbCircle
 10
0.0
 20
0.0
 30
0.0
 40
2.500000000000009
  0
ARC
  5
1C2
330
1F
100
AcDbEntity
  8
SK3
  6
SLD-Dashed
370
    18
100
AcDbCircle
 10
133.2
 20
-12.7250001148
 30
0.0
 40
0.1499999001991492
100
AcDbArc
 50
270.0017940629
 51
359.9998969778
  0
ARC
  5
1C3
330
1F
100
AcDbEntity
  8
SK3
  6
SLD-Dashed
370
    18
100
AcDbCircle
 10
133.2
 20
12.7249998852
 30
0.0
 40
0.1499999001991492
100
AcDbArc
 50
0.0001030222
 51
89.9982059371
  0
ARC
  5
1C4
330
1F
100
AcDbEntity
  8
SK3
  6
SLD-Dashed
370
    18
100
AcDbCircle
 10
89.05
 20
-12.7250000075
 30
0.0
 40
0.1500000074601548
100
AcDbArc
 50
180.0
 51
270.0009152453
  0
ARC
  5
1C5
330
1F
100
AcDbEntity
  8
SK3
  6
SLD-Dashed
370
    18
100
AcDbCircle
 10
89.05
 20
12.7249997779
 30
0.0
 40
0.1500000074601619
100
AcDbArc
 50
89.9990847547
 51
180.0
  0
SPLINE
  5
1C6
330
1F
100
AcDbEntity
  8
1
  6
SLD-Solid
370
    25
100
AcDbSpline
210
0.0
220
0.0
230
1.0
 70
     8
 71
     3
 72
    12
 73
     8
 74
     0
 42
0.000000001
 43
0.00000001
 40
0.0
 40
0.0
 40
0.0
 40
0.0
 40
0.249999999999997
 40
0.249999999999997
 40
0.499999999999994
 40
0.499999999999994
 40
1.0
 40
1.0
 40
1.0
 40
1.0
 10
3.950000000000023
 20
-47.4754841997425
 30
0.0
 10
3.849084030890598
 20
-47.4754841997425
 30
0.0
 10
3.749978417477457
 20
-47.45437693482703
 30
0.0
 10
3.566847730075498
 20
-47.37426897057827
 30
0.0
 10
3.483455095947372
 20
-47.31511647588032
 30
0.0
 10
3.278048511272585
 20
-47.09831987092233
 30
0.0
 10
3.200000000000022
 20
-46.89926900274103
 30
0.0
 10
3.200000000000022
 20
-46.69763484374771
 30
0.0
  0
SPLINE
  5
1C7
330
1F
100
AcDbEntity
  8
1
  6
SLD-Solid
370
    25
100
AcDbSpline
210
0.0
220
0.0
230
1.0
 70
     8
 71
     3
 72
    17
 73
    13
 74
     0
 42
0.000000001
 43
0.00000001
 40
0.0
 40
0.0
 40
0.0
 40
0.0
 40
0.0631225275258774
 40
0.1266732402663625
 40
0.1906578596818708
 40
0.2550819704917091
 40
0.377967755988447
 40
0.5065287291742091
 40
0.7536275741715719
 40
0.8770326867278314
 40
0.9293515933661941
 40
1.0
 40
1.0
 40
1.0
 40
1.0
 10
3.94999999999994
 20
47.29681441456936
 30
0.0
 10
3.925201491242092
 20
47.29611163895408
 30
0.0
 10
3.875436255576612
 20
47.29470132051694
 30
0.0
 10
3.801280718130934
 20
47.28327877099915
 30
0.0
 10
3.728120549244762
 20
47.26498727873959
 30
0.0
 10
3.635342933437729
 20
47.23149445528063
 30
0.0
 10
3.525682301941349
 20
47.17267378728179
 30
0.0
 10
3.374709300540402
 20
47.04854680298003
 30
0.0
 10
3.264271220664486
 20
46.88235496093132
 30
0.0
 10
3.217384189877784
 20
46.72497686063932
 30
0.0
 10
3.202376761226172
 20
46.63086100915869
 30
0.0
 10
3.200867255993792
 20
46.58337022618196
 30
0.0
 10
3.200000000000022
 20
46.55608534812928
 30
0.0
  0
SPLINE
  5
1C8
330
1F
100
AcDbEntity
  8
1
  6
SLD-Solid
370
    25
100
AcDbSpline
210
0.0
220
0.0
230
1.0
 70
     8
 71
     3
 72
    12
 73
     8
 74
     0
 42
0.000000001
 43
0.00000001
 40
0.0
 40
0.0
 40
0.0
 40
0.0
 40
0.2499999999999983
 40
0.2499999999999983
 40
0.4999999999999967
 40
0.4999999999999967
 40
1.0
 40
1.0
 40
1.0
 40
1.0
 10
19.04999999999998
 20
-46.69763484374771
 30
0.0
 10
19.04999999999998
 20
-46.79851095846172
 30
0.0
 10
19.03137059366211
 20
-46.8973396642895
 30
0.0
 10
18.95815575330309
 20
-47.08411469648357
 30
0.0
 10
18.90402082648723
 20
-47.16991322230012
 30
0.0
 10
18.69812814693783
 20
-47.3875344447254
 30
0.0
 10
18.50197314321876
 20
-47.475484199743
 30
0.0
 10
18.30000000000011
 20
-47.47548419974304
 30
0.0
  0
SPLINE
  5
1C9
330
1F
100
AcDbEntity
  8
1
  6
SLD-Solid
370
    25
100
AcDbSpline
210
0.0
220
0.0
230
1.0
 70
     8
 71
     3
 72
    15
 73
    11
 74
     0
 42
0.000000001
 43
0.00000001
 40
0.0
 40
0.0
 40
0.0
 40
0.0
 40
0.0708675466398782
 40
0.1234206290199329
 40
0.2469923695820378
 40
0.4940839350896176
 40
0.6226370205665461
 40
0.7456896564301587
 40
0.8736712713971236
 40
1.0
 40
1.0
 40
1.0
 40
1.0
 10
19.04999999999998
 20
46.55608553132449
 30
0.0
 10
19.04912781744919
 20
46.58344641759022
 30
0.0
 10
19.0476088525049
 20
46.63109725289596
 30
0.0
 10
19.03252103266861
 20
46.72541301610956
 30
0.0
 10
18.98548435274769
 20
46.88286431586817
 30
0.0
 10
18.87493087106905
 20
47.04890219776885
 30
0.0
 10
18.72384724361526
 20
47.17307551099401
 30
0.0
 10
18.59213990202895
 20
47.24320117900594
 30
0.0
 10
18.44967423040859
 20
47.28829435244302
 30
0.0
 10
18.34967476177423
 20
47.29398684875631
 30
0.0
 10
18.30000000000005
 20
47.29681459776462
 30
0.0
  0
SPLINE
  5
1CA
330
1F
100
AcDbEntity
  8
1
  6
SLD-Solid
370
    25
100
AcDbSpline
210
0.0
220
0.0
230
1.0
 70
     8
 71
     3
 72
    14
 73
    10
 74
     0
 42
0.000000001
 43
0.00000001
 40
0.0
 40
0.0
 40
0.0
 40
0.0
 40
0.25
 40
0.25
 40
0.5
 40
0.5
 40
0.75
 40
0.75
 40
1.0
 40
1.0
 40
1.0
 40
1.0
 10
13.03000020414201
 20
41.98711729834399
 30
0.0
 10
13.05904088890594
 20
41.99358441231477
 30
0.0
 10
13.08275229978556
 20
41.98923553671217
 30
0.0
 10
13.11609677390543
 20
41.95189504479234
 30
0.0
 10
13.124921578915
 20
41.91935243820156
 30
0.0
 10
13.12507769189131
 20
41.82511373609368
 30
0.0
 10
13.11615065069142
 20
41.76334886770245
 30
0.0
 10
13.08319568935004
 20
41.62087667519205
 30
0.0
 10
13.05911023249115
 20
41.53942133741297
 30
0.0
 10
13.03000000000001
 20
41.45311358264332
 30
0.0
  0
SPLINE
  5
1CB
330
1F
100
AcDbEntity
  8
1
  6
SLD-Solid
370
    25
100
AcDbSpline
210
0.0
220
0.0
230
1.0
 70
     8
 71
     3
 72
     8
 73
     4
 74
     0
 42
0.000000001
 43
0.00000001
 40
0.0
 40
0.0
 40
0.0
 40
0.0
 40
1.0
 40
1.0
 40
1.0
 40
1.0
 10
13.03000003099442
 20
44.57901045680048
 30
0.0
 10
13.44364615375127
 20
45.32508446377771
 30
0.0
 10
13.85791151936184
 20
46.07082076044332
 30
0.0
 10
14.2727106199466
 20
46.81625358782995
 30
0.0
  0
SPLINE
  5
1CC
330
1F
100
AcDbEntity
  8
1
  6
SLD-Solid
370
    25
100
AcDbSpline
210
0.0
220
0.0
230
1.0
 70
     8
 71
     3
 72
     8
 73
     4
 74
     0
 42
0.000000001
 43
0.00000001
 40
0.0
 40
0.0
 40
0.0
 40
0.0
 40
0.0008790679015124
 40
0.0008790679015124
 40
0.0008790679015124
 40
0.0008790679015124
 10
14.63972339340265
 20
47.29681459776456
 30
0.0
 10
14.51700841932646
 20
47.13673210499614
 30
0.0
 10
14.39466513614741
 20
46.97654627942757
 30
0.0
 10
14.2727106199466
 20
46.81625358782995
 30
0.0
  0
SPLINE
  5
1CD
330
1F
100
AcDbEntity
  8
1
  6
SLD-Solid
370
    25
100
AcDbSpline
210
0.0
220
0.0
230
1.0
 70
     8
 71
     3
 72
     8
 73
     4
 74
     0
 42
0.000000001
 43
0.00000001
 40
0.0
 40
0.0
 40
0.0
 40
0.0
 40
1.0
 40
1.0
 40
1.0
 40
1.0
 10
13.02999999999999
 20
-44.57901066343648
 30
0.0
 10
13.56559185903593
 20
-45.54503218791566
 30
0.0
 10
14.10222481900981
 20
-46.51049592619328
 30
0.0
 10
14.63972311466932
 20
-47.47548326849937
 30
0.0
  0
SPLINE
  5
1CE
330
1F
100
AcDbEntity
  8
1
  6
SLD-Solid
370
    25
100
AcDbSpline
210
0.0
220
0.0
230
1.0
 70
     8
 71
     3
 72
    14
 73
    10
 74
     0
 42
0.000000001
 43
0.00000001
 40
0.0
 40
0.0
 40
0.0
 40
0.0
 40
0.25
 40
0.25
 40
0.5
 40
0.5
 40
0.75
 40
0.75
 40
1.0
 40
1.0
 40
1.0
 40
1.0
 10
13.03000000000001
 20
35.43161063507442
 30
0.0
 10
13.05904068229163
 20
35.41088537400022
 30
0.0
 10
13.08275209483375
 20
35.37953889369925
 30
0.0
 10
13.1160965832284
 20
35.28872097408676
 30
0.0
 10
13.12492140067853
 20
35.2307690486217
 30
0.0
 10
13.12507754968095
 20
35.0895693220401
 30
0.0
 10
13.11615053209288
 20
35.0064893084372
 30
0.0
 10
13.08319562521656
 20
34.82779445691524
 30
0.0
 10
13.05911019949689
 20
34.73111962551737
 30
0.0
 10
13.02999999999999
 20
34.63242948055268
 30
0.0
  0
SPLINE
  5
1CF
330
1F
100
AcDbEntity
  8
1
  6
SLD-Solid
370
    25
100
AcDbSpline
210
0.0
220
0.0
230
1.0
 70
     8
 71
     3
 72
     8
 73
     4
 74
     0
 42
0.000000001
 43
0.00000001
 40
0.0
 40
0.0
 40
0.0
 40
0.0
 40
1.0
 40
1.0
 40
1.0
 40
1.0
 10
7.590276654809699
 20
-47.47548326849937
 30
0.0
 10
8.127775027310157
 20
-46.51049592626647
 30
0.0
 10
8.66440806412469
 20
-45.54503218799333
 30
0.0
 10
9.199999999999985
 20
-44.57901066343647
 30
0.0
  0
SPLINE
  5
1D0
330
1F
100
AcDbEntity
  8
1
  6
SLD-Solid
370
    25
100
AcDbSpline
210
0.0
220
0.0
230
1.0
 70
     8
 71
     3
 72
     8
 73
     4
 74
     0
 42
0.000000001
 43
0.00000001
 40
0.0000000000000098
 40
0.0000000000000098
 40
0.0000000000000098
 40
0.0000000000000098
 40
0.0008790679015159
 40
0.0008790679015159
 40
0.0008790679015159
 40
0.0008790679015159
 10
7.957289380062127
 20
46.81625358783
 30
0.0
 10
7.83533486386083
 20
46.97654627942826
 30
0.0
 10
7.712991580674025
 20
47.13673210499551
 30
0.0
 10
7.590276606597349
 20
47.29681459776456
 30
0.0
  0
SPLINE
  5
1D1
330
1F
100
AcDbEntity
  8
1
  6
SLD-Solid
370
    25
100
AcDbSpline
210
0.0
220
0.0
230
1.0
 70
     8
 71
     3
 72
     8
 73
     4
 74
     0
 42
0.000000001
 43
0.00000001
 40
0.0
 40
0.0
 40
0.0
 40
0.0
 40
1.0
 40
1.0
 40
1.0
 40
1.0
 10
7.957289380055702
 20
46.81625358784157
 30
0.0
 10
8.372088490919111
 20
46.07082082933733
 30
0.0
 10
8.786353866857958
 20
45.32508460154718
 30
0.0
 10
9.2
 20
44.57901066343646
 30
0.0
  0
SPLINE
  5
1D2
330
1F
100
AcDbEntity
  8
1
  6
SLD-Solid
370
    25
100
AcDbSpline
210
0.0
220
0.0
230
1.0
 70
     8
 71
     3
 72
    14
 73
    10
 74
     0
 42
0.000000001
 43
0.00000001
 40
0.0
 40
0.0
 40
0.0
 40
0.0
 40
0.25
 40
0.25
 40
0.5
 40
0.5
 40
0.75
 40
0.75
 40
1.0
 40
1.0
 40
1.0
 40
1.0
 10
9.199999795856382
 20
41.48301262053804
 30
0.0
 10
9.176680505048928
 20
41.55645614014854
 30
0.0
 10
9.157956809172935
 20
41.62429277360869
 30
0.0
 10
9.131927700370586
 20
41.74600580676258
 30
0.0
 10
9.125045649101585
 20
41.79860546783166
 30
0.0
 10
9.124955017507801
 20
41.88147789138746
 30
0.0
 10
9.131870669842124
 20
41.91255383697394
 30
0.0
 10
9.15767108597304
 20
41.95124062511707
 30
0.0
 10
9.176601780084878
 20
41.95960892527264
 30
0.0
 10
9.200000204145908
 20
41.95870086550713
 30
0.0
  0
SPLINE
  5
1D3
330
1F
100
AcDbEntity
  8
1
  6
SLD-Solid
370
    25
100
AcDbSpline
210
0.0
220
0.0
230
1.0
 70
     8
 71
     3
 72
    14
 73
    10
 74
     0
 42
0.000000001
 43
0.00000001
 40
0.0
 40
0.0
 40
0.0
 40
0.0
 40
0.25
 40
0.25
 40
0.5
 40
0.5
 40
0.75
 40
0.75
 40
1.0
 40
1.0
 40
1.0
 40
1.0
 10
9.2
 20
34.67668893498511
 30
0.0
 10
9.176680646155246
 20
34.76218380134755
 30
0.0
 10
9.157956892054463
 20
34.84409122905372
 30
0.0
 10
9.131927678784743
 20
34.99897222909989
 30
0.0
 10
9.125045582368964
 20
35.07047900120374
 30
0.0
 10
9.124954879645076
 20
35.19440944821504
 30
0.0
 10
9.131870505306676
 20
35.24816533561762
 30
0.0
 10
9.157670888232468
 20
35.33309634836896
 30
0.0
 10
9.176601575161774
 20
35.365452809728
 30
0.0
 10
9.200000000002277
 20
35.38859611770597
 30
0.0
  0
SPLINE
  5
1D4
330
1F
100
AcDbEntity
  8
1
  6
SLD-Solid
370
    25
100
AcDbSpline
210
0.0
220
0.0
230
1.0
 70
     8
 71
     3
 72
    12
 73
     8
 74
     0
 42
0.000000001
 43
0.00000001
 40
0.0
 40
0.0
 40
0.0
 40
0.0
 40
0.2500000000000032
 40
0.2500000000000032
 40
0.5000000000000063
 40
0.5000000000000063
 40
1.0
 40
1.0
 40
1.0
 40
1.0
 10
12.28000000000001
 20
-43.76943596849289
 30
0.0
 10
12.37996960464108
 20
-43.76943596849289
 30
0.0
 10
12.47988502523367
 20
-43.79051518316404
 30
0.0
 10
12.6644929422387
 20
-43.87194262843689
 30
0.0
 10
12.74728498815325
 20
-43.93126060501207
 30
0.0
 10
12.95342033959716
 20
-44.15080408372863
 30
0.0
 10
13.03000000000001
 20
-44.35163254795798
 30
0.0
 10
13.03000000000001
 20
-44.551021593225
 30
0.0
  0
SPLINE
  5
1D5
330
1F
100
AcDbEntity
  8
1
  6
SLD-Solid
370
    25
100
AcDbSpline
210
0.0
220
0.0
230
1.0
 70
     8
 71
     3
 72
    16
 73
    12
 74
     0
 42
0.000000001
 43
0.00000001
 40
0.0
 40
0.0
 40
0.0
 40
0.0
 40
0.1250000000000001
 40
0.1250000000000001
 40
0.2500000000000003
 40
0.2500000000000003
 40
0.5000000000000002
 40
0.5000000000000002
 40
0.7500000000000001
 40
0.7500000000000001
 40
1.0
 40
1.0
 40
1.0
 40
1.0
 10
13.03000000000001
 20
34.61214293353757
 30
0.0
 10
13.03000000000001
 20
34.56119277402757
 30
0.0
 10
13.02067456260611
 20
34.49413963137994
 30
0.0
 10
12.99367590047851
 20
34.36331338142202
 30
0.0
 10
12.97626449755331
 20
34.2990855656246
 30
0.0
 10
12.91545405813532
 20
34.11096290842621
 30
0.0
 10
12.86271449633859
 20
33.99023971150842
 30
0.0
 10
12.73634152951909
 20
33.76817627154972
 30
0.0
 10
12.66098841639739
 20
33.66394234496748
 30
0.0
 10
12.48671204537784
 20
33.48358218869542
 30
0.0
 10
12.38972674335427
 20
33.40848998465462
 30
0.0
 10
12.28000000000001
 20
33.35547071674117
 30
0.0
  0
SPLINE
  5
1D6
330
1F
100
AcDbEntity
  8
1
  6
SLD-Solid
370
    25
100
AcDbSpline
210
0.0
220
0.0
230
1.0
 70
     8
 71
     3
 72
    12
 73
     8
 74
     0
 42
0.000000001
 43
0.00000001
 40
0.0
 40
0.0
 40
0.0
 40
0.0
 40
0.5
 40
0.5
 40
0.75
 40
0.75
 40
1.0
 40
1.0
 40
1.0
 40
1.0
 10
9.2
 20
-44.55102159322499
 30
0.0
 10
9.2
 20
-44.35094747116167
 30
0.0
 10
9.277613070150098
 20
-44.14958800989076
 30
0.0
 10
9.482511037300592
 20
-43.93153570225751
 30
0.0
 10
9.56627229985231
 20
-43.87162606259759
 30
0.0
 10
9.749092094904377
 20
-43.79094541821726
 30
0.0
 10
9.849426682175658
 20
-43.7694359684929
 30
0.0
 10
9.950000000000001
 20
-43.76943596849289
 30
0.0
  0
SPLINE
  5
1D7
330
1F
100
AcDbEntity
  8
1
  6
SLD-Solid
370
    25
100
AcDbSpline
210
0.0
220
0.0
230
1.0
 70
     8
 71
     3
 72
    16
 73
    12
 74
     0
 42
0.000000001
 43
0.00000001
 40
0.0
 40
0.0
 40
0.0
 40
0.0
 40
0.2499999999999967
 40
0.2499999999999967
 40
0.4999999999999934
 40
0.4999999999999934
 40
0.7499999999999902
 40
0.7499999999999902
 40
0.8749999999999951
 40
0.8749999999999951
 40
1.0
 40
1.0
 40
1.0
 40
1.0
 10
9.950000000000001
 20
33.36525953046024
 30
0.0
 10
9.839257595210663
 20
33.42015914282665
 30
0.0
 10
9.74041673400143
 20
33.49854219709402
 30
0.0
 10
9.564708009184047
 20
33.68553569890508
 30
0.0
 10
9.490830483266114
 20
33.79082769792041
 30
0.0
 10
9.364658348120003
 20
34.01955880125701
 30
0.0
 10
9.312951425518134
 20
34.14247439570437
 30
0.0
 10
9.253206550793841
 20
34.33488461785979
 30
0.0
 10
9.236028623043957
 20
34.40121962580662
 30
0.0
 10
9.209723703057032
 20
34.53368853253288
 30
0.0
 10
9.2
 20
34.60516910831216
 30
0.0
 10
9.2
 20
34.65640299543514
 30
0.0
  0
SPLINE
  5
1D8
330
1F
100
AcDbEntity
  8
1
  6
SLD-Solid
370
    25
100
AcDbSpline
210
0.0
220
0.0
230
1.0
 70
     8
 71
     3
 72
    12
 73
     8
 74
     0
 42
0.000000001
 43
0.00000001
 40
0.0
 40
0.0
 40
0.0
 40
0.0
 40
0.2500000000000006
 40
0.2500000000000006
 40
0.5000000000000011
 40
0.5000000000000011
 40
1.0
 40
1.0
 40
1.0
 40
1.0
 10
12.28000000000001
 20
33.35547071674117
 30
0.0
 10
12.10934456477529
 20
33.27301109054176
 30
0.0
 10
11.92465326465507
 20
33.21019284332252
 30
0.0
 10
11.52752277837883
 20
33.12414278909399
 30
0.0
 10
11.32193513118782
 20
33.10278110396342
 30
0.0
 10
10.69948105299426
 20
33.10504385732294
 30
0.0
 10
10.28831449591983
 20
33.19754297491613
 30
0.0
 10
9.950000000000001
 20
33.36525953046024
 30
0.0
  0
SPLINE
  5
1D9
330
1F
100
AcDbEntity
  8
1
  6
SLD-Solid
370
    25
100
AcDbSpline
210
0.0
220
0.0
230
1.0
 70
     8
 71
     3
 72
    16
 73
    12
 74
     0
 42
0.000000001
 43
0.00000001
 40
0.0
 40
0.0
 40
0.0
 40
0.0
 40
0.1250000000000023
 40
0.1250000000000023
 40
0.2500000000000046
 40
0.2500000000000046
 40
0.5000000000000031
 40
0.5000000000000031
 40
0.7500000000000016
 40
0.7500000000000016
 40
1.0
 40
1.0
 40
1.0
 40
1.0
 10
9.200000000002277
 20
35.36831017815612
 30
0.0
 10
9.200000000002277
 20
35.31693147875156
 30
0.0
 10
9.209688078859566
 20
35.29149399689031
 30
0.0
 10
9.236073415531509
 20
35.26518486787036
 30
0.0
 10
9.253070624736903
 20
35.26193032552647
 30
0.0
 10
9.313034815209036
 20
35.26168910608327
 30
0.0
 10
9.363922455821475
 20
35.274771545151
 30
0.0
 10
9.490054525544009
 20
35.31156519648359
 30
0.0
 10
9.565092430037753
 20
35.3362165395983
 30
0.0
 10
9.738924647265529
 20
35.39932894997411
 30
0.0
 10
9.83944594635
 20
35.43834692831611
 30
0.0
 10
9.950000000000001
 20
35.48885481142474
 30
0.0
  0
SPLINE
  5
1DA
330
1F
100
AcDbEntity
  8
1
  6
SLD-Solid
370
    25
100
AcDbSpline
210
0.0
220
0.0
230
1.0
 70
     8
 71
     3
 72
    12
 73
     8
 74
     0
 42
0.000000001
 43
0.00000001
 40
0.0
 40
0.0
 40
0.0
 40
0.0
 40
0.25
 40
0.25
 40
0.5
 40
0.5
 40
1.0
 40
1.0
 40
1.0
 40
1.0
 10
9.950000000000001
 20
35.48885481142474
 30
0.0
 10
10.11915676939237
 20
35.56613601508451
 30
0.0
 10
10.30270770519946
 20
35.62476545355776
 30
0.0
 10
10.6982656039511
 20
35.70597605697657
 30
0.0
 10
10.9034564783033
 20
35.72681273192288
 30
0.0
 10
11.52590240230555
 20
35.72953904175431
 30
0.0
 10
11.93868796900774
 20
35.64974792445469
 30
0.0
 10
12.28000000000001
 20
35.49787263615899
 30
0.0
  0
SPLINE
  5
1DB
330
1F
100
AcDbEntity
  8
1
  6
SLD-Solid
370
    25
100
AcDbSpline
210
0.0
220
0.0
230
1.0
 70
     8
 71
     3
 72
    16
 73
    12
 74
     0
 42
0.000000001
 43
0.00000001
 40
0.0
 40
0.0
 40
0.0
 40
0.0
 40
0.2500000000000002
 40
0.2500000000000002
 40
0.5000000000000004
 40
0.5000000000000004
 40
0.7500000000000007
 40
0.7500000000000007
 40
0.8750000000000003
 40
0.8750000000000003
 40
1.0
 40
1.0
 40
1.0
 40
1.0
 10
12.28000000000001
 20
35.49787263615899
 30
0.0
 10
12.38938127142808
 20
35.44920071538321
 30
0.0
 10
12.48719790588471
 20
35.41256913935558
 30
0.0
 10
12.6623565385886
 20
35.35237067244714
 30
0.0
 10
12.73630362704299
 20
35.33005450148762
 30
0.0
 10
12.86322577731736
 20
35.29810085202675
 30
0.0
 10
12.91570572130093
 20
35.2877376754229
 30
0.0
 10
12.97658934509433
 20
35.29443860847591
 30
0.0
 10
12.99409980251966
 20
35.30029296727561
 30
0.0
 10
13.02084597296051
 20
35.33271449864375
 30
0.0
 10
13.03000000000001
 20
35.36068432142829
 30
0.0
 10
13.03000000000001
 20
35.41132408805677
 30
0.0
  0
SPLINE
  5
1DC
330
1F
100
AcDbEntity
  8
1
  6
SLD-Solid
370
    25
100
AcDbSpline
210
0.0
220
0.0
230
1.0
 70
     8
 71
     3
 72
    16
 73
    12
 74
     0
 42
0.000000001
 43
0.00000001
 40
0.0
 40
0.0
 40
0.0
 40
0.0
 40
0.2499999999999998
 40
0.2499999999999998
 40
0.4999999999999996
 40
0.4999999999999996
 40
0.7499999999999993
 40
0.7499999999999993
 40
0.8749999999999997
 40
0.8749999999999997
 40
1.0
 40
1.0
 40
1.0
 40
1.0
 10
9.950000000000001
 20
40.29017607249209
 30
0.0
 10
9.839257595210663
 20
40.32798470963448
 30
0.0
 10
9.74041673400143
 20
40.39081531012379
 30
0.0
 10
9.564708009184075
 20
40.54795546550074
 30
0.0
 10
9.490830483266114
 20
40.63949231484411
 30
0.0
 10
9.364658348120045
 20
40.84247699029049
 30
0.0
 10
9.312951425518134
 20
40.9532688081071
 30
0.0
 10
9.253206550793841
 20
41.13218036853985
 30
0.0
 10
9.236028623043957
 20
41.19470581500532
 30
0.0
 10
9.209723703057032
 20
41.32469951294973
 30
0.0
 10
9.2
 20
41.39783900363279
 30
0.0
 10
9.2
 20
41.45885414630705
 30
0.0
  0
SPLINE
  5
1DD
330
1F
100
AcDbEntity
  8
1
  6
SLD-Solid
370
    25
100
AcDbSpline
210
0.0
220
0.0
230
1.0
 70
     8
 71
     3
 72
    16
 73
    12
 74
     0
 42
0.000000001
 43
0.00000001
 40
0.0
 40
0.0
 40
0.0
 40
0.0
 40
0.1250000000000039
 40
0.1250000000000039
 40
0.2500000000000078
 40
0.2500000000000078
 40
0.5000000000000051
 40
0.5000000000000051
 40
0.7500000000000026
 40
0.7500000000000026
 40
1.0
 40
1.0
 40
1.0
 40
1.0
 10
13.02999999999838
 20
41.42895438114482
 30
0.0
 10
13.02999999999838
 20
41.36827713359742
 30
0.0
 10
13.02067456260447
 20
41.2986012551449
 30
0.0
 10
12.99367590047687
 20
41.16856540733182
 30
0.0
 10
12.97626449755167
 20
41.10738101936693
 30
0.0
 10
12.91545405813368
 20
40.93079740642487
 30
0.0
 10
12.86271449633695
 20
40.82130212611715
 30
0.0
 10
12.73634152951746
 20
40.62320356046917
 30
0.0
 10
12.66098841639578
 20
40.53226162144242
 30
0.0
 10
12.4867120453762
 20
40.38027498384279
 30
0.0
 10
12.38972674335263
 20
40.31995671599525
 30
0.0
 10
12.27999999999838
 20
40.28343379132448
 30
0.0
  0
SPLINE
  5
1DE
330
1F
100
AcDbEntity
  8
1
  6
SLD-Solid
370
    25
100
AcDbSpline
210
0.0
220
0.0
230
1.0
 70
     8
 71
     3
 72
    12
 73
     8
 74
     0
 42
0.000000001
 43
0.00000001
 40
0.0
 40
0.0
 40
0.0
 40
0.0
 40
0.25
 40
0.25
 40
0.5
 40
0.5
 40
1.0
 40
1.0
 40
1.0
 40
1.0
 10
12.27999999999838
 20
40.28343379132448
 30
0.0
 10
12.10934456477365
 20
40.22663054158939
 30
0.0
 10
11.92465326465343
 20
40.18318651206277
 30
0.0
 10
11.52752277837722
 20
40.12362389225036
 30
0.0
 10
11.32193513118618
 20
40.10880147711191
 30
0.0
 10
10.69948105299266
 20
40.11037023230932
 30
0.0
 10
10.28831449592009
 20
40.17467189827308
 30
0.0
 10
9.950000000000001
 20
40.29017607249209
 30
0.0
  0
SPLINE
  5
1DF
330
1F
100
AcDbEntity
  8
1
  6
SLD-Solid
370
    25
100
AcDbSpline
210
0.0
220
0.0
230
1.0
 70
     8
 71
     3
 72
     8
 73
     4
 74
     0
 42
0.000000001
 43
0.00000001
 40
0.0
 40
0.0
 40
0.0
 40
0.0
 40
0.1250000000000007
 40
0.1250000000000007
 40
0.1250000000000007
 40
0.1250000000000007
 10
148.72939430996
 20
23.29999969303606
 30
0.0
 10
148.0749812848881
 20
23.31391947066965
 30
0.0
 10
147.4363335551203
 20
23.35505184726043
 30
0.0
 10
146.812335146287
 20
23.41933629116247
 30
0.0
  0
SPLINE
  5
1E0
330
1F
100
AcDbEntity
  8
1
  6
SLD-Solid
370
    25
100
AcDbSpline
210
0.0
220
0.0
230
1.0
 70
     8
 71
     3
 72
     8
 73
     4
 74
     0
 42
0.000000001
 43
0.00000001
 40
0.1250000000000007
 40
0.1250000000000007
 40
0.1250000000000007
 40
0.1250000000000007
 40
0.1875000000000012
 40
0.1875000000000012
 40
0.1875000000000012
 40
0.1875000000000012
 10
146.812335146287
 20
23.41933629116247
 30
0.0
 10
146.5003359418703
 20
23.45147851311349
 30
0.0
 10
146.1920230877964
 20
23.48940991803231
 30
0.0
 10
145.8873956078566
 20
23.53261489148895
 30
0.0
  0
SPLINE
  5
1E1
330
1F
100
AcDbEntity
  8
1
  6
SLD-Solid
370
    25
100
AcDbSpline
210
0.0
220
0.0
230
1.0
 70
     8
 71
     3
 72
     8
 73
     4
 74
     0
 42
0.000000001
 43
0.00000001
 40
0.1875000000000012
 40
0.1875000000000012
 40
0.1875000000000012
 40
0.1875000000000012
 40
0.2500000000000016
 40
0.2500000000000016
 40
0.2500000000000016
 40
0.2500000000000016
 10
145.8873956078566
 20
23.53261489148895
 30
0.0
 10
145.5827681279169
 20
23.57581986494559
 30
0.0
 10
145.2814318566579
 20
23.62443582467844
 30
0.0
 10
144.9901652878106
 20
23.67653237921215
 30
0.0
  0
SPLINE
  5
1E2
330
1F
100
AcDbEntity
  8
1
  6
SLD-Solid
370
    25
100
AcDbSpline
210
0.0
220
0.0
230
1.0
 70
     8
 71
     3
 72
     8
 73
     4
 74
     0
 42
0.000000001
 43
0.00000001
 40
0.2500000000000016
 40
0.2500000000000016
 40
0.2500000000000016
 40
0.2500000000000016
 40
0.3750000000000024
 40
0.3750000000000024
 40
0.3750000000000024
 40
0.3750000000000024
 10
144.9901652878106
 20
23.67653237921215
 30
0.0
 10
144.4076321501162
 20
23.78072548827956
 30
0.0
 10
143.8583410320546
 20
23.89965087558841
 30
0.0
 10
143.3404970129448
 20
24.02647988478834
 30
0.0
  0
SPLINE
  5
1E3
330
1F
100
AcDbEntity
  8
1
  6
SLD-Solid
370
    25
100
AcDbSpline
210
0.0
220
0.0
230
1.0
 70
     8
 71
     3
 72
     8
 73
     4
 74
     0
 42
0.000000001
 43
0.00000001
 40
0.3750000000000024
 40
0.3750000000000024
 40
0.3750000000000024
 40
0.3750000000000024
 40
0.4375000000000007
 40
0.4375000000000007
 40
0.4375000000000007
 40
0.4375000000000007
 10
143.3404970129448
 20
24.02647988478834
 30
0.0
 10
143.0815750033898
 20
24.08989438938828
 30
0.0
 10
142.8294684988653
 20
24.15560742497415
 30
0.0
 10
142.5882605103466
 20
24.2216983546396
 30
0.0
  0
SPLINE
  5
1E4
330
1F
100
AcDbEntity
  8
1
  6
SLD-Solid
370
    25
100
AcDbSpline
210
0.0
220
0.0
230
1.0
 70
     8
 71
     3
 72
     8
 73
     4
 74
     0
 42
0.000000001
 43
0.00000001
 40
0.4375000000000007
 40
0.4375000000000007
 40
0.4375000000000007
 40
0.4375000000000007
 40
0.499999999999999
 40
0.499999999999999
 40
0.499999999999999
 40
0.499999999999999
 10
142.5882605103466
 20
24.2216983546396
 30
0.0
 10
142.3470525218279
 20
24.28778928430505
 30
0.0
 10
142.1174085076092
 20
24.35402983062306
 30
0.0
 10
141.8989017323922
 20
24.41958385875531
 30
0.0
  0
SPLINE
  5
1E5
330
1F
100
AcDbEntity
  8
1
  6
SLD-Solid
370
    25
100
AcDbSpline
210
0.0
220
0.0
230
1.0
 70
     8
 71
     3
 72
     8
 73
     4
 74
     0
 42
0.000000001
 43
0.00000001
 40
0.499999999999999
 40
0.499999999999999
 40
0.499999999999999
 40
0.499999999999999
 40
0.6249999999999993
 40
0.6249999999999993
 40
0.6249999999999993
 40
0.6249999999999993
 10
141.8989017323922
 20
24.41958385875531
 30
0.0
 10
141.4618881819582
 20
24.55069191501985
 30
0.0
 10
141.0690822798021
 20
24.67907270676781
 30
0.0
 10
140.7213092491988
 20
24.7983288985544
 30
0.0
  0
SPLINE
  5
1E6
330
1F
100
AcDbEntity
  8
1
  6
SLD-Solid
370
    25
100
AcDbSpline
210
0.0
220
0.0
230
1.0
 70
     8
 71
     3
 72
     8
 73
     4
 74
     0
 42
0.000000001
 43
0.00000001
 40
0.6249999999999993
 40
0.6249999999999993
 40
0.6249999999999993
 40
0.6249999999999993
 40
0.6874999999999996
 40
0.6874999999999996
 40
0.6874999999999996
 40
0.6874999999999996
 10
140.7213092491988
 20
24.7983288985544
 30
0.0
 10
140.547422733897
 20
24.85795699444769
 30
0.0
 10
140.3851433827424
 20
24.91522685864327
 30
0.0
 10
140.2378078437518
 20
24.96825950130724
 30
0.0
  0
SPLINE
  5
1E7
330
1F
100
AcDbEntity
  8
1
  6
SLD-Solid
370
    25
100
AcDbSpline
210
0.0
220
0.0
230
1.0
 70
     8
 71
     3
 72
     8
 73
     4
 74
     0
 42
0.000000001
 43
0.00000001
 40
0.6874999999999996
 40
0.6874999999999996
 40
0.6874999999999996
 40
0.6874999999999996
 40
0.7499999999999997
 40
0.7499999999999997
 40
0.7499999999999997
 40
0.7499999999999997
 10
140.2378078437518
 20
24.96825950130724
 30
0.0
 10
140.0904723047612
 20
25.02129214397123
 30
0.0
 10
139.9570795233671
 20
25.07042896117919
 30
0.0
 10
139.8375011316101
 20
25.11512481723209
 30
0.0
  0
SPLINE
  5
1E8
330
1F
100
AcDbEntity
  8
1
  6
SLD-Solid
370
    25
100
AcDbSpline
210
0.0
220
0.0
230
1.0
 70
     8
 71
     3
 72
     8
 73
     4
 74
     0
 42
0.000000001
 43
0.00000001
 40
0.7499999999999997
 40
0.7499999999999997
 40
0.7499999999999997
 40
0.7499999999999997
 40
0.8749999999999998
 40
0.8749999999999998
 40
0.8749999999999998
 40
0.8749999999999998
 10
139.8375011316101
 20
25.11512481723209
 30
0.0
 10
139.5983443480961
 20
25.20451652933797
 30
0.0
 10
139.4138836420229
 20
25.27625471590803
 30
0.0
 10
139.2884515737119
 20
25.32546848688014
 30
0.0
  0
SPLINE
  5
1E9
330
1F
100
AcDbEntity
  8
1
  6
SLD-Solid
370
    25
100
AcDbSpline
210
0.0
220
0.0
230
1.0
 70
     8
 71
     2
 72
     6
 73
     3
 74
     0
 42
0.000000001
 43
0.00000001
 40
0.8749999999999998
 40
0.8749999999999998
 40
0.8749999999999998
 40
1.0
 40
1.0
 40
1.0
 10
139.2884515737119
 20
25.32546848688014
 30
0.0
 10
139.163019505401
 20
25.37468225785224
 30
0.0
 10
139.1
 20
25.39999969303609
 30
0.0
  0
SPLINE
  5
1EA
330
1F
100
AcDbEntity
  8
1
  6
SLD-Solid
370
    25
100
AcDbSpline
210
0.0
220
0.0
230
1.0
 70
     8
 71
     3
 72
    17
 73
    13
 74
     0
 42
0.000000001
 43
0.00000001
 40
0.0
 40
0.0
 40
0.0
 40
0.0
 40
0.0865628803685072
 40
0.1873496120375243
 40
0.2909169870256293
 40
0.3946217018313012
 40
0.500980893202996
 40
0.6114081862690364
 40
0.7249429287404471
 40
0.836500318686873
 40
0.9517756366273635
 40
1.0
 40
1.0
 40
1.0
 40
1.0
 10
159.3268513679504
 20
25.39080195128918
 30
0.0
 10
159.3189305994679
 20
25.38760774984624
 30
0.0
 10
159.3017875365761
 20
25.38069448172764
 30
0.0
 10
158.9638425678316
 20
25.24740896614954
 30
0.0
 10
158.399154904158
 20
25.03350562108627
 30
0.0
 10
157.5917739066236
 20
24.74676809277756
 30
0.0
 10
156.5596036498193
 20
24.41403465855891
 30
0.0
 10
155.2982163269191
 20
24.06125586254746
 30
0.0
 10
153.839370245462
 20
23.73095377925568
 30
0.0
 10
152.2137168510542
 20
23.46681305372001
 30
0.0
 10
150.8158559009167
 20
23.33406273539312
 30
0.0
 10
149.9700734165803
 20
23.30775810663285
 30
0.0
 10
149.7206091880798
 20
23.29999953508378
 30
0.0
  0
SPLINE
  5
1EB
330
1F
100
AcDbEntity
  8
1
  6
SLD-Solid
370
    25
100
AcDbSpline
210
0.0
220
0.0
230
1.0
 70
     8
 71
     3
 72
     8
 73
     4
 74
     0
 42
0.000000001
 43
0.00000001
 40
0.0
 40
0.0
 40
0.0
 40
0.0
 40
0.1249999999999967
 40
0.1249999999999967
 40
0.1249999999999967
 40
0.1249999999999967
 10
174.12939430996
 20
23.29999999999997
 30
0.0
 10
173.4749812848881
 20
23.31391977763355
 30
0.0
 10
172.8363335551203
 20
23.35505215422434
 30
0.0
 10
172.212335146287
 20
23.41933659812639
 30
0.0
  0
SPLINE
  5
1EC
330
1F
100
AcDbEntity
  8
1
  6
SLD-Solid
370
    25
100
AcDbSpline
210
0.0
220
0.0
230
1.0
 70
     8
 71
     3
 72
     8
 73
     4
 74
     0
 42
0.000000001
 43
0.00000001
 40
0.1249999999999967
 40
0.1249999999999967
 40
0.1249999999999967
 40
0.1249999999999967
 40
0.1874999999999951
 40
0.1874999999999951
 40
0.1874999999999951
 40
0.1874999999999951
 10
172.212335146287
 20
23.41933659812639
 30
0.0
 10
171.9003359418704
 20
23.4514788200774
 30
0.0
 10
171.5920230877964
 20
23.48941022499621
 30
0.0
 10
171.2873956078567
 20
23.53261519845285
 30
0.0
  0
SPLINE
  5
1ED
330
1F
100
AcDbEntity
  8
1
  6
SLD-Solid
370
    25
100
AcDbSpline
210
0.0
220
0.0
230
1.0
 70
     8
 71
     3
 72
     8
 73
     4
 74
     0
 42
0.000000001
 43
0.00000001
 40
0.1874999999999951
 40
0.1874999999999951
 40
0.1874999999999951
 40
0.1874999999999951
 40
0.2499999999999936
 40
0.2499999999999936
 40
0.2499999999999936
 40
0.2499999999999936
 10
171.2873956078567
 20
23.53261519845285
 30
0.0
 10
170.982768127917
 20
23.57582017190949
 30
0.0
 10
170.6814318566579
 20
23.62443613164234
 30
0.0
 10
170.3901652878108
 20
23.67653268617607
 30
0.0
  0
SPLINE
  5
1EE
330
1F
100
AcDbEntity
  8
1
  6
SLD-Solid
370
    25
100
AcDbSpline
210
0.0
220
0.0
230
1.0
 70
     8
 71
     3
 72
     8
 73
     4
 74
     0
 42
0.000000001
 43
0.00000001
 40
0.2499999999999936
 40
0.2499999999999936
 40
0.2499999999999936
 40
0.2499999999999936
 40
0.3749999999999903
 40
0.3749999999999903
 40
0.3749999999999903
 40
0.3749999999999903
 10
170.3901652878108
 20
23.67653268617607
 30
0.0
 10
169.8076321501163
 20
23.78072579524346
 30
0.0
 10
169.2583410320547
 20
23.89965118255232
 30
0.0
 10
168.7404970129448
 20
24.02648019175222
 30
0.0
  0
SPLINE
  5
1EF
330
1F
100
AcDbEntity
  8
1
  6
SLD-Solid
370
    25
100
AcDbSpline
210
0.0
220
0.0
230
1.0
 70
     8
 71
     3
 72
     8
 73
     4
 74
     0
 42
0.000000001
 43
0.00000001
 40
0.3749999999999903
 40
0.3749999999999903
 40
0.3749999999999903
 40
0.3749999999999903
 40
0.4374999999999909
 40
0.4374999999999909
 40
0.4374999999999909
 40
0.4374999999999909
 10
168.7404970129448
 20
24.02648019175222
 30
0.0
 10
168.4815750033898
 20
24.08989469635216
 30
0.0
 10
168.2294684988653
 20
24.15560773193804
 30
0.0
 10
167.9882605103466
 20
24.22169866160349
 30
0.0
  0
SPLINE
  5
1F0
330
1F
100
AcDbEntity
  8
1
  6
SLD-Solid
370
    25
100
AcDbSpline
210
0.0
220
0.0
230
1.0
 70
     8
 71
     3
 72
     8
 73
     4
 74
     0
 42
0.000000001
 43
0.00000001
 40
0.4374999999999909
 40
0.4374999999999909
 40
0.4374999999999909
 40
0.4374999999999909
 40
0.4999999999999915
 40
0.4999999999999915
 40
0.4999999999999915
 40
0.4999999999999915
 10
167.9882605103466
 20
24.22169866160349
 30
0.0
 10
167.7470525218279
 20
24.28778959126893
 30
0.0
 10
167.5174085076093
 20
24.35403013758693
 30
0.0
 10
167.2989017323923
 20
24.4195841657192
 30
0.0
  0
SPLINE
  5
1F1
330
1F
100
AcDbEntity
  8
1
  6
SLD-Solid
370
    25
100
AcDbSpline
210
0.0
220
0.0
230
1.0
 70
     8
 71
     3
 72
     8
 73
     4
 74
     0
 42
0.000000001
 43
0.00000001
 40
0.4999999999999915
 40
0.4999999999999915
 40
0.4999999999999915
 40
0.4999999999999915
 40
0.6249999999999927
 40
0.6249999999999927
 40
0.6249999999999927
 40
0.6249999999999927
 10
167.2989017323923
 20
24.4195841657192
 30
0.0
 10
166.8618881819582
 20
24.55069222198374
 30
0.0
 10
166.4690822798023
 20
24.67907301373171
 30
0.0
 10
166.1213092491989
 20
24.79832920551828
 30
0.0
  0
SPLINE
  5
1F2
330
1F
100
AcDbEntity
  8
1
  6
SLD-Solid
370
    25
100
AcDbSpline
210
0.0
220
0.0
230
1.0
 70
     8
 71
     3
 72
     8
 73
     4
 74
     0
 42
0.000000001
 43
0.00000001
 40
0.6249999999999927
 40
0.6249999999999927
 40
0.6249999999999927
 40
0.6249999999999927
 40
0.6874999999999933
 40
0.6874999999999933
 40
0.6874999999999933
 40
0.6874999999999933
 10
166.1213092491989
 20
24.79832920551828
 30
0.0
 10
165.9474227338972
 20
24.85795730141158
 30
0.0
 10
165.7851433827425
 20
24.91522716560716
 30
0.0
 10
165.6378078437518
 20
24.96825980827113
 30
0.0
  0
SPLINE
  5
1F3
330
1F
100
AcDbEntity
  8
1
  6
SLD-Solid
370
    25
100
AcDbSpline
210
0.0
220
0.0
230
1.0
 70
     8
 71
     3
 72
     8
 73
     4
 74
     0
 42
0.000000001
 43
0.00000001
 40
0.6874999999999933
 40
0.6874999999999933
 40
0.6874999999999933
 40
0.6874999999999933
 40
0.7499999999999939
 40
0.7499999999999939
 40
0.7499999999999939
 40
0.7499999999999939
 10
165.6378078437518
 20
24.96825980827113
 30
0.0
 10
165.4904723047612
 20
25.0212924509351
 30
0.0
 10
165.357079523367
 20
25.07042926814306
 30
0.0
 10
165.2375011316101
 20
25.11512512419598
 30
0.0
  0
SPLINE
  5
1F4
330
1F
100
AcDbEntity
  8
1
  6
SLD-Solid
370
    25
100
AcDbSpline
210
0.0
220
0.0
230
1.0
 70
     8
 71
     3
 72
     8
 73
     4
 74
     0
 42
0.000000001
 43
0.00000001
 40
0.7499999999999939
 40
0.7499999999999939
 40
0.7499999999999939
 40
0.7499999999999939
 40
0.874999999999997
 40
0.874999999999997
 40
0.874999999999997
 40
0.874999999999997
 10
165.2375011316101
 20
25.11512512419598
 30
0.0
 10
164.9983443480961
 20
25.20451683630185
 30
0.0
 10
164.813883642023
 20
25.27625502287192
 30
0.0
 10
164.688451573712
 20
25.32546879384401
 30
0.0
  0
SPLINE
  5
1F5
330
1F
100
AcDbEntity
  8
1
  6
SLD-Solid
370
    25
100
AcDbSpline
210
0.0
220
0.0
230
1.0
 70
     8
 71
     2
 72
     6
 73
     3
 74
     0
 42
0.000000001
 43
0.00000001
 40
0.874999999999997
 40
0.874999999999997
 40
0.874999999999997
 40
1.0
 40
1.0
 40
1.0
 10
164.688451573712
 20
25.32546879384401
 30
0.0
 10
164.563019505401
 20
25.37468256481611
 30
0.0
 10
164.5000000000001
 20
25.39999999999998
 30
0.0
  0
SPLINE
  5
1F6
330
1F
100
AcDbEntity
  8
1
  6
SLD-Solid
370
    25
100
AcDbSpline
210
0.0
220
0.0
230
1.0
 70
     8
 71
     3
 72
    17
 73
    13
 74
     0
 42
0.000000001
 43
0.00000001
 40
0.0
 40
0.0
 40
0.0
 40
0.0
 40
0.0865628688442531
 40
0.1873495870953722
 40
0.2909169482953877
 40
0.3946216492946859
 40
0.5009808265066121
 40
0.6114081048712912
 40
0.7249420326783977
 40
0.8364994077730108
 40
0.95177564304755
 40
1.0
 40
1.0
 40
1.0
 40
1.0
 10
184.7268491983413
 20
25.39080195128918
 30
0.0
 10
184.7189284302893
 20
25.38760774962096
 30
0.0
 10
184.7017853683293
 20
25.3806944810148
 30
0.0
 10
184.3638403916376
 20
25.24740896959541
 30
0.0
 10
183.7991527598873
 20
25.0335056078267
 30
0.0
 10
182.9917716413745
 20
24.74676814282593
 30
0.0
 10
181.9596018532372
 20
24.41403446335408
 30
0.0
 10
180.6982157429133
 20
24.0612574844556
 30
0.0
 10
179.2393808394307
 20
23.73095238982643
 30
0.0
 10
177.6137248595656
 20
23.46681216770629
 30
0.0
 10
176.2158584867875
 20
23.33406306786696
 30
0.0
 10
175.3700712311935
 20
23.30775814818235
 30
0.0
 10
175.1206070184707
 20
23.29999953508378
 30
0.0
  0
SPLINE
  5
1F7
330
1F
100
AcDbEntity
  8
1
  6
SLD-Solid
370
    25
100
AcDbSpline
210
0.0
220
0.0
230
1.0
 70
     8
 71
     3
 72
    16
 73
    12
 74
     0
 42
0.000000001
 43
0.00000001
 40
0.0
 40
0.0
 40
0.0
 40
0.0
 40
0.1250000000000007
 40
0.1250000000000007
 40
0.2500000000000013
 40
0.2500000000000013
 40
0.5000000000000009
 40
0.5000000000000009
 40
0.7500000000000004
 40
0.7500000000000004
 40
1.0
 40
1.0
 40
1.0
 40
1.0
 10
9.200000204145908
 20
41.93454235792161
 30
0.0
 10
9.200000204148434
 20
41.87335475630987
 30
0.0
 10
9.20968828300718
 20
41.83111044630717
 30
0.0
 10
9.236073619680555
 20
41.77192901356236
 30
0.0
 10
9.253070828886392
 20
41.75174452130693
 30
0.0
 10
9.313035019359262
 20
41.70102843243769
 30
0.0
 10
9.363922659971728
 20
41.68155703795598
 30
0.0
 10
9.490054729693803
 20
41.6558721617165
 30
0.0
 10
9.56509263418684
 20
41.65088434586102
 30
0.0
 10
9.738924851412548
 20
41.66113958578665
 30
0.0
 10
9.83944615049552
 20
41.67651277999006
 30
0.0
 10
9.950000204143633
 20
41.70913814088573
 30
0.0
  0
SPLINE
  5
1F8
330
1F
100
AcDbEntity
  8
1
  6
SLD-Solid
370
    25
100
AcDbSpline
210
0.0
220
0.0
230
1.0
 70
     8
 71
     3
 72
    12
 73
     8
 74
     0
 42
0.000000001
 43
0.00000001
 40
0.0
 40
0.0
 40
0.0
 40
0.0
 40
0.25
 40
0.25
 40
0.5
 40
0.5
 40
1.0
 40
1.0
 40
1.0
 40
1.0
 10
9.950000204143633
 20
41.70913814088573
 30
0.0
 10
10.11915697353587
 20
41.75905761889027
 30
0.0
 10
10.30270790934461
 20
41.79673646666126
 30
0.0
 10
10.69826580809581
 20
41.84886354295495
 30
0.0
 10
10.90345668244769
 20
41.86219394477457
 30
0.0
 10
11.52590260644891
 20
41.86393991358953
 30
0.0
 10
11.9386881731503
 20
41.81303422185271
 30
0.0
 10
12.28000020414201
 20
41.71496224063969
 30
0.0
  0
SPLINE
  5
1F9
330
1F
100
AcDbEntity
  8
1
  6
SLD-Solid
370
    25
100
AcDbSpline
210
0.0
220
0.0
230
1.0
 70
     8
 71
     3
 72
    16
 73
    12
 74
     0
 42
0.000000001
 43
0.00000001
 40
0.0
 40
0.0
 40
0.0
 40
0.0
 40
0.2500000000000007
 40
0.2500000000000007
 40
0.5000000000000013
 40
0.5000000000000013
 40
0.750000000000002
 40
0.750000000000002
 40
0.875000000000001
 40
0.875000000000001
 40
1.0
 40
1.0
 40
1.0
 40
1.0
 10
12.28000020414201
 20
41.71496224063969
 30
0.0
 10
12.38938147557005
 20
41.6835328240868
 30
0.0
 10
12.4871981100267
 20
41.66923443832147
 30
0.0
 10
12.6623567427306
 20
41.66075304847875
 30
0.0
 10
12.73630383118499
 20
41.66679664164639
 30
0.0
 10
12.86322598145935
 20
41.69542235296244
 30
0.0
 10
12.91570592544293
 20
41.7172364287444
 30
0.0
 10
12.97658954923632
 20
41.77277625315302
 30
0.0
 10
12.99410000666169
 20
41.79517107625947
 30
0.0
 10
13.0208461771025
 20
41.85934365562866
 30
0.0
 10
13.03000020414201
 20
41.9026504671264
 30
0.0
 10
13.03000020414201
 20
41.962958063511
 30
0.0
  0
SPLINE
  5
1FA
330
1F
100
AcDbEntity
  8
1
  6
SLD-Solid
370
    25
100
AcDbSpline
210
0.0
220
0.0
230
1.0
 70
     8
 71
     3
 72
    12
 73
     8
 74
     0
 42
0.000000001
 43
0.00000001
 40
0.0
 40
0.0
 40
0.0
 40
0.0
 40
0.5
 40
0.5
 40
0.75
 40
0.75
 40
1.0
 40
1.0
 40
1.0
 40
1.0
 10
9.2
 20
44.55102159322499
 30
0.0
 10
9.2
 20
44.35104831812287
 30
0.0
 10
9.276003966817326
 20
44.15150826736529
 30
0.0
 10
9.482759040153471
 20
43.93116827137958
 30
0.0
 10
9.566857937314932
 20
43.87128621650867
 30
0.0
 10
9.74951124726116
 20
43.79084228716471
 30
0.0
 10
9.850156242870472
 20
43.76943596849257
 30
0.0
 10
9.950000000002415
 20
43.7694359684929
 30
0.0
  0
SPLINE
  5
1FB
330
1F
100
AcDbEntity
  8
1
  6
SLD-Solid
370
    25
100
AcDbSpline
210
0.0
220
0.0
230
1.0
 70
     8
 71
     3
 72
    10
 73
     6
 74
     0
 42
0.000000001
 43
0.00000001
 40
0.0
 40
0.0
 40
0.0
 40
0.0
 40
0.5
 40
0.5
 40
1.0
 40
1.0
 40
1.0
 40
1.0
 10
12.28000000000001
 20
43.7694359684929
 30
0.0
 10
12.48122846377883
 20
43.76943596849291
 30
0.0
 10
12.6790093261089
 20
43.85856672856718
 30
0.0
 10
12.95290221427664
 20
44.15022946993261
 30
0.0
 10
13.03000000000001
 20
44.34957328976746
 30
0.0
 10
13.03000000000001
 20
44.55102159322499
 30
0.0
  0
SPLINE
  5
1FC
330
1F
100
AcDbEntity
  8
SK3
  6
SLD-Dashed
370
    18
100
AcDbSpline
210
0.0
220
0.0
230
1.0
 70
     8
 71
     3
 72
    30
 73
    26
 74
     0
 42
0.000000001
 43
0.00000001
 40
0.4999999999999934
 40
0.4999999999999934
 40
0.4999999999999934
 40
0.4999999999999934
 40
0.5624999999999941
 40
0.5624999999999941
 40
0.6249999999999949
 40
0.6249999999999949
 40
0.6874999999999956
 40
0.6874999999999956
 40
0.7499999999999962
 40
0.7499999999999962
 40
0.7812499999999968
 40
0.7812499999999968
 40
0.8124999999999972
 40
0.8124999999999972
 40
0.8437499999999977
 40
0.8437499999999977
 40
0.8749999999999981
 40
0.8749999999999981
 40
0.9062499999999986
 40
0.9062499999999986
 40
0.9374999999999991
 40
0.9374999999999991
 40
0.9687499999999996
 40
0.9687499999999996
 40
1.0
 40
1.0
 40
1.0
 40
1.0
 10
9.602846279599758
 20
-14.27915034605701
 30
0.0
 10
9.686456538693793
 20
-14.42125418637639
 30
0.0
 10
9.797407143447803
 20
-14.51131733768216
 30
0.0
 10
10.04010223607202
 20
-14.63242374926581
 30
0.0
 10
10.1757110634753
 20
-14.66434400040091
 30
0.0
 10
10.46843928875954
 20
-14.6878509066433
 30
0.0
 10
10.62555865364897
 20
-14.68003033606001
 30
0.0
 10
10.98145473780839
 20
-14.62436653420486
 30
0.0
 10
11.18157682258661
 20
-14.57632221838472
 30
0.0
 10
11.50801002825753
 20
-14.4586089343655
 30
0.0
 10
11.61873162334195
 20
-14.41242944660508
 30
0.0
 10
11.84220113938106
 20
-14.30063256215535
 30
0.0
 10
11.95412269444689
 20
-14.23490090158665
 30
0.0
 10
12.16107863552154
 20
-14.08747705033182
 30
0.0
 10
12.25901625186734
 20
-14.00366784802362
 30
0.0
 10
12.43052677631516
 20
-13.82249974419393
 30
0.0
 10
12.50593330594163
 20
-13.72350506925876
 30
0.0
 10
12.63000303324958
 20
-13.51367430078405
 30
0.0
 10
12.67841410243614
 20
-13.40398486856759
 30
0.0
 10
12.74789370637348
 20
-13.17359881812363
 30
0.0
 10
12.7681012463063
 20
-13.05468203931825
 30
0.0
 10
12.77891027826542
 20
-12.81644825424547
 30
0.0
 10
12.76940813581852
 20
-12.69449512908379
 30
0.0
 10
12.72129905847914
 20
-12.45817259633889
 30
0.0
 10
12.6830162564643
 20
-12.3430480331033
 30
0.0
 10
12.63040931107566
 20
-12.2323343638947
 30
0.0
  0
SPLINE
  5
1FD
330
1F
100
AcDbEntity
  8
SK3
  6
SLD-Dashed
370
    18
100
AcDbSpline
210
0.0
220
0.0
230
1.0
 70
     8
 71
     3
 72
    30
 73
    26
 74
     0
 42
0.000000001
 43
0.00000001
 40
0.0
 40
0.0
 40
0.0
 40
0.0
 40
0.0312499999999991
 40
0.0312499999999991
 40
0.0624999999999983
 40
0.0624999999999983
 40
0.0937499999999974
 40
0.0937499999999974
 40
0.1249999999999965
 40
0.1249999999999965
 40
0.187499999999996
 40
0.187499999999996
 40
0.2499999999999955
 40
0.2499999999999955
 40
0.312499999999995
 40
0.312499999999995
 40
0.3749999999999944
 40
0.3749999999999944
 40
0.4062499999999942
 40
0.4062499999999942
 40
0.4374999999999939
 40
0.4374999999999939
 40
0.4687499999999937
 40
0.4687499999999937
 40
0.4999999999999934
 40
0.4999999999999934
 40
0.4999999999999934
 40
0.4999999999999934
 10
12.63040931107567
 20
-12.23233436389469
 30
0.0
 10
12.57780236568702
 20
-12.1216206946861
 30
0.0
 10
12.51267206459308
 20
-12.01896209858504
 30
0.0
 10
12.35821503903346
 20
-11.83123217673025
 30
0.0
 10
12.2680065585952
 20
-11.74609765066665
 30
0.0
 10
12.07343499093627
 20
-11.60605794329096
 30
0.0
 10
11.96643370486065
 20
-11.54920121804519
 30
0.0
 10
11.74573264298211
 20
-11.46981719393689
 30
0.0
 10
11.63406552497757
 20
-11.44748668283021
 30
0.0
 10
11.29951801742689
 20
-11.42770686560522
 30
0.0
 10
11.0919842806995
 20
-11.47806879673262
 30
0.0
 10
10.72217844091647
 20
-11.64236243808863
 30
0.0
 10
10.55844908096594
 20
-11.75496051093636
 30
0.0
 10
10.25324958882705
 20
-12.02428585488715
 30
0.0
 10
10.11576882260311
 20
-12.17795893248197
 30
0.0
 10
9.86252561936532
 20
-12.52988094775972
 30
0.0
 10
9.746260896402015
 20
-12.72918710194006
 30
0.0
 10
9.60569266085047
 20
-13.06645756895028
 30
0.0
 10
9.565421636406112
 20
-13.18319961587417
 30
0.0
 10
9.503286004234612
 20
-13.4293677611186
 30
0.0
 10
9.482363995141311
 20
-13.55752069830019
 30
0.0
 10
9.470908412243753
 20
-13.80546799718778
 30
0.0
 10
9.480664817462682
 20
-13.92083957613645
 30
0.0
 10
9.525951505689648
 20
-14.12239475073259
 30
0.0
 10
9.561041150052754
 20
-14.20809842589733
 30
0.0
 10
9.602846279599758
 20
-14.27915034605701
 30
0.0
  0
SPLINE
  5
1FE
330
1F
100
AcDbEntity
  8
SK3
  6
SLD-Dashed
370
    18
100
AcDbSpline
210
0.0
220
0.0
230
1.0
 70
     8
 71
     3
 72
    26
 73
    22
 74
     0
 42
0.000000001
 43
0.00000001
 40
0.5000000000000062
 40
0.5000000000000062
 40
0.5000000000000062
 40
0.5000000000000062
 40
0.5625000000000058
 40
0.5625000000000058
 40
0.6250000000000051
 40
0.6250000000000051
 40
0.6562500000000046
 40
0.6562500000000046
 40
0.687500000000004
 40
0.687500000000004
 40
0.7187500000000034
 40
0.7187500000000034
 40
0.7500000000000029
 40
0.7500000000000029
 40
0.8125000000000022
 40
0.8125000000000022
 40
0.8750000000000014
 40
0.8750000000000014
 40
0.9375000000000008
 40
0.9375000000000008
 40
1.0
 40
1.0
 40
1.0
 40
1.0
 10
11.63869831779571
 20
-9.819390371339228
 30
0.0
 10
11.80317915771349
 20
-9.806594466981574
 30
0.0
 10
11.95081782962316
 20
-9.812432081454686
 30
0.0
 10
12.22616299685252
 20
-9.868839301598992
 30
0.0
 10
12.35236515469919
 20
-9.918953620877927
 30
0.0
 10
12.5187466142634
 20
-10.04837289060635
 30
0.0
 10
12.57051953396254
 20
-10.10115000339698
 30
0.0
 10
12.66070184098385
 20
-10.23071744026808
 30
0.0
 10
12.7000179600585
 20
-10.30921538460778
 30
0.0
 10
12.7562433913955
 20
-10.49493258066048
 30
0.0
 10
12.7732316530057
 20
-10.60488156995157
 30
0.0
 10
12.7764946288975
 20
-10.84110300053568
 30
0.0
 10
12.76278670669288
 20
-10.96977043023328
 30
0.0
 10
12.68516730486995
 20
-11.34647137591011
 30
0.0
 10
12.58996305158963
 20
-11.58088814423495
 30
0.0
 10
12.3731560345373
 20
-11.98947715399204
 30
0.0
 10
12.24747178673946
 20
-12.17132846963892
 30
0.0
 10
11.9767673751945
 20
-12.4898134904303
 30
0.0
 10
11.8310268635477
 20
-12.62828009284683
 30
0.0
 10
11.50508373269933
 20
-12.86276351579439
 30
0.0
 10
11.32747339457477
 20
-12.95749122616766
 30
0.0
 10
11.12500000000001
 20
-13.01159523973385
 30
0.0
  0
SPLINE
  5
1FF
330
1F
100
AcDbEntity
  8
SK3
  6
SLD-Dashed
370
    18
100
AcDbSpline
210
0.0
220
0.0
230
1.0
 70
     8
 71
     3
 72
    34
 73
    30
 74
     0
 42
0.000000001
 43
0.00000001
 40
0.0
 40
0.0
 40
0.0
 40
0.0
 40
0.0312500000000005
 40
0.0312500000000005
 40
0.0625000000000011
 40
0.0625000000000011
 40
0.0937500000000016
 40
0.0937500000000016
 40
0.1250000000000022
 40
0.1250000000000022
 40
0.1562500000000027
 40
0.1562500000000027
 40
0.1875000000000032
 40
0.1875000000000032
 40
0.2187500000000038
 40
0.2187500000000038
 40
0.2500000000000043
 40
0.2500000000000043
 40
0.2812500000000049
 40
0.2812500000000049
 40
0.3125000000000054
 40
0.3125000000000054
 40
0.3750000000000063
 40
0.3750000000000063
 40
0.4062500000000066
 40
0.4062500000000066
 40
0.4375000000000068
 40
0.4375000000000068
 40
0.5000000000000062
 40
0.5000000000000062
 40
0.5000000000000062
 40
0.5000000000000062
 10
11.12500000000001
 20
-13.01159523973385
 30
0.0
 10
11.02376330271261
 20
-13.03864724651694
 30
0.0
 10
10.91875434041334
 20
-13.05441768585464
 30
0.0
 10
10.6998219372948
 20
-13.0564958706087
 30
0.0
 10
10.58565504429783
 20
-13.04203538439391
 30
0.0
 10
10.3643330690885
 20
-12.97958779527627
 30
0.0
 10
10.25386240054303
 20
-12.93066318687883
 30
0.0
 10
10.04998753866614
 20
-12.80335962284301
 30
0.0
 10
9.955887873020972
 20
-12.72514830576756
 30
0.0
 10
9.789076352163569
 20
-12.54575166602603
 30
0.0
 10
9.71802220267208
 20
-12.44674722204854
 30
0.0
 10
9.60053600143318
 20
-12.2325086195109
 30
0.0
 10
9.555159683901207
 20
-12.1185101536641
 30
0.0
 10
9.49353895391432
 20
-11.88585378314762
 30
0.0
 10
9.47679981458592
 20
-11.76451266100634
 30
0.0
 10
9.473480888754674
 20
-11.52533259241781
 30
0.0
 10
9.486354225371807
 20
-11.40705029377197
 30
0.0
 10
9.541906609790443
 20
-11.17282024047875
 30
0.0
 10
9.583939125903788
 20
-11.06025657731943
 30
0.0
 10
9.694361385739578
 20
-10.84625731946297
 30
0.0
 10
9.764046986917323
 20
-10.74326010657128
 30
0.0
 10
10.00399120049177
 20
-10.46156575413965
 30
0.0
 10
10.21277179464264
 20
-10.30327029353935
 30
0.0
 10
10.5444699112901
 20
-10.12219171688678
 30
0.0
 10
10.65925898590059
 20
-10.07012567259633
 30
0.0
 10
10.87934718809655
 20
-9.98406667522589
 30
0.0
 10
10.98764418607852
 20
-9.948726825148157
 30
0.0
 10
11.29210738731389
 20
-9.863765363482663
 30
0.0
 10
11.47421747787793
 20
-9.832186275696882
 30
0.0
 10
11.63869831779571
 20
-9.819390371339228
 30
0.0
  0
SPLINE
  5
200
330
1F
100
AcDbEntity
  8
SK3
  6
SLD-Dashed
370
    18
100
AcDbSpline
210
0.0
220
0.0
230
1.0
 70
    24
 71
     3
 72
    10
 73
     6
 74
     0
 42
0.000000001
 43
0.00000001
 40
0.0
 40
0.0
 40
0.0
 40
0.0
 40
0.0394545066853227
 40
0.5819371285017775
 40
1.0
 40
1.0
 40
1.0
 40
1.0
 10
19.04999999999998
 20
-35.1
 30
0.0
 10
19.05022556321775
 20
-35.1
 30
0.0
 10
19.05355252437581
 20
-35.10000000000004
 30
0.0
 10
19.20320375653127
 20
-35.09999999999998
 30
0.0
 10
19.26817848814635
 20
-35.1
 30
0.0
 10
19.29645775556563
 20
-35.1
 30
0.0
  0
SPLINE
  5
201
330
1F
100
AcDbEntity
  8
SK3
  6
SLD-Dashed
370
    18
100
AcDbSpline
210
0.0
220
0.0
230
1.0
 70
    24
 71
     3
 72
     8
 73
     4
 74
     0
 42
0.000000001
 43
0.00000001
 40
0.0
 40
0.0
 40
0.0
 40
0.0
 40
0.5
 40
0.5
 40
0.5
 40
0.5
 10
19.32612564304362
 20
-35.09999999999999
 30
0.0
 10
19.32611915823573
 20
-35.09999999999999
 30
0.0
 10
19.25867416552909
 20
-35.09999999999999
 30
0.0
 10
19.18940128868457
 20
-35.09999999999999
 30
0.0
  0
SPLINE
  5
202
330
1F
100
AcDbEntity
  8
SK3
  6
SLD-Dashed
370
    18
100
AcDbSpline
210
0.0
220
0.0
230
1.0
 70
    24
 71
     2
 72
     6
 73
     3
 74
     0
 42
0.000000001
 43
0.00000001
 40
0.5
 40
0.5
 40
0.5
 40
1.0
 40
1.0
 40
1.0
 10
19.18940128868457
 20
-35.09999999999999
 30
0.0
 10
19.12012899046088
 20
-35.09999999999999
 30
0.0
 10
19.04999999999998
 20
-35.1
 30
0.0
  0
SPLINE
  5
203
330
1F
100
AcDbEntity
  8
1
  6
SLD-Dashed
370
    18
100
AcDbSpline
210
0.0
220
0.0
230
1.0
 70
    24
 71
     2
 72
     6
 73
     3
 74
     0
 42
0.000000001
 43
0.00000001
 40
0.0
 40
0.0
 40
0.0
 40
0.25
 40
0.25
 40
0.25
 10
3.199999999975778
 20
-35.10000000001412
 30
0.0
 10
3.178023089466631
 20
-35.10000000000992
 30
0.0
 10
3.159393676864686
 20
-35.10000000000638
 30
0.0
  0
SPLINE
  5
204
330
1F
100
AcDbEntity
  8
1
  6
SLD-Dashed
370
    18
100
AcDbSpline
210
0.0
220
0.0
230
1.0
 70
    24
 71
     3
 72
     8
 73
     4
 74
     0
 42
0.000000001
 43
0.00000001
 40
0.25
 40
0.25
 40
0.25
 40
0.25
 40
0.5
 40
0.5
 40
0.5
 40
0.5
 10
3.159393676864686
 20
-35.10000000000638
 30
0.0
 10
3.140764264251639
 20
-35.10000000000283
 30
0.0
 10
3.125935313376432
 20
-35.10000000000002
 30
0.0
 10
3.125925297481333
 20
-35.1
 30
0.0
  0
SPLINE
  5
205
330
1F
100
AcDbEntity
  8
1
  6
SLD-Dashed
370
    18
100
AcDbSpline
210
0.0
220
0.0
230
1.0
 70
    24
 71
     3
 72
     8
 73
     4
 74
     0
 42
0.000000001
 43
0.00000001
 40
0.5
 40
0.5
 40
0.5
 40
0.5
 40
0.75
 40
0.75
 40
0.75
 40
0.75
 10
3.125925297481333
 20
-35.1
 30
0.0
 10
3.125915281586233
 20
-35.1
 30
0.0
 10
3.14073647508116
 20
-35.10000000000282
 30
0.0
 10
3.159374026153503
 20
-35.10000000000637
 30
0.0
  0
SPLINE
  5
206
330
1F
100
AcDbEntity
  8
1
  6
SLD-Dashed
370
    18
100
AcDbSpline
210
0.0
220
0.0
230
1.0
 70
    24
 71
     2
 72
     6
 73
     3
 74
     0
 42
0.000000001
 43
0.00000001
 40
0.75
 40
0.75
 40
0.75
 40
1.0
 40
1.0
 40
1.0
 10
3.159374026153503
 20
-35.10000000000637
 30
0.0
 10
3.178011577214757
 20
-35.10000000000992
 30
0.0
 10
3.199999999975778
 20
-35.10000000001412
 30
0.0
  0
SPLINE
  5
207
330
1F
100
AcDbEntity
  8
SK3
  6
SLD-Dashed
370
    18
100
AcDbSpline
210
0.0
220
0.0
230
1.0
 70
     8
 71
     3
 72
    30
 73
    26
 74
     0
 42
0.000000001
 43
0.00000001
 40
0.4999999999999999
 40
0.4999999999999999
 40
0.4999999999999999
 40
0.4999999999999999
 40
0.5624999999999997
 40
0.5624999999999997
 40
0.6249999999999994
 40
0.6249999999999994
 40
0.6562499999999994
 40
0.6562499999999994
 40
0.6874999999999994
 40
0.6874999999999994
 40
0.7187499999999994
 40
0.7187499999999994
 40
0.7499999999999994
 40
0.7499999999999994
 40
0.7812499999999996
 40
0.7812499999999996
 40
0.8124999999999996
 40
0.8124999999999996
 40
0.8437499999999996
 40
0.8437499999999996
 40
0.8749999999999996
 40
0.8749999999999996
 40
0.9374999999999998
 40
0.9374999999999998
 40
1.0
 40
1.0
 40
1.0
 40
1.0
 10
11.1256340867126
 20
-2.20807613194432
 30
0.0
 10
10.91012831143849
 20
-2.207994055743366
 30
0.0
 10
10.69273190607928
 20
-2.250950739379302
 30
0.0
 10
10.29545710457799
 20
-2.413221511274807
 30
0.0
 10
10.11161887920199
 20
-2.533970605358114
 30
0.0
 10
9.883256858052484
 20
-2.7563935005223
 30
0.0
 10
9.813570300258604
 20
-2.838822643502548
 30
0.0
 10
9.693828420307693
 20
-3.012044829892147
 30
0.0
 10
9.643049505613204
 20
-3.103292515775104
 30
0.0
 10
9.55993988511529
 20
-3.294987142140778
 30
0.0
 10
9.528110569339109
 20
-3.39493763734118
 30
0.0
 10
9.485932078998172
 20
-3.59527852615478
 30
0.0
 10
9.47509331111486
 20
-3.696889173272891
 30
0.0
 10
9.474907881274767
 20
-3.901872321533127
 30
0.0
 10
9.485524003425505
 20
-4.002149034246283
 30
0.0
 10
9.527345716529718
 20
-4.19850671782998
 30
0.0
 10
9.559089732329259
 20
-4.295610098711378
 30
0.0
 10
9.64173363838837
 20
-4.47937067040146
 30
0.0
 10
9.692330936314539
 20
-4.566117382228341
 30
0.0
 10
9.811994061612554
 20
-4.72969567326164
 30
0.0
 10
9.881475262593517
 20
-4.80655485490828
 30
0.0
 10
10.10919445985289
 20
-5.012639596316017
 30
0.0
 10
10.29295795309711
 20
-5.122781885588331
 30
0.0
 10
10.68976853487483
 20
-5.270055084887766
 30
0.0
 10
10.90666257993482
 20
-5.309061659790642
 30
0.0
 10
11.12500000000001
 20
-5.309061659790642
 30
0.0
  0
SPLINE
  5
208
330
1F
100
AcDbEntity
  8
SK3
  6
SLD-Dashed
370
    18
100
AcDbSpline
210
0.0
220
0.0
230
1.0
 70
     8
 71
     3
 72
    34
 73
    30
 74
     0
 42
0.000000001
 43
0.00000001
 40
0.0
 40
0.0
 40
0.0
 40
0.0
 40
0.0312500000000002
 40
0.0312500000000002
 40
0.0625000000000005
 40
0.0625000000000005
 40
0.0937500000000007
 40
0.0937500000000007
 40
0.1250000000000009
 40
0.1250000000000009
 40
0.1875000000000008
 40
0.1875000000000008
 40
0.2500000000000008
 40
0.2500000000000008
 40
0.2812500000000007
 40
0.2812500000000007
 40
0.3125000000000006
 40
0.3125000000000006
 40
0.3437500000000004
 40
0.3437500000000004
 40
0.3750000000000003
 40
0.3750000000000003
 40
0.4062500000000003
 40
0.4062500000000003
 40
0.4375000000000002
 40
0.4375000000000002
 40
0.4687500000000001
 40
0.4687500000000001
 40
0.4999999999999999
 40
0.4999999999999999
 40
0.4999999999999999
 40
0.4999999999999999
 10
11.12500000000001
 20
-5.309061659790642
 30
0.0
 10
11.23416871003258
 20
-5.309061659790622
 30
0.0
 10
11.34148252556935
 20
-5.299537349621526
 30
0.0
 10
11.55256160023163
 20
-5.262182100287872
 30
0.0
 10
11.65743203047546
 20
-5.233886962156417
 30
0.0
 10
11.85717198594061
 20
-5.159939537795331
 30
0.0
 10
11.95188217044847
 20
-5.114630280030591
 30
0.0
 10
12.13112457505727
 20
-5.00721547378323
 30
0.0
 10
12.21587296426145
 20
-4.944611663283506
 30
0.0
 10
12.44381779984265
 20
-4.738598197540293
 30
0.0
 10
12.56670516674999
 20
-4.571329361139971
 30
0.0
 10
12.73138667216643
 20
-4.20606048265669
 30
0.0
 10
12.77487792035803
 20
-4.004112810281367
 30
0.0
 10
12.77506064455626
 20
-3.700306253597553
 30
0.0
 10
12.76431481439133
 20
-3.596867972028003
 30
0.0
 10
12.72215926890363
 20
-3.395807648785803
 30
0.0
 10
12.69097028794158
 20
-3.297550131697885
 30
0.0
 10
12.60821939488967
 20
-3.105767645319002
 30
0.0
 10
12.55662183160311
 20
-3.012826865172881
 30
0.0
 10
12.43728120518575
 20
-2.83992518641514
 30
0.0
 10
12.36897548289648
 20
-2.758757585038234
 30
0.0
 10
12.21525208496078
 20
-2.608656191484399
 30
0.0
 10
12.13209058330415
 20
-2.541870610032915
 30
0.0
 10
11.95357507686055
 20
-2.424499981749671
 30
0.0
 10
11.85705358084935
 20
-2.373501415354251
 30
0.0
 10
11.65740944182682
 20
-2.291755408436395
 30
0.0
 10
11.55456819584584
 20
-2.260806334720908
 30
0.0
 10
11.34284591554822
 20
-2.218868681349191
 30
0.0
 10
11.23338697434964
 20
-2.2081171700448
 30
0.0
 10
11.1256340867126
 20
-2.20807613194432
 30
0.0
  0
SPLINE
  5
209
330
1F
100
AcDbEntity
  8
1
  6
SLD-Dashed
370
    18
100
AcDbSpline
210
0.0
220
0.0
230
1.0
 70
     8
 71
     2
 72
     6
 73
     3
 74
     0
 42
0.000000001
 43
0.00000001
 40
0.0
 40
0.0
 40
0.0
 40
0.1249999999999986
 40
0.1249999999999986
 40
0.1249999999999986
 10
139.1
 20
25.39999969303609
 30
0.0
 10
139.1629857073957
 20
25.37470658098207
 30
0.0
 10
139.2857838083729
 20
25.32651531409817
 30
0.0
  0
SPLINE
  5
20A
330
1F
100
AcDbEntity
  8
1
  6
SLD-Dashed
370
    18
100
AcDbSpline
210
0.0
220
0.0
230
1.0
 70
     8
 71
     3
 72
     8
 73
     4
 74
     0
 42
0.000000001
 43
0.00000001
 40
0.1249999999999986
 40
0.1249999999999986
 40
0.1249999999999986
 40
0.1249999999999986
 40
0.1874999999999984
 40
0.1874999999999984
 40
0.1874999999999984
 40
0.1874999999999984
 10
139.2857838083729
 20
25.32651531409817
 30
0.0
 10
139.3471828588614
 20
25.30241968065621
 30
0.0
 10
139.4236449968463
 20
25.27258878116093
 30
0.0
 10
139.5154183206726
 20
25.23728067549395
 30
0.0
  0
SPLINE
  5
20B
330
1F
100
AcDbEntity
  8
1
  6
SLD-Dashed
370
    18
100
AcDbSpline
210
0.0
220
0.0
230
1.0
 70
     8
 71
     3
 72
     8
 73
     4
 74
     0
 42
0.000000001
 43
0.00000001
 40
0.1874999999999984
 40
0.1874999999999984
 40
0.1874999999999984
 40
0.1874999999999984
 40
0.2499999999999982
 40
0.2499999999999982
 40
0.2499999999999982
 40
0.2499999999999982
 10
139.5154183206726
 20
25.23728067549395
 30
0.0
 10
139.607191644499
 20
25.20197256982699
 30
0.0
 10
139.7145921460925
 20
25.16107648331615
 30
0.0
 10
139.8348828922912
 20
25.1161035767296
 30
0.0
  0
SPLINE
  5
20C
330
1F
100
AcDbEntity
  8
1
  6
SLD-Dashed
370
    18
100
AcDbSpline
210
0.0
220
0.0
230
1.0
 70
     8
 71
     3
 72
     8
 73
     4
 74
     0
 42
0.000000001
 43
0.00000001
 40
0.2499999999999982
 40
0.2499999999999982
 40
0.2499999999999982
 40
0.2499999999999982
 40
0.3750000000000001
 40
0.3750000000000001
 40
0.3750000000000001
 40
0.3750000000000001
 10
139.8348828922912
 20
25.1161035767296
 30
0.0
 10
140.0754643846887
 20
25.0261577635565
 30
0.0
 10
140.369040834392
 20
24.91920852559035
 30
0.0
 10
140.7147123887659
 20
24.80059182761876
 30
0.0
  0
SPLINE
  5
20D
330
1F
100
AcDbEntity
  8
1
  6
SLD-Dashed
370
    18
100
AcDbSpline
210
0.0
220
0.0
230
1.0
 70
     8
 71
     3
 72
     8
 73
     4
 74
     0
 42
0.000000001
 43
0.00000001
 40
0.3750000000000001
 40
0.3750000000000001
 40
0.3750000000000001
 40
0.3750000000000001
 40
0.4375000000000009
 40
0.4375000000000009
 40
0.4375000000000009
 40
0.4375000000000009
 10
140.7147123887659
 20
24.80059182761876
 30
0.0
 10
140.8875481659529
 20
24.74128347863295
 30
0.0
 10
141.0745140538617
 20
24.6787301566817
 30
0.0
 10
141.2723648051438
 20
24.61480786906025
 30
0.0
  0
SPLINE
  5
20E
330
1F
100
AcDbEntity
  8
1
  6
SLD-Dashed
370
    18
100
AcDbSpline
210
0.0
220
0.0
230
1.0
 70
     8
 71
     3
 72
     8
 73
     4
 74
     0
 42
0.000000001
 43
0.00000001
 40
0.4375000000000009
 40
0.4375000000000009
 40
0.4375000000000009
 40
0.4375000000000009
 40
0.5000000000000018
 40
0.5000000000000018
 40
0.5000000000000018
 40
0.5000000000000018
 10
141.2723648051438
 20
24.61480786906025
 30
0.0
 10
141.4702155564258
 20
24.5508855814388
 30
0.0
 10
141.678467309961
 20
24.48573232661276
 30
0.0
 10
141.8969294805575
 20
24.42017562479224
 30
0.0
  0
SPLINE
  5
20F
330
1F
100
AcDbEntity
  8
1
  6
SLD-Dashed
370
    18
100
AcDbSpline
210
0.0
220
0.0
230
1.0
 70
     8
 71
     3
 72
     8
 73
     4
 74
     0
 42
0.000000001
 43
0.00000001
 40
0.5000000000000018
 40
0.5000000000000018
 40
0.5000000000000018
 40
0.5000000000000018
 40
0.6250000000000069
 40
0.6250000000000069
 40
0.6250000000000069
 40
0.6250000000000069
 10
141.8969294805575
 20
24.42017562479224
 30
0.0
 10
142.3338538217507
 20
24.28906222115123
 30
0.0
 10
142.811292794779
 20
24.15627343837539
 30
0.0
 10
143.3316197716376
 20
24.02865561707921
 30
0.0
  0
SPLINE
  5
210
330
1F
100
AcDbEntity
  8
1
  6
SLD-Dashed
370
    18
100
AcDbSpline
210
0.0
220
0.0
230
1.0
 70
     8
 71
     3
 72
     8
 73
     4
 74
     0
 42
0.000000001
 43
0.00000001
 40
0.6875000000000073
 40
0.6875000000000073
 40
0.6875000000000073
 40
0.6875000000000073
 40
0.7500000000000077
 40
0.7500000000000077
 40
0.7500000000000077
 40
0.7500000000000077
 10
144.1371945017584
 20
23.84386976037073
 30
0.0
 10
144.4126290111479
 20
23.78509753894359
 30
0.0
 10
144.6947354478262
 20
23.72945204398377
 30
0.0
 10
144.9835960671735
 20
23.67770824604848
 30
0.0
  0
SPLINE
  5
211
330
1F
100
AcDbEntity
  8
1
  6
SLD-Dashed
370
    18
100
AcDbSpline
210
0.0
220
0.0
230
1.0
 70
     8
 71
     3
 72
     8
 73
     4
 74
     0
 42
0.000000001
 43
0.00000001
 40
0.7500000000000077
 40
0.7500000000000077
 40
0.7500000000000077
 40
0.7500000000000077
 40
0.8750000000000039
 40
0.8750000000000039
 40
0.8750000000000039
 40
0.8750000000000039
 10
144.9835960671735
 20
23.67770824604848
 30
0.0
 10
145.5613173058677
 20
23.57422065017766
 30
0.0
 10
146.1679140999577
 20
23.48605728416109
 30
0.0
 10
146.7999990026067
 20
23.42061037758756
 30
0.0
  0
SPLINE
  5
212
330
1F
100
AcDbEntity
  8
1
  6
SLD-Dashed
370
    18
100
AcDbSpline
210
0.0
220
0.0
230
1.0
 70
     8
 71
     3
 72
     8
 73
     4
 74
     0
 42
0.000000001
 43
0.00000001
 40
0.8750000000000039
 40
0.8750000000000039
 40
0.8750000000000039
 40
0.8750000000000039
 40
1.0
 40
1.0
 40
1.0
 40
1.0
 10
146.7999990026067
 20
23.42061037758756
 30
0.0
 10
147.4320839052557
 20
23.3551634710145
 30
0.0
 10
148.0750906158925
 20
23.31391714513003
 30
0.0
 10
148.72939430996
 20
23.29999969303606
 30
0.0
  0
SPLINE
  5
213
330
1F
100
AcDbEntity
  8
1
  6
SLD-Dashed
370
    18
100
AcDbSpline
210
0.0
220
0.0
230
1.0
 70
     8
 71
     2
 72
     6
 73
     3
 74
     0
 42
0.000000001
 43
0.00000001
 40
0.0
 40
0.0
 40
0.0
 40
0.1249999999999981
 40
0.1249999999999981
 40
0.1249999999999981
 10
164.5000000000001
 20
25.39999999999998
 30
0.0
 10
164.5629857073957
 20
25.37470688794597
 30
0.0
 10
164.6857838083729
 20
25.32651562106206
 30
0.0
  0
SPLINE
  5
214
330
1F
100
AcDbEntity
  8
1
  6
SLD-Dashed
370
    18
100
AcDbSpline
210
0.0
220
0.0
230
1.0
 70
     8
 71
     3
 72
     8
 73
     4
 74
     0
 42
0.000000001
 43
0.00000001
 40
0.1249999999999981
 40
0.1249999999999981
 40
0.1249999999999981
 40
0.1249999999999981
 40
0.1874999999999967
 40
0.1874999999999967
 40
0.1874999999999967
 40
0.1874999999999967
 10
164.6857838083729
 20
25.32651562106206
 30
0.0
 10
164.7471828588615
 20
25.30241998762014
 30
0.0
 10
164.8236449968463
 20
25.27258908812483
 30
0.0
 10
164.9154183206726
 20
25.23728098245785
 30
0.0
  0
SPLINE
  5
215
330
1F
100
AcDbEntity
  8
1
  6
SLD-Dashed
370
    18
100
AcDbSpline
210
0.0
220
0.0
230
1.0
 70
     8
 71
     3
 72
     8
 73
     4
 74
     0
 42
0.000000001
 43
0.00000001
 40
0.1874999999999967
 40
0.1874999999999967
 40
0.1874999999999967
 40
0.1874999999999967
 40
0.2499999999999952
 40
0.2499999999999952
 40
0.2499999999999952
 40
0.2499999999999952
 10
164.9154183206726
 20
25.23728098245785
 30
0.0
 10
165.007191644499
 20
25.20197287679089
 30
0.0
 10
165.1145921460925
 20
25.16107679028005
 30
0.0
 10
165.2348828922912
 20
25.1161038836935
 30
0.0
  0
SPLINE
  5
216
330
1F
100
AcDbEntity
  8
1
  6
SLD-Dashed
370
    18
100
AcDbSpline
210
0.0
220
0.0
230
1.0
 70
     8
 71
     3
 72
     8
 73
     4
 74
     0
 42
0.000000001
 43
0.00000001
 40
0.2499999999999952
 40
0.2499999999999952
 40
0.2499999999999952
 40
0.2499999999999952
 40
0.3749999999999926
 40
0.3749999999999926
 40
0.3749999999999926
 40
0.3749999999999926
 10
165.2348828922912
 20
25.1161038836935
 30
0.0
 10
165.4754643846886
 20
25.0261580705204
 30
0.0
 10
165.7690408343921
 20
24.91920883255425
 30
0.0
 10
166.114712388766
 20
24.80059213458267
 30
0.0
  0
SPLINE
  5
217
330
1F
100
AcDbEntity
  8
1
  6
SLD-Dashed
370
    18
100
AcDbSpline
210
0.0
220
0.0
230
1.0
 70
     8
 71
     3
 72
     8
 73
     4
 74
     0
 42
0.000000001
 43
0.00000001
 40
0.3749999999999926
 40
0.3749999999999926
 40
0.3749999999999926
 40
0.3749999999999926
 40
0.4374999999999912
 40
0.4374999999999912
 40
0.4374999999999912
 40
0.4374999999999912
 10
166.114712388766
 20
24.80059213458267
 30
0.0
 10
166.2875481659529
 20
24.74128378559686
 30
0.0
 10
166.4745140538617
 20
24.6787304636456
 30
0.0
 10
166.6723648051438
 20
24.61480817602415
 30
0.0
  0
SPLINE
  5
218
330
1F
100
AcDbEntity
  8
1
  6
SLD-Dashed
370
    18
100
AcDbSpline
210
0.0
220
0.0
230
1.0
 70
     8
 71
     3
 72
     8
 73
     4
 74
     0
 42
0.000000001
 43
0.00000001
 40
0.4374999999999912
 40
0.4374999999999912
 40
0.4374999999999912
 40
0.4374999999999912
 40
0.4999999999999898
 40
0.4999999999999898
 40
0.4999999999999898
 40
0.4999999999999898
 10
166.6723648051438
 20
24.61480817602415
 30
0.0
 10
166.8702155564259
 20
24.55088588840271
 30
0.0
 10
167.0784673099609
 20
24.48573263357665
 30
0.0
 10
167.2969294805575
 20
24.42017593175614
 30
0.0
  0
SPLINE
  5
219
330
1F
100
AcDbEntity
  8
1
  6
SLD-Dashed
370
    18
100
AcDbSpline
210
0.0
220
0.0
230
1.0
 70
     8
 71
     3
 72
     8
 73
     4
 74
     0
 42
0.000000001
 43
0.00000001
 40
0.4999999999999898
 40
0.4999999999999898
 40
0.4999999999999898
 40
0.4999999999999898
 40
0.6249999999999868
 40
0.6249999999999868
 40
0.6249999999999868
 40
0.6249999999999868
 10
167.2969294805575
 20
24.42017593175614
 30
0.0
 10
167.7338538217507
 20
24.28906252811511
 30
0.0
 10
168.211292794779
 20
24.15627374533929
 30
0.0
 10
168.7316197716375
 20
24.02865592404309
 30
0.0
  0
SPLINE
  5
21A
330
1F
100
AcDbEntity
  8
1
  6
SLD-Dashed
370
    18
100
AcDbSpline
210
0.0
220
0.0
230
1.0
 70
     8
 71
     3
 72
     8
 73
     4
 74
     0
 42
0.000000001
 43
0.00000001
 40
0.6249999999999868
 40
0.6249999999999868
 40
0.6249999999999868
 40
0.6249999999999868
 40
0.6874999999999873
 40
0.6874999999999873
 40
0.6874999999999873
 40
0.6874999999999873
 10
168.7316197716375
 20
24.02865592404309
 30
0.0
 10
168.9917832600668
 20
23.96484701339503
 30
0.0
 10
169.2617599923689
 20
23.90264228876177
 30
0.0
 10
169.5371945017584
 20
23.84387006733463
 30
0.0
  0
SPLINE
  5
21B
330
1F
100
AcDbEntity
  8
1
  6
SLD-Dashed
370
    18
100
AcDbSpline
210
0.0
220
0.0
230
1.0
 70
     8
 71
     3
 72
     8
 73
     4
 74
     0
 42
0.000000001
 43
0.00000001
 40
0.6874999999999873
 40
0.6874999999999873
 40
0.6874999999999873
 40
0.6874999999999873
 40
0.7499999999999878
 40
0.7499999999999878
 40
0.7499999999999878
 40
0.7499999999999878
 10
169.5371945017584
 20
23.84387006733463
 30
0.0
 10
169.8126290111479
 20
23.78509784590749
 30
0.0
 10
170.0947354478262
 20
23.72945235094768
 30
0.0
 10
170.3835960671734
 20
23.67770855301238
 30
0.0
  0
SPLINE
  5
21C
330
1F
100
AcDbEntity
  8
1
  6
SLD-Dashed
370
    18
100
AcDbSpline
210
0.0
220
0.0
230
1.0
 70
     8
 71
     3
 72
     8
 73
     4
 74
     0
 42
0.000000001
 43
0.00000001
 40
0.7499999999999878
 40
0.7499999999999878
 40
0.7499999999999878
 40
0.7499999999999878
 40
0.8749999999999939
 40
0.8749999999999939
 40
0.8749999999999939
 40
0.8749999999999939
 10
170.3835960671734
 20
23.67770855301238
 30
0.0
 10
170.9613173058678
 20
23.5742209571418
 30
0.0
 10
171.5679140999578
 20
23.48605759112544
 30
0.0
 10
172.1999990026068
 20
23.42061068455217
 30
0.0
  0
SPLINE
  5
21D
330
1F
100
AcDbEntity
  8
1
  6
SLD-Dashed
370
    18
100
AcDbSpline
210
0.0
220
0.0
230
1.0
 70
     8
 71
     3
 72
     8
 73
     4
 74
     0
 42
0.000000001
 43
0.00000001
 40
0.8749999999999939
 40
0.8749999999999939
 40
0.8749999999999939
 40
0.8749999999999939
 40
1.0
 40
1.0
 40
1.0
 40
1.0
 10
172.1999990026068
 20
23.42061068455217
 30
0.0
 10
172.8320839052557
 20
23.35516377797889
 30
0.0
 10
173.4750906158924
 20
23.31391745209415
 30
0.0
 10
174.12939430996
 20
23.29999999999997
 30
0.0
  0
SPLINE
  5
21E
330
1F
100
AcDbEntity
  8
SK3
  6
SLD-Dashed
370
    18
100
AcDbSpline
210
0.0
220
0.0
230
1.0
 70
     8
 71
     3
 72
    18
 73
    14
 74
     0
 42
0.000000001
 43
0.00000001
 40
0.0
 40
0.0
 40
0.0
 40
0.0
 40
0.0502196103872347
 40
0.1000870260924176
 40
0.1855086368940258
 40
0.2501550808791989
 40
0.3746583157461278
 40
0.4998570853792991
 40
0.6242312608259506
 40
0.7494324099488462
 40
0.8740366596179966
 40
0.9370350243166855
 40
1.0
 40
1.0
 40
1.0
 40
1.0
 10
3.700000001117587
 20
46.55608534812928
 30
0.0
 10
3.7001438688576
 20
46.56278734940111
 30
0.0
 10
3.700430595380167
 20
46.57614435020209
 30
0.0
 10
3.703274135285375
 20
46.6007605361947
 30
0.0
 10
3.708850141837378
 20
46.62692288630215
 30
0.0
 10
3.720514321798268
 20
46.6616983846082
 30
0.0
 10
3.73945676612867
 20
46.69941913955822
 30
0.0
 10
3.770128444848984
 20
46.73918349934349
 30
0.0
 10
3.808028760528129
 20
46.77229184167281
 30
0.0
 10
3.851698696267682
 20
46.79720031720436
 30
0.0
 10
3.891711774181489
 20
46.81005965842764
 30
0.0
 10
3.924780235225814
 20
46.81548409037626
 30
0.0
 10
3.941594770257725
 20
46.81599619003488
 30
0.0
 10
3.949999809265137
 20
46.81625217199326
 30
0.0
  0
SPLINE
  5
21F
330
1F
100
AcDbEntity
  8
SK3
  6
SLD-Dashed
370
    18
100
AcDbSpline
210
0.0
220
0.0
230
1.0
 70
     8
 71
     3
 72
    18
 73
    14
 74
     0
 42
0.000000001
 43
0.00000001
 40
0.0
 40
0.0
 40
0.0
 40
0.0
 40
0.0501962867734829
 40
0.1000306214437034
 40
0.1855667331187673
 40
0.2501823892320643
 40
0.3747066158220764
 40
0.4998232982189674
 40
0.6247294758455242
 40
0.7494251058857241
 40
0.8746331028690452
 40
0.9372230808189452
 40
1.0
 40
1.0
 40
1.0
 40
1.0
 10
18.30000057816508
 20
46.81625217199326
 30
0.0
 10
18.3067000559891
 20
46.81608986122614
 30
0.0
 10
18.32005070348048
 20
46.81576641007174
 30
0.0
 10
18.34463957165428
 20
46.81256635280001
 30
0.0
 10
18.37067223126265
 20
46.80630440827601
 30
0.0
 10
18.40500154017929
 20
46.7933142198734
 30
0.0
 10
18.44173924242251
 20
46.77246876141064
 30
0.0
 10
18.47965513763578
 20
46.73942133606941
 30
0.0
 10
18.51041229145085
 20
46.69961073383823
 30
0.0
 10
18.5330656868279
 20
46.65468807406042
 30
0.0
 10
18.54452267192498
 20
46.61434614990112
 30
0.0
 10
18.54932390924784
 20
46.58119816807551
 30
0.0
 10
18.54977389419007
 20
46.56446460554562
 30
0.0
 10
18.5499992221594
 20
46.55608534812928
 30
0.0
  0
SPLINE
  5
220
330
1F
100
AcDbEntity
  8
SK3
  6
SLD-Dashed
370
    18
100
AcDbSpline
210
0.0
220
0.0
230
1.0
 70
     8
 71
     2
 72
     6
 73
     3
 74
     0
 42
0.000000001
 43
0.00000001
 40
0.0
 40
0.0
 40
0.0
 40
0.0312500000000025
 40
0.0312500000000025
 40
0.0312500000000025
 10
140.5636000000001
 20
12.70000000000001
 30
0.0
 10
140.6239574019458
 20
12.65862015489812
 30
0.0
 10
140.7406217302155
 20
12.57993738715705
 30
0.0
  0
SPLINE
  5
221
330
1F
100
AcDbEntity
  8
SK3
  6
SLD-Dashed
370
    18
100
AcDbSpline
210
0.0
220
0.0
230
1.0
 70
     8
 71
     3
 72
     8
 73
     4
 74
     0
 42
0.000000001
 43
0.00000001
 40
0.0312500000000025
 40
0.0312500000000025
 40
0.0312500000000025
 40
0.0312500000000025
 40
0.0625000000000051
 40
0.0625000000000051
 40
0.0625000000000051
 40
0.0625000000000051
 10
140.7406217302155
 20
12.57993738715705
 30
0.0
 10
140.8572860584853
 20
12.50125461941597
 30
0.0
 10
141.0332730745443
 20
12.38329614214992
 30
0.0
 10
141.2557804367183
 20
12.23840718753023
 30
0.0
  0
SPLINE
  5
222
330
1F
100
AcDbEntity
  8
SK3
  6
SLD-Dashed
370
    18
100
AcDbSpline
210
0.0
220
0.0
230
1.0
 70
     8
 71
     3
 72
     8
 73
     4
 74
     0
 42
0.000000001
 43
0.00000001
 40
0.0625000000000051
 40
0.0625000000000051
 40
0.0625000000000051
 40
0.0625000000000051
 40
0.0937500000000076
 40
0.0937500000000076
 40
0.0937500000000076
 40
0.0937500000000076
 10
141.2557804367183
 20
12.23840718753023
 30
0.0
 10
141.4782877988923
 20
12.09351823291054
 30
0.0
 10
141.7487963305322
 20
11.92064199623086
 30
0.0
 10
142.063382824877
 20
11.72855108711279
 30
0.0
  0
SPLINE
  5
223
330
1F
100
AcDbEntity
  8
SK3
  6
SLD-Dashed
370
    18
100
AcDbSpline
210
0.0
220
0.0
230
1.0
 70
     8
 71
     3
 72
     8
 73
     4
 74
     0
 42
0.000000001
 43
0.00000001
 40
0.0937500000000076
 40
0.0937500000000076
 40
0.0937500000000076
 40
0.0937500000000076
 40
0.1250000000000102
 40
0.1250000000000102
 40
0.1250000000000102
 40
0.1250000000000102
 10
142.063382824877
 20
11.72855108711279
 30
0.0
 10
142.3779693192219
 20
11.53646017799471
 30
0.0
 10
142.7293227534967
 20
11.32956861863964
 30
0.0
 10
143.1168681346149
 20
11.1166283074021
 30
0.0
  0
SPLINE
  5
224
330
1F
100
AcDbEntity
  8
SK3
  6
SLD-Dashed
370
    18
100
AcDbSpline
210
0.0
220
0.0
230
1.0
 70
     8
 71
     3
 72
     8
 73
     4
 74
     0
 42
0.000000001
 43
0.00000001
 40
0.1250000000000102
 40
0.1250000000000102
 40
0.1250000000000102
 40
0.1250000000000102
 40
0.1562500000000127
 40
0.1562500000000127
 40
0.1562500000000127
 40
0.1562500000000127
 10
143.1168681346149
 20
11.1166283074021
 30
0.0
 10
143.5044135157329
 20
10.90368799616455
 30
0.0
 10
143.9321403767375
 20
10.68282497008747
 30
0.0
 10
144.3856563320824
 20
10.47327060550879
 30
0.0
  0
SPLINE
  5
225
330
1F
100
AcDbEntity
  8
SK3
  6
SLD-Dashed
370
    18
100
AcDbSpline
210
0.0
220
0.0
230
1.0
 70
     8
 71
     3
 72
     8
 73
     4
 74
     0
 42
0.000000001
 43
0.00000001
 40
0.1562500000000127
 40
0.1562500000000127
 40
0.1562500000000127
 40
0.1562500000000127
 40
0.1875000000000152
 40
0.1875000000000152
 40
0.1875000000000152
 40
0.1875000000000152
 10
144.3856563320824
 20
10.47327060550879
 30
0.0
 10
144.8391722874273
 20
10.26371624093012
 30
0.0
 10
145.3202235544368
 20
10.0639901549677
 30
0.0
 10
145.8346614533399
 20
9.887595536881996
 30
0.0
  0
SPLINE
  5
226
330
1F
100
AcDbEntity
  8
SK3
  6
SLD-Dashed
370
    18
100
AcDbSpline
210
0.0
220
0.0
230
1.0
 70
     8
 71
     3
 72
     8
 73
     4
 74
     0
 42
0.000000001
 43
0.00000001
 40
0.1875000000000152
 40
0.1875000000000152
 40
0.1875000000000152
 40
0.1875000000000152
 40
0.2031250000000165
 40
0.2031250000000165
 40
0.2031250000000165
 40
0.2031250000000165
 10
145.8346614533399
 20
9.887595536881996
 30
0.0
 10
146.0918804027915
 20
9.799398227839138
 30
0.0
 10
146.3590552435183
 20
9.716710394880444
 30
0.0
 10
146.632423109937
 20
9.643215489186604
 30
0.0
  0
SPLINE
  5
227
330
1F
100
AcDbEntity
  8
SK3
  6
SLD-Dashed
370
    18
100
AcDbSpline
210
0.0
220
0.0
230
1.0
 70
     8
 71
     3
 72
     8
 73
     4
 74
     0
 42
0.000000001
 43
0.00000001
 40
0.2031250000000165
 40
0.2031250000000165
 40
0.2031250000000165
 40
0.2031250000000165
 40
0.2187500000000178
 40
0.2187500000000178
 40
0.2187500000000178
 40
0.2187500000000178
 10
146.632423109937
 20
9.643215489186604
 30
0.0
 10
146.9057909763558
 20
9.569720583492773
 30
0.0
 10
147.1834708860789
 20
9.50584251012416
 30
0.0
 10
147.4658000431923
 20
9.453302837000015
 30
0.0
  0
SPLINE
  5
228
330
1F
100
AcDbEntity
  8
SK3
  6
SLD-Dashed
370
    18
100
AcDbSpline
210
0.0
220
0.0
230
1.0
 70
     8
 71
     3
 72
     8
 73
     4
 74
     0
 42
0.000000001
 43
0.00000001
 40
0.2187500000000178
 40
0.2187500000000178
 40
0.2187500000000178
 40
0.2187500000000178
 40
0.2343750000000192
 40
0.2343750000000192
 40
0.2343750000000192
 40
0.2343750000000192
 10
147.4658000431923
 20
9.453302837000015
 30
0.0
 10
147.7481292003058
 20
9.400763163875856
 30
0.0
 10
148.0351075518771
 20
9.359565940554454
 30
0.0
 10
148.3271849335887
 20
9.33146408306195
 30
0.0
  0
SPLINE
  5
229
330
1F
100
AcDbEntity
  8
SK3
  6
SLD-Dashed
370
    18
100
AcDbSpline
210
0.0
220
0.0
230
1.0
 70
     8
 71
     3
 72
     8
 73
     4
 74
     0
 42
0.000000001
 43
0.00000001
 40
0.2343750000000192
 40
0.2343750000000192
 40
0.2343750000000192
 40
0.2343750000000192
 40
0.2500000000000205
 40
0.2500000000000205
 40
0.2500000000000205
 40
0.2500000000000205
 10
148.3271849335887
 20
9.33146408306195
 30
0.0
 10
148.6192623153001
 20
9.303362225569447
 30
0.0
 10
148.9173900460147
 20
9.288616271269083
 30
0.0
 10
149.211297985503
 20
9.288182695511612
 30
0.0
  0
SPLINE
  5
22A
330
1F
100
AcDbEntity
  8
SK3
  6
SLD-Dashed
370
    18
100
AcDbSpline
210
0.0
220
0.0
230
1.0
 70
     8
 71
     3
 72
     8
 73
     4
 74
     0
 42
0.000000001
 43
0.00000001
 40
0.2500000000000205
 40
0.2500000000000205
 40
0.2500000000000205
 40
0.2500000000000205
 40
0.2812500000000216
 40
0.2812500000000216
 40
0.2812500000000216
 40
0.2812500000000216
 10
149.211297985503
 20
9.288182695511612
 30
0.0
 10
149.7991138644795
 20
9.287315543996744
 30
0.0
 10
150.3792321636299
 20
9.342651587149586
 30
0.0
 10
150.9521488723783
 20
9.447390817964552
 30
0.0
  0
SPLINE
  5
22B
330
1F
100
AcDbEntity
  8
SK3
  6
SLD-Dashed
370
    18
100
AcDbSpline
210
0.0
220
0.0
230
1.0
 70
     8
 71
     3
 72
     8
 73
     4
 74
     0
 42
0.000000001
 43
0.00000001
 40
0.2812500000000216
 40
0.2812500000000216
 40
0.2812500000000216
 40
0.2812500000000216
 40
0.3125000000000228
 40
0.3125000000000228
 40
0.3125000000000228
 40
0.3125000000000228
 10
150.9521488723783
 20
9.447390817964553
 30
0.0
 10
151.5250655811267
 20
9.552130048779397
 30
0.0
 10
152.0681822141452
 20
9.701330301152618
 30
0.0
 10
152.5870388028408
 20
9.87792766483982
 30
0.0
  0
SPLINE
  5
22C
330
1F
100
AcDbEntity
  8
SK3
  6
SLD-Dashed
370
    18
100
AcDbSpline
210
0.0
220
0.0
230
1.0
 70
     8
 71
     3
 72
     8
 73
     4
 74
     0
 42
0.000000001
 43
0.00000001
 40
0.3125000000000228
 40
0.3125000000000228
 40
0.3125000000000228
 40
0.3125000000000228
 40
0.3281250000000227
 40
0.3281250000000227
 40
0.3281250000000227
 40
0.3281250000000227
 10
152.5870388028408
 20
9.87792766483981
 30
0.0
 10
152.8464670971886
 20
9.966226346683433
 30
0.0
 10
153.1005709471074
 20
10.0618329318151
 30
0.0
 10
153.344493789323
 20
10.16072729287969
 30
0.0
  0
SPLINE
  5
22D
330
1F
100
AcDbEntity
  8
SK3
  6
SLD-Dashed
370
    18
100
AcDbSpline
210
0.0
220
0.0
230
1.0
 70
     8
 71
     3
 72
     8
 73
     4
 74
     0
 42
0.000000001
 43
0.00000001
 40
0.3281250000000227
 40
0.3281250000000227
 40
0.3281250000000227
 40
0.3281250000000227
 40
0.3437500000000226
 40
0.3437500000000226
 40
0.3437500000000226
 40
0.3437500000000226
 10
153.344493789323
 20
10.16072729287969
 30
0.0
 10
153.5884166315385
 20
10.25962165394428
 30
0.0
 10
153.8233288219301
 20
10.36215598577801
 30
0.0
 10
154.0501137669972
 20
10.46670305800568
 30
0.0
  0
SPLINE
  5
22E
330
1F
100
AcDbEntity
  8
SK3
  6
SLD-Dashed
370
    18
100
AcDbSpline
210
0.0
220
0.0
230
1.0
 70
     8
 71
     3
 72
     8
 73
     4
 74
     0
 42
0.000000001
 43
0.00000001
 40
0.3437500000000226
 40
0.3437500000000226
 40
0.3437500000000226
 40
0.3437500000000226
 40
0.3750000000000225
 40
0.3750000000000225
 40
0.3750000000000225
 40
0.3750000000000225
 10
154.0501137669972
 20
10.46670305800568
 30
0.0
 10
154.5036836571314
 20
10.67579720246101
 30
0.0
 10
154.9250751511386
 20
10.89283402691385
 30
0.0
 10
155.3165749694161
 20
11.10753958570556
 30
0.0
  0
SPLINE
  5
22F
330
1F
100
AcDbEntity
  8
SK3
  6
SLD-Dashed
370
    18
100
AcDbSpline
210
0.0
220
0.0
230
1.0
 70
     8
 71
     3
 72
     8
 73
     4
 74
     0
 42
0.000000001
 43
0.00000001
 40
0.3750000000000225
 40
0.3750000000000225
 40
0.3750000000000225
 40
0.3750000000000225
 40
0.3906250000000224
 40
0.3906250000000224
 40
0.3906250000000224
 40
0.3906250000000224
 10
155.3165749694161
 20
11.10753958570558
 30
0.0
 10
155.5123248785548
 20
11.21489236510143
 30
0.0
 10
155.699311921445
 20
11.32105903957635
 30
0.0
 10
155.8753517653411
 20
11.42354273606819
 30
0.0
  0
SPLINE
  5
230
330
1F
100
AcDbEntity
  8
SK3
  6
SLD-Dashed
370
    18
100
AcDbSpline
210
0.0
220
0.0
230
1.0
 70
     8
 71
     3
 72
     8
 73
     4
 74
     0
 42
0.000000001
 43
0.00000001
 40
0.3906250000000224
 40
0.3906250000000224
 40
0.3906250000000224
 40
0.3906250000000224
 40
0.4062500000000223
 40
0.4062500000000223
 40
0.4062500000000223
 40
0.4062500000000223
 10
155.8753517653411
 20
11.42354273606817
 30
0.0
 10
156.0513916092372
 20
11.52602643256002
 30
0.0
 10
156.2172759056291
 20
11.6252668025075
 30
0.0
 10
156.3730730685545
 20
11.72028577439109
 30
0.0
  0
SPLINE
  5
231
330
1F
100
AcDbEntity
  8
SK3
  6
SLD-Dashed
370
    18
100
AcDbSpline
210
0.0
220
0.0
230
1.0
 70
     8
 71
     3
 72
     8
 73
     4
 74
     0
 42
0.000000001
 43
0.00000001
 40
0.4062500000000223
 40
0.4062500000000223
 40
0.4062500000000223
 40
0.4062500000000223
 40
0.437500000000023
 40
0.437500000000023
 40
0.437500000000023
 40
0.437500000000023
 10
156.3730730685545
 20
11.72028577439109
 30
0.0
 10
156.6846673944054
 20
11.91032371815828
 30
0.0
 10
156.9570235467751
 20
12.08406891379812
 30
0.0
 10
157.1836541248133
 20
12.23152997455384
 30
0.0
  0
SPLINE
  5
232
330
1F
100
AcDbEntity
  8
SK3
  6
SLD-Dashed
370
    18
100
AcDbSpline
210
0.0
220
0.0
230
1.0
 70
     8
 71
     3
 72
     8
 73
     4
 74
     0
 42
0.000000001
 43
0.00000001
 40
0.437500000000023
 40
0.437500000000023
 40
0.437500000000023
 40
0.437500000000023
 40
0.4687500000000236
 40
0.4687500000000236
 40
0.4687500000000236
 40
0.4687500000000236
 10
157.1836541248133
 20
12.23152997455384
 30
0.0
 10
157.4102847028515
 20
12.37899103530955
 30
0.0
 10
157.5840878377356
 20
12.49546980359539
 30
0.0
 10
157.7031579694085
 20
12.57574302354521
 30
0.0
  0
SPLINE
  5
233
330
1F
100
AcDbEntity
  8
SK3
  6
SLD-Dashed
370
    18
100
AcDbSpline
210
0.0
220
0.0
230
1.0
 70
     8
 71
     3
 72
     8
 73
     4
 74
     0
 42
0.000000001
 43
0.00000001
 40
0.4687500000000236
 40
0.4687500000000236
 40
0.4687500000000236
 40
0.4687500000000236
 40
0.4843750000000239
 40
0.4843750000000239
 40
0.4843750000000239
 40
0.4843750000000239
 10
157.7031579694085
 20
12.57574302354521
 30
0.0
 10
157.762693035245
 20
12.61587963352014
 30
0.0
 10
157.8085954094835
 20
12.64704518371699
 30
0.0
 10
157.8393452306634
 20
12.66795539118498
 30
0.0
  0
SPLINE
  5
234
330
1F
100
AcDbEntity
  8
SK3
  6
SLD-Dashed
370
    18
100
AcDbSpline
210
0.0
220
0.0
230
1.0
 70
     8
 71
     3
 72
     8
 73
     4
 74
     0
 42
0.000000001
 43
0.00000001
 40
0.4843750000000239
 40
0.4843750000000239
 40
0.4843750000000239
 40
0.4843750000000239
 40
0.5000000000000242
 40
0.5000000000000242
 40
0.5000000000000242
 40
0.5000000000000242
 10
157.8393452306634
 20
12.667955391185
 30
0.0
 10
157.8700950518433
 20
12.68886559865298
 30
0.0
 10
157.8856336601227
 20
12.69947735707793
 30
0.0
 10
157.8863724147457
 20
12.69998118687258
 30
0.0
  0
SPLINE
  5
235
330
1F
100
AcDbEntity
  8
SK3
  6
SLD-Dashed
370
    18
100
AcDbSpline
210
0.0
220
0.0
230
1.0
 70
     8
 71
     3
 72
     8
 73
     4
 74
     0
 42
0.000000001
 43
0.00000001
 40
0.5156250000000245
 40
0.5156250000000245
 40
0.5156250000000245
 40
0.5156250000000245
 40
0.531250000000025
 40
0.531250000000025
 40
0.531250000000025
 40
0.531250000000025
 10
157.8441294341636
 20
12.67120918629571
 30
0.0
 10
157.8152105327316
 20
12.65153815483601
 30
0.0
 10
157.7710030923278
 20
12.62150773561235
 30
0.0
 10
157.7125592065354
 20
12.5820829485599
 30
0.0
  0
SPLINE
  5
236
330
1F
100
AcDbEntity
  8
SK3
  6
SLD-Dashed
370
    18
100
AcDbSpline
210
0.0
220
0.0
230
1.0
 70
     8
 71
     3
 72
     8
 73
     4
 74
     0
 42
0.000000001
 43
0.00000001
 40
0.531250000000025
 40
0.531250000000025
 40
0.531250000000025
 40
0.531250000000025
 40
0.5625000000000259
 40
0.5625000000000259
 40
0.5625000000000259
 40
0.5625000000000259
 10
157.7125592065353
 20
12.58208294855988
 30
0.0
 10
157.5956714349504
 20
12.50323337445496
 30
0.0
 10
157.4238643769976
 20
12.38801484085443
 30
0.0
 10
157.2008931283762
 20
12.24275382564227
 30
0.0
  0
SPLINE
  5
237
330
1F
100
AcDbEntity
  8
SK3
  6
SLD-Dashed
370
    18
100
AcDbSpline
210
0.0
220
0.0
230
1.0
 70
     8
 71
     3
 72
     8
 73
     4
 74
     0
 42
0.000000001
 43
0.00000001
 40
0.5625000000000259
 40
0.5625000000000259
 40
0.5625000000000259
 40
0.5625000000000259
 40
0.5781250000000261
 40
0.5781250000000261
 40
0.5781250000000261
 40
0.5781250000000261
 10
157.2008931283762
 20
12.24275382564227
 30
0.0
 10
157.0894075040655
 20
12.17012331803619
 30
0.0
 10
156.9644532329242
 20
12.08959700453393
 30
0.0
 10
156.8293334967053
 20
12.00400091507468
 30
0.0
  0
SPLINE
  5
238
330
1F
100
AcDbEntity
  8
SK3
  6
SLD-Dashed
370
    18
100
AcDbSpline
210
0.0
220
0.0
230
1.0
 70
     8
 71
     3
 72
     8
 73
     4
 74
     0
 42
0.000000001
 43
0.00000001
 40
0.5781250000000261
 40
0.5781250000000261
 40
0.5781250000000261
 40
0.5781250000000261
 40
0.5937500000000263
 40
0.5937500000000263
 40
0.5937500000000263
 40
0.5937500000000263
 10
156.8293334967053
 20
12.00400091507469
 30
0.0
 10
156.6942137604863
 20
11.91840482561543
 30
0.0
 10
156.5484947973645
 20
11.82744604868491
 30
0.0
 10
156.3925300314042
 20
11.73216249423276
 30
0.0
  0
SPLINE
  5
239
330
1F
100
AcDbEntity
  8
SK3
  6
SLD-Dashed
370
    18
100
AcDbSpline
210
0.0
220
0.0
230
1.0
 70
     8
 71
     3
 72
     8
 73
     4
 74
     0
 42
0.000000001
 43
0.00000001
 40
0.5937500000000263
 40
0.5937500000000263
 40
0.5937500000000263
 40
0.5937500000000263
 40
0.6093750000000266
 40
0.6093750000000266
 40
0.6093750000000266
 40
0.6093750000000266
 10
156.3925300314041
 20
11.73216249423274
 30
0.0
 10
156.2365652654439
 20
11.63687893978059
 30
0.0
 10
156.0703534308384
 20
11.53726367110616
 30
0.0
 10
155.8938318572936
 20
11.4343110146985
 30
0.0
  0
SPLINE
  5
23A
330
1F
100
AcDbEntity
  8
SK3
  6
SLD-Dashed
370
    18
100
AcDbSpline
210
0.0
220
0.0
230
1.0
 70
     8
 71
     3
 72
     8
 73
     4
 74
     0
 42
0.000000001
 43
0.00000001
 40
0.6093750000000266
 40
0.6093750000000266
 40
0.6093750000000266
 40
0.6093750000000266
 40
0.6250000000000269
 40
0.6250000000000269
 40
0.6250000000000269
 40
0.6250000000000269
 10
155.8938318572936
 20
11.43431101469852
 30
0.0
 10
155.717310283749
 20
11.33135835829085
 30
0.0
 10
155.5299658493115
 20
11.22480818686735
 30
0.0
 10
155.3353835549655
 20
11.11786567776355
 30
0.0
  0
SPLINE
  5
23B
330
1F
100
AcDbEntity
  8
SK3
  6
SLD-Dashed
370
    18
100
AcDbSpline
210
0.0
220
0.0
230
1.0
 70
     8
 71
     3
 72
     8
 73
     4
 74
     0
 42
0.000000001
 43
0.00000001
 40
0.6250000000000269
 40
0.6250000000000269
 40
0.6250000000000269
 40
0.6250000000000269
 40
0.6562500000000263
 40
0.6562500000000263
 40
0.6562500000000263
 40
0.6562500000000263
 10
155.3353835549655
 20
11.11786567776355
 30
0.0
 10
154.9462189662736
 20
10.90398065955597
 30
0.0
 10
154.5257261834721
 20
10.68668448237191
 30
0.0
 10
154.0708762901583
 20
10.47629071091092
 30
0.0
  0
SPLINE
  5
23C
330
1F
100
AcDbEntity
  8
SK3
  6
SLD-Dashed
370
    18
100
AcDbSpline
210
0.0
220
0.0
230
1.0
 70
     8
 71
     3
 72
     8
 73
     4
 74
     0
 42
0.000000001
 43
0.00000001
 40
0.6562500000000263
 40
0.6562500000000263
 40
0.6562500000000263
 40
0.6562500000000263
 40
0.6875000000000256
 40
0.6875000000000256
 40
0.6875000000000256
 40
0.6875000000000256
 10
154.0708762901583
 20
10.47629071091091
 30
0.0
 10
153.6160263968445
 20
10.26589693944992
 30
0.0
 10
153.1230529523777
 20
10.06133535860008
 30
0.0
 10
152.6076883848768
 20
9.884974999926945
 30
0.0
  0
SPLINE
  5
23D
330
1F
100
AcDbEntity
  8
SK3
  6
SLD-Dashed
370
    18
100
AcDbSpline
210
0.0
220
0.0
230
1.0
 70
     8
 71
     3
 72
     8
 73
     4
 74
     0
 42
0.000000001
 43
0.00000001
 40
0.6875000000000256
 40
0.6875000000000256
 40
0.6875000000000256
 40
0.6875000000000256
 40
0.7187500000000251
 40
0.7187500000000251
 40
0.7187500000000251
 40
0.7187500000000251
 10
152.6076883848768
 20
9.884974999926952
 30
0.0
 10
152.092323817376
 20
9.708614641253796
 30
0.0
 10
151.5488508722831
 20
9.55795172277252
 30
0.0
 10
150.9768086035742
 20
9.451930142756902
 30
0.0
  0
SPLINE
  5
23E
330
1F
100
AcDbEntity
  8
SK3
  6
SLD-Dashed
370
    18
100
AcDbSpline
210
0.0
220
0.0
230
1.0
 70
     8
 71
     3
 72
     8
 73
     4
 74
     0
 42
0.000000001
 43
0.00000001
 40
0.7187500000000251
 40
0.7187500000000251
 40
0.7187500000000251
 40
0.7187500000000251
 40
0.7500000000000245
 40
0.7500000000000245
 40
0.7500000000000245
 40
0.7500000000000245
 10
150.9768086035741
 20
9.4519301427569
 30
0.0
 10
150.4047663348653
 20
9.345908562741291
 30
0.0
 10
149.8237130448655
 20
9.288674369058434
 30
0.0
 10
149.2328356767367
 20
9.28817589399717
 30
0.0
  0
SPLINE
  5
23F
330
1F
100
AcDbEntity
  8
SK3
  6
SLD-Dashed
370
    18
100
AcDbSpline
210
0.0
220
0.0
230
1.0
 70
     8
 71
     3
 72
     8
 73
     4
 74
     0
 42
0.000000001
 43
0.00000001
 40
0.7500000000000245
 40
0.7500000000000245
 40
0.7500000000000245
 40
0.7500000000000245
 40
0.7656250000000235
 40
0.7656250000000235
 40
0.7656250000000235
 40
0.7656250000000235
 10
149.2328356767367
 20
9.28817589399717
 30
0.0
 10
148.9373969926723
 20
9.287926656466542
 30
0.0
 10
148.638885629969
 20
9.302111208983437
 30
0.0
 10
148.3470615708503
 20
9.329572655024355
 30
0.0
  0
SPLINE
  5
240
330
1F
100
AcDbEntity
  8
SK3
  6
SLD-Dashed
370
    18
100
AcDbSpline
210
0.0
220
0.0
230
1.0
 70
     8
 71
     3
 72
     8
 73
     4
 74
     0
 42
0.000000001
 43
0.00000001
 40
0.7656250000000235
 40
0.7656250000000235
 40
0.7656250000000235
 40
0.7656250000000235
 40
0.7812500000000226
 40
0.7812500000000226
 40
0.7812500000000226
 40
0.7812500000000226
 10
148.3470615708503
 20
9.329572655024352
 30
0.0
 10
148.0552375117316
 20
9.35703410106527
 30
0.0
 10
147.7677574116255
 20
9.39766361211704
 30
0.0
 10
147.4842948318744
 20
9.449878545375025
 30
0.0
  0
SPLINE
  5
241
330
1F
100
AcDbEntity
  8
SK3
  6
SLD-Dashed
370
    18
100
AcDbSpline
210
0.0
220
0.0
230
1.0
 70
     8
 71
     3
 72
     8
 73
     4
 74
     0
 42
0.000000001
 43
0.00000001
 40
0.7812500000000226
 40
0.7812500000000226
 40
0.7812500000000226
 40
0.7812500000000226
 40
0.7968750000000216
 40
0.7968750000000216
 40
0.7968750000000216
 40
0.7968750000000216
 10
147.4842948318744
 20
9.449878545375032
 30
0.0
 10
147.2008322521233
 20
9.502093478633032
 30
0.0
 10
146.9202609783643
 20
9.56619760496405
 30
0.0
 10
146.645999168935
 20
9.639574437008795
 30
0.0
  0
SPLINE
  5
242
330
1F
100
AcDbEntity
  8
SK3
  6
SLD-Dashed
370
    18
100
AcDbSpline
210
0.0
220
0.0
230
1.0
 70
     8
 71
     3
 72
     8
 73
     4
 74
     0
 42
0.000000001
 43
0.00000001
 40
0.7968750000000216
 40
0.7968750000000216
 40
0.7968750000000216
 40
0.7968750000000216
 40
0.8125000000000207
 40
0.8125000000000207
 40
0.8125000000000207
 40
0.8125000000000207
 10
146.6459991689351
 20
9.639574437008786
 30
0.0
 10
146.3717373595059
 20
9.712951269053544
 30
0.0
 10
146.1063977761412
 20
9.794754584260938
 30
0.0
 10
145.8487994910861
 20
9.882756696205297
 30
0.0
  0
SPLINE
  5
243
330
1F
100
AcDbEntity
  8
SK3
  6
SLD-Dashed
370
    18
100
AcDbSpline
210
0.0
220
0.0
230
1.0
 70
     8
 71
     3
 72
     8
 73
     4
 74
     0
 42
0.000000001
 43
0.00000001
 40
0.8125000000000207
 40
0.8125000000000207
 40
0.8125000000000207
 40
0.8125000000000207
 40
0.8437500000000173
 40
0.8437500000000173
 40
0.8437500000000173
 40
0.8437500000000173
 10
145.848799491086
 20
9.882756696205309
 30
0.0
 10
145.3336029209758
 20
10.05876092009405
 30
0.0
 10
144.8490670925472
 20
10.25931042888464
 30
0.0
 10
144.3904567540746
 20
10.47105335850812
 30
0.0
  0
SPLINE
  5
244
330
1F
100
AcDbEntity
  8
SK3
  6
SLD-Dashed
370
    18
100
AcDbSpline
210
0.0
220
0.0
230
1.0
 70
     8
 71
     3
 72
     8
 73
     4
 74
     0
 42
0.000000001
 43
0.00000001
 40
0.8437500000000173
 40
0.8437500000000173
 40
0.8437500000000173
 40
0.8437500000000173
 40
0.875000000000014
 40
0.875000000000014
 40
0.875000000000014
 40
0.875000000000014
 10
144.3904567540746
 20
10.47105335850811
 30
0.0
 10
143.931846415602
 20
10.68279628813159
 30
0.0
 10
143.508393460361
 20
10.90159309059998
 30
0.0
 10
143.1206233357007
 20
11.11456542108782
 30
0.0
  0
SPLINE
  5
245
330
1F
100
AcDbEntity
  8
SK3
  6
SLD-Dashed
370
    18
100
AcDbSpline
210
0.0
220
0.0
230
1.0
 70
     8
 71
     3
 72
     8
 73
     4
 74
     0
 42
0.000000001
 43
0.00000001
 40
0.875000000000014
 40
0.875000000000014
 40
0.875000000000014
 40
0.875000000000014
 40
0.8906250000000123
 40
0.8906250000000123
 40
0.8906250000000123
 40
0.8906250000000123
 10
143.1206233357007
 20
11.11456542108782
 30
0.0
 10
142.9267382733706
 20
11.22105158633175
 30
0.0
 10
142.7414604259097
 20
11.32633318088267
 30
0.0
 10
142.5647956263235
 20
11.42928135707317
 30
0.0
  0
SPLINE
  5
246
330
1F
100
AcDbEntity
  8
SK3
  6
SLD-Dashed
370
    18
100
AcDbSpline
210
0.0
220
0.0
230
1.0
 70
     8
 71
     3
 72
     8
 73
     4
 74
     0
 42
0.000000001
 43
0.00000001
 40
0.8906250000000123
 40
0.8906250000000123
 40
0.8906250000000123
 40
0.8906250000000123
 40
0.9062500000000108
 40
0.9062500000000108
 40
0.9062500000000108
 40
0.9062500000000108
 10
142.5647956263235
 20
11.42928135707318
 30
0.0
 10
142.3881308267372
 20
11.53222953326367
 30
0.0
 10
142.2194970063753
 20
11.6332220986176
 30
0.0
 10
142.0629655427346
 20
11.72880589007495
 30
0.0
  0
SPLINE
  5
247
330
1F
100
AcDbEntity
  8
SK3
  6
SLD-Dashed
370
    18
100
AcDbSpline
210
0.0
220
0.0
230
1.0
 70
     8
 71
     3
 72
     8
 73
     4
 74
     0
 42
0.000000001
 43
0.00000001
 40
0.9062500000000108
 40
0.9062500000000108
 40
0.9062500000000108
 40
0.9062500000000108
 40
0.9375000000000066
 40
0.9375000000000066
 40
0.9375000000000066
 40
0.9375000000000066
 10
142.0629655427346
 20
11.72880589007495
 30
0.0
 10
141.7499026154533
 20
11.91997347298964
 30
0.0
 10
141.4816802558736
 20
12.09134961742919
 30
0.0
 10
141.2596148866489
 20
12.23591067489445
 30
0.0
  0
SPLINE
  5
248
330
1F
100
AcDbEntity
  8
SK3
  6
SLD-Dashed
370
    18
100
AcDbSpline
210
0.0
220
0.0
230
1.0
 70
     8
 71
     3
 72
     8
 73
     4
 74
     0
 42
0.000000001
 43
0.00000001
 40
0.9375000000000066
 40
0.9375000000000066
 40
0.9375000000000066
 40
0.9375000000000066
 40
0.9531250000000049
 40
0.9531250000000049
 40
0.9531250000000049
 40
0.9531250000000049
 10
141.2596148866489
 20
12.23591067489443
 30
0.0
 10
141.1485822020366
 20
12.30819120362705
 30
0.0
 10
141.0491868087823
 20
12.37375668927078
 30
0.0
 10
140.9622739206519
 20
12.43152413432631
 30
0.0
  0
SPLINE
  5
249
330
1F
100
AcDbEntity
  8
SK3
  6
SLD-Dashed
370
    18
100
AcDbSpline
210
0.0
220
0.0
230
1.0
 70
     8
 71
     3
 72
     8
 73
     4
 74
     0
 42
0.000000001
 43
0.00000001
 40
0.9531250000000049
 40
0.9531250000000049
 40
0.9531250000000049
 40
0.9531250000000049
 40
0.9687500000000031
 40
0.9687500000000031
 40
0.9687500000000031
 40
0.9687500000000031
 10
140.9622739206519
 20
12.43152413432631
 30
0.0
 10
140.8753610325216
 20
12.48929157938186
 30
0.0
 10
140.8012685996771
 20
12.53903918981121
 30
0.0
 10
140.7422843005304
 20
12.57881614771556
 30
0.0
  0
SPLINE
  5
24A
330
1F
100
AcDbEntity
  8
SK3
  6
SLD-Dashed
370
    18
100
AcDbSpline
210
0.0
220
0.0
230
1.0
 70
     8
 71
     2
 72
     6
 73
     3
 74
     0
 42
0.000000001
 43
0.00000001
 40
0.9687500000000031
 40
0.9687500000000031
 40
0.9687500000000031
 40
1.0
 40
1.0
 40
1.0
 10
140.7422843005304
 20
12.57881614771556
 30
0.0
 10
140.624315702237
 20
12.65837006352423
 30
0.0
 10
140.5636000000001
 20
12.70000000000001
 30
0.0
  0
SPLINE
  5
24B
330
1F
100
AcDbEntity
  8
SK3
  6
SLD-Dashed
370
    18
100
AcDbSpline
210
0.0
220
0.0
230
1.0
 70
     8
 71
     2
 72
     6
 73
     3
 74
     0
 42
0.000000001
 43
0.00000001
 40
0.0
 40
0.0
 40
0.0
 40
0.0312500000000005
 40
0.0312500000000005
 40
0.0312500000000005
 10
165.9636
 20
12.7
 30
0.0
 10
166.0239574019458
 20
12.6586201548981
 30
0.0
 10
166.1406217302156
 20
12.57993738715703
 30
0.0
  0
SPLINE
  5
24C
330
1F
100
AcDbEntity
  8
SK3
  6
SLD-Dashed
370
    18
100
AcDbSpline
210
0.0
220
0.0
230
1.0
 70
     8
 71
     3
 72
     8
 73
     4
 74
     0
 42
0.000000001
 43
0.00000001
 40
0.0312500000000005
 40
0.0312500000000005
 40
0.0312500000000005
 40
0.0312500000000005
 40
0.0625000000000009
 40
0.0625000000000009
 40
0.0625000000000009
 40
0.0625000000000009
 10
166.1406217302156
 20
12.57993738715703
 30
0.0
 10
166.2572860584853
 20
12.50125461941597
 30
0.0
 10
166.4332730745444
 20
12.38329614214992
 30
0.0
 10
166.6557804367183
 20
12.23840718753023
 30
0.0
  0
SPLINE
  5
24D
330
1F
100
AcDbEntity
  8
SK3
  6
SLD-Dashed
370
    18
100
AcDbSpline
210
0.0
220
0.0
230
1.0
 70
     8
 71
     3
 72
     8
 73
     4
 74
     0
 42
0.000000001
 43
0.00000001
 40
0.0625000000000009
 40
0.0625000000000009
 40
0.0625000000000009
 40
0.0625000000000009
 40
0.0937500000000014
 40
0.0937500000000014
 40
0.0937500000000014
 40
0.0937500000000014
 10
166.6557804367183
 20
12.23840718753023
 30
0.0
 10
166.8782877988923
 20
12.09351823291056
 30
0.0
 10
167.1487963305323
 20
11.92064199623086
 30
0.0
 10
167.463382824877
 20
11.72855108711278
 30
0.0
  0
SPLINE
  5
24E
330
1F
100
AcDbEntity
  8
SK3
  6
SLD-Dashed
370
    18
100
AcDbSpline
210
0.0
220
0.0
230
1.0
 70
     8
 71
     3
 72
     8
 73
     4
 74
     0
 42
0.000000001
 43
0.00000001
 40
0.0937500000000014
 40
0.0937500000000014
 40
0.0937500000000014
 40
0.0937500000000014
 40
0.1250000000000019
 40
0.1250000000000019
 40
0.1250000000000019
 40
0.1250000000000019
 10
167.463382824877
 20
11.72855108711278
 30
0.0
 10
167.7779693192219
 20
11.5364601779947
 30
0.0
 10
168.1293227534966
 20
11.32956861863964
 30
0.0
 10
168.5168681346148
 20
11.1166283074021
 30
0.0
  0
SPLINE
  5
24F
330
1F
100
AcDbEntity
  8
SK3
  6
SLD-Dashed
370
    18
100
AcDbSpline
210
0.0
220
0.0
230
1.0
 70
     8
 71
     3
 72
     8
 73
     4
 74
     0
 42
0.000000001
 43
0.00000001
 40
0.1250000000000019
 40
0.1250000000000019
 40
0.1250000000000019
 40
0.1250000000000019
 40
0.1562500000000023
 40
0.1562500000000023
 40
0.1562500000000023
 40
0.1562500000000023
 10
168.5168681346148
 20
11.1166283074021
 30
0.0
 10
168.9044135157329
 20
10.90368799616455
 30
0.0
 10
169.3321403767377
 20
10.68282497008747
 30
0.0
 10
169.7856563320825
 20
10.4732706055088
 30
0.0
  0
SPLINE
  5
250
330
1F
100
AcDbEntity
  8
SK3
  6
SLD-Dashed
370
    18
100
AcDbSpline
210
0.0
220
0.0
230
1.0
 70
     8
 71
     3
 72
     8
 73
     4
 74
     0
 42
0.000000001
 43
0.00000001
 40
0.1562500000000023
 40
0.1562500000000023
 40
0.1562500000000023
 40
0.1562500000000023
 40
0.1875000000000028
 40
0.1875000000000028
 40
0.1875000000000028
 40
0.1875000000000028
 10
169.7856563320825
 20
10.4732706055088
 30
0.0
 10
170.2391722874274
 20
10.26371624093013
 30
0.0
 10
170.7202235544369
 20
10.06399015496769
 30
0.0
 10
171.23466145334
 20
9.887595536881996
 30
0.0
  0
SPLINE
  5
251
330
1F
100
AcDbEntity
  8
SK3
  6
SLD-Dashed
370
    18
100
AcDbSpline
210
0.0
220
0.0
230
1.0
 70
     8
 71
     3
 72
     8
 73
     4
 74
     0
 42
0.000000001
 43
0.00000001
 40
0.1875000000000028
 40
0.1875000000000028
 40
0.1875000000000028
 40
0.1875000000000028
 40
0.2031250000000031
 40
0.2031250000000031
 40
0.2031250000000031
 40
0.2031250000000031
 10
171.23466145334
 20
9.887595536881996
 30
0.0
 10
171.4918804027916
 20
9.799398227839152
 30
0.0
 10
171.7590552435183
 20
9.716710394880444
 30
0.0
 10
172.032423109937
 20
9.643215489186604
 30
0.0
  0
SPLINE
  5
252
330
1F
100
AcDbEntity
  8
SK3
  6
SLD-Dashed
370
    18
100
AcDbSpline
210
0.0
220
0.0
230
1.0
 70
     8
 71
     3
 72
     8
 73
     4
 74
     0
 42
0.000000001
 43
0.00000001
 40
0.2031250000000031
 40
0.2031250000000031
 40
0.2031250000000031
 40
0.2031250000000031
 40
0.2187500000000033
 40
0.2187500000000033
 40
0.2187500000000033
 40
0.2187500000000033
 10
172.032423109937
 20
9.643215489186604
 30
0.0
 10
172.3057909763558
 20
9.569720583492785
 30
0.0
 10
172.5834708860788
 20
9.50584251012416
 30
0.0
 10
172.8658000431924
 20
9.453302837000015
 30
0.0
  0
SPLINE
  5
253
330
1F
100
AcDbEntity
  8
SK3
  6
SLD-Dashed
370
    18
100
AcDbSpline
210
0.0
220
0.0
230
1.0
 70
     8
 71
     3
 72
     8
 73
     4
 74
     0
 42
0.000000001
 43
0.00000001
 40
0.2187500000000033
 40
0.2187500000000033
 40
0.2187500000000033
 40
0.2187500000000033
 40
0.2343750000000036
 40
0.2343750000000036
 40
0.2343750000000036
 40
0.2343750000000036
 10
172.8658000431924
 20
9.453302837000015
 30
0.0
 10
173.1481292003059
 20
9.400763163875856
 30
0.0
 10
173.4351075518771
 20
9.359565940554468
 30
0.0
 10
173.7271849335887
 20
9.331464083061965
 30
0.0
  0
SPLINE
  5
254
330
1F
100
AcDbEntity
  8
SK3
  6
SLD-Dashed
370
    18
100
AcDbSpline
210
0.0
220
0.0
230
1.0
 70
     8
 71
     3
 72
     8
 73
     4
 74
     0
 42
0.000000001
 43
0.00000001
 40
0.2343750000000036
 40
0.2343750000000036
 40
0.2343750000000036
 40
0.2343750000000036
 40
0.2500000000000039
 40
0.2500000000000039
 40
0.2500000000000039
 40
0.2500000000000039
 10
173.7271849335887
 20
9.331464083061965
 30
0.0
 10
174.0192623153002
 20
9.303362225569447
 30
0.0
 10
174.3173900460148
 20
9.288616271269083
 30
0.0
 10
174.6112979855031
 20
9.288182695511626
 30
0.0
  0
SPLINE
  5
255
330
1F
100
AcDbEntity
  8
SK3
  6
SLD-Dashed
370
    18
100
AcDbSpline
210
0.0
220
0.0
230
1.0
 70
     8
 71
     3
 72
     8
 73
     4
 74
     0
 42
0.000000001
 43
0.00000001
 40
0.2500000000000039
 40
0.2500000000000039
 40
0.2500000000000039
 40
0.2500000000000039
 40
0.2812500000000044
 40
0.2812500000000044
 40
0.2812500000000044
 40
0.2812500000000044
 10
174.6112979855031
 20
9.288182695511624
 30
0.0
 10
175.1991138644796
 20
9.287315543996522
 30
0.0
 10
175.77923216363
 20
9.342651587149122
 30
0.0
 10
176.3521488723784
 20
9.447390817963864
 30
0.0
  0
SPLINE
  5
256
330
1F
100
AcDbEntity
  8
SK3
  6
SLD-Dashed
370
    18
100
AcDbSpline
210
0.0
220
0.0
230
1.0
 70
     8
 71
     3
 72
     8
 73
     4
 74
     0
 42
0.000000001
 43
0.00000001
 40
0.2812500000000044
 40
0.2812500000000044
 40
0.2812500000000044
 40
0.2812500000000044
 40
0.3125000000000049
 40
0.3125000000000049
 40
0.3125000000000049
 40
0.3125000000000049
 10
176.3521488723784
 20
9.447390817963866
 30
0.0
 10
176.9250655811268
 20
9.552130048778936
 30
0.0
 10
177.4681822141452
 20
9.701330301152382
 30
0.0
 10
177.9870388028407
 20
9.877927664839802
 30
0.0
  0
SPLINE
  5
257
330
1F
100
AcDbEntity
  8
SK3
  6
SLD-Dashed
370
    18
100
AcDbSpline
210
0.0
220
0.0
230
1.0
 70
     8
 71
     3
 72
     8
 73
     4
 74
     0
 42
0.000000001
 43
0.00000001
 40
0.3125000000000049
 40
0.3125000000000049
 40
0.3125000000000049
 40
0.3125000000000049
 40
0.3281250000000052
 40
0.3281250000000052
 40
0.3281250000000052
 40
0.3281250000000052
 10
177.9870388028407
 20
9.877927664839802
 30
0.0
 10
178.2464670971885
 20
9.966226346683415
 30
0.0
 10
178.5005709471073
 20
10.06183293181507
 30
0.0
 10
178.7444937893229
 20
10.16072729287966
 30
0.0
  0
SPLINE
  5
258
330
1F
100
AcDbEntity
  8
SK3
  6
SLD-Dashed
370
    18
100
AcDbSpline
210
0.0
220
0.0
230
1.0
 70
     8
 71
     3
 72
     8
 73
     4
 74
     0
 42
0.000000001
 43
0.00000001
 40
0.3281250000000052
 40
0.3281250000000052
 40
0.3281250000000052
 40
0.3281250000000052
 40
0.3437500000000054
 40
0.3437500000000054
 40
0.3437500000000054
 40
0.3437500000000054
 10
178.7444937893229
 20
10.16072729287966
 30
0.0
 10
178.9884166315384
 20
10.25962165394426
 30
0.0
 10
179.22332882193
 20
10.36215598577798
 30
0.0
 10
179.450113766997
 20
10.46670305800566
 30
0.0
  0
SPLINE
  5
259
330
1F
100
AcDbEntity
  8
SK3
  6
SLD-Dashed
370
    18
100
AcDbSpline
210
0.0
220
0.0
230
1.0
 70
     8
 71
     3
 72
     8
 73
     4
 74
     0
 42
0.000000001
 43
0.00000001
 40
0.3437500000000054
 40
0.3437500000000054
 40
0.3437500000000054
 40
0.3437500000000054
 40
0.375000000000006
 40
0.375000000000006
 40
0.375000000000006
 40
0.375000000000006
 10
179.450113766997
 20
10.46670305800566
 30
0.0
 10
179.9036836571313
 20
10.67579720246099
 30
0.0
 10
180.3250751511385
 20
10.89283402691382
 30
0.0
 10
180.7165749694159
 20
11.10753958570553
 30
0.0
  0
SPLINE
  5
25A
330
1F
100
AcDbEntity
  8
SK3
  6
SLD-Dashed
370
    18
100
AcDbSpline
210
0.0
220
0.0
230
1.0
 70
     8
 71
     3
 72
     8
 73
     4
 74
     0
 42
0.000000001
 43
0.00000001
 40
0.375000000000006
 40
0.375000000000006
 40
0.375000000000006
 40
0.375000000000006
 40
0.3906250000000058
 40
0.3906250000000058
 40
0.3906250000000058
 40
0.3906250000000058
 10
180.7165749694159
 20
11.10753958570553
 30
0.0
 10
180.9123248785546
 20
11.21489236510137
 30
0.0
 10
181.099311921445
 20
11.32105903957631
 30
0.0
 10
181.2753517653411
 20
11.42354273606814
 30
0.0
  0
SPLINE
  5
25B
330
1F
100
AcDbEntity
  8
SK3
  6
SLD-Dashed
370
    18
100
AcDbSpline
210
0.0
220
0.0
230
1.0
 70
     8
 71
     3
 72
     8
 73
     4
 74
     0
 42
0.000000001
 43
0.00000001
 40
0.3906250000000058
 40
0.3906250000000058
 40
0.3906250000000058
 40
0.3906250000000058
 40
0.4062500000000056
 40
0.4062500000000056
 40
0.4062500000000056
 40
0.4062500000000056
 10
181.2753517653411
 20
11.42354273606814
 30
0.0
 10
181.4513916092372
 20
11.52602643255998
 30
0.0
 10
181.617275905629
 20
11.62526680250745
 30
0.0
 10
181.7730730685545
 20
11.72028577439105
 30
0.0
  0
SPLINE
  5
25C
330
1F
100
AcDbEntity
  8
SK3
  6
SLD-Dashed
370
    18
100
AcDbSpline
210
0.0
220
0.0
230
1.0
 70
     8
 71
     3
 72
     8
 73
     4
 74
     0
 42
0.000000001
 43
0.00000001
 40
0.4062500000000056
 40
0.4062500000000056
 40
0.4062500000000056
 40
0.4062500000000056
 40
0.4375000000000043
 40
0.4375000000000043
 40
0.4375000000000043
 40
0.4375000000000043
 10
181.7730730685545
 20
11.72028577439109
 30
0.0
 10
182.0846673944055
 20
11.9103237181583
 30
0.0
 10
182.3570235467752
 20
12.08406891379812
 30
0.0
 10
182.5836541248135
 20
12.23152997455382
 30
0.0
  0
SPLINE
  5
25D
330
1F
100
AcDbEntity
  8
SK3
  6
SLD-Dashed
370
    18
100
AcDbSpline
210
0.0
220
0.0
230
1.0
 70
     8
 71
     3
 72
     8
 73
     4
 74
     0
 42
0.000000001
 43
0.00000001
 40
0.4375000000000043
 40
0.4375000000000043
 40
0.4375000000000043
 40
0.4375000000000043
 40
0.468750000000003
 40
0.468750000000003
 40
0.468750000000003
 40
0.468750000000003
 10
182.5836541248134
 20
12.23152997455379
 30
0.0
 10
182.8102847028517
 20
12.37899103530951
 30
0.0
 10
182.9840878377356
 20
12.49546980359535
 30
0.0
 10
183.1031579694085
 20
12.57574302354517
 30
0.0
  0
SPLINE
  5
25E
330
1F
100
AcDbEntity
  8
SK3
  6
SLD-Dashed
370
    18
100
AcDbSpline
210
0.0
220
0.0
230
1.0
 70
     8
 71
     3
 72
     8
 73
     4
 74
     0
 42
0.000000001
 43
0.00000001
 40
0.468750000000003
 40
0.468750000000003
 40
0.468750000000003
 40
0.468750000000003
 40
0.4843750000000024
 40
0.4843750000000024
 40
0.4843750000000024
 40
0.4843750000000024
 10
183.1031579694086
 20
12.57574302354521
 30
0.0
 10
183.1626930352451
 20
12.61587963352013
 30
0.0
 10
183.2085954094834
 20
12.64704518371697
 30
0.0
 10
183.2393452306633
 20
12.66795539118498
 30
0.0
  0
SPLINE
  5
25F
330
1F
100
AcDbEntity
  8
SK3
  6
SLD-Dashed
370
    18
100
AcDbSpline
210
0.0
220
0.0
230
1.0
 70
     8
 71
     3
 72
     8
 73
     4
 74
     0
 42
0.000000001
 43
0.00000001
 40
0.4843750000000024
 40
0.4843750000000024
 40
0.4843750000000024
 40
0.4843750000000024
 40
0.5000000000000018
 40
0.5000000000000018
 40
0.5000000000000018
 40
0.5000000000000018
 10
183.2393452306633
 20
12.66795539118498
 30
0.0
 10
183.2700950518433
 20
12.68886559865297
 30
0.0
 10
183.2856336601226
 20
12.69947735707792
 30
0.0
 10
183.2863724147457
 20
12.69998118687256
 30
0.0
  0
SPLINE
  5
260
330
1F
100
AcDbEntity
  8
SK3
  6
SLD-Dashed
370
    18
100
AcDbSpline
210
0.0
220
0.0
230
1.0
 70
     8
 71
     3
 72
     8
 73
     4
 74
     0
 42
0.000000001
 43
0.00000001
 40
0.5156250000000011
 40
0.5156250000000011
 40
0.5156250000000011
 40
0.5156250000000011
 40
0.5312500000000004
 40
0.5312500000000004
 40
0.5312500000000004
 40
0.5312500000000004
 10
183.2441294341635
 20
12.67120918629569
 30
0.0
 10
183.2152105327315
 20
12.651538154836
 30
0.0
 10
183.1710030923278
 20
12.62150773561233
 30
0.0
 10
183.1125592065353
 20
12.58208294855986
 30
0.0
  0
SPLINE
  5
261
330
1F
100
AcDbEntity
  8
SK3
  6
SLD-Dashed
370
    18
100
AcDbSpline
210
0.0
220
0.0
230
1.0
 70
     8
 71
     3
 72
     8
 73
     4
 74
     0
 42
0.000000001
 43
0.00000001
 40
0.5312500000000004
 40
0.5312500000000004
 40
0.5312500000000004
 40
0.5312500000000004
 40
0.5624999999999989
 40
0.5624999999999989
 40
0.5624999999999989
 40
0.5624999999999989
 10
183.1125592065352
 20
12.58208294855983
 30
0.0
 10
182.9956714349503
 20
12.50323337445491
 30
0.0
 10
182.8238643769976
 20
12.38801484085439
 30
0.0
 10
182.6008931283761
 20
12.24275382564224
 30
0.0
  0
SPLINE
  5
262
330
1F
100
AcDbEntity
  8
SK3
  6
SLD-Dashed
370
    18
100
AcDbSpline
210
0.0
220
0.0
230
1.0
 70
     8
 71
     3
 72
     8
 73
     4
 74
     0
 42
0.000000001
 43
0.00000001
 40
0.5624999999999989
 40
0.5624999999999989
 40
0.5624999999999989
 40
0.5624999999999989
 40
0.5781249999999984
 40
0.5781249999999984
 40
0.5781249999999984
 40
0.5781249999999984
 10
182.6008931283762
 20
12.24275382564227
 30
0.0
 10
182.4894075040655
 20
12.17012331803619
 30
0.0
 10
182.3644532329243
 20
12.08959700453393
 30
0.0
 10
182.2293334967053
 20
12.00400091507468
 30
0.0
  0
SPLINE
  5
263
330
1F
100
AcDbEntity
  8
SK3
  6
SLD-Dashed
370
    18
100
AcDbSpline
210
0.0
220
0.0
230
1.0
 70
     8
 71
     3
 72
     8
 73
     4
 74
     0
 42
0.000000001
 43
0.00000001
 40
0.5781249999999984
 40
0.5781249999999984
 40
0.5781249999999984
 40
0.5781249999999984
 40
0.593749999999998
 40
0.593749999999998
 40
0.593749999999998
 40
0.593749999999998
 10
182.2293334967052
 20
12.00400091507464
 30
0.0
 10
182.0942137604862
 20
11.91840482561538
 30
0.0
 10
181.9484947973644
 20
11.82744604868486
 30
0.0
 10
181.7925300314041
 20
11.73216249423271
 30
0.0
  0
SPLINE
  5
264
330
1F
100
AcDbEntity
  8
SK3
  6
SLD-Dashed
370
    18
100
AcDbSpline
210
0.0
220
0.0
230
1.0
 70
     8
 71
     3
 72
     8
 73
     4
 74
     0
 42
0.000000001
 43
0.00000001
 40
0.593749999999998
 40
0.593749999999998
 40
0.593749999999998
 40
0.593749999999998
 40
0.6093749999999976
 40
0.6093749999999976
 40
0.6093749999999976
 40
0.6093749999999976
 10
181.7925300314041
 20
11.73216249423271
 30
0.0
 10
181.6365652654439
 20
11.63687893978055
 30
0.0
 10
181.4703534308385
 20
11.53726367110613
 30
0.0
 10
181.2938318572937
 20
11.43431101469847
 30
0.0
  0
SPLINE
  5
265
330
1F
100
AcDbEntity
  8
SK3
  6
SLD-Dashed
370
    18
100
AcDbSpline
210
0.0
220
0.0
230
1.0
 70
     8
 71
     3
 72
     8
 73
     4
 74
     0
 42
0.000000001
 43
0.00000001
 40
0.6093749999999976
 40
0.6093749999999976
 40
0.6093749999999976
 40
0.6093749999999976
 40
0.6249999999999971
 40
0.6249999999999971
 40
0.6249999999999971
 40
0.6249999999999971
 10
181.2938318572937
 20
11.43431101469847
 30
0.0
 10
181.1173102837489
 20
11.3313583582908
 30
0.0
 10
180.9299658493113
 20
11.22480818686731
 30
0.0
 10
180.7353835549654
 20
11.11786567776351
 30
0.0
  0
SPLINE
  5
266
330
1F
100
AcDbEntity
  8
SK3
  6
SLD-Dashed
370
    18
100
AcDbSpline
210
0.0
220
0.0
230
1.0
 70
     8
 71
     3
 72
     8
 73
     4
 74
     0
 42
0.000000001
 43
0.00000001
 40
0.6249999999999971
 40
0.6249999999999971
 40
0.6249999999999971
 40
0.6249999999999971
 40
0.6562499999999962
 40
0.6562499999999962
 40
0.6562499999999962
 40
0.6562499999999962
 10
180.7353835549654
 20
11.11786567776351
 30
0.0
 10
180.3462189662735
 20
10.90398065955593
 30
0.0
 10
179.9257261834718
 20
10.68668448237187
 30
0.0
 10
179.4708762901581
 20
10.47629071091088
 30
0.0
  0
SPLINE
  5
267
330
1F
100
AcDbEntity
  8
SK3
  6
SLD-Dashed
370
    18
100
AcDbSpline
210
0.0
220
0.0
230
1.0
 70
     8
 71
     3
 72
     8
 73
     4
 74
     0
 42
0.000000001
 43
0.00000001
 40
0.6562499999999962
 40
0.6562499999999962
 40
0.6562499999999962
 40
0.6562499999999962
 40
0.6874999999999953
 40
0.6874999999999953
 40
0.6874999999999953
 40
0.6874999999999953
 10
179.4708762901581
 20
10.47629071091088
 30
0.0
 10
179.0160263968444
 20
10.26589693944991
 30
0.0
 10
178.5230529523776
 20
10.06133535860005
 30
0.0
 10
178.0076883848767
 20
9.884974999926916
 30
0.0
  0
SPLINE
  5
268
330
1F
100
AcDbEntity
  8
SK3
  6
SLD-Dashed
370
    18
100
AcDbSpline
210
0.0
220
0.0
230
1.0
 70
     8
 71
     3
 72
     8
 73
     4
 74
     0
 42
0.000000001
 43
0.00000001
 40
0.6874999999999953
 40
0.6874999999999953
 40
0.6874999999999953
 40
0.6874999999999953
 40
0.7187499999999944
 40
0.7187499999999944
 40
0.7187499999999944
 40
0.7187499999999944
 10
178.0076883848767
 20
9.884974999926916
 30
0.0
 10
177.4923238173758
 20
9.708614641253776
 30
0.0
 10
176.9488508722829
 20
9.557951722772504
 30
0.0
 10
176.376808603574
 20
9.451930142756893
 30
0.0
  0
SPLINE
  5
269
330
1F
100
AcDbEntity
  8
SK3
  6
SLD-Dashed
370
    18
100
AcDbSpline
210
0.0
220
0.0
230
1.0
 70
     8
 71
     3
 72
     8
 73
     4
 74
     0
 42
0.000000001
 43
0.00000001
 40
0.7187499999999944
 40
0.7187499999999944
 40
0.7187499999999944
 40
0.7187499999999944
 40
0.7499999999999936
 40
0.7499999999999936
 40
0.7499999999999936
 40
0.7499999999999936
 10
176.376808603574
 20
9.451930142756893
 30
0.0
 10
175.8047663348652
 20
9.345908562741284
 30
0.0
 10
175.2237130448655
 20
9.288674369058434
 30
0.0
 10
174.6328356767366
 20
9.288175893997185
 30
0.0
  0
SPLINE
  5
26A
330
1F
100
AcDbEntity
  8
SK3
  6
SLD-Dashed
370
    18
100
AcDbSpline
210
0.0
220
0.0
230
1.0
 70
     8
 71
     3
 72
     8
 73
     4
 74
     0
 42
0.000000001
 43
0.00000001
 40
0.7499999999999936
 40
0.7499999999999936
 40
0.7499999999999936
 40
0.7499999999999936
 40
0.7656249999999932
 40
0.7656249999999932
 40
0.7656249999999932
 40
0.7656249999999932
 10
174.6328356767366
 20
9.288175893997185
 30
0.0
 10
174.3373969926723
 20
9.287926656466542
 30
0.0
 10
174.0388856299687
 20
9.302111208983444
 30
0.0
 10
173.7470615708501
 20
9.329572655024363
 30
0.0
  0
SPLINE
  5
26B
330
1F
100
AcDbEntity
  8
SK3
  6
SLD-Dashed
370
    18
100
AcDbSpline
210
0.0
220
0.0
230
1.0
 70
     8
 71
     3
 72
     8
 73
     4
 74
     0
 42
0.000000001
 43
0.00000001
 40
0.7656249999999932
 40
0.7656249999999932
 40
0.7656249999999932
 40
0.7656249999999932
 40
0.7812499999999928
 40
0.7812499999999928
 40
0.7812499999999928
 40
0.7812499999999928
 10
173.7470615708501
 20
9.329572655024363
 30
0.0
 10
173.4552375117314
 20
9.357034101065288
 30
0.0
 10
173.1677574116254
 20
9.397663612117059
 30
0.0
 10
172.8842948318743
 20
9.449878545375046
 30
0.0
  0
SPLINE
  5
26C
330
1F
100
AcDbEntity
  8
SK3
  6
SLD-Dashed
370
    18
100
AcDbSpline
210
0.0
220
0.0
230
1.0
 70
     8
 71
     3
 72
     8
 73
     4
 74
     0
 42
0.000000001
 43
0.00000001
 40
0.7812499999999928
 40
0.7812499999999928
 40
0.7812499999999928
 40
0.7812499999999928
 40
0.7968749999999923
 40
0.7968749999999923
 40
0.7968749999999923
 40
0.7968749999999923
 10
172.8842948318743
 20
9.449878545375032
 30
0.0
 10
172.6008322521232
 20
9.502093478633032
 30
0.0
 10
172.3202609783643
 20
9.56619760496405
 30
0.0
 10
172.045999168935
 20
9.639574437008795
 30
0.0
  0
SPLINE
  5
26D
330
1F
100
AcDbEntity
  8
SK3
  6
SLD-Dashed
370
    18
100
AcDbSpline
210
0.0
220
0.0
230
1.0
 70
     8
 71
     3
 72
     8
 73
     4
 74
     0
 42
0.000000001
 43
0.00000001
 40
0.7968749999999923
 40
0.7968749999999923
 40
0.7968749999999923
 40
0.7968749999999923
 40
0.8124999999999919
 40
0.8124999999999919
 40
0.8124999999999919
 40
0.8124999999999919
 10
172.045999168935
 20
9.63957443700881
 30
0.0
 10
171.7717373595059
 20
9.712951269053569
 30
0.0
 10
171.5063977761411
 20
9.79475458426097
 30
0.0
 10
171.248799491086
 20
9.882756696205329
 30
0.0
  0
SPLINE
  5
26E
330
1F
100
AcDbEntity
  8
SK3
  6
SLD-Dashed
370
    18
100
AcDbSpline
210
0.0
220
0.0
230
1.0
 70
     8
 71
     3
 72
     8
 73
     4
 74
     0
 42
0.000000001
 43
0.00000001
 40
0.8124999999999919
 40
0.8124999999999919
 40
0.8124999999999919
 40
0.8124999999999919
 40
0.8437499999999922
 40
0.8437499999999922
 40
0.8437499999999922
 40
0.8437499999999922
 10
171.248799491086
 20
9.882756696205329
 30
0.0
 10
170.7336029209757
 20
10.05876092009407
 30
0.0
 10
170.249067092547
 20
10.25931042888466
 30
0.0
 10
169.7904567540744
 20
10.47105335850815
 30
0.0
  0
SPLINE
  5
26F
330
1F
100
AcDbEntity
  8
SK3
  6
SLD-Dashed
370
    18
100
AcDbSpline
210
0.0
220
0.0
230
1.0
 70
     8
 71
     3
 72
     8
 73
     4
 74
     0
 42
0.000000001
 43
0.00000001
 40
0.8437499999999922
 40
0.8437499999999922
 40
0.8437499999999922
 40
0.8437499999999922
 40
0.8749999999999926
 40
0.8749999999999926
 40
0.8749999999999926
 40
0.8749999999999926
 10
169.7904567540744
 20
10.47105335850815
 30
0.0
 10
169.3318464156019
 20
10.68279628813162
 30
0.0
 10
168.9083934603609
 20
10.90159309060006
 30
0.0
 10
168.5206233357007
 20
11.11456542108789
 30
0.0
  0
SPLINE
  5
270
330
1F
100
AcDbEntity
  8
SK3
  6
SLD-Dashed
370
    18
100
AcDbSpline
210
0.0
220
0.0
230
1.0
 70
     8
 71
     3
 72
     8
 73
     4
 74
     0
 42
0.000000001
 43
0.00000001
 40
0.8749999999999926
 40
0.8749999999999926
 40
0.8749999999999926
 40
0.8749999999999926
 40
0.8906249999999932
 40
0.8906249999999932
 40
0.8906249999999932
 40
0.8906249999999932
 10
168.5206233357007
 20
11.11456542108789
 30
0.0
 10
168.3267382733706
 20
11.2210515863318
 30
0.0
 10
168.1414604259097
 20
11.32633318088272
 30
0.0
 10
167.9647956263234
 20
11.42928135707322
 30
0.0
  0
SPLINE
  5
271
330
1F
100
AcDbEntity
  8
SK3
  6
SLD-Dashed
370
    18
100
AcDbSpline
210
0.0
220
0.0
230
1.0
 70
     8
 71
     3
 72
     8
 73
     4
 74
     0
 42
0.000000001
 43
0.00000001
 40
0.8906249999999932
 40
0.8906249999999932
 40
0.8906249999999932
 40
0.8906249999999932
 40
0.9062499999999939
 40
0.9062499999999939
 40
0.9062499999999939
 40
0.9062499999999939
 10
167.9647956263234
 20
11.42928135707322
 30
0.0
 10
167.7881308267372
 20
11.5322295332637
 30
0.0
 10
167.6194970063752
 20
11.63322209861765
 30
0.0
 10
167.4629655427346
 20
11.72880589007499
 30
0.0
  0
SPLINE
  5
272
330
1F
100
AcDbEntity
  8
SK3
  6
SLD-Dashed
370
    18
100
AcDbSpline
210
0.0
220
0.0
230
1.0
 70
     8
 71
     3
 72
     8
 73
     4
 74
     0
 42
0.000000001
 43
0.00000001
 40
0.9062499999999939
 40
0.9062499999999939
 40
0.9062499999999939
 40
0.9062499999999939
 40
0.937499999999996
 40
0.937499999999996
 40
0.937499999999996
 40
0.937499999999996
 10
167.4629655427346
 20
11.72880589007499
 30
0.0
 10
167.1499026154533
 20
11.91997347298967
 30
0.0
 10
166.8816802558736
 20
12.09134961742923
 30
0.0
 10
166.6596148866488
 20
12.23591067489448
 30
0.0
  0
SPLINE
  5
273
330
1F
100
AcDbEntity
  8
SK3
  6
SLD-Dashed
370
    18
100
AcDbSpline
210
0.0
220
0.0
230
1.0
 70
     8
 71
     3
 72
     8
 73
     4
 74
     0
 42
0.000000001
 43
0.00000001
 40
0.937499999999996
 40
0.937499999999996
 40
0.937499999999996
 40
0.937499999999996
 40
0.9531249999999971
 40
0.9531249999999971
 40
0.9531249999999971
 40
0.9531249999999971
 10
166.6596148866488
 20
12.23591067489448
 30
0.0
 10
166.5485822020364
 20
12.30819120362709
 30
0.0
 10
166.4491868087823
 20
12.37375668927082
 30
0.0
 10
166.3622739206519
 20
12.43152413432635
 30
0.0
  0
SPLINE
  5
274
330
1F
100
AcDbEntity
  8
SK3
  6
SLD-Dashed
370
    18
100
AcDbSpline
210
0.0
220
0.0
230
1.0
 70
     8
 71
     3
 72
     8
 73
     4
 74
     0
 42
0.000000001
 43
0.00000001
 40
0.9531249999999971
 40
0.9531249999999971
 40
0.9531249999999971
 40
0.9531249999999971
 40
0.9687499999999982
 40
0.9687499999999982
 40
0.9687499999999982
 40
0.9687499999999982
 10
166.3622739206519
 20
12.43152413432635
 30
0.0
 10
166.2753610325215
 20
12.4892915793819
 30
0.0
 10
166.2012685996769
 20
12.53903918981124
 30
0.0
 10
166.1422843005303
 20
12.57881614771557
 30
0.0
  0
SPLINE
  5
275
330
1F
100
AcDbEntity
  8
SK3
  6
SLD-Dashed
370
    18
100
AcDbSpline
210
0.0
220
0.0
230
1.0
 70
     8
 71
     2
 72
     6
 73
     3
 74
     0
 42
0.000000001
 43
0.00000001
 40
0.9687499999999982
 40
0.9687499999999982
 40
0.9687499999999982
 40
1.0
 40
1.0
 40
1.0
 10
166.1422843005303
 20
12.57881614771557
 30
0.0
 10
166.0243157022369
 20
12.65837006352422
 30
0.0
 10
165.9636
 20
12.7
 30
0.0
  0
SPLINE
  5
276
330
1F
100
AcDbEntity
  8
SK3
  6
SLD-Dashed
370
    18
100
AcDbSpline
210
0.0
220
0.0
230
1.0
 70
     8
 71
     3
 72
    30
 73
    26
 74
     0
 42
0.000000001
 43
0.00000001
 40
0.5000000000000003
 40
0.5000000000000003
 40
0.5000000000000003
 40
0.5000000000000003
 40
0.5625000000000003
 40
0.5625000000000003
 40
0.6250000000000004
 40
0.6250000000000004
 40
0.6562500000000004
 40
0.6562500000000004
 40
0.6875000000000004
 40
0.6875000000000004
 40
0.7187500000000004
 40
0.7187500000000004
 40
0.7500000000000004
 40
0.7500000000000004
 40
0.7812500000000006
 40
0.7812500000000006
 40
0.8125000000000006
 40
0.8125000000000006
 40
0.8437500000000006
 40
0.8437500000000006
 40
0.8750000000000006
 40
0.8750000000000006
 40
0.9375000000000003
 40
0.9375000000000003
 40
1.0
 40
1.0
 40
1.0
 40
1.0
 10
11.12436591328744
 20
5.309061551556929
 30
0.0
 10
11.33987168856153
 20
5.309135121894133
 30
0.0
 10
11.55726809392073
 20
5.270777053767752
 30
0.0
 10
11.95454289542201
 20
5.12408212790752
 30
0.0
 10
12.13838112079803
 20
5.01435051186401
 30
0.0
 10
12.36674314194754
 20
4.808404051991816
 30
0.0
 10
12.43642969974144
 20
4.731543474868135
 30
0.0
 10
12.55617157969233
 20
4.568463540703782
 30
0.0
 10
12.60695049438682
 20
4.481836472086075
 30
0.0
 10
12.69006011488476
 20
4.297948630822695
 30
0.0
 10
12.7218894306609
 20
4.201137306228634
 30
0.0
 10
12.76406792100185
 20
4.004999015154088
 30
0.0
 10
12.77490668888516
 20
3.904499034786603
 30
0.0
 10
12.77509211872525
 20
3.699534720125429
 30
0.0
 10
12.76447599657451
 20
3.598169916606796
 30
0.0
 10
12.7226542834703
 20
3.397643705646352
 30
0.0
 10
12.69091026767072
 20
3.297408274791254
 30
0.0
 10
12.60826636161165
 20
3.105879249911001
 30
0.0
 10
12.55766906368547
 20
3.014523490936144
 30
0.0
 10
12.43800593838745
 20
2.840798433450351
 30
0.0
 10
12.36852473740649
 20
2.758380635546162
 30
0.0
 10
12.14080554014713
 20
2.535838019871825
 30
0.0
 10
11.9570420469029
 20
2.414653532234787
 30
0.0
 10
11.56023146512519
 20
2.251755559321188
 30
0.0
 10
11.34333742006516
 20
2.208076011197137
 30
0.0
 10
11.12500000000001
 20
2.208076011197158
 30
0.0
  0
SPLINE
  5
277
330
1F
100
AcDbEntity
  8
SK3
  6
SLD-Dashed
370
    18
100
AcDbSpline
210
0.0
220
0.0
230
1.0
 70
     8
 71
     3
 72
    34
 73
    30
 74
     0
 42
0.000000001
 43
0.00000001
 40
0.0
 40
0.0
 40
0.0
 40
0.0
 40
0.03125
 40
0.03125
 40
0.0625
 40
0.0625
 40
0.0937500000000001
 40
0.0937500000000001
 40
0.1250000000000001
 40
0.1250000000000001
 40
0.1875000000000001
 40
0.1875000000000001
 40
0.2500000000000002
 40
0.2500000000000002
 40
0.2812500000000002
 40
0.2812500000000002
 40
0.3125000000000002
 40
0.3125000000000002
 40
0.3437500000000002
 40
0.3437500000000002
 40
0.3750000000000002
 40
0.3750000000000002
 40
0.4062500000000003
 40
0.4062500000000003
 40
0.4375000000000003
 40
0.4375000000000003
 40
0.4687500000000003
 40
0.4687500000000003
 40
0.5000000000000003
 40
0.5000000000000003
 40
0.5000000000000003
 40
0.5000000000000003
 10
11.12500000000001
 20
2.208076011197137
 30
0.0
 10
11.01583128996743
 20
2.208076011197137
 30
0.0
 10
10.90851747443065
 20
2.218712438100942
 30
0.0
 10
10.69743839976835
 20
2.260296858835595
 30
0.0
 10
10.59256796952454
 20
2.291759353259967
 30
0.0
 10
10.39282801405939
 20
2.373555205373627
 30
0.0
 10
10.29811782955153
 20
2.423509628226177
 30
0.0
 10
10.11887542494273
 20
2.541114583907891
 30
0.0
 10
10.03412703573856
 20
2.609294845854253
 30
0.0
 10
9.806182200157401
 20
2.831771837438372
 30
0.0
 10
9.683294833249992
 20
3.010016554592654
 30
0.0
 10
9.518613327833616
 20
3.390759943898578
 30
0.0
 10
9.475122079642018
 20
3.597272475835474
 30
0.0
 10
9.474939355443759
 20
3.901097591317411
 30
0.0
 10
9.485685185608675
 20
4.003434499602353
 30
0.0
 10
9.527840731096388
 20
4.200293854804631
 30
0.0
 10
9.559029712058424
 20
4.295473899993276
 30
0.0
 10
9.641780605110354
 20
4.479477843829405
 30
0.0
 10
9.693378168396896
 20
4.567722017178373
 30
0.0
 10
9.81271879481424
 20
4.730510706064041
 30
0.0
 10
9.881024517103501
 20
4.806208116124387
 30
0.0
 10
10.03474791503922
 20
4.945204256680401
 30
0.0
 10
10.11790941669588
 20
5.006521730708605
 30
0.0
 10
10.29642492313949
 20
5.113728914877713
 30
0.0
 10
10.39294641915067
 20
5.159988239582892
 30
0.0
 10
10.59259055817319
 20
5.233890455420352
 30
0.0
 10
10.69543180415421
 20
5.261724005488279
 30
0.0
 10
10.90715408445175
 20
5.299397422676641
 30
0.0
 10
11.01661302565038
 20
5.309024766388323
 30
0.0
 10
11.12436591328744
 20
5.309061551556929
 30
0.0
  0
SPLINE
  5
278
330
1F
100
AcDbEntity
  8
SK3
  6
SLD-Dashed
370
    18
100
AcDbSpline
210
0.0
220
0.0
230
1.0
 70
     8
 71
     3
 72
    34
 73
    30
 74
     0
 42
0.000000001
 43
0.00000001
 40
0.499999999999998
 40
0.499999999999998
 40
0.499999999999998
 40
0.499999999999998
 40
0.5312499999999979
 40
0.5312499999999979
 40
0.5624999999999978
 40
0.5624999999999978
 40
0.5937499999999976
 40
0.5937499999999976
 40
0.6249999999999974
 40
0.6249999999999974
 40
0.6562499999999973
 40
0.6562499999999973
 40
0.6874999999999972
 40
0.6874999999999972
 40
0.7499999999999969
 40
0.7499999999999969
 40
0.8124999999999973
 40
0.8124999999999973
 40
0.8437499999999978
 40
0.8437499999999978
 40
0.8749999999999982
 40
0.8749999999999982
 40
0.9062499999999987
 40
0.9062499999999987
 40
0.937499999999999
 40
0.937499999999999
 40
0.9687499999999994
 40
0.9687499999999994
 40
1.0
 40
1.0
 40
1.0
 40
1.0
 10
9.638805742161694
 20
10.95392502366162
 30
0.0
 10
9.693881160736288
 20
10.84705887039519
 30
0.0
 10
9.763179283156633
 20
10.74439645836096
 30
0.0
 10
9.923515798149998
 20
10.55592715127708
 30
0.0
 10
10.01390276352454
 20
10.47020735344793
 30
0.0
 10
10.21445694949211
 20
10.31296552728879
 30
0.0
 10
10.32267837600211
 20
10.24333508542228
 30
0.0
 10
10.54307526498122
 20
10.12288935951392
 30
0.0
 10
10.65791658596824
 20
10.07070374731722
 30
0.0
 10
10.87819871140988
 20
9.984463182040875
 30
0.0
 10
10.98608094611138
 20
9.949205279737846
 30
0.0
 10
11.18968749579595
 20
9.892304259469006
 30
0.0
 10
11.28527842069085
 20
9.870580048613824
 30
0.0
 10
11.55898297450223
 20
9.820769890309979
 30
0.0
 10
11.72337034356696
 20
9.808096789548749
 30
0.0
 10
12.02194861504766
 20
9.821477532699776
 30
0.0
 10
12.15920875119768
 20
9.847310188176722
 30
0.0
 10
12.34760730605758
 20
9.927824692744426
 30
0.0
 10
12.40688352391457
 20
9.961503747003366
 30
0.0
 10
12.51780294837551
 20
10.0474980864718
 30
0.0
 10
12.56969006353044
 20
10.1002182908583
 30
0.0
 10
12.65991931900844
 20
10.22933776798929
 30
0.0
 10
12.69929072119647
 20
10.30748393412819
 30
0.0
 10
12.75586568636479
 20
10.49302732041031
 30
0.0
 10
12.77303399215493
 20
10.60290348381505
 30
0.0
 10
12.77663319740259
 20
10.83901366027915
 30
0.0
 10
12.76306993948383
 20
10.96766771108131
 30
0.0
 10
12.71170841969951
 20
11.21837738140153
 30
0.0
 10
12.67469993892523
 20
11.34057418425335
 30
0.0
 10
12.63040931107558
 20
11.45745606890564
 30
0.0
  0
SPLINE
  5
279
330
1F
100
AcDbEntity
  8
SK3
  6
SLD-Dashed
370
    18
100
AcDbSpline
210
0.0
220
0.0
230
1.0
 70
     8
 71
     3
 72
    26
 73
    22
 74
     0
 42
0.000000001
 43
0.00000001
 40
0.0
 40
0.0
 40
0.0
 40
0.0
 40
0.0624999999999995
 40
0.0624999999999995
 40
0.124999999999999
 40
0.124999999999999
 40
0.1874999999999986
 40
0.1874999999999986
 40
0.2499999999999981
 40
0.2499999999999981
 40
0.281249999999998
 40
0.281249999999998
 40
0.3124999999999979
 40
0.3124999999999979
 40
0.3749999999999981
 40
0.3749999999999981
 40
0.4374999999999984
 40
0.4374999999999984
 40
0.4687499999999982
 40
0.4687499999999982
 40
0.499999999999998
 40
0.499999999999998
 40
0.499999999999998
 40
0.499999999999998
 10
12.6304093110756
 20
11.45745606890564
 30
0.0
 10
12.54182805537631
 20
11.69121983821021
 30
0.0
 10
12.43200682775376
 20
11.89056157115178
 30
0.0
 10
12.18419932759159
 20
12.25514411813748
 30
0.0
 10
12.04834522926919
 20
12.41463399152625
 30
0.0
 10
11.75314013646128
 20
12.69173524411804
 30
0.0
 10
11.59091385222426
 20
12.8120275860113
 30
0.0
 10
11.23004729019511
 20
12.99241430793245
 30
0.0
 10
11.02728334192551
 20
13.05343833574648
 30
0.0
 10
10.69987000905187
 20
13.05646994226838
 30
0.0
 10
10.58531472788943
 20
13.0419760700552
 30
0.0
 10
10.36396153134626
 20
12.97944613660276
 30
0.0
 10
10.25449961952681
 20
12.93102694430324
 30
0.0
 10
9.947578697971332
 20
12.73948161914289
 30
0.0
 10
9.77664657830718
 20
12.55346040827497
 30
0.0
 10
9.542451961566181
 20
12.12678030999252
 30
0.0
 10
9.478612055377923
 20
11.88580640702581
 30
0.0
 10
9.473421112414268
 20
11.52565520755326
 30
0.0
 10
9.486345898652617
 20
11.40749361566879
 30
0.0
 10
9.541390615621037
 20
11.1745915190869
 30
0.0
 10
9.583730323587114
 20
11.06079117692804
 30
0.0
 10
9.638805742161694
 20
10.95392502366162
 30
0.0
  0
SPLINE
  5
27A
330
1F
100
AcDbEntity
  8
SK3
  6
SLD-Dashed
370
    18
100
AcDbSpline
210
0.0
220
0.0
230
1.0
 70
     8
 71
     3
 72
    18
 73
    14
 74
     0
 42
0.000000001
 43
0.00000001
 40
0.0
 40
0.0
 40
0.0
 40
0.0
 40
0.050196286773496
 40
0.1000306214437232
 40
0.1855667331187628
 40
0.2501823892320831
 40
0.3747066158220737
 40
0.4998232982189562
 40
0.6247294758455391
 40
0.7494251058857213
 40
0.8746331028690435
 40
0.9372230808189356
 40
1.0
 40
1.0
 40
1.0
 40
1.0
 10
3.949999809265137
 20
46.81625217199326
 30
0.0
 10
3.943300316086487
 20
46.81608987644944
 30
0.0
 10
3.929949637996657
 20
46.81576645563185
 30
0.0
 10
3.905360707408517
 20
46.81256644841151
 30
0.0
 10
3.879327975034804
 20
46.80630455045289
 30
0.0
 10
3.844998559152212
 20
46.79331441287619
 30
0.0
 10
3.8082607262839
 20
46.77246899328171
 30
0.0
 10
3.770344669424118
 20
46.73942158227165
 30
0.0
 10
3.739587354231904
 20
46.69961096259775
 30
0.0
 10
3.716933803700978
 20
46.65468825509576
 30
0.0
 10
3.705476699137042
 20
46.61434626740469
 30
0.0
 10
3.700675373963071
 20
46.58119822264525
 30
0.0
 10
3.700225349084735
 20
46.56446462375362
 30
0.0
 10
3.700000001117587
 20
46.55608534812928
 30
0.0
  0
SPLINE
  5
27B
330
1F
100
AcDbEntity
  8
SK3
  6
SLD-Dashed
370
    18
100
AcDbSpline
210
0.0
220
0.0
230
1.0
 70
     8
 71
     3
 72
    18
 73
    14
 74
     0
 42
0.000000001
 43
0.00000001
 40
0.0
 40
0.0
 40
0.0
 40
0.0
 40
0.0502196103872572
 40
0.1000870260924107
 40
0.1855086368940309
 40
0.2501550808791911
 40
0.3746583157461272
 40
0.4998570853792874
 40
0.6242312608259419
 40
0.7494324099488491
 40
0.874036659617998
 40
0.9370350243166916
 40
1.0
 40
1.0
 40
1.0
 40
1.0
 10
18.54999922215941
 20
46.55608534812927
 30
0.0
 10
18.54985537033291
 20
46.56278733475322
 30
0.0
 10
18.54956867552588
 20
46.57614430636109
 30
0.0
 10
18.54672519924606
 20
46.60076044393849
 30
0.0
 10
18.54114926602512
 20
46.6269227485312
 30
0.0
 10
18.52948519304384
 20
46.66169819623135
 30
0.0
 10
18.51054287881591
 20
46.69941891092378
 30
0.0
 10
18.47987136117363
 20
46.73918325317045
 30
0.0
 10
18.44197120724762
 20
46.77229160965818
 30
0.0
 10
18.39830142708264
 20
46.79720013110203
 30
0.0
 10
18.35828846853659
 20
46.81005953666659
 30
0.0
 10
18.325220094038
 20
46.81548403342103
 30
0.0
 10
18.3084055977871
 20
46.81599617105316
 30
0.0
 10
18.30000057816507
 20
46.81625217199326
 30
0.0
  0
SPLINE
  5
27C
330
1F
100
AcDbEntity
  8
1
  6
SLD-Dashed
370
    18
100
AcDbSpline
210
0.0
220
0.0
230
1.0
 70
     8
 71
     3
 72
     8
 73
     4
 74
     0
 42
0.000000001
 43
0.00000001
 40
0.0
 40
0.0
 40
0.0
 40
0.0
 40
1.0
 40
1.0
 40
1.0
 40
1.0
 10
9.200000000002033
 20
44.57901066343279
 30
0.0
 10
8.786353866861457
 20
45.32508460154088
 30
0.0
 10
8.372088490924053
 20
46.0708208293284
 30
0.0
 10
7.957289380062127
 20
46.81625358783
 30
0.0
  0
SPLINE
  5
27D
330
1F
100
AcDbEntity
  8
1
  6
SLD-Dashed
370
    18
100
AcDbSpline
210
0.0
220
0.0
230
1.0
 70
     8
 71
     3
 72
    10
 73
     6
 74
     0
 42
0.000000001
 43
0.00000001
 40
0.0
 40
0.0
 40
0.0
 40
0.0
 40
0.5
 40
0.5
 40
1.0
 40
1.0
 40
1.0
 40
1.0
 10
9.950000000001259
 20
43.76943596849411
 30
0.0
 10
9.74877153622244
 20
43.76943596849377
 30
0.0
 10
9.550990673892239
 20
43.85856672856774
 30
0.0
 10
9.27709778572401
 20
44.15022946993274
 30
0.0
 10
9.200000000000333
 20
44.34957328976746
 30
0.0
 10
9.2
 20
44.55102159322499
 30
0.0
  0
SPLINE
  5
27E
330
1F
100
AcDbEntity
  8
1
  6
SLD-Dashed
370
    18
100
AcDbSpline
210
0.0
220
0.0
230
1.0
 70
     8
 71
     3
 72
    12
 73
     8
 74
     0
 42
0.000000001
 43
0.00000001
 40
0.0
 40
0.0
 40
0.0
 40
0.0
 40
0.5000000000000048
 40
0.5000000000000048
 40
0.7500000000000023
 40
0.7500000000000023
 40
1.0
 40
1.0
 40
1.0
 40
1.0
 10
13.02999999999993
 20
44.5510215932249
 30
0.0
 10
13.02999999999993
 20
44.3510483181232
 30
0.0
 10
12.95399603318287
 20
44.15150826736606
 30
0.0
 10
12.74724095984754
 20
43.93116827138053
 30
0.0
 10
12.6631420626864
 20
43.87128621650959
 30
0.0
 10
12.48048875274074
 20
43.79084228716533
 30
0.0
 10
12.37984375713169
 20
43.76943596849291
 30
0.0
 10
12.28000000000001
 20
43.7694359684929
 30
0.0
  0
SPLINE
  5
27F
330
1F
100
AcDbEntity
  8
1
  6
SLD-Dashed
370
    18
100
AcDbSpline
210
0.0
220
0.0
230
1.0
 70
     8
 71
     3
 72
     8
 73
     4
 74
     0
 42
0.000000001
 43
0.00000001
 40
0.0
 40
0.0
 40
0.0
 40
0.0
 40
1.0
 40
1.0
 40
1.0
 40
1.0
 10
14.2727106199466
 20
46.81625358782995
 30
0.0
 10
13.85791151936186
 20
46.07082076044331
 30
0.0
 10
13.44364615375128
 20
45.32508446377769
 30
0.0
 10
13.03000003099442
 20
44.57901045680047
 30
0.0
  0
SPLINE
  5
280
330
1F
100
AcDbEntity
  8
1
  6
SLD-Dashed
370
    18
100
AcDbSpline
210
0.0
220
0.0
230
1.0
 70
     8
 71
     3
 72
    12
 73
     8
 74
     0
 42
0.000000001
 43
0.00000001
 40
0.0
 40
0.0
 40
0.0
 40
0.0
 40
0.2499999999999967
 40
0.2499999999999967
 40
0.4999999999999933
 40
0.4999999999999933
 40
1.0
 40
1.0
 40
1.0
 40
1.0
 10
3.199999999999811
 20
-46.69763484374749
 30
0.0
 10
3.199999999999853
 20
-46.79851095846151
 30
0.0
 10
3.218629406337781
 20
-46.89733966428926
 30
0.0
 10
3.291844246696858
 20
-47.08411469648331
 30
0.0
 10
3.345979173512772
 20
-47.16991322229986
 30
0.0
 10
3.551871853062285
 20
-47.38753444472503
 30
0.0
 10
3.74802685678137
 20
-47.47548419974255
 30
0.0
 10
3.950000000000023
 20
-47.4754841997425
 30
0.0
  0
SPLINE
  5
281
330
1F
100
AcDbEntity
  8
1
  6
SLD-Dashed
370
    18
100
AcDbSpline
210
0.0
220
0.0
230
1.0
 70
     8
 71
     3
 72
    12
 73
     8
 74
     0
 42
0.000000001
 43
0.00000001
 40
0.0
 40
0.0
 40
0.0
 40
0.0
 40
0.2499999999999985
 40
0.2499999999999985
 40
0.499999999999997
 40
0.499999999999997
 40
1.0
 40
1.0
 40
1.0
 40
1.0
 10
18.30000000000033
 20
-47.4754841997428
 30
0.0
 10
18.40091596910971
 20
-47.47548419974276
 30
0.0
 10
18.50002158252286
 20
-47.45437693482727
 30
0.0
 10
18.68315226992477
 20
-47.3742689705784
 30
0.0
 10
18.76654490405291
 20
-47.31511647588048
 30
0.0
 10
18.97195148872757
 20
-47.09831987092237
 30
0.0
 10
19.05000000000008
 20
-46.89926900274104
 30
0.0
 10
19.04999999999998
 20
-46.69763484374771
 30
0.0
  0
SPLINE
  5
282
330
1F
100
AcDbEntity
  8
1
  6
SLD-Dashed
370
    18
100
AcDbSpline
210
0.0
220
0.0
230
1.0
 70
     8
 71
     3
 72
     8
 73
     4
 74
     0
 42
0.000000001
 43
0.00000001
 40
0.0
 40
0.0
 40
0.0
 40
0.0
 40
1.0
 40
1.0
 40
1.0
 40
1.0
 10
14.63972311466932
 20
-47.47548326849937
 30
0.0
 10
14.10222481900981
 20
-46.51049592619328
 30
0.0
 10
13.56559185903593
 20
-45.54503218791565
 30
0.0
 10
13.02999999999999
 20
-44.57901066343648
 30
0.0
  0
SPLINE
  5
283
330
1F
100
AcDbEntity
  8
1
  6
SLD-Dashed
370
    18
100
AcDbSpline
210
0.0
220
0.0
230
1.0
 70
     8
 71
     3
 72
    12
 73
     8
 74
     0
 42
0.000000001
 43
0.00000001
 40
0.0
 40
0.0
 40
0.0
 40
0.0
 40
0.5
 40
0.5
 40
0.75
 40
0.75
 40
1.0
 40
1.0
 40
1.0
 40
1.0
 10
13.03000000000026
 20
-44.55102159322526
 30
0.0
 10
13.03000000000033
 20
-44.35094747116184
 30
0.0
 10
12.95238692985018
 20
-44.14958800989083
 30
0.0
 10
12.74748896269966
 20
-43.93153570225748
 30
0.0
 10
12.66372770014787
 20
-43.87162606259754
 30
0.0
 10
12.48090790509571
 20
-43.79094541821721
 30
0.0
 10
12.38057331782438
 20
-43.76943596849286
 30
0.0
 10
12.28000000000001
 20
-43.76943596849289
 30
0.0
  0
SPLINE
  5
284
330
1F
100
AcDbEntity
  8
1
  6
SLD-Dashed
370
    18
100
AcDbSpline
210
0.0
220
0.0
230
1.0
 70
     8
 71
     3
 72
    12
 73
     8
 74
     0
 42
0.000000001
 43
0.00000001
 40
0.0
 40
0.0
 40
0.0
 40
0.0
 40
0.2500000000000039
 40
0.2500000000000039
 40
0.5000000000000078
 40
0.5000000000000078
 40
1.0
 40
1.0
 40
1.0
 40
1.0
 10
9.949999999999838
 20
-43.76943596849306
 30
0.0
 10
9.850030395358786
 20
-43.76943596849309
 30
0.0
 10
9.750114974766248
 20
-43.79051518316425
 30
0.0
 10
9.565507057761286
 20
-43.87194262843707
 30
0.0
 10
9.482715011846723
 20
-43.93126060501225
 30
0.0
 10
9.276579660402893
 20
-44.15080408372874
 30
0.0
 10
9.200000000000042
 20
-44.35163254795803
 30
0.0
 10
9.2
 20
-44.55102159322499
 30
0.0
  0
SPLINE
  5
285
330
1F
100
AcDbEntity
  8
1
  6
SLD-Dashed
370
    18
100
AcDbSpline
210
0.0
220
0.0
230
1.0
 70
     8
 71
     3
 72
     8
 73
     4
 74
     0
 42
0.000000001
 43
0.00000001
 40
0.0
 40
0.0
 40
0.0
 40
0.0
 40
1.0
 40
1.0
 40
1.0
 40
1.0
 10
9.199999999999996
 20
-44.57901066343648
 30
0.0
 10
8.664408064124697
 20
-45.54503218799334
 30
0.0
 10
8.127775027310161
 20
-46.51049592626648
 30
0.0
 10
7.590276654809713
 20
-47.47548326849937
 30
0.0
  0
SPLINE
  5
286
330
1F
100
AcDbEntity
  8
SK3
  6
SLD-Dashed
370
    18
100
AcDbSpline
210
0.0
220
0.0
230
1.0
 70
     8
 71
     3
 72
    34
 73
    30
 74
     0
 42
0.000000001
 43
0.00000001
 40
0.5000000000000003
 40
0.5000000000000003
 40
0.5000000000000003
 40
0.5000000000000003
 40
0.5625000000000013
 40
0.5625000000000013
 40
0.5937500000000011
 40
0.5937500000000011
 40
0.625000000000001
 40
0.625000000000001
 40
0.6562500000000009
 40
0.6562500000000009
 40
0.6875000000000008
 40
0.6875000000000008
 40
0.7187500000000007
 40
0.7187500000000007
 40
0.7500000000000004
 40
0.7500000000000004
 40
0.7812500000000003
 40
0.7812500000000003
 40
0.8125000000000002
 40
0.8125000000000002
 40
0.8437500000000001
 40
0.8437500000000001
 40
0.875
 40
0.875
 40
0.9062499999999999
 40
0.9062499999999999
 40
0.9374999999999997
 40
0.9374999999999997
 40
1.0
 40
1.0
 40
1.0
 40
1.0
 10
10.60808274902045
 20
14.67518531385664
 30
0.0
 10
10.7714399435272
 20
14.66271400222904
 30
0.0
 10
10.9539607682107
 20
14.63137977172278
 30
0.0
 10
11.25812245907615
 20
14.5469177059656
 30
0.0
 10
11.36641585866903
 20
14.51171888144388
 30
0.0
 10
11.58574352105282
 20
14.42634662926307
 30
0.0
 10
11.69715944869876
 20
14.37625545607604
 30
0.0
 10
11.92117180667887
 20
14.25483711630821
 30
0.0
 10
12.02893523597722
 20
14.18587333985283
 30
0.0
 10
12.22961030853029
 20
14.02983333564747
 30
0.0
 10
12.32267742835869
 20
13.94226901556095
 30
0.0
 10
12.48372543018653
 20
13.75415019217111
 30
0.0
 10
12.55366053916097
 20
13.65130323099262
 30
0.0
 10
12.66489321927143
 20
13.43691773984446
 30
0.0
 10
12.7071773018843
 20
13.32435113894571
 30
0.0
 10
12.76326417564933
 20
13.08988167819453
 30
0.0
 10
12.77635511926062
 20
12.97149039057748
 30
0.0
 10
12.77342672652905
 20
12.7321108433757
 30
0.0
 10
12.7568497945824
 20
12.61060743991047
 30
0.0
 10
12.69552150102997
 20
12.37773497196915
 30
0.0
 10
12.65033349294087
 20
12.26373909474825
 30
0.0
 10
12.53298957942557
 20
12.04909612932805
 30
0.0
 10
12.46214536200847
 20
11.95022400081661
 30
0.0
 10
12.2965127732214
 20
11.77143410287179
 30
0.0
 10
12.20150676240366
 20
11.69219588739501
 30
0.0
 10
11.99926684334575
 20
11.56533020093841
 30
0.0
 10
11.88885801145316
 20
11.5158749716928
 30
0.0
 10
11.55399205333035
 20
11.42069275726627
 30
0.0
 10
11.32716468948121
 20
11.42871083881322
 30
0.0
 10
11.12500000000001
 20
11.48273236161759
 30
0.0
  0
SPLINE
  5
287
330
1F
100
AcDbEntity
  8
SK3
  6
SLD-Dashed
370
    18
100
AcDbSpline
210
0.0
220
0.0
230
1.0
 70
     8
 71
     3
 72
    30
 73
    26
 74
     0
 42
0.000000001
 43
0.00000001
 40
0.0
 40
0.0
 40
0.0
 40
0.0
 40
0.0624999999999997
 40
0.0624999999999997
 40
0.1249999999999995
 40
0.1249999999999995
 40
0.1562499999999993
 40
0.1562499999999993
 40
0.1874999999999992
 40
0.1874999999999992
 40
0.2187499999999991
 40
0.2187499999999991
 40
0.2499999999999989
 40
0.2499999999999989
 40
0.2812499999999988
 40
0.2812499999999988
 40
0.3124999999999987
 40
0.3124999999999987
 40
0.3437499999999986
 40
0.3437499999999986
 40
0.3749999999999984
 40
0.3749999999999984
 40
0.4374999999999994
 40
0.4374999999999994
 40
0.5000000000000003
 40
0.5000000000000003
 40
0.5000000000000003
 40
0.5000000000000003
 10
11.12500000000001
 20
11.48273236161758
 30
0.0
 10
10.92283531051877
 20
11.53675388442192
 30
0.0
 10
10.74714710048236
 20
11.63024516394926
 30
0.0
 10
10.42066988662171
 20
11.86454434722231
 30
0.0
 10
10.27375737476434
 20
12.0040738428721
 30
0.0
 10
10.07148943268484
 20
12.2417783920363
 30
0.0
 10
10.00699015299671
 20
12.32609339770682
 30
0.0
 10
9.883509956371162
 20
12.50701007175132
 30
0.0
 10
9.824268573097857
 20
12.60415729348405
 30
0.0
 10
9.715154706090315
 20
12.80934651131552
 30
0.0
 10
9.664396735733439
 20
12.91903622889809
 30
0.0
 10
9.576981863499118
 20
13.14891853741638
 30
0.0
 10
9.540303532497477
 20
13.26831266228052
 30
0.0
 10
9.487704529937982
 20
13.52080982106194
 30
0.0
 10
9.473745253197983
 20
13.64846695671307
 30
0.0
 10
9.47643808956057
 20
13.88700257856813
 30
0.0
 10
9.49319789642801
 20
13.99682053671473
 30
0.0
 10
9.549353346861217
 20
14.18374939795269
 30
0.0
 10
9.58858947784802
 20
14.2623151046244
 30
0.0
 10
9.678480018824306
 20
14.39201189392008
 30
0.0
 10
9.730204466999181
 20
14.44496665500975
 30
0.0
 10
9.89634859518447
 20
14.57471258814563
 30
0.0
 10
10.02083275682618
 20
14.62455209347292
 30
0.0
 10
10.29708420272975
 20
14.68178062150165
 30
0.0
 10
10.4447255545137
 20
14.68765662548424
 30
0.0
 10
10.60808274902045
 20
14.67518531385664
 30
0.0
  0
DIMENSION
  5
288
330
1F
100
AcDbEntity
  8
2
100
AcDbDimension
  2
_D
 10
0.0
 20
82.7147931916
 30
0.0
 11
73.576487531
 21
82.7147931916
 31
0.0
 70
   160
  1
<>
 71
     2
 42
-1.0
  3
SLDDIMSTYLE0
100
AcDbAlignedDimension
 13
203.1999975443
 23
13.5660255328
 33
0.0
 14
0.0
 24
34.9249988794
 34
0.0
 50
0.0
100
AcDbRotatedDimension
  0
DIMENSION
  5
29D
330
1F
100
AcDbEntity
  8
SK2
100
AcDbDimension
  2
_D_1
 10
203.1999975443
 20
70.2724045703
 30
0.0
 11
90.311691109
 21
70.2724045703
 31
0.0
 70
   160
  1
<>
 71
     2
 42
-1.0
  3
SLDDIMSTYLE0
100
AcDbAlignedDimension
 13
19.05
 23
46.5560855313
 33
0.0
 14
203.1999975443
 24
17.7800003439
 34
0.0
 50
0.0
100
AcDbRotatedDimension
  0
DIMENSION
  5
2B0
330
1F
100
AcDbEntity
  8
SK2
100
AcDbDimension
  2
_D_2
 10
203.1999975443
 20
57.8274896348
 30
0.0
 11
108.3005580054
 21
57.8274896348
 31
0.0
 70
   160
  1
<>
 71
     2
 42
-1.0
  3
SLDDIMSTYLE0
100
AcDbAlignedDimension
 13
35.1000012815
 23
33.4010005603
 33
0.0
 14
203.1999975443
 24
17.7800003439
 34
0.0
 50
0.0
100
AcDbRotatedDimension
  0
DIMENSION
  5
2C3
330
1F
100
AcDbEntity
  8
SK2
100
AcDbDimension
  2
_D_3
 10
88.8999998569
 20
45.3341885519
 30
0.0
 11
139.9019940588
 21
45.3341885519
 31
0.0
 70
   160
  1
<>
 71
     2
 42
-1.0
  3
SLDDIMSTYLE0
100
AcDbAlignedDimension
 13
203.1999975443
 23
17.7800003439
 33
0.0
 14
88.8999998569
 24
25.399999693
 34
0.0
 50
0.0
100
AcDbRotatedDimension
  0
DIMENSION
  5
2D6
330
1F
100
AcDbEntity
  8
SK2
100
AcDbDimension
  2
_D_4
 10
203.1999975443
 20
32.5067793173
 30
0.0
 11
189.8732871087
 21
32.5067793173
 31
0.0
 70
   160
  1
<>
 71
     2
 42
-1.0
  3
SLDDIMSTYLE0
100
AcDbAlignedDimension
 13
174.625
 23
25.3
 33
0.0
 14
203.1999975443
 24
17.7800003439
 34
0.0
100
AcDbRotatedDimension
  0
DIMENSION
  5
2E9
330
1F
100
AcDbEntity
  8
SK2
100
AcDbDimension
  2
_D_5
 10
174.625
 20
32.5067793173
 30
0.0
 11
160.5164872126
 21
32.5067793173
 31
0.0
 70
   160
  1
<>
 71
     2
 42
-1.0
  3
SLDDIMSTYLE0
100
AcDbAlignedDimension
 13
149.225
 23
25.3
 33
0.0
 14
174.625
 24
25.3
 34
0.0
100
AcDbRotatedDimension
  0
DIMENSION
  5
2FC
330
1F
100
AcDbEntity
  8
SK2
100
AcDbDimension
  2
_D_6
 10
220.5348126128
 20
-12.6999998465
 30
0.0
 11
220.5348126128
 21
0.4148991086
 31
0.0
 70
   160
  1
%%c<>
 71
     2
 42
-1.0
  3
SLDDIMSTYLE0
100
AcDbAlignedDimension
 13
201.700001955
 23
12.6999998465
 33
0.0
 14
201.700001955
 24
-12.6999998465
 34
0.0
 50
90.0
100
AcDbRotatedDimension
  0
DIMENSION
  5
30E
330
1F
100
AcDbEntity
  8
SK2
100
AcDbDimension
  2
_D_7
 10
234.7091172609
 20
-17.7800003439
 30
0.0
 11
234.7091172609
 21
0.4148991086
 31
0.0
 70
   160
  1
%%c<>
 71
     2
 42
-1.0
  3
SLDDIMSTYLE0
100
AcDbAlignedDimension
 13
203.1999975443
 23
17.7800003439
 33
0.0
 14
203.1999975443
 24
-17.7800003439
 34
0.0
 50
90.0
100
AcDbRotatedDimension
  0
DIMENSION
  5
320
330
1F
100
AcDbEntity
  8
SK2
100
AcDbDimension
  2
_D_8
 10
251.0640841624
 20
-25.399999693
 30
0.0
 11
251.0640841624
 21
0.4148991086
 31
0.0
 70
   160
  1
%%c<>
 71
     2
 42
-1.0
  3
SLDDIMSTYLE0
100
AcDbAlignedDimension
 13
195.5800056458
 23
25.399999693
 33
0.0
 14
195.5800056458
 24
-25.399999693
 34
0.0
 50
90.0
100
AcDbRotatedDimension
  0
DIMENSION
  5
332
330
1F
100
AcDbEntity
  8
SK2
100
AcDbDimension
  2
_D_9
 10
203.1999975443
 20
-60.4130058866
 30
0.0
 11
51.7944750025
 21
-60.4130058866
 31
0.0
 70
   160
  1
<>
 71
     2
 42
-1.0
  3
SLDDIMSTYLE1
100
AcDbAlignedDimension
 13
-101.6000003646
 23
-18.2922329752
 33
0.0
 14
203.1999975443
 24
-17.7800003439
 34
0.0
 50
0.0
100
AcDbRotatedDimension
  0
DIMENSION
  5
346
330
1F
100
AcDbEntity
  8
SK2
100
AcDbDimension
  2
_D_10
 10
203.1999975443
 20
-49.114723305
 30
0.0
 11
168.3869304895
 21
-49.114723305
 31
0.0
 70
   160
  1
<>
 71
     2
 42
-1.0
  3
SLDDIMSTYLE0
100
AcDbAlignedDimension
 13
133.3499999002
 23
-12.7250003845
 33
0.0
 14
203.1999975443
 24
-17.7800003439
 34
0.0
100
AcDbRotatedDimension
  0
DIMENSION
  5
359
330
1F
100
AcDbEntity
  8
SK2
100
AcDbDimension
  2
_D_11
 10
203.1999975443
 20
-39.5615227991
 30
0.0
 11
189.8732871087
 21
-39.5615227991
 31
0.0
 70
   160
  1
<>
 71
     2
 42
-1.0
  3
SLDDIMSTYLE2
100
AcDbAlignedDimension
 13
195.5800056458
 23
-25.399999693
 33
0.0
 14
203.1999975443
 24
-17.7800003439
 34
0.0
100
AcDbRotatedDimension
  0
DIMENSION
  5
366
330
1F
100
AcDbEntity
  8
SK2
100
AcDbDimension
  2
_D_12
 10
-123.9063780114
 20
-47.4755169075
 30
0.0
 11
-123.9063902625
 21
0.4148991086
 31
0.0
 70
   160
  1
%%c<>
 71
     2
 42
-1.0
  3
SLDDIMSTYLE3
100
AcDbAlignedDimension
 13
5.7701383033
 23
47.2968145062
 33
0.0
 14
3.95
 24
-47.4754841997
 34
0.0
 50
-89.9999853428
100
AcDbRotatedDimension
  0
DIMENSION
  5
372
330
1F
100
AcDbEntity
  8
SK2
100
AcDbDimension
  2
_D_13
 10
-112.2742830867
 20
-12.6999998465
 30
0.0
 11
-112.2742830867
 21
0.4148991086
 31
0.0
 70
   160
  1
<>
 71
     2
 42
-1.0
  3
SLDDIMSTYLE3
100
AcDbAlignedDimension
 13
-94.967097044
 23
12.6999998465
 33
0.0
 14
-94.967097044
 24
-12.6999998465
 34
0.0
 50
90.0
100
AcDbRotatedDimension
  0
DIMENSION
  5
37D
330
1F
100
AcDbEntity
  8
SK2
100
AcDbDimension
  2
_D_14
 10
19.05
 20
70.2724045703
 30
0.0
 11
8.9265001518
 21
70.2724045703
 31
0.0
 70
   160
  1
<>
 71
     2
 42
-1.0
  3
SLDDIMSTYLE3
100
AcDbAlignedDimension
 13
0.0
 23
34.9249988794
 33
0.0
 14
19.05
 24
46.5560855313
 34
0.0
100
AcDbRotatedDimension
  0
MTEXT
  5
387
330
1F
100
AcDbEntity
  8
SK6
 62
     5
100
AcDbMText
 10
-55.4960625043
 20
-37.8763135635
 30
0.0
 40
3.5
 41
0.0
 71
     1
 72
     1
  1
AA3B20-50 25 203
  7
SLDTEXTSTYLE0
 73
     1
 44
1.0
  0
MTEXT
  5
388
330
1F
100
AcDbEntity
  8
SK6
 62
     5
100
AcDbMText
 10
-58.7895098344
 20
41.8411179322
 30
0.0
 40
3.5
 41
0.0
 71
     1
 72
     1
  1
ASME B5.50 CAT 50
  7
SLDTEXTSTYLE0
 73
     1
 44
1.0
  0
ENDSEC
  0
SECTION
  2
OBJECTS
  0
DICTIONARY
  5
C
330
0
100
AcDbDictionary
281
     1
  3
ACAD_GROUP
350
D
  3
ACAD_LAYOUT
350
1A
  3
ACAD_MLINESTYLE
350
17
  3
ACAD_PLOTSETTINGS
350
19
  3
ACAD_PLOTSTYLENAME
350
E
  3
ACAD_SCALELIST
350
47
  0
DICTIONARY
  5
D
102
{ACAD_REACTORS
330
C
102
}
330
C
100
AcDbDictionary
281
     1
  0
DICTIONARY
  5
1A
102
{ACAD_REACTORS
330
C
102
}
330
C
100
AcDbDictionary
281
     1
  3
Layout1
350
1E
  3
Layout2
350
26
  3
Model
350
22
  0
DICTIONARY
  5
17
102
{ACAD_REACTORS
330
C
102
}
330
C
100
AcDbDictionary
281
     1
  3
Standard
350
18
  0
DICTIONARY
  5
19
102
{ACAD_REACTORS
330
C
102
}
330
C
100
AcDbDictionary
281
     1
  0
ACDBDICTIONARYWDFLT
  5
E
102
{ACAD_REACTORS
330
C
102
}
330
C
100
AcDbDictionary
281
     1
  3
Normal
350
F
100
AcDbDictionaryWithDefault
340
F
  0
DICTIONARY
  5
47
102
{ACAD_REACTORS
330
C
102
}
330
C
100
AcDbDictionary
281
     1
  3
A0
350
48
  3
A1
350
49
  3
A2
350
4A
  3
A3
350
4B
  3
A4
350
4C
  3
A5
350
4D
  3
A6
350
4E
  3
A7
350
4F
  3
A8
350
50
  3
A9
350
51
  3
B0
350
52
  3
B1
350
53
  3
B2
350
54
  3
B3
350
55
  3
B4
350
56
  3
B5
350
57
  3
B6
350
58
  3
B7
350
59
  3
B8
350
5A
  3
B9
350
5B
  3
C0
350
5C
  3
C1
350
5D
  3
C2
350
5E
  3
C3
350
5F
  3
C4
350
60
  3
C5
350
61
  3
C6
350
62
  3
C7
350
63
  3
C8
350
64
  3
C9
350
65
  3
D0
350
66
  3
D1
350
67
  3
D2
350
68
  0
LAYOUT
  5
1E
102
{ACAD_REACTORS
330
1A
102
}
330
1A
100
AcDbPlotSettings
  1

  2
none_device
  4

  6

 40
0.0
 41
0.0
 42
0.0
 43
0.0
 44
0.0
 45
0.0
 46
0.0
 47
0.0
 48
0.0
 49
0.0
140
0.0
141
0.0
142
1.0
143
1.0
 70
   688
 72
     1
 73
     0
 74
     5
  7

 75
    16
147
1.0
148
0.0
149
0.0
100
AcDbLayout
  1
Layout1
 70
     1
 71
     1
 10
0.0
 20
0.0
 11
420.0
 21
297.0
 12
0.0
 22
0.0
 32
0.0
 14
1.0000000000E+20
 24
1.0000000000E+20
 34
1.0000000000E+20
 15
-1.0000000000E+20
 25
-1.0000000000E+20
 35
-1.0000000000E+20
146
0.0
 13
0.0
 23
0.0
 33
0.0
 16
1.0
 26
0.0
 36
0.0
 17
0.0
 27
1.0
 37
0.0
 76
     0
330
1B
  0
LAYOUT
  5
26
102
{ACAD_REACTORS
330
1A
102
}
330
1A
100
AcDbPlotSettings
  1

  2
none_device
  4

  6

 40
0.0
 41
0.0
 42
0.0
 43
0.0
 44
0.0
 45
0.0
 46
0.0
 47
0.0
 48
0.0
 49
0.0
140
0.0
141
0.0
142
1.0
143
1.0
 70
   688
 72
     1
 73
     0
 74
     5
  7

 75
    16
147
1.0
148
0.0
149
0.0
100
AcDbLayout
  1
Layout2
 70
     1
 71
     2
 10
0.0
 20
0.0
 11
0.0
 21
0.0
 12
0.0
 22
0.0
 32
0.0
 14
0.0
 24
0.0
 34
0.0
 15
0.0
 25
0.0
 35
0.0
146
0.0
 13
0.0
 23
0.0
 33
0.0
 16
1.0
 26
0.0
 36
0.0
 17
0.0
 27
1.0
 37
0.0
 76
     0
330
23
  0
LAYOUT
  5
22
102
{ACAD_REACTORS
330
1A
102
}
330
1A
100
AcDbPlotSettings
  1

  2
none_device
  4
Letter_(8.50_x_11.00_Inches)
  6

 40
6.35
 41
6.35
 42
6.35000508
 43
6.35000508
 44
215.9
 45
279.4
 46
0.0
 47
0.0
 48
0.0
 49
0.0
140
0.0
141
0.0
142
1.0
143
1.0
 70
  1712
 72
     1
 73
     0
 74
     0
  7

 75
     0
147
1.0
148
0.0
149
0.0
100
AcDbLayout
  1
Model
 70
     1
 71
     0
 10
0.0
 20
0.0
 11
297.0
 21
210.0
 12
0.0
 22
0.0
 32
0.0
 14
0.0
 24
0.0
 34
0.0
 15
297.0
 25
210.0
 35
0.0
146
0.0
 13
0.0
 23
0.0
 33
0.0
 16
1.0
 26
0.0
 36
0.0
 17
0.0
 27
1.0
 37
0.0
 76
     0
330
1F
331
29
  0
MLINESTYLE
  5
18
102
{ACAD_REACTORS
330
17
102
}
330
17
100
AcDbMlineStyle
  2
Standard
 70
     0
  3

 62
   256
 51
90.0
 52
90.0
 71
     2
 49
0.5
 62
   256
  6
BYLAYER
 49
-0.5
 62
   256
  6
BYLAYER
  0
ACDBPLACEHOLDER
  5
F
102
{ACAD_REACTORS
330
E
102
}
330
E
  0
SCALE
  5
48
102
{ACAD_REACTORS
330
47
102
}
330
47
100
AcDbScale
 70
     0
300
1:1
140
1.0
141
1.0
290
     1
  0
SCALE
  5
49
102
{ACAD_REACTORS
330
47
102
}
330
47
100
AcDbScale
 70
     0
300
1:2
140
1.0
141
2.0
290
     0
  0
SCALE
  5
4A
102
{ACAD_REACTORS
330
47
102
}
330
47
100
AcDbScale
 70
     0
300
1:4
140
1.0
141
4.0
290
     0
  0
SCALE
  5
4B
102
{ACAD_REACTORS
330
47
102
}
330
47
100
AcDbScale
 70
     0
300
1:5
140
1.0
141
5.0
290
     0
  0
SCALE
  5
4C
102
{ACAD_REACTORS
330
47
102
}
330
47
100
AcDbScale
 70
     0
300
1:8
140
1.0
141
8.0
290
     0
  0
SCALE
  5
4D
102
{ACAD_REACTORS
330
47
102
}
330
47
100
AcDbScale
 70
     0
300
1:10
140
1.0
141
10.0
290
     0
  0
SCALE
  5
4E
102
{ACAD_REACTORS
330
47
102
}
330
47
100
AcDbScale
 70
     0
300
1:16
140
1.0
141
16.0
290
     0
  0
SCALE
  5
4F
102
{ACAD_REACTORS
330
47
102
}
330
47
100
AcDbScale
 70
     0
300
1:20
140
1.0
141
20.0
290
     0
  0
SCALE
  5
50
102
{ACAD_REACTORS
330
47
102
}
330
47
100
AcDbScale
 70
     0
300
1:30
140
1.0
141
30.0
290
     0
  0
SCALE
  5
51
102
{ACAD_REACTORS
330
47
102
}
330
47
100
AcDbScale
 70
     0
300
1:40
140
1.0
141
40.0
290
     0
  0
SCALE
  5
52
102
{ACAD_REACTORS
330
47
102
}
330
47
100
AcDbScale
 70
     0
300
1:50
140
1.0
141
50.0
290
     0
  0
SCALE
  5
53
102
{ACAD_REACTORS
330
47
102
}
330
47
100
AcDbScale
 70
     0
300
1:100
140
1.0
141
100.0
290
     0
  0
SCALE
  5
54
102
{ACAD_REACTORS
330
47
102
}
330
47
100
AcDbScale
 70
     0
300
2:1
140
2.0
141
1.0
290
     0
  0
SCALE
  5
55
102
{ACAD_REACTORS
330
47
102
}
330
47
100
AcDbScale
 70
     0
300
4:1
140
4.0
141
1.0
290
     0
  0
SCALE
  5
56
102
{ACAD_REACTORS
330
47
102
}
330
47
100
AcDbScale
 70
     0
300
8:1
140
8.0
141
1.0
290
     0
  0
SCALE
  5
57
102
{ACAD_REACTORS
330
47
102
}
330
47
100
AcDbScale
 70
     0
300
10:1
140
10.0
141
1.0
290
     0
  0
SCALE
  5
58
102
{ACAD_REACTORS
330
47
102
}
330
47
100
AcDbScale
 70
     0
300
100:1
140
100.0
141
1.0
290
     0
  0
SCALE
  5
59
102
{ACAD_REACTORS
330
47
102
}
330
47
100
AcDbScale
 70
     0
300
1/128" = 1'-0"
140
0.0078125
141
12.0
290
     0
  0
SCALE
  5
5A
102
{ACAD_REACTORS
330
47
102
}
330
47
100
AcDbScale
 70
     0
300
1/64" = 1'-0"
140
0.015625
141
12.0
290
     0
  0
SCALE
  5
5B
102
{ACAD_REACTORS
330
47
102
}
330
47
100
AcDbScale
 70
     0
300
1/32" = 1'-0"
140
0.03125
141
12.0
290
     0
  0
SCALE
  5
5C
102
{ACAD_REACTORS
330
47
102
}
330
47
100
AcDbScale
 70
     0
300
1/16" = 1'-0"
140
0.0625
141
12.0
290
     0
  0
SCALE
  5
5D
102
{ACAD_REACTORS
330
47
102
}
330
47
100
AcDbScale
 70
     0
300
3/32" = 1'-0"
140
0.09375
141
12.0
290
     0
  0
SCALE
  5
5E
102
{ACAD_REACTORS
330
47
102
}
330
47
100
AcDbScale
 70
     0
300
1/8" = 1'-0"
140
0.125
141
12.0
290
     0
  0
SCALE
  5
5F
102
{ACAD_REACTORS
330
47
102
}
330
47
100
AcDbScale
 70
     0
300
3/16" = 1'-0"
140
0.1875
141
12.0
290
     0
  0
SCALE
  5
60
102
{ACAD_REACTORS
330
47
102
}
330
47
100
AcDbScale
 70
     0
300
1/4" = 1'-0"
140
0.25
141
12.0
290
     0
  0
SCALE
  5
61
102
{ACAD_REACTORS
330
47
102
}
330
47
100
AcDbScale
 70
     0
300
3/8" = 1'-0"
140
0.375
141
12.0
290
     0
  0
SCALE
  5
62
102
{ACAD_REACTORS
330
47
102
}
330
47
100
AcDbScale
 70
     0
300
1/2" = 1'-0"
140
0.5
141
12.0
290
     0
  0
SCALE
  5
63
102
{ACAD_REACTORS
330
47
102
}
330
47
100
AcDbScale
 70
     0
300
3/4" = 1'-0"
140
0.75
141
12.0
290
     0
  0
SCALE
  5
64
102
{ACAD_REACTORS
330
47
102
}
330
47
100
AcDbScale
 70
     0
300
1" = 1'-0"
140
1.0
141
12.0
290
     0
  0
SCALE
  5
65
102
{ACAD_REACTORS
330
47
102
}
330
47
100
AcDbScale
 70
     0
300
1-1/2" = 1'-0"
140
1.5
141
12.0
290
     0
  0
SCALE
  5
66
102
{ACAD_REACTORS
330
47
102
}
330
47
100
AcDbScale
 70
     0
300
3" = 1'-0"
140
3.0
141
12.0
290
     0
  0
SCALE
  5
67
102
{ACAD_REACTORS
330
47
102
}
330
47
100
AcDbScale
 70
     0
300
6" = 1'-0"
140
6.0
141
12.0
290
     0
  0
SCALE
  5
68
102
{ACAD_REACTORS
330
47
102
}
330
47
100
AcDbScale
 70
     0
300
1'-0" = 1'-0"
140
12.0
141
12.0
290
     0
  0
ENDSEC
  0
EOF
