  0
SECTION
  2
HEADER
  9
$ACADVER
  1
AC1015
  9
$ACADMAINTVER
 70
     6
  9
$DWGCODEPAGE
  3
ANSI_1250
  9
$INSBASE
 10
0.0
 20
0.0
 30
0.0
  9
$EXTMIN
 10
0.0
 20
0.0
 30
0.0
  9
$EXTMAX
 10
297.0
 20
210.0
 30
0.0
  9
$LIMMIN
 10
0.0
 20
0.0
  9
$LIMMAX
 10
297.0
 20
210.0
  9
$ORTHOMODE
 70
     0
  9
$REGENMODE
 70
     1
  9
$FILLMODE
 70
     1
  9
$QTEXTMODE
 70
     0
  9
$MIRRTEXT
 70
     1
  9
$LTSCALE
 40
1.0
  9
$ATTMODE
 70
     1
  9
$TEXTSIZE
 40
3.5
  9
$TRACEWID
 40
1.0
  9
$TEXTSTYLE
  7
Standard
  9
$CLAYER
  8
0
  9
$CELTYPE
  6
ByLayer
  9
$CECOLOR
 62
   256
  9
$CELTSCALE
 40
1.0
  9
$DISPSILH
 70
     0
  9
$DIMSCALE
 40
1.0
  9
$DIMASZ
 40
3.302
  9
$DIMEXO
 40
1.0
  9
$DIMDLI
 40
3.75
  9
$DIMRND
 40
0.0
  9
$DIMDLE
 40
0.0
  9
$DIMEXE
 40
1.0
  9
$DIMTP
 40
0.0
  9
$DIMTM
 40
0.0
  9
$DIMTXT
 40
3.5
  9
$DIMCEN
 40
2.5
  9
$DIMTSZ
 40
0.0
  9
$DIMTOL
 70
     0
  9
$DIMLIM
 70
     0
  9
$DIMTIH
 70
     1
  9
$DIMTOH
 70
     1
  9
$DIMSE1
 70
     0
  9
$DIMSE2
 70
     0
  9
$DIMTAD
 70
     1
  9
$DIMZIN
 70
     0
  9
$DIMBLK
  1

  9
$DIMASO
 70
     1
  9
$DIMSHO
 70
     1
  9
$DIMPOST
  1

  9
$DIMAPOST
  1

  9
$DIMALT
 70
     0
  9
$DIMALTD
 70
     3
  9
$DIMALTF
 40
0.0393700787
  9
$DIMLFAC
 40
1.0
  9
$DIMTOFL
 70
     1
  9
$DIMTVP
 40
0.0
  9
$DIMTIX
 70
     0
  9
$DIMSOXD
 70
     0
  9
$DIMSAH
 70
     0
  9
$DIMBLK1
  1

  9
$DIMBLK2
  1

  9
$DIMSTYLE
  2
ISO-25
  9
$DIMCLRD
 70
     0
  9
$DIMCLRE
 70
     0
  9
$DIMCLRT
 70
     0
  9
$DIMTFAC
 40
1.0
  9
$DIMGAP
 40
1.524
  9
$DIMJUST
 70
     0
  9
$DIMSD1
 70
     0
  9
$DIMSD2
 70
     0
  9
$DIMTOLJ
 70
     0
  9
$DIMTZIN
 70
     0
  9
$DIMALTZ
 70
     0
  9
$DIMALTTZ
 70
     0
  9
$DIMUPT
 70
     0
  9
$DIMDEC
 70
     2
  9
$DIMTDEC
 70
     2
  9
$DIMALTU
 70
     2
  9
$DIMALTTD
 70
     3
  9
$DIMTXSTY
  7
Standard
  9
$DIMAUNIT
 70
     0
  9
$DIMADEC
 70
     2
  9
$DIMALTRND
 40
0.0
  9
$DIMAZIN
 70
     0
  9
$DIMDSEP
 70
    44
  9
$DIMATFIT
 70
     3
  9
$DIMFRAC
 70
     0
  9
$DIMLDRBLK
  1

  9
$DIMLUNIT
 70
     2
  9
$DIMLWD
 70
    -2
  9
$DIMLWE
 70
    -2
  9
$DIMTMOVE
 70
     0
  9
$LUNITS
 70
     2
  9
$LUPREC
 70
     2
  9
$SKETCHINC
 40
1.0
  9
$FILLETRAD
 40
10.0
  9
$AUNITS
 70
     0
  9
$AUPREC
 70
     2
  9
$MENU
  1
.
  9
$ELEVATION
 40
0.0
  9
$PELEVATION
 40
0.0
  9
$THICKNESS
 40
0.0
  9
$LIMCHECK
 70
     0
  9
$CHAMFERA
 40
0.0
  9
$CHAMFERB
 40
0.0
  9
$CHAMFERC
 40
0.0
  9
$CHAMFERD
 40
0.0
  9
$SKPOLY
 70
     0
  9
$TDCREATE
 40
2459278.336537373
  9
$TDUCREATE
 40
2459278.294870706
  9
$TDUPDATE
 40
2459278.336539421
  9
$TDUUPDATE
 40
2459278.294872755
  9
$TDINDWG
 40
0.0000000116
  9
$TDUSRTIMER
 40
0.0000000116
  9
$USRTIMER
 70
     1
  9
$ANGBASE
 50
0.0
  9
$ANGDIR
 70
     0
  9
$PDMODE
 70
     0
  9
$PDSIZE
 40
-1.0
  9
$PLINEWID
 40
0.0
  9
$SPLFRAME
 70
     0
  9
$SPLINETYPE
 70
     6
  9
$SPLINESEGS
 70
     8
  9
$HANDSEED
  5
39A
  9
$SURFTAB1
 70
     6
  9
$SURFTAB2
 70
     6
  9
$SURFTYPE
 70
     6
  9
$SURFU
 70
     6
  9
$SURFV
 70
     6
  9
$UCSBASE
  2

  9
$UCSNAME
  2

  9
$UCSORG
 10
0.0
 20
0.0
 30
0.0
  9
$UCSXDIR
 10
1.0
 20
0.0
 30
0.0
  9
$UCSYDIR
 10
0.0
 20
1.0
 30
0.0
  9
$UCSORTHOREF
  2

  9
$UCSORTHOVIEW
 70
     0
  9
$UCSORGTOP
 10
0.0
 20
0.0
 30
0.0
  9
$UCSORGBOTTOM
 10
0.0
 20
0.0
 30
0.0
  9
$UCSORGLEFT
 10
0.0
 20
0.0
 30
0.0
  9
$UCSORGRIGHT
 10
0.0
 20
0.0
 30
0.0
  9
$UCSORGFRONT
 10
0.0
 20
0.0
 30
0.0
  9
$UCSORGBACK
 10
0.0
 20
0.0
 30
0.0
  9
$PUCSBASE
  2

  9
$PUCSNAME
  2

  9
$PUCSORG
 10
0.0
 20
0.0
 30
0.0
  9
$PUCSXDIR
 10
1.0
 20
0.0
 30
0.0
  9
$PUCSYDIR
 10
0.0
 20
1.0
 30
0.0
  9
$PUCSORTHOREF
  2

  9
$PUCSORTHOVIEW
 70
     0
  9
$PUCSORGTOP
 10
0.0
 20
0.0
 30
0.0
  9
$PUCSORGBOTTOM
 10
0.0
 20
0.0
 30
0.0
  9
$PUCSORGLEFT
 10
0.0
 20
0.0
 30
0.0
  9
$PUCSORGRIGHT
 10
0.0
 20
0.0
 30
0.0
  9
$PUCSORGFRONT
 10
0.0
 20
0.0
 30
0.0
  9
$PUCSORGBACK
 10
0.0
 20
0.0
 30
0.0
  9
$USERI1
 70
     0
  9
$USERI2
 70
     0
  9
$USERI3
 70
     0
  9
$USERI4
 70
     0
  9
$USERI5
 70
     0
  9
$USERR1
 40
0.0
  9
$USERR2
 40
0.0
  9
$USERR3
 40
0.0
  9
$USERR4
 40
0.0
  9
$USERR5
 40
0.0
  9
$WORLDVIEW
 70
     1
  9
$SHADEDGE
 70
     3
  9
$SHADEDIF
 70
    70
  9
$TILEMODE
 70
     1
  9
$MAXACTVP
 70
    64
  9
$PINSBASE
 10
0.0
 20
0.0
 30
0.0
  9
$PLIMCHECK
 70
     0
  9
$PEXTMIN
 10
1.0000000000E+20
 20
1.0000000000E+20
 30
1.0000000000E+20
  9
$PEXTMAX
 10
-1.0000000000E+20
 20
-1.0000000000E+20
 30
-1.0000000000E+20
  9
$PLIMMIN
 10
0.0
 20
0.0
  9
$PLIMMAX
 10
420.0
 20
297.0
  9
$UNITMODE
 70
     0
  9
$VISRETAIN
 70
     1
  9
$PLINEGEN
 70
     0
  9
$PSLTSCALE
 70
     1
  9
$TREEDEPTH
 70
  3020
  9
$CMLSTYLE
  2
Standard
  9
$CMLJUST
 70
     0
  9
$CMLSCALE
 40
20.0
  9
$PROXYGRAPHICS
 70
     1
  9
$MEASUREMENT
 70
     1
  9
$CELWEIGHT
370
    -1
  9
$ENDCAPS
280
     0
  9
$JOINSTYLE
280
     0
  9
$LWDISPLAY
290
     1
  9
$INSUNITS
 70
     4
  9
$HYPERLINKBASE
  1

  9
$STYLESHEET
  1

  9
$XEDIT
290
     1
  9
$CEPSNTYPE
380
     0
  9
$PSTYLEMODE
290
     1
  9
$FINGERPRINTGUID
  2
{4CC04AAC-02BD-44FC-B2F5-5B73429069EE}
  9
$VERSIONGUID
  2
{FAEB1C32-E019-11D5-929B-00C0DF256EC4}
  9
$EXTNAMES
290
     1
  9
$PSVPSCALE
 40
0.0
  9
$OLESTARTUP
290
     0
  0
ENDSEC
  0
SECTION
  2
CLASSES
  0
CLASS
  1
ACDBDICTIONARYWDFLT
  2
AcDbDictionaryWithDefault
  3
ObjectDBX Classes
 90
        0
280
     0
281
     0
  0
CLASS
  1
VISUALSTYLE
  2
AcDbVisualStyle
  3
ObjectDBX Classes
 90
     4095
280
     0
281
     0
  0
CLASS
  1
MATERIAL
  2
AcDbMaterial
  3
ObjectDBX Classes
 90
     1153
280
     0
281
     0
  0
CLASS
  1
SCALE
  2
AcDbScale
  3
ObjectDBX Classes
 90
     1153
280
     0
281
     0
  0
CLASS
  1
TABLESTYLE
  2
AcDbTableStyle
  3
ObjectDBX Classes
 90
     4095
280
     0
281
     0
  0
CLASS
  1
MLEADERSTYLE
  2
AcDbMLeaderStyle
  3
ACDB_MLEADERSTYLE_CLASS
 90
     4095
280
     0
281
     0
  0
CLASS
  1
SUN
  2
AcDbSun
  3
SCENEOE
 90
     1153
280
     0
281
     0
  0
CLASS
  1
ACDBPLACEHOLDER
  2
AcDbPlaceHolder
  3
ObjectDBX Classes
 90
        0
280
     0
281
     0
  0
CLASS
  1
LAYOUT
  2
AcDbLayout
  3
ObjectDBX Classes
 90
        0
280
     0
281
     0
  0
ENDSEC
  0
SECTION
  2
TABLES
  0
TABLE
  2
VPORT
  5
8
330
0
100
AcDbSymbolTable
 70
     1
  0
VPORT
  5
29
330
8
100
AcDbSymbolTableRecord
100
AcDbViewportTableRecord
  2
*Active
 70
     0
 10
0.0
 20
0.0
 11
1.0
 21
1.0
 12
148.5
 22
105.0
 13
0.0
 23
0.0
 14
10.0
 24
10.0
 15
10.0
 25
10.0
 16
0.0
 26
0.0
 36
1.0
 17
0.0
 27
0.0
 37
0.0
 40
210.0
 41
1.4142857143
 42
50.0
 43
0.0
 44
0.0
 50
0.0
 51
0.0
 71
     0
 72
  2000
 73
     1
 74
     3
 75
     0
 76
     0
 77
     0
 78
     0
281
     0
 65
     1
110
0.0
120
0.0
130
0.0
111
1.0
121
0.0
131
0.0
112
0.0
122
1.0
132
0.0
 79
     0
146
0.0
  0
ENDTAB
  0
TABLE
  2
LTYPE
  5
5
330
0
100
AcDbSymbolTable
 70
     8
  0
LTYPE
  5
14
330
5
100
AcDbSymbolTableRecord
100
AcDbLinetypeTableRecord
  2
ByBlock
 70
     0
  3

 72
    65
 73
     0
 40
0.0
  0
LTYPE
  5
15
330
5
100
AcDbSymbolTableRecord
100
AcDbLinetypeTableRecord
  2
ByLayer
 70
     0
  3

 72
    65
 73
     0
 40
0.0
  0
LTYPE
  5
16
330
5
100
AcDbSymbolTableRecord
100
AcDbLinetypeTableRecord
  2
Continuous
 70
     0
  3
Solid line
 72
    65
 73
     0
 40
0.0
  0
LTYPE
  5
6E
330
5
100
AcDbSymbolTableRecord
100
AcDbLinetypeTableRecord
  2
SLD-Solid
 70
     0
  3
SolidWorks Line Style
 72
    65
 73
     0
 40
0.0
  0
LTYPE
  5
6F
330
5
100
AcDbSymbolTableRecord
100
AcDbLinetypeTableRecord
  2
SLD-Dashed
 70
     0
  3
SolidWorks Line Style
 72
    65
 73
     2
 40
1.905
 49
1.27
 74
     0
 49
-0.635
 74
     0
  0
LTYPE
  5
70
330
5
100
AcDbSymbolTableRecord
100
AcDbLinetypeTableRecord
  2
SLD-Phantom
 70
     0
  3
SolidWorks Line Style
 72
    65
 73
     6
 40
12.7
 49
6.35
 74
     0
 49
-1.27
 74
     0
 49
1.27
 74
     0
 49
-1.27
 74
     0
 49
1.27
 74
     0
 49
-1.27
 74
     0
  0
LTYPE
  5
71
330
5
100
AcDbSymbolTableRecord
100
AcDbLinetypeTableRecord
  2
SLD-Chain
 70
     0
  3
SolidWorks Line Style
 72
    65
 73
     4
 40
10.16
 49
6.35
 74
     0
 49
-1.27
 74
     0
 49
1.27
 74
     0
 49
-1.27
 74
     0
  0
LTYPE
  5
72
330
5
100
AcDbSymbolTableRecord
100
AcDbLinetypeTableRecord
  2
SLD-Center
 70
     0
  3
SolidWorks Line Style
 72
    65
 73
     4
 40
19.05
 49
15.24
 74
     0
 49
-1.27
 74
     0
 49
1.27
 74
     0
 49
-1.27
 74
     0
  0
LTYPE
  5
73
330
5
100
AcDbSymbolTableRecord
100
AcDbLinetypeTableRecord
  2
SLD-Stitch
 70
     0
  3
SolidWorks Line Style
 72
    65
 73
     2
 40
0.635
 49
0.0
 74
     0
 49
-0.635
 74
     0
  0
LTYPE
  5
74
330
5
100
AcDbSymbolTableRecord
100
AcDbLinetypeTableRecord
  2
SLD-Thin-Thick-Chain
 70
     0
  3
SolidWorks Line Style
 72
    65
 73
     4
 40
10.16
 49
6.35
 74
     0
 49
-1.27
 74
     0
 49
1.27
 74
     0
 49
-1.27
 74
     0
  0
ENDTAB
  0
TABLE
  2
LAYER
  5
2
330
0
100
AcDbSymbolTable
 70
    14
  0
LAYER
  5
10
330
2
100
AcDbSymbolTableRecord
100
AcDbLayerTableRecord
  2
0
 70
     0
 62
     7
  6
Continuous
370
    -3
390
F
  0
LAYER
  5
75
330
2
100
AcDbSymbolTableRecord
100
AcDbLayerTableRecord
  2
SLD-0
 70
     0
 62
   179
  6
SLD-Solid
370
    -3
390
F
  0
LAYER
  5
76
330
2
100
AcDbSymbolTableRecord
100
AcDbLayerTableRecord
  2
80
 70
     0
 62
    -6
  6
SLD-Solid
290
     0
370
    -3
390
F
  0
LAYER
  5
77
330
2
100
AcDbSymbolTableRecord
100
AcDbLayerTableRecord
  2
81
 70
     0
 62
    -3
  6
SLD-Solid
290
     0
370
    -3
390
F
  0
LAYER
  5
78
330
2
100
AcDbSymbolTableRecord
100
AcDbLayerTableRecord
  2
1
 70
     0
 62
     4
  6
SLD-Solid
290
     0
370
    -3
390
F
  0
LAYER
  5
79
330
2
100
AcDbSymbolTableRecord
100
AcDbLayerTableRecord
  2
4
 70
     0
 62
    -2
  6
SLD-Chain
290
     0
370
    -3
390
F
  0
LAYER
  5
7A
330
2
100
AcDbSymbolTableRecord
100
AcDbLayerTableRecord
  2
2
 70
     0
 62
     7
  6
SLD-Solid
290
     0
370
    -3
390
F
  0
LAYER
  5
7B
330
2
100
AcDbSymbolTableRecord
100
AcDbLayerTableRecord
  2
SK3
 70
     0
 62
     1
  6
SLD-Dashed
290
     0
370
    -3
390
F
  0
LAYER
  5
7C
330
2
100
AcDbSymbolTableRecord
100
AcDbLayerTableRecord
  2
SK4
 70
     0
 62
     2
  6
SLD-Chain
290
     0
370
    -3
390
F
  0
LAYER
  5
7D
330
2
100
AcDbSymbolTableRecord
100
AcDbLayerTableRecord
  2
SK2
 70
     0
 62
     7
  6
SLD-Solid
290
     0
370
    -3
390
F
  0
LAYER
  5
7E
330
2
100
AcDbSymbolTableRecord
100
AcDbLayerTableRecord
  2
SK6
 70
     0
 62
     5
  6
SLD-Solid
290
     0
370
    -3
390
F
  0
LAYER
  5
7F
330
2
100
AcDbSymbolTableRecord
100
AcDbLayerTableRecord
  2
6
 70
     0
 62
     5
  6
SLD-Solid
370
    -3
390
F
  0
LAYER
  5
80
330
2
100
AcDbSymbolTableRecord
100
AcDbLayerTableRecord
  2
SK1
 70
     0
 62
     4
  6
SLD-Solid
370
    -3
390
F
  0
LAYER
  5
81
330
2
100
AcDbSymbolTableRecord
100
AcDbLayerTableRecord
  2
LAYER5
 70
     0
 62
   218
  6
SLD-Solid
370
    -3
390
F
  0
ENDTAB
  0
TABLE
  2
STYLE
  5
3
330
0
100
AcDbSymbolTable
 70
     3
  0
STYLE
  5
11
330
3
100
AcDbSymbolTableRecord
100
AcDbTextStyleTableRecord
  2
Standard
 70
     0
 40
0.0
 41
1.0
 50
0.0
 71
     0
 42
3.5
  3
txt
  4

  0
STYLE
  5
2AB
330
3
100
AcDbSymbolTableRecord
100
AcDbTextStyleTableRecord
  2
SLDTEXTSTYLE0
 70
     0
 40
0.0
 41
0.75
 50
0.0
 71
     0
 42
3.5
  3
TXT
  4

  0
STYLE
  5
396
330
3
100
AcDbSymbolTableRecord
100
AcDbTextStyleTableRecord
  2
SLDTEXTSTYLE1
 70
     0
 40
0.0
 41
0.6666666667
 50
0.0
 71
     0
 42
3.5
  3
TXT
  4

  0
ENDTAB
  0
TABLE
  2
VIEW
  5
6
330
0
100
AcDbSymbolTable
 70
     0
  0
ENDTAB
  0
TABLE
  2
UCS
  5
7
330
0
100
AcDbSymbolTable
 70
     0
  0
ENDTAB
  0
TABLE
  2
APPID
  5
9
330
0
100
AcDbSymbolTable
 70
     1
  0
APPID
  5
12
330
9
100
AcDbSymbolTableRecord
100
AcDbRegAppTableRecord
  2
ACAD
 70
     0
  0
ENDTAB
  0
TABLE
  2
DIMSTYLE
  5
A
330
0
100
AcDbSymbolTable
 70
     5
100
AcDbDimStyleTable
  0
DIMSTYLE
105
27
330
A
100
AcDbSymbolTableRecord
100
AcDbDimStyleTableRecord
  2
ISO-25
 70
     0
 41
2.5
 42
0.625
 43
3.75
 44
1.25
 73
     0
 74
     0
 77
     1
 78
     8
140
2.5
141
2.5
143
0.0393700787
147
0.625
171
     3
172
     1
178
     0
271
     2
272
     2
274
     3
278
    44
283
     0
284
     8
340
11
  0
DIMSTYLE
105
2AC
102
{ACAD_REACTORS
330
2AA
330
2BF
330
2D2
330
2E5
330
2F8
330
32B
330
33D
330
34F
330
362
102
}
330
A
100
AcDbSymbolTableRecord
100
AcDbDimStyleTableRecord
  2
SLDDIMSTYLE0
 70
     0
 41
3.302
 44
0.0
 45
0.000000001
 73
     0
 74
     0
 77
     1
 78
    12
 79
     3
140
3.5
143
0.0393700787
147
0.875
148
0.000000001
170
     1
173
     1
178
     0
271
     2
272
     2
276
     2
284
    12
340
2AB
  0
DIMSTYLE
105
30C
102
{ACAD_REACTORS
330
30B
330
382
330
38D
102
}
330
A
100
AcDbSymbolTableRecord
100
AcDbDimStyleTableRecord
  2
SLDDIMSTYLE1
 70
     0
 41
3.302
 44
0.0
 45
0.000000001
 73
     0
 74
     0
 77
     1
 78
    12
 79
     3
140
3.5
147
0.875
173
     1
178
     0
271
     2
272
     2
276
     2
284
    12
340
2AB
  0
DIMSTYLE
105
317
102
{ACAD_REACTORS
330
316
102
}
330
A
100
AcDbSymbolTableRecord
100
AcDbDimStyleTableRecord
  2
SLDDIMSTYLE2
 70
     0
 41
3.302
 44
0.0
 45
0.000000001
 73
     0
 74
     0
 77
     1
 78
    12
 79
     3
140
3.5
143
0.0393700787
147
0.875
148
0.000000001
170
     1
172
     1
173
     1
178
     0
271
     2
272
     2
276
     2
284
    12
289
     0
340
2AB
  0
DIMSTYLE
105
376
102
{ACAD_REACTORS
330
375
102
}
330
A
100
AcDbSymbolTableRecord
100
AcDbDimStyleTableRecord
  2
SLDDIMSTYLE3
 70
     0
 41
3.302
 44
0.0
 45
0.000000001
 73
     0
 74
     0
 77
     1
 78
    12
 79
     3
140
3.5
147
0.875
172
     1
173
     1
178
     0
271
     2
272
     2
276
     2
284
    12
289
     0
340
2AB
  0
ENDTAB
  0
TABLE
  2
BLOCK_RECORD
  5
1
330
0
100
AcDbSymbolTable
 70
    15
  0
BLOCK_RECORD
  5
1F
330
1
100
AcDbSymbolTableRecord
100
AcDbBlockTableRecord
  2
*Model_Space
340
22
  0
BLOCK_RECORD
  5
1B
330
1
100
AcDbSymbolTableRecord
100
AcDbBlockTableRecord
  2
*Paper_Space
340
1E
  0
BLOCK_RECORD
  5
23
330
1
100
AcDbSymbolTableRecord
100
AcDbBlockTableRecord
  2
*Paper_Space0
340
26
  0
BLOCK_RECORD
  5
2AD
330
1
100
AcDbSymbolTableRecord
100
AcDbBlockTableRecord
  2
_D
340
0
  0
BLOCK_RECORD
  5
2C0
330
1
100
AcDbSymbolTableRecord
100
AcDbBlockTableRecord
  2
_D_1
340
0
  0
BLOCK_RECORD
  5
2D3
330
1
100
AcDbSymbolTableRecord
100
AcDbBlockTableRecord
  2
_D_2
340
0
  0
BLOCK_RECORD
  5
2E6
330
1
100
AcDbSymbolTableRecord
100
AcDbBlockTableRecord
  2
_D_3
340
0
  0
BLOCK_RECORD
  5
2F9
330
1
100
AcDbSymbolTableRecord
100
AcDbBlockTableRecord
  2
_D_4
340
0
  0
BLOCK_RECORD
  5
30D
330
1
100
AcDbSymbolTableRecord
100
AcDbBlockTableRecord
  2
_D_5
340
0
  0
BLOCK_RECORD
  5
318
330
1
100
AcDbSymbolTableRecord
100
AcDbBlockTableRecord
  2
_D_6
340
0
  0
BLOCK_RECORD
  5
32C
330
1
100
AcDbSymbolTableRecord
100
AcDbBlockTableRecord
  2
_D_7
340
0
  0
BLOCK_RECORD
  5
33E
330
1
100
AcDbSymbolTableRecord
100
AcDbBlockTableRecord
  2
_D_8
340
0
  0
BLOCK_RECORD
  5
350
330
1
100
AcDbSymbolTableRecord
100
AcDbBlockTableRecord
  2
_D_9
340
0
  0
BLOCK_RECORD
  5
363
330
1
100
AcDbSymbolTableRecord
100
AcDbBlockTableRecord
  2
_D_10
340
0
  0
BLOCK_RECORD
  5
377
330
1
100
AcDbSymbolTableRecord
100
AcDbBlockTableRecord
  2
_D_11
340
0
  0
BLOCK_RECORD
  5
383
330
1
100
AcDbSymbolTableRecord
100
AcDbBlockTableRecord
  2
_D_12
340
0
  0
BLOCK_RECORD
  5
38E
330
1
100
AcDbSymbolTableRecord
100
AcDbBlockTableRecord
  2
_D_13
340
0
  0
ENDTAB
  0
ENDSEC
  0
SECTION
  2
BLOCKS
  0
BLOCK
  5
20
330
1F
100
AcDbEntity
  8
0
100
AcDbBlockBegin
  2
*Model_Space
 70
     0
 10
0.0
 20
0.0
 30
0.0
  3
*Model_Space
  1

  0
ENDBLK
  5
21
330
1F
100
AcDbEntity
  8
0
100
AcDbBlockEnd
  0
BLOCK
  5
1C
330
1B
100
AcDbEntity
 67
     1
  8
0
100
AcDbBlockBegin
  2
*Paper_Space
 70
     0
 10
0.0
 20
0.0
 30
0.0
  3
*Paper_Space
  1

  0
ENDBLK
  5
1D
330
1B
100
AcDbEntity
 67
     1
  8
0
100
AcDbBlockEnd
  0
BLOCK
  5
24
330
23
100
AcDbEntity
  8
0
100
AcDbBlockBegin
  2
*Paper_Space0
 70
     0
 10
0.0
 20
0.0
 30
0.0
  3
*Paper_Space0
  1

  0
ENDBLK
  5
25
330
23
100
AcDbEntity
  8
0
100
AcDbBlockEnd
  0
BLOCK
  5
2AE
330
2AD
100
AcDbEntity
  8
0
100
AcDbBlockBegin
  2
_D
 70
     0
 10
0.0
 20
0.0
 30
0.0
  3
_D
  1

  0
SOLID
  5
2B0
330
2AD
100
AcDbEntity
  8
2
100
AcDbTrace
 10
-0.0000001842
 20
73.6712504946
 30
0.0
 11
3.3019998158
 21
73.1632504946
 31
0.0
 12
3.3019998158
 22
74.1792504946
 32
0.0
 13
3.3019998158
 23
74.1792504946
 33
0.0
  0
SOLID
  5
2B1
330
2AD
100
AcDbEntity
  8
2
100
AcDbTrace
 10
101.5999985879
 20
73.6712504946
 30
0.0
 11
98.2979985879
 21
74.1792504946
 31
0.0
 12
98.2979985879
 22
73.1632504946
 32
0.0
 13
98.2979985879
 23
73.1632504946
 33
0.0
  0
LINE
  5
2B2
330
2AD
100
AcDbEntity
  8
2
100
AcDbLine
 10
32.0090693892
 20
84.4641322106
 30
0.0
 11
30.9426631318
 21
84.4641322106
 31
0.0
  0
LINE
  5
2B3
330
2AD
100
AcDbEntity
  8
2
100
AcDbLine
 10
30.9426631318
 20
84.4641322106
 30
0.0
 11
30.9426631318
 21
78.9078822196
 31
0.0
  0
LINE
  5
2B4
330
2AD
100
AcDbEntity
  8
2
100
AcDbLine
 10
30.9426631318
 20
78.9078822196
 30
0.0
 11
32.0090693892
 21
78.9078822196
 31
0.0
  0
LINE
  5
2B5
330
2AD
100
AcDbEntity
  8
2
100
AcDbLine
 10
41.0604584501
 20
84.4641322106
 30
0.0
 11
42.1268647076
 21
84.4641322106
 31
0.0
  0
LINE
  5
2B6
330
2AD
100
AcDbEntity
  8
2
100
AcDbLine
 10
42.1268647076
 20
84.4641322106
 30
0.0
 11
42.1268647076
 21
78.9078822196
 31
0.0
  0
LINE
  5
2B7
330
2AD
100
AcDbEntity
  8
2
100
AcDbLine
 10
42.1268647076
 20
78.9078822196
 30
0.0
 11
41.0604584501
 21
78.9078822196
 31
0.0
  0
LINE
  5
2B8
330
2AD
100
AcDbEntity
  8
2
100
AcDbLine
 10
-0.0000001842
 20
35.9249988794
 30
0.0
 11
-0.0000001842
 21
74.6712504946
 31
0.0
  0
LINE
  5
2B9
330
2AD
100
AcDbEntity
  8
2
100
AcDbLine
 10
101.5999985879
 20
18.7800003439
 30
0.0
 11
101.5999985879
 21
74.6712504946
 31
0.0
  0
LINE
  5
2BA
330
2AD
100
AcDbEntity
  8
2
100
AcDbLine
 10
-0.0000001842
 20
73.6712504946
 30
0.0
 11
101.5999985879
 21
73.6712504946
 31
0.0
  0
MTEXT
  5
2BB
330
2AD
100
AcDbEntity
  8
2
100
AcDbMText
 10
29.8957012776
 20
78.2364597604
 30
0.0
 40
3.5
 41
0.0
 71
     1
 72
     1
  1

  7
SLDTEXTSTYLE0
 73
     1
 44
1.0
  0
MTEXT
  5
2BC
330
2AD
100
AcDbEntity
  8
2
100
AcDbMText
 10
32.0090693892
 20
83.4196191342
 30
0.0
 40
3.5
 41
0.0
 71
     1
 72
     1
  1
4,00
  7
SLDTEXTSTYLE0
 73
     1
 44
1.0
  0
MTEXT
  5
2BD
330
2AD
100
AcDbEntity
  8
2
100
AcDbMText
 10
30.7160136761
 20
78.1829875838
 30
0.0
 40
3.5
 41
0.0
 71
     1
 72
     1
  1
101,6
  7
SLDTEXTSTYLE0
 73
     1
 44
1.0
  0
MTEXT
  5
2BE
330
2AD
100
AcDbEntity
  8
2
100
AcDbMText
 10
44.5057710815
 20
78.2364597604
 30
0.0
 40
3.5
 41
0.0
 71
     1
 72
     1
  1

  7
SLDTEXTSTYLE0
 73
     1
 44
1.0
  0
ENDBLK
  5
2AF
330
2AD
100
AcDbEntity
  8
0
100
AcDbBlockEnd
  0
BLOCK
  5
2C1
330
2C0
100
AcDbEntity
  8
0
100
AcDbBlockBegin
  2
_D_1
 70
     0
 10
0.0
 20
0.0
 30
0.0
  3
_D_1
  1

  0
SOLID
  5
2C3
330
2C0
100
AcDbEntity
  8
SK2
100
AcDbTrace
 10
101.5999985879
 20
60.0593450707
 30
0.0
 11
98.2979985879
 21
60.5673450707
 31
0.0
 12
98.2979985879
 22
59.5513450707
 32
0.0
 13
98.2979985879
 23
59.5513450707
 33
0.0
  0
SOLID
  5
2C4
330
2C0
100
AcDbEntity
  8
SK2
100
AcDbTrace
 10
19.05
 20
60.0593450707
 30
0.0
 11
22.352
 21
59.5513450707
 31
0.0
 12
22.352
 22
60.5673450707
 32
0.0
 13
22.352
 23
60.5673450707
 33
0.0
  0
LINE
  5
2C5
330
2C0
100
AcDbEntity
  8
SK2
100
AcDbLine
 10
42.4924465436
 20
70.8522267868
 30
0.0
 11
41.4260402862
 21
70.8522267868
 31
0.0
  0
LINE
  5
2C6
330
2C0
100
AcDbEntity
  8
SK2
100
AcDbLine
 10
41.4260402862
 20
70.8522267868
 30
0.0
 11
41.4260402862
 21
65.2959767957
 31
0.0
  0
LINE
  5
2C7
330
2C0
100
AcDbEntity
  8
SK2
100
AcDbLine
 10
41.4260402862
 20
65.2959767957
 30
0.0
 11
42.4924465436
 21
65.2959767957
 31
0.0
  0
LINE
  5
2C8
330
2C0
100
AcDbEntity
  8
SK2
100
AcDbLine
 10
51.5438356046
 20
70.8522267868
 30
0.0
 11
52.610241862
 21
70.8522267868
 31
0.0
  0
LINE
  5
2C9
330
2C0
100
AcDbEntity
  8
SK2
100
AcDbLine
 10
52.610241862
 20
70.8522267868
 30
0.0
 11
52.610241862
 21
65.2959767957
 31
0.0
  0
LINE
  5
2CA
330
2C0
100
AcDbEntity
  8
SK2
100
AcDbLine
 10
52.610241862
 20
65.2959767957
 30
0.0
 11
51.5438356046
 21
65.2959767957
 31
0.0
  0
LINE
  5
2CB
330
2C0
100
AcDbEntity
  8
SK2
100
AcDbLine
 10
101.5999985879
 20
18.7800003439
 30
0.0
 11
101.5999985879
 21
61.0593450707
 31
0.0
  0
LINE
  5
2CC
330
2C0
100
AcDbEntity
  8
SK2
100
AcDbLine
 10
19.05
 20
47.5560855313
 30
0.0
 11
19.05
 21
61.0593450707
 31
0.0
  0
LINE
  5
2CD
330
2C0
100
AcDbEntity
  8
SK2
100
AcDbLine
 10
101.5999985879
 20
60.0593450707
 30
0.0
 11
19.05
 21
60.0593450707
 31
0.0
  0
MTEXT
  5
2CE
330
2C0
100
AcDbEntity
  8
SK2
100
AcDbMText
 10
40.379078432
 20
64.6245543366
 30
0.0
 40
3.5
 41
0.0
 71
     1
 72
     1
  1

  7
SLDTEXTSTYLE0
 73
     1
 44
1.0
  0
MTEXT
  5
2CF
330
2C0
100
AcDbEntity
  8
SK2
100
AcDbMText
 10
42.4924465436
 20
69.8077137103
 30
0.0
 40
3.5
 41
0.0
 71
     1
 72
     1
  1
3,25
  7
SLDTEXTSTYLE0
 73
     1
 44
1.0
  0
MTEXT
  5
2D0
330
2C0
100
AcDbEntity
  8
SK2
100
AcDbMText
 10
41.1993908305
 20
64.5710821599
 30
0.0
 40
3.5
 41
0.0
 71
     1
 72
     1
  1
82,55
  7
SLDTEXTSTYLE0
 73
     1
 44
1.0
  0
MTEXT
  5
2D1
330
2C0
100
AcDbEntity
  8
SK2
100
AcDbMText
 10
54.9891482359
 20
64.6245543366
 30
0.0
 40
3.5
 41
0.0
 71
     1
 72
     1
  1

  7
SLDTEXTSTYLE0
 73
     1
 44
1.0
  0
ENDBLK
  5
2C2
330
2C0
100
AcDbEntity
  8
0
100
AcDbBlockEnd
  0
BLOCK
  5
2D4
330
2D3
100
AcDbEntity
  8
0
100
AcDbBlockBegin
  2
_D_2
 70
     0
 10
0.0
 20
0.0
 30
0.0
  3
_D_2
  1

  0
SOLID
  5
2D6
330
2D3
100
AcDbEntity
  8
SK2
100
AcDbTrace
 10
35.1000012815
 20
48.0132931198
 30
0.0
 11
38.4020012815
 21
47.5052931198
 31
0.0
 12
38.4020012815
 22
48.5212931198
 32
0.0
 13
38.4020012815
 23
48.5212931198
 33
0.0
  0
SOLID
  5
2D7
330
2D3
100
AcDbEntity
  8
SK2
100
AcDbTrace
 10
101.5999985879
 20
48.0132931198
 30
0.0
 11
98.2979985879
 21
48.5212931198
 31
0.0
 12
98.2979985879
 22
47.5052931198
 32
0.0
 13
98.2979985879
 23
47.5052931198
 33
0.0
  0
LINE
  5
2D8
330
2D3
100
AcDbEntity
  8
SK2
100
AcDbLine
 10
62.65373328
 20
58.8061748358
 30
0.0
 11
61.5873270226
 21
58.8061748358
 31
0.0
  0
LINE
  5
2D9
330
2D3
100
AcDbEntity
  8
SK2
100
AcDbLine
 10
61.5873270226
 20
58.8061748358
 30
0.0
 11
61.5873270226
 21
53.2499248447
 31
0.0
  0
LINE
  5
2DA
330
2D3
100
AcDbEntity
  8
SK2
100
AcDbLine
 10
61.5873270226
 20
53.2499248447
 30
0.0
 11
62.65373328
 21
53.2499248447
 31
0.0
  0
LINE
  5
2DB
330
2D3
100
AcDbEntity
  8
SK2
100
AcDbLine
 10
71.7051223409
 20
58.8061748358
 30
0.0
 11
72.7715285984
 21
58.8061748358
 31
0.0
  0
LINE
  5
2DC
330
2D3
100
AcDbEntity
  8
SK2
100
AcDbLine
 10
72.7715285984
 20
58.8061748358
 30
0.0
 11
72.7715285984
 21
53.2499248447
 31
0.0
  0
LINE
  5
2DD
330
2D3
100
AcDbEntity
  8
SK2
100
AcDbLine
 10
72.7715285984
 20
53.2499248447
 30
0.0
 11
71.7051223409
 21
53.2499248447
 31
0.0
  0
LINE
  5
2DE
330
2D3
100
AcDbEntity
  8
SK2
100
AcDbLine
 10
35.1000012815
 20
34.4010005513
 30
0.0
 11
35.1000012815
 21
49.0132931198
 31
0.0
  0
LINE
  5
2DF
330
2D3
100
AcDbEntity
  8
SK2
100
AcDbLine
 10
101.5999985879
 20
18.7800003439
 30
0.0
 11
101.5999985879
 21
49.0132931198
 31
0.0
  0
LINE
  5
2E0
330
2D3
100
AcDbEntity
  8
SK2
100
AcDbLine
 10
35.1000012815
 20
48.0132931198
 30
0.0
 11
101.5999985879
 21
48.0132931198
 31
0.0
  0
MTEXT
  5
2E1
330
2D3
100
AcDbEntity
  8
SK2
100
AcDbMText
 10
60.5403651683
 20
52.5785023856
 30
0.0
 40
3.5
 41
0.0
 71
     1
 72
     1
  1

  7
SLDTEXTSTYLE0
 73
     1
 44
1.0
  0
MTEXT
  5
2E2
330
2D3
100
AcDbEntity
  8
SK2
100
AcDbMText
 10
62.65373328
 20
57.7616617593
 30
0.0
 40
3.5
 41
0.0
 71
     1
 72
     1
  1
2,62
  7
SLDTEXTSTYLE0
 73
     1
 44
1.0
  0
MTEXT
  5
2E3
330
2D3
100
AcDbEntity
  8
SK2
100
AcDbMText
 10
62.65373328
 20
52.525030209
 30
0.0
 40
3.5
 41
0.0
 71
     1
 72
     1
  1
66,5
  7
SLDTEXTSTYLE0
 73
     1
 44
1.0
  0
MTEXT
  5
2E4
330
2D3
100
AcDbEntity
  8
SK2
100
AcDbMText
 10
75.1504349722
 20
52.5785023856
 30
0.0
 40
3.5
 41
0.0
 71
     1
 72
     1
  1

  7
SLDTEXTSTYLE0
 73
     1
 44
1.0
  0
ENDBLK
  5
2D5
330
2D3
100
AcDbEntity
  8
0
100
AcDbBlockEnd
  0
BLOCK
  5
2E7
330
2E6
100
AcDbEntity
  8
0
100
AcDbBlockBegin
  2
_D_3
 70
     0
 10
0.0
 20
0.0
 30
0.0
  3
_D_3
  1

  0
SOLID
  5
2E9
330
2E6
100
AcDbEntity
  8
SK2
100
AcDbTrace
 10
101.5999985879
 20
35.079640922
 30
0.0
 11
98.2979985879
 21
35.587640922
 31
0.0
 12
98.2979985879
 22
34.571640922
 32
0.0
 13
98.2979985879
 23
34.571640922
 33
0.0
  0
SOLID
  5
2EA
330
2E6
100
AcDbEntity
  8
SK2
100
AcDbTrace
 10
73.025
 20
35.079640922
 30
0.0
 11
76.327
 21
34.571640922
 31
0.0
 12
76.327
 22
35.587640922
 32
0.0
 13
76.327
 23
35.587640922
 33
0.0
  0
LINE
  5
2EB
330
2E6
100
AcDbEntity
  8
SK2
100
AcDbLine
 10
81.0398075701
 20
45.872522638
 30
0.0
 11
79.9734013127
 21
45.872522638
 31
0.0
  0
LINE
  5
2EC
330
2E6
100
AcDbEntity
  8
SK2
100
AcDbLine
 10
79.9734013127
 20
45.872522638
 30
0.0
 11
79.9734013127
 21
40.316272647
 31
0.0
  0
LINE
  5
2ED
330
2E6
100
AcDbEntity
  8
SK2
100
AcDbLine
 10
79.9734013127
 20
40.316272647
 30
0.0
 11
81.0398075701
 21
40.316272647
 31
0.0
  0
LINE
  5
2EE
330
2E6
100
AcDbEntity
  8
SK2
100
AcDbLine
 10
90.091196631
 20
45.872522638
 30
0.0
 11
91.1576028885
 21
45.872522638
 31
0.0
  0
LINE
  5
2EF
330
2E6
100
AcDbEntity
  8
SK2
100
AcDbLine
 10
91.1576028885
 20
45.872522638
 30
0.0
 11
91.1576028885
 21
40.316272647
 31
0.0
  0
LINE
  5
2F0
330
2E6
100
AcDbEntity
  8
SK2
100
AcDbLine
 10
91.1576028885
 20
40.316272647
 30
0.0
 11
90.091196631
 21
40.316272647
 31
0.0
  0
LINE
  5
2F1
330
2E6
100
AcDbEntity
  8
SK2
100
AcDbLine
 10
101.5999985879
 20
18.7800003439
 30
0.0
 11
101.5999985879
 21
36.079640922
 31
0.0
  0
LINE
  5
2F2
330
2E6
100
AcDbEntity
  8
SK2
100
AcDbLine
 10
73.025
 20
26.3
 30
0.0
 11
73.025
 21
36.079640922
 31
0.0
  0
LINE
  5
2F3
330
2E6
100
AcDbEntity
  8
SK2
100
AcDbLine
 10
101.5999985879
 20
35.079640922
 30
0.0
 11
73.025
 21
35.079640922
 31
0.0
  0
MTEXT
  5
2F4
330
2E6
100
AcDbEntity
  8
SK2
100
AcDbMText
 10
78.9264394585
 20
39.6448501878
 30
0.0
 40
3.5
 41
0.0
 71
     1
 72
     1
  1

  7
SLDTEXTSTYLE0
 73
     1
 44
1.0
  0
MTEXT
  5
2F5
330
2E6
100
AcDbEntity
  8
SK2
100
AcDbMText
 10
81.0398075701
 20
44.8280095615
 30
0.0
 40
3.5
 41
0.0
 71
     1
 72
     1
  1
1,12
  7
SLDTEXTSTYLE0
 73
     1
 44
1.0
  0
MTEXT
  5
2F6
330
2E6
100
AcDbEntity
  8
SK2
100
AcDbMText
 10
79.7467518569
 20
39.5913780112
 30
0.0
 40
3.5
 41
0.0
 71
     1
 72
     1
  1
28,57
  7
SLDTEXTSTYLE0
 73
     1
 44
1.0
  0
MTEXT
  5
2F7
330
2E6
100
AcDbEntity
  8
SK2
100
AcDbMText
 10
93.5365092624
 20
39.6448501878
 30
0.0
 40
3.5
 41
0.0
 71
     1
 72
     1
  1

  7
SLDTEXTSTYLE0
 73
     1
 44
1.0
  0
ENDBLK
  5
2E8
330
2E6
100
AcDbEntity
  8
0
100
AcDbBlockEnd
  0
BLOCK
  5
2FA
330
2F9
100
AcDbEntity
  8
0
100
AcDbBlockBegin
  2
_D_4
 70
     0
 10
0.0
 20
0.0
 30
0.0
  3
_D_4
  1

  0
SOLID
  5
2FC
330
2F9
100
AcDbEntity
  8
SK2
100
AcDbTrace
 10
73.025
 20
35.079640922
 30
0.0
 11
69.723
 21
35.587640922
 31
0.0
 12
69.723
 22
34.571640922
 32
0.0
 13
69.723
 23
34.571640922
 33
0.0
  0
SOLID
  5
2FD
330
2F9
100
AcDbEntity
  8
SK2
100
AcDbTrace
 10
47.625
 20
35.079640922
 30
0.0
 11
50.927
 21
34.571640922
 31
0.0
 12
50.927
 22
35.587640922
 32
0.0
 13
50.927
 23
35.587640922
 33
0.0
  0
LINE
  5
2FE
330
2F9
100
AcDbEntity
  8
SK2
100
AcDbLine
 10
56.6941060647
 20
45.872522638
 30
0.0
 11
55.6276998073
 21
45.872522638
 31
0.0
  0
LINE
  5
2FF
330
2F9
100
AcDbEntity
  8
SK2
100
AcDbLine
 10
55.6276998073
 20
45.872522638
 30
0.0
 11
55.6276998073
 21
40.316272647
 31
0.0
  0
LINE
  5
300
330
2F9
100
AcDbEntity
  8
SK2
100
AcDbLine
 10
55.6276998073
 20
40.316272647
 30
0.0
 11
56.6941060647
 21
40.316272647
 31
0.0
  0
LINE
  5
301
330
2F9
100
AcDbEntity
  8
SK2
100
AcDbLine
 10
65.7454951257
 20
45.872522638
 30
0.0
 11
66.8119013831
 21
45.872522638
 31
0.0
  0
LINE
  5
302
330
2F9
100
AcDbEntity
  8
SK2
100
AcDbLine
 10
66.8119013831
 20
45.872522638
 30
0.0
 11
66.8119013831
 21
40.316272647
 31
0.0
  0
LINE
  5
303
330
2F9
100
AcDbEntity
  8
SK2
100
AcDbLine
 10
66.8119013831
 20
40.316272647
 30
0.0
 11
65.7454951257
 21
40.316272647
 31
0.0
  0
LINE
  5
304
330
2F9
100
AcDbEntity
  8
SK2
100
AcDbLine
 10
73.025
 20
26.3
 30
0.0
 11
73.025
 21
36.079640922
 31
0.0
  0
LINE
  5
305
330
2F9
100
AcDbEntity
  8
SK2
100
AcDbLine
 10
47.625
 20
26.3
 30
0.0
 11
47.625
 21
36.079640922
 31
0.0
  0
LINE
  5
306
330
2F9
100
AcDbEntity
  8
SK2
100
AcDbLine
 10
73.025
 20
35.079640922
 30
0.0
 11
47.625
 21
35.079640922
 31
0.0
  0
MTEXT
  5
307
330
2F9
100
AcDbEntity
  8
SK2
100
AcDbMText
 10
54.5807379531
 20
39.6448501878
 30
0.0
 40
3.5
 41
0.0
 71
     1
 72
     1
  1

  7
SLDTEXTSTYLE0
 73
     1
 44
1.0
  0
MTEXT
  5
308
330
2F9
100
AcDbEntity
  8
SK2
100
AcDbMText
 10
56.6941060647
 20
44.8280095615
 30
0.0
 40
3.5
 41
0.0
 71
     1
 72
     1
  1
1,00
  7
SLDTEXTSTYLE0
 73
     1
 44
1.0
  0
MTEXT
  5
309
330
2F9
100
AcDbEntity
  8
SK2
100
AcDbMText
 10
56.6941060647
 20
39.5913780112
 30
0.0
 40
3.5
 41
0.0
 71
     1
 72
     1
  1
25,4
  7
SLDTEXTSTYLE0
 73
     1
 44
1.0
  0
MTEXT
  5
30A
330
2F9
100
AcDbEntity
  8
SK2
100
AcDbMText
 10
69.190807757
 20
39.6448501878
 30
0.0
 40
3.5
 41
0.0
 71
     1
 72
     1
  1

  7
SLDTEXTSTYLE0
 73
     1
 44
1.0
  0
ENDBLK
  5
2FB
330
2F9
100
AcDbEntity
  8
0
100
AcDbBlockEnd
  0
BLOCK
  5
30E
330
30D
100
AcDbEntity
  8
0
100
AcDbBlockBegin
  2
_D_5
 70
     0
 10
0.0
 20
0.0
 30
0.0
  3
_D_5
  1

  0
SOLID
  5
310
330
30D
100
AcDbEntity
  8
SK2
100
AcDbTrace
 10
-0.0000001842
 20
60.0593450707
 30
0.0
 11
3.3019998158
 21
59.5513450707
 31
0.0
 12
3.3019998158
 22
60.5673450707
 32
0.0
 13
3.3019998158
 23
60.5673450707
 33
0.0
  0
SOLID
  5
311
330
30D
100
AcDbEntity
  8
SK2
100
AcDbTrace
 10
19.05
 20
60.0593450707
 30
0.0
 11
15.748
 21
60.5673450707
 31
0.0
 12
15.748
 22
59.5513450707
 32
0.0
 13
15.748
 23
59.5513450707
 33
0.0
  0
LINE
  5
312
330
30D
100
AcDbEntity
  8
SK2
100
AcDbLine
 10
-0.0000001842
 20
35.9249988794
 30
0.0
 11
-0.0000001842
 21
61.0593450707
 31
0.0
  0
LINE
  5
313
330
30D
100
AcDbEntity
  8
SK2
100
AcDbLine
 10
19.05
 20
47.5560855313
 30
0.0
 11
19.05
 21
61.0593450707
 31
0.0
  0
LINE
  5
314
330
30D
100
AcDbEntity
  8
SK2
100
AcDbLine
 10
-0.0000001842
 20
60.0593450707
 30
0.0
 11
19.05
 21
60.0593450707
 31
0.0
  0
MTEXT
  5
315
330
30D
100
AcDbEntity
  8
SK2
100
AcDbMText
 10
3.4128332461
 20
64.5710819853
 30
0.0
 40
3.5
 41
0.0
 71
     1
 72
     1
  1
19,05
  7
SLDTEXTSTYLE0
 73
     1
 44
1.0
  0
ENDBLK
  5
30F
330
30D
100
AcDbEntity
  8
0
100
AcDbBlockEnd
  0
BLOCK
  5
319
330
318
100
AcDbEntity
  8
0
100
AcDbBlockBegin
  2
_D_6
 70
     0
 10
0.0
 20
0.0
 30
0.0
  3
_D_6
  1

  0
SOLID
  5
31B
330
318
100
AcDbEntity
  8
SK2
100
AcDbTrace
 10
120.397606978
 20
12.6999998465
 30
0.0
 11
120.905606978
 21
16.0019998465
 31
0.0
 12
119.889606978
 22
16.0019998465
 32
0.0
 13
119.889606978
 23
16.0019998465
 33
0.0
  0
SOLID
  5
31C
330
318
100
AcDbEntity
  8
SK2
100
AcDbTrace
 10
120.397606978
 20
-12.6999998465
 30
0.0
 11
119.889606978
 21
-16.0019998465
 31
0.0
 12
120.905606978
 22
-16.0019998465
 32
0.0
 13
120.905606978
 23
-16.0019998465
 33
0.0
  0
LINE
  5
31D
330
318
100
AcDbEntity
  8
SK2
100
AcDbLine
 10
109.604725262
 20
-4.25533474
 30
0.0
 11
109.604725262
 21
-5.3217409975
 31
0.0
  0
LINE
  5
31E
330
318
100
AcDbEntity
  8
SK2
100
AcDbLine
 10
109.604725262
 20
-5.3217409975
 30
0.0
 11
115.160975253
 21
-5.3217409975
 31
0.0
  0
LINE
  5
31F
330
318
100
AcDbEntity
  8
SK2
100
AcDbLine
 10
115.160975253
 20
-5.3217409975
 30
0.0
 11
115.160975253
 21
-4.25533474
 31
0.0
  0
LINE
  5
320
330
318
100
AcDbEntity
  8
SK2
100
AcDbLine
 10
109.604725262
 20
4.7960543209
 30
0.0
 11
109.604725262
 21
5.8624605784
 31
0.0
  0
LINE
  5
321
330
318
100
AcDbEntity
  8
SK2
100
AcDbLine
 10
109.604725262
 20
5.8624605784
 30
0.0
 11
115.160975253
 21
5.8624605784
 31
0.0
  0
LINE
  5
322
330
318
100
AcDbEntity
  8
SK2
100
AcDbLine
 10
115.160975253
 20
5.8624605784
 30
0.0
 11
115.160975253
 21
4.7960543209
 31
0.0
  0
LINE
  5
323
330
318
100
AcDbEntity
  8
SK2
100
AcDbLine
 10
101.1000031829
 20
12.6999998465
 30
0.0
 11
121.397606978
 21
12.6999998465
 31
0.0
  0
LINE
  5
324
330
318
100
AcDbEntity
  8
SK2
100
AcDbLine
 10
101.1000031829
 20
-12.6999998465
 30
0.0
 11
121.397606978
 21
-12.6999998465
 31
0.0
  0
LINE
  5
325
330
318
100
AcDbEntity
  8
SK2
100
AcDbLine
 10
120.397606978
 20
12.6999998465
 30
0.0
 11
120.397606978
 21
19.0499998465
 31
0.0
  0
LINE
  5
326
330
318
100
AcDbEntity
  8
SK2
100
AcDbLine
 10
120.397606978
 20
12.6999998465
 30
0.0
 11
120.397606978
 21
-12.6999998465
 31
0.0
  0
LINE
  5
327
330
318
100
AcDbEntity
  8
SK2
100
AcDbLine
 10
120.397606978
 20
-12.6999998465
 30
0.0
 11
120.397606978
 21
-19.0499998465
 31
0.0
  0
MTEXT
  5
328
330
318
100
AcDbEntity
  8
SK2
100
AcDbMText
 10
110.6492383385
 20
-4.25533474
 30
0.0
 40
3.5
 41
0.0
 71
     1
 72
     1
  1
1,00
  7
SLDTEXTSTYLE0
 11
-7.044195017643634E-15
 21
1.0
 31
0.0
 73
     1
 44
1.0
  0
MTEXT
  5
329
330
318
100
AcDbEntity
  8
SK2
100
AcDbMText
 10
115.8858698888
 20
-6.8945539049
 30
0.0
 40
3.5
 41
0.0
 71
     1
 72
     1
  1
%%c
  7
SLDTEXTSTYLE0
 11
-7.044195017643634E-15
 21
1.0
 31
0.0
 73
     1
 44
1.0
  0
MTEXT
  5
32A
330
318
100
AcDbEntity
  8
SK2
100
AcDbMText
 10
115.8858698888
 20
-1.6161165065
 30
0.0
 40
3.5
 41
0.0
 71
     1
 72
     1
  1
25,4
  7
SLDTEXTSTYLE0
 11
-7.044195017643634E-15
 21
1.0
 31
0.0
 73
     1
 44
1.0
  0
ENDBLK
  5
31A
330
318
100
AcDbEntity
  8
0
100
AcDbBlockEnd
  0
BLOCK
  5
32D
330
32C
100
AcDbEntity
  8
0
100
AcDbBlockBegin
  2
_D_7
 70
     0
 10
0.0
 20
0.0
 30
0.0
  3
_D_7
  1

  0
SOLID
  5
32F
330
32C
100
AcDbEntity
  8
SK2
100
AcDbTrace
 10
134.6398423587
 20
17.7800003439
 30
0.0
 11
134.1318423587
 21
14.4780003439
 31
0.0
 12
135.1478423587
 22
14.4780003439
 32
0.0
 13
135.1478423587
 23
14.4780003439
 33
0.0
  0
SOLID
  5
330
330
32C
100
AcDbEntity
  8
SK2
100
AcDbTrace
 10
134.6398423587
 20
-17.7800003439
 30
0.0
 11
135.1478423587
 21
-14.4780003439
 31
0.0
 12
134.1318423587
 22
-14.4780003439
 32
0.0
 13
134.1318423587
 23
-14.4780003439
 33
0.0
  0
LINE
  5
331
330
32C
100
AcDbEntity
  8
SK2
100
AcDbLine
 10
123.8469606426
 20
-4.25533474
 30
0.0
 11
123.8469606426
 21
-5.3217409975
 31
0.0
  0
LINE
  5
332
330
32C
100
AcDbEntity
  8
SK2
100
AcDbLine
 10
123.8469606426
 20
-5.3217409975
 30
0.0
 11
129.4032106337
 21
-5.3217409975
 31
0.0
  0
LINE
  5
333
330
32C
100
AcDbEntity
  8
SK2
100
AcDbLine
 10
129.4032106337
 20
-5.3217409975
 30
0.0
 11
129.4032106337
 21
-4.25533474
 31
0.0
  0
LINE
  5
334
330
32C
100
AcDbEntity
  8
SK2
100
AcDbLine
 10
123.8469606426
 20
4.7960543209
 30
0.0
 11
123.8469606426
 21
5.8624605784
 31
0.0
  0
LINE
  5
335
330
32C
100
AcDbEntity
  8
SK2
100
AcDbLine
 10
123.8469606426
 20
5.8624605784
 30
0.0
 11
129.4032106337
 21
5.8624605784
 31
0.0
  0
LINE
  5
336
330
32C
100
AcDbEntity
  8
SK2
100
AcDbLine
 10
129.4032106337
 20
5.8624605784
 30
0.0
 11
129.4032106337
 21
4.7960543209
 31
0.0
  0
LINE
  5
337
330
32C
100
AcDbEntity
  8
SK2
100
AcDbLine
 10
102.5999985879
 20
17.7800003439
 30
0.0
 11
135.6398423587
 21
17.7800003439
 31
0.0
  0
LINE
  5
338
330
32C
100
AcDbEntity
  8
SK2
100
AcDbLine
 10
102.5999985879
 20
-17.7800003439
 30
0.0
 11
135.6398423587
 21
-17.7800003439
 31
0.0
  0
LINE
  5
339
330
32C
100
AcDbEntity
  8
SK2
100
AcDbLine
 10
134.6398423587
 20
17.7800003439
 30
0.0
 11
134.6398423587
 21
-17.7800003439
 31
0.0
  0
MTEXT
  5
33A
330
32C
100
AcDbEntity
  8
SK2
100
AcDbMText
 10
124.8914737191
 20
-4.25533474
 30
0.0
 40
3.5
 41
0.0
 71
     1
 72
     1
  1
1,40
  7
SLDTEXTSTYLE0
 11
-7.044195017643634E-15
 21
1.0
 31
0.0
 73
     1
 44
1.0
  0
MTEXT
  5
33B
330
32C
100
AcDbEntity
  8
SK2
100
AcDbMText
 10
130.1281052695
 20
-8.1876091524
 30
0.0
 40
3.5
 41
0.0
 71
     1
 72
     1
  1
%%c
  7
SLDTEXTSTYLE0
 11
-7.044195017643634E-15
 21
1.0
 31
0.0
 73
     1
 44
1.0
  0
MTEXT
  5
33C
330
32C
100
AcDbEntity
  8
SK2
100
AcDbMText
 10
130.1281052695
 20
-2.909171754
 30
0.0
 40
3.5
 41
0.0
 71
     1
 72
     1
  1
35,56
  7
SLDTEXTSTYLE0
 11
-7.044195017643634E-15
 21
1.0
 31
0.0
 73
     1
 44
1.0
  0
ENDBLK
  5
32E
330
32C
100
AcDbEntity
  8
0
100
AcDbBlockEnd
  0
BLOCK
  5
33F
330
33E
100
AcDbEntity
  8
0
100
AcDbBlockBegin
  2
_D_8
 70
     0
 10
0.0
 20
0.0
 30
0.0
  3
_D_8
  1

  0
SOLID
  5
341
330
33E
100
AcDbEntity
  8
SK2
100
AcDbTrace
 10
148.699484978
 20
25.399999693
 30
0.0
 11
148.191484978
 21
22.097999693
 31
0.0
 12
149.207484978
 22
22.097999693
 32
0.0
 13
149.207484978
 23
22.097999693
 33
0.0
  0
SOLID
  5
342
330
33E
100
AcDbEntity
  8
SK2
100
AcDbTrace
 10
148.699484978
 20
-25.399999693
 30
0.0
 11
149.207484978
 21
-22.097999693
 31
0.0
 12
148.191484978
 22
-22.097999693
 32
0.0
 13
148.191484978
 23
-22.097999693
 33
0.0
  0
LINE
  5
343
330
33E
100
AcDbEntity
  8
SK2
100
AcDbLine
 10
137.906603262
 20
-4.25533474
 30
0.0
 11
137.906603262
 21
-5.3217409975
 31
0.0
  0
LINE
  5
344
330
33E
100
AcDbEntity
  8
SK2
100
AcDbLine
 10
137.906603262
 20
-5.3217409975
 30
0.0
 11
143.462853253
 21
-5.3217409975
 31
0.0
  0
LINE
  5
345
330
33E
100
AcDbEntity
  8
SK2
100
AcDbLine
 10
143.462853253
 20
-5.3217409975
 30
0.0
 11
143.462853253
 21
-4.25533474
 31
0.0
  0
LINE
  5
346
330
33E
100
AcDbEntity
  8
SK2
100
AcDbLine
 10
137.906603262
 20
4.7960543209
 30
0.0
 11
137.906603262
 21
5.8624605784
 31
0.0
  0
LINE
  5
347
330
33E
100
AcDbEntity
  8
SK2
100
AcDbLine
 10
137.906603262
 20
5.8624605784
 30
0.0
 11
143.462853253
 21
5.8624605784
 31
0.0
  0
LINE
  5
348
330
33E
100
AcDbEntity
  8
SK2
100
AcDbLine
 10
143.462853253
 20
5.8624605784
 30
0.0
 11
143.462853253
 21
4.7960543209
 31
0.0
  0
LINE
  5
349
330
33E
100
AcDbEntity
  8
SK2
100
AcDbLine
 10
94.9799992388
 20
25.399999693
 30
0.0
 11
149.699484978
 21
25.399999693
 31
0.0
  0
LINE
  5
34A
330
33E
100
AcDbEntity
  8
SK2
100
AcDbLine
 10
94.9799992388
 20
-25.399999693
 30
0.0
 11
149.699484978
 21
-25.399999693
 31
0.0
  0
LINE
  5
34B
330
33E
100
AcDbEntity
  8
SK2
100
AcDbLine
 10
148.699484978
 20
25.399999693
 30
0.0
 11
148.699484978
 21
-25.399999693
 31
0.0
  0
MTEXT
  5
34C
330
33E
100
AcDbEntity
  8
SK2
100
AcDbMText
 10
138.9511163385
 20
-4.25533474
 30
0.0
 40
3.5
 41
0.0
 71
     1
 72
     1
  1
2,00
  7
SLDTEXTSTYLE0
 11
-7.044195017643634E-15
 21
1.0
 31
0.0
 73
     1
 44
1.0
  0
MTEXT
  5
34D
330
33E
100
AcDbEntity
  8
SK2
100
AcDbMText
 10
144.1877478888
 20
-6.8945539049
 30
0.0
 40
3.5
 41
0.0
 71
     1
 72
     1
  1
%%c
  7
SLDTEXTSTYLE0
 11
-7.044195017643634E-15
 21
1.0
 31
0.0
 73
     1
 44
1.0
  0
MTEXT
  5
34E
330
33E
100
AcDbEntity
  8
SK2
100
AcDbMText
 10
144.1877478888
 20
-1.6161165065
 30
0.0
 40
3.5
 41
0.0
 71
     1
 72
     1
  1
50,8
  7
SLDTEXTSTYLE0
 11
-7.044195017643634E-15
 21
1.0
 31
0.0
 73
     1
 44
1.0
  0
ENDBLK
  5
340
330
33E
100
AcDbEntity
  8
0
100
AcDbBlockEnd
  0
BLOCK
  5
351
330
350
100
AcDbEntity
  8
0
100
AcDbBlockBegin
  2
_D_9
 70
     0
 10
0.0
 20
0.0
 30
0.0
  3
_D_9
  1

  0
SOLID
  5
353
330
350
100
AcDbEntity
  8
SK2
100
AcDbTrace
 10
-101.6000005488
 20
-64.5178826012
 30
0.0
 11
-98.2980005488
 21
-65.0258826012
 31
0.0
 12
-98.2980005488
 22
-64.0098826012
 32
0.0
 13
-98.2980005488
 23
-64.0098826012
 33
0.0
  0
SOLID
  5
354
330
350
100
AcDbEntity
  8
SK2
100
AcDbTrace
 10
101.5999985879
 20
-64.5178826012
 30
0.0
 11
98.2979985879
 21
-64.0098826012
 31
0.0
 12
98.2979985879
 22
-65.0258826012
 32
0.0
 13
98.2979985879
 23
-65.0258826012
 33
0.0
  0
LINE
  5
355
330
350
100
AcDbEntity
  8
SK2
100
AcDbLine
 10
-14.3749869399
 20
-53.7250008851
 30
0.0
 11
-15.4413931973
 21
-53.7250008851
 31
0.0
  0
LINE
  5
356
330
350
100
AcDbEntity
  8
SK2
100
AcDbLine
 10
-15.4413931973
 20
-53.7250008851
 30
0.0
 11
-15.4413931973
 21
-59.2812508762
 31
0.0
  0
LINE
  5
357
330
350
100
AcDbEntity
  8
SK2
100
AcDbLine
 10
-15.4413931973
 20
-59.2812508762
 30
0.0
 11
-14.3749869399
 21
-59.2812508762
 31
0.0
  0
LINE
  5
358
330
350
100
AcDbEntity
  8
SK2
100
AcDbLine
 10
-5.323597879
 20
-53.7250008851
 30
0.0
 11
-4.2571916215
 21
-53.7250008851
 31
0.0
  0
LINE
  5
359
330
350
100
AcDbEntity
  8
SK2
100
AcDbLine
 10
-4.2571916215
 20
-53.7250008851
 30
0.0
 11
-4.2571916215
 21
-59.2812508762
 31
0.0
  0
LINE
  5
35A
330
350
100
AcDbEntity
  8
SK2
100
AcDbLine
 10
-4.2571916215
 20
-59.2812508762
 30
0.0
 11
-5.323597879
 21
-59.2812508762
 31
0.0
  0
LINE
  5
35B
330
350
100
AcDbEntity
  8
SK2
100
AcDbLine
 10
-101.6000005488
 20
-19.2922329752
 30
0.0
 11
-101.6000005488
 21
-65.5178826012
 31
0.0
  0
LINE
  5
35C
330
350
100
AcDbEntity
  8
SK2
100
AcDbLine
 10
101.5999985879
 20
-18.7800003439
 30
0.0
 11
101.5999985879
 21
-65.5178826012
 31
0.0
  0
LINE
  5
35D
330
350
100
AcDbEntity
  8
SK2
100
AcDbLine
 10
-101.6000005488
 20
-64.5178826012
 30
0.0
 11
101.5999985879
 21
-64.5178826012
 31
0.0
  0
MTEXT
  5
35E
330
350
100
AcDbEntity
  8
SK2
100
AcDbMText
 10
-16.4883550515
 20
-59.9526733353
 30
0.0
 40
3.5
 41
0.0
 71
     1
 72
     1
  1

  7
SLDTEXTSTYLE0
 73
     1
 44
1.0
  0
MTEXT
  5
35F
330
350
100
AcDbEntity
  8
SK2
100
AcDbMText
 10
-14.3749869399
 20
-54.7695139616
 30
0.0
 40
3.5
 41
0.0
 71
     1
 72
     1
  1
8,00
  7
SLDTEXTSTYLE0
 73
     1
 44
1.0
  0
MTEXT
  5
360
330
350
100
AcDbEntity
  8
SK2
100
AcDbMText
 10
-15.6680426531
 20
-60.006145512
 30
0.0
 40
3.5
 41
0.0
 71
     1
 72
     1
  1
203,2
  7
SLDTEXTSTYLE0
 73
     1
 44
1.0
  0
MTEXT
  5
361
330
350
100
AcDbEntity
  8
SK2
100
AcDbMText
 10
-1.8782852476
 20
-59.9526733353
 30
0.0
 40
3.5
 41
0.0
 71
     1
 72
     1
  1

  7
SLDTEXTSTYLE0
 73
     1
 44
1.0
  0
ENDBLK
  5
352
330
350
100
AcDbEntity
  8
0
100
AcDbBlockEnd
  0
BLOCK
  5
364
330
363
100
AcDbEntity
  8
0
100
AcDbBlockBegin
  2
_D_10
 70
     0
 10
0.0
 20
0.0
 30
0.0
  3
_D_10
  1

  0
SOLID
  5
366
330
363
100
AcDbEntity
  8
SK2
100
AcDbTrace
 10
31.7500005983
 20
-48.5508534329
 30
0.0
 11
35.0520005983
 21
-49.0588534329
 31
0.0
 12
35.0520005983
 22
-48.0428534329
 32
0.0
 13
35.0520005983
 23
-48.0428534329
 33
0.0
  0
SOLID
  5
367
330
363
100
AcDbEntity
  8
SK2
100
AcDbTrace
 10
101.5999985879
 20
-48.5508534329
 30
0.0
 11
98.2979985879
 21
-48.0428534329
 31
0.0
 12
98.2979985879
 22
-49.0588534329
 32
0.0
 13
98.2979985879
 23
-49.0588534329
 33
0.0
  0
LINE
  5
368
330
363
100
AcDbEntity
  8
SK2
100
AcDbLine
 10
59.6339895697
 20
-37.7579717169
 30
0.0
 11
58.5675833123
 21
-37.7579717169
 31
0.0
  0
LINE
  5
369
330
363
100
AcDbEntity
  8
SK2
100
AcDbLine
 10
58.5675833123
 20
-37.7579717169
 30
0.0
 11
58.5675833123
 21
-43.3142217079
 31
0.0
  0
LINE
  5
36A
330
363
100
AcDbEntity
  8
SK2
100
AcDbLine
 10
58.5675833123
 20
-43.3142217079
 30
0.0
 11
59.6339895697
 21
-43.3142217079
 31
0.0
  0
LINE
  5
36B
330
363
100
AcDbEntity
  8
SK2
100
AcDbLine
 10
68.6853786307
 20
-37.7579717169
 30
0.0
 11
69.7517848881
 21
-37.7579717169
 31
0.0
  0
LINE
  5
36C
330
363
100
AcDbEntity
  8
SK2
100
AcDbLine
 10
69.7517848881
 20
-37.7579717169
 30
0.0
 11
69.7517848881
 21
-43.3142217079
 31
0.0
  0
LINE
  5
36D
330
363
100
AcDbEntity
  8
SK2
100
AcDbLine
 10
69.7517848881
 20
-43.3142217079
 30
0.0
 11
68.6853786307
 21
-43.3142217079
 31
0.0
  0
LINE
  5
36E
330
363
100
AcDbEntity
  8
SK2
100
AcDbLine
 10
31.7500005983
 20
-13.7249996863
 30
0.0
 11
31.7500005983
 21
-49.5508534329
 31
0.0
  0
LINE
  5
36F
330
363
100
AcDbEntity
  8
SK2
100
AcDbLine
 10
101.5999985879
 20
-18.7800003439
 30
0.0
 11
101.5999985879
 21
-49.5508534329
 31
0.0
  0
LINE
  5
370
330
363
100
AcDbEntity
  8
SK2
100
AcDbLine
 10
31.7500005983
 20
-48.5508534329
 30
0.0
 11
101.5999985879
 21
-48.5508534329
 31
0.0
  0
MTEXT
  5
371
330
363
100
AcDbEntity
  8
SK2
100
AcDbMText
 10
57.5206214581
 20
-43.9856441671
 30
0.0
 40
3.5
 41
0.0
 71
     1
 72
     1
  1

  7
SLDTEXTSTYLE0
 73
     1
 44
1.0
  0
MTEXT
  5
372
330
363
100
AcDbEntity
  8
SK2
100
AcDbMText
 10
59.6339895697
 20
-38.8024847934
 30
0.0
 40
3.5
 41
0.0
 71
     1
 72
     1
  1
2,75
  7
SLDTEXTSTYLE0
 73
     1
 44
1.0
  0
MTEXT
  5
373
330
363
100
AcDbEntity
  8
SK2
100
AcDbMText
 10
58.3409338566
 20
-44.0391163437
 30
0.0
 40
3.5
 41
0.0
 71
     1
 72
     1
  1
69,85
  7
SLDTEXTSTYLE0
 73
     1
 44
1.0
  0
MTEXT
  5
374
330
363
100
AcDbEntity
  8
SK2
100
AcDbMText
 10
72.130691262
 20
-43.9856441671
 30
0.0
 40
3.5
 41
0.0
 71
     1
 72
     1
  1

  7
SLDTEXTSTYLE0
 73
     1
 44
1.0
  0
ENDBLK
  5
365
330
363
100
AcDbEntity
  8
0
100
AcDbBlockEnd
  0
BLOCK
  5
378
330
377
100
AcDbEntity
  8
0
100
AcDbBlockBegin
  2
_D_11
 70
     0
 10
0.0
 20
0.0
 30
0.0
  3
_D_11
  1

  0
SOLID
  5
37A
330
377
100
AcDbEntity
  8
SK2
100
AcDbTrace
 10
93.9799992388
 20
-41.2991407873
 30
0.0
 11
90.6779992388
 21
-40.7911407873
 31
0.0
 12
90.6779992388
 22
-41.8071407873
 32
0.0
 13
90.6779992388
 23
-41.8071407873
 33
0.0
  0
SOLID
  5
37B
330
377
100
AcDbEntity
  8
SK2
100
AcDbTrace
 10
101.5999985879
 20
-41.2991407873
 30
0.0
 11
104.9019985879
 21
-41.8071407873
 31
0.0
 12
104.9019985879
 22
-40.7911407873
 32
0.0
 13
104.9019985879
 23
-40.7911407873
 33
0.0
  0
LINE
  5
37C
330
377
100
AcDbEntity
  8
SK2
100
AcDbLine
 10
93.9799992388
 20
-26.399999693
 30
0.0
 11
93.9799992388
 21
-42.2991407873
 31
0.0
  0
LINE
  5
37D
330
377
100
AcDbEntity
  8
SK2
100
AcDbLine
 10
101.5999985879
 20
-18.7800003439
 30
0.0
 11
101.5999985879
 21
-42.2991407873
 31
0.0
  0
LINE
  5
37E
330
377
100
AcDbEntity
  8
SK2
100
AcDbLine
 10
93.9799992388
 20
-41.2991407873
 30
0.0
 11
81.0398072209
 21
-41.2991407873
 31
0.0
  0
LINE
  5
37F
330
377
100
AcDbEntity
  8
SK2
100
AcDbLine
 10
93.9799992388
 20
-41.2991407873
 30
0.0
 11
101.5999985879
 21
-41.2991407873
 31
0.0
  0
LINE
  5
380
330
377
100
AcDbEntity
  8
SK2
100
AcDbLine
 10
101.5999985879
 20
-41.2991407873
 30
0.0
 11
107.9499985879
 21
-41.2991407873
 31
0.0
  0
MTEXT
  5
381
330
377
100
AcDbEntity
  8
SK2
100
AcDbMText
 10
81.0398072209
 20
-36.7874038727
 30
0.0
 40
3.5
 41
0.0
 71
     1
 72
     1
  1
7,62
  7
SLDTEXTSTYLE0
 73
     1
 44
1.0
  0
ENDBLK
  5
379
330
377
100
AcDbEntity
  8
0
100
AcDbBlockEnd
  0
BLOCK
  5
384
330
383
100
AcDbEntity
  8
0
100
AcDbBlockBegin
  2
_D_12
 70
     0
 10
0.0
 20
0.0
 30
0.0
  3
_D_12
  1

  0
SOLID
  5
386
330
383
100
AcDbEntity
  8
SK2
100
AcDbTrace
 10
-122.1907702355
 20
-47.4754910024
 30
0.0
 11
-121.6827704351
 21
-44.1734909717
 31
0.0
 12
-122.6987704351
 22
-44.1734910331
 32
0.0
 13
-122.6987704351
 23
-44.1734910331
 33
0.0
  0
SOLID
  5
387
330
383
100
AcDbEntity
  8
SK2
100
AcDbTrace
 10
-122.1907759635
 20
47.2968067907
 30
0.0
 11
-122.6987757639
 21
43.99480676
 31
0.0
 12
-121.6827757639
 22
43.9948068214
 32
0.0
 13
-121.6827757639
 23
43.9948068214
 33
0.0
  0
LINE
  5
388
330
383
100
AcDbEntity
  8
SK2
100
AcDbLine
 10
4.770138232
 20
-47.4754833289
 30
0.0
 11
-123.1907702355
 21
-47.4754910628
 31
0.0
  0
LINE
  5
389
330
383
100
AcDbEntity
  8
SK2
100
AcDbLine
 10
2.95
 20
47.2968143541
 30
0.0
 11
-123.1907759635
 21
47.2968067303
 31
0.0
  0
LINE
  5
38A
330
383
100
AcDbEntity
  8
SK2
100
AcDbLine
 10
-122.1907702355
 20
-47.4754910024
 30
0.0
 11
-122.1907759635
 21
47.2968067907
 31
0.0
  0
MTEXT
  5
38B
330
383
100
AcDbEntity
  8
SK2
100
AcDbMText
 10
-126.7025096993
 20
-8.1876094251
 30
0.0
 40
3.5
 41
0.0
 71
     1
 72
     1
  1
%%c
  7
SLDTEXTSTYLE0
 11
-6.043931615723116E-8
 21
0.9999999999999982
 31
0.0
 73
     1
 44
1.0
  0
MTEXT
  5
38C
330
383
100
AcDbEntity
  8
SK2
100
AcDbMText
 10
-126.755982195
 20
-2.9091720299
 30
0.0
 40
3.5
 41
0.0
 71
     1
 72
     1
  1
98,42
  7
SLDTEXTSTYLE0
 11
-6.043931615723116E-8
 21
0.9999999999999982
 31
0.0
 73
     1
 44
1.0
  0
ENDBLK
  5
385
330
383
100
AcDbEntity
  8
0
100
AcDbBlockEnd
  0
BLOCK
  5
38F
330
38E
100
AcDbEntity
  8
0
100
AcDbBlockBegin
  2
_D_13
 70
     0
 10
0.0
 20
0.0
 30
0.0
  3
_D_13
  1

  0
SOLID
  5
391
330
38E
100
AcDbEntity
  8
SK2
100
AcDbTrace
 10
-111.121605331
 20
12.6999998465
 30
0.0
 11
-111.629605331
 21
9.3979998465
 31
0.0
 12
-110.613605331
 22
9.3979998465
 32
0.0
 13
-110.613605331
 23
9.3979998465
 33
0.0
  0
SOLID
  5
392
330
38E
100
AcDbEntity
  8
SK2
100
AcDbTrace
 10
-111.121605331
 20
-12.6999998465
 30
0.0
 11
-110.613605331
 21
-9.3979998465
 31
0.0
 12
-111.629605331
 22
-9.3979998465
 32
0.0
 13
-111.629605331
 23
-9.3979998465
 33
0.0
  0
LINE
  5
393
330
38E
100
AcDbEntity
  8
SK2
100
AcDbLine
 10
-95.967097044
 20
12.6999998465
 30
0.0
 11
-112.121605331
 21
12.6999998465
 31
0.0
  0
LINE
  5
394
330
38E
100
AcDbEntity
  8
SK2
100
AcDbLine
 10
-95.967097044
 20
-12.6999998465
 30
0.0
 11
-112.121605331
 21
-12.6999998465
 31
0.0
  0
LINE
  5
395
330
38E
100
AcDbEntity
  8
SK2
100
AcDbLine
 10
-111.121605331
 20
12.6999998465
 30
0.0
 11
-111.121605331
 21
-12.6999998465
 31
0.0
  0
MTEXT
  5
397
330
38E
100
AcDbEntity
  8
SK2
100
AcDbMText
 10
-115.6333422456
 20
-10.1810296862
 30
0.0
 40
3.5
 41
0.0
 71
     1
 72
     1
  1
1 - 8 UNC
  7
SLDTEXTSTYLE1
 11
-7.044195017643634E-15
 21
1.0
 31
0.0
 73
     1
 44
1.0
  0
ENDBLK
  5
390
330
38E
100
AcDbEntity
  8
0
100
AcDbBlockEnd
  0
ENDSEC
  0
SECTION
  2
ENTITIES
  0
LINE
  5
82
330
1F
100
AcDbEntity
  8
1
  6
SLD-Solid
370
    25
100
AcDbLine
 10
33.5760024077
 20
34.925000075
 30
0.0
 11
19.8120019258
 21
34.9250019546
 31
0.0
  0
LINE
  5
83
330
1F
100
AcDbEntity
  8
1
  6
SLD-Solid
370
    25
100
AcDbLine
 10
19.8119980742
 20
-34.924999166
 30
0.0
 11
33.575998556
 21
-34.9249988044
 31
0.0
  0
LINE
  5
84
330
1F
100
AcDbEntity
  8
1
  6
SLD-Solid
370
    25
100
AcDbLine
 10
1.7476020634
 20
34.9249988794
 30
0.0
 11
-0.0000001842
 21
34.9249988794
 31
0.0
  0
LINE
  5
85
330
1F
100
AcDbEntity
  8
1
  6
SLD-Solid
370
    25
100
AcDbLine
 10
-0.0000001842
 20
-34.9249988794
 30
0.0
 11
1.7476020634
 21
-34.9249988794
 31
0.0
  0
LINE
  5
86
330
1F
100
AcDbEntity
  8
SK1
  6
SLD-Solid
370
    25
100
AcDbLine
 10
-0.0000001842
 20
34.9249988794
 30
0.0
 11
-99.8030455763
 21
20.3702524304
 31
0.0
  0
LINE
  5
87
330
1F
100
AcDbEntity
  8
SK1
  6
SLD-Solid
370
    25
100
AcDbLine
 10
-99.8030455763
 20
-20.3702524304
 30
0.0
 11
-0.0000001842
 21
-34.9249988794
 31
0.0
  0
LINE
  5
88
330
1F
100
AcDbEntity
  8
1
  6
SLD-Solid
370
    25
100
AcDbLine
 10
1.7476020634
 20
-34.9249988794
 30
0.0
 11
2.1330361195
 21
-34.7452691597
 31
0.0
  0
LINE
  5
89
330
1F
100
AcDbEntity
  8
1
  6
SLD-Solid
370
    25
100
AcDbLine
 10
2.1330361195
 20
34.7452691597
 30
0.0
 11
1.7476020634
 21
34.9249988794
 31
0.0
  0
LINE
  5
8A
330
1F
100
AcDbEntity
  8
1
  6
SLD-Solid
370
    25
100
AcDbLine
 10
37.5
 20
25.4
 30
0.0
 11
36.6239985099
 21
25.400000307
 31
0.0
  0
LINE
  5
8B
330
1F
100
AcDbEntity
  8
1
  6
SLD-Solid
370
    25
100
AcDbLine
 10
62.9
 20
25.4
 30
0.0
 11
57.7268532753
 21
25.4
 31
0.0
  0
LINE
  5
8C
330
1F
100
AcDbEntity
  8
1
  6
SLD-Solid
370
    25
100
AcDbLine
 10
93.9799992388
 20
25.399999693
 30
0.0
 11
83.126850242
 21
25.399999693
 31
0.0
  0
LINE
  5
8D
330
1F
100
AcDbEntity
  8
1
  6
SLD-Solid
370
    25
100
AcDbLine
 10
87.0364902561
 20
-25.399999693
 30
0.0
 11
93.9799992388
 21
-25.399999693
 31
0.0
  0
LINE
  5
8E
330
1F
100
AcDbEntity
  8
1
  6
SLD-Solid
370
    25
100
AcDbLine
 10
61.63649261
 20
-25.399999693
 30
0.0
 11
65.3574168682
 21
-25.399999693
 31
0.0
  0
LINE
  5
8F
330
1F
100
AcDbEntity
  8
1
  6
SLD-Solid
370
    25
100
AcDbLine
 10
36.6239985099
 20
-25.399999693
 30
0.0
 11
39.9574100971
 21
-25.3999993861
 31
0.0
  0
LINE
  5
90
330
1F
100
AcDbEntity
  8
1
  6
SLD-Solid
370
    25
100
AcDbLine
 10
93.9799992388
 20
-25.399999693
 30
0.0
 11
101.5999985879
 21
-17.7800003439
 31
0.0
  0
LINE
  5
91
330
1F
100
AcDbEntity
  8
1
  6
SLD-Solid
370
    25
100
AcDbLine
 10
101.5999985879
 20
17.7800003439
 30
0.0
 11
93.9799992388
 21
25.399999693
 31
0.0
  0
LINE
  5
92
330
1F
100
AcDbEntity
  8
1
  6
SLD-Solid
370
    25
100
AcDbLine
 10
14.6397231147
 20
-47.4754832685
 30
0.0
 11
18.3000005782
 21
-47.4754832685
 31
0.0
  0
LINE
  5
93
330
1F
100
AcDbEntity
  8
1
  6
SLD-Solid
370
    25
100
AcDbLine
 10
14.6397231147
 20
47.2968148106
 30
0.0
 11
14.6397231147
 21
-47.4754832685
 31
0.0
  0
LINE
  5
94
330
1F
100
AcDbEntity
  8
1
  6
SLD-Solid
370
    25
100
AcDbLine
 10
18.3000002102
 20
47.2968148106
 30
0.0
 11
14.6397231147
 21
47.2968148106
 31
0.0
  0
LINE
  5
95
330
1F
100
AcDbEntity
  8
1
  6
SLD-Solid
370
    25
100
AcDbLine
 10
18.3000005782
 20
-47.4754832685
 30
0.0
 11
18.3000002102
 21
47.2968148106
 31
0.0
  0
LINE
  5
96
330
1F
100
AcDbEntity
  8
1
  6
SLD-Solid
370
    25
100
AcDbLine
 10
3.9499998093
 20
-47.4754832685
 30
0.0
 11
7.5902766548
 21
-47.4754832685
 31
0.0
  0
LINE
  5
97
330
1F
100
AcDbEntity
  8
1
  6
SLD-Solid
370
    25
100
AcDbLine
 10
3.95
 20
47.2968144146
 30
0.0
 11
3.9499998093
 21
-47.4754832685
 31
0.0
  0
LINE
  5
98
330
1F
100
AcDbEntity
  8
1
  6
SLD-Solid
370
    25
100
AcDbLine
 10
7.5902766548
 20
47.2968146346
 30
0.0
 11
3.95
 21
47.2968144146
 31
0.0
  0
LINE
  5
99
330
1F
100
AcDbEntity
  8
1
  6
SLD-Solid
370
    25
100
AcDbLine
 10
7.5902766548
 20
47.2968146346
 30
0.0
 11
7.5902766548
 21
-47.4754832685
 31
0.0
  0
LINE
  5
9A
330
1F
100
AcDbEntity
  8
1
  6
SLD-Solid
370
    25
100
AcDbLine
 10
19.05
 20
46.5560855313
 30
0.0
 11
19.05
 21
-46.6976348437
 31
0.0
  0
LINE
  5
9B
330
1F
100
AcDbEntity
  8
1
  6
SLD-Solid
370
    25
100
AcDbLine
 10
3.2
 20
-46.6976348437
 30
0.0
 11
3.2
 21
46.5560853481
 31
0.0
  0
LINE
  5
9C
330
1F
100
AcDbEntity
  8
1
  6
SLD-Solid
370
    25
100
AcDbLine
 10
13.030000031
 20
44.5790104568
 30
0.0
 11
13.0300002041
 21
41.9871172983
 31
0.0
  0
LINE
  5
9D
330
1F
100
AcDbEntity
  8
1
  6
SLD-Solid
370
    25
100
AcDbLine
 10
13.03
 20
34.6324294806
 30
0.0
 11
13.03
 21
-44.5790106634
 31
0.0
  0
LINE
  5
9E
330
1F
100
AcDbEntity
  8
1
  6
SLD-Solid
370
    25
100
AcDbLine
 10
13.03
 20
41.4531135826
 30
0.0
 11
13.03
 21
35.4316106351
 31
0.0
  0
LINE
  5
9F
330
1F
100
AcDbEntity
  8
1
  6
SLD-Solid
370
    25
100
AcDbLine
 10
9.2
 20
44.5790106634
 30
0.0
 11
9.2000002041
 21
41.9587008655
 31
0.0
  0
LINE
  5
A0
330
1F
100
AcDbEntity
  8
1
  6
SLD-Solid
370
    25
100
AcDbLine
 10
9.1999997959
 20
41.4830126205
 30
0.0
 11
9.2
 21
35.3885961177
 31
0.0
  0
LINE
  5
A1
330
1F
100
AcDbEntity
  8
1
  6
SLD-Solid
370
    25
100
AcDbLine
 10
9.2
 20
34.676688935
 30
0.0
 11
9.2
 21
-44.5790106634
 31
0.0
  0
LINE
  5
A2
330
1F
100
AcDbEntity
  8
1
  6
SLD-Solid
370
    25
100
AcDbLine
 10
12.28
 20
33.3554707167
 30
0.0
 11
12.28
 21
-43.7694359685
 31
0.0
  0
LINE
  5
A3
330
1F
100
AcDbEntity
  8
1
  6
SLD-Solid
370
    25
100
AcDbLine
 10
9.95
 20
33.3652595305
 30
0.0
 11
9.95
 21
-43.7694359685
 31
0.0
  0
LINE
  5
A4
330
1F
100
AcDbEntity
  8
1
  6
SLD-Solid
370
    25
100
AcDbLine
 10
9.95
 20
-43.7694359685
 30
0.0
 11
12.28
 21
-43.7694359685
 31
0.0
  0
LINE
  5
A5
330
1F
100
AcDbEntity
  8
1
  6
SLD-Solid
370
    25
100
AcDbLine
 10
35.1000012815
 20
0.0000005513
 30
0.0
 11
35.0999975979
 21
-33.4009994487
 31
0.0
  0
LINE
  5
A6
330
1F
100
AcDbEntity
  8
1
  6
SLD-Solid
370
    25
100
AcDbLine
 10
35.1000012815
 20
33.4010005513
 30
0.0
 11
35.1000012815
 21
0.0000005513
 31
0.0
  0
LINE
  5
A7
330
1F
100
AcDbEntity
  8
1
  6
SLD-Solid
370
    25
100
AcDbLine
 10
-0.0000001842
 20
34.9249988794
 30
0.0
 11
-0.0000001842
 21
-34.9249988794
 31
0.0
  0
LINE
  5
A8
330
1F
100
AcDbEntity
  8
1
  6
SLD-Solid
370
    25
100
AcDbLine
 10
1.7476020634
 20
34.9249988794
 30
0.0
 11
1.7476020634
 21
-34.9249988794
 31
0.0
  0
LINE
  5
A9
330
1F
100
AcDbEntity
  8
1
  6
SLD-Solid
370
    25
100
AcDbLine
 10
9.2
 20
35.3885961177
 30
0.0
 11
9.2
 21
35.3683101781
 31
0.0
  0
LINE
  5
AA
330
1F
100
AcDbEntity
  8
1
  6
SLD-Solid
370
    25
100
AcDbLine
 10
13.03
 20
35.4113240881
 30
0.0
 11
13.03
 21
35.4316106351
 31
0.0
  0
LINE
  5
AB
330
1F
100
AcDbEntity
  8
1
  6
SLD-Solid
370
    25
100
AcDbLine
 10
9.95
 20
40.2901760725
 30
0.0
 11
9.95
 21
35.4888548114
 31
0.0
  0
LINE
  5
AC
330
1F
100
AcDbEntity
  8
1
  6
SLD-Solid
370
    25
100
AcDbLine
 10
12.28
 20
40.2834337913
 30
0.0
 11
12.28
 21
35.4978726362
 31
0.0
  0
LINE
  5
AD
330
1F
100
AcDbEntity
  8
1
  6
SLD-Solid
370
    25
100
AcDbLine
 10
93.9799992388
 20
25.399999693
 30
0.0
 11
93.9799992388
 21
-25.399999693
 31
0.0
  0
LINE
  5
AE
330
1F
100
AcDbEntity
  8
1
  6
SLD-Solid
370
    25
100
AcDbLine
 10
48.1206066906
 20
23.2999995351
 30
0.0
 11
47.12939431
 21
23.3
 31
0.0
  0
LINE
  5
AF
330
1F
100
AcDbEntity
  8
1
  6
SLD-Solid
370
    25
100
AcDbLine
 10
73.5206082463
 20
23.2999995351
 30
0.0
 11
72.52939431
 21
23.3
 31
0.0
  0
LINE
  5
B0
330
1F
100
AcDbEntity
  8
1
  6
SLD-Solid
370
    25
100
AcDbLine
 10
101.5999985879
 20
17.7800003439
 30
0.0
 11
101.5999985879
 21
-17.7800003439
 31
0.0
  0
LINE
  5
B1
330
1F
100
AcDbEntity
  8
1
  6
SLD-Solid
370
    25
100
AcDbLine
 10
9.2000002041
 20
41.9587008655
 30
0.0
 11
9.2000002041
 21
41.9345423579
 31
0.0
  0
LINE
  5
B2
330
1F
100
AcDbEntity
  8
1
  6
SLD-Solid
370
    25
100
AcDbLine
 10
13.0300002041
 20
41.9629580635
 30
0.0
 11
13.0300002041
 21
41.9871172983
 31
0.0
  0
LINE
  5
B3
330
1F
100
AcDbEntity
  8
SK1
  6
SLD-Solid
370
    25
100
AcDbLine
 10
-101.6000005488
 20
-18.2922329752
 30
0.0
 11
-101.6000005488
 21
18.2922323447
 31
0.0
  0
LINE
  5
B4
330
1F
100
AcDbEntity
  8
1
  6
SLD-Solid
370
    25
100
AcDbLine
 10
9.95
 20
43.7694359685
 30
0.0
 11
9.9500002041
 21
41.7091381409
 31
0.0
  0
LINE
  5
B5
330
1F
100
AcDbEntity
  8
1
  6
SLD-Solid
370
    25
100
AcDbLine
 10
12.28
 20
43.7694359685
 30
0.0
 11
12.2800002041
 21
41.7149622406
 31
0.0
  0
LINE
  5
B6
330
1F
100
AcDbEntity
  8
1
  6
SLD-Solid
370
    25
100
AcDbLine
 10
9.95
 20
43.7694359685
 30
0.0
 11
12.28
 21
43.7694359685
 31
0.0
  0
LINE
  5
B7
330
1F
100
AcDbEntity
  8
1
  6
SLD-Solid
370
    25
100
AcDbLine
 10
19.8120009154
 20
0.000000834
 30
0.0
 11
19.8119980742
 21
-34.924999166
 31
0.0
  0
LINE
  5
B8
330
1F
100
AcDbEntity
  8
1
  6
SLD-Solid
370
    25
100
AcDbLine
 10
19.8120019258
 20
34.9250019546
 30
0.0
 11
19.8120009154
 21
0.000000834
 31
0.0
  0
LINE
  5
B9
330
1F
100
AcDbEntity
  8
1
  6
SLD-Solid
370
    25
100
AcDbLine
 10
2.1330361195
 20
34.7452691597
 30
0.0
 11
2.1330361195
 21
-34.7452691597
 31
0.0
  0
LINE
  5
BA
330
1F
100
AcDbEntity
  8
1
  6
SLD-Solid
370
    25
100
AcDbLine
 10
33.5760004818
 20
0.000000075
 30
0.0
 11
33.5760024077
 21
34.925000075
 31
0.0
  0
LINE
  5
BB
330
1F
100
AcDbEntity
  8
1
  6
SLD-Solid
370
    25
100
AcDbLine
 10
33.575998556
 20
-34.9249988044
 30
0.0
 11
33.5760004818
 21
0.000000075
 31
0.0
  0
LINE
  5
BC
330
1F
100
AcDbEntity
  8
SK1
  6
SLD-Solid
370
    25
100
AcDbLine
 10
-99.8030455763
 20
0.0
 30
0.0
 11
-99.8030455763
 21
-20.3702524304
 31
0.0
  0
LINE
  5
BD
330
1F
100
AcDbEntity
  8
SK1
  6
SLD-Solid
370
    25
100
AcDbLine
 10
-99.8030455763
 20
20.3702524304
 30
0.0
 11
-99.8030455763
 21
0.0
 31
0.0
  0
LINE
  5
BE
330
1F
100
AcDbEntity
  8
1
  6
SLD-Solid
370
    25
100
AcDbLine
 10
36.6239979863
 20
0.000000307
 30
0.0
 11
36.6239985099
 21
-25.399999693
 31
0.0
  0
LINE
  5
BF
330
1F
100
AcDbEntity
  8
1
  6
SLD-Solid
370
    25
100
AcDbLine
 10
36.6239985099
 20
25.400000307
 30
0.0
 11
36.6239979863
 21
0.000000307
 31
0.0
  0
LINE
  5
C0
330
1F
100
AcDbEntity
  8
SK3
  6
SLD-Dashed
370
    18
100
AcDbLine
 10
6.4723067917
 20
-13.9015950263
 30
0.0
 11
6.3056573272
 21
-13.243753463
 31
0.0
  0
LINE
  5
C1
330
1F
100
AcDbEntity
  8
SK3
  6
SLD-Dashed
370
    18
100
AcDbLine
 10
6.3056573272
 20
-13.243753463
 30
0.0
 11
6.0455058701
 21
-12.6307420433
 31
0.0
  0
LINE
  5
C2
330
1F
100
AcDbEntity
  8
SK3
  6
SLD-Dashed
370
    18
100
AcDbLine
 10
6.0455058701
 20
-12.6307420433
 30
0.0
 11
5.7095810771
 21
-12.104338035
 31
0.0
  0
LINE
  5
C3
330
1F
100
AcDbEntity
  8
SK3
  6
SLD-Dashed
370
    18
100
AcDbLine
 10
5.7095810771
 20
-12.104338035
 30
0.0
 11
5.3207767196
 21
-11.7004131898
 31
0.0
  0
LINE
  5
C4
330
1F
100
AcDbEntity
  8
SK3
  6
SLD-Dashed
370
    18
100
AcDbLine
 10
5.3207767196
 20
-11.7004131898
 30
0.0
 11
4.9055879936
 21
-11.4464955404
 31
0.0
  0
LINE
  5
C5
330
1F
100
AcDbEntity
  8
SK3
  6
SLD-Dashed
370
    18
100
AcDbLine
 10
4.9055879936
 20
-11.4464955404
 30
0.0
 11
4.4923103414
 21
-11.3598890603
 31
0.0
  0
LINE
  5
C6
330
1F
100
AcDbEntity
  8
SK3
  6
SLD-Dashed
370
    18
100
AcDbLine
 10
4.4923103414
 20
-11.3598890603
 30
0.0
 11
4.1091069579
 21
-11.4464955404
 31
0.0
  0
LINE
  5
C7
330
1F
100
AcDbEntity
  8
SK3
  6
SLD-Dashed
370
    18
100
AcDbLine
 10
4.1091069579
 20
-11.4464955404
 30
0.0
 11
3.7820932921
 21
-11.7004131898
 31
0.0
  0
LINE
  5
C8
330
1F
100
AcDbEntity
  8
SK3
  6
SLD-Dashed
370
    18
100
AcDbLine
 10
3.7820932921
 20
-11.7004131898
 30
0.0
 11
3.5335544962
 21
-12.104338035
 31
0.0
  0
LINE
  5
C9
330
1F
100
AcDbEntity
  8
SK3
  6
SLD-Dashed
370
    18
100
AcDbLine
 10
3.5335544962
 20
-12.104338035
 30
0.0
 11
3.3804280683
 21
-12.6307420433
 31
0.0
  0
LINE
  5
CA
330
1F
100
AcDbEntity
  8
SK3
  6
SLD-Dashed
370
    18
100
AcDbLine
 10
3.3804280683
 20
-12.6307420433
 30
0.0
 11
3.333149245
 21
-13.243753463
 31
0.0
  0
LINE
  5
CB
330
1F
100
AcDbEntity
  8
SK3
  6
SLD-Dashed
370
    18
100
AcDbLine
 10
3.333149245
 20
-13.243753463
 30
0.0
 11
3.3949404024
 21
-13.9015950263
 31
0.0
  0
LINE
  5
CC
330
1F
100
AcDbEntity
  8
SK3
  6
SLD-Dashed
370
    18
100
AcDbLine
 10
3.3949404024
 20
-13.9015950263
 30
0.0
 11
3.5615900997
 21
-14.5594365895
 31
0.0
  0
LINE
  5
CD
330
1F
100
AcDbEntity
  8
SK3
  6
SLD-Dashed
370
    18
100
AcDbLine
 10
3.5615900997
 20
-14.5594365895
 30
0.0
 11
3.8217415567
 21
-15.1724480093
 31
0.0
  0
LINE
  5
CE
330
1F
100
AcDbEntity
  8
SK3
  6
SLD-Dashed
370
    18
100
AcDbLine
 10
3.8217415567
 20
-15.1724480093
 30
0.0
 11
4.157666117
 21
-15.6988520175
 31
0.0
  0
LINE
  5
CF
330
1F
100
AcDbEntity
  8
SK3
  6
SLD-Dashed
370
    18
100
AcDbLine
 10
4.157666117
 20
-15.6988520175
 30
0.0
 11
4.5464709401
 21
-16.1027759314
 31
0.0
  0
LINE
  5
D0
330
1F
100
AcDbEntity
  8
SK3
  6
SLD-Dashed
370
    18
100
AcDbLine
 10
4.5464709401
 20
-16.1027759314
 30
0.0
 11
4.9616592005
 21
-16.3566935807
 31
0.0
  0
LINE
  5
D1
330
1F
100
AcDbEntity
  8
SK3
  6
SLD-Dashed
370
    18
100
AcDbLine
 10
4.9616592005
 20
-16.3566935807
 30
0.0
 11
5.3749373183
 21
-16.4433009923
 31
0.0
  0
LINE
  5
D2
330
1F
100
AcDbEntity
  8
SK3
  6
SLD-Dashed
370
    18
100
AcDbLine
 10
5.3749373183
 20
-16.4433009923
 30
0.0
 11
5.7581402361
 21
-16.3566935807
 31
0.0
  0
LINE
  5
D3
330
1F
100
AcDbEntity
  8
SK3
  6
SLD-Dashed
370
    18
100
AcDbLine
 10
5.7581402361
 20
-16.3566935807
 30
0.0
 11
6.0851541348
 21
-16.1027759314
 31
0.0
  0
LINE
  5
D4
330
1F
100
AcDbEntity
  8
SK3
  6
SLD-Dashed
370
    18
100
AcDbLine
 10
6.0851541348
 20
-16.1027759314
 30
0.0
 11
6.3336929306
 21
-15.6988520175
 31
0.0
  0
LINE
  5
D5
330
1F
100
AcDbEntity
  8
SK3
  6
SLD-Dashed
370
    18
100
AcDbLine
 10
6.3336929306
 20
-15.6988520175
 30
0.0
 11
6.4868191257
 21
-15.1724480093
 31
0.0
  0
LINE
  5
D6
330
1F
100
AcDbEntity
  8
SK3
  6
SLD-Dashed
370
    18
100
AcDbLine
 10
6.4868191257
 20
-15.1724480093
 30
0.0
 11
6.5340981819
 21
-14.5594365895
 31
0.0
  0
LINE
  5
D7
330
1F
100
AcDbEntity
  8
SK3
  6
SLD-Dashed
370
    18
100
AcDbLine
 10
6.5340981819
 20
-14.5594365895
 30
0.0
 11
6.4723067917
 21
-13.9015950263
 31
0.0
  0
LINE
  5
D8
330
1F
100
AcDbEntity
  8
SK3
  6
SLD-Dashed
370
    18
100
AcDbLine
 10
6.4545595087
 20
-13.8826165348
 30
0.0
 11
6.5129888244
 21
-14.5287988707
 31
0.0
  0
LINE
  5
D9
330
1F
100
AcDbEntity
  8
SK3
  6
SLD-Dashed
370
    18
100
AcDbLine
 10
6.5129888244
 20
-14.5287988707
 30
0.0
 11
6.459550932
 21
-15.1270562783
 31
0.0
  0
LINE
  5
DA
330
1F
100
AcDbEntity
  8
SK3
  6
SLD-Dashed
370
    18
100
AcDbLine
 10
6.459550932
 20
-15.1270562783
 30
0.0
 11
6.2982095405
 21
-15.6330186874
 31
0.0
  0
LINE
  5
DB
330
1F
100
AcDbEntity
  8
SK3
  6
SLD-Dashed
370
    18
100
AcDbLine
 10
6.2982095405
 20
-15.6330186874
 30
0.0
 11
6.040930748
 21
-16.0091631114
 31
0.0
  0
LINE
  5
DC
330
1F
100
AcDbEntity
  8
SK3
  6
SLD-Dashed
370
    18
100
AcDbLine
 10
6.040930748
 20
-16.0091631114
 30
0.0
 11
5.7067950256
 21
-16.2275899202
 31
0.0
  0
LINE
  5
DD
330
1F
100
AcDbEntity
  8
SK3
  6
SLD-Dashed
370
    18
100
AcDbLine
 10
5.7067950256
 20
-16.2275899202
 30
0.0
 11
5.3205844015
 21
-16.2721015513
 31
0.0
  0
LINE
  5
DE
330
1F
100
AcDbEntity
  8
SK3
  6
SLD-Dashed
370
    18
100
AcDbLine
 10
5.3205844015
 20
-16.2721015513
 30
0.0
 11
4.910942167
 21
-16.139395535
 31
0.0
  0
LINE
  5
DF
330
1F
100
AcDbEntity
  8
SK3
  6
SLD-Dashed
370
    18
100
AcDbLine
 10
4.910942167
 20
-16.139395535
 30
0.0
 11
4.5082494617
 21
-15.8393159509
 31
0.0
  0
LINE
  5
E0
330
1F
100
AcDbEntity
  8
SK3
  6
SLD-Dashed
370
    18
100
AcDbLine
 10
4.5082494617
 20
-15.8393159509
 30
0.0
 11
4.1423724033
 21
-15.3941158205
 31
0.0
  0
LINE
  5
E1
330
1F
100
AcDbEntity
  8
SK3
  6
SLD-Dashed
370
    18
100
AcDbLine
 10
4.1423724033
 20
-15.3941158205
 30
0.0
 11
3.8404460065
 21
-14.8368142545
 31
0.0
  0
LINE
  5
E2
330
1F
100
AcDbEntity
  8
SK3
  6
SLD-Dashed
370
    18
100
AcDbLine
 10
3.8404460065
 20
-14.8368142545
 30
0.0
 11
3.6248632241
 21
-14.2087452114
 31
0.0
  0
LINE
  5
E3
330
1F
100
AcDbEntity
  8
SK3
  6
SLD-Dashed
370
    18
100
AcDbLine
 10
3.6248632241
 20
-14.2087452114
 30
0.0
 11
3.5116125364
 21
-13.5564878583
 31
0.0
  0
LINE
  5
E4
330
1F
100
AcDbEntity
  8
SK3
  6
SLD-Dashed
370
    18
100
AcDbLine
 10
3.5116125364
 20
-13.5564878583
 30
0.0
 11
3.5090933088
 21
-12.9284188151
 31
0.0
  0
LINE
  5
E5
330
1F
100
AcDbEntity
  8
SK3
  6
SLD-Dashed
370
    18
100
AcDbLine
 10
3.5090933088
 20
-12.9284188151
 30
0.0
 11
3.6174925044
 21
-12.3711172491
 31
0.0
  0
LINE
  5
E6
330
1F
100
AcDbEntity
  8
SK3
  6
SLD-Dashed
370
    18
100
AcDbLine
 10
3.6174925044
 20
-12.3711172491
 30
0.0
 11
3.8287704811
 21
-11.9259180501
 31
0.0
  0
LINE
  5
E7
330
1F
100
AcDbEntity
  8
SK3
  6
SLD-Dashed
370
    18
100
AcDbLine
 10
3.8287704811
 20
-11.9259180501
 30
0.0
 11
4.1272579692
 21
-11.6258366033
 31
0.0
  0
LINE
  5
E8
330
1F
100
AcDbEntity
  8
SK3
  6
SLD-Dashed
370
    18
100
AcDbLine
 10
4.1272579692
 20
-11.6258366033
 30
0.0
 11
4.4908169657
 21
-11.4931315184
 31
0.0
  0
LINE
  5
E9
330
1F
100
AcDbEntity
  8
SK3
  6
SLD-Dashed
370
    18
100
AcDbLine
 10
4.4908169657
 20
-11.4931315184
 30
0.0
 11
4.8924847506
 21
-11.5376431495
 31
0.0
  0
LINE
  5
EA
330
1F
100
AcDbEntity
  8
SK3
  6
SLD-Dashed
370
    18
100
AcDbLine
 10
4.8924847506
 20
-11.5376431495
 30
0.0
 11
5.3024706431
 21
-11.7560708895
 31
0.0
  0
LINE
  5
EB
330
1F
100
AcDbEntity
  8
SK3
  6
SLD-Dashed
370
    18
100
AcDbLine
 10
5.3024706431
 20
-11.7560708895
 30
0.0
 11
5.6903688237
 21
-12.1322143823
 31
0.0
  0
LINE
  5
EC
330
1F
100
AcDbEntity
  8
SK3
  6
SLD-Dashed
370
    18
100
AcDbLine
 10
5.6903688237
 20
-12.1322143823
 30
0.0
 11
6.0274098068
 21
-12.6381777227
 31
0.0
  0
LINE
  5
ED
330
1F
100
AcDbEntity
  8
SK3
  6
SLD-Dashed
370
    18
100
AcDbLine
 10
6.0274098068
 20
-12.6381777227
 30
0.0
 11
6.2885968946
 21
-13.2364351302
 31
0.0
  0
LINE
  5
EE
330
1F
100
AcDbEntity
  8
SK3
  6
SLD-Dashed
370
    18
100
AcDbLine
 10
6.2885968946
 20
-13.2364351302
 30
0.0
 11
6.4545595087
 21
-13.8826165348
 31
0.0
  0
LINE
  5
EF
330
1F
100
AcDbEntity
  8
SK3
  6
SLD-Dashed
370
    18
100
AcDbLine
 10
17.1792842448
 20
-11.0168047249
 30
0.0
 11
17.0133206993
 21
-10.3706233203
 31
0.0
  0
LINE
  5
F0
330
1F
100
AcDbEntity
  8
SK3
  6
SLD-Dashed
370
    18
100
AcDbLine
 10
17.0133206993
 20
-10.3706233203
 30
0.0
 11
16.7521350086
 21
-9.7723659128
 31
0.0
  0
LINE
  5
F1
330
1F
100
AcDbEntity
  8
SK3
  6
SLD-Dashed
370
    18
100
AcDbLine
 10
16.7521350086
 20
-9.7723659128
 30
0.0
 11
16.4150930941
 21
-9.2664025724
 31
0.0
  0
LINE
  5
F2
330
1F
100
AcDbEntity
  8
SK3
  6
SLD-Dashed
370
    18
100
AcDbLine
 10
16.4150930941
 20
-9.2664025724
 30
0.0
 11
16.0271953791
 21
-8.8902590796
 31
0.0
  0
LINE
  5
F3
330
1F
100
AcDbEntity
  8
SK3
  6
SLD-Dashed
370
    18
100
AcDbLine
 10
16.0271953791
 20
-8.8902590796
 30
0.0
 11
15.6172094867
 21
-8.6718313396
 31
0.0
  0
LINE
  5
F4
330
1F
100
AcDbEntity
  8
SK3
  6
SLD-Dashed
370
    18
100
AcDbLine
 10
15.6172094867
 20
-8.6718313396
 30
0.0
 11
15.2155421674
 21
-8.6273197085
 31
0.0
  0
LINE
  5
F5
330
1F
100
AcDbEntity
  8
SK3
  6
SLD-Dashed
370
    18
100
AcDbLine
 10
15.2155421674
 20
-8.6273197085
 30
0.0
 11
14.8519827053
 21
-8.7600247934
 31
0.0
  0
LINE
  5
F6
330
1F
100
AcDbEntity
  8
SK3
  6
SLD-Dashed
370
    18
100
AcDbLine
 10
14.8519827053
 20
-8.7600247934
 30
0.0
 11
14.5534947515
 21
-9.0601062402
 31
0.0
  0
LINE
  5
F7
330
1F
100
AcDbEntity
  8
SK3
  6
SLD-Dashed
370
    18
100
AcDbLine
 10
14.5534947515
 20
-9.0601062402
 30
0.0
 11
14.3422167748
 21
-9.5053054392
 31
0.0
  0
LINE
  5
F8
330
1F
100
AcDbEntity
  8
SK3
  6
SLD-Dashed
370
    18
100
AcDbLine
 10
14.3422167748
 20
-9.5053054392
 30
0.0
 11
14.2338182777
 21
-10.0626070052
 31
0.0
  0
LINE
  5
F9
330
1F
100
AcDbEntity
  8
SK3
  6
SLD-Dashed
370
    18
100
AcDbLine
 10
14.2338182777
 20
-10.0626070052
 30
0.0
 11
14.2363375053
 21
-10.6906760484
 31
0.0
  0
LINE
  5
FA
330
1F
100
AcDbEntity
  8
SK3
  6
SLD-Dashed
370
    18
100
AcDbLine
 10
14.2363375053
 20
-10.6906760484
 30
0.0
 11
14.349588193
 21
-11.3429334015
 31
0.0
  0
LINE
  5
FB
330
1F
100
AcDbEntity
  8
SK3
  6
SLD-Dashed
370
    18
100
AcDbLine
 10
14.349588193
 20
-11.3429334015
 30
0.0
 11
14.5651707426
 21
-11.9710024446
 31
0.0
  0
LINE
  5
FC
330
1F
100
AcDbEntity
  8
SK3
  6
SLD-Dashed
370
    18
100
AcDbLine
 10
14.5651707426
 20
-11.9710024446
 30
0.0
 11
14.8670971394
 21
-12.5283040106
 31
0.0
  0
LINE
  5
FD
330
1F
100
AcDbEntity
  8
SK3
  6
SLD-Dashed
370
    18
100
AcDbLine
 10
14.8670971394
 20
-12.5283040106
 30
0.0
 11
15.2329737321
 21
-12.973504141
 31
0.0
  0
LINE
  5
FE
330
1F
100
AcDbEntity
  8
SK3
  6
SLD-Dashed
370
    18
100
AcDbLine
 10
15.2329737321
 20
-12.973504141
 30
0.0
 11
15.6356673688
 21
-13.2735846564
 31
0.0
  0
LINE
  5
FF
330
1F
100
AcDbEntity
  8
SK3
  6
SLD-Dashed
370
    18
100
AcDbLine
 10
15.6356673688
 20
-13.2735846564
 30
0.0
 11
16.0453096032
 21
-13.4062897414
 31
0.0
  0
LINE
  5
100
330
1F
100
AcDbEntity
  8
SK3
  6
SLD-Dashed
370
    18
100
AcDbLine
 10
16.0453096032
 20
-13.4062897414
 30
0.0
 11
16.4315197617
 21
-13.3617781103
 31
0.0
  0
LINE
  5
101
330
1F
100
AcDbEntity
  8
SK3
  6
SLD-Dashed
370
    18
100
AcDbLine
 10
16.4315197617
 20
-13.3617781103
 30
0.0
 11
16.7656559497
 21
-13.1433513016
 31
0.0
  0
LINE
  5
102
330
1F
100
AcDbEntity
  8
SK3
  6
SLD-Dashed
370
    18
100
AcDbLine
 10
16.7656559497
 20
-13.1433513016
 30
0.0
 11
17.0229338109
 21
-12.7672068775
 31
0.0
  0
LINE
  5
103
330
1F
100
AcDbEntity
  8
SK3
  6
SLD-Dashed
370
    18
100
AcDbLine
 10
17.0229338109
 20
-12.7672068775
 30
0.0
 11
17.1842761338
 21
-12.2612444684
 31
0.0
  0
LINE
  5
104
330
1F
100
AcDbEntity
  8
SK3
  6
SLD-Dashed
370
    18
100
AcDbLine
 10
17.1842761338
 20
-12.2612444684
 30
0.0
 11
17.2377135605
 21
-11.6629870608
 31
0.0
  0
LINE
  5
105
330
1F
100
AcDbEntity
  8
SK3
  6
SLD-Dashed
370
    18
100
AcDbLine
 10
17.2377135605
 20
-11.6629870608
 30
0.0
 11
17.1792842448
 21
-11.0168047249
 31
0.0
  0
LINE
  5
106
330
1F
100
AcDbEntity
  8
1
  6
SLD-Dashed
370
    18
100
AcDbLine
 10
47.12939431
 20
23.3
 30
0.0
 11
48.1206066906
 21
23.2999995351
 31
0.0
  0
LINE
  5
107
330
1F
100
AcDbEntity
  8
1
  6
SLD-Dashed
370
    18
100
AcDbLine
 10
72.52939431
 20
23.3
 30
0.0
 11
73.5206082463
 21
23.2999995351
 31
0.0
  0
LINE
  5
108
330
1F
100
AcDbEntity
  8
SK3
  6
SLD-Dashed
370
    18
100
AcDbLine
 10
-99.7034013271
 20
-13.190000318
 30
0.0
 11
-99.7034013271
 21
13.190000318
 31
0.0
  0
LINE
  5
109
330
1F
100
AcDbEntity
  8
SK3
  6
SLD-Dashed
370
    18
100
AcDbLine
 10
-101.5999987721
 20
-14.2640499398
 30
0.0
 11
-101.5999987721
 21
14.2640499398
 31
0.0
  0
LINE
  5
10A
330
1F
100
AcDbEntity
  8
SK3
  6
SLD-Dashed
370
    18
100
AcDbLine
 10
100.1000031829
 20
-12.6999998465
 30
0.0
 11
100.1000031829
 21
12.6999998465
 31
0.0
  0
LINE
  5
10B
330
1F
100
AcDbEntity
  8
SK3
  6
SLD-Dashed
370
    18
100
AcDbLine
 10
101.5999987721
 20
-13.5660255328
 30
0.0
 11
101.5999987721
 21
13.5660255328
 31
0.0
  0
LINE
  5
10C
330
1F
100
AcDbEntity
  8
SK3
  6
SLD-Dashed
370
    18
100
AcDbLine
 10
-95.2500030398
 20
-13.190000318
 30
0.0
 11
-95.2500030398
 21
13.190000318
 31
0.0
  0
LINE
  5
10D
330
1F
100
AcDbEntity
  8
SK3
  6
SLD-Dashed
370
    18
100
AcDbLine
 10
-94.0505564213
 20
-11.1124999821
 30
0.0
 11
-94.0505564213
 21
11.1124999821
 31
0.0
  0
LINE
  5
10E
330
1F
100
AcDbEntity
  8
SK3
  6
SLD-Dashed
370
    18
100
AcDbLine
 10
3.7000000011
 20
37.8750003874
 30
0.0
 11
3.7000000011
 21
46.5560853481
 31
0.0
  0
LINE
  5
10F
330
1F
100
AcDbEntity
  8
SK3
  6
SLD-Dashed
370
    18
100
AcDbLine
 10
18.5499992222
 20
46.5560853481
 30
0.0
 11
18.5499992222
 21
37.8750003874
 31
0.0
  0
LINE
  5
110
330
1F
100
AcDbEntity
  8
SK3
  6
SLD-Dashed
370
    18
100
AcDbLine
 10
3.9499998093
 20
46.816252172
 30
0.0
 11
7.9572893801
 21
46.8162535878
 31
0.0
  0
LINE
  5
111
330
1F
100
AcDbEntity
  8
SK3
  6
SLD-Dashed
370
    18
100
AcDbLine
 10
14.2727106199
 20
46.8162535878
 30
0.0
 11
18.3000005782
 21
46.816252172
 31
0.0
  0
LINE
  5
112
330
1F
100
AcDbEntity
  8
1
  6
SLD-Dashed
370
    18
100
AcDbLine
 10
13.03
 20
44.5510215932
 30
0.0
 11
13.030000031
 21
44.5790104568
 31
0.0
  0
LINE
  5
113
330
1F
100
AcDbEntity
  8
1
  6
SLD-Dashed
370
    18
100
AcDbLine
 10
9.2
 20
44.5790106634
 30
0.0
 11
9.2
 21
44.5510215932
 31
0.0
  0
LINE
  5
114
330
1F
100
AcDbEntity
  8
1
  6
SLD-Dashed
370
    18
100
AcDbLine
 10
9.2
 20
-44.5790106634
 30
0.0
 11
9.2
 21
-44.5510215932
 31
0.0
  0
LINE
  5
115
330
1F
100
AcDbEntity
  8
1
  6
SLD-Dashed
370
    18
100
AcDbLine
 10
13.03
 20
-44.5510215932
 30
0.0
 11
13.03
 21
-44.5790106634
 31
0.0
  0
LINE
  5
116
330
1F
100
AcDbEntity
  8
SK3
  6
SLD-Dashed
370
    18
100
AcDbLine
 10
19.05
 20
-46.6976348437
 30
0.0
 11
19.0500002354
 21
-35.4750007391
 31
0.0
  0
LINE
  5
117
330
1F
100
AcDbEntity
  8
SK3
  6
SLD-Dashed
370
    18
100
AcDbLine
 10
3.2
 20
-35.4750007391
 30
0.0
 11
3.2
 21
-46.6976348437
 31
0.0
  0
LINE
  5
118
330
1F
100
AcDbEntity
  8
SK3
  6
SLD-Dashed
370
    18
100
AcDbLine
 10
19.05
 20
-35.1
 30
0.0
 11
3.2
 21
-35.1
 31
0.0
  0
LINE
  5
119
330
1F
100
AcDbEntity
  8
SK3
  6
SLD-Dashed
370
    18
100
AcDbLine
 10
3.2
 20
-35.4750007391
 30
0.0
 11
19.0500002354
 21
-35.4750007391
 31
0.0
  0
LINE
  5
11A
330
1F
100
AcDbEntity
  8
SK3
  6
SLD-Dashed
370
    18
100
AcDbLine
 10
3.7000000011
 20
37.5000014901
 30
0.0
 11
18.5499992222
 21
37.5000014901
 31
0.0
  0
LINE
  5
11B
330
1F
100
AcDbEntity
  8
SK3
  6
SLD-Dashed
370
    18
100
AcDbLine
 10
18.5499992222
 20
37.8750003874
 30
0.0
 11
3.7000000011
 21
37.8750003874
 31
0.0
  0
LINE
  5
11C
330
1F
100
AcDbEntity
  8
SK3
  6
SLD-Dashed
370
    18
100
AcDbLine
 10
31.5999984741
 20
-12.8697492182
 30
0.0
 11
31.5999984741
 21
12.8697492182
 31
0.0
  0
LINE
  5
11D
330
1F
100
AcDbEntity
  8
SK3
  6
SLD-Dashed
370
    18
100
AcDbLine
 10
-12.5500001013
 20
-12.8697492182
 30
0.0
 11
-12.5500001013
 21
12.8697492182
 31
0.0
  0
LINE
  5
11E
330
1F
100
AcDbEntity
  8
SK3
  6
SLD-Dashed
370
    18
100
AcDbLine
 10
31.7500005983
 20
-12.7249996863
 30
0.0
 11
31.7500005983
 21
12.7250008531
 31
0.0
  0
LINE
  5
11F
330
1F
100
AcDbEntity
  8
SK3
  6
SLD-Dashed
370
    18
100
AcDbLine
 10
-12.6999998465
 20
-12.7250002697
 30
0.0
 11
-12.6999998465
 21
12.7250002697
 31
0.0
  0
LINE
  5
120
330
1F
100
AcDbEntity
  8
SK3
  6
SLD-Dashed
370
    18
100
AcDbLine
 10
31.7500010133
 20
12.6785133034
 30
0.0
 11
31.7500010133
 21
-12.6785133034
 31
0.0
  0
LINE
  5
121
330
1F
100
AcDbEntity
  8
SK3
  6
SLD-Dashed
370
    18
100
AcDbLine
 10
-14.2000000924
 20
-12.6999998465
 30
0.0
 11
-14.2000000924
 21
12.6999998465
 31
0.0
  0
LINE
  5
122
330
1F
100
AcDbEntity
  8
SK3
  6
SLD-Dashed
370
    18
100
AcDbLine
 10
-12.6999998465
 20
12.6785133034
 30
0.0
 11
-12.6999998465
 21
-12.6785133034
 31
0.0
  0
LINE
  5
123
330
1F
100
AcDbEntity
  8
SK3
  6
SLD-Dashed
370
    18
100
AcDbLine
 10
-15.1538662612
 20
-11.1124999821
 30
0.0
 11
-15.1538662612
 21
11.1124999821
 31
0.0
  0
LINE
  5
124
330
1F
100
AcDbEntity
  8
SK3
  6
SLD-Dashed
370
    18
100
AcDbLine
 10
47.12939431
 20
23.3
 30
0.0
 11
37.5
 21
23.2999995351
 31
0.0
  0
LINE
  5
125
330
1F
100
AcDbEntity
  8
SK3
  6
SLD-Dashed
370
    18
100
AcDbLine
 10
73.5206082463
 20
23.2999995351
 30
0.0
 11
83.1499993801
 21
23.2999995351
 31
0.0
  0
LINE
  5
126
330
1F
100
AcDbEntity
  8
SK3
  6
SLD-Dashed
370
    18
100
AcDbLine
 10
48.1206066906
 20
23.2999995351
 30
0.0
 11
57.7500015497
 21
23.2999995351
 31
0.0
  0
LINE
  5
127
330
1F
100
AcDbEntity
  8
SK3
  6
SLD-Dashed
370
    18
100
AcDbLine
 10
72.52939431
 20
23.3
 30
0.0
 11
62.9
 21
23.2999995351
 31
0.0
  0
LINE
  5
128
330
1F
100
AcDbEntity
  8
SK3
  6
SLD-Dashed
370
    18
100
AcDbLine
 10
56.2863983214
 20
23.2999995351
 30
0.0
 11
38.9846973121
 21
23.2999995351
 31
0.0
  0
LINE
  5
129
330
1F
100
AcDbEntity
  8
SK3
  6
SLD-Dashed
370
    18
100
AcDbLine
 10
81.6863998771
 20
23.2999995351
 30
0.0
 11
64.3846988678
 21
23.2999995351
 31
0.0
  0
LINE
  5
12A
330
1F
100
AcDbEntity
  8
SK3
  6
SLD-Dashed
370
    18
100
AcDbLine
 10
16.1000005901
 20
33.100001514
 30
0.0
 11
6.0999998823
 21
33.100001514
 31
0.0
  0
LINE
  5
12B
330
1F
100
AcDbEntity
  8
SK3
  6
SLD-Dashed
370
    18
100
AcDbLine
 10
6.0999998823
 20
37.5000014901
 30
0.0
 11
16.1000005901
 21
37.5000014901
 31
0.0
  0
LINE
  5
12C
330
1F
100
AcDbEntity
  8
SK3
  6
SLD-Dashed
370
    18
100
AcDbLine
 10
6.400000304
 20
32.8000001609
 30
0.0
 11
15.7999992371
 21
32.8000001609
 31
0.0
  0
LINE
  5
12D
330
1F
100
AcDbEntity
  8
1
  6
SLD-Dashed
370
    18
100
AcDbLine
 10
12.28
 20
43.7694359685
 30
0.0
 11
9.95
 21
43.7694359685
 31
0.0
  0
LINE
  5
12E
330
1F
100
AcDbEntity
  8
1
  6
SLD-Dashed
370
    18
100
AcDbLine
 10
12.28
 20
-43.7694359685
 30
0.0
 11
9.95
 21
-43.7694359685
 31
0.0
  0
LINE
  5
12F
330
1F
100
AcDbEntity
  8
1
  6
SLD-Dashed
370
    18
100
AcDbLine
 10
18.3000005782
 20
-47.4754832685
 30
0.0
 11
14.6397231147
 21
-47.4754832685
 31
0.0
  0
LINE
  5
130
330
1F
100
AcDbEntity
  8
1
  6
SLD-Dashed
370
    18
100
AcDbLine
 10
7.5902766548
 20
-47.4754832685
 30
0.0
 11
3.9499998093
 21
-47.4754832685
 31
0.0
  0
LINE
  5
131
330
1F
100
AcDbEntity
  8
SK3
  6
SLD-Dashed
370
    18
100
AcDbLine
 10
3.5547332373
 20
13.8826165348
 30
0.0
 11
3.4963041544
 21
13.2364351302
 31
0.0
  0
LINE
  5
132
330
1F
100
AcDbEntity
  8
SK3
  6
SLD-Dashed
370
    18
100
AcDbLine
 10
3.4963041544
 20
13.2364351302
 30
0.0
 11
3.5497418139
 21
12.6381777227
 31
0.0
  0
LINE
  5
133
330
1F
100
AcDbEntity
  8
SK3
  6
SLD-Dashed
370
    18
100
AcDbLine
 10
3.5497418139
 20
12.6381777227
 30
0.0
 11
3.7110832054
 21
12.1322143823
 31
0.0
  0
LINE
  5
134
330
1F
100
AcDbEntity
  8
SK3
  6
SLD-Dashed
370
    18
100
AcDbLine
 10
3.7110832054
 20
12.1322143823
 30
0.0
 11
3.9683622308
 21
11.7560708895
 31
0.0
  0
LINE
  5
135
330
1F
100
AcDbEntity
  8
SK3
  6
SLD-Dashed
370
    18
100
AcDbLine
 10
3.9683622308
 20
11.7560708895
 30
0.0
 11
4.3024974875
 21
11.5376431495
 31
0.0
  0
LINE
  5
136
330
1F
100
AcDbEntity
  8
SK3
  6
SLD-Dashed
370
    18
100
AcDbLine
 10
4.3024974875
 20
11.5376431495
 30
0.0
 11
4.6887081116
 21
11.4931315184
 31
0.0
  0
LINE
  5
137
330
1F
100
AcDbEntity
  8
SK3
  6
SLD-Dashed
370
    18
100
AcDbLine
 10
4.6887081116
 20
11.4931315184
 30
0.0
 11
5.0983503461
 21
11.6258366033
 31
0.0
  0
LINE
  5
138
330
1F
100
AcDbEntity
  8
SK3
  6
SLD-Dashed
370
    18
100
AcDbLine
 10
5.0983503461
 20
11.6258366033
 30
0.0
 11
5.5010430515
 21
11.9259180501
 31
0.0
  0
LINE
  5
139
330
1F
100
AcDbEntity
  8
SK3
  6
SLD-Dashed
370
    18
100
AcDbLine
 10
5.5010430515
 20
11.9259180501
 30
0.0
 11
5.8669205755
 21
12.3711172491
 31
0.0
  0
LINE
  5
13A
330
1F
100
AcDbEntity
  8
SK3
  6
SLD-Dashed
370
    18
100
AcDbLine
 10
5.8669205755
 20
12.3711172491
 30
0.0
 11
6.1688465066
 21
12.9284188151
 31
0.0
  0
LINE
  5
13B
330
1F
100
AcDbEntity
  8
SK3
  6
SLD-Dashed
370
    18
100
AcDbLine
 10
6.1688465066
 20
12.9284188151
 30
0.0
 11
6.3844295219
 21
13.5564878583
 31
0.0
  0
LINE
  5
13C
330
1F
100
AcDbEntity
  8
SK3
  6
SLD-Dashed
370
    18
100
AcDbLine
 10
6.3844295219
 20
13.5564878583
 30
0.0
 11
6.4976802096
 21
14.2087452114
 31
0.0
  0
LINE
  5
13D
330
1F
100
AcDbEntity
  8
SK3
  6
SLD-Dashed
370
    18
100
AcDbLine
 10
6.4976802096
 20
14.2087452114
 30
0.0
 11
6.5001994371
 21
14.8368142545
 31
0.0
  0
LINE
  5
13E
330
1F
100
AcDbEntity
  8
SK3
  6
SLD-Dashed
370
    18
100
AcDbLine
 10
6.5001994371
 20
14.8368142545
 30
0.0
 11
6.3918004744
 21
15.3941158205
 31
0.0
  0
LINE
  5
13F
330
1F
100
AcDbEntity
  8
SK3
  6
SLD-Dashed
370
    18
100
AcDbLine
 10
6.3918004744
 20
15.3941158205
 30
0.0
 11
6.1805220321
 21
15.8393159509
 31
0.0
  0
LINE
  5
140
330
1F
100
AcDbEntity
  8
SK3
  6
SLD-Dashed
370
    18
100
AcDbLine
 10
6.1805220321
 20
15.8393159509
 30
0.0
 11
5.8820350096
 21
16.139395535
 31
0.0
  0
LINE
  5
141
330
1F
100
AcDbEntity
  8
SK3
  6
SLD-Dashed
370
    18
100
AcDbLine
 10
5.8820350096
 20
16.139395535
 30
0.0
 11
5.5184755474
 21
16.2721015513
 31
0.0
  0
LINE
  5
142
330
1F
100
AcDbEntity
  8
SK3
  6
SLD-Dashed
370
    18
100
AcDbLine
 10
5.5184755474
 20
16.2721015513
 30
0.0
 11
5.1168082282
 21
16.2275899202
 31
0.0
  0
LINE
  5
143
330
1F
100
AcDbEntity
  8
SK3
  6
SLD-Dashed
370
    18
100
AcDbLine
 10
5.1168082282
 20
16.2275899202
 30
0.0
 11
4.7068218701
 21
16.0091631114
 31
0.0
  0
LINE
  5
144
330
1F
100
AcDbEntity
  8
SK3
  6
SLD-Dashed
370
    18
100
AcDbLine
 10
4.7068218701
 20
16.0091631114
 30
0.0
 11
4.3189241551
 21
15.6330186874
 31
0.0
  0
LINE
  5
145
330
1F
100
AcDbEntity
  8
SK3
  6
SLD-Dashed
370
    18
100
AcDbLine
 10
4.3189241551
 20
15.6330186874
 30
0.0
 11
3.9818831719
 21
15.1270562783
 31
0.0
  0
LINE
  5
146
330
1F
100
AcDbEntity
  8
SK3
  6
SLD-Dashed
370
    18
100
AcDbLine
 10
3.9818831719
 20
15.1270562783
 30
0.0
 11
3.7206958514
 21
14.5287988707
 31
0.0
  0
LINE
  5
147
330
1F
100
AcDbEntity
  8
SK3
  6
SLD-Dashed
370
    18
100
AcDbLine
 10
3.7206958514
 20
14.5287988707
 30
0.0
 11
3.5547332373
 21
13.8826165348
 31
0.0
  0
LINE
  5
148
330
1F
100
AcDbEntity
  8
SK3
  6
SLD-Dashed
370
    18
100
AcDbLine
 10
14.2794577405
 20
11.0168047249
 30
0.0
 11
14.4454203546
 21
11.6629870608
 31
0.0
  0
LINE
  5
149
330
1F
100
AcDbEntity
  8
SK3
  6
SLD-Dashed
370
    18
100
AcDbLine
 10
14.4454203546
 20
11.6629870608
 30
0.0
 11
14.706607908
 21
12.2612444684
 31
0.0
  0
LINE
  5
14A
330
1F
100
AcDbEntity
  8
SK3
  6
SLD-Dashed
370
    18
100
AcDbLine
 10
14.706607908
 20
12.2612444684
 30
0.0
 11
15.0436488912
 21
12.7672068775
 31
0.0
  0
LINE
  5
14B
330
1F
100
AcDbEntity
  8
SK3
  6
SLD-Dashed
370
    18
100
AcDbLine
 10
15.0436488912
 20
12.7672068775
 30
0.0
 11
15.4315466061
 21
13.1433513016
 31
0.0
  0
LINE
  5
14C
330
1F
100
AcDbEntity
  8
SK3
  6
SLD-Dashed
370
    18
100
AcDbLine
 10
15.4315466061
 20
13.1433513016
 30
0.0
 11
15.8415324986
 21
13.3617781103
 31
0.0
  0
LINE
  5
14D
330
1F
100
AcDbEntity
  8
SK3
  6
SLD-Dashed
370
    18
100
AcDbLine
 10
15.8415324986
 20
13.3617781103
 30
0.0
 11
16.2432007492
 21
13.4062897414
 31
0.0
  0
LINE
  5
14E
330
1F
100
AcDbEntity
  8
SK3
  6
SLD-Dashed
370
    18
100
AcDbLine
 10
16.2432007492
 20
13.4062897414
 30
0.0
 11
16.60675928
 21
13.2735846564
 31
0.0
  0
LINE
  5
14F
330
1F
100
AcDbEntity
  8
SK3
  6
SLD-Dashed
370
    18
100
AcDbLine
 10
16.60675928
 20
13.2735846564
 30
0.0
 11
16.9052463025
 21
12.973504141
 31
0.0
  0
LINE
  5
150
330
1F
100
AcDbEntity
  8
SK3
  6
SLD-Dashed
370
    18
100
AcDbLine
 10
16.9052463025
 20
12.973504141
 30
0.0
 11
17.1165242791
 21
12.5283040106
 31
0.0
  0
LINE
  5
151
330
1F
100
AcDbEntity
  8
SK3
  6
SLD-Dashed
370
    18
100
AcDbLine
 10
17.1165242791
 20
12.5283040106
 30
0.0
 11
17.2249246389
 21
11.9710024446
 31
0.0
  0
LINE
  5
152
330
1F
100
AcDbEntity
  8
SK3
  6
SLD-Dashed
370
    18
100
AcDbLine
 10
17.2249246389
 20
11.9710024446
 30
0.0
 11
17.22240448
 21
11.3429334015
 31
0.0
  0
LINE
  5
153
330
1F
100
AcDbEntity
  8
SK3
  6
SLD-Dashed
370
    18
100
AcDbLine
 10
17.22240448
 20
11.3429334015
 30
0.0
 11
17.1091537923
 21
10.6906760484
 31
0.0
  0
LINE
  5
154
330
1F
100
AcDbEntity
  8
SK3
  6
SLD-Dashed
370
    18
100
AcDbLine
 10
17.1091537923
 20
10.6906760484
 30
0.0
 11
16.8935712427
 21
10.0626070052
 31
0.0
  0
LINE
  5
155
330
1F
100
AcDbEntity
  8
SK3
  6
SLD-Dashed
370
    18
100
AcDbLine
 10
16.8935712427
 20
10.0626070052
 30
0.0
 11
16.5916457772
 21
9.5053054392
 31
0.0
  0
LINE
  5
156
330
1F
100
AcDbEntity
  8
SK3
  6
SLD-Dashed
370
    18
100
AcDbLine
 10
16.5916457772
 20
9.5053054392
 30
0.0
 11
16.2257682532
 21
9.0601062402
 31
0.0
  0
LINE
  5
157
330
1F
100
AcDbEntity
  8
SK3
  6
SLD-Dashed
370
    18
100
AcDbLine
 10
16.2257682532
 20
9.0601062402
 30
0.0
 11
15.8230755478
 21
8.7600247934
 31
0.0
  0
LINE
  5
158
330
1F
100
AcDbEntity
  8
SK3
  6
SLD-Dashed
370
    18
100
AcDbLine
 10
15.8230755478
 20
8.7600247934
 30
0.0
 11
15.4134333134
 21
8.6273197085
 31
0.0
  0
LINE
  5
159
330
1F
100
AcDbEntity
  8
SK3
  6
SLD-Dashed
370
    18
100
AcDbLine
 10
15.4134333134
 20
8.6273197085
 30
0.0
 11
15.0272222236
 21
8.6718313396
 31
0.0
  0
LINE
  5
15A
330
1F
100
AcDbEntity
  8
SK3
  6
SLD-Dashed
370
    18
100
AcDbLine
 10
15.0272222236
 20
8.6718313396
 30
0.0
 11
14.6930869669
 21
8.8902590796
 31
0.0
  0
LINE
  5
15B
330
1F
100
AcDbEntity
  8
SK3
  6
SLD-Dashed
370
    18
100
AcDbLine
 10
14.6930869669
 20
8.8902590796
 30
0.0
 11
14.4358081743
 21
9.2664025724
 31
0.0
  0
LINE
  5
15C
330
1F
100
AcDbEntity
  8
SK3
  6
SLD-Dashed
370
    18
100
AcDbLine
 10
14.4358081743
 20
9.2664025724
 30
0.0
 11
14.2744667828
 21
9.7723659128
 31
0.0
  0
LINE
  5
15D
330
1F
100
AcDbEntity
  8
SK3
  6
SLD-Dashed
370
    18
100
AcDbLine
 10
14.2744667828
 20
9.7723659128
 30
0.0
 11
14.2210284248
 21
10.3706233203
 31
0.0
  0
LINE
  5
15E
330
1F
100
AcDbEntity
  8
SK3
  6
SLD-Dashed
370
    18
100
AcDbLine
 10
14.2210284248
 20
10.3706233203
 30
0.0
 11
14.2794577405
 21
11.0168047249
 31
0.0
  0
LINE
  5
15F
330
1F
100
AcDbEntity
  8
SK3
  6
SLD-Dashed
370
    18
100
AcDbLine
 10
3.3949404024
 20
13.9015950263
 30
0.0
 11
3.5615900997
 21
14.5594365895
 31
0.0
  0
LINE
  5
160
330
1F
100
AcDbEntity
  8
SK3
  6
SLD-Dashed
370
    18
100
AcDbLine
 10
3.5615900997
 20
14.5594365895
 30
0.0
 11
3.8217415567
 21
15.1724480093
 31
0.0
  0
LINE
  5
161
330
1F
100
AcDbEntity
  8
SK3
  6
SLD-Dashed
370
    18
100
AcDbLine
 10
3.8217415567
 20
15.1724480093
 30
0.0
 11
4.157666117
 21
15.6988520175
 31
0.0
  0
LINE
  5
162
330
1F
100
AcDbEntity
  8
SK3
  6
SLD-Dashed
370
    18
100
AcDbLine
 10
4.157666117
 20
15.6988520175
 30
0.0
 11
4.5464709401
 21
16.1027759314
 31
0.0
  0
LINE
  5
163
330
1F
100
AcDbEntity
  8
SK3
  6
SLD-Dashed
370
    18
100
AcDbLine
 10
4.5464709401
 20
16.1027759314
 30
0.0
 11
4.9616592005
 21
16.3566935807
 31
0.0
  0
LINE
  5
164
330
1F
100
AcDbEntity
  8
SK3
  6
SLD-Dashed
370
    18
100
AcDbLine
 10
4.9616592005
 20
16.3566935807
 30
0.0
 11
5.3749373183
 21
16.4433009923
 31
0.0
  0
LINE
  5
165
330
1F
100
AcDbEntity
  8
SK3
  6
SLD-Dashed
370
    18
100
AcDbLine
 10
5.3749373183
 20
16.4433009923
 30
0.0
 11
5.7581402361
 21
16.3566935807
 31
0.0
  0
LINE
  5
166
330
1F
100
AcDbEntity
  8
SK3
  6
SLD-Dashed
370
    18
100
AcDbLine
 10
5.7581402361
 20
16.3566935807
 30
0.0
 11
6.0851541348
 21
16.1027759314
 31
0.0
  0
LINE
  5
167
330
1F
100
AcDbEntity
  8
SK3
  6
SLD-Dashed
370
    18
100
AcDbLine
 10
6.0851541348
 20
16.1027759314
 30
0.0
 11
6.3336929306
 21
15.6988520175
 31
0.0
  0
LINE
  5
168
330
1F
100
AcDbEntity
  8
SK3
  6
SLD-Dashed
370
    18
100
AcDbLine
 10
6.3336929306
 20
15.6988520175
 30
0.0
 11
6.4868191257
 21
15.1724480093
 31
0.0
  0
LINE
  5
169
330
1F
100
AcDbEntity
  8
SK3
  6
SLD-Dashed
370
    18
100
AcDbLine
 10
6.4868191257
 20
15.1724480093
 30
0.0
 11
6.5340981819
 21
14.5594365895
 31
0.0
  0
LINE
  5
16A
330
1F
100
AcDbEntity
  8
SK3
  6
SLD-Dashed
370
    18
100
AcDbLine
 10
6.5340981819
 20
14.5594365895
 30
0.0
 11
6.4723067917
 21
13.9015950263
 31
0.0
  0
LINE
  5
16B
330
1F
100
AcDbEntity
  8
SK3
  6
SLD-Dashed
370
    18
100
AcDbLine
 10
6.4723067917
 20
13.9015950263
 30
0.0
 11
6.3056573272
 21
13.243753463
 31
0.0
  0
LINE
  5
16C
330
1F
100
AcDbEntity
  8
SK3
  6
SLD-Dashed
370
    18
100
AcDbLine
 10
6.3056573272
 20
13.243753463
 30
0.0
 11
6.0455058701
 21
12.6307420433
 31
0.0
  0
LINE
  5
16D
330
1F
100
AcDbEntity
  8
SK3
  6
SLD-Dashed
370
    18
100
AcDbLine
 10
6.0455058701
 20
12.6307420433
 30
0.0
 11
5.7095810771
 21
12.104338035
 31
0.0
  0
LINE
  5
16E
330
1F
100
AcDbEntity
  8
SK3
  6
SLD-Dashed
370
    18
100
AcDbLine
 10
5.7095810771
 20
12.104338035
 30
0.0
 11
5.3207767196
 21
11.7004131898
 31
0.0
  0
LINE
  5
16F
330
1F
100
AcDbEntity
  8
SK3
  6
SLD-Dashed
370
    18
100
AcDbLine
 10
5.3207767196
 20
11.7004131898
 30
0.0
 11
4.9055879936
 21
11.4464955404
 31
0.0
  0
LINE
  5
170
330
1F
100
AcDbEntity
  8
SK3
  6
SLD-Dashed
370
    18
100
AcDbLine
 10
4.9055879936
 20
11.4464955404
 30
0.0
 11
4.4923103414
 21
11.3598890603
 31
0.0
  0
LINE
  5
171
330
1F
100
AcDbEntity
  8
SK3
  6
SLD-Dashed
370
    18
100
AcDbLine
 10
4.4923103414
 20
11.3598890603
 30
0.0
 11
4.1091069579
 21
11.4464955404
 31
0.0
  0
LINE
  5
172
330
1F
100
AcDbEntity
  8
SK3
  6
SLD-Dashed
370
    18
100
AcDbLine
 10
4.1091069579
 20
11.4464955404
 30
0.0
 11
3.7820932921
 21
11.7004131898
 31
0.0
  0
LINE
  5
173
330
1F
100
AcDbEntity
  8
SK3
  6
SLD-Dashed
370
    18
100
AcDbLine
 10
3.7820932921
 20
11.7004131898
 30
0.0
 11
3.5335544962
 21
12.104338035
 31
0.0
  0
LINE
  5
174
330
1F
100
AcDbEntity
  8
SK3
  6
SLD-Dashed
370
    18
100
AcDbLine
 10
3.5335544962
 20
12.104338035
 30
0.0
 11
3.3804280683
 21
12.6307420433
 31
0.0
  0
LINE
  5
175
330
1F
100
AcDbEntity
  8
SK3
  6
SLD-Dashed
370
    18
100
AcDbLine
 10
3.3804280683
 20
12.6307420433
 30
0.0
 11
3.333149245
 21
13.243753463
 31
0.0
  0
LINE
  5
176
330
1F
100
AcDbEntity
  8
SK3
  6
SLD-Dashed
370
    18
100
AcDbLine
 10
3.333149245
 20
13.243753463
 30
0.0
 11
3.3949404024
 21
13.9015950263
 31
0.0
  0
LINE
  5
177
330
1F
100
AcDbEntity
  8
SK3
  6
SLD-Dashed
370
    18
100
AcDbLine
 10
5.6371325627
 20
-16.2495691329
 30
0.0
 11
16.3618568331
 21
-13.3837563917
 31
0.0
  0
LINE
  5
178
330
1F
100
AcDbEntity
  8
SK3
  6
SLD-Dashed
370
    18
100
AcDbLine
 10
15.0968851522
 20
-8.6498530582
 30
0.0
 11
4.3721604161
 21
-11.5156648681
 31
0.0
  0
LINE
  5
179
330
1F
100
AcDbEntity
  8
SK3
  6
SLD-Dashed
370
    18
100
AcDbLine
 10
-101.5999987721
 20
-14.2850000411
 30
0.0
 11
-99.7034013271
 21
-13.190000318
 31
0.0
  0
LINE
  5
17A
330
1F
100
AcDbEntity
  8
SK3
  6
SLD-Dashed
370
    18
100
AcDbLine
 10
-99.7034013271
 20
13.190000318
 30
0.0
 11
-101.5999987721
 21
14.2850000411
 31
0.0
  0
LINE
  5
17B
330
1F
100
AcDbEntity
  8
SK3
  6
SLD-Dashed
370
    18
100
AcDbLine
 10
101.5999987721
 20
13.5660255328
 30
0.0
 11
100.1000031829
 21
12.6999998465
 31
0.0
  0
LINE
  5
17C
330
1F
100
AcDbEntity
  8
SK3
  6
SLD-Dashed
370
    18
100
AcDbLine
 10
100.1000031829
 20
-12.6999998465
 30
0.0
 11
101.5999987721
 21
-13.5660255328
 31
0.0
  0
LINE
  5
17D
330
1F
100
AcDbEntity
  8
SK3
  6
SLD-Dashed
370
    18
100
AcDbLine
 10
-95.2500030398
 20
-13.190000318
 30
0.0
 11
-94.0505564213
 21
-11.1124999821
 31
0.0
  0
LINE
  5
17E
330
1F
100
AcDbEntity
  8
SK3
  6
SLD-Dashed
370
    18
100
AcDbLine
 10
-94.0505564213
 20
11.1124999821
 30
0.0
 11
-95.2500030398
 21
13.190000318
 31
0.0
  0
LINE
  5
17F
330
1F
100
AcDbEntity
  8
SK3
  6
SLD-Dashed
370
    18
100
AcDbLine
 10
-99.7034013271
 20
-13.190000318
 30
0.0
 11
-95.2500030398
 21
-13.190000318
 31
0.0
  0
LINE
  5
180
330
1F
100
AcDbEntity
  8
SK3
  6
SLD-Dashed
370
    18
100
AcDbLine
 10
-95.2500030398
 20
13.190000318
 30
0.0
 11
-99.7034013271
 21
13.190000318
 31
0.0
  0
LINE
  5
181
330
1F
100
AcDbEntity
  8
SK3
  6
SLD-Dashed
370
    18
100
AcDbLine
 10
-12.5500000171
 20
-12.8749999307
 30
0.0
 11
31.5999985583
 21
-12.8749999307
 31
0.0
  0
LINE
  5
182
330
1F
100
AcDbEntity
  8
SK3
  6
SLD-Dashed
370
    18
100
AcDbLine
 10
31.5999985583
 20
12.8749999307
 30
0.0
 11
-12.5500000171
 21
12.8749999307
 31
0.0
  0
LINE
  5
183
330
1F
100
AcDbEntity
  8
SK3
  6
SLD-Dashed
370
    18
100
AcDbLine
 10
38.9636
 20
12.7
 30
0.0
 11
31.7500010133
 21
12.6999998465
 31
0.0
  0
LINE
  5
184
330
1F
100
AcDbEntity
  8
SK3
  6
SLD-Dashed
370
    18
100
AcDbLine
 10
64.3636
 20
12.7
 30
0.0
 11
56.2744289637
 21
12.6999998465
 31
0.0
  0
LINE
  5
185
330
1F
100
AcDbEntity
  8
SK3
  6
SLD-Dashed
370
    18
100
AcDbLine
 10
100.1000031829
 20
12.6999998465
 30
0.0
 11
81.6744267941
 21
12.6999998465
 31
0.0
  0
LINE
  5
186
330
1F
100
AcDbEntity
  8
SK3
  6
SLD-Dashed
370
    18
100
AcDbLine
 10
31.7500010133
 20
-12.6999998465
 30
0.0
 11
100.1000031829
 21
-12.6999998465
 31
0.0
  0
LINE
  5
187
330
1F
100
AcDbEntity
  8
SK3
  6
SLD-Dashed
370
    18
100
AcDbLine
 10
-12.6999998465
 20
12.6999998465
 30
0.0
 11
-14.2000000924
 21
12.6999998465
 31
0.0
  0
LINE
  5
188
330
1F
100
AcDbEntity
  8
SK3
  6
SLD-Dashed
370
    18
100
AcDbLine
 10
-14.2000000924
 20
-12.6999998465
 30
0.0
 11
-12.6999998465
 21
-12.6999998465
 31
0.0
  0
LINE
  5
189
330
1F
100
AcDbEntity
  8
SK3
  6
SLD-Dashed
370
    18
100
AcDbLine
 10
-14.2000000924
 20
12.6999998465
 30
0.0
 11
-15.1538662612
 21
11.1124999821
 31
0.0
  0
LINE
  5
18A
330
1F
100
AcDbEntity
  8
SK3
  6
SLD-Dashed
370
    18
100
AcDbLine
 10
-15.1538662612
 20
-11.1124999821
 30
0.0
 11
-14.2000000924
 21
-12.6999998465
 31
0.0
  0
LINE
  5
18B
330
1F
100
AcDbEntity
  8
SK3
  6
SLD-Dashed
370
    18
100
AcDbLine
 10
-94.0505564213
 20
-11.1124999821
 30
0.0
 11
-15.1538662612
 21
-11.1124999821
 31
0.0
  0
LINE
  5
18C
330
1F
100
AcDbEntity
  8
SK3
  6
SLD-Dashed
370
    18
100
AcDbLine
 10
-15.1538662612
 20
11.1124999821
 30
0.0
 11
-94.0505564213
 21
11.1124999821
 31
0.0
  0
LINE
  5
18D
330
1F
100
AcDbEntity
  8
SK3
  6
SLD-Dashed
370
    18
100
AcDbLine
 10
37.5
 20
25.4
 30
0.0
 11
37.5
 21
23.2999995351
 31
0.0
  0
LINE
  5
18E
330
1F
100
AcDbEntity
  8
SK3
  6
SLD-Dashed
370
    18
100
AcDbLine
 10
83.1499993801
 20
23.2999995351
 30
0.0
 11
83.1499993801
 21
25.399999693
 31
0.0
  0
LINE
  5
18F
330
1F
100
AcDbEntity
  8
SK3
  6
SLD-Dashed
370
    18
100
AcDbLine
 10
57.7500015497
 20
23.2999995351
 30
0.0
 11
57.7500015497
 21
25.399999693
 31
0.0
  0
LINE
  5
190
330
1F
100
AcDbEntity
  8
SK3
  6
SLD-Dashed
370
    18
100
AcDbLine
 10
62.9
 20
25.4
 30
0.0
 11
62.9
 21
23.2999995351
 31
0.0
  0
LINE
  5
191
330
1F
100
AcDbEntity
  8
SK3
  6
SLD-Dashed
370
    18
100
AcDbLine
 10
38.9636009932
 20
23.2999995351
 30
0.0
 11
38.9636
 21
12.7
 31
0.0
  0
LINE
  5
192
330
1F
100
AcDbEntity
  8
SK3
  6
SLD-Dashed
370
    18
100
AcDbLine
 10
56.2863983214
 20
12.6918610185
 30
0.0
 11
56.2863983214
 21
23.2999995351
 31
0.0
  0
LINE
  5
193
330
1F
100
AcDbEntity
  8
SK3
  6
SLD-Dashed
370
    18
100
AcDbLine
 10
64.3635988235
 20
23.2999995351
 30
0.0
 11
64.3636
 21
12.7
 31
0.0
  0
LINE
  5
194
330
1F
100
AcDbEntity
  8
SK3
  6
SLD-Dashed
370
    18
100
AcDbLine
 10
81.6863998771
 20
12.6918610185
 30
0.0
 11
81.6863998771
 21
23.2999995351
 31
0.0
  0
LINE
  5
195
330
1F
100
AcDbEntity
  8
SK3
  6
SLD-Dashed
370
    18
100
AcDbLine
 10
6.0999998823
 20
37.5000014901
 30
0.0
 11
6.0999998823
 21
33.100001514
 31
0.0
  0
LINE
  5
196
330
1F
100
AcDbEntity
  8
SK3
  6
SLD-Dashed
370
    18
100
AcDbLine
 10
16.1000005901
 20
33.100001514
 30
0.0
 11
16.1000005901
 21
37.5000014901
 31
0.0
  0
LINE
  5
197
330
1F
100
AcDbEntity
  8
SK3
  6
SLD-Dashed
370
    18
100
AcDbLine
 10
4.3721604161
 20
11.5156648681
 30
0.0
 11
15.0968851522
 21
8.6498530582
 31
0.0
  0
LINE
  5
198
330
1F
100
AcDbEntity
  8
SK3
  6
SLD-Dashed
370
    18
100
AcDbLine
 10
16.3618568331
 20
13.3837563917
 30
0.0
 11
5.6371325627
 21
16.2495691329
 31
0.0
  0
LINE
  5
199
330
1F
100
AcDbEntity
  8
SK3
  6
SLD-Solid
370
    18
100
AcDbLine
 10
-55.5999986827
 20
12.6999998465
 30
0.0
 11
-94.967097044
 21
12.6999998465
 31
0.0
  0
LINE
  5
19A
330
1F
100
AcDbEntity
  8
SK3
  6
SLD-Solid
370
    18
100
AcDbLine
 10
-94.967097044
 20
-12.6999998465
 30
0.0
 11
-55.5999986827
 21
-12.6999998465
 31
0.0
  0
LINE
  5
19B
330
1F
100
AcDbEntity
  8
SK3
  6
SLD-Solid
370
    18
100
AcDbLine
 10
-55.5999986827
 20
0.0
 30
0.0
 11
-55.5999986827
 21
-1.7674983246
 31
0.0
  0
LINE
  5
19C
330
1F
100
AcDbEntity
  8
SK3
  6
SLD-Solid
370
    18
100
AcDbLine
 10
-55.5999986827
 20
0.0
 30
0.0
 11
-55.5999986827
 21
-1.7674983246
 31
0.0
  0
LINE
  5
19D
330
1F
100
AcDbEntity
  8
SK3
  6
SLD-Solid
370
    18
100
AcDbLine
 10
-55.600022151
 20
-1.7674983246
 30
0.0
 11
-55.5999986827
 21
-3.5005945247
 31
0.0
  0
LINE
  5
19E
330
1F
100
AcDbEntity
  8
SK3
  6
SLD-Solid
370
    18
100
AcDbLine
 10
-55.5999986827
 20
-3.5005945247
 30
0.0
 11
-55.5999986827
 21
-5.1655555144
 31
0.0
  0
LINE
  5
19F
330
1F
100
AcDbEntity
  8
SK3
  6
SLD-Solid
370
    18
100
AcDbLine
 10
-55.5999986827
 20
-5.1655555144
 30
0.0
 11
-55.5999986827
 21
-6.7299748771
 31
0.0
  0
LINE
  5
1A0
330
1F
100
AcDbEntity
  8
SK3
  6
SLD-Solid
370
    18
100
AcDbLine
 10
-55.5999986827
 20
-6.7299748771
 30
0.0
 11
-55.5999986827
 21
-8.1634027883
 31
0.0
  0
LINE
  5
1A1
330
1F
100
AcDbEntity
  8
SK3
  6
SLD-Solid
370
    18
100
AcDbLine
 10
-55.5999986827
 20
-8.1634027883
 30
0.0
 11
-55.5999986827
 21
-9.4379391521
 31
0.0
  0
LINE
  5
1A2
330
1F
100
AcDbEntity
  8
SK3
  6
SLD-Solid
370
    18
100
AcDbLine
 10
-55.5999986827
 20
-9.4379391521
 30
0.0
 11
-55.5999986827
 21
-10.5287767947
 31
0.0
  0
LINE
  5
1A3
330
1F
100
AcDbEntity
  8
SK3
  6
SLD-Solid
370
    18
100
AcDbLine
 10
-55.5999986827
 20
-10.5287767947
 30
0.0
 11
-55.5999986827
 21
-11.4146843553
 31
0.0
  0
LINE
  5
1A4
330
1F
100
AcDbEntity
  8
SK3
  6
SLD-Solid
370
    18
100
AcDbLine
 10
-55.5999986827
 20
-11.4146843553
 30
0.0
 11
-55.5999986827
 21
-12.0784174651
 31
0.0
  0
LINE
  5
1A5
330
1F
100
AcDbEntity
  8
SK3
  6
SLD-Solid
370
    18
100
AcDbLine
 10
-55.5999986827
 20
-12.0784174651
 30
0.0
 11
-55.5999986827
 21
-12.5070586801
 31
0.0
  0
LINE
  5
1A6
330
1F
100
AcDbEntity
  8
SK3
  6
SLD-Solid
370
    18
100
AcDbLine
 10
-55.5999986827
 20
-12.5070586801
 30
0.0
 11
-55.5999986827
 21
-12.6922633499
 31
0.0
  0
LINE
  5
1A7
330
1F
100
AcDbEntity
  8
SK3
  6
SLD-Solid
370
    18
100
AcDbLine
 10
-55.5999986827
 20
-12.6922633499
 30
0.0
 11
-55.5999986827
 21
-12.6999998465
 31
0.0
  0
LINE
  5
1A8
330
1F
100
AcDbEntity
  8
SK3
  6
SLD-Solid
370
    18
100
AcDbLine
 10
-55.600022151
 20
12.6999998465
 30
0.0
 11
-55.5999986827
 21
12.6922633499
 31
0.0
  0
LINE
  5
1A9
330
1F
100
AcDbEntity
  8
SK3
  6
SLD-Solid
370
    18
100
AcDbLine
 10
-55.5999986827
 20
12.6922633499
 30
0.0
 11
-55.5999986827
 21
12.5070586801
 31
0.0
  0
LINE
  5
1AA
330
1F
100
AcDbEntity
  8
SK3
  6
SLD-Solid
370
    18
100
AcDbLine
 10
-55.5999986827
 20
12.5070586801
 30
0.0
 11
-55.5999986827
 21
12.0784174651
 31
0.0
  0
LINE
  5
1AB
330
1F
100
AcDbEntity
  8
SK3
  6
SLD-Solid
370
    18
100
AcDbLine
 10
-55.5999986827
 20
12.0784174651
 30
0.0
 11
-55.5999986827
 21
11.4146843553
 31
0.0
  0
LINE
  5
1AC
330
1F
100
AcDbEntity
  8
SK3
  6
SLD-Solid
370
    18
100
AcDbLine
 10
-55.5999986827
 20
11.4146843553
 30
0.0
 11
-55.5999986827
 21
10.5287767947
 31
0.0
  0
LINE
  5
1AD
330
1F
100
AcDbEntity
  8
SK3
  6
SLD-Solid
370
    18
100
AcDbLine
 10
-55.5999986827
 20
10.5287767947
 30
0.0
 11
-55.5999986827
 21
9.4379391521
 31
0.0
  0
LINE
  5
1AE
330
1F
100
AcDbEntity
  8
SK3
  6
SLD-Solid
370
    18
100
AcDbLine
 10
-55.5999986827
 20
9.4379391521
 30
0.0
 11
-55.5999986827
 21
8.1634027883
 31
0.0
  0
LINE
  5
1AF
330
1F
100
AcDbEntity
  8
SK3
  6
SLD-Solid
370
    18
100
AcDbLine
 10
-55.5999986827
 20
8.1634027883
 30
0.0
 11
-55.5999986827
 21
6.7299748771
 31
0.0
  0
LINE
  5
1B0
330
1F
100
AcDbEntity
  8
SK3
  6
SLD-Solid
370
    18
100
AcDbLine
 10
-55.5999986827
 20
6.7299748771
 30
0.0
 11
-55.5999986827
 21
5.1655555144
 31
0.0
  0
LINE
  5
1B1
330
1F
100
AcDbEntity
  8
SK3
  6
SLD-Solid
370
    18
100
AcDbLine
 10
-55.5999986827
 20
5.1655555144
 30
0.0
 11
-55.5999986827
 21
3.5005945247
 31
0.0
  0
LINE
  5
1B2
330
1F
100
AcDbEntity
  8
SK3
  6
SLD-Solid
370
    18
100
AcDbLine
 10
-55.5999986827
 20
3.5005945247
 30
0.0
 11
-55.5999986827
 21
1.7674983246
 31
0.0
  0
LINE
  5
1B3
330
1F
100
AcDbEntity
  8
SK3
  6
SLD-Solid
370
    18
100
AcDbLine
 10
-55.5999986827
 20
1.7674983246
 30
0.0
 11
-55.5999986827
 21
0.0
 31
0.0
  0
LINE
  5
1B4
330
1F
100
AcDbEntity
  8
SK3
  6
SLD-Solid
370
    18
100
AcDbLine
 10
-55.600022151
 20
-1.7674983246
 30
0.0
 11
-55.5999986827
 21
-3.5005945247
 31
0.0
  0
LINE
  5
1B5
330
1F
100
AcDbEntity
  8
SK3
  6
SLD-Solid
370
    18
100
AcDbLine
 10
-55.5999986827
 20
-3.5005945247
 30
0.0
 11
-55.5999986827
 21
-5.1655555144
 31
0.0
  0
LINE
  5
1B6
330
1F
100
AcDbEntity
  8
SK3
  6
SLD-Solid
370
    18
100
AcDbLine
 10
-55.5999986827
 20
-5.1655555144
 30
0.0
 11
-55.5999986827
 21
-6.7299748771
 31
0.0
  0
LINE
  5
1B7
330
1F
100
AcDbEntity
  8
SK3
  6
SLD-Solid
370
    18
100
AcDbLine
 10
-55.5999986827
 20
-6.7299748771
 30
0.0
 11
-55.5999986827
 21
-8.1634027883
 31
0.0
  0
LINE
  5
1B8
330
1F
100
AcDbEntity
  8
SK3
  6
SLD-Solid
370
    18
100
AcDbLine
 10
-55.5999986827
 20
-8.1634027883
 30
0.0
 11
-55.5999986827
 21
-9.4379391521
 31
0.0
  0
LINE
  5
1B9
330
1F
100
AcDbEntity
  8
SK3
  6
SLD-Solid
370
    18
100
AcDbLine
 10
-55.5999986827
 20
-9.4379391521
 30
0.0
 11
-55.5999986827
 21
-10.5287767947
 31
0.0
  0
LINE
  5
1BA
330
1F
100
AcDbEntity
  8
SK3
  6
SLD-Solid
370
    18
100
AcDbLine
 10
-55.5999986827
 20
-10.5287767947
 30
0.0
 11
-55.5999986827
 21
-11.4146843553
 31
0.0
  0
LINE
  5
1BB
330
1F
100
AcDbEntity
  8
SK3
  6
SLD-Solid
370
    18
100
AcDbLine
 10
-55.5999986827
 20
-11.4146843553
 30
0.0
 11
-55.5999986827
 21
-12.0784174651
 31
0.0
  0
LINE
  5
1BC
330
1F
100
AcDbEntity
  8
SK3
  6
SLD-Solid
370
    18
100
AcDbLine
 10
-55.5999986827
 20
-12.0784174651
 30
0.0
 11
-55.5999986827
 21
-12.5070586801
 31
0.0
  0
LINE
  5
1BD
330
1F
100
AcDbEntity
  8
SK3
  6
SLD-Solid
370
    18
100
AcDbLine
 10
-55.5999986827
 20
-12.5070586801
 30
0.0
 11
-55.5999986827
 21
-12.6922633499
 31
0.0
  0
LINE
  5
1BE
330
1F
100
AcDbEntity
  8
SK3
  6
SLD-Solid
370
    18
100
AcDbLine
 10
-55.5999986827
 20
-12.6922633499
 30
0.0
 11
-55.5999986827
 21
-12.6999998465
 31
0.0
  0
LINE
  5
1BF
330
1F
100
AcDbEntity
  8
SK3
  6
SLD-Solid
370
    18
100
AcDbLine
 10
-55.600022151
 20
12.6999998465
 30
0.0
 11
-55.5999986827
 21
12.6922633499
 31
0.0
  0
LINE
  5
1C0
330
1F
100
AcDbEntity
  8
SK3
  6
SLD-Solid
370
    18
100
AcDbLine
 10
-55.5999986827
 20
12.6922633499
 30
0.0
 11
-55.5999986827
 21
12.5070586801
 31
0.0
  0
LINE
  5
1C1
330
1F
100
AcDbEntity
  8
SK3
  6
SLD-Solid
370
    18
100
AcDbLine
 10
-55.5999986827
 20
12.5070586801
 30
0.0
 11
-55.5999986827
 21
12.0784174651
 31
0.0
  0
LINE
  5
1C2
330
1F
100
AcDbEntity
  8
SK3
  6
SLD-Solid
370
    18
100
AcDbLine
 10
-55.5999986827
 20
12.0784174651
 30
0.0
 11
-55.5999986827
 21
11.4146843553
 31
0.0
  0
LINE
  5
1C3
330
1F
100
AcDbEntity
  8
SK3
  6
SLD-Solid
370
    18
100
AcDbLine
 10
-55.5999986827
 20
11.4146843553
 30
0.0
 11
-55.5999986827
 21
10.5287767947
 31
0.0
  0
LINE
  5
1C4
330
1F
100
AcDbEntity
  8
SK3
  6
SLD-Solid
370
    18
100
AcDbLine
 10
-55.5999986827
 20
10.5287767947
 30
0.0
 11
-55.5999986827
 21
9.4379391521
 31
0.0
  0
LINE
  5
1C5
330
1F
100
AcDbEntity
  8
SK3
  6
SLD-Solid
370
    18
100
AcDbLine
 10
-55.5999986827
 20
9.4379391521
 30
0.0
 11
-55.5999986827
 21
8.1634027883
 31
0.0
  0
LINE
  5
1C6
330
1F
100
AcDbEntity
  8
SK3
  6
SLD-Solid
370
    18
100
AcDbLine
 10
-55.5999986827
 20
8.1634027883
 30
0.0
 11
-55.5999986827
 21
6.7299748771
 31
0.0
  0
LINE
  5
1C7
330
1F
100
AcDbEntity
  8
SK3
  6
SLD-Solid
370
    18
100
AcDbLine
 10
-55.5999986827
 20
6.7299748771
 30
0.0
 11
-55.5999986827
 21
5.1655555144
 31
0.0
  0
LINE
  5
1C8
330
1F
100
AcDbEntity
  8
SK3
  6
SLD-Solid
370
    18
100
AcDbLine
 10
-55.5999986827
 20
5.1655555144
 30
0.0
 11
-55.5999986827
 21
3.5005945247
 31
0.0
  0
LINE
  5
1C9
330
1F
100
AcDbEntity
  8
SK3
  6
SLD-Solid
370
    18
100
AcDbLine
 10
-55.5999986827
 20
3.5005945247
 30
0.0
 11
-55.5999986827
 21
1.7674983246
 31
0.0
  0
LINE
  5
1CA
330
1F
100
AcDbEntity
  8
SK3
  6
SLD-Solid
370
    18
100
AcDbLine
 10
-55.5999986827
 20
1.7674983246
 30
0.0
 11
-55.5999986827
 21
0.0
 31
0.0
  0
LINE
  5
1CB
330
1F
100
AcDbEntity
  8
SK3
  6
SLD-Solid
370
    18
100
AcDbLine
 10
82.5499966741
 20
12.6940347254
 30
0.0
 11
82.5499966741
 21
23.2999995351
 31
0.0
  0
LINE
  5
1CC
330
1F
100
AcDbEntity
  8
SK3
  6
SLD-Solid
370
    18
100
AcDbLine
 10
63.5000020266
 20
23.2999995351
 30
0.0
 11
63.5000020266
 21
12.6940347254
 31
0.0
  0
LINE
  5
1CD
330
1F
100
AcDbEntity
  8
SK3
  6
SLD-Solid
370
    18
100
AcDbLine
 10
82.5420320034
 20
12.6940347254
 30
0.0
 11
82.5491920114
 21
12.6993954182
 31
0.0
  0
LINE
  5
1CE
330
1F
100
AcDbEntity
  8
SK3
  6
SLD-Solid
370
    18
100
AcDbLine
 10
57.1499988437
 20
12.6920966431
 30
0.0
 11
57.1499988437
 21
23.2999995351
 31
0.0
  0
LINE
  5
1CF
330
1F
100
AcDbEntity
  8
SK3
  6
SLD-Solid
370
    18
100
AcDbLine
 10
38.1000004709
 20
23.2999995351
 30
0.0
 11
38.1000004709
 21
12.6920966431
 31
0.0
  0
LINE
  5
1D0
330
1F
100
AcDbEntity
  8
SK3
  6
SLD-Solid
370
    18
100
AcDbLine
 10
57.1396462619
 20
12.6920966431
 30
0.0
 11
57.1478046477
 21
12.6981884241
 31
0.0
  0
LINE
  5
1D1
330
1F
100
AcDbEntity
  8
4
  6
SLD-Center
370
    18
100
AcDbLine
 10
101.9772716116
 20
0.0
 30
0.0
 11
-0.6527457997
 21
0.0
 31
0.0
  0
LINE
  5
1D2
330
1F
100
AcDbEntity
  8
4
  6
SLD-Center
370
    18
100
AcDbLine
 10
47.625
 20
10.7
 30
0.0
 11
47.625
 21
25.3
 31
0.0
  0
LINE
  5
1D3
330
1F
100
AcDbEntity
  8
4
  6
SLD-Center
370
    18
100
AcDbLine
 10
73.025
 20
10.7
 30
0.0
 11
73.025
 21
25.3
 31
0.0
  0
LINE
  5
1D4
330
1F
100
AcDbEntity
  8
SK4
  6
SLD-Center
370
    18
100
AcDbLine
 10
-101.7135365271
 20
0.0
 30
0.0
 11
101.6
 21
0.0
 31
0.0
  0
LINE
  5
1D5
330
1F
100
AcDbEntity
  8
81
370
    18
100
AcDbLine
 10
101.6
 20
0.0
 30
0.0
 11
105.1355339059
 21
3.5355339059
 31
0.0
  0
LINE
  5
1D6
330
1F
100
AcDbEntity
  8
81
370
    18
100
AcDbLine
 10
101.6
 20
0.0
 30
0.0
 11
98.0644660941
 21
-3.5355339059
 31
0.0
  0
LINE
  5
1D7
330
1F
100
AcDbEntity
  8
81
370
    18
100
AcDbLine
 10
101.6
 20
0.0
 30
0.0
 11
98.0644660941
 21
3.5355339059
 31
0.0
  0
LINE
  5
1D8
330
1F
100
AcDbEntity
  8
81
100
AcDbLine
 10
101.6
 20
0.0
 30
0.0
 11
111.6
 21
0.0
 31
0.0
  0
LINE
  5
1D9
330
1F
100
AcDbEntity
  8
81
370
    18
100
AcDbLine
 10
101.6
 20
0.0
 30
0.0
 11
105.1355339059
 21
-3.5355339059
 31
0.0
  0
LINE
  5
1DA
330
1F
100
AcDbEntity
  8
80
370
    18
100
AcDbLine
 10
-0.0000001842
 20
0.0
 30
0.0
 11
-3.5355340902
 21
-3.5355339059
 31
0.0
  0
LINE
  5
1DB
330
1F
100
AcDbEntity
  8
80
370
    18
100
AcDbLine
 10
-0.0000001842
 20
0.0
 30
0.0
 11
3.5355337217
 21
3.5355339059
 31
0.0
  0
LINE
  5
1DC
330
1F
100
AcDbEntity
  8
80
370
    18
100
AcDbLine
 10
-0.0000001842
 20
0.0
 30
0.0
 11
-3.5355340902
 21
3.5355339059
 31
0.0
  0
LINE
  5
1DD
330
1F
100
AcDbEntity
  8
80
370
    18
100
AcDbLine
 10
-0.0000001842
 20
0.0
 30
0.0
 11
-10.0000001842
 21
0.0
 31
0.0
  0
LINE
  5
1DE
330
1F
100
AcDbEntity
  8
80
370
    18
100
AcDbLine
 10
-0.0000001842
 20
0.0
 30
0.0
 11
3.5355337217
 21
-3.5355339059
 31
0.0
  0
ARC
  5
1DF
330
1F
100
AcDbEntity
  8
1
  6
SLD-Solid
370
    25
100
AcDbCircle
 10
19.8119980322
 20
-35.686999166
 30
0.0
 40
0.7620000000000026
100
AcDbArc
 50
89.9999968406
 51
129.6580965705
  0
ARC
  5
1E0
330
1F
100
AcDbEntity
  8
1
  6
SLD-Solid
370
    25
100
AcDbCircle
 10
19.8120019678
 20
35.6870019546
 30
0.0
 40
0.7620000000000087
100
AcDbArc
 50
179.9999968406
 51
269.9999968406
  0
ARC
  5
1E1
330
1F
100
AcDbEntity
  8
1
  6
SLD-Solid
370
    25
100
AcDbCircle
 10
2.4499998158
 20
35.425
 30
0.0
 40
0.7499999999999996
100
AcDbArc
 50
245.0
 51
0.0
  0
ARC
  5
1E2
330
1F
100
AcDbEntity
  8
1
  6
SLD-Solid
370
    25
100
AcDbCircle
 10
2.4499998158
 20
-35.425
 30
0.0
 40
0.7500000000000031
100
AcDbArc
 50
25.5336708908
 51
115.0
  0
ARC
  5
1E3
330
1F
100
AcDbEntity
  8
1
  6
SLD-Solid
370
    25
100
AcDbCircle
 10
33.5759981582
 20
-33.4009993647
 30
0.0
 40
1.523999439716379
100
AcDbArc
 50
270.0000149559
 51
359.9999968406
  0
ARC
  5
1E4
330
1F
100
AcDbEntity
  8
1
  6
SLD-Solid
370
    25
100
AcDbCircle
 10
33.5760018418
 20
33.4010006353
 30
0.0
 40
1.523999439716368
100
AcDbArc
 50
359.9999968406
 51
89.9999787254
  0
ARC
  5
1E5
330
1F
100
AcDbEntity
  8
1
  6
SLD-Solid
370
    25
100
AcDbCircle
 10
36.6239985099
 20
-26.923999693
 30
0.0
 40
1.524000000000001
100
AcDbArc
 50
90.0
 51
180.0
  0
ARC
  5
1E6
330
1F
100
AcDbEntity
  8
1
  6
SLD-Solid
370
    25
100
AcDbCircle
 10
36.6239985099
 20
26.924000307
 30
0.0
 40
1.523999999999997
100
AcDbArc
 50
180.0
 51
270.0
  0
ARC
  5
1E7
330
1F
100
AcDbEntity
  8
SK1
  6
SLD-Solid
370
    25
100
AcDbCircle
 10
-99.5000002302
 20
18.2922329752
 30
0.0
 40
2.100000318602813
100
AcDbArc
 50
98.2971677069
 51
180.0000172034
  0
ARC
  5
1E8
330
1F
100
AcDbEntity
  8
SK1
  6
SLD-Solid
370
    25
100
AcDbCircle
 10
-99.5000002302
 20
-18.2922329752
 30
0.0
 40
2.100000318602817
100
AcDbArc
 50
180.0
 51
261.7028322931
  0
ARC
  5
1E9
330
1F
100
AcDbEntity
  8
1
370
    18
100
AcDbCircle
 10
50.7969509184
 20
-56.1320407955
 30
0.0
 40
32.5876359131107
100
AcDbArc
 50
70.5716721912
 51
109.4283261863
  0
ARC
  5
1EA
330
1F
100
AcDbEntity
  8
1
370
    18
100
AcDbCircle
 10
76.199840084
 20
-55.4171720868
 30
0.0
 40
31.91902013395657
100
AcDbArc
 50
70.1533127568
 51
109.8577044657
  0
CIRCLE
  5
1EB
330
1F
100
AcDbEntity
  8
81
370
    18
100
AcDbCircle
 10
101.6
 20
0.0
 30
0.0
 40
2.499999999999984
  0
CIRCLE
  5
1EC
330
1F
100
AcDbEntity
  8
80
370
    18
100
AcDbCircle
 10
-0.0000001842
 20
0.0
 30
0.0
 40
2.500000000000009
  0
ARC
  5
1ED
330
1F
100
AcDbEntity
  8
SK3
  6
SLD-Dashed
370
    18
100
AcDbCircle
 10
31.6000000842
 20
-12.7249994166
 30
0.0
 40
0.1500005140940727
100
AcDbArc
 50
269.9994171573
 51
359.9998969787
  0
ARC
  5
1EE
330
1F
100
AcDbEntity
  8
SK3
  6
SLD-Dashed
370
    18
100
AcDbCircle
 10
31.6000000842
 20
12.7249994166
 30
0.0
 40
0.1500005140940603
100
AcDbArc
 50
0.0005486875
 51
90.0005828453
  0
ARC
  5
1EF
330
1F
100
AcDbEntity
  8
SK3
  6
SLD-Dashed
370
    18
100
AcDbCircle
 10
-12.5499999158
 20
-12.725
 30
0.0
 40
0.1499999307097295
100
AcDbArc
 50
180.0001030221
 51
269.9999612956
  0
ARC
  5
1F0
330
1F
100
AcDbEntity
  8
SK3
  6
SLD-Dashed
370
    18
100
AcDbCircle
 10
-12.5499999158
 20
12.725
 30
0.0
 40
0.1499999307097224
100
AcDbArc
 50
90.0000387044
 51
179.9998969779
  0
SPLINE
  5
1F1
330
1F
100
AcDbEntity
  8
1
  6
SLD-Solid
370
    25
100
AcDbSpline
210
0.0
220
0.0
230
1.0
 70
     8
 71
     3
 72
    12
 73
     8
 74
     0
 42
0.000000001
 43
0.00000001
 40
0.0
 40
0.0
 40
0.0
 40
0.0
 40
0.2499999999999983
 40
0.2499999999999983
 40
0.4999999999999967
 40
0.4999999999999967
 40
1.0
 40
1.0
 40
1.0
 40
1.0
 10
19.05000000000001
 20
-46.69763484374771
 30
0.0
 10
19.04999997851173
 20
-46.79851085841145
 30
0.0
 10
19.03137056959859
 20
-46.89733946225125
 30
0.0
 10
18.95815576206879
 20
-47.08411429360342
 30
0.0
 10
18.90402087066816
 20
-47.16991272279224
 30
0.0
 10
18.69812834896883
 20
-47.38753368551937
 30
0.0
 10
18.50197352106411
 20
-47.47548331152298
 30
0.0
 10
18.30000057816505
 20
-47.47548326849937
 30
0.0
  0
SPLINE
  5
1F2
330
1F
100
AcDbEntity
  8
1
  6
SLD-Solid
370
    25
100
AcDbSpline
210
0.0
220
0.0
230
1.0
 70
     8
 71
     3
 72
    15
 73
    11
 74
     0
 42
0.000000001
 43
0.00000001
 40
0.0
 40
0.0
 40
0.0
 40
0.0
 40
0.0708675467315475
 40
0.1234206290199029
 40
0.2469923695820237
 40
0.4940839350896436
 40
0.6226370207871864
 40
0.7456896564301972
 40
0.8736712715891333
 40
1.0
 40
1.0
 40
1.0
 40
1.0
 10
19.05000000000001
 20
46.55608553132448
 30
0.0
 10
19.04912782521304
 20
46.5834464178732
 30
0.0
 10
19.04760887379185
 20
46.63109725361018
 30
0.0
 10
19.03252108071889
 20
46.72541302110466
 30
0.0
 10
18.9854844454976
 20
46.88286433418008
 30
0.0
 10
18.87493101089771
 20
47.04890224753085
 30
0.0
 10
18.72384741866225
 20
47.1730756036177
 30
0.0
 10
18.5921400969045
 20
47.24320130902247
 30
0.0
 10
18.44967443815546
 20
47.28829452284835
 30
0.0
 10
18.34967497113772
 20
47.29398704753797
 30
0.0
 10
18.30000021024205
 20
47.2968148106379
 30
0.0
  0
SPLINE
  5
1F3
330
1F
100
AcDbEntity
  8
1
  6
SLD-Solid
370
    25
100
AcDbSpline
210
0.0
220
0.0
230
1.0
 70
     8
 71
     3
 72
    12
 73
     8
 74
     0
 42
0.000000001
 43
0.00000001
 40
0.0
 40
0.0
 40
0.0
 40
0.0
 40
0.249999999999997
 40
0.249999999999997
 40
0.499999999999994
 40
0.499999999999994
 40
1.0
 40
1.0
 40
1.0
 40
1.0
 10
3.949999809265137
 20
-47.47548326849937
 30
0.0
 10
3.849083915130155
 20
-47.4754833160443
 30
0.0
 10
3.749978365401956
 20
-47.45437611350211
 30
0.0
 10
3.56684777631374
 20
-47.37426829504731
 30
0.0
 10
3.483455176272511
 20
-47.31511588358502
 30
0.0
 10
3.2780486420626
 20
-47.09831953646707
 30
0.0
 10
3.200000094996158
 20
-46.89926885293958
 30
0.0
 10
3.200000000000008
 20
-46.69763484374771
 30
0.0
  0
SPLINE
  5
1F4
330
1F
100
AcDbEntity
  8
1
  6
SLD-Solid
370
    25
100
AcDbSpline
210
0.0
220
0.0
230
1.0
 70
     8
 71
     3
 72
    17
 73
    13
 74
     0
 42
0.000000001
 43
0.00000001
 40
0.0
 40
0.0
 40
0.0
 40
0.0
 40
0.0631225276679342
 40
0.1266732404557587
 40
0.1906578598239172
 40
0.2550819704917586
 40
0.3779677562094053
 40
0.5065287291742404
 40
0.7536275741715814
 40
0.8770326867277843
 40
0.9293515934451574
 40
1.0
 40
1.0
 40
1.0
 40
1.0
 10
3.94999999999994
 20
47.29681441456935
 30
0.0
 10
3.925201491186553
 20
47.2961116389512
 30
0.0
 10
3.875436255446499
 20
47.29470132050915
 30
0.0
 10
3.80128071794837
 20
47.28327877096405
 30
0.0
 10
3.728120549121276
 20
47.2649872786997
 30
0.0
 10
3.635342933307476
 20
47.23149445522438
 30
0.0
 10
3.525682301867499
 20
47.17267378723072
 30
0.0
 10
3.374709300492469
 20
47.04854680290819
 30
0.0
 10
3.264271220664507
 20
46.88235496093136
 30
0.0
 10
3.217384189869222
 20
46.72497686061016
 30
0.0
 10
3.20237676122324
 20
46.63086100912824
 30
0.0
 10
3.200867255992148
 20
46.58337022615166
 30
0.0
 10
3.199999999999959
 20
46.55608534812922
 30
0.0
  0
SPLINE
  5
1F5
330
1F
100
AcDbEntity
  8
1
  6
SLD-Solid
370
    25
100
AcDbSpline
210
0.0
220
0.0
230
1.0
 70
     8
 71
     3
 72
    14
 73
    10
 74
     0
 42
0.000000001
 43
0.00000001
 40
0.0
 40
0.0
 40
0.0
 40
0.0
 40
0.25
 40
0.25
 40
0.5
 40
0.5
 40
0.75
 40
0.75
 40
1.0
 40
1.0
 40
1.0
 40
1.0
 10
13.03000020414198
 20
41.98711729834397
 30
0.0
 10
13.05904088890592
 20
41.99358441231477
 30
0.0
 10
13.08275229978552
 20
41.98923553671217
 30
0.0
 10
13.11609677390539
 20
41.95189504479234
 30
0.0
 10
13.12492157891497
 20
41.91935243820157
 30
0.0
 10
13.12507769189129
 20
41.82511373609368
 30
0.0
 10
13.11615065069141
 20
41.76334886770245
 30
0.0
 10
13.08319568935002
 20
41.62087667519205
 30
0.0
 10
13.05911023249115
 20
41.53942133741299
 30
0.0
 10
13.03
 20
41.45311358264332
 30
0.0
  0
SPLINE
  5
1F6
330
1F
100
AcDbEntity
  8
1
  6
SLD-Solid
370
    25
100
AcDbSpline
210
0.0
220
0.0
230
1.0
 70
     8
 71
     3
 72
     8
 73
     4
 74
     0
 42
0.000000001
 43
0.00000001
 40
0.0
 40
0.0
 40
0.0
 40
0.0
 40
1.0
 40
1.0
 40
1.0
 40
1.0
 10
13.03000003099442
 20
44.57901045680045
 30
0.0
 10
13.44364615375124
 20
45.32508446377769
 30
0.0
 10
13.85791151936183
 20
46.07082076044328
 30
0.0
 10
14.27271061994656
 20
46.81625358782993
 30
0.0
  0
SPLINE
  5
1F7
330
1F
100
AcDbEntity
  8
1
  6
SLD-Solid
370
    25
100
AcDbSpline
210
0.0
220
0.0
230
1.0
 70
     8
 71
     3
 72
     8
 73
     4
 74
     0
 42
0.000000001
 43
0.00000001
 40
0.0
 40
0.0
 40
0.0
 40
0.0
 40
0.0008790679015124
 40
0.0008790679015124
 40
0.0008790679015124
 40
0.0008790679015124
 10
14.63972311466932
 20
47.2968148106379
 30
0.0
 10
14.51700823344364
 20
47.13673224669288
 30
0.0
 10
14.39466504317498
 20
46.9765463501632
 30
0.0
 10
14.27271061994656
 20
46.81625358782993
 30
0.0
  0
SPLINE
  5
1F8
330
1F
100
AcDbEntity
  8
1
  6
SLD-Solid
370
    25
100
AcDbSpline
210
0.0
220
0.0
230
1.0
 70
     8
 71
     3
 72
     8
 73
     4
 74
     0
 42
0.000000001
 43
0.00000001
 40
0.0
 40
0.0
 40
0.0
 40
0.0
 40
1.0
 40
1.0
 40
1.0
 40
1.0
 10
13.02999999999999
 20
-44.57901066343648
 30
0.0
 10
13.56559185903593
 20
-45.54503218791567
 30
0.0
 10
14.10222481900982
 20
-46.51049592619329
 30
0.0
 10
14.63972311466932
 20
-47.47548326849937
 30
0.0
  0
SPLINE
  5
1F9
330
1F
100
AcDbEntity
  8
1
  6
SLD-Solid
370
    25
100
AcDbSpline
210
0.0
220
0.0
230
1.0
 70
     8
 71
     3
 72
    14
 73
    10
 74
     0
 42
0.000000001
 43
0.00000001
 40
0.0
 40
0.0
 40
0.0
 40
0.0
 40
0.25
 40
0.25
 40
0.5
 40
0.5
 40
0.75
 40
0.75
 40
1.0
 40
1.0
 40
1.0
 40
1.0
 10
13.03
 20
35.43161063507445
 30
0.0
 10
13.05904068229165
 20
35.41088537400023
 30
0.0
 10
13.08275209483377
 20
35.37953889369929
 30
0.0
 10
13.11609658322839
 20
35.28872097408674
 30
0.0
 10
13.12492140067852
 20
35.2307690486217
 30
0.0
 10
13.12507754968095
 20
35.0895693220401
 30
0.0
 10
13.11615053209288
 20
35.00648930843719
 30
0.0
 10
13.08319562521659
 20
34.82779445691521
 30
0.0
 10
13.0591101994969
 20
34.73111962551739
 30
0.0
 10
13.02999999999999
 20
34.63242948055267
 30
0.0
  0
SPLINE
  5
1FA
330
1F
100
AcDbEntity
  8
1
  6
SLD-Solid
370
    25
100
AcDbSpline
210
0.0
220
0.0
230
1.0
 70
     8
 71
     3
 72
     8
 73
     4
 74
     0
 42
0.000000001
 43
0.00000001
 40
0.0
 40
0.0
 40
0.0
 40
0.0
 40
1.0
 40
1.0
 40
1.0
 40
1.0
 10
7.590276654809713
 20
-47.47548326849937
 30
0.0
 10
8.127775027310179
 20
-46.51049592626649
 30
0.0
 10
8.664408064124707
 20
-45.54503218799333
 30
0.0
 10
9.2
 20
-44.57901066343647
 30
0.0
  0
SPLINE
  5
1FB
330
1F
100
AcDbEntity
  8
1
  6
SLD-Solid
370
    25
100
AcDbSpline
210
0.0
220
0.0
230
1.0
 70
     8
 71
     3
 72
     8
 73
     4
 74
     0
 42
0.000000001
 43
0.00000001
 40
0.0000000000000097
 40
0.0000000000000097
 40
0.0000000000000097
 40
0.0000000000000097
 40
0.000879067901516
 40
0.000879067901516
 40
0.000879067901516
 40
0.000879067901516
 10
7.957289380062127
 20
46.81625358782998
 30
0.0
 10
7.835334879942226
 20
46.97654629166349
 30
0.0
 10
7.712991612826137
 20
47.13673212950485
 30
0.0
 10
7.590276654809695
 20
47.29681463458518
 30
0.0
  0
SPLINE
  5
1FC
330
1F
100
AcDbEntity
  8
1
  6
SLD-Solid
370
    25
100
AcDbSpline
210
0.0
220
0.0
230
1.0
 70
     8
 71
     3
 72
     8
 73
     4
 74
     0
 42
0.000000001
 43
0.00000001
 40
0.0
 40
0.0
 40
0.0
 40
0.0
 40
1.0
 40
1.0
 40
1.0
 40
1.0
 10
7.957289380062127
 20
46.81625358782998
 30
0.0
 10
8.372088490919111
 20
46.0708208293373
 30
0.0
 10
8.78635386685797
 20
45.32508460154717
 30
0.0
 10
9.2
 20
44.57901066343647
 30
0.0
  0
SPLINE
  5
1FD
330
1F
100
AcDbEntity
  8
1
  6
SLD-Solid
370
    25
100
AcDbSpline
210
0.0
220
0.0
230
1.0
 70
     8
 71
     3
 72
    14
 73
    10
 74
     0
 42
0.000000001
 43
0.00000001
 40
0.0
 40
0.0
 40
0.0
 40
0.0
 40
0.25
 40
0.25
 40
0.5
 40
0.5
 40
0.75
 40
0.75
 40
1.0
 40
1.0
 40
1.0
 40
1.0
 10
9.199999795856368
 20
41.48301262053804
 30
0.0
 10
9.176680505048898
 20
41.55645614014853
 30
0.0
 10
9.157956809172918
 20
41.62429277360869
 30
0.0
 10
9.131927700370564
 20
41.74600580676255
 30
0.0
 10
9.125045649101576
 20
41.79860546783163
 30
0.0
 10
9.124955017507762
 20
41.88147789138745
 30
0.0
 10
9.1318706698421
 20
41.91255383697392
 30
0.0
 10
9.157671085973027
 20
41.95124062511707
 30
0.0
 10
9.176601780084864
 20
41.95960892527261
 30
0.0
 10
9.200000204145908
 20
41.95870086550712
 30
0.0
  0
SPLINE
  5
1FE
330
1F
100
AcDbEntity
  8
1
  6
SLD-Solid
370
    25
100
AcDbSpline
210
0.0
220
0.0
230
1.0
 70
     8
 71
     3
 72
    14
 73
    10
 74
     0
 42
0.000000001
 43
0.00000001
 40
0.0
 40
0.0
 40
0.0
 40
0.0
 40
0.25
 40
0.25
 40
0.5
 40
0.5
 40
0.75
 40
0.75
 40
1.0
 40
1.0
 40
1.0
 40
1.0
 10
9.2
 20
34.67668893498514
 30
0.0
 10
9.176680646155264
 20
34.76218380134754
 30
0.0
 10
9.157956892054488
 20
34.84409122905372
 30
0.0
 10
9.131927678784749
 20
34.99897222909989
 30
0.0
 10
9.12504558236897
 20
35.07047900120375
 30
0.0
 10
9.12495487964506
 20
35.19440944821504
 30
0.0
 10
9.131870505306656
 20
35.24816533561766
 30
0.0
 10
9.157670888232483
 20
35.33309634836898
 30
0.0
 10
9.176601575161758
 20
35.36545280972802
 30
0.0
 10
9.200000000002275
 20
35.388596117706
 30
0.0
  0
SPLINE
  5
1FF
330
1F
100
AcDbEntity
  8
1
  6
SLD-Solid
370
    25
100
AcDbSpline
210
0.0
220
0.0
230
1.0
 70
     8
 71
     3
 72
    12
 73
     8
 74
     0
 42
0.000000001
 43
0.00000001
 40
0.0
 40
0.0
 40
0.0
 40
0.0
 40
0.2500000000000032
 40
0.2500000000000032
 40
0.5000000000000063
 40
0.5000000000000063
 40
1.0
 40
1.0
 40
1.0
 40
1.0
 10
12.28000000000003
 20
-43.76943596849289
 30
0.0
 10
12.37996960464108
 20
-43.76943596849289
 30
0.0
 10
12.47988502523367
 20
-43.79051518316404
 30
0.0
 10
12.66449294223869
 20
-43.87194262843689
 30
0.0
 10
12.74728498815326
 20
-43.93126060501207
 30
0.0
 10
12.95342033959715
 20
-44.15080408372863
 30
0.0
 10
13.03
 20
-44.35163254795798
 30
0.0
 10
13.03
 20
-44.551021593225
 30
0.0
  0
SPLINE
  5
200
330
1F
100
AcDbEntity
  8
1
  6
SLD-Solid
370
    25
100
AcDbSpline
210
0.0
220
0.0
230
1.0
 70
     8
 71
     3
 72
    16
 73
    12
 74
     0
 42
0.000000001
 43
0.00000001
 40
0.0
 40
0.0
 40
0.0
 40
0.0
 40
0.1250000000000001
 40
0.1250000000000001
 40
0.2500000000000003
 40
0.2500000000000003
 40
0.5000000000000002
 40
0.5000000000000002
 40
0.7500000000000001
 40
0.7500000000000001
 40
1.0
 40
1.0
 40
1.0
 40
1.0
 10
13.03
 20
34.61214293353756
 30
0.0
 10
13.03000000000001
 20
34.56119277402757
 30
0.0
 10
13.02067456260611
 20
34.49413963137994
 30
0.0
 10
12.99367590047851
 20
34.363313381422
 30
0.0
 10
12.97626449755332
 20
34.2990855656246
 30
0.0
 10
12.91545405813532
 20
34.11096290842621
 30
0.0
 10
12.86271449633859
 20
33.99023971150844
 30
0.0
 10
12.73634152951909
 20
33.76817627154973
 30
0.0
 10
12.66098841639739
 20
33.66394234496748
 30
0.0
 10
12.48671204537782
 20
33.48358218869542
 30
0.0
 10
12.38972674335428
 20
33.40848998465462
 30
0.0
 10
12.28000000000003
 20
33.35547071674116
 30
0.0
  0
SPLINE
  5
201
330
1F
100
AcDbEntity
  8
1
  6
SLD-Solid
370
    25
100
AcDbSpline
210
0.0
220
0.0
230
1.0
 70
     8
 71
     3
 72
    12
 73
     8
 74
     0
 42
0.000000001
 43
0.00000001
 40
0.0
 40
0.0
 40
0.0
 40
0.0
 40
0.5
 40
0.5
 40
0.75
 40
0.75
 40
1.0
 40
1.0
 40
1.0
 40
1.0
 10
9.2
 20
-44.55102159322499
 30
0.0
 10
9.2
 20
-44.35094747116167
 30
0.0
 10
9.277613070150112
 20
-44.14958800989076
 30
0.0
 10
9.48251103730058
 20
-43.93153570225751
 30
0.0
 10
9.56627229985231
 20
-43.87162606259759
 30
0.0
 10
9.749092094904377
 20
-43.79094541821726
 30
0.0
 10
9.849426682175658
 20
-43.7694359684929
 30
0.0
 10
9.950000000000001
 20
-43.76943596849289
 30
0.0
  0
SPLINE
  5
202
330
1F
100
AcDbEntity
  8
1
  6
SLD-Solid
370
    25
100
AcDbSpline
210
0.0
220
0.0
230
1.0
 70
     8
 71
     3
 72
    16
 73
    12
 74
     0
 42
0.000000001
 43
0.00000001
 40
0.0
 40
0.0
 40
0.0
 40
0.0
 40
0.2499999999999967
 40
0.2499999999999967
 40
0.4999999999999934
 40
0.4999999999999934
 40
0.7499999999999902
 40
0.7499999999999902
 40
0.8749999999999951
 40
0.8749999999999951
 40
1.0
 40
1.0
 40
1.0
 40
1.0
 10
9.950000000000001
 20
33.36525953046024
 30
0.0
 10
9.839257595210649
 20
33.42015914282665
 30
0.0
 10
9.740416734001444
 20
33.49854219709402
 30
0.0
 10
9.564708009184061
 20
33.68553569890508
 30
0.0
 10
9.490830483266114
 20
33.79082769792043
 30
0.0
 10
9.364658348120017
 20
34.01955880125701
 30
0.0
 10
9.312951425518134
 20
34.14247439570438
 30
0.0
 10
9.253206550793827
 20
34.33488461785979
 30
0.0
 10
9.236028623043957
 20
34.4012196258066
 30
0.0
 10
9.209723703057032
 20
34.53368853253288
 30
0.0
 10
9.200000000000014
 20
34.60516910831215
 30
0.0
 10
9.200000000000014
 20
34.65640299543514
 30
0.0
  0
SPLINE
  5
203
330
1F
100
AcDbEntity
  8
1
  6
SLD-Solid
370
    25
100
AcDbSpline
210
0.0
220
0.0
230
1.0
 70
     8
 71
     3
 72
    12
 73
     8
 74
     0
 42
0.000000001
 43
0.00000001
 40
0.0
 40
0.0
 40
0.0
 40
0.0
 40
0.2500000000000006
 40
0.2500000000000006
 40
0.5000000000000011
 40
0.5000000000000011
 40
1.0
 40
1.0
 40
1.0
 40
1.0
 10
12.28000000000003
 20
33.35547071674116
 30
0.0
 10
12.10934456477526
 20
33.27301109054178
 30
0.0
 10
11.92465326465505
 20
33.21019284332255
 30
0.0
 10
11.52752277837883
 20
33.124142789094
 30
0.0
 10
11.32193513118782
 20
33.10278110396342
 30
0.0
 10
10.69948105299426
 20
33.10504385732295
 30
0.0
 10
10.28831449591981
 20
33.19754297491611
 30
0.0
 10
9.950000000000001
 20
33.36525953046024
 30
0.0
  0
SPLINE
  5
204
330
1F
100
AcDbEntity
  8
1
  6
SLD-Solid
370
    25
100
AcDbSpline
210
0.0
220
0.0
230
1.0
 70
     8
 71
     3
 72
    16
 73
    12
 74
     0
 42
0.000000001
 43
0.00000001
 40
0.0
 40
0.0
 40
0.0
 40
0.0
 40
0.125
 40
0.125
 40
0.25
 40
0.25
 40
0.5
 40
0.5
 40
0.75
 40
0.75
 40
1.0
 40
1.0
 40
1.0
 40
1.0
 10
9.200000000002277
 20
35.36831017813518
 30
0.0
 10
9.200000000004774
 20
35.31693147873784
 30
0.0
 10
9.209688078863548
 20
35.29149399688277
 30
0.0
 10
9.236073415536936
 20
35.26518486786853
 30
0.0
 10
9.25307062474276
 20
35.26193032552565
 30
0.0
 10
9.313034815215616
 20
35.26168910608484
 30
0.0
 10
9.36392245582808
 20
35.2747715451527
 30
0.0
 10
9.490054525550171
 20
35.31156519648562
 30
0.0
 10
9.565092430043206
 20
35.33621653960019
 30
0.0
 10
9.7389246472689
 20
35.39932894997543
 30
0.0
 10
9.83944594635186
 20
35.43834692831698
 30
0.0
 10
9.950000000000001
 20
35.48885481142474
 30
0.0
  0
SPLINE
  5
205
330
1F
100
AcDbEntity
  8
1
  6
SLD-Solid
370
    25
100
AcDbSpline
210
0.0
220
0.0
230
1.0
 70
     8
 71
     3
 72
    12
 73
     8
 74
     0
 42
0.000000001
 43
0.00000001
 40
0.0
 40
0.0
 40
0.0
 40
0.0
 40
0.25
 40
0.25
 40
0.5
 40
0.5
 40
1.0
 40
1.0
 40
1.0
 40
1.0
 10
9.950000000000001
 20
35.48885481142474
 30
0.0
 10
10.11915676939239
 20
35.56613601508451
 30
0.0
 10
10.30270770519948
 20
35.62476545355774
 30
0.0
 10
10.69826560395111
 20
35.70597605697658
 30
0.0
 10
10.90345647830329
 20
35.72681273192287
 30
0.0
 10
11.52590240230555
 20
35.72953904175431
 30
0.0
 10
11.93868796900774
 20
35.64974792445471
 30
0.0
 10
12.28000000000003
 20
35.49787263615899
 30
0.0
  0
SPLINE
  5
206
330
1F
100
AcDbEntity
  8
1
  6
SLD-Solid
370
    25
100
AcDbSpline
210
0.0
220
0.0
230
1.0
 70
     8
 71
     3
 72
    16
 73
    12
 74
     0
 42
0.000000001
 43
0.00000001
 40
0.0
 40
0.0
 40
0.0
 40
0.0
 40
0.2499999999999999
 40
0.2499999999999999
 40
0.4999999999999998
 40
0.4999999999999998
 40
0.7499999999999997
 40
0.7499999999999997
 40
0.8749999999999998
 40
0.8749999999999998
 40
1.0
 40
1.0
 40
1.0
 40
1.0
 10
12.28000000000003
 20
35.49787263615899
 30
0.0
 10
12.38938127142807
 20
35.44920071538318
 30
0.0
 10
12.48719790588469
 20
35.41256913935558
 30
0.0
 10
12.66235653858859
 20
35.35237067244712
 30
0.0
 10
12.73630362704299
 20
35.33005450148761
 30
0.0
 10
12.86322577731737
 20
35.29810085202675
 30
0.0
 10
12.91570572130095
 20
35.28773767542292
 30
0.0
 10
12.97658934509431
 20
35.29443860847591
 30
0.0
 10
12.99409980251967
 20
35.30029296727561
 30
0.0
 10
13.02084597296049
 20
35.33271449864373
 30
0.0
 10
13.03
 20
35.36068432142831
 30
0.0
 10
13.03
 20
35.41132408805676
 30
0.0
  0
SPLINE
  5
207
330
1F
100
AcDbEntity
  8
1
  6
SLD-Solid
370
    25
100
AcDbSpline
210
0.0
220
0.0
230
1.0
 70
     8
 71
     3
 72
    16
 73
    12
 74
     0
 42
0.000000001
 43
0.00000001
 40
0.0
 40
0.0
 40
0.0
 40
0.0
 40
0.2499999999999998
 40
0.2499999999999998
 40
0.4999999999999996
 40
0.4999999999999996
 40
0.7499999999999993
 40
0.7499999999999993
 40
0.8749999999999997
 40
0.8749999999999997
 40
1.0
 40
1.0
 40
1.0
 40
1.0
 10
9.950000000000001
 20
40.2901760724921
 30
0.0
 10
9.839257595210663
 20
40.32798470963449
 30
0.0
 10
9.740416734001444
 20
40.39081531012378
 30
0.0
 10
9.564708009184061
 20
40.54795546550074
 30
0.0
 10
9.490830483266114
 20
40.63949231484411
 30
0.0
 10
9.364658348120017
 20
40.8424769902905
 30
0.0
 10
9.312951425518134
 20
40.95326880810712
 30
0.0
 10
9.253206550793827
 20
41.13218036853986
 30
0.0
 10
9.236028623043957
 20
41.19470581500534
 30
0.0
 10
9.209723703057032
 20
41.32469951294972
 30
0.0
 10
9.200000000000014
 20
41.3978390036328
 30
0.0
 10
9.200000000000014
 20
41.45885414630705
 30
0.0
  0
SPLINE
  5
208
330
1F
100
AcDbEntity
  8
1
  6
SLD-Solid
370
    25
100
AcDbSpline
210
0.0
220
0.0
230
1.0
 70
     8
 71
     3
 72
    16
 73
    12
 74
     0
 42
0.000000001
 43
0.00000001
 40
0.0
 40
0.0
 40
0.0
 40
0.0
 40
0.1250000000000039
 40
0.1250000000000039
 40
0.2500000000000078
 40
0.2500000000000078
 40
0.5000000000000051
 40
0.5000000000000051
 40
0.7500000000000026
 40
0.7500000000000026
 40
1.0
 40
1.0
 40
1.0
 40
1.0
 10
13.02999999999835
 20
41.42895438114483
 30
0.0
 10
13.02999999999835
 20
41.36827713359742
 30
0.0
 10
13.02067456260446
 20
41.29860125514492
 30
0.0
 10
12.99367590047686
 20
41.16856540733183
 30
0.0
 10
12.97626449755167
 20
41.10738101936695
 30
0.0
 10
12.91545405813367
 20
40.93079740642489
 30
0.0
 10
12.86271449633694
 20
40.82130212611718
 30
0.0
 10
12.73634152951743
 20
40.62320356046917
 30
0.0
 10
12.66098841639574
 20
40.53226162144243
 30
0.0
 10
12.48671204537617
 20
40.38027498384282
 30
0.0
 10
12.38972674335263
 20
40.31995671599529
 30
0.0
 10
12.27999999999838
 20
40.28343379132449
 30
0.0
  0
SPLINE
  5
209
330
1F
100
AcDbEntity
  8
1
  6
SLD-Solid
370
    25
100
AcDbSpline
210
0.0
220
0.0
230
1.0
 70
     8
 71
     3
 72
    12
 73
     8
 74
     0
 42
0.000000001
 43
0.00000001
 40
0.0
 40
0.0
 40
0.0
 40
0.0
 40
0.25
 40
0.25
 40
0.5
 40
0.5
 40
1.0
 40
1.0
 40
1.0
 40
1.0
 10
12.27999999999838
 20
40.28343379132449
 30
0.0
 10
12.10934456477361
 20
40.22663054158941
 30
0.0
 10
11.9246532646534
 20
40.18318651206277
 30
0.0
 10
11.52752277837719
 20
40.12362389225036
 30
0.0
 10
11.32193513118618
 20
40.10880147711192
 30
0.0
 10
10.69948105299262
 20
40.11037023230934
 30
0.0
 10
10.28831449592008
 20
40.1746718982731
 30
0.0
 10
9.950000000000001
 20
40.2901760724921
 30
0.0
  0
SPLINE
  5
20A
330
1F
100
AcDbEntity
  8
1
  6
SLD-Solid
370
    25
100
AcDbSpline
210
0.0
220
0.0
230
1.0
 70
     8
 71
     3
 72
     8
 73
     4
 74
     0
 42
0.000000001
 43
0.00000001
 40
0.0
 40
0.0
 40
0.0
 40
0.0
 40
0.1249999999999983
 40
0.1249999999999983
 40
0.1249999999999983
 40
0.1249999999999983
 10
47.12939430996002
 20
23.29999999999999
 30
0.0
 10
46.47498128488806
 20
23.31391977763355
 30
0.0
 10
45.83633355512029
 20
23.35505215422435
 30
0.0
 10
45.21233514628692
 20
23.41933659812639
 30
0.0
  0
SPLINE
  5
20B
330
1F
100
AcDbEntity
  8
1
  6
SLD-Solid
370
    25
100
AcDbSpline
210
0.0
220
0.0
230
1.0
 70
     8
 71
     3
 72
     8
 73
     4
 74
     0
 42
0.000000001
 43
0.00000001
 40
0.1249999999999983
 40
0.1249999999999983
 40
0.1249999999999983
 40
0.1249999999999983
 40
0.187499999999998
 40
0.187499999999998
 40
0.187499999999998
 40
0.187499999999998
 10
45.21233514628692
 20
23.41933659812639
 30
0.0
 10
44.90033594187023
 20
23.45147882007741
 30
0.0
 10
44.59202308779633
 20
23.48941022499622
 30
0.0
 10
44.28739560785658
 20
23.53261519845287
 30
0.0
  0
SPLINE
  5
20C
330
1F
100
AcDbEntity
  8
1
  6
SLD-Solid
370
    25
100
AcDbSpline
210
0.0
220
0.0
230
1.0
 70
     8
 71
     3
 72
     8
 73
     4
 74
     0
 42
0.000000001
 43
0.00000001
 40
0.187499999999998
 40
0.187499999999998
 40
0.187499999999998
 40
0.187499999999998
 40
0.2499999999999978
 40
0.2499999999999978
 40
0.2499999999999978
 40
0.2499999999999978
 10
44.28739560785658
 20
23.53261519845287
 30
0.0
 10
43.98276812791685
 20
23.57582017190951
 30
0.0
 10
43.68143185665785
 20
23.62443613164236
 30
0.0
 10
43.39016528781059
 20
23.67653268617607
 30
0.0
  0
SPLINE
  5
20D
330
1F
100
AcDbEntity
  8
1
  6
SLD-Solid
370
    25
100
AcDbSpline
210
0.0
220
0.0
230
1.0
 70
     8
 71
     3
 72
     8
 73
     4
 74
     0
 42
0.000000001
 43
0.00000001
 40
0.2499999999999978
 40
0.2499999999999978
 40
0.2499999999999978
 40
0.2499999999999978
 40
0.3749999999999973
 40
0.3749999999999973
 40
0.3749999999999973
 40
0.3749999999999973
 10
43.39016528781059
 20
23.67653268617607
 30
0.0
 10
42.80763215011616
 20
23.78072579524348
 30
0.0
 10
42.25834103205462
 20
23.89965118255232
 30
0.0
 10
41.74049701294474
 20
24.02648019175222
 30
0.0
  0
SPLINE
  5
20E
330
1F
100
AcDbEntity
  8
1
  6
SLD-Solid
370
    25
100
AcDbSpline
210
0.0
220
0.0
230
1.0
 70
     8
 71
     3
 72
     8
 73
     4
 74
     0
 42
0.000000001
 43
0.00000001
 40
0.3749999999999973
 40
0.3749999999999973
 40
0.3749999999999973
 40
0.3749999999999973
 40
0.4374999999999977
 40
0.4374999999999977
 40
0.4374999999999977
 40
0.4374999999999977
 10
41.74049701294474
 20
24.02648019175222
 30
0.0
 10
41.48157500338978
 20
24.08989469635218
 30
0.0
 10
41.22946849886519
 20
24.15560773193805
 30
0.0
 10
40.98826051034654
 20
24.2216986616035
 30
0.0
  0
SPLINE
  5
20F
330
1F
100
AcDbEntity
  8
1
  6
SLD-Solid
370
    25
100
AcDbSpline
210
0.0
220
0.0
230
1.0
 70
     8
 71
     3
 72
     8
 73
     4
 74
     0
 42
0.000000001
 43
0.00000001
 40
0.4374999999999977
 40
0.4374999999999977
 40
0.4374999999999977
 40
0.4374999999999977
 40
0.4999999999999979
 40
0.4999999999999979
 40
0.4999999999999979
 40
0.4999999999999979
 10
40.98826051034654
 20
24.2216986616035
 30
0.0
 10
40.74705252182789
 20
24.28778959126895
 30
0.0
 10
40.51740850760927
 20
24.35403013758695
 30
0.0
 10
40.29890173239225
 20
24.41958416571922
 30
0.0
  0
SPLINE
  5
210
330
1F
100
AcDbEntity
  8
1
  6
SLD-Solid
370
    25
100
AcDbSpline
210
0.0
220
0.0
230
1.0
 70
     8
 71
     3
 72
     8
 73
     4
 74
     0
 42
0.000000001
 43
0.00000001
 40
0.4999999999999979
 40
0.4999999999999979
 40
0.4999999999999979
 40
0.4999999999999979
 40
0.6249999999999982
 40
0.6249999999999982
 40
0.6249999999999982
 40
0.6249999999999982
 10
40.29890173239225
 20
24.41958416571922
 30
0.0
 10
39.86188818195824
 20
24.55069222198376
 30
0.0
 10
39.46908227980214
 20
24.67907301373171
 30
0.0
 10
39.1213092491988
 20
24.79832920551831
 30
0.0
  0
SPLINE
  5
211
330
1F
100
AcDbEntity
  8
1
  6
SLD-Solid
370
    25
100
AcDbSpline
210
0.0
220
0.0
230
1.0
 70
     8
 71
     3
 72
     8
 73
     4
 74
     0
 42
0.000000001
 43
0.00000001
 40
0.6249999999999982
 40
0.6249999999999982
 40
0.6249999999999982
 40
0.6249999999999982
 40
0.6874999999999983
 40
0.6874999999999983
 40
0.6874999999999983
 40
0.6874999999999983
 10
39.1213092491988
 20
24.79832920551831
 30
0.0
 10
38.94742273389709
 20
24.8579573014116
 30
0.0
 10
38.78514338274244
 20
24.91522716560718
 30
0.0
 10
38.63780784375182
 20
24.96825980827116
 30
0.0
  0
SPLINE
  5
212
330
1F
100
AcDbEntity
  8
1
  6
SLD-Solid
370
    25
100
AcDbSpline
210
0.0
220
0.0
230
1.0
 70
     8
 71
     3
 72
     8
 73
     4
 74
     0
 42
0.000000001
 43
0.00000001
 40
0.6874999999999983
 40
0.6874999999999983
 40
0.6874999999999983
 40
0.6874999999999983
 40
0.7499999999999984
 40
0.7499999999999984
 40
0.7499999999999984
 40
0.7499999999999984
 10
38.63780784375182
 20
24.96825980827116
 30
0.0
 10
38.49047230476118
 20
25.02129245093513
 30
0.0
 10
38.35707952336701
 20
25.07042926814309
 30
0.0
 10
38.23750113161004
 20
25.11512512419602
 30
0.0
  0
SPLINE
  5
213
330
1F
100
AcDbEntity
  8
1
  6
SLD-Solid
370
    25
100
AcDbSpline
210
0.0
220
0.0
230
1.0
 70
     8
 71
     3
 72
     8
 73
     4
 74
     0
 42
0.000000001
 43
0.00000001
 40
0.7499999999999984
 40
0.7499999999999984
 40
0.7499999999999984
 40
0.7499999999999984
 40
0.8749999999999993
 40
0.8749999999999993
 40
0.8749999999999993
 40
0.8749999999999993
 10
38.23750113161004
 20
25.11512512419602
 30
0.0
 10
37.99834434809613
 20
25.20451683630186
 30
0.0
 10
37.81388364202287
 20
25.27625502287193
 30
0.0
 10
37.68845157371192
 20
25.32546879384403
 30
0.0
  0
SPLINE
  5
214
330
1F
100
AcDbEntity
  8
1
  6
SLD-Solid
370
    25
100
AcDbSpline
210
0.0
220
0.0
230
1.0
 70
     8
 71
     2
 72
     6
 73
     3
 74
     0
 42
0.000000001
 43
0.00000001
 40
0.8749999999999993
 40
0.8749999999999993
 40
0.8749999999999993
 40
1.0
 40
1.0
 40
1.0
 10
37.68845157371192
 20
25.32546879384403
 30
0.0
 10
37.56301950540094
 20
25.37468256481613
 30
0.0
 10
37.49999999999998
 20
25.4
 30
0.0
  0
SPLINE
  5
215
330
1F
100
AcDbEntity
  8
1
  6
SLD-Solid
370
    25
100
AcDbSpline
210
0.0
220
0.0
230
1.0
 70
     8
 71
     3
 72
    17
 73
    13
 74
     0
 42
0.000000001
 43
0.00000001
 40
0.0
 40
0.0
 40
0.0
 40
0.0
 40
0.0865628821621788
 40
0.1873495522881831
 40
0.2909170854123247
 40
0.3946215521411971
 40
0.500980879313938
 40
0.6114081595749217
 40
0.724942489106004
 40
0.8364998661163282
 40
0.9517754038597636
 40
1.0
 40
1.0
 40
1.0
 40
1.0
 10
57.72685259580612
 20
25.39080195128917
 30
0.0
 10
57.71892977741294
 20
25.3876077723909
 30
0.0
 10
57.70178228368647
 20
25.38069455541413
 30
0.0
 10
57.3638480589192
 20
25.24740862295886
 30
0.0
 10
56.79914446132925
 20
25.03350634723081
 30
0.0
 10
55.99177769696798
 20
24.74676731029595
 30
0.0
 10
54.95960016101925
 20
24.41403496192587
 30
0.0
 10
53.69821510806327
 20
24.06125661350569
 30
0.0
 10
52.2393740157698
 20
23.73095306917891
 30
0.0
 10
50.61372053264765
 20
23.46681291132676
 30
0.0
 10
49.21585712806509
 20
23.33406263336454
 30
0.0
 10
48.37007216409761
 20
23.30775809572847
 30
0.0
 10
48.12060669064522
 20
23.29999953508376
 30
0.0
  0
SPLINE
  5
216
330
1F
100
AcDbEntity
  8
1
  6
SLD-Solid
370
    25
100
AcDbSpline
210
0.0
220
0.0
230
1.0
 70
     8
 71
     3
 72
     8
 73
     4
 74
     0
 42
0.000000001
 43
0.00000001
 40
0.0
 40
0.0
 40
0.0
 40
0.0
 40
0.1250000000000007
 40
0.1250000000000007
 40
0.1250000000000007
 40
0.1250000000000007
 10
72.52939430996
 20
23.29999999999999
 30
0.0
 10
71.8749812848881
 20
23.31391977763355
 30
0.0
 10
71.2363335551203
 20
23.35505215422435
 30
0.0
 10
70.61233514628695
 20
23.41933659812639
 30
0.0
  0
SPLINE
  5
217
330
1F
100
AcDbEntity
  8
1
  6
SLD-Solid
370
    25
100
AcDbSpline
210
0.0
220
0.0
230
1.0
 70
     8
 71
     3
 72
     8
 73
     4
 74
     0
 42
0.000000001
 43
0.00000001
 40
0.1250000000000007
 40
0.1250000000000007
 40
0.1250000000000007
 40
0.1250000000000007
 40
0.1875000000000011
 40
0.1875000000000011
 40
0.1875000000000011
 40
0.1875000000000011
 10
70.61233514628695
 20
23.41933659812639
 30
0.0
 10
70.30033594187024
 20
23.4514788200774
 30
0.0
 10
69.99202308779637
 20
23.48941022499622
 30
0.0
 10
69.68739560785656
 20
23.53261519845287
 30
0.0
  0
SPLINE
  5
218
330
1F
100
AcDbEntity
  8
1
  6
SLD-Solid
370
    25
100
AcDbSpline
210
0.0
220
0.0
230
1.0
 70
     8
 71
     3
 72
     8
 73
     4
 74
     0
 42
0.000000001
 43
0.00000001
 40
0.1875000000000011
 40
0.1875000000000011
 40
0.1875000000000011
 40
0.1875000000000011
 40
0.2500000000000015
 40
0.2500000000000015
 40
0.2500000000000015
 40
0.2500000000000015
 10
69.68739560785656
 20
23.53261519845287
 30
0.0
 10
69.3827681279168
 20
23.57582017190951
 30
0.0
 10
69.08143185665786
 20
23.62443613164236
 30
0.0
 10
68.79016528781062
 20
23.67653268617607
 30
0.0
  0
SPLINE
  5
219
330
1F
100
AcDbEntity
  8
1
  6
SLD-Solid
370
    25
100
AcDbSpline
210
0.0
220
0.0
230
1.0
 70
     8
 71
     3
 72
     8
 73
     4
 74
     0
 42
0.000000001
 43
0.00000001
 40
0.2500000000000015
 40
0.2500000000000015
 40
0.2500000000000015
 40
0.2500000000000015
 40
0.3750000000000026
 40
0.3750000000000026
 40
0.3750000000000026
 40
0.3750000000000026
 10
68.79016528781062
 20
23.67653268617607
 30
0.0
 10
68.20763215011615
 20
23.78072579524349
 30
0.0
 10
67.65834103205462
 20
23.89965118255232
 30
0.0
 10
67.14049701294478
 20
24.02648019175222
 30
0.0
  0
SPLINE
  5
21A
330
1F
100
AcDbEntity
  8
1
  6
SLD-Solid
370
    25
100
AcDbSpline
210
0.0
220
0.0
230
1.0
 70
     8
 71
     3
 72
     8
 73
     4
 74
     0
 42
0.000000001
 43
0.00000001
 40
0.3750000000000026
 40
0.3750000000000026
 40
0.3750000000000026
 40
0.3750000000000026
 40
0.4375000000000021
 40
0.4375000000000021
 40
0.4375000000000021
 40
0.4375000000000021
 10
67.14049701294478
 20
24.02648019175222
 30
0.0
 10
66.88157500338981
 20
24.08989469635216
 30
0.0
 10
66.62946849886522
 20
24.15560773193805
 30
0.0
 10
66.38826051034653
 20
24.2216986616035
 30
0.0
  0
SPLINE
  5
21B
330
1F
100
AcDbEntity
  8
1
  6
SLD-Solid
370
    25
100
AcDbSpline
210
0.0
220
0.0
230
1.0
 70
     8
 71
     3
 72
     8
 73
     4
 74
     0
 42
0.000000001
 43
0.00000001
 40
0.4375000000000021
 40
0.4375000000000021
 40
0.4375000000000021
 40
0.4375000000000021
 40
0.5000000000000016
 40
0.5000000000000016
 40
0.5000000000000016
 40
0.5000000000000016
 10
66.38826051034653
 20
24.2216986616035
 30
0.0
 10
66.14705252182787
 20
24.28778959126895
 30
0.0
 10
65.91740850760924
 20
24.35403013758695
 30
0.0
 10
65.6989017323922
 20
24.4195841657192
 30
0.0
  0
SPLINE
  5
21C
330
1F
100
AcDbEntity
  8
1
  6
SLD-Solid
370
    25
100
AcDbSpline
210
0.0
220
0.0
230
1.0
 70
     8
 71
     3
 72
     8
 73
     4
 74
     0
 42
0.000000001
 43
0.00000001
 40
0.5000000000000016
 40
0.5000000000000016
 40
0.5000000000000016
 40
0.5000000000000016
 40
0.6250000000000023
 40
0.6250000000000023
 40
0.6250000000000023
 40
0.6250000000000023
 10
65.6989017323922
 20
24.4195841657192
 30
0.0
 10
65.26188818195821
 20
24.55069222198374
 30
0.0
 10
64.86908227980217
 20
24.67907301373171
 30
0.0
 10
64.52130924919877
 20
24.7983292055183
 30
0.0
  0
SPLINE
  5
21D
330
1F
100
AcDbEntity
  8
1
  6
SLD-Solid
370
    25
100
AcDbSpline
210
0.0
220
0.0
230
1.0
 70
     8
 71
     3
 72
     8
 73
     4
 74
     0
 42
0.000000001
 43
0.00000001
 40
0.6250000000000023
 40
0.6250000000000023
 40
0.6250000000000023
 40
0.6250000000000023
 40
0.6875000000000019
 40
0.6875000000000019
 40
0.6875000000000019
 40
0.6875000000000019
 10
64.52130924919877
 20
24.7983292055183
 30
0.0
 10
64.34742273389708
 20
24.85795730141158
 30
0.0
 10
64.18514338274245
 20
24.91522716560717
 30
0.0
 10
64.03780784375182
 20
24.96825980827113
 30
0.0
  0
SPLINE
  5
21E
330
1F
100
AcDbEntity
  8
1
  6
SLD-Solid
370
    25
100
AcDbSpline
210
0.0
220
0.0
230
1.0
 70
     8
 71
     3
 72
     8
 73
     4
 74
     0
 42
0.000000001
 43
0.00000001
 40
0.6875000000000019
 40
0.6875000000000019
 40
0.6875000000000019
 40
0.6875000000000019
 40
0.7500000000000014
 40
0.7500000000000014
 40
0.7500000000000014
 40
0.7500000000000014
 10
64.03780784375182
 20
24.96825980827113
 30
0.0
 10
63.89047230476119
 20
25.02129245093512
 30
0.0
 10
63.75707952336698
 20
25.07042926814308
 30
0.0
 10
63.63750113161002
 20
25.11512512419601
 30
0.0
  0
SPLINE
  5
21F
330
1F
100
AcDbEntity
  8
1
  6
SLD-Solid
370
    25
100
AcDbSpline
210
0.0
220
0.0
230
1.0
 70
     8
 71
     3
 72
     8
 73
     4
 74
     0
 42
0.000000001
 43
0.00000001
 40
0.7500000000000014
 40
0.7500000000000014
 40
0.7500000000000014
 40
0.7500000000000014
 40
0.8750000000000008
 40
0.8750000000000008
 40
0.8750000000000008
 40
0.8750000000000008
 10
63.63750113161002
 20
25.11512512419601
 30
0.0
 10
63.39834434809613
 20
25.20451683630186
 30
0.0
 10
63.21388364202288
 20
25.27625502287192
 30
0.0
 10
63.0884515737119
 20
25.32546879384403
 30
0.0
  0
SPLINE
  5
220
330
1F
100
AcDbEntity
  8
1
  6
SLD-Solid
370
    25
100
AcDbSpline
210
0.0
220
0.0
230
1.0
 70
     8
 71
     3
 72
    17
 73
    13
 74
     0
 42
0.000000001
 43
0.00000001
 40
0.0
 40
0.0
 40
0.0
 40
0.0
 40
0.0865628803113951
 40
0.1873496119139155
 40
0.2909171569793319
 40
0.3946216356652674
 40
0.5009808269667888
 40
0.611408119959972
 40
0.7249424625814948
 40
0.8364998524543179
 40
0.9517756366591809
 40
1.0
 40
1.0
 40
1.0
 40
1.0
 10
83.12685042619705
 20
25.39080195128917
 30
0.0
 10
83.11892947504742
 20
25.38760776292769
 30
0.0
 10
83.10178601680607
 20
25.38069452312153
 30
0.0
 10
82.7638442225376
 20
25.24740868809987
 30
0.0
 10
82.19914296179323
 20
25.03350629826984
 30
0.0
 10
81.39177499645342
 20
24.74676761236213
 30
0.0
 10
80.35960209349882
 20
24.41403463440955
 30
0.0
 10
79.09821640298529
 20
24.06125665286885
 30
0.0
 10
77.63937562563925
 20
23.73095309003036
 30
0.0
 10
76.01372101524854
 20
23.46681260916317
 30
0.0
 10
74.61585733535561
 20
23.33406290177226
 30
0.0
 10
73.77007246658555
 20
23.30775812744004
 30
0.0
 10
73.52060824632645
 20
23.29999953508376
 30
0.0
  0
SPLINE
  5
221
330
1F
100
AcDbEntity
  8
1
  6
SLD-Solid
370
    25
100
AcDbSpline
210
0.0
220
0.0
230
1.0
 70
     8
 71
     3
 72
    16
 73
    12
 74
     0
 42
0.000000001
 43
0.00000001
 40
0.0
 40
0.0
 40
0.0
 40
0.0
 40
0.1250000000000007
 40
0.1250000000000007
 40
0.2500000000000013
 40
0.2500000000000013
 40
0.5000000000000009
 40
0.5000000000000009
 40
0.7500000000000004
 40
0.7500000000000004
 40
1.0
 40
1.0
 40
1.0
 40
1.0
 10
9.200000204145908
 20
41.93454235792159
 30
0.0
 10
9.200000204148406
 20
41.87335475630984
 30
0.0
 10
9.209688283007168
 20
41.83111044630716
 30
0.0
 10
9.236073619680555
 20
41.77192901356235
 30
0.0
 10
9.253070828886392
 20
41.75174452130692
 30
0.0
 10
9.313035019359248
 20
41.70102843243767
 30
0.0
 10
9.363922659971713
 20
41.68155703795598
 30
0.0
 10
9.490054729693803
 20
41.6558721617165
 30
0.0
 10
9.56509263418684
 20
41.650884345861
 30
0.0
 10
9.738924851412534
 20
41.66113958578665
 30
0.0
 10
9.839446150495492
 20
41.67651277999003
 30
0.0
 10
9.950000204143633
 20
41.70913814088572
 30
0.0
  0
SPLINE
  5
222
330
1F
100
AcDbEntity
  8
1
  6
SLD-Solid
370
    25
100
AcDbSpline
210
0.0
220
0.0
230
1.0
 70
     8
 71
     3
 72
    12
 73
     8
 74
     0
 42
0.000000001
 43
0.00000001
 40
0.0
 40
0.0
 40
0.0
 40
0.0
 40
0.25
 40
0.25
 40
0.5
 40
0.5
 40
1.0
 40
1.0
 40
1.0
 40
1.0
 10
9.950000204143633
 20
41.70913814088572
 30
0.0
 10
10.11915697353587
 20
41.75905761889025
 30
0.0
 10
10.30270790934458
 20
41.79673646666126
 30
0.0
 10
10.6982658080958
 20
41.84886354295495
 30
0.0
 10
10.90345668244766
 20
41.86219394477457
 30
0.0
 10
11.52590260644889
 20
41.86393991358955
 30
0.0
 10
11.93868817315028
 20
41.81303422185272
 30
0.0
 10
12.28000020414201
 20
41.71496224063969
 30
0.0
  0
SPLINE
  5
223
330
1F
100
AcDbEntity
  8
1
  6
SLD-Solid
370
    25
100
AcDbSpline
210
0.0
220
0.0
230
1.0
 70
     8
 71
     3
 72
    16
 73
    12
 74
     0
 42
0.000000001
 43
0.00000001
 40
0.0
 40
0.0
 40
0.0
 40
0.0
 40
0.2500000000000007
 40
0.2500000000000007
 40
0.5000000000000013
 40
0.5000000000000013
 40
0.750000000000002
 40
0.750000000000002
 40
0.875000000000001
 40
0.875000000000001
 40
1.0
 40
1.0
 40
1.0
 40
1.0
 10
12.28000020414201
 20
41.71496224063969
 30
0.0
 10
12.38938147557005
 20
41.68353282408682
 30
0.0
 10
12.48719811002667
 20
41.66923443832145
 30
0.0
 10
12.66235674273057
 20
41.66075304847874
 30
0.0
 10
12.73630383118497
 20
41.6667966416464
 30
0.0
 10
12.86322598145935
 20
41.69542235296244
 30
0.0
 10
12.91570592544293
 20
41.7172364287444
 30
0.0
 10
12.97658954923629
 20
41.77277625315302
 30
0.0
 10
12.99410000666167
 20
41.79517107625947
 30
0.0
 10
13.02084617710249
 20
41.85934365562868
 30
0.0
 10
13.03000020414198
 20
41.9026504671264
 30
0.0
 10
13.03000020414198
 20
41.96295806351102
 30
0.0
  0
SPLINE
  5
224
330
1F
100
AcDbEntity
  8
1
  6
SLD-Solid
370
    25
100
AcDbSpline
210
0.0
220
0.0
230
1.0
 70
     8
 71
     3
 72
    12
 73
     8
 74
     0
 42
0.000000001
 43
0.00000001
 40
0.0
 40
0.0
 40
0.0
 40
0.0
 40
0.5
 40
0.5
 40
0.75
 40
0.75
 40
1.0
 40
1.0
 40
1.0
 40
1.0
 10
9.2
 20
44.551021593225
 30
0.0
 10
9.2
 20
44.35104831812288
 30
0.0
 10
9.276003966817353
 20
44.15150826736529
 30
0.0
 10
9.482759040153486
 20
43.93116827137957
 30
0.0
 10
9.566857937314946
 20
43.87128621650867
 30
0.0
 10
9.74951124726116
 20
43.79084228716471
 30
0.0
 10
9.850156242870487
 20
43.76943596849255
 30
0.0
 10
9.950000000002415
 20
43.7694359684929
 30
0.0
  0
SPLINE
  5
225
330
1F
100
AcDbEntity
  8
1
  6
SLD-Solid
370
    25
100
AcDbSpline
210
0.0
220
0.0
230
1.0
 70
     8
 71
     3
 72
    10
 73
     6
 74
     0
 42
0.000000001
 43
0.00000001
 40
0.0
 40
0.0
 40
0.0
 40
0.0
 40
0.5
 40
0.5
 40
1.0
 40
1.0
 40
1.0
 40
1.0
 10
12.28000000000003
 20
43.76943596849291
 30
0.0
 10
12.48122846377885
 20
43.76943596849293
 30
0.0
 10
12.67900932610887
 20
43.85856672856718
 30
0.0
 10
12.95290221427664
 20
44.15022946993261
 30
0.0
 10
13.03
 20
44.34957328976746
 30
0.0
 10
13.03
 20
44.551021593225
 30
0.0
  0
SPLINE
  5
226
330
1F
100
AcDbEntity
  8
SK3
  6
SLD-Dashed
370
    18
100
AcDbSpline
210
0.0
220
0.0
230
1.0
 70
     8
 71
     3
 72
    30
 73
    26
 74
     0
 42
0.000000001
 43
0.00000001
 40
0.4999999999999934
 40
0.4999999999999934
 40
0.4999999999999934
 40
0.4999999999999934
 40
0.5624999999999941
 40
0.5624999999999941
 40
0.6249999999999949
 40
0.6249999999999949
 40
0.6874999999999956
 40
0.6874999999999956
 40
0.7499999999999962
 40
0.7499999999999962
 40
0.7812499999999968
 40
0.7812499999999968
 40
0.8124999999999972
 40
0.8124999999999972
 40
0.8437499999999977
 40
0.8437499999999977
 40
0.8749999999999981
 40
0.8749999999999981
 40
0.9062499999999986
 40
0.9062499999999986
 40
0.9374999999999991
 40
0.9374999999999991
 40
0.9687499999999996
 40
0.9687499999999996
 40
1.0
 40
1.0
 40
1.0
 40
1.0
 10
9.602846279599758
 20
-14.27915034605702
 30
0.0
 10
9.68645653869378
 20
-14.4212541863764
 30
0.0
 10
9.797407143447803
 20
-14.51131733768215
 30
0.0
 10
10.04010223607202
 20
-14.63242374926581
 30
0.0
 10
10.1757110634753
 20
-14.66434400040092
 30
0.0
 10
10.46843928875954
 20
-14.6878509066433
 30
0.0
 10
10.62555865364897
 20
-14.68003033606001
 30
0.0
 10
10.98145473780837
 20
-14.62436653420487
 30
0.0
 10
11.18157682258662
 20
-14.57632221838471
 30
0.0
 10
11.50801002825755
 20
-14.45860893436549
 30
0.0
 10
11.61873162334195
 20
-14.41242944660508
 30
0.0
 10
11.84220113938106
 20
-14.30063256215535
 30
0.0
 10
11.95412269444689
 20
-14.23490090158665
 30
0.0
 10
12.16107863552154
 20
-14.08747705033183
 30
0.0
 10
12.25901625186734
 20
-14.00366784802363
 30
0.0
 10
12.43052677631516
 20
-13.82249974419394
 30
0.0
 10
12.50593330594163
 20
-13.72350506925875
 30
0.0
 10
12.63000303324958
 20
-13.51367430078405
 30
0.0
 10
12.67841410243614
 20
-13.40398486856759
 30
0.0
 10
12.74789370637347
 20
-13.17359881812363
 30
0.0
 10
12.7681012463063
 20
-13.05468203931825
 30
0.0
 10
12.77891027826543
 20
-12.81644825424547
 30
0.0
 10
12.76940813581852
 20
-12.69449512908379
 30
0.0
 10
12.72129905847916
 20
-12.45817259633889
 30
0.0
 10
12.68301625646431
 20
-12.3430480331033
 30
0.0
 10
12.63040931107569
 20
-12.23233436389471
 30
0.0
  0
SPLINE
  5
227
330
1F
100
AcDbEntity
  8
SK3
  6
SLD-Dashed
370
    18
100
AcDbSpline
210
0.0
220
0.0
230
1.0
 70
     8
 71
     3
 72
    30
 73
    26
 74
     0
 42
0.000000001
 43
0.00000001
 40
0.0
 40
0.0
 40
0.0
 40
0.0
 40
0.0312499999999991
 40
0.0312499999999991
 40
0.0624999999999983
 40
0.0624999999999983
 40
0.0937499999999974
 40
0.0937499999999974
 40
0.1249999999999965
 40
0.1249999999999965
 40
0.187499999999996
 40
0.187499999999996
 40
0.2499999999999955
 40
0.2499999999999955
 40
0.312499999999995
 40
0.312499999999995
 40
0.3749999999999944
 40
0.3749999999999944
 40
0.4062499999999942
 40
0.4062499999999942
 40
0.4374999999999939
 40
0.4374999999999939
 40
0.4687499999999937
 40
0.4687499999999937
 40
0.4999999999999934
 40
0.4999999999999934
 40
0.4999999999999934
 40
0.4999999999999934
 10
12.63040931107569
 20
-12.2323343638947
 30
0.0
 10
12.57780236568703
 20
-12.12162069468611
 30
0.0
 10
12.5126720645931
 20
-12.01896209858506
 30
0.0
 10
12.35821503903349
 20
-11.83123217673026
 30
0.0
 10
12.2680065585952
 20
-11.74609765066666
 30
0.0
 10
12.07343499093627
 20
-11.60605794329097
 30
0.0
 10
11.96643370486067
 20
-11.5492012180452
 30
0.0
 10
11.74573264298214
 20
-11.4698171939369
 30
0.0
 10
11.6340655249776
 20
-11.44748668283022
 30
0.0
 10
11.2995180174269
 20
-11.42770686560522
 30
0.0
 10
11.09198428069953
 20
-11.47806879673263
 30
0.0
 10
10.72217844091648
 20
-11.64236243808863
 30
0.0
 10
10.55844908096597
 20
-11.75496051093636
 30
0.0
 10
10.25324958882708
 20
-12.02428585488716
 30
0.0
 10
10.11576882260312
 20
-12.17795893248196
 30
0.0
 10
9.86252561936532
 20
-12.52988094775973
 30
0.0
 10
9.74626089640203
 20
-12.72918710194006
 30
0.0
 10
9.605692660850485
 20
-13.06645756895028
 30
0.0
 10
9.565421636406112
 20
-13.18319961587416
 30
0.0
 10
9.503286004234612
 20
-13.42936776111859
 30
0.0
 10
9.482363995141323
 20
-13.55752069830019
 30
0.0
 10
9.470908412243725
 20
-13.80546799718779
 30
0.0
 10
9.480664817462667
 20
-13.92083957613646
 30
0.0
 10
9.525951505689648
 20
-14.1223947507326
 30
0.0
 10
9.561041150052754
 20
-14.20809842589733
 30
0.0
 10
9.602846279599758
 20
-14.27915034605702
 30
0.0
  0
SPLINE
  5
228
330
1F
100
AcDbEntity
  8
SK3
  6
SLD-Dashed
370
    18
100
AcDbSpline
210
0.0
220
0.0
230
1.0
 70
     8
 71
     3
 72
    26
 73
    22
 74
     0
 42
0.000000001
 43
0.00000001
 40
0.5000000000000062
 40
0.5000000000000062
 40
0.5000000000000062
 40
0.5000000000000062
 40
0.5625000000000058
 40
0.5625000000000058
 40
0.6250000000000051
 40
0.6250000000000051
 40
0.6562500000000046
 40
0.6562500000000046
 40
0.687500000000004
 40
0.687500000000004
 40
0.7187500000000034
 40
0.7187500000000034
 40
0.7500000000000029
 40
0.7500000000000029
 40
0.8125000000000022
 40
0.8125000000000022
 40
0.8750000000000014
 40
0.8750000000000014
 40
0.9375000000000008
 40
0.9375000000000008
 40
1.0
 40
1.0
 40
1.0
 40
1.0
 10
11.6386983177957
 20
-9.819390371339228
 30
0.0
 10
11.80317915771348
 20
-9.806594466981581
 30
0.0
 10
11.95081782962318
 20
-9.812432081454686
 30
0.0
 10
12.22616299685252
 20
-9.868839301598992
 30
0.0
 10
12.3523651546992
 20
-9.918953620877913
 30
0.0
 10
12.5187466142634
 20
-10.04837289060636
 30
0.0
 10
12.57051953396254
 20
-10.10115000339698
 30
0.0
 10
12.66070184098386
 20
-10.23071744026807
 30
0.0
 10
12.7000179600585
 20
-10.30921538460777
 30
0.0
 10
12.75624339139549
 20
-10.49493258066049
 30
0.0
 10
12.7732316530057
 20
-10.60488156995157
 30
0.0
 10
12.7764946288975
 20
-10.84110300053567
 30
0.0
 10
12.76278670669288
 20
-10.96977043023328
 30
0.0
 10
12.68516730486995
 20
-11.34647137591011
 30
0.0
 10
12.58996305158963
 20
-11.58088814423495
 30
0.0
 10
12.37315603453731
 20
-11.98947715399203
 30
0.0
 10
12.24747178673946
 20
-12.17132846963891
 30
0.0
 10
11.97676737519451
 20
-12.4898134904303
 30
0.0
 10
11.8310268635477
 20
-12.62828009284684
 30
0.0
 10
11.50508373269932
 20
-12.86276351579439
 30
0.0
 10
11.32747339457477
 20
-12.95749122616766
 30
0.0
 10
11.12500000000001
 20
-13.01159523973385
 30
0.0
  0
SPLINE
  5
229
330
1F
100
AcDbEntity
  8
SK3
  6
SLD-Dashed
370
    18
100
AcDbSpline
210
0.0
220
0.0
230
1.0
 70
     8
 71
     3
 72
    34
 73
    30
 74
     0
 42
0.000000001
 43
0.00000001
 40
0.0
 40
0.0
 40
0.0
 40
0.0
 40
0.0312500000000005
 40
0.0312500000000005
 40
0.0625000000000011
 40
0.0625000000000011
 40
0.0937500000000016
 40
0.0937500000000016
 40
0.1250000000000022
 40
0.1250000000000022
 40
0.1562500000000027
 40
0.1562500000000027
 40
0.1875000000000032
 40
0.1875000000000032
 40
0.2187500000000038
 40
0.2187500000000038
 40
0.2500000000000043
 40
0.2500000000000043
 40
0.2812500000000049
 40
0.2812500000000049
 40
0.3125000000000054
 40
0.3125000000000054
 40
0.3750000000000063
 40
0.3750000000000063
 40
0.4062500000000066
 40
0.4062500000000066
 40
0.4375000000000068
 40
0.4375000000000068
 40
0.5000000000000062
 40
0.5000000000000062
 40
0.5000000000000062
 40
0.5000000000000062
 10
11.12500000000001
 20
-13.01159523973385
 30
0.0
 10
11.02376330271263
 20
-13.03864724651695
 30
0.0
 10
10.91875434041335
 20
-13.05441768585464
 30
0.0
 10
10.69982193729481
 20
-13.05649587060871
 30
0.0
 10
10.58565504429784
 20
-13.04203538439391
 30
0.0
 10
10.36433306908852
 20
-12.97958779527628
 30
0.0
 10
10.25386240054306
 20
-12.93066318687883
 30
0.0
 10
10.04998753866614
 20
-12.80335962284303
 30
0.0
 10
9.955887873021
 20
-12.72514830576757
 30
0.0
 10
9.789076352163569
 20
-12.54575166602604
 30
0.0
 10
9.71802220267208
 20
-12.44674722204855
 30
0.0
 10
9.600536001433207
 20
-12.23250861951092
 30
0.0
 10
9.555159683901234
 20
-12.11851015366411
 30
0.0
 10
9.49353895391432
 20
-11.88585378314763
 30
0.0
 10
9.476799814585949
 20
-11.76451266100635
 30
0.0
 10
9.473480888754688
 20
-11.52533259241782
 30
0.0
 10
9.486354225371821
 20
-11.40705029377198
 30
0.0
 10
9.541906609790443
 20
-11.17282024047875
 30
0.0
 10
9.583939125903788
 20
-11.06025657731945
 30
0.0
 10
9.694361385739564
 20
-10.84625731946298
 30
0.0
 10
9.764046986917323
 20
-10.74326010657128
 30
0.0
 10
10.00399120049177
 20
-10.46156575413966
 30
0.0
 10
10.21277179464264
 20
-10.30327029353936
 30
0.0
 10
10.54446991129009
 20
-10.12219171688679
 30
0.0
 10
10.65925898590059
 20
-10.07012567259634
 30
0.0
 10
10.87934718809656
 20
-9.98406667522589
 30
0.0
 10
10.98764418607852
 20
-9.948726825148164
 30
0.0
 10
11.29210738731386
 20
-9.86376536348267
 30
0.0
 10
11.47421747787791
 20
-9.832186275696868
 30
0.0
 10
11.6386983177957
 20
-9.819390371339228
 30
0.0
  0
SPLINE
  5
22A
330
1F
100
AcDbEntity
  8
1
  6
SLD-Dashed
370
    18
100
AcDbSpline
210
0.0
220
0.0
230
1.0
 70
    24
 71
     3
 72
    10
 73
     6
 74
     0
 42
0.000000001
 43
0.00000001
 40
0.0
 40
0.0
 40
0.0
 40
0.0
 40
0.0560555922730746
 40
0.8267960530854799
 40
1.0
 40
1.0
 40
1.0
 40
1.0
 10
19.05000000000001
 20
-35.1
 30
0.0
 10
19.05021419697081
 20
-35.1
 30
0.0
 10
19.05337351083844
 20
-35.10000000000004
 30
0.0
 10
19.16747436865462
 20
-35.1
 30
0.0
 10
19.21674783229133
 20
-35.1
 30
0.0
 10
19.22578899860383
 20
-35.10000000000001
 30
0.0
  0
SPLINE
  5
22B
330
1F
100
AcDbEntity
  8
1
  6
SLD-Dashed
370
    18
100
AcDbSpline
210
0.0
220
0.0
230
1.0
 70
    24
 71
     3
 72
     8
 73
     4
 74
     0
 42
0.000000001
 43
0.00000001
 40
0.0
 40
0.0
 40
0.0
 40
0.0
 40
0.5
 40
0.5
 40
0.5
 40
0.5
 10
19.32612037956716
 20
-35.10000000000004
 30
0.0
 10
19.32611522870731
 20
-35.10000000000004
 30
0.0
 10
19.25867305090409
 20
-35.10000000000002
 30
0.0
 10
19.18940244909329
 20
-35.09999999999999
 30
0.0
  0
SPLINE
  5
22C
330
1F
100
AcDbEntity
  8
1
  6
SLD-Dashed
370
    18
100
AcDbSpline
210
0.0
220
0.0
230
1.0
 70
    24
 71
     2
 72
     6
 73
     3
 74
     0
 42
0.000000001
 43
0.00000001
 40
0.5
 40
0.5
 40
0.5
 40
1.0
 40
1.0
 40
1.0
 10
19.18940244909329
 20
-35.09999999999999
 30
0.0
 10
19.12012975897759
 20
-35.09999999999999
 30
0.0
 10
19.05000000000001
 20
-35.1
 30
0.0
  0
SPLINE
  5
22D
330
1F
100
AcDbEntity
  8
1
  6
SLD-Dashed
370
    18
100
AcDbSpline
210
0.0
220
0.0
230
1.0
 70
    24
 71
     2
 72
     6
 73
     3
 74
     0
 42
0.000000001
 43
0.00000001
 40
0.0
 40
0.0
 40
0.0
 40
0.25
 40
0.25
 40
0.25
 10
3.199999999999994
 20
-35.09999999995728
 30
0.0
 10
3.178023089477733
 20
-35.09999999996996
 30
0.0
 10
3.159393676864686
 20
-35.0999999999807
 30
0.0
  0
SPLINE
  5
22E
330
1F
100
AcDbEntity
  8
1
  6
SLD-Dashed
370
    18
100
AcDbSpline
210
0.0
220
0.0
230
1.0
 70
    24
 71
     3
 72
     8
 73
     4
 74
     0
 42
0.000000001
 43
0.00000001
 40
0.25
 40
0.25
 40
0.25
 40
0.25
 40
0.5
 40
0.5
 40
0.5
 40
0.5
 10
3.159393676864686
 20
-35.0999999999807
 30
0.0
 10
3.140764264251639
 20
-35.09999999999143
 30
0.0
 10
3.125935313376446
 20
-35.09999999999998
 30
0.0
 10
3.125925297481347
 20
-35.1
 30
0.0
  0
SPLINE
  5
22F
330
1F
100
AcDbEntity
  8
1
  6
SLD-Dashed
370
    18
100
AcDbSpline
210
0.0
220
0.0
230
1.0
 70
    24
 71
     3
 72
     8
 73
     4
 74
     0
 42
0.000000001
 43
0.00000001
 40
0.5
 40
0.5
 40
0.5
 40
0.5
 40
0.75
 40
0.75
 40
0.75
 40
0.75
 10
3.125925297481347
 20
-35.1
 30
0.0
 10
3.125915281586247
 20
-35.09999999999999
 30
0.0
 10
3.140736475081146
 20
-35.09999999999145
 30
0.0
 10
3.159374026153516
 20
-35.09999999998071
 30
0.0
  0
SPLINE
  5
230
330
1F
100
AcDbEntity
  8
1
  6
SLD-Dashed
370
    18
100
AcDbSpline
210
0.0
220
0.0
230
1.0
 70
    24
 71
     2
 72
     6
 73
     3
 74
     0
 42
0.000000001
 43
0.00000001
 40
0.75
 40
0.75
 40
0.75
 40
1.0
 40
1.0
 40
1.0
 10
3.159374026153516
 20
-35.09999999998071
 30
0.0
 10
3.178011577225886
 20
-35.09999999996996
 30
0.0
 10
3.199999999999994
 20
-35.09999999995728
 30
0.0
  0
SPLINE
  5
231
330
1F
100
AcDbEntity
  8
SK3
  6
SLD-Dashed
370
    18
100
AcDbSpline
210
0.0
220
0.0
230
1.0
 70
     8
 71
     3
 72
    30
 73
    26
 74
     0
 42
0.000000001
 43
0.00000001
 40
0.5000000000000003
 40
0.5000000000000003
 40
0.5000000000000003
 40
0.5000000000000003
 40
0.5625000000000004
 40
0.5625000000000004
 40
0.6250000000000004
 40
0.6250000000000004
 40
0.6562500000000004
 40
0.6562500000000004
 40
0.6875000000000004
 40
0.6875000000000004
 40
0.7187500000000004
 40
0.7187500000000004
 40
0.7500000000000006
 40
0.7500000000000006
 40
0.7812500000000007
 40
0.7812500000000007
 40
0.8125000000000007
 40
0.8125000000000007
 40
0.8437500000000008
 40
0.8437500000000008
 40
0.8750000000000008
 40
0.8750000000000008
 40
0.9375000000000004
 40
0.9375000000000004
 40
1.0
 40
1.0
 40
1.0
 40
1.0
 10
11.12562136005285
 20
-2.816705769530629
 30
0.0
 10
10.91015622305716
 20
-2.816625936535068
 30
0.0
 10
10.69284589679513
 20
-2.859232125411407
 30
0.0
 10
10.29558696756598
 20
-3.020377702227441
 30
0.0
 10
10.11163597814034
 20
-3.140419768052009
 30
0.0
 10
9.883264610409794
 20
-3.361709807339818
 30
0.0
 10
9.813559217734053
 20
-3.443770957173284
 30
0.0
 10
9.693749771690866
 20
-3.616410404191667
 30
0.0
 10
9.64298208323558
 20
-3.707356833426628
 30
0.0
 10
9.55992797621634
 20
-3.898421256829425
 30
0.0
 10
9.528078770529442
 20
-3.99822757320567
 30
0.0
 10
9.485918841786372
 20
-4.198264384164762
 30
0.0
 10
9.475098639976878
 20
-4.299588207251535
 30
0.0
 10
9.47490269056353
 20
-4.504645767672649
 30
0.0
 10
9.485521294503362
 20
-4.604992258663045
 30
0.0
 10
9.527313506689921
 20
-4.801553426899245
 30
0.0
 10
9.559009612883154
 20
-4.898786700845127
 30
0.0
 10
9.641674969804114
 20
-5.083186506372877
 30
0.0
 10
9.692276670451221
 20
-5.170260663777064
 30
0.0
 10
9.811882814597231
 20
-5.334491817529527
 30
0.0
 10
9.881415866257209
 20
-5.411814920350428
 30
0.0
 10
10.10927495253987
 20
-5.619168122593603
 30
0.0
 10
10.29308333246008
 20
-5.730065421476908
 30
0.0
 10
10.689915237763
 20
-5.878394851445499
 30
0.0
 10
10.90674569137212
 20
-5.917691303012611
 30
0.0
 10
11.12500000000001
 20
-5.917691303012611
 30
0.0
  0
SPLINE
  5
232
330
1F
100
AcDbEntity
  8
SK3
  6
SLD-Dashed
370
    18
100
AcDbSpline
210
0.0
220
0.0
230
1.0
 70
     8
 71
     3
 72
    34
 73
    30
 74
     0
 42
0.000000001
 43
0.00000001
 40
0.0
 40
0.0
 40
0.0
 40
0.0
 40
0.0312500000000001
 40
0.0312500000000001
 40
0.0625000000000001
 40
0.0625000000000001
 40
0.0937500000000002
 40
0.0937500000000002
 40
0.1250000000000003
 40
0.1250000000000003
 40
0.1875000000000003
 40
0.1875000000000003
 40
0.2500000000000003
 40
0.2500000000000003
 40
0.2812500000000003
 40
0.2812500000000003
 40
0.3125000000000003
 40
0.3125000000000003
 40
0.3437500000000003
 40
0.3437500000000003
 40
0.3750000000000003
 40
0.3750000000000003
 40
0.4062500000000003
 40
0.4062500000000003
 40
0.4375000000000003
 40
0.4375000000000003
 40
0.4687500000000004
 40
0.4687500000000004
 40
0.5000000000000003
 40
0.5000000000000003
 40
0.5000000000000003
 40
0.5000000000000003
 10
11.12500000000001
 20
-5.917691303012617
 30
0.0
 10
11.23412715431396
 20
-5.917691303012611
 30
0.0
 10
11.34140805049268
 20
-5.908096646452615
 30
0.0
 10
11.55243535393036
 20
-5.870468355141746
 30
0.0
 10
11.65728383146462
 20
-5.841969807314565
 30
0.0
 10
11.85704437889547
 20
-5.767488428079795
 30
0.0
 10
11.95177048725639
 20
-5.721858546079171
 30
0.0
 10
12.13104317795377
 20
-5.613736014944429
 30
0.0
 10
12.21583668271496
 20
-5.550721369278887
 30
0.0
 10
12.4438763602161
 20
-5.34348645296593
 30
0.0
 10
12.56677530057199
 20
-5.175405774177827
 30
0.0
 10
12.7314295647212
 20
-4.809041589386796
 30
0.0
 10
12.77487984786212
 20
-4.606830264514312
 30
0.0
 10
12.77505969285793
 20
-4.303143086812192
 30
0.0
 10
12.76432399235937
 20
-4.199826784418978
 30
0.0
 10
12.72218685369286
 20
-3.999082573272014
 30
0.0
 10
12.69101088377629
 20
-3.901054332100848
 30
0.0
 10
12.60830336545252
 20
-3.709853270989362
 30
0.0
 10
12.55668860961369
 20
-3.617175190331813
 30
0.0
 10
12.43732913802299
 20
-3.444919403599887
 30
0.0
 10
12.36909329186318
 20
-3.364192362029617
 30
0.0
 10
12.2152415581175
 20
-3.214719680411961
 30
0.0
 10
12.13202939727362
 20
-3.148282175905876
 30
0.0
 10
11.95347696382658
 20
-3.031606180288963
 30
0.0
 10
11.8569839561061
 20
-2.980957064692522
 30
0.0
 10
11.65726230963164
 20
-2.899740878774475
 30
0.0
 10
11.55441970328416
 20
-2.869024330931336
 30
0.0
 10
11.34278898360283
 20
-2.82741533090216
 30
0.0
 10
11.2333539285507
 20
-2.81674568602841
 30
0.0
 10
11.12562136005285
 20
-2.816705769530629
 30
0.0
  0
SPLINE
  5
233
330
1F
100
AcDbEntity
  8
SK3
  6
SLD-Dashed
370
    18
100
AcDbSpline
210
0.0
220
0.0
230
1.0
 70
     8
 71
     2
 72
     6
 73
     3
 74
     0
 42
0.000000001
 43
0.00000001
 40
0.0
 40
0.0
 40
0.0
 40
0.1249999999999996
 40
0.1249999999999996
 40
0.1249999999999996
 10
37.49999999999998
 20
25.4
 30
0.0
 10
37.56298570739566
 20
25.37470688794598
 30
0.0
 10
37.68578380837284
 20
25.32651562106208
 30
0.0
  0
SPLINE
  5
234
330
1F
100
AcDbEntity
  8
1
  6
SLD-Dashed
370
    18
100
AcDbSpline
210
0.0
220
0.0
230
1.0
 70
     8
 71
     3
 72
     8
 73
     4
 74
     0
 42
0.000000001
 43
0.00000001
 40
0.1249999999999996
 40
0.1249999999999996
 40
0.1249999999999996
 40
0.1249999999999996
 40
0.1874999999999995
 40
0.1874999999999995
 40
0.1874999999999995
 40
0.1874999999999995
 10
37.68578380837284
 20
25.32651562106208
 30
0.0
 10
37.74718285886144
 20
25.30241998762015
 30
0.0
 10
37.82364499684621
 20
25.27258908812486
 30
0.0
 10
37.91541832067258
 20
25.23728098245789
 30
0.0
  0
SPLINE
  5
235
330
1F
100
AcDbEntity
  8
1
  6
SLD-Dashed
370
    18
100
AcDbSpline
210
0.0
220
0.0
230
1.0
 70
     8
 71
     3
 72
     8
 73
     4
 74
     0
 42
0.000000001
 43
0.00000001
 40
0.1874999999999995
 40
0.1874999999999995
 40
0.1874999999999995
 40
0.1874999999999995
 40
0.2499999999999994
 40
0.2499999999999994
 40
0.2499999999999994
 40
0.2499999999999994
 10
37.91541832067258
 20
25.23728098245789
 30
0.0
 10
38.007191644499
 20
25.2019728767909
 30
0.0
 10
38.11459214609248
 20
25.16107679028009
 30
0.0
 10
38.23488289229118
 20
25.11610388369354
 30
0.0
  0
SPLINE
  5
236
330
1F
100
AcDbEntity
  8
1
  6
SLD-Dashed
370
    18
100
AcDbSpline
210
0.0
220
0.0
230
1.0
 70
     8
 71
     3
 72
     8
 73
     4
 74
     0
 42
0.000000001
 43
0.00000001
 40
0.2499999999999994
 40
0.2499999999999994
 40
0.2499999999999994
 40
0.2499999999999994
 40
0.3749999999999992
 40
0.3749999999999992
 40
0.3749999999999992
 40
0.3749999999999992
 10
38.23488289229118
 20
25.11610388369354
 30
0.0
 10
38.4754643846886
 20
25.02615807052045
 30
0.0
 10
38.76904083439195
 20
24.91920883255427
 30
0.0
 10
39.11471238876587
 20
24.80059213458268
 30
0.0
  0
SPLINE
  5
237
330
1F
100
AcDbEntity
  8
1
  6
SLD-Dashed
370
    18
100
AcDbSpline
210
0.0
220
0.0
230
1.0
 70
     8
 71
     3
 72
     8
 73
     4
 74
     0
 42
0.000000001
 43
0.00000001
 40
0.4374999999999989
 40
0.4374999999999989
 40
0.4374999999999989
 40
0.4374999999999989
 40
0.4999999999999988
 40
0.4999999999999988
 40
0.4999999999999988
 40
0.4999999999999988
 10
39.67236480514372
 20
24.61480817602418
 30
0.0
 10
39.87021555642578
 20
24.55088588840273
 30
0.0
 10
40.07846730996081
 20
24.48573263357665
 30
0.0
 10
40.29692948055747
 20
24.42017593175616
 30
0.0
  0
SPLINE
  5
238
330
1F
100
AcDbEntity
  8
1
  6
SLD-Dashed
370
    18
100
AcDbSpline
210
0.0
220
0.0
230
1.0
 70
     8
 71
     3
 72
     8
 73
     4
 74
     0
 42
0.000000001
 43
0.00000001
 40
0.4999999999999988
 40
0.4999999999999988
 40
0.4999999999999988
 40
0.4999999999999988
 40
0.6249999999999983
 40
0.6249999999999983
 40
0.6249999999999983
 40
0.6249999999999983
 10
40.29692948055747
 20
24.42017593175616
 30
0.0
 10
40.73385382175069
 20
24.28906252811514
 30
0.0
 10
41.21129279477895
 20
24.15627374533932
 30
0.0
 10
41.73161977163755
 20
24.02865592404312
 30
0.0
  0
SPLINE
  5
239
330
1F
100
AcDbEntity
  8
1
  6
SLD-Dashed
370
    18
100
AcDbSpline
210
0.0
220
0.0
230
1.0
 70
     8
 71
     3
 72
     8
 73
     4
 74
     0
 42
0.000000001
 43
0.00000001
 40
0.6249999999999983
 40
0.6249999999999983
 40
0.6249999999999983
 40
0.6249999999999983
 40
0.6874999999999987
 40
0.6874999999999987
 40
0.6874999999999987
 40
0.6874999999999987
 10
41.73161977163755
 20
24.02865592404312
 30
0.0
 10
41.99178326006683
 20
23.96484701339504
 30
0.0
 10
42.26175999236887
 20
23.90264228876179
 30
0.0
 10
42.53719450175836
 20
23.84387006733465
 30
0.0
  0
SPLINE
  5
23A
330
1F
100
AcDbEntity
  8
1
  6
SLD-Dashed
370
    18
100
AcDbSpline
210
0.0
220
0.0
230
1.0
 70
     8
 71
     3
 72
     8
 73
     4
 74
     0
 42
0.000000001
 43
0.00000001
 40
0.8749999999999994
 40
0.8749999999999994
 40
0.8749999999999994
 40
0.8749999999999994
 40
1.0
 40
1.0
 40
1.0
 40
1.0
 10
45.19999900260674
 20
23.42061068455212
 30
0.0
 10
45.8320839052557
 20
23.35516377797885
 30
0.0
 10
46.47509061589247
 20
23.31391745209415
 30
0.0
 10
47.12939430996002
 20
23.29999999999999
 30
0.0
  0
SPLINE
  5
23B
330
1F
100
AcDbEntity
  8
1
  6
SLD-Dashed
370
    18
100
AcDbSpline
210
0.0
220
0.0
230
1.0
 70
     8
 71
     3
 72
     8
 73
     4
 74
     0
 42
0.000000001
 43
0.00000001
 40
0.1874999999999999
 40
0.1874999999999999
 40
0.1874999999999999
 40
0.1874999999999999
 40
0.25
 40
0.25
 40
0.25
 40
0.25
 10
63.31541832067264
 20
25.23728098245789
 30
0.0
 10
63.40719164449904
 20
25.20197287679092
 30
0.0
 10
63.51459214609248
 20
25.16107679028009
 30
0.0
 10
63.63488289229116
 20
25.11610388369353
 30
0.0
  0
SPLINE
  5
23C
330
1F
100
AcDbEntity
  8
1
  6
SLD-Dashed
370
    18
100
AcDbSpline
210
0.0
220
0.0
230
1.0
 70
     8
 71
     3
 72
     8
 73
     4
 74
     0
 42
0.000000001
 43
0.00000001
 40
0.3750000000000011
 40
0.3750000000000011
 40
0.3750000000000011
 40
0.3750000000000011
 40
0.4375000000000017
 40
0.4375000000000017
 40
0.4375000000000017
 40
0.4375000000000017
 10
64.51471238876589
 20
24.80059213458268
 30
0.0
 10
64.68754816595285
 20
24.74128378559689
 30
0.0
 10
64.87451405386166
 20
24.67873046364561
 30
0.0
 10
65.07236480514372
 20
24.61480817602418
 30
0.0
  0
SPLINE
  5
23D
330
1F
100
AcDbEntity
  8
1
  6
SLD-Dashed
370
    18
100
AcDbSpline
210
0.0
220
0.0
230
1.0
 70
     8
 71
     3
 72
     8
 73
     4
 74
     0
 42
0.000000001
 43
0.00000001
 40
0.5000000000000023
 40
0.5000000000000023
 40
0.5000000000000023
 40
0.5000000000000023
 40
0.6250000000000016
 40
0.6250000000000016
 40
0.6250000000000016
 40
0.6250000000000016
 10
65.69692948055742
 20
24.42017593175617
 30
0.0
 10
66.1338538217506
 20
24.28906252811514
 30
0.0
 10
66.61129279477892
 20
24.15627374533932
 30
0.0
 10
67.13161977163753
 20
24.02865592404312
 30
0.0
  0
SPLINE
  5
23E
330
1F
100
AcDbEntity
  8
1
  6
SLD-Dashed
370
    18
100
AcDbSpline
210
0.0
220
0.0
230
1.0
 70
     8
 71
     3
 72
     8
 73
     4
 74
     0
 42
0.000000001
 43
0.00000001
 40
0.6875000000000012
 40
0.6875000000000012
 40
0.6875000000000012
 40
0.6875000000000012
 40
0.7500000000000009
 40
0.7500000000000009
 40
0.7500000000000009
 40
0.7500000000000009
 10
67.93719450175837
 20
23.84387006733465
 30
0.0
 10
68.21262901114791
 20
23.78509784590751
 30
0.0
 10
68.49473544782624
 20
23.72945235094769
 30
0.0
 10
68.7835960671734
 20
23.6777085530124
 30
0.0
  0
SPLINE
  5
23F
330
1F
100
AcDbEntity
  8
1
  6
SLD-Dashed
370
    18
100
AcDbSpline
210
0.0
220
0.0
230
1.0
 70
     8
 71
     3
 72
     8
 73
     4
 74
     0
 42
0.000000001
 43
0.00000001
 40
0.8750000000000004
 40
0.8750000000000004
 40
0.8750000000000004
 40
0.8750000000000004
 40
1.0
 40
1.0
 40
1.0
 40
1.0
 10
70.59999900260675
 20
23.42061068455217
 30
0.0
 10
71.23208390525573
 20
23.35516377797889
 30
0.0
 10
71.87509061589245
 20
23.31391745209416
 30
0.0
 10
72.52939430996
 20
23.29999999999999
 30
0.0
  0
SPLINE
  5
240
330
1F
100
AcDbEntity
  8
SK3
  6
SLD-Dashed
370
    18
100
AcDbSpline
210
0.0
220
0.0
230
1.0
 70
     8
 71
     3
 72
    18
 73
    14
 74
     0
 42
0.000000001
 43
0.00000001
 40
0.0
 40
0.0
 40
0.0
 40
0.0
 40
0.0502196103872393
 40
0.1000870260924269
 40
0.185508636894043
 40
0.250155080879186
 40
0.3746583157461185
 40
0.4998570853792876
 40
0.6242312608259408
 40
0.749432409948843
 40
0.8740366596180013
 40
0.9370350243166901
 40
1.0
 40
1.0
 40
1.0
 40
1.0
 10
3.700000001117573
 20
46.55608534812927
 30
0.0
 10
3.700143868857614
 20
46.56278734940111
 30
0.0
 10
3.70043059538018
 20
46.57614435020211
 30
0.0
 10
3.703274135285386
 20
46.60076053619471
 30
0.0
 10
3.708850141837361
 20
46.62692288630214
 30
0.0
 10
3.720514321798277
 20
46.66169838460821
 30
0.0
 10
3.739456766128662
 20
46.69941913955821
 30
0.0
 10
3.770128444849016
 20
46.73918349934347
 30
0.0
 10
3.80802876052809
 20
46.77229184167282
 30
0.0
 10
3.851698696267711
 20
46.79720031720434
 30
0.0
 10
3.891711774181489
 20
46.8100596584277
 30
0.0
 10
3.924780235225827
 20
46.81548409037624
 30
0.0
 10
3.941594770257739
 20
46.81599619003488
 30
0.0
 10
3.949999809265123
 20
46.81625217199325
 30
0.0
  0
SPLINE
  5
241
330
1F
100
AcDbEntity
  8
SK3
  6
SLD-Dashed
370
    18
100
AcDbSpline
210
0.0
220
0.0
230
1.0
 70
     8
 71
     3
 72
    18
 73
    14
 74
     0
 42
0.000000001
 43
0.00000001
 40
0.0
 40
0.0
 40
0.0
 40
0.0
 40
0.0501962867734855
 40
0.100030621443731
 40
0.1855667331187788
 40
0.2501823892320809
 40
0.3747066158220843
 40
0.4998232982189663
 40
0.6247294758455423
 40
0.7494251058857327
 40
0.8746331028690486
 40
0.9372230808189556
 40
1.0
 40
1.0
 40
1.0
 40
1.0
 10
18.30000057816506
 20
46.81625217199324
 30
0.0
 10
18.30670005598909
 20
46.81608986122612
 30
0.0
 10
18.32005070348045
 20
46.81576641007174
 30
0.0
 10
18.34463957165431
 20
46.81256635280004
 30
0.0
 10
18.37067223126261
 20
46.80630440827597
 30
0.0
 10
18.40500154017931
 20
46.79331421987342
 30
0.0
 10
18.4417392424225
 20
46.77246876141061
 30
0.0
 10
18.47965513763579
 20
46.73942133606941
 30
0.0
 10
18.51041229145086
 20
46.69961073383822
 30
0.0
 10
18.53306568682788
 20
46.65468807406037
 30
0.0
 10
18.54452267192499
 20
46.61434614990109
 30
0.0
 10
18.54932390924782
 20
46.58119816807552
 30
0.0
 10
18.54977389419004
 20
46.56446460554562
 30
0.0
 10
18.54999922215939
 20
46.55608534812927
 30
0.0
  0
SPLINE
  5
242
330
1F
100
AcDbEntity
  8
SK3
  6
SLD-Dashed
370
    18
100
AcDbSpline
210
0.0
220
0.0
230
1.0
 70
     8
 71
     3
 72
    30
 73
    26
 74
     0
 42
0.000000001
 43
0.00000001
 40
0.4999999999999997
 40
0.4999999999999997
 40
0.4999999999999997
 40
0.4999999999999997
 40
0.5624999999999996
 40
0.5624999999999996
 40
0.6249999999999996
 40
0.6249999999999996
 40
0.6562499999999996
 40
0.6562499999999996
 40
0.6874999999999996
 40
0.6874999999999996
 40
0.7187499999999996
 40
0.7187499999999996
 40
0.7499999999999996
 40
0.7499999999999996
 40
0.7812499999999996
 40
0.7812499999999996
 40
0.8124999999999996
 40
0.8124999999999996
 40
0.8437499999999996
 40
0.8437499999999996
 40
0.8749999999999996
 40
0.8749999999999996
 40
0.9374999999999998
 40
0.9374999999999998
 40
1.0
 40
1.0
 40
1.0
 40
1.0
 10
11.12437863994717
 20
5.917691198242682
 30
0.0
 10
11.33984377694285
 20
5.917763859064978
 30
0.0
 10
11.55715410320489
 20
5.879112116991353
 30
0.0
 10
11.95441303243402
 20
5.731374268352393
 30
0.0
 10
12.13836402185967
 20
5.620826433752849
 30
0.0
 10
12.36673538959021
 20
5.413737558455686
 30
0.0
 10
12.43644078226595
 20
5.336478455569262
 30
0.0
 10
12.55625022830914
 20
5.172590419448279
 30
0.0
 10
12.60701791676443
 20
5.085629228387623
 30
0.0
 10
12.69007202378368
 20
4.901295767532448
 30
0.0
 10
12.72192122947058
 20
4.804200078752666
 30
0.0
 10
12.76408115821363
 20
4.60778861977066
 30
0.0
 10
12.77490136002313
 20
4.507421836270502
 30
0.0
 10
12.77509730943648
 20
4.302381453437386
 30
0.0
 10
12.76447870549664
 20
4.201095574858635
 30
0.0
 10
12.72268649331008
 20
4.000939403825829
 30
0.0
 10
12.69099038711687
 20
3.901007195134171
 30
0.0
 10
12.60832503019589
 20
3.709903108305178
 30
0.0
 10
12.55772332954878
 20
3.618852785886764
 30
0.0
 10
12.43811718540277
 20
3.445875153474324
 30
0.0
 10
12.36858413374283
 20
3.36375563191136
 30
0.0
 10
12.14072504746014
 20
3.142208775728184
 30
0.0
 10
11.95691666753994
 20
3.021800021000213
 30
0.0
 10
11.56008476223702
 20
2.860019723822639
 30
0.0
 10
11.3432543086279
 20
2.816705654419133
 30
0.0
 10
11.12500000000001
 20
2.816705654419126
 30
0.0
  0
SPLINE
  5
243
330
1F
100
AcDbEntity
  8
SK3
  6
SLD-Dashed
370
    18
100
AcDbSpline
210
0.0
220
0.0
230
1.0
 70
     8
 71
     3
 72
    34
 73
    30
 74
     0
 42
0.000000001
 43
0.00000001
 40
0.0
 40
0.0
 40
0.0
 40
0.0
 40
0.0312499999999999
 40
0.0312499999999999
 40
0.0624999999999998
 40
0.0624999999999998
 40
0.0937499999999997
 40
0.0937499999999997
 40
0.1249999999999996
 40
0.1249999999999996
 40
0.1874999999999997
 40
0.1874999999999997
 40
0.2499999999999997
 40
0.2499999999999997
 40
0.2812499999999997
 40
0.2812499999999997
 40
0.3124999999999997
 40
0.3124999999999997
 40
0.3437499999999997
 40
0.3437499999999997
 40
0.3749999999999997
 40
0.3749999999999997
 40
0.4062499999999997
 40
0.4062499999999997
 40
0.4374999999999997
 40
0.4374999999999997
 40
0.4687499999999997
 40
0.4687499999999997
 40
0.4999999999999997
 40
0.4999999999999997
 40
0.4999999999999997
 40
0.4999999999999997
 10
11.12500000000001
 20
2.816705654419126
 30
0.0
 10
11.01587284568607
 20
2.816705654419133
 30
0.0
 10
10.90859194950736
 20
2.827256673512989
 30
0.0
 10
10.69756464606968
 20
2.868523121185927
 30
0.0
 10
10.5927161685354
 20
2.89974656478334
 30
0.0
 10
10.39295562110455
 20
2.980984702467146
 30
0.0
 10
10.29822951274363
 20
3.030614838108549
 30
0.0
 10
10.11895682204625
 20
3.147515807935576
 30
0.0
 10
10.03416331728507
 20
3.215337493271894
 30
0.0
 10
9.80612363978392
 20
3.436767887827576
 30
0.0
 10
9.683224699428061
 20
3.6143165022944
 30
0.0
 10
9.51857043527883
 20
3.994029593576608
 30
0.0
 10
9.475120152137917
 20
4.200177893176393
 30
0.0
 10
9.474940307142091
 20
4.503880836702688
 30
0.0
 10
9.48567600764065
 20
4.606247382792493
 30
0.0
 10
9.527813146307142
 20
4.803367641363632
 30
0.0
 10
9.55898911622373
 20
4.898741224920816
 30
0.0
 10
9.64169663454749
 20
5.083234587913023
 30
0.0
 10
9.693311390386317
 20
5.171859750871886
 30
0.0
 10
9.812670861977027
 20
5.335392825483585
 30
0.0
 10
9.880906708136822
 20
5.411408024958632
 30
0.0
 10
10.03475844188251
 20
5.551300846017217
 30
0.0
 10
10.11797060272639
 20
5.613024376888307
 30
0.0
 10
10.29652303617341
 20
5.720944423476391
 30
0.0
 10
10.39301604389391
 20
5.76751380375707
 30
0.0
 10
10.59273769036838
 20
5.841974983791805
 30
0.0
 10
10.69558029671587
 20
5.870010960932294
 30
0.0
 10
10.90721101639716
 20
5.907952343254981
 30
0.0
 10
11.01664607144932
 20
5.917654867831537
 30
0.0
 10
11.12437863994717
 20
5.917691198242682
 30
0.0
  0
SPLINE
  5
244
330
1F
100
AcDbEntity
  8
SK3
  6
SLD-Dashed
370
    18
100
AcDbSpline
210
0.0
220
0.0
230
1.0
 70
     8
 71
     2
 72
     6
 73
     3
 74
     0
 42
0.000000001
 43
0.00000001
 40
0.0
 40
0.0
 40
0.0
 40
0.0312499999999997
 40
0.0312499999999997
 40
0.0312499999999997
 10
38.96359999999996
 20
12.69999999999998
 30
0.0
 10
39.02395740194569
 20
12.6586201548981
 30
0.0
 10
39.14062173021546
 20
12.57993738715702
 30
0.0
  0
SPLINE
  5
245
330
1F
100
AcDbEntity
  8
SK3
  6
SLD-Dashed
370
    18
100
AcDbSpline
210
0.0
220
0.0
230
1.0
 70
     8
 71
     3
 72
     8
 73
     4
 74
     0
 42
0.000000001
 43
0.00000001
 40
0.0312499999999997
 40
0.0312499999999997
 40
0.0312499999999997
 40
0.0312499999999997
 40
0.0624999999999995
 40
0.0624999999999995
 40
0.0624999999999995
 40
0.0624999999999995
 10
39.14062173021546
 20
12.57993738715702
 30
0.0
 10
39.25728605848522
 20
12.50125461941593
 30
0.0
 10
39.43327307454428
 20
12.38329614214991
 30
0.0
 10
39.65578043671833
 20
12.23840718753024
 30
0.0
  0
SPLINE
  5
246
330
1F
100
AcDbEntity
  8
SK3
  6
SLD-Dashed
370
    18
100
AcDbSpline
210
0.0
220
0.0
230
1.0
 70
     8
 71
     3
 72
     8
 73
     4
 74
     0
 42
0.000000001
 43
0.00000001
 40
0.0624999999999995
 40
0.0624999999999995
 40
0.0624999999999995
 40
0.0624999999999995
 40
0.0937499999999992
 40
0.0937499999999992
 40
0.0937499999999992
 40
0.0937499999999992
 10
39.65578043671833
 20
12.23840718753024
 30
0.0
 10
39.87828779889229
 20
12.09351823291053
 30
0.0
 10
40.14879633053229
 20
11.92064199623085
 30
0.0
 10
40.46338282487707
 20
11.72855108711279
 30
0.0
  0
SPLINE
  5
247
330
1F
100
AcDbEntity
  8
SK3
  6
SLD-Dashed
370
    18
100
AcDbSpline
210
0.0
220
0.0
230
1.0
 70
     8
 71
     3
 72
     8
 73
     4
 74
     0
 42
0.000000001
 43
0.00000001
 40
0.0937499999999992
 40
0.0937499999999992
 40
0.0937499999999992
 40
0.0937499999999992
 40
0.1249999999999989
 40
0.1249999999999989
 40
0.1249999999999989
 40
0.1249999999999989
 10
40.46338282487707
 20
11.72855108711279
 30
0.0
 10
40.77796931922187
 20
11.53646017799471
 30
0.0
 10
41.12932275349671
 20
11.32956861863964
 30
0.0
 10
41.5168681346148
 20
11.1166283074021
 30
0.0
  0
SPLINE
  5
248
330
1F
100
AcDbEntity
  8
SK3
  6
SLD-Dashed
370
    18
100
AcDbSpline
210
0.0
220
0.0
230
1.0
 70
     8
 71
     3
 72
     8
 73
     4
 74
     0
 42
0.000000001
 43
0.00000001
 40
0.1249999999999989
 40
0.1249999999999989
 40
0.1249999999999989
 40
0.1249999999999989
 40
0.1562499999999987
 40
0.1562499999999987
 40
0.1562499999999987
 40
0.1562499999999987
 10
41.5168681346148
 20
11.1166283074021
 30
0.0
 10
41.90441351573293
 20
10.90368799616454
 30
0.0
 10
42.33214037673746
 20
10.68282497008746
 30
0.0
 10
42.78565633208234
 20
10.47327060550878
 30
0.0
  0
SPLINE
  5
249
330
1F
100
AcDbEntity
  8
SK3
  6
SLD-Dashed
370
    18
100
AcDbSpline
210
0.0
220
0.0
230
1.0
 70
     8
 71
     3
 72
     8
 73
     4
 74
     0
 42
0.000000001
 43
0.00000001
 40
0.1562499999999987
 40
0.1562499999999987
 40
0.1562499999999987
 40
0.1562499999999987
 40
0.1874999999999984
 40
0.1874999999999984
 40
0.1874999999999984
 40
0.1874999999999984
 10
42.78565633208234
 20
10.47327060550878
 30
0.0
 10
43.23917228742724
 20
10.26371624093009
 30
0.0
 10
43.72022355443683
 20
10.06399015496769
 30
0.0
 10
44.23466145333998
 20
9.887595536881982
 30
0.0
  0
SPLINE
  5
24A
330
1F
100
AcDbEntity
  8
SK3
  6
SLD-Dashed
370
    18
100
AcDbSpline
210
0.0
220
0.0
230
1.0
 70
     8
 71
     3
 72
     8
 73
     4
 74
     0
 42
0.000000001
 43
0.00000001
 40
0.1874999999999984
 40
0.1874999999999984
 40
0.1874999999999984
 40
0.1874999999999984
 40
0.2031249999999983
 40
0.2031249999999983
 40
0.2031249999999983
 40
0.2031249999999983
 10
44.23466145333998
 20
9.887595536881982
 30
0.0
 10
44.49188040279154
 20
9.79939822783913
 30
0.0
 10
44.75905524351828
 20
9.71671039488043
 30
0.0
 10
45.03242310993705
 20
9.643215489186598
 30
0.0
  0
SPLINE
  5
24B
330
1F
100
AcDbEntity
  8
SK3
  6
SLD-Dashed
370
    18
100
AcDbSpline
210
0.0
220
0.0
230
1.0
 70
     8
 71
     3
 72
     8
 73
     4
 74
     0
 42
0.000000001
 43
0.00000001
 40
0.2031249999999983
 40
0.2031249999999983
 40
0.2031249999999983
 40
0.2031249999999983
 40
0.2187499999999982
 40
0.2187499999999982
 40
0.2187499999999982
 40
0.2187499999999982
 10
45.03242310993705
 20
9.643215489186598
 30
0.0
 10
45.30579097635579
 20
9.569720583492765
 30
0.0
 10
45.58347088607881
 20
9.50584251012413
 30
0.0
 10
45.86580004319232
 20
9.45330283699998
 30
0.0
  0
SPLINE
  5
24C
330
1F
100
AcDbEntity
  8
SK3
  6
SLD-Dashed
370
    18
100
AcDbSpline
210
0.0
220
0.0
230
1.0
 70
     8
 71
     3
 72
     8
 73
     4
 74
     0
 42
0.000000001
 43
0.00000001
 40
0.2187499999999982
 40
0.2187499999999982
 40
0.2187499999999982
 40
0.2187499999999982
 40
0.2343749999999981
 40
0.2343749999999981
 40
0.2343749999999981
 40
0.2343749999999981
 10
45.86580004319232
 20
9.45330283699998
 30
0.0
 10
46.14812920030581
 20
9.40076316387583
 30
0.0
 10
46.43510755187719
 20
9.359565940554432
 30
0.0
 10
46.72718493358865
 20
9.331464083061936
 30
0.0
  0
SPLINE
  5
24D
330
1F
100
AcDbEntity
  8
SK3
  6
SLD-Dashed
370
    18
100
AcDbSpline
210
0.0
220
0.0
230
1.0
 70
     8
 71
     3
 72
     8
 73
     4
 74
     0
 42
0.000000001
 43
0.00000001
 40
0.2343749999999981
 40
0.2343749999999981
 40
0.2343749999999981
 40
0.2343749999999981
 40
0.2499999999999979
 40
0.2499999999999979
 40
0.2499999999999979
 40
0.2499999999999979
 10
46.72718493358865
 20
9.331464083061936
 30
0.0
 10
47.01926231530015
 20
9.30336222556944
 30
0.0
 10
47.31739004601474
 20
9.288616271269055
 30
0.0
 10
47.61129798550298
 20
9.288182695511592
 30
0.0
  0
SPLINE
  5
24E
330
1F
100
AcDbEntity
  8
SK3
  6
SLD-Dashed
370
    18
100
AcDbSpline
210
0.0
220
0.0
230
1.0
 70
     8
 71
     3
 72
     8
 73
     4
 74
     0
 42
0.000000001
 43
0.00000001
 40
0.2499999999999979
 40
0.2499999999999979
 40
0.2499999999999979
 40
0.2499999999999979
 40
0.2812499999999973
 40
0.2812499999999973
 40
0.2812499999999973
 40
0.2812499999999973
 10
47.61129798550298
 20
9.288182695511592
 30
0.0
 10
48.1991138644795
 20
9.287315543996646
 30
0.0
 10
48.77923216362987
 20
9.342651587149385
 30
0.0
 10
49.35214887237825
 20
9.44739081796426
 30
0.0
  0
SPLINE
  5
24F
330
1F
100
AcDbEntity
  8
SK3
  6
SLD-Dashed
370
    18
100
AcDbSpline
210
0.0
220
0.0
230
1.0
 70
     8
 71
     3
 72
     8
 73
     4
 74
     0
 42
0.000000001
 43
0.00000001
 40
0.2812499999999973
 40
0.2812499999999973
 40
0.2812499999999973
 40
0.2812499999999973
 40
0.3124999999999967
 40
0.3124999999999967
 40
0.3124999999999967
 40
0.3124999999999967
 10
49.35214887237825
 20
9.44739081796426
 30
0.0
 10
49.92506558112661
 20
9.552130048779206
 30
0.0
 10
50.46818221414528
 20
9.701330301152531
 30
0.0
 10
50.98703880284082
 20
9.877927664839804
 30
0.0
  0
SPLINE
  5
250
330
1F
100
AcDbEntity
  8
SK3
  6
SLD-Dashed
370
    18
100
AcDbSpline
210
0.0
220
0.0
230
1.0
 70
     8
 71
     3
 72
     8
 73
     4
 74
     0
 42
0.000000001
 43
0.00000001
 40
0.3124999999999967
 40
0.3124999999999967
 40
0.3124999999999967
 40
0.3124999999999967
 40
0.3281249999999965
 40
0.3281249999999965
 40
0.3281249999999965
 40
0.3281249999999965
 10
50.98703880284084
 20
9.87792766483981
 30
0.0
 10
51.24646709718861
 20
9.96622634668342
 30
0.0
 10
51.50057094710733
 20
10.06183293181508
 30
0.0
 10
51.74449378932286
 20
10.16072729287968
 30
0.0
  0
SPLINE
  5
251
330
1F
100
AcDbEntity
  8
SK3
  6
SLD-Dashed
370
    18
100
AcDbSpline
210
0.0
220
0.0
230
1.0
 70
     8
 71
     3
 72
     8
 73
     4
 74
     0
 42
0.000000001
 43
0.00000001
 40
0.3281249999999965
 40
0.3281249999999965
 40
0.3281249999999965
 40
0.3281249999999965
 40
0.3437499999999964
 40
0.3437499999999964
 40
0.3437499999999964
 40
0.3437499999999964
 10
51.74449378932286
 20
10.16072729287968
 30
0.0
 10
51.98841663153841
 20
10.25962165394427
 30
0.0
 10
52.22332882193001
 20
10.36215598577799
 30
0.0
 10
52.45011376699713
 20
10.46670305800567
 30
0.0
  0
SPLINE
  5
252
330
1F
100
AcDbEntity
  8
SK3
  6
SLD-Dashed
370
    18
100
AcDbSpline
210
0.0
220
0.0
230
1.0
 70
     8
 71
     3
 72
     8
 73
     4
 74
     0
 42
0.000000001
 43
0.00000001
 40
0.3437499999999964
 40
0.3437499999999964
 40
0.3437499999999964
 40
0.3437499999999964
 40
0.3749999999999961
 40
0.3749999999999961
 40
0.3749999999999961
 40
0.3749999999999961
 10
52.45011376699713
 20
10.46670305800567
 30
0.0
 10
52.9036836571313
 20
10.675797202461
 30
0.0
 10
53.32507515113857
 20
10.89283402691384
 30
0.0
 10
53.71657496941604
 20
11.10753958570555
 30
0.0
  0
SPLINE
  5
253
330
1F
100
AcDbEntity
  8
SK3
  6
SLD-Dashed
370
    18
100
AcDbSpline
210
0.0
220
0.0
230
1.0
 70
     8
 71
     3
 72
     8
 73
     4
 74
     0
 42
0.000000001
 43
0.00000001
 40
0.3749999999999961
 40
0.3749999999999961
 40
0.3749999999999961
 40
0.3749999999999961
 40
0.3906249999999961
 40
0.3906249999999961
 40
0.3906249999999961
 40
0.3906249999999961
 10
53.71657496941601
 20
11.10753958570553
 30
0.0
 10
53.91232487855471
 20
11.21489236510139
 30
0.0
 10
54.09931192144496
 20
11.3210590395763
 30
0.0
 10
54.27535176534104
 20
11.42354273606815
 30
0.0
  0
SPLINE
  5
254
330
1F
100
AcDbEntity
  8
SK3
  6
SLD-Dashed
370
    18
100
AcDbSpline
210
0.0
220
0.0
230
1.0
 70
     8
 71
     3
 72
     8
 73
     4
 74
     0
 42
0.000000001
 43
0.00000001
 40
0.3906249999999961
 40
0.3906249999999961
 40
0.3906249999999961
 40
0.3906249999999961
 40
0.4062499999999961
 40
0.4062499999999961
 40
0.4062499999999961
 40
0.4062499999999961
 10
54.27535176534107
 20
11.42354273606817
 30
0.0
 10
54.45139160923718
 20
11.52602643256
 30
0.0
 10
54.61727590562901
 20
11.62526680250746
 30
0.0
 10
54.77307306855445
 20
11.72028577439107
 30
0.0
  0
SPLINE
  5
255
330
1F
100
AcDbEntity
  8
SK3
  6
SLD-Dashed
370
    18
100
AcDbSpline
210
0.0
220
0.0
230
1.0
 70
     8
 71
     3
 72
     8
 73
     4
 74
     0
 42
0.000000001
 43
0.00000001
 40
0.4062499999999961
 40
0.4062499999999961
 40
0.4062499999999961
 40
0.4062499999999961
 40
0.437499999999996
 40
0.437499999999996
 40
0.437499999999996
 40
0.437499999999996
 10
54.77307306855445
 20
11.72028577439107
 30
0.0
 10
55.0846673944054
 20
11.91032371815828
 30
0.0
 10
55.35702354677507
 20
12.08406891379812
 30
0.0
 10
55.58365412481334
 20
12.23152997455382
 30
0.0
  0
SPLINE
  5
256
330
1F
100
AcDbEntity
  8
SK3
  6
SLD-Dashed
370
    18
100
AcDbSpline
210
0.0
220
0.0
230
1.0
 70
     8
 71
     3
 72
     8
 73
     4
 74
     0
 42
0.000000001
 43
0.00000001
 40
0.437499999999996
 40
0.437499999999996
 40
0.437499999999996
 40
0.437499999999996
 40
0.468749999999996
 40
0.468749999999996
 40
0.468749999999996
 40
0.468749999999996
 10
55.58365412481334
 20
12.23152997455382
 30
0.0
 10
55.8102847028516
 20
12.37899103530955
 30
0.0
 10
55.98408783773559
 20
12.49546980359537
 30
0.0
 10
56.10315796940854
 20
12.5757430235452
 30
0.0
  0
SPLINE
  5
257
330
1F
100
AcDbEntity
  8
SK3
  6
SLD-Dashed
370
    18
100
AcDbSpline
210
0.0
220
0.0
230
1.0
 70
     8
 71
     3
 72
     8
 73
     4
 74
     0
 42
0.000000001
 43
0.00000001
 40
0.468749999999996
 40
0.468749999999996
 40
0.468749999999996
 40
0.468749999999996
 40
0.4843749999999959
 40
0.4843749999999959
 40
0.4843749999999959
 40
0.4843749999999959
 10
56.10315796940854
 20
12.5757430235452
 30
0.0
 10
56.16269303524501
 20
12.61587963352011
 30
0.0
 10
56.20859540948339
 20
12.64704518371696
 30
0.0
 10
56.23934523066335
 20
12.66795539118495
 30
0.0
  0
SPLINE
  5
258
330
1F
100
AcDbEntity
  8
SK3
  6
SLD-Dashed
370
    18
100
AcDbSpline
210
0.0
220
0.0
230
1.0
 70
     8
 71
     3
 72
     8
 73
     4
 74
     0
 42
0.000000001
 43
0.00000001
 40
0.4843749999999959
 40
0.4843749999999959
 40
0.4843749999999959
 40
0.4843749999999959
 40
0.4999999999999958
 40
0.4999999999999958
 40
0.4999999999999958
 40
0.4999999999999958
 10
56.23934523066335
 20
12.66795539118495
 30
0.0
 10
56.27009505184324
 20
12.68886559865296
 30
0.0
 10
56.28563366012257
 20
12.6994773570779
 30
0.0
 10
56.28637241474563
 20
12.69998118687255
 30
0.0
  0
SPLINE
  5
259
330
1F
100
AcDbEntity
  8
SK3
  6
SLD-Dashed
370
    18
100
AcDbSpline
210
0.0
220
0.0
230
1.0
 70
     8
 71
     3
 72
     8
 73
     4
 74
     0
 42
0.000000001
 43
0.00000001
 40
0.5156249999999958
 40
0.5156249999999958
 40
0.5156249999999958
 40
0.5156249999999958
 40
0.5312499999999958
 40
0.5312499999999958
 40
0.5312499999999958
 40
0.5312499999999958
 10
56.24412943416349
 20
12.67120918629566
 30
0.0
 10
56.21521053273154
 20
12.65153815483598
 30
0.0
 10
56.17100309232762
 20
12.6215077356123
 30
0.0
 10
56.11255920653518
 20
12.58208294855985
 30
0.0
  0
SPLINE
  5
25A
330
1F
100
AcDbEntity
  8
SK3
  6
SLD-Dashed
370
    18
100
AcDbSpline
210
0.0
220
0.0
230
1.0
 70
     8
 71
     3
 72
     8
 73
     4
 74
     0
 42
0.000000001
 43
0.00000001
 40
0.5312499999999958
 40
0.5312499999999958
 40
0.5312499999999958
 40
0.5312499999999958
 40
0.5624999999999957
 40
0.5624999999999957
 40
0.5624999999999957
 40
0.5624999999999957
 10
56.11255920653521
 20
12.58208294855987
 30
0.0
 10
55.99567143495032
 20
12.50323337445496
 30
0.0
 10
55.82386437699757
 20
12.38801484085442
 30
0.0
 10
55.60089312837613
 20
12.24275382564226
 30
0.0
  0
SPLINE
  5
25B
330
1F
100
AcDbEntity
  8
SK3
  6
SLD-Dashed
370
    18
100
AcDbSpline
210
0.0
220
0.0
230
1.0
 70
     8
 71
     3
 72
     8
 73
     4
 74
     0
 42
0.000000001
 43
0.00000001
 40
0.5624999999999957
 40
0.5624999999999957
 40
0.5624999999999957
 40
0.5624999999999957
 40
0.5781249999999957
 40
0.5781249999999957
 40
0.5781249999999957
 40
0.5781249999999957
 10
55.60089312837613
 20
12.24275382564226
 30
0.0
 10
55.48940750406542
 20
12.17012331803618
 30
0.0
 10
55.36445323292416
 20
12.08959700453392
 30
0.0
 10
55.22933349670525
 20
12.00400091507466
 30
0.0
  0
SPLINE
  5
25C
330
1F
100
AcDbEntity
  8
SK3
  6
SLD-Dashed
370
    18
100
AcDbSpline
210
0.0
220
0.0
230
1.0
 70
     8
 71
     3
 72
     8
 73
     4
 74
     0
 42
0.000000001
 43
0.00000001
 40
0.5781249999999957
 40
0.5781249999999957
 40
0.5781249999999957
 40
0.5781249999999957
 40
0.5937499999999957
 40
0.5937499999999957
 40
0.5937499999999957
 40
0.5937499999999957
 10
55.22933349670524
 20
12.00400091507465
 30
0.0
 10
55.0942137604863
 20
11.91840482561541
 30
0.0
 10
54.94849479736443
 20
11.82744604868489
 30
0.0
 10
54.7925300314042
 20
11.73216249423274
 30
0.0
  0
SPLINE
  5
25D
330
1F
100
AcDbEntity
  8
SK3
  6
SLD-Dashed
370
    18
100
AcDbSpline
210
0.0
220
0.0
230
1.0
 70
     8
 71
     3
 72
     8
 73
     4
 74
     0
 42
0.000000001
 43
0.00000001
 40
0.5937499999999957
 40
0.5937499999999957
 40
0.5937499999999957
 40
0.5937499999999957
 40
0.6093749999999957
 40
0.6093749999999957
 40
0.6093749999999957
 40
0.6093749999999957
 10
54.79253003140422
 20
11.73216249423275
 30
0.0
 10
54.636565265444
 20
11.63687893978058
 30
0.0
 10
54.47035343083842
 20
11.53726367110615
 30
0.0
 10
54.29383185729367
 20
11.43431101469849
 30
0.0
  0
SPLINE
  5
25E
330
1F
100
AcDbEntity
  8
SK3
  6
SLD-Dashed
370
    18
100
AcDbSpline
210
0.0
220
0.0
230
1.0
 70
     8
 71
     3
 72
     8
 73
     4
 74
     0
 42
0.000000001
 43
0.00000001
 40
0.6093749999999957
 40
0.6093749999999957
 40
0.6093749999999957
 40
0.6093749999999957
 40
0.6249999999999957
 40
0.6249999999999957
 40
0.6249999999999957
 40
0.6249999999999957
 10
54.29383185729365
 20
11.43431101469848
 30
0.0
 10
54.11731028374893
 20
11.33135835829081
 30
0.0
 10
53.92996584931135
 20
11.22480818686731
 30
0.0
 10
53.73538355496539
 20
11.11786567776351
 30
0.0
  0
SPLINE
  5
25F
330
1F
100
AcDbEntity
  8
SK3
  6
SLD-Dashed
370
    18
100
AcDbSpline
210
0.0
220
0.0
230
1.0
 70
     8
 71
     3
 72
     8
 73
     4
 74
     0
 42
0.000000001
 43
0.00000001
 40
0.6249999999999957
 40
0.6249999999999957
 40
0.6249999999999957
 40
0.6249999999999957
 40
0.6562499999999957
 40
0.6562499999999957
 40
0.6562499999999957
 40
0.6562499999999957
 10
53.73538355496538
 20
11.11786567776351
 30
0.0
 10
53.34621896627348
 20
10.90398065955593
 30
0.0
 10
52.92572618347192
 20
10.68668448237185
 30
0.0
 10
52.47087629015817
 20
10.47629071091087
 30
0.0
  0
SPLINE
  5
260
330
1F
100
AcDbEntity
  8
SK3
  6
SLD-Dashed
370
    18
100
AcDbSpline
210
0.0
220
0.0
230
1.0
 70
     8
 71
     3
 72
     8
 73
     4
 74
     0
 42
0.000000001
 43
0.00000001
 40
0.6562499999999957
 40
0.6562499999999957
 40
0.6562499999999957
 40
0.6562499999999957
 40
0.6874999999999958
 40
0.6874999999999958
 40
0.6874999999999958
 40
0.6874999999999958
 10
52.4708762901582
 20
10.47629071091088
 30
0.0
 10
52.01602639684447
 20
10.2658969394499
 30
0.0
 10
51.52305295237758
 20
10.06133535860006
 30
0.0
 10
51.00768838487677
 20
9.884974999926916
 30
0.0
  0
SPLINE
  5
261
330
1F
100
AcDbEntity
  8
SK3
  6
SLD-Dashed
370
    18
100
AcDbSpline
210
0.0
220
0.0
230
1.0
 70
     8
 71
     3
 72
     8
 73
     4
 74
     0
 42
0.000000001
 43
0.00000001
 40
0.6874999999999958
 40
0.6874999999999958
 40
0.6874999999999958
 40
0.6874999999999958
 40
0.718749999999996
 40
0.718749999999996
 40
0.718749999999996
 40
0.718749999999996
 10
51.00768838487674
 20
9.88497499992691
 30
0.0
 10
50.49232381737593
 20
9.70861464125378
 30
0.0
 10
49.94885087228293
 20
9.557951722772493
 30
0.0
 10
49.37680860357408
 20
9.451930142756884
 30
0.0
  0
SPLINE
  5
262
330
1F
100
AcDbEntity
  8
SK3
  6
SLD-Dashed
370
    18
100
AcDbSpline
210
0.0
220
0.0
230
1.0
 70
     8
 71
     3
 72
     8
 73
     4
 74
     0
 42
0.000000001
 43
0.00000001
 40
0.718749999999996
 40
0.718749999999996
 40
0.718749999999996
 40
0.718749999999996
 40
0.7499999999999961
 40
0.7499999999999961
 40
0.7499999999999961
 40
0.7499999999999961
 10
49.3768086035741
 20
9.451930142756886
 30
0.0
 10
48.80476633486527
 20
9.345908562741277
 30
0.0
 10
48.22371304486542
 20
9.288674369058398
 30
0.0
 10
47.63283567673665
 20
9.288175893997149
 30
0.0
  0
SPLINE
  5
263
330
1F
100
AcDbEntity
  8
SK3
  6
SLD-Dashed
370
    18
100
AcDbSpline
210
0.0
220
0.0
230
1.0
 70
     8
 71
     3
 72
     8
 73
     4
 74
     0
 42
0.000000001
 43
0.00000001
 40
0.7499999999999961
 40
0.7499999999999961
 40
0.7499999999999961
 40
0.7499999999999961
 40
0.7656249999999963
 40
0.7656249999999963
 40
0.7656249999999963
 40
0.7656249999999963
 10
47.63283567673665
 20
9.288175893997149
 30
0.0
 10
47.33739699267228
 20
9.287926656466523
 30
0.0
 10
47.03888562996886
 20
9.302111208983415
 30
0.0
 10
46.74706157085018
 20
9.329572655024327
 30
0.0
  0
SPLINE
  5
264
330
1F
100
AcDbEntity
  8
SK3
  6
SLD-Dashed
370
    18
100
AcDbSpline
210
0.0
220
0.0
230
1.0
 70
     8
 71
     3
 72
     8
 73
     4
 74
     0
 42
0.000000001
 43
0.00000001
 40
0.7656249999999963
 40
0.7656249999999963
 40
0.7656249999999963
 40
0.7656249999999963
 40
0.7812499999999966
 40
0.7812499999999966
 40
0.7812499999999966
 40
0.7812499999999966
 10
46.74706157085015
 20
9.32957265502433
 30
0.0
 10
46.45523751173148
 20
9.357034101065253
 30
0.0
 10
46.1677574116254
 20
9.397663612117029
 30
0.0
 10
45.88429483187431
 20
9.449878545375025
 30
0.0
  0
SPLINE
  5
265
330
1F
100
AcDbEntity
  8
SK3
  6
SLD-Dashed
370
    18
100
AcDbSpline
210
0.0
220
0.0
230
1.0
 70
     8
 71
     3
 72
     8
 73
     4
 74
     0
 42
0.000000001
 43
0.00000001
 40
0.7812499999999966
 40
0.7812499999999966
 40
0.7812499999999966
 40
0.7812499999999966
 40
0.7968749999999968
 40
0.7968749999999968
 40
0.7968749999999968
 40
0.7968749999999968
 10
45.88429483187434
 20
9.449878545375018
 30
0.0
 10
45.60083225212325
 20
9.502093478633018
 30
0.0
 10
45.32026097836425
 20
9.566197604964042
 30
0.0
 10
45.04599916893506
 20
9.639574437008788
 30
0.0
  0
SPLINE
  5
266
330
1F
100
AcDbEntity
  8
SK3
  6
SLD-Dashed
370
    18
100
AcDbSpline
210
0.0
220
0.0
230
1.0
 70
     8
 71
     3
 72
     8
 73
     4
 74
     0
 42
0.000000001
 43
0.00000001
 40
0.7968749999999968
 40
0.7968749999999968
 40
0.7968749999999968
 40
0.7968749999999968
 40
0.812499999999997
 40
0.812499999999997
 40
0.812499999999997
 40
0.812499999999997
 10
45.04599916893503
 20
9.639574437008797
 30
0.0
 10
44.77173735950585
 20
9.712951269053542
 30
0.0
 10
44.50639777614107
 20
9.794754584260945
 30
0.0
 10
44.24879949108598
 20
9.882756696205313
 30
0.0
  0
SPLINE
  5
267
330
1F
100
AcDbEntity
  8
SK3
  6
SLD-Dashed
370
    18
100
AcDbSpline
210
0.0
220
0.0
230
1.0
 70
     8
 71
     3
 72
     8
 73
     4
 74
     0
 42
0.000000001
 43
0.00000001
 40
0.812499999999997
 40
0.812499999999997
 40
0.812499999999997
 40
0.812499999999997
 40
0.8437499999999976
 40
0.8437499999999976
 40
0.8437499999999976
 40
0.8437499999999976
 10
44.24879949108601
 20
9.882756696205302
 30
0.0
 10
43.73360292097581
 20
10.05876092009403
 30
0.0
 10
43.24906709254703
 20
10.25931042888463
 30
0.0
 10
42.79045675407448
 20
10.47105335850811
 30
0.0
  0
SPLINE
  5
268
330
1F
100
AcDbEntity
  8
SK3
  6
SLD-Dashed
370
    18
100
AcDbSpline
210
0.0
220
0.0
230
1.0
 70
     8
 71
     3
 72
     8
 73
     4
 74
     0
 42
0.000000001
 43
0.00000001
 40
0.8437499999999976
 40
0.8437499999999976
 40
0.8437499999999976
 40
0.8437499999999976
 40
0.874999999999998
 40
0.874999999999998
 40
0.874999999999998
 40
0.874999999999998
 10
42.79045675407448
 20
10.47105335850811
 30
0.0
 10
42.33184641560187
 20
10.68279628813158
 30
0.0
 10
41.90839346036101
 20
10.90159309059999
 30
0.0
 10
41.5206233357007
 20
11.11456542108784
 30
0.0
  0
SPLINE
  5
269
330
1F
100
AcDbEntity
  8
SK3
  6
SLD-Dashed
370
    18
100
AcDbSpline
210
0.0
220
0.0
230
1.0
 70
     8
 71
     3
 72
     8
 73
     4
 74
     0
 42
0.000000001
 43
0.00000001
 40
0.874999999999998
 40
0.874999999999998
 40
0.874999999999998
 40
0.874999999999998
 40
0.8906249999999983
 40
0.8906249999999983
 40
0.8906249999999983
 40
0.8906249999999983
 10
41.52062333570068
 20
11.11456542108786
 30
0.0
 10
41.3267382733705
 20
11.22105158633178
 30
0.0
 10
41.14146042590959
 20
11.32633318088268
 30
0.0
 10
40.96479562632341
 20
11.42928135707317
 30
0.0
  0
SPLINE
  5
26A
330
1F
100
AcDbEntity
  8
SK3
  6
SLD-Dashed
370
    18
100
AcDbSpline
210
0.0
220
0.0
230
1.0
 70
     8
 71
     3
 72
     8
 73
     4
 74
     0
 42
0.000000001
 43
0.00000001
 40
0.8906249999999983
 40
0.8906249999999983
 40
0.8906249999999983
 40
0.8906249999999983
 40
0.9062499999999987
 40
0.9062499999999987
 40
0.9062499999999987
 40
0.9062499999999987
 10
40.96479562632341
 20
11.42928135707317
 30
0.0
 10
40.78813082673722
 20
11.53222953326367
 30
0.0
 10
40.61949700637525
 20
11.63322209861762
 30
0.0
 10
40.46296554273458
 20
11.72880589007497
 30
0.0
  0
SPLINE
  5
26B
330
1F
100
AcDbEntity
  8
SK3
  6
SLD-Dashed
370
    18
100
AcDbSpline
210
0.0
220
0.0
230
1.0
 70
     8
 71
     3
 72
     8
 73
     4
 74
     0
 42
0.000000001
 43
0.00000001
 40
0.9062499999999987
 40
0.9062499999999987
 40
0.9062499999999987
 40
0.9062499999999987
 40
0.9374999999999992
 40
0.9374999999999992
 40
0.9374999999999992
 40
0.9374999999999992
 10
40.46296554273459
 20
11.72880589007496
 30
0.0
 10
40.14990261545326
 20
11.91997347298964
 30
0.0
 10
39.88168025587352
 20
12.09134961742919
 30
0.0
 10
39.65961488664885
 20
12.23591067489444
 30
0.0
  0
SPLINE
  5
26C
330
1F
100
AcDbEntity
  8
SK3
  6
SLD-Dashed
370
    18
100
AcDbSpline
210
0.0
220
0.0
230
1.0
 70
     8
 71
     3
 72
     8
 73
     4
 74
     0
 42
0.000000001
 43
0.00000001
 40
0.9374999999999992
 40
0.9374999999999992
 40
0.9374999999999992
 40
0.9374999999999992
 40
0.9531249999999993
 40
0.9531249999999993
 40
0.9531249999999993
 40
0.9531249999999993
 10
39.65961488664882
 20
12.23591067489446
 30
0.0
 10
39.54858220203651
 20
12.30819120362708
 30
0.0
 10
39.44918680878229
 20
12.3737566892708
 30
0.0
 10
39.36227392065192
 20
12.43152413432635
 30
0.0
  0
SPLINE
  5
26D
330
1F
100
AcDbEntity
  8
SK3
  6
SLD-Dashed
370
    18
100
AcDbSpline
210
0.0
220
0.0
230
1.0
 70
     8
 71
     3
 72
     8
 73
     4
 74
     0
 42
0.000000001
 43
0.00000001
 40
0.9531249999999993
 40
0.9531249999999993
 40
0.9531249999999993
 40
0.9531249999999993
 40
0.9687499999999996
 40
0.9687499999999996
 40
0.9687499999999996
 40
0.9687499999999996
 10
39.36227392065192
 20
12.43152413432635
 30
0.0
 10
39.27536103252155
 20
12.4892915793819
 30
0.0
 10
39.20126859967699
 20
12.53903918981123
 30
0.0
 10
39.14228430053026
 20
12.57881614771555
 30
0.0
  0
SPLINE
  5
26E
330
1F
100
AcDbEntity
  8
SK3
  6
SLD-Dashed
370
    18
100
AcDbSpline
210
0.0
220
0.0
230
1.0
 70
     8
 71
     2
 72
     6
 73
     3
 74
     0
 42
0.000000001
 43
0.00000001
 40
0.9687499999999996
 40
0.9687499999999996
 40
0.9687499999999996
 40
1.0
 40
1.0
 40
1.0
 10
39.14228430053026
 20
12.57881614771555
 30
0.0
 10
39.02431570223685
 20
12.65837006352421
 30
0.0
 10
38.96359999999996
 20
12.69999999999998
 30
0.0
  0
SPLINE
  5
26F
330
1F
100
AcDbEntity
  8
SK3
  6
SLD-Dashed
370
    18
100
AcDbSpline
210
0.0
220
0.0
230
1.0
 70
     8
 71
     2
 72
     6
 73
     3
 74
     0
 42
0.000000001
 43
0.00000001
 40
0.0
 40
0.0
 40
0.0
 40
0.0312500000000009
 40
0.0312500000000009
 40
0.0312500000000009
 10
64.36359999999993
 20
12.7
 30
0.0
 10
64.4239574019457
 20
12.6586201548981
 30
0.0
 10
64.54062173021546
 20
12.57993738715702
 30
0.0
  0
SPLINE
  5
270
330
1F
100
AcDbEntity
  8
SK3
  6
SLD-Dashed
370
    18
100
AcDbSpline
210
0.0
220
0.0
230
1.0
 70
     8
 71
     3
 72
     8
 73
     4
 74
     0
 42
0.000000001
 43
0.00000001
 40
0.0312500000000009
 40
0.0312500000000009
 40
0.0312500000000009
 40
0.0312500000000009
 40
0.0625000000000018
 40
0.0625000000000018
 40
0.0625000000000018
 40
0.0625000000000018
 10
64.54062173021546
 20
12.57993738715702
 30
0.0
 10
64.65728605848523
 20
12.50125461941595
 30
0.0
 10
64.83327307454431
 20
12.38329614214991
 30
0.0
 10
65.05578043671831
 20
12.23840718753023
 30
0.0
  0
SPLINE
  5
271
330
1F
100
AcDbEntity
  8
SK3
  6
SLD-Dashed
370
    18
100
AcDbSpline
210
0.0
220
0.0
230
1.0
 70
     8
 71
     3
 72
     8
 73
     4
 74
     0
 42
0.000000001
 43
0.00000001
 40
0.0625000000000018
 40
0.0625000000000018
 40
0.0625000000000018
 40
0.0625000000000018
 40
0.0937500000000027
 40
0.0937500000000027
 40
0.0937500000000027
 40
0.0937500000000027
 10
65.05578043671831
 20
12.23840718753023
 30
0.0
 10
65.27828779889225
 20
12.09351823291053
 30
0.0
 10
65.54879633053234
 20
11.92064199623085
 30
0.0
 10
65.86338282487708
 20
11.72855108711277
 30
0.0
  0
SPLINE
  5
272
330
1F
100
AcDbEntity
  8
SK3
  6
SLD-Dashed
370
    18
100
AcDbSpline
210
0.0
220
0.0
230
1.0
 70
     8
 71
     3
 72
     8
 73
     4
 74
     0
 42
0.000000001
 43
0.00000001
 40
0.0937500000000027
 40
0.0937500000000027
 40
0.0937500000000027
 40
0.0937500000000027
 40
0.1250000000000037
 40
0.1250000000000037
 40
0.1250000000000037
 40
0.1250000000000037
 10
65.86338282487708
 20
11.72855108711277
 30
0.0
 10
66.17796931922182
 20
11.53646017799469
 30
0.0
 10
66.52932275349671
 20
11.32956861863964
 30
0.0
 10
66.91686813461482
 20
11.1166283074021
 30
0.0
  0
SPLINE
  5
273
330
1F
100
AcDbEntity
  8
SK3
  6
SLD-Dashed
370
    18
100
AcDbSpline
210
0.0
220
0.0
230
1.0
 70
     8
 71
     3
 72
     8
 73
     4
 74
     0
 42
0.000000001
 43
0.00000001
 40
0.1250000000000037
 40
0.1250000000000037
 40
0.1250000000000037
 40
0.1250000000000037
 40
0.1562500000000046
 40
0.1562500000000046
 40
0.1562500000000046
 40
0.1562500000000046
 10
66.91686813461482
 20
11.1166283074021
 30
0.0
 10
67.30441351573293
 20
10.90368799616454
 30
0.0
 10
67.73214037673745
 20
10.68282497008746
 30
0.0
 10
68.18565633208235
 20
10.47327060550878
 30
0.0
  0
SPLINE
  5
274
330
1F
100
AcDbEntity
  8
SK3
  6
SLD-Dashed
370
    18
100
AcDbSpline
210
0.0
220
0.0
230
1.0
 70
     8
 71
     3
 72
     8
 73
     4
 74
     0
 42
0.000000001
 43
0.00000001
 40
0.1562500000000046
 40
0.1562500000000046
 40
0.1562500000000046
 40
0.1562500000000046
 40
0.1875000000000055
 40
0.1875000000000055
 40
0.1875000000000055
 40
0.1875000000000055
 10
68.18565633208235
 20
10.47327060550878
 30
0.0
 10
68.63917228742724
 20
10.2637162409301
 30
0.0
 10
69.12022355443683
 20
10.06399015496769
 30
0.0
 10
69.63466145333999
 20
9.887595536881996
 30
0.0
  0
SPLINE
  5
275
330
1F
100
AcDbEntity
  8
SK3
  6
SLD-Dashed
370
    18
100
AcDbSpline
210
0.0
220
0.0
230
1.0
 70
     8
 71
     3
 72
     8
 73
     4
 74
     0
 42
0.000000001
 43
0.00000001
 40
0.1875000000000055
 40
0.1875000000000055
 40
0.1875000000000055
 40
0.1875000000000055
 40
0.2031250000000059
 40
0.2031250000000059
 40
0.2031250000000059
 40
0.2031250000000059
 10
69.63466145333999
 20
9.887595536881996
 30
0.0
 10
69.89188040279157
 20
9.799398227839145
 30
0.0
 10
70.15905524351825
 20
9.71671039488043
 30
0.0
 10
70.43242310993699
 20
9.643215489186598
 30
0.0
  0
SPLINE
  5
276
330
1F
100
AcDbEntity
  8
SK3
  6
SLD-Dashed
370
    18
100
AcDbSpline
210
0.0
220
0.0
230
1.0
 70
     8
 71
     3
 72
     8
 73
     4
 74
     0
 42
0.000000001
 43
0.00000001
 40
0.2031250000000059
 40
0.2031250000000059
 40
0.2031250000000059
 40
0.2031250000000059
 40
0.2187500000000064
 40
0.2187500000000064
 40
0.2187500000000064
 40
0.2187500000000064
 10
70.43242310993699
 20
9.643215489186598
 30
0.0
 10
70.70579097635574
 20
9.569720583492765
 30
0.0
 10
70.98347088607882
 20
9.50584251012413
 30
0.0
 10
71.2658000431923
 20
9.45330283699998
 30
0.0
  0
SPLINE
  5
277
330
1F
100
AcDbEntity
  8
SK3
  6
SLD-Dashed
370
    18
100
AcDbSpline
210
0.0
220
0.0
230
1.0
 70
     8
 71
     3
 72
     8
 73
     4
 74
     0
 42
0.000000001
 43
0.00000001
 40
0.2187500000000064
 40
0.2187500000000064
 40
0.2187500000000064
 40
0.2187500000000064
 40
0.2343750000000069
 40
0.2343750000000069
 40
0.2343750000000069
 40
0.2343750000000069
 10
71.2658000431923
 20
9.45330283699998
 30
0.0
 10
71.54812920030577
 20
9.40076316387583
 30
0.0
 10
71.83510755187713
 20
9.35956594055444
 30
0.0
 10
72.12718493358867
 20
9.331464083061936
 30
0.0
  0
SPLINE
  5
278
330
1F
100
AcDbEntity
  8
SK3
  6
SLD-Dashed
370
    18
100
AcDbSpline
210
0.0
220
0.0
230
1.0
 70
     8
 71
     3
 72
     8
 73
     4
 74
     0
 42
0.000000001
 43
0.00000001
 40
0.2343750000000069
 40
0.2343750000000069
 40
0.2343750000000069
 40
0.2343750000000069
 40
0.2500000000000073
 40
0.2500000000000073
 40
0.2500000000000073
 40
0.2500000000000073
 10
72.12718493358867
 20
9.331464083061936
 30
0.0
 10
72.41926231530019
 20
9.30336222556944
 30
0.0
 10
72.71739004601477
 20
9.288616271269062
 30
0.0
 10
73.01129798550305
 20
9.288182695511612
 30
0.0
  0
SPLINE
  5
279
330
1F
100
AcDbEntity
  8
SK3
  6
SLD-Dashed
370
    18
100
AcDbSpline
210
0.0
220
0.0
230
1.0
 70
     8
 71
     3
 72
     8
 73
     4
 74
     0
 42
0.000000001
 43
0.00000001
 40
0.2500000000000073
 40
0.2500000000000073
 40
0.2500000000000073
 40
0.2500000000000073
 40
0.2812500000000082
 40
0.2812500000000082
 40
0.2812500000000082
 40
0.2812500000000082
 10
73.01129798550305
 20
9.288182695511614
 30
0.0
 10
73.5991138644795
 20
9.287315543996707
 30
0.0
 10
74.17923216362985
 20
9.342651587149494
 30
0.0
 10
74.75214887237819
 20
9.447390817964418
 30
0.0
  0
SPLINE
  5
27A
330
1F
100
AcDbEntity
  8
SK3
  6
SLD-Dashed
370
    18
100
AcDbSpline
210
0.0
220
0.0
230
1.0
 70
     8
 71
     3
 72
     8
 73
     4
 74
     0
 42
0.000000001
 43
0.00000001
 40
0.2812500000000082
 40
0.2812500000000082
 40
0.2812500000000082
 40
0.2812500000000082
 40
0.3125000000000092
 40
0.3125000000000092
 40
0.3125000000000092
 40
0.3125000000000092
 10
74.75214887237819
 20
9.447390817964415
 30
0.0
 10
75.32506558112655
 20
9.552130048779302
 30
0.0
 10
75.86818221414526
 20
9.701330301152568
 30
0.0
 10
76.3870388028408
 20
9.877927664839785
 30
0.0
  0
SPLINE
  5
27B
330
1F
100
AcDbEntity
  8
SK3
  6
SLD-Dashed
370
    18
100
AcDbSpline
210
0.0
220
0.0
230
1.0
 70
     8
 71
     3
 72
     8
 73
     4
 74
     0
 42
0.000000001
 43
0.00000001
 40
0.3125000000000092
 40
0.3125000000000092
 40
0.3125000000000092
 40
0.3125000000000092
 40
0.3281250000000093
 40
0.3281250000000093
 40
0.3281250000000093
 40
0.3281250000000093
 10
76.38703880284083
 20
9.877927664839795
 30
0.0
 10
76.64646709718862
 20
9.96622634668342
 30
0.0
 10
76.90057094710737
 20
10.06183293181508
 30
0.0
 10
77.14449378932287
 20
10.16072729287967
 30
0.0
  0
SPLINE
  5
27C
330
1F
100
AcDbEntity
  8
SK3
  6
SLD-Dashed
370
    18
100
AcDbSpline
210
0.0
220
0.0
230
1.0
 70
     8
 71
     3
 72
     8
 73
     4
 74
     0
 42
0.000000001
 43
0.00000001
 40
0.3281250000000093
 40
0.3281250000000093
 40
0.3281250000000093
 40
0.3281250000000093
 40
0.3437500000000094
 40
0.3437500000000094
 40
0.3437500000000094
 40
0.3437500000000094
 10
77.14449378932287
 20
10.16072729287967
 30
0.0
 10
77.38841663153839
 20
10.25962165394426
 30
0.0
 10
77.62332882192999
 20
10.36215598577798
 30
0.0
 10
77.8501137669971
 20
10.46670305800566
 30
0.0
  0
SPLINE
  5
27D
330
1F
100
AcDbEntity
  8
SK3
  6
SLD-Dashed
370
    18
100
AcDbSpline
210
0.0
220
0.0
230
1.0
 70
     8
 71
     3
 72
     8
 73
     4
 74
     0
 42
0.000000001
 43
0.00000001
 40
0.3437500000000094
 40
0.3437500000000094
 40
0.3437500000000094
 40
0.3437500000000094
 40
0.3750000000000097
 40
0.3750000000000097
 40
0.3750000000000097
 40
0.3750000000000097
 10
77.8501137669971
 20
10.46670305800566
 30
0.0
 10
78.30368365713124
 20
10.67579720246099
 30
0.0
 10
78.7250751511385
 20
10.89283402691384
 30
0.0
 10
79.11657496941599
 20
11.10753958570555
 30
0.0
  0
SPLINE
  5
27E
330
1F
100
AcDbEntity
  8
SK3
  6
SLD-Dashed
370
    18
100
AcDbSpline
210
0.0
220
0.0
230
1.0
 70
     8
 71
     3
 72
     8
 73
     4
 74
     0
 42
0.000000001
 43
0.00000001
 40
0.3750000000000097
 40
0.3750000000000097
 40
0.3750000000000097
 40
0.3750000000000097
 40
0.3906250000000098
 40
0.3906250000000098
 40
0.3906250000000098
 40
0.3906250000000098
 10
79.11657496941596
 20
11.10753958570553
 30
0.0
 10
79.31232487855472
 20
11.21489236510138
 30
0.0
 10
79.499311921445
 20
11.3210590395763
 30
0.0
 10
79.67535176534105
 20
11.42354273606815
 30
0.0
  0
SPLINE
  5
27F
330
1F
100
AcDbEntity
  8
SK3
  6
SLD-Dashed
370
    18
100
AcDbSpline
210
0.0
220
0.0
230
1.0
 70
     8
 71
     3
 72
     8
 73
     4
 74
     0
 42
0.000000001
 43
0.00000001
 40
0.3906250000000098
 40
0.3906250000000098
 40
0.3906250000000098
 40
0.3906250000000098
 40
0.4062500000000099
 40
0.4062500000000099
 40
0.4062500000000099
 40
0.4062500000000099
 10
79.67535176534108
 20
11.42354273606817
 30
0.0
 10
79.85139160923718
 20
11.52602643256
 30
0.0
 10
80.01727590562899
 20
11.62526680250746
 30
0.0
 10
80.17307306855443
 20
11.72028577439107
 30
0.0
  0
SPLINE
  5
280
330
1F
100
AcDbEntity
  8
SK3
  6
SLD-Dashed
370
    18
100
AcDbSpline
210
0.0
220
0.0
230
1.0
 70
     8
 71
     3
 72
     8
 73
     4
 74
     0
 42
0.000000001
 43
0.00000001
 40
0.4062500000000099
 40
0.4062500000000099
 40
0.4062500000000099
 40
0.4062500000000099
 40
0.4375000000000098
 40
0.4375000000000098
 40
0.4375000000000098
 40
0.4375000000000098
 10
80.17307306855443
 20
11.72028577439107
 30
0.0
 10
80.48466739440538
 20
11.91032371815828
 30
0.0
 10
80.75702354677509
 20
12.0840689137981
 30
0.0
 10
80.98365412481334
 20
12.23152997455381
 30
0.0
  0
SPLINE
  5
281
330
1F
100
AcDbEntity
  8
SK3
  6
SLD-Dashed
370
    18
100
AcDbSpline
210
0.0
220
0.0
230
1.0
 70
     8
 71
     3
 72
     8
 73
     4
 74
     0
 42
0.000000001
 43
0.00000001
 40
0.4375000000000098
 40
0.4375000000000098
 40
0.4375000000000098
 40
0.4375000000000098
 40
0.4687500000000097
 40
0.4687500000000097
 40
0.4687500000000097
 40
0.4687500000000097
 10
80.98365412481334
 20
12.23152997455381
 30
0.0
 10
81.21028470285161
 20
12.37899103530953
 30
0.0
 10
81.3840878377355
 20
12.49546980359536
 30
0.0
 10
81.50315796940855
 20
12.5757430235452
 30
0.0
  0
SPLINE
  5
282
330
1F
100
AcDbEntity
  8
SK3
  6
SLD-Dashed
370
    18
100
AcDbSpline
210
0.0
220
0.0
230
1.0
 70
     8
 71
     3
 72
     8
 73
     4
 74
     0
 42
0.000000001
 43
0.00000001
 40
0.4687500000000097
 40
0.4687500000000097
 40
0.4687500000000097
 40
0.4687500000000097
 40
0.4843750000000097
 40
0.4843750000000097
 40
0.4843750000000097
 40
0.4843750000000097
 10
81.50315796940855
 20
12.5757430235452
 30
0.0
 10
81.56269303524502
 20
12.61587963352013
 30
0.0
 10
81.60859540948343
 20
12.64704518371697
 30
0.0
 10
81.63934523066332
 20
12.66795539118496
 30
0.0
  0
SPLINE
  5
283
330
1F
100
AcDbEntity
  8
SK3
  6
SLD-Dashed
370
    18
100
AcDbSpline
210
0.0
220
0.0
230
1.0
 70
     8
 71
     3
 72
     8
 73
     4
 74
     0
 42
0.000000001
 43
0.00000001
 40
0.4843750000000097
 40
0.4843750000000097
 40
0.4843750000000097
 40
0.4843750000000097
 40
0.5000000000000097
 40
0.5000000000000097
 40
0.5000000000000097
 40
0.5000000000000097
 10
81.63934523066332
 20
12.66795539118496
 30
0.0
 10
81.67009505184322
 20
12.68886559865296
 30
0.0
 10
81.68563366012258
 20
12.6994773570779
 30
0.0
 10
81.68637241474563
 20
12.69998118687255
 30
0.0
  0
SPLINE
  5
284
330
1F
100
AcDbEntity
  8
SK3
  6
SLD-Dashed
370
    18
100
AcDbSpline
210
0.0
220
0.0
230
1.0
 70
     8
 71
     3
 72
     8
 73
     4
 74
     0
 42
0.000000001
 43
0.00000001
 40
0.5156250000000097
 40
0.5156250000000097
 40
0.5156250000000097
 40
0.5156250000000097
 40
0.5312500000000097
 40
0.5312500000000097
 40
0.5312500000000097
 40
0.5312500000000097
 10
81.64412943416343
 20
12.67120918629566
 30
0.0
 10
81.6152105327315
 20
12.65153815483598
 30
0.0
 10
81.57100309232764
 20
12.6215077356123
 30
0.0
 10
81.51255920653516
 20
12.58208294855984
 30
0.0
  0
SPLINE
  5
285
330
1F
100
AcDbEntity
  8
SK3
  6
SLD-Dashed
370
    18
100
AcDbSpline
210
0.0
220
0.0
230
1.0
 70
     8
 71
     3
 72
     8
 73
     4
 74
     0
 42
0.000000001
 43
0.00000001
 40
0.5312500000000097
 40
0.5312500000000097
 40
0.5312500000000097
 40
0.5312500000000097
 40
0.5625000000000097
 40
0.5625000000000097
 40
0.5625000000000097
 40
0.5625000000000097
 10
81.51255920653519
 20
12.58208294855986
 30
0.0
 10
81.39567143495033
 20
12.50323337445495
 30
0.0
 10
81.22386437699758
 20
12.38801484085442
 30
0.0
 10
81.0008931283761
 20
12.24275382564226
 30
0.0
  0
SPLINE
  5
286
330
1F
100
AcDbEntity
  8
SK3
  6
SLD-Dashed
370
    18
100
AcDbSpline
210
0.0
220
0.0
230
1.0
 70
     8
 71
     3
 72
     8
 73
     4
 74
     0
 42
0.000000001
 43
0.00000001
 40
0.5625000000000097
 40
0.5625000000000097
 40
0.5625000000000097
 40
0.5625000000000097
 40
0.5781250000000099
 40
0.5781250000000099
 40
0.5781250000000099
 40
0.5781250000000099
 10
81.0008931283761
 20
12.24275382564226
 30
0.0
 10
80.8894075040654
 20
12.17012331803618
 30
0.0
 10
80.76445323292417
 20
12.08959700453393
 30
0.0
 10
80.62933349670523
 20
12.00400091507468
 30
0.0
  0
SPLINE
  5
287
330
1F
100
AcDbEntity
  8
SK3
  6
SLD-Dashed
370
    18
100
AcDbSpline
210
0.0
220
0.0
230
1.0
 70
     8
 71
     3
 72
     8
 73
     4
 74
     0
 42
0.000000001
 43
0.00000001
 40
0.5781250000000099
 40
0.5781250000000099
 40
0.5781250000000099
 40
0.5781250000000099
 40
0.59375000000001
 40
0.59375000000001
 40
0.59375000000001
 40
0.59375000000001
 10
80.6293334967052
 20
12.00400091507466
 30
0.0
 10
80.49421376048623
 20
11.91840482561541
 30
0.0
 10
80.3484947973644
 20
11.82744604868489
 30
0.0
 10
80.19253003140417
 20
11.73216249423273
 30
0.0
  0
SPLINE
  5
288
330
1F
100
AcDbEntity
  8
SK3
  6
SLD-Dashed
370
    18
100
AcDbSpline
210
0.0
220
0.0
230
1.0
 70
     8
 71
     3
 72
     8
 73
     4
 74
     0
 42
0.000000001
 43
0.00000001
 40
0.59375000000001
 40
0.59375000000001
 40
0.59375000000001
 40
0.59375000000001
 40
0.6093750000000101
 40
0.6093750000000101
 40
0.6093750000000101
 40
0.6093750000000101
 10
80.1925300314042
 20
11.73216249423275
 30
0.0
 10
80.03656526544398
 20
11.63687893978058
 30
0.0
 10
79.87035343083845
 20
11.53726367110615
 30
0.0
 10
79.6938318572937
 20
11.43431101469849
 30
0.0
  0
SPLINE
  5
289
330
1F
100
AcDbEntity
  8
SK3
  6
SLD-Dashed
370
    18
100
AcDbSpline
210
0.0
220
0.0
230
1.0
 70
     8
 71
     3
 72
     8
 73
     4
 74
     0
 42
0.000000001
 43
0.00000001
 40
0.6093750000000101
 40
0.6093750000000101
 40
0.6093750000000101
 40
0.6093750000000101
 40
0.6250000000000102
 40
0.6250000000000102
 40
0.6250000000000102
 40
0.6250000000000102
 10
79.69383185729367
 20
11.43431101469847
 30
0.0
 10
79.51731028374896
 20
11.33135835829081
 30
0.0
 10
79.32996584931135
 20
11.22480818686731
 30
0.0
 10
79.13538355496541
 20
11.11786567776352
 30
0.0
  0
SPLINE
  5
28A
330
1F
100
AcDbEntity
  8
SK3
  6
SLD-Dashed
370
    18
100
AcDbSpline
210
0.0
220
0.0
230
1.0
 70
     8
 71
     3
 72
     8
 73
     4
 74
     0
 42
0.000000001
 43
0.00000001
 40
0.6250000000000102
 40
0.6250000000000102
 40
0.6250000000000102
 40
0.6250000000000102
 40
0.65625000000001
 40
0.65625000000001
 40
0.65625000000001
 40
0.65625000000001
 10
79.13538355496544
 20
11.11786567776354
 30
0.0
 10
78.74621896627357
 20
10.90398065955594
 30
0.0
 10
78.32572618347203
 20
10.68668448237187
 30
0.0
 10
77.87087629015821
 20
10.47629071091089
 30
0.0
  0
SPLINE
  5
28B
330
1F
100
AcDbEntity
  8
SK3
  6
SLD-Dashed
370
    18
100
AcDbSpline
210
0.0
220
0.0
230
1.0
 70
     8
 71
     3
 72
     8
 73
     4
 74
     0
 42
0.000000001
 43
0.00000001
 40
0.65625000000001
 40
0.65625000000001
 40
0.65625000000001
 40
0.65625000000001
 40
0.6875000000000098
 40
0.6875000000000098
 40
0.6875000000000098
 40
0.6875000000000098
 10
77.87087629015818
 20
10.47629071091088
 30
0.0
 10
77.41602639684439
 20
10.2658969394499
 30
0.0
 10
76.92305295237762
 20
10.06133535860005
 30
0.0
 10
76.40768838487676
 20
9.884974999926916
 30
0.0
  0
SPLINE
  5
28C
330
1F
100
AcDbEntity
  8
SK3
  6
SLD-Dashed
370
    18
100
AcDbSpline
210
0.0
220
0.0
230
1.0
 70
     8
 71
     3
 72
     8
 73
     4
 74
     0
 42
0.000000001
 43
0.00000001
 40
0.6875000000000098
 40
0.6875000000000098
 40
0.6875000000000098
 40
0.6875000000000098
 40
0.7187500000000097
 40
0.7187500000000097
 40
0.7187500000000097
 40
0.7187500000000097
 10
76.40768838487676
 20
9.884974999926916
 30
0.0
 10
75.89232381737595
 20
9.708614641253783
 30
0.0
 10
75.34885087228294
 20
9.55795172277249
 30
0.0
 10
74.77680860357408
 20
9.451930142756893
 30
0.0
  0
SPLINE
  5
28D
330
1F
100
AcDbEntity
  8
SK3
  6
SLD-Dashed
370
    18
100
AcDbSpline
210
0.0
220
0.0
230
1.0
 70
     8
 71
     3
 72
     8
 73
     4
 74
     0
 42
0.000000001
 43
0.00000001
 40
0.7187500000000097
 40
0.7187500000000097
 40
0.7187500000000097
 40
0.7187500000000097
 40
0.7500000000000094
 40
0.7500000000000094
 40
0.7500000000000094
 40
0.7500000000000094
 10
74.77680860357411
 20
9.451930142756893
 30
0.0
 10
74.20476633486525
 20
9.345908562741284
 30
0.0
 10
73.62371304486543
 20
9.288674369058398
 30
0.0
 10
73.03283567673665
 20
9.288175893997149
 30
0.0
  0
SPLINE
  5
28E
330
1F
100
AcDbEntity
  8
SK3
  6
SLD-Dashed
370
    18
100
AcDbSpline
210
0.0
220
0.0
230
1.0
 70
     8
 71
     3
 72
     8
 73
     4
 74
     0
 42
0.000000001
 43
0.00000001
 40
0.7500000000000094
 40
0.7500000000000094
 40
0.7500000000000094
 40
0.7500000000000094
 40
0.7656250000000089
 40
0.7656250000000089
 40
0.7656250000000089
 40
0.7656250000000089
 10
73.03283567673662
 20
9.288175893997149
 30
0.0
 10
72.73739699267229
 20
9.28792665646653
 30
0.0
 10
72.43888562996884
 20
9.30211120898342
 30
0.0
 10
72.14706157085018
 20
9.329572655024338
 30
0.0
  0
SPLINE
  5
28F
330
1F
100
AcDbEntity
  8
SK3
  6
SLD-Dashed
370
    18
100
AcDbSpline
210
0.0
220
0.0
230
1.0
 70
     8
 71
     3
 72
     8
 73
     4
 74
     0
 42
0.000000001
 43
0.00000001
 40
0.7656250000000089
 40
0.7656250000000089
 40
0.7656250000000089
 40
0.7656250000000089
 40
0.7812500000000083
 40
0.7812500000000083
 40
0.7812500000000083
 40
0.7812500000000083
 10
72.14706157085018
 20
9.329572655024338
 30
0.0
 10
71.8552375117315
 20
9.357034101065258
 30
0.0
 10
71.56775741162541
 20
9.397663612117029
 30
0.0
 10
71.28429483187435
 20
9.449878545375025
 30
0.0
  0
SPLINE
  5
290
330
1F
100
AcDbEntity
  8
SK3
  6
SLD-Dashed
370
    18
100
AcDbSpline
210
0.0
220
0.0
230
1.0
 70
     8
 71
     3
 72
     8
 73
     4
 74
     0
 42
0.000000001
 43
0.00000001
 40
0.7812500000000083
 40
0.7812500000000083
 40
0.7812500000000083
 40
0.7812500000000083
 40
0.7968750000000078
 40
0.7968750000000078
 40
0.7968750000000078
 40
0.7968750000000078
 10
71.28429483187438
 20
9.449878545375018
 30
0.0
 10
71.0008322521233
 20
9.502093478633018
 30
0.0
 10
70.72026097836422
 20
9.566197604964035
 30
0.0
 10
70.44599916893507
 20
9.63957443700878
 30
0.0
  0
SPLINE
  5
291
330
1F
100
AcDbEntity
  8
SK3
  6
SLD-Dashed
370
    18
100
AcDbSpline
210
0.0
220
0.0
230
1.0
 70
     8
 71
     3
 72
     8
 73
     4
 74
     0
 42
0.000000001
 43
0.00000001
 40
0.7968750000000078
 40
0.7968750000000078
 40
0.7968750000000078
 40
0.7968750000000078
 40
0.8125000000000072
 40
0.8125000000000072
 40
0.8125000000000072
 40
0.8125000000000072
 10
70.44599916893505
 20
9.639574437008788
 30
0.0
 10
70.17173735950588
 20
9.71295126905354
 30
0.0
 10
69.90639777614105
 20
9.794754584260948
 30
0.0
 10
69.64879949108597
 20
9.882756696205314
 30
0.0
  0
SPLINE
  5
292
330
1F
100
AcDbEntity
  8
SK3
  6
SLD-Dashed
370
    18
100
AcDbSpline
210
0.0
220
0.0
230
1.0
 70
     8
 71
     3
 72
     8
 73
     4
 74
     0
 42
0.000000001
 43
0.00000001
 40
0.8125000000000072
 40
0.8125000000000072
 40
0.8125000000000072
 40
0.8125000000000072
 40
0.8437500000000063
 40
0.8437500000000063
 40
0.8437500000000063
 40
0.8437500000000063
 10
69.648799491086
 20
9.882756696205302
 30
0.0
 10
69.13360292097585
 20
10.05876092009404
 30
0.0
 10
68.64906709254706
 20
10.25931042888463
 30
0.0
 10
68.19045675407445
 20
10.47105335850811
 30
0.0
  0
SPLINE
  5
293
330
1F
100
AcDbEntity
  8
SK3
  6
SLD-Dashed
370
    18
100
AcDbSpline
210
0.0
220
0.0
230
1.0
 70
     8
 71
     3
 72
     8
 73
     4
 74
     0
 42
0.000000001
 43
0.00000001
 40
0.8437500000000063
 40
0.8437500000000063
 40
0.8437500000000063
 40
0.8437500000000063
 40
0.8750000000000053
 40
0.8750000000000053
 40
0.8750000000000053
 40
0.8750000000000053
 10
68.19045675407445
 20
10.47105335850811
 30
0.0
 10
67.73184641560184
 20
10.68279628813159
 30
0.0
 10
67.30839346036096
 20
10.90159309059998
 30
0.0
 10
66.92062333570067
 20
11.11456542108784
 30
0.0
  0
SPLINE
  5
294
330
1F
100
AcDbEntity
  8
SK3
  6
SLD-Dashed
370
    18
100
AcDbSpline
210
0.0
220
0.0
230
1.0
 70
     8
 71
     3
 72
     8
 73
     4
 74
     0
 42
0.000000001
 43
0.00000001
 40
0.8750000000000053
 40
0.8750000000000053
 40
0.8750000000000053
 40
0.8750000000000053
 40
0.8906250000000046
 40
0.8906250000000046
 40
0.8906250000000046
 40
0.8906250000000046
 10
66.92062333570064
 20
11.11456542108786
 30
0.0
 10
66.7267382733705
 20
11.22105158633178
 30
0.0
 10
66.54146042590958
 20
11.32633318088269
 30
0.0
 10
66.36479562632341
 20
11.42928135707317
 30
0.0
  0
SPLINE
  5
295
330
1F
100
AcDbEntity
  8
SK3
  6
SLD-Dashed
370
    18
100
AcDbSpline
210
0.0
220
0.0
230
1.0
 70
     8
 71
     3
 72
     8
 73
     4
 74
     0
 42
0.000000001
 43
0.00000001
 40
0.8906250000000046
 40
0.8906250000000046
 40
0.8906250000000046
 40
0.8906250000000046
 40
0.9062500000000038
 40
0.9062500000000038
 40
0.9062500000000038
 40
0.9062500000000038
 10
66.36479562632344
 20
11.42928135707315
 30
0.0
 10
66.18813082673722
 20
11.53222953326365
 30
0.0
 10
66.01949700637525
 20
11.63322209861761
 30
0.0
 10
65.8629655427346
 20
11.72880589007495
 30
0.0
  0
SPLINE
  5
296
330
1F
100
AcDbEntity
  8
SK3
  6
SLD-Dashed
370
    18
100
AcDbSpline
210
0.0
220
0.0
230
1.0
 70
     8
 71
     3
 72
     8
 73
     4
 74
     0
 42
0.000000001
 43
0.00000001
 40
0.9062500000000038
 40
0.9062500000000038
 40
0.9062500000000038
 40
0.9062500000000038
 40
0.9375000000000027
 40
0.9375000000000027
 40
0.9375000000000027
 40
0.9375000000000027
 10
65.8629655427346
 20
11.72880589007495
 30
0.0
 10
65.54990261545332
 20
11.91997347298964
 30
0.0
 10
65.28168025587352
 20
12.09134961742919
 30
0.0
 10
65.05961488664889
 20
12.23591067489444
 30
0.0
  0
SPLINE
  5
297
330
1F
100
AcDbEntity
  8
SK3
  6
SLD-Dashed
370
    18
100
AcDbSpline
210
0.0
220
0.0
230
1.0
 70
     8
 71
     3
 72
     8
 73
     4
 74
     0
 42
0.000000001
 43
0.00000001
 40
0.9375000000000027
 40
0.9375000000000027
 40
0.9375000000000027
 40
0.9375000000000027
 40
0.9531250000000021
 40
0.9531250000000021
 40
0.9531250000000021
 40
0.9531250000000021
 10
65.05961488664889
 20
12.23591067489444
 30
0.0
 10
64.94858220203653
 20
12.30819120362706
 30
0.0
 10
64.84918680878229
 20
12.37375668927079
 30
0.0
 10
64.76227392065192
 20
12.43152413432633
 30
0.0
  0
SPLINE
  5
298
330
1F
100
AcDbEntity
  8
SK3
  6
SLD-Dashed
370
    18
100
AcDbSpline
210
0.0
220
0.0
230
1.0
 70
     8
 71
     3
 72
     8
 73
     4
 74
     0
 42
0.000000001
 43
0.00000001
 40
0.9531250000000021
 40
0.9531250000000021
 40
0.9531250000000021
 40
0.9531250000000021
 40
0.9687500000000014
 40
0.9687500000000014
 40
0.9687500000000014
 40
0.9687500000000014
 10
64.76227392065192
 20
12.43152413432633
 30
0.0
 10
64.67536103252158
 20
12.48929157938188
 30
0.0
 10
64.601268599677
 20
12.53903918981122
 30
0.0
 10
64.5422843005303
 20
12.57881614771555
 30
0.0
  0
SPLINE
  5
299
330
1F
100
AcDbEntity
  8
SK3
  6
SLD-Dashed
370
    18
100
AcDbSpline
210
0.0
220
0.0
230
1.0
 70
     8
 71
     2
 72
     6
 73
     3
 74
     0
 42
0.000000001
 43
0.00000001
 40
0.9687500000000014
 40
0.9687500000000014
 40
0.9687500000000014
 40
1.0
 40
1.0
 40
1.0
 10
64.54228430053027
 20
12.57881614771557
 30
0.0
 10
64.42431570223684
 20
12.65837006352422
 30
0.0
 10
64.36359999999993
 20
12.7
 30
0.0
  0
SPLINE
  5
29A
330
1F
100
AcDbEntity
  8
SK3
  6
SLD-Dashed
370
    18
100
AcDbSpline
210
0.0
220
0.0
230
1.0
 70
     8
 71
     3
 72
    34
 73
    30
 74
     0
 42
0.000000001
 43
0.00000001
 40
0.499999999999998
 40
0.499999999999998
 40
0.499999999999998
 40
0.499999999999998
 40
0.5312499999999979
 40
0.5312499999999979
 40
0.5624999999999978
 40
0.5624999999999978
 40
0.5937499999999976
 40
0.5937499999999976
 40
0.6249999999999974
 40
0.6249999999999974
 40
0.6562499999999973
 40
0.6562499999999973
 40
0.6874999999999972
 40
0.6874999999999972
 40
0.7499999999999969
 40
0.7499999999999969
 40
0.8124999999999973
 40
0.8124999999999973
 40
0.8437499999999978
 40
0.8437499999999978
 40
0.8749999999999982
 40
0.8749999999999982
 40
0.9062499999999987
 40
0.9062499999999987
 40
0.937499999999999
 40
0.937499999999999
 40
0.9687499999999994
 40
0.9687499999999994
 40
1.0
 40
1.0
 40
1.0
 40
1.0
 10
9.638805742161708
 20
10.95392502366162
 30
0.0
 10
9.6938811607363
 20
10.84705887039521
 30
0.0
 10
9.763179283156633
 20
10.74439645836096
 30
0.0
 10
9.923515798149985
 20
10.55592715127709
 30
0.0
 10
10.01390276352453
 20
10.47020735344791
 30
0.0
 10
10.21445694949211
 20
10.31296552728878
 30
0.0
 10
10.32267837600209
 20
10.24333508542228
 30
0.0
 10
10.54307526498122
 20
10.12288935951393
 30
0.0
 10
10.65791658596822
 20
10.07070374731722
 30
0.0
 10
10.87819871140988
 20
9.984463182040868
 30
0.0
 10
10.98608094611136
 20
9.949205279737832
 30
0.0
 10
11.18968749579594
 20
9.892304259469
 30
0.0
 10
11.28527842069084
 20
9.870580048613817
 30
0.0
 10
11.55898297450223
 20
9.820769890309979
 30
0.0
 10
11.72337034356695
 20
9.808096789548735
 30
0.0
 10
12.02194861504764
 20
9.821477532699776
 30
0.0
 10
12.15920875119766
 20
9.84731018817673
 30
0.0
 10
12.34760730605759
 20
9.927824692744426
 30
0.0
 10
12.40688352391457
 20
9.961503747003379
 30
0.0
 10
12.51780294837551
 20
10.0474980864718
 30
0.0
 10
12.56969006353044
 20
10.10021829085831
 30
0.0
 10
12.65991931900841
 20
10.2293377679893
 30
0.0
 10
12.69929072119648
 20
10.30748393412819
 30
0.0
 10
12.75586568636479
 20
10.49302732041032
 30
0.0
 10
12.77303399215493
 20
10.60290348381506
 30
0.0
 10
12.77663319740259
 20
10.83901366027915
 30
0.0
 10
12.7630699394838
 20
10.96766771108131
 30
0.0
 10
12.71170841969951
 20
11.21837738140154
 30
0.0
 10
12.67469993892524
 20
11.34057418425335
 30
0.0
 10
12.63040931107559
 20
11.45745606890563
 30
0.0
  0
SPLINE
  5
29B
330
1F
100
AcDbEntity
  8
SK3
  6
SLD-Dashed
370
    18
100
AcDbSpline
210
0.0
220
0.0
230
1.0
 70
     8
 71
     3
 72
    26
 73
    22
 74
     0
 42
0.000000001
 43
0.00000001
 40
0.0
 40
0.0
 40
0.0
 40
0.0
 40
0.0624999999999995
 40
0.0624999999999995
 40
0.124999999999999
 40
0.124999999999999
 40
0.1874999999999986
 40
0.1874999999999986
 40
0.2499999999999981
 40
0.2499999999999981
 40
0.281249999999998
 40
0.281249999999998
 40
0.3124999999999979
 40
0.3124999999999979
 40
0.3749999999999981
 40
0.3749999999999981
 40
0.4374999999999984
 40
0.4374999999999984
 40
0.4687499999999982
 40
0.4687499999999982
 40
0.499999999999998
 40
0.499999999999998
 40
0.499999999999998
 40
0.499999999999998
 10
12.6304093110756
 20
11.45745606890563
 30
0.0
 10
12.54182805537631
 20
11.69121983821019
 30
0.0
 10
12.43200682775378
 20
11.89056157115178
 30
0.0
 10
12.18419932759159
 20
12.25514411813749
 30
0.0
 10
12.04834522926919
 20
12.41463399152625
 30
0.0
 10
11.75314013646128
 20
12.69173524411805
 30
0.0
 10
11.59091385222426
 20
12.81202758601131
 30
0.0
 10
11.23004729019511
 20
12.99241430793246
 30
0.0
 10
11.02728334192551
 20
13.05343833574648
 30
0.0
 10
10.69987000905186
 20
13.05646994226838
 30
0.0
 10
10.58531472788943
 20
13.0419760700552
 30
0.0
 10
10.36396153134628
 20
12.97944613660277
 30
0.0
 10
10.25449961952681
 20
12.93102694430325
 30
0.0
 10
9.947578697971318
 20
12.73948161914288
 30
0.0
 10
9.776646578307194
 20
12.55346040827498
 30
0.0
 10
9.542451961566181
 20
12.12678030999252
 30
0.0
 10
9.478612055377923
 20
11.88580640702582
 30
0.0
 10
9.473421112414282
 20
11.52565520755327
 30
0.0
 10
9.486345898652631
 20
11.40749361566879
 30
0.0
 10
9.541390615621037
 20
11.17459151908689
 30
0.0
 10
9.583730323587114
 20
11.06079117692803
 30
0.0
 10
9.638805742161708
 20
10.95392502366162
 30
0.0
  0
SPLINE
  5
29C
330
1F
100
AcDbEntity
  8
SK3
  6
SLD-Dashed
370
    18
100
AcDbSpline
210
0.0
220
0.0
230
1.0
 70
     8
 71
     3
 72
    18
 73
    14
 74
     0
 42
0.000000001
 43
0.00000001
 40
0.0
 40
0.0
 40
0.0
 40
0.0
 40
0.0501962867734933
 40
0.100030621443722
 40
0.1855667331187706
 40
0.2501823892320661
 40
0.3747066158220745
 40
0.4998232982189725
 40
0.6247294758455316
 40
0.7494251058857281
 40
0.8746331028690637
 40
0.9372230808189629
 40
1.0
 40
1.0
 40
1.0
 40
1.0
 10
3.94999980926513
 20
46.81625217199324
 30
0.0
 10
3.943300316086494
 20
46.81608987644936
 30
0.0
 10
3.929949637996678
 20
46.81576645563177
 30
0.0
 10
3.905360707408538
 20
46.81256644841149
 30
0.0
 10
3.87932797503484
 20
46.80630455045284
 30
0.0
 10
3.84499855915222
 20
46.79331441287614
 30
0.0
 10
3.808260726283935
 20
46.77246899328164
 30
0.0
 10
3.770344669424141
 20
46.73942158227162
 30
0.0
 10
3.739587354231942
 20
46.69961096259772
 30
0.0
 10
3.716933803701003
 20
46.65468825509573
 30
0.0
 10
3.705476699137068
 20
46.61434626740462
 30
0.0
 10
3.700675373963084
 20
46.58119822264523
 30
0.0
 10
3.700225349084735
 20
46.56446462375359
 30
0.0
 10
3.700000001117587
 20
46.55608534812927
 30
0.0
  0
SPLINE
  5
29D
330
1F
100
AcDbEntity
  8
1
  6
SLD-Dashed
370
    18
100
AcDbSpline
210
0.0
220
0.0
230
1.0
 70
     8
 71
     3
 72
     8
 73
     4
 74
     0
 42
0.000000001
 43
0.00000001
 40
0.0
 40
0.0
 40
0.0
 40
0.0
 40
1.0
 40
1.0
 40
1.0
 40
1.0
 10
9.200000000002047
 20
44.57901066343278
 30
0.0
 10
8.786353866861488
 20
45.32508460154089
 30
0.0
 10
8.372088490924067
 20
46.07082082932836
 30
0.0
 10
7.957289380062127
 20
46.81625358782998
 30
0.0
  0
SPLINE
  5
29E
330
1F
100
AcDbEntity
  8
1
  6
SLD-Dashed
370
    18
100
AcDbSpline
210
0.0
220
0.0
230
1.0
 70
     8
 71
     3
 72
    10
 73
     6
 74
     0
 42
0.000000001
 43
0.00000001
 40
0.0
 40
0.0
 40
0.0
 40
0.0
 40
0.5
 40
0.5
 40
1.0
 40
1.0
 40
1.0
 40
1.0
 10
9.950000000001248
 20
43.76943596849411
 30
0.0
 10
9.74877153622243
 20
43.7694359684938
 30
0.0
 10
9.55099067389224
 20
43.85856672856774
 30
0.0
 10
9.277097785723997
 20
44.15022946993274
 30
0.0
 10
9.200000000000319
 20
44.34957328976746
 30
0.0
 10
9.2
 20
44.551021593225
 30
0.0
  0
SPLINE
  5
29F
330
1F
100
AcDbEntity
  8
1
  6
SLD-Dashed
370
    18
100
AcDbSpline
210
0.0
220
0.0
230
1.0
 70
     8
 71
     3
 72
    12
 73
     8
 74
     0
 42
0.000000001
 43
0.00000001
 40
0.0
 40
0.0
 40
0.0
 40
0.0
 40
0.5000000000000048
 40
0.5000000000000048
 40
0.7500000000000023
 40
0.7500000000000023
 40
1.0
 40
1.0
 40
1.0
 40
1.0
 10
13.02999999999992
 20
44.55102159322492
 30
0.0
 10
13.02999999999991
 20
44.35104831812323
 30
0.0
 10
12.95399603318286
 20
44.15150826736608
 30
0.0
 10
12.74724095984756
 20
43.93116827138053
 30
0.0
 10
12.66314206268639
 20
43.87128621650957
 30
0.0
 10
12.48048875274074
 20
43.79084228716531
 30
0.0
 10
12.37984375713171
 20
43.76943596849291
 30
0.0
 10
12.28000000000003
 20
43.76943596849291
 30
0.0
  0
SPLINE
  5
2A0
330
1F
100
AcDbEntity
  8
1
  6
SLD-Dashed
370
    18
100
AcDbSpline
210
0.0
220
0.0
230
1.0
 70
     8
 71
     3
 72
     8
 73
     4
 74
     0
 42
0.000000001
 43
0.00000001
 40
0.0
 40
0.0
 40
0.0
 40
0.0
 40
1.0
 40
1.0
 40
1.0
 40
1.0
 10
14.27271061994656
 20
46.81625358782993
 30
0.0
 10
13.8579115193618
 20
46.0708207604433
 30
0.0
 10
13.44364615375124
 20
45.32508446377768
 30
0.0
 10
13.03000003099442
 20
44.57901045680045
 30
0.0
  0
SPLINE
  5
2A1
330
1F
100
AcDbEntity
  8
SK3
  6
SLD-Dashed
370
    18
100
AcDbSpline
210
0.0
220
0.0
230
1.0
 70
     8
 71
     3
 72
    18
 73
    14
 74
     0
 42
0.000000001
 43
0.00000001
 40
0.0
 40
0.0
 40
0.0
 40
0.0
 40
0.0502196103872459
 40
0.1000870260924544
 40
0.1855086368940347
 40
0.2501550808792018
 40
0.374658315746124
 40
0.499857085379306
 40
0.6242312608259575
 40
0.7494324099488543
 40
0.8740366596180059
 40
0.9370350243166945
 40
1.0
 40
1.0
 40
1.0
 40
1.0
 10
18.54999922215939
 20
46.55608534812928
 30
0.0
 10
18.54985537033291
 20
46.5627873347532
 30
0.0
 10
18.54956867552585
 20
46.57614430636105
 30
0.0
 10
18.5467251992461
 20
46.60076044393851
 30
0.0
 10
18.54114926602515
 20
46.62692274853119
 30
0.0
 10
18.52948519304387
 20
46.66169819623134
 30
0.0
 10
18.51054287881595
 20
46.69941891092378
 30
0.0
 10
18.47987136117368
 20
46.73918325317047
 30
0.0
 10
18.44197120724758
 20
46.77229160965817
 30
0.0
 10
18.39830142708263
 20
46.79720013110205
 30
0.0
 10
18.3582884685366
 20
46.81005953666655
 30
0.0
 10
18.325220094038
 20
46.81548403342103
 30
0.0
 10
18.3084055977871
 20
46.81599617105315
 30
0.0
 10
18.30000057816505
 20
46.81625217199326
 30
0.0
  0
SPLINE
  5
2A2
330
1F
100
AcDbEntity
  8
1
  6
SLD-Dashed
370
    18
100
AcDbSpline
210
0.0
220
0.0
230
1.0
 70
     8
 71
     3
 72
    12
 73
     8
 74
     0
 42
0.000000001
 43
0.00000001
 40
0.0
 40
0.0
 40
0.0
 40
0.0
 40
0.2499999999999967
 40
0.2499999999999967
 40
0.4999999999999933
 40
0.4999999999999933
 40
1.0
 40
1.0
 40
1.0
 40
1.0
 10
3.200000000000015
 20
-46.69763484374772
 30
0.0
 10
3.200000047525957
 20
-46.79851088351692
 30
0.0
 10
3.218629486584712
 20
-46.89733950714405
 30
0.0
 10
3.291844360545217
 20
-47.08411436608181
 30
0.0
 10
3.345979287564537
 20
-47.1699128026506
 30
0.0
 10
3.551871916676496
 20
-47.38753376639391
 30
0.0
 10
3.748026816100272
 20
-47.47548336365533
 30
0.0
 10
3.949999809265137
 20
-47.47548326849937
 30
0.0
  0
SPLINE
  5
2A3
330
1F
100
AcDbEntity
  8
1
  6
SLD-Dashed
370
    18
100
AcDbSpline
210
0.0
220
0.0
230
1.0
 70
     8
 71
     3
 72
    12
 73
     8
 74
     0
 42
0.000000001
 43
0.00000001
 40
0.0
 40
0.0
 40
0.0
 40
0.0
 40
0.2499999999999985
 40
0.2499999999999985
 40
0.499999999999997
 40
0.499999999999997
 40
1.0
 40
1.0
 40
1.0
 40
1.0
 10
18.30000057816505
 20
-47.47548326849938
 30
0.0
 10
18.40091644718472
 20
-47.47548328999611
 30
0.0
 10
18.50002196679984
 20
-47.45437606712623
 30
0.0
 10
18.68315248963473
 20
-47.37426822133935
 30
0.0
 10
18.76654505365343
 20
-47.31511580307365
 30
0.0
 10
18.97195148078454
 20
-47.09831945689221
 30
0.0
 10
19.04999995704867
 20
-46.89926880275771
 30
0.0
 10
19.05000000000001
 20
-46.69763484374771
 30
0.0
  0
SPLINE
  5
2A4
330
1F
100
AcDbEntity
  8
1
  6
SLD-Dashed
370
    18
100
AcDbSpline
210
0.0
220
0.0
230
1.0
 70
     8
 71
     3
 72
     8
 73
     4
 74
     0
 42
0.000000001
 43
0.00000001
 40
0.0
 40
0.0
 40
0.0
 40
0.0
 40
1.0
 40
1.0
 40
1.0
 40
1.0
 10
14.63972311466933
 20
-47.47548326849938
 30
0.0
 10
14.10222481900981
 20
-46.51049592619328
 30
0.0
 10
13.56559185903592
 20
-45.54503218791566
 30
0.0
 10
13.02999999999999
 20
-44.57901066343648
 30
0.0
  0
SPLINE
  5
2A5
330
1F
100
AcDbEntity
  8
1
  6
SLD-Dashed
370
    18
100
AcDbSpline
210
0.0
220
0.0
230
1.0
 70
     8
 71
     3
 72
    12
 73
     8
 74
     0
 42
0.000000001
 43
0.00000001
 40
0.0
 40
0.0
 40
0.0
 40
0.0
 40
0.5
 40
0.5
 40
0.75
 40
0.75
 40
1.0
 40
1.0
 40
1.0
 40
1.0
 10
13.03000000000026
 20
-44.55102159322527
 30
0.0
 10
13.03000000000035
 20
-44.35094747116185
 30
0.0
 10
12.95238692985021
 20
-44.14958800989084
 30
0.0
 10
12.74748896269969
 20
-43.93153570225749
 30
0.0
 10
12.6637277001479
 20
-43.87162606259755
 30
0.0
 10
12.48090790509572
 20
-43.79094541821721
 30
0.0
 10
12.38057331782441
 20
-43.76943596849286
 30
0.0
 10
12.28000000000003
 20
-43.76943596849289
 30
0.0
  0
SPLINE
  5
2A6
330
1F
100
AcDbEntity
  8
1
  6
SLD-Dashed
370
    18
100
AcDbSpline
210
0.0
220
0.0
230
1.0
 70
     8
 71
     3
 72
    12
 73
     8
 74
     0
 42
0.000000001
 43
0.00000001
 40
0.0
 40
0.0
 40
0.0
 40
0.0
 40
0.2500000000000039
 40
0.2500000000000039
 40
0.5000000000000078
 40
0.5000000000000078
 40
1.0
 40
1.0
 40
1.0
 40
1.0
 10
9.949999999999834
 20
-43.76943596849306
 30
0.0
 10
9.850030395358797
 20
-43.7694359684931
 30
0.0
 10
9.75011497476623
 20
-43.79051518316425
 30
0.0
 10
9.56550705776127
 20
-43.87194262843708
 30
0.0
 10
9.482715011846734
 20
-43.93126060501225
 30
0.0
 10
9.276579660402891
 20
-44.15080408372874
 30
0.0
 10
9.200000000000042
 20
-44.35163254795803
 30
0.0
 10
9.2
 20
-44.55102159322499
 30
0.0
  0
SPLINE
  5
2A7
330
1F
100
AcDbEntity
  8
1
  6
SLD-Dashed
370
    18
100
AcDbSpline
210
0.0
220
0.0
230
1.0
 70
     8
 71
     3
 72
     8
 73
     4
 74
     0
 42
0.000000001
 43
0.00000001
 40
0.0
 40
0.0
 40
0.0
 40
0.0
 40
1.0
 40
1.0
 40
1.0
 40
1.0
 10
9.2
 20
-44.57901066343647
 30
0.0
 10
8.6644080641247
 20
-45.54503218799334
 30
0.0
 10
8.127775027310177
 20
-46.51049592626648
 30
0.0
 10
7.590276654809713
 20
-47.47548326849937
 30
0.0
  0
SPLINE
  5
2A8
330
1F
100
AcDbEntity
  8
SK3
  6
SLD-Dashed
370
    18
100
AcDbSpline
210
0.0
220
0.0
230
1.0
 70
     8
 71
     3
 72
    34
 73
    30
 74
     0
 42
0.000000001
 43
0.00000001
 40
0.5000000000000003
 40
0.5000000000000003
 40
0.5000000000000003
 40
0.5000000000000003
 40
0.5625000000000013
 40
0.5625000000000013
 40
0.5937500000000011
 40
0.5937500000000011
 40
0.625000000000001
 40
0.625000000000001
 40
0.6562500000000009
 40
0.6562500000000009
 40
0.6875000000000008
 40
0.6875000000000008
 40
0.7187500000000007
 40
0.7187500000000007
 40
0.7500000000000004
 40
0.7500000000000004
 40
0.7812500000000003
 40
0.7812500000000003
 40
0.8125000000000002
 40
0.8125000000000002
 40
0.8437500000000001
 40
0.8437500000000001
 40
0.875
 40
0.875
 40
0.9062499999999999
 40
0.9062499999999999
 40
0.9374999999999997
 40
0.9374999999999997
 40
1.0
 40
1.0
 40
1.0
 40
1.0
 10
10.60808274902045
 20
14.67518531385665
 30
0.0
 10
10.77143994352721
 20
14.66271400222905
 30
0.0
 10
10.95396076821072
 20
14.6313797717228
 30
0.0
 10
11.25812245907615
 20
14.5469177059656
 30
0.0
 10
11.36641585866904
 20
14.51171888144388
 30
0.0
 10
11.58574352105282
 20
14.42634662926307
 30
0.0
 10
11.69715944869877
 20
14.37625545607605
 30
0.0
 10
11.92117180667888
 20
14.2548371163082
 30
0.0
 10
12.02893523597722
 20
14.18587333985283
 30
0.0
 10
12.22961030853029
 20
14.02983333564748
 30
0.0
 10
12.32267742835869
 20
13.94226901556095
 30
0.0
 10
12.48372543018653
 20
13.75415019217111
 30
0.0
 10
12.55366053916099
 20
13.65130323099261
 30
0.0
 10
12.66489321927143
 20
13.43691773984446
 30
0.0
 10
12.7071773018843
 20
13.32435113894572
 30
0.0
 10
12.76326417564931
 20
13.08988167819453
 30
0.0
 10
12.7763551192606
 20
12.97149039057748
 30
0.0
 10
12.77342672652905
 20
12.7321108433757
 30
0.0
 10
12.75684979458239
 20
12.61060743991047
 30
0.0
 10
12.69552150102997
 20
12.37773497196915
 30
0.0
 10
12.65033349294085
 20
12.26373909474825
 30
0.0
 10
12.53298957942557
 20
12.04909612932805
 30
0.0
 10
12.46214536200849
 20
11.95022400081661
 30
0.0
 10
12.29651277322139
 20
11.77143410287179
 30
0.0
 10
12.20150676240367
 20
11.692195887395
 30
0.0
 10
11.99926684334574
 20
11.56533020093841
 30
0.0
 10
11.88885801145315
 20
11.5158749716928
 30
0.0
 10
11.55399205333034
 20
11.42069275726627
 30
0.0
 10
11.32716468948122
 20
11.42871083881323
 30
0.0
 10
11.12500000000001
 20
11.48273236161757
 30
0.0
  0
SPLINE
  5
2A9
330
1F
100
AcDbEntity
  8
SK3
  6
SLD-Dashed
370
    18
100
AcDbSpline
210
0.0
220
0.0
230
1.0
 70
     8
 71
     3
 72
    30
 73
    26
 74
     0
 42
0.000000001
 43
0.00000001
 40
0.0
 40
0.0
 40
0.0
 40
0.0
 40
0.0624999999999997
 40
0.0624999999999997
 40
0.1249999999999995
 40
0.1249999999999995
 40
0.1562499999999993
 40
0.1562499999999993
 40
0.1874999999999992
 40
0.1874999999999992
 40
0.2187499999999991
 40
0.2187499999999991
 40
0.2499999999999989
 40
0.2499999999999989
 40
0.2812499999999988
 40
0.2812499999999988
 40
0.3124999999999987
 40
0.3124999999999987
 40
0.3437499999999986
 40
0.3437499999999986
 40
0.3749999999999984
 40
0.3749999999999984
 40
0.4374999999999994
 40
0.4374999999999994
 40
0.5000000000000003
 40
0.5000000000000003
 40
0.5000000000000003
 40
0.5000000000000003
 10
11.12500000000001
 20
11.48273236161757
 30
0.0
 10
10.92283531051877
 20
11.53675388442191
 30
0.0
 10
10.74714710048236
 20
11.63024516394925
 30
0.0
 10
10.42066988662171
 20
11.86454434722232
 30
0.0
 10
10.27375737476433
 20
12.00407384287209
 30
0.0
 10
10.07148943268484
 20
12.24177839203632
 30
0.0
 10
10.00699015299671
 20
12.32609339770682
 30
0.0
 10
9.883509956371189
 20
12.50701007175132
 30
0.0
 10
9.824268573097845
 20
12.60415729348404
 30
0.0
 10
9.71515470609033
 20
12.80934651131552
 30
0.0
 10
9.664396735733453
 20
12.91903622889808
 30
0.0
 10
9.576981863499118
 20
13.14891853741636
 30
0.0
 10
9.540303532497477
 20
13.26831266228052
 30
0.0
 10
9.487704529937997
 20
13.52080982106194
 30
0.0
 10
9.473745253197968
 20
13.64846695671306
 30
0.0
 10
9.47643808956057
 20
13.88700257856813
 30
0.0
 10
9.49319789642801
 20
13.99682053671473
 30
0.0
 10
9.549353346861217
 20
14.18374939795269
 30
0.0
 10
9.58858947784802
 20
14.2623151046244
 30
0.0
 10
9.678480018824306
 20
14.39201189392008
 30
0.0
 10
9.730204466999181
 20
14.44496665500974
 30
0.0
 10
9.89634859518447
 20
14.57471258814563
 30
0.0
 10
10.02083275682619
 20
14.62455209347292
 30
0.0
 10
10.29708420272973
 20
14.68178062150165
 30
0.0
 10
10.4447255545137
 20
14.68765662548425
 30
0.0
 10
10.60808274902045
 20
14.67518531385665
 30
0.0
  0
DIMENSION
  5
2AA
330
1F
100
AcDbEntity
  8
2
100
AcDbDimension
  2
_D
 10
101.5999985879
 20
73.6712504946
 30
0.0
 11
36.5347635704
 21
73.6712504946
 31
0.0
 70
   160
  1
<>
 71
     2
 42
-1.0
  3
SLDDIMSTYLE0
100
AcDbAlignedDimension
 13
-0.0000001842
 23
34.9249988794
 33
0.0
 14
101.5999985879
 24
17.7800003439
 34
0.0
100
AcDbRotatedDimension
  0
DIMENSION
  5
2BF
330
1F
100
AcDbEntity
  8
SK2
100
AcDbDimension
  2
_D_1
 10
19.05
 20
60.0593450707
 30
0.0
 11
47.0181407249
 21
60.0593450707
 31
0.0
 70
   160
  1
<>
 71
     2
 42
-1.0
  3
SLDDIMSTYLE0
100
AcDbAlignedDimension
 13
101.5999985879
 23
17.7800003439
 33
0.0
 14
19.05
 24
46.5560855313
 34
0.0
100
AcDbRotatedDimension
  0
DIMENSION
  5
2D2
330
1F
100
AcDbEntity
  8
SK2
100
AcDbDimension
  2
_D_2
 10
101.5999985879
 20
48.0132931198
 30
0.0
 11
67.1794274612
 21
48.0132931198
 31
0.0
 70
   160
  1
<>
 71
     2
 42
-1.0
  3
SLDDIMSTYLE0
100
AcDbAlignedDimension
 13
35.1000012815
 23
33.4010005513
 33
0.0
 14
101.5999985879
 24
17.7800003439
 34
0.0
 50
0.0
100
AcDbRotatedDimension
  0
DIMENSION
  5
2E5
330
1F
100
AcDbEntity
  8
SK2
100
AcDbDimension
  2
_D_3
 10
73.025
 20
35.079640922
 30
0.0
 11
85.5655017513
 21
35.079640922
 31
0.0
 70
   160
  1
<>
 71
     2
 42
-1.0
  3
SLDDIMSTYLE0
100
AcDbAlignedDimension
 13
101.5999985879
 23
17.7800003439
 33
0.0
 14
73.025
 24
25.3
 34
0.0
100
AcDbRotatedDimension
  0
DIMENSION
  5
2F8
330
1F
100
AcDbEntity
  8
SK2
100
AcDbDimension
  2
_D_4
 10
47.625
 20
35.079640922
 30
0.0
 11
61.219800246
 21
35.079640922
 31
0.0
 70
   160
  1
<>
 71
     2
 42
-1.0
  3
SLDDIMSTYLE0
100
AcDbAlignedDimension
 13
73.025
 23
25.3
 33
0.0
 14
47.625
 24
25.3
 34
0.0
100
AcDbRotatedDimension
  0
DIMENSION
  5
30B
330
1F
100
AcDbEntity
  8
SK2
100
AcDbDimension
  2
_D_5
 10
19.05
 20
60.0593450707
 30
0.0
 11
9.2315834897
 21
60.0593450707
 31
0.0
 70
   160
  1
<>
 71
     2
 42
-1.0
  3
SLDDIMSTYLE1
100
AcDbAlignedDimension
 13
-0.0000001842
 23
34.9249988794
 33
0.0
 14
19.05
 24
46.5560855313
 34
0.0
100
AcDbRotatedDimension
  0
DIMENSION
  5
316
330
1F
100
AcDbEntity
  8
SK2
100
AcDbDimension
  2
_D_6
 10
120.397606978
 20
-12.6999998465
 30
0.0
 11
120.397606978
 21
0.2703597904
 31
0.0
 70
   160
  1
%%c<>
 71
     2
 42
-1.0
  3
SLDDIMSTYLE2
100
AcDbAlignedDimension
 13
100.1000031829
 23
12.6999998465
 33
0.0
 14
100.1000031829
 24
-12.6999998465
 34
0.0
 50
90.0
100
AcDbRotatedDimension
  0
DIMENSION
  5
32B
330
1F
100
AcDbEntity
  8
SK2
100
AcDbDimension
  2
_D_7
 10
134.6398423587
 20
-17.7800003439
 30
0.0
 11
134.6398423587
 21
0.2703597904
 31
0.0
 70
   160
  1
%%c<>
 71
     2
 42
-1.0
  3
SLDDIMSTYLE0
100
AcDbAlignedDimension
 13
101.5999985879
 23
17.7800003439
 33
0.0
 14
101.5999985879
 24
-17.7800003439
 34
0.0
 50
90.0
100
AcDbRotatedDimension
  0
DIMENSION
  5
33D
330
1F
100
AcDbEntity
  8
SK2
100
AcDbDimension
  2
_D_8
 10
148.699484978
 20
-25.399999693
 30
0.0
 11
148.699484978
 21
0.2703597904
 31
0.0
 70
   160
  1
%%c<>
 71
     2
 42
-1.0
  3
SLDDIMSTYLE0
100
AcDbAlignedDimension
 13
93.9799992388
 23
25.399999693
 33
0.0
 14
93.9799992388
 24
-25.399999693
 34
0.0
 50
90.0
100
AcDbRotatedDimension
  0
DIMENSION
  5
34F
330
1F
100
AcDbEntity
  8
SK2
100
AcDbDimension
  2
_D_9
 10
101.5999985879
 20
-64.5178826012
 30
0.0
 11
-9.8492927587
 21
-64.5178826012
 31
0.0
 70
   160
  1
<>
 71
     2
 42
-1.0
  3
SLDDIMSTYLE0
100
AcDbAlignedDimension
 13
-101.6000005488
 23
-18.2922329752
 33
0.0
 14
101.5999985879
 24
-17.7800003439
 34
0.0
100
AcDbRotatedDimension
  0
DIMENSION
  5
362
330
1F
100
AcDbEntity
  8
SK2
100
AcDbDimension
  2
_D_10
 10
101.5999985879
 20
-48.5508534329
 30
0.0
 11
64.1596837509
 21
-48.5508534329
 31
0.0
 70
   160
  1
<>
 71
     2
 42
-1.0
  3
SLDDIMSTYLE0
100
AcDbAlignedDimension
 13
31.7500005983
 23
-12.7249996863
 33
0.0
 14
101.5999985879
 24
-17.7800003439
 34
0.0
100
AcDbRotatedDimension
  0
DIMENSION
  5
375
330
1F
100
AcDbEntity
  8
SK2
100
AcDbDimension
  2
_D_11
 10
101.5999985879
 20
-41.2991407873
 30
0.0
 11
85.5655017513
 21
-41.2991407873
 31
0.0
 70
   160
  1
<>
 71
     2
 42
-1.0
  3
SLDDIMSTYLE3
100
AcDbAlignedDimension
 13
93.9799992388
 23
-25.399999693
 33
0.0
 14
101.5999985879
 24
-17.7800003439
 34
0.0
100
AcDbRotatedDimension
  0
DIMENSION
  5
382
330
1F
100
AcDbEntity
  8
SK2
100
AcDbDimension
  2
_D_12
 10
-122.1907759635
 20
47.2968067907
 30
0.0
 11
-122.1907731213
 21
0.2703597904
 31
0.0
 70
   160
  1
%%c<>
 71
     2
 42
-1.0
  3
SLDDIMSTYLE1
100
AcDbAlignedDimension
 13
5.770138232
 23
-47.4754832685
 33
0.0
 14
3.95
 24
47.2968144146
 34
0.0
 50
-89.9999965371
100
AcDbRotatedDimension
  0
DIMENSION
  5
38D
330
1F
100
AcDbEntity
  8
SK2
100
AcDbDimension
  2
_D_13
 10
-111.121605331
 20
-12.6999998465
 30
0.0
 11
-111.121605331
 21
0.2703597904
 31
0.0
 70
   160
  1
<>
 71
     2
 42
-1.0
  3
SLDDIMSTYLE1
100
AcDbAlignedDimension
 13
-94.967097044
 23
12.6999998465
 33
0.0
 14
-94.967097044
 24
-12.6999998465
 34
0.0
 50
90.0
100
AcDbRotatedDimension
  0
MTEXT
  5
398
330
1F
100
AcDbEntity
  8
SK6
 62
     5
100
AcDbMText
 10
-62.5131659755
 20
-37.8130981205
 30
0.0
 40
3.5
 41
0.0
 71
     1
 72
     1
  1
AA3B20-50 25 101
  7
SLDTEXTSTYLE0
 73
     1
 44
1.0
  0
MTEXT
  5
399
330
1F
100
AcDbEntity
  8
SK6
 62
     5
100
AcDbMText
 10
-67.9518509492
 20
41.4853177113
 30
0.0
 40
3.5
 41
0.0
 71
     1
 72
     1
  1
ASME B5.50 CAT 50
  7
SLDTEXTSTYLE0
 73
     1
 44
1.0
  0
ENDSEC
  0
SECTION
  2
OBJECTS
  0
DICTIONARY
  5
C
330
0
100
AcDbDictionary
281
     1
  3
ACAD_GROUP
350
D
  3
ACAD_LAYOUT
350
1A
  3
ACAD_MLINESTYLE
350
17
  3
ACAD_PLOTSETTINGS
350
19
  3
ACAD_PLOTSTYLENAME
350
E
  3
ACAD_SCALELIST
350
47
  0
DICTIONARY
  5
D
102
{ACAD_REACTORS
330
C
102
}
330
C
100
AcDbDictionary
281
     1
  0
DICTIONARY
  5
1A
102
{ACAD_REACTORS
330
C
102
}
330
C
100
AcDbDictionary
281
     1
  3
Layout1
350
1E
  3
Layout2
350
26
  3
Model
350
22
  0
DICTIONARY
  5
17
102
{ACAD_REACTORS
330
C
102
}
330
C
100
AcDbDictionary
281
     1
  3
Standard
350
18
  0
DICTIONARY
  5
19
102
{ACAD_REACTORS
330
C
102
}
330
C
100
AcDbDictionary
281
     1
  0
ACDBDICTIONARYWDFLT
  5
E
102
{ACAD_REACTORS
330
C
102
}
330
C
100
AcDbDictionary
281
     1
  3
Normal
350
F
100
AcDbDictionaryWithDefault
340
F
  0
DICTIONARY
  5
47
102
{ACAD_REACTORS
330
C
102
}
330
C
100
AcDbDictionary
281
     1
  3
A0
350
48
  3
A1
350
49
  3
A2
350
4A
  3
A3
350
4B
  3
A4
350
4C
  3
A5
350
4D
  3
A6
350
4E
  3
A7
350
4F
  3
A8
350
50
  3
A9
350
51
  3
B0
350
52
  3
B1
350
53
  3
B2
350
54
  3
B3
350
55
  3
B4
350
56
  3
B5
350
57
  3
B6
350
58
  3
B7
350
59
  3
B8
350
5A
  3
B9
350
5B
  3
C0
350
5C
  3
C1
350
5D
  3
C2
350
5E
  3
C3
350
5F
  3
C4
350
60
  3
C5
350
61
  3
C6
350
62
  3
C7
350
63
  3
C8
350
64
  3
C9
350
65
  3
D0
350
66
  3
D1
350
67
  3
D2
350
68
  0
LAYOUT
  5
1E
102
{ACAD_REACTORS
330
1A
102
}
330
1A
100
AcDbPlotSettings
  1

  2
none_device
  4

  6

 40
0.0
 41
0.0
 42
0.0
 43
0.0
 44
0.0
 45
0.0
 46
0.0
 47
0.0
 48
0.0
 49
0.0
140
0.0
141
0.0
142
1.0
143
1.0
 70
   688
 72
     1
 73
     0
 74
     5
  7

 75
    16
147
1.0
148
0.0
149
0.0
100
AcDbLayout
  1
Layout1
 70
     1
 71
     1
 10
0.0
 20
0.0
 11
420.0
 21
297.0
 12
0.0
 22
0.0
 32
0.0
 14
1.0000000000E+20
 24
1.0000000000E+20
 34
1.0000000000E+20
 15
-1.0000000000E+20
 25
-1.0000000000E+20
 35
-1.0000000000E+20
146
0.0
 13
0.0
 23
0.0
 33
0.0
 16
1.0
 26
0.0
 36
0.0
 17
0.0
 27
1.0
 37
0.0
 76
     0
330
1B
  0
LAYOUT
  5
26
102
{ACAD_REACTORS
330
1A
102
}
330
1A
100
AcDbPlotSettings
  1

  2
none_device
  4

  6

 40
0.0
 41
0.0
 42
0.0
 43
0.0
 44
0.0
 45
0.0
 46
0.0
 47
0.0
 48
0.0
 49
0.0
140
0.0
141
0.0
142
1.0
143
1.0
 70
   688
 72
     1
 73
     0
 74
     5
  7

 75
    16
147
1.0
148
0.0
149
0.0
100
AcDbLayout
  1
Layout2
 70
     1
 71
     2
 10
0.0
 20
0.0
 11
0.0
 21
0.0
 12
0.0
 22
0.0
 32
0.0
 14
0.0
 24
0.0
 34
0.0
 15
0.0
 25
0.0
 35
0.0
146
0.0
 13
0.0
 23
0.0
 33
0.0
 16
1.0
 26
0.0
 36
0.0
 17
0.0
 27
1.0
 37
0.0
 76
     0
330
23
  0
LAYOUT
  5
22
102
{ACAD_REACTORS
330
1A
102
}
330
1A
100
AcDbPlotSettings
  1

  2
none_device
  4
Letter_(8.50_x_11.00_Inches)
  6

 40
6.35
 41
6.35
 42
6.35000508
 43
6.35000508
 44
215.9
 45
279.4
 46
0.0
 47
0.0
 48
0.0
 49
0.0
140
0.0
141
0.0
142
1.0
143
1.0
 70
  1712
 72
     1
 73
     0
 74
     0
  7

 75
     0
147
1.0
148
0.0
149
0.0
100
AcDbLayout
  1
Model
 70
     1
 71
     0
 10
0.0
 20
0.0
 11
297.0
 21
210.0
 12
0.0
 22
0.0
 32
0.0
 14
0.0
 24
0.0
 34
0.0
 15
297.0
 25
210.0
 35
0.0
146
0.0
 13
0.0
 23
0.0
 33
0.0
 16
1.0
 26
0.0
 36
0.0
 17
0.0
 27
1.0
 37
0.0
 76
     0
330
1F
331
29
  0
MLINESTYLE
  5
18
102
{ACAD_REACTORS
330
17
102
}
330
17
100
AcDbMlineStyle
  2
Standard
 70
     0
  3

 62
   256
 51
90.0
 52
90.0
 71
     2
 49
0.5
 62
   256
  6
BYLAYER
 49
-0.5
 62
   256
  6
BYLAYER
  0
ACDBPLACEHOLDER
  5
F
102
{ACAD_REACTORS
330
E
102
}
330
E
  0
SCALE
  5
48
102
{ACAD_REACTORS
330
47
102
}
330
47
100
AcDbScale
 70
     0
300
1:1
140
1.0
141
1.0
290
     1
  0
SCALE
  5
49
102
{ACAD_REACTORS
330
47
102
}
330
47
100
AcDbScale
 70
     0
300
1:2
140
1.0
141
2.0
290
     0
  0
SCALE
  5
4A
102
{ACAD_REACTORS
330
47
102
}
330
47
100
AcDbScale
 70
     0
300
1:4
140
1.0
141
4.0
290
     0
  0
SCALE
  5
4B
102
{ACAD_REACTORS
330
47
102
}
330
47
100
AcDbScale
 70
     0
300
1:5
140
1.0
141
5.0
290
     0
  0
SCALE
  5
4C
102
{ACAD_REACTORS
330
47
102
}
330
47
100
AcDbScale
 70
     0
300
1:8
140
1.0
141
8.0
290
     0
  0
SCALE
  5
4D
102
{ACAD_REACTORS
330
47
102
}
330
47
100
AcDbScale
 70
     0
300
1:10
140
1.0
141
10.0
290
     0
  0
SCALE
  5
4E
102
{ACAD_REACTORS
330
47
102
}
330
47
100
AcDbScale
 70
     0
300
1:16
140
1.0
141
16.0
290
     0
  0
SCALE
  5
4F
102
{ACAD_REACTORS
330
47
102
}
330
47
100
AcDbScale
 70
     0
300
1:20
140
1.0
141
20.0
290
     0
  0
SCALE
  5
50
102
{ACAD_REACTORS
330
47
102
}
330
47
100
AcDbScale
 70
     0
300
1:30
140
1.0
141
30.0
290
     0
  0
SCALE
  5
51
102
{ACAD_REACTORS
330
47
102
}
330
47
100
AcDbScale
 70
     0
300
1:40
140
1.0
141
40.0
290
     0
  0
SCALE
  5
52
102
{ACAD_REACTORS
330
47
102
}
330
47
100
AcDbScale
 70
     0
300
1:50
140
1.0
141
50.0
290
     0
  0
SCALE
  5
53
102
{ACAD_REACTORS
330
47
102
}
330
47
100
AcDbScale
 70
     0
300
1:100
140
1.0
141
100.0
290
     0
  0
SCALE
  5
54
102
{ACAD_REACTORS
330
47
102
}
330
47
100
AcDbScale
 70
     0
300
2:1
140
2.0
141
1.0
290
     0
  0
SCALE
  5
55
102
{ACAD_REACTORS
330
47
102
}
330
47
100
AcDbScale
 70
     0
300
4:1
140
4.0
141
1.0
290
     0
  0
SCALE
  5
56
102
{ACAD_REACTORS
330
47
102
}
330
47
100
AcDbScale
 70
     0
300
8:1
140
8.0
141
1.0
290
     0
  0
SCALE
  5
57
102
{ACAD_REACTORS
330
47
102
}
330
47
100
AcDbScale
 70
     0
300
10:1
140
10.0
141
1.0
290
     0
  0
SCALE
  5
58
102
{ACAD_REACTORS
330
47
102
}
330
47
100
AcDbScale
 70
     0
300
100:1
140
100.0
141
1.0
290
     0
  0
SCALE
  5
59
102
{ACAD_REACTORS
330
47
102
}
330
47
100
AcDbScale
 70
     0
300
1/128" = 1'-0"
140
0.0078125
141
12.0
290
     0
  0
SCALE
  5
5A
102
{ACAD_REACTORS
330
47
102
}
330
47
100
AcDbScale
 70
     0
300
1/64" = 1'-0"
140
0.015625
141
12.0
290
     0
  0
SCALE
  5
5B
102
{ACAD_REACTORS
330
47
102
}
330
47
100
AcDbScale
 70
     0
300
1/32" = 1'-0"
140
0.03125
141
12.0
290
     0
  0
SCALE
  5
5C
102
{ACAD_REACTORS
330
47
102
}
330
47
100
AcDbScale
 70
     0
300
1/16" = 1'-0"
140
0.0625
141
12.0
290
     0
  0
SCALE
  5
5D
102
{ACAD_REACTORS
330
47
102
}
330
47
100
AcDbScale
 70
     0
300
3/32" = 1'-0"
140
0.09375
141
12.0
290
     0
  0
SCALE
  5
5E
102
{ACAD_REACTORS
330
47
102
}
330
47
100
AcDbScale
 70
     0
300
1/8" = 1'-0"
140
0.125
141
12.0
290
     0
  0
SCALE
  5
5F
102
{ACAD_REACTORS
330
47
102
}
330
47
100
AcDbScale
 70
     0
300
3/16" = 1'-0"
140
0.1875
141
12.0
290
     0
  0
SCALE
  5
60
102
{ACAD_REACTORS
330
47
102
}
330
47
100
AcDbScale
 70
     0
300
1/4" = 1'-0"
140
0.25
141
12.0
290
     0
  0
SCALE
  5
61
102
{ACAD_REACTORS
330
47
102
}
330
47
100
AcDbScale
 70
     0
300
3/8" = 1'-0"
140
0.375
141
12.0
290
     0
  0
SCALE
  5
62
102
{ACAD_REACTORS
330
47
102
}
330
47
100
AcDbScale
 70
     0
300
1/2" = 1'-0"
140
0.5
141
12.0
290
     0
  0
SCALE
  5
63
102
{ACAD_REACTORS
330
47
102
}
330
47
100
AcDbScale
 70
     0
300
3/4" = 1'-0"
140
0.75
141
12.0
290
     0
  0
SCALE
  5
64
102
{ACAD_REACTORS
330
47
102
}
330
47
100
AcDbScale
 70
     0
300
1" = 1'-0"
140
1.0
141
12.0
290
     0
  0
SCALE
  5
65
102
{ACAD_REACTORS
330
47
102
}
330
47
100
AcDbScale
 70
     0
300
1-1/2" = 1'-0"
140
1.5
141
12.0
290
     0
  0
SCALE
  5
66
102
{ACAD_REACTORS
330
47
102
}
330
47
100
AcDbScale
 70
     0
300
3" = 1'-0"
140
3.0
141
12.0
290
     0
  0
SCALE
  5
67
102
{ACAD_REACTORS
330
47
102
}
330
47
100
AcDbScale
 70
     0
300
6" = 1'-0"
140
6.0
141
12.0
290
     0
  0
SCALE
  5
68
102
{ACAD_REACTORS
330
47
102
}
330
47
100
AcDbScale
 70
     0
300
1'-0" = 1'-0"
140
12.0
141
12.0
290
     0
  0
ENDSEC
  0
EOF
