  0
SECTION
  2
HEADER
  9
$ACADVER
  1
AC1015
  9
$ACADMAINTVER
 70
     6
  9
$DWGCODEPAGE
  3
ANSI_1250
  9
$INSBASE
 10
0.0
 20
0.0
 30
0.0
  9
$EXTMIN
 10
0.0
 20
0.0
 30
0.0
  9
$EXTMAX
 10
297.0
 20
210.0
 30
0.0
  9
$LIMMIN
 10
0.0
 20
0.0
  9
$LIMMAX
 10
297.0
 20
210.0
  9
$ORTHOMODE
 70
     0
  9
$REGENMODE
 70
     1
  9
$FILLMODE
 70
     1
  9
$QTEXTMODE
 70
     0
  9
$MIRRTEXT
 70
     1
  9
$LTSCALE
 40
1.0
  9
$ATTMODE
 70
     1
  9
$TEXTSIZE
 40
3.5
  9
$TRACEWID
 40
1.0
  9
$TEXTSTYLE
  7
Standard
  9
$CLAYER
  8
0
  9
$CELTYPE
  6
ByLayer
  9
$CECOLOR
 62
   256
  9
$CELTSCALE
 40
1.0
  9
$DISPSILH
 70
     0
  9
$DIMSCALE
 40
1.0
  9
$DIMASZ
 40
3.302
  9
$DIMEXO
 40
1.0
  9
$DIMDLI
 40
3.75
  9
$DIMRND
 40
0.0
  9
$DIMDLE
 40
0.0
  9
$DIMEXE
 40
1.0
  9
$DIMTP
 40
0.0
  9
$DIMTM
 40
0.0
  9
$DIMTXT
 40
3.5
  9
$DIMCEN
 40
2.5
  9
$DIMTSZ
 40
0.0
  9
$DIMTOL
 70
     0
  9
$DIMLIM
 70
     0
  9
$DIMTIH
 70
     1
  9
$DIMTOH
 70
     1
  9
$DIMSE1
 70
     0
  9
$DIMSE2
 70
     0
  9
$DIMTAD
 70
     1
  9
$DIMZIN
 70
     0
  9
$DIMBLK
  1

  9
$DIMASO
 70
     1
  9
$DIMSHO
 70
     1
  9
$DIMPOST
  1

  9
$DIMAPOST
  1

  9
$DIMALT
 70
     0
  9
$DIMALTD
 70
     3
  9
$DIMALTF
 40
0.0393700787
  9
$DIMLFAC
 40
1.0
  9
$DIMTOFL
 70
     1
  9
$DIMTVP
 40
0.0
  9
$DIMTIX
 70
     0
  9
$DIMSOXD
 70
     0
  9
$DIMSAH
 70
     0
  9
$DIMBLK1
  1

  9
$DIMBLK2
  1

  9
$DIMSTYLE
  2
ISO-25
  9
$DIMCLRD
 70
     0
  9
$DIMCLRE
 70
     0
  9
$DIMCLRT
 70
     0
  9
$DIMTFAC
 40
1.0
  9
$DIMGAP
 40
1.524
  9
$DIMJUST
 70
     0
  9
$DIMSD1
 70
     0
  9
$DIMSD2
 70
     0
  9
$DIMTOLJ
 70
     0
  9
$DIMTZIN
 70
     0
  9
$DIMALTZ
 70
     0
  9
$DIMALTTZ
 70
     0
  9
$DIMUPT
 70
     0
  9
$DIMDEC
 70
     2
  9
$DIMTDEC
 70
     2
  9
$DIMALTU
 70
     2
  9
$DIMALTTD
 70
     3
  9
$DIMTXSTY
  7
Standard
  9
$DIMAUNIT
 70
     0
  9
$DIMADEC
 70
     2
  9
$DIMALTRND
 40
0.0
  9
$DIMAZIN
 70
     0
  9
$DIMDSEP
 70
    44
  9
$DIMATFIT
 70
     3
  9
$DIMFRAC
 70
     0
  9
$DIMLDRBLK
  1

  9
$DIMLUNIT
 70
     2
  9
$DIMLWD
 70
    -2
  9
$DIMLWE
 70
    -2
  9
$DIMTMOVE
 70
     0
  9
$LUNITS
 70
     2
  9
$LUPREC
 70
     2
  9
$SKETCHINC
 40
1.0
  9
$FILLETRAD
 40
10.0
  9
$AUNITS
 70
     0
  9
$AUPREC
 70
     2
  9
$MENU
  1
.
  9
$ELEVATION
 40
0.0
  9
$PELEVATION
 40
0.0
  9
$THICKNESS
 40
0.0
  9
$LIMCHECK
 70
     0
  9
$CHAMFERA
 40
0.0
  9
$CHAMFERB
 40
0.0
  9
$CHAMFERC
 40
0.0
  9
$CHAMFERD
 40
0.0
  9
$SKPOLY
 70
     0
  9
$TDCREATE
 40
2459278.336170185
  9
$TDUCREATE
 40
2459278.294503518
  9
$TDUPDATE
 40
2459278.336172129
  9
$TDUUPDATE
 40
2459278.294505463
  9
$TDINDWG
 40
0.0000000116
  9
$TDUSRTIMER
 40
0.0000000116
  9
$USRTIMER
 70
     1
  9
$ANGBASE
 50
0.0
  9
$ANGDIR
 70
     0
  9
$PDMODE
 70
     0
  9
$PDSIZE
 40
-1.0
  9
$PLINEWID
 40
0.0
  9
$SPLFRAME
 70
     0
  9
$SPLINETYPE
 70
     6
  9
$SPLINESEGS
 70
     8
  9
$HANDSEED
  5
33D
  9
$SURFTAB1
 70
     6
  9
$SURFTAB2
 70
     6
  9
$SURFTYPE
 70
     6
  9
$SURFU
 70
     6
  9
$SURFV
 70
     6
  9
$UCSBASE
  2

  9
$UCSNAME
  2

  9
$UCSORG
 10
0.0
 20
0.0
 30
0.0
  9
$UCSXDIR
 10
1.0
 20
0.0
 30
0.0
  9
$UCSYDIR
 10
0.0
 20
1.0
 30
0.0
  9
$UCSORTHOREF
  2

  9
$UCSORTHOVIEW
 70
     0
  9
$UCSORGTOP
 10
0.0
 20
0.0
 30
0.0
  9
$UCSORGBOTTOM
 10
0.0
 20
0.0
 30
0.0
  9
$UCSORGLEFT
 10
0.0
 20
0.0
 30
0.0
  9
$UCSORGRIGHT
 10
0.0
 20
0.0
 30
0.0
  9
$UCSORGFRONT
 10
0.0
 20
0.0
 30
0.0
  9
$UCSORGBACK
 10
0.0
 20
0.0
 30
0.0
  9
$PUCSBASE
  2

  9
$PUCSNAME
  2

  9
$PUCSORG
 10
0.0
 20
0.0
 30
0.0
  9
$PUCSXDIR
 10
1.0
 20
0.0
 30
0.0
  9
$PUCSYDIR
 10
0.0
 20
1.0
 30
0.0
  9
$PUCSORTHOREF
  2

  9
$PUCSORTHOVIEW
 70
     0
  9
$PUCSORGTOP
 10
0.0
 20
0.0
 30
0.0
  9
$PUCSORGBOTTOM
 10
0.0
 20
0.0
 30
0.0
  9
$PUCSORGLEFT
 10
0.0
 20
0.0
 30
0.0
  9
$PUCSORGRIGHT
 10
0.0
 20
0.0
 30
0.0
  9
$PUCSORGFRONT
 10
0.0
 20
0.0
 30
0.0
  9
$PUCSORGBACK
 10
0.0
 20
0.0
 30
0.0
  9
$USERI1
 70
     0
  9
$USERI2
 70
     0
  9
$USERI3
 70
     0
  9
$USERI4
 70
     0
  9
$USERI5
 70
     0
  9
$USERR1
 40
0.0
  9
$USERR2
 40
0.0
  9
$USERR3
 40
0.0
  9
$USERR4
 40
0.0
  9
$USERR5
 40
0.0
  9
$WORLDVIEW
 70
     1
  9
$SHADEDGE
 70
     3
  9
$SHADEDIF
 70
    70
  9
$TILEMODE
 70
     1
  9
$MAXACTVP
 70
    64
  9
$PINSBASE
 10
0.0
 20
0.0
 30
0.0
  9
$PLIMCHECK
 70
     0
  9
$PEXTMIN
 10
1.0000000000E+20
 20
1.0000000000E+20
 30
1.0000000000E+20
  9
$PEXTMAX
 10
-1.0000000000E+20
 20
-1.0000000000E+20
 30
-1.0000000000E+20
  9
$PLIMMIN
 10
0.0
 20
0.0
  9
$PLIMMAX
 10
420.0
 20
297.0
  9
$UNITMODE
 70
     0
  9
$VISRETAIN
 70
     1
  9
$PLINEGEN
 70
     0
  9
$PSLTSCALE
 70
     1
  9
$TREEDEPTH
 70
  3020
  9
$CMLSTYLE
  2
Standard
  9
$CMLJUST
 70
     0
  9
$CMLSCALE
 40
20.0
  9
$PROXYGRAPHICS
 70
     1
  9
$MEASUREMENT
 70
     1
  9
$CELWEIGHT
370
    -1
  9
$ENDCAPS
280
     0
  9
$JOINSTYLE
280
     0
  9
$LWDISPLAY
290
     1
  9
$INSUNITS
 70
     4
  9
$HYPERLINKBASE
  1

  9
$STYLESHEET
  1

  9
$XEDIT
290
     1
  9
$CEPSNTYPE
380
     0
  9
$PSTYLEMODE
290
     1
  9
$FINGERPRINTGUID
  2
{E5598CD5-1C8F-4776-964B-C595B1CA060E}
  9
$VERSIONGUID
  2
{FAEB1C32-E019-11D5-929B-00C0DF256EC4}
  9
$EXTNAMES
290
     1
  9
$PSVPSCALE
 40
0.0
  9
$OLESTARTUP
290
     0
  0
ENDSEC
  0
SECTION
  2
CLASSES
  0
CLASS
  1
ACDBDICTIONARYWDFLT
  2
AcDbDictionaryWithDefault
  3
ObjectDBX Classes
 90
        0
280
     0
281
     0
  0
CLASS
  1
VISUALSTYLE
  2
AcDbVisualStyle
  3
ObjectDBX Classes
 90
     4095
280
     0
281
     0
  0
CLASS
  1
MATERIAL
  2
AcDbMaterial
  3
ObjectDBX Classes
 90
     1153
280
     0
281
     0
  0
CLASS
  1
SCALE
  2
AcDbScale
  3
ObjectDBX Classes
 90
     1153
280
     0
281
     0
  0
CLASS
  1
TABLESTYLE
  2
AcDbTableStyle
  3
ObjectDBX Classes
 90
     4095
280
     0
281
     0
  0
CLASS
  1
MLEADERSTYLE
  2
AcDbMLeaderStyle
  3
ACDB_MLEADERSTYLE_CLASS
 90
     4095
280
     0
281
     0
  0
CLASS
  1
SUN
  2
AcDbSun
  3
SCENEOE
 90
     1153
280
     0
281
     0
  0
CLASS
  1
ACDBPLACEHOLDER
  2
AcDbPlaceHolder
  3
ObjectDBX Classes
 90
        0
280
     0
281
     0
  0
CLASS
  1
LAYOUT
  2
AcDbLayout
  3
ObjectDBX Classes
 90
        0
280
     0
281
     0
  0
ENDSEC
  0
SECTION
  2
TABLES
  0
TABLE
  2
VPORT
  5
8
330
0
100
AcDbSymbolTable
 70
     1
  0
VPORT
  5
29
330
8
100
AcDbSymbolTableRecord
100
AcDbViewportTableRecord
  2
*Active
 70
     0
 10
0.0
 20
0.0
 11
1.0
 21
1.0
 12
148.5
 22
105.0
 13
0.0
 23
0.0
 14
10.0
 24
10.0
 15
10.0
 25
10.0
 16
0.0
 26
0.0
 36
1.0
 17
0.0
 27
0.0
 37
0.0
 40
210.0
 41
1.4142857143
 42
50.0
 43
0.0
 44
0.0
 50
0.0
 51
0.0
 71
     0
 72
  2000
 73
     1
 74
     3
 75
     0
 76
     0
 77
     0
 78
     0
281
     0
 65
     1
110
0.0
120
0.0
130
0.0
111
1.0
121
0.0
131
0.0
112
0.0
122
1.0
132
0.0
 79
     0
146
0.0
  0
ENDTAB
  0
TABLE
  2
LTYPE
  5
5
330
0
100
AcDbSymbolTable
 70
     8
  0
LTYPE
  5
14
330
5
100
AcDbSymbolTableRecord
100
AcDbLinetypeTableRecord
  2
ByBlock
 70
     0
  3

 72
    65
 73
     0
 40
0.0
  0
LTYPE
  5
15
330
5
100
AcDbSymbolTableRecord
100
AcDbLinetypeTableRecord
  2
ByLayer
 70
     0
  3

 72
    65
 73
     0
 40
0.0
  0
LTYPE
  5
16
330
5
100
AcDbSymbolTableRecord
100
AcDbLinetypeTableRecord
  2
Continuous
 70
     0
  3
Solid line
 72
    65
 73
     0
 40
0.0
  0
LTYPE
  5
6E
330
5
100
AcDbSymbolTableRecord
100
AcDbLinetypeTableRecord
  2
SLD-Solid
 70
     0
  3
SolidWorks Line Style
 72
    65
 73
     0
 40
0.0
  0
LTYPE
  5
6F
330
5
100
AcDbSymbolTableRecord
100
AcDbLinetypeTableRecord
  2
SLD-Dashed
 70
     0
  3
SolidWorks Line Style
 72
    65
 73
     2
 40
1.905
 49
1.27
 74
     0
 49
-0.635
 74
     0
  0
LTYPE
  5
70
330
5
100
AcDbSymbolTableRecord
100
AcDbLinetypeTableRecord
  2
SLD-Phantom
 70
     0
  3
SolidWorks Line Style
 72
    65
 73
     6
 40
12.7
 49
6.35
 74
     0
 49
-1.27
 74
     0
 49
1.27
 74
     0
 49
-1.27
 74
     0
 49
1.27
 74
     0
 49
-1.27
 74
     0
  0
LTYPE
  5
71
330
5
100
AcDbSymbolTableRecord
100
AcDbLinetypeTableRecord
  2
SLD-Chain
 70
     0
  3
SolidWorks Line Style
 72
    65
 73
     4
 40
10.16
 49
6.35
 74
     0
 49
-1.27
 74
     0
 49
1.27
 74
     0
 49
-1.27
 74
     0
  0
LTYPE
  5
72
330
5
100
AcDbSymbolTableRecord
100
AcDbLinetypeTableRecord
  2
SLD-Center
 70
     0
  3
SolidWorks Line Style
 72
    65
 73
     4
 40
19.05
 49
15.24
 74
     0
 49
-1.27
 74
     0
 49
1.27
 74
     0
 49
-1.27
 74
     0
  0
LTYPE
  5
73
330
5
100
AcDbSymbolTableRecord
100
AcDbLinetypeTableRecord
  2
SLD-Stitch
 70
     0
  3
SolidWorks Line Style
 72
    65
 73
     2
 40
0.635
 49
0.0
 74
     0
 49
-0.635
 74
     0
  0
LTYPE
  5
74
330
5
100
AcDbSymbolTableRecord
100
AcDbLinetypeTableRecord
  2
SLD-Thin-Thick-Chain
 70
     0
  3
SolidWorks Line Style
 72
    65
 73
     4
 40
10.16
 49
6.35
 74
     0
 49
-1.27
 74
     0
 49
1.27
 74
     0
 49
-1.27
 74
     0
  0
ENDTAB
  0
TABLE
  2
LAYER
  5
2
330
0
100
AcDbSymbolTable
 70
    14
  0
LAYER
  5
10
330
2
100
AcDbSymbolTableRecord
100
AcDbLayerTableRecord
  2
0
 70
     0
 62
     7
  6
Continuous
370
    -3
390
F
  0
LAYER
  5
75
330
2
100
AcDbSymbolTableRecord
100
AcDbLayerTableRecord
  2
SLD-0
 70
     0
 62
   179
  6
SLD-Solid
370
    -3
390
F
  0
LAYER
  5
76
330
2
100
AcDbSymbolTableRecord
100
AcDbLayerTableRecord
  2
80
 70
     0
 62
    -6
  6
SLD-Solid
290
     0
370
    -3
390
F
  0
LAYER
  5
77
330
2
100
AcDbSymbolTableRecord
100
AcDbLayerTableRecord
  2
81
 70
     0
 62
    -3
  6
SLD-Solid
290
     0
370
    -3
390
F
  0
LAYER
  5
78
330
2
100
AcDbSymbolTableRecord
100
AcDbLayerTableRecord
  2
1
 70
     0
 62
     4
  6
SLD-Solid
290
     0
370
    -3
390
F
  0
LAYER
  5
79
330
2
100
AcDbSymbolTableRecord
100
AcDbLayerTableRecord
  2
4
 70
     0
 62
    -2
  6
SLD-Chain
290
     0
370
    -3
390
F
  0
LAYER
  5
7A
330
2
100
AcDbSymbolTableRecord
100
AcDbLayerTableRecord
  2
2
 70
     0
 62
     7
  6
SLD-Solid
290
     0
370
    -3
390
F
  0
LAYER
  5
7B
330
2
100
AcDbSymbolTableRecord
100
AcDbLayerTableRecord
  2
SK3
 70
     0
 62
     1
  6
SLD-Dashed
290
     0
370
    -3
390
F
  0
LAYER
  5
7C
330
2
100
AcDbSymbolTableRecord
100
AcDbLayerTableRecord
  2
SK4
 70
     0
 62
     2
  6
SLD-Chain
290
     0
370
    -3
390
F
  0
LAYER
  5
7D
330
2
100
AcDbSymbolTableRecord
100
AcDbLayerTableRecord
  2
SK2
 70
     0
 62
     7
  6
SLD-Solid
290
     0
370
    -3
390
F
  0
LAYER
  5
7E
330
2
100
AcDbSymbolTableRecord
100
AcDbLayerTableRecord
  2
SK6
 70
     0
 62
     5
  6
SLD-Solid
290
     0
370
    -3
390
F
  0
LAYER
  5
7F
330
2
100
AcDbSymbolTableRecord
100
AcDbLayerTableRecord
  2
6
 70
     0
 62
     5
  6
SLD-Solid
370
    -3
390
F
  0
LAYER
  5
80
330
2
100
AcDbSymbolTableRecord
100
AcDbLayerTableRecord
  2
SK1
 70
     0
 62
     4
  6
SLD-Solid
370
    -3
390
F
  0
LAYER
  5
81
330
2
100
AcDbSymbolTableRecord
100
AcDbLayerTableRecord
  2
LAYER5
 70
     0
 62
   218
  6
SLD-Solid
370
    -3
390
F
  0
ENDTAB
  0
TABLE
  2
STYLE
  5
3
330
0
100
AcDbSymbolTable
 70
     3
  0
STYLE
  5
11
330
3
100
AcDbSymbolTableRecord
100
AcDbTextStyleTableRecord
  2
Standard
 70
     0
 40
0.0
 41
1.0
 50
0.0
 71
     0
 42
3.5
  3
txt
  4

  0
STYLE
  5
24D
330
3
100
AcDbSymbolTableRecord
100
AcDbTextStyleTableRecord
  2
SLDTEXTSTYLE0
 70
     0
 40
0.0
 41
0.75
 50
0.0
 71
     0
 42
3.5
  3
TXT
  4

  0
STYLE
  5
339
330
3
100
AcDbSymbolTableRecord
100
AcDbTextStyleTableRecord
  2
SLDTEXTSTYLE1
 70
     0
 40
0.0
 41
0.6666666667
 50
0.0
 71
     0
 42
3.5
  3
TXT
  4

  0
ENDTAB
  0
TABLE
  2
VIEW
  5
6
330
0
100
AcDbSymbolTable
 70
     0
  0
ENDTAB
  0
TABLE
  2
UCS
  5
7
330
0
100
AcDbSymbolTable
 70
     0
  0
ENDTAB
  0
TABLE
  2
APPID
  5
9
330
0
100
AcDbSymbolTable
 70
     1
  0
APPID
  5
12
330
9
100
AcDbSymbolTableRecord
100
AcDbRegAppTableRecord
  2
ACAD
 70
     0
  0
ENDTAB
  0
TABLE
  2
DIMSTYLE
  5
A
330
0
100
AcDbSymbolTable
 70
     6
100
AcDbDimStyleTable
  0
DIMSTYLE
105
27
330
A
100
AcDbSymbolTableRecord
100
AcDbDimStyleTableRecord
  2
ISO-25
 70
     0
 41
2.5
 42
0.625
 43
3.75
 44
1.25
 73
     0
 74
     0
 77
     1
 78
     8
140
2.5
141
2.5
143
0.0393700787
147
0.625
171
     3
172
     1
178
     0
271
     2
272
     2
274
     3
278
    44
283
     0
284
     8
340
11
  0
DIMSTYLE
105
24E
102
{ACAD_REACTORS
330
24C
330
261
330
274
330
287
330
29A
330
2C2
330
2D4
330
305
102
}
330
A
100
AcDbSymbolTableRecord
100
AcDbDimStyleTableRecord
  2
SLDDIMSTYLE0
 70
     0
 41
3.302
 44
0.0
 45
0.000000001
 73
     0
 74
     0
 77
     1
 78
    12
 79
     3
140
3.5
143
0.0393700787
147
0.875
148
0.000000001
170
     1
173
     1
178
     0
271
     2
272
     2
276
     2
284
    12
340
24D
  0
DIMSTYLE
105
2AE
102
{ACAD_REACTORS
330
2AD
102
}
330
A
100
AcDbSymbolTableRecord
100
AcDbDimStyleTableRecord
  2
SLDDIMSTYLE1
 70
     0
 41
3.302
 44
0.0
 45
0.000000001
 73
     0
 74
     0
 77
     1
 78
    12
 79
     3
140
3.5
143
0.0393700787
147
0.875
148
0.000000001
170
     1
171
     3
172
     1
173
     1
178
     0
271
     3
272
     2
274
     3
276
     2
284
    12
289
     0
340
24D
  0
DIMSTYLE
105
2E7
102
{ACAD_REACTORS
330
2E6
330
325
330
330
102
}
330
A
100
AcDbSymbolTableRecord
100
AcDbDimStyleTableRecord
  2
SLDDIMSTYLE2
 70
     0
 41
3.302
 44
0.0
 45
0.000000001
 73
     0
 74
     0
 77
     1
 78
    12
 79
     3
140
3.5
147
0.875
173
     1
178
     0
271
     2
272
     2
276
     2
284
    12
340
24D
  0
DIMSTYLE
105
2F2
102
{ACAD_REACTORS
330
2F1
102
}
330
A
100
AcDbSymbolTableRecord
100
AcDbDimStyleTableRecord
  2
SLDDIMSTYLE3
 70
     0
 41
3.302
 44
0.0
 45
0.000000001
 73
     0
 74
     0
 77
     1
 78
    12
 79
     3
140
3.5
143
0.0393700787
147
0.875
148
0.000000001
170
     1
171
     3
173
     1
178
     0
271
     3
272
     2
274
     3
276
     2
284
    12
340
24D
  0
DIMSTYLE
105
319
102
{ACAD_REACTORS
330
318
102
}
330
A
100
AcDbSymbolTableRecord
100
AcDbDimStyleTableRecord
  2
SLDDIMSTYLE4
 70
     0
 41
3.302
 44
0.0
 45
0.000000001
 73
     0
 74
     0
 77
     1
 78
    12
 79
     3
140
3.5
147
0.875
172
     1
173
     1
178
     0
271
     2
272
     2
276
     2
284
    12
289
     0
340
24D
  0
ENDTAB
  0
TABLE
  2
BLOCK_RECORD
  5
1
330
0
100
AcDbSymbolTable
 70
    15
  0
BLOCK_RECORD
  5
1F
330
1
100
AcDbSymbolTableRecord
100
AcDbBlockTableRecord
  2
*Model_Space
340
22
  0
BLOCK_RECORD
  5
1B
330
1
100
AcDbSymbolTableRecord
100
AcDbBlockTableRecord
  2
*Paper_Space
340
1E
  0
BLOCK_RECORD
  5
23
330
1
100
AcDbSymbolTableRecord
100
AcDbBlockTableRecord
  2
*Paper_Space0
340
26
  0
BLOCK_RECORD
  5
24F
330
1
100
AcDbSymbolTableRecord
100
AcDbBlockTableRecord
  2
_D
340
0
  0
BLOCK_RECORD
  5
262
330
1
100
AcDbSymbolTableRecord
100
AcDbBlockTableRecord
  2
_D_1
340
0
  0
BLOCK_RECORD
  5
275
330
1
100
AcDbSymbolTableRecord
100
AcDbBlockTableRecord
  2
_D_2
340
0
  0
BLOCK_RECORD
  5
288
330
1
100
AcDbSymbolTableRecord
100
AcDbBlockTableRecord
  2
_D_3
340
0
  0
BLOCK_RECORD
  5
29B
330
1
100
AcDbSymbolTableRecord
100
AcDbBlockTableRecord
  2
_D_4
340
0
  0
BLOCK_RECORD
  5
2AF
330
1
100
AcDbSymbolTableRecord
100
AcDbBlockTableRecord
  2
_D_5
340
0
  0
BLOCK_RECORD
  5
2C3
330
1
100
AcDbSymbolTableRecord
100
AcDbBlockTableRecord
  2
_D_6
340
0
  0
BLOCK_RECORD
  5
2D5
330
1
100
AcDbSymbolTableRecord
100
AcDbBlockTableRecord
  2
_D_7
340
0
  0
BLOCK_RECORD
  5
2E8
330
1
100
AcDbSymbolTableRecord
100
AcDbBlockTableRecord
  2
_D_8
340
0
  0
BLOCK_RECORD
  5
2F3
330
1
100
AcDbSymbolTableRecord
100
AcDbBlockTableRecord
  2
_D_9
340
0
  0
BLOCK_RECORD
  5
306
330
1
100
AcDbSymbolTableRecord
100
AcDbBlockTableRecord
  2
_D_10
340
0
  0
BLOCK_RECORD
  5
31A
330
1
100
AcDbSymbolTableRecord
100
AcDbBlockTableRecord
  2
_D_11
340
0
  0
BLOCK_RECORD
  5
326
330
1
100
AcDbSymbolTableRecord
100
AcDbBlockTableRecord
  2
_D_12
340
0
  0
BLOCK_RECORD
  5
331
330
1
100
AcDbSymbolTableRecord
100
AcDbBlockTableRecord
  2
_D_13
340
0
  0
ENDTAB
  0
ENDSEC
  0
SECTION
  2
BLOCKS
  0
BLOCK
  5
20
330
1F
100
AcDbEntity
  8
0
100
AcDbBlockBegin
  2
*Model_Space
 70
     0
 10
0.0
 20
0.0
 30
0.0
  3
*Model_Space
  1

  0
ENDBLK
  5
21
330
1F
100
AcDbEntity
  8
0
100
AcDbBlockEnd
  0
BLOCK
  5
1C
330
1B
100
AcDbEntity
 67
     1
  8
0
100
AcDbBlockBegin
  2
*Paper_Space
 70
     0
 10
0.0
 20
0.0
 30
0.0
  3
*Paper_Space
  1

  0
ENDBLK
  5
1D
330
1B
100
AcDbEntity
 67
     1
  8
0
100
AcDbBlockEnd
  0
BLOCK
  5
24
330
23
100
AcDbEntity
  8
0
100
AcDbBlockBegin
  2
*Paper_Space0
 70
     0
 10
0.0
 20
0.0
 30
0.0
  3
*Paper_Space0
  1

  0
ENDBLK
  5
25
330
23
100
AcDbEntity
  8
0
100
AcDbBlockEnd
  0
BLOCK
  5
250
330
24F
100
AcDbEntity
  8
0
100
AcDbBlockBegin
  2
_D
 70
     0
 10
0.0
 20
0.0
 30
0.0
  3
_D
  1

  0
SOLID
  5
252
330
24F
100
AcDbEntity
  8
2
100
AcDbTrace
 10
0.0
 20
87.801477187
 30
0.0
 11
3.302
 21
87.293477187
 31
0.0
 12
3.302
 22
88.309477187
 32
0.0
 13
3.302
 23
88.309477187
 33
0.0
  0
SOLID
  5
253
330
24F
100
AcDbEntity
  8
2
100
AcDbTrace
 10
196.85
 20
87.801477187
 30
0.0
 11
193.548
 21
88.309477187
 31
0.0
 12
193.548
 22
87.293477187
 32
0.0
 13
193.548
 23
87.293477187
 33
0.0
  0
LINE
  5
254
330
24F
100
AcDbEntity
  8
2
100
AcDbLine
 10
54.3849590366
 20
98.5943589031
 30
0.0
 11
53.3185527792
 21
98.5943589031
 31
0.0
  0
LINE
  5
255
330
24F
100
AcDbEntity
  8
2
100
AcDbLine
 10
53.3185527792
 20
98.5943589031
 30
0.0
 11
53.3185527792
 21
93.038108912
 31
0.0
  0
LINE
  5
256
330
24F
100
AcDbEntity
  8
2
100
AcDbLine
 10
53.3185527792
 20
93.038108912
 30
0.0
 11
54.3849590366
 21
93.038108912
 31
0.0
  0
LINE
  5
257
330
24F
100
AcDbEntity
  8
2
100
AcDbLine
 10
63.4363480976
 20
98.5943589031
 30
0.0
 11
64.502754355
 21
98.5943589031
 31
0.0
  0
LINE
  5
258
330
24F
100
AcDbEntity
  8
2
100
AcDbLine
 10
64.502754355
 20
98.5943589031
 30
0.0
 11
64.502754355
 21
93.038108912
 31
0.0
  0
LINE
  5
259
330
24F
100
AcDbEntity
  8
2
100
AcDbLine
 10
64.502754355
 20
93.038108912
 30
0.0
 11
63.4363480976
 21
93.038108912
 31
0.0
  0
LINE
  5
25A
330
24F
100
AcDbEntity
  8
2
100
AcDbLine
 10
0.0
 20
35.925
 30
0.0
 11
0.0
 21
88.801477187
 31
0.0
  0
LINE
  5
25B
330
24F
100
AcDbEntity
  8
2
100
AcDbLine
 10
196.85
 20
15.605
 30
0.0
 11
196.85
 21
88.801477187
 31
0.0
  0
LINE
  5
25C
330
24F
100
AcDbEntity
  8
2
100
AcDbLine
 10
0.0
 20
87.801477187
 30
0.0
 11
196.85
 21
87.801477187
 31
0.0
  0
MTEXT
  5
25D
330
24F
100
AcDbEntity
  8
2
100
AcDbMText
 10
51.8182920135
 20
92.3666864529
 30
0.0
 40
3.5
 41
0.0
 71
     1
 72
     1
  1

  7
SLDTEXTSTYLE0
 73
     1
 44
1.0
  0
MTEXT
  5
25E
330
24F
100
AcDbEntity
  8
2
100
AcDbMText
 10
54.3849590366
 20
97.5498458266
 30
0.0
 40
3.5
 41
0.0
 71
     1
 72
     1
  1
7,75
  7
SLDTEXTSTYLE0
 73
     1
 44
1.0
  0
MTEXT
  5
25F
330
24F
100
AcDbEntity
  8
2
100
AcDbMText
 10
51.7988476103
 20
92.3132142762
 30
0.0
 40
3.5
 41
0.0
 71
     1
 72
     1
  1
196,85
  7
SLDTEXTSTYLE0
 73
     1
 44
1.0
  0
MTEXT
  5
260
330
24F
100
AcDbEntity
  8
2
100
AcDbMText
 10
67.3349596403
 20
92.3666864529
 30
0.0
 40
3.5
 41
0.0
 71
     1
 72
     1
  1

  7
SLDTEXTSTYLE0
 73
     1
 44
1.0
  0
ENDBLK
  5
251
330
24F
100
AcDbEntity
  8
0
100
AcDbBlockEnd
  0
BLOCK
  5
263
330
262
100
AcDbEntity
  8
0
100
AcDbBlockBegin
  2
_D_1
 70
     0
 10
0.0
 20
0.0
 30
0.0
  3
_D_1
  1

  0
SOLID
  5
265
330
262
100
AcDbEntity
  8
SK2
100
AcDbTrace
 10
19.05
 20
73.5387414163
 30
0.0
 11
22.352
 21
73.0307414163
 31
0.0
 12
22.352
 22
74.0467414163
 32
0.0
 13
22.352
 23
74.0467414163
 33
0.0
  0
SOLID
  5
266
330
262
100
AcDbEntity
  8
SK2
100
AcDbTrace
 10
196.85
 20
73.5387414163
 30
0.0
 11
193.548
 21
74.0467414163
 31
0.0
 12
193.548
 22
73.0307414163
 32
0.0
 13
193.548
 23
73.0307414163
 33
0.0
  0
LINE
  5
267
330
262
100
AcDbEntity
  8
SK2
100
AcDbLine
 10
91.7351237665
 20
84.3316231324
 30
0.0
 11
90.668717509
 21
84.3316231324
 31
0.0
  0
LINE
  5
268
330
262
100
AcDbEntity
  8
SK2
100
AcDbLine
 10
90.668717509
 20
84.3316231324
 30
0.0
 11
90.668717509
 21
78.7753731413
 31
0.0
  0
LINE
  5
269
330
262
100
AcDbEntity
  8
SK2
100
AcDbLine
 10
90.668717509
 20
78.7753731413
 30
0.0
 11
91.7351237665
 21
78.7753731413
 31
0.0
  0
LINE
  5
26A
330
262
100
AcDbEntity
  8
SK2
100
AcDbLine
 10
100.7865128274
 20
84.3316231324
 30
0.0
 11
101.8529190848
 21
84.3316231324
 31
0.0
  0
LINE
  5
26B
330
262
100
AcDbEntity
  8
SK2
100
AcDbLine
 10
101.8529190848
 20
84.3316231324
 30
0.0
 11
101.8529190848
 21
78.7753731413
 31
0.0
  0
LINE
  5
26C
330
262
100
AcDbEntity
  8
SK2
100
AcDbLine
 10
101.8529190848
 20
78.7753731413
 30
0.0
 11
100.7865128274
 21
78.7753731413
 31
0.0
  0
LINE
  5
26D
330
262
100
AcDbEntity
  8
SK2
100
AcDbLine
 10
19.05
 20
47.5560855313
 30
0.0
 11
19.05
 21
74.5387414163
 31
0.0
  0
LINE
  5
26E
330
262
100
AcDbEntity
  8
SK2
100
AcDbLine
 10
196.85
 20
15.605
 30
0.0
 11
196.85
 21
74.5387414163
 31
0.0
  0
LINE
  5
26F
330
262
100
AcDbEntity
  8
SK2
100
AcDbLine
 10
19.05
 20
73.5387414163
 30
0.0
 11
196.85
 21
73.5387414163
 31
0.0
  0
MTEXT
  5
270
330
262
100
AcDbEntity
  8
SK2
100
AcDbMText
 10
89.6217556548
 20
78.1039506822
 30
0.0
 40
3.5
 41
0.0
 71
     1
 72
     1
  1

  7
SLDTEXTSTYLE0
 73
     1
 44
1.0
  0
MTEXT
  5
271
330
262
100
AcDbEntity
  8
SK2
100
AcDbMText
 10
91.7351237665
 20
83.2871100559
 30
0.0
 40
3.5
 41
0.0
 71
     1
 72
     1
  1
7,00
  7
SLDTEXTSTYLE0
 73
     1
 44
1.0
  0
MTEXT
  5
272
330
262
100
AcDbEntity
  8
SK2
100
AcDbMText
 10
90.4420680533
 20
78.0504785056
 30
0.0
 40
3.5
 41
0.0
 71
     1
 72
     1
  1
177,8
  7
SLDTEXTSTYLE0
 73
     1
 44
1.0
  0
MTEXT
  5
273
330
262
100
AcDbEntity
  8
SK2
100
AcDbMText
 10
104.2318254587
 20
78.1039506822
 30
0.0
 40
3.5
 41
0.0
 71
     1
 72
     1
  1

  7
SLDTEXTSTYLE0
 73
     1
 44
1.0
  0
ENDBLK
  5
264
330
262
100
AcDbEntity
  8
0
100
AcDbBlockEnd
  0
BLOCK
  5
276
330
275
100
AcDbEntity
  8
0
100
AcDbBlockBegin
  2
_D_2
 70
     0
 10
0.0
 20
0.0
 30
0.0
  3
_D_2
  1

  0
SOLID
  5
278
330
275
100
AcDbEntity
  8
SK2
100
AcDbTrace
 10
35.1
 20
59.6449822911
 30
0.0
 11
38.402
 21
59.1369822911
 31
0.0
 12
38.402
 22
60.1529822911
 32
0.0
 13
38.402
 23
60.1529822911
 33
0.0
  0
SOLID
  5
279
330
275
100
AcDbEntity
  8
SK2
100
AcDbTrace
 10
196.85
 20
59.6449822911
 30
0.0
 11
193.548
 21
60.1529822911
 31
0.0
 12
193.548
 22
59.1369822911
 32
0.0
 13
193.548
 23
59.1369822911
 33
0.0
  0
LINE
  5
27A
330
275
100
AcDbEntity
  8
SK2
100
AcDbLine
 10
103.5104056652
 20
70.4378640071
 30
0.0
 11
102.4439994078
 21
70.4378640071
 31
0.0
  0
LINE
  5
27B
330
275
100
AcDbEntity
  8
SK2
100
AcDbLine
 10
102.4439994078
 20
70.4378640071
 30
0.0
 11
102.4439994078
 21
64.8816140161
 31
0.0
  0
LINE
  5
27C
330
275
100
AcDbEntity
  8
SK2
100
AcDbLine
 10
102.4439994078
 20
64.8816140161
 30
0.0
 11
103.5104056652
 21
64.8816140161
 31
0.0
  0
LINE
  5
27D
330
275
100
AcDbEntity
  8
SK2
100
AcDbLine
 10
112.5617947261
 20
70.4378640071
 30
0.0
 11
113.6282009836
 21
70.4378640071
 31
0.0
  0
LINE
  5
27E
330
275
100
AcDbEntity
  8
SK2
100
AcDbLine
 10
113.6282009836
 20
70.4378640071
 30
0.0
 11
113.6282009836
 21
64.8816140161
 31
0.0
  0
LINE
  5
27F
330
275
100
AcDbEntity
  8
SK2
100
AcDbLine
 10
113.6282009836
 20
64.8816140161
 30
0.0
 11
112.5617947261
 21
64.8816140161
 31
0.0
  0
LINE
  5
280
330
275
100
AcDbEntity
  8
SK2
100
AcDbLine
 10
35.1
 20
34.401
 30
0.0
 11
35.1
 21
60.6449822911
 31
0.0
  0
LINE
  5
281
330
275
100
AcDbEntity
  8
SK2
100
AcDbLine
 10
196.85
 20
15.605
 30
0.0
 11
196.85
 21
60.6449822911
 31
0.0
  0
LINE
  5
282
330
275
100
AcDbEntity
  8
SK2
100
AcDbLine
 10
35.1
 20
59.6449822911
 30
0.0
 11
196.85
 21
59.6449822911
 31
0.0
  0
MTEXT
  5
283
330
275
100
AcDbEntity
  8
SK2
100
AcDbMText
 10
100.9437386421
 20
64.210191557
 30
0.0
 40
3.5
 41
0.0
 71
     1
 72
     1
  1

  7
SLDTEXTSTYLE0
 73
     1
 44
1.0
  0
MTEXT
  5
284
330
275
100
AcDbEntity
  8
SK2
100
AcDbMText
 10
103.5104056652
 20
69.3933509307
 30
0.0
 40
3.5
 41
0.0
 71
     1
 72
     1
  1
6,37
  7
SLDTEXTSTYLE0
 73
     1
 44
1.0
  0
MTEXT
  5
285
330
275
100
AcDbEntity
  8
SK2
100
AcDbMText
 10
100.9242942389
 20
64.1567193803
 30
0.0
 40
3.5
 41
0.0
 71
     1
 72
     1
  1
161,75
  7
SLDTEXTSTYLE0
 73
     1
 44
1.0
  0
MTEXT
  5
286
330
275
100
AcDbEntity
  8
SK2
100
AcDbMText
 10
116.4604062689
 20
64.210191557
 30
0.0
 40
3.5
 41
0.0
 71
     1
 72
     1
  1

  7
SLDTEXTSTYLE0
 73
     1
 44
1.0
  0
ENDBLK
  5
277
330
275
100
AcDbEntity
  8
0
100
AcDbBlockEnd
  0
BLOCK
  5
289
330
288
100
AcDbEntity
  8
0
100
AcDbBlockBegin
  2
_D_3
 70
     0
 10
0.0
 20
0.0
 30
0.0
  3
_D_3
  1

  0
SOLID
  5
28B
330
288
100
AcDbEntity
  8
SK2
100
AcDbTrace
 10
88.9
 20
44.9701518821
 30
0.0
 11
92.202
 21
44.4621518821
 31
0.0
 12
92.202
 22
45.4781518821
 32
0.0
 13
92.202
 23
45.4781518821
 33
0.0
  0
SOLID
  5
28C
330
288
100
AcDbEntity
  8
SK2
100
AcDbTrace
 10
196.85
 20
44.9701518821
 30
0.0
 11
193.548
 21
45.4781518821
 31
0.0
 12
193.548
 22
44.4621518821
 32
0.0
 13
193.548
 23
44.4621518821
 33
0.0
  0
LINE
  5
28D
330
288
100
AcDbEntity
  8
SK2
100
AcDbLine
 10
137.8400917753
 20
55.7630335982
 30
0.0
 11
136.7736855179
 21
55.7630335982
 31
0.0
  0
LINE
  5
28E
330
288
100
AcDbEntity
  8
SK2
100
AcDbLine
 10
136.7736855179
 20
55.7630335982
 30
0.0
 11
136.7736855179
 21
50.2067836071
 31
0.0
  0
LINE
  5
28F
330
288
100
AcDbEntity
  8
SK2
100
AcDbLine
 10
136.7736855179
 20
50.2067836071
 30
0.0
 11
137.8400917753
 21
50.2067836071
 31
0.0
  0
LINE
  5
290
330
288
100
AcDbEntity
  8
SK2
100
AcDbLine
 10
146.8914808362
 20
55.7630335982
 30
0.0
 11
147.9578870937
 21
55.7630335982
 31
0.0
  0
LINE
  5
291
330
288
100
AcDbEntity
  8
SK2
100
AcDbLine
 10
147.9578870937
 20
55.7630335982
 30
0.0
 11
147.9578870937
 21
50.2067836071
 31
0.0
  0
LINE
  5
292
330
288
100
AcDbEntity
  8
SK2
100
AcDbLine
 10
147.9578870937
 20
50.2067836071
 30
0.0
 11
146.8914808362
 21
50.2067836071
 31
0.0
  0
LINE
  5
293
330
288
100
AcDbEntity
  8
SK2
100
AcDbLine
 10
88.9
 20
23.225
 30
0.0
 11
88.9
 21
45.9701518821
 31
0.0
  0
LINE
  5
294
330
288
100
AcDbEntity
  8
SK2
100
AcDbLine
 10
196.85
 20
15.605
 30
0.0
 11
196.85
 21
45.9701518821
 31
0.0
  0
LINE
  5
295
330
288
100
AcDbEntity
  8
SK2
100
AcDbLine
 10
88.9
 20
44.9701518821
 30
0.0
 11
196.85
 21
44.9701518821
 31
0.0
  0
MTEXT
  5
296
330
288
100
AcDbEntity
  8
SK2
100
AcDbMText
 10
135.2734247522
 20
49.535361148
 30
0.0
 40
3.5
 41
0.0
 71
     1
 72
     1
  1

  7
SLDTEXTSTYLE0
 73
     1
 44
1.0
  0
MTEXT
  5
297
330
288
100
AcDbEntity
  8
SK2
100
AcDbMText
 10
137.8400917753
 20
54.7185205217
 30
0.0
 40
3.5
 41
0.0
 71
     1
 72
     1
  1
4,25
  7
SLDTEXTSTYLE0
 73
     1
 44
1.0
  0
MTEXT
  5
298
330
288
100
AcDbEntity
  8
SK2
100
AcDbMText
 10
135.253980349
 20
49.4818889713
 30
0.0
 40
3.5
 41
0.0
 71
     1
 72
     1
  1
107,95
  7
SLDTEXTSTYLE0
 73
     1
 44
1.0
  0
MTEXT
  5
299
330
288
100
AcDbEntity
  8
SK2
100
AcDbMText
 10
150.790092379
 20
49.535361148
 30
0.0
 40
3.5
 41
0.0
 71
     1
 72
     1
  1

  7
SLDTEXTSTYLE0
 73
     1
 44
1.0
  0
ENDBLK
  5
28A
330
288
100
AcDbEntity
  8
0
100
AcDbBlockEnd
  0
BLOCK
  5
29C
330
29B
100
AcDbEntity
  8
0
100
AcDbBlockBegin
  2
_D_4
 70
     0
 10
0.0
 20
0.0
 30
0.0
  3
_D_4
  1

  0
SOLID
  5
29E
330
29B
100
AcDbEntity
  8
SK2
100
AcDbTrace
 10
196.85
 20
31.07854859
 30
0.0
 11
193.548
 21
31.58654859
 31
0.0
 12
193.548
 22
30.57054859
 32
0.0
 13
193.548
 23
30.57054859
 33
0.0
  0
SOLID
  5
29F
330
29B
100
AcDbEntity
  8
SK2
100
AcDbTrace
 10
171.45
 20
31.07854859
 30
0.0
 11
174.752
 21
30.57054859
 31
0.0
 12
174.752
 22
31.58654859
 32
0.0
 13
174.752
 23
31.58654859
 33
0.0
  0
LINE
  5
2A0
330
29B
100
AcDbEntity
  8
SK2
100
AcDbLine
 10
176.8020651846
 20
41.871430306
 30
0.0
 11
175.7356589272
 21
41.871430306
 31
0.0
  0
LINE
  5
2A1
330
29B
100
AcDbEntity
  8
SK2
100
AcDbLine
 10
175.7356589272
 20
41.871430306
 30
0.0
 11
175.7356589272
 21
36.3151803149
 31
0.0
  0
LINE
  5
2A2
330
29B
100
AcDbEntity
  8
SK2
100
AcDbLine
 10
175.7356589272
 20
36.3151803149
 30
0.0
 11
176.8020651846
 21
36.3151803149
 31
0.0
  0
LINE
  5
2A3
330
29B
100
AcDbEntity
  8
SK2
100
AcDbLine
 10
185.8534542456
 20
41.871430306
 30
0.0
 11
186.919860503
 21
41.871430306
 31
0.0
  0
LINE
  5
2A4
330
29B
100
AcDbEntity
  8
SK2
100
AcDbLine
 10
186.919860503
 20
41.871430306
 30
0.0
 11
186.919860503
 21
36.3151803149
 31
0.0
  0
LINE
  5
2A5
330
29B
100
AcDbEntity
  8
SK2
100
AcDbLine
 10
186.919860503
 20
36.3151803149
 30
0.0
 11
185.8534542456
 21
36.3151803149
 31
0.0
  0
LINE
  5
2A6
330
29B
100
AcDbEntity
  8
SK2
100
AcDbLine
 10
196.85
 20
15.605
 30
0.0
 11
196.85
 21
32.07854859
 31
0.0
  0
LINE
  5
2A7
330
29B
100
AcDbEntity
  8
SK2
100
AcDbLine
 10
171.45
 20
23.125
 30
0.0
 11
171.45
 21
32.07854859
 31
0.0
  0
LINE
  5
2A8
330
29B
100
AcDbEntity
  8
SK2
100
AcDbLine
 10
196.85
 20
31.07854859
 30
0.0
 11
171.45
 21
31.07854859
 31
0.0
  0
MTEXT
  5
2A9
330
29B
100
AcDbEntity
  8
SK2
100
AcDbMText
 10
174.688697073
 20
35.6437578558
 30
0.0
 40
3.5
 41
0.0
 71
     1
 72
     1
  1

  7
SLDTEXTSTYLE0
 73
     1
 44
1.0
  0
MTEXT
  5
2AA
330
29B
100
AcDbEntity
  8
SK2
100
AcDbMText
 10
176.8020651846
 20
40.8269172295
 30
0.0
 40
3.5
 41
0.0
 71
     1
 72
     1
  1
1,00
  7
SLDTEXTSTYLE0
 73
     1
 44
1.0
  0
MTEXT
  5
2AB
330
29B
100
AcDbEntity
  8
SK2
100
AcDbMText
 10
176.8020651846
 20
35.5902856792
 30
0.0
 40
3.5
 41
0.0
 71
     1
 72
     1
  1
25,4
  7
SLDTEXTSTYLE0
 73
     1
 44
1.0
  0
MTEXT
  5
2AC
330
29B
100
AcDbEntity
  8
SK2
100
AcDbMText
 10
189.2987668769
 20
35.6437578558
 30
0.0
 40
3.5
 41
0.0
 71
     1
 72
     1
  1

  7
SLDTEXTSTYLE0
 73
     1
 44
1.0
  0
ENDBLK
  5
29D
330
29B
100
AcDbEntity
  8
0
100
AcDbBlockEnd
  0
BLOCK
  5
2B0
330
2AF
100
AcDbEntity
  8
0
100
AcDbBlockBegin
  2
_D_5
 70
     0
 10
0.0
 20
0.0
 30
0.0
  3
_D_5
  1

  0
SOLID
  5
2B2
330
2AF
100
AcDbEntity
  8
SK2
100
AcDbTrace
 10
215.0688259437
 20
9.525
 30
0.0
 11
215.5768259437
 21
12.827
 31
0.0
 12
214.5608259437
 22
12.827
 32
0.0
 13
214.5608259437
 23
12.827
 33
0.0
  0
SOLID
  5
2B3
330
2AF
100
AcDbEntity
  8
SK2
100
AcDbTrace
 10
215.0688259437
 20
-9.525
 30
0.0
 11
214.5608259437
 21
-12.827
 31
0.0
 12
215.5768259437
 22
-12.827
 32
0.0
 13
215.5768259437
 23
-12.827
 33
0.0
  0
LINE
  5
2B4
330
2AF
100
AcDbEntity
  8
SK2
100
AcDbLine
 10
204.2759442277
 20
-5.3274790104
 30
0.0
 11
204.2759442277
 21
-6.3938852679
 31
0.0
  0
LINE
  5
2B5
330
2AF
100
AcDbEntity
  8
SK2
100
AcDbLine
 10
204.2759442277
 20
-6.3938852679
 30
0.0
 11
209.8321942187
 21
-6.3938852679
 31
0.0
  0
LINE
  5
2B6
330
2AF
100
AcDbEntity
  8
SK2
100
AcDbLine
 10
209.8321942187
 20
-6.3938852679
 30
0.0
 11
209.8321942187
 21
-5.3274790104
 31
0.0
  0
LINE
  5
2B7
330
2AF
100
AcDbEntity
  8
SK2
100
AcDbLine
 10
204.2759442277
 20
6.3100214768
 30
0.0
 11
204.2759442277
 21
7.3764277343
 31
0.0
  0
LINE
  5
2B8
330
2AF
100
AcDbEntity
  8
SK2
100
AcDbLine
 10
204.2759442277
 20
7.3764277343
 30
0.0
 11
209.8321942187
 21
7.3764277343
 31
0.0
  0
LINE
  5
2B9
330
2AF
100
AcDbEntity
  8
SK2
100
AcDbLine
 10
209.8321942187
 20
7.3764277343
 30
0.0
 11
209.8321942187
 21
6.3100214768
 31
0.0
  0
LINE
  5
2BA
330
2AF
100
AcDbEntity
  8
SK2
100
AcDbLine
 10
196.35
 20
9.525
 30
0.0
 11
216.0688259437
 21
9.525
 31
0.0
  0
LINE
  5
2BB
330
2AF
100
AcDbEntity
  8
SK2
100
AcDbLine
 10
196.35
 20
-9.525
 30
0.0
 11
216.0688259437
 21
-9.525
 31
0.0
  0
LINE
  5
2BC
330
2AF
100
AcDbEntity
  8
SK2
100
AcDbLine
 10
215.0688259437
 20
9.525
 30
0.0
 11
215.0688259437
 21
15.875
 31
0.0
  0
LINE
  5
2BD
330
2AF
100
AcDbEntity
  8
SK2
100
AcDbLine
 10
215.0688259437
 20
9.525
 30
0.0
 11
215.0688259437
 21
-9.525
 31
0.0
  0
LINE
  5
2BE
330
2AF
100
AcDbEntity
  8
SK2
100
AcDbLine
 10
215.0688259437
 20
-9.525
 30
0.0
 11
215.0688259437
 21
-15.875
 31
0.0
  0
MTEXT
  5
2BF
330
2AF
100
AcDbEntity
  8
SK2
100
AcDbMText
 10
205.3204573042
 20
-5.3274790104
 30
0.0
 40
3.5
 41
0.0
 71
     1
 72
     1
  1
0,750
  7
SLDTEXTSTYLE0
 11
-7.044195017643634E-15
 21
1.0
 31
0.0
 73
     1
 44
1.0
  0
MTEXT
  5
2C0
330
2AF
100
AcDbEntity
  8
SK2
100
AcDbMText
 10
210.5570888545
 20
-7.9666981753
 30
0.0
 40
3.5
 41
0.0
 71
     1
 72
     1
  1
%%c
  7
SLDTEXTSTYLE0
 11
-7.044195017643634E-15
 21
1.0
 31
0.0
 73
     1
 44
1.0
  0
MTEXT
  5
2C1
330
2AF
100
AcDbEntity
  8
SK2
100
AcDbMText
 10
210.5570888545
 20
-2.6882607769
 30
0.0
 40
3.5
 41
0.0
 71
     1
 72
     1
  1
19,05
  7
SLDTEXTSTYLE0
 11
-7.044195017643634E-15
 21
1.0
 31
0.0
 73
     1
 44
1.0
  0
ENDBLK
  5
2B1
330
2AF
100
AcDbEntity
  8
0
100
AcDbBlockEnd
  0
BLOCK
  5
2C4
330
2C3
100
AcDbEntity
  8
0
100
AcDbBlockBegin
  2
_D_6
 70
     0
 10
0.0
 20
0.0
 30
0.0
  3
_D_6
  1

  0
SOLID
  5
2C6
330
2C3
100
AcDbEntity
  8
SK2
100
AcDbTrace
 10
245.2895815607
 20
22.225
 30
0.0
 11
244.7815815607
 21
18.923
 31
0.0
 12
245.7975815607
 22
18.923
 32
0.0
 13
245.7975815607
 23
18.923
 33
0.0
  0
SOLID
  5
2C7
330
2C3
100
AcDbEntity
  8
SK2
100
AcDbTrace
 10
245.2895815607
 20
-22.225
 30
0.0
 11
245.7975815607
 21
-18.923
 31
0.0
 12
244.7815815607
 22
-18.923
 32
0.0
 13
244.7815815607
 23
-18.923
 33
0.0
  0
LINE
  5
2C8
330
2C3
100
AcDbEntity
  8
SK2
100
AcDbLine
 10
234.4966998447
 20
-4.5591149624
 30
0.0
 11
234.4966998447
 21
-5.6255212199
 31
0.0
  0
LINE
  5
2C9
330
2C3
100
AcDbEntity
  8
SK2
100
AcDbLine
 10
234.4966998447
 20
-5.6255212199
 30
0.0
 11
240.0529498357
 21
-5.6255212199
 31
0.0
  0
LINE
  5
2CA
330
2C3
100
AcDbEntity
  8
SK2
100
AcDbLine
 10
240.0529498357
 20
-5.6255212199
 30
0.0
 11
240.0529498357
 21
-4.5591149624
 31
0.0
  0
LINE
  5
2CB
330
2C3
100
AcDbEntity
  8
SK2
100
AcDbLine
 10
234.4966998447
 20
4.4922740985
 30
0.0
 11
234.4966998447
 21
5.5586803559
 31
0.0
  0
LINE
  5
2CC
330
2C3
100
AcDbEntity
  8
SK2
100
AcDbLine
 10
234.4966998447
 20
5.5586803559
 30
0.0
 11
240.0529498357
 21
5.5586803559
 31
0.0
  0
LINE
  5
2CD
330
2C3
100
AcDbEntity
  8
SK2
100
AcDbLine
 10
240.0529498357
 20
5.5586803559
 30
0.0
 11
240.0529498357
 21
4.4922740985
 31
0.0
  0
LINE
  5
2CE
330
2C3
100
AcDbEntity
  8
SK2
100
AcDbLine
 10
190.23
 20
22.225
 30
0.0
 11
246.2895815607
 21
22.225
 31
0.0
  0
LINE
  5
2CF
330
2C3
100
AcDbEntity
  8
SK2
100
AcDbLine
 10
190.23
 20
-22.225
 30
0.0
 11
246.2895815607
 21
-22.225
 31
0.0
  0
LINE
  5
2D0
330
2C3
100
AcDbEntity
  8
SK2
100
AcDbLine
 10
245.2895815607
 20
22.225
 30
0.0
 11
245.2895815607
 21
-22.225
 31
0.0
  0
MTEXT
  5
2D1
330
2C3
100
AcDbEntity
  8
SK2
100
AcDbMText
 10
235.5412129211
 20
-4.5591149624
 30
0.0
 40
3.5
 41
0.0
 71
     1
 72
     1
  1
1,75
  7
SLDTEXTSTYLE0
 11
-7.044195017643634E-15
 21
1.0
 31
0.0
 73
     1
 44
1.0
  0
MTEXT
  5
2D2
330
2C3
100
AcDbEntity
  8
SK2
100
AcDbMText
 10
240.7778444715
 20
-8.4913893748
 30
0.0
 40
3.5
 41
0.0
 71
     1
 72
     1
  1
%%c
  7
SLDTEXTSTYLE0
 11
-7.044195017643634E-15
 21
1.0
 31
0.0
 73
     1
 44
1.0
  0
MTEXT
  5
2D3
330
2C3
100
AcDbEntity
  8
SK2
100
AcDbMText
 10
240.7778444715
 20
-3.2129519764
 30
0.0
 40
3.5
 41
0.0
 71
     1
 72
     1
  1
44,45
  7
SLDTEXTSTYLE0
 11
-7.044195017643634E-15
 21
1.0
 31
0.0
 73
     1
 44
1.0
  0
ENDBLK
  5
2C5
330
2C3
100
AcDbEntity
  8
0
100
AcDbBlockEnd
  0
BLOCK
  5
2D6
330
2D5
100
AcDbEntity
  8
0
100
AcDbBlockBegin
  2
_D_7
 70
     0
 10
0.0
 20
0.0
 30
0.0
  3
_D_7
  1

  0
SOLID
  5
2D8
330
2D5
100
AcDbEntity
  8
SK2
100
AcDbTrace
 10
229.2792125975
 20
14.605
 30
0.0
 11
228.7712125975
 21
11.303
 31
0.0
 12
229.7872125975
 22
11.303
 32
0.0
 13
229.7872125975
 23
11.303
 33
0.0
  0
SOLID
  5
2D9
330
2D5
100
AcDbEntity
  8
SK2
100
AcDbTrace
 10
229.2792125975
 20
-14.605
 30
0.0
 11
229.7872125975
 21
-11.303
 31
0.0
 12
228.7712125975
 22
-11.303
 32
0.0
 13
228.7712125975
 23
-11.303
 33
0.0
  0
LINE
  5
2DA
330
2D5
100
AcDbEntity
  8
SK2
100
AcDbLine
 10
218.4863308814
 20
-4.0344237629
 30
0.0
 11
218.4863308814
 21
-5.1008300204
 31
0.0
  0
LINE
  5
2DB
330
2D5
100
AcDbEntity
  8
SK2
100
AcDbLine
 10
218.4863308814
 20
-5.1008300204
 30
0.0
 11
224.0425808725
 21
-5.1008300204
 31
0.0
  0
LINE
  5
2DC
330
2D5
100
AcDbEntity
  8
SK2
100
AcDbLine
 10
224.0425808725
 20
-5.1008300204
 30
0.0
 11
224.0425808725
 21
-4.0344237629
 31
0.0
  0
LINE
  5
2DD
330
2D5
100
AcDbEntity
  8
SK2
100
AcDbLine
 10
218.4863308814
 20
5.016965298
 30
0.0
 11
218.4863308814
 21
6.0833715554
 31
0.0
  0
LINE
  5
2DE
330
2D5
100
AcDbEntity
  8
SK2
100
AcDbLine
 10
218.4863308814
 20
6.0833715554
 30
0.0
 11
224.0425808725
 21
6.0833715554
 31
0.0
  0
LINE
  5
2DF
330
2D5
100
AcDbEntity
  8
SK2
100
AcDbLine
 10
224.0425808725
 20
6.0833715554
 30
0.0
 11
224.0425808725
 21
5.016965298
 31
0.0
  0
LINE
  5
2E0
330
2D5
100
AcDbEntity
  8
SK2
100
AcDbLine
 10
197.85
 20
14.605
 30
0.0
 11
230.2792125975
 21
14.605
 31
0.0
  0
LINE
  5
2E1
330
2D5
100
AcDbEntity
  8
SK2
100
AcDbLine
 10
197.85
 20
-14.605
 30
0.0
 11
230.2792125975
 21
-14.605
 31
0.0
  0
LINE
  5
2E2
330
2D5
100
AcDbEntity
  8
SK2
100
AcDbLine
 10
229.2792125975
 20
14.605
 30
0.0
 11
229.2792125975
 21
-14.605
 31
0.0
  0
MTEXT
  5
2E3
330
2D5
100
AcDbEntity
  8
SK2
100
AcDbMText
 10
219.5308439579
 20
-4.0344237629
 30
0.0
 40
3.5
 41
0.0
 71
     1
 72
     1
  1
1,15
  7
SLDTEXTSTYLE0
 11
-7.044195017643634E-15
 21
1.0
 31
0.0
 73
     1
 44
1.0
  0
MTEXT
  5
2E4
330
2D5
100
AcDbEntity
  8
SK2
100
AcDbMText
 10
224.7674755083
 20
-7.9666981753
 30
0.0
 40
3.5
 41
0.0
 71
     1
 72
     1
  1
%%c
  7
SLDTEXTSTYLE0
 11
-7.044195017643634E-15
 21
1.0
 31
0.0
 73
     1
 44
1.0
  0
MTEXT
  5
2E5
330
2D5
100
AcDbEntity
  8
SK2
100
AcDbMText
 10
224.7674755083
 20
-2.6882607769
 30
0.0
 40
3.5
 41
0.0
 71
     1
 72
     1
  1
29,21
  7
SLDTEXTSTYLE0
 11
-7.044195017643634E-15
 21
1.0
 31
0.0
 73
     1
 44
1.0
  0
ENDBLK
  5
2D7
330
2D5
100
AcDbEntity
  8
0
100
AcDbBlockEnd
  0
BLOCK
  5
2E9
330
2E8
100
AcDbEntity
  8
0
100
AcDbBlockBegin
  2
_D_8
 70
     0
 10
0.0
 20
0.0
 30
0.0
  3
_D_8
  1

  0
SOLID
  5
2EB
330
2E8
100
AcDbEntity
  8
SK2
100
AcDbTrace
 10
19.05
 20
73.5387414164
 30
0.0
 11
15.748
 21
74.0467414164
 31
0.0
 12
15.748
 22
73.0307414164
 32
0.0
 13
15.748
 23
73.0307414164
 33
0.0
  0
SOLID
  5
2EC
330
2E8
100
AcDbEntity
  8
SK2
100
AcDbTrace
 10
0.0
 20
73.5387414164
 30
0.0
 11
3.302
 21
73.0307414164
 31
0.0
 12
3.302
 22
74.0467414164
 32
0.0
 13
3.302
 23
74.0467414164
 33
0.0
  0
LINE
  5
2ED
330
2E8
100
AcDbEntity
  8
SK2
100
AcDbLine
 10
19.05
 20
47.5560855313
 30
0.0
 11
19.05
 21
74.5387414164
 31
0.0
  0
LINE
  5
2EE
330
2E8
100
AcDbEntity
  8
SK2
100
AcDbLine
 10
0.0
 20
35.925
 30
0.0
 11
0.0
 21
74.5387414164
 31
0.0
  0
LINE
  5
2EF
330
2E8
100
AcDbEntity
  8
SK2
100
AcDbLine
 10
19.05
 20
73.5387414164
 30
0.0
 11
0.0
 21
73.5387414164
 31
0.0
  0
MTEXT
  5
2F0
330
2E8
100
AcDbEntity
  8
SK2
100
AcDbMText
 10
3.5275268637
 20
78.0504783309
 30
0.0
 40
3.5
 41
0.0
 71
     1
 72
     1
  1
19,05
  7
SLDTEXTSTYLE0
 73
     1
 44
1.0
  0
ENDBLK
  5
2EA
330
2E8
100
AcDbEntity
  8
0
100
AcDbBlockEnd
  0
BLOCK
  5
2F4
330
2F3
100
AcDbEntity
  8
0
100
AcDbBlockBegin
  2
_D_9
 70
     0
 10
0.0
 20
0.0
 30
0.0
  3
_D_9
  1

  0
SOLID
  5
2F6
330
2F3
100
AcDbEntity
  8
SK2
100
AcDbTrace
 10
196.85
 20
-63.0623304622
 30
0.0
 11
193.548
 21
-62.5543304622
 31
0.0
 12
193.548
 22
-63.5703304622
 32
0.0
 13
193.548
 23
-63.5703304622
 33
0.0
  0
SOLID
  5
2F7
330
2F3
100
AcDbEntity
  8
SK2
100
AcDbTrace
 10
-101.6
 20
-63.0623304622
 30
0.0
 11
-98.298
 21
-63.5703304622
 31
0.0
 12
-98.298
 22
-62.5543304622
 32
0.0
 13
-98.298
 23
-62.5543304622
 33
0.0
  0
LINE
  5
2F8
330
2F3
100
AcDbEntity
  8
SK2
100
AcDbLine
 10
54.2800093083
 20
-52.2694487461
 30
0.0
 11
53.2136030508
 21
-52.2694487461
 31
0.0
  0
LINE
  5
2F9
330
2F3
100
AcDbEntity
  8
SK2
100
AcDbLine
 10
53.2136030508
 20
-52.2694487461
 30
0.0
 11
53.2136030508
 21
-57.8256987372
 31
0.0
  0
LINE
  5
2FA
330
2F3
100
AcDbEntity
  8
SK2
100
AcDbLine
 10
53.2136030508
 20
-57.8256987372
 30
0.0
 11
54.2800093083
 21
-57.8256987372
 31
0.0
  0
LINE
  5
2FB
330
2F3
100
AcDbEntity
  8
SK2
100
AcDbLine
 10
68.5036212219
 20
-52.2694487461
 30
0.0
 11
69.5700274793
 21
-52.2694487461
 31
0.0
  0
LINE
  5
2FC
330
2F3
100
AcDbEntity
  8
SK2
100
AcDbLine
 10
69.5700274793
 20
-52.2694487461
 30
0.0
 11
69.5700274793
 21
-57.8256987372
 31
0.0
  0
LINE
  5
2FD
330
2F3
100
AcDbEntity
  8
SK2
100
AcDbLine
 10
69.5700274793
 20
-57.8256987372
 30
0.0
 11
68.5036212219
 21
-57.8256987372
 31
0.0
  0
LINE
  5
2FE
330
2F3
100
AcDbEntity
  8
SK2
100
AcDbLine
 10
196.85
 20
-11.3619699893
 30
0.0
 11
196.85
 21
-64.0623304622
 31
0.0
  0
LINE
  5
2FF
330
2F3
100
AcDbEntity
  8
SK2
100
AcDbLine
 10
-101.6
 20
-19.2922326599
 30
0.0
 11
-101.6
 21
-64.0623304622
 31
0.0
  0
LINE
  5
300
330
2F3
100
AcDbEntity
  8
SK2
100
AcDbLine
 10
196.85
 20
-63.0623304622
 30
0.0
 11
-101.6
 21
-63.0623304622
 31
0.0
  0
MTEXT
  5
301
330
2F3
100
AcDbEntity
  8
SK2
100
AcDbMText
 10
52.1666411966
 20
-58.4971211963
 30
0.0
 40
3.5
 41
0.0
 71
     1
 72
     1
  1

  7
SLDTEXTSTYLE0
 73
     1
 44
1.0
  0
MTEXT
  5
302
330
2F3
100
AcDbEntity
  8
SK2
100
AcDbMText
 10
54.2800093083
 20
-53.3139618226
 30
0.0
 40
3.5
 41
0.0
 71
     1
 72
     1
  1
11,750
  7
SLDTEXTSTYLE0
 73
     1
 44
1.0
  0
MTEXT
  5
303
330
2F3
100
AcDbEntity
  8
SK2
100
AcDbMText
 10
54.2800088426
 20
-58.550593373
 30
0.0
 40
3.5
 41
0.0
 71
     1
 72
     1
  1
298,45
  7
SLDTEXTSTYLE0
 73
     1
 44
1.0
  0
MTEXT
  5
304
330
2F3
100
AcDbEntity
  8
SK2
100
AcDbMText
 10
71.9489329219
 20
-58.4971211963
 30
0.0
 40
3.5
 41
0.0
 71
     1
 72
     1
  1

  7
SLDTEXTSTYLE0
 73
     1
 44
1.0
  0
ENDBLK
  5
2F5
330
2F3
100
AcDbEntity
  8
0
100
AcDbBlockEnd
  0
BLOCK
  5
307
330
306
100
AcDbEntity
  8
0
100
AcDbBlockBegin
  2
_D_10
 70
     0
 10
0.0
 20
0.0
 30
0.0
  3
_D_10
  1

  0
SOLID
  5
309
330
306
100
AcDbEntity
  8
SK2
100
AcDbTrace
 10
146.050408794
 20
-52.1046469306
 30
0.0
 11
149.352408794
 21
-52.6126469306
 31
0.0
 12
149.352408794
 22
-51.5966469306
 32
0.0
 13
149.352408794
 23
-51.5966469306
 33
0.0
  0
SOLID
  5
30A
330
306
100
AcDbEntity
  8
SK2
100
AcDbTrace
 10
196.85
 20
-52.1046469306
 30
0.0
 11
193.548
 21
-51.5966469306
 31
0.0
 12
193.548
 22
-52.6126469306
 32
0.0
 13
193.548
 23
-52.6126469306
 33
0.0
  0
LINE
  5
30B
330
306
100
AcDbEntity
  8
SK2
100
AcDbLine
 10
169.6293183254
 20
-41.3117652145
 30
0.0
 11
168.5629120679
 21
-41.3117652145
 31
0.0
  0
LINE
  5
30C
330
306
100
AcDbEntity
  8
SK2
100
AcDbLine
 10
168.5629120679
 20
-41.3117652145
 30
0.0
 11
168.5629120679
 21
-46.8680152056
 31
0.0
  0
LINE
  5
30D
330
306
100
AcDbEntity
  8
SK2
100
AcDbLine
 10
168.5629120679
 20
-46.8680152056
 30
0.0
 11
169.6293183254
 21
-46.8680152056
 31
0.0
  0
LINE
  5
30E
330
306
100
AcDbEntity
  8
SK2
100
AcDbLine
 10
178.6807073863
 20
-41.3117652145
 30
0.0
 11
179.7471136437
 21
-41.3117652145
 31
0.0
  0
LINE
  5
30F
330
306
100
AcDbEntity
  8
SK2
100
AcDbLine
 10
179.7471136437
 20
-41.3117652145
 30
0.0
 11
179.7471136437
 21
-46.8680152056
 31
0.0
  0
LINE
  5
310
330
306
100
AcDbEntity
  8
SK2
100
AcDbLine
 10
179.7471136437
 20
-46.8680152056
 30
0.0
 11
178.6807073863
 21
-46.8680152056
 31
0.0
  0
LINE
  5
311
330
306
100
AcDbEntity
  8
SK2
100
AcDbLine
 10
146.050408794
 20
-10.525
 30
0.0
 11
146.050408794
 21
-53.1046469306
 31
0.0
  0
LINE
  5
312
330
306
100
AcDbEntity
  8
SK2
100
AcDbLine
 10
196.85
 20
-15.605
 30
0.0
 11
196.85
 21
-53.1046469306
 31
0.0
  0
LINE
  5
313
330
306
100
AcDbEntity
  8
SK2
100
AcDbLine
 10
146.050408794
 20
-52.1046469306
 30
0.0
 11
196.85
 21
-52.1046469306
 31
0.0
  0
MTEXT
  5
314
330
306
100
AcDbEntity
  8
SK2
100
AcDbMText
 10
167.5159502137
 20
-47.5394376647
 30
0.0
 40
3.5
 41
0.0
 71
     1
 72
     1
  1

  7
SLDTEXTSTYLE0
 73
     1
 44
1.0
  0
MTEXT
  5
315
330
306
100
AcDbEntity
  8
SK2
100
AcDbMText
 10
169.6293183254
 20
-42.356278291
 30
0.0
 40
3.5
 41
0.0
 71
     1
 72
     1
  1
2,00
  7
SLDTEXTSTYLE0
 73
     1
 44
1.0
  0
MTEXT
  5
316
330
306
100
AcDbEntity
  8
SK2
100
AcDbMText
 10
169.6293183254
 20
-47.5929098414
 30
0.0
 40
3.5
 41
0.0
 71
     1
 72
     1
  1
50,8
  7
SLDTEXTSTYLE0
 73
     1
 44
1.0
  0
MTEXT
  5
317
330
306
100
AcDbEntity
  8
SK2
100
AcDbMText
 10
182.1260200176
 20
-47.5394376647
 30
0.0
 40
3.5
 41
0.0
 71
     1
 72
     1
  1

  7
SLDTEXTSTYLE0
 73
     1
 44
1.0
  0
ENDBLK
  5
308
330
306
100
AcDbEntity
  8
0
100
AcDbBlockEnd
  0
BLOCK
  5
31B
330
31A
100
AcDbEntity
  8
0
100
AcDbBlockBegin
  2
_D_11
 70
     0
 10
0.0
 20
0.0
 30
0.0
  3
_D_11
  1

  0
SOLID
  5
31D
330
31A
100
AcDbEntity
  8
SK2
100
AcDbTrace
 10
189.23
 20
-35.6857041127
 30
0.0
 11
185.928
 21
-35.1777041127
 31
0.0
 12
185.928
 22
-36.1937041127
 32
0.0
 13
185.928
 23
-36.1937041127
 33
0.0
  0
SOLID
  5
31E
330
31A
100
AcDbEntity
  8
SK2
100
AcDbTrace
 10
196.85
 20
-35.6857041127
 30
0.0
 11
200.152
 21
-36.1937041127
 31
0.0
 12
200.152
 22
-35.1777041127
 32
0.0
 13
200.152
 23
-35.1777041127
 33
0.0
  0
LINE
  5
31F
330
31A
100
AcDbEntity
  8
SK2
100
AcDbLine
 10
189.23
 20
-23.225
 30
0.0
 11
189.23
 21
-36.6857041127
 31
0.0
  0
LINE
  5
320
330
31A
100
AcDbEntity
  8
SK2
100
AcDbLine
 10
196.85
 20
-15.605
 30
0.0
 11
196.85
 21
-36.6857041127
 31
0.0
  0
LINE
  5
321
330
31A
100
AcDbEntity
  8
SK2
100
AcDbLine
 10
189.23
 20
-35.6857041127
 30
0.0
 11
174.2943787677
 21
-35.6857041127
 31
0.0
  0
LINE
  5
322
330
31A
100
AcDbEntity
  8
SK2
100
AcDbLine
 10
189.23
 20
-35.6857041127
 30
0.0
 11
196.85
 21
-35.6857041127
 31
0.0
  0
LINE
  5
323
330
31A
100
AcDbEntity
  8
SK2
100
AcDbLine
 10
196.85
 20
-35.6857041127
 30
0.0
 11
203.2
 21
-35.6857041127
 31
0.0
  0
MTEXT
  5
324
330
31A
100
AcDbEntity
  8
SK2
100
AcDbMText
 10
174.2943787677
 20
-31.1739671982
 30
0.0
 40
3.5
 41
0.0
 71
     1
 72
     1
  1
7,62
  7
SLDTEXTSTYLE0
 73
     1
 44
1.0
  0
ENDBLK
  5
31C
330
31A
100
AcDbEntity
  8
0
100
AcDbBlockEnd
  0
BLOCK
  5
327
330
326
100
AcDbEntity
  8
0
100
AcDbBlockBegin
  2
_D_12
 70
     0
 10
0.0
 20
0.0
 30
0.0
  3
_D_12
  1

  0
SOLID
  5
329
330
326
100
AcDbEntity
  8
SK2
100
AcDbTrace
 10
-125.2680714763
 20
47.2968145978
 30
0.0
 11
-125.7760714763
 21
43.9948145978
 31
0.0
 12
-124.7600714763
 22
43.9948145978
 32
0.0
 13
-124.7600714763
 23
43.9948145978
 33
0.0
  0
SOLID
  5
32A
330
326
100
AcDbEntity
  8
SK2
100
AcDbTrace
 10
-125.2680714763
 20
-47.4754841997
 30
0.0
 11
-124.7600714763
 21
-44.1734841997
 31
0.0
 12
-125.7760714763
 22
-44.1734841997
 32
0.0
 13
-125.7760714763
 23
-44.1734841997
 33
0.0
  0
LINE
  5
32B
330
326
100
AcDbEntity
  8
SK2
100
AcDbLine
 10
4.7701383033
 20
47.2968145978
 30
0.0
 11
-126.2680714763
 21
47.2968145978
 31
0.0
  0
LINE
  5
32C
330
326
100
AcDbEntity
  8
SK2
100
AcDbLine
 10
2.95
 20
-47.4754841997
 30
0.0
 11
-126.2680714763
 21
-47.4754841997
 31
0.0
  0
LINE
  5
32D
330
326
100
AcDbEntity
  8
SK2
100
AcDbLine
 10
-125.2680714763
 20
47.2968145978
 30
0.0
 11
-125.2680714763
 21
-47.4754841997
 31
0.0
  0
MTEXT
  5
32E
330
326
100
AcDbEntity
  8
SK2
100
AcDbMText
 10
-129.7798085655
 20
-10.8419117775
 30
0.0
 40
3.5
 41
0.0
 71
     1
 72
     1
  1
%%c
  7
SLDTEXTSTYLE0
 11
-7.044195017643634E-15
 21
1.0
 31
0.0
 73
     1
 44
1.0
  0
MTEXT
  5
32F
330
326
100
AcDbEntity
  8
SK2
100
AcDbMText
 10
-129.8332807421
 20
-5.5634743791
 30
0.0
 40
3.5
 41
0.0
 71
     1
 72
     1
  1
98,42
  7
SLDTEXTSTYLE0
 11
-7.044195017643634E-15
 21
1.0
 31
0.0
 73
     1
 44
1.0
  0
ENDBLK
  5
328
330
326
100
AcDbEntity
  8
0
100
AcDbBlockEnd
  0
BLOCK
  5
332
330
331
100
AcDbEntity
  8
0
100
AcDbBlockBegin
  2
_D_13
 70
     0
 10
0.0
 20
0.0
 30
0.0
  3
_D_13
  1

  0
SOLID
  5
334
330
331
100
AcDbEntity
  8
SK2
100
AcDbTrace
 10
-113.8476280335
 20
12.6999998465
 30
0.0
 11
-114.3556280335
 21
9.3979998465
 31
0.0
 12
-113.3396280335
 22
9.3979998465
 32
0.0
 13
-113.3396280335
 23
9.3979998465
 33
0.0
  0
SOLID
  5
335
330
331
100
AcDbEntity
  8
SK2
100
AcDbTrace
 10
-113.8476280335
 20
-12.6999998465
 30
0.0
 11
-113.3396280335
 21
-9.3979998465
 31
0.0
 12
-114.3556280335
 22
-9.3979998465
 32
0.0
 13
-114.3556280335
 23
-9.3979998465
 33
0.0
  0
LINE
  5
336
330
331
100
AcDbEntity
  8
SK2
100
AcDbLine
 10
-95.967097044
 20
12.6999998465
 30
0.0
 11
-114.8476280335
 21
12.6999998465
 31
0.0
  0
LINE
  5
337
330
331
100
AcDbEntity
  8
SK2
100
AcDbLine
 10
-95.967097044
 20
-12.6999998465
 30
0.0
 11
-114.8476280335
 21
-12.6999998465
 31
0.0
  0
LINE
  5
338
330
331
100
AcDbEntity
  8
SK2
100
AcDbLine
 10
-113.8476280335
 20
12.6999998465
 30
0.0
 11
-113.8476280335
 21
-12.6999998465
 31
0.0
  0
MTEXT
  5
33A
330
331
100
AcDbEntity
  8
SK2
100
AcDbMText
 10
-118.3593649481
 20
-8.1569096199
 30
0.0
 40
3.5
 41
0.0
 71
     1
 72
     1
  1
1 - 8 UNC
  7
SLDTEXTSTYLE1
 11
-7.044195017643634E-15
 21
1.0
 31
0.0
 73
     1
 44
1.0
  0
ENDBLK
  5
333
330
331
100
AcDbEntity
  8
0
100
AcDbBlockEnd
  0
ENDSEC
  0
SECTION
  2
ENTITIES
  0
LINE
  5
82
330
1F
100
AcDbEntity
  8
SK1
  6
SLD-Solid
370
    25
100
AcDbLine
 10
0.0
 20
34.925
 30
0.0
 11
-99.8030472773
 21
20.3702515116
 31
0.0
  0
LINE
  5
83
330
1F
100
AcDbEntity
  8
SK1
  6
SLD-Solid
370
    25
100
AcDbLine
 10
-99.8030472773
 20
-20.3702515116
 30
0.0
 11
0.0
 21
-34.925
 31
0.0
  0
LINE
  5
84
330
1F
100
AcDbEntity
  8
1
  6
SLD-Solid
370
    25
100
AcDbLine
 10
1.7476022729
 20
34.925
 30
0.0
 11
0.0
 21
34.925
 31
0.0
  0
LINE
  5
85
330
1F
100
AcDbEntity
  8
1
  6
SLD-Solid
370
    25
100
AcDbLine
 10
0.0
 20
-34.925
 30
0.0
 11
1.7476022729
 21
-34.925
 31
0.0
  0
LINE
  5
86
330
1F
100
AcDbEntity
  8
1
  6
SLD-Solid
370
    25
100
AcDbLine
 10
1.7476022729
 20
-34.925
 30
0.0
 11
2.1330363037
 21
-34.7452691597
 31
0.0
  0
LINE
  5
87
330
1F
100
AcDbEntity
  8
1
  6
SLD-Solid
370
    25
100
AcDbLine
 10
2.1330363037
 20
34.7452691597
 30
0.0
 11
1.7476022729
 21
34.925
 31
0.0
  0
LINE
  5
88
330
1F
100
AcDbEntity
  8
1
  6
SLD-Solid
370
    25
100
AcDbLine
 10
33.576
 20
34.925
 30
0.0
 11
19.812
 21
34.925
 31
0.0
  0
LINE
  5
89
330
1F
100
AcDbEntity
  8
1
  6
SLD-Solid
370
    25
100
AcDbLine
 10
19.812
 20
-34.925
 30
0.0
 11
33.576
 21
-34.925
 31
0.0
  0
LINE
  5
8A
330
1F
100
AcDbEntity
  8
1
  6
SLD-Solid
370
    25
100
AcDbLine
 10
36.4382711207
 20
-28.6664903447
 30
0.0
 11
88.9
 21
-22.225
 31
0.0
  0
LINE
  5
8B
330
1F
100
AcDbEntity
  8
1
  6
SLD-Solid
370
    25
100
AcDbLine
 10
88.9
 20
22.225
 30
0.0
 11
36.4382711207
 21
28.6664903447
 31
0.0
  0
LINE
  5
8C
330
1F
100
AcDbEntity
  8
1
  6
SLD-Solid
370
    25
100
AcDbLine
 10
162.35
 20
22.225
 30
0.0
 11
88.9
 21
22.225
 31
0.0
  0
LINE
  5
8D
330
1F
100
AcDbEntity
  8
1
  6
SLD-Solid
370
    25
100
AcDbLine
 10
189.23
 20
22.225
 30
0.0
 11
180.5336658494
 21
22.225
 31
0.0
  0
LINE
  5
8E
330
1F
100
AcDbEntity
  8
1
  6
SLD-Solid
370
    25
100
AcDbLine
 10
181.4611161555
 20
-22.225
 30
0.0
 11
189.23
 21
-22.225
 31
0.0
  0
LINE
  5
8F
330
1F
100
AcDbEntity
  8
1
  6
SLD-Solid
370
    25
100
AcDbLine
 10
88.9
 20
-22.225
 30
0.0
 11
161.425453347
 21
-22.225
 31
0.0
  0
LINE
  5
90
330
1F
100
AcDbEntity
  8
1
  6
SLD-Solid
370
    25
100
AcDbLine
 10
189.23
 20
-22.225
 30
0.0
 11
196.85
 21
-14.605
 31
0.0
  0
LINE
  5
91
330
1F
100
AcDbEntity
  8
1
  6
SLD-Solid
370
    25
100
AcDbLine
 10
196.85
 20
14.605
 30
0.0
 11
189.23
 21
22.225
 31
0.0
  0
LINE
  5
92
330
1F
100
AcDbEntity
  8
1
  6
SLD-Solid
370
    25
100
AcDbLine
 10
14.6397233934
 20
-47.4754841997
 30
0.0
 11
18.3
 21
-47.4754841997
 31
0.0
  0
LINE
  5
93
330
1F
100
AcDbEntity
  8
1
  6
SLD-Solid
370
    25
100
AcDbLine
 10
14.6397233934
 20
47.2968145978
 30
0.0
 11
14.6397233934
 21
-47.4754841997
 31
0.0
  0
LINE
  5
94
330
1F
100
AcDbEntity
  8
1
  6
SLD-Solid
370
    25
100
AcDbLine
 10
18.3
 20
47.2968145978
 30
0.0
 11
14.6397233934
 21
47.2968145978
 31
0.0
  0
LINE
  5
95
330
1F
100
AcDbEntity
  8
1
  6
SLD-Solid
370
    25
100
AcDbLine
 10
18.3
 20
-47.4754841997
 30
0.0
 11
18.3
 21
47.2968145978
 31
0.0
  0
LINE
  5
96
330
1F
100
AcDbEntity
  8
1
  6
SLD-Solid
370
    25
100
AcDbLine
 10
3.95
 20
-47.4754841997
 30
0.0
 11
7.5902766066
 21
-47.4754841997
 31
0.0
  0
LINE
  5
97
330
1F
100
AcDbEntity
  8
1
  6
SLD-Solid
370
    25
100
AcDbLine
 10
3.95
 20
47.2968145978
 30
0.0
 11
3.95
 21
-47.4754841997
 31
0.0
  0
LINE
  5
98
330
1F
100
AcDbEntity
  8
1
  6
SLD-Solid
370
    25
100
AcDbLine
 10
7.5902766066
 20
47.2968145978
 30
0.0
 11
3.95
 21
47.2968145978
 31
0.0
  0
LINE
  5
99
330
1F
100
AcDbEntity
  8
1
  6
SLD-Solid
370
    25
100
AcDbLine
 10
7.5902766066
 20
47.2968145978
 30
0.0
 11
7.5902766066
 21
-47.4754841997
 31
0.0
  0
LINE
  5
9A
330
1F
100
AcDbEntity
  8
1
  6
SLD-Solid
370
    25
100
AcDbLine
 10
3.2
 20
-46.6976348437
 30
0.0
 11
3.2
 21
46.5560855313
 31
0.0
  0
LINE
  5
9B
330
1F
100
AcDbEntity
  8
1
  6
SLD-Solid
370
    25
100
AcDbLine
 10
19.05
 20
46.5560855313
 30
0.0
 11
19.05
 21
-46.6976348437
 31
0.0
  0
LINE
  5
9C
330
1F
100
AcDbEntity
  8
1
  6
SLD-Solid
370
    25
100
AcDbLine
 10
9.2
 20
44.5790106634
 30
0.0
 11
9.2
 21
41.9587011964
 31
0.0
  0
LINE
  5
9D
330
1F
100
AcDbEntity
  8
1
  6
SLD-Solid
370
    25
100
AcDbLine
 10
9.2
 20
41.4830129515
 30
0.0
 11
9.2
 21
35.3885961177
 31
0.0
  0
LINE
  5
9E
330
1F
100
AcDbEntity
  8
1
  6
SLD-Solid
370
    25
100
AcDbLine
 10
9.2
 20
34.676688935
 30
0.0
 11
9.2
 21
-44.5790106634
 31
0.0
  0
LINE
  5
9F
330
1F
100
AcDbEntity
  8
1
  6
SLD-Solid
370
    25
100
AcDbLine
 10
13.03
 20
44.5790106634
 30
0.0
 11
13.03
 21
41.9871173317
 31
0.0
  0
LINE
  5
A0
330
1F
100
AcDbEntity
  8
1
  6
SLD-Solid
370
    25
100
AcDbLine
 10
13.03
 20
34.6324292339
 30
0.0
 11
13.03
 21
-44.5790106634
 31
0.0
  0
LINE
  5
A1
330
1F
100
AcDbEntity
  8
1
  6
SLD-Solid
370
    25
100
AcDbLine
 10
13.03
 20
41.453113616
 30
0.0
 11
13.03
 21
35.4316103884
 31
0.0
  0
LINE
  5
A2
330
1F
100
AcDbEntity
  8
1
  6
SLD-Solid
370
    25
100
AcDbLine
 10
12.28
 20
33.3554707167
 30
0.0
 11
12.28
 21
-43.7694359685
 31
0.0
  0
LINE
  5
A3
330
1F
100
AcDbEntity
  8
1
  6
SLD-Solid
370
    25
100
AcDbLine
 10
9.95
 20
33.3652595305
 30
0.0
 11
9.95
 21
-43.7694359685
 31
0.0
  0
LINE
  5
A4
330
1F
100
AcDbEntity
  8
1
  6
SLD-Solid
370
    25
100
AcDbLine
 10
9.95
 20
-43.7694359685
 30
0.0
 11
12.28
 21
-43.7694359685
 31
0.0
  0
LINE
  5
A5
330
1F
100
AcDbEntity
  8
1
  6
SLD-Solid
370
    25
100
AcDbLine
 10
0.0
 20
34.925
 30
0.0
 11
0.0
 21
-34.925
 31
0.0
  0
LINE
  5
A6
330
1F
100
AcDbEntity
  8
1
  6
SLD-Solid
370
    25
100
AcDbLine
 10
1.7476022729
 20
34.925
 30
0.0
 11
1.7476022729
 21
-34.925
 31
0.0
  0
LINE
  5
A7
330
1F
100
AcDbEntity
  8
1
  6
SLD-Solid
370
    25
100
AcDbLine
 10
35.1
 20
0.0
 30
0.0
 11
35.1
 21
-33.401
 31
0.0
  0
LINE
  5
A8
330
1F
100
AcDbEntity
  8
1
  6
SLD-Solid
370
    25
100
AcDbLine
 10
35.1
 20
33.401
 30
0.0
 11
35.1
 21
0.0
 31
0.0
  0
LINE
  5
A9
330
1F
100
AcDbEntity
  8
1
  6
SLD-Solid
370
    25
100
AcDbLine
 10
9.2
 20
35.3885961177
 30
0.0
 11
9.2
 21
35.3683101782
 31
0.0
  0
LINE
  5
AA
330
1F
100
AcDbEntity
  8
1
  6
SLD-Solid
370
    25
100
AcDbLine
 10
13.03
 20
35.4113240881
 30
0.0
 11
13.03
 21
35.4316103884
 31
0.0
  0
LINE
  5
AB
330
1F
100
AcDbEntity
  8
1
  6
SLD-Solid
370
    25
100
AcDbLine
 10
9.95
 20
40.2901760725
 30
0.0
 11
9.95
 21
35.4888548114
 31
0.0
  0
LINE
  5
AC
330
1F
100
AcDbEntity
  8
1
  6
SLD-Solid
370
    25
100
AcDbLine
 10
12.28
 20
40.2834337913
 30
0.0
 11
12.28
 21
35.4978726362
 31
0.0
  0
LINE
  5
AD
330
1F
100
AcDbEntity
  8
1
  6
SLD-Solid
370
    25
100
AcDbLine
 10
88.9
 20
22.225
 30
0.0
 11
88.9
 21
-22.225
 31
0.0
  0
LINE
  5
AE
330
1F
100
AcDbEntity
  8
1
  6
SLD-Solid
370
    25
100
AcDbLine
 10
189.23
 20
22.225
 30
0.0
 11
189.23
 21
-22.225
 31
0.0
  0
LINE
  5
AF
330
1F
100
AcDbEntity
  8
1
  6
SLD-Solid
370
    25
100
AcDbLine
 10
196.85
 20
14.605
 30
0.0
 11
196.85
 21
-14.605
 31
0.0
  0
LINE
  5
B0
330
1F
100
AcDbEntity
  8
1
  6
SLD-Solid
370
    25
100
AcDbLine
 10
9.2
 20
41.9587011964
 30
0.0
 11
9.2
 21
41.9345423912
 31
0.0
  0
LINE
  5
B1
330
1F
100
AcDbEntity
  8
1
  6
SLD-Solid
370
    25
100
AcDbLine
 10
13.03
 20
41.9629580968
 30
0.0
 11
13.03
 21
41.9871173317
 31
0.0
  0
LINE
  5
B2
330
1F
100
AcDbEntity
  8
SK1
  6
SLD-Solid
370
    25
100
AcDbLine
 10
-101.6
 20
-18.2922326599
 30
0.0
 11
-101.6
 21
18.2922326599
 31
0.0
  0
LINE
  5
B3
330
1F
100
AcDbEntity
  8
1
  6
SLD-Solid
370
    25
100
AcDbLine
 10
9.95
 20
43.7694359685
 30
0.0
 11
9.95
 21
41.7091381742
 31
0.0
  0
LINE
  5
B4
330
1F
100
AcDbEntity
  8
1
  6
SLD-Solid
370
    25
100
AcDbLine
 10
12.28
 20
43.7694359685
 30
0.0
 11
12.28
 21
41.714962274
 31
0.0
  0
LINE
  5
B5
330
1F
100
AcDbEntity
  8
1
  6
SLD-Solid
370
    25
100
AcDbLine
 10
9.95
 20
43.7694359685
 30
0.0
 11
12.28
 21
43.7694359685
 31
0.0
  0
LINE
  5
B6
330
1F
100
AcDbEntity
  8
1
  6
SLD-Solid
370
    25
100
AcDbLine
 10
19.812
 20
0.0
 30
0.0
 11
19.812
 21
-34.925
 31
0.0
  0
LINE
  5
B7
330
1F
100
AcDbEntity
  8
1
  6
SLD-Solid
370
    25
100
AcDbLine
 10
19.812
 20
34.925
 30
0.0
 11
19.812
 21
0.0
 31
0.0
  0
LINE
  5
B8
330
1F
100
AcDbEntity
  8
1
  6
SLD-Solid
370
    25
100
AcDbLine
 10
2.1330363037
 20
34.7452691597
 30
0.0
 11
2.1330363037
 21
-34.7452691597
 31
0.0
  0
LINE
  5
B9
330
1F
100
AcDbEntity
  8
SK1
  6
SLD-Solid
370
    25
100
AcDbLine
 10
-99.8030472773
 20
0.0
 30
0.0
 11
-99.8030472773
 21
-20.3702515116
 31
0.0
  0
LINE
  5
BA
330
1F
100
AcDbEntity
  8
SK1
  6
SLD-Solid
370
    25
100
AcDbLine
 10
-99.8030472773
 20
20.3702515116
 30
0.0
 11
-99.8030472773
 21
0.0
 31
0.0
  0
LINE
  5
BB
330
1F
100
AcDbEntity
  8
1
  6
SLD-Solid
370
    25
100
AcDbLine
 10
33.576
 20
0.0
 30
0.0
 11
33.576
 21
34.925
 31
0.0
  0
LINE
  5
BC
330
1F
100
AcDbEntity
  8
1
  6
SLD-Solid
370
    25
100
AcDbLine
 10
33.576
 20
-34.925
 30
0.0
 11
33.576
 21
0.0
 31
0.0
  0
LINE
  5
BD
330
1F
100
AcDbEntity
  8
1
  6
SLD-Solid
370
    25
100
AcDbLine
 10
36.4382711207
 20
0.0
 30
0.0
 11
36.4382711207
 21
-28.6664903447
 31
0.0
  0
LINE
  5
BE
330
1F
100
AcDbEntity
  8
1
  6
SLD-Solid
370
    25
100
AcDbLine
 10
36.4382711207
 20
28.6664903447
 30
0.0
 11
36.4382711207
 21
0.0
 31
0.0
  0
LINE
  5
BF
330
1F
100
AcDbEntity
  8
SK3
  6
SLD-Dashed
370
    18
100
AcDbLine
 10
6.4723069743
 20
-13.9015950424
 30
0.0
 11
6.2738681408
 21
-13.1524141642
 31
0.0
  0
LINE
  5
C0
330
1F
100
AcDbEntity
  8
SK3
  6
SLD-Dashed
370
    18
100
AcDbLine
 10
6.2738681408
 20
-13.1524141642
 30
0.0
 11
5.9563427035
 21
-12.4698012947
 31
0.0
  0
LINE
  5
C1
330
1F
100
AcDbEntity
  8
SK3
  6
SLD-Dashed
370
    18
100
AcDbLine
 10
5.9563427035
 20
-12.4698012947
 30
0.0
 11
5.5479441909
 21
-11.914409583
 31
0.0
  0
LINE
  5
C2
330
1F
100
AcDbEntity
  8
SK3
  6
SLD-Dashed
370
    18
100
AcDbLine
 10
5.5479441909
 20
-11.914409583
 30
0.0
 11
5.084960603
 21
-11.53558802
 31
0.0
  0
LINE
  5
C3
330
1F
100
AcDbEntity
  8
SK3
  6
SLD-Dashed
370
    18
100
AcDbLine
 10
5.084960603
 20
-11.53558802
 30
0.0
 11
4.6085300634
 21
-11.366996564
 31
0.0
  0
LINE
  5
C4
330
1F
100
AcDbEntity
  8
SK3
  6
SLD-Dashed
370
    18
100
AcDbLine
 10
4.6085300634
 20
-11.366996564
 30
0.0
 11
4.1609855163
 21
-11.4236153057
 31
0.0
  0
LINE
  5
C5
330
1F
100
AcDbEntity
  8
SK3
  6
SLD-Dashed
370
    18
100
AcDbLine
 10
4.1609855163
 20
-11.4236153057
 30
0.0
 11
3.7820932588
 21
-11.7004134215
 31
0.0
  0
LINE
  5
C6
330
1F
100
AcDbEntity
  8
SK3
  6
SLD-Dashed
370
    18
100
AcDbLine
 10
3.7820932588
 20
-11.7004134215
 30
0.0
 11
3.5055195307
 21
-12.172796184
 31
0.0
  0
LINE
  5
C7
330
1F
100
AcDbEntity
  8
SK3
  6
SLD-Dashed
370
    18
100
AcDbLine
 10
3.5055195307
 20
-12.172796184
 30
0.0
 11
3.3558391214
 21
-12.7987903117
 31
0.0
  0
LINE
  5
C8
330
1F
100
AcDbEntity
  8
SK3
  6
SLD-Dashed
370
    18
100
AcDbLine
 10
3.3558391214
 20
-12.7987903117
 30
0.0
 11
3.3463517921
 21
-13.5227734794
 31
0.0
  0
LINE
  5
C9
330
1F
100
AcDbEntity
  8
SK3
  6
SLD-Dashed
370
    18
100
AcDbLine
 10
3.3463517921
 20
-13.5227734794
 30
0.0
 11
3.4779005338
 21
-14.2804166054
 31
0.0
  0
LINE
  5
CA
330
1F
100
AcDbEntity
  8
SK3
  6
SLD-Dashed
370
    18
100
AcDbLine
 10
3.4779005338
 20
-14.2804166054
 30
0.0
 11
3.7387966634
 21
-15.0043997731
 31
0.0
  0
LINE
  5
CB
330
1F
100
AcDbEntity
  8
SK3
  6
SLD-Dashed
370
    18
100
AcDbLine
 10
3.7387966634
 20
-15.0043997731
 30
0.0
 11
4.1058584148
 21
-15.6303939009
 31
0.0
  0
LINE
  5
CC
330
1F
100
AcDbEntity
  8
SK3
  6
SLD-Dashed
370
    18
100
AcDbLine
 10
4.1058584148
 20
-15.6303939009
 30
0.0
 11
4.5464707407
 21
-16.1027766634
 31
0.0
  0
LINE
  5
CD
330
1F
100
AcDbEntity
  8
SK3
  6
SLD-Dashed
370
    18
100
AcDbLine
 10
4.5464707407
 20
-16.1027766634
 30
0.0
 11
5.0214833023
 21
-16.3795747791
 31
0.0
  0
LINE
  5
CE
330
1F
100
AcDbEntity
  8
SK3
  6
SLD-Dashed
370
    18
100
AcDbLine
 10
5.0214833023
 20
-16.3795747791
 30
0.0
 11
5.4886891489
 21
-16.4361935208
 31
0.0
  0
LINE
  5
CF
330
1F
100
AcDbEntity
  8
SK3
  6
SLD-Dashed
370
    18
100
AcDbLine
 10
5.4886891489
 20
-16.4361935208
 30
0.0
 11
5.9065749908
 21
-16.2676020648
 31
0.0
  0
LINE
  5
D0
330
1F
100
AcDbEntity
  8
SK3
  6
SLD-Dashed
370
    18
100
AcDbLine
 10
5.9065749908
 20
-16.2676020648
 30
0.0
 11
6.238009837
 21
-15.8887805018
 31
0.0
  0
LINE
  5
D1
330
1F
100
AcDbEntity
  8
SK3
  6
SLD-Dashed
370
    18
100
AcDbLine
 10
6.238009837
 20
-15.8887805018
 30
0.0
 11
6.453544247
 21
-15.3333887902
 31
0.0
  0
LINE
  5
D2
330
1F
100
AcDbEntity
  8
SK3
  6
SLD-Dashed
370
    18
100
AcDbLine
 10
6.453544247
 20
-15.3333887902
 30
0.0
 11
6.5340270426
 21
-14.6507759207
 31
0.0
  0
LINE
  5
D3
330
1F
100
AcDbEntity
  8
SK3
  6
SLD-Dashed
370
    18
100
AcDbLine
 10
6.5340270426
 20
-14.6507759207
 30
0.0
 11
6.4723069743
 21
-13.9015950424
 31
0.0
  0
LINE
  5
D4
330
1F
100
AcDbEntity
  8
SK3
  6
SLD-Dashed
370
    18
100
AcDbLine
 10
6.4545594773
 20
-13.8826166832
 30
0.0
 11
6.5121013678
 21
-14.6227336269
 31
0.0
  0
LINE
  5
D5
330
1F
100
AcDbEntity
  8
SK3
  6
SLD-Dashed
370
    18
100
AcDbLine
 10
6.5121013678
 20
-14.6227336269
 30
0.0
 11
6.4220830584
 21
-15.2904027674
 31
0.0
  0
LINE
  5
D6
330
1F
100
AcDbEntity
  8
SK3
  6
SLD-Dashed
370
    18
100
AcDbLine
 10
6.4220830584
 20
-15.2904027674
 30
0.0
 11
6.1933161683
 21
-15.8202679974
 31
0.0
  0
LINE
  5
D7
330
1F
100
AcDbEntity
  8
SK3
  6
SLD-Dashed
370
    18
100
AcDbLine
 10
6.1933161683
 20
-15.8202679974
 30
0.0
 11
5.8481939947
 21
-16.1604624163
 31
0.0
  0
LINE
  5
D8
330
1F
100
AcDbEntity
  8
SK3
  6
SLD-Dashed
370
    18
100
AcDbLine
 10
5.8481939947
 20
-16.1604624163
 30
0.0
 11
5.4204995004
 21
-16.2776854242
 31
0.0
  0
LINE
  5
D9
330
1F
100
AcDbEntity
  8
SK3
  6
SLD-Dashed
370
    18
100
AcDbLine
 10
5.4204995004
 20
-16.2776854242
 30
0.0
 11
4.9520984027
 21
-16.1604624163
 31
0.0
  0
LINE
  5
DA
330
1F
100
AcDbEntity
  8
SK3
  6
SLD-Dashed
370
    18
100
AcDbLine
 10
4.9520984027
 20
-16.1604624163
 30
0.0
 11
4.4888410643
 21
-15.8202679974
 31
0.0
  0
LINE
  5
DB
330
1F
100
AcDbEntity
  8
SK3
  6
SLD-Dashed
370
    18
100
AcDbLine
 10
4.4888410643
 20
-15.8202679974
 30
0.0
 11
4.0760743414
 21
-15.2904027674
 31
0.0
  0
LINE
  5
DC
330
1F
100
AcDbEntity
  8
SK3
  6
SLD-Dashed
370
    18
100
AcDbLine
 10
4.0760743414
 20
-15.2904027674
 30
0.0
 11
3.7542027167
 21
-14.6227336269
 31
0.0
  0
LINE
  5
DD
330
1F
100
AcDbEntity
  8
SK3
  6
SLD-Dashed
370
    18
100
AcDbLine
 10
3.7542027167
 20
-14.6227336269
 30
0.0
 11
3.5547332273
 21
-13.8826166832
 31
0.0
  0
LINE
  5
DE
330
1F
100
AcDbEntity
  8
SK3
  6
SLD-Dashed
370
    18
100
AcDbLine
 10
3.5547332273
 20
-13.8826166832
 30
0.0
 11
3.4971913368
 21
-13.1424997395
 31
0.0
  0
LINE
  5
DF
330
1F
100
AcDbEntity
  8
SK3
  6
SLD-Dashed
370
    18
100
AcDbLine
 10
3.4971913368
 20
-13.1424997395
 30
0.0
 11
3.5872096462
 21
-12.4748305989
 31
0.0
  0
LINE
  5
E0
330
1F
100
AcDbEntity
  8
SK3
  6
SLD-Dashed
370
    18
100
AcDbLine
 10
3.5872096462
 20
-12.4748305989
 30
0.0
 11
3.8159765363
 21
-11.9449653689
 31
0.0
  0
LINE
  5
E1
330
1F
100
AcDbEntity
  8
SK3
  6
SLD-Dashed
370
    18
100
AcDbLine
 10
3.8159765363
 20
-11.9449653689
 30
0.0
 11
4.16109871
 21
-11.60477095
 31
0.0
  0
LINE
  5
E2
330
1F
100
AcDbEntity
  8
SK3
  6
SLD-Dashed
370
    18
100
AcDbLine
 10
4.16109871
 20
-11.60477095
 30
0.0
 11
4.5887932042
 21
-11.4875479421
 31
0.0
  0
LINE
  5
E3
330
1F
100
AcDbEntity
  8
SK3
  6
SLD-Dashed
370
    18
100
AcDbLine
 10
4.5887932042
 20
-11.4875479421
 30
0.0
 11
5.057194302
 21
-11.60477095
 31
0.0
  0
LINE
  5
E4
330
1F
100
AcDbEntity
  8
SK3
  6
SLD-Dashed
370
    18
100
AcDbLine
 10
5.057194302
 20
-11.60477095
 30
0.0
 11
5.5204516403
 21
-11.9449653689
 31
0.0
  0
LINE
  5
E5
330
1F
100
AcDbEntity
  8
SK3
  6
SLD-Dashed
370
    18
100
AcDbLine
 10
5.5204516403
 20
-11.9449653689
 30
0.0
 11
5.9332183632
 21
-12.4748305989
 31
0.0
  0
LINE
  5
E6
330
1F
100
AcDbEntity
  8
SK3
  6
SLD-Dashed
370
    18
100
AcDbLine
 10
5.9332183632
 20
-12.4748305989
 30
0.0
 11
6.255089988
 21
-13.1424997395
 31
0.0
  0
LINE
  5
E7
330
1F
100
AcDbEntity
  8
SK3
  6
SLD-Dashed
370
    18
100
AcDbLine
 10
6.255089988
 20
-13.1424997395
 30
0.0
 11
6.4545594773
 21
-13.8826166832
 31
0.0
  0
LINE
  5
E8
330
1F
100
AcDbEntity
  8
SK3
  6
SLD-Dashed
370
    18
100
AcDbLine
 10
17.1792841073
 20
-11.0168048658
 30
0.0
 11
16.979814618
 21
-10.2766879221
 31
0.0
  0
LINE
  5
E9
330
1F
100
AcDbEntity
  8
SK3
  6
SLD-Dashed
370
    18
100
AcDbLine
 10
16.979814618
 20
-10.2766879221
 30
0.0
 11
16.6579429932
 21
-9.6090187815
 31
0.0
  0
LINE
  5
EA
330
1F
100
AcDbEntity
  8
SK3
  6
SLD-Dashed
370
    18
100
AcDbLine
 10
16.6579429932
 20
-9.6090187815
 30
0.0
 11
16.2451762703
 21
-9.0791535516
 31
0.0
  0
LINE
  5
EB
330
1F
100
AcDbEntity
  8
SK3
  6
SLD-Dashed
370
    18
100
AcDbLine
 10
16.2451762703
 20
-9.0791535516
 30
0.0
 11
15.781918932
 21
-8.7389591326
 31
0.0
  0
LINE
  5
EC
330
1F
100
AcDbEntity
  8
SK3
  6
SLD-Dashed
370
    18
100
AcDbLine
 10
15.781918932
 20
-8.7389591326
 30
0.0
 11
15.3135178342
 21
-8.6217361247
 31
0.0
  0
LINE
  5
ED
330
1F
100
AcDbEntity
  8
SK3
  6
SLD-Dashed
370
    18
100
AcDbLine
 10
15.3135178342
 20
-8.6217361247
 30
0.0
 11
14.88582334
 21
-8.7389591326
 31
0.0
  0
LINE
  5
EE
330
1F
100
AcDbEntity
  8
SK3
  6
SLD-Dashed
370
    18
100
AcDbLine
 10
14.88582334
 20
-8.7389591326
 30
0.0
 11
14.5407011664
 21
-9.0791535516
 31
0.0
  0
LINE
  5
EF
330
1F
100
AcDbEntity
  8
SK3
  6
SLD-Dashed
370
    18
100
AcDbLine
 10
14.5407011664
 20
-9.0791535516
 30
0.0
 11
14.3119342763
 21
-9.6090187815
 31
0.0
  0
LINE
  5
F0
330
1F
100
AcDbEntity
  8
SK3
  6
SLD-Dashed
370
    18
100
AcDbLine
 10
14.3119342763
 20
-9.6090187815
 30
0.0
 11
14.2219159668
 21
-10.2766879221
 31
0.0
  0
LINE
  5
F1
330
1F
100
AcDbEntity
  8
SK3
  6
SLD-Dashed
370
    18
100
AcDbLine
 10
14.2219159668
 20
-10.2766879221
 30
0.0
 11
14.2794578574
 21
-11.0168048658
 31
0.0
  0
LINE
  5
F2
330
1F
100
AcDbEntity
  8
SK3
  6
SLD-Dashed
370
    18
100
AcDbLine
 10
14.2794578574
 20
-11.0168048658
 30
0.0
 11
14.4789273467
 21
-11.7569218095
 31
0.0
  0
LINE
  5
F3
330
1F
100
AcDbEntity
  8
SK3
  6
SLD-Dashed
370
    18
100
AcDbLine
 10
14.4789273467
 20
-11.7569218095
 30
0.0
 11
14.8007989714
 21
-12.42459095
 31
0.0
  0
LINE
  5
F4
330
1F
100
AcDbEntity
  8
SK3
  6
SLD-Dashed
370
    18
100
AcDbLine
 10
14.8007989714
 20
-12.42459095
 30
0.0
 11
15.2135656944
 21
-12.95445618
 31
0.0
  0
LINE
  5
F5
330
1F
100
AcDbEntity
  8
SK3
  6
SLD-Dashed
370
    18
100
AcDbLine
 10
15.2135656944
 20
-12.95445618
 30
0.0
 11
15.6768230327
 21
-13.294650599
 31
0.0
  0
LINE
  5
F6
330
1F
100
AcDbEntity
  8
SK3
  6
SLD-Dashed
370
    18
100
AcDbLine
 10
15.6768230327
 20
-13.294650599
 30
0.0
 11
16.1452241305
 21
-13.4118736069
 31
0.0
  0
LINE
  5
F7
330
1F
100
AcDbEntity
  8
SK3
  6
SLD-Dashed
370
    18
100
AcDbLine
 10
16.1452241305
 20
-13.4118736069
 30
0.0
 11
16.5729186247
 21
-13.294650599
 31
0.0
  0
LINE
  5
F8
330
1F
100
AcDbEntity
  8
SK3
  6
SLD-Dashed
370
    18
100
AcDbLine
 10
16.5729186247
 20
-13.294650599
 30
0.0
 11
16.9180407983
 21
-12.95445618
 31
0.0
  0
LINE
  5
F9
330
1F
100
AcDbEntity
  8
SK3
  6
SLD-Dashed
370
    18
100
AcDbLine
 10
16.9180407983
 20
-12.95445618
 30
0.0
 11
17.1468076884
 21
-12.42459095
 31
0.0
  0
LINE
  5
FA
330
1F
100
AcDbEntity
  8
SK3
  6
SLD-Dashed
370
    18
100
AcDbLine
 10
17.1468076884
 20
-12.42459095
 30
0.0
 11
17.2368259979
 21
-11.7569218095
 31
0.0
  0
LINE
  5
FB
330
1F
100
AcDbEntity
  8
SK3
  6
SLD-Dashed
370
    18
100
AcDbLine
 10
17.2368259979
 20
-11.7569218095
 30
0.0
 11
17.1792841073
 21
-11.0168048658
 31
0.0
  0
LINE
  5
FC
330
1F
100
AcDbEntity
  8
SK3
  6
SLD-Dashed
370
    18
100
AcDbLine
 10
-99.7034043657
 20
-13.19
 30
0.0
 11
-99.7034043657
 21
13.19
 31
0.0
  0
LINE
  5
FD
330
1F
100
AcDbEntity
  8
SK3
  6
SLD-Dashed
370
    18
100
AcDbLine
 10
-101.6
 20
-14.2568118156
 30
0.0
 11
-101.6
 21
14.2568118156
 31
0.0
  0
LINE
  5
FE
330
1F
100
AcDbEntity
  8
SK3
  6
SLD-Dashed
370
    18
100
AcDbLine
 10
-95.25
 20
-13.19
 30
0.0
 11
-95.25
 21
13.19
 31
0.0
  0
LINE
  5
FF
330
1F
100
AcDbEntity
  8
SK3
  6
SLD-Dashed
370
    18
100
AcDbLine
 10
-94.0505548158
 20
-11.1125
 30
0.0
 11
-94.0505548158
 21
11.1125
 31
0.0
  0
LINE
  5
100
330
1F
100
AcDbEntity
  8
SK3
  6
SLD-Dashed
370
    18
100
AcDbLine
 10
3.7
 20
37.875
 30
0.0
 11
3.7
 21
46.5560855313
 31
0.0
  0
LINE
  5
101
330
1F
100
AcDbEntity
  8
SK3
  6
SLD-Dashed
370
    18
100
AcDbLine
 10
18.55
 20
46.5560855313
 30
0.0
 11
18.55
 21
37.875
 31
0.0
  0
LINE
  5
102
330
1F
100
AcDbEntity
  8
SK3
  6
SLD-Dashed
370
    18
100
AcDbLine
 10
3.95
 20
46.8162535878
 30
0.0
 11
7.9572893801
 21
46.8162535878
 31
0.0
  0
LINE
  5
103
330
1F
100
AcDbEntity
  8
SK3
  6
SLD-Dashed
370
    18
100
AcDbLine
 10
14.2727106199
 20
46.8162535878
 30
0.0
 11
18.3
 21
46.8162535878
 31
0.0
  0
LINE
  5
104
330
1F
100
AcDbEntity
  8
1
  6
SLD-Dashed
370
    18
100
AcDbLine
 10
13.03
 20
44.5510215932
 30
0.0
 11
13.03
 21
44.5790106634
 31
0.0
  0
LINE
  5
105
330
1F
100
AcDbEntity
  8
1
  6
SLD-Dashed
370
    18
100
AcDbLine
 10
9.2
 20
44.5790106634
 30
0.0
 11
9.2
 21
44.5510215932
 31
0.0
  0
LINE
  5
106
330
1F
100
AcDbEntity
  8
1
  6
SLD-Dashed
370
    18
100
AcDbLine
 10
9.2
 20
-44.5790106634
 30
0.0
 11
9.2
 21
-44.5510215932
 31
0.0
  0
LINE
  5
107
330
1F
100
AcDbEntity
  8
1
  6
SLD-Dashed
370
    18
100
AcDbLine
 10
13.03
 20
-44.5510215932
 30
0.0
 11
13.03
 21
-44.5790106634
 31
0.0
  0
LINE
  5
108
330
1F
100
AcDbEntity
  8
SK3
  6
SLD-Dashed
370
    18
100
AcDbLine
 10
19.05
 20
-46.6976348437
 30
0.0
 11
19.05
 21
-35.475
 31
0.0
  0
LINE
  5
109
330
1F
100
AcDbEntity
  8
SK3
  6
SLD-Dashed
370
    18
100
AcDbLine
 10
3.2
 20
-35.475
 30
0.0
 11
3.2
 21
-46.6976348437
 31
0.0
  0
LINE
  5
10A
330
1F
100
AcDbEntity
  8
SK3
  6
SLD-Dashed
370
    18
100
AcDbLine
 10
19.05
 20
-35.1
 30
0.0
 11
3.2
 21
-35.1
 31
0.0
  0
LINE
  5
10B
330
1F
100
AcDbEntity
  8
SK3
  6
SLD-Dashed
370
    18
100
AcDbLine
 10
3.2
 20
-35.475
 30
0.0
 11
19.05
 21
-35.475
 31
0.0
  0
LINE
  5
10C
330
1F
100
AcDbEntity
  8
SK3
  6
SLD-Dashed
370
    18
100
AcDbLine
 10
3.7
 20
37.5
 30
0.0
 11
18.55
 21
37.5
 31
0.0
  0
LINE
  5
10D
330
1F
100
AcDbEntity
  8
SK3
  6
SLD-Dashed
370
    18
100
AcDbLine
 10
18.55
 20
37.875
 30
0.0
 11
3.7
 21
37.875
 31
0.0
  0
LINE
  5
10E
330
1F
100
AcDbEntity
  8
SK3
  6
SLD-Dashed
370
    18
100
AcDbLine
 10
43.45
 20
-11.1125
 30
0.0
 11
43.45
 21
11.1125
 31
0.0
  0
LINE
  5
10F
330
1F
100
AcDbEntity
  8
SK3
  6
SLD-Dashed
370
    18
100
AcDbLine
 10
44.1184574387
 20
10.0
 30
0.0
 11
44.1184574387
 21
-10.0
 31
0.0
  0
LINE
  5
110
330
1F
100
AcDbEntity
  8
SK3
  6
SLD-Dashed
370
    18
100
AcDbLine
 10
195.35
 20
-9.525
 30
0.0
 11
195.35
 21
9.525
 31
0.0
  0
LINE
  5
111
330
1F
100
AcDbEntity
  8
SK3
  6
SLD-Dashed
370
    18
100
AcDbLine
 10
196.85
 20
-10.3619699893
 30
0.0
 11
196.85
 21
10.3619699893
 31
0.0
  0
LINE
  5
112
330
1F
100
AcDbEntity
  8
SK3
  6
SLD-Dashed
370
    18
100
AcDbLine
 10
145.765
 20
-10.0
 30
0.0
 11
145.765
 21
10.0
 31
0.0
  0
LINE
  5
113
330
1F
100
AcDbEntity
  8
SK3
  6
SLD-Dashed
370
    18
100
AcDbLine
 10
146.050408794
 20
-9.525
 30
0.0
 11
146.050408794
 21
9.525
 31
0.0
  0
LINE
  5
114
330
1F
100
AcDbEntity
  8
SK3
  6
SLD-Dashed
370
    18
100
AcDbLine
 10
180.55
 20
20.125
 30
0.0
 11
162.35
 21
20.125
 31
0.0
  0
LINE
  5
115
330
1F
100
AcDbEntity
  8
SK3
  6
SLD-Dashed
370
    18
100
AcDbLine
 10
178.6255
 20
20.125
 30
0.0
 11
164.3033864534
 21
20.125
 31
0.0
  0
LINE
  5
116
330
1F
100
AcDbEntity
  8
SK3
  6
SLD-Dashed
370
    18
100
AcDbLine
 10
16.1
 20
33.1
 30
0.0
 11
6.1293102142
 21
33.1
 31
0.0
  0
LINE
  5
117
330
1F
100
AcDbEntity
  8
SK3
  6
SLD-Dashed
370
    18
100
AcDbLine
 10
6.1
 20
37.5
 30
0.0
 11
16.0706897858
 21
37.5
 31
0.0
  0
LINE
  5
118
330
1F
100
AcDbEntity
  8
SK3
  6
SLD-Dashed
370
    18
100
AcDbLine
 10
6.4
 20
32.8
 30
0.0
 11
15.8
 21
32.8
 31
0.0
  0
LINE
  5
119
330
1F
100
AcDbEntity
  8
1
  6
SLD-Dashed
370
    18
100
AcDbLine
 10
12.28
 20
43.7694359685
 30
0.0
 11
9.95
 21
43.7694359685
 31
0.0
  0
LINE
  5
11A
330
1F
100
AcDbEntity
  8
1
  6
SLD-Dashed
370
    18
100
AcDbLine
 10
12.28
 20
-43.7694359685
 30
0.0
 11
9.95
 21
-43.7694359685
 31
0.0
  0
LINE
  5
11B
330
1F
100
AcDbEntity
  8
1
  6
SLD-Dashed
370
    18
100
AcDbLine
 10
18.3
 20
-47.4754841997
 30
0.0
 11
14.6397233934
 21
-47.4754841997
 31
0.0
  0
LINE
  5
11C
330
1F
100
AcDbEntity
  8
1
  6
SLD-Dashed
370
    18
100
AcDbLine
 10
7.5902766066
 20
-47.4754841997
 30
0.0
 11
3.95
 21
-47.4754841997
 31
0.0
  0
LINE
  5
11D
330
1F
100
AcDbEntity
  8
SK3
  6
SLD-Dashed
370
    18
100
AcDbLine
 10
3.5547332273
 20
13.8826166832
 30
0.0
 11
3.4971913368
 21
13.1424997395
 31
0.0
  0
LINE
  5
11E
330
1F
100
AcDbEntity
  8
SK3
  6
SLD-Dashed
370
    18
100
AcDbLine
 10
3.4971913368
 20
13.1424997395
 30
0.0
 11
3.5872096462
 21
12.4748305989
 31
0.0
  0
LINE
  5
11F
330
1F
100
AcDbEntity
  8
SK3
  6
SLD-Dashed
370
    18
100
AcDbLine
 10
3.5872096462
 20
12.4748305989
 30
0.0
 11
3.8159765363
 21
11.9449653689
 31
0.0
  0
LINE
  5
120
330
1F
100
AcDbEntity
  8
SK3
  6
SLD-Dashed
370
    18
100
AcDbLine
 10
3.8159765363
 20
11.9449653689
 30
0.0
 11
4.16109871
 21
11.60477095
 31
0.0
  0
LINE
  5
121
330
1F
100
AcDbEntity
  8
SK3
  6
SLD-Dashed
370
    18
100
AcDbLine
 10
4.16109871
 20
11.60477095
 30
0.0
 11
4.5887932042
 21
11.4875479421
 31
0.0
  0
LINE
  5
122
330
1F
100
AcDbEntity
  8
SK3
  6
SLD-Dashed
370
    18
100
AcDbLine
 10
4.5887932042
 20
11.4875479421
 30
0.0
 11
5.057194302
 21
11.60477095
 31
0.0
  0
LINE
  5
123
330
1F
100
AcDbEntity
  8
SK3
  6
SLD-Dashed
370
    18
100
AcDbLine
 10
5.057194302
 20
11.60477095
 30
0.0
 11
5.5204516403
 21
11.9449653689
 31
0.0
  0
LINE
  5
124
330
1F
100
AcDbEntity
  8
SK3
  6
SLD-Dashed
370
    18
100
AcDbLine
 10
5.5204516403
 20
11.9449653689
 30
0.0
 11
5.9332183632
 21
12.4748305989
 31
0.0
  0
LINE
  5
125
330
1F
100
AcDbEntity
  8
SK3
  6
SLD-Dashed
370
    18
100
AcDbLine
 10
5.9332183632
 20
12.4748305989
 30
0.0
 11
6.255089988
 21
13.1424997395
 31
0.0
  0
LINE
  5
126
330
1F
100
AcDbEntity
  8
SK3
  6
SLD-Dashed
370
    18
100
AcDbLine
 10
6.255089988
 20
13.1424997395
 30
0.0
 11
6.4545594773
 21
13.8826166832
 31
0.0
  0
LINE
  5
127
330
1F
100
AcDbEntity
  8
SK3
  6
SLD-Dashed
370
    18
100
AcDbLine
 10
6.4545594773
 20
13.8826166832
 30
0.0
 11
6.5121013678
 21
14.6227336269
 31
0.0
  0
LINE
  5
128
330
1F
100
AcDbEntity
  8
SK3
  6
SLD-Dashed
370
    18
100
AcDbLine
 10
6.5121013678
 20
14.6227336269
 30
0.0
 11
6.4220830584
 21
15.2904027674
 31
0.0
  0
LINE
  5
129
330
1F
100
AcDbEntity
  8
SK3
  6
SLD-Dashed
370
    18
100
AcDbLine
 10
6.4220830584
 20
15.2904027674
 30
0.0
 11
6.1933161683
 21
15.8202679974
 31
0.0
  0
LINE
  5
12A
330
1F
100
AcDbEntity
  8
SK3
  6
SLD-Dashed
370
    18
100
AcDbLine
 10
6.1933161683
 20
15.8202679974
 30
0.0
 11
5.8481939947
 21
16.1604624163
 31
0.0
  0
LINE
  5
12B
330
1F
100
AcDbEntity
  8
SK3
  6
SLD-Dashed
370
    18
100
AcDbLine
 10
5.8481939947
 20
16.1604624163
 30
0.0
 11
5.4204995004
 21
16.2776854242
 31
0.0
  0
LINE
  5
12C
330
1F
100
AcDbEntity
  8
SK3
  6
SLD-Dashed
370
    18
100
AcDbLine
 10
5.4204995004
 20
16.2776854242
 30
0.0
 11
4.9520984027
 21
16.1604624163
 31
0.0
  0
LINE
  5
12D
330
1F
100
AcDbEntity
  8
SK3
  6
SLD-Dashed
370
    18
100
AcDbLine
 10
4.9520984027
 20
16.1604624163
 30
0.0
 11
4.4888410643
 21
15.8202679974
 31
0.0
  0
LINE
  5
12E
330
1F
100
AcDbEntity
  8
SK3
  6
SLD-Dashed
370
    18
100
AcDbLine
 10
4.4888410643
 20
15.8202679974
 30
0.0
 11
4.0760743414
 21
15.2904027674
 31
0.0
  0
LINE
  5
12F
330
1F
100
AcDbEntity
  8
SK3
  6
SLD-Dashed
370
    18
100
AcDbLine
 10
4.0760743414
 20
15.2904027674
 30
0.0
 11
3.7542027167
 21
14.6227336269
 31
0.0
  0
LINE
  5
130
330
1F
100
AcDbEntity
  8
SK3
  6
SLD-Dashed
370
    18
100
AcDbLine
 10
3.7542027167
 20
14.6227336269
 30
0.0
 11
3.5547332273
 21
13.8826166832
 31
0.0
  0
LINE
  5
131
330
1F
100
AcDbEntity
  8
SK3
  6
SLD-Dashed
370
    18
100
AcDbLine
 10
14.2794578574
 20
11.0168048658
 30
0.0
 11
14.4789273467
 21
11.7569218095
 31
0.0
  0
LINE
  5
132
330
1F
100
AcDbEntity
  8
SK3
  6
SLD-Dashed
370
    18
100
AcDbLine
 10
14.4789273467
 20
11.7569218095
 30
0.0
 11
14.8007989714
 21
12.42459095
 31
0.0
  0
LINE
  5
133
330
1F
100
AcDbEntity
  8
SK3
  6
SLD-Dashed
370
    18
100
AcDbLine
 10
14.8007989714
 20
12.42459095
 30
0.0
 11
15.2135656944
 21
12.95445618
 31
0.0
  0
LINE
  5
134
330
1F
100
AcDbEntity
  8
SK3
  6
SLD-Dashed
370
    18
100
AcDbLine
 10
15.2135656944
 20
12.95445618
 30
0.0
 11
15.6768230327
 21
13.294650599
 31
0.0
  0
LINE
  5
135
330
1F
100
AcDbEntity
  8
SK3
  6
SLD-Dashed
370
    18
100
AcDbLine
 10
15.6768230327
 20
13.294650599
 30
0.0
 11
16.1452241305
 21
13.4118736069
 31
0.0
  0
LINE
  5
136
330
1F
100
AcDbEntity
  8
SK3
  6
SLD-Dashed
370
    18
100
AcDbLine
 10
16.1452241305
 20
13.4118736069
 30
0.0
 11
16.5729186247
 21
13.294650599
 31
0.0
  0
LINE
  5
137
330
1F
100
AcDbEntity
  8
SK3
  6
SLD-Dashed
370
    18
100
AcDbLine
 10
16.5729186247
 20
13.294650599
 30
0.0
 11
16.9180407983
 21
12.95445618
 31
0.0
  0
LINE
  5
138
330
1F
100
AcDbEntity
  8
SK3
  6
SLD-Dashed
370
    18
100
AcDbLine
 10
16.9180407983
 20
12.95445618
 30
0.0
 11
17.1468076884
 21
12.42459095
 31
0.0
  0
LINE
  5
139
330
1F
100
AcDbEntity
  8
SK3
  6
SLD-Dashed
370
    18
100
AcDbLine
 10
17.1468076884
 20
12.42459095
 30
0.0
 11
17.2368259979
 21
11.7569218095
 31
0.0
  0
LINE
  5
13A
330
1F
100
AcDbEntity
  8
SK3
  6
SLD-Dashed
370
    18
100
AcDbLine
 10
17.2368259979
 20
11.7569218095
 30
0.0
 11
17.1792841073
 21
11.0168048658
 31
0.0
  0
LINE
  5
13B
330
1F
100
AcDbEntity
  8
SK3
  6
SLD-Dashed
370
    18
100
AcDbLine
 10
17.1792841073
 20
11.0168048658
 30
0.0
 11
16.979814618
 21
10.2766879221
 31
0.0
  0
LINE
  5
13C
330
1F
100
AcDbEntity
  8
SK3
  6
SLD-Dashed
370
    18
100
AcDbLine
 10
16.979814618
 20
10.2766879221
 30
0.0
 11
16.6579429932
 21
9.6090187815
 31
0.0
  0
LINE
  5
13D
330
1F
100
AcDbEntity
  8
SK3
  6
SLD-Dashed
370
    18
100
AcDbLine
 10
16.6579429932
 20
9.6090187815
 30
0.0
 11
16.2451762703
 21
9.0791535516
 31
0.0
  0
LINE
  5
13E
330
1F
100
AcDbEntity
  8
SK3
  6
SLD-Dashed
370
    18
100
AcDbLine
 10
16.2451762703
 20
9.0791535516
 30
0.0
 11
15.781918932
 21
8.7389591326
 31
0.0
  0
LINE
  5
13F
330
1F
100
AcDbEntity
  8
SK3
  6
SLD-Dashed
370
    18
100
AcDbLine
 10
15.781918932
 20
8.7389591326
 30
0.0
 11
15.3135178342
 21
8.6217361247
 31
0.0
  0
LINE
  5
140
330
1F
100
AcDbEntity
  8
SK3
  6
SLD-Dashed
370
    18
100
AcDbLine
 10
15.3135178342
 20
8.6217361247
 30
0.0
 11
14.88582334
 21
8.7389591326
 31
0.0
  0
LINE
  5
141
330
1F
100
AcDbEntity
  8
SK3
  6
SLD-Dashed
370
    18
100
AcDbLine
 10
14.88582334
 20
8.7389591326
 30
0.0
 11
14.5407011664
 21
9.0791535516
 31
0.0
  0
LINE
  5
142
330
1F
100
AcDbEntity
  8
SK3
  6
SLD-Dashed
370
    18
100
AcDbLine
 10
14.5407011664
 20
9.0791535516
 30
0.0
 11
14.3119342763
 21
9.6090187815
 31
0.0
  0
LINE
  5
143
330
1F
100
AcDbEntity
  8
SK3
  6
SLD-Dashed
370
    18
100
AcDbLine
 10
14.3119342763
 20
9.6090187815
 30
0.0
 11
14.2219159668
 21
10.2766879221
 31
0.0
  0
LINE
  5
144
330
1F
100
AcDbEntity
  8
SK3
  6
SLD-Dashed
370
    18
100
AcDbLine
 10
14.2219159668
 20
10.2766879221
 30
0.0
 11
14.2794578574
 21
11.0168048658
 31
0.0
  0
LINE
  5
145
330
1F
100
AcDbEntity
  8
SK3
  6
SLD-Dashed
370
    18
100
AcDbLine
 10
3.3949403416
 20
13.9015950424
 30
0.0
 11
3.5933791751
 21
14.6507759207
 31
0.0
  0
LINE
  5
146
330
1F
100
AcDbEntity
  8
SK3
  6
SLD-Dashed
370
    18
100
AcDbLine
 10
3.5933791751
 20
14.6507759207
 30
0.0
 11
3.9109046124
 21
15.3333887902
 31
0.0
  0
LINE
  5
147
330
1F
100
AcDbEntity
  8
SK3
  6
SLD-Dashed
370
    18
100
AcDbLine
 10
3.9109046124
 20
15.3333887902
 30
0.0
 11
4.319303125
 21
15.8887805018
 31
0.0
  0
LINE
  5
148
330
1F
100
AcDbEntity
  8
SK3
  6
SLD-Dashed
370
    18
100
AcDbLine
 10
4.319303125
 20
15.8887805018
 30
0.0
 11
4.7822867129
 21
16.2676020648
 31
0.0
  0
LINE
  5
149
330
1F
100
AcDbEntity
  8
SK3
  6
SLD-Dashed
370
    18
100
AcDbLine
 10
4.7822867129
 20
16.2676020648
 30
0.0
 11
5.2587172525
 21
16.4361935208
 31
0.0
  0
LINE
  5
14A
330
1F
100
AcDbEntity
  8
SK3
  6
SLD-Dashed
370
    18
100
AcDbLine
 10
5.2587172525
 20
16.4361935208
 30
0.0
 11
5.7062617995
 21
16.3795747791
 31
0.0
  0
LINE
  5
14B
330
1F
100
AcDbEntity
  8
SK3
  6
SLD-Dashed
370
    18
100
AcDbLine
 10
5.7062617995
 20
16.3795747791
 30
0.0
 11
6.0851540571
 21
16.1027766634
 31
0.0
  0
LINE
  5
14C
330
1F
100
AcDbEntity
  8
SK3
  6
SLD-Dashed
370
    18
100
AcDbLine
 10
6.0851540571
 20
16.1027766634
 30
0.0
 11
6.3617277852
 21
15.6303939009
 31
0.0
  0
LINE
  5
14D
330
1F
100
AcDbEntity
  8
SK3
  6
SLD-Dashed
370
    18
100
AcDbLine
 10
6.3617277852
 20
15.6303939009
 30
0.0
 11
6.5114081945
 21
15.0043997731
 31
0.0
  0
LINE
  5
14E
330
1F
100
AcDbEntity
  8
SK3
  6
SLD-Dashed
370
    18
100
AcDbLine
 10
6.5114081945
 20
15.0043997731
 30
0.0
 11
6.5208955237
 21
14.2804166054
 31
0.0
  0
LINE
  5
14F
330
1F
100
AcDbEntity
  8
SK3
  6
SLD-Dashed
370
    18
100
AcDbLine
 10
6.5208955237
 20
14.2804166054
 30
0.0
 11
6.3893467821
 21
13.5227734794
 31
0.0
  0
LINE
  5
150
330
1F
100
AcDbEntity
  8
SK3
  6
SLD-Dashed
370
    18
100
AcDbLine
 10
6.3893467821
 20
13.5227734794
 30
0.0
 11
6.1284506525
 21
12.7987903117
 31
0.0
  0
LINE
  5
151
330
1F
100
AcDbEntity
  8
SK3
  6
SLD-Dashed
370
    18
100
AcDbLine
 10
6.1284506525
 20
12.7987903117
 30
0.0
 11
5.761388901
 21
12.172796184
 31
0.0
  0
LINE
  5
152
330
1F
100
AcDbEntity
  8
SK3
  6
SLD-Dashed
370
    18
100
AcDbLine
 10
5.761388901
 20
12.172796184
 30
0.0
 11
5.3207765751
 21
11.7004134215
 31
0.0
  0
LINE
  5
153
330
1F
100
AcDbEntity
  8
SK3
  6
SLD-Dashed
370
    18
100
AcDbLine
 10
5.3207765751
 20
11.7004134215
 30
0.0
 11
4.8457640135
 21
11.4236153057
 31
0.0
  0
LINE
  5
154
330
1F
100
AcDbEntity
  8
SK3
  6
SLD-Dashed
370
    18
100
AcDbLine
 10
4.8457640135
 20
11.4236153057
 30
0.0
 11
4.3785581669
 21
11.366996564
 31
0.0
  0
LINE
  5
155
330
1F
100
AcDbEntity
  8
SK3
  6
SLD-Dashed
370
    18
100
AcDbLine
 10
4.3785581669
 20
11.366996564
 30
0.0
 11
3.9606723251
 21
11.53558802
 31
0.0
  0
LINE
  5
156
330
1F
100
AcDbEntity
  8
SK3
  6
SLD-Dashed
370
    18
100
AcDbLine
 10
3.9606723251
 20
11.53558802
 30
0.0
 11
3.6292374788
 21
11.914409583
 31
0.0
  0
LINE
  5
157
330
1F
100
AcDbEntity
  8
SK3
  6
SLD-Dashed
370
    18
100
AcDbLine
 10
3.6292374788
 20
11.914409583
 30
0.0
 11
3.4137030688
 21
12.4698012947
 31
0.0
  0
LINE
  5
158
330
1F
100
AcDbEntity
  8
SK3
  6
SLD-Dashed
370
    18
100
AcDbLine
 10
3.4137030688
 20
12.4698012947
 30
0.0
 11
3.3332202732
 21
13.1524141642
 31
0.0
  0
LINE
  5
159
330
1F
100
AcDbEntity
  8
SK3
  6
SLD-Dashed
370
    18
100
AcDbLine
 10
3.3332202732
 20
13.1524141642
 30
0.0
 11
3.3949403416
 21
13.9015950424
 31
0.0
  0
LINE
  5
15A
330
1F
100
AcDbEntity
  8
SK3
  6
SLD-Dashed
370
    18
100
AcDbLine
 10
5.6371324082
 20
-16.2495686026
 30
0.0
 11
16.3618570383
 21
-13.3837567853
 31
0.0
  0
LINE
  5
15B
330
1F
100
AcDbEntity
  8
SK3
  6
SLD-Dashed
370
    18
100
AcDbLine
 10
15.0968849264
 20
-8.6498529463
 30
0.0
 11
4.3721602964
 21
-11.5156647637
 31
0.0
  0
LINE
  5
15C
330
1F
100
AcDbEntity
  8
SK3
  6
SLD-Dashed
370
    18
100
AcDbLine
 10
-101.6
 20
-14.285
 30
0.0
 11
-99.7034043657
 21
-13.19
 31
0.0
  0
LINE
  5
15D
330
1F
100
AcDbEntity
  8
SK3
  6
SLD-Dashed
370
    18
100
AcDbLine
 10
-99.7034043657
 20
13.19
 30
0.0
 11
-101.6
 21
14.285
 31
0.0
  0
LINE
  5
15E
330
1F
100
AcDbEntity
  8
SK3
  6
SLD-Dashed
370
    18
100
AcDbLine
 10
-95.25
 20
-13.19
 30
0.0
 11
-94.0505548158
 21
-11.1125
 31
0.0
  0
LINE
  5
15F
330
1F
100
AcDbEntity
  8
SK3
  6
SLD-Dashed
370
    18
100
AcDbLine
 10
-94.0505548158
 20
11.1125
 30
0.0
 11
-95.25
 21
13.19
 31
0.0
  0
LINE
  5
160
330
1F
100
AcDbEntity
  8
SK3
  6
SLD-Dashed
370
    18
100
AcDbLine
 10
-99.7034043657
 20
-13.19
 30
0.0
 11
-95.25
 21
-13.19
 31
0.0
  0
LINE
  5
161
330
1F
100
AcDbEntity
  8
SK3
  6
SLD-Dashed
370
    18
100
AcDbLine
 10
-95.25
 20
13.19
 30
0.0
 11
-99.7034043657
 21
13.19
 31
0.0
  0
LINE
  5
162
330
1F
100
AcDbEntity
  8
SK3
  6
SLD-Dashed
370
    18
100
AcDbLine
 10
-94.0505548158
 20
-11.1125
 30
0.0
 11
43.45
 21
-11.1125
 31
0.0
  0
LINE
  5
163
330
1F
100
AcDbEntity
  8
SK3
  6
SLD-Dashed
370
    18
100
AcDbLine
 10
43.45
 20
11.1125
 30
0.0
 11
-94.0505548158
 21
11.1125
 31
0.0
  0
LINE
  5
164
330
1F
100
AcDbEntity
  8
SK3
  6
SLD-Dashed
370
    18
100
AcDbLine
 10
43.45
 20
-11.1125
 30
0.0
 11
44.1184574387
 21
-10.0
 31
0.0
  0
LINE
  5
165
330
1F
100
AcDbEntity
  8
SK3
  6
SLD-Dashed
370
    18
100
AcDbLine
 10
44.1184574387
 20
10.0
 30
0.0
 11
43.45
 21
11.1125
 31
0.0
  0
LINE
  5
166
330
1F
100
AcDbEntity
  8
SK3
  6
SLD-Dashed
370
    18
100
AcDbLine
 10
196.85
 20
10.3910254038
 30
0.0
 11
195.35
 21
9.525
 31
0.0
  0
LINE
  5
167
330
1F
100
AcDbEntity
  8
SK3
  6
SLD-Dashed
370
    18
100
AcDbLine
 10
195.35
 20
-9.525
 30
0.0
 11
196.85
 21
-10.3910254038
 31
0.0
  0
LINE
  5
168
330
1F
100
AcDbEntity
  8
SK3
  6
SLD-Dashed
370
    18
100
AcDbLine
 10
44.1184574387
 20
-10.0
 30
0.0
 11
145.765
 21
-10.0
 31
0.0
  0
LINE
  5
169
330
1F
100
AcDbEntity
  8
SK3
  6
SLD-Dashed
370
    18
100
AcDbLine
 10
145.765
 20
10.0
 30
0.0
 11
44.1184574387
 21
10.0
 31
0.0
  0
LINE
  5
16A
330
1F
100
AcDbEntity
  8
SK3
  6
SLD-Dashed
370
    18
100
AcDbLine
 10
145.765
 20
-10.0
 30
0.0
 11
146.050408794
 21
-9.525
 31
0.0
  0
LINE
  5
16B
330
1F
100
AcDbEntity
  8
SK3
  6
SLD-Dashed
370
    18
100
AcDbLine
 10
146.050408794
 20
9.525
 30
0.0
 11
145.765
 21
10.0
 31
0.0
  0
LINE
  5
16C
330
1F
100
AcDbEntity
  8
SK3
  6
SLD-Dashed
370
    18
100
AcDbLine
 10
164.2745
 20
9.525
 30
0.0
 11
146.050408794
 21
9.525
 31
0.0
  0
LINE
  5
16D
330
1F
100
AcDbEntity
  8
SK3
  6
SLD-Dashed
370
    18
100
AcDbLine
 10
195.35
 20
9.525
 30
0.0
 11
178.6245042669
 21
9.525
 31
0.0
  0
LINE
  5
16E
330
1F
100
AcDbEntity
  8
SK3
  6
SLD-Dashed
370
    18
100
AcDbLine
 10
146.050408794
 20
-9.525
 30
0.0
 11
195.35
 21
-9.525
 31
0.0
  0
LINE
  5
16F
330
1F
100
AcDbEntity
  8
SK3
  6
SLD-Dashed
370
    18
100
AcDbLine
 10
162.35
 20
22.225
 30
0.0
 11
162.35
 21
20.125
 31
0.0
  0
LINE
  5
170
330
1F
100
AcDbEntity
  8
SK3
  6
SLD-Dashed
370
    18
100
AcDbLine
 10
180.55
 20
20.125
 30
0.0
 11
180.55
 21
22.225
 31
0.0
  0
LINE
  5
171
330
1F
100
AcDbEntity
  8
SK3
  6
SLD-Dashed
370
    18
100
AcDbLine
 10
164.2745
 20
20.125
 30
0.0
 11
164.2745
 21
9.525
 31
0.0
  0
LINE
  5
172
330
1F
100
AcDbEntity
  8
SK3
  6
SLD-Dashed
370
    18
100
AcDbLine
 10
178.6255
 20
9.5242507082
 30
0.0
 11
178.6255
 21
20.125
 31
0.0
  0
LINE
  5
173
330
1F
100
AcDbEntity
  8
SK3
  6
SLD-Dashed
370
    18
100
AcDbLine
 10
6.1
 20
37.5
 30
0.0
 11
6.1
 21
33.1
 31
0.0
  0
LINE
  5
174
330
1F
100
AcDbEntity
  8
SK3
  6
SLD-Dashed
370
    18
100
AcDbLine
 10
16.1
 20
33.1
 30
0.0
 11
16.1
 21
37.5
 31
0.0
  0
LINE
  5
175
330
1F
100
AcDbEntity
  8
SK3
  6
SLD-Dashed
370
    18
100
AcDbLine
 10
4.3721602964
 20
11.5156647637
 30
0.0
 11
15.0968849264
 21
8.6498529463
 31
0.0
  0
LINE
  5
176
330
1F
100
AcDbEntity
  8
SK3
  6
SLD-Dashed
370
    18
100
AcDbLine
 10
16.3618570383
 20
13.3837567853
 30
0.0
 11
5.6371324082
 21
16.2495686026
 31
0.0
  0
LINE
  5
177
330
1F
100
AcDbEntity
  8
SK3
  6
SLD-Solid
370
    18
100
AcDbLine
 10
-55.5999986827
 20
12.6999998465
 30
0.0
 11
-94.967097044
 21
12.6999998465
 31
0.0
  0
LINE
  5
178
330
1F
100
AcDbEntity
  8
SK3
  6
SLD-Solid
370
    18
100
AcDbLine
 10
-94.967097044
 20
-12.6999998465
 30
0.0
 11
-55.5999986827
 21
-12.6999998465
 31
0.0
  0
LINE
  5
179
330
1F
100
AcDbEntity
  8
SK3
  6
SLD-Solid
370
    18
100
AcDbLine
 10
-55.5999986827
 20
0.0
 30
0.0
 11
-55.5999986827
 21
-2.0372231957
 31
0.0
  0
LINE
  5
17A
330
1F
100
AcDbEntity
  8
SK3
  6
SLD-Solid
370
    18
100
AcDbLine
 10
-55.5999986827
 20
-2.0372231957
 30
0.0
 11
-55.5999986827
 21
-4.0216837078
 31
0.0
  0
LINE
  5
17B
330
1F
100
AcDbEntity
  8
SK3
  6
SLD-Solid
370
    18
100
AcDbLine
 10
-55.5999986827
 20
-4.0216837078
 30
0.0
 11
-55.5999986827
 21
-5.9019844048
 31
0.0
  0
LINE
  5
17C
330
1F
100
AcDbEntity
  8
SK3
  6
SLD-Solid
370
    18
100
AcDbLine
 10
-55.5999986827
 20
-5.9019844048
 30
0.0
 11
-55.5999986827
 21
-7.6294266619
 31
0.0
  0
LINE
  5
17D
330
1F
100
AcDbEntity
  8
SK3
  6
SLD-Solid
370
    18
100
AcDbLine
 10
-55.5999986827
 20
-7.6294266619
 30
0.0
 11
-55.5999986827
 21
-9.159270674
 31
0.0
  0
LINE
  5
17E
330
1F
100
AcDbEntity
  8
SK3
  6
SLD-Solid
370
    18
100
AcDbLine
 10
-55.5999986827
 20
-9.159270674
 30
0.0
 11
-55.5999986827
 21
-10.4518951848
 31
0.0
  0
LINE
  5
17F
330
1F
100
AcDbEntity
  8
SK3
  6
SLD-Solid
370
    18
100
AcDbLine
 10
-55.5999986827
 20
-10.4518951848
 30
0.0
 11
-55.5999986827
 21
-11.4738205448
 31
0.0
  0
LINE
  5
180
330
1F
100
AcDbEntity
  8
SK3
  6
SLD-Solid
370
    18
100
AcDbLine
 10
-55.5999986827
 20
-11.4738205448
 30
0.0
 11
-55.5999986827
 21
-12.198580429
 31
0.0
  0
LINE
  5
181
330
1F
100
AcDbEntity
  8
SK3
  6
SLD-Solid
370
    18
100
AcDbLine
 10
-55.5999986827
 20
-12.198580429
 30
0.0
 11
-55.5999986827
 21
-12.6074030995
 31
0.0
  0
LINE
  5
182
330
1F
100
AcDbEntity
  8
SK3
  6
SLD-Solid
370
    18
100
AcDbLine
 10
-55.5999986827
 20
-12.6074030995
 30
0.0
 11
-55.5999986827
 21
-12.6999998465
 31
0.0
  0
LINE
  5
183
330
1F
100
AcDbEntity
  8
SK3
  6
SLD-Solid
370
    18
100
AcDbLine
 10
-55.5999986827
 20
12.6999998465
 30
0.0
 11
-55.5999986827
 21
12.6074030995
 31
0.0
  0
LINE
  5
184
330
1F
100
AcDbEntity
  8
SK3
  6
SLD-Solid
370
    18
100
AcDbLine
 10
-55.5999986827
 20
12.6074030995
 30
0.0
 11
-55.5999986827
 21
12.198580429
 31
0.0
  0
LINE
  5
185
330
1F
100
AcDbEntity
  8
SK3
  6
SLD-Solid
370
    18
100
AcDbLine
 10
-55.5999986827
 20
12.198580429
 30
0.0
 11
-55.5999986827
 21
11.4738205448
 31
0.0
  0
LINE
  5
186
330
1F
100
AcDbEntity
  8
SK3
  6
SLD-Solid
370
    18
100
AcDbLine
 10
-55.5999986827
 20
11.4738205448
 30
0.0
 11
-55.5999986827
 21
10.4518951848
 31
0.0
  0
LINE
  5
187
330
1F
100
AcDbEntity
  8
SK3
  6
SLD-Solid
370
    18
100
AcDbLine
 10
-55.5999986827
 20
10.4518951848
 30
0.0
 11
-55.5999986827
 21
9.159270674
 31
0.0
  0
LINE
  5
188
330
1F
100
AcDbEntity
  8
SK3
  6
SLD-Solid
370
    18
100
AcDbLine
 10
-55.5999986827
 20
9.159270674
 30
0.0
 11
-55.5999986827
 21
7.6294266619
 31
0.0
  0
LINE
  5
189
330
1F
100
AcDbEntity
  8
SK3
  6
SLD-Solid
370
    18
100
AcDbLine
 10
-55.5999986827
 20
7.6294266619
 30
0.0
 11
-55.5999986827
 21
5.9019844048
 31
0.0
  0
LINE
  5
18A
330
1F
100
AcDbEntity
  8
SK3
  6
SLD-Solid
370
    18
100
AcDbLine
 10
-55.5999986827
 20
5.9019844048
 30
0.0
 11
-55.5999986827
 21
4.0216837078
 31
0.0
  0
LINE
  5
18B
330
1F
100
AcDbEntity
  8
SK3
  6
SLD-Solid
370
    18
100
AcDbLine
 10
-55.5999986827
 20
4.0216837078
 30
0.0
 11
-55.5999986827
 21
2.0372231957
 31
0.0
  0
LINE
  5
18C
330
1F
100
AcDbEntity
  8
SK3
  6
SLD-Solid
370
    18
100
AcDbLine
 10
-55.5999986827
 20
2.0372231957
 30
0.0
 11
-55.5999986827
 21
0.0
 31
0.0
  0
LINE
  5
18D
330
1F
100
AcDbEntity
  8
SK3
  6
SLD-Solid
370
    18
100
AcDbLine
 10
179.3874949217
 20
9.4598382711
 30
0.0
 11
179.3874949217
 21
20.1249998063
 31
0.0
  0
LINE
  5
18E
330
1F
100
AcDbEntity
  8
SK3
  6
SLD-Solid
370
    18
100
AcDbLine
 10
163.5124981403
 20
20.1249998063
 30
0.0
 11
163.5124981403
 21
9.4598382711
 31
0.0
  0
LINE
  5
18F
330
1F
100
AcDbEntity
  8
SK3
  6
SLD-Solid
370
    18
100
AcDbLine
 10
179.3091744184
 20
9.4598382711
 30
0.0
 11
179.3273389339
 21
9.4749284908
 31
0.0
  0
LINE
  5
190
330
1F
100
AcDbEntity
  8
4
  6
SLD-Center
370
    18
100
AcDbLine
 10
199.0856642199
 20
0.0
 30
0.0
 11
-0.0469635378
 21
0.0
 31
0.0
  0
LINE
  5
191
330
1F
100
AcDbEntity
  8
4
  6
SLD-Center
370
    18
100
AcDbLine
 10
171.45
 20
7.525
 30
0.0
 11
171.45
 21
22.125
 31
0.0
  0
LINE
  5
192
330
1F
100
AcDbEntity
  8
SK4
  6
SLD-Center
370
    18
100
AcDbLine
 10
-101.6276248072
 20
0.0
 30
0.0
 11
201.4486131296
 21
0.0
 31
0.0
  0
LINE
  5
193
330
1F
100
AcDbEntity
  8
81
370
    18
100
AcDbLine
 10
196.85
 20
0.0
 30
0.0
 11
200.3855339059
 21
3.5355339059
 31
0.0
  0
LINE
  5
194
330
1F
100
AcDbEntity
  8
81
370
    18
100
AcDbLine
 10
196.85
 20
0.0
 30
0.0
 11
193.3144660941
 21
-3.5355339059
 31
0.0
  0
LINE
  5
195
330
1F
100
AcDbEntity
  8
81
370
    18
100
AcDbLine
 10
196.85
 20
0.0
 30
0.0
 11
193.3144660941
 21
3.5355339059
 31
0.0
  0
LINE
  5
196
330
1F
100
AcDbEntity
  8
81
100
AcDbLine
 10
196.85
 20
0.0
 30
0.0
 11
206.85
 21
0.0
 31
0.0
  0
LINE
  5
197
330
1F
100
AcDbEntity
  8
81
370
    18
100
AcDbLine
 10
196.85
 20
0.0
 30
0.0
 11
200.3855339059
 21
-3.5355339059
 31
0.0
  0
LINE
  5
198
330
1F
100
AcDbEntity
  8
80
370
    18
100
AcDbLine
 10
0.0
 20
0.0
 30
0.0
 11
-3.5355339059
 21
-3.5355339059
 31
0.0
  0
LINE
  5
199
330
1F
100
AcDbEntity
  8
80
370
    18
100
AcDbLine
 10
0.0
 20
0.0
 30
0.0
 11
3.5355339059
 21
3.5355339059
 31
0.0
  0
LINE
  5
19A
330
1F
100
AcDbEntity
  8
80
370
    18
100
AcDbLine
 10
0.0
 20
0.0
 30
0.0
 11
-3.5355339059
 21
3.5355339059
 31
0.0
  0
LINE
  5
19B
330
1F
100
AcDbEntity
  8
80
370
    18
100
AcDbLine
 10
0.0
 20
0.0
 30
0.0
 11
-10.0
 21
0.0
 31
0.0
  0
LINE
  5
19C
330
1F
100
AcDbEntity
  8
80
370
    18
100
AcDbLine
 10
0.0
 20
0.0
 30
0.0
 11
3.5355339059
 21
-3.5355339059
 31
0.0
  0
ARC
  5
19D
330
1F
100
AcDbEntity
  8
1
  6
SLD-Solid
370
    25
100
AcDbCircle
 10
19.812
 20
-35.687
 30
0.0
 40
0.7620000000000005
100
AcDbArc
 50
90.0
 51
129.6624110964
  0
ARC
  5
19E
330
1F
100
AcDbEntity
  8
1
  6
SLD-Solid
370
    25
100
AcDbCircle
 10
19.812
 20
35.687
 30
0.0
 40
0.7620000000000005
100
AcDbArc
 50
180.0
 51
270.0
  0
ARC
  5
19F
330
1F
100
AcDbEntity
  8
1
  6
SLD-Solid
370
    25
100
AcDbCircle
 10
2.45
 20
35.425
 30
0.0
 40
0.7500000000000147
100
AcDbArc
 50
245.0
 51
0.0
  0
ARC
  5
1A0
330
1F
100
AcDbEntity
  8
1
  6
SLD-Solid
370
    25
100
AcDbCircle
 10
2.45
 20
-35.425
 30
0.0
 40
0.7500000000000085
100
AcDbArc
 50
25.3173683333
 51
115.0
  0
ARC
  5
1A1
330
1F
100
AcDbEntity
  8
1
  6
SLD-Solid
370
    25
100
AcDbCircle
 10
33.576
 20
-33.401
 30
0.0
 40
1.524000000000001
100
AcDbArc
 50
270.0
 51
0.0
  0
ARC
  5
1A2
330
1F
100
AcDbEntity
  8
1
  6
SLD-Solid
370
    25
100
AcDbCircle
 10
33.576
 20
33.401
 30
0.0
 40
1.524000000000001
100
AcDbArc
 50
0.0
 51
90.0
  0
ARC
  5
1A3
330
1F
100
AcDbEntity
  8
1
  6
SLD-Solid
370
    25
100
AcDbCircle
 10
36.624
 20
-30.1791306798
 30
0.0
 40
1.524000000000022
100
AcDbArc
 50
97.0
 51
180.0
  0
ARC
  5
1A4
330
1F
100
AcDbEntity
  8
1
  6
SLD-Solid
370
    25
100
AcDbCircle
 10
36.624
 20
30.1791306798
 30
0.0
 40
1.524000000000022
100
AcDbArc
 50
180.0
 51
263.0
  0
ARC
  5
1A5
330
1F
100
AcDbEntity
  8
SK1
  6
SLD-Solid
370
    25
100
AcDbCircle
 10
-99.5
 20
18.2922326599
 30
0.0
 40
2.100000000000023
100
AcDbArc
 50
98.2972222222
 51
180.0
  0
ARC
  5
1A6
330
1F
100
AcDbEntity
  8
SK1
  6
SLD-Solid
370
    25
100
AcDbCircle
 10
-99.5
 20
-18.2922326599
 30
0.0
 40
2.100000000000023
100
AcDbArc
 50
180.0
 51
261.7027777778
  0
ARC
  5
1A7
330
1F
100
AcDbEntity
  8
1
  6
SLD-Solid
370
    25
100
AcDbCircle
 10
171.4495715613
 20
43.3370646377
 30
0.0
 40
22.98959494788798
100
AcDbArc
 50
246.6833359427
 51
293.2746671008
  0
ARC
  5
1A8
330
1F
100
AcDbEntity
  8
1
370
    18
100
AcDbCircle
 10
171.4550911398
 20
-50.0194462427
 30
0.0
 40
29.54868653921706
100
AcDbArc
 50
70.2066680177
 51
109.8420001699
  0
CIRCLE
  5
1A9
330
1F
100
AcDbEntity
  8
81
370
    18
100
AcDbCircle
 10
196.85
 20
0.0
 30
0.0
 40
2.499999999999998
  0
CIRCLE
  5
1AA
330
1F
100
AcDbEntity
  8
80
370
    18
100
AcDbCircle
 10
0.0
 20
0.0
 30
0.0
 40
2.500000000000009
  0
ARC
  5
1AB
330
1F
100
AcDbEntity
  8
SK3
  6
SLD-Dashed
370
    18
100
AcDbCircle
 10
15.8
 20
33.1
 30
0.0
 40
0.3000000000000096
100
AcDbArc
 50
270.0
 51
0.0
  0
ARC
  5
1AC
330
1F
100
AcDbEntity
  8
SK3
  6
SLD-Dashed
370
    18
100
AcDbCircle
 10
6.4
 20
33.1
 30
0.0
 40
0.2999999999999945
100
AcDbArc
 50
180.0
 51
270.0
  0
SPLINE
  5
1AD
330
1F
100
AcDbEntity
  8
1
  6
SLD-Solid
370
    25
100
AcDbSpline
210
0.0
220
0.0
230
1.0
 70
     8
 71
     3
 72
    12
 73
     8
 74
     0
 42
0.000000001
 43
0.00000001
 40
0.0
 40
0.0
 40
0.0
 40
0.0
 40
0.249999999999997
 40
0.249999999999997
 40
0.499999999999994
 40
0.499999999999994
 40
1.0
 40
1.0
 40
1.0
 40
1.0
 10
3.949999999999995
 20
-47.4754841997425
 30
0.0
 10
3.84908403089057
 20
-47.4754841997425
 30
0.0
 10
3.749978417477442
 20
-47.45437693482703
 30
0.0
 10
3.566847730075484
 20
-47.37426897057827
 30
0.0
 10
3.483455095947344
 20
-47.31511647588032
 30
0.0
 10
3.278048511272571
 20
-47.09831987092233
 30
0.0
 10
3.199999999999994
 20
-46.89926900274103
 30
0.0
 10
3.199999999999994
 20
-46.69763484374771
 30
0.0
  0
SPLINE
  5
1AE
330
1F
100
AcDbEntity
  8
1
  6
SLD-Solid
370
    25
100
AcDbSpline
210
0.0
220
0.0
230
1.0
 70
     8
 71
     3
 72
    17
 73
    13
 74
     0
 42
0.000000001
 43
0.00000001
 40
0.0
 40
0.0
 40
0.0
 40
0.0
 40
0.0631225276679342
 40
0.1266732404557587
 40
0.1906578598239172
 40
0.2550819704917586
 40
0.3779677562094053
 40
0.5065287291742404
 40
0.7536275741715814
 40
0.8770326867277843
 40
0.9293515934451574
 40
1.0
 40
1.0
 40
1.0
 40
1.0
 10
3.949999999999995
 20
47.29681459776457
 30
0.0
 10
3.925201491186303
 20
47.2961118221463
 30
0.0
 10
3.875436255446299
 20
47.29470150370425
 30
0.0
 10
3.801280717948066
 20
47.28327895415907
 30
0.0
 10
3.728120549121013
 20
47.26498746189471
 30
0.0
 10
3.635342933307248
 20
47.23149463841941
 30
0.0
 10
3.525682301867306
 20
47.17267397042567
 30
0.0
 10
3.374709300492318
 20
47.04854698610309
 30
0.0
 10
3.264271220664411
 20
46.88235514412626
 30
0.0
 10
3.217384189869028
 20
46.72497704380525
 30
0.0
 10
3.202376761222963
 20
46.63086119232328
 30
0.0
 10
3.20086725599201
 20
46.58337040934664
 30
0.0
 10
3.200000000000029
 20
46.55608553132452
 30
0.0
  0
SPLINE
  5
1AF
330
1F
100
AcDbEntity
  8
1
  6
SLD-Solid
370
    25
100
AcDbSpline
210
0.0
220
0.0
230
1.0
 70
     8
 71
     3
 72
    12
 73
     8
 74
     0
 42
0.000000001
 43
0.00000001
 40
0.0
 40
0.0
 40
0.0
 40
0.0
 40
0.2499999999999983
 40
0.2499999999999983
 40
0.4999999999999967
 40
0.4999999999999967
 40
1.0
 40
1.0
 40
1.0
 40
1.0
 10
19.04999999999999
 20
-46.69763484374772
 30
0.0
 10
19.05000000000017
 20
-46.7985109584615
 30
0.0
 10
19.03137059366224
 20
-46.89733966428927
 30
0.0
 10
18.95815575330316
 20
-47.08411469648331
 30
0.0
 10
18.90402082648725
 20
-47.16991322229985
 30
0.0
 10
18.69812814693775
 20
-47.38753444472503
 30
0.0
 10
18.50197314321865
 20
-47.47548419974255
 30
0.0
 10
18.3
 20
-47.4754841997425
 30
0.0
  0
SPLINE
  5
1B0
330
1F
100
AcDbEntity
  8
1
  6
SLD-Solid
370
    25
100
AcDbSpline
210
0.0
220
0.0
230
1.0
 70
     8
 71
     3
 72
    15
 73
    11
 74
     0
 42
0.000000001
 43
0.00000001
 40
0.0
 40
0.0
 40
0.0
 40
0.0
 40
0.0708675467315475
 40
0.1234206290199029
 40
0.2469923695820237
 40
0.4940839350896436
 40
0.6226370207871864
 40
0.7456896564301972
 40
0.8736712715891333
 40
1.0
 40
1.0
 40
1.0
 40
1.0
 10
19.05
 20
46.55608553132449
 30
0.0
 10
19.04912781744714
 20
46.58344641762567
 30
0.0
 10
19.04760885250115
 20
46.6310972529315
 30
0.0
 10
19.03252103265843
 20
46.72541301614358
 30
0.0
 10
18.98548435274757
 20
46.88286431586847
 30
0.0
 10
18.87493087102095
 20
47.04890219784077
 30
0.0
 10
18.72384724354124
 20
47.17307551104538
 30
0.0
 10
18.59213990187963
 20
47.2432011790675
 30
0.0
 10
18.44967423033171
 20
47.28829435245719
 30
0.0
 10
18.34967476169824
 20
47.29398684876385
 30
0.0
 10
18.3
 20
47.29681459776457
 30
0.0
  0
SPLINE
  5
1B1
330
1F
100
AcDbEntity
  8
1
  6
SLD-Solid
370
    25
100
AcDbSpline
210
0.0
220
0.0
230
1.0
 70
     8
 71
     3
 72
     8
 73
     4
 74
     0
 42
0.000000001
 43
0.00000001
 40
0.0
 40
0.0
 40
0.0
 40
0.0
 40
1.0
 40
1.0
 40
1.0
 40
1.0
 10
7.590276606597321
 20
-47.4754841997425
 30
0.0
 10
8.127774995464396
 20
-46.51049654710809
 30
0.0
 10
8.664408048367878
 20
-45.54503249842017
 30
0.0
 10
9.199999999999973
 20
-44.57901066343647
 30
0.0
  0
SPLINE
  5
1B2
330
1F
100
AcDbEntity
  8
1
  6
SLD-Solid
370
    25
100
AcDbSpline
210
0.0
220
0.0
230
1.0
 70
     8
 71
     3
 72
     8
 73
     4
 74
     0
 42
0.000000001
 43
0.00000001
 40
0.0000000000000097
 40
0.0000000000000097
 40
0.0000000000000097
 40
0.0000000000000097
 40
0.000879067901516
 40
0.000879067901516
 40
0.000879067901516
 40
0.000879067901516
 10
7.957289380062113
 20
46.81625358782996
 30
0.0
 10
7.835334863860802
 20
46.97654627942825
 30
0.0
 10
7.712991580674025
 20
47.1367321049955
 30
0.0
 10
7.590276606597321
 20
47.29681459776457
 30
0.0
  0
SPLINE
  5
1B3
330
1F
100
AcDbEntity
  8
1
  6
SLD-Solid
370
    25
100
AcDbSpline
210
0.0
220
0.0
230
1.0
 70
     8
 71
     3
 72
     8
 73
     4
 74
     0
 42
0.000000001
 43
0.00000001
 40
0.0
 40
0.0
 40
0.0
 40
0.0
 40
1.0
 40
1.0
 40
1.0
 40
1.0
 10
7.957289380062113
 20
46.81625358782996
 30
0.0
 10
8.372088490919094
 20
46.07082082933731
 30
0.0
 10
8.786353866857969
 20
45.32508460154718
 30
0.0
 10
9.199999999999973
 20
44.57901066343647
 30
0.0
  0
SPLINE
  5
1B4
330
1F
100
AcDbEntity
  8
1
  6
SLD-Solid
370
    25
100
AcDbSpline
210
0.0
220
0.0
230
1.0
 70
     8
 71
     3
 72
    14
 73
    10
 74
     0
 42
0.000000001
 43
0.00000001
 40
0.0
 40
0.0
 40
0.0
 40
0.0
 40
0.25
 40
0.25
 40
0.5
 40
0.5
 40
0.75
 40
0.75
 40
1.0
 40
1.0
 40
1.0
 40
1.0
 10
9.200000000002248
 20
41.48301295145395
 30
0.0
 10
9.176680646156926
 20
41.55645645104906
 30
0.0
 10
9.157956892055521
 20
41.62429306843831
 30
0.0
 10
9.13192767878468
 20
41.74600607925088
 30
0.0
 10
9.125045582368458
 20
41.79860573441294
 30
0.0
 10
9.12495487964375
 20
41.88147815789093
 30
0.0
 10
9.131870505305034
 20
41.91255410941324
 30
0.0
 10
9.157670888230385
 20
41.95124091970131
 30
0.0
 10
9.176601575159552
 20
41.95960923610543
 30
0.0
 10
9.199999999999973
 20
41.95870119642321
 30
0.0
  0
SPLINE
  5
1B5
330
1F
100
AcDbEntity
  8
1
  6
SLD-Solid
370
    25
100
AcDbSpline
210
0.0
220
0.0
230
1.0
 70
     8
 71
     3
 72
    14
 73
    10
 74
     0
 42
0.000000001
 43
0.00000001
 40
0.0
 40
0.0
 40
0.0
 40
0.0
 40
0.25
 40
0.25
 40
0.5
 40
0.5
 40
0.75
 40
0.75
 40
1.0
 40
1.0
 40
1.0
 40
1.0
 10
9.199999999999973
 20
34.67668893498511
 30
0.0
 10
9.176680646155248
 20
34.76218380134754
 30
0.0
 10
9.157956892054466
 20
34.84409122905374
 30
0.0
 10
9.13192767878472
 20
34.99897222909991
 30
0.0
 10
9.125045582368957
 20
35.07047900120374
 30
0.0
 10
9.124954879645042
 20
35.19440944821503
 30
0.0
 10
9.131870505306658
 20
35.24816533561762
 30
0.0
 10
9.157670888232452
 20
35.33309634836896
 30
0.0
 10
9.176601575161758
 20
35.365452809728
 30
0.0
 10
9.200000000002248
 20
35.38859611770597
 30
0.0
  0
SPLINE
  5
1B6
330
1F
100
AcDbEntity
  8
1
  6
SLD-Solid
370
    25
100
AcDbSpline
210
0.0
220
0.0
230
1.0
 70
     8
 71
     3
 72
    14
 73
    10
 74
     0
 42
0.000000001
 43
0.00000001
 40
0.0
 40
0.0
 40
0.0
 40
0.0
 40
0.25
 40
0.25
 40
0.5
 40
0.5
 40
0.75
 40
0.75
 40
1.0
 40
1.0
 40
1.0
 40
1.0
 10
13.02999999999605
 20
41.98711733167136
 30
0.0
 10
13.05904068228762
 20
41.99358445674421
 30
0.0
 10
13.0827520948298
 20
41.98923559020629
 30
0.0
 10
13.11609658322469
 20
41.95189511103384
 30
0.0
 10
13.12492140067506
 20
41.91935250781675
 30
0.0
 10
13.12507754967819
 20
41.82511380576852
 30
0.0
 10
13.1161505320906
 20
41.76334893396456
 30
0.0
 10
13.08319562521534
 20
41.62087672885571
 30
0.0
 10
13.05911019949628
 20
41.53942138186896
 30
0.0
 10
13.02999999999999
 20
41.45311361597066
 30
0.0
  0
SPLINE
  5
1B7
330
1F
100
AcDbEntity
  8
1
  6
SLD-Solid
370
    25
100
AcDbSpline
210
0.0
220
0.0
230
1.0
 70
     8
 71
     3
 72
     8
 73
     4
 74
     0
 42
0.000000001
 43
0.00000001
 40
0.0
 40
0.0
 40
0.0
 40
0.0
 40
1.0
 40
1.0
 40
1.0
 40
1.0
 10
13.02999999999997
 20
44.57901066343648
 30
0.0
 10
13.44364613314276
 20
45.32508460154332
 30
0.0
 10
13.8579115090824
 20
46.07082082932957
 30
0.0
 10
14.27271061994655
 20
46.81625358782993
 30
0.0
  0
SPLINE
  5
1B8
330
1F
100
AcDbEntity
  8
1
  6
SLD-Solid
370
    25
100
AcDbSpline
210
0.0
220
0.0
230
1.0
 70
     8
 71
     3
 72
     8
 73
     4
 74
     0
 42
0.000000001
 43
0.00000001
 40
0.0
 40
0.0
 40
0.0
 40
0.0
 40
0.0008790679015124
 40
0.0008790679015124
 40
0.0008790679015124
 40
0.0008790679015124
 10
14.63972339340265
 20
47.29681459776456
 30
0.0
 10
14.51700841932646
 20
47.13673210499613
 30
0.0
 10
14.39466513614736
 20
46.97654627942754
 30
0.0
 10
14.27271061994655
 20
46.81625358782993
 30
0.0
  0
SPLINE
  5
1B9
330
1F
100
AcDbEntity
  8
1
  6
SLD-Solid
370
    25
100
AcDbSpline
210
0.0
220
0.0
230
1.0
 70
     8
 71
     3
 72
     8
 73
     4
 74
     0
 42
0.000000001
 43
0.00000001
 40
0.0
 40
0.0
 40
0.0
 40
0.0
 40
1.0
 40
1.0
 40
1.0
 40
1.0
 10
13.02999999999997
 20
-44.57901066343648
 30
0.0
 10
13.56559195163209
 20
-45.54503249842018
 30
0.0
 10
14.10222500453558
 20
-46.5104965471081
 30
0.0
 10
14.63972339340265
 20
-47.4754841997425
 30
0.0
  0
SPLINE
  5
1BA
330
1F
100
AcDbEntity
  8
1
  6
SLD-Solid
370
    25
100
AcDbSpline
210
0.0
220
0.0
230
1.0
 70
     8
 71
     3
 72
    14
 73
    10
 74
     0
 42
0.000000001
 43
0.00000001
 40
0.0
 40
0.0
 40
0.0
 40
0.0
 40
0.25
 40
0.25
 40
0.5
 40
0.5
 40
0.75
 40
0.75
 40
1.0
 40
1.0
 40
1.0
 40
1.0
 10
13.02999999999999
 20
35.43161038841292
 30
0.0
 10
13.05904068229162
 20
35.41088512733869
 30
0.0
 10
13.08275209483376
 20
35.37953864703776
 30
0.0
 10
13.11609658322838
 20
35.28872072742522
 30
0.0
 10
13.12492140067849
 20
35.23076880196018
 30
0.0
 10
13.12507754968092
 20
35.08956907537857
 30
0.0
 10
13.11615053209288
 20
35.00648906177567
 30
0.0
 10
13.08319562521656
 20
34.82779421025372
 30
0.0
 10
13.05911019949689
 20
34.73111937885587
 30
0.0
 10
13.02999999999997
 20
34.63242923389118
 30
0.0
  0
SPLINE
  5
1BB
330
1F
100
AcDbEntity
  8
1
  6
SLD-Solid
370
    25
100
AcDbSpline
210
0.0
220
0.0
230
1.0
 70
     8
 71
     3
 72
    12
 73
     8
 74
     0
 42
0.000000001
 43
0.00000001
 40
0.0
 40
0.0
 40
0.0
 40
0.0
 40
0.2500000000000032
 40
0.2500000000000032
 40
0.5000000000000063
 40
0.5000000000000063
 40
1.0
 40
1.0
 40
1.0
 40
1.0
 10
12.28
 20
-43.76943596849289
 30
0.0
 10
12.37996960464108
 20
-43.76943596849289
 30
0.0
 10
12.47988502523367
 20
-43.79051518316404
 30
0.0
 10
12.66449294223868
 20
-43.87194262843689
 30
0.0
 10
12.74728498815324
 20
-43.93126060501207
 30
0.0
 10
12.95342033959714
 20
-44.15080408372863
 30
0.0
 10
13.02999999999999
 20
-44.35163254795798
 30
0.0
 10
13.02999999999999
 20
-44.551021593225
 30
0.0
  0
SPLINE
  5
1BC
330
1F
100
AcDbEntity
  8
1
  6
SLD-Solid
370
    25
100
AcDbSpline
210
0.0
220
0.0
230
1.0
 70
     8
 71
     3
 72
    16
 73
    12
 74
     0
 42
0.000000001
 43
0.00000001
 40
0.0
 40
0.0
 40
0.0
 40
0.0
 40
0.1250000000000001
 40
0.1250000000000001
 40
0.2500000000000003
 40
0.2500000000000003
 40
0.5000000000000002
 40
0.5000000000000002
 40
0.7500000000000001
 40
0.7500000000000001
 40
1.0
 40
1.0
 40
1.0
 40
1.0
 10
13.02999999999999
 20
34.61214293353757
 30
0.0
 10
13.03
 20
34.56119277402759
 30
0.0
 10
13.0206745626061
 20
34.49413963137994
 30
0.0
 10
12.99367590047849
 20
34.36331338142202
 30
0.0
 10
12.97626449755332
 20
34.29908556562462
 30
0.0
 10
12.91545405813531
 20
34.11096290842622
 30
0.0
 10
12.86271449633857
 20
33.99023971150844
 30
0.0
 10
12.73634152951907
 20
33.76817627154973
 30
0.0
 10
12.66098841639737
 20
33.66394234496748
 30
0.0
 10
12.48671204537781
 20
33.48358218869544
 30
0.0
 10
12.38972674335426
 20
33.40848998465463
 30
0.0
 10
12.28
 20
33.35547071674117
 30
0.0
  0
SPLINE
  5
1BD
330
1F
100
AcDbEntity
  8
1
  6
SLD-Solid
370
    25
100
AcDbSpline
210
0.0
220
0.0
230
1.0
 70
     8
 71
     3
 72
    12
 73
     8
 74
     0
 42
0.000000001
 43
0.00000001
 40
0.0
 40
0.0
 40
0.0
 40
0.0
 40
0.5
 40
0.5
 40
0.75
 40
0.75
 40
1.0
 40
1.0
 40
1.0
 40
1.0
 10
9.199999999999973
 20
-44.55102159322499
 30
0.0
 10
9.199999999999973
 20
-44.35094747116167
 30
0.0
 10
9.277613070150112
 20
-44.14958800989076
 30
0.0
 10
9.482511037300565
 20
-43.93153570225751
 30
0.0
 10
9.566272299852283
 20
-43.87162606259759
 30
0.0
 10
9.749092094904363
 20
-43.79094541821726
 30
0.0
 10
9.849426682175629
 20
-43.7694359684929
 30
0.0
 10
9.949999999999973
 20
-43.76943596849289
 30
0.0
  0
SPLINE
  5
1BE
330
1F
100
AcDbEntity
  8
1
  6
SLD-Solid
370
    25
100
AcDbSpline
210
0.0
220
0.0
230
1.0
 70
     8
 71
     3
 72
    16
 73
    12
 74
     0
 42
0.000000001
 43
0.00000001
 40
0.0
 40
0.0
 40
0.0
 40
0.0
 40
0.2499999999999967
 40
0.2499999999999967
 40
0.4999999999999934
 40
0.4999999999999934
 40
0.7499999999999902
 40
0.7499999999999902
 40
0.8749999999999951
 40
0.8749999999999951
 40
1.0
 40
1.0
 40
1.0
 40
1.0
 10
9.949999999999973
 20
33.36525953046025
 30
0.0
 10
9.839257595210634
 20
33.42015914282665
 30
0.0
 10
9.740416734001444
 20
33.49854219709403
 30
0.0
 10
9.564708009184061
 20
33.6855356989051
 30
0.0
 10
9.4908304832661
 20
33.79082769792041
 30
0.0
 10
9.364658348120003
 20
34.01955880125701
 30
0.0
 10
9.31295142551812
 20
34.14247439570438
 30
0.0
 10
9.253206550793813
 20
34.33488461785981
 30
0.0
 10
9.236028623043943
 20
34.40121962580662
 30
0.0
 10
9.20972370305702
 20
34.53368853253289
 30
0.0
 10
9.199999999999985
 20
34.60516910831216
 30
0.0
 10
9.199999999999985
 20
34.65640299543516
 30
0.0
  0
SPLINE
  5
1BF
330
1F
100
AcDbEntity
  8
1
  6
SLD-Solid
370
    25
100
AcDbSpline
210
0.0
220
0.0
230
1.0
 70
     8
 71
     3
 72
    12
 73
     8
 74
     0
 42
0.000000001
 43
0.00000001
 40
0.0
 40
0.0
 40
0.0
 40
0.0
 40
0.2500000000000006
 40
0.2500000000000006
 40
0.5000000000000011
 40
0.5000000000000011
 40
1.0
 40
1.0
 40
1.0
 40
1.0
 10
12.28
 20
33.35547071674117
 30
0.0
 10
12.10934456477526
 20
33.27301109054178
 30
0.0
 10
11.92465326465504
 20
33.21019284332252
 30
0.0
 10
11.52752277837882
 20
33.124142789094
 30
0.0
 10
11.32193513118782
 20
33.10278110396342
 30
0.0
 10
10.69948105299424
 20
33.10504385732295
 30
0.0
 10
10.28831449591981
 20
33.19754297491613
 30
0.0
 10
9.949999999999973
 20
33.36525953046025
 30
0.0
  0
SPLINE
  5
1C0
330
1F
100
AcDbEntity
  8
1
  6
SLD-Solid
370
    25
100
AcDbSpline
210
0.0
220
0.0
230
1.0
 70
     8
 71
     3
 72
    16
 73
    12
 74
     0
 42
0.000000001
 43
0.00000001
 40
0.0
 40
0.0
 40
0.0
 40
0.0
 40
0.1250000000000023
 40
0.1250000000000023
 40
0.2500000000000046
 40
0.2500000000000046
 40
0.5000000000000031
 40
0.5000000000000031
 40
0.7500000000000016
 40
0.7500000000000016
 40
1.0
 40
1.0
 40
1.0
 40
1.0
 10
9.200000000002248
 20
35.36831017815612
 30
0.0
 10
9.200000000002248
 20
35.31693147875156
 30
0.0
 10
9.209688078859523
 20
35.29149399689031
 30
0.0
 10
9.236073415531495
 20
35.26518486787037
 30
0.0
 10
9.253070624736875
 20
35.26193032552649
 30
0.0
 10
9.31303481520901
 20
35.26168910608327
 30
0.0
 10
9.363922455821433
 20
35.274771545151
 30
0.0
 10
9.490054525543968
 20
35.31156519648361
 30
0.0
 10
9.56509243003771
 20
35.33621653959832
 30
0.0
 10
9.738924647265486
 20
35.39932894997411
 30
0.0
 10
9.839445946349986
 20
35.43834692831612
 30
0.0
 10
9.949999999999973
 20
35.48885481142475
 30
0.0
  0
SPLINE
  5
1C1
330
1F
100
AcDbEntity
  8
1
  6
SLD-Solid
370
    25
100
AcDbSpline
210
0.0
220
0.0
230
1.0
 70
     8
 71
     3
 72
    12
 73
     8
 74
     0
 42
0.000000001
 43
0.00000001
 40
0.0
 40
0.0
 40
0.0
 40
0.0
 40
0.25
 40
0.25
 40
0.5
 40
0.5
 40
1.0
 40
1.0
 40
1.0
 40
1.0
 10
9.949999999999973
 20
35.48885481142475
 30
0.0
 10
10.11915676939236
 20
35.56613601508452
 30
0.0
 10
10.30270770519945
 20
35.62476545355776
 30
0.0
 10
10.69826560395108
 20
35.70597605697657
 30
0.0
 10
10.90345647830328
 20
35.72681273192288
 30
0.0
 10
11.52590240230554
 20
35.72953904175431
 30
0.0
 10
11.93868796900773
 20
35.64974792445469
 30
0.0
 10
12.28
 20
35.49787263615901
 30
0.0
  0
SPLINE
  5
1C2
330
1F
100
AcDbEntity
  8
1
  6
SLD-Solid
370
    25
100
AcDbSpline
210
0.0
220
0.0
230
1.0
 70
     8
 71
     3
 72
    16
 73
    12
 74
     0
 42
0.000000001
 43
0.00000001
 40
0.0
 40
0.0
 40
0.0
 40
0.0
 40
0.2500000000000002
 40
0.2500000000000002
 40
0.5000000000000004
 40
0.5000000000000004
 40
0.7500000000000007
 40
0.7500000000000007
 40
0.8750000000000003
 40
0.8750000000000003
 40
1.0
 40
1.0
 40
1.0
 40
1.0
 10
12.28
 20
35.49787263615901
 30
0.0
 10
12.38938127142807
 20
35.44920071538321
 30
0.0
 10
12.48719790588468
 20
35.4125691393556
 30
0.0
 10
12.66235653858858
 20
35.35237067244716
 30
0.0
 10
12.73630362704298
 20
35.33005450148762
 30
0.0
 10
12.86322577731737
 20
35.29810085202675
 30
0.0
 10
12.91570572130092
 20
35.28773767542292
 30
0.0
 10
12.9765893450943
 20
35.29443860847591
 30
0.0
 10
12.99409980251966
 20
35.30029296727562
 30
0.0
 10
13.02084597296048
 20
35.33271449864376
 30
0.0
 10
13.03
 20
35.36068432142829
 30
0.0
 10
13.02999999999999
 20
35.41132408805679
 30
0.0
  0
SPLINE
  5
1C3
330
1F
100
AcDbEntity
  8
1
  6
SLD-Solid
370
    25
100
AcDbSpline
210
0.0
220
0.0
230
1.0
 70
     8
 71
     3
 72
    16
 73
    12
 74
     0
 42
0.000000001
 43
0.00000001
 40
0.0
 40
0.0
 40
0.0
 40
0.0
 40
0.2499999999999998
 40
0.2499999999999998
 40
0.4999999999999996
 40
0.4999999999999996
 40
0.7499999999999993
 40
0.7499999999999993
 40
0.8749999999999997
 40
0.8749999999999997
 40
1.0
 40
1.0
 40
1.0
 40
1.0
 10
9.949999999999973
 20
40.29017607249212
 30
0.0
 10
9.839257595210649
 20
40.32798470963449
 30
0.0
 10
9.740416734001444
 20
40.39081531012379
 30
0.0
 10
9.564708009184075
 20
40.54795546550076
 30
0.0
 10
9.4908304832661
 20
40.63949231484413
 30
0.0
 10
9.364658348120017
 20
40.8424769902905
 30
0.0
 10
9.31295142551812
 20
40.95326880810712
 30
0.0
 10
9.253206550793813
 20
41.13218036853986
 30
0.0
 10
9.236028623043943
 20
41.19470581500534
 30
0.0
 10
9.20972370305702
 20
41.32469951294973
 30
0.0
 10
9.199999999999985
 20
41.3978390036328
 30
0.0
 10
9.199999999999985
 20
41.45885414630705
 30
0.0
  0
SPLINE
  5
1C4
330
1F
100
AcDbEntity
  8
1
  6
SLD-Solid
370
    25
100
AcDbSpline
210
0.0
220
0.0
230
1.0
 70
     8
 71
     3
 72
    16
 73
    12
 74
     0
 42
0.000000001
 43
0.00000001
 40
0.0
 40
0.0
 40
0.0
 40
0.0
 40
0.1250000000000039
 40
0.1250000000000039
 40
0.2500000000000078
 40
0.2500000000000078
 40
0.5000000000000051
 40
0.5000000000000051
 40
0.7500000000000026
 40
0.7500000000000026
 40
1.0
 40
1.0
 40
1.0
 40
1.0
 10
13.02999999999832
 20
41.42895438114486
 30
0.0
 10
13.02999999999833
 20
41.36827713359745
 30
0.0
 10
13.02067456260443
 20
41.29860125514493
 30
0.0
 10
12.99367590047683
 20
41.16856540733186
 30
0.0
 10
12.97626449755165
 20
41.10738101936697
 30
0.0
 10
12.91545405813364
 20
40.93079740642491
 30
0.0
 10
12.8627144963369
 20
40.8213021261172
 30
0.0
 10
12.7363415295174
 20
40.6232035604692
 30
0.0
 10
12.66098841639572
 20
40.53226162144244
 30
0.0
 10
12.48671204537614
 20
40.38027498384282
 30
0.0
 10
12.38972674335259
 20
40.31995671599527
 30
0.0
 10
12.27999999999833
 20
40.28343379132452
 30
0.0
  0
SPLINE
  5
1C5
330
1F
100
AcDbEntity
  8
1
  6
SLD-Solid
370
    25
100
AcDbSpline
210
0.0
220
0.0
230
1.0
 70
     8
 71
     3
 72
    12
 73
     8
 74
     0
 42
0.000000001
 43
0.00000001
 40
0.0
 40
0.0
 40
0.0
 40
0.0
 40
0.25
 40
0.25
 40
0.5
 40
0.5
 40
1.0
 40
1.0
 40
1.0
 40
1.0
 10
12.27999999999833
 20
40.28343379132452
 30
0.0
 10
12.1093445647736
 20
40.22663054158943
 30
0.0
 10
11.92465326465338
 20
40.1831865120628
 30
0.0
 10
11.52752277837717
 20
40.12362389225039
 30
0.0
 10
11.32193513118616
 20
40.10880147711194
 30
0.0
 10
10.69948105299261
 20
40.11037023230935
 30
0.0
 10
10.28831449592008
 20
40.17467189827313
 30
0.0
 10
9.949999999999973
 20
40.29017607249212
 30
0.0
  0
SPLINE
  5
1C6
330
1F
100
AcDbEntity
  8
1
  6
SLD-Solid
370
    25
100
AcDbSpline
210
0.0
220
0.0
230
1.0
 70
     8
 71
     3
 72
    16
 73
    12
 74
     0
 42
0.000000001
 43
0.00000001
 40
0.0
 40
0.0
 40
0.0
 40
0.0
 40
0.1250000000000007
 40
0.1250000000000007
 40
0.2500000000000013
 40
0.2500000000000013
 40
0.5000000000000009
 40
0.5000000000000009
 40
0.7500000000000004
 40
0.7500000000000004
 40
1.0
 40
1.0
 40
1.0
 40
1.0
 10
9.199999999999973
 20
41.93454239124897
 30
0.0
 10
9.200000000002484
 20
41.87335478963723
 30
0.0
 10
9.209688078861245
 20
41.83111047963454
 30
0.0
 10
9.236073415534618
 20
41.77192904688973
 30
0.0
 10
9.253070624740456
 20
41.7517445546343
 30
0.0
 10
9.313034815213312
 20
41.70102846576505
 30
0.0
 10
9.36392245582579
 20
41.68155707128334
 30
0.0
 10
9.490054525547881
 20
41.65587219504388
 30
0.0
 10
9.565092430040902
 20
41.65088437918838
 30
0.0
 10
9.738924647266597
 20
41.66113961911402
 30
0.0
 10
9.83944594634957
 20
41.67651281331742
 30
0.0
 10
9.949999999997697
 20
41.7091381742131
 30
0.0
  0
SPLINE
  5
1C7
330
1F
100
AcDbEntity
  8
1
  6
SLD-Solid
370
    25
100
AcDbSpline
210
0.0
220
0.0
230
1.0
 70
     8
 71
     3
 72
    12
 73
     8
 74
     0
 42
0.000000001
 43
0.00000001
 40
0.0
 40
0.0
 40
0.0
 40
0.0
 40
0.25
 40
0.25
 40
0.5
 40
0.5
 40
1.0
 40
1.0
 40
1.0
 40
1.0
 10
9.949999999997697
 20
41.7091381742131
 30
0.0
 10
10.11915676938993
 20
41.75905765221763
 30
0.0
 10
10.30270770519866
 20
41.79673649998864
 30
0.0
 10
10.69826560394987
 20
41.84886357628232
 30
0.0
 10
10.90345647830172
 20
41.86219397810196
 30
0.0
 10
11.52590240230297
 20
41.8639399469169
 30
0.0
 10
11.93868796900434
 20
41.81303425518009
 30
0.0
 10
12.27999999999606
 20
41.71496227396707
 30
0.0
  0
SPLINE
  5
1C8
330
1F
100
AcDbEntity
  8
1
  6
SLD-Solid
370
    25
100
AcDbSpline
210
0.0
220
0.0
230
1.0
 70
     8
 71
     3
 72
    16
 73
    12
 74
     0
 42
0.000000001
 43
0.00000001
 40
0.0
 40
0.0
 40
0.0
 40
0.0
 40
0.2500000000000007
 40
0.2500000000000007
 40
0.5000000000000013
 40
0.5000000000000013
 40
0.750000000000002
 40
0.750000000000002
 40
0.875000000000001
 40
0.875000000000001
 40
1.0
 40
1.0
 40
1.0
 40
1.0
 10
12.27999999999606
 20
41.71496227396707
 30
0.0
 10
12.38938127142412
 20
41.68353285741419
 30
0.0
 10
12.48719790588074
 20
41.66923447164883
 30
0.0
 10
12.66235653858464
 20
41.66075308180612
 30
0.0
 10
12.73630362703904
 20
41.66679667497377
 30
0.0
 10
12.86322577731343
 20
41.69542238628982
 30
0.0
 10
12.91570572129698
 20
41.71723646207177
 30
0.0
 10
12.97658934509037
 20
41.77277628648039
 30
0.0
 10
12.99409980251573
 20
41.79517110958684
 30
0.0
 10
13.02084597295654
 20
41.85934368895603
 30
0.0
 10
13.02999999999605
 20
41.90265050045378
 30
0.0
 10
13.02999999999605
 20
41.96295809683838
 30
0.0
  0
SPLINE
  5
1C9
330
1F
100
AcDbEntity
  8
1
  6
SLD-Solid
370
    25
100
AcDbSpline
210
0.0
220
0.0
230
1.0
 70
     8
 71
     3
 72
    12
 73
     8
 74
     0
 42
0.000000001
 43
0.00000001
 40
0.0
 40
0.0
 40
0.0
 40
0.0
 40
0.5
 40
0.5
 40
0.75
 40
0.75
 40
1.0
 40
1.0
 40
1.0
 40
1.0
 10
9.199999999999973
 20
44.55102159322499
 30
0.0
 10
9.199999999999973
 20
44.35104831812288
 30
0.0
 10
9.276003966817312
 20
44.15150826736531
 30
0.0
 10
9.482759040153471
 20
43.93116827137958
 30
0.0
 10
9.566857937314918
 20
43.87128621650869
 30
0.0
 10
9.74951124726113
 20
43.79084228716471
 30
0.0
 10
9.850156242870472
 20
43.76943596849257
 30
0.0
 10
9.950000000002387
 20
43.7694359684929
 30
0.0
  0
SPLINE
  5
1CA
330
1F
100
AcDbEntity
  8
1
  6
SLD-Solid
370
    25
100
AcDbSpline
210
0.0
220
0.0
230
1.0
 70
     8
 71
     3
 72
    10
 73
     6
 74
     0
 42
0.000000001
 43
0.00000001
 40
0.0
 40
0.0
 40
0.0
 40
0.0
 40
0.5
 40
0.5
 40
1.0
 40
1.0
 40
1.0
 40
1.0
 10
12.28
 20
43.7694359684929
 30
0.0
 10
12.48122846377882
 20
43.76943596849291
 30
0.0
 10
12.67900932610887
 20
43.85856672856718
 30
0.0
 10
12.95290221427663
 20
44.15022946993261
 30
0.0
 10
13.02999999999999
 20
44.34957328976747
 30
0.0
 10
13.02999999999999
 20
44.55102159322499
 30
0.0
  0
SPLINE
  5
1CB
330
1F
100
AcDbEntity
  8
SK3
  6
SLD-Dashed
370
    18
100
AcDbSpline
210
0.0
220
0.0
230
1.0
 70
     8
 71
     3
 72
    30
 73
    26
 74
     0
 42
0.000000001
 43
0.00000001
 40
0.4999999999999934
 40
0.4999999999999934
 40
0.4999999999999934
 40
0.4999999999999934
 40
0.5624999999999941
 40
0.5624999999999941
 40
0.6249999999999949
 40
0.6249999999999949
 40
0.6874999999999956
 40
0.6874999999999956
 40
0.7499999999999962
 40
0.7499999999999962
 40
0.7812499999999968
 40
0.7812499999999968
 40
0.8124999999999972
 40
0.8124999999999972
 40
0.8437499999999977
 40
0.8437499999999977
 40
0.8749999999999981
 40
0.8749999999999981
 40
0.9062499999999986
 40
0.9062499999999986
 40
0.9374999999999991
 40
0.9374999999999991
 40
0.9687499999999996
 40
0.9687499999999996
 40
1.0
 40
1.0
 40
1.0
 40
1.0
 10
9.602846279599744
 20
-14.27915034605703
 30
0.0
 10
9.686456538693767
 20
-14.4212541863764
 30
0.0
 10
9.797407143447803
 20
-14.51131733768216
 30
0.0
 10
10.04010223607202
 20
-14.63242374926581
 30
0.0
 10
10.17571106347529
 20
-14.66434400040093
 30
0.0
 10
10.46843928875953
 20
-14.6878509066433
 30
0.0
 10
10.62555865364895
 20
-14.68003033606001
 30
0.0
 10
10.98145473780836
 20
-14.62436653420486
 30
0.0
 10
11.18157682258662
 20
-14.57632221838472
 30
0.0
 10
11.50801002825753
 20
-14.4586089343655
 30
0.0
 10
11.61873162334193
 20
-14.41242944660508
 30
0.0
 10
11.84220113938104
 20
-14.30063256215535
 30
0.0
 10
11.95412269444687
 20
-14.23490090158665
 30
0.0
 10
12.16107863552152
 20
-14.08747705033184
 30
0.0
 10
12.25901625186733
 20
-14.00366784802362
 30
0.0
 10
12.43052677631515
 20
-13.82249974419393
 30
0.0
 10
12.50593330594162
 20
-13.72350506925876
 30
0.0
 10
12.63000303324957
 20
-13.51367430078405
 30
0.0
 10
12.67841410243613
 20
-13.4039848685676
 30
0.0
 10
12.74789370637346
 20
-13.17359881812363
 30
0.0
 10
12.76810124630627
 20
-13.05468203931825
 30
0.0
 10
12.77891027826542
 20
-12.81644825424547
 30
0.0
 10
12.76940813581849
 20
-12.69449512908379
 30
0.0
 10
12.72129905847913
 20
-12.45817259633889
 30
0.0
 10
12.6830162564643
 20
-12.34304803310331
 30
0.0
 10
12.63040931107565
 20
-12.23233436389471
 30
0.0
  0
SPLINE
  5
1CC
330
1F
100
AcDbEntity
  8
SK3
  6
SLD-Dashed
370
    18
100
AcDbSpline
210
0.0
220
0.0
230
1.0
 70
     8
 71
     3
 72
    30
 73
    26
 74
     0
 42
0.000000001
 43
0.00000001
 40
0.0
 40
0.0
 40
0.0
 40
0.0
 40
0.0312499999999991
 40
0.0312499999999991
 40
0.0624999999999983
 40
0.0624999999999983
 40
0.0937499999999974
 40
0.0937499999999974
 40
0.1249999999999965
 40
0.1249999999999965
 40
0.187499999999996
 40
0.187499999999996
 40
0.2499999999999955
 40
0.2499999999999955
 40
0.312499999999995
 40
0.312499999999995
 40
0.3749999999999944
 40
0.3749999999999944
 40
0.4062499999999942
 40
0.4062499999999942
 40
0.4374999999999939
 40
0.4374999999999939
 40
0.4687499999999937
 40
0.4687499999999937
 40
0.4999999999999934
 40
0.4999999999999934
 40
0.4999999999999934
 40
0.4999999999999934
 10
12.63040931107566
 20
-12.23233436389471
 30
0.0
 10
12.57780236568702
 20
-12.12162069468612
 30
0.0
 10
12.51267206459308
 20
-12.01896209858505
 30
0.0
 10
12.35821503903346
 20
-11.83123217673027
 30
0.0
 10
12.26800655859518
 20
-11.74609765066666
 30
0.0
 10
12.07343499093626
 20
-11.60605794329098
 30
0.0
 10
11.96643370486065
 20
-11.5492012180452
 30
0.0
 10
11.74573264298212
 20
-11.4698171939369
 30
0.0
 10
11.6340655249776
 20
-11.44748668283022
 30
0.0
 10
11.29951801742687
 20
-11.42770686560523
 30
0.0
 10
11.0919842806995
 20
-11.47806879673262
 30
0.0
 10
10.72217844091647
 20
-11.64236243808864
 30
0.0
 10
10.55844908096594
 20
-11.75496051093636
 30
0.0
 10
10.25324958882708
 20
-12.02428585488716
 30
0.0
 10
10.11576882260311
 20
-12.17795893248198
 30
0.0
 10
9.862525619365305
 20
-12.52988094775973
 30
0.0
 10
9.746260896402001
 20
-12.72918710194006
 30
0.0
 10
9.60569266085047
 20
-13.06645756895028
 30
0.0
 10
9.565421636406098
 20
-13.18319961587417
 30
0.0
 10
9.503286004234612
 20
-13.4293677611186
 30
0.0
 10
9.482363995141283
 20
-13.5575206983002
 30
0.0
 10
9.470908412243725
 20
-13.80546799718779
 30
0.0
 10
9.480664817462653
 20
-13.92083957613646
 30
0.0
 10
9.525951505689633
 20
-14.1223947507326
 30
0.0
 10
9.561041150052741
 20
-14.20809842589733
 30
0.0
 10
9.602846279599744
 20
-14.27915034605703
 30
0.0
  0
SPLINE
  5
1CD
330
1F
100
AcDbEntity
  8
SK3
  6
SLD-Dashed
370
    18
100
AcDbSpline
210
0.0
220
0.0
230
1.0
 70
     8
 71
     3
 72
    26
 73
    22
 74
     0
 42
0.000000001
 43
0.00000001
 40
0.5000000000000062
 40
0.5000000000000062
 40
0.5000000000000062
 40
0.5000000000000062
 40
0.5625000000000058
 40
0.5625000000000058
 40
0.6250000000000051
 40
0.6250000000000051
 40
0.6562500000000046
 40
0.6562500000000046
 40
0.687500000000004
 40
0.687500000000004
 40
0.7187500000000034
 40
0.7187500000000034
 40
0.7500000000000029
 40
0.7500000000000029
 40
0.8125000000000022
 40
0.8125000000000022
 40
0.8750000000000014
 40
0.8750000000000014
 40
0.9375000000000008
 40
0.9375000000000008
 40
1.0
 40
1.0
 40
1.0
 40
1.0
 10
11.63869831779568
 20
-9.819390371339228
 30
0.0
 10
11.80317915771346
 20
-9.806594466981581
 30
0.0
 10
11.95081782962318
 20
-9.812432081454693
 30
0.0
 10
12.22616299685249
 20
-9.868839301598985
 30
0.0
 10
12.3523651546992
 20
-9.918953620877934
 30
0.0
 10
12.51874661426339
 20
-10.04837289060636
 30
0.0
 10
12.57051953396253
 20
-10.10115000339699
 30
0.0
 10
12.66070184098385
 20
-10.23071744026808
 30
0.0
 10
12.70001796005847
 20
-10.30921538460778
 30
0.0
 10
12.75624339139549
 20
-10.49493258066049
 30
0.0
 10
12.77323165300569
 20
-10.60488156995157
 30
0.0
 10
12.77649462889749
 20
-10.84110300053568
 30
0.0
 10
12.76278670669287
 20
-10.96977043023328
 30
0.0
 10
12.68516730486992
 20
-11.34647137591012
 30
0.0
 10
12.5899630515896
 20
-11.58088814423495
 30
0.0
 10
12.37315603453729
 20
-11.98947715399205
 30
0.0
 10
12.24747178673945
 20
-12.17132846963892
 30
0.0
 10
11.9767673751945
 20
-12.4898134904303
 30
0.0
 10
11.83102686354769
 20
-12.62828009284684
 30
0.0
 10
11.5050837326993
 20
-12.86276351579439
 30
0.0
 10
11.32747339457475
 20
-12.95749122616766
 30
0.0
 10
11.12499999999998
 20
-13.01159523973385
 30
0.0
  0
SPLINE
  5
1CE
330
1F
100
AcDbEntity
  8
SK3
  6
SLD-Dashed
370
    18
100
AcDbSpline
210
0.0
220
0.0
230
1.0
 70
     8
 71
     3
 72
    34
 73
    30
 74
     0
 42
0.000000001
 43
0.00000001
 40
0.0
 40
0.0
 40
0.0
 40
0.0
 40
0.0312500000000005
 40
0.0312500000000005
 40
0.0625000000000011
 40
0.0625000000000011
 40
0.0937500000000016
 40
0.0937500000000016
 40
0.1250000000000022
 40
0.1250000000000022
 40
0.1562500000000027
 40
0.1562500000000027
 40
0.1875000000000032
 40
0.1875000000000032
 40
0.2187500000000038
 40
0.2187500000000038
 40
0.2500000000000043
 40
0.2500000000000043
 40
0.2812500000000049
 40
0.2812500000000049
 40
0.3125000000000054
 40
0.3125000000000054
 40
0.3750000000000063
 40
0.3750000000000063
 40
0.4062500000000066
 40
0.4062500000000066
 40
0.4375000000000068
 40
0.4375000000000068
 40
0.5000000000000062
 40
0.5000000000000062
 40
0.5000000000000062
 40
0.5000000000000062
 10
11.12499999999998
 20
-13.01159523973385
 30
0.0
 10
11.02376330271261
 20
-13.03864724651695
 30
0.0
 10
10.91875434041331
 20
-13.05441768585464
 30
0.0
 10
10.69982193729477
 20
-13.05649587060872
 30
0.0
 10
10.58565504429781
 20
-13.04203538439391
 30
0.0
 10
10.36433306908849
 20
-12.97958779527627
 30
0.0
 10
10.25386240054303
 20
-12.93066318687883
 30
0.0
 10
10.04998753866611
 20
-12.80335962284302
 30
0.0
 10
9.955887873020986
 20
-12.72514830576757
 30
0.0
 10
9.789076352163542
 20
-12.54575166602604
 30
0.0
 10
9.718022202672053
 20
-12.44674722204855
 30
0.0
 10
9.600536001433166
 20
-12.23250861951091
 30
0.0
 10
9.555159683901193
 20
-12.11851015366411
 30
0.0
 10
9.49353895391429
 20
-11.88585378314762
 30
0.0
 10
9.47679981458592
 20
-11.76451266100635
 30
0.0
 10
9.47348088875466
 20
-11.52533259241781
 30
0.0
 10
9.486354225371793
 20
-11.40705029377197
 30
0.0
 10
9.541906609790415
 20
-11.17282024047876
 30
0.0
 10
9.58393912590376
 20
-11.06025657731944
 30
0.0
 10
9.69436138573955
 20
-10.84625731946298
 30
0.0
 10
9.764046986917323
 20
-10.74326010657127
 30
0.0
 10
10.00399120049174
 20
-10.46156575413965
 30
0.0
 10
10.21277179464263
 20
-10.30327029353935
 30
0.0
 10
10.54446991129007
 20
-10.12219171688678
 30
0.0
 10
10.65925898590057
 20
-10.07012567259635
 30
0.0
 10
10.87934718809655
 20
-9.984066675225883
 30
0.0
 10
10.98764418607851
 20
-9.948726825148164
 30
0.0
 10
11.29210738731386
 20
-9.86376536348267
 30
0.0
 10
11.4742174778779
 20
-9.832186275696882
 30
0.0
 10
11.63869831779568
 20
-9.819390371339228
 30
0.0
  0
SPLINE
  5
1CF
330
1F
100
AcDbEntity
  8
1
  6
SLD-Dashed
370
    18
100
AcDbSpline
210
0.0
220
0.0
230
1.0
 70
    24
 71
     3
 72
    10
 73
     6
 74
     0
 42
0.000000001
 43
0.00000001
 40
0.0
 40
0.0
 40
0.0
 40
0.0
 40
0.0412495526112385
 40
0.6084134053820348
 40
1.0
 40
1.0
 40
1.0
 40
1.0
 10
19.04999999999998
 20
-35.1
 30
0.0
 10
19.0502242556799
 20
-35.1
 30
0.0
 10
19.05353193184264
 20
-35.1
 30
0.0
 10
19.19786694033547
 20
-35.1
 30
0.0
 10
19.26049501299099
 20
-35.1
 30
0.0
 10
19.28607446775468
 20
-35.1
 30
0.0
  0
SPLINE
  5
1D0
330
1F
100
AcDbEntity
  8
1
  6
SLD-Dashed
370
    18
100
AcDbSpline
210
0.0
220
0.0
230
1.0
 70
    24
 71
     3
 72
     8
 73
     4
 74
     0
 42
0.000000001
 43
0.00000001
 40
0.0
 40
0.0
 40
0.0
 40
0.0
 40
0.5
 40
0.5
 40
0.5
 40
0.5
 10
19.32612625652927
 20
-35.10000000000001
 30
0.0
 10
19.32611985774829
 20
-35.10000000000001
 30
0.0
 10
19.25867457650952
 20
-35.10000000000001
 30
0.0
 10
19.18940136355633
 20
-35.09999999999999
 30
0.0
  0
SPLINE
  5
1D1
330
1F
100
AcDbEntity
  8
1
  6
SLD-Dashed
370
    18
100
AcDbSpline
210
0.0
220
0.0
230
1.0
 70
    24
 71
     2
 72
     6
 73
     3
 74
     0
 42
0.000000001
 43
0.00000001
 40
0.5
 40
0.5
 40
0.5
 40
1.0
 40
1.0
 40
1.0
 10
19.18940136355633
 20
-35.09999999999999
 30
0.0
 10
19.1201290400469
 20
-35.09999999999999
 30
0.0
 10
19.04999999999998
 20
-35.1
 30
0.0
  0
SPLINE
  5
1D2
330
1F
100
AcDbEntity
  8
1
  6
SLD-Dashed
370
    18
100
AcDbSpline
210
0.0
220
0.0
230
1.0
 70
    24
 71
     2
 72
     6
 73
     3
 74
     0
 42
0.000000001
 43
0.00000001
 40
0.0
 40
0.0
 40
0.0
 40
0.25
 40
0.25
 40
0.25
 10
3.199999999983924
 20
-35.09999999999991
 30
0.0
 10
3.178023089470364
 20
-35.09999999999994
 30
0.0
 10
3.159393676864672
 20
-35.09999999999996
 30
0.0
  0
SPLINE
  5
1D3
330
1F
100
AcDbEntity
  8
1
  6
SLD-Dashed
370
    18
100
AcDbSpline
210
0.0
220
0.0
230
1.0
 70
    24
 71
     3
 72
     8
 73
     4
 74
     0
 42
0.000000001
 43
0.00000001
 40
0.25
 40
0.25
 40
0.25
 40
0.25
 40
0.5
 40
0.5
 40
0.5
 40
0.5
 10
3.159393676864672
 20
-35.09999999999996
 30
0.0
 10
3.140764264251611
 20
-35.09999999999998
 30
0.0
 10
3.125935313376432
 20
-35.1
 30
0.0
 10
3.125925297481333
 20
-35.1
 30
0.0
  0
SPLINE
  5
1D4
330
1F
100
AcDbEntity
  8
1
  6
SLD-Dashed
370
    18
100
AcDbSpline
210
0.0
220
0.0
230
1.0
 70
    24
 71
     3
 72
     8
 73
     4
 74
     0
 42
0.000000001
 43
0.00000001
 40
0.5
 40
0.5
 40
0.5
 40
0.5
 40
0.75
 40
0.75
 40
0.75
 40
0.75
 10
3.125925297481333
 20
-35.1
 30
0.0
 10
3.125915281586233
 20
-35.1
 30
0.0
 10
3.140736475081132
 20
-35.09999999999999
 30
0.0
 10
3.159374026153516
 20
-35.09999999999996
 30
0.0
  0
SPLINE
  5
1D5
330
1F
100
AcDbEntity
  8
1
  6
SLD-Dashed
370
    18
100
AcDbSpline
210
0.0
220
0.0
230
1.0
 70
    24
 71
     2
 72
     6
 73
     3
 74
     0
 42
0.000000001
 43
0.00000001
 40
0.75
 40
0.75
 40
0.75
 40
1.0
 40
1.0
 40
1.0
 10
3.159374026153516
 20
-35.09999999999996
 30
0.0
 10
3.178011577218504
 20
-35.09999999999993
 30
0.0
 10
3.199999999983924
 20
-35.09999999999991
 30
0.0
  0
SPLINE
  5
1D6
330
1F
100
AcDbEntity
  8
SK3
  6
SLD-Dashed
370
    18
100
AcDbSpline
210
0.0
220
0.0
230
1.0
 70
     8
 71
     3
 72
    30
 73
    26
 74
     0
 42
0.000000001
 43
0.00000001
 40
0.4999999999999964
 40
0.4999999999999964
 40
0.4999999999999964
 40
0.4999999999999964
 40
0.5624999999999966
 40
0.5624999999999966
 40
0.6249999999999966
 40
0.6249999999999966
 40
0.6562499999999969
 40
0.6562499999999969
 40
0.6874999999999972
 40
0.6874999999999972
 40
0.7187499999999976
 40
0.7187499999999976
 40
0.7499999999999978
 40
0.7499999999999978
 40
0.7812499999999981
 40
0.7812499999999981
 40
0.8124999999999984
 40
0.8124999999999984
 40
0.8437499999999988
 40
0.8437499999999988
 40
0.8749999999999991
 40
0.8749999999999991
 40
0.9374999999999996
 40
0.9374999999999996
 40
1.0
 40
1.0
 40
1.0
 40
1.0
 10
11.12563408671259
 20
-2.208076131944327
 30
0.0
 10
10.91012831143846
 20
-2.207994055743366
 30
0.0
 10
10.69273190607925
 20
-2.250950739379302
 30
0.0
 10
10.29545710457801
 20
-2.413221511274807
 30
0.0
 10
10.11161887920196
 20
-2.533970605358107
 30
0.0
 10
9.883256858052455
 20
-2.7563935005223
 30
0.0
 10
9.813570300258576
 20
-2.838822643502555
 30
0.0
 10
9.693828420307678
 20
-3.012044829892147
 30
0.0
 10
9.643049505613178
 20
-3.103292515775111
 30
0.0
 10
9.559939885115263
 20
-3.294987142140771
 30
0.0
 10
9.528110569339097
 20
-3.394937637341187
 30
0.0
 10
9.485932078998157
 20
-3.59527852615478
 30
0.0
 10
9.475093311114833
 20
-3.696889173272898
 30
0.0
 10
9.474907881274738
 20
-3.901872321533127
 30
0.0
 10
9.485524003425477
 20
-4.002149034246283
 30
0.0
 10
9.52734571652969
 20
-4.19850671782998
 30
0.0
 10
9.559089732329259
 20
-4.295610098711385
 30
0.0
 10
9.641733638388342
 20
-4.47937067040146
 30
0.0
 10
9.69233093631451
 20
-4.566117382228348
 30
0.0
 10
9.811994061612554
 20
-4.72969567326164
 30
0.0
 10
9.88147526259349
 20
-4.80655485490828
 30
0.0
 10
10.10919445985288
 20
-5.012639596316023
 30
0.0
 10
10.29295795309708
 20
-5.122781885588338
 30
0.0
 10
10.68976853487479
 20
-5.270055084887773
 30
0.0
 10
10.90666257993483
 20
-5.309061659790629
 30
0.0
 10
11.125
 20
-5.309061659790629
 30
0.0
  0
SPLINE
  5
1D7
330
1F
100
AcDbEntity
  8
SK3
  6
SLD-Dashed
370
    18
100
AcDbSpline
210
0.0
220
0.0
230
1.0
 70
     8
 71
     3
 72
    34
 73
    30
 74
     0
 42
0.000000001
 43
0.00000001
 40
0.0
 40
0.0
 40
0.0
 40
0.0
 40
0.0312499999999999
 40
0.0312499999999999
 40
0.0624999999999997
 40
0.0624999999999997
 40
0.0937499999999996
 40
0.0937499999999996
 40
0.1249999999999995
 40
0.1249999999999995
 40
0.1874999999999987
 40
0.1874999999999987
 40
0.2499999999999979
 40
0.2499999999999979
 40
0.2812499999999977
 40
0.2812499999999977
 40
0.3124999999999975
 40
0.3124999999999975
 40
0.3437499999999973
 40
0.3437499999999973
 40
0.3749999999999972
 40
0.3749999999999972
 40
0.4062499999999969
 40
0.4062499999999969
 40
0.4374999999999968
 40
0.4374999999999968
 40
0.4687499999999966
 40
0.4687499999999966
 40
0.4999999999999964
 40
0.4999999999999964
 40
0.4999999999999964
 40
0.4999999999999964
 10
11.125
 20
-5.309061659790622
 30
0.0
 10
11.23416871003258
 20
-5.309061659790629
 30
0.0
 10
11.34148252556932
 20
-5.299537349621526
 30
0.0
 10
11.55256160023163
 20
-5.262182100287887
 30
0.0
 10
11.65743203047546
 20
-5.233886962156417
 30
0.0
 10
11.85717198594059
 20
-5.159939537795339
 30
0.0
 10
11.95188217044847
 20
-5.114630280030591
 30
0.0
 10
12.13112457505726
 20
-5.007215473783237
 30
0.0
 10
12.21587296426145
 20
-4.944611663283513
 30
0.0
 10
12.44381779984261
 20
-4.738598197540293
 30
0.0
 10
12.56670516675001
 20
-4.571329361139985
 30
0.0
 10
12.73138667216639
 20
-4.206060482656697
 30
0.0
 10
12.77487792035799
 20
-4.004112810281367
 30
0.0
 10
12.77506064455625
 20
-3.700306253597567
 30
0.0
 10
12.76431481439132
 20
-3.59686797202801
 30
0.0
 10
12.72215926890359
 20
-3.395807648785803
 30
0.0
 10
12.69097028794158
 20
-3.297550131697899
 30
0.0
 10
12.60821939488964
 20
-3.105767645319002
 30
0.0
 10
12.55662183160311
 20
-3.012826865172881
 30
0.0
 10
12.43728120518575
 20
-2.839925186415154
 30
0.0
 10
12.36897548289651
 20
-2.758757585038248
 30
0.0
 10
12.21525208496077
 20
-2.608656191484399
 30
0.0
 10
12.13209058330412
 20
-2.541870610032915
 30
0.0
 10
11.95357507686053
 20
-2.424499981749678
 30
0.0
 10
11.85705358084933
 20
-2.373501415354251
 30
0.0
 10
11.65740944182679
 20
-2.291755408436395
 30
0.0
 10
11.55456819584581
 20
-2.260806334720908
 30
0.0
 10
11.34284591554824
 20
-2.218868681349198
 30
0.0
 10
11.23338697434963
 20
-2.208117170044807
 30
0.0
 10
11.12563408671259
 20
-2.208076131944327
 30
0.0
  0
SPLINE
  5
1D8
330
1F
100
AcDbEntity
  8
SK3
  6
SLD-Dashed
370
    18
100
AcDbSpline
210
0.0
220
0.0
230
1.0
 70
     8
 71
     3
 72
    18
 73
    14
 74
     0
 42
0.000000001
 43
0.00000001
 40
0.0
 40
0.0
 40
0.0
 40
0.0
 40
0.0502196103872393
 40
0.1000870260924269
 40
0.185508636894043
 40
0.250155080879186
 40
0.3746583157461185
 40
0.4998570853792876
 40
0.6242312608259408
 40
0.749432409948843
 40
0.8740366596180013
 40
0.9370350243166901
 40
1.0
 40
1.0
 40
1.0
 40
1.0
 10
3.69999999999994
 20
46.55608553132445
 30
0.0
 10
3.700143854852859
 20
46.56278755186002
 30
0.0
 10
3.700430555691554
 20
46.57614459105339
 30
0.0
 10
3.703274054818768
 20
46.60076085239342
 30
0.0
 10
3.708850025263264
 20
46.62692328764687
 30
0.0
 10
3.720514169271286
 20
46.66169890756613
 30
0.0
 10
3.739456592416604
 20
46.69941980690711
 30
0.0
 10
3.770128279112245
 20
46.73918434013718
 30
0.0
 10
3.808028636439573
 20
46.77229285140238
 30
0.0
 10
3.851698646431299
 20
46.79720148409477
 30
0.0
 10
3.891711812143317
 20
46.81006094110496
 30
0.0
 10
3.924780356068871
 20
46.81548545401084
 30
0.0
 10
3.941594937699453
 20
46.81599758847397
 30
0.0
 10
3.949999999999995
 20
46.81625358782996
 30
0.0
  0
SPLINE
  5
1D9
330
1F
100
AcDbEntity
  8
SK3
  6
SLD-Dashed
370
    18
100
AcDbSpline
210
0.0
220
0.0
230
1.0
 70
     8
 71
     3
 72
    18
 73
    14
 74
     0
 42
0.000000001
 43
0.00000001
 40
0.0
 40
0.0
 40
0.0
 40
0.0
 40
0.0501962867734855
 40
0.100030621443731
 40
0.1855667331187788
 40
0.2501823892320809
 40
0.3747066158220843
 40
0.4998232982189663
 40
0.6247294758455423
 40
0.7494251058857327
 40
0.8746331028690486
 40
0.9372230808189556
 40
1.0
 40
1.0
 40
1.0
 40
1.0
 10
18.3
 20
46.81625358782993
 30
0.0
 10
18.30669951182796
 20
46.81609127853697
 30
0.0
 10
18.32005022708195
 20
46.81576783032029
 30
0.0
 10
18.34463922095194
 20
46.81256776526224
 30
0.0
 10
18.37067201462219
 20
46.80630579793124
 30
0.0
 10
18.40500150194892
 20
46.7933155554719
 30
0.0
 10
18.4417393974991
 20
46.77247000397292
 30
0.0
 10
18.47965549617257
 20
46.73942242416842
 30
0.0
 10
18.51041281949077
 20
46.69961163074883
 30
0.0
 10
18.53306634505925
 20
46.65468875110019
 30
0.0
 10
18.54452340204191
 20
46.61434662644385
 30
0.0
 10
18.54932467505747
 20
46.5811984782934
 30
0.0
 10
18.54977466801634
 20
46.5644648311238
 30
0.0
 10
18.54999999999995
 20
46.55608553132448
 30
0.0
  0
SPLINE
  5
1DA
330
1F
100
AcDbEntity
  8
SK3
  6
SLD-Dashed
370
    18
100
AcDbSpline
210
0.0
220
0.0
230
1.0
 70
     8
 71
     3
 72
    30
 73
    26
 74
     0
 42
0.000000001
 43
0.00000001
 40
0.4999999999999986
 40
0.4999999999999986
 40
0.4999999999999986
 40
0.4999999999999986
 40
0.5624999999999986
 40
0.5624999999999986
 40
0.6249999999999986
 40
0.6249999999999986
 40
0.6562499999999987
 40
0.6562499999999987
 40
0.6874999999999989
 40
0.6874999999999989
 40
0.718749999999999
 40
0.718749999999999
 40
0.7499999999999991
 40
0.7499999999999991
 40
0.7812499999999993
 40
0.7812499999999993
 40
0.8124999999999994
 40
0.8124999999999994
 40
0.8437499999999997
 40
0.8437499999999997
 40
0.8749999999999998
 40
0.8749999999999998
 40
0.9374999999999999
 40
0.9374999999999999
 40
1.0
 40
1.0
 40
1.0
 40
1.0
 10
11.12436591328741
 20
5.309061551556936
 30
0.0
 10
11.3398716885615
 20
5.30913512189414
 30
0.0
 10
11.55726809392074
 20
5.270777053767752
 30
0.0
 10
11.95454289542199
 20
5.124082127907513
 30
0.0
 10
12.13838112079803
 20
5.01435051186401
 30
0.0
 10
12.36674314194752
 20
4.808404051991823
 30
0.0
 10
12.43642969974142
 20
4.731543474868142
 30
0.0
 10
12.5561715796923
 20
4.568463540703782
 30
0.0
 10
12.6069504943868
 20
4.481836472086068
 30
0.0
 10
12.69006011488473
 20
4.297948630822695
 30
0.0
 10
12.7218894306609
 20
4.201137306228619
 30
0.0
 10
12.76406792100183
 20
4.004999015154096
 30
0.0
 10
12.77490668888513
 20
3.904499034786596
 30
0.0
 10
12.77509211872523
 20
3.699534720125429
 30
0.0
 10
12.7644759965745
 20
3.598169916606802
 30
0.0
 10
12.72265428347029
 20
3.397643705646346
 30
0.0
 10
12.69091026767072
 20
3.297408274791247
 30
0.0
 10
12.60826636161164
 20
3.105879249910994
 30
0.0
 10
12.55766906368545
 20
3.014523490936151
 30
0.0
 10
12.43800593838743
 20
2.840798433450351
 30
0.0
 10
12.36852473740649
 20
2.758380635546162
 30
0.0
 10
12.14080554014711
 20
2.535838019871825
 30
0.0
 10
11.95704204690288
 20
2.414653532234787
 30
0.0
 10
11.56023146512518
 20
2.251755559321188
 30
0.0
 10
11.34333742006516
 20
2.208076011197137
 30
0.0
 10
11.12499999999998
 20
2.20807601119713
 30
0.0
  0
SPLINE
  5
1DB
330
1F
100
AcDbEntity
  8
SK3
  6
SLD-Dashed
370
    18
100
AcDbSpline
210
0.0
220
0.0
230
1.0
 70
     8
 71
     3
 72
    34
 73
    30
 74
     0
 42
0.000000001
 43
0.00000001
 40
0.0
 40
0.0
 40
0.0
 40
0.0
 40
0.0312499999999998
 40
0.0312499999999998
 40
0.0624999999999997
 40
0.0624999999999997
 40
0.0937499999999995
 40
0.0937499999999995
 40
0.1249999999999993
 40
0.1249999999999993
 40
0.1874999999999989
 40
0.1874999999999989
 40
0.2499999999999986
 40
0.2499999999999986
 40
0.2812499999999986
 40
0.2812499999999986
 40
0.3124999999999986
 40
0.3124999999999986
 40
0.3437499999999986
 40
0.3437499999999986
 40
0.3749999999999986
 40
0.3749999999999986
 40
0.4062499999999986
 40
0.4062499999999986
 40
0.4374999999999986
 40
0.4374999999999986
 40
0.4687499999999986
 40
0.4687499999999986
 40
0.4999999999999986
 40
0.4999999999999986
 40
0.4999999999999986
 40
0.4999999999999986
 10
11.12499999999998
 20
2.208076011197144
 30
0.0
 10
11.01583128996739
 20
2.208076011197137
 30
0.0
 10
10.90851747443064
 20
2.218712438100942
 30
0.0
 10
10.69743839976835
 20
2.260296858835595
 30
0.0
 10
10.59256796952451
 20
2.29175935325996
 30
0.0
 10
10.39282801405936
 20
2.373555205373634
 30
0.0
 10
10.29811782955149
 20
2.423509628226177
 30
0.0
 10
10.11887542494272
 20
2.541114583907885
 30
0.0
 10
10.03412703573851
 20
2.60929484585426
 30
0.0
 10
9.806182200157359
 20
2.831771837438379
 30
0.0
 10
9.683294833249978
 20
3.010016554592661
 30
0.0
 10
9.518613327833576
 20
3.390759943898584
 30
0.0
 10
9.475122079641976
 20
3.597272475835481
 30
0.0
 10
9.474939355443732
 20
3.901097591317404
 30
0.0
 10
9.485685185608675
 20
4.00343449960236
 30
0.0
 10
9.527840731096374
 20
4.200293854804631
 30
0.0
 10
9.559029712058424
 20
4.295473899993289
 30
0.0
 10
9.64178060511034
 20
4.479477843829419
 30
0.0
 10
9.693378168396869
 20
4.567722017178387
 30
0.0
 10
9.812718794814227
 20
4.730510706064041
 30
0.0
 10
9.881024517103516
 20
4.806208116124401
 30
0.0
 10
10.03474791503922
 20
4.945204256680408
 30
0.0
 10
10.11790941669587
 20
5.006521730708598
 30
0.0
 10
10.29642492313947
 20
5.113728914877727
 30
0.0
 10
10.39294641915066
 20
5.1599882395829
 30
0.0
 10
10.5925905581732
 20
5.233890455420359
 30
0.0
 10
10.69543180415418
 20
5.261724005488293
 30
0.0
 10
10.90715408445174
 20
5.299397422676641
 30
0.0
 10
11.01661302565035
 20
5.309024766388331
 30
0.0
 10
11.12436591328741
 20
5.309061551556936
 30
0.0
  0
SPLINE
  5
1DC
330
1F
100
AcDbEntity
  8
SK3
  6
SLD-Dashed
370
    18
100
AcDbSpline
210
0.0
220
0.0
230
1.0
 70
     8
 71
     2
 72
     6
 73
     3
 74
     0
 42
0.000000001
 43
0.00000001
 40
0.0
 40
0.0
 40
0.0
 40
0.0312499999999995
 40
0.0312499999999995
 40
0.0312499999999995
 10
164.2744999999999
 20
9.525000000000006
 30
0.0
 10
164.3256568278142
 20
9.486294570018323
 30
0.0
 10
164.4242585071362
 20
9.412697183833536
 30
0.0
  0
SPLINE
  5
1DD
330
1F
100
AcDbEntity
  8
SK3
  6
SLD-Dashed
370
    18
100
AcDbSpline
210
0.0
220
0.0
230
1.0
 70
     8
 71
     3
 72
     8
 73
     4
 74
     0
 42
0.000000001
 43
0.00000001
 40
0.0312499999999995
 40
0.0312499999999995
 40
0.0312499999999995
 40
0.0312499999999995
 40
0.0468749999999994
 40
0.0468749999999994
 40
0.0468749999999994
 40
0.0468749999999994
 10
164.4242585071362
 20
9.412697183833536
 30
0.0
 10
164.4735593467972
 20
9.375898490741157
 30
0.0
 10
164.5351762607357
 20
9.330068999886906
 30
0.0
 10
164.6080947204796
 20
9.276286574051557
 30
0.0
  0
SPLINE
  5
1DE
330
1F
100
AcDbEntity
  8
SK3
  6
SLD-Dashed
370
    18
100
AcDbSpline
210
0.0
220
0.0
230
1.0
 70
     8
 71
     3
 72
     8
 73
     4
 74
     0
 42
0.000000001
 43
0.00000001
 40
0.0468749999999994
 40
0.0468749999999994
 40
0.0468749999999994
 40
0.0468749999999994
 40
0.0624999999999994
 40
0.0624999999999994
 40
0.0624999999999994
 40
0.0624999999999994
 10
164.6080947204796
 20
9.276286574051557
 30
0.0
 10
164.6810131802235
 20
9.22250414821621
 30
0.0
 10
164.7644303385696
 20
9.161361501007152
 30
0.0
 10
164.8576357556742
 20
9.0937940970678
 30
0.0
  0
SPLINE
  5
1DF
330
1F
100
AcDbEntity
  8
SK3
  6
SLD-Dashed
370
    18
100
AcDbSpline
210
0.0
220
0.0
230
1.0
 70
     8
 71
     3
 72
     8
 73
     4
 74
     0
 42
0.000000001
 43
0.00000001
 40
0.0624999999999994
 40
0.0624999999999994
 40
0.0624999999999994
 40
0.0624999999999994
 40
0.0781249999999993
 40
0.0781249999999993
 40
0.0781249999999993
 40
0.0781249999999993
 10
164.8576357556742
 20
9.0937940970678
 30
0.0
 10
164.9508411727789
 20
9.026226693128434
 30
0.0
 10
165.0538401348114
 20
8.952227614798476
 30
0.0
 10
165.1663242126615
 20
8.87256480113751
 30
0.0
  0
SPLINE
  5
1E0
330
1F
100
AcDbEntity
  8
SK3
  6
SLD-Dashed
370
    18
100
AcDbSpline
210
0.0
220
0.0
230
1.0
 70
     8
 71
     3
 72
     8
 73
     4
 74
     0
 42
0.000000001
 43
0.00000001
 40
0.0781249999999993
 40
0.0781249999999993
 40
0.0781249999999993
 40
0.0781249999999993
 40
0.0937499999999993
 40
0.0937499999999993
 40
0.0937499999999993
 40
0.0937499999999993
 10
165.1663242126615
 20
8.87256480113751
 30
0.0
 10
165.2788082905117
 20
8.79290198747655
 30
0.0
 10
165.4014275967686
 20
8.707128391408636
 30
0.0
 10
165.5317099180614
 20
8.617655263699842
 30
0.0
  0
SPLINE
  5
1E1
330
1F
100
AcDbEntity
  8
SK3
  6
SLD-Dashed
370
    18
100
AcDbSpline
210
0.0
220
0.0
230
1.0
 70
     8
 71
     3
 72
     8
 73
     4
 74
     0
 42
0.000000001
 43
0.00000001
 40
0.0937499999999993
 40
0.0937499999999993
 40
0.0937499999999993
 40
0.0937499999999993
 40
0.1249999999999991
 40
0.1249999999999991
 40
0.1249999999999991
 40
0.1249999999999991
 10
165.5317099180614
 20
8.617655263699842
 30
0.0
 10
165.7922745606471
 20
8.43870900828228
 30
0.0
 10
166.082567573992
 20
8.245314563493846
 30
0.0
 10
166.4022049922437
 20
8.044753519551161
 30
0.0
  0
SPLINE
  5
1E2
330
1F
100
AcDbEntity
  8
SK3
  6
SLD-Dashed
370
    18
100
AcDbSpline
210
0.0
220
0.0
230
1.0
 70
     8
 71
     3
 72
     8
 73
     4
 74
     0
 42
0.000000001
 43
0.00000001
 40
0.1249999999999991
 40
0.1249999999999991
 40
0.1249999999999991
 40
0.1249999999999991
 40
0.156249999999999
 40
0.156249999999999
 40
0.156249999999999
 40
0.156249999999999
 10
166.4022049922437
 20
8.044753519551161
 30
0.0
 10
166.7218424104953
 20
7.84419247560847
 30
0.0
 10
167.0722834045892
 20
7.635735580724841
 30
0.0
 10
167.4434538751556
 20
7.435740487705726
 30
0.0
  0
SPLINE
  5
1E3
330
1F
100
AcDbEntity
  8
SK3
  6
SLD-Dashed
370
    18
100
AcDbSpline
210
0.0
220
0.0
230
1.0
 70
     8
 71
     3
 72
     8
 73
     4
 74
     0
 42
0.000000001
 43
0.00000001
 40
0.156249999999999
 40
0.156249999999999
 40
0.156249999999999
 40
0.156249999999999
 40
0.1874999999999989
 40
0.1874999999999989
 40
0.1874999999999989
 40
0.1874999999999989
 10
167.4434538751556
 20
7.435740487705726
 30
0.0
 10
167.814624345722
 20
7.235745394686618
 30
0.0
 10
168.2088993415343
 20
7.042219871342112
 30
0.0
 10
168.6331277131031
 20
6.868230793347606
 30
0.0
  0
SPLINE
  5
1E4
330
1F
100
AcDbEntity
  8
SK3
  6
SLD-Dashed
370
    18
100
AcDbSpline
210
0.0
220
0.0
230
1.0
 70
     8
 71
     3
 72
     8
 73
     4
 74
     0
 42
0.000000001
 43
0.00000001
 40
0.1874999999999989
 40
0.1874999999999989
 40
0.1874999999999989
 40
0.1874999999999989
 40
0.2031249999999989
 40
0.2031249999999989
 40
0.2031249999999989
 40
0.2031249999999989
 10
168.6331277131031
 20
6.868230793347606
 30
0.0
 10
168.8452418988875
 20
6.781236254350357
 30
0.0
 10
169.0661742630327
 20
6.698900448788008
 30
0.0
 10
169.291007835125
 20
6.625637472575191
 30
0.0
  0
SPLINE
  5
1E5
330
1F
100
AcDbEntity
  8
SK3
  6
SLD-Dashed
370
    18
100
AcDbSpline
210
0.0
220
0.0
230
1.0
 70
     8
 71
     3
 72
     8
 73
     4
 74
     0
 42
0.000000001
 43
0.00000001
 40
0.2031249999999989
 40
0.2031249999999989
 40
0.2031249999999989
 40
0.2031249999999989
 40
0.2187499999999988
 40
0.2187499999999988
 40
0.2187499999999988
 40
0.2187499999999988
 10
169.291007835125
 20
6.625637472575191
 30
0.0
 10
169.5158414072171
 20
6.552374496362375
 30
0.0
 10
169.7453550557891
 20
6.487784944443006
 30
0.0
 10
169.980225731375
 20
6.434132509570527
 30
0.0
  0
SPLINE
  5
1E6
330
1F
100
AcDbEntity
  8
SK3
  6
SLD-Dashed
370
    18
100
AcDbSpline
210
0.0
220
0.0
230
1.0
 70
     8
 71
     3
 72
     8
 73
     4
 74
     0
 42
0.000000001
 43
0.00000001
 40
0.2187499999999988
 40
0.2187499999999988
 40
0.2187499999999988
 40
0.2187499999999988
 40
0.2343749999999988
 40
0.2343749999999988
 40
0.2343749999999988
 40
0.2343749999999988
 10
169.980225731375
 20
6.434132509570527
 30
0.0
 10
170.2150964069609
 20
6.380480074698047
 30
0.0
 10
170.4559330639568
 20
6.337698348757407
 30
0.0
 10
170.7017450220753
 20
6.308542641688057
 30
0.0
  0
SPLINE
  5
1E7
330
1F
100
AcDbEntity
  8
SK3
  6
SLD-Dashed
370
    18
100
AcDbSpline
210
0.0
220
0.0
230
1.0
 70
     8
 71
     3
 72
     8
 73
     4
 74
     0
 42
0.000000001
 43
0.00000001
 40
0.2343749999999988
 40
0.2343749999999988
 40
0.2343749999999988
 40
0.2343749999999988
 40
0.2499999999999987
 40
0.2499999999999987
 40
0.2499999999999987
 40
0.2499999999999987
 10
170.7017450220753
 20
6.308542641688057
 30
0.0
 10
170.9475569801938
 20
6.279386934618699
 30
0.0
 10
171.192888224114
 20
6.264501417651211
 30
0.0
 10
171.4377421257113
 20
6.264022270512953
 30
0.0
  0
SPLINE
  5
1E8
330
1F
100
AcDbEntity
  8
SK3
  6
SLD-Dashed
370
    18
100
AcDbSpline
210
0.0
220
0.0
230
1.0
 70
     8
 71
     3
 72
     8
 73
     4
 74
     0
 42
0.000000001
 43
0.00000001
 40
0.2499999999999987
 40
0.2499999999999987
 40
0.2499999999999987
 40
0.2499999999999987
 40
0.2656249999999987
 40
0.2656249999999987
 40
0.2656249999999987
 40
0.2656249999999987
 10
171.4377421257113
 20
6.264022270512953
 30
0.0
 10
171.6825960273084
 20
6.263543123374696
 30
0.0
 10
171.9269725992093
 20
6.277468811029793
 30
0.0
 10
172.1708794116178
 20
6.305354222888242
 30
0.0
  0
SPLINE
  5
1E9
330
1F
100
AcDbEntity
  8
SK3
  6
SLD-Dashed
370
    18
100
AcDbSpline
210
0.0
220
0.0
230
1.0
 70
     8
 71
     3
 72
     8
 73
     4
 74
     0
 42
0.000000001
 43
0.00000001
 40
0.2656249999999987
 40
0.2656249999999987
 40
0.2656249999999987
 40
0.2656249999999987
 40
0.2812499999999986
 40
0.2812499999999986
 40
0.2812499999999986
 40
0.2812499999999986
 10
172.1708794116178
 20
6.305354222888242
 30
0.0
 10
172.4147862240264
 20
6.333239634746697
 30
0.0
 10
172.6589018627027
 20
6.375442830892843
 30
0.0
 10
172.8951602432774
 20
6.42855449372172
 30
0.0
  0
SPLINE
  5
1EA
330
1F
100
AcDbEntity
  8
SK3
  6
SLD-Dashed
370
    18
100
AcDbSpline
210
0.0
220
0.0
230
1.0
 70
     8
 71
     3
 72
     8
 73
     4
 74
     0
 42
0.000000001
 43
0.00000001
 40
0.2812499999999986
 40
0.2812499999999986
 40
0.2812499999999986
 40
0.2812499999999986
 40
0.2968749999999985
 40
0.2968749999999985
 40
0.2968749999999985
 40
0.2968749999999985
 10
172.8951602432774
 20
6.42855449372172
 30
0.0
 10
173.1314186238521
 20
6.481666156550602
 30
0.0
 10
173.3618215546196
 20
6.545792657473439
 30
0.0
 10
173.5871647465999
 20
6.61855708626203
 30
0.0
  0
SPLINE
  5
1EB
330
1F
100
AcDbEntity
  8
SK3
  6
SLD-Dashed
370
    18
100
AcDbSpline
210
0.0
220
0.0
230
1.0
 70
     8
 71
     3
 72
     8
 73
     4
 74
     0
 42
0.000000001
 43
0.00000001
 40
0.2968749999999985
 40
0.2968749999999985
 40
0.2968749999999985
 40
0.2968749999999985
 40
0.3124999999999984
 40
0.3124999999999984
 40
0.3124999999999984
 40
0.3124999999999984
 10
173.5871647465999
 20
6.61855708626203
 30
0.0
 10
173.8125079385801
 20
6.69132151505062
 30
0.0
 10
174.0338319835279
 20
6.773196264177966
 30
0.0
 10
174.2468234679426
 20
6.860032526222783
 30
0.0
  0
SPLINE
  5
1EC
330
1F
100
AcDbEntity
  8
SK3
  6
SLD-Dashed
370
    18
100
AcDbSpline
210
0.0
220
0.0
230
1.0
 70
     8
 71
     3
 72
     8
 73
     4
 74
     0
 42
0.000000001
 43
0.00000001
 40
0.3124999999999984
 40
0.3124999999999984
 40
0.3124999999999984
 40
0.3124999999999984
 40
0.3437499999999983
 40
0.3437499999999983
 40
0.3437499999999983
 40
0.3437499999999983
 10
174.2468234679426
 20
6.860032526222783
 30
0.0
 10
174.6728064367721
 20
7.033705050312408
 30
0.0
 10
175.0685474209805
 20
7.227241255365002
 30
0.0
 10
175.4410505568366
 20
7.427402594260349
 30
0.0
  0
SPLINE
  5
1ED
330
1F
100
AcDbEntity
  8
SK3
  6
SLD-Dashed
370
    18
100
AcDbSpline
210
0.0
220
0.0
230
1.0
 70
     8
 71
     3
 72
     8
 73
     4
 74
     0
 42
0.000000001
 43
0.00000001
 40
0.3437499999999983
 40
0.3437499999999983
 40
0.3437499999999983
 40
0.3437499999999983
 40
0.3749999999999982
 40
0.3749999999999982
 40
0.3749999999999982
 40
0.3749999999999982
 10
175.4410505568366
 20
7.427402594260349
 30
0.0
 10
175.8135536926926
 20
7.627563933155688
 30
0.0
 10
176.1652295348782
 20
7.836392403580465
 30
0.0
 10
176.4851310641241
 20
8.036813397292917
 30
0.0
  0
SPLINE
  5
1EE
330
1F
100
AcDbEntity
  8
SK3
  6
SLD-Dashed
370
    18
100
AcDbSpline
210
0.0
220
0.0
230
1.0
 70
     8
 71
     3
 72
     8
 73
     4
 74
     0
 42
0.000000001
 43
0.00000001
 40
0.3749999999999982
 40
0.3749999999999982
 40
0.3749999999999982
 40
0.3749999999999982
 40
0.4062499999999981
 40
0.4062499999999981
 40
0.4062499999999981
 40
0.4062499999999981
 10
176.4851310641241
 20
8.036813397292917
 30
0.0
 10
176.8050325933699
 20
8.237234391005362
 30
0.0
 10
177.0951078833902
 20
8.430256234874033
 30
0.0
 10
177.3553139984926
 20
8.608748931801454
 30
0.0
  0
SPLINE
  5
1EF
330
1F
100
AcDbEntity
  8
SK3
  6
SLD-Dashed
370
    18
100
AcDbSpline
210
0.0
220
0.0
230
1.0
 70
     8
 71
     3
 72
     8
 73
     4
 74
     0
 42
0.000000001
 43
0.00000001
 40
0.4062499999999981
 40
0.4062499999999981
 40
0.4062499999999981
 40
0.4062499999999981
 40
0.437499999999998
 40
0.437499999999998
 40
0.437499999999998
 40
0.437499999999998
 10
177.3553139984926
 20
8.608748931801454
 30
0.0
 10
177.6155201135951
 20
8.787241628728882
 30
0.0
 10
177.8463009368875
 20
8.951746435561187
 30
0.0
 10
178.0339295184336
 20
9.087681368407527
 30
0.0
  0
SPLINE
  5
1F0
330
1F
100
AcDbEntity
  8
SK3
  6
SLD-Dashed
370
    18
100
AcDbSpline
210
0.0
220
0.0
230
1.0
 70
     8
 71
     3
 72
     8
 73
     4
 74
     0
 42
0.000000001
 43
0.00000001
 40
0.437499999999998
 40
0.437499999999998
 40
0.437499999999998
 40
0.437499999999998
 40
0.4531249999999979
 40
0.4531249999999979
 40
0.4531249999999979
 40
0.4531249999999979
 10
178.0339295184336
 20
9.087681368407527
 30
0.0
 10
178.1277438092067
 20
9.1556488348307
 30
0.0
 10
178.2114630856166
 20
9.216982516629772
 30
0.0
 10
178.2845873384077
 20
9.270890401483731
 30
0.0
  0
SPLINE
  5
1F1
330
1F
100
AcDbEntity
  8
SK3
  6
SLD-Dashed
370
    18
100
AcDbSpline
210
0.0
220
0.0
230
1.0
 70
     8
 71
     3
 72
     8
 73
     4
 74
     0
 42
0.000000001
 43
0.00000001
 40
0.4531249999999979
 40
0.4531249999999979
 40
0.4531249999999979
 40
0.4531249999999979
 40
0.4687499999999978
 40
0.4687499999999978
 40
0.4687499999999978
 40
0.4687499999999978
 10
178.2845873384077
 20
9.270890401483731
 30
0.0
 10
178.3577115911988
 20
9.324798286337685
 30
0.0
 10
178.4205527875511
 20
9.371515294523139
 30
0.0
 10
178.4710915283099
 20
9.40922690761075
 30
0.0
  0
SPLINE
  5
1F2
330
1F
100
AcDbEntity
  8
SK3
  6
SLD-Dashed
370
    18
100
AcDbSpline
210
0.0
220
0.0
230
1.0
 70
     8
 71
     3
 72
     8
 73
     4
 74
     0
 42
0.000000001
 43
0.00000001
 40
0.4687499999999978
 40
0.4687499999999978
 40
0.4687499999999978
 40
0.4687499999999978
 40
0.4999999999999977
 40
0.4999999999999977
 40
0.4999999999999977
 40
0.4999999999999977
 10
178.4710915283099
 20
9.40922690761075
 30
0.0
 10
178.5721690098276
 20
9.484650133785959
 30
0.0
 10
178.6237763518068
 20
9.523701521609585
 30
0.0
 10
178.6254579820998
 20
9.52496834655532
 30
0.0
  0
SPLINE
  5
1F3
330
1F
100
AcDbEntity
  8
SK3
  6
SLD-Dashed
370
    18
100
AcDbSpline
210
0.0
220
0.0
230
1.0
 70
     8
 71
     3
 72
     8
 73
     4
 74
     0
 42
0.000000001
 43
0.00000001
 40
0.5156249999999976
 40
0.5156249999999976
 40
0.5156249999999976
 40
0.5156249999999976
 40
0.5312499999999974
 40
0.5312499999999974
 40
0.5312499999999974
 40
0.5312499999999974
 10
178.589675275028
 20
9.498041260325552
 30
0.0
 10
178.5650034389849
 20
9.479495447251317
 30
0.0
 10
178.5279418787317
 20
9.451668134706242
 30
0.0
 10
178.4791105485111
 20
9.415212151257583
 30
0.0
  0
SPLINE
  5
1F4
330
1F
100
AcDbEntity
  8
SK3
  6
SLD-Dashed
370
    18
100
AcDbSpline
210
0.0
220
0.0
230
1.0
 70
     8
 71
     3
 72
     8
 73
     4
 74
     0
 42
0.000000001
 43
0.00000001
 40
0.5312499999999974
 40
0.5312499999999974
 40
0.5312499999999974
 40
0.5312499999999974
 40
0.5468749999999972
 40
0.5468749999999972
 40
0.5468749999999972
 40
0.5468749999999972
 10
178.4791105485111
 20
9.415212151257583
 30
0.0
 10
178.4302792182904
 20
9.378756167808922
 30
0.0
 10
178.3696741984116
 20
9.333667164038593
 30
0.0
 10
178.297502509743
 20
9.280415689554886
 30
0.0
  0
SPLINE
  5
1F5
330
1F
100
AcDbEntity
  8
SK3
  6
SLD-Dashed
370
    18
100
AcDbSpline
210
0.0
220
0.0
230
1.0
 70
     8
 71
     3
 72
     8
 73
     4
 74
     0
 42
0.000000001
 43
0.00000001
 40
0.5468749999999972
 40
0.5468749999999972
 40
0.5468749999999972
 40
0.5468749999999972
 40
0.5624999999999971
 40
0.5624999999999971
 40
0.5624999999999971
 40
0.5624999999999971
 10
178.297502509743
 20
9.280415689554886
 30
0.0
 10
178.2253308210743
 20
9.227164215071165
 30
0.0
 10
178.141266903463
 20
9.165519475035424
 30
0.0
 10
178.0479254142081
 20
9.097826362458997
 30
0.0
  0
SPLINE
  5
1F6
330
1F
100
AcDbEntity
  8
SK3
  6
SLD-Dashed
370
    18
100
AcDbSpline
210
0.0
220
0.0
230
1.0
 70
     8
 71
     3
 72
     8
 73
     4
 74
     0
 42
0.000000001
 43
0.00000001
 40
0.5624999999999971
 40
0.5624999999999971
 40
0.5624999999999971
 40
0.5624999999999971
 40
0.5937499999999977
 40
0.5937499999999977
 40
0.5937499999999977
 40
0.5937499999999977
 10
178.0479254142081
 20
9.097826362458997
 30
0.0
 10
177.8612424356984
 20
8.962440137306148
 30
0.0
 10
177.636337790435
 20
8.801855417909545
 30
0.0
 10
177.375375217898
 20
8.622522613648487
 30
0.0
  0
SPLINE
  5
1F7
330
1F
100
AcDbEntity
  8
SK3
  6
SLD-Dashed
370
    18
100
AcDbSpline
210
0.0
220
0.0
230
1.0
 70
     8
 71
     3
 72
     8
 73
     4
 74
     0
 42
0.000000001
 43
0.00000001
 40
0.5937499999999977
 40
0.5937499999999977
 40
0.5937499999999977
 40
0.5937499999999977
 40
0.6249999999999981
 40
0.6249999999999981
 40
0.6249999999999981
 40
0.6249999999999981
 10
177.375375217898
 20
8.622522613648487
 30
0.0
 10
177.1144126453609
 20
8.443189809387428
 30
0.0
 10
176.8225986314421
 20
8.248695193715516
 30
0.0
 10
176.5035286954983
 20
8.048352441725298
 30
0.0
  0
SPLINE
  5
1F8
330
1F
100
AcDbEntity
  8
SK3
  6
SLD-Dashed
370
    18
100
AcDbSpline
210
0.0
220
0.0
230
1.0
 70
     8
 71
     3
 72
     8
 73
     4
 74
     0
 42
0.000000001
 43
0.00000001
 40
0.6249999999999981
 40
0.6249999999999981
 40
0.6249999999999981
 40
0.6249999999999981
 40
0.640624999999999
 40
0.640624999999999
 40
0.640624999999999
 40
0.640624999999999
 10
176.5035286954983
 20
8.048352441725298
 30
0.0
 10
176.3439937275264
 20
7.948181065730177
 30
0.0
 10
176.1773535493724
 20
7.846391246550747
 30
0.0
 10
176.0032161635367
 20
7.744004273106488
 30
0.0
  0
SPLINE
  5
1F9
330
1F
100
AcDbEntity
  8
SK3
  6
SLD-Dashed
370
    18
100
AcDbSpline
210
0.0
220
0.0
230
1.0
 70
     8
 71
     3
 72
     8
 73
     4
 74
     0
 42
0.000000001
 43
0.00000001
 40
0.640624999999999
 40
0.640624999999999
 40
0.640624999999999
 40
0.640624999999999
 40
0.6562499999999999
 40
0.6562499999999999
 40
0.6562499999999999
 40
0.6562499999999999
 10
176.0032161635367
 20
7.744004273106488
 30
0.0
 10
175.8290787777011
 20
7.641617299662229
 30
0.0
 10
175.6474144289075
 20
7.53866486275713
 30
0.0
 10
175.4610023608556
 20
7.43814255636379
 30
0.0
  0
SPLINE
  5
1FA
330
1F
100
AcDbEntity
  8
SK3
  6
SLD-Dashed
370
    18
100
AcDbSpline
210
0.0
220
0.0
230
1.0
 70
     8
 71
     3
 72
     8
 73
     4
 74
     0
 42
0.000000001
 43
0.00000001
 40
0.6562499999999999
 40
0.6562499999999999
 40
0.6562499999999999
 40
0.6562499999999999
 40
0.6875000000000002
 40
0.6875000000000002
 40
0.6875000000000002
 40
0.6875000000000002
 10
175.4610023608556
 20
7.43814255636379
 30
0.0
 10
175.088178224752
 20
7.237097943577124
 30
0.0
 10
174.6937016036132
 20
7.043542481500534
 30
0.0
 10
174.2718536886021
 20
6.870275321257335
 30
0.0
  0
SPLINE
  5
1FB
330
1F
100
AcDbEntity
  8
SK3
  6
SLD-Dashed
370
    18
100
AcDbSpline
210
0.0
220
0.0
230
1.0
 70
     8
 71
     3
 72
     8
 73
     4
 74
     0
 42
0.000000001
 43
0.00000001
 40
0.6875000000000002
 40
0.6875000000000002
 40
0.6875000000000002
 40
0.6875000000000002
 40
0.7031250000000004
 40
0.7031250000000004
 40
0.7031250000000004
 40
0.7031250000000004
 10
174.2718536886021
 20
6.870275321257335
 30
0.0
 10
174.0609297310966
 20
6.783641741135736
 30
0.0
 10
173.8430804747653
 20
6.70216064926684
 30
0.0
 10
173.6168718449256
 20
6.628209286250033
 30
0.0
  0
SPLINE
  5
1FC
330
1F
100
AcDbEntity
  8
SK3
  6
SLD-Dashed
370
    18
100
AcDbSpline
210
0.0
220
0.0
230
1.0
 70
     8
 71
     3
 72
     8
 73
     4
 74
     0
 42
0.000000001
 43
0.00000001
 40
0.7031250000000004
 40
0.7031250000000004
 40
0.7031250000000004
 40
0.7031250000000004
 40
0.7187500000000007
 40
0.7187500000000007
 40
0.7187500000000007
 40
0.7187500000000007
 10
173.6168718449256
 20
6.628209286250033
 30
0.0
 10
173.3906632150859
 20
6.554257923233219
 30
0.0
 10
173.1582592424496
 20
6.488713741290002
 30
0.0
 10
172.9227296841422
 20
6.434808270069419
 30
0.0
  0
SPLINE
  5
1FD
330
1F
100
AcDbEntity
  8
SK3
  6
SLD-Dashed
370
    18
100
AcDbSpline
210
0.0
220
0.0
230
1.0
 70
     8
 71
     3
 72
     8
 73
     4
 74
     0
 42
0.000000001
 43
0.00000001
 40
0.7187500000000007
 40
0.7187500000000007
 40
0.7187500000000007
 40
0.7187500000000007
 40
0.7343750000000009
 40
0.7343750000000009
 40
0.7343750000000009
 40
0.7343750000000009
 10
172.9227296841422
 20
6.434808270069419
 30
0.0
 10
172.6872001258347
 20
6.380902798848828
 30
0.0
 10
172.4474763518113
 20
6.338286491806337
 30
0.0
 10
172.2030188512753
 20
6.309109456997558
 30
0.0
  0
SPLINE
  5
1FE
330
1F
100
AcDbEntity
  8
SK3
  6
SLD-Dashed
370
    18
100
AcDbSpline
210
0.0
220
0.0
230
1.0
 70
     8
 71
     3
 72
     8
 73
     4
 74
     0
 42
0.000000001
 43
0.00000001
 40
0.7343750000000009
 40
0.7343750000000009
 40
0.7343750000000009
 40
0.7343750000000009
 40
0.750000000000001
 40
0.750000000000001
 40
0.750000000000001
 40
0.750000000000001
 10
172.2030188512753
 20
6.309109456997558
 30
0.0
 10
171.9585613507393
 20
6.279932422188786
 30
0.0
 10
171.7078438978669
 20
6.264447424377622
 30
0.0
 10
171.4608481978048
 20
6.264019670578609
 30
0.0
  0
SPLINE
  5
1FF
330
1F
100
AcDbEntity
  8
SK3
  6
SLD-Dashed
370
    18
100
AcDbSpline
210
0.0
220
0.0
230
1.0
 70
     8
 71
     3
 72
     8
 73
     4
 74
     0
 42
0.000000001
 43
0.00000001
 40
0.750000000000001
 40
0.750000000000001
 40
0.750000000000001
 40
0.750000000000001
 40
0.7656250000000012
 40
0.7656250000000012
 40
0.7656250000000012
 40
0.7656250000000012
 10
171.4608481978048
 20
6.264019670578609
 30
0.0
 10
171.2138524977427
 20
6.263591916779595
 30
0.0
 10
170.9686924706942
 20
6.277819323205057
 30
0.0
 10
170.725281643237
 20
6.305794275634866
 30
0.0
  0
SPLINE
  5
200
330
1F
100
AcDbEntity
  8
SK3
  6
SLD-Dashed
370
    18
100
AcDbSpline
210
0.0
220
0.0
230
1.0
 70
     8
 71
     3
 72
     8
 73
     4
 74
     0
 42
0.000000001
 43
0.00000001
 40
0.7656250000000012
 40
0.7656250000000012
 40
0.7656250000000012
 40
0.7656250000000012
 40
0.7812500000000014
 40
0.7812500000000014
 40
0.7812500000000014
 40
0.7812500000000014
 10
170.725281643237
 20
6.305794275634866
 30
0.0
 10
170.4818708157799
 20
6.333769228064674
 30
0.0
 10
170.2385905433127
 20
6.375869795885815
 30
0.0
 10
170.0009109027891
 20
6.429438852781446
 30
0.0
  0
SPLINE
  5
201
330
1F
100
AcDbEntity
  8
SK3
  6
SLD-Dashed
370
    18
100
AcDbSpline
210
0.0
220
0.0
230
1.0
 70
     8
 71
     3
 72
     8
 73
     4
 74
     0
 42
0.000000001
 43
0.00000001
 40
0.7812500000000014
 40
0.7812500000000014
 40
0.7812500000000014
 40
0.7812500000000014
 40
0.8125000000000019
 40
0.8125000000000019
 40
0.8125000000000019
 40
0.8125000000000019
 10
170.0009109027891
 20
6.429438852781446
 30
0.0
 10
169.5255516217422
 20
6.536576966572685
 30
0.0
 10
169.0789099743267
 20
6.686457325455461
 30
0.0
 10
168.6530913477354
 20
6.860067256165406
 30
0.0
  0
SPLINE
  5
202
330
1F
100
AcDbEntity
  8
SK3
  6
SLD-Dashed
370
    18
100
AcDbSpline
210
0.0
220
0.0
230
1.0
 70
     8
 71
     3
 72
     8
 73
     4
 74
     0
 42
0.000000001
 43
0.00000001
 40
0.8125000000000019
 40
0.8125000000000019
 40
0.8125000000000019
 40
0.8125000000000019
 40
0.8281250000000012
 40
0.8281250000000012
 40
0.8281250000000012
 40
0.8281250000000012
 10
168.6530913477354
 20
6.860067256165406
 30
0.0
 10
168.4401820344397
 20
6.946872221520378
 30
0.0
 10
168.2316161848337
 20
7.040231584780586
 30
0.0
 10
168.0311655635462
 20
7.136263283671833
 30
0.0
  0
SPLINE
  5
203
330
1F
100
AcDbEntity
  8
SK3
  6
SLD-Dashed
370
    18
100
AcDbSpline
210
0.0
220
0.0
230
1.0
 70
     8
 71
     3
 72
     8
 73
     4
 74
     0
 42
0.000000001
 43
0.00000001
 40
0.8281250000000012
 40
0.8281250000000012
 40
0.8281250000000012
 40
0.8281250000000012
 40
0.8437500000000007
 40
0.8437500000000007
 40
0.8437500000000007
 40
0.8437500000000007
 10
168.0311655635462
 20
7.136263283671833
 30
0.0
 10
167.8307149422587
 20
7.232294982563073
 30
0.0
 10
167.6378971152585
 20
7.331121877290396
 30
0.0
 10
167.4518074707359
 20
7.431242712431341
 30
0.0
  0
SPLINE
  5
204
330
1F
100
AcDbEntity
  8
SK3
  6
SLD-Dashed
370
    18
100
AcDbSpline
210
0.0
220
0.0
230
1.0
 70
     8
 71
     3
 72
     8
 73
     4
 74
     0
 42
0.000000001
 43
0.00000001
 40
0.8437500000000007
 40
0.8437500000000007
 40
0.8437500000000007
 40
0.8437500000000007
 40
0.8749999999999997
 40
0.8749999999999997
 40
0.8749999999999997
 40
0.8749999999999997
 10
167.4518074707359
 20
7.431242712431341
 30
0.0
 10
167.0796281816907
 20
7.631484382713223
 30
0.0
 10
166.7340606823823
 20
7.836781660934114
 30
0.0
 10
166.4125792189078
 20
8.038248122307397
 30
0.0
  0
SPLINE
  5
205
330
1F
100
AcDbEntity
  8
SK3
  6
SLD-Dashed
370
    18
100
AcDbSpline
210
0.0
220
0.0
230
1.0
 70
     8
 71
     3
 72
     8
 73
     4
 74
     0
 42
0.000000001
 43
0.00000001
 40
0.8749999999999997
 40
0.8749999999999997
 40
0.8749999999999997
 40
0.8749999999999997
 40
0.8906249999999992
 40
0.8906249999999992
 40
0.8906249999999992
 40
0.8906249999999992
 10
166.4125792189078
 20
8.038248122307397
 30
0.0
 10
166.2518384871707
 20
8.138981352994048
 30
0.0
 10
166.0968082148563
 20
8.239081736399214
 30
0.0
 10
165.9509242574168
 20
8.33532595479431
 30
0.0
  0
SPLINE
  5
206
330
1F
100
AcDbEntity
  8
SK3
  6
SLD-Dashed
370
    18
100
AcDbSpline
210
0.0
220
0.0
230
1.0
 70
     8
 71
     3
 72
     8
 73
     4
 74
     0
 42
0.000000001
 43
0.00000001
 40
0.8906249999999992
 40
0.8906249999999992
 40
0.8906249999999992
 40
0.8906249999999992
 40
0.9062499999999987
 40
0.9062499999999987
 40
0.9062499999999987
 40
0.9062499999999987
 10
165.9509242574168
 20
8.33532595479431
 30
0.0
 10
165.8050402999773
 20
8.43157017318942
 30
0.0
 10
165.6675289956315
 20
8.524433433031053
 30
0.0
 10
165.5383190484127
 20
8.613117694735218
 30
0.0
  0
SPLINE
  5
207
330
1F
100
AcDbEntity
  8
SK3
  6
SLD-Dashed
370
    18
100
AcDbSpline
210
0.0
220
0.0
230
1.0
 70
     8
 71
     3
 72
     8
 73
     4
 74
     0
 42
0.000000001
 43
0.00000001
 40
0.9062499999999987
 40
0.9062499999999987
 40
0.9062499999999987
 40
0.9062499999999987
 40
0.9374999999999987
 40
0.9374999999999987
 40
0.9374999999999987
 40
0.9374999999999987
 10
165.5383190484127
 20
8.613117694735218
 30
0.0
 10
165.2798991539752
 20
8.790486218143565
 30
0.0
 10
165.0543068929788
 20
8.951297372629078
 30
0.0
 10
164.8651887637621
 20
9.088320183999098
 30
0.0
  0
SPLINE
  5
208
330
1F
100
AcDbEntity
  8
SK3
  6
SLD-Dashed
370
    18
100
AcDbSpline
210
0.0
220
0.0
230
1.0
 70
     8
 71
     3
 72
     8
 73
     4
 74
     0
 42
0.000000001
 43
0.00000001
 40
0.9374999999999987
 40
0.9374999999999987
 40
0.9374999999999987
 40
0.9374999999999987
 40
0.953124999999999
 40
0.953124999999999
 40
0.953124999999999
 40
0.953124999999999
 10
164.8651887637621
 20
9.088320183999098
 30
0.0
 10
164.7706296991537
 20
9.156831589684105
 30
0.0
 10
164.6854393972804
 20
9.21925521515999
 30
0.0
 10
164.6123410510984
 20
9.273155053782553
 30
0.0
  0
SPLINE
  5
209
330
1F
100
AcDbEntity
  8
SK3
  6
SLD-Dashed
370
    18
100
AcDbSpline
210
0.0
220
0.0
230
1.0
 70
     8
 71
     3
 72
     8
 73
     4
 74
     0
 42
0.000000001
 43
0.00000001
 40
0.953124999999999
 40
0.953124999999999
 40
0.953124999999999
 40
0.953124999999999
 40
0.9687499999999992
 40
0.9687499999999992
 40
0.9687499999999992
 40
0.9687499999999992
 10
164.6123410510984
 20
9.273155053782553
 30
0.0
 10
164.5392427049166
 20
9.32705489240511
 30
0.0
 10
164.4775327877935
 20
9.372940625911577
 30
0.0
 10
164.4275317210522
 20
9.410254272804105
 30
0.0
  0
SPLINE
  5
20A
330
1F
100
AcDbEntity
  8
SK3
  6
SLD-Dashed
370
    18
100
AcDbSpline
210
0.0
220
0.0
230
1.0
 70
     8
 71
     3
 72
     8
 73
     4
 74
     0
 42
0.000000001
 43
0.00000001
 40
0.9687499999999992
 40
0.9687499999999992
 40
0.9687499999999992
 40
0.9687499999999992
 40
0.9843749999999996
 40
0.9843749999999996
 40
0.9843749999999996
 40
0.9843749999999996
 10
164.4275317210522
 20
9.410254272804105
 30
0.0
 10
164.377530654311
 20
9.447567919696642
 30
0.0
 10
164.3392330651321
 20
9.476314713373089
 30
0.0
 10
164.313390963637
 20
9.495736584799436
 30
0.0
  0
SPLINE
  5
20B
330
1F
100
AcDbEntity
  8
SK3
  6
SLD-Dashed
370
    18
100
AcDbSpline
210
0.0
220
0.0
230
1.0
 70
     8
 71
     2
 72
     6
 73
     3
 74
     0
 42
0.000000001
 43
0.00000001
 40
0.9843749999999996
 40
0.9843749999999996
 40
0.9843749999999996
 40
1.0
 40
1.0
 40
1.0
 10
164.3133909636369
 20
9.495736584799499
 30
0.0
 10
164.2875488621418
 20
9.515158456225807
 30
0.0
 10
164.2744999999999
 20
9.525000000000006
 30
0.0
  0
SPLINE
  5
20C
330
1F
100
AcDbEntity
  8
SK3
  6
SLD-Dashed
370
    18
100
AcDbSpline
210
0.0
220
0.0
230
1.0
 70
     8
 71
     2
 72
     6
 73
     3
 74
     0
 42
0.000000001
 43
0.00000001
 40
0.0
 40
0.0
 40
0.0
 40
0.0312499999999995
 40
0.0312499999999995
 40
0.0312499999999995
 10
164.2744999999999
 20
9.525000000000006
 30
0.0
 10
164.3256568278142
 20
9.486294570018323
 30
0.0
 10
164.4242585071362
 20
9.412697183833536
 30
0.0
  0
SPLINE
  5
20D
330
1F
100
AcDbEntity
  8
SK3
  6
SLD-Dashed
370
    18
100
AcDbSpline
210
0.0
220
0.0
230
1.0
 70
     8
 71
     3
 72
     8
 73
     4
 74
     0
 42
0.000000001
 43
0.00000001
 40
0.0312499999999995
 40
0.0312499999999995
 40
0.0312499999999995
 40
0.0312499999999995
 40
0.0468749999999994
 40
0.0468749999999994
 40
0.0468749999999994
 40
0.0468749999999994
 10
164.4242585071362
 20
9.412697183833536
 30
0.0
 10
164.4735593467972
 20
9.375898490741157
 30
0.0
 10
164.5351762607357
 20
9.330068999886906
 30
0.0
 10
164.6080947204796
 20
9.276286574051557
 30
0.0
  0
SPLINE
  5
20E
330
1F
100
AcDbEntity
  8
SK3
  6
SLD-Dashed
370
    18
100
AcDbSpline
210
0.0
220
0.0
230
1.0
 70
     8
 71
     3
 72
     8
 73
     4
 74
     0
 42
0.000000001
 43
0.00000001
 40
0.0468749999999994
 40
0.0468749999999994
 40
0.0468749999999994
 40
0.0468749999999994
 40
0.0624999999999994
 40
0.0624999999999994
 40
0.0624999999999994
 40
0.0624999999999994
 10
164.6080947204796
 20
9.276286574051557
 30
0.0
 10
164.6810131802235
 20
9.22250414821621
 30
0.0
 10
164.7644303385696
 20
9.161361501007152
 30
0.0
 10
164.8576357556742
 20
9.0937940970678
 30
0.0
  0
SPLINE
  5
20F
330
1F
100
AcDbEntity
  8
SK3
  6
SLD-Dashed
370
    18
100
AcDbSpline
210
0.0
220
0.0
230
1.0
 70
     8
 71
     3
 72
     8
 73
     4
 74
     0
 42
0.000000001
 43
0.00000001
 40
0.0624999999999994
 40
0.0624999999999994
 40
0.0624999999999994
 40
0.0624999999999994
 40
0.0781249999999993
 40
0.0781249999999993
 40
0.0781249999999993
 40
0.0781249999999993
 10
164.8576357556742
 20
9.0937940970678
 30
0.0
 10
164.9508411727789
 20
9.026226693128434
 30
0.0
 10
165.0538401348114
 20
8.952227614798476
 30
0.0
 10
165.1663242126615
 20
8.87256480113751
 30
0.0
  0
SPLINE
  5
210
330
1F
100
AcDbEntity
  8
SK3
  6
SLD-Dashed
370
    18
100
AcDbSpline
210
0.0
220
0.0
230
1.0
 70
     8
 71
     3
 72
     8
 73
     4
 74
     0
 42
0.000000001
 43
0.00000001
 40
0.0781249999999993
 40
0.0781249999999993
 40
0.0781249999999993
 40
0.0781249999999993
 40
0.0937499999999993
 40
0.0937499999999993
 40
0.0937499999999993
 40
0.0937499999999993
 10
165.1663242126615
 20
8.87256480113751
 30
0.0
 10
165.2788082905117
 20
8.79290198747655
 30
0.0
 10
165.4014275967686
 20
8.707128391408636
 30
0.0
 10
165.5317099180614
 20
8.617655263699842
 30
0.0
  0
SPLINE
  5
211
330
1F
100
AcDbEntity
  8
SK3
  6
SLD-Dashed
370
    18
100
AcDbSpline
210
0.0
220
0.0
230
1.0
 70
     8
 71
     3
 72
     8
 73
     4
 74
     0
 42
0.000000001
 43
0.00000001
 40
0.0937499999999993
 40
0.0937499999999993
 40
0.0937499999999993
 40
0.0937499999999993
 40
0.1249999999999991
 40
0.1249999999999991
 40
0.1249999999999991
 40
0.1249999999999991
 10
165.5317099180614
 20
8.617655263699842
 30
0.0
 10
165.7922745606471
 20
8.43870900828228
 30
0.0
 10
166.082567573992
 20
8.245314563493846
 30
0.0
 10
166.4022049922437
 20
8.044753519551161
 30
0.0
  0
SPLINE
  5
212
330
1F
100
AcDbEntity
  8
SK3
  6
SLD-Dashed
370
    18
100
AcDbSpline
210
0.0
220
0.0
230
1.0
 70
     8
 71
     3
 72
     8
 73
     4
 74
     0
 42
0.000000001
 43
0.00000001
 40
0.1249999999999991
 40
0.1249999999999991
 40
0.1249999999999991
 40
0.1249999999999991
 40
0.156249999999999
 40
0.156249999999999
 40
0.156249999999999
 40
0.156249999999999
 10
166.4022049922437
 20
8.044753519551161
 30
0.0
 10
166.7218424104953
 20
7.84419247560847
 30
0.0
 10
167.0722834045892
 20
7.635735580724841
 30
0.0
 10
167.4434538751556
 20
7.435740487705726
 30
0.0
  0
SPLINE
  5
213
330
1F
100
AcDbEntity
  8
SK3
  6
SLD-Dashed
370
    18
100
AcDbSpline
210
0.0
220
0.0
230
1.0
 70
     8
 71
     3
 72
     8
 73
     4
 74
     0
 42
0.000000001
 43
0.00000001
 40
0.156249999999999
 40
0.156249999999999
 40
0.156249999999999
 40
0.156249999999999
 40
0.1874999999999989
 40
0.1874999999999989
 40
0.1874999999999989
 40
0.1874999999999989
 10
167.4434538751556
 20
7.435740487705726
 30
0.0
 10
167.814624345722
 20
7.235745394686618
 30
0.0
 10
168.2088993415343
 20
7.042219871342112
 30
0.0
 10
168.6331277131031
 20
6.868230793347606
 30
0.0
  0
SPLINE
  5
214
330
1F
100
AcDbEntity
  8
SK3
  6
SLD-Dashed
370
    18
100
AcDbSpline
210
0.0
220
0.0
230
1.0
 70
     8
 71
     3
 72
     8
 73
     4
 74
     0
 42
0.000000001
 43
0.00000001
 40
0.1874999999999989
 40
0.1874999999999989
 40
0.1874999999999989
 40
0.1874999999999989
 40
0.2031249999999989
 40
0.2031249999999989
 40
0.2031249999999989
 40
0.2031249999999989
 10
168.6331277131031
 20
6.868230793347606
 30
0.0
 10
168.8452418988875
 20
6.781236254350357
 30
0.0
 10
169.0661742630327
 20
6.698900448788008
 30
0.0
 10
169.291007835125
 20
6.625637472575191
 30
0.0
  0
SPLINE
  5
215
330
1F
100
AcDbEntity
  8
SK3
  6
SLD-Dashed
370
    18
100
AcDbSpline
210
0.0
220
0.0
230
1.0
 70
     8
 71
     3
 72
     8
 73
     4
 74
     0
 42
0.000000001
 43
0.00000001
 40
0.2031249999999989
 40
0.2031249999999989
 40
0.2031249999999989
 40
0.2031249999999989
 40
0.2187499999999988
 40
0.2187499999999988
 40
0.2187499999999988
 40
0.2187499999999988
 10
169.291007835125
 20
6.625637472575191
 30
0.0
 10
169.5158414072171
 20
6.552374496362375
 30
0.0
 10
169.7453550557891
 20
6.487784944443006
 30
0.0
 10
169.980225731375
 20
6.434132509570527
 30
0.0
  0
SPLINE
  5
216
330
1F
100
AcDbEntity
  8
SK3
  6
SLD-Dashed
370
    18
100
AcDbSpline
210
0.0
220
0.0
230
1.0
 70
     8
 71
     3
 72
     8
 73
     4
 74
     0
 42
0.000000001
 43
0.00000001
 40
0.2187499999999988
 40
0.2187499999999988
 40
0.2187499999999988
 40
0.2187499999999988
 40
0.2343749999999988
 40
0.2343749999999988
 40
0.2343749999999988
 40
0.2343749999999988
 10
169.980225731375
 20
6.434132509570527
 30
0.0
 10
170.2150964069609
 20
6.380480074698047
 30
0.0
 10
170.4559330639568
 20
6.337698348757407
 30
0.0
 10
170.7017450220753
 20
6.308542641688057
 30
0.0
  0
SPLINE
  5
217
330
1F
100
AcDbEntity
  8
SK3
  6
SLD-Dashed
370
    18
100
AcDbSpline
210
0.0
220
0.0
230
1.0
 70
     8
 71
     3
 72
     8
 73
     4
 74
     0
 42
0.000000001
 43
0.00000001
 40
0.2343749999999988
 40
0.2343749999999988
 40
0.2343749999999988
 40
0.2343749999999988
 40
0.2499999999999987
 40
0.2499999999999987
 40
0.2499999999999987
 40
0.2499999999999987
 10
170.7017450220753
 20
6.308542641688057
 30
0.0
 10
170.9475569801938
 20
6.279386934618699
 30
0.0
 10
171.192888224114
 20
6.264501417651211
 30
0.0
 10
171.4377421257113
 20
6.264022270512953
 30
0.0
  0
SPLINE
  5
218
330
1F
100
AcDbEntity
  8
SK3
  6
SLD-Dashed
370
    18
100
AcDbSpline
210
0.0
220
0.0
230
1.0
 70
     8
 71
     3
 72
     8
 73
     4
 74
     0
 42
0.000000001
 43
0.00000001
 40
0.2499999999999987
 40
0.2499999999999987
 40
0.2499999999999987
 40
0.2499999999999987
 40
0.2656249999999987
 40
0.2656249999999987
 40
0.2656249999999987
 40
0.2656249999999987
 10
171.4377421257113
 20
6.264022270512953
 30
0.0
 10
171.6825960273084
 20
6.263543123374696
 30
0.0
 10
171.9269725992093
 20
6.277468811029793
 30
0.0
 10
172.1708794116178
 20
6.305354222888242
 30
0.0
  0
SPLINE
  5
219
330
1F
100
AcDbEntity
  8
SK3
  6
SLD-Dashed
370
    18
100
AcDbSpline
210
0.0
220
0.0
230
1.0
 70
     8
 71
     3
 72
     8
 73
     4
 74
     0
 42
0.000000001
 43
0.00000001
 40
0.2656249999999987
 40
0.2656249999999987
 40
0.2656249999999987
 40
0.2656249999999987
 40
0.2812499999999986
 40
0.2812499999999986
 40
0.2812499999999986
 40
0.2812499999999986
 10
172.1708794116178
 20
6.305354222888242
 30
0.0
 10
172.4147862240264
 20
6.333239634746697
 30
0.0
 10
172.6589018627027
 20
6.375442830892843
 30
0.0
 10
172.8951602432774
 20
6.42855449372172
 30
0.0
  0
SPLINE
  5
21A
330
1F
100
AcDbEntity
  8
SK3
  6
SLD-Dashed
370
    18
100
AcDbSpline
210
0.0
220
0.0
230
1.0
 70
     8
 71
     3
 72
     8
 73
     4
 74
     0
 42
0.000000001
 43
0.00000001
 40
0.2812499999999986
 40
0.2812499999999986
 40
0.2812499999999986
 40
0.2812499999999986
 40
0.2968749999999985
 40
0.2968749999999985
 40
0.2968749999999985
 40
0.2968749999999985
 10
172.8951602432774
 20
6.42855449372172
 30
0.0
 10
173.1314186238521
 20
6.481666156550602
 30
0.0
 10
173.3618215546196
 20
6.545792657473439
 30
0.0
 10
173.5871647465999
 20
6.61855708626203
 30
0.0
  0
SPLINE
  5
21B
330
1F
100
AcDbEntity
  8
SK3
  6
SLD-Dashed
370
    18
100
AcDbSpline
210
0.0
220
0.0
230
1.0
 70
     8
 71
     3
 72
     8
 73
     4
 74
     0
 42
0.000000001
 43
0.00000001
 40
0.2968749999999985
 40
0.2968749999999985
 40
0.2968749999999985
 40
0.2968749999999985
 40
0.3124999999999984
 40
0.3124999999999984
 40
0.3124999999999984
 40
0.3124999999999984
 10
173.5871647465999
 20
6.61855708626203
 30
0.0
 10
173.8125079385801
 20
6.69132151505062
 30
0.0
 10
174.0338319835279
 20
6.773196264177966
 30
0.0
 10
174.2468234679426
 20
6.860032526222783
 30
0.0
  0
SPLINE
  5
21C
330
1F
100
AcDbEntity
  8
SK3
  6
SLD-Dashed
370
    18
100
AcDbSpline
210
0.0
220
0.0
230
1.0
 70
     8
 71
     3
 72
     8
 73
     4
 74
     0
 42
0.000000001
 43
0.00000001
 40
0.3124999999999984
 40
0.3124999999999984
 40
0.3124999999999984
 40
0.3124999999999984
 40
0.3437499999999983
 40
0.3437499999999983
 40
0.3437499999999983
 40
0.3437499999999983
 10
174.2468234679426
 20
6.860032526222783
 30
0.0
 10
174.6728064367721
 20
7.033705050312408
 30
0.0
 10
175.0685474209805
 20
7.227241255365002
 30
0.0
 10
175.4410505568366
 20
7.427402594260349
 30
0.0
  0
SPLINE
  5
21D
330
1F
100
AcDbEntity
  8
SK3
  6
SLD-Dashed
370
    18
100
AcDbSpline
210
0.0
220
0.0
230
1.0
 70
     8
 71
     3
 72
     8
 73
     4
 74
     0
 42
0.000000001
 43
0.00000001
 40
0.3437499999999983
 40
0.3437499999999983
 40
0.3437499999999983
 40
0.3437499999999983
 40
0.3749999999999982
 40
0.3749999999999982
 40
0.3749999999999982
 40
0.3749999999999982
 10
175.4410505568366
 20
7.427402594260349
 30
0.0
 10
175.8135536926926
 20
7.627563933155688
 30
0.0
 10
176.1652295348782
 20
7.836392403580465
 30
0.0
 10
176.4851310641241
 20
8.036813397292917
 30
0.0
  0
SPLINE
  5
21E
330
1F
100
AcDbEntity
  8
SK3
  6
SLD-Dashed
370
    18
100
AcDbSpline
210
0.0
220
0.0
230
1.0
 70
     8
 71
     3
 72
     8
 73
     4
 74
     0
 42
0.000000001
 43
0.00000001
 40
0.3749999999999982
 40
0.3749999999999982
 40
0.3749999999999982
 40
0.3749999999999982
 40
0.4062499999999981
 40
0.4062499999999981
 40
0.4062499999999981
 40
0.4062499999999981
 10
176.4851310641241
 20
8.036813397292917
 30
0.0
 10
176.8050325933699
 20
8.237234391005362
 30
0.0
 10
177.0951078833902
 20
8.430256234874033
 30
0.0
 10
177.3553139984926
 20
8.608748931801454
 30
0.0
  0
SPLINE
  5
21F
330
1F
100
AcDbEntity
  8
SK3
  6
SLD-Dashed
370
    18
100
AcDbSpline
210
0.0
220
0.0
230
1.0
 70
     8
 71
     3
 72
     8
 73
     4
 74
     0
 42
0.000000001
 43
0.00000001
 40
0.4062499999999981
 40
0.4062499999999981
 40
0.4062499999999981
 40
0.4062499999999981
 40
0.437499999999998
 40
0.437499999999998
 40
0.437499999999998
 40
0.437499999999998
 10
177.3553139984926
 20
8.608748931801454
 30
0.0
 10
177.6155201135951
 20
8.787241628728882
 30
0.0
 10
177.8463009368875
 20
8.951746435561187
 30
0.0
 10
178.0339295184336
 20
9.087681368407527
 30
0.0
  0
SPLINE
  5
220
330
1F
100
AcDbEntity
  8
SK3
  6
SLD-Dashed
370
    18
100
AcDbSpline
210
0.0
220
0.0
230
1.0
 70
     8
 71
     3
 72
     8
 73
     4
 74
     0
 42
0.000000001
 43
0.00000001
 40
0.437499999999998
 40
0.437499999999998
 40
0.437499999999998
 40
0.437499999999998
 40
0.4531249999999979
 40
0.4531249999999979
 40
0.4531249999999979
 40
0.4531249999999979
 10
178.0339295184336
 20
9.087681368407527
 30
0.0
 10
178.1277438092067
 20
9.1556488348307
 30
0.0
 10
178.2114630856166
 20
9.216982516629772
 30
0.0
 10
178.2845873384077
 20
9.270890401483731
 30
0.0
  0
SPLINE
  5
221
330
1F
100
AcDbEntity
  8
SK3
  6
SLD-Dashed
370
    18
100
AcDbSpline
210
0.0
220
0.0
230
1.0
 70
     8
 71
     3
 72
     8
 73
     4
 74
     0
 42
0.000000001
 43
0.00000001
 40
0.4531249999999979
 40
0.4531249999999979
 40
0.4531249999999979
 40
0.4531249999999979
 40
0.4687499999999978
 40
0.4687499999999978
 40
0.4687499999999978
 40
0.4687499999999978
 10
178.2845873384077
 20
9.270890401483731
 30
0.0
 10
178.3577115911988
 20
9.324798286337685
 30
0.0
 10
178.4205527875511
 20
9.371515294523139
 30
0.0
 10
178.4710915283099
 20
9.40922690761075
 30
0.0
  0
SPLINE
  5
222
330
1F
100
AcDbEntity
  8
SK3
  6
SLD-Dashed
370
    18
100
AcDbSpline
210
0.0
220
0.0
230
1.0
 70
     8
 71
     3
 72
     8
 73
     4
 74
     0
 42
0.000000001
 43
0.00000001
 40
0.4687499999999978
 40
0.4687499999999978
 40
0.4687499999999978
 40
0.4687499999999978
 40
0.4999999999999977
 40
0.4999999999999977
 40
0.4999999999999977
 40
0.4999999999999977
 10
178.4710915283099
 20
9.40922690761075
 30
0.0
 10
178.5721690098276
 20
9.484650133785959
 30
0.0
 10
178.6237763518068
 20
9.523701521609585
 30
0.0
 10
178.6254579820998
 20
9.52496834655532
 30
0.0
  0
SPLINE
  5
223
330
1F
100
AcDbEntity
  8
SK3
  6
SLD-Dashed
370
    18
100
AcDbSpline
210
0.0
220
0.0
230
1.0
 70
     8
 71
     3
 72
     8
 73
     4
 74
     0
 42
0.000000001
 43
0.00000001
 40
0.5156249999999976
 40
0.5156249999999976
 40
0.5156249999999976
 40
0.5156249999999976
 40
0.5312499999999974
 40
0.5312499999999974
 40
0.5312499999999974
 40
0.5312499999999974
 10
178.589675275028
 20
9.498041260325552
 30
0.0
 10
178.5650034389849
 20
9.479495447251317
 30
0.0
 10
178.5279418787317
 20
9.451668134706242
 30
0.0
 10
178.4791105485111
 20
9.415212151257583
 30
0.0
  0
SPLINE
  5
224
330
1F
100
AcDbEntity
  8
SK3
  6
SLD-Dashed
370
    18
100
AcDbSpline
210
0.0
220
0.0
230
1.0
 70
     8
 71
     3
 72
     8
 73
     4
 74
     0
 42
0.000000001
 43
0.00000001
 40
0.5312499999999974
 40
0.5312499999999974
 40
0.5312499999999974
 40
0.5312499999999974
 40
0.5468749999999972
 40
0.5468749999999972
 40
0.5468749999999972
 40
0.5468749999999972
 10
178.4791105485111
 20
9.415212151257583
 30
0.0
 10
178.4302792182904
 20
9.378756167808922
 30
0.0
 10
178.3696741984116
 20
9.333667164038593
 30
0.0
 10
178.297502509743
 20
9.280415689554886
 30
0.0
  0
SPLINE
  5
225
330
1F
100
AcDbEntity
  8
SK3
  6
SLD-Dashed
370
    18
100
AcDbSpline
210
0.0
220
0.0
230
1.0
 70
     8
 71
     3
 72
     8
 73
     4
 74
     0
 42
0.000000001
 43
0.00000001
 40
0.5468749999999972
 40
0.5468749999999972
 40
0.5468749999999972
 40
0.5468749999999972
 40
0.5624999999999971
 40
0.5624999999999971
 40
0.5624999999999971
 40
0.5624999999999971
 10
178.297502509743
 20
9.280415689554886
 30
0.0
 10
178.2253308210743
 20
9.227164215071165
 30
0.0
 10
178.141266903463
 20
9.165519475035424
 30
0.0
 10
178.0479254142081
 20
9.097826362458997
 30
0.0
  0
SPLINE
  5
226
330
1F
100
AcDbEntity
  8
SK3
  6
SLD-Dashed
370
    18
100
AcDbSpline
210
0.0
220
0.0
230
1.0
 70
     8
 71
     3
 72
     8
 73
     4
 74
     0
 42
0.000000001
 43
0.00000001
 40
0.5624999999999971
 40
0.5624999999999971
 40
0.5624999999999971
 40
0.5624999999999971
 40
0.5937499999999977
 40
0.5937499999999977
 40
0.5937499999999977
 40
0.5937499999999977
 10
178.0479254142081
 20
9.097826362458997
 30
0.0
 10
177.8612424356984
 20
8.962440137306148
 30
0.0
 10
177.636337790435
 20
8.801855417909545
 30
0.0
 10
177.375375217898
 20
8.622522613648487
 30
0.0
  0
SPLINE
  5
227
330
1F
100
AcDbEntity
  8
SK3
  6
SLD-Dashed
370
    18
100
AcDbSpline
210
0.0
220
0.0
230
1.0
 70
     8
 71
     3
 72
     8
 73
     4
 74
     0
 42
0.000000001
 43
0.00000001
 40
0.5937499999999977
 40
0.5937499999999977
 40
0.5937499999999977
 40
0.5937499999999977
 40
0.6249999999999981
 40
0.6249999999999981
 40
0.6249999999999981
 40
0.6249999999999981
 10
177.375375217898
 20
8.622522613648487
 30
0.0
 10
177.1144126453609
 20
8.443189809387428
 30
0.0
 10
176.8225986314421
 20
8.248695193715516
 30
0.0
 10
176.5035286954983
 20
8.048352441725298
 30
0.0
  0
SPLINE
  5
228
330
1F
100
AcDbEntity
  8
SK3
  6
SLD-Dashed
370
    18
100
AcDbSpline
210
0.0
220
0.0
230
1.0
 70
     8
 71
     3
 72
     8
 73
     4
 74
     0
 42
0.000000001
 43
0.00000001
 40
0.6249999999999981
 40
0.6249999999999981
 40
0.6249999999999981
 40
0.6249999999999981
 40
0.640624999999999
 40
0.640624999999999
 40
0.640624999999999
 40
0.640624999999999
 10
176.5035286954983
 20
8.048352441725298
 30
0.0
 10
176.3439937275264
 20
7.948181065730177
 30
0.0
 10
176.1773535493724
 20
7.846391246550747
 30
0.0
 10
176.0032161635367
 20
7.744004273106488
 30
0.0
  0
SPLINE
  5
229
330
1F
100
AcDbEntity
  8
SK3
  6
SLD-Dashed
370
    18
100
AcDbSpline
210
0.0
220
0.0
230
1.0
 70
     8
 71
     3
 72
     8
 73
     4
 74
     0
 42
0.000000001
 43
0.00000001
 40
0.640624999999999
 40
0.640624999999999
 40
0.640624999999999
 40
0.640624999999999
 40
0.6562499999999999
 40
0.6562499999999999
 40
0.6562499999999999
 40
0.6562499999999999
 10
176.0032161635367
 20
7.744004273106488
 30
0.0
 10
175.8290787777011
 20
7.641617299662229
 30
0.0
 10
175.6474144289075
 20
7.53866486275713
 30
0.0
 10
175.4610023608556
 20
7.43814255636379
 30
0.0
  0
SPLINE
  5
22A
330
1F
100
AcDbEntity
  8
SK3
  6
SLD-Dashed
370
    18
100
AcDbSpline
210
0.0
220
0.0
230
1.0
 70
     8
 71
     3
 72
     8
 73
     4
 74
     0
 42
0.000000001
 43
0.00000001
 40
0.6562499999999999
 40
0.6562499999999999
 40
0.6562499999999999
 40
0.6562499999999999
 40
0.6875000000000002
 40
0.6875000000000002
 40
0.6875000000000002
 40
0.6875000000000002
 10
175.4610023608556
 20
7.43814255636379
 30
0.0
 10
175.088178224752
 20
7.237097943577124
 30
0.0
 10
174.6937016036132
 20
7.043542481500534
 30
0.0
 10
174.2718536886021
 20
6.870275321257335
 30
0.0
  0
SPLINE
  5
22B
330
1F
100
AcDbEntity
  8
SK3
  6
SLD-Dashed
370
    18
100
AcDbSpline
210
0.0
220
0.0
230
1.0
 70
     8
 71
     3
 72
     8
 73
     4
 74
     0
 42
0.000000001
 43
0.00000001
 40
0.6875000000000002
 40
0.6875000000000002
 40
0.6875000000000002
 40
0.6875000000000002
 40
0.7031250000000004
 40
0.7031250000000004
 40
0.7031250000000004
 40
0.7031250000000004
 10
174.2718536886021
 20
6.870275321257335
 30
0.0
 10
174.0609297310966
 20
6.783641741135736
 30
0.0
 10
173.8430804747653
 20
6.70216064926684
 30
0.0
 10
173.6168718449256
 20
6.628209286250033
 30
0.0
  0
SPLINE
  5
22C
330
1F
100
AcDbEntity
  8
SK3
  6
SLD-Dashed
370
    18
100
AcDbSpline
210
0.0
220
0.0
230
1.0
 70
     8
 71
     3
 72
     8
 73
     4
 74
     0
 42
0.000000001
 43
0.00000001
 40
0.7031250000000004
 40
0.7031250000000004
 40
0.7031250000000004
 40
0.7031250000000004
 40
0.7187500000000007
 40
0.7187500000000007
 40
0.7187500000000007
 40
0.7187500000000007
 10
173.6168718449256
 20
6.628209286250033
 30
0.0
 10
173.3906632150859
 20
6.554257923233219
 30
0.0
 10
173.1582592424496
 20
6.488713741290002
 30
0.0
 10
172.9227296841422
 20
6.434808270069419
 30
0.0
  0
SPLINE
  5
22D
330
1F
100
AcDbEntity
  8
SK3
  6
SLD-Dashed
370
    18
100
AcDbSpline
210
0.0
220
0.0
230
1.0
 70
     8
 71
     3
 72
     8
 73
     4
 74
     0
 42
0.000000001
 43
0.00000001
 40
0.7187500000000007
 40
0.7187500000000007
 40
0.7187500000000007
 40
0.7187500000000007
 40
0.7343750000000009
 40
0.7343750000000009
 40
0.7343750000000009
 40
0.7343750000000009
 10
172.9227296841422
 20
6.434808270069419
 30
0.0
 10
172.6872001258347
 20
6.380902798848828
 30
0.0
 10
172.4474763518113
 20
6.338286491806337
 30
0.0
 10
172.2030188512753
 20
6.309109456997558
 30
0.0
  0
SPLINE
  5
22E
330
1F
100
AcDbEntity
  8
SK3
  6
SLD-Dashed
370
    18
100
AcDbSpline
210
0.0
220
0.0
230
1.0
 70
     8
 71
     3
 72
     8
 73
     4
 74
     0
 42
0.000000001
 43
0.00000001
 40
0.7343750000000009
 40
0.7343750000000009
 40
0.7343750000000009
 40
0.7343750000000009
 40
0.750000000000001
 40
0.750000000000001
 40
0.750000000000001
 40
0.750000000000001
 10
172.2030188512753
 20
6.309109456997558
 30
0.0
 10
171.9585613507393
 20
6.279932422188786
 30
0.0
 10
171.7078438978669
 20
6.264447424377622
 30
0.0
 10
171.4608481978048
 20
6.264019670578609
 30
0.0
  0
SPLINE
  5
22F
330
1F
100
AcDbEntity
  8
SK3
  6
SLD-Dashed
370
    18
100
AcDbSpline
210
0.0
220
0.0
230
1.0
 70
     8
 71
     3
 72
     8
 73
     4
 74
     0
 42
0.000000001
 43
0.00000001
 40
0.750000000000001
 40
0.750000000000001
 40
0.750000000000001
 40
0.750000000000001
 40
0.7656250000000012
 40
0.7656250000000012
 40
0.7656250000000012
 40
0.7656250000000012
 10
171.4608481978048
 20
6.264019670578609
 30
0.0
 10
171.2138524977427
 20
6.263591916779595
 30
0.0
 10
170.9686924706942
 20
6.277819323205057
 30
0.0
 10
170.725281643237
 20
6.305794275634866
 30
0.0
  0
SPLINE
  5
230
330
1F
100
AcDbEntity
  8
SK3
  6
SLD-Dashed
370
    18
100
AcDbSpline
210
0.0
220
0.0
230
1.0
 70
     8
 71
     3
 72
     8
 73
     4
 74
     0
 42
0.000000001
 43
0.00000001
 40
0.7656250000000012
 40
0.7656250000000012
 40
0.7656250000000012
 40
0.7656250000000012
 40
0.7812500000000014
 40
0.7812500000000014
 40
0.7812500000000014
 40
0.7812500000000014
 10
170.725281643237
 20
6.305794275634866
 30
0.0
 10
170.4818708157799
 20
6.333769228064674
 30
0.0
 10
170.2385905433127
 20
6.375869795885815
 30
0.0
 10
170.0009109027891
 20
6.429438852781446
 30
0.0
  0
SPLINE
  5
231
330
1F
100
AcDbEntity
  8
SK3
  6
SLD-Dashed
370
    18
100
AcDbSpline
210
0.0
220
0.0
230
1.0
 70
     8
 71
     3
 72
     8
 73
     4
 74
     0
 42
0.000000001
 43
0.00000001
 40
0.7812500000000014
 40
0.7812500000000014
 40
0.7812500000000014
 40
0.7812500000000014
 40
0.8125000000000019
 40
0.8125000000000019
 40
0.8125000000000019
 40
0.8125000000000019
 10
170.0009109027891
 20
6.429438852781446
 30
0.0
 10
169.5255516217422
 20
6.536576966572685
 30
0.0
 10
169.0789099743267
 20
6.686457325455461
 30
0.0
 10
168.6530913477354
 20
6.860067256165406
 30
0.0
  0
SPLINE
  5
232
330
1F
100
AcDbEntity
  8
SK3
  6
SLD-Dashed
370
    18
100
AcDbSpline
210
0.0
220
0.0
230
1.0
 70
     8
 71
     3
 72
     8
 73
     4
 74
     0
 42
0.000000001
 43
0.00000001
 40
0.8125000000000019
 40
0.8125000000000019
 40
0.8125000000000019
 40
0.8125000000000019
 40
0.8281250000000012
 40
0.8281250000000012
 40
0.8281250000000012
 40
0.8281250000000012
 10
168.6530913477354
 20
6.860067256165406
 30
0.0
 10
168.4401820344397
 20
6.946872221520378
 30
0.0
 10
168.2316161848337
 20
7.040231584780586
 30
0.0
 10
168.0311655635462
 20
7.136263283671833
 30
0.0
  0
SPLINE
  5
233
330
1F
100
AcDbEntity
  8
SK3
  6
SLD-Dashed
370
    18
100
AcDbSpline
210
0.0
220
0.0
230
1.0
 70
     8
 71
     3
 72
     8
 73
     4
 74
     0
 42
0.000000001
 43
0.00000001
 40
0.8281250000000012
 40
0.8281250000000012
 40
0.8281250000000012
 40
0.8281250000000012
 40
0.8437500000000007
 40
0.8437500000000007
 40
0.8437500000000007
 40
0.8437500000000007
 10
168.0311655635462
 20
7.136263283671833
 30
0.0
 10
167.8307149422587
 20
7.232294982563073
 30
0.0
 10
167.6378971152585
 20
7.331121877290396
 30
0.0
 10
167.4518074707359
 20
7.431242712431341
 30
0.0
  0
SPLINE
  5
234
330
1F
100
AcDbEntity
  8
SK3
  6
SLD-Dashed
370
    18
100
AcDbSpline
210
0.0
220
0.0
230
1.0
 70
     8
 71
     3
 72
     8
 73
     4
 74
     0
 42
0.000000001
 43
0.00000001
 40
0.8437500000000007
 40
0.8437500000000007
 40
0.8437500000000007
 40
0.8437500000000007
 40
0.8749999999999997
 40
0.8749999999999997
 40
0.8749999999999997
 40
0.8749999999999997
 10
167.4518074707359
 20
7.431242712431341
 30
0.0
 10
167.0796281816907
 20
7.631484382713223
 30
0.0
 10
166.7340606823823
 20
7.836781660934114
 30
0.0
 10
166.4125792189078
 20
8.038248122307397
 30
0.0
  0
SPLINE
  5
235
330
1F
100
AcDbEntity
  8
SK3
  6
SLD-Dashed
370
    18
100
AcDbSpline
210
0.0
220
0.0
230
1.0
 70
     8
 71
     3
 72
     8
 73
     4
 74
     0
 42
0.000000001
 43
0.00000001
 40
0.8749999999999997
 40
0.8749999999999997
 40
0.8749999999999997
 40
0.8749999999999997
 40
0.8906249999999992
 40
0.8906249999999992
 40
0.8906249999999992
 40
0.8906249999999992
 10
166.4125792189078
 20
8.038248122307397
 30
0.0
 10
166.2518384871707
 20
8.138981352994048
 30
0.0
 10
166.0968082148563
 20
8.239081736399214
 30
0.0
 10
165.9509242574168
 20
8.33532595479431
 30
0.0
  0
SPLINE
  5
236
330
1F
100
AcDbEntity
  8
SK3
  6
SLD-Dashed
370
    18
100
AcDbSpline
210
0.0
220
0.0
230
1.0
 70
     8
 71
     3
 72
     8
 73
     4
 74
     0
 42
0.000000001
 43
0.00000001
 40
0.8906249999999992
 40
0.8906249999999992
 40
0.8906249999999992
 40
0.8906249999999992
 40
0.9062499999999987
 40
0.9062499999999987
 40
0.9062499999999987
 40
0.9062499999999987
 10
165.9509242574168
 20
8.33532595479431
 30
0.0
 10
165.8050402999773
 20
8.43157017318942
 30
0.0
 10
165.6675289956315
 20
8.524433433031053
 30
0.0
 10
165.5383190484127
 20
8.613117694735218
 30
0.0
  0
SPLINE
  5
237
330
1F
100
AcDbEntity
  8
SK3
  6
SLD-Dashed
370
    18
100
AcDbSpline
210
0.0
220
0.0
230
1.0
 70
     8
 71
     3
 72
     8
 73
     4
 74
     0
 42
0.000000001
 43
0.00000001
 40
0.9062499999999987
 40
0.9062499999999987
 40
0.9062499999999987
 40
0.9062499999999987
 40
0.9374999999999987
 40
0.9374999999999987
 40
0.9374999999999987
 40
0.9374999999999987
 10
165.5383190484127
 20
8.613117694735218
 30
0.0
 10
165.2798991539752
 20
8.790486218143565
 30
0.0
 10
165.0543068929788
 20
8.951297372629078
 30
0.0
 10
164.8651887637621
 20
9.088320183999098
 30
0.0
  0
SPLINE
  5
238
330
1F
100
AcDbEntity
  8
SK3
  6
SLD-Dashed
370
    18
100
AcDbSpline
210
0.0
220
0.0
230
1.0
 70
     8
 71
     3
 72
     8
 73
     4
 74
     0
 42
0.000000001
 43
0.00000001
 40
0.9374999999999987
 40
0.9374999999999987
 40
0.9374999999999987
 40
0.9374999999999987
 40
0.953124999999999
 40
0.953124999999999
 40
0.953124999999999
 40
0.953124999999999
 10
164.8651887637621
 20
9.088320183999098
 30
0.0
 10
164.7706296991537
 20
9.156831589684105
 30
0.0
 10
164.6854393972804
 20
9.21925521515999
 30
0.0
 10
164.6123410510984
 20
9.273155053782553
 30
0.0
  0
SPLINE
  5
239
330
1F
100
AcDbEntity
  8
SK3
  6
SLD-Dashed
370
    18
100
AcDbSpline
210
0.0
220
0.0
230
1.0
 70
     8
 71
     3
 72
     8
 73
     4
 74
     0
 42
0.000000001
 43
0.00000001
 40
0.953124999999999
 40
0.953124999999999
 40
0.953124999999999
 40
0.953124999999999
 40
0.9687499999999992
 40
0.9687499999999992
 40
0.9687499999999992
 40
0.9687499999999992
 10
164.6123410510984
 20
9.273155053782553
 30
0.0
 10
164.5392427049166
 20
9.32705489240511
 30
0.0
 10
164.4775327877935
 20
9.372940625911577
 30
0.0
 10
164.4275317210522
 20
9.410254272804105
 30
0.0
  0
SPLINE
  5
23A
330
1F
100
AcDbEntity
  8
SK3
  6
SLD-Dashed
370
    18
100
AcDbSpline
210
0.0
220
0.0
230
1.0
 70
     8
 71
     3
 72
     8
 73
     4
 74
     0
 42
0.000000001
 43
0.00000001
 40
0.9687499999999992
 40
0.9687499999999992
 40
0.9687499999999992
 40
0.9687499999999992
 40
0.9843749999999996
 40
0.9843749999999996
 40
0.9843749999999996
 40
0.9843749999999996
 10
164.4275317210522
 20
9.410254272804105
 30
0.0
 10
164.377530654311
 20
9.447567919696642
 30
0.0
 10
164.3392330651321
 20
9.476314713373089
 30
0.0
 10
164.313390963637
 20
9.495736584799436
 30
0.0
  0
SPLINE
  5
23B
330
1F
100
AcDbEntity
  8
SK3
  6
SLD-Dashed
370
    18
100
AcDbSpline
210
0.0
220
0.0
230
1.0
 70
     8
 71
     2
 72
     6
 73
     3
 74
     0
 42
0.000000001
 43
0.00000001
 40
0.9843749999999996
 40
0.9843749999999996
 40
0.9843749999999996
 40
1.0
 40
1.0
 40
1.0
 10
164.3133909636369
 20
9.495736584799499
 30
0.0
 10
164.2875488621418
 20
9.515158456225807
 30
0.0
 10
164.2744999999999
 20
9.525000000000006
 30
0.0
  0
SPLINE
  5
23C
330
1F
100
AcDbEntity
  8
SK3
  6
SLD-Dashed
370
    18
100
AcDbSpline
210
0.0
220
0.0
230
1.0
 70
     8
 71
     3
 72
    34
 73
    30
 74
     0
 42
0.000000001
 43
0.00000001
 40
0.499999999999998
 40
0.499999999999998
 40
0.499999999999998
 40
0.499999999999998
 40
0.5312499999999979
 40
0.5312499999999979
 40
0.5624999999999978
 40
0.5624999999999978
 40
0.5937499999999976
 40
0.5937499999999976
 40
0.6249999999999974
 40
0.6249999999999974
 40
0.6562499999999973
 40
0.6562499999999973
 40
0.6874999999999972
 40
0.6874999999999972
 40
0.7499999999999969
 40
0.7499999999999969
 40
0.8124999999999973
 40
0.8124999999999973
 40
0.8437499999999978
 40
0.8437499999999978
 40
0.8749999999999982
 40
0.8749999999999982
 40
0.9062499999999987
 40
0.9062499999999987
 40
0.937499999999999
 40
0.937499999999999
 40
0.9687499999999994
 40
0.9687499999999994
 40
1.0
 40
1.0
 40
1.0
 40
1.0
 10
9.638805742161694
 20
10.95392502366162
 30
0.0
 10
9.693881160736288
 20
10.84705887039521
 30
0.0
 10
9.763179283156633
 20
10.74439645836096
 30
0.0
 10
9.923515798149971
 20
10.55592715127708
 30
0.0
 10
10.01390276352451
 20
10.47020735344792
 30
0.0
 10
10.21445694949209
 20
10.31296552728877
 30
0.0
 10
10.32267837600208
 20
10.24333508542229
 30
0.0
 10
10.5430752649812
 20
10.12288935951391
 30
0.0
 10
10.65791658596821
 20
10.07070374731722
 30
0.0
 10
10.87819871140988
 20
9.984463182040868
 30
0.0
 10
10.98608094611135
 20
9.949205279737832
 30
0.0
 10
11.18968749579592
 20
9.892304259468993
 30
0.0
 10
11.28527842069083
 20
9.870580048613824
 30
0.0
 10
11.5589829745022
 20
9.820769890309979
 30
0.0
 10
11.72337034356694
 20
9.808096789548735
 30
0.0
 10
12.02194861504763
 20
9.821477532699769
 30
0.0
 10
12.15920875119765
 20
9.847310188176722
 30
0.0
 10
12.34760730605757
 20
9.927824692744434
 30
0.0
 10
12.40688352391456
 20
9.961503747003366
 30
0.0
 10
12.5178029483755
 20
10.0474980864718
 30
0.0
 10
12.56969006353042
 20
10.1002182908583
 30
0.0
 10
12.65991931900841
 20
10.22933776798929
 30
0.0
 10
12.69929072119647
 20
10.30748393412818
 30
0.0
 10
12.75586568636477
 20
10.49302732041031
 30
0.0
 10
12.77303399215492
 20
10.60290348381506
 30
0.0
 10
12.77663319740258
 20
10.83901366027914
 30
0.0
 10
12.7630699394838
 20
10.96766771108132
 30
0.0
 10
12.7117084196995
 20
11.21837738140154
 30
0.0
 10
12.67469993892521
 20
11.34057418425335
 30
0.0
 10
12.63040931107556
 20
11.45745606890564
 30
0.0
  0
SPLINE
  5
23D
330
1F
100
AcDbEntity
  8
SK3
  6
SLD-Dashed
370
    18
100
AcDbSpline
210
0.0
220
0.0
230
1.0
 70
     8
 71
     3
 72
    26
 73
    22
 74
     0
 42
0.000000001
 43
0.00000001
 40
0.0
 40
0.0
 40
0.0
 40
0.0
 40
0.0624999999999995
 40
0.0624999999999995
 40
0.124999999999999
 40
0.124999999999999
 40
0.1874999999999986
 40
0.1874999999999986
 40
0.2499999999999981
 40
0.2499999999999981
 40
0.281249999999998
 40
0.281249999999998
 40
0.3124999999999979
 40
0.3124999999999979
 40
0.3749999999999981
 40
0.3749999999999981
 40
0.4374999999999984
 40
0.4374999999999984
 40
0.4687499999999982
 40
0.4687499999999982
 40
0.499999999999998
 40
0.499999999999998
 40
0.499999999999998
 40
0.499999999999998
 10
12.63040931107556
 20
11.45745606890564
 30
0.0
 10
12.54182805537629
 20
11.6912198382102
 30
0.0
 10
12.43200682775375
 20
11.89056157115177
 30
0.0
 10
12.18419932759157
 20
12.25514411813748
 30
0.0
 10
12.04834522926918
 20
12.41463399152625
 30
0.0
 10
11.75314013646127
 20
12.69173524411806
 30
0.0
 10
11.59091385222423
 20
12.81202758601131
 30
0.0
 10
11.2300472901951
 20
12.99241430793246
 30
0.0
 10
11.0272833419255
 20
13.05343833574647
 30
0.0
 10
10.69987000905184
 20
13.05646994226838
 30
0.0
 10
10.58531472788943
 20
13.0419760700552
 30
0.0
 10
10.36396153134626
 20
12.97944613660277
 30
0.0
 10
10.25449961952679
 20
12.93102694430326
 30
0.0
 10
9.947578697971304
 20
12.73948161914287
 30
0.0
 10
9.77664657830718
 20
12.55346040827497
 30
0.0
 10
9.542451961566167
 20
12.12678030999252
 30
0.0
 10
9.478612055377909
 20
11.88580640702583
 30
0.0
 10
9.473421112414254
 20
11.52565520755326
 30
0.0
 10
9.486345898652631
 20
11.40749361566879
 30
0.0
 10
9.541390615621022
 20
11.17459151908689
 30
0.0
 10
9.5837303235871
 20
11.06079117692804
 30
0.0
 10
9.638805742161694
 20
10.95392502366162
 30
0.0
  0
SPLINE
  5
23E
330
1F
100
AcDbEntity
  8
SK3
  6
SLD-Dashed
370
    18
100
AcDbSpline
210
0.0
220
0.0
230
1.0
 70
     8
 71
     3
 72
    18
 73
    14
 74
     0
 42
0.000000001
 43
0.00000001
 40
0.0
 40
0.0
 40
0.0
 40
0.0
 40
0.0501962867734933
 40
0.100030621443722
 40
0.1855667331187706
 40
0.2501823892320661
 40
0.3747066158220745
 40
0.4998232982189725
 40
0.6247294758455316
 40
0.7494251058857281
 40
0.8746331028690637
 40
0.9372230808189629
 40
1.0
 40
1.0
 40
1.0
 40
1.0
 10
3.949999999999995
 20
46.81625358782995
 30
0.0
 10
3.943300488172041
 20
46.81609127853698
 30
0.0
 10
3.929949772918065
 20
46.81576783032028
 30
0.0
 10
3.905360779048059
 20
46.81256776526225
 30
0.0
 10
3.879327985377781
 20
46.80630579793132
 30
0.0
 10
3.844998498051075
 20
46.7933155554719
 30
0.0
 10
3.80826060250089
 20
46.77247000397299
 30
0.0
 10
3.770344503827433
 20
46.73942242416843
 30
0.0
 10
3.739587180509194
 20
46.69961163074888
 30
0.0
 10
3.716933654940704
 20
46.65468875110022
 30
0.0
 10
3.705476597958057
 20
46.61434662644385
 30
0.0
 10
3.700675324942476
 20
46.58119847829343
 30
0.0
 10
3.700225331983622
 20
46.56446483112381
 30
0.0
 10
3.699999999999995
 20
46.55608553132449
 30
0.0
  0
SPLINE
  5
23F
330
1F
100
AcDbEntity
  8
SK3
  6
SLD-Dashed
370
    18
100
AcDbSpline
210
0.0
220
0.0
230
1.0
 70
     8
 71
     3
 72
    18
 73
    14
 74
     0
 42
0.000000001
 43
0.00000001
 40
0.0
 40
0.0
 40
0.0
 40
0.0
 40
0.0502196103872459
 40
0.1000870260924544
 40
0.1855086368940347
 40
0.2501550808792018
 40
0.374658315746124
 40
0.499857085379306
 40
0.6242312608259575
 40
0.7494324099488543
 40
0.8740366596180059
 40
0.9370350243166945
 40
1.0
 40
1.0
 40
1.0
 40
1.0
 10
18.55000000000001
 20
46.55608553132441
 30
0.0
 10
18.5498561451471
 20
46.56278755186001
 30
0.0
 10
18.54956944430837
 20
46.57614459105336
 30
0.0
 10
18.54672594518123
 20
46.60076085239339
 30
0.0
 10
18.54114997473666
 20
46.62692328764684
 30
0.0
 10
18.52948583072867
 20
46.66169890756605
 30
0.0
 10
18.51054340758336
 20
46.69941980690709
 30
0.0
 10
18.47987172088772
 20
46.73918434013714
 30
0.0
 10
18.44197136356038
 20
46.77229285140231
 30
0.0
 10
18.39830135356868
 20
46.79720148409476
 30
0.0
 10
18.35828818785665
 20
46.81006094110489
 30
0.0
 10
18.32521964393111
 20
46.81548545401076
 30
0.0
 10
18.30840506230054
 20
46.81599758847391
 30
0.0
 10
18.3
 20
46.81625358782993
 30
0.0
  0
SPLINE
  5
240
330
1F
100
AcDbEntity
  8
1
  6
SLD-Dashed
370
    18
100
AcDbSpline
210
0.0
220
0.0
230
1.0
 70
     8
 71
     3
 72
     8
 73
     4
 74
     0
 42
0.000000001
 43
0.00000001
 40
0.0
 40
0.0
 40
0.0
 40
0.0
 40
1.0
 40
1.0
 40
1.0
 40
1.0
 10
9.200000000002012
 20
44.57901066343279
 30
0.0
 10
8.78635386686144
 20
45.32508460154087
 30
0.0
 10
8.372088490924037
 20
46.07082082932838
 30
0.0
 10
7.957289380062113
 20
46.81625358782996
 30
0.0
  0
SPLINE
  5
241
330
1F
100
AcDbEntity
  8
1
  6
SLD-Dashed
370
    18
100
AcDbSpline
210
0.0
220
0.0
230
1.0
 70
     8
 71
     3
 72
    10
 73
     6
 74
     0
 42
0.000000001
 43
0.00000001
 40
0.0
 40
0.0
 40
0.0
 40
0.0
 40
0.5
 40
0.5
 40
1.0
 40
1.0
 40
1.0
 40
1.0
 10
9.950000000001225
 20
43.76943596849411
 30
0.0
 10
9.748771536222407
 20
43.7694359684938
 30
0.0
 10
9.550990673892203
 20
43.85856672856775
 30
0.0
 10
9.277097785723972
 20
44.15022946993274
 30
0.0
 10
9.200000000000292
 20
44.34957328976747
 30
0.0
 10
9.199999999999973
 20
44.55102159322499
 30
0.0
  0
SPLINE
  5
242
330
1F
100
AcDbEntity
  8
1
  6
SLD-Dashed
370
    18
100
AcDbSpline
210
0.0
220
0.0
230
1.0
 70
     8
 71
     3
 72
    12
 73
     8
 74
     0
 42
0.000000001
 43
0.00000001
 40
0.0
 40
0.0
 40
0.0
 40
0.0
 40
0.5000000000000048
 40
0.5000000000000048
 40
0.7500000000000023
 40
0.7500000000000023
 40
1.0
 40
1.0
 40
1.0
 40
1.0
 10
13.02999999999991
 20
44.55102159322491
 30
0.0
 10
13.02999999999988
 20
44.35104831812321
 30
0.0
 10
12.95399603318284
 20
44.15150826736608
 30
0.0
 10
12.74724095984753
 20
43.93116827138052
 30
0.0
 10
12.66314206268637
 20
43.8712862165096
 30
0.0
 10
12.48048875274074
 20
43.79084228716532
 30
0.0
 10
12.37984375713168
 20
43.7694359684929
 30
0.0
 10
12.28
 20
43.7694359684929
 30
0.0
  0
SPLINE
  5
243
330
1F
100
AcDbEntity
  8
1
  6
SLD-Dashed
370
    18
100
AcDbSpline
210
0.0
220
0.0
230
1.0
 70
     8
 71
     3
 72
     8
 73
     4
 74
     0
 42
0.000000001
 43
0.00000001
 40
0.0
 40
0.0
 40
0.0
 40
0.0
 40
1.0
 40
1.0
 40
1.0
 40
1.0
 10
14.2727106199509
 20
46.81625358783777
 30
0.0
 10
13.85791150908529
 20
46.07082082933481
 30
0.0
 10
13.44364613314421
 20
45.32508460154595
 30
0.0
 10
13.02999999999997
 20
44.57901066343648
 30
0.0
  0
SPLINE
  5
244
330
1F
100
AcDbEntity
  8
1
  6
SLD-Dashed
370
    18
100
AcDbSpline
210
0.0
220
0.0
230
1.0
 70
     8
 71
     3
 72
    12
 73
     8
 74
     0
 42
0.000000001
 43
0.00000001
 40
0.0
 40
0.0
 40
0.0
 40
0.0
 40
0.2499999999999967
 40
0.2499999999999967
 40
0.4999999999999933
 40
0.4999999999999933
 40
1.0
 40
1.0
 40
1.0
 40
1.0
 10
3.199999999999776
 20
-46.69763484374749
 30
0.0
 10
3.199999999999818
 20
-46.7985109584615
 30
0.0
 10
3.218629406337773
 20
-46.89733966428926
 30
0.0
 10
3.291844246696861
 20
-47.0841146964833
 30
0.0
 10
3.345979173512774
 20
-47.16991322229985
 30
0.0
 10
3.551871853062258
 20
-47.38753444472503
 30
0.0
 10
3.748026856781355
 20
-47.47548419974255
 30
0.0
 10
3.949999999999995
 20
-47.4754841997425
 30
0.0
  0
SPLINE
  5
245
330
1F
100
AcDbEntity
  8
1
  6
SLD-Dashed
370
    18
100
AcDbSpline
210
0.0
220
0.0
230
1.0
 70
     8
 71
     3
 72
    12
 73
     8
 74
     0
 42
0.000000001
 43
0.00000001
 40
0.0
 40
0.0
 40
0.0
 40
0.0
 40
0.2499999999999985
 40
0.2499999999999985
 40
0.499999999999997
 40
0.499999999999997
 40
1.0
 40
1.0
 40
1.0
 40
1.0
 10
18.30000000000001
 20
-47.47548419974248
 30
0.0
 10
18.40091596910943
 20
-47.47548419974248
 30
0.0
 10
18.50002158252256
 20
-47.45437693482703
 30
0.0
 10
18.68315226992452
 20
-47.37426897057824
 30
0.0
 10
18.76654490405267
 20
-47.31511647588035
 30
0.0
 10
18.97195148872742
 20
-47.09831987092234
 30
0.0
 10
19.04999999999999
 20
-46.89926900274104
 30
0.0
 10
19.05
 20
-46.69763484374771
 30
0.0
  0
SPLINE
  5
246
330
1F
100
AcDbEntity
  8
1
  6
SLD-Dashed
370
    18
100
AcDbSpline
210
0.0
220
0.0
230
1.0
 70
     8
 71
     3
 72
     8
 73
     4
 74
     0
 42
0.000000001
 43
0.00000001
 40
0.0
 40
0.0
 40
0.0
 40
0.0
 40
1.0
 40
1.0
 40
1.0
 40
1.0
 10
14.63972339340265
 20
-47.4754841997425
 30
0.0
 10
14.10222500453558
 20
-46.5104965471081
 30
0.0
 10
13.56559195163209
 20
-45.54503249842018
 30
0.0
 10
13.02999999999997
 20
-44.57901066343648
 30
0.0
  0
SPLINE
  5
247
330
1F
100
AcDbEntity
  8
1
  6
SLD-Dashed
370
    18
100
AcDbSpline
210
0.0
220
0.0
230
1.0
 70
     8
 71
     3
 72
    12
 73
     8
 74
     0
 42
0.000000001
 43
0.00000001
 40
0.0
 40
0.0
 40
0.0
 40
0.0
 40
0.5
 40
0.5
 40
0.75
 40
0.75
 40
1.0
 40
1.0
 40
1.0
 40
1.0
 10
13.03000000000025
 20
-44.55102159322527
 30
0.0
 10
13.03000000000032
 20
-44.35094747116185
 30
0.0
 10
12.95238692985018
 20
-44.14958800989084
 30
0.0
 10
12.74748896269966
 20
-43.93153570225749
 30
0.0
 10
12.66372770014786
 20
-43.87162606259755
 30
0.0
 10
12.48090790509569
 20
-43.79094541821721
 30
0.0
 10
12.38057331782437
 20
-43.76943596849286
 30
0.0
 10
12.28
 20
-43.76943596849289
 30
0.0
  0
SPLINE
  5
248
330
1F
100
AcDbEntity
  8
1
  6
SLD-Dashed
370
    18
100
AcDbSpline
210
0.0
220
0.0
230
1.0
 70
     8
 71
     3
 72
    12
 73
     8
 74
     0
 42
0.000000001
 43
0.00000001
 40
0.0
 40
0.0
 40
0.0
 40
0.0
 40
0.2500000000000039
 40
0.2500000000000039
 40
0.5000000000000078
 40
0.5000000000000078
 40
1.0
 40
1.0
 40
1.0
 40
1.0
 10
9.94999999999981
 20
-43.76943596849306
 30
0.0
 10
9.850030395358774
 20
-43.76943596849309
 30
0.0
 10
9.75011497476622
 20
-43.79051518316425
 30
0.0
 10
9.565507057761245
 20
-43.87194262843708
 30
0.0
 10
9.482715011846723
 20
-43.93126060501225
 30
0.0
 10
9.276579660402867
 20
-44.15080408372874
 30
0.0
 10
9.200000000000014
 20
-44.35163254795803
 30
0.0
 10
9.199999999999973
 20
-44.55102159322499
 30
0.0
  0
SPLINE
  5
249
330
1F
100
AcDbEntity
  8
1
  6
SLD-Dashed
370
    18
100
AcDbSpline
210
0.0
220
0.0
230
1.0
 70
     8
 71
     3
 72
     8
 73
     4
 74
     0
 42
0.000000001
 43
0.00000001
 40
0.0
 40
0.0
 40
0.0
 40
0.0
 40
1.0
 40
1.0
 40
1.0
 40
1.0
 10
9.199999999999973
 20
-44.57901066343648
 30
0.0
 10
8.664408048367878
 20
-45.54503249842017
 30
0.0
 10
8.127774995464396
 20
-46.51049654710808
 30
0.0
 10
7.590276606597335
 20
-47.47548419974248
 30
0.0
  0
SPLINE
  5
24A
330
1F
100
AcDbEntity
  8
SK3
  6
SLD-Dashed
370
    18
100
AcDbSpline
210
0.0
220
0.0
230
1.0
 70
     8
 71
     3
 72
    34
 73
    30
 74
     0
 42
0.000000001
 43
0.00000001
 40
0.5000000000000003
 40
0.5000000000000003
 40
0.5000000000000003
 40
0.5000000000000003
 40
0.5625000000000013
 40
0.5625000000000013
 40
0.5937500000000011
 40
0.5937500000000011
 40
0.625000000000001
 40
0.625000000000001
 40
0.6562500000000009
 40
0.6562500000000009
 40
0.6875000000000008
 40
0.6875000000000008
 40
0.7187500000000007
 40
0.7187500000000007
 40
0.7500000000000004
 40
0.7500000000000004
 40
0.7812500000000003
 40
0.7812500000000003
 40
0.8125000000000002
 40
0.8125000000000002
 40
0.8437500000000001
 40
0.8437500000000001
 40
0.875
 40
0.875
 40
0.9062499999999999
 40
0.9062499999999999
 40
0.9374999999999997
 40
0.9374999999999997
 40
1.0
 40
1.0
 40
1.0
 40
1.0
 10
10.60808274902043
 20
14.67518531385664
 30
0.0
 10
10.77143994352718
 20
14.66271400222903
 30
0.0
 10
10.95396076821069
 20
14.63137977172278
 30
0.0
 10
11.25812245907613
 20
14.54691770596561
 30
0.0
 10
11.36641585866903
 20
14.51171888144388
 30
0.0
 10
11.58574352105282
 20
14.42634662926307
 30
0.0
 10
11.69715944869877
 20
14.37625545607606
 30
0.0
 10
11.92117180667887
 20
14.25483711630821
 30
0.0
 10
12.0289352359772
 20
14.18587333985283
 30
0.0
 10
12.22961030853027
 20
14.02983333564747
 30
0.0
 10
12.32267742835867
 20
13.94226901556095
 30
0.0
 10
12.48372543018653
 20
13.75415019217111
 30
0.0
 10
12.55366053916097
 20
13.65130323099262
 30
0.0
 10
12.6648932192714
 20
13.43691773984446
 30
0.0
 10
12.70717730188427
 20
13.32435113894571
 30
0.0
 10
12.7632641756493
 20
13.08988167819453
 30
0.0
 10
12.77635511926059
 20
12.97149039057748
 30
0.0
 10
12.77342672652902
 20
12.7321108433757
 30
0.0
 10
12.75684979458237
 20
12.61060743991047
 30
0.0
 10
12.69552150102994
 20
12.37773497196915
 30
0.0
 10
12.65033349294084
 20
12.26373909474825
 30
0.0
 10
12.53298957942554
 20
12.04909612932804
 30
0.0
 10
12.46214536200849
 20
11.95022400081661
 30
0.0
 10
12.29651277322137
 20
11.77143410287179
 30
0.0
 10
12.20150676240367
 20
11.69219588739501
 30
0.0
 10
11.99926684334572
 20
11.56533020093841
 30
0.0
 10
11.88885801145313
 20
11.51587497169279
 30
0.0
 10
11.55399205333033
 20
11.42069275726626
 30
0.0
 10
11.32716468948121
 20
11.42871083881323
 30
0.0
 10
11.125
 20
11.48273236161758
 30
0.0
  0
SPLINE
  5
24B
330
1F
100
AcDbEntity
  8
SK3
  6
SLD-Dashed
370
    18
100
AcDbSpline
210
0.0
220
0.0
230
1.0
 70
     8
 71
     3
 72
    30
 73
    26
 74
     0
 42
0.000000001
 43
0.00000001
 40
0.0
 40
0.0
 40
0.0
 40
0.0
 40
0.0624999999999997
 40
0.0624999999999997
 40
0.1249999999999995
 40
0.1249999999999995
 40
0.1562499999999993
 40
0.1562499999999993
 40
0.1874999999999992
 40
0.1874999999999992
 40
0.2187499999999991
 40
0.2187499999999991
 40
0.2499999999999989
 40
0.2499999999999989
 40
0.2812499999999988
 40
0.2812499999999988
 40
0.3124999999999987
 40
0.3124999999999987
 40
0.3437499999999986
 40
0.3437499999999986
 40
0.3749999999999984
 40
0.3749999999999984
 40
0.4374999999999994
 40
0.4374999999999994
 40
0.5000000000000003
 40
0.5000000000000003
 40
0.5000000000000003
 40
0.5000000000000003
 10
11.125
 20
11.48273236161758
 30
0.0
 10
10.92283531051878
 20
11.53675388442191
 30
0.0
 10
10.74714710048237
 20
11.63024516394926
 30
0.0
 10
10.42066988662173
 20
11.86454434722232
 30
0.0
 10
10.27375737476434
 20
12.00407384287209
 30
0.0
 10
10.07148943268484
 20
12.24177839203631
 30
0.0
 10
10.00699015299671
 20
12.3260933977068
 30
0.0
 10
9.883509956371176
 20
12.50701007175131
 30
0.0
 10
9.824268573097857
 20
12.60415729348404
 30
0.0
 10
9.715154706090315
 20
12.80934651131551
 30
0.0
 10
9.664396735733453
 20
12.91903622889808
 30
0.0
 10
9.576981863499118
 20
13.14891853741636
 30
0.0
 10
9.540303532497491
 20
13.26831266228052
 30
0.0
 10
9.487704529937982
 20
13.52080982106195
 30
0.0
 10
9.473745253197968
 20
13.64846695671306
 30
0.0
 10
9.476438089560544
 20
13.88700257856812
 30
0.0
 10
9.493197896427997
 20
13.99682053671473
 30
0.0
 10
9.549353346861203
 20
14.18374939795269
 30
0.0
 10
9.58858947784802
 20
14.2623151046244
 30
0.0
 10
9.678480018824306
 20
14.39201189392007
 30
0.0
 10
9.730204466999167
 20
14.44496665500974
 30
0.0
 10
9.896348595184456
 20
14.57471258814563
 30
0.0
 10
10.02083275682616
 20
14.62455209347292
 30
0.0
 10
10.29708420272972
 20
14.68178062150164
 30
0.0
 10
10.44472555451369
 20
14.68765662548424
 30
0.0
 10
10.60808274902043
 20
14.67518531385664
 30
0.0
  0
DIMENSION
  5
24C
330
1F
100
AcDbEntity
  8
2
100
AcDbDimension
  2
_D
 10
196.85
 20
87.801477187
 30
0.0
 11
58.9106532179
 21
87.801477187
 31
0.0
 70
   160
  1
<>
 71
     2
 42
-1.0
  3
SLDDIMSTYLE0
100
AcDbAlignedDimension
 13
0.0
 23
34.925
 33
0.0
 14
196.85
 24
14.605
 34
0.0
 50
0.0
100
AcDbRotatedDimension
  0
DIMENSION
  5
261
330
1F
100
AcDbEntity
  8
SK2
100
AcDbDimension
  2
_D_1
 10
196.85
 20
73.5387414164
 30
0.0
 11
96.2608179477
 21
73.5387414164
 31
0.0
 70
   160
  1
<>
 71
     2
 42
-1.0
  3
SLDDIMSTYLE0
100
AcDbAlignedDimension
 13
19.05
 23
46.5560855313
 33
0.0
 14
196.85
 24
14.605
 34
0.0
100
AcDbRotatedDimension
  0
DIMENSION
  5
274
330
1F
100
AcDbEntity
  8
SK2
100
AcDbDimension
  2
_D_2
 10
196.85
 20
59.6449822911
 30
0.0
 11
108.0360998464
 21
59.6449822911
 31
0.0
 70
   160
  1
<>
 71
     2
 42
-1.0
  3
SLDDIMSTYLE0
100
AcDbAlignedDimension
 13
35.1
 23
33.401
 33
0.0
 14
196.85
 24
14.605
 34
0.0
100
AcDbRotatedDimension
  0
DIMENSION
  5
287
330
1F
100
AcDbEntity
  8
SK2
100
AcDbDimension
  2
_D_3
 10
196.85
 20
44.9701518821
 30
0.0
 11
142.3657859565
 21
44.9701518821
 31
0.0
 70
   160
  1
<>
 71
     2
 42
-1.0
  3
SLDDIMSTYLE0
100
AcDbAlignedDimension
 13
88.9
 23
22.225
 33
0.0
 14
196.85
 24
14.605
 34
0.0
100
AcDbRotatedDimension
  0
DIMENSION
  5
29A
330
1F
100
AcDbEntity
  8
SK2
100
AcDbDimension
  2
_D_4
 10
171.45
 20
31.07854859
 30
0.0
 11
181.3277593659
 21
31.07854859
 31
0.0
 70
   160
  1
<>
 71
     2
 42
-1.0
  3
SLDDIMSTYLE0
100
AcDbAlignedDimension
 13
196.85
 23
14.605
 33
0.0
 14
171.45
 24
22.125
 34
0.0
100
AcDbRotatedDimension
  0
DIMENSION
  5
2AD
330
1F
100
AcDbEntity
  8
SK2
100
AcDbDimension
  2
_D_5
 10
215.0688259437
 20
-9.525
 30
0.0
 11
215.0688259437
 21
0.4912707675
 31
0.0
 70
   160
  1
%%c<>
 71
     2
 42
-1.0
  3
SLDDIMSTYLE1
100
AcDbAlignedDimension
 13
195.35
 23
9.525
 33
0.0
 14
195.35
 24
-9.525
 34
0.0
 50
90.0
100
AcDbRotatedDimension
  0
DIMENSION
  5
2C2
330
1F
100
AcDbEntity
  8
SK2
100
AcDbDimension
  2
_D_6
 10
245.2895815607
 20
-22.225
 30
0.0
 11
245.2895815607
 21
-0.033420432
 31
0.0
 70
   160
  1
%%c<>
 71
     2
 42
-1.0
  3
SLDDIMSTYLE0
100
AcDbAlignedDimension
 13
189.23
 23
22.225
 33
0.0
 14
189.23
 24
-22.225
 34
0.0
 50
90.0
100
AcDbRotatedDimension
  0
DIMENSION
  5
2D4
330
1F
100
AcDbEntity
  8
SK2
100
AcDbDimension
  2
_D_7
 10
229.2792125975
 20
-14.605
 30
0.0
 11
229.2792125975
 21
0.4912707675
 31
0.0
 70
   160
  1
%%c<>
 71
     2
 42
-1.0
  3
SLDDIMSTYLE0
100
AcDbAlignedDimension
 13
196.85
 23
14.605
 33
0.0
 14
196.85
 24
-14.605
 34
0.0
 50
90.0
100
AcDbRotatedDimension
  0
DIMENSION
  5
2E6
330
1F
100
AcDbEntity
  8
SK2
100
AcDbDimension
  2
_D_8
 10
0.0
 20
73.5387414164
 30
0.0
 11
9.3462771073
 21
73.5387414164
 31
0.0
 70
   160
  1
<>
 71
     2
 42
-1.0
  3
SLDDIMSTYLE2
100
AcDbAlignedDimension
 13
19.05
 23
46.5560855313
 33
0.0
 14
0.0
 24
34.925
 34
0.0
100
AcDbRotatedDimension
  0
DIMENSION
  5
2F1
330
1F
100
AcDbEntity
  8
SK2
100
AcDbDimension
  2
_D_9
 10
-101.6
 20
-63.0623304622
 30
0.0
 11
61.3918149158
 21
-63.0623304622
 31
0.0
 70
   160
  1
<>
 71
     2
 42
-1.0
  3
SLDDIMSTYLE3
100
AcDbAlignedDimension
 13
196.85
 23
-10.3619699893
 33
0.0
 14
-101.6
 24
-18.2922326599
 34
0.0
 50
0.0
100
AcDbRotatedDimension
  0
DIMENSION
  5
305
330
1F
100
AcDbEntity
  8
SK2
100
AcDbDimension
  2
_D_10
 10
196.85
 20
-52.1046469306
 30
0.0
 11
174.1550125066
 21
-52.1046469306
 31
0.0
 70
   160
  1
<>
 71
     2
 42
-1.0
  3
SLDDIMSTYLE0
100
AcDbAlignedDimension
 13
146.050408794
 23
-9.525
 33
0.0
 14
196.85
 24
-14.605
 34
0.0
 50
0.0
100
AcDbRotatedDimension
  0
DIMENSION
  5
318
330
1F
100
AcDbEntity
  8
SK2
100
AcDbDimension
  2
_D_11
 10
196.85
 20
-35.6857041127
 30
0.0
 11
178.8200732982
 21
-35.6857041127
 31
0.0
 70
   160
  1
<>
 71
     2
 42
-1.0
  3
SLDDIMSTYLE4
100
AcDbAlignedDimension
 13
189.23
 23
-22.225
 33
0.0
 14
196.85
 24
-14.605
 34
0.0
100
AcDbRotatedDimension
  0
DIMENSION
  5
325
330
1F
100
AcDbEntity
  8
SK2
100
AcDbDimension
  2
_D_12
 10
-125.2680714763
 20
-47.4754841997
 30
0.0
 11
-125.2680714763
 21
-2.3839428347
 31
0.0
 70
   160
  1
%%c<>
 71
     2
 42
-1.0
  3
SLDDIMSTYLE2
100
AcDbAlignedDimension
 13
5.7701383033
 23
47.2968145978
 33
0.0
 14
3.95
 24
-47.4754841997
 34
0.0
 50
90.0
100
AcDbRotatedDimension
  0
DIMENSION
  5
330
330
1F
100
AcDbEntity
  8
SK2
100
AcDbDimension
  2
_D_13
 10
-113.8476280335
 20
-12.6999998465
 30
0.0
 11
-113.8476280335
 21
2.2944798568
 31
0.0
 70
   160
  1
<>
 71
     2
 42
-1.0
  3
SLDDIMSTYLE2
100
AcDbAlignedDimension
 13
-94.967097044
 23
12.6999998465
 33
0.0
 14
-94.967097044
 24
-12.6999998465
 34
0.0
 50
90.0
100
AcDbRotatedDimension
  0
MTEXT
  5
33B
330
1F
100
AcDbEntity
  8
SK6
 62
     5
100
AcDbMText
 10
-61.6072986693
 20
-37.2235665711
 30
0.0
 40
3.5
 41
0.0
 71
     1
 72
     1
  1
AA3B20-50 19 197
  7
SLDTEXTSTYLE0
 73
     1
 44
1.0
  0
MTEXT
  5
33C
330
1F
100
AcDbEntity
  8
SK6
 62
     5
100
AcDbMText
 10
-63.1069515319
 20
40.6440512198
 30
0.0
 40
3.5
 41
0.0
 71
     1
 72
     1
  1
ASME B5.50 CAT 50
  7
SLDTEXTSTYLE0
 73
     1
 44
1.0
  0
ENDSEC
  0
SECTION
  2
OBJECTS
  0
DICTIONARY
  5
C
330
0
100
AcDbDictionary
281
     1
  3
ACAD_GROUP
350
D
  3
ACAD_LAYOUT
350
1A
  3
ACAD_MLINESTYLE
350
17
  3
ACAD_PLOTSETTINGS
350
19
  3
ACAD_PLOTSTYLENAME
350
E
  3
ACAD_SCALELIST
350
47
  0
DICTIONARY
  5
D
102
{ACAD_REACTORS
330
C
102
}
330
C
100
AcDbDictionary
281
     1
  0
DICTIONARY
  5
1A
102
{ACAD_REACTORS
330
C
102
}
330
C
100
AcDbDictionary
281
     1
  3
Layout1
350
1E
  3
Layout2
350
26
  3
Model
350
22
  0
DICTIONARY
  5
17
102
{ACAD_REACTORS
330
C
102
}
330
C
100
AcDbDictionary
281
     1
  3
Standard
350
18
  0
DICTIONARY
  5
19
102
{ACAD_REACTORS
330
C
102
}
330
C
100
AcDbDictionary
281
     1
  0
ACDBDICTIONARYWDFLT
  5
E
102
{ACAD_REACTORS
330
C
102
}
330
C
100
AcDbDictionary
281
     1
  3
Normal
350
F
100
AcDbDictionaryWithDefault
340
F
  0
DICTIONARY
  5
47
102
{ACAD_REACTORS
330
C
102
}
330
C
100
AcDbDictionary
281
     1
  3
A0
350
48
  3
A1
350
49
  3
A2
350
4A
  3
A3
350
4B
  3
A4
350
4C
  3
A5
350
4D
  3
A6
350
4E
  3
A7
350
4F
  3
A8
350
50
  3
A9
350
51
  3
B0
350
52
  3
B1
350
53
  3
B2
350
54
  3
B3
350
55
  3
B4
350
56
  3
B5
350
57
  3
B6
350
58
  3
B7
350
59
  3
B8
350
5A
  3
B9
350
5B
  3
C0
350
5C
  3
C1
350
5D
  3
C2
350
5E
  3
C3
350
5F
  3
C4
350
60
  3
C5
350
61
  3
C6
350
62
  3
C7
350
63
  3
C8
350
64
  3
C9
350
65
  3
D0
350
66
  3
D1
350
67
  3
D2
350
68
  0
LAYOUT
  5
1E
102
{ACAD_REACTORS
330
1A
102
}
330
1A
100
AcDbPlotSettings
  1

  2
none_device
  4

  6

 40
0.0
 41
0.0
 42
0.0
 43
0.0
 44
0.0
 45
0.0
 46
0.0
 47
0.0
 48
0.0
 49
0.0
140
0.0
141
0.0
142
1.0
143
1.0
 70
   688
 72
     1
 73
     0
 74
     5
  7

 75
    16
147
1.0
148
0.0
149
0.0
100
AcDbLayout
  1
Layout1
 70
     1
 71
     1
 10
0.0
 20
0.0
 11
420.0
 21
297.0
 12
0.0
 22
0.0
 32
0.0
 14
1.0000000000E+20
 24
1.0000000000E+20
 34
1.0000000000E+20
 15
-1.0000000000E+20
 25
-1.0000000000E+20
 35
-1.0000000000E+20
146
0.0
 13
0.0
 23
0.0
 33
0.0
 16
1.0
 26
0.0
 36
0.0
 17
0.0
 27
1.0
 37
0.0
 76
     0
330
1B
  0
LAYOUT
  5
26
102
{ACAD_REACTORS
330
1A
102
}
330
1A
100
AcDbPlotSettings
  1

  2
none_device
  4

  6

 40
0.0
 41
0.0
 42
0.0
 43
0.0
 44
0.0
 45
0.0
 46
0.0
 47
0.0
 48
0.0
 49
0.0
140
0.0
141
0.0
142
1.0
143
1.0
 70
   688
 72
     1
 73
     0
 74
     5
  7

 75
    16
147
1.0
148
0.0
149
0.0
100
AcDbLayout
  1
Layout2
 70
     1
 71
     2
 10
0.0
 20
0.0
 11
0.0
 21
0.0
 12
0.0
 22
0.0
 32
0.0
 14
0.0
 24
0.0
 34
0.0
 15
0.0
 25
0.0
 35
0.0
146
0.0
 13
0.0
 23
0.0
 33
0.0
 16
1.0
 26
0.0
 36
0.0
 17
0.0
 27
1.0
 37
0.0
 76
     0
330
23
  0
LAYOUT
  5
22
102
{ACAD_REACTORS
330
1A
102
}
330
1A
100
AcDbPlotSettings
  1

  2
none_device
  4
Letter_(8.50_x_11.00_Inches)
  6

 40
6.35
 41
6.35
 42
6.35000508
 43
6.35000508
 44
215.9
 45
279.4
 46
0.0
 47
0.0
 48
0.0
 49
0.0
140
0.0
141
0.0
142
1.0
143
1.0
 70
  1712
 72
     1
 73
     0
 74
     0
  7

 75
     0
147
1.0
148
0.0
149
0.0
100
AcDbLayout
  1
Model
 70
     1
 71
     0
 10
0.0
 20
0.0
 11
297.0
 21
210.0
 12
0.0
 22
0.0
 32
0.0
 14
0.0
 24
0.0
 34
0.0
 15
297.0
 25
210.0
 35
0.0
146
0.0
 13
0.0
 23
0.0
 33
0.0
 16
1.0
 26
0.0
 36
0.0
 17
0.0
 27
1.0
 37
0.0
 76
     0
330
1F
331
29
  0
MLINESTYLE
  5
18
102
{ACAD_REACTORS
330
17
102
}
330
17
100
AcDbMlineStyle
  2
Standard
 70
     0
  3

 62
   256
 51
90.0
 52
90.0
 71
     2
 49
0.5
 62
   256
  6
BYLAYER
 49
-0.5
 62
   256
  6
BYLAYER
  0
ACDBPLACEHOLDER
  5
F
102
{ACAD_REACTORS
330
E
102
}
330
E
  0
SCALE
  5
48
102
{ACAD_REACTORS
330
47
102
}
330
47
100
AcDbScale
 70
     0
300
1:1
140
1.0
141
1.0
290
     1
  0
SCALE
  5
49
102
{ACAD_REACTORS
330
47
102
}
330
47
100
AcDbScale
 70
     0
300
1:2
140
1.0
141
2.0
290
     0
  0
SCALE
  5
4A
102
{ACAD_REACTORS
330
47
102
}
330
47
100
AcDbScale
 70
     0
300
1:4
140
1.0
141
4.0
290
     0
  0
SCALE
  5
4B
102
{ACAD_REACTORS
330
47
102
}
330
47
100
AcDbScale
 70
     0
300
1:5
140
1.0
141
5.0
290
     0
  0
SCALE
  5
4C
102
{ACAD_REACTORS
330
47
102
}
330
47
100
AcDbScale
 70
     0
300
1:8
140
1.0
141
8.0
290
     0
  0
SCALE
  5
4D
102
{ACAD_REACTORS
330
47
102
}
330
47
100
AcDbScale
 70
     0
300
1:10
140
1.0
141
10.0
290
     0
  0
SCALE
  5
4E
102
{ACAD_REACTORS
330
47
102
}
330
47
100
AcDbScale
 70
     0
300
1:16
140
1.0
141
16.0
290
     0
  0
SCALE
  5
4F
102
{ACAD_REACTORS
330
47
102
}
330
47
100
AcDbScale
 70
     0
300
1:20
140
1.0
141
20.0
290
     0
  0
SCALE
  5
50
102
{ACAD_REACTORS
330
47
102
}
330
47
100
AcDbScale
 70
     0
300
1:30
140
1.0
141
30.0
290
     0
  0
SCALE
  5
51
102
{ACAD_REACTORS
330
47
102
}
330
47
100
AcDbScale
 70
     0
300
1:40
140
1.0
141
40.0
290
     0
  0
SCALE
  5
52
102
{ACAD_REACTORS
330
47
102
}
330
47
100
AcDbScale
 70
     0
300
1:50
140
1.0
141
50.0
290
     0
  0
SCALE
  5
53
102
{ACAD_REACTORS
330
47
102
}
330
47
100
AcDbScale
 70
     0
300
1:100
140
1.0
141
100.0
290
     0
  0
SCALE
  5
54
102
{ACAD_REACTORS
330
47
102
}
330
47
100
AcDbScale
 70
     0
300
2:1
140
2.0
141
1.0
290
     0
  0
SCALE
  5
55
102
{ACAD_REACTORS
330
47
102
}
330
47
100
AcDbScale
 70
     0
300
4:1
140
4.0
141
1.0
290
     0
  0
SCALE
  5
56
102
{ACAD_REACTORS
330
47
102
}
330
47
100
AcDbScale
 70
     0
300
8:1
140
8.0
141
1.0
290
     0
  0
SCALE
  5
57
102
{ACAD_REACTORS
330
47
102
}
330
47
100
AcDbScale
 70
     0
300
10:1
140
10.0
141
1.0
290
     0
  0
SCALE
  5
58
102
{ACAD_REACTORS
330
47
102
}
330
47
100
AcDbScale
 70
     0
300
100:1
140
100.0
141
1.0
290
     0
  0
SCALE
  5
59
102
{ACAD_REACTORS
330
47
102
}
330
47
100
AcDbScale
 70
     0
300
1/128" = 1'-0"
140
0.0078125
141
12.0
290
     0
  0
SCALE
  5
5A
102
{ACAD_REACTORS
330
47
102
}
330
47
100
AcDbScale
 70
     0
300
1/64" = 1'-0"
140
0.015625
141
12.0
290
     0
  0
SCALE
  5
5B
102
{ACAD_REACTORS
330
47
102
}
330
47
100
AcDbScale
 70
     0
300
1/32" = 1'-0"
140
0.03125
141
12.0
290
     0
  0
SCALE
  5
5C
102
{ACAD_REACTORS
330
47
102
}
330
47
100
AcDbScale
 70
     0
300
1/16" = 1'-0"
140
0.0625
141
12.0
290
     0
  0
SCALE
  5
5D
102
{ACAD_REACTORS
330
47
102
}
330
47
100
AcDbScale
 70
     0
300
3/32" = 1'-0"
140
0.09375
141
12.0
290
     0
  0
SCALE
  5
5E
102
{ACAD_REACTORS
330
47
102
}
330
47
100
AcDbScale
 70
     0
300
1/8" = 1'-0"
140
0.125
141
12.0
290
     0
  0
SCALE
  5
5F
102
{ACAD_REACTORS
330
47
102
}
330
47
100
AcDbScale
 70
     0
300
3/16" = 1'-0"
140
0.1875
141
12.0
290
     0
  0
SCALE
  5
60
102
{ACAD_REACTORS
330
47
102
}
330
47
100
AcDbScale
 70
     0
300
1/4" = 1'-0"
140
0.25
141
12.0
290
     0
  0
SCALE
  5
61
102
{ACAD_REACTORS
330
47
102
}
330
47
100
AcDbScale
 70
     0
300
3/8" = 1'-0"
140
0.375
141
12.0
290
     0
  0
SCALE
  5
62
102
{ACAD_REACTORS
330
47
102
}
330
47
100
AcDbScale
 70
     0
300
1/2" = 1'-0"
140
0.5
141
12.0
290
     0
  0
SCALE
  5
63
102
{ACAD_REACTORS
330
47
102
}
330
47
100
AcDbScale
 70
     0
300
3/4" = 1'-0"
140
0.75
141
12.0
290
     0
  0
SCALE
  5
64
102
{ACAD_REACTORS
330
47
102
}
330
47
100
AcDbScale
 70
     0
300
1" = 1'-0"
140
1.0
141
12.0
290
     0
  0
SCALE
  5
65
102
{ACAD_REACTORS
330
47
102
}
330
47
100
AcDbScale
 70
     0
300
1-1/2" = 1'-0"
140
1.5
141
12.0
290
     0
  0
SCALE
  5
66
102
{ACAD_REACTORS
330
47
102
}
330
47
100
AcDbScale
 70
     0
300
3" = 1'-0"
140
3.0
141
12.0
290
     0
  0
SCALE
  5
67
102
{ACAD_REACTORS
330
47
102
}
330
47
100
AcDbScale
 70
     0
300
6" = 1'-0"
140
6.0
141
12.0
290
     0
  0
SCALE
  5
68
102
{ACAD_REACTORS
330
47
102
}
330
47
100
AcDbScale
 70
     0
300
1'-0" = 1'-0"
140
12.0
141
12.0
290
     0
  0
ENDSEC
  0
EOF
