  0
SECTION
  2
HEADER
  9
$ACADVER
  1
AC1015
  9
$ACADMAINTVER
 70
     6
  9
$DWGCODEPAGE
  3
ANSI_1250
  9
$INSBASE
 10
0.0
 20
0.0
 30
0.0
  9
$EXTMIN
 10
0.0
 20
0.0
 30
0.0
  9
$EXTMAX
 10
297.0
 20
210.0
 30
0.0
  9
$LIMMIN
 10
0.0
 20
0.0
  9
$LIMMAX
 10
297.0
 20
210.0
  9
$ORTHOMODE
 70
     0
  9
$REGENMODE
 70
     1
  9
$FILLMODE
 70
     1
  9
$QTEXTMODE
 70
     0
  9
$MIRRTEXT
 70
     1
  9
$LTSCALE
 40
1.0
  9
$ATTMODE
 70
     1
  9
$TEXTSIZE
 40
3.5
  9
$TRACEWID
 40
1.0
  9
$TEXTSTYLE
  7
Standard
  9
$CLAYER
  8
0
  9
$CELTYPE
  6
ByLayer
  9
$CECOLOR
 62
   256
  9
$CELTSCALE
 40
1.0
  9
$DISPSILH
 70
     0
  9
$DIMSCALE
 40
1.0
  9
$DIMASZ
 40
3.302
  9
$DIMEXO
 40
1.0
  9
$DIMDLI
 40
3.75
  9
$DIMRND
 40
0.0
  9
$DIMDLE
 40
0.0
  9
$DIMEXE
 40
1.0
  9
$DIMTP
 40
0.0
  9
$DIMTM
 40
0.0
  9
$DIMTXT
 40
3.5
  9
$DIMCEN
 40
2.5
  9
$DIMTSZ
 40
0.0
  9
$DIMTOL
 70
     0
  9
$DIMLIM
 70
     0
  9
$DIMTIH
 70
     1
  9
$DIMTOH
 70
     1
  9
$DIMSE1
 70
     0
  9
$DIMSE2
 70
     0
  9
$DIMTAD
 70
     1
  9
$DIMZIN
 70
     0
  9
$DIMBLK
  1

  9
$DIMASO
 70
     1
  9
$DIMSHO
 70
     1
  9
$DIMPOST
  1

  9
$DIMAPOST
  1

  9
$DIMALT
 70
     0
  9
$DIMALTD
 70
     3
  9
$DIMALTF
 40
0.0393700787
  9
$DIMLFAC
 40
1.0
  9
$DIMTOFL
 70
     1
  9
$DIMTVP
 40
0.0
  9
$DIMTIX
 70
     0
  9
$DIMSOXD
 70
     0
  9
$DIMSAH
 70
     0
  9
$DIMBLK1
  1

  9
$DIMBLK2
  1

  9
$DIMSTYLE
  2
ISO-25
  9
$DIMCLRD
 70
     0
  9
$DIMCLRE
 70
     0
  9
$DIMCLRT
 70
     0
  9
$DIMTFAC
 40
1.0
  9
$DIMGAP
 40
1.524
  9
$DIMJUST
 70
     0
  9
$DIMSD1
 70
     0
  9
$DIMSD2
 70
     0
  9
$DIMTOLJ
 70
     0
  9
$DIMTZIN
 70
     0
  9
$DIMALTZ
 70
     0
  9
$DIMALTTZ
 70
     0
  9
$DIMUPT
 70
     0
  9
$DIMDEC
 70
     2
  9
$DIMTDEC
 70
     2
  9
$DIMALTU
 70
     2
  9
$DIMALTTD
 70
     3
  9
$DIMTXSTY
  7
Standard
  9
$DIMAUNIT
 70
     0
  9
$DIMADEC
 70
     2
  9
$DIMALTRND
 40
0.0
  9
$DIMAZIN
 70
     0
  9
$DIMDSEP
 70
    44
  9
$DIMATFIT
 70
     3
  9
$DIMFRAC
 70
     0
  9
$DIMLDRBLK
  1

  9
$DIMLUNIT
 70
     2
  9
$DIMLWD
 70
    -2
  9
$DIMLWE
 70
    -2
  9
$DIMTMOVE
 70
     0
  9
$LUNITS
 70
     2
  9
$LUPREC
 70
     2
  9
$SKETCHINC
 40
1.0
  9
$FILLETRAD
 40
10.0
  9
$AUNITS
 70
     0
  9
$AUPREC
 70
     2
  9
$MENU
  1
.
  9
$ELEVATION
 40
0.0
  9
$PELEVATION
 40
0.0
  9
$THICKNESS
 40
0.0
  9
$LIMCHECK
 70
     0
  9
$CHAMFERA
 40
0.0
  9
$CHAMFERB
 40
0.0
  9
$CHAMFERC
 40
0.0
  9
$CHAMFERD
 40
0.0
  9
$SKPOLY
 70
     0
  9
$TDCREATE
 40
2459278.335950011
  9
$TDUCREATE
 40
2459278.294283345
  9
$TDUPDATE
 40
2459278.335951748
  9
$TDUUPDATE
 40
2459278.294285081
  9
$TDINDWG
 40
0.0000000116
  9
$TDUSRTIMER
 40
0.0000000116
  9
$USRTIMER
 70
     1
  9
$ANGBASE
 50
0.0
  9
$ANGDIR
 70
     0
  9
$PDMODE
 70
     0
  9
$PDSIZE
 40
-1.0
  9
$PLINEWID
 40
0.0
  9
$SPLFRAME
 70
     0
  9
$SPLINETYPE
 70
     6
  9
$SPLINESEGS
 70
     8
  9
$HANDSEED
  5
342
  9
$SURFTAB1
 70
     6
  9
$SURFTAB2
 70
     6
  9
$SURFTYPE
 70
     6
  9
$SURFU
 70
     6
  9
$SURFV
 70
     6
  9
$UCSBASE
  2

  9
$UCSNAME
  2

  9
$UCSORG
 10
0.0
 20
0.0
 30
0.0
  9
$UCSXDIR
 10
1.0
 20
0.0
 30
0.0
  9
$UCSYDIR
 10
0.0
 20
1.0
 30
0.0
  9
$UCSORTHOREF
  2

  9
$UCSORTHOVIEW
 70
     0
  9
$UCSORGTOP
 10
0.0
 20
0.0
 30
0.0
  9
$UCSORGBOTTOM
 10
0.0
 20
0.0
 30
0.0
  9
$UCSORGLEFT
 10
0.0
 20
0.0
 30
0.0
  9
$UCSORGRIGHT
 10
0.0
 20
0.0
 30
0.0
  9
$UCSORGFRONT
 10
0.0
 20
0.0
 30
0.0
  9
$UCSORGBACK
 10
0.0
 20
0.0
 30
0.0
  9
$PUCSBASE
  2

  9
$PUCSNAME
  2

  9
$PUCSORG
 10
0.0
 20
0.0
 30
0.0
  9
$PUCSXDIR
 10
1.0
 20
0.0
 30
0.0
  9
$PUCSYDIR
 10
0.0
 20
1.0
 30
0.0
  9
$PUCSORTHOREF
  2

  9
$PUCSORTHOVIEW
 70
     0
  9
$PUCSORGTOP
 10
0.0
 20
0.0
 30
0.0
  9
$PUCSORGBOTTOM
 10
0.0
 20
0.0
 30
0.0
  9
$PUCSORGLEFT
 10
0.0
 20
0.0
 30
0.0
  9
$PUCSORGRIGHT
 10
0.0
 20
0.0
 30
0.0
  9
$PUCSORGFRONT
 10
0.0
 20
0.0
 30
0.0
  9
$PUCSORGBACK
 10
0.0
 20
0.0
 30
0.0
  9
$USERI1
 70
     0
  9
$USERI2
 70
     0
  9
$USERI3
 70
     0
  9
$USERI4
 70
     0
  9
$USERI5
 70
     0
  9
$USERR1
 40
0.0
  9
$USERR2
 40
0.0
  9
$USERR3
 40
0.0
  9
$USERR4
 40
0.0
  9
$USERR5
 40
0.0
  9
$WORLDVIEW
 70
     1
  9
$SHADEDGE
 70
     3
  9
$SHADEDIF
 70
    70
  9
$TILEMODE
 70
     1
  9
$MAXACTVP
 70
    64
  9
$PINSBASE
 10
0.0
 20
0.0
 30
0.0
  9
$PLIMCHECK
 70
     0
  9
$PEXTMIN
 10
1.0000000000E+20
 20
1.0000000000E+20
 30
1.0000000000E+20
  9
$PEXTMAX
 10
-1.0000000000E+20
 20
-1.0000000000E+20
 30
-1.0000000000E+20
  9
$PLIMMIN
 10
0.0
 20
0.0
  9
$PLIMMAX
 10
420.0
 20
297.0
  9
$UNITMODE
 70
     0
  9
$VISRETAIN
 70
     1
  9
$PLINEGEN
 70
     0
  9
$PSLTSCALE
 70
     1
  9
$TREEDEPTH
 70
  3020
  9
$CMLSTYLE
  2
Standard
  9
$CMLJUST
 70
     0
  9
$CMLSCALE
 40
20.0
  9
$PROXYGRAPHICS
 70
     1
  9
$MEASUREMENT
 70
     1
  9
$CELWEIGHT
370
    -1
  9
$ENDCAPS
280
     0
  9
$JOINSTYLE
280
     0
  9
$LWDISPLAY
290
     1
  9
$INSUNITS
 70
     4
  9
$HYPERLINKBASE
  1

  9
$STYLESHEET
  1

  9
$XEDIT
290
     1
  9
$CEPSNTYPE
380
     0
  9
$PSTYLEMODE
290
     1
  9
$FINGERPRINTGUID
  2
{7FFC300A-741E-44CA-8938-65822AF9C4F1}
  9
$VERSIONGUID
  2
{FAEB1C32-E019-11D5-929B-00C0DF256EC4}
  9
$EXTNAMES
290
     1
  9
$PSVPSCALE
 40
0.0
  9
$OLESTARTUP
290
     0
  0
ENDSEC
  0
SECTION
  2
CLASSES
  0
CLASS
  1
ACDBDICTIONARYWDFLT
  2
AcDbDictionaryWithDefault
  3
ObjectDBX Classes
 90
        0
280
     0
281
     0
  0
CLASS
  1
VISUALSTYLE
  2
AcDbVisualStyle
  3
ObjectDBX Classes
 90
     4095
280
     0
281
     0
  0
CLASS
  1
MATERIAL
  2
AcDbMaterial
  3
ObjectDBX Classes
 90
     1153
280
     0
281
     0
  0
CLASS
  1
SCALE
  2
AcDbScale
  3
ObjectDBX Classes
 90
     1153
280
     0
281
     0
  0
CLASS
  1
TABLESTYLE
  2
AcDbTableStyle
  3
ObjectDBX Classes
 90
     4095
280
     0
281
     0
  0
CLASS
  1
MLEADERSTYLE
  2
AcDbMLeaderStyle
  3
ACDB_MLEADERSTYLE_CLASS
 90
     4095
280
     0
281
     0
  0
CLASS
  1
SUN
  2
AcDbSun
  3
SCENEOE
 90
     1153
280
     0
281
     0
  0
CLASS
  1
ACDBPLACEHOLDER
  2
AcDbPlaceHolder
  3
ObjectDBX Classes
 90
        0
280
     0
281
     0
  0
CLASS
  1
LAYOUT
  2
AcDbLayout
  3
ObjectDBX Classes
 90
        0
280
     0
281
     0
  0
ENDSEC
  0
SECTION
  2
TABLES
  0
TABLE
  2
VPORT
  5
8
330
0
100
AcDbSymbolTable
 70
     1
  0
VPORT
  5
29
330
8
100
AcDbSymbolTableRecord
100
AcDbViewportTableRecord
  2
*Active
 70
     0
 10
0.0
 20
0.0
 11
1.0
 21
1.0
 12
148.5
 22
105.0
 13
0.0
 23
0.0
 14
10.0
 24
10.0
 15
10.0
 25
10.0
 16
0.0
 26
0.0
 36
1.0
 17
0.0
 27
0.0
 37
0.0
 40
210.0
 41
1.4142857143
 42
50.0
 43
0.0
 44
0.0
 50
0.0
 51
0.0
 71
     0
 72
  2000
 73
     1
 74
     3
 75
     0
 76
     0
 77
     0
 78
     0
281
     0
 65
     1
110
0.0
120
0.0
130
0.0
111
1.0
121
0.0
131
0.0
112
0.0
122
1.0
132
0.0
 79
     0
146
0.0
  0
ENDTAB
  0
TABLE
  2
LTYPE
  5
5
330
0
100
AcDbSymbolTable
 70
     8
  0
LTYPE
  5
14
330
5
100
AcDbSymbolTableRecord
100
AcDbLinetypeTableRecord
  2
ByBlock
 70
     0
  3

 72
    65
 73
     0
 40
0.0
  0
LTYPE
  5
15
330
5
100
AcDbSymbolTableRecord
100
AcDbLinetypeTableRecord
  2
ByLayer
 70
     0
  3

 72
    65
 73
     0
 40
0.0
  0
LTYPE
  5
16
330
5
100
AcDbSymbolTableRecord
100
AcDbLinetypeTableRecord
  2
Continuous
 70
     0
  3
Solid line
 72
    65
 73
     0
 40
0.0
  0
LTYPE
  5
6E
330
5
100
AcDbSymbolTableRecord
100
AcDbLinetypeTableRecord
  2
SLD-Solid
 70
     0
  3
SolidWorks Line Style
 72
    65
 73
     0
 40
0.0
  0
LTYPE
  5
6F
330
5
100
AcDbSymbolTableRecord
100
AcDbLinetypeTableRecord
  2
SLD-Dashed
 70
     0
  3
SolidWorks Line Style
 72
    65
 73
     2
 40
1.905
 49
1.27
 74
     0
 49
-0.635
 74
     0
  0
LTYPE
  5
70
330
5
100
AcDbSymbolTableRecord
100
AcDbLinetypeTableRecord
  2
SLD-Phantom
 70
     0
  3
SolidWorks Line Style
 72
    65
 73
     6
 40
12.7
 49
6.35
 74
     0
 49
-1.27
 74
     0
 49
1.27
 74
     0
 49
-1.27
 74
     0
 49
1.27
 74
     0
 49
-1.27
 74
     0
  0
LTYPE
  5
71
330
5
100
AcDbSymbolTableRecord
100
AcDbLinetypeTableRecord
  2
SLD-Chain
 70
     0
  3
SolidWorks Line Style
 72
    65
 73
     4
 40
10.16
 49
6.35
 74
     0
 49
-1.27
 74
     0
 49
1.27
 74
     0
 49
-1.27
 74
     0
  0
LTYPE
  5
72
330
5
100
AcDbSymbolTableRecord
100
AcDbLinetypeTableRecord
  2
SLD-Center
 70
     0
  3
SolidWorks Line Style
 72
    65
 73
     4
 40
19.05
 49
15.24
 74
     0
 49
-1.27
 74
     0
 49
1.27
 74
     0
 49
-1.27
 74
     0
  0
LTYPE
  5
73
330
5
100
AcDbSymbolTableRecord
100
AcDbLinetypeTableRecord
  2
SLD-Stitch
 70
     0
  3
SolidWorks Line Style
 72
    65
 73
     2
 40
0.635
 49
0.0
 74
     0
 49
-0.635
 74
     0
  0
LTYPE
  5
74
330
5
100
AcDbSymbolTableRecord
100
AcDbLinetypeTableRecord
  2
SLD-Thin-Thick-Chain
 70
     0
  3
SolidWorks Line Style
 72
    65
 73
     4
 40
10.16
 49
6.35
 74
     0
 49
-1.27
 74
     0
 49
1.27
 74
     0
 49
-1.27
 74
     0
  0
ENDTAB
  0
TABLE
  2
LAYER
  5
2
330
0
100
AcDbSymbolTable
 70
    14
  0
LAYER
  5
10
330
2
100
AcDbSymbolTableRecord
100
AcDbLayerTableRecord
  2
0
 70
     0
 62
     7
  6
Continuous
370
    -3
390
F
  0
LAYER
  5
75
330
2
100
AcDbSymbolTableRecord
100
AcDbLayerTableRecord
  2
SLD-0
 70
     0
 62
   179
  6
SLD-Solid
370
    -3
390
F
  0
LAYER
  5
76
330
2
100
AcDbSymbolTableRecord
100
AcDbLayerTableRecord
  2
80
 70
     0
 62
    -6
  6
SLD-Solid
290
     0
370
    -3
390
F
  0
LAYER
  5
77
330
2
100
AcDbSymbolTableRecord
100
AcDbLayerTableRecord
  2
81
 70
     0
 62
    -3
  6
SLD-Solid
290
     0
370
    -3
390
F
  0
LAYER
  5
78
330
2
100
AcDbSymbolTableRecord
100
AcDbLayerTableRecord
  2
1
 70
     0
 62
     4
  6
SLD-Solid
290
     0
370
    -3
390
F
  0
LAYER
  5
79
330
2
100
AcDbSymbolTableRecord
100
AcDbLayerTableRecord
  2
4
 70
     0
 62
    -2
  6
SLD-Chain
290
     0
370
    -3
390
F
  0
LAYER
  5
7A
330
2
100
AcDbSymbolTableRecord
100
AcDbLayerTableRecord
  2
2
 70
     0
 62
     7
  6
SLD-Solid
290
     0
370
    -3
390
F
  0
LAYER
  5
7B
330
2
100
AcDbSymbolTableRecord
100
AcDbLayerTableRecord
  2
SK3
 70
     0
 62
     1
  6
SLD-Dashed
290
     0
370
    -3
390
F
  0
LAYER
  5
7C
330
2
100
AcDbSymbolTableRecord
100
AcDbLayerTableRecord
  2
SK4
 70
     0
 62
     2
  6
SLD-Chain
290
     0
370
    -3
390
F
  0
LAYER
  5
7D
330
2
100
AcDbSymbolTableRecord
100
AcDbLayerTableRecord
  2
SK2
 70
     0
 62
     7
  6
SLD-Solid
290
     0
370
    -3
390
F
  0
LAYER
  5
7E
330
2
100
AcDbSymbolTableRecord
100
AcDbLayerTableRecord
  2
SK6
 70
     0
 62
     5
  6
SLD-Solid
290
     0
370
    -3
390
F
  0
LAYER
  5
7F
330
2
100
AcDbSymbolTableRecord
100
AcDbLayerTableRecord
  2
6
 70
     0
 62
     5
  6
SLD-Solid
370
    -3
390
F
  0
LAYER
  5
80
330
2
100
AcDbSymbolTableRecord
100
AcDbLayerTableRecord
  2
SK1
 70
     0
 62
     4
  6
SLD-Solid
370
    -3
390
F
  0
LAYER
  5
81
330
2
100
AcDbSymbolTableRecord
100
AcDbLayerTableRecord
  2
LAYER5
 70
     0
 62
   218
  6
SLD-Solid
370
    -3
390
F
  0
ENDTAB
  0
TABLE
  2
STYLE
  5
3
330
0
100
AcDbSymbolTable
 70
     3
  0
STYLE
  5
11
330
3
100
AcDbSymbolTableRecord
100
AcDbTextStyleTableRecord
  2
Standard
 70
     0
 40
0.0
 41
1.0
 50
0.0
 71
     0
 42
3.5
  3
txt
  4

  0
STYLE
  5
268
330
3
100
AcDbSymbolTableRecord
100
AcDbTextStyleTableRecord
  2
SLDTEXTSTYLE0
 70
     0
 40
0.0
 41
0.75
 50
0.0
 71
     0
 42
3.5
  3
TXT
  4

  0
STYLE
  5
33E
330
3
100
AcDbSymbolTableRecord
100
AcDbTextStyleTableRecord
  2
SLDTEXTSTYLE1
 70
     0
 40
0.0
 41
0.6666666667
 50
0.0
 71
     0
 42
3.5
  3
TXT
  4

  0
ENDTAB
  0
TABLE
  2
VIEW
  5
6
330
0
100
AcDbSymbolTable
 70
     0
  0
ENDTAB
  0
TABLE
  2
UCS
  5
7
330
0
100
AcDbSymbolTable
 70
     0
  0
ENDTAB
  0
TABLE
  2
APPID
  5
9
330
0
100
AcDbSymbolTable
 70
     1
  0
APPID
  5
12
330
9
100
AcDbSymbolTableRecord
100
AcDbRegAppTableRecord
  2
ACAD
 70
     0
  0
ENDTAB
  0
TABLE
  2
DIMSTYLE
  5
A
330
0
100
AcDbSymbolTable
 70
     5
100
AcDbDimStyleTable
  0
DIMSTYLE
105
27
330
A
100
AcDbSymbolTableRecord
100
AcDbDimStyleTableRecord
  2
ISO-25
 70
     0
 41
2.5
 42
0.625
 43
3.75
 44
1.25
 73
     0
 74
     0
 77
     1
 78
     8
140
2.5
141
2.5
143
0.0393700787
147
0.625
171
     3
172
     1
178
     0
271
     2
272
     2
274
     3
278
    44
283
     0
284
     8
340
11
  0
DIMSTYLE
105
269
102
{ACAD_REACTORS
330
267
330
27C
330
28F
330
2A2
330
2D3
330
2E5
330
30A
102
}
330
A
100
AcDbSymbolTableRecord
100
AcDbDimStyleTableRecord
  2
SLDDIMSTYLE0
 70
     0
 41
3.302
 44
0.0
 45
0.000000001
 73
     0
 74
     0
 77
     1
 78
    12
 79
     3
140
3.5
143
0.0393700787
147
0.875
148
0.000000001
170
     1
173
     1
178
     0
271
     2
272
     2
276
     2
284
    12
340
268
  0
DIMSTYLE
105
2B6
102
{ACAD_REACTORS
330
2B5
330
32A
330
335
102
}
330
A
100
AcDbSymbolTableRecord
100
AcDbDimStyleTableRecord
  2
SLDDIMSTYLE1
 70
     0
 41
3.302
 44
0.0
 45
0.000000001
 73
     0
 74
     0
 77
     1
 78
    12
 79
     3
140
3.5
147
0.875
173
     1
178
     0
271
     2
272
     2
276
     2
284
    12
340
268
  0
DIMSTYLE
105
2C1
102
{ACAD_REACTORS
330
2C0
330
2F7
102
}
330
A
100
AcDbSymbolTableRecord
100
AcDbDimStyleTableRecord
  2
SLDDIMSTYLE2
 70
     0
 41
3.302
 44
0.0
 45
0.000000001
 73
     0
 74
     0
 77
     1
 78
    12
 79
     3
140
3.5
143
0.0393700787
147
0.875
148
0.000000001
170
     1
173
     1
178
     0
271
     3
272
     2
276
     2
284
    12
340
268
  0
DIMSTYLE
105
31E
102
{ACAD_REACTORS
330
31D
102
}
330
A
100
AcDbSymbolTableRecord
100
AcDbDimStyleTableRecord
  2
SLDDIMSTYLE3
 70
     0
 41
3.302
 44
0.0
 45
0.000000001
 73
     0
 74
     0
 77
     1
 78
    12
 79
     3
140
3.5
147
0.875
172
     1
173
     1
178
     0
271
     2
272
     2
276
     2
284
    12
289
     0
340
268
  0
ENDTAB
  0
TABLE
  2
BLOCK_RECORD
  5
1
330
0
100
AcDbSymbolTable
 70
    14
  0
BLOCK_RECORD
  5
1F
330
1
100
AcDbSymbolTableRecord
100
AcDbBlockTableRecord
  2
*Model_Space
340
22
  0
BLOCK_RECORD
  5
1B
330
1
100
AcDbSymbolTableRecord
100
AcDbBlockTableRecord
  2
*Paper_Space
340
1E
  0
BLOCK_RECORD
  5
23
330
1
100
AcDbSymbolTableRecord
100
AcDbBlockTableRecord
  2
*Paper_Space0
340
26
  0
BLOCK_RECORD
  5
26A
330
1
100
AcDbSymbolTableRecord
100
AcDbBlockTableRecord
  2
_D
340
0
  0
BLOCK_RECORD
  5
27D
330
1
100
AcDbSymbolTableRecord
100
AcDbBlockTableRecord
  2
_D_1
340
0
  0
BLOCK_RECORD
  5
290
330
1
100
AcDbSymbolTableRecord
100
AcDbBlockTableRecord
  2
_D_2
340
0
  0
BLOCK_RECORD
  5
2A3
330
1
100
AcDbSymbolTableRecord
100
AcDbBlockTableRecord
  2
_D_3
340
0
  0
BLOCK_RECORD
  5
2B7
330
1
100
AcDbSymbolTableRecord
100
AcDbBlockTableRecord
  2
_D_4
340
0
  0
BLOCK_RECORD
  5
2C2
330
1
100
AcDbSymbolTableRecord
100
AcDbBlockTableRecord
  2
_D_5
340
0
  0
BLOCK_RECORD
  5
2D4
330
1
100
AcDbSymbolTableRecord
100
AcDbBlockTableRecord
  2
_D_6
340
0
  0
BLOCK_RECORD
  5
2E6
330
1
100
AcDbSymbolTableRecord
100
AcDbBlockTableRecord
  2
_D_7
340
0
  0
BLOCK_RECORD
  5
2F8
330
1
100
AcDbSymbolTableRecord
100
AcDbBlockTableRecord
  2
_D_8
340
0
  0
BLOCK_RECORD
  5
30B
330
1
100
AcDbSymbolTableRecord
100
AcDbBlockTableRecord
  2
_D_9
340
0
  0
BLOCK_RECORD
  5
31F
330
1
100
AcDbSymbolTableRecord
100
AcDbBlockTableRecord
  2
_D_10
340
0
  0
BLOCK_RECORD
  5
32B
330
1
100
AcDbSymbolTableRecord
100
AcDbBlockTableRecord
  2
_D_11
340
0
  0
BLOCK_RECORD
  5
336
330
1
100
AcDbSymbolTableRecord
100
AcDbBlockTableRecord
  2
_D_12
340
0
  0
ENDTAB
  0
ENDSEC
  0
SECTION
  2
BLOCKS
  0
BLOCK
  5
20
330
1F
100
AcDbEntity
  8
0
100
AcDbBlockBegin
  2
*Model_Space
 70
     0
 10
0.0
 20
0.0
 30
0.0
  3
*Model_Space
  1

  0
ENDBLK
  5
21
330
1F
100
AcDbEntity
  8
0
100
AcDbBlockEnd
  0
BLOCK
  5
1C
330
1B
100
AcDbEntity
 67
     1
  8
0
100
AcDbBlockBegin
  2
*Paper_Space
 70
     0
 10
0.0
 20
0.0
 30
0.0
  3
*Paper_Space
  1

  0
ENDBLK
  5
1D
330
1B
100
AcDbEntity
 67
     1
  8
0
100
AcDbBlockEnd
  0
BLOCK
  5
24
330
23
100
AcDbEntity
  8
0
100
AcDbBlockBegin
  2
*Paper_Space0
 70
     0
 10
0.0
 20
0.0
 30
0.0
  3
*Paper_Space0
  1

  0
ENDBLK
  5
25
330
23
100
AcDbEntity
  8
0
100
AcDbBlockEnd
  0
BLOCK
  5
26B
330
26A
100
AcDbEntity
  8
0
100
AcDbBlockBegin
  2
_D
 70
     0
 10
0.0
 20
0.0
 30
0.0
  3
_D
  1

  0
SOLID
  5
26D
330
26A
100
AcDbEntity
  8
2
100
AcDbTrace
 10
0.0
 20
69.7550204951
 30
0.0
 11
3.302
 21
69.2470204951
 31
0.0
 12
3.302
 22
70.2630204951
 32
0.0
 13
3.302
 23
70.2630204951
 33
0.0
  0
SOLID
  5
26E
330
26A
100
AcDbEntity
  8
2
100
AcDbTrace
 10
95.25
 20
69.7550204951
 30
0.0
 11
91.948
 21
70.2630204951
 31
0.0
 12
91.948
 22
69.2470204951
 32
0.0
 13
91.948
 23
69.2470204951
 33
0.0
  0
LINE
  5
26F
330
26A
100
AcDbEntity
  8
2
100
AcDbLine
 10
24.5762676258
 20
80.5479022112
 30
0.0
 11
23.5098613684
 21
80.5479022112
 31
0.0
  0
LINE
  5
270
330
26A
100
AcDbEntity
  8
2
100
AcDbLine
 10
23.5098613684
 20
80.5479022112
 30
0.0
 11
23.5098613684
 21
74.9916522201
 31
0.0
  0
LINE
  5
271
330
26A
100
AcDbEntity
  8
2
100
AcDbLine
 10
23.5098613684
 20
74.9916522201
 30
0.0
 11
24.5762676258
 21
74.9916522201
 31
0.0
  0
LINE
  5
272
330
26A
100
AcDbEntity
  8
2
100
AcDbLine
 10
33.6276566867
 20
80.5479022112
 30
0.0
 11
34.6940629442
 21
80.5479022112
 31
0.0
  0
LINE
  5
273
330
26A
100
AcDbEntity
  8
2
100
AcDbLine
 10
34.6940629442
 20
80.5479022112
 30
0.0
 11
34.6940629442
 21
74.9916522201
 31
0.0
  0
LINE
  5
274
330
26A
100
AcDbEntity
  8
2
100
AcDbLine
 10
34.6940629442
 20
74.9916522201
 30
0.0
 11
33.6276566867
 21
74.9916522201
 31
0.0
  0
LINE
  5
275
330
26A
100
AcDbEntity
  8
2
100
AcDbLine
 10
0.0
 20
35.925
 30
0.0
 11
0.0
 21
70.7550204951
 31
0.0
  0
LINE
  5
276
330
26A
100
AcDbEntity
  8
2
100
AcDbLine
 10
95.25
 20
15.605
 30
0.0
 11
95.25
 21
70.7550204951
 31
0.0
  0
LINE
  5
277
330
26A
100
AcDbEntity
  8
2
100
AcDbLine
 10
0.0
 20
69.7550204951
 30
0.0
 11
95.25
 21
69.7550204951
 31
0.0
  0
MTEXT
  5
278
330
26A
100
AcDbEntity
  8
2
100
AcDbMText
 10
22.4628995142
 20
74.320229761
 30
0.0
 40
3.5
 41
0.0
 71
     1
 72
     1
  1

  7
SLDTEXTSTYLE0
 73
     1
 44
1.0
  0
MTEXT
  5
279
330
26A
100
AcDbEntity
  8
2
100
AcDbMText
 10
24.5762676258
 20
79.5033891347
 30
0.0
 40
3.5
 41
0.0
 71
     1
 72
     1
  1
3,75
  7
SLDTEXTSTYLE0
 73
     1
 44
1.0
  0
MTEXT
  5
27A
330
26A
100
AcDbEntity
  8
2
100
AcDbMText
 10
23.2832119126
 20
74.2667575843
 30
0.0
 40
3.5
 41
0.0
 71
     1
 72
     1
  1
95,25
  7
SLDTEXTSTYLE0
 73
     1
 44
1.0
  0
MTEXT
  5
27B
330
26A
100
AcDbEntity
  8
2
100
AcDbMText
 10
37.0729693181
 20
74.320229761
 30
0.0
 40
3.5
 41
0.0
 71
     1
 72
     1
  1

  7
SLDTEXTSTYLE0
 73
     1
 44
1.0
  0
ENDBLK
  5
26C
330
26A
100
AcDbEntity
  8
0
100
AcDbBlockEnd
  0
BLOCK
  5
27E
330
27D
100
AcDbEntity
  8
0
100
AcDbBlockBegin
  2
_D_1
 70
     0
 10
0.0
 20
0.0
 30
0.0
  3
_D_1
  1

  0
SOLID
  5
280
330
27D
100
AcDbEntity
  8
SK2
100
AcDbTrace
 10
19.05
 20
56.061544924
 30
0.0
 11
22.352
 21
55.553544924
 31
0.0
 12
22.352
 22
56.569544924
 32
0.0
 13
22.352
 23
56.569544924
 33
0.0
  0
SOLID
  5
281
330
27D
100
AcDbEntity
  8
SK2
100
AcDbTrace
 10
95.25
 20
56.061544924
 30
0.0
 11
91.948
 21
56.569544924
 31
0.0
 12
91.948
 22
55.553544924
 32
0.0
 13
91.948
 23
55.553544924
 33
0.0
  0
LINE
  5
282
330
27D
100
AcDbEntity
  8
SK2
100
AcDbLine
 10
49.7521878416
 20
66.85442664
 30
0.0
 11
48.6857815842
 21
66.85442664
 31
0.0
  0
LINE
  5
283
330
27D
100
AcDbEntity
  8
SK2
100
AcDbLine
 10
48.6857815842
 20
66.85442664
 30
0.0
 11
48.6857815842
 21
61.298176649
 31
0.0
  0
LINE
  5
284
330
27D
100
AcDbEntity
  8
SK2
100
AcDbLine
 10
48.6857815842
 20
61.298176649
 30
0.0
 11
49.7521878416
 21
61.298176649
 31
0.0
  0
LINE
  5
285
330
27D
100
AcDbEntity
  8
SK2
100
AcDbLine
 10
58.8035769026
 20
66.85442664
 30
0.0
 11
59.86998316
 21
66.85442664
 31
0.0
  0
LINE
  5
286
330
27D
100
AcDbEntity
  8
SK2
100
AcDbLine
 10
59.86998316
 20
66.85442664
 30
0.0
 11
59.86998316
 21
61.298176649
 31
0.0
  0
LINE
  5
287
330
27D
100
AcDbEntity
  8
SK2
100
AcDbLine
 10
59.86998316
 20
61.298176649
 30
0.0
 11
58.8035769026
 21
61.298176649
 31
0.0
  0
LINE
  5
288
330
27D
100
AcDbEntity
  8
SK2
100
AcDbLine
 10
19.05
 20
47.5560855313
 30
0.0
 11
19.05
 21
57.061544924
 31
0.0
  0
LINE
  5
289
330
27D
100
AcDbEntity
  8
SK2
100
AcDbLine
 10
95.25
 20
15.605
 30
0.0
 11
95.25
 21
57.061544924
 31
0.0
  0
LINE
  5
28A
330
27D
100
AcDbEntity
  8
SK2
100
AcDbLine
 10
19.05
 20
56.061544924
 30
0.0
 11
95.25
 21
56.061544924
 31
0.0
  0
MTEXT
  5
28B
330
27D
100
AcDbEntity
  8
SK2
100
AcDbMText
 10
47.63881973
 20
60.6267541898
 30
0.0
 40
3.5
 41
0.0
 71
     1
 72
     1
  1

  7
SLDTEXTSTYLE0
 73
     1
 44
1.0
  0
MTEXT
  5
28C
330
27D
100
AcDbEntity
  8
SK2
100
AcDbMText
 10
49.7521878416
 20
65.8099135635
 30
0.0
 40
3.5
 41
0.0
 71
     1
 72
     1
  1
3,00
  7
SLDTEXTSTYLE0
 73
     1
 44
1.0
  0
MTEXT
  5
28D
330
27D
100
AcDbEntity
  8
SK2
100
AcDbMText
 10
49.7521878416
 20
60.5732820132
 30
0.0
 40
3.5
 41
0.0
 71
     1
 72
     1
  1
76,2
  7
SLDTEXTSTYLE0
 73
     1
 44
1.0
  0
MTEXT
  5
28E
330
27D
100
AcDbEntity
  8
SK2
100
AcDbMText
 10
62.2488895339
 20
60.6267541898
 30
0.0
 40
3.5
 41
0.0
 71
     1
 72
     1
  1

  7
SLDTEXTSTYLE0
 73
     1
 44
1.0
  0
ENDBLK
  5
27F
330
27D
100
AcDbEntity
  8
0
100
AcDbBlockEnd
  0
BLOCK
  5
291
330
290
100
AcDbEntity
  8
0
100
AcDbBlockBegin
  2
_D_2
 70
     0
 10
0.0
 20
0.0
 30
0.0
  3
_D_2
  1

  0
SOLID
  5
293
330
290
100
AcDbEntity
  8
SK2
100
AcDbTrace
 10
35.1
 20
43.3169324358
 30
0.0
 11
38.402
 21
42.8089324358
 31
0.0
 12
38.402
 22
43.8249324358
 32
0.0
 13
38.402
 23
43.8249324358
 33
0.0
  0
SOLID
  5
294
330
290
100
AcDbEntity
  8
SK2
100
AcDbTrace
 10
95.25
 20
43.3169324358
 30
0.0
 11
91.948
 21
43.8249324358
 31
0.0
 12
91.948
 22
42.8089324358
 32
0.0
 13
91.948
 23
42.8089324358
 33
0.0
  0
LINE
  5
295
330
290
100
AcDbEntity
  8
SK2
100
AcDbLine
 10
62.3974132982
 20
54.1098141519
 30
0.0
 11
61.3310070407
 21
54.1098141519
 31
0.0
  0
LINE
  5
296
330
290
100
AcDbEntity
  8
SK2
100
AcDbLine
 10
61.3310070407
 20
54.1098141519
 30
0.0
 11
61.3310070407
 21
48.5535641608
 31
0.0
  0
LINE
  5
297
330
290
100
AcDbEntity
  8
SK2
100
AcDbLine
 10
61.3310070407
 20
48.5535641608
 30
0.0
 11
62.3974132982
 21
48.5535641608
 31
0.0
  0
LINE
  5
298
330
290
100
AcDbEntity
  8
SK2
100
AcDbLine
 10
71.4488023591
 20
54.1098141519
 30
0.0
 11
72.5152086165
 21
54.1098141519
 31
0.0
  0
LINE
  5
299
330
290
100
AcDbEntity
  8
SK2
100
AcDbLine
 10
72.5152086165
 20
54.1098141519
 30
0.0
 11
72.5152086165
 21
48.5535641608
 31
0.0
  0
LINE
  5
29A
330
290
100
AcDbEntity
  8
SK2
100
AcDbLine
 10
72.5152086165
 20
48.5535641608
 30
0.0
 11
71.4488023591
 21
48.5535641608
 31
0.0
  0
LINE
  5
29B
330
290
100
AcDbEntity
  8
SK2
100
AcDbLine
 10
35.1
 20
35.163
 30
0.0
 11
35.1
 21
44.3169324358
 31
0.0
  0
LINE
  5
29C
330
290
100
AcDbEntity
  8
SK2
100
AcDbLine
 10
95.25
 20
15.605
 30
0.0
 11
95.25
 21
44.3169324358
 31
0.0
  0
LINE
  5
29D
330
290
100
AcDbEntity
  8
SK2
100
AcDbLine
 10
35.1
 20
43.3169324358
 30
0.0
 11
95.25
 21
43.3169324358
 31
0.0
  0
MTEXT
  5
29E
330
290
100
AcDbEntity
  8
SK2
100
AcDbMText
 10
60.2840451865
 20
47.8821417017
 30
0.0
 40
3.5
 41
0.0
 71
     1
 72
     1
  1

  7
SLDTEXTSTYLE0
 73
     1
 44
1.0
  0
MTEXT
  5
29F
330
290
100
AcDbEntity
  8
SK2
100
AcDbMText
 10
62.3974132982
 20
53.0653010754
 30
0.0
 40
3.5
 41
0.0
 71
     1
 72
     1
  1
2,37
  7
SLDTEXTSTYLE0
 73
     1
 44
1.0
  0
MTEXT
  5
2A0
330
290
100
AcDbEntity
  8
SK2
100
AcDbMText
 10
61.104357585
 20
47.828669525
 30
0.0
 40
3.5
 41
0.0
 71
     1
 72
     1
  1
60,15
  7
SLDTEXTSTYLE0
 73
     1
 44
1.0
  0
MTEXT
  5
2A1
330
290
100
AcDbEntity
  8
SK2
100
AcDbMText
 10
74.8941149904
 20
47.8821417017
 30
0.0
 40
3.5
 41
0.0
 71
     1
 72
     1
  1

  7
SLDTEXTSTYLE0
 73
     1
 44
1.0
  0
ENDBLK
  5
292
330
290
100
AcDbEntity
  8
0
100
AcDbBlockEnd
  0
BLOCK
  5
2A4
330
2A3
100
AcDbEntity
  8
0
100
AcDbBlockBegin
  2
_D_3
 70
     0
 10
0.0
 20
0.0
 30
0.0
  3
_D_3
  1

  0
SOLID
  5
2A6
330
2A3
100
AcDbEntity
  8
SK2
100
AcDbTrace
 10
69.85
 20
29.6825219275
 30
0.0
 11
73.152
 21
29.1745219275
 31
0.0
 12
73.152
 22
30.1905219275
 32
0.0
 13
73.152
 23
30.1905219275
 33
0.0
  0
SOLID
  5
2A7
330
2A3
100
AcDbEntity
  8
SK2
100
AcDbTrace
 10
95.25
 20
29.6825219275
 30
0.0
 11
91.948
 21
30.1905219275
 31
0.0
 12
91.948
 22
29.1745219275
 32
0.0
 13
91.948
 23
29.1745219275
 33
0.0
  0
LINE
  5
2A8
330
2A3
100
AcDbEntity
  8
SK2
100
AcDbLine
 10
78.2383115729
 20
40.4754036435
 30
0.0
 11
77.1719053154
 21
40.4754036435
 31
0.0
  0
LINE
  5
2A9
330
2A3
100
AcDbEntity
  8
SK2
100
AcDbLine
 10
77.1719053154
 20
40.4754036435
 30
0.0
 11
77.1719053154
 21
34.9191536525
 31
0.0
  0
LINE
  5
2AA
330
2A3
100
AcDbEntity
  8
SK2
100
AcDbLine
 10
77.1719053154
 20
34.9191536525
 30
0.0
 11
78.2383115729
 21
34.9191536525
 31
0.0
  0
LINE
  5
2AB
330
2A3
100
AcDbEntity
  8
SK2
100
AcDbLine
 10
87.2897006338
 20
40.4754036435
 30
0.0
 11
88.3561068913
 21
40.4754036435
 31
0.0
  0
LINE
  5
2AC
330
2A3
100
AcDbEntity
  8
SK2
100
AcDbLine
 10
88.3561068913
 20
40.4754036435
 30
0.0
 11
88.3561068913
 21
34.9191536525
 31
0.0
  0
LINE
  5
2AD
330
2A3
100
AcDbEntity
  8
SK2
100
AcDbLine
 10
88.3561068913
 20
34.9191536525
 30
0.0
 11
87.2897006338
 21
34.9191536525
 31
0.0
  0
LINE
  5
2AE
330
2A3
100
AcDbEntity
  8
SK2
100
AcDbLine
 10
69.85
 20
23.125
 30
0.0
 11
69.85
 21
30.6825219275
 31
0.0
  0
LINE
  5
2AF
330
2A3
100
AcDbEntity
  8
SK2
100
AcDbLine
 10
95.25
 20
15.605
 30
0.0
 11
95.25
 21
30.6825219275
 31
0.0
  0
LINE
  5
2B0
330
2A3
100
AcDbEntity
  8
SK2
100
AcDbLine
 10
69.85
 20
29.6825219275
 30
0.0
 11
95.25
 21
29.6825219275
 31
0.0
  0
MTEXT
  5
2B1
330
2A3
100
AcDbEntity
  8
SK2
100
AcDbMText
 10
76.1249434612
 20
34.2477311933
 30
0.0
 40
3.5
 41
0.0
 71
     1
 72
     1
  1

  7
SLDTEXTSTYLE0
 73
     1
 44
1.0
  0
MTEXT
  5
2B2
330
2A3
100
AcDbEntity
  8
SK2
100
AcDbMText
 10
78.2383115729
 20
39.430890567
 30
0.0
 40
3.5
 41
0.0
 71
     1
 72
     1
  1
1,00
  7
SLDTEXTSTYLE0
 73
     1
 44
1.0
  0
MTEXT
  5
2B3
330
2A3
100
AcDbEntity
  8
SK2
100
AcDbMText
 10
78.2383115729
 20
34.1942590167
 30
0.0
 40
3.5
 41
0.0
 71
     1
 72
     1
  1
25,4
  7
SLDTEXTSTYLE0
 73
     1
 44
1.0
  0
MTEXT
  5
2B4
330
2A3
100
AcDbEntity
  8
SK2
100
AcDbMText
 10
90.7350132651
 20
34.2477311933
 30
0.0
 40
3.5
 41
0.0
 71
     1
 72
     1
  1

  7
SLDTEXTSTYLE0
 73
     1
 44
1.0
  0
ENDBLK
  5
2A5
330
2A3
100
AcDbEntity
  8
0
100
AcDbBlockEnd
  0
BLOCK
  5
2B8
330
2B7
100
AcDbEntity
  8
0
100
AcDbBlockBegin
  2
_D_4
 70
     0
 10
0.0
 20
0.0
 30
0.0
  3
_D_4
  1

  0
SOLID
  5
2BA
330
2B7
100
AcDbEntity
  8
SK2
100
AcDbTrace
 10
0.0
 20
56.061544924
 30
0.0
 11
3.302
 21
55.553544924
 31
0.0
 12
3.302
 22
56.569544924
 32
0.0
 13
3.302
 23
56.569544924
 33
0.0
  0
SOLID
  5
2BB
330
2B7
100
AcDbEntity
  8
SK2
100
AcDbTrace
 10
19.05
 20
56.061544924
 30
0.0
 11
15.748
 21
56.569544924
 31
0.0
 12
15.748
 22
55.553544924
 32
0.0
 13
15.748
 23
55.553544924
 33
0.0
  0
LINE
  5
2BC
330
2B7
100
AcDbEntity
  8
SK2
100
AcDbLine
 10
0.0
 20
35.925
 30
0.0
 11
0.0
 21
57.061544924
 31
0.0
  0
LINE
  5
2BD
330
2B7
100
AcDbEntity
  8
SK2
100
AcDbLine
 10
19.05
 20
47.5560855313
 30
0.0
 11
19.05
 21
57.061544924
 31
0.0
  0
LINE
  5
2BE
330
2B7
100
AcDbEntity
  8
SK2
100
AcDbLine
 10
0.0
 20
56.061544924
 30
0.0
 11
19.05
 21
56.061544924
 31
0.0
  0
MTEXT
  5
2BF
330
2B7
100
AcDbEntity
  8
SK2
100
AcDbMText
 10
1.676991697
 20
60.5732818386
 30
0.0
 40
3.5
 41
0.0
 71
     1
 72
     1
  1
19,05
  7
SLDTEXTSTYLE0
 73
     1
 44
1.0
  0
ENDBLK
  5
2B9
330
2B7
100
AcDbEntity
  8
0
100
AcDbBlockEnd
  0
BLOCK
  5
2C3
330
2C2
100
AcDbEntity
  8
0
100
AcDbBlockBegin
  2
_D_5
 70
     0
 10
0.0
 20
0.0
 30
0.0
  3
_D_5
  1

  0
SOLID
  5
2C5
330
2C2
100
AcDbEntity
  8
SK2
100
AcDbTrace
 10
112.1866696177
 20
9.525
 30
0.0
 11
111.6786696177
 21
6.223
 31
0.0
 12
112.6946696177
 22
6.223
 32
0.0
 13
112.6946696177
 23
6.223
 33
0.0
  0
SOLID
  5
2C6
330
2C2
100
AcDbEntity
  8
SK2
100
AcDbTrace
 10
112.1866696177
 20
-9.525
 30
0.0
 11
112.6946696177
 21
-6.223
 31
0.0
 12
111.6786696177
 22
-6.223
 32
0.0
 13
111.6786696177
 23
-6.223
 33
0.0
  0
LINE
  5
2C7
330
2C2
100
AcDbEntity
  8
SK2
100
AcDbLine
 10
101.3937879017
 20
-4.1834366758
 30
0.0
 11
101.3937879017
 21
-5.2498429333
 31
0.0
  0
LINE
  5
2C8
330
2C2
100
AcDbEntity
  8
SK2
100
AcDbLine
 10
101.3937879017
 20
-5.2498429333
 30
0.0
 11
106.9500378927
 21
-5.2498429333
 31
0.0
  0
LINE
  5
2C9
330
2C2
100
AcDbEntity
  8
SK2
100
AcDbLine
 10
106.9500378927
 20
-5.2498429333
 30
0.0
 11
106.9500378927
 21
-4.1834366758
 31
0.0
  0
LINE
  5
2CA
330
2C2
100
AcDbEntity
  8
SK2
100
AcDbLine
 10
101.3937879017
 20
4.8679523851
 30
0.0
 11
101.3937879017
 21
5.9343586425
 31
0.0
  0
LINE
  5
2CB
330
2C2
100
AcDbEntity
  8
SK2
100
AcDbLine
 10
101.3937879017
 20
5.9343586425
 30
0.0
 11
106.9500378927
 21
5.9343586425
 31
0.0
  0
LINE
  5
2CC
330
2C2
100
AcDbEntity
  8
SK2
100
AcDbLine
 10
106.9500378927
 20
5.9343586425
 30
0.0
 11
106.9500378927
 21
4.8679523851
 31
0.0
  0
LINE
  5
2CD
330
2C2
100
AcDbEntity
  8
SK2
100
AcDbLine
 10
94.75
 20
9.525
 30
0.0
 11
113.1866696177
 21
9.525
 31
0.0
  0
LINE
  5
2CE
330
2C2
100
AcDbEntity
  8
SK2
100
AcDbLine
 10
94.75
 20
-9.525
 30
0.0
 11
113.1866696177
 21
-9.525
 31
0.0
  0
LINE
  5
2CF
330
2C2
100
AcDbEntity
  8
SK2
100
AcDbLine
 10
112.1866696177
 20
9.525
 30
0.0
 11
112.1866696177
 21
-9.525
 31
0.0
  0
MTEXT
  5
2D0
330
2C2
100
AcDbEntity
  8
SK2
100
AcDbMText
 10
102.4383009781
 20
-4.1834366758
 30
0.0
 40
3.5
 41
0.0
 71
     1
 72
     1
  1
0,75
  7
SLDTEXTSTYLE0
 11
-7.044195017643634E-15
 21
1.0
 31
0.0
 73
     1
 44
1.0
  0
MTEXT
  5
2D1
330
2C2
100
AcDbEntity
  8
SK2
100
AcDbMText
 10
107.6749325285
 20
-8.1157110882
 30
0.0
 40
3.5
 41
0.0
 71
     1
 72
     1
  1
%%c
  7
SLDTEXTSTYLE0
 11
-7.044195017643634E-15
 21
1.0
 31
0.0
 73
     1
 44
1.0
  0
MTEXT
  5
2D2
330
2C2
100
AcDbEntity
  8
SK2
100
AcDbMText
 10
107.6749325285
 20
-2.8372736898
 30
0.0
 40
3.5
 41
0.0
 71
     1
 72
     1
  1
19,05
  7
SLDTEXTSTYLE0
 11
-7.044195017643634E-15
 21
1.0
 31
0.0
 73
     1
 44
1.0
  0
ENDBLK
  5
2C4
330
2C2
100
AcDbEntity
  8
0
100
AcDbBlockEnd
  0
BLOCK
  5
2D5
330
2D4
100
AcDbEntity
  8
0
100
AcDbBlockBegin
  2
_D_6
 70
     0
 10
0.0
 20
0.0
 30
0.0
  3
_D_6
  1

  0
SOLID
  5
2D7
330
2D4
100
AcDbEntity
  8
SK2
100
AcDbTrace
 10
128.4461697571
 20
14.605
 30
0.0
 11
127.9381697571
 21
11.303
 31
0.0
 12
128.9541697571
 22
11.303
 32
0.0
 13
128.9541697571
 23
11.303
 33
0.0
  0
SOLID
  5
2D8
330
2D4
100
AcDbEntity
  8
SK2
100
AcDbTrace
 10
128.4461697571
 20
-14.605
 30
0.0
 11
128.9541697571
 21
-11.303
 31
0.0
 12
127.9381697571
 22
-11.303
 32
0.0
 13
127.9381697571
 23
-11.303
 33
0.0
  0
LINE
  5
2D9
330
2D4
100
AcDbEntity
  8
SK2
100
AcDbLine
 10
117.6532880411
 20
-4.1834366758
 30
0.0
 11
117.6532880411
 21
-5.2498429333
 31
0.0
  0
LINE
  5
2DA
330
2D4
100
AcDbEntity
  8
SK2
100
AcDbLine
 10
117.6532880411
 20
-5.2498429333
 30
0.0
 11
123.2095380322
 21
-5.2498429333
 31
0.0
  0
LINE
  5
2DB
330
2D4
100
AcDbEntity
  8
SK2
100
AcDbLine
 10
123.2095380322
 20
-5.2498429333
 30
0.0
 11
123.2095380322
 21
-4.1834366758
 31
0.0
  0
LINE
  5
2DC
330
2D4
100
AcDbEntity
  8
SK2
100
AcDbLine
 10
117.6532880411
 20
4.8679523851
 30
0.0
 11
117.6532880411
 21
5.9343586425
 31
0.0
  0
LINE
  5
2DD
330
2D4
100
AcDbEntity
  8
SK2
100
AcDbLine
 10
117.6532880411
 20
5.9343586425
 30
0.0
 11
123.2095380322
 21
5.9343586425
 31
0.0
  0
LINE
  5
2DE
330
2D4
100
AcDbEntity
  8
SK2
100
AcDbLine
 10
123.2095380322
 20
5.9343586425
 30
0.0
 11
123.2095380322
 21
4.8679523851
 31
0.0
  0
LINE
  5
2DF
330
2D4
100
AcDbEntity
  8
SK2
100
AcDbLine
 10
96.25
 20
14.605
 30
0.0
 11
129.4461697571
 21
14.605
 31
0.0
  0
LINE
  5
2E0
330
2D4
100
AcDbEntity
  8
SK2
100
AcDbLine
 10
96.25
 20
-14.605
 30
0.0
 11
129.4461697571
 21
-14.605
 31
0.0
  0
LINE
  5
2E1
330
2D4
100
AcDbEntity
  8
SK2
100
AcDbLine
 10
128.4461697571
 20
14.605
 30
0.0
 11
128.4461697571
 21
-14.605
 31
0.0
  0
MTEXT
  5
2E2
330
2D4
100
AcDbEntity
  8
SK2
100
AcDbMText
 10
118.6978011176
 20
-4.1834366758
 30
0.0
 40
3.5
 41
0.0
 71
     1
 72
     1
  1
1,15
  7
SLDTEXTSTYLE0
 11
-7.044195017643634E-15
 21
1.0
 31
0.0
 73
     1
 44
1.0
  0
MTEXT
  5
2E3
330
2D4
100
AcDbEntity
  8
SK2
100
AcDbMText
 10
123.9344326679
 20
-8.1157110882
 30
0.0
 40
3.5
 41
0.0
 71
     1
 72
     1
  1
%%c
  7
SLDTEXTSTYLE0
 11
-7.044195017643634E-15
 21
1.0
 31
0.0
 73
     1
 44
1.0
  0
MTEXT
  5
2E4
330
2D4
100
AcDbEntity
  8
SK2
100
AcDbMText
 10
123.9344326679
 20
-2.8372736898
 30
0.0
 40
3.5
 41
0.0
 71
     1
 72
     1
  1
29,21
  7
SLDTEXTSTYLE0
 11
-7.044195017643634E-15
 21
1.0
 31
0.0
 73
     1
 44
1.0
  0
ENDBLK
  5
2D6
330
2D4
100
AcDbEntity
  8
0
100
AcDbBlockEnd
  0
BLOCK
  5
2E7
330
2E6
100
AcDbEntity
  8
0
100
AcDbBlockBegin
  2
_D_7
 70
     0
 10
0.0
 20
0.0
 30
0.0
  3
_D_7
  1

  0
SOLID
  5
2E9
330
2E6
100
AcDbEntity
  8
SK2
100
AcDbTrace
 10
142.1223848277
 20
22.225
 30
0.0
 11
141.6143848277
 21
18.923
 31
0.0
 12
142.6303848277
 22
18.923
 32
0.0
 13
142.6303848277
 23
18.923
 33
0.0
  0
SOLID
  5
2EA
330
2E6
100
AcDbEntity
  8
SK2
100
AcDbTrace
 10
142.1223848277
 20
-22.225
 30
0.0
 11
142.6303848277
 21
-18.923
 31
0.0
 12
141.6143848277
 22
-18.923
 32
0.0
 13
141.6143848277
 23
-18.923
 33
0.0
  0
LINE
  5
2EB
330
2E6
100
AcDbEntity
  8
SK2
100
AcDbLine
 10
131.3295031116
 20
-4.1834366758
 30
0.0
 11
131.3295031116
 21
-5.2498429333
 31
0.0
  0
LINE
  5
2EC
330
2E6
100
AcDbEntity
  8
SK2
100
AcDbLine
 10
131.3295031116
 20
-5.2498429333
 30
0.0
 11
136.8857531027
 21
-5.2498429333
 31
0.0
  0
LINE
  5
2ED
330
2E6
100
AcDbEntity
  8
SK2
100
AcDbLine
 10
136.8857531027
 20
-5.2498429333
 30
0.0
 11
136.8857531027
 21
-4.1834366758
 31
0.0
  0
LINE
  5
2EE
330
2E6
100
AcDbEntity
  8
SK2
100
AcDbLine
 10
131.3295031116
 20
4.8679523851
 30
0.0
 11
131.3295031116
 21
5.9343586425
 31
0.0
  0
LINE
  5
2EF
330
2E6
100
AcDbEntity
  8
SK2
100
AcDbLine
 10
131.3295031116
 20
5.9343586425
 30
0.0
 11
136.8857531027
 21
5.9343586425
 31
0.0
  0
LINE
  5
2F0
330
2E6
100
AcDbEntity
  8
SK2
100
AcDbLine
 10
136.8857531027
 20
5.9343586425
 30
0.0
 11
136.8857531027
 21
4.8679523851
 31
0.0
  0
LINE
  5
2F1
330
2E6
100
AcDbEntity
  8
SK2
100
AcDbLine
 10
88.63
 20
22.225
 30
0.0
 11
143.1223848277
 21
22.225
 31
0.0
  0
LINE
  5
2F2
330
2E6
100
AcDbEntity
  8
SK2
100
AcDbLine
 10
88.63
 20
-22.225
 30
0.0
 11
143.1223848277
 21
-22.225
 31
0.0
  0
LINE
  5
2F3
330
2E6
100
AcDbEntity
  8
SK2
100
AcDbLine
 10
142.1223848277
 20
22.225
 30
0.0
 11
142.1223848277
 21
-22.225
 31
0.0
  0
MTEXT
  5
2F4
330
2E6
100
AcDbEntity
  8
SK2
100
AcDbMText
 10
132.3740161881
 20
-4.1834366758
 30
0.0
 40
3.5
 41
0.0
 71
     1
 72
     1
  1
1,75
  7
SLDTEXTSTYLE0
 11
-7.044195017643634E-15
 21
1.0
 31
0.0
 73
     1
 44
1.0
  0
MTEXT
  5
2F5
330
2E6
100
AcDbEntity
  8
SK2
100
AcDbMText
 10
137.6106477385
 20
-8.1157110882
 30
0.0
 40
3.5
 41
0.0
 71
     1
 72
     1
  1
%%c
  7
SLDTEXTSTYLE0
 11
-7.044195017643634E-15
 21
1.0
 31
0.0
 73
     1
 44
1.0
  0
MTEXT
  5
2F6
330
2E6
100
AcDbEntity
  8
SK2
100
AcDbMText
 10
137.6106477385
 20
-2.8372736898
 30
0.0
 40
3.5
 41
0.0
 71
     1
 72
     1
  1
44,45
  7
SLDTEXTSTYLE0
 11
-7.044195017643634E-15
 21
1.0
 31
0.0
 73
     1
 44
1.0
  0
ENDBLK
  5
2E8
330
2E6
100
AcDbEntity
  8
0
100
AcDbBlockEnd
  0
BLOCK
  5
2F9
330
2F8
100
AcDbEntity
  8
0
100
AcDbBlockBegin
  2
_D_8
 70
     0
 10
0.0
 20
0.0
 30
0.0
  3
_D_8
  1

  0
SOLID
  5
2FB
330
2F8
100
AcDbEntity
  8
SK2
100
AcDbTrace
 10
-101.6
 20
-66.4100060122
 30
0.0
 11
-98.298
 21
-66.9180060122
 31
0.0
 12
-98.298
 22
-65.9020060122
 32
0.0
 13
-98.298
 23
-65.9020060122
 33
0.0
  0
SOLID
  5
2FC
330
2F8
100
AcDbEntity
  8
SK2
100
AcDbTrace
 10
95.25
 20
-66.4100060122
 30
0.0
 11
91.948
 21
-65.9020060122
 31
0.0
 12
91.948
 22
-66.9180060122
 32
0.0
 13
91.948
 23
-66.9180060122
 33
0.0
  0
LINE
  5
2FD
330
2F8
100
AcDbEntity
  8
SK2
100
AcDbLine
 10
-18.3807368201
 20
-55.6171242961
 30
0.0
 11
-19.4471430776
 21
-55.6171242961
 31
0.0
  0
LINE
  5
2FE
330
2F8
100
AcDbEntity
  8
SK2
100
AcDbLine
 10
-19.4471430776
 20
-55.6171242961
 30
0.0
 11
-19.4471430776
 21
-61.1733742872
 31
0.0
  0
LINE
  5
2FF
330
2F8
100
AcDbEntity
  8
SK2
100
AcDbLine
 10
-19.4471430776
 20
-61.1733742872
 30
0.0
 11
-18.3807368201
 21
-61.1733742872
 31
0.0
  0
LINE
  5
300
330
2F8
100
AcDbEntity
  8
SK2
100
AcDbLine
 10
-9.3293477592
 20
-55.6171242961
 30
0.0
 11
-8.2629415017
 21
-55.6171242961
 31
0.0
  0
LINE
  5
301
330
2F8
100
AcDbEntity
  8
SK2
100
AcDbLine
 10
-8.2629415017
 20
-55.6171242961
 30
0.0
 11
-8.2629415017
 21
-61.1733742872
 31
0.0
  0
LINE
  5
302
330
2F8
100
AcDbEntity
  8
SK2
100
AcDbLine
 10
-8.2629415017
 20
-61.1733742872
 30
0.0
 11
-9.3293477592
 21
-61.1733742872
 31
0.0
  0
LINE
  5
303
330
2F8
100
AcDbEntity
  8
SK2
100
AcDbLine
 10
-101.6
 20
-15.2640498169
 30
0.0
 11
-101.6
 21
-67.4100060122
 31
0.0
  0
LINE
  5
304
330
2F8
100
AcDbEntity
  8
SK2
100
AcDbLine
 10
95.25
 20
-11.3705210888
 30
0.0
 11
95.25
 21
-67.4100060122
 31
0.0
  0
LINE
  5
305
330
2F8
100
AcDbEntity
  8
SK2
100
AcDbLine
 10
-101.6
 20
-66.4100060122
 30
0.0
 11
95.25
 21
-66.4100060122
 31
0.0
  0
MTEXT
  5
306
330
2F8
100
AcDbEntity
  8
SK2
100
AcDbMText
 10
-20.9474038432
 20
-61.8447967463
 30
0.0
 40
3.5
 41
0.0
 71
     1
 72
     1
  1

  7
SLDTEXTSTYLE0
 73
     1
 44
1.0
  0
MTEXT
  5
307
330
2F8
100
AcDbEntity
  8
SK2
100
AcDbMText
 10
-18.3807368201
 20
-56.6616373726
 30
0.0
 40
3.5
 41
0.0
 71
     1
 72
     1
  1
7,75
  7
SLDTEXTSTYLE0
 73
     1
 44
1.0
  0
MTEXT
  5
308
330
2F8
100
AcDbEntity
  8
SK2
100
AcDbMText
 10
-20.9668482465
 20
-61.898268923
 30
0.0
 40
3.5
 41
0.0
 71
     1
 72
     1
  1
196,85
  7
SLDTEXTSTYLE0
 73
     1
 44
1.0
  0
MTEXT
  5
309
330
2F8
100
AcDbEntity
  8
SK2
100
AcDbMText
 10
-5.4307362164
 20
-61.8447967463
 30
0.0
 40
3.5
 41
0.0
 71
     1
 72
     1
  1

  7
SLDTEXTSTYLE0
 73
     1
 44
1.0
  0
ENDBLK
  5
2FA
330
2F8
100
AcDbEntity
  8
0
100
AcDbBlockEnd
  0
BLOCK
  5
30C
330
30B
100
AcDbEntity
  8
0
100
AcDbBlockBegin
  2
_D_9
 70
     0
 10
0.0
 20
0.0
 30
0.0
  3
_D_9
  1

  0
SOLID
  5
30E
330
30B
100
AcDbEntity
  8
SK2
100
AcDbTrace
 10
44.4038662327
 20
-56.1473744908
 30
0.0
 11
47.7058662327
 21
-56.6553744908
 31
0.0
 12
47.7058662327
 22
-55.6393744908
 32
0.0
 13
47.7058662327
 23
-55.6393744908
 33
0.0
  0
SOLID
  5
30F
330
30B
100
AcDbEntity
  8
SK2
100
AcDbTrace
 10
95.25
 20
-56.1473744908
 30
0.0
 11
91.948
 21
-55.6393744908
 31
0.0
 12
91.948
 22
-56.6553744908
 32
0.0
 13
91.948
 23
-56.6553744908
 33
0.0
  0
LINE
  5
310
330
30B
100
AcDbEntity
  8
SK2
100
AcDbLine
 10
65.333430347
 20
-45.3544927747
 30
0.0
 11
64.2670240896
 21
-45.3544927747
 31
0.0
  0
LINE
  5
311
330
30B
100
AcDbEntity
  8
SK2
100
AcDbLine
 10
64.2670240896
 20
-45.3544927747
 30
0.0
 11
64.2670240896
 21
-50.9107427658
 31
0.0
  0
LINE
  5
312
330
30B
100
AcDbEntity
  8
SK2
100
AcDbLine
 10
64.2670240896
 20
-50.9107427658
 30
0.0
 11
65.333430347
 21
-50.9107427658
 31
0.0
  0
LINE
  5
313
330
30B
100
AcDbEntity
  8
SK2
100
AcDbLine
 10
74.384819408
 20
-45.3544927747
 30
0.0
 11
75.4512256654
 21
-45.3544927747
 31
0.0
  0
LINE
  5
314
330
30B
100
AcDbEntity
  8
SK2
100
AcDbLine
 10
75.4512256654
 20
-45.3544927747
 30
0.0
 11
75.4512256654
 21
-50.9107427658
 31
0.0
  0
LINE
  5
315
330
30B
100
AcDbEntity
  8
SK2
100
AcDbLine
 10
75.4512256654
 20
-50.9107427658
 30
0.0
 11
74.384819408
 21
-50.9107427658
 31
0.0
  0
LINE
  5
316
330
30B
100
AcDbEntity
  8
SK2
100
AcDbLine
 10
44.4038662327
 20
-10.525
 30
0.0
 11
44.4038662327
 21
-57.1473744908
 31
0.0
  0
LINE
  5
317
330
30B
100
AcDbEntity
  8
SK2
100
AcDbLine
 10
95.25
 20
-15.605
 30
0.0
 11
95.25
 21
-57.1473744908
 31
0.0
  0
LINE
  5
318
330
30B
100
AcDbEntity
  8
SK2
100
AcDbLine
 10
44.4038662327
 20
-56.1473744908
 30
0.0
 11
95.25
 21
-56.1473744908
 31
0.0
  0
MTEXT
  5
319
330
30B
100
AcDbEntity
  8
SK2
100
AcDbMText
 10
63.2200622354
 20
-51.5821652249
 30
0.0
 40
3.5
 41
0.0
 71
     1
 72
     1
  1

  7
SLDTEXTSTYLE0
 73
     1
 44
1.0
  0
MTEXT
  5
31A
330
30B
100
AcDbEntity
  8
SK2
100
AcDbMText
 10
65.333430347
 20
-46.3990058512
 30
0.0
 40
3.5
 41
0.0
 71
     1
 72
     1
  1
2,00
  7
SLDTEXTSTYLE0
 73
     1
 44
1.0
  0
MTEXT
  5
31B
330
30B
100
AcDbEntity
  8
SK2
100
AcDbMText
 10
64.0403746339
 20
-51.6356374016
 30
0.0
 40
3.5
 41
0.0
 71
     1
 72
     1
  1
50,85
  7
SLDTEXTSTYLE0
 73
     1
 44
1.0
  0
MTEXT
  5
31C
330
30B
100
AcDbEntity
  8
SK2
100
AcDbMText
 10
77.8301320393
 20
-51.5821652249
 30
0.0
 40
3.5
 41
0.0
 71
     1
 72
     1
  1

  7
SLDTEXTSTYLE0
 73
     1
 44
1.0
  0
ENDBLK
  5
30D
330
30B
100
AcDbEntity
  8
0
100
AcDbBlockEnd
  0
BLOCK
  5
320
330
31F
100
AcDbEntity
  8
0
100
AcDbBlockBegin
  2
_D_10
 70
     0
 10
0.0
 20
0.0
 30
0.0
  3
_D_10
  1

  0
SOLID
  5
322
330
31F
100
AcDbEntity
  8
SK2
100
AcDbTrace
 10
87.63
 20
-41.0563888742
 30
0.0
 11
84.328
 21
-40.5483888742
 31
0.0
 12
84.328
 22
-41.5643888742
 32
0.0
 13
84.328
 23
-41.5643888742
 33
0.0
  0
SOLID
  5
323
330
31F
100
AcDbEntity
  8
SK2
100
AcDbTrace
 10
95.25
 20
-41.0563888742
 30
0.0
 11
98.552
 21
-41.5643888742
 31
0.0
 12
98.552
 22
-40.5483888742
 32
0.0
 13
98.552
 23
-40.5483888742
 33
0.0
  0
LINE
  5
324
330
31F
100
AcDbEntity
  8
SK2
100
AcDbLine
 10
87.63
 20
-23.225
 30
0.0
 11
87.63
 21
-42.0563888742
 31
0.0
  0
LINE
  5
325
330
31F
100
AcDbEntity
  8
SK2
100
AcDbLine
 10
95.25
 20
-15.605
 30
0.0
 11
95.25
 21
-42.0563888742
 31
0.0
  0
LINE
  5
326
330
31F
100
AcDbEntity
  8
SK2
100
AcDbLine
 10
87.63
 20
-41.0563888742
 30
0.0
 11
74.6622873637
 21
-41.0563888742
 31
0.0
  0
LINE
  5
327
330
31F
100
AcDbEntity
  8
SK2
100
AcDbLine
 10
87.63
 20
-41.0563888742
 30
0.0
 11
95.25
 21
-41.0563888742
 31
0.0
  0
LINE
  5
328
330
31F
100
AcDbEntity
  8
SK2
100
AcDbLine
 10
95.25
 20
-41.0563888742
 30
0.0
 11
101.6
 21
-41.0563888742
 31
0.0
  0
MTEXT
  5
329
330
31F
100
AcDbEntity
  8
SK2
100
AcDbMText
 10
74.6622873637
 20
-36.5446519597
 30
0.0
 40
3.5
 41
0.0
 71
     1
 72
     1
  1
7,62
  7
SLDTEXTSTYLE0
 73
     1
 44
1.0
  0
ENDBLK
  5
321
330
31F
100
AcDbEntity
  8
0
100
AcDbBlockEnd
  0
BLOCK
  5
32C
330
32B
100
AcDbEntity
  8
0
100
AcDbBlockBegin
  2
_D_11
 70
     0
 10
0.0
 20
0.0
 30
0.0
  3
_D_11
  1

  0
SOLID
  5
32E
330
32B
100
AcDbEntity
  8
SK2
100
AcDbTrace
 10
-124.0448048277
 20
47.2968145978
 30
0.0
 11
-124.5528048277
 21
43.9948145978
 31
0.0
 12
-123.5368048277
 22
43.9948145978
 32
0.0
 13
-123.5368048277
 23
43.9948145978
 33
0.0
  0
SOLID
  5
32F
330
32B
100
AcDbEntity
  8
SK2
100
AcDbTrace
 10
-124.0448048277
 20
-47.2968145977
 30
0.0
 11
-123.5368048277
 21
-43.9948145977
 31
0.0
 12
-124.5528048277
 22
-43.9948145977
 32
0.0
 13
-124.5528048277
 23
-43.9948145977
 33
0.0
  0
LINE
  5
330
330
32B
100
AcDbEntity
  8
SK2
100
AcDbLine
 10
2.95
 20
47.2968145978
 30
0.0
 11
-125.0448048277
 21
47.2968145978
 31
0.0
  0
LINE
  5
331
330
32B
100
AcDbEntity
  8
SK2
100
AcDbLine
 10
2.95
 20
-47.2968145978
 30
0.0
 11
-125.0448048277
 21
-47.2968145977
 31
0.0
  0
LINE
  5
332
330
32B
100
AcDbEntity
  8
SK2
100
AcDbLine
 10
-124.0448048277
 20
47.2968145978
 30
0.0
 11
-124.0448048277
 21
-47.2968145977
 31
0.0
  0
MTEXT
  5
333
330
32B
100
AcDbEntity
  8
SK2
100
AcDbMText
 10
-128.5565419169
 20
-8.1157110882
 30
0.0
 40
3.5
 41
0.0
 71
     1
 72
     1
  1
%%c
  7
SLDTEXTSTYLE0
 11
4.281632306354177E-13
 21
1.0
 31
0.0
 73
     1
 44
1.0
  0
MTEXT
  5
334
330
32B
100
AcDbEntity
  8
SK2
100
AcDbMText
 10
-128.6100140935
 20
-2.8372736898
 30
0.0
 40
3.5
 41
0.0
 71
     1
 72
     1
  1
98,42
  7
SLDTEXTSTYLE0
 11
4.281632306354177E-13
 21
1.0
 31
0.0
 73
     1
 44
1.0
  0
ENDBLK
  5
32D
330
32B
100
AcDbEntity
  8
0
100
AcDbBlockEnd
  0
BLOCK
  5
337
330
336
100
AcDbEntity
  8
0
100
AcDbBlockBegin
  2
_D_12
 70
     0
 10
0.0
 20
0.0
 30
0.0
  3
_D_12
  1

  0
SOLID
  5
339
330
336
100
AcDbEntity
  8
SK2
100
AcDbTrace
 10
-111.3390720144
 20
12.6999998465
 30
0.0
 11
-111.8470720144
 21
9.3979998465
 31
0.0
 12
-110.8310720144
 22
9.3979998465
 32
0.0
 13
-110.8310720144
 23
9.3979998465
 33
0.0
  0
SOLID
  5
33A
330
336
100
AcDbEntity
  8
SK2
100
AcDbTrace
 10
-111.3390720144
 20
-12.6999998465
 30
0.0
 11
-110.8310720144
 21
-9.3979998465
 31
0.0
 12
-111.8470720144
 22
-9.3979998465
 32
0.0
 13
-111.8470720144
 23
-9.3979998465
 33
0.0
  0
LINE
  5
33B
330
336
100
AcDbEntity
  8
SK2
100
AcDbLine
 10
-95.967097044
 20
12.6999998465
 30
0.0
 11
-112.3390720144
 21
12.6999998465
 31
0.0
  0
LINE
  5
33C
330
336
100
AcDbEntity
  8
SK2
100
AcDbLine
 10
-95.967097044
 20
-12.6999998465
 30
0.0
 11
-112.3390720144
 21
-12.6999998465
 31
0.0
  0
LINE
  5
33D
330
336
100
AcDbEntity
  8
SK2
100
AcDbLine
 10
-111.3390720144
 20
12.6999998465
 30
0.0
 11
-111.3390720144
 21
-12.6999998465
 31
0.0
  0
MTEXT
  5
33F
330
336
100
AcDbEntity
  8
SK2
100
AcDbMText
 10
-115.850808929
 20
-10.109131622
 30
0.0
 40
3.5
 41
0.0
 71
     1
 72
     1
  1
1 - 8 UNC
  7
SLDTEXTSTYLE1
 11
-7.044195017643634E-15
 21
1.0
 31
0.0
 73
     1
 44
1.0
  0
ENDBLK
  5
338
330
336
100
AcDbEntity
  8
0
100
AcDbBlockEnd
  0
ENDSEC
  0
SECTION
  2
ENTITIES
  0
LINE
  5
82
330
1F
100
AcDbEntity
  8
1
  6
SLD-Solid
370
    25
100
AcDbLine
 10
1.7476022729
 20
-34.925
 30
0.0
 11
2.1330363037
 21
-34.7452691597
 31
0.0
  0
LINE
  5
83
330
1F
100
AcDbEntity
  8
1
  6
SLD-Solid
370
    25
100
AcDbLine
 10
2.1330363037
 20
34.7452691597
 30
0.0
 11
1.7476022729
 21
34.925
 31
0.0
  0
LINE
  5
84
330
1F
100
AcDbEntity
  8
1
  6
SLD-Solid
370
    25
100
AcDbLine
 10
34.338
 20
34.925
 30
0.0
 11
22.225
 21
34.925
 31
0.0
  0
LINE
  5
85
330
1F
100
AcDbEntity
  8
1
  6
SLD-Solid
370
    25
100
AcDbLine
 10
22.225
 20
-34.925
 30
0.0
 11
34.338
 21
-34.925
 31
0.0
  0
LINE
  5
86
330
1F
100
AcDbEntity
  8
SK1
  6
SLD-Solid
370
    25
100
AcDbLine
 10
0.0
 20
34.925
 30
0.0
 11
-99.8030472773
 21
20.3702515116
 31
0.0
  0
LINE
  5
87
330
1F
100
AcDbEntity
  8
SK1
  6
SLD-Solid
370
    25
100
AcDbLine
 10
-99.8030472773
 20
-20.3702515116
 30
0.0
 11
0.0
 21
-34.925
 31
0.0
  0
LINE
  5
88
330
1F
100
AcDbEntity
  8
1
  6
SLD-Solid
370
    25
100
AcDbLine
 10
1.7476022729
 20
34.925
 30
0.0
 11
0.0
 21
34.925
 31
0.0
  0
LINE
  5
89
330
1F
100
AcDbEntity
  8
1
  6
SLD-Solid
370
    25
100
AcDbLine
 10
0.0
 20
-34.925
 30
0.0
 11
1.7476022729
 21
-34.925
 31
0.0
  0
LINE
  5
8A
330
1F
100
AcDbEntity
  8
1
  6
SLD-Solid
370
    25
100
AcDbLine
 10
60.75
 20
22.225
 30
0.0
 11
35.862
 21
22.225
 31
0.0
  0
LINE
  5
8B
330
1F
100
AcDbEntity
  8
1
  6
SLD-Solid
370
    25
100
AcDbLine
 10
87.63
 20
22.225
 30
0.0
 11
78.9336658494
 21
22.225
 31
0.0
  0
LINE
  5
8C
330
1F
100
AcDbEntity
  8
1
  6
SLD-Solid
370
    25
100
AcDbLine
 10
79.7863433699
 20
-22.225
 30
0.0
 11
87.63
 21
-22.225
 31
0.0
  0
LINE
  5
8D
330
1F
100
AcDbEntity
  8
1
  6
SLD-Solid
370
    25
100
AcDbLine
 10
35.862
 20
-22.225
 30
0.0
 11
59.9000643484
 21
-22.225
 31
0.0
  0
LINE
  5
8E
330
1F
100
AcDbEntity
  8
1
  6
SLD-Solid
370
    25
100
AcDbLine
 10
87.63
 20
-22.225
 30
0.0
 11
95.25
 21
-14.605
 31
0.0
  0
LINE
  5
8F
330
1F
100
AcDbEntity
  8
1
  6
SLD-Solid
370
    25
100
AcDbLine
 10
95.25
 20
14.605
 30
0.0
 11
87.63
 21
22.225
 31
0.0
  0
LINE
  5
90
330
1F
100
AcDbEntity
  8
1
  6
SLD-Solid
370
    25
100
AcDbLine
 10
21.104447094
 20
-35.1
 30
0.0
 11
21.2569032609
 21
-35.0761904674
 31
0.0
  0
LINE
  5
91
330
1F
100
AcDbEntity
  8
1
  6
SLD-Solid
370
    25
100
AcDbLine
 10
19.1955646357
 20
37.1496598639
 30
0.0
 11
19.05
 21
37.2565549661
 31
0.0
  0
LINE
  5
92
330
1F
100
AcDbEntity
  8
1
  6
SLD-Solid
370
    25
100
AcDbLine
 10
3.0134491992
 20
-34.93
 30
0.0
 11
3.2
 21
-35.0144272284
 31
0.0
  0
LINE
  5
93
330
1F
100
AcDbEntity
  8
1
  6
SLD-Solid
370
    25
100
AcDbLine
 10
66.4086032906
 20
20.574
 30
0.0
 11
73.3035356129
 21
20.574
 31
0.0
  0
LINE
  5
94
330
1F
100
AcDbEntity
  8
1
  6
SLD-Solid
370
    25
100
AcDbLine
 10
19.05
 20
46.5560855313
 30
0.0
 11
19.05
 21
-46.5560855313
 31
0.0
  0
LINE
  5
95
330
1F
100
AcDbEntity
  8
1
  6
SLD-Solid
370
    25
100
AcDbLine
 10
18.3
 20
-47.2968145978
 30
0.0
 11
18.3
 21
47.2968145978
 31
0.0
  0
LINE
  5
96
330
1F
100
AcDbEntity
  8
1
  6
SLD-Solid
370
    25
100
AcDbLine
 10
7.5902766066
 20
47.2968145978
 30
0.0
 11
3.95
 21
47.2968145978
 31
0.0
  0
LINE
  5
97
330
1F
100
AcDbEntity
  8
1
  6
SLD-Solid
370
    25
100
AcDbLine
 10
7.5902766066
 20
47.2968145978
 30
0.0
 11
7.5902766066
 21
-47.2968145978
 31
0.0
  0
LINE
  5
98
330
1F
100
AcDbEntity
  8
1
  6
SLD-Solid
370
    25
100
AcDbLine
 10
3.95
 20
-47.2968145978
 30
0.0
 11
7.5902766066
 21
-47.2968145978
 31
0.0
  0
LINE
  5
99
330
1F
100
AcDbEntity
  8
1
  6
SLD-Solid
370
    25
100
AcDbLine
 10
3.95
 20
47.2968145978
 30
0.0
 11
3.95
 21
-47.2968145978
 31
0.0
  0
LINE
  5
9A
330
1F
100
AcDbEntity
  8
1
  6
SLD-Solid
370
    25
100
AcDbLine
 10
18.3
 20
47.2968145978
 30
0.0
 11
14.6397233934
 21
47.2968145978
 31
0.0
  0
LINE
  5
9B
330
1F
100
AcDbEntity
  8
1
  6
SLD-Solid
370
    25
100
AcDbLine
 10
14.6397233934
 20
-47.2968145978
 30
0.0
 11
18.3
 21
-47.2968145978
 31
0.0
  0
LINE
  5
9C
330
1F
100
AcDbEntity
  8
1
  6
SLD-Solid
370
    25
100
AcDbLine
 10
14.6397233934
 20
47.2968145978
 30
0.0
 11
14.6397233934
 21
-47.2968145978
 31
0.0
  0
LINE
  5
9D
330
1F
100
AcDbEntity
  8
1
  6
SLD-Solid
370
    25
100
AcDbLine
 10
3.2
 20
-46.5560855313
 30
0.0
 11
3.2
 21
46.5560855313
 31
0.0
  0
LINE
  5
9E
330
1F
100
AcDbEntity
  8
1
  6
SLD-Solid
370
    25
100
AcDbLine
 10
13.03
 20
44.5790106634
 30
0.0
 11
13.03
 21
41.9871173317
 31
0.0
  0
LINE
  5
9F
330
1F
100
AcDbEntity
  8
1
  6
SLD-Solid
370
    25
100
AcDbLine
 10
13.03
 20
34.6324292339
 30
0.0
 11
13.03
 21
-44.5790106634
 31
0.0
  0
LINE
  5
A0
330
1F
100
AcDbEntity
  8
1
  6
SLD-Solid
370
    25
100
AcDbLine
 10
13.03
 20
41.453113616
 30
0.0
 11
13.03
 21
35.4316103884
 31
0.0
  0
LINE
  5
A1
330
1F
100
AcDbEntity
  8
1
  6
SLD-Solid
370
    25
100
AcDbLine
 10
9.2
 20
44.5790106634
 30
0.0
 11
9.2
 21
41.9587011964
 31
0.0
  0
LINE
  5
A2
330
1F
100
AcDbEntity
  8
1
  6
SLD-Solid
370
    25
100
AcDbLine
 10
9.2
 20
41.4830129515
 30
0.0
 11
9.2
 21
35.3885961177
 31
0.0
  0
LINE
  5
A3
330
1F
100
AcDbEntity
  8
1
  6
SLD-Solid
370
    25
100
AcDbLine
 10
9.2
 20
34.676688935
 30
0.0
 11
9.2
 21
-44.5790106634
 31
0.0
  0
LINE
  5
A4
330
1F
100
AcDbEntity
  8
1
  6
SLD-Solid
370
    25
100
AcDbLine
 10
12.28
 20
33.3554707167
 30
0.0
 11
12.28
 21
-43.7694359685
 31
0.0
  0
LINE
  5
A5
330
1F
100
AcDbEntity
  8
1
  6
SLD-Solid
370
    25
100
AcDbLine
 10
9.95
 20
33.3652595305
 30
0.0
 11
9.95
 21
-43.7694359685
 31
0.0
  0
LINE
  5
A6
330
1F
100
AcDbEntity
  8
1
  6
SLD-Solid
370
    25
100
AcDbLine
 10
9.95
 20
-43.7694359685
 30
0.0
 11
12.28
 21
-43.7694359685
 31
0.0
  0
LINE
  5
A7
330
1F
100
AcDbEntity
  8
1
  6
SLD-Solid
370
    25
100
AcDbLine
 10
1.7476022729
 20
34.925
 30
0.0
 11
1.7476022729
 21
-34.925
 31
0.0
  0
LINE
  5
A8
330
1F
100
AcDbEntity
  8
1
  6
SLD-Solid
370
    25
100
AcDbLine
 10
0.0
 20
34.925
 30
0.0
 11
0.0
 21
-34.925
 31
0.0
  0
LINE
  5
A9
330
1F
100
AcDbEntity
  8
1
  6
SLD-Solid
370
    25
100
AcDbLine
 10
35.1
 20
0.0
 30
0.0
 11
35.1
 21
-34.163
 31
0.0
  0
LINE
  5
AA
330
1F
100
AcDbEntity
  8
1
  6
SLD-Solid
370
    25
100
AcDbLine
 10
35.1
 20
34.163
 30
0.0
 11
35.1
 21
0.0
 31
0.0
  0
LINE
  5
AB
330
1F
100
AcDbEntity
  8
1
  6
SLD-Solid
370
    25
100
AcDbLine
 10
9.2
 20
35.3885961177
 30
0.0
 11
9.2
 21
35.3683101782
 31
0.0
  0
LINE
  5
AC
330
1F
100
AcDbEntity
  8
1
  6
SLD-Solid
370
    25
100
AcDbLine
 10
13.03
 20
35.4113240881
 30
0.0
 11
13.03
 21
35.4316103884
 31
0.0
  0
LINE
  5
AD
330
1F
100
AcDbEntity
  8
1
  6
SLD-Solid
370
    25
100
AcDbLine
 10
9.95
 20
40.2901760725
 30
0.0
 11
9.95
 21
35.4888548114
 31
0.0
  0
LINE
  5
AE
330
1F
100
AcDbEntity
  8
1
  6
SLD-Solid
370
    25
100
AcDbLine
 10
12.28
 20
40.2834337913
 30
0.0
 11
12.28
 21
35.4978726362
 31
0.0
  0
LINE
  5
AF
330
1F
100
AcDbEntity
  8
1
  6
SLD-Solid
370
    25
100
AcDbLine
 10
87.63
 20
22.225
 30
0.0
 11
87.63
 21
-22.225
 31
0.0
  0
LINE
  5
B0
330
1F
100
AcDbEntity
  8
1
  6
SLD-Solid
370
    25
100
AcDbLine
 10
95.25
 20
14.605
 30
0.0
 11
95.25
 21
-14.605
 31
0.0
  0
LINE
  5
B1
330
1F
100
AcDbEntity
  8
1
  6
SLD-Solid
370
    25
100
AcDbLine
 10
9.2
 20
41.9587011964
 30
0.0
 11
9.2
 21
41.9345423913
 31
0.0
  0
LINE
  5
B2
330
1F
100
AcDbEntity
  8
1
  6
SLD-Solid
370
    25
100
AcDbLine
 10
13.03
 20
41.9629580968
 30
0.0
 11
13.03
 21
41.9871173317
 31
0.0
  0
LINE
  5
B3
330
1F
100
AcDbEntity
  8
SK1
  6
SLD-Solid
370
    25
100
AcDbLine
 10
-101.6
 20
-18.2922326599
 30
0.0
 11
-101.6
 21
18.2922326599
 31
0.0
  0
LINE
  5
B4
330
1F
100
AcDbEntity
  8
1
  6
SLD-Solid
370
    25
100
AcDbLine
 10
9.95
 20
43.7694359685
 30
0.0
 11
9.95
 21
41.7091381742
 31
0.0
  0
LINE
  5
B5
330
1F
100
AcDbEntity
  8
1
  6
SLD-Solid
370
    25
100
AcDbLine
 10
12.28
 20
43.7694359685
 30
0.0
 11
12.28
 21
41.714962274
 31
0.0
  0
LINE
  5
B6
330
1F
100
AcDbEntity
  8
1
  6
SLD-Solid
370
    25
100
AcDbLine
 10
9.95
 20
43.7694359685
 30
0.0
 11
12.28
 21
43.7694359685
 31
0.0
  0
LINE
  5
B7
330
1F
100
AcDbEntity
  8
1
  6
SLD-Solid
370
    25
100
AcDbLine
 10
22.225
 20
0.0
 30
0.0
 11
22.225
 21
-34.925
 31
0.0
  0
LINE
  5
B8
330
1F
100
AcDbEntity
  8
1
  6
SLD-Solid
370
    25
100
AcDbLine
 10
22.225
 20
34.925
 30
0.0
 11
22.225
 21
0.0
 31
0.0
  0
LINE
  5
B9
330
1F
100
AcDbEntity
  8
1
  6
SLD-Solid
370
    25
100
AcDbLine
 10
2.1330363037
 20
34.7452691597
 30
0.0
 11
2.1330363037
 21
-34.7452691597
 31
0.0
  0
LINE
  5
BA
330
1F
100
AcDbEntity
  8
1
  6
SLD-Solid
370
    25
100
AcDbLine
 10
34.338
 20
0.0
 30
0.0
 11
34.338
 21
34.925
 31
0.0
  0
LINE
  5
BB
330
1F
100
AcDbEntity
  8
1
  6
SLD-Solid
370
    25
100
AcDbLine
 10
34.338
 20
-34.925
 30
0.0
 11
34.338
 21
0.0
 31
0.0
  0
LINE
  5
BC
330
1F
100
AcDbEntity
  8
SK1
  6
SLD-Solid
370
    25
100
AcDbLine
 10
-99.8030472773
 20
0.0
 30
0.0
 11
-99.8030472773
 21
-20.3702515116
 31
0.0
  0
LINE
  5
BD
330
1F
100
AcDbEntity
  8
SK1
  6
SLD-Solid
370
    25
100
AcDbLine
 10
-99.8030472773
 20
20.3702515116
 30
0.0
 11
-99.8030472773
 21
0.0
 31
0.0
  0
LINE
  5
BE
330
1F
100
AcDbEntity
  8
1
  6
SLD-Solid
370
    25
100
AcDbLine
 10
35.862
 20
0.0
 30
0.0
 11
35.862
 21
-22.225
 31
0.0
  0
LINE
  5
BF
330
1F
100
AcDbEntity
  8
1
  6
SLD-Solid
370
    25
100
AcDbLine
 10
35.862
 20
22.225
 30
0.0
 11
35.862
 21
0.0
 31
0.0
  0
LINE
  5
C0
330
1F
100
AcDbEntity
  8
SK3
  6
SLD-Dashed
370
    18
100
AcDbLine
 10
6.4723069743
 20
-13.9015950424
 30
0.0
 11
6.3056572614
 21
-13.2437532254
 31
0.0
  0
LINE
  5
C1
330
1F
100
AcDbEntity
  8
SK3
  6
SLD-Dashed
370
    18
100
AcDbLine
 10
6.3056572614
 20
-13.2437532254
 30
0.0
 11
6.0455057258
 21
-12.630742241
 31
0.0
  0
LINE
  5
C2
330
1F
100
AcDbEntity
  8
SK3
  6
SLD-Dashed
370
    18
100
AcDbLine
 10
6.0455057258
 20
-12.630742241
 30
0.0
 11
5.7095812647
 21
-12.1043377749
 31
0.0
  0
LINE
  5
C3
330
1F
100
AcDbEntity
  8
SK3
  6
SLD-Dashed
370
    18
100
AcDbLine
 10
5.7095812647
 20
-12.1043377749
 30
0.0
 11
5.3207765751
 21
-11.7004134215
 31
0.0
  0
LINE
  5
C4
330
1F
100
AcDbEntity
  8
SK3
  6
SLD-Dashed
370
    18
100
AcDbLine
 10
5.3207765751
 20
-11.7004134215
 30
0.0
 11
4.905588054
 21
-11.4464959579
 31
0.0
  0
LINE
  5
C5
330
1F
100
AcDbEntity
  8
SK3
  6
SLD-Dashed
370
    18
100
AcDbLine
 10
4.905588054
 20
-11.4464959579
 30
0.0
 11
4.492310113
 21
-11.3598894396
 31
0.0
  0
LINE
  5
C6
330
1F
100
AcDbEntity
  8
SK3
  6
SLD-Dashed
370
    18
100
AcDbLine
 10
4.492310113
 20
-11.3598894396
 30
0.0
 11
4.1091069607
 21
-11.4464959579
 31
0.0
  0
LINE
  5
C7
330
1F
100
AcDbEntity
  8
SK3
  6
SLD-Dashed
370
    18
100
AcDbLine
 10
4.1091069607
 20
-11.4464959579
 30
0.0
 11
3.7820932588
 21
-11.7004134215
 31
0.0
  0
LINE
  5
C8
330
1F
100
AcDbEntity
  8
SK3
  6
SLD-Dashed
370
    18
100
AcDbLine
 10
3.7820932588
 20
-11.7004134215
 30
0.0
 11
3.5335544506
 21
-12.1043377749
 31
0.0
  0
LINE
  5
C9
330
1F
100
AcDbEntity
  8
SK3
  6
SLD-Dashed
370
    18
100
AcDbLine
 10
3.5335544506
 20
-12.1043377749
 30
0.0
 11
3.3804280451
 21
-12.630742241
 31
0.0
  0
LINE
  5
CA
330
1F
100
AcDbEntity
  8
SK3
  6
SLD-Dashed
370
    18
100
AcDbLine
 10
3.3804280451
 20
-12.630742241
 30
0.0
 11
3.3331493539
 21
-13.2437532254
 31
0.0
  0
LINE
  5
CB
330
1F
100
AcDbEntity
  8
SK3
  6
SLD-Dashed
370
    18
100
AcDbLine
 10
3.3331493539
 20
-13.2437532254
 30
0.0
 11
3.3949403416
 21
-13.9015950424
 31
0.0
  0
LINE
  5
CC
330
1F
100
AcDbEntity
  8
SK3
  6
SLD-Dashed
370
    18
100
AcDbLine
 10
3.3949403416
 20
-13.9015950424
 30
0.0
 11
3.5615900545
 21
-14.5594368595
 31
0.0
  0
LINE
  5
CD
330
1F
100
AcDbEntity
  8
SK3
  6
SLD-Dashed
370
    18
100
AcDbLine
 10
3.5615900545
 20
-14.5594368595
 30
0.0
 11
3.8217415901
 21
-15.1724478438
 31
0.0
  0
LINE
  5
CE
330
1F
100
AcDbEntity
  8
SK3
  6
SLD-Dashed
370
    18
100
AcDbLine
 10
3.8217415901
 20
-15.1724478438
 30
0.0
 11
4.1576660511
 21
-15.6988523099
 31
0.0
  0
LINE
  5
CF
330
1F
100
AcDbEntity
  8
SK3
  6
SLD-Dashed
370
    18
100
AcDbLine
 10
4.1576660511
 20
-15.6988523099
 30
0.0
 11
4.5464707407
 21
-16.1027766634
 31
0.0
  0
LINE
  5
D0
330
1F
100
AcDbEntity
  8
SK3
  6
SLD-Dashed
370
    18
100
AcDbLine
 10
4.5464707407
 20
-16.1027766634
 30
0.0
 11
4.9616592619
 21
-16.356694127
 31
0.0
  0
LINE
  5
D1
330
1F
100
AcDbEntity
  8
SK3
  6
SLD-Dashed
370
    18
100
AcDbLine
 10
4.9616592619
 20
-16.356694127
 30
0.0
 11
5.3749372029
 21
-16.4433006452
 31
0.0
  0
LINE
  5
D2
330
1F
100
AcDbEntity
  8
SK3
  6
SLD-Dashed
370
    18
100
AcDbLine
 10
5.3749372029
 20
-16.4433006452
 30
0.0
 11
5.7581403551
 21
-16.356694127
 31
0.0
  0
LINE
  5
D3
330
1F
100
AcDbEntity
  8
SK3
  6
SLD-Dashed
370
    18
100
AcDbLine
 10
5.7581403551
 20
-16.356694127
 30
0.0
 11
6.0851540571
 21
-16.1027766634
 31
0.0
  0
LINE
  5
D4
330
1F
100
AcDbEntity
  8
SK3
  6
SLD-Dashed
370
    18
100
AcDbLine
 10
6.0851540571
 20
-16.1027766634
 30
0.0
 11
6.3336928653
 21
-15.6988523099
 31
0.0
  0
LINE
  5
D5
330
1F
100
AcDbEntity
  8
SK3
  6
SLD-Dashed
370
    18
100
AcDbLine
 10
6.3336928653
 20
-15.6988523099
 30
0.0
 11
6.4868192707
 21
-15.1724478438
 31
0.0
  0
LINE
  5
D6
330
1F
100
AcDbEntity
  8
SK3
  6
SLD-Dashed
370
    18
100
AcDbLine
 10
6.4868192707
 20
-15.1724478438
 30
0.0
 11
6.5340979619
 21
-14.5594368595
 31
0.0
  0
LINE
  5
D7
330
1F
100
AcDbEntity
  8
SK3
  6
SLD-Dashed
370
    18
100
AcDbLine
 10
6.5340979619
 20
-14.5594368595
 30
0.0
 11
6.4723069743
 21
-13.9015950424
 31
0.0
  0
LINE
  5
D8
330
1F
100
AcDbEntity
  8
SK3
  6
SLD-Dashed
370
    18
100
AcDbLine
 10
6.4545594773
 20
-13.8826166832
 30
0.0
 11
6.5127856003
 21
-14.5025060877
 31
0.0
  0
LINE
  5
D9
330
1F
100
AcDbEntity
  8
SK3
  6
SLD-Dashed
370
    18
100
AcDbLine
 10
6.5127856003
 20
-14.5025060877
 30
0.0
 11
6.4682345259
 21
-15.0801510537
 31
0.0
  0
LINE
  5
DA
330
1F
100
AcDbEntity
  8
SK3
  6
SLD-Dashed
370
    18
100
AcDbLine
 10
6.4682345259
 20
-15.0801510537
 30
0.0
 11
6.3239423361
 21
-15.5761860314
 31
0.0
  0
LINE
  5
DB
330
1F
100
AcDbEntity
  8
SK3
  6
SLD-Dashed
370
    18
100
AcDbLine
 10
6.3239423361
 20
-15.5761860314
 30
0.0
 11
6.0897423053
 21
-15.9568070568
 31
0.0
  0
LINE
  5
DC
330
1F
100
AcDbEntity
  8
SK3
  6
SLD-Dashed
370
    18
100
AcDbLine
 10
6.0897423053
 20
-15.9568070568
 30
0.0
 11
5.7815947785
 21
-16.1960754359
 31
0.0
  0
LINE
  5
DD
330
1F
100
AcDbEntity
  8
SK3
  6
SLD-Dashed
370
    18
100
AcDbLine
 10
5.7815947785
 20
-16.1960754359
 30
0.0
 11
5.4204995004
 21
-16.2776854242
 31
0.0
  0
LINE
  5
DE
330
1F
100
AcDbEntity
  8
SK3
  6
SLD-Dashed
370
    18
100
AcDbLine
 10
5.4204995004
 20
-16.2776854242
 30
0.0
 11
5.0310645175
 21
-16.1960754359
 31
0.0
  0
LINE
  5
DF
330
1F
100
AcDbEntity
  8
SK3
  6
SLD-Dashed
370
    18
100
AcDbLine
 10
5.0310645175
 20
-16.1960754359
 30
0.0
 11
4.6398291803
 21
-15.9568070568
 31
0.0
  0
LINE
  5
E0
330
1F
100
AcDbEntity
  8
SK3
  6
SLD-Dashed
370
    18
100
AcDbLine
 10
4.6398291803
 20
-15.9568070568
 30
0.0
 11
4.2734555305
 21
-15.5761860314
 31
0.0
  0
LINE
  5
E1
330
1F
100
AcDbEntity
  8
SK3
  6
SLD-Dashed
370
    18
100
AcDbLine
 10
4.2734555305
 20
-15.5761860314
 30
0.0
 11
3.9569113269
 21
-15.0801510537
 31
0.0
  0
LINE
  5
E2
330
1F
100
AcDbEntity
  8
SK3
  6
SLD-Dashed
370
    18
100
AcDbLine
 10
3.9569113269
 20
-15.0801510537
 30
0.0
 11
3.7117685337
 21
-14.5025060877
 31
0.0
  0
LINE
  5
E3
330
1F
100
AcDbEntity
  8
SK3
  6
SLD-Dashed
370
    18
100
AcDbLine
 10
3.7117685337
 20
-14.5025060877
 30
0.0
 11
3.5547332273
 21
-13.8826166832
 31
0.0
  0
LINE
  5
E4
330
1F
100
AcDbEntity
  8
SK3
  6
SLD-Dashed
370
    18
100
AcDbLine
 10
3.5547332273
 20
-13.8826166832
 30
0.0
 11
3.4965071043
 21
-13.2627272786
 31
0.0
  0
LINE
  5
E5
330
1F
100
AcDbEntity
  8
SK3
  6
SLD-Dashed
370
    18
100
AcDbLine
 10
3.4965071043
 20
-13.2627272786
 30
0.0
 11
3.5410581787
 21
-12.6850823126
 31
0.0
  0
LINE
  5
E6
330
1F
100
AcDbEntity
  8
SK3
  6
SLD-Dashed
370
    18
100
AcDbLine
 10
3.5410581787
 20
-12.6850823126
 30
0.0
 11
3.6853503685
 21
-12.1890473349
 31
0.0
  0
LINE
  5
E7
330
1F
100
AcDbEntity
  8
SK3
  6
SLD-Dashed
370
    18
100
AcDbLine
 10
3.6853503685
 20
-12.1890473349
 30
0.0
 11
3.9195503993
 21
-11.8084263096
 31
0.0
  0
LINE
  5
E8
330
1F
100
AcDbEntity
  8
SK3
  6
SLD-Dashed
370
    18
100
AcDbLine
 10
3.9195503993
 20
-11.8084263096
 30
0.0
 11
4.2276979261
 21
-11.5691579304
 31
0.0
  0
LINE
  5
E9
330
1F
100
AcDbEntity
  8
SK3
  6
SLD-Dashed
370
    18
100
AcDbLine
 10
4.2276979261
 20
-11.5691579304
 30
0.0
 11
4.5887932042
 21
-11.4875479421
 31
0.0
  0
LINE
  5
EA
330
1F
100
AcDbEntity
  8
SK3
  6
SLD-Dashed
370
    18
100
AcDbLine
 10
4.5887932042
 20
-11.4875479421
 30
0.0
 11
4.9782281871
 21
-11.5691579304
 31
0.0
  0
LINE
  5
EB
330
1F
100
AcDbEntity
  8
SK3
  6
SLD-Dashed
370
    18
100
AcDbLine
 10
4.9782281871
 20
-11.5691579304
 30
0.0
 11
5.3694635243
 21
-11.8084263096
 31
0.0
  0
LINE
  5
EC
330
1F
100
AcDbEntity
  8
SK3
  6
SLD-Dashed
370
    18
100
AcDbLine
 10
5.3694635243
 20
-11.8084263096
 30
0.0
 11
5.7358371741
 21
-12.1890473349
 31
0.0
  0
LINE
  5
ED
330
1F
100
AcDbEntity
  8
SK3
  6
SLD-Dashed
370
    18
100
AcDbLine
 10
5.7358371741
 20
-12.1890473349
 30
0.0
 11
6.0523813778
 21
-12.6850823126
 31
0.0
  0
LINE
  5
EE
330
1F
100
AcDbEntity
  8
SK3
  6
SLD-Dashed
370
    18
100
AcDbLine
 10
6.0523813778
 20
-12.6850823126
 30
0.0
 11
6.2975241709
 21
-13.2627272786
 31
0.0
  0
LINE
  5
EF
330
1F
100
AcDbEntity
  8
SK3
  6
SLD-Dashed
370
    18
100
AcDbLine
 10
6.2975241709
 20
-13.2627272786
 30
0.0
 11
6.4545594773
 21
-13.8826166832
 31
0.0
  0
LINE
  5
F0
330
1F
100
AcDbEntity
  8
SK3
  6
SLD-Dashed
370
    18
100
AcDbLine
 10
17.1792841073
 20
-11.0168048658
 30
0.0
 11
17.022248801
 21
-10.3969154613
 31
0.0
  0
LINE
  5
F1
330
1F
100
AcDbEntity
  8
SK3
  6
SLD-Dashed
370
    18
100
AcDbLine
 10
17.022248801
 20
-10.3969154613
 30
0.0
 11
16.7771060078
 21
-9.8192704952
 31
0.0
  0
LINE
  5
F2
330
1F
100
AcDbEntity
  8
SK3
  6
SLD-Dashed
370
    18
100
AcDbLine
 10
16.7771060078
 20
-9.8192704952
 30
0.0
 11
16.4605618041
 21
-9.3232355176
 31
0.0
  0
LINE
  5
F3
330
1F
100
AcDbEntity
  8
SK3
  6
SLD-Dashed
370
    18
100
AcDbLine
 10
16.4605618041
 20
-9.3232355176
 30
0.0
 11
16.0941881543
 21
-8.9426144922
 31
0.0
  0
LINE
  5
F4
330
1F
100
AcDbEntity
  8
SK3
  6
SLD-Dashed
370
    18
100
AcDbLine
 10
16.0941881543
 20
-8.9426144922
 30
0.0
 11
15.7029528171
 21
-8.703346113
 31
0.0
  0
LINE
  5
F5
330
1F
100
AcDbEntity
  8
SK3
  6
SLD-Dashed
370
    18
100
AcDbLine
 10
15.7029528171
 20
-8.703346113
 30
0.0
 11
15.3135178342
 21
-8.6217361247
 31
0.0
  0
LINE
  5
F6
330
1F
100
AcDbEntity
  8
SK3
  6
SLD-Dashed
370
    18
100
AcDbLine
 10
15.3135178342
 20
-8.6217361247
 30
0.0
 11
14.9524225561
 21
-8.703346113
 31
0.0
  0
LINE
  5
F7
330
1F
100
AcDbEntity
  8
SK3
  6
SLD-Dashed
370
    18
100
AcDbLine
 10
14.9524225561
 20
-8.703346113
 30
0.0
 11
14.6442750293
 21
-8.9426144922
 31
0.0
  0
LINE
  5
F8
330
1F
100
AcDbEntity
  8
SK3
  6
SLD-Dashed
370
    18
100
AcDbLine
 10
14.6442750293
 20
-8.9426144922
 30
0.0
 11
14.4100749985
 21
-9.3232355176
 31
0.0
  0
LINE
  5
F9
330
1F
100
AcDbEntity
  8
SK3
  6
SLD-Dashed
370
    18
100
AcDbLine
 10
14.4100749985
 20
-9.3232355176
 30
0.0
 11
14.2657828088
 21
-9.8192704952
 31
0.0
  0
LINE
  5
FA
330
1F
100
AcDbEntity
  8
SK3
  6
SLD-Dashed
370
    18
100
AcDbLine
 10
14.2657828088
 20
-9.8192704952
 30
0.0
 11
14.2212317343
 21
-10.3969154613
 31
0.0
  0
LINE
  5
FB
330
1F
100
AcDbEntity
  8
SK3
  6
SLD-Dashed
370
    18
100
AcDbLine
 10
14.2212317343
 20
-10.3969154613
 30
0.0
 11
14.2794578574
 21
-11.0168048658
 31
0.0
  0
LINE
  5
FC
330
1F
100
AcDbEntity
  8
SK3
  6
SLD-Dashed
370
    18
100
AcDbLine
 10
14.2794578574
 20
-11.0168048658
 30
0.0
 11
14.4364931637
 21
-11.6366942703
 31
0.0
  0
LINE
  5
FD
330
1F
100
AcDbEntity
  8
SK3
  6
SLD-Dashed
370
    18
100
AcDbLine
 10
14.4364931637
 20
-11.6366942703
 30
0.0
 11
14.6816359569
 21
-12.2143392363
 31
0.0
  0
LINE
  5
FE
330
1F
100
AcDbEntity
  8
SK3
  6
SLD-Dashed
370
    18
100
AcDbLine
 10
14.6816359569
 20
-12.2143392363
 30
0.0
 11
14.9981801606
 21
-12.710374214
 31
0.0
  0
LINE
  5
FF
330
1F
100
AcDbEntity
  8
SK3
  6
SLD-Dashed
370
    18
100
AcDbLine
 10
14.9981801606
 20
-12.710374214
 30
0.0
 11
15.3645538104
 21
-13.0909952394
 31
0.0
  0
LINE
  5
100
330
1F
100
AcDbEntity
  8
SK3
  6
SLD-Dashed
370
    18
100
AcDbLine
 10
15.3645538104
 20
-13.0909952394
 30
0.0
 11
15.7557891476
 21
-13.3302636185
 31
0.0
  0
LINE
  5
101
330
1F
100
AcDbEntity
  8
SK3
  6
SLD-Dashed
370
    18
100
AcDbLine
 10
15.7557891476
 20
-13.3302636185
 30
0.0
 11
16.1452241305
 21
-13.4118736069
 31
0.0
  0
LINE
  5
102
330
1F
100
AcDbEntity
  8
SK3
  6
SLD-Dashed
370
    18
100
AcDbLine
 10
16.1452241305
 20
-13.4118736069
 30
0.0
 11
16.5063194086
 21
-13.3302636185
 31
0.0
  0
LINE
  5
103
330
1F
100
AcDbEntity
  8
SK3
  6
SLD-Dashed
370
    18
100
AcDbLine
 10
16.5063194086
 20
-13.3302636185
 30
0.0
 11
16.8144669354
 21
-13.0909952394
 31
0.0
  0
LINE
  5
104
330
1F
100
AcDbEntity
  8
SK3
  6
SLD-Dashed
370
    18
100
AcDbLine
 10
16.8144669354
 20
-13.0909952394
 30
0.0
 11
17.0486669662
 21
-12.710374214
 31
0.0
  0
LINE
  5
105
330
1F
100
AcDbEntity
  8
SK3
  6
SLD-Dashed
370
    18
100
AcDbLine
 10
17.0486669662
 20
-12.710374214
 30
0.0
 11
17.1929591559
 21
-12.2143392363
 31
0.0
  0
LINE
  5
106
330
1F
100
AcDbEntity
  8
SK3
  6
SLD-Dashed
370
    18
100
AcDbLine
 10
17.1929591559
 20
-12.2143392363
 30
0.0
 11
17.2375102304
 21
-11.6366942703
 31
0.0
  0
LINE
  5
107
330
1F
100
AcDbEntity
  8
SK3
  6
SLD-Dashed
370
    18
100
AcDbLine
 10
17.2375102304
 20
-11.6366942703
 30
0.0
 11
17.1792841073
 21
-11.0168048658
 31
0.0
  0
LINE
  5
108
330
1F
100
AcDbEntity
  8
SK3
  6
SLD-Dashed
370
    18
100
AcDbLine
 10
-99.7034043657
 20
-13.19
 30
0.0
 11
-99.7034043657
 21
13.19
 31
0.0
  0
LINE
  5
109
330
1F
100
AcDbEntity
  8
SK3
  6
SLD-Dashed
370
    18
100
AcDbLine
 10
-101.6
 20
-14.2640498169
 30
0.0
 11
-101.6
 21
14.2640498169
 31
0.0
  0
LINE
  5
10A
330
1F
100
AcDbEntity
  8
SK3
  6
SLD-Dashed
370
    18
100
AcDbLine
 10
-95.25
 20
-13.19
 30
0.0
 11
-95.25
 21
13.19
 31
0.0
  0
LINE
  5
10B
330
1F
100
AcDbEntity
  8
SK3
  6
SLD-Dashed
370
    18
100
AcDbLine
 10
-94.0505548158
 20
-11.1125
 30
0.0
 11
-94.0505548158
 21
11.1125
 31
0.0
  0
LINE
  5
10C
330
1F
100
AcDbEntity
  8
SK3
  6
SLD-Dashed
370
    18
100
AcDbLine
 10
3.7
 20
-46.5560855313
 30
0.0
 11
3.7
 21
-35.475
 31
0.0
  0
LINE
  5
10D
330
1F
100
AcDbEntity
  8
SK3
  6
SLD-Dashed
370
    18
100
AcDbLine
 10
18.55
 20
-35.6469844447
 30
0.0
 11
18.55
 21
-46.5560855313
 31
0.0
  0
LINE
  5
10E
330
1F
100
AcDbEntity
  8
1
  6
SLD-Dashed
370
    18
100
AcDbLine
 10
18.3
 20
-46.8162535878
 30
0.0
 11
14.2727106199
 21
-46.8162535878
 31
0.0
  0
LINE
  5
10F
330
1F
100
AcDbEntity
  8
1
  6
SLD-Dashed
370
    18
100
AcDbLine
 10
7.9572893801
 20
-46.8162535878
 30
0.0
 11
3.95
 21
-46.8162535878
 31
0.0
  0
LINE
  5
110
330
1F
100
AcDbEntity
  8
1
  6
SLD-Dashed
370
    18
100
AcDbLine
 10
9.2
 20
-44.5790106634
 30
0.0
 11
9.2
 21
-44.5510215932
 31
0.0
  0
LINE
  5
111
330
1F
100
AcDbEntity
  8
1
  6
SLD-Dashed
370
    18
100
AcDbLine
 10
13.03
 20
-44.5510215932
 30
0.0
 11
13.03
 21
-44.5790106634
 31
0.0
  0
LINE
  5
112
330
1F
100
AcDbEntity
  8
SK3
  6
SLD-Dashed
370
    18
100
AcDbLine
 10
18.7822498517
 20
-35.1
 30
0.0
 11
3.7
 21
-35.1
 31
0.0
  0
LINE
  5
113
330
1F
100
AcDbEntity
  8
SK3
  6
SLD-Dashed
370
    18
100
AcDbLine
 10
3.7
 20
-35.475
 30
0.0
 11
18.5535223503
 21
-35.475
 31
0.0
  0
LINE
  5
114
330
1F
100
AcDbEntity
  8
SK3
  6
SLD-Dashed
370
    18
100
AcDbLine
 10
18.55
 20
46.5560855313
 30
0.0
 11
18.55
 21
37.875
 31
0.0
  0
LINE
  5
115
330
1F
100
AcDbEntity
  8
SK3
  6
SLD-Dashed
370
    18
100
AcDbLine
 10
3.7
 20
37.875
 30
0.0
 11
3.7
 21
46.5560855313
 31
0.0
  0
LINE
  5
116
330
1F
100
AcDbEntity
  8
SK3
  6
SLD-Dashed
370
    18
100
AcDbLine
 10
14.2727106199
 20
46.8162535878
 30
0.0
 11
18.3
 21
46.8162535878
 31
0.0
  0
LINE
  5
117
330
1F
100
AcDbEntity
  8
SK3
  6
SLD-Dashed
370
    18
100
AcDbLine
 10
3.95
 20
46.8162535878
 30
0.0
 11
7.9572893801
 21
46.8162535878
 31
0.0
  0
LINE
  5
118
330
1F
100
AcDbEntity
  8
1
  6
SLD-Dashed
370
    18
100
AcDbLine
 10
13.03
 20
44.5510215932
 30
0.0
 11
13.03
 21
44.5790106634
 31
0.0
  0
LINE
  5
119
330
1F
100
AcDbEntity
  8
1
  6
SLD-Dashed
370
    18
100
AcDbLine
 10
9.2
 20
44.5790106634
 30
0.0
 11
9.2
 21
44.5510215932
 31
0.0
  0
LINE
  5
11A
330
1F
100
AcDbEntity
  8
SK3
  6
SLD-Dashed
370
    18
100
AcDbLine
 10
3.7
 20
37.5
 30
0.0
 11
18.55
 21
37.5
 31
0.0
  0
LINE
  5
11B
330
1F
100
AcDbEntity
  8
SK3
  6
SLD-Dashed
370
    18
100
AcDbLine
 10
18.55
 20
37.875
 30
0.0
 11
3.7
 21
37.875
 31
0.0
  0
LINE
  5
11C
330
1F
100
AcDbEntity
  8
1
  6
SLD-Dashed
370
    18
100
AcDbLine
 10
19.0981429562
 20
-35.1
 30
0.0
 11
18.7822498517
 21
-35.1
 31
0.0
  0
LINE
  5
11D
330
1F
100
AcDbEntity
  8
SK3
  6
SLD-Dashed
370
    18
100
AcDbLine
 10
43.45
 20
-11.1125
 30
0.0
 11
43.45
 21
11.1125
 31
0.0
  0
LINE
  5
11E
330
1F
100
AcDbEntity
  8
SK3
  6
SLD-Dashed
370
    18
100
AcDbLine
 10
44.4038662327
 20
9.525
 30
0.0
 11
44.4038662327
 21
-9.525
 31
0.0
  0
LINE
  5
11F
330
1F
100
AcDbEntity
  8
SK3
  6
SLD-Dashed
370
    18
100
AcDbLine
 10
93.75
 20
-9.525
 30
0.0
 11
93.75
 21
9.525
 31
0.0
  0
LINE
  5
120
330
1F
100
AcDbEntity
  8
SK3
  6
SLD-Dashed
370
    18
100
AcDbLine
 10
95.25
 20
-10.3705210888
 30
0.0
 11
95.25
 21
10.3705210888
 31
0.0
  0
LINE
  5
121
330
1F
100
AcDbEntity
  8
SK3
  6
SLD-Dashed
370
    18
100
AcDbLine
 10
78.95
 20
20.125
 30
0.0
 11
60.75
 21
20.125
 31
0.0
  0
LINE
  5
122
330
1F
100
AcDbEntity
  8
SK3
  6
SLD-Dashed
370
    18
100
AcDbLine
 10
77.0255
 20
20.125
 30
0.0
 11
62.6955543436
 21
20.125
 31
0.0
  0
LINE
  5
123
330
1F
100
AcDbEntity
  8
SK3
  6
SLD-Dashed
370
    18
100
AcDbLine
 10
16.1
 20
33.1
 30
0.0
 11
6.1
 21
33.1
 31
0.0
  0
LINE
  5
124
330
1F
100
AcDbEntity
  8
SK3
  6
SLD-Dashed
370
    18
100
AcDbLine
 10
6.1
 20
37.5
 30
0.0
 11
16.1
 21
37.5
 31
0.0
  0
LINE
  5
125
330
1F
100
AcDbEntity
  8
SK3
  6
SLD-Dashed
370
    18
100
AcDbLine
 10
6.4000000851
 20
32.8
 30
0.0
 11
15.8
 21
32.8
 31
0.0
  0
LINE
  5
126
330
1F
100
AcDbEntity
  8
1
  6
SLD-Dashed
370
    18
100
AcDbLine
 10
12.28
 20
-43.7694359685
 30
0.0
 11
9.95
 21
-43.7694359685
 31
0.0
  0
LINE
  5
127
330
1F
100
AcDbEntity
  8
1
  6
SLD-Dashed
370
    18
100
AcDbLine
 10
12.28
 20
43.7694359685
 30
0.0
 11
9.95
 21
43.7694359685
 31
0.0
  0
LINE
  5
128
330
1F
100
AcDbEntity
  8
SK3
  6
SLD-Dashed
370
    18
100
AcDbLine
 10
3.5547332273
 20
13.8826166832
 30
0.0
 11
3.4965071043
 21
13.2627272786
 31
0.0
  0
LINE
  5
129
330
1F
100
AcDbEntity
  8
SK3
  6
SLD-Dashed
370
    18
100
AcDbLine
 10
3.4965071043
 20
13.2627272786
 30
0.0
 11
3.5410581787
 21
12.6850823126
 31
0.0
  0
LINE
  5
12A
330
1F
100
AcDbEntity
  8
SK3
  6
SLD-Dashed
370
    18
100
AcDbLine
 10
3.5410581787
 20
12.6850823126
 30
0.0
 11
3.6853503685
 21
12.1890473349
 31
0.0
  0
LINE
  5
12B
330
1F
100
AcDbEntity
  8
SK3
  6
SLD-Dashed
370
    18
100
AcDbLine
 10
3.6853503685
 20
12.1890473349
 30
0.0
 11
3.9195503993
 21
11.8084263096
 31
0.0
  0
LINE
  5
12C
330
1F
100
AcDbEntity
  8
SK3
  6
SLD-Dashed
370
    18
100
AcDbLine
 10
3.9195503993
 20
11.8084263096
 30
0.0
 11
4.2276979261
 21
11.5691579304
 31
0.0
  0
LINE
  5
12D
330
1F
100
AcDbEntity
  8
SK3
  6
SLD-Dashed
370
    18
100
AcDbLine
 10
4.2276979261
 20
11.5691579304
 30
0.0
 11
4.5887932042
 21
11.4875479421
 31
0.0
  0
LINE
  5
12E
330
1F
100
AcDbEntity
  8
SK3
  6
SLD-Dashed
370
    18
100
AcDbLine
 10
4.5887932042
 20
11.4875479421
 30
0.0
 11
4.9782281871
 21
11.5691579304
 31
0.0
  0
LINE
  5
12F
330
1F
100
AcDbEntity
  8
SK3
  6
SLD-Dashed
370
    18
100
AcDbLine
 10
4.9782281871
 20
11.5691579304
 30
0.0
 11
5.3694635243
 21
11.8084263096
 31
0.0
  0
LINE
  5
130
330
1F
100
AcDbEntity
  8
SK3
  6
SLD-Dashed
370
    18
100
AcDbLine
 10
5.3694635243
 20
11.8084263096
 30
0.0
 11
5.7358371741
 21
12.1890473349
 31
0.0
  0
LINE
  5
131
330
1F
100
AcDbEntity
  8
SK3
  6
SLD-Dashed
370
    18
100
AcDbLine
 10
5.7358371741
 20
12.1890473349
 30
0.0
 11
6.0523813778
 21
12.6850823126
 31
0.0
  0
LINE
  5
132
330
1F
100
AcDbEntity
  8
SK3
  6
SLD-Dashed
370
    18
100
AcDbLine
 10
6.0523813778
 20
12.6850823126
 30
0.0
 11
6.2975241709
 21
13.2627272786
 31
0.0
  0
LINE
  5
133
330
1F
100
AcDbEntity
  8
SK3
  6
SLD-Dashed
370
    18
100
AcDbLine
 10
6.2975241709
 20
13.2627272786
 30
0.0
 11
6.4545594773
 21
13.8826166832
 31
0.0
  0
LINE
  5
134
330
1F
100
AcDbEntity
  8
SK3
  6
SLD-Dashed
370
    18
100
AcDbLine
 10
6.4545594773
 20
13.8826166832
 30
0.0
 11
6.5127856003
 21
14.5025060877
 31
0.0
  0
LINE
  5
135
330
1F
100
AcDbEntity
  8
SK3
  6
SLD-Dashed
370
    18
100
AcDbLine
 10
6.5127856003
 20
14.5025060877
 30
0.0
 11
6.4682345259
 21
15.0801510537
 31
0.0
  0
LINE
  5
136
330
1F
100
AcDbEntity
  8
SK3
  6
SLD-Dashed
370
    18
100
AcDbLine
 10
6.4682345259
 20
15.0801510537
 30
0.0
 11
6.3239423361
 21
15.5761860314
 31
0.0
  0
LINE
  5
137
330
1F
100
AcDbEntity
  8
SK3
  6
SLD-Dashed
370
    18
100
AcDbLine
 10
6.3239423361
 20
15.5761860314
 30
0.0
 11
6.0897423053
 21
15.9568070568
 31
0.0
  0
LINE
  5
138
330
1F
100
AcDbEntity
  8
SK3
  6
SLD-Dashed
370
    18
100
AcDbLine
 10
6.0897423053
 20
15.9568070568
 30
0.0
 11
5.7815947785
 21
16.1960754359
 31
0.0
  0
LINE
  5
139
330
1F
100
AcDbEntity
  8
SK3
  6
SLD-Dashed
370
    18
100
AcDbLine
 10
5.7815947785
 20
16.1960754359
 30
0.0
 11
5.4204995004
 21
16.2776854242
 31
0.0
  0
LINE
  5
13A
330
1F
100
AcDbEntity
  8
SK3
  6
SLD-Dashed
370
    18
100
AcDbLine
 10
5.4204995004
 20
16.2776854242
 30
0.0
 11
5.0310645175
 21
16.1960754359
 31
0.0
  0
LINE
  5
13B
330
1F
100
AcDbEntity
  8
SK3
  6
SLD-Dashed
370
    18
100
AcDbLine
 10
5.0310645175
 20
16.1960754359
 30
0.0
 11
4.6398291803
 21
15.9568070568
 31
0.0
  0
LINE
  5
13C
330
1F
100
AcDbEntity
  8
SK3
  6
SLD-Dashed
370
    18
100
AcDbLine
 10
4.6398291803
 20
15.9568070568
 30
0.0
 11
4.2734555305
 21
15.5761860314
 31
0.0
  0
LINE
  5
13D
330
1F
100
AcDbEntity
  8
SK3
  6
SLD-Dashed
370
    18
100
AcDbLine
 10
4.2734555305
 20
15.5761860314
 30
0.0
 11
3.9569113269
 21
15.0801510537
 31
0.0
  0
LINE
  5
13E
330
1F
100
AcDbEntity
  8
SK3
  6
SLD-Dashed
370
    18
100
AcDbLine
 10
3.9569113269
 20
15.0801510537
 30
0.0
 11
3.7117685337
 21
14.5025060877
 31
0.0
  0
LINE
  5
13F
330
1F
100
AcDbEntity
  8
SK3
  6
SLD-Dashed
370
    18
100
AcDbLine
 10
3.7117685337
 20
14.5025060877
 30
0.0
 11
3.5547332273
 21
13.8826166832
 31
0.0
  0
LINE
  5
140
330
1F
100
AcDbEntity
  8
SK3
  6
SLD-Dashed
370
    18
100
AcDbLine
 10
14.2794578574
 20
11.0168048658
 30
0.0
 11
14.4364931637
 21
11.6366942703
 31
0.0
  0
LINE
  5
141
330
1F
100
AcDbEntity
  8
SK3
  6
SLD-Dashed
370
    18
100
AcDbLine
 10
14.4364931637
 20
11.6366942703
 30
0.0
 11
14.6816359569
 21
12.2143392363
 31
0.0
  0
LINE
  5
142
330
1F
100
AcDbEntity
  8
SK3
  6
SLD-Dashed
370
    18
100
AcDbLine
 10
14.6816359569
 20
12.2143392363
 30
0.0
 11
14.9981801606
 21
12.710374214
 31
0.0
  0
LINE
  5
143
330
1F
100
AcDbEntity
  8
SK3
  6
SLD-Dashed
370
    18
100
AcDbLine
 10
14.9981801606
 20
12.710374214
 30
0.0
 11
15.3645538104
 21
13.0909952394
 31
0.0
  0
LINE
  5
144
330
1F
100
AcDbEntity
  8
SK3
  6
SLD-Dashed
370
    18
100
AcDbLine
 10
15.3645538104
 20
13.0909952394
 30
0.0
 11
15.7557891476
 21
13.3302636185
 31
0.0
  0
LINE
  5
145
330
1F
100
AcDbEntity
  8
SK3
  6
SLD-Dashed
370
    18
100
AcDbLine
 10
15.7557891476
 20
13.3302636185
 30
0.0
 11
16.1452241305
 21
13.4118736069
 31
0.0
  0
LINE
  5
146
330
1F
100
AcDbEntity
  8
SK3
  6
SLD-Dashed
370
    18
100
AcDbLine
 10
16.1452241305
 20
13.4118736069
 30
0.0
 11
16.5063194086
 21
13.3302636185
 31
0.0
  0
LINE
  5
147
330
1F
100
AcDbEntity
  8
SK3
  6
SLD-Dashed
370
    18
100
AcDbLine
 10
16.5063194086
 20
13.3302636185
 30
0.0
 11
16.8144669354
 21
13.0909952394
 31
0.0
  0
LINE
  5
148
330
1F
100
AcDbEntity
  8
SK3
  6
SLD-Dashed
370
    18
100
AcDbLine
 10
16.8144669354
 20
13.0909952394
 30
0.0
 11
17.0486669662
 21
12.710374214
 31
0.0
  0
LINE
  5
149
330
1F
100
AcDbEntity
  8
SK3
  6
SLD-Dashed
370
    18
100
AcDbLine
 10
17.0486669662
 20
12.710374214
 30
0.0
 11
17.1929591559
 21
12.2143392363
 31
0.0
  0
LINE
  5
14A
330
1F
100
AcDbEntity
  8
SK3
  6
SLD-Dashed
370
    18
100
AcDbLine
 10
17.1929591559
 20
12.2143392363
 30
0.0
 11
17.2375102304
 21
11.6366942703
 31
0.0
  0
LINE
  5
14B
330
1F
100
AcDbEntity
  8
SK3
  6
SLD-Dashed
370
    18
100
AcDbLine
 10
17.2375102304
 20
11.6366942703
 30
0.0
 11
17.1792841073
 21
11.0168048658
 31
0.0
  0
LINE
  5
14C
330
1F
100
AcDbEntity
  8
SK3
  6
SLD-Dashed
370
    18
100
AcDbLine
 10
17.1792841073
 20
11.0168048658
 30
0.0
 11
17.022248801
 21
10.3969154613
 31
0.0
  0
LINE
  5
14D
330
1F
100
AcDbEntity
  8
SK3
  6
SLD-Dashed
370
    18
100
AcDbLine
 10
17.022248801
 20
10.3969154613
 30
0.0
 11
16.7771060078
 21
9.8192704952
 31
0.0
  0
LINE
  5
14E
330
1F
100
AcDbEntity
  8
SK3
  6
SLD-Dashed
370
    18
100
AcDbLine
 10
16.7771060078
 20
9.8192704952
 30
0.0
 11
16.4605618041
 21
9.3232355176
 31
0.0
  0
LINE
  5
14F
330
1F
100
AcDbEntity
  8
SK3
  6
SLD-Dashed
370
    18
100
AcDbLine
 10
16.4605618041
 20
9.3232355176
 30
0.0
 11
16.0941881543
 21
8.9426144922
 31
0.0
  0
LINE
  5
150
330
1F
100
AcDbEntity
  8
SK3
  6
SLD-Dashed
370
    18
100
AcDbLine
 10
16.0941881543
 20
8.9426144922
 30
0.0
 11
15.7029528171
 21
8.703346113
 31
0.0
  0
LINE
  5
151
330
1F
100
AcDbEntity
  8
SK3
  6
SLD-Dashed
370
    18
100
AcDbLine
 10
15.7029528171
 20
8.703346113
 30
0.0
 11
15.3135178342
 21
8.6217361247
 31
0.0
  0
LINE
  5
152
330
1F
100
AcDbEntity
  8
SK3
  6
SLD-Dashed
370
    18
100
AcDbLine
 10
15.3135178342
 20
8.6217361247
 30
0.0
 11
14.9524225561
 21
8.703346113
 31
0.0
  0
LINE
  5
153
330
1F
100
AcDbEntity
  8
SK3
  6
SLD-Dashed
370
    18
100
AcDbLine
 10
14.9524225561
 20
8.703346113
 30
0.0
 11
14.6442750293
 21
8.9426144922
 31
0.0
  0
LINE
  5
154
330
1F
100
AcDbEntity
  8
SK3
  6
SLD-Dashed
370
    18
100
AcDbLine
 10
14.6442750293
 20
8.9426144922
 30
0.0
 11
14.4100749985
 21
9.3232355176
 31
0.0
  0
LINE
  5
155
330
1F
100
AcDbEntity
  8
SK3
  6
SLD-Dashed
370
    18
100
AcDbLine
 10
14.4100749985
 20
9.3232355176
 30
0.0
 11
14.2657828088
 21
9.8192704952
 31
0.0
  0
LINE
  5
156
330
1F
100
AcDbEntity
  8
SK3
  6
SLD-Dashed
370
    18
100
AcDbLine
 10
14.2657828088
 20
9.8192704952
 30
0.0
 11
14.2212317343
 21
10.3969154613
 31
0.0
  0
LINE
  5
157
330
1F
100
AcDbEntity
  8
SK3
  6
SLD-Dashed
370
    18
100
AcDbLine
 10
14.2212317343
 20
10.3969154613
 30
0.0
 11
14.2794578574
 21
11.0168048658
 31
0.0
  0
LINE
  5
158
330
1F
100
AcDbEntity
  8
SK3
  6
SLD-Dashed
370
    18
100
AcDbLine
 10
3.3949403416
 20
13.9015950424
 30
0.0
 11
3.5615900545
 21
14.5594368595
 31
0.0
  0
LINE
  5
159
330
1F
100
AcDbEntity
  8
SK3
  6
SLD-Dashed
370
    18
100
AcDbLine
 10
3.5615900545
 20
14.5594368595
 30
0.0
 11
3.8217415901
 21
15.1724478438
 31
0.0
  0
LINE
  5
15A
330
1F
100
AcDbEntity
  8
SK3
  6
SLD-Dashed
370
    18
100
AcDbLine
 10
3.8217415901
 20
15.1724478438
 30
0.0
 11
4.1576660511
 21
15.6988523099
 31
0.0
  0
LINE
  5
15B
330
1F
100
AcDbEntity
  8
SK3
  6
SLD-Dashed
370
    18
100
AcDbLine
 10
4.1576660511
 20
15.6988523099
 30
0.0
 11
4.5464707407
 21
16.1027766634
 31
0.0
  0
LINE
  5
15C
330
1F
100
AcDbEntity
  8
SK3
  6
SLD-Dashed
370
    18
100
AcDbLine
 10
4.5464707407
 20
16.1027766634
 30
0.0
 11
4.9616592619
 21
16.356694127
 31
0.0
  0
LINE
  5
15D
330
1F
100
AcDbEntity
  8
SK3
  6
SLD-Dashed
370
    18
100
AcDbLine
 10
4.9616592619
 20
16.356694127
 30
0.0
 11
5.3749372029
 21
16.4433006452
 31
0.0
  0
LINE
  5
15E
330
1F
100
AcDbEntity
  8
SK3
  6
SLD-Dashed
370
    18
100
AcDbLine
 10
5.3749372029
 20
16.4433006452
 30
0.0
 11
5.7581403551
 21
16.356694127
 31
0.0
  0
LINE
  5
15F
330
1F
100
AcDbEntity
  8
SK3
  6
SLD-Dashed
370
    18
100
AcDbLine
 10
5.7581403551
 20
16.356694127
 30
0.0
 11
6.0851540571
 21
16.1027766634
 31
0.0
  0
LINE
  5
160
330
1F
100
AcDbEntity
  8
SK3
  6
SLD-Dashed
370
    18
100
AcDbLine
 10
6.0851540571
 20
16.1027766634
 30
0.0
 11
6.3336928653
 21
15.6988523099
 31
0.0
  0
LINE
  5
161
330
1F
100
AcDbEntity
  8
SK3
  6
SLD-Dashed
370
    18
100
AcDbLine
 10
6.3336928653
 20
15.6988523099
 30
0.0
 11
6.4868192707
 21
15.1724478438
 31
0.0
  0
LINE
  5
162
330
1F
100
AcDbEntity
  8
SK3
  6
SLD-Dashed
370
    18
100
AcDbLine
 10
6.4868192707
 20
15.1724478438
 30
0.0
 11
6.5340979619
 21
14.5594368595
 31
0.0
  0
LINE
  5
163
330
1F
100
AcDbEntity
  8
SK3
  6
SLD-Dashed
370
    18
100
AcDbLine
 10
6.5340979619
 20
14.5594368595
 30
0.0
 11
6.4723069743
 21
13.9015950424
 31
0.0
  0
LINE
  5
164
330
1F
100
AcDbEntity
  8
SK3
  6
SLD-Dashed
370
    18
100
AcDbLine
 10
6.4723069743
 20
13.9015950424
 30
0.0
 11
6.3056572614
 21
13.2437532254
 31
0.0
  0
LINE
  5
165
330
1F
100
AcDbEntity
  8
SK3
  6
SLD-Dashed
370
    18
100
AcDbLine
 10
6.3056572614
 20
13.2437532254
 30
0.0
 11
6.0455057258
 21
12.630742241
 31
0.0
  0
LINE
  5
166
330
1F
100
AcDbEntity
  8
SK3
  6
SLD-Dashed
370
    18
100
AcDbLine
 10
6.0455057258
 20
12.630742241
 30
0.0
 11
5.7095812647
 21
12.1043377749
 31
0.0
  0
LINE
  5
167
330
1F
100
AcDbEntity
  8
SK3
  6
SLD-Dashed
370
    18
100
AcDbLine
 10
5.7095812647
 20
12.1043377749
 30
0.0
 11
5.3207765751
 21
11.7004134215
 31
0.0
  0
LINE
  5
168
330
1F
100
AcDbEntity
  8
SK3
  6
SLD-Dashed
370
    18
100
AcDbLine
 10
5.3207765751
 20
11.7004134215
 30
0.0
 11
4.905588054
 21
11.4464959579
 31
0.0
  0
LINE
  5
169
330
1F
100
AcDbEntity
  8
SK3
  6
SLD-Dashed
370
    18
100
AcDbLine
 10
4.905588054
 20
11.4464959579
 30
0.0
 11
4.492310113
 21
11.3598894396
 31
0.0
  0
LINE
  5
16A
330
1F
100
AcDbEntity
  8
SK3
  6
SLD-Dashed
370
    18
100
AcDbLine
 10
4.492310113
 20
11.3598894396
 30
0.0
 11
4.1091069607
 21
11.4464959579
 31
0.0
  0
LINE
  5
16B
330
1F
100
AcDbEntity
  8
SK3
  6
SLD-Dashed
370
    18
100
AcDbLine
 10
4.1091069607
 20
11.4464959579
 30
0.0
 11
3.7820932588
 21
11.7004134215
 31
0.0
  0
LINE
  5
16C
330
1F
100
AcDbEntity
  8
SK3
  6
SLD-Dashed
370
    18
100
AcDbLine
 10
3.7820932588
 20
11.7004134215
 30
0.0
 11
3.5335544506
 21
12.1043377749
 31
0.0
  0
LINE
  5
16D
330
1F
100
AcDbEntity
  8
SK3
  6
SLD-Dashed
370
    18
100
AcDbLine
 10
3.5335544506
 20
12.1043377749
 30
0.0
 11
3.3804280451
 21
12.630742241
 31
0.0
  0
LINE
  5
16E
330
1F
100
AcDbEntity
  8
SK3
  6
SLD-Dashed
370
    18
100
AcDbLine
 10
3.3804280451
 20
12.630742241
 30
0.0
 11
3.3331493539
 21
13.2437532254
 31
0.0
  0
LINE
  5
16F
330
1F
100
AcDbEntity
  8
SK3
  6
SLD-Dashed
370
    18
100
AcDbLine
 10
3.3331493539
 20
13.2437532254
 30
0.0
 11
3.3949403416
 21
13.9015950424
 31
0.0
  0
LINE
  5
170
330
1F
100
AcDbEntity
  8
SK3
  6
SLD-Dashed
370
    18
100
AcDbLine
 10
5.6371324082
 20
-16.2495686026
 30
0.0
 11
16.3618570383
 21
-13.3837567853
 31
0.0
  0
LINE
  5
171
330
1F
100
AcDbEntity
  8
SK3
  6
SLD-Dashed
370
    18
100
AcDbLine
 10
15.0968849264
 20
-8.6498529463
 30
0.0
 11
4.3721602964
 21
-11.5156647637
 31
0.0
  0
LINE
  5
172
330
1F
100
AcDbEntity
  8
SK3
  6
SLD-Dashed
370
    18
100
AcDbLine
 10
-101.6
 20
-14.285
 30
0.0
 11
-99.7034043657
 21
-13.19
 31
0.0
  0
LINE
  5
173
330
1F
100
AcDbEntity
  8
SK3
  6
SLD-Dashed
370
    18
100
AcDbLine
 10
-99.7034043657
 20
13.19
 30
0.0
 11
-101.6
 21
14.285
 31
0.0
  0
LINE
  5
174
330
1F
100
AcDbEntity
  8
SK3
  6
SLD-Dashed
370
    18
100
AcDbLine
 10
-99.7034043657
 20
-13.19
 30
0.0
 11
-95.25
 21
-13.19
 31
0.0
  0
LINE
  5
175
330
1F
100
AcDbEntity
  8
SK3
  6
SLD-Dashed
370
    18
100
AcDbLine
 10
-95.25
 20
13.19
 30
0.0
 11
-99.7034043657
 21
13.19
 31
0.0
  0
LINE
  5
176
330
1F
100
AcDbEntity
  8
SK3
  6
SLD-Dashed
370
    18
100
AcDbLine
 10
-95.25
 20
-13.19
 30
0.0
 11
-94.0505548158
 21
-11.1125
 31
0.0
  0
LINE
  5
177
330
1F
100
AcDbEntity
  8
SK3
  6
SLD-Dashed
370
    18
100
AcDbLine
 10
-94.0505548158
 20
11.1125
 30
0.0
 11
-95.25
 21
13.19
 31
0.0
  0
LINE
  5
178
330
1F
100
AcDbEntity
  8
SK3
  6
SLD-Dashed
370
    18
100
AcDbLine
 10
-94.0505548158
 20
-11.1125
 30
0.0
 11
43.45
 21
-11.1125
 31
0.0
  0
LINE
  5
179
330
1F
100
AcDbEntity
  8
SK3
  6
SLD-Dashed
370
    18
100
AcDbLine
 10
43.45
 20
11.1125
 30
0.0
 11
-94.0505548158
 21
11.1125
 31
0.0
  0
LINE
  5
17A
330
1F
100
AcDbEntity
  8
SK3
  6
SLD-Dashed
370
    18
100
AcDbLine
 10
43.45
 20
-11.1125
 30
0.0
 11
44.4038662327
 21
-9.525
 31
0.0
  0
LINE
  5
17B
330
1F
100
AcDbEntity
  8
SK3
  6
SLD-Dashed
370
    18
100
AcDbLine
 10
44.4038662327
 20
9.525
 30
0.0
 11
43.45
 21
11.1125
 31
0.0
  0
LINE
  5
17C
330
1F
100
AcDbEntity
  8
SK3
  6
SLD-Dashed
370
    18
100
AcDbLine
 10
95.25
 20
10.3910254038
 30
0.0
 11
93.75
 21
9.525
 31
0.0
  0
LINE
  5
17D
330
1F
100
AcDbEntity
  8
SK3
  6
SLD-Dashed
370
    18
100
AcDbLine
 10
93.75
 20
-9.525
 30
0.0
 11
95.25
 21
-10.3910254038
 31
0.0
  0
LINE
  5
17E
330
1F
100
AcDbEntity
  8
SK3
  6
SLD-Dashed
370
    18
100
AcDbLine
 10
62.6745
 20
9.525
 30
0.0
 11
44.4038662327
 21
9.525
 31
0.0
  0
LINE
  5
17F
330
1F
100
AcDbEntity
  8
SK3
  6
SLD-Dashed
370
    18
100
AcDbLine
 10
93.75
 20
9.525
 30
0.0
 11
77.0245042669
 21
9.525
 31
0.0
  0
LINE
  5
180
330
1F
100
AcDbEntity
  8
SK3
  6
SLD-Dashed
370
    18
100
AcDbLine
 10
44.4038662327
 20
-9.525
 30
0.0
 11
93.75
 21
-9.525
 31
0.0
  0
LINE
  5
181
330
1F
100
AcDbEntity
  8
SK3
  6
SLD-Dashed
370
    18
100
AcDbLine
 10
60.75
 20
22.225
 30
0.0
 11
60.75
 21
20.125
 31
0.0
  0
LINE
  5
182
330
1F
100
AcDbEntity
  8
SK3
  6
SLD-Dashed
370
    18
100
AcDbLine
 10
78.95
 20
20.125
 30
0.0
 11
78.95
 21
22.225
 31
0.0
  0
LINE
  5
183
330
1F
100
AcDbEntity
  8
SK3
  6
SLD-Dashed
370
    18
100
AcDbLine
 10
62.6745
 20
20.125
 30
0.0
 11
62.6745
 21
9.525
 31
0.0
  0
LINE
  5
184
330
1F
100
AcDbEntity
  8
SK3
  6
SLD-Dashed
370
    18
100
AcDbLine
 10
77.0255
 20
9.5242507082
 30
0.0
 11
77.0255
 21
20.125
 31
0.0
  0
LINE
  5
185
330
1F
100
AcDbEntity
  8
SK3
  6
SLD-Dashed
370
    18
100
AcDbLine
 10
6.1
 20
37.5
 30
0.0
 11
6.1
 21
33.1
 31
0.0
  0
LINE
  5
186
330
1F
100
AcDbEntity
  8
SK3
  6
SLD-Dashed
370
    18
100
AcDbLine
 10
16.1
 20
33.1
 30
0.0
 11
16.1
 21
37.5
 31
0.0
  0
LINE
  5
187
330
1F
100
AcDbEntity
  8
SK3
  6
SLD-Dashed
370
    18
100
AcDbLine
 10
4.3721602964
 20
11.5156647637
 30
0.0
 11
15.0968849264
 21
8.6498529463
 31
0.0
  0
LINE
  5
188
330
1F
100
AcDbEntity
  8
SK3
  6
SLD-Dashed
370
    18
100
AcDbLine
 10
16.3618570383
 20
13.3837567853
 30
0.0
 11
5.6371324082
 21
16.2495686026
 31
0.0
  0
LINE
  5
189
330
1F
100
AcDbEntity
  8
SK3
  6
SLD-Solid
370
    18
100
AcDbLine
 10
-55.5999986827
 20
12.6999998465
 30
0.0
 11
-94.967097044
 21
12.6999998465
 31
0.0
  0
LINE
  5
18A
330
1F
100
AcDbEntity
  8
SK3
  6
SLD-Solid
370
    18
100
AcDbLine
 10
-94.967097044
 20
-12.6999998465
 30
0.0
 11
-55.5999986827
 21
-12.6999998465
 31
0.0
  0
LINE
  5
18B
330
1F
100
AcDbEntity
  8
SK3
  6
SLD-Solid
370
    18
100
AcDbLine
 10
-55.5999986827
 20
0.0
 30
0.0
 11
-55.5999986827
 21
-1.7674983246
 31
0.0
  0
LINE
  5
18C
330
1F
100
AcDbEntity
  8
SK3
  6
SLD-Solid
370
    18
100
AcDbLine
 10
-55.6000100193
 20
-1.7674983246
 30
0.0
 11
-55.5999986827
 21
-3.5005945247
 31
0.0
  0
LINE
  5
18D
330
1F
100
AcDbEntity
  8
SK3
  6
SLD-Solid
370
    18
100
AcDbLine
 10
-55.5999986827
 20
-3.5005945247
 30
0.0
 11
-55.5999986827
 21
-5.1655555144
 31
0.0
  0
LINE
  5
18E
330
1F
100
AcDbEntity
  8
SK3
  6
SLD-Solid
370
    18
100
AcDbLine
 10
-55.5999986827
 20
-5.1655555144
 30
0.0
 11
-55.5999986827
 21
-6.7299748771
 31
0.0
  0
LINE
  5
18F
330
1F
100
AcDbEntity
  8
SK3
  6
SLD-Solid
370
    18
100
AcDbLine
 10
-55.5999986827
 20
-6.7299748771
 30
0.0
 11
-55.5999986827
 21
-8.1634027883
 31
0.0
  0
LINE
  5
190
330
1F
100
AcDbEntity
  8
SK3
  6
SLD-Solid
370
    18
100
AcDbLine
 10
-55.5999986827
 20
-8.1634027883
 30
0.0
 11
-55.5999986827
 21
-9.4379391521
 31
0.0
  0
LINE
  5
191
330
1F
100
AcDbEntity
  8
SK3
  6
SLD-Solid
370
    18
100
AcDbLine
 10
-55.5999986827
 20
-9.4379391521
 30
0.0
 11
-55.5999986827
 21
-10.5287767947
 31
0.0
  0
LINE
  5
192
330
1F
100
AcDbEntity
  8
SK3
  6
SLD-Solid
370
    18
100
AcDbLine
 10
-55.5999986827
 20
-10.5287767947
 30
0.0
 11
-55.5999986827
 21
-11.4146843553
 31
0.0
  0
LINE
  5
193
330
1F
100
AcDbEntity
  8
SK3
  6
SLD-Solid
370
    18
100
AcDbLine
 10
-55.5999986827
 20
-11.4146843553
 30
0.0
 11
-55.5999986827
 21
-12.0784174651
 31
0.0
  0
LINE
  5
194
330
1F
100
AcDbEntity
  8
SK3
  6
SLD-Solid
370
    18
100
AcDbLine
 10
-55.5999986827
 20
-12.0784174651
 30
0.0
 11
-55.5999986827
 21
-12.5070586801
 31
0.0
  0
LINE
  5
195
330
1F
100
AcDbEntity
  8
SK3
  6
SLD-Solid
370
    18
100
AcDbLine
 10
-55.5999986827
 20
-12.5070586801
 30
0.0
 11
-55.5999986827
 21
-12.6922633499
 31
0.0
  0
LINE
  5
196
330
1F
100
AcDbEntity
  8
SK3
  6
SLD-Solid
370
    18
100
AcDbLine
 10
-55.5999986827
 20
-12.6922633499
 30
0.0
 11
-55.5999986827
 21
-12.6999998465
 31
0.0
  0
LINE
  5
197
330
1F
100
AcDbEntity
  8
SK3
  6
SLD-Solid
370
    18
100
AcDbLine
 10
-55.6000100193
 20
12.6999998465
 30
0.0
 11
-55.5999986827
 21
12.6922633499
 31
0.0
  0
LINE
  5
198
330
1F
100
AcDbEntity
  8
SK3
  6
SLD-Solid
370
    18
100
AcDbLine
 10
-55.5999986827
 20
12.6922633499
 30
0.0
 11
-55.5999986827
 21
12.5070586801
 31
0.0
  0
LINE
  5
199
330
1F
100
AcDbEntity
  8
SK3
  6
SLD-Solid
370
    18
100
AcDbLine
 10
-55.5999986827
 20
12.5070586801
 30
0.0
 11
-55.5999986827
 21
12.0784174651
 31
0.0
  0
LINE
  5
19A
330
1F
100
AcDbEntity
  8
SK3
  6
SLD-Solid
370
    18
100
AcDbLine
 10
-55.5999986827
 20
12.0784174651
 30
0.0
 11
-55.5999986827
 21
11.4146843553
 31
0.0
  0
LINE
  5
19B
330
1F
100
AcDbEntity
  8
SK3
  6
SLD-Solid
370
    18
100
AcDbLine
 10
-55.5999986827
 20
11.4146843553
 30
0.0
 11
-55.5999986827
 21
10.5287767947
 31
0.0
  0
LINE
  5
19C
330
1F
100
AcDbEntity
  8
SK3
  6
SLD-Solid
370
    18
100
AcDbLine
 10
-55.5999986827
 20
10.5287767947
 30
0.0
 11
-55.5999986827
 21
9.4379391521
 31
0.0
  0
LINE
  5
19D
330
1F
100
AcDbEntity
  8
SK3
  6
SLD-Solid
370
    18
100
AcDbLine
 10
-55.5999986827
 20
9.4379391521
 30
0.0
 11
-55.5999986827
 21
8.1634027883
 31
0.0
  0
LINE
  5
19E
330
1F
100
AcDbEntity
  8
SK3
  6
SLD-Solid
370
    18
100
AcDbLine
 10
-55.5999986827
 20
8.1634027883
 30
0.0
 11
-55.5999986827
 21
6.7299748771
 31
0.0
  0
LINE
  5
19F
330
1F
100
AcDbEntity
  8
SK3
  6
SLD-Solid
370
    18
100
AcDbLine
 10
-55.5999986827
 20
6.7299748771
 30
0.0
 11
-55.5999986827
 21
5.1655555144
 31
0.0
  0
LINE
  5
1A0
330
1F
100
AcDbEntity
  8
SK3
  6
SLD-Solid
370
    18
100
AcDbLine
 10
-55.5999986827
 20
5.1655555144
 30
0.0
 11
-55.5999986827
 21
3.5005945247
 31
0.0
  0
LINE
  5
1A1
330
1F
100
AcDbEntity
  8
SK3
  6
SLD-Solid
370
    18
100
AcDbLine
 10
-55.5999986827
 20
3.5005945247
 30
0.0
 11
-55.5999986827
 21
1.7674983246
 31
0.0
  0
LINE
  5
1A2
330
1F
100
AcDbEntity
  8
SK3
  6
SLD-Solid
370
    18
100
AcDbLine
 10
-55.5999986827
 20
1.7674983246
 30
0.0
 11
-55.5999986827
 21
0.0
 31
0.0
  0
LINE
  5
1A3
330
1F
100
AcDbEntity
  8
SK3
  6
SLD-Solid
370
    18
100
AcDbLine
 10
77.7875036001
 20
9.4598382711
 30
0.0
 11
77.7875036001
 21
20.1249998063
 31
0.0
  0
LINE
  5
1A4
330
1F
100
AcDbEntity
  8
SK3
  6
SLD-Solid
370
    18
100
AcDbLine
 10
61.9124993682
 20
20.1249998063
 30
0.0
 11
61.9124993682
 21
9.4598382711
 31
0.0
  0
LINE
  5
1A5
330
1F
100
AcDbEntity
  8
SK3
  6
SLD-Solid
370
    18
100
AcDbLine
 10
77.7091756463
 20
9.4598382711
 30
0.0
 11
77.7273476124
 21
9.4749284908
 31
0.0
  0
LINE
  5
1A6
330
1F
100
AcDbEntity
  8
4
  6
SLD-Center
370
    18
100
AcDbLine
 10
94.3194137056
 20
0.0
 30
0.0
 11
-0.2206238271
 21
0.0
 31
0.0
  0
LINE
  5
1A7
330
1F
100
AcDbEntity
  8
4
  6
SLD-Center
370
    18
100
AcDbLine
 10
69.85
 20
7.525
 30
0.0
 11
69.85
 21
22.125
 31
0.0
  0
LINE
  5
1A8
330
1F
100
AcDbEntity
  8
SK4
  6
SLD-Center
370
    18
100
AcDbLine
 10
95.25
 20
0.0
 30
0.0
 11
-100.1322544015
 21
0.0
 31
0.0
  0
LINE
  5
1A9
330
1F
100
AcDbEntity
  8
81
370
    18
100
AcDbLine
 10
95.25
 20
0.0
 30
0.0
 11
98.7855339059
 21
3.5355339059
 31
0.0
  0
LINE
  5
1AA
330
1F
100
AcDbEntity
  8
81
370
    18
100
AcDbLine
 10
95.25
 20
0.0
 30
0.0
 11
91.7144660941
 21
-3.5355339059
 31
0.0
  0
LINE
  5
1AB
330
1F
100
AcDbEntity
  8
81
370
    18
100
AcDbLine
 10
95.25
 20
0.0
 30
0.0
 11
91.7144660941
 21
3.5355339059
 31
0.0
  0
LINE
  5
1AC
330
1F
100
AcDbEntity
  8
81
100
AcDbLine
 10
95.25
 20
0.0
 30
0.0
 11
105.25
 21
0.0
 31
0.0
  0
LINE
  5
1AD
330
1F
100
AcDbEntity
  8
81
370
    18
100
AcDbLine
 10
95.25
 20
0.0
 30
0.0
 11
98.7855339059
 21
-3.5355339059
 31
0.0
  0
LINE
  5
1AE
330
1F
100
AcDbEntity
  8
80
370
    18
100
AcDbLine
 10
0.0
 20
0.0
 30
0.0
 11
-3.5355339059
 21
-3.5355339059
 31
0.0
  0
LINE
  5
1AF
330
1F
100
AcDbEntity
  8
80
370
    18
100
AcDbLine
 10
0.0
 20
0.0
 30
0.0
 11
3.5355339059
 21
3.5355339059
 31
0.0
  0
LINE
  5
1B0
330
1F
100
AcDbEntity
  8
80
370
    18
100
AcDbLine
 10
0.0
 20
0.0
 30
0.0
 11
-3.5355339059
 21
3.5355339059
 31
0.0
  0
LINE
  5
1B1
330
1F
100
AcDbEntity
  8
80
370
    18
100
AcDbLine
 10
0.0
 20
0.0
 30
0.0
 11
-10.0
 21
0.0
 31
0.0
  0
LINE
  5
1B2
330
1F
100
AcDbEntity
  8
80
370
    18
100
AcDbLine
 10
0.0
 20
0.0
 30
0.0
 11
3.5355339059
 21
-3.5355339059
 31
0.0
  0
ARC
  5
1B3
330
1F
100
AcDbEntity
  8
1
  6
SLD-Solid
370
    25
100
AcDbCircle
 10
22.225
 20
-38.1
 30
0.0
 40
3.175000000000012
100
AcDbArc
 50
90.0
 51
107.9721126401
  0
ARC
  5
1B4
330
1F
100
AcDbEntity
  8
1
  6
SLD-Solid
370
    25
100
AcDbCircle
 10
22.225
 20
38.1
 30
0.0
 40
3.175000000000003
100
AcDbArc
 50
197.6425513437
 51
270.0
  0
ARC
  5
1B5
330
1F
100
AcDbEntity
  8
1
  6
SLD-Solid
370
    25
100
AcDbCircle
 10
2.45
 20
35.425
 30
0.0
 40
0.7500000000000012
100
AcDbArc
 50
245.0
 51
0.0
  0
ARC
  5
1B6
330
1F
100
AcDbEntity
  8
1
  6
SLD-Solid
370
    25
100
AcDbCircle
 10
2.45
 20
-35.425
 30
0.0
 40
0.7500000000000008
100
AcDbArc
 50
41.3114298321
 51
115.0
  0
ARC
  5
1B7
330
1F
100
AcDbEntity
  8
1
  6
SLD-Solid
370
    25
100
AcDbCircle
 10
34.338
 20
-34.163
 30
0.0
 40
0.7620000000000147
100
AcDbArc
 50
270.0
 51
0.0
  0
ARC
  5
1B8
330
1F
100
AcDbEntity
  8
1
  6
SLD-Solid
370
    25
100
AcDbCircle
 10
34.338
 20
34.163
 30
0.0
 40
0.7620000000000147
100
AcDbArc
 50
0.0
 51
90.0
  0
ARC
  5
1B9
330
1F
100
AcDbEntity
  8
1
  6
SLD-Solid
370
    25
100
AcDbCircle
 10
35.862
 20
-22.987
 30
0.0
 40
0.7620000000000005
100
AcDbArc
 50
90.0
 51
180.0
  0
ARC
  5
1BA
330
1F
100
AcDbEntity
  8
1
  6
SLD-Solid
370
    25
100
AcDbCircle
 10
35.862
 20
22.987
 30
0.0
 40
0.7620000000000005
100
AcDbArc
 50
180.0
 51
270.0
  0
ARC
  5
1BB
330
1F
100
AcDbEntity
  8
SK1
  6
SLD-Solid
370
    25
100
AcDbCircle
 10
-99.5
 20
18.2922326599
 30
0.0
 40
2.100000000000009
100
AcDbArc
 50
98.2972222222
 51
180.0
  0
ARC
  5
1BC
330
1F
100
AcDbEntity
  8
SK1
  6
SLD-Solid
370
    25
100
AcDbCircle
 10
-99.5
 20
-18.2922326599
 30
0.0
 40
2.100000000000009
100
AcDbArc
 50
180.0
 51
261.7027777778
  0
ARC
  5
1BD
330
1F
100
AcDbEntity
  8
1
  6
SLD-Solid
370
    25
100
AcDbCircle
 10
69.8495715613
 20
43.3370646377
 30
0.0
 40
22.98959494788777
100
AcDbArc
 50
246.6833359427
 51
293.2746671008
  0
ARC
  5
1BE
330
1F
100
AcDbEntity
  8
1
370
    18
100
AcDbCircle
 10
69.8366338208
 20
-51.5423574793
 30
0.0
 40
30.95971850130131
100
AcDbArc
 50
71.2538418881
 51
108.7204800231
  0
CIRCLE
  5
1BF
330
1F
100
AcDbEntity
  8
81
370
    18
100
AcDbCircle
 10
95.25
 20
0.0
 30
0.0
 40
2.499999999999984
  0
CIRCLE
  5
1C0
330
1F
100
AcDbEntity
  8
80
370
    18
100
AcDbCircle
 10
0.0
 20
0.0
 30
0.0
 40
2.500000000000009
  0
SPLINE
  5
1C1
330
1F
100
AcDbEntity
  8
1
  6
SLD-Solid
370
    25
100
AcDbSpline
210
0.0
220
0.0
230
1.0
 70
     8
 71
     3
 72
    15
 73
    11
 74
     0
 42
0.000000001
 43
0.00000001
 40
0.0
 40
0.0
 40
0.0
 40
0.0
 40
0.070867546718904
 40
0.1234206290198622
 40
0.2469923695819581
 40
0.4940839350894875
 40
0.6226370203369791
 40
0.7456896564301834
 40
0.8736712713987574
 40
1.0
 40
1.0
 40
1.0
 40
1.0
 10
19.05000000000005
 20
46.5560855313245
 30
0.0
 10
19.04912781744748
 20
46.5834464176208
 30
0.0
 10
19.04760885250169
 20
46.63109725292662
 30
0.0
 10
19.03252103265989
 20
46.72541301613892
 30
0.0
 10
18.9854843527479
 20
46.88286431586829
 30
0.0
 10
18.87493087111876
 20
47.04890219769219
 30
0.0
 10
18.72384724369284
 20
47.17307551094377
 30
0.0
 10
18.59213990211468
 20
47.24320117897881
 30
0.0
 10
18.44967423040801
 20
47.28829435244311
 30
0.0
 10
18.34967476177364
 20
47.29398684875633
 30
0.0
 10
18.30000000000005
 20
47.29681459776455
 30
0.0
  0
SPLINE
  5
1C2
330
1F
100
AcDbEntity
  8
1
  6
SLD-Solid
370
    25
100
AcDbSpline
210
0.0
220
0.0
230
1.0
 70
     8
 71
     3
 72
    17
 73
    13
 74
     0
 42
0.000000001
 43
0.00000001
 40
0.0
 40
0.0
 40
0.0
 40
0.0
 40
0.0630032775928244
 40
0.1264255145164359
 40
0.1902723992052092
 40
0.2545494864403975
 40
0.3775220565990108
 40
0.5060745131694486
 40
0.7530868479257335
 40
0.8766189647887314
 40
0.9291281236415206
 40
1.0
 40
1.0
 40
1.0
 40
1.0
 10
18.30000000000006
 20
-47.29681459776453
 30
0.0
 10
18.32475164308732
 20
-47.29611449351906
 30
0.0
 10
18.37441952279136
 20
-47.29470962947343
 30
0.0
 10
18.44842793030989
 20
-47.28333219768231
 30
0.0
 10
18.52143947480413
 20
-47.26511586576105
 30
0.0
 10
18.61416786280808
 20
-47.23171555105665
 30
0.0
 10
18.72385214455221
 20
-47.17299015816837
 30
0.0
 10
18.8749114531568
 20
-47.04896950385697
 30
0.0
 10
18.98548607083735
 20
-46.88285547485727
 30
0.0
 10
19.03251790131817
 20
-46.72542368447884
 30
0.0
 10
19.04760777321172
 20
-46.63110760621148
 30
0.0
 10
19.04912721204645
 20
-46.5834568338835
 30
0.0
 10
19.05000000000005
 20
-46.55608553132448
 30
0.0
  0
SPLINE
  5
1C3
330
1F
100
AcDbEntity
  8
1
  6
SLD-Solid
370
    25
100
AcDbSpline
210
0.0
220
0.0
230
1.0
 70
     8
 71
     3
 72
    17
 73
    13
 74
     0
 42
0.000000001
 43
0.00000001
 40
0.0
 40
0.0
 40
0.0
 40
0.0
 40
0.0631225276679342
 40
0.1266732404557587
 40
0.1906578598239172
 40
0.2550819704917586
 40
0.3779677562094053
 40
0.5065287291742404
 40
0.7536275741715814
 40
0.8770326867277843
 40
0.9293515934451574
 40
1.0
 40
1.0
 40
1.0
 40
1.0
 10
3.950000000000496
 20
47.29681459776535
 30
0.0
 10
3.925201491186804
 20
47.2961118221471
 30
0.0
 10
3.875436255446785
 20
47.29470150370507
 30
0.0
 10
3.801280717948574
 20
47.28327895415993
 30
0.0
 10
3.728120549121483
 20
47.26498746189561
 30
0.0
 10
3.635342933307717
 20
47.23149463842035
 30
0.0
 10
3.525682301867745
 20
47.17267397042667
 30
0.0
 10
3.374709300492697
 20
47.04854698610416
 30
0.0
 10
3.264271220664723
 20
46.88235514412739
 30
0.0
 10
3.217384189869263
 20
46.7249770438064
 30
0.0
 10
3.202376761223138
 20
46.63086119232443
 30
0.0
 10
3.200867255992176
 20
46.58337040934779
 30
0.0
 10
3.200000000000182
 20
46.55608553132568
 30
0.0
  0
SPLINE
  5
1C4
330
1F
100
AcDbEntity
  8
1
  6
SLD-Solid
370
    25
100
AcDbSpline
210
0.0
220
0.0
230
1.0
 70
     8
 71
     3
 72
    15
 73
    11
 74
     0
 42
0.000000001
 43
0.00000001
 40
0.0
 40
0.0
 40
0.0
 40
0.0
 40
0.0706444553244054
 40
0.1230070220820591
 40
0.2464519664937497
 40
0.4936305683608074
 40
0.6221925257186993
 40
0.7451585040522147
 40
0.8734243513616926
 40
1.0
 40
1.0
 40
1.0
 40
1.0
 10
3.200000000000577
 20
-46.55608553132289
 30
0.0
 10
3.200866659521822
 20
-46.58336011202044
 30
0.0
 10
3.202375698078061
 20
-46.63085095804279
 30
0.0
 10
3.217381100721104
 20
-46.72496648979285
 30
0.0
 10
3.264272940321194
 20
-46.88236398819239
 30
0.0
 10
3.374689890642824
 20
-47.04847961820811
 30
0.0
 10
3.525687269930591
 20
-47.17275942449461
 30
0.0
 10
3.657408732901421
 20
-47.24302192313508
 30
0.0
 10
3.800019421906262
 20
-47.28825997247587
 30
0.0
 10
3.900228013541867
 20
-47.29397569222361
 30
0.0
 10
3.950000000000495
 20
-47.29681459776298
 30
0.0
  0
SPLINE
  5
1C5
330
1F
100
AcDbEntity
  8
1
  6
SLD-Solid
370
    25
100
AcDbSpline
210
0.0
220
0.0
230
1.0
 70
     8
 71
     3
 72
    14
 73
    10
 74
     0
 42
0.000000001
 43
0.00000001
 40
0.0
 40
0.0
 40
0.0
 40
0.0
 40
0.25
 40
0.25
 40
0.5
 40
0.5
 40
0.75
 40
0.75
 40
1.0
 40
1.0
 40
1.0
 40
1.0
 10
13.02999999999827
 20
41.98711733167755
 30
0.0
 10
13.05904068228986
 20
41.99358445675027
 30
0.0
 10
13.08275209483204
 20
41.98923559021229
 30
0.0
 10
13.11609658322674
 20
41.95189511103971
 30
0.0
 10
13.124921400677
 20
41.91935250782257
 30
0.0
 10
13.12507754967977
 20
41.82511380577431
 30
0.0
 10
13.1161505320919
 20
41.76334893397041
 30
0.0
 10
13.08319562521606
 20
41.6208767288617
 30
0.0
 10
13.05911019949664
 20
41.53942138187503
 30
0.0
 10
13.03000000000001
 20
41.45311361597685
 30
0.0
  0
SPLINE
  5
1C6
330
1F
100
AcDbEntity
  8
1
  6
SLD-Solid
370
    25
100
AcDbSpline
210
0.0
220
0.0
230
1.0
 70
     8
 71
     3
 72
     8
 73
     4
 74
     0
 42
0.000000001
 43
0.00000001
 40
0.0
 40
0.0
 40
0.0
 40
0.0
 40
1.0
 40
1.0
 40
1.0
 40
1.0
 10
13.02999999999999
 20
44.57901066343648
 30
0.0
 10
13.44364613314281
 20
45.32508460154333
 30
0.0
 10
13.85791150908241
 20
46.07082082932959
 30
0.0
 10
14.27271061994659
 20
46.81625358782996
 30
0.0
  0
SPLINE
  5
1C7
330
1F
100
AcDbEntity
  8
1
  6
SLD-Solid
370
    25
100
AcDbSpline
210
0.0
220
0.0
230
1.0
 70
     8
 71
     3
 72
     8
 73
     4
 74
     0
 42
0.000000001
 43
0.00000001
 40
0.0
 40
0.0
 40
0.0
 40
0.0
 40
0.0008790679015123
 40
0.0008790679015123
 40
0.0008790679015123
 40
0.0008790679015123
 10
14.63972339340267
 20
47.29681459776457
 30
0.0
 10
14.51700841932646
 20
47.13673210499615
 30
0.0
 10
14.3946651361474
 20
46.97654627942757
 30
0.0
 10
14.27271061994659
 20
46.81625358782996
 30
0.0
  0
SPLINE
  5
1C8
330
1F
100
AcDbEntity
  8
1
  6
SLD-Solid
370
    25
100
AcDbSpline
210
0.0
220
0.0
230
1.0
 70
     8
 71
     3
 72
     8
 73
     4
 74
     0
 42
0.000000001
 43
0.00000001
 40
0.0
 40
0.0
 40
0.0
 40
0.0
 40
0.0008790679015124
 40
0.0008790679015124
 40
0.0008790679015124
 40
0.0008790679015124
 10
14.27271061994656
 20
-46.81625358782991
 30
0.0
 10
14.39466513614737
 20
-46.97654627942753
 30
0.0
 10
14.51700841932646
 20
-47.13673210499612
 30
0.0
 10
14.63972339340267
 20
-47.29681459776455
 30
0.0
  0
SPLINE
  5
1C9
330
1F
100
AcDbEntity
  8
1
  6
SLD-Solid
370
    25
100
AcDbSpline
210
0.0
220
0.0
230
1.0
 70
     8
 71
     3
 72
     8
 73
     4
 74
     0
 42
0.000000001
 43
0.00000001
 40
0.0
 40
0.0
 40
0.0
 40
0.0
 40
1.0
 40
1.0
 40
1.0
 40
1.0
 10
13.02999999999999
 20
-44.57901066343648
 30
0.0
 10
13.44364296143338
 20
-45.32507888088131
 30
0.0
 10
13.85790662910269
 20
-46.07081205955007
 30
0.0
 10
14.27271061994656
 20
-46.81625358782991
 30
0.0
  0
SPLINE
  5
1CA
330
1F
100
AcDbEntity
  8
1
  6
SLD-Solid
370
    25
100
AcDbSpline
210
0.0
220
0.0
230
1.0
 70
     8
 71
     3
 72
    14
 73
    10
 74
     0
 42
0.000000001
 43
0.00000001
 40
0.0
 40
0.0
 40
0.0
 40
0.0
 40
0.25
 40
0.25
 40
0.5
 40
0.5
 40
0.75
 40
0.75
 40
1.0
 40
1.0
 40
1.0
 40
1.0
 10
13.03000000000001
 20
35.43161038841291
 30
0.0
 10
13.05904068229164
 20
35.4108851273387
 30
0.0
 10
13.08275209483379
 20
35.37953864703778
 30
0.0
 10
13.11609658322841
 20
35.28872072742522
 30
0.0
 10
13.12492140067854
 20
35.23076880196018
 30
0.0
 10
13.12507754968098
 20
35.08956907537858
 30
0.0
 10
13.11615053209289
 20
35.00648906177567
 30
0.0
 10
13.08319562521661
 20
34.82779421025371
 30
0.0
 10
13.0591101994969
 20
34.73111937885587
 30
0.0
 10
13.02999999999999
 20
34.63242923389115
 30
0.0
  0
SPLINE
  5
1CB
330
1F
100
AcDbEntity
  8
1
  6
SLD-Solid
370
    25
100
AcDbSpline
210
0.0
220
0.0
230
1.0
 70
     8
 71
     3
 72
     8
 73
     4
 74
     0
 42
0.000000001
 43
0.00000001
 40
0.0
 40
0.0
 40
0.0
 40
0.0
 40
1.0
 40
1.0
 40
1.0
 40
1.0
 10
7.957289380055382
 20
-46.8162535878264
 30
0.0
 10
8.372093370898614
 20
-46.07081205954773
 30
0.0
 10
8.786357038567255
 20
-45.32507888088014
 30
0.0
 10
9.199999999999985
 20
-44.57901066343647
 30
0.0
  0
SPLINE
  5
1CC
330
1F
100
AcDbEntity
  8
1
  6
SLD-Solid
370
    25
100
AcDbSpline
210
0.0
220
0.0
230
1.0
 70
     8
 71
     3
 72
     8
 73
     4
 74
     0
 42
0.000000001
 43
0.00000001
 40
0.0
 40
0.0
 40
0.0
 40
0.0
 40
0.0008790679015151
 40
0.0008790679015151
 40
0.0008790679015151
 40
0.0008790679015151
 10
7.590276606597807
 20
-47.29681459776298
 30
0.0
 10
7.712991580674511
 20
-47.13673210499391
 30
0.0
 10
7.835334863854071
 20
-46.97654627942467
 30
0.0
 10
7.957289380055382
 20
-46.8162535878264
 30
0.0
  0
SPLINE
  5
1CD
330
1F
100
AcDbEntity
  8
1
  6
SLD-Solid
370
    25
100
AcDbSpline
210
0.0
220
0.0
230
1.0
 70
     8
 71
     3
 72
     8
 73
     4
 74
     0
 42
0.000000001
 43
0.00000001
 40
0.0000000000000097
 40
0.0000000000000097
 40
0.0000000000000097
 40
0.0000000000000097
 40
0.000879067901516
 40
0.000879067901516
 40
0.000879067901516
 40
0.000879067901516
 10
7.957289380062127
 20
46.81625358782997
 30
0.0
 10
7.835334863861161
 20
46.9765462794285
 30
0.0
 10
7.712991580674729
 20
47.13673210499601
 30
0.0
 10
7.590276606598371
 20
47.29681459776535
 30
0.0
  0
SPLINE
  5
1CE
330
1F
100
AcDbEntity
  8
1
  6
SLD-Solid
370
    25
100
AcDbSpline
210
0.0
220
0.0
230
1.0
 70
     8
 71
     3
 72
     8
 73
     4
 74
     0
 42
0.000000001
 43
0.00000001
 40
0.0
 40
0.0
 40
0.0
 40
0.0
 40
1.0
 40
1.0
 40
1.0
 40
1.0
 10
7.957289380055715
 20
46.81625358784152
 30
0.0
 10
8.372088490919111
 20
46.07082082933729
 30
0.0
 10
8.78635386685797
 20
45.32508460154716
 30
0.0
 10
9.199999999999985
 20
44.57901066343646
 30
0.0
  0
SPLINE
  5
1CF
330
1F
100
AcDbEntity
  8
1
  6
SLD-Solid
370
    25
100
AcDbSpline
210
0.0
220
0.0
230
1.0
 70
     8
 71
     3
 72
    14
 73
    10
 74
     0
 42
0.000000001
 43
0.00000001
 40
0.0
 40
0.0
 40
0.0
 40
0.0
 40
0.25
 40
0.25
 40
0.5
 40
0.5
 40
0.75
 40
0.75
 40
1.0
 40
1.0
 40
1.0
 40
1.0
 10
9.200000000000014
 20
41.48301295145394
 30
0.0
 10
9.176680646155033
 20
41.55645645104916
 30
0.0
 10
9.157956892053972
 20
41.6242930684385
 30
0.0
 10
9.131927678783692
 20
41.7460060792512
 30
0.0
 10
9.125045582367717
 20
41.7986057344133
 30
0.0
 10
9.124954879643408
 20
41.88147815789129
 30
0.0
 10
9.13187050530484
 20
41.91255410941356
 30
0.0
 10
9.157670888230385
 20
41.95124091970151
 30
0.0
 10
9.176601575159566
 20
41.95960923610554
 30
0.0
 10
9.199999999999985
 20
41.9587011964232
 30
0.0
  0
SPLINE
  5
1D0
330
1F
100
AcDbEntity
  8
1
  6
SLD-Solid
370
    25
100
AcDbSpline
210
0.0
220
0.0
230
1.0
 70
     8
 71
     3
 72
    14
 73
    10
 74
     0
 42
0.000000001
 43
0.00000001
 40
0.0
 40
0.0
 40
0.0
 40
0.0
 40
0.25
 40
0.25
 40
0.5
 40
0.5
 40
0.75
 40
0.75
 40
1.0
 40
1.0
 40
1.0
 40
1.0
 10
9.199999999999985
 20
34.67668893498512
 30
0.0
 10
9.176680646154987
 20
34.76218380134746
 30
0.0
 10
9.157956892053933
 20
34.8440912290536
 30
0.0
 10
9.131927678783722
 20
34.99897222909968
 30
0.0
 10
9.125045582367724
 20
35.07047900120352
 30
0.0
 10
9.124954879643425
 20
35.19440944821478
 30
0.0
 10
9.131870505304862
 20
35.24816533561741
 30
0.0
 10
9.157670888230411
 20
35.33309634836883
 30
0.0
 10
9.176601575159593
 20
35.36545280972794
 30
0.0
 10
9.200000000000014
 20
35.38859611770598
 30
0.0
  0
SPLINE
  5
1D1
330
1F
100
AcDbEntity
  8
1
  6
SLD-Solid
370
    25
100
AcDbSpline
210
0.0
220
0.0
230
1.0
 70
     8
 71
     3
 72
    12
 73
     8
 74
     0
 42
0.000000001
 43
0.00000001
 40
0.0
 40
0.0
 40
0.0
 40
0.0
 40
0.2500000000000024
 40
0.2500000000000024
 40
0.5000000000000048
 40
0.5000000000000048
 40
1.0
 40
1.0
 40
1.0
 40
1.0
 10
12.28000000000035
 20
-43.76943596849289
 30
0.0
 10
12.37996960464138
 20
-43.76943596849295
 30
0.0
 10
12.47988502523395
 20
-43.79051518316412
 30
0.0
 10
12.66449294223887
 20
-43.871942628437
 30
0.0
 10
12.74728498815342
 20
-43.93126060501218
 30
0.0
 10
12.9534203395972
 20
-44.15080408372873
 30
0.0
 10
13.02999999999999
 20
-44.35163254795804
 30
0.0
 10
13.02999999999999
 20
-44.551021593225
 30
0.0
  0
SPLINE
  5
1D2
330
1F
100
AcDbEntity
  8
1
  6
SLD-Solid
370
    25
100
AcDbSpline
210
0.0
220
0.0
230
1.0
 70
     8
 71
     3
 72
    16
 73
    12
 74
     0
 42
0.000000001
 43
0.00000001
 40
0.0
 40
0.0
 40
0.0
 40
0.0
 40
0.125000000000004
 40
0.125000000000004
 40
0.250000000000008
 40
0.250000000000008
 40
0.5000000000000053
 40
0.5000000000000053
 40
0.7500000000000027
 40
0.7500000000000027
 40
1.0
 40
1.0
 40
1.0
 40
1.0
 10
13.03000000000008
 20
34.61214293353773
 30
0.0
 10
13.0300000000001
 20
34.56209057487062
 30
0.0
 10
13.02065294411487
 20
34.49418168319007
 30
0.0
 10
12.99398048511281
 20
34.36464403352263
 30
0.0
 10
12.97642696335004
 20
34.29963512189951
 30
0.0
 10
12.91552537677528
 20
34.11109008879483
 30
0.0
 10
12.8633928642198
 20
33.99146656597647
 30
0.0
 10
12.73589508719249
 20
33.76735702152867
 30
0.0
 10
12.6617724793801
 20
33.66488016959328
 30
0.0
 10
12.4871762099199
 20
33.48393706595355
 30
0.0
 10
12.38852389941581
 20
33.40790877807649
 30
0.0
 10
12.28000000000035
 20
33.35547071674124
 30
0.0
  0
SPLINE
  5
1D3
330
1F
100
AcDbEntity
  8
1
  6
SLD-Solid
370
    25
100
AcDbSpline
210
0.0
220
0.0
230
1.0
 70
     8
 71
     3
 72
    12
 73
     8
 74
     0
 42
0.000000001
 43
0.00000001
 40
0.0
 40
0.0
 40
0.0
 40
0.0
 40
0.5000000000000016
 40
0.5000000000000016
 40
0.7500000000000008
 40
0.7500000000000008
 40
1.0
 40
1.0
 40
1.0
 40
1.0
 10
9.199999999999985
 20
-44.55102159322551
 30
0.0
 10
9.199999999999847
 20
-44.35094747116209
 30
0.0
 10
9.27761307014993
 20
-44.14958800989108
 30
0.0
 10
9.482511037300384
 20
-43.93153570225763
 30
0.0
 10
9.566272299852157
 20
-43.87162606259768
 30
0.0
 10
9.749092094904293
 20
-43.79094541821729
 30
0.0
 10
9.849426682175588
 20
-43.76943596849289
 30
0.0
 10
9.949999999999987
 20
-43.76943596849289
 30
0.0
  0
SPLINE
  5
1D4
330
1F
100
AcDbEntity
  8
1
  6
SLD-Solid
370
    25
100
AcDbSpline
210
0.0
220
0.0
230
1.0
 70
     8
 71
     3
 72
    16
 73
    12
 74
     0
 42
0.000000001
 43
0.00000001
 40
0.0
 40
0.0
 40
0.0
 40
0.0
 40
0.2499999999999969
 40
0.2499999999999969
 40
0.4999999999999939
 40
0.4999999999999939
 40
0.7499999999999909
 40
0.7499999999999909
 40
0.8749999999999954
 40
0.8749999999999954
 40
1.0
 40
1.0
 40
1.0
 40
1.0
 10
9.949999999999987
 20
33.36525953046014
 30
0.0
 10
9.840115197249421
 20
33.4197339938551
 30
0.0
 10
9.740114634528313
 20
33.4988820403402
 30
0.0
 10
9.565186575114847
 20
33.6850080742535
 30
0.0
 10
9.491074608996175
 20
33.7903437621943
 30
0.0
 10
9.364150836068175
 20
34.02052030270346
 30
0.0
 10
9.313098047975089
 20
34.14219698698259
 30
0.0
 10
9.253526192128492
 20
34.33375876751868
 30
0.0
 10
9.236261752998825
 20
34.40012850280864
 30
0.0
 10
9.209647219000583
 20
34.53399128948845
 30
0.0
 10
9.200000000000042
 20
34.60475446881949
 30
0.0
 10
9.200000000000042
 20
34.65640299543512
 30
0.0
  0
SPLINE
  5
1D5
330
1F
100
AcDbEntity
  8
1
  6
SLD-Solid
370
    25
100
AcDbSpline
210
0.0
220
0.0
230
1.0
 70
     8
 71
     3
 72
    12
 73
     8
 74
     0
 42
0.000000001
 43
0.00000001
 40
0.0
 40
0.0
 40
0.0
 40
0.0
 40
0.25
 40
0.25
 40
0.5
 40
0.5
 40
1.0
 40
1.0
 40
1.0
 40
1.0
 10
12.28000000000035
 20
33.35547071674124
 30
0.0
 10
12.10934456477558
 20
33.27301109054183
 30
0.0
 10
11.92465326465536
 20
33.21019284332255
 30
0.0
 10
11.5275227783791
 20
33.12414278909395
 30
0.0
 10
11.32193513118809
 20
33.10278110396337
 30
0.0
 10
10.69948105299445
 20
33.10504385732284
 30
0.0
 10
10.28831449591988
 20
33.197542974916
 30
0.0
 10
9.949999999999987
 20
33.36525953046014
 30
0.0
  0
SPLINE
  5
1D6
330
1F
100
AcDbEntity
  8
1
  6
SLD-Solid
370
    25
100
AcDbSpline
210
0.0
220
0.0
230
1.0
 70
     8
 71
     3
 72
    13
 73
     9
 74
     0
 42
0.000000001
 43
0.00000001
 40
0.0
 40
0.0
 40
0.0
 40
0.0
 40
0.1960472677911146
 40
0.3942617306908394
 40
0.5931809606462034
 40
0.7913642899926576
 40
0.9898516374289872
 40
1.0
 40
1.0
 40
1.0
 40
1.0
 10
19.25065123241004
 20
-34.76440750354268
 30
0.0
 10
19.35865784775595
 20
-34.80081809572409
 30
0.0
 10
19.57586503239114
 20
-34.87404177922994
 30
0.0
 10
20.04482659250623
 20
-34.95970173661901
 30
0.0
 10
20.56710933580988
 20
-35.02540070549479
 30
0.0
 10
21.02439915645904
 20
-35.06364837420981
 30
0.0
 10
21.32317139974885
 20
-35.08028440874138
 30
0.0
 10
21.24964963093554
 20
-35.07574398613257
 30
0.0
 10
21.24607341875809
 20
-35.07552313297728
 30
0.0
  0
SPLINE
  5
1D7
330
1F
100
AcDbEntity
  8
1
  6
SLD-Solid
370
    25
100
AcDbSpline
210
0.0
220
0.0
230
1.0
 70
     8
 71
     3
 72
    17
 73
    13
 74
     0
 42
0.000000001
 43
0.00000001
 40
0.0
 40
0.0
 40
0.0
 40
0.0
 40
0.0606361621510615
 40
0.1207168787710862
 40
0.2403231312353945
 40
0.3595967694346581
 40
0.4812107392701022
 40
0.6052766757149955
 40
0.732871642717688
 40
0.8644826116660481
 40
0.9320973732728586
 40
0.9999999999999999
 40
0.9999999999999999
 40
0.9999999999999999
 40
0.9999999999999999
 10
19.05304311898404
 20
-35.4954646098945
 30
0.0
 10
19.05422898104198
 20
-35.4699887860552
 30
0.0
 10
19.05658984230379
 20
-35.41927050460555
 30
0.0
 10
19.0643008764696
 20
-35.31904371442428
 30
0.0
 10
19.07846721406317
 20
-35.19814330474059
 30
0.0
 10
19.10270431629069
 20
-35.06706196322404
 30
0.0
 10
19.13244993631324
 20
-34.95525087824951
 30
0.0
 10
19.16538073252133
 20
-34.86623220335445
 30
0.0
 10
19.19856369832079
 20
-34.8025385329223
 30
0.0
 10
19.22346869776959
 20
-34.77281787071224
 30
0.0
 10
19.24048525040259
 20
-34.76265330523569
 30
0.0
 10
19.24725777635627
 20
-34.76382194330265
 30
0.0
 10
19.25065123241004
 20
-34.76440750354268
 30
0.0
  0
SPLINE
  5
1D8
330
1F
100
AcDbEntity
  8
1
  6
SLD-Solid
370
    25
100
AcDbSpline
210
0.0
220
0.0
230
1.0
 70
     8
 71
     3
 72
     9
 73
     5
 74
     0
 42
0.000000001
 43
0.00000001
 40
0.0
 40
0.0
 40
0.0
 40
0.0
 40
0.5421741172203216
 40
0.9999999999999999
 40
0.9999999999999999
 40
0.9999999999999999
 40
0.9999999999999999
 10
3.013459616417705
 20
-34.92999006961136
 30
0.0
 10
3.042141050605935
 20
-34.91655753195414
 30
0.0
 10
3.09504183151238
 20
-34.89178221120275
 30
0.0
 10
3.157263339646221
 20
-34.71616667625502
 30
0.0
 10
3.185749956535491
 20
-34.63576533893775
 30
0.0
  0
SPLINE
  5
1D9
330
1F
100
AcDbEntity
  8
1
  6
SLD-Solid
370
    25
100
AcDbSpline
210
0.0
220
0.0
230
1.0
 70
     8
 71
     3
 72
    16
 73
    12
 74
     0
 42
0.000000001
 43
0.00000001
 40
0.0
 40
0.0
 40
0.0
 40
0.0
 40
0.125
 40
0.125
 40
0.25
 40
0.25
 40
0.5
 40
0.5
 40
0.75
 40
0.75
 40
1.0
 40
1.0
 40
1.0
 40
1.0
 10
9.200000000000014
 20
35.3683101781561
 30
0.0
 10
9.199999999999985
 20
35.31637419223151
 30
0.0
 10
9.209653399712165
 20
35.29145106668645
 30
0.0
 10
9.236312882941855
 20
35.26502419973843
 30
0.0
 10
9.253245568983992
 20
35.26191874349169
 30
0.0
 10
9.312936770244528
 20
35.26171132606324
 30
0.0
 10
9.364625487604638
 20
35.27496925509706
 30
0.0
 10
9.489800989275071
 20
35.3114986341994
 30
0.0
 10
9.564994697034008
 20
35.33617423114893
 30
0.0
 10
9.73962716086374
 20
35.39959085682598
 30
0.0
 10
9.83968508468211
 20
35.43845618139893
 30
0.0
 10
9.949999999999932
 20
35.4888548114272
 30
0.0
  0
SPLINE
  5
1DA
330
1F
100
AcDbEntity
  8
1
  6
SLD-Solid
370
    25
100
AcDbSpline
210
0.0
220
0.0
230
1.0
 70
     8
 71
     3
 72
    12
 73
     8
 74
     0
 42
0.000000001
 43
0.00000001
 40
0.0
 40
0.0
 40
0.0
 40
0.0
 40
0.2500000000000006
 40
0.2500000000000006
 40
0.5000000000000011
 40
0.5000000000000011
 40
1.0
 40
1.0
 40
1.0
 40
1.0
 10
9.949999999999932
 20
35.4888548114272
 30
0.0
 10
10.11915676939232
 20
35.566136015087
 30
0.0
 10
10.3027077051995
 20
35.62476545356026
 30
0.0
 10
10.69826560395118
 20
35.70597605697909
 30
0.0
 10
10.9034564783034
 20
35.72681273192539
 30
0.0
 10
11.52590240230575
 20
35.72953904175682
 30
0.0
 10
11.93868796900796
 20
35.64974792445717
 30
0.0
 10
12.28000000000026
 20
35.49787263616142
 30
0.0
  0
SPLINE
  5
1DB
330
1F
100
AcDbEntity
  8
1
  6
SLD-Solid
370
    25
100
AcDbSpline
210
0.0
220
0.0
230
1.0
 70
     8
 71
     3
 72
    16
 73
    12
 74
     0
 42
0.000000001
 43
0.00000001
 40
0.0
 40
0.0
 40
0.0
 40
0.0
 40
0.2499999999999983
 40
0.2499999999999983
 40
0.4999999999999966
 40
0.4999999999999966
 40
0.7499999999999949
 40
0.7499999999999949
 40
0.8749999999999974
 40
0.8749999999999974
 40
1.0
 40
1.0
 40
1.0
 40
1.0
 10
12.28000000000029
 20
35.49787263616142
 30
0.0
 10
12.38853978314586
 20
35.44957515655351
 30
0.0
 10
12.4874842718827
 20
35.41247399379458
 30
0.0
 10
12.66182611876379
 20
35.35254969893804
 30
0.0
 10
12.73596354499201
 20
35.33014005380279
 30
0.0
 10
12.86356884435597
 20
35.29801454822605
 30
0.0
 10
12.91541979328986
 20
35.28785227470994
 30
0.0
 10
12.97600089482362
 20
35.29430212593839
 30
0.0
 10
12.99363960592959
 20
35.30002273764809
 30
0.0
 10
13.02061187691306
 20
35.33215045104407
 30
0.0
 10
13.03000000000004
 20
35.36105294416014
 30
0.0
 10
13.03000000000004
 20
35.41132408806018
 30
0.0
  0
SPLINE
  5
1DC
330
1F
100
AcDbEntity
  8
1
  6
SLD-Solid
370
    25
100
AcDbSpline
210
0.0
220
0.0
230
1.0
 70
     8
 71
     3
 72
    16
 73
    12
 74
     0
 42
0.000000001
 43
0.00000001
 40
0.0
 40
0.0
 40
0.0
 40
0.0
 40
0.2500000000000006
 40
0.2500000000000006
 40
0.5000000000000012
 40
0.5000000000000012
 40
0.7500000000000018
 40
0.7500000000000018
 40
0.8750000000000009
 40
0.8750000000000009
 40
1.0
 40
1.0
 40
1.0
 40
1.0
 10
9.949999999999932
 20
40.29017607249197
 30
0.0
 10
9.840115197249366
 20
40.32769191515911
 30
0.0
 10
9.740114634528258
 20
40.39110305640845
 30
0.0
 10
9.565186575114792
 20
40.54750991912181
 30
0.0
 10
9.491074608996119
 20
40.63905997016499
 30
0.0
 10
9.364150836068147
 20
40.84333315092832
 30
0.0
 10
9.31309804797506
 20
40.95302853274269
 30
0.0
 10
9.253526192128463
 20
41.13112475441036
 30
0.0
 10
9.236261752998798
 20
41.19364638304933
 30
0.0
 10
9.209647219000555
 20
41.32498537604351
 30
0.0
 10
9.200000000000014
 20
41.39734520374324
 30
0.0
 10
9.200000000000014
 20
41.45885414630704
 30
0.0
  0
SPLINE
  5
1DD
330
1F
100
AcDbEntity
  8
1
  6
SLD-Solid
370
    25
100
AcDbSpline
210
0.0
220
0.0
230
1.0
 70
     8
 71
     3
 72
    16
 73
    12
 74
     0
 42
0.000000001
 43
0.00000001
 40
0.0
 40
0.0
 40
0.0
 40
0.0
 40
0.1249999999999948
 40
0.1249999999999948
 40
0.2499999999999896
 40
0.2499999999999896
 40
0.499999999999993
 40
0.499999999999993
 40
0.7499999999999964
 40
0.7499999999999964
 40
1.0
 40
1.0
 40
1.0
 40
1.0
 10
13.02999999999824
 20
41.42895438114488
 30
0.0
 10
13.02999999999827
 20
41.36934633700165
 30
0.0
 10
13.02065294411303
 20
41.29866354917704
 30
0.0
 10
12.99398048511094
 20
41.16986773975709
 30
0.0
 10
12.97642696334814
 20
41.1079016240509
 30
0.0
 10
12.91552537677335
 20
40.93090731801535
 30
0.0
 10
12.86339286421786
 20
40.82239922313002
 30
0.0
 10
12.73589508719056
 20
40.62247008442407
 30
0.0
 10
12.66177247937814
 20
40.53306728339819
 30
0.0
 10
12.48717620991788
 20
40.38055877071125
 30
0.0
 10
12.38852389941378
 20
40.31955634524484
 30
0.0
 10
12.27999999999829
 20
40.28343379132438
 30
0.0
  0
SPLINE
  5
1DE
330
1F
100
AcDbEntity
  8
1
  6
SLD-Solid
370
    25
100
AcDbSpline
210
0.0
220
0.0
230
1.0
 70
     8
 71
     3
 72
    12
 73
     8
 74
     0
 42
0.000000001
 43
0.00000001
 40
0.0
 40
0.0
 40
0.0
 40
0.0
 40
0.25
 40
0.25
 40
0.5
 40
0.5
 40
1.0
 40
1.0
 40
1.0
 40
1.0
 10
12.27999999999829
 20
40.28343379132438
 30
0.0
 10
12.10934456477356
 20
40.22663054158927
 30
0.0
 10
11.92465326465331
 20
40.18318651206265
 30
0.0
 10
11.5275227783771
 20
40.12362389225026
 30
0.0
 10
11.32193513118607
 20
40.1088014771118
 30
0.0
 10
10.69948105299248
 20
40.11037023230921
 30
0.0
 10
10.28831449592002
 20
40.17467189827298
 30
0.0
 10
9.949999999999932
 20
40.29017607249197
 30
0.0
  0
SPLINE
  5
1DF
330
1F
100
AcDbEntity
  8
1
  6
SLD-Solid
370
    25
100
AcDbSpline
210
0.0
220
0.0
230
1.0
 70
     8
 71
     3
 72
    16
 73
    12
 74
     0
 42
0.000000001
 43
0.00000001
 40
0.0
 40
0.0
 40
0.0
 40
0.0
 40
0.1250000000000012
 40
0.1250000000000012
 40
0.2500000000000024
 40
0.2500000000000024
 40
0.5000000000000017
 40
0.5000000000000017
 40
0.7500000000000009
 40
0.7500000000000009
 40
1.0
 40
1.0
 40
1.0
 40
1.0
 10
9.199999999999985
 20
41.93454239127637
 30
0.0
 10
9.199999999999985
 20
41.87269110945758
 30
0.0
 10
9.20965339971211
 20
41.83108806168619
 30
0.0
 10
9.23631288294183
 20
41.77149290519164
 30
0.0
 10
9.253245568983965
 20
41.75157832991432
 30
0.0
 10
9.312936770244505
 20
41.70114802861768
 30
0.0
 10
9.364625487604615
 20
41.68138882053812
 30
0.0
 10
9.489800989275047
 20
41.65594900314563
 30
0.0
 10
9.564994697034011
 20
41.65085588902674
 30
0.0
 10
9.739627160863742
 20
41.66120386718121
 30
0.0
 10
9.83968508468214
 20
41.67658338490403
 30
0.0
 10
9.949999999999962
 20
41.70913817421916
 30
0.0
  0
SPLINE
  5
1E0
330
1F
100
AcDbEntity
  8
1
  6
SLD-Solid
370
    25
100
AcDbSpline
210
0.0
220
0.0
230
1.0
 70
     8
 71
     3
 72
    12
 73
     8
 74
     0
 42
0.000000001
 43
0.00000001
 40
0.0
 40
0.0
 40
0.0
 40
0.0
 40
0.25
 40
0.25
 40
0.5
 40
0.5
 40
1.0
 40
1.0
 40
1.0
 40
1.0
 10
9.949999999999958
 20
41.70913817421916
 30
0.0
 10
10.11915676939221
 20
41.7590576522237
 30
0.0
 10
10.30270770520092
 20
41.7967364999947
 30
0.0
 10
10.69826560395212
 20
41.84886357628838
 30
0.0
 10
10.90345647830399
 20
41.86219397810802
 30
0.0
 10
11.52590240230522
 20
41.86393994692296
 30
0.0
 10
11.9386879690066
 20
41.81303425518615
 30
0.0
 10
12.27999999999832
 20
41.71496227397313
 30
0.0
  0
SPLINE
  5
1E1
330
1F
100
AcDbEntity
  8
1
  6
SLD-Solid
370
    25
100
AcDbSpline
210
0.0
220
0.0
230
1.0
 70
     8
 71
     3
 72
    16
 73
    12
 74
     0
 42
0.000000001
 43
0.00000001
 40
0.0
 40
0.0
 40
0.0
 40
0.0
 40
0.2499999999999985
 40
0.2499999999999985
 40
0.499999999999997
 40
0.499999999999997
 40
0.7499999999999956
 40
0.7499999999999956
 40
0.8749999999999978
 40
0.8749999999999978
 40
1.0
 40
1.0
 40
1.0
 40
1.0
 10
12.27999999999832
 20
41.71496227397313
 30
0.0
 10
12.38853978314389
 20
41.68377464914023
 30
0.0
 10
12.48748427188079
 20
41.66923008568145
 30
0.0
 10
12.66182611876193
 20
41.66076929842516
 30
0.0
 10
12.73596354499018
 20
41.66671979511101
 30
0.0
 10
12.86356884435413
 20
41.69549993939818
 30
0.0
 10
12.91541979328809
 20
41.71720177720051
 30
0.0
 10
12.97600089482187
 20
41.77212845055671
 30
0.0
 10
12.99363960592781
 20
41.79443053801538
 30
0.0
 10
13.02061187691128
 20
41.85842770796562
 30
0.0
 10
13.02999999999827
 20
41.90308949835107
 30
0.0
 10
13.02999999999827
 20
41.96295809684516
 30
0.0
  0
SPLINE
  5
1E2
330
1F
100
AcDbEntity
  8
1
  6
SLD-Solid
370
    25
100
AcDbSpline
210
0.0
220
0.0
230
1.0
 70
     8
 71
     3
 72
    12
 73
     8
 74
     0
 42
0.000000001
 43
0.00000001
 40
0.0
 40
0.0
 40
0.0
 40
0.0
 40
0.5
 40
0.5
 40
0.75
 40
0.75
 40
1.0
 40
1.0
 40
1.0
 40
1.0
 10
9.199999999999985
 20
44.55102159322499
 30
0.0
 10
9.199999999999985
 20
44.35104831812288
 30
0.0
 10
9.276003966817326
 20
44.1515082673653
 30
0.0
 10
9.482759040153471
 20
43.93116827137959
 30
0.0
 10
9.566857937314932
 20
43.87128621650869
 30
0.0
 10
9.749511247261145
 20
43.79084228716471
 30
0.0
 10
9.850156242870472
 20
43.76943596849256
 30
0.0
 10
9.950000000002401
 20
43.76943596849289
 30
0.0
  0
SPLINE
  5
1E3
330
1F
100
AcDbEntity
  8
1
  6
SLD-Solid
370
    25
100
AcDbSpline
210
0.0
220
0.0
230
1.0
 70
     8
 71
     3
 72
    10
 73
     6
 74
     0
 42
0.000000001
 43
0.00000001
 40
0.0
 40
0.0
 40
0.0
 40
0.0
 40
0.5
 40
0.5
 40
1.0
 40
1.0
 40
1.0
 40
1.0
 10
12.28000000000001
 20
43.76943596849289
 30
0.0
 10
12.48122846377883
 20
43.76943596849292
 30
0.0
 10
12.67900932610891
 20
43.85856672856717
 30
0.0
 10
12.95290221427664
 20
44.1502294699326
 30
0.0
 10
13.02999999999999
 20
44.34957328976746
 30
0.0
 10
13.02999999999999
 20
44.55102159322499
 30
0.0
  0
SPLINE
  5
1E4
330
1F
100
AcDbEntity
  8
SK3
  6
SLD-Dashed
370
    18
100
AcDbSpline
210
0.0
220
0.0
230
1.0
 70
     8
 71
     3
 72
    30
 73
    26
 74
     0
 42
0.000000001
 43
0.00000001
 40
0.4999999999999934
 40
0.4999999999999934
 40
0.4999999999999934
 40
0.4999999999999934
 40
0.5624999999999941
 40
0.5624999999999941
 40
0.6249999999999949
 40
0.6249999999999949
 40
0.6874999999999956
 40
0.6874999999999956
 40
0.7499999999999962
 40
0.7499999999999962
 40
0.7812499999999968
 40
0.7812499999999968
 40
0.8124999999999972
 40
0.8124999999999972
 40
0.8437499999999977
 40
0.8437499999999977
 40
0.8749999999999981
 40
0.8749999999999981
 40
0.9062499999999986
 40
0.9062499999999986
 40
0.9374999999999991
 40
0.9374999999999991
 40
0.9687499999999996
 40
0.9687499999999996
 40
1.0
 40
1.0
 40
1.0
 40
1.0
 10
9.602846279599758
 20
-14.27915034605703
 30
0.0
 10
9.686456538693767
 20
-14.4212541863764
 30
0.0
 10
9.797407143447817
 20
-14.51131733768216
 30
0.0
 10
10.04010223607202
 20
-14.63242374926581
 30
0.0
 10
10.17571106347529
 20
-14.66434400040092
 30
0.0
 10
10.46843928875954
 20
-14.6878509066433
 30
0.0
 10
10.62555865364897
 20
-14.68003033606001
 30
0.0
 10
10.98145473780837
 20
-14.62436653420486
 30
0.0
 10
11.18157682258661
 20
-14.57632221838471
 30
0.0
 10
11.50801002825755
 20
-14.45860893436549
 30
0.0
 10
11.61873162334193
 20
-14.41242944660508
 30
0.0
 10
11.84220113938106
 20
-14.30063256215535
 30
0.0
 10
11.9541226944469
 20
-14.23490090158665
 30
0.0
 10
12.16107863552154
 20
-14.08747705033184
 30
0.0
 10
12.25901625186734
 20
-14.00366784802362
 30
0.0
 10
12.43052677631518
 20
-13.82249974419393
 30
0.0
 10
12.50593330594163
 20
-13.72350506925875
 30
0.0
 10
12.63000303324957
 20
-13.51367430078405
 30
0.0
 10
12.67841410243614
 20
-13.4039848685676
 30
0.0
 10
12.74789370637347
 20
-13.17359881812363
 30
0.0
 10
12.76810124630631
 20
-13.05468203931825
 30
0.0
 10
12.77891027826547
 20
-12.81644825424546
 30
0.0
 10
12.76940813581851
 20
-12.69449512908378
 30
0.0
 10
12.72129905847913
 20
-12.45817259633889
 30
0.0
 10
12.68301625646431
 20
-12.3430480331033
 30
0.0
 10
12.63040931107567
 20
-12.2323343638947
 30
0.0
  0
SPLINE
  5
1E5
330
1F
100
AcDbEntity
  8
SK3
  6
SLD-Dashed
370
    18
100
AcDbSpline
210
0.0
220
0.0
230
1.0
 70
     8
 71
     3
 72
    30
 73
    26
 74
     0
 42
0.000000001
 43
0.00000001
 40
0.0
 40
0.0
 40
0.0
 40
0.0
 40
0.0312499999999991
 40
0.0312499999999991
 40
0.0624999999999983
 40
0.0624999999999983
 40
0.0937499999999974
 40
0.0937499999999974
 40
0.1249999999999965
 40
0.1249999999999965
 40
0.187499999999996
 40
0.187499999999996
 40
0.2499999999999955
 40
0.2499999999999955
 40
0.312499999999995
 40
0.312499999999995
 40
0.3749999999999944
 40
0.3749999999999944
 40
0.4062499999999942
 40
0.4062499999999942
 40
0.4374999999999939
 40
0.4374999999999939
 40
0.4687499999999937
 40
0.4687499999999937
 40
0.4999999999999934
 40
0.4999999999999934
 40
0.4999999999999934
 40
0.4999999999999934
 10
12.6304093110757
 20
-12.23233436389468
 30
0.0
 10
12.57780236568706
 20
-12.1216206946861
 30
0.0
 10
12.51267206459311
 20
-12.01896209858503
 30
0.0
 10
12.35821503903347
 20
-11.83123217673025
 30
0.0
 10
12.26800655859519
 20
-11.74609765066665
 30
0.0
 10
12.07343499093627
 20
-11.60605794329095
 30
0.0
 10
11.96643370486066
 20
-11.54920121804519
 30
0.0
 10
11.74573264298217
 20
-11.46981719393689
 30
0.0
 10
11.63406552497758
 20
-11.4474866828302
 30
0.0
 10
11.29951801742689
 20
-11.42770686560521
 30
0.0
 10
11.09198428069951
 20
-11.47806879673261
 30
0.0
 10
10.72217844091649
 20
-11.64236243808863
 30
0.0
 10
10.55844908096595
 20
-11.75496051093635
 30
0.0
 10
10.25324958882709
 20
-12.02428585488716
 30
0.0
 10
10.11576882260312
 20
-12.17795893248197
 30
0.0
 10
9.862525619365316
 20
-12.52988094775973
 30
0.0
 10
9.746260896402012
 20
-12.72918710194006
 30
0.0
 10
9.605692660850481
 20
-13.06645756895028
 30
0.0
 10
9.56542163640611
 20
-13.18319961587416
 30
0.0
 10
9.50328600423461
 20
-13.4293677611186
 30
0.0
 10
9.482363995141295
 20
-13.55752069830021
 30
0.0
 10
9.47090841224374
 20
-13.8054679971878
 30
0.0
 10
9.480664817462653
 20
-13.92083957613647
 30
0.0
 10
9.525951505689633
 20
-14.12239475073259
 30
0.0
 10
9.561041150052768
 20
-14.20809842589733
 30
0.0
 10
9.602846279599758
 20
-14.27915034605703
 30
0.0
  0
SPLINE
  5
1E6
330
1F
100
AcDbEntity
  8
SK3
  6
SLD-Dashed
370
    18
100
AcDbSpline
210
0.0
220
0.0
230
1.0
 70
     8
 71
     3
 72
    26
 73
    22
 74
     0
 42
0.000000001
 43
0.00000001
 40
0.5000000000000062
 40
0.5000000000000062
 40
0.5000000000000062
 40
0.5000000000000062
 40
0.5625000000000058
 40
0.5625000000000058
 40
0.6250000000000051
 40
0.6250000000000051
 40
0.6562500000000046
 40
0.6562500000000046
 40
0.687500000000004
 40
0.687500000000004
 40
0.7187500000000034
 40
0.7187500000000034
 40
0.7500000000000029
 40
0.7500000000000029
 40
0.8125000000000022
 40
0.8125000000000022
 40
0.8750000000000014
 40
0.8750000000000014
 40
0.9375000000000008
 40
0.9375000000000008
 40
1.0
 40
1.0
 40
1.0
 40
1.0
 10
11.63869831779571
 20
-9.819390371339221
 30
0.0
 10
11.80317915771348
 20
-9.806594466981574
 30
0.0
 10
11.95081782962318
 20
-9.812432081454686
 30
0.0
 10
12.2261629968525
 20
-9.868839301598985
 30
0.0
 10
12.3523651546992
 20
-9.918953620877927
 30
0.0
 10
12.51874661426339
 20
-10.04837289060636
 30
0.0
 10
12.57051953396254
 20
-10.10115000339698
 30
0.0
 10
12.66070184098386
 20
-10.23071744026807
 30
0.0
 10
12.70001796005849
 20
-10.30921538460777
 30
0.0
 10
12.7562433913955
 20
-10.49493258066048
 30
0.0
 10
12.7732316530057
 20
-10.60488156995157
 30
0.0
 10
12.77649462889752
 20
-10.84110300053567
 30
0.0
 10
12.7627867066929
 20
-10.96977043023328
 30
0.0
 10
12.68516730486993
 20
-11.34647137591011
 30
0.0
 10
12.5899630515896
 20
-11.58088814423495
 30
0.0
 10
12.37315603453731
 20
-11.98947715399204
 30
0.0
 10
12.24747178673946
 20
-12.17132846963891
 30
0.0
 10
11.97676737519451
 20
-12.4898134904303
 30
0.0
 10
11.8310268635477
 20
-12.62828009284684
 30
0.0
 10
11.50508373269935
 20
-12.86276351579439
 30
0.0
 10
11.32747339457477
 20
-12.95749122616765
 30
0.0
 10
11.12500000000002
 20
-13.01159523973384
 30
0.0
  0
SPLINE
  5
1E7
330
1F
100
AcDbEntity
  8
SK3
  6
SLD-Dashed
370
    18
100
AcDbSpline
210
0.0
220
0.0
230
1.0
 70
     8
 71
     3
 72
    34
 73
    30
 74
     0
 42
0.000000001
 43
0.00000001
 40
0.0
 40
0.0
 40
0.0
 40
0.0
 40
0.0312500000000005
 40
0.0312500000000005
 40
0.0625000000000011
 40
0.0625000000000011
 40
0.0937500000000016
 40
0.0937500000000016
 40
0.1250000000000022
 40
0.1250000000000022
 40
0.1562500000000027
 40
0.1562500000000027
 40
0.1875000000000032
 40
0.1875000000000032
 40
0.2187500000000038
 40
0.2187500000000038
 40
0.2500000000000043
 40
0.2500000000000043
 40
0.2812500000000049
 40
0.2812500000000049
 40
0.3125000000000054
 40
0.3125000000000054
 40
0.3750000000000063
 40
0.3750000000000063
 40
0.4062500000000066
 40
0.4062500000000066
 40
0.4375000000000068
 40
0.4375000000000068
 40
0.5000000000000062
 40
0.5000000000000062
 40
0.5000000000000062
 40
0.5000000000000062
 10
11.12500000000002
 20
-13.01159523973385
 30
0.0
 10
11.02376330271263
 20
-13.03864724651694
 30
0.0
 10
10.91875434041334
 20
-13.05441768585464
 30
0.0
 10
10.69982193729477
 20
-13.05649587060871
 30
0.0
 10
10.58565504429781
 20
-13.04203538439391
 30
0.0
 10
10.36433306908849
 20
-12.97958779527627
 30
0.0
 10
10.25386240054305
 20
-12.93066318687883
 30
0.0
 10
10.04998753866612
 20
-12.80335962284302
 30
0.0
 10
9.955887873020986
 20
-12.72514830576756
 30
0.0
 10
9.789076352163557
 20
-12.54575166602603
 30
0.0
 10
9.718022202672067
 20
-12.44674722204855
 30
0.0
 10
9.60053600143318
 20
-12.2325086195109
 30
0.0
 10
9.555159683901193
 20
-12.11851015366411
 30
0.0
 10
9.493538953914305
 20
-11.88585378314761
 30
0.0
 10
9.476799814585934
 20
-11.76451266100634
 30
0.0
 10
9.47348088875466
 20
-11.52533259241781
 30
0.0
 10
9.486354225371807
 20
-11.40705029377197
 30
0.0
 10
9.541906609790429
 20
-11.17282024047875
 30
0.0
 10
9.583939125903774
 20
-11.06025657731944
 30
0.0
 10
9.694361385739564
 20
-10.84625731946298
 30
0.0
 10
9.764046986917323
 20
-10.74326010657127
 30
0.0
 10
10.00399120049175
 20
-10.46156575413965
 30
0.0
 10
10.21277179464264
 20
-10.30327029353935
 30
0.0
 10
10.5444699112901
 20
-10.12219171688678
 30
0.0
 10
10.65925898590059
 20
-10.07012567259634
 30
0.0
 10
10.87934718809658
 20
-9.984066675225876
 30
0.0
 10
10.98764418607853
 20
-9.948726825148157
 30
0.0
 10
11.29210738731387
 20
-9.86376536348267
 30
0.0
 10
11.47421747787794
 20
-9.832186275696875
 30
0.0
 10
11.63869831779571
 20
-9.819390371339221
 30
0.0
  0
SPLINE
  5
1E8
330
1F
100
AcDbEntity
  8
SK3
  6
SLD-Dashed
370
    18
100
AcDbSpline
210
0.0
220
0.0
230
1.0
 70
     8
 71
     3
 72
    30
 73
    26
 74
     0
 42
0.000000001
 43
0.00000001
 40
0.4999999999999964
 40
0.4999999999999964
 40
0.4999999999999964
 40
0.4999999999999964
 40
0.5624999999999966
 40
0.5624999999999966
 40
0.6249999999999966
 40
0.6249999999999966
 40
0.6562499999999969
 40
0.6562499999999969
 40
0.6874999999999972
 40
0.6874999999999972
 40
0.7187499999999976
 40
0.7187499999999976
 40
0.7499999999999978
 40
0.7499999999999978
 40
0.7812499999999981
 40
0.7812499999999981
 40
0.8124999999999984
 40
0.8124999999999984
 40
0.8437499999999988
 40
0.8437499999999988
 40
0.8749999999999991
 40
0.8749999999999991
 40
0.9374999999999996
 40
0.9374999999999996
 40
1.0
 40
1.0
 40
1.0
 40
1.0
 10
11.1256340867126
 20
-2.20807613194432
 30
0.0
 10
10.91012831143848
 20
-2.207994055743366
 30
0.0
 10
10.69273190607928
 20
-2.250950739379302
 30
0.0
 10
10.29545710457802
 20
-2.4132215112748
 30
0.0
 10
10.11161887920198
 20
-2.533970605358107
 30
0.0
 10
9.88325685805247
 20
-2.7563935005223
 30
0.0
 10
9.81357030025859
 20
-2.838822643502548
 30
0.0
 10
9.693828420307693
 20
-3.012044829892139
 30
0.0
 10
9.643049505613178
 20
-3.103292515775104
 30
0.0
 10
9.559939885115277
 20
-3.294987142140763
 30
0.0
 10
9.528110569339109
 20
-3.39493763734118
 30
0.0
 10
9.485932078998172
 20
-3.595278526154773
 30
0.0
 10
9.475093311114847
 20
-3.696889173272891
 30
0.0
 10
9.474907881274753
 20
-3.90187232153312
 30
0.0
 10
9.485524003425505
 20
-4.002149034246283
 30
0.0
 10
9.52734571652969
 20
-4.198506717829973
 30
0.0
 10
9.559089732329273
 20
-4.295610098711378
 30
0.0
 10
9.641733638388356
 20
-4.479370670401453
 30
0.0
 10
9.692330936314525
 20
-4.566117382228341
 30
0.0
 10
9.811994061612566
 20
-4.729695673261633
 30
0.0
 10
9.881475262593503
 20
-4.80655485490828
 30
0.0
 10
10.10919445985289
 20
-5.012639596316023
 30
0.0
 10
10.29295795309709
 20
-5.122781885588338
 30
0.0
 10
10.6897685348748
 20
-5.270055084887773
 30
0.0
 10
10.90666257993483
 20
-5.309061659790629
 30
0.0
 10
11.12500000000002
 20
-5.309061659790629
 30
0.0
  0
SPLINE
  5
1E9
330
1F
100
AcDbEntity
  8
SK3
  6
SLD-Dashed
370
    18
100
AcDbSpline
210
0.0
220
0.0
230
1.0
 70
     8
 71
     3
 72
    34
 73
    30
 74
     0
 42
0.000000001
 43
0.00000001
 40
0.0
 40
0.0
 40
0.0
 40
0.0
 40
0.0312499999999999
 40
0.0312499999999999
 40
0.0624999999999997
 40
0.0624999999999997
 40
0.0937499999999996
 40
0.0937499999999996
 40
0.1249999999999995
 40
0.1249999999999995
 40
0.1874999999999987
 40
0.1874999999999987
 40
0.2499999999999979
 40
0.2499999999999979
 40
0.2812499999999977
 40
0.2812499999999977
 40
0.3124999999999975
 40
0.3124999999999975
 40
0.3437499999999973
 40
0.3437499999999973
 40
0.3749999999999972
 40
0.3749999999999972
 40
0.4062499999999969
 40
0.4062499999999969
 40
0.4374999999999968
 40
0.4374999999999968
 40
0.4687499999999966
 40
0.4687499999999966
 40
0.4999999999999964
 40
0.4999999999999964
 40
0.4999999999999964
 40
0.4999999999999964
 10
11.12500000000002
 20
-5.309061659790622
 30
0.0
 10
11.23416871003258
 20
-5.309061659790635
 30
0.0
 10
11.34148252556932
 20
-5.299537349621533
 30
0.0
 10
11.5525616002316
 20
-5.262182100287887
 30
0.0
 10
11.65743203047542
 20
-5.233886962156417
 30
0.0
 10
11.85717198594058
 20
-5.159939537795346
 30
0.0
 10
11.95188217044846
 20
-5.114630280030591
 30
0.0
 10
12.13112457505724
 20
-5.007215473783251
 30
0.0
 10
12.21587296426144
 20
-4.944611663283527
 30
0.0
 10
12.44381779984263
 20
-4.7385981975403
 30
0.0
 10
12.56670516674999
 20
-4.571329361139992
 30
0.0
 10
12.73138667216636
 20
-4.206060482656704
 30
0.0
 10
12.77487792035797
 20
-4.004112810281381
 30
0.0
 10
12.77506064455627
 20
-3.700306253597581
 30
0.0
 10
12.76431481439133
 20
-3.596867972028024
 30
0.0
 10
12.7221592689036
 20
-3.39580764878581
 30
0.0
 10
12.69097028794158
 20
-3.297550131697913
 30
0.0
 10
12.60821939488965
 20
-3.105767645319016
 30
0.0
 10
12.55662183160314
 20
-3.012826865172888
 30
0.0
 10
12.43728120518578
 20
-2.839925186415168
 30
0.0
 10
12.36897548289651
 20
-2.758757585038254
 30
0.0
 10
12.21525208496077
 20
-2.608656191484406
 30
0.0
 10
12.13209058330414
 20
-2.541870610032922
 30
0.0
 10
11.95357507686054
 20
-2.424499981749685
 30
0.0
 10
11.85705358084935
 20
-2.373501415354258
 30
0.0
 10
11.6574094418268
 20
-2.291755408436395
 30
0.0
 10
11.55456819584583
 20
-2.260806334720915
 30
0.0
 10
11.34284591554824
 20
-2.218868681349198
 30
0.0
 10
11.23338697434964
 20
-2.208117170044807
 30
0.0
 10
11.1256340867126
 20
-2.20807613194432
 30
0.0
  0
SPLINE
  5
1EA
330
1F
100
AcDbEntity
  8
1
  6
SLD-Dashed
370
    18
100
AcDbSpline
210
0.0
220
0.0
230
1.0
 70
     8
 71
     3
 72
     9
 73
     5
 74
     0
 42
0.000000001
 43
0.00000001
 40
0.0
 40
0.0
 40
0.0
 40
0.0
 40
0.5000607699786396
 40
1.0
 40
1.0
 40
1.0
 40
1.0
 10
18.55352235032009
 20
-35.475
 30
0.0
 10
18.55249504322753
 20
-35.50365854338237
 30
0.0
 10
18.55044067872971
 20
-35.56096866467741
 30
0.0
 10
18.55014688100717
 20
-35.61831484130337
 30
0.0
 10
18.55000000000004
 20
-35.6469844446904
 30
0.0
  0
SPLINE
  5
1EB
330
1F
100
AcDbEntity
  8
1
  6
SLD-Dashed
370
    18
100
AcDbSpline
210
0.0
220
0.0
230
1.0
 70
     8
 71
     3
 72
    18
 73
    14
 74
     0
 42
0.000000001
 43
0.00000001
 40
0.0
 40
0.0
 40
0.0
 40
0.0
 40
0.0502615382665028
 40
0.1003346801962817
 40
0.1864269172260965
 40
0.2507027460274186
 40
0.3754017544072978
 40
0.5003113160778906
 40
0.6254313882219212
 40
0.7499589885078523
 40
0.8750960244973985
 40
0.9373335760526081
 40
1.0
 40
1.0
 40
1.0
 40
1.0
 10
18.55000000000005
 20
-46.55608553132448
 30
0.0
 10
18.54985584951672
 20
-46.56279313752556
 30
0.0
 10
18.54956808887232
 20
-46.57618320767224
 30
0.0
 10
18.5467043235788
 20
-46.60092067762668
 30
0.0
 10
18.54109253769218
 20
-46.62714602347128
 30
0.0
 10
18.52936890361468
 20
-46.66197054189577
 30
0.0
 10
18.51041711979126
 20
-46.69961849706203
 30
0.0
 10
18.47965656060438
 20
-46.73942190905963
 30
0.0
 10
18.44173082758343
 20
-46.77246517777105
 30
0.0
 10
18.39795979808265
 20
-46.79734963485331
 30
0.0
 10
18.35804147120079
 20
-46.81012142354908
 30
0.0
 10
18.32503827844068
 20
-46.81549492486995
 30
0.0
 10
18.30836517582879
 20
-46.81600012195883
 30
0.0
 10
18.30000000000004
 20
-46.81625358782991
 30
0.0
  0
SPLINE
  5
1EC
330
1F
100
AcDbEntity
  8
1
  6
SLD-Dashed
370
    18
100
AcDbSpline
210
0.0
220
0.0
230
1.0
 70
     8
 71
     3
 72
    18
 73
    14
 74
     0
 42
0.000000001
 43
0.00000001
 40
0.0
 40
0.0
 40
0.0
 40
0.0
 40
0.0503991616718233
 40
0.1007628038190811
 40
0.1867130776841384
 40
0.2507072150020599
 40
0.3759052863726678
 40
0.500276404396107
 40
0.6254720963354461
 40
0.7499722706065464
 40
0.8750532073660685
 40
0.9372998649852738
 40
1.0
 40
1.0
 40
1.0
 40
1.0
 10
3.950000000000091
 20
-46.81625358782998
 30
0.0
 10
3.943273397462322
 20
-46.81608984318558
 30
0.0
 10
3.929824933055393
 20
-46.81576246929814
 30
0.0
 10
3.905085981613611
 20
-46.81252198775567
 30
0.0
 10
3.87901987959431
 20
-46.80621002190962
 30
0.0
 10
3.844651573810391
 20
-46.79315095043869
 30
0.0
 10
3.808020109582018
 20
-46.77229767771328
 30
0.0
 10
3.770129353911882
 20
-46.73918481871893
 30
0.0
 10
3.739460891782258
 20
-46.69941299974947
 30
0.0
 10
3.716854067870909
 20
-46.65447319105364
 30
0.0
 10
3.705450649523336
 20
-46.61420903284476
 30
0.0
 10
3.70067213663515
 20
-46.58113218157193
 30
0.0
 10
3.700224586985254
 20
-46.56445459108932
 30
0.0
 10
3.700000000000023
 20
-46.55608553132448
 30
0.0
  0
SPLINE
  5
1ED
330
1F
100
AcDbEntity
  8
SK3
  6
SLD-Dashed
370
    18
100
AcDbSpline
210
0.0
220
0.0
230
1.0
 70
     8
 71
     3
 72
    18
 73
    14
 74
     0
 42
0.000000001
 43
0.00000001
 40
0.0
 40
0.0
 40
0.0
 40
0.0
 40
0.0501962867734974
 40
0.1000306214437302
 40
0.1855667331187636
 40
0.250182389232072
 40
0.3747066158220824
 40
0.4998232982189783
 40
0.6247294758455333
 40
0.7494251058857277
 40
0.8746331028690638
 40
0.9372230808189287
 40
1.0
 40
1.0
 40
1.0
 40
1.0
 10
18.30000000000004
 20
46.81625358782996
 30
0.0
 10
18.30669951182798
 20
46.81609127853699
 30
0.0
 10
18.32005022708194
 20
46.81576783032029
 30
0.0
 10
18.34463922095195
 20
46.81256776526223
 30
0.0
 10
18.37067201462223
 20
46.80630579793129
 30
0.0
 10
18.40500150194896
 20
46.79331555547191
 30
0.0
 10
18.44173939749913
 20
46.77247000397297
 30
0.0
 10
18.47965549617259
 20
46.73942242416845
 30
0.0
 10
18.51041281949081
 20
46.69961163074884
 30
0.0
 10
18.5330663450593
 20
46.65468875110024
 30
0.0
 10
18.54452340204196
 20
46.61434662644387
 30
0.0
 10
18.54932467505754
 20
46.58119847829342
 30
0.0
 10
18.54977466801638
 20
46.56446483112381
 30
0.0
 10
18.55000000000004
 20
46.55608553132448
 30
0.0
  0
SPLINE
  5
1EE
330
1F
100
AcDbEntity
  8
SK3
  6
SLD-Dashed
370
    18
100
AcDbSpline
210
0.0
220
0.0
230
1.0
 70
     8
 71
     3
 72
    18
 73
    14
 74
     0
 42
0.000000001
 43
0.00000001
 40
0.0
 40
0.0
 40
0.0
 40
0.0
 40
0.0502196103872393
 40
0.1000870260924269
 40
0.185508636894043
 40
0.250155080879186
 40
0.3746583157461185
 40
0.4998570853792876
 40
0.6242312608259408
 40
0.749432409948843
 40
0.8740366596180013
 40
0.9370350243166901
 40
1.0
 40
1.0
 40
1.0
 40
1.0
 10
3.699999999999982
 20
46.55608553132444
 30
0.0
 10
3.700143854852901
 20
46.56278755186001
 30
0.0
 10
3.700430555691595
 20
46.57614459105339
 30
0.0
 10
3.703274054818782
 20
46.60076085239343
 30
0.0
 10
3.708850025263306
 20
46.62692328764688
 30
0.0
 10
3.720514169271314
 20
46.66169890756612
 30
0.0
 10
3.739456592416632
 20
46.69941980690709
 30
0.0
 10
3.770128279112273
 20
46.73918434013717
 30
0.0
 10
3.808028636439615
 20
46.77229285140237
 30
0.0
 10
3.851698646431312
 20
46.79720148409478
 30
0.0
 10
3.891711812143344
 20
46.81006094110496
 30
0.0
 10
3.924780356068913
 20
46.81548545401083
 30
0.0
 10
3.94159493769948
 20
46.81599758847395
 30
0.0
 10
3.950000000000023
 20
46.81625358782997
 30
0.0
  0
SPLINE
  5
1EF
330
1F
100
AcDbEntity
  8
1
  6
SLD-Dashed
370
    18
100
AcDbSpline
210
0.0
220
0.0
230
1.0
 70
    24
 71
     3
 72
    19
 73
    15
 74
     0
 42
0.000000001
 43
0.00000001
 40
0.0
 40
0.0
 40
0.0
 40
0.0
 40
0.0798655428280562
 40
0.1616043379124486
 40
0.2426709667574891
 40
0.3235332393767094
 40
0.4036196583421841
 40
0.4838406279111342
 40
0.5676121902188297
 40
0.6573619531377995
 40
0.7456770714218461
 40
0.83429895780048
 40
0.9230039858166788
 40
1.0
 40
1.0
 40
1.0
 40
1.0
 10
18.78224985168719
 20
-35.1
 30
0.0
 10
18.8282913177919
 20
-35.1
 30
0.0
 10
18.92145415601853
 20
-35.1
 30
0.0
 10
19.09564350615559
 20
-35.10000000000001
 30
0.0
 10
19.29060360544832
 20
-35.1
 30
0.0
 10
19.50266155249033
 20
-35.09999999999998
 30
0.0
 10
19.72759051978684
 20
-35.10000000000002
 30
0.0
 10
19.9647430965752
 20
-35.1
 30
0.0
 10
20.21606422588895
 20
-35.10000000000001
 30
0.0
 10
20.47271439487688
 20
-35.09999999999999
 30
0.0
 10
20.71988380146134
 20
-35.1
 30
0.0
 10
20.92927743622305
 20
-35.10000000000001
 30
0.0
 10
21.07862397013075
 20
-35.10000000000001
 30
0.0
 10
21.09244574858305
 20
-35.1
 30
0.0
 10
21.09886829026189
 20
-35.1
 30
0.0
  0
SPLINE
  5
1F0
330
1F
100
AcDbEntity
  8
SK3
  6
SLD-Dashed
370
    18
100
AcDbSpline
210
0.0
220
0.0
230
1.0
 70
     8
 71
     3
 72
    30
 73
    26
 74
     0
 42
0.000000001
 43
0.00000001
 40
0.4999999999999986
 40
0.4999999999999986
 40
0.4999999999999986
 40
0.4999999999999986
 40
0.5624999999999986
 40
0.5624999999999986
 40
0.6249999999999986
 40
0.6249999999999986
 40
0.6562499999999987
 40
0.6562499999999987
 40
0.6874999999999989
 40
0.6874999999999989
 40
0.718749999999999
 40
0.718749999999999
 40
0.7499999999999991
 40
0.7499999999999991
 40
0.7812499999999993
 40
0.7812499999999993
 40
0.8124999999999994
 40
0.8124999999999994
 40
0.8437499999999997
 40
0.8437499999999997
 40
0.8749999999999998
 40
0.8749999999999998
 40
0.9374999999999999
 40
0.9374999999999999
 40
1.0
 40
1.0
 40
1.0
 40
1.0
 10
11.12436591328744
 20
5.309061551556943
 30
0.0
 10
11.33987168856154
 20
5.30913512189414
 30
0.0
 10
11.55726809392074
 20
5.270777053767745
 30
0.0
 10
11.954542895422
 20
5.12408212790752
 30
0.0
 10
12.13838112079804
 20
5.01435051186401
 30
0.0
 10
12.36674314194758
 20
4.80840405199183
 30
0.0
 10
12.43642969974143
 20
4.73154347486815
 30
0.0
 10
12.5561715796923
 20
4.568463540703782
 30
0.0
 10
12.60695049438682
 20
4.481836472086082
 30
0.0
 10
12.69006011488477
 20
4.297948630822695
 30
0.0
 10
12.72188943066088
 20
4.201137306228627
 30
0.0
 10
12.76406792100185
 20
4.004999015154096
 30
0.0
 10
12.77490668888515
 20
3.904499034786596
 30
0.0
 10
12.77509211872527
 20
3.699534720125436
 30
0.0
 10
12.76447599657451
 20
3.598169916606802
 30
0.0
 10
12.7226542834703
 20
3.397643705646346
 30
0.0
 10
12.69091026767072
 20
3.297408274791254
 30
0.0
 10
12.60826636161166
 20
3.105879249911001
 30
0.0
 10
12.55766906368549
 20
3.014523490936158
 30
0.0
 10
12.43800593838745
 20
2.840798433450357
 30
0.0
 10
12.36852473740652
 20
2.758380635546169
 30
0.0
 10
12.14080554014713
 20
2.535838019871825
 30
0.0
 10
11.95704204690293
 20
2.414653532234787
 30
0.0
 10
11.56023146512519
 20
2.251755559321195
 30
0.0
 10
11.34333742006519
 20
2.208076011197144
 30
0.0
 10
11.12500000000002
 20
2.208076011197144
 30
0.0
  0
SPLINE
  5
1F1
330
1F
100
AcDbEntity
  8
SK3
  6
SLD-Dashed
370
    18
100
AcDbSpline
210
0.0
220
0.0
230
1.0
 70
     8
 71
     3
 72
    34
 73
    30
 74
     0
 42
0.000000001
 43
0.00000001
 40
0.0
 40
0.0
 40
0.0
 40
0.0
 40
0.0312499999999998
 40
0.0312499999999998
 40
0.0624999999999997
 40
0.0624999999999997
 40
0.0937499999999995
 40
0.0937499999999995
 40
0.1249999999999993
 40
0.1249999999999993
 40
0.1874999999999989
 40
0.1874999999999989
 40
0.2499999999999986
 40
0.2499999999999986
 40
0.2812499999999986
 40
0.2812499999999986
 40
0.3124999999999986
 40
0.3124999999999986
 40
0.3437499999999986
 40
0.3437499999999986
 40
0.3749999999999986
 40
0.3749999999999986
 40
0.4062499999999986
 40
0.4062499999999986
 40
0.4374999999999986
 40
0.4374999999999986
 40
0.4687499999999986
 40
0.4687499999999986
 40
0.4999999999999986
 40
0.4999999999999986
 40
0.4999999999999986
 40
0.4999999999999986
 10
11.12500000000002
 20
2.208076011197144
 30
0.0
 10
11.01583128996742
 20
2.208076011197144
 30
0.0
 10
10.90851747443067
 20
2.218712438100949
 30
0.0
 10
10.69743839976836
 20
2.260296858835588
 30
0.0
 10
10.59256796952454
 20
2.29175935325996
 30
0.0
 10
10.39282801405939
 20
2.373555205373627
 30
0.0
 10
10.29811782955151
 20
2.423509628226177
 30
0.0
 10
10.11887542494275
 20
2.541114583907877
 30
0.0
 10
10.03412703573856
 20
2.60929484585426
 30
0.0
 10
9.806182200157387
 20
2.831771837438372
 30
0.0
 10
9.683294833250006
 20
3.010016554592661
 30
0.0
 10
9.518613327833602
 20
3.390759943898578
 30
0.0
 10
9.47512207964199
 20
3.597272475835474
 30
0.0
 10
9.474939355443745
 20
3.901097591317404
 30
0.0
 10
9.48568518560869
 20
4.003434499602353
 30
0.0
 10
9.527840731096388
 20
4.200293854804624
 30
0.0
 10
9.559029712058436
 20
4.295473899993282
 30
0.0
 10
9.641780605110368
 20
4.479477843829405
 30
0.0
 10
9.693378168396883
 20
4.56772201717838
 30
0.0
 10
9.81271879481424
 20
4.730510706064034
 30
0.0
 10
9.881024517103516
 20
4.806208116124394
 30
0.0
 10
10.03474791503922
 20
4.945204256680408
 30
0.0
 10
10.11790941669588
 20
5.006521730708591
 30
0.0
 10
10.29642492313948
 20
5.113728914877727
 30
0.0
 10
10.39294641915067
 20
5.159988239582885
 30
0.0
 10
10.59259055817322
 20
5.233890455420359
 30
0.0
 10
10.69543180415419
 20
5.261724005488285
 30
0.0
 10
10.90715408445175
 20
5.299397422676641
 30
0.0
 10
11.01661302565038
 20
5.309024766388337
 30
0.0
 10
11.12436591328744
 20
5.309061551556943
 30
0.0
  0
SPLINE
  5
1F2
330
1F
100
AcDbEntity
  8
SK3
  6
SLD-Dashed
370
    18
100
AcDbSpline
210
0.0
220
0.0
230
1.0
 70
     8
 71
     2
 72
     6
 73
     3
 74
     0
 42
0.000000001
 43
0.00000001
 40
0.0
 40
0.0
 40
0.0
 40
0.0312499999999999
 40
0.0312499999999999
 40
0.0312499999999999
 10
62.67449999999999
 20
9.524999999999991
 30
0.0
 10
62.72565682781417
 20
9.486294570018302
 30
0.0
 10
62.82425850713621
 20
9.41269718383353
 30
0.0
  0
SPLINE
  5
1F3
330
1F
100
AcDbEntity
  8
SK3
  6
SLD-Dashed
370
    18
100
AcDbSpline
210
0.0
220
0.0
230
1.0
 70
     8
 71
     3
 72
     8
 73
     4
 74
     0
 42
0.000000001
 43
0.00000001
 40
0.0312499999999999
 40
0.0312499999999999
 40
0.0312499999999999
 40
0.0312499999999999
 40
0.0468749999999999
 40
0.0468749999999999
 40
0.0468749999999999
 40
0.0468749999999999
 10
62.82425850713621
 20
9.41269718383353
 30
0.0
 10
62.87355934679725
 20
9.37589849074115
 30
0.0
 10
62.93517626073567
 20
9.33006899988692
 30
0.0
 10
63.0080947204796
 20
9.27628657405155
 30
0.0
  0
SPLINE
  5
1F4
330
1F
100
AcDbEntity
  8
SK3
  6
SLD-Dashed
370
    18
100
AcDbSpline
210
0.0
220
0.0
230
1.0
 70
     8
 71
     3
 72
     8
 73
     4
 74
     0
 42
0.000000001
 43
0.00000001
 40
0.0468749999999999
 40
0.0468749999999999
 40
0.0468749999999999
 40
0.0468749999999999
 40
0.0624999999999998
 40
0.0624999999999998
 40
0.0624999999999998
 40
0.0624999999999998
 10
63.0080947204796
 20
9.27628657405155
 30
0.0
 10
63.08101318022355
 20
9.222504148216196
 30
0.0
 10
63.16443033856961
 20
9.161361501007145
 30
0.0
 10
63.25763575567419
 20
9.093794097067786
 30
0.0
  0
SPLINE
  5
1F5
330
1F
100
AcDbEntity
  8
SK3
  6
SLD-Dashed
370
    18
100
AcDbSpline
210
0.0
220
0.0
230
1.0
 70
     8
 71
     3
 72
     8
 73
     4
 74
     0
 42
0.000000001
 43
0.00000001
 40
0.0624999999999998
 40
0.0624999999999998
 40
0.0624999999999998
 40
0.0624999999999998
 40
0.0781249999999998
 40
0.0781249999999998
 40
0.0781249999999998
 40
0.0781249999999998
 10
63.25763575567419
 20
9.093794097067786
 30
0.0
 10
63.35084117277884
 20
9.026226693128415
 30
0.0
 10
63.45384013481134
 20
8.952227614798469
 30
0.0
 10
63.56632421266148
 20
8.87256480113749
 30
0.0
  0
SPLINE
  5
1F6
330
1F
100
AcDbEntity
  8
SK3
  6
SLD-Dashed
370
    18
100
AcDbSpline
210
0.0
220
0.0
230
1.0
 70
     8
 71
     3
 72
     8
 73
     4
 74
     0
 42
0.000000001
 43
0.00000001
 40
0.0781249999999998
 40
0.0781249999999998
 40
0.0781249999999998
 40
0.0781249999999998
 40
0.0937499999999997
 40
0.0937499999999997
 40
0.0937499999999997
 40
0.0937499999999997
 10
63.56632421266148
 20
8.87256480113749
 30
0.0
 10
63.67880829051165
 20
8.792901987476522
 30
0.0
 10
63.80142759676855
 20
8.707128391408636
 30
0.0
 10
63.93170991806135
 20
8.617655263699856
 30
0.0
  0
SPLINE
  5
1F7
330
1F
100
AcDbEntity
  8
SK3
  6
SLD-Dashed
370
    18
100
AcDbSpline
210
0.0
220
0.0
230
1.0
 70
     8
 71
     3
 72
     8
 73
     4
 74
     0
 42
0.000000001
 43
0.00000001
 40
0.0937499999999997
 40
0.0937499999999997
 40
0.0937499999999997
 40
0.0937499999999997
 40
0.1249999999999991
 40
0.1249999999999991
 40
0.1249999999999991
 40
0.1249999999999991
 10
63.93170991806135
 20
8.617655263699856
 30
0.0
 10
64.19227456064696
 20
8.43870900828228
 30
0.0
 10
64.48256757399196
 20
8.245314563493839
 30
0.0
 10
64.80220499224357
 20
8.04475351955114
 30
0.0
  0
SPLINE
  5
1F8
330
1F
100
AcDbEntity
  8
SK3
  6
SLD-Dashed
370
    18
100
AcDbSpline
210
0.0
220
0.0
230
1.0
 70
     8
 71
     3
 72
     8
 73
     4
 74
     0
 42
0.000000001
 43
0.00000001
 40
0.1249999999999991
 40
0.1249999999999991
 40
0.1249999999999991
 40
0.1249999999999991
 40
0.1562499999999986
 40
0.1562499999999986
 40
0.1562499999999986
 40
0.1562499999999986
 10
64.80220499224357
 20
8.04475351955114
 30
0.0
 10
65.12184241049518
 20
7.844192475608441
 30
0.0
 10
65.4722834045891
 20
7.63573558072482
 30
0.0
 10
65.84345387515556
 20
7.435740487705719
 30
0.0
  0
SPLINE
  5
1F9
330
1F
100
AcDbEntity
  8
SK3
  6
SLD-Dashed
370
    18
100
AcDbSpline
210
0.0
220
0.0
230
1.0
 70
     8
 71
     3
 72
     8
 73
     4
 74
     0
 42
0.000000001
 43
0.00000001
 40
0.1562499999999986
 40
0.1562499999999986
 40
0.1562499999999986
 40
0.1562499999999986
 40
0.1874999999999981
 40
0.1874999999999981
 40
0.1874999999999981
 40
0.1874999999999981
 10
65.84345387515556
 20
7.435740487705719
 30
0.0
 10
66.214624345722
 20
7.235745394686618
 30
0.0
 10
66.60889934153408
 20
7.042219871342098
 30
0.0
 10
67.03312771310301
 20
6.868230793347599
 30
0.0
  0
SPLINE
  5
1FA
330
1F
100
AcDbEntity
  8
SK3
  6
SLD-Dashed
370
    18
100
AcDbSpline
210
0.0
220
0.0
230
1.0
 70
     8
 71
     3
 72
     8
 73
     4
 74
     0
 42
0.000000001
 43
0.00000001
 40
0.1874999999999981
 40
0.1874999999999981
 40
0.1874999999999981
 40
0.1874999999999981
 40
0.2031249999999981
 40
0.2031249999999981
 40
0.2031249999999981
 40
0.2031249999999981
 10
67.03312771310301
 20
6.868230793347599
 30
0.0
 10
67.2452418988875
 20
6.781236254350357
 30
0.0
 10
67.46617426303264
 20
6.698900448788001
 30
0.0
 10
67.69100783512482
 20
6.625637472575191
 30
0.0
  0
SPLINE
  5
1FB
330
1F
100
AcDbEntity
  8
SK3
  6
SLD-Dashed
370
    18
100
AcDbSpline
210
0.0
220
0.0
230
1.0
 70
     8
 71
     3
 72
     8
 73
     4
 74
     0
 42
0.000000001
 43
0.00000001
 40
0.2031249999999981
 40
0.2031249999999981
 40
0.2031249999999981
 40
0.2031249999999981
 40
0.2187499999999983
 40
0.2187499999999983
 40
0.2187499999999983
 40
0.2187499999999983
 10
67.69100783512482
 20
6.625637472575191
 30
0.0
 10
67.91584140721707
 20
6.552374496362368
 30
0.0
 10
68.14535505578914
 20
6.487784944442993
 30
0.0
 10
68.380225731375
 20
6.43413250957052
 30
0.0
  0
SPLINE
  5
1FC
330
1F
100
AcDbEntity
  8
SK3
  6
SLD-Dashed
370
    18
100
AcDbSpline
210
0.0
220
0.0
230
1.0
 70
     8
 71
     3
 72
     8
 73
     4
 74
     0
 42
0.000000001
 43
0.00000001
 40
0.2187499999999983
 40
0.2187499999999983
 40
0.2187499999999983
 40
0.2187499999999983
 40
0.2343749999999983
 40
0.2343749999999983
 40
0.2343749999999983
 40
0.2343749999999983
 10
68.380225731375
 20
6.43413250957052
 30
0.0
 10
68.61509640696084
 20
6.380480074698033
 30
0.0
 10
68.85593306395683
 20
6.3376983487574
 30
0.0
 10
69.10174502207533
 20
6.308542641688036
 30
0.0
  0
SPLINE
  5
1FD
330
1F
100
AcDbEntity
  8
SK3
  6
SLD-Dashed
370
    18
100
AcDbSpline
210
0.0
220
0.0
230
1.0
 70
     8
 71
     3
 72
     8
 73
     4
 74
     0
 42
0.000000001
 43
0.00000001
 40
0.2343749999999983
 40
0.2343749999999983
 40
0.2343749999999983
 40
0.2343749999999983
 40
0.2499999999999984
 40
0.2499999999999984
 40
0.2499999999999984
 40
0.2499999999999984
 10
69.10174502207533
 20
6.308542641688036
 30
0.0
 10
69.34755698019379
 20
6.279386934618672
 30
0.0
 10
69.5928882241141
 20
6.264501417651197
 30
0.0
 10
69.83774212571132
 20
6.26402227051294
 30
0.0
  0
SPLINE
  5
1FE
330
1F
100
AcDbEntity
  8
SK3
  6
SLD-Dashed
370
    18
100
AcDbSpline
210
0.0
220
0.0
230
1.0
 70
     8
 71
     3
 72
     8
 73
     4
 74
     0
 42
0.000000001
 43
0.00000001
 40
0.2499999999999984
 40
0.2499999999999984
 40
0.2499999999999984
 40
0.2499999999999984
 40
0.2656249999999986
 40
0.2656249999999986
 40
0.2656249999999986
 40
0.2656249999999986
 10
69.83774212571132
 20
6.26402227051294
 30
0.0
 10
70.08259602730848
 20
6.263543123374681
 30
0.0
 10
70.32697259920934
 20
6.277468811029793
 30
0.0
 10
70.57087941161788
 20
6.305354222888221
 30
0.0
  0
SPLINE
  5
1FF
330
1F
100
AcDbEntity
  8
SK3
  6
SLD-Dashed
370
    18
100
AcDbSpline
210
0.0
220
0.0
230
1.0
 70
     8
 71
     3
 72
     8
 73
     4
 74
     0
 42
0.000000001
 43
0.00000001
 40
0.2656249999999986
 40
0.2656249999999986
 40
0.2656249999999986
 40
0.2656249999999986
 40
0.2812499999999987
 40
0.2812499999999987
 40
0.2812499999999987
 40
0.2812499999999987
 10
70.57087941161788
 20
6.305354222888221
 30
0.0
 10
70.81478622402638
 20
6.333239634746676
 30
0.0
 10
71.05890186270275
 20
6.375442830892822
 30
0.0
 10
71.29516024327742
 20
6.428554493721705
 30
0.0
  0
SPLINE
  5
200
330
1F
100
AcDbEntity
  8
SK3
  6
SLD-Dashed
370
    18
100
AcDbSpline
210
0.0
220
0.0
230
1.0
 70
     8
 71
     3
 72
     8
 73
     4
 74
     0
 42
0.000000001
 43
0.00000001
 40
0.2812499999999987
 40
0.2812499999999987
 40
0.2812499999999987
 40
0.2812499999999987
 40
0.2968749999999987
 40
0.2968749999999987
 40
0.2968749999999987
 40
0.2968749999999987
 10
71.29516024327742
 20
6.428554493721705
 30
0.0
 10
71.53141862385209
 20
6.481666156550589
 30
0.0
 10
71.76182155461952
 20
6.545792657473404
 30
0.0
 10
71.9871647465998
 20
6.618557086262008
 30
0.0
  0
SPLINE
  5
201
330
1F
100
AcDbEntity
  8
SK3
  6
SLD-Dashed
370
    18
100
AcDbSpline
210
0.0
220
0.0
230
1.0
 70
     8
 71
     3
 72
     8
 73
     4
 74
     0
 42
0.000000001
 43
0.00000001
 40
0.2968749999999987
 40
0.2968749999999987
 40
0.2968749999999987
 40
0.2968749999999987
 40
0.3124999999999988
 40
0.3124999999999988
 40
0.3124999999999988
 40
0.3124999999999988
 10
71.9871647465998
 20
6.618557086262008
 30
0.0
 10
72.21250793858009
 20
6.6913215150506
 30
0.0
 10
72.43383198352788
 20
6.773196264177953
 30
0.0
 10
72.6468234679426
 20
6.860032526222776
 30
0.0
  0
SPLINE
  5
202
330
1F
100
AcDbEntity
  8
SK3
  6
SLD-Dashed
370
    18
100
AcDbSpline
210
0.0
220
0.0
230
1.0
 70
     8
 71
     3
 72
     8
 73
     4
 74
     0
 42
0.000000001
 43
0.00000001
 40
0.3124999999999988
 40
0.3124999999999988
 40
0.3124999999999988
 40
0.3124999999999988
 40
0.343749999999999
 40
0.343749999999999
 40
0.343749999999999
 40
0.343749999999999
 10
72.6468234679426
 20
6.860032526222776
 30
0.0
 10
73.07280643677208
 20
7.033705050312408
 30
0.0
 10
73.46854742098047
 20
7.227241255364988
 30
0.0
 10
73.84105055683656
 20
7.427402594260321
 30
0.0
  0
SPLINE
  5
203
330
1F
100
AcDbEntity
  8
SK3
  6
SLD-Dashed
370
    18
100
AcDbSpline
210
0.0
220
0.0
230
1.0
 70
     8
 71
     3
 72
     8
 73
     4
 74
     0
 42
0.000000001
 43
0.00000001
 40
0.343749999999999
 40
0.343749999999999
 40
0.343749999999999
 40
0.343749999999999
 40
0.3749999999999992
 40
0.3749999999999992
 40
0.3749999999999992
 40
0.3749999999999992
 10
73.84105055683656
 20
7.427402594260321
 30
0.0
 10
74.2135536926927
 20
7.627563933155668
 30
0.0
 10
74.5652295348781
 20
7.836392403580458
 30
0.0
 10
74.88513106412407
 20
8.03681339729291
 30
0.0
  0
SPLINE
  5
204
330
1F
100
AcDbEntity
  8
SK3
  6
SLD-Dashed
370
    18
100
AcDbSpline
210
0.0
220
0.0
230
1.0
 70
     8
 71
     3
 72
     8
 73
     4
 74
     0
 42
0.000000001
 43
0.00000001
 40
0.3749999999999992
 40
0.3749999999999992
 40
0.3749999999999992
 40
0.3749999999999992
 40
0.4062499999999994
 40
0.4062499999999994
 40
0.4062499999999994
 40
0.4062499999999994
 10
74.88513106412407
 20
8.03681339729291
 30
0.0
 10
75.20503259336996
 20
8.237234391005362
 30
0.0
 10
75.49510788339012
 20
8.43025623487402
 30
0.0
 10
75.75531399849258
 20
8.608748931801442
 30
0.0
  0
SPLINE
  5
205
330
1F
100
AcDbEntity
  8
SK3
  6
SLD-Dashed
370
    18
100
AcDbSpline
210
0.0
220
0.0
230
1.0
 70
     8
 71
     3
 72
     8
 73
     4
 74
     0
 42
0.000000001
 43
0.00000001
 40
0.4062499999999994
 40
0.4062499999999994
 40
0.4062499999999994
 40
0.4062499999999994
 40
0.4374999999999996
 40
0.4374999999999996
 40
0.4374999999999996
 40
0.4374999999999996
 10
75.75531399849258
 20
8.608748931801442
 30
0.0
 10
76.01552011359509
 20
8.787241628728863
 30
0.0
 10
76.24630093688748
 20
8.95174643556118
 30
0.0
 10
76.43392951843362
 20
9.087681368407527
 30
0.0
  0
SPLINE
  5
206
330
1F
100
AcDbEntity
  8
SK3
  6
SLD-Dashed
370
    18
100
AcDbSpline
210
0.0
220
0.0
230
1.0
 70
     8
 71
     3
 72
     8
 73
     4
 74
     0
 42
0.000000001
 43
0.00000001
 40
0.4374999999999996
 40
0.4374999999999996
 40
0.4374999999999996
 40
0.4374999999999996
 40
0.4531249999999997
 40
0.4531249999999997
 40
0.4531249999999997
 40
0.4531249999999997
 10
76.43392951843362
 20
9.087681368407527
 30
0.0
 10
76.52774380920665
 20
9.155648834830693
 30
0.0
 10
76.61146308561656
 20
9.216982516629765
 30
0.0
 10
76.6845873384077
 20
9.270890401483726
 30
0.0
  0
SPLINE
  5
207
330
1F
100
AcDbEntity
  8
SK3
  6
SLD-Dashed
370
    18
100
AcDbSpline
210
0.0
220
0.0
230
1.0
 70
     8
 71
     3
 72
     8
 73
     4
 74
     0
 42
0.000000001
 43
0.00000001
 40
0.4531249999999997
 40
0.4531249999999997
 40
0.4531249999999997
 40
0.4531249999999997
 40
0.4687499999999997
 40
0.4687499999999997
 40
0.4687499999999997
 40
0.4687499999999997
 10
76.6845873384077
 20
9.270890401483726
 30
0.0
 10
76.75771159119881
 20
9.324798286337671
 30
0.0
 10
76.82055278755115
 20
9.371515294523125
 30
0.0
 10
76.87109152830998
 20
9.409226907610742
 30
0.0
  0
SPLINE
  5
208
330
1F
100
AcDbEntity
  8
SK3
  6
SLD-Dashed
370
    18
100
AcDbSpline
210
0.0
220
0.0
230
1.0
 70
     8
 71
     3
 72
     8
 73
     4
 74
     0
 42
0.000000001
 43
0.00000001
 40
0.4687499999999997
 40
0.4687499999999997
 40
0.4687499999999997
 40
0.4687499999999997
 40
0.5000000000000001
 40
0.5000000000000001
 40
0.5000000000000001
 40
0.5000000000000001
 10
76.87109152830998
 20
9.409226907610742
 30
0.0
 10
76.97216900982767
 20
9.484650133785951
 30
0.0
 10
77.02377635180687
 20
9.523701521609556
 30
0.0
 10
77.02545798209984
 20
9.52496834655532
 30
0.0
  0
SPLINE
  5
209
330
1F
100
AcDbEntity
  8
SK3
  6
SLD-Dashed
370
    18
100
AcDbSpline
210
0.0
220
0.0
230
1.0
 70
     8
 71
     3
 72
     8
 73
     4
 74
     0
 42
0.000000001
 43
0.00000001
 40
0.5156250000000003
 40
0.5156250000000003
 40
0.5156250000000003
 40
0.5156250000000003
 40
0.5312500000000004
 40
0.5312500000000004
 40
0.5312500000000004
 40
0.5312500000000004
 10
76.98967527502803
 20
9.498041260325566
 30
0.0
 10
76.96500343898511
 20
9.47949544725131
 30
0.0
 10
76.92794187873167
 20
9.451668134706242
 30
0.0
 10
76.87911054851097
 20
9.415212151257583
 30
0.0
  0
SPLINE
  5
20A
330
1F
100
AcDbEntity
  8
SK3
  6
SLD-Dashed
370
    18
100
AcDbSpline
210
0.0
220
0.0
230
1.0
 70
     8
 71
     3
 72
     8
 73
     4
 74
     0
 42
0.000000001
 43
0.00000001
 40
0.5312500000000004
 40
0.5312500000000004
 40
0.5312500000000004
 40
0.5312500000000004
 40
0.5468750000000007
 40
0.5468750000000007
 40
0.5468750000000007
 40
0.5468750000000007
 10
76.87911054851097
 20
9.415212151257583
 30
0.0
 10
76.83027921829027
 20
9.378756167808907
 30
0.0
 10
76.76967419841158
 20
9.333667164038578
 30
0.0
 10
76.697502509743
 20
9.280415689554886
 30
0.0
  0
SPLINE
  5
20B
330
1F
100
AcDbEntity
  8
SK3
  6
SLD-Dashed
370
    18
100
AcDbSpline
210
0.0
220
0.0
230
1.0
 70
     8
 71
     3
 72
     8
 73
     4
 74
     0
 42
0.000000001
 43
0.00000001
 40
0.5468750000000007
 40
0.5468750000000007
 40
0.5468750000000007
 40
0.5468750000000007
 40
0.5625000000000009
 40
0.5625000000000009
 40
0.5625000000000009
 40
0.5625000000000009
 10
76.697502509743
 20
9.280415689554886
 30
0.0
 10
76.6253308210744
 20
9.227164215071165
 30
0.0
 10
76.54126690346303
 20
9.165519475035424
 30
0.0
 10
76.44792541420814
 20
9.097826362458997
 30
0.0
  0
SPLINE
  5
20C
330
1F
100
AcDbEntity
  8
SK3
  6
SLD-Dashed
370
    18
100
AcDbSpline
210
0.0
220
0.0
230
1.0
 70
     8
 71
     3
 72
     8
 73
     4
 74
     0
 42
0.000000001
 43
0.00000001
 40
0.5625000000000009
 40
0.5625000000000009
 40
0.5625000000000009
 40
0.5625000000000009
 40
0.5937500000000009
 40
0.5937500000000009
 40
0.5937500000000009
 40
0.5937500000000009
 10
76.44792541420814
 20
9.097826362458997
 30
0.0
 10
76.26124243569843
 20
8.962440137306155
 30
0.0
 10
76.03633779043506
 20
8.801855417909552
 30
0.0
 10
75.77537521789802
 20
8.622522613648487
 30
0.0
  0
SPLINE
  5
20D
330
1F
100
AcDbEntity
  8
SK3
  6
SLD-Dashed
370
    18
100
AcDbSpline
210
0.0
220
0.0
230
1.0
 70
     8
 71
     3
 72
     8
 73
     4
 74
     0
 42
0.000000001
 43
0.00000001
 40
0.5937500000000009
 40
0.5937500000000009
 40
0.5937500000000009
 40
0.5937500000000009
 40
0.6250000000000009
 40
0.6250000000000009
 40
0.6250000000000009
 40
0.6250000000000009
 10
75.77537521789802
 20
8.622522613648487
 30
0.0
 10
75.51441264536093
 20
8.443189809387436
 30
0.0
 10
75.22259863144215
 20
8.248695193715516
 30
0.0
 10
74.90352869549841
 20
8.04835244172529
 30
0.0
  0
SPLINE
  5
20E
330
1F
100
AcDbEntity
  8
SK3
  6
SLD-Dashed
370
    18
100
AcDbSpline
210
0.0
220
0.0
230
1.0
 70
     8
 71
     3
 72
     8
 73
     4
 74
     0
 42
0.000000001
 43
0.00000001
 40
0.6250000000000009
 40
0.6250000000000009
 40
0.6250000000000009
 40
0.6250000000000009
 40
0.6406250000000012
 40
0.6406250000000012
 40
0.6406250000000012
 40
0.6406250000000012
 10
74.90352869549841
 20
8.04835244172529
 30
0.0
 10
74.74399372752649
 20
7.948181065730184
 30
0.0
 10
74.57735354937228
 20
7.846391246550732
 30
0.0
 10
74.40321616353668
 20
7.744004273106481
 30
0.0
  0
SPLINE
  5
20F
330
1F
100
AcDbEntity
  8
SK3
  6
SLD-Dashed
370
    18
100
AcDbSpline
210
0.0
220
0.0
230
1.0
 70
     8
 71
     3
 72
     8
 73
     4
 74
     0
 42
0.000000001
 43
0.00000001
 40
0.6406250000000012
 40
0.6406250000000012
 40
0.6406250000000012
 40
0.6406250000000012
 40
0.6562500000000016
 40
0.6562500000000016
 40
0.6562500000000016
 40
0.6562500000000016
 10
74.40321616353668
 20
7.744004273106481
 30
0.0
 10
74.22907877770105
 20
7.641617299662215
 30
0.0
 10
74.04741442890759
 20
7.538664862757116
 30
0.0
 10
73.8610023608557
 20
7.438142556363784
 30
0.0
  0
SPLINE
  5
210
330
1F
100
AcDbEntity
  8
SK3
  6
SLD-Dashed
370
    18
100
AcDbSpline
210
0.0
220
0.0
230
1.0
 70
     8
 71
     3
 72
     8
 73
     4
 74
     0
 42
0.000000001
 43
0.00000001
 40
0.6562500000000016
 40
0.6562500000000016
 40
0.6562500000000016
 40
0.6562500000000016
 40
0.6875000000000016
 40
0.6875000000000016
 40
0.6875000000000016
 40
0.6875000000000016
 10
73.8610023608557
 20
7.438142556363784
 30
0.0
 10
73.4881782247519
 20
7.237097943577103
 30
0.0
 10
73.09370160361325
 20
7.04354248150052
 30
0.0
 10
72.67185368860216
 20
6.870275321257322
 30
0.0
  0
SPLINE
  5
211
330
1F
100
AcDbEntity
  8
SK3
  6
SLD-Dashed
370
    18
100
AcDbSpline
210
0.0
220
0.0
230
1.0
 70
     8
 71
     3
 72
     8
 73
     4
 74
     0
 42
0.000000001
 43
0.00000001
 40
0.6875000000000016
 40
0.6875000000000016
 40
0.6875000000000016
 40
0.6875000000000016
 40
0.7031250000000017
 40
0.7031250000000017
 40
0.7031250000000017
 40
0.7031250000000017
 10
72.67185368860216
 20
6.870275321257322
 30
0.0
 10
72.46092973109658
 20
6.783641741135729
 30
0.0
 10
72.24308047476524
 20
6.702160649266819
 30
0.0
 10
72.01687184492553
 20
6.628209286250006
 30
0.0
  0
SPLINE
  5
212
330
1F
100
AcDbEntity
  8
SK3
  6
SLD-Dashed
370
    18
100
AcDbSpline
210
0.0
220
0.0
230
1.0
 70
     8
 71
     3
 72
     8
 73
     4
 74
     0
 42
0.000000001
 43
0.00000001
 40
0.7031250000000017
 40
0.7031250000000017
 40
0.7031250000000017
 40
0.7031250000000017
 40
0.7187500000000017
 40
0.7187500000000017
 40
0.7187500000000017
 40
0.7187500000000017
 10
72.01687184492553
 20
6.628209286250006
 30
0.0
 10
71.79066321508581
 20
6.554257923233192
 30
0.0
 10
71.55825924244962
 20
6.488713741289981
 30
0.0
 10
71.32272968414225
 20
6.434808270069412
 30
0.0
  0
SPLINE
  5
213
330
1F
100
AcDbEntity
  8
SK3
  6
SLD-Dashed
370
    18
100
AcDbSpline
210
0.0
220
0.0
230
1.0
 70
     8
 71
     3
 72
     8
 73
     4
 74
     0
 42
0.000000001
 43
0.00000001
 40
0.7187500000000017
 40
0.7187500000000017
 40
0.7187500000000017
 40
0.7187500000000017
 40
0.7343750000000018
 40
0.7343750000000018
 40
0.7343750000000018
 40
0.7343750000000018
 10
71.32272968414225
 20
6.434808270069412
 30
0.0
 10
71.08720012583483
 20
6.380902798848815
 30
0.0
 10
70.84747635181127
 20
6.33828649180633
 30
0.0
 10
70.60301885127532
 20
6.309109456997544
 30
0.0
  0
SPLINE
  5
214
330
1F
100
AcDbEntity
  8
SK3
  6
SLD-Dashed
370
    18
100
AcDbSpline
210
0.0
220
0.0
230
1.0
 70
     8
 71
     3
 72
     8
 73
     4
 74
     0
 42
0.000000001
 43
0.00000001
 40
0.7343750000000018
 40
0.7343750000000018
 40
0.7343750000000018
 40
0.7343750000000018
 40
0.7500000000000018
 40
0.7500000000000018
 40
0.7500000000000018
 40
0.7500000000000018
 10
70.60301885127532
 20
6.309109456997544
 30
0.0
 10
70.35856135073934
 20
6.279932422188772
 30
0.0
 10
70.107843897867
 20
6.264447424377609
 30
0.0
 10
69.86084819780486
 20
6.264019670578602
 30
0.0
  0
SPLINE
  5
215
330
1F
100
AcDbEntity
  8
SK3
  6
SLD-Dashed
370
    18
100
AcDbSpline
210
0.0
220
0.0
230
1.0
 70
     8
 71
     3
 72
     8
 73
     4
 74
     0
 42
0.000000001
 43
0.00000001
 40
0.7500000000000018
 40
0.7500000000000018
 40
0.7500000000000018
 40
0.7500000000000018
 40
0.7656250000000019
 40
0.7656250000000019
 40
0.7656250000000019
 40
0.7656250000000019
 10
69.86084819780486
 20
6.264019670578602
 30
0.0
 10
69.61385249774268
 20
6.263591916779582
 30
0.0
 10
69.36869247069416
 20
6.277819323205036
 30
0.0
 10
69.12528164323706
 20
6.305794275634852
 30
0.0
  0
SPLINE
  5
216
330
1F
100
AcDbEntity
  8
SK3
  6
SLD-Dashed
370
    18
100
AcDbSpline
210
0.0
220
0.0
230
1.0
 70
     8
 71
     3
 72
     8
 73
     4
 74
     0
 42
0.000000001
 43
0.00000001
 40
0.7656250000000019
 40
0.7656250000000019
 40
0.7656250000000019
 40
0.7656250000000019
 40
0.781250000000002
 40
0.781250000000002
 40
0.781250000000002
 40
0.781250000000002
 10
69.12528164323706
 20
6.305794275634852
 30
0.0
 10
68.8818708157799
 20
6.333769228064654
 30
0.0
 10
68.63859054331262
 20
6.375869795885822
 30
0.0
 10
68.40091090278914
 20
6.429438852781439
 30
0.0
  0
SPLINE
  5
217
330
1F
100
AcDbEntity
  8
SK3
  6
SLD-Dashed
370
    18
100
AcDbSpline
210
0.0
220
0.0
230
1.0
 70
     8
 71
     3
 72
     8
 73
     4
 74
     0
 42
0.000000001
 43
0.00000001
 40
0.781250000000002
 40
0.781250000000002
 40
0.781250000000002
 40
0.781250000000002
 40
0.8125000000000012
 40
0.8125000000000012
 40
0.8125000000000012
 40
0.8125000000000012
 10
68.40091090278914
 20
6.429438852781439
 30
0.0
 10
67.92555162174219
 20
6.536576966572671
 30
0.0
 10
67.4789099743266
 20
6.686457325455461
 30
0.0
 10
67.05309134773537
 20
6.860067256165419
 30
0.0
  0
SPLINE
  5
218
330
1F
100
AcDbEntity
  8
SK3
  6
SLD-Dashed
370
    18
100
AcDbSpline
210
0.0
220
0.0
230
1.0
 70
     8
 71
     3
 72
     8
 73
     4
 74
     0
 42
0.000000001
 43
0.00000001
 40
0.8125000000000012
 40
0.8125000000000012
 40
0.8125000000000012
 40
0.8125000000000012
 40
0.8281250000000009
 40
0.8281250000000009
 40
0.8281250000000009
 40
0.8281250000000009
 10
67.05309134773537
 20
6.860067256165419
 30
0.0
 10
66.84018203443975
 20
6.946872221520378
 30
0.0
 10
66.63161618483365
 20
7.040231584780566
 30
0.0
 10
66.43116556354614
 20
7.136263283671799
 30
0.0
  0
SPLINE
  5
219
330
1F
100
AcDbEntity
  8
SK3
  6
SLD-Dashed
370
    18
100
AcDbSpline
210
0.0
220
0.0
230
1.0
 70
     8
 71
     3
 72
     8
 73
     4
 74
     0
 42
0.000000001
 43
0.00000001
 40
0.8281250000000009
 40
0.8281250000000009
 40
0.8281250000000009
 40
0.8281250000000009
 40
0.8437500000000004
 40
0.8437500000000004
 40
0.8437500000000004
 40
0.8437500000000004
 10
66.43116556354614
 20
7.136263283671799
 30
0.0
 10
66.23071494225869
 20
7.232294982563045
 30
0.0
 10
66.03789711525843
 20
7.331121877290375
 30
0.0
 10
65.85180747073582
 20
7.431242712431327
 30
0.0
  0
SPLINE
  5
21A
330
1F
100
AcDbEntity
  8
SK3
  6
SLD-Dashed
370
    18
100
AcDbSpline
210
0.0
220
0.0
230
1.0
 70
     8
 71
     3
 72
     8
 73
     4
 74
     0
 42
0.000000001
 43
0.00000001
 40
0.8437500000000004
 40
0.8437500000000004
 40
0.8437500000000004
 40
0.8437500000000004
 40
0.8750000000000004
 40
0.8750000000000004
 40
0.8750000000000004
 40
0.8750000000000004
 10
65.85180747073582
 20
7.431242712431327
 30
0.0
 10
65.47962818169064
 20
7.631484382713216
 30
0.0
 10
65.13406068238223
 20
7.836781660934101
 30
0.0
 10
64.81257921890787
 20
8.038248122307385
 30
0.0
  0
SPLINE
  5
21B
330
1F
100
AcDbEntity
  8
SK3
  6
SLD-Dashed
370
    18
100
AcDbSpline
210
0.0
220
0.0
230
1.0
 70
     8
 71
     3
 72
     8
 73
     4
 74
     0
 42
0.000000001
 43
0.00000001
 40
0.8750000000000004
 40
0.8750000000000004
 40
0.8750000000000004
 40
0.8750000000000004
 40
0.8906250000000003
 40
0.8906250000000003
 40
0.8906250000000003
 40
0.8906250000000003
 10
64.81257921890787
 20
8.038248122307385
 30
0.0
 10
64.6518384871707
 20
8.138981352994026
 30
0.0
 10
64.4968082148562
 20
8.239081736399214
 30
0.0
 10
64.35092425741671
 20
8.335325954794303
 30
0.0
  0
SPLINE
  5
21C
330
1F
100
AcDbEntity
  8
SK3
  6
SLD-Dashed
370
    18
100
AcDbSpline
210
0.0
220
0.0
230
1.0
 70
     8
 71
     3
 72
     8
 73
     4
 74
     0
 42
0.000000001
 43
0.00000001
 40
0.8906250000000003
 40
0.8906250000000003
 40
0.8906250000000003
 40
0.8906250000000003
 40
0.9062500000000003
 40
0.9062500000000003
 40
0.9062500000000003
 40
0.9062500000000003
 10
64.35092425741671
 20
8.335325954794303
 30
0.0
 10
64.2050402999772
 20
8.431570173189407
 30
0.0
 10
64.06752899563133
 20
8.524433433031039
 30
0.0
 10
63.9383190484126
 20
8.613117694735218
 30
0.0
  0
SPLINE
  5
21D
330
1F
100
AcDbEntity
  8
SK3
  6
SLD-Dashed
370
    18
100
AcDbSpline
210
0.0
220
0.0
230
1.0
 70
     8
 71
     3
 72
     8
 73
     4
 74
     0
 42
0.000000001
 43
0.00000001
 40
0.9062500000000003
 40
0.9062500000000003
 40
0.9062500000000003
 40
0.9062500000000003
 40
0.9375000000000001
 40
0.9375000000000001
 40
0.9375000000000001
 40
0.9375000000000001
 10
63.9383190484126
 20
8.613117694735218
 30
0.0
 10
63.67989915397509
 20
8.790486218143572
 30
0.0
 10
63.45430689297879
 20
8.951297372629064
 30
0.0
 10
63.26518876376208
 20
9.088320183999077
 30
0.0
  0
SPLINE
  5
21E
330
1F
100
AcDbEntity
  8
SK3
  6
SLD-Dashed
370
    18
100
AcDbSpline
210
0.0
220
0.0
230
1.0
 70
     8
 71
     3
 72
     8
 73
     4
 74
     0
 42
0.000000001
 43
0.00000001
 40
0.9375000000000001
 40
0.9375000000000001
 40
0.9375000000000001
 40
0.9375000000000001
 40
0.9531250000000001
 40
0.9531250000000001
 40
0.9531250000000001
 40
0.9531250000000001
 10
63.26518876376208
 20
9.088320183999077
 30
0.0
 10
63.17062969915371
 20
9.156831589684097
 30
0.0
 10
63.08543939728042
 20
9.219255215159983
 30
0.0
 10
63.01234105109846
 20
9.273155053782553
 30
0.0
  0
SPLINE
  5
21F
330
1F
100
AcDbEntity
  8
SK3
  6
SLD-Dashed
370
    18
100
AcDbSpline
210
0.0
220
0.0
230
1.0
 70
     8
 71
     3
 72
     8
 73
     4
 74
     0
 42
0.000000001
 43
0.00000001
 40
0.9531250000000001
 40
0.9531250000000001
 40
0.9531250000000001
 40
0.9531250000000001
 40
0.9687500000000001
 40
0.9687500000000001
 40
0.9687500000000001
 40
0.9687500000000001
 10
63.01234105109846
 20
9.273155053782553
 30
0.0
 10
62.93924270491652
 20
9.32705489240511
 30
0.0
 10
62.87753278779354
 20
9.37294062591157
 30
0.0
 10
62.82753172105221
 20
9.410254272804105
 30
0.0
  0
SPLINE
  5
220
330
1F
100
AcDbEntity
  8
SK3
  6
SLD-Dashed
370
    18
100
AcDbSpline
210
0.0
220
0.0
230
1.0
 70
     8
 71
     3
 72
     8
 73
     4
 74
     0
 42
0.000000001
 43
0.00000001
 40
0.9687500000000001
 40
0.9687500000000001
 40
0.9687500000000001
 40
0.9687500000000001
 40
0.984375
 40
0.984375
 40
0.984375
 40
0.984375
 10
62.82753172105221
 20
9.410254272804105
 30
0.0
 10
62.77753065431094
 20
9.447567919696642
 30
0.0
 10
62.7392330651321
 20
9.476314713373082
 30
0.0
 10
62.71339096363701
 20
9.495736584799422
 30
0.0
  0
SPLINE
  5
221
330
1F
100
AcDbEntity
  8
SK3
  6
SLD-Dashed
370
    18
100
AcDbSpline
210
0.0
220
0.0
230
1.0
 70
     8
 71
     2
 72
     6
 73
     3
 74
     0
 42
0.000000001
 43
0.00000001
 40
0.984375
 40
0.984375
 40
0.984375
 40
1.0
 40
1.0
 40
1.0
 10
62.71339096363698
 20
9.495736584799443
 30
0.0
 10
62.68754886214187
 20
9.515158456225775
 30
0.0
 10
62.67449999999999
 20
9.524999999999991
 30
0.0
  0
SPLINE
  5
222
330
1F
100
AcDbEntity
  8
SK3
  6
SLD-Dashed
370
    18
100
AcDbSpline
210
0.0
220
0.0
230
1.0
 70
     8
 71
     2
 72
     6
 73
     3
 74
     0
 42
0.000000001
 43
0.00000001
 40
0.0
 40
0.0
 40
0.0
 40
0.0312499999999999
 40
0.0312499999999999
 40
0.0312499999999999
 10
62.67449999999999
 20
9.524999999999991
 30
0.0
 10
62.72565682781417
 20
9.486294570018302
 30
0.0
 10
62.82425850713621
 20
9.41269718383353
 30
0.0
  0
SPLINE
  5
223
330
1F
100
AcDbEntity
  8
SK3
  6
SLD-Dashed
370
    18
100
AcDbSpline
210
0.0
220
0.0
230
1.0
 70
     8
 71
     3
 72
     8
 73
     4
 74
     0
 42
0.000000001
 43
0.00000001
 40
0.0312499999999999
 40
0.0312499999999999
 40
0.0312499999999999
 40
0.0312499999999999
 40
0.0468749999999999
 40
0.0468749999999999
 40
0.0468749999999999
 40
0.0468749999999999
 10
62.82425850713621
 20
9.41269718383353
 30
0.0
 10
62.87355934679725
 20
9.37589849074115
 30
0.0
 10
62.93517626073567
 20
9.33006899988692
 30
0.0
 10
63.0080947204796
 20
9.27628657405155
 30
0.0
  0
SPLINE
  5
224
330
1F
100
AcDbEntity
  8
SK3
  6
SLD-Dashed
370
    18
100
AcDbSpline
210
0.0
220
0.0
230
1.0
 70
     8
 71
     3
 72
     8
 73
     4
 74
     0
 42
0.000000001
 43
0.00000001
 40
0.0468749999999999
 40
0.0468749999999999
 40
0.0468749999999999
 40
0.0468749999999999
 40
0.0624999999999998
 40
0.0624999999999998
 40
0.0624999999999998
 40
0.0624999999999998
 10
63.0080947204796
 20
9.27628657405155
 30
0.0
 10
63.08101318022355
 20
9.222504148216196
 30
0.0
 10
63.16443033856961
 20
9.161361501007145
 30
0.0
 10
63.25763575567419
 20
9.093794097067786
 30
0.0
  0
SPLINE
  5
225
330
1F
100
AcDbEntity
  8
SK3
  6
SLD-Dashed
370
    18
100
AcDbSpline
210
0.0
220
0.0
230
1.0
 70
     8
 71
     3
 72
     8
 73
     4
 74
     0
 42
0.000000001
 43
0.00000001
 40
0.0624999999999998
 40
0.0624999999999998
 40
0.0624999999999998
 40
0.0624999999999998
 40
0.0781249999999998
 40
0.0781249999999998
 40
0.0781249999999998
 40
0.0781249999999998
 10
63.25763575567419
 20
9.093794097067786
 30
0.0
 10
63.35084117277884
 20
9.026226693128415
 30
0.0
 10
63.45384013481134
 20
8.952227614798469
 30
0.0
 10
63.56632421266148
 20
8.87256480113749
 30
0.0
  0
SPLINE
  5
226
330
1F
100
AcDbEntity
  8
SK3
  6
SLD-Dashed
370
    18
100
AcDbSpline
210
0.0
220
0.0
230
1.0
 70
     8
 71
     3
 72
     8
 73
     4
 74
     0
 42
0.000000001
 43
0.00000001
 40
0.0781249999999998
 40
0.0781249999999998
 40
0.0781249999999998
 40
0.0781249999999998
 40
0.0937499999999997
 40
0.0937499999999997
 40
0.0937499999999997
 40
0.0937499999999997
 10
63.56632421266148
 20
8.87256480113749
 30
0.0
 10
63.67880829051165
 20
8.792901987476522
 30
0.0
 10
63.80142759676855
 20
8.707128391408636
 30
0.0
 10
63.93170991806135
 20
8.617655263699856
 30
0.0
  0
SPLINE
  5
227
330
1F
100
AcDbEntity
  8
SK3
  6
SLD-Dashed
370
    18
100
AcDbSpline
210
0.0
220
0.0
230
1.0
 70
     8
 71
     3
 72
     8
 73
     4
 74
     0
 42
0.000000001
 43
0.00000001
 40
0.0937499999999997
 40
0.0937499999999997
 40
0.0937499999999997
 40
0.0937499999999997
 40
0.1249999999999991
 40
0.1249999999999991
 40
0.1249999999999991
 40
0.1249999999999991
 10
63.93170991806135
 20
8.617655263699856
 30
0.0
 10
64.19227456064696
 20
8.43870900828228
 30
0.0
 10
64.48256757399196
 20
8.245314563493839
 30
0.0
 10
64.80220499224357
 20
8.04475351955114
 30
0.0
  0
SPLINE
  5
228
330
1F
100
AcDbEntity
  8
SK3
  6
SLD-Dashed
370
    18
100
AcDbSpline
210
0.0
220
0.0
230
1.0
 70
     8
 71
     3
 72
     8
 73
     4
 74
     0
 42
0.000000001
 43
0.00000001
 40
0.1249999999999991
 40
0.1249999999999991
 40
0.1249999999999991
 40
0.1249999999999991
 40
0.1562499999999986
 40
0.1562499999999986
 40
0.1562499999999986
 40
0.1562499999999986
 10
64.80220499224357
 20
8.04475351955114
 30
0.0
 10
65.12184241049518
 20
7.844192475608441
 30
0.0
 10
65.4722834045891
 20
7.63573558072482
 30
0.0
 10
65.84345387515556
 20
7.435740487705719
 30
0.0
  0
SPLINE
  5
229
330
1F
100
AcDbEntity
  8
SK3
  6
SLD-Dashed
370
    18
100
AcDbSpline
210
0.0
220
0.0
230
1.0
 70
     8
 71
     3
 72
     8
 73
     4
 74
     0
 42
0.000000001
 43
0.00000001
 40
0.1562499999999986
 40
0.1562499999999986
 40
0.1562499999999986
 40
0.1562499999999986
 40
0.1874999999999981
 40
0.1874999999999981
 40
0.1874999999999981
 40
0.1874999999999981
 10
65.84345387515556
 20
7.435740487705719
 30
0.0
 10
66.214624345722
 20
7.235745394686618
 30
0.0
 10
66.60889934153408
 20
7.042219871342098
 30
0.0
 10
67.03312771310301
 20
6.868230793347599
 30
0.0
  0
SPLINE
  5
22A
330
1F
100
AcDbEntity
  8
SK3
  6
SLD-Dashed
370
    18
100
AcDbSpline
210
0.0
220
0.0
230
1.0
 70
     8
 71
     3
 72
     8
 73
     4
 74
     0
 42
0.000000001
 43
0.00000001
 40
0.1874999999999981
 40
0.1874999999999981
 40
0.1874999999999981
 40
0.1874999999999981
 40
0.2031249999999981
 40
0.2031249999999981
 40
0.2031249999999981
 40
0.2031249999999981
 10
67.03312771310301
 20
6.868230793347599
 30
0.0
 10
67.2452418988875
 20
6.781236254350357
 30
0.0
 10
67.46617426303264
 20
6.698900448788001
 30
0.0
 10
67.69100783512482
 20
6.625637472575191
 30
0.0
  0
SPLINE
  5
22B
330
1F
100
AcDbEntity
  8
SK3
  6
SLD-Dashed
370
    18
100
AcDbSpline
210
0.0
220
0.0
230
1.0
 70
     8
 71
     3
 72
     8
 73
     4
 74
     0
 42
0.000000001
 43
0.00000001
 40
0.2031249999999981
 40
0.2031249999999981
 40
0.2031249999999981
 40
0.2031249999999981
 40
0.2187499999999983
 40
0.2187499999999983
 40
0.2187499999999983
 40
0.2187499999999983
 10
67.69100783512482
 20
6.625637472575191
 30
0.0
 10
67.91584140721707
 20
6.552374496362368
 30
0.0
 10
68.14535505578914
 20
6.487784944442993
 30
0.0
 10
68.380225731375
 20
6.43413250957052
 30
0.0
  0
SPLINE
  5
22C
330
1F
100
AcDbEntity
  8
SK3
  6
SLD-Dashed
370
    18
100
AcDbSpline
210
0.0
220
0.0
230
1.0
 70
     8
 71
     3
 72
     8
 73
     4
 74
     0
 42
0.000000001
 43
0.00000001
 40
0.2187499999999983
 40
0.2187499999999983
 40
0.2187499999999983
 40
0.2187499999999983
 40
0.2343749999999983
 40
0.2343749999999983
 40
0.2343749999999983
 40
0.2343749999999983
 10
68.380225731375
 20
6.43413250957052
 30
0.0
 10
68.61509640696084
 20
6.380480074698033
 30
0.0
 10
68.85593306395683
 20
6.3376983487574
 30
0.0
 10
69.10174502207533
 20
6.308542641688036
 30
0.0
  0
SPLINE
  5
22D
330
1F
100
AcDbEntity
  8
SK3
  6
SLD-Dashed
370
    18
100
AcDbSpline
210
0.0
220
0.0
230
1.0
 70
     8
 71
     3
 72
     8
 73
     4
 74
     0
 42
0.000000001
 43
0.00000001
 40
0.2343749999999983
 40
0.2343749999999983
 40
0.2343749999999983
 40
0.2343749999999983
 40
0.2499999999999984
 40
0.2499999999999984
 40
0.2499999999999984
 40
0.2499999999999984
 10
69.10174502207533
 20
6.308542641688036
 30
0.0
 10
69.34755698019379
 20
6.279386934618672
 30
0.0
 10
69.5928882241141
 20
6.264501417651197
 30
0.0
 10
69.83774212571132
 20
6.26402227051294
 30
0.0
  0
SPLINE
  5
22E
330
1F
100
AcDbEntity
  8
SK3
  6
SLD-Dashed
370
    18
100
AcDbSpline
210
0.0
220
0.0
230
1.0
 70
     8
 71
     3
 72
     8
 73
     4
 74
     0
 42
0.000000001
 43
0.00000001
 40
0.2499999999999984
 40
0.2499999999999984
 40
0.2499999999999984
 40
0.2499999999999984
 40
0.2656249999999986
 40
0.2656249999999986
 40
0.2656249999999986
 40
0.2656249999999986
 10
69.83774212571132
 20
6.26402227051294
 30
0.0
 10
70.08259602730848
 20
6.263543123374681
 30
0.0
 10
70.32697259920934
 20
6.277468811029793
 30
0.0
 10
70.57087941161788
 20
6.305354222888221
 30
0.0
  0
SPLINE
  5
22F
330
1F
100
AcDbEntity
  8
SK3
  6
SLD-Dashed
370
    18
100
AcDbSpline
210
0.0
220
0.0
230
1.0
 70
     8
 71
     3
 72
     8
 73
     4
 74
     0
 42
0.000000001
 43
0.00000001
 40
0.2656249999999986
 40
0.2656249999999986
 40
0.2656249999999986
 40
0.2656249999999986
 40
0.2812499999999987
 40
0.2812499999999987
 40
0.2812499999999987
 40
0.2812499999999987
 10
70.57087941161788
 20
6.305354222888221
 30
0.0
 10
70.81478622402638
 20
6.333239634746676
 30
0.0
 10
71.05890186270275
 20
6.375442830892822
 30
0.0
 10
71.29516024327742
 20
6.428554493721705
 30
0.0
  0
SPLINE
  5
230
330
1F
100
AcDbEntity
  8
SK3
  6
SLD-Dashed
370
    18
100
AcDbSpline
210
0.0
220
0.0
230
1.0
 70
     8
 71
     3
 72
     8
 73
     4
 74
     0
 42
0.000000001
 43
0.00000001
 40
0.2812499999999987
 40
0.2812499999999987
 40
0.2812499999999987
 40
0.2812499999999987
 40
0.2968749999999987
 40
0.2968749999999987
 40
0.2968749999999987
 40
0.2968749999999987
 10
71.29516024327742
 20
6.428554493721705
 30
0.0
 10
71.53141862385209
 20
6.481666156550589
 30
0.0
 10
71.76182155461952
 20
6.545792657473404
 30
0.0
 10
71.9871647465998
 20
6.618557086262008
 30
0.0
  0
SPLINE
  5
231
330
1F
100
AcDbEntity
  8
SK3
  6
SLD-Dashed
370
    18
100
AcDbSpline
210
0.0
220
0.0
230
1.0
 70
     8
 71
     3
 72
     8
 73
     4
 74
     0
 42
0.000000001
 43
0.00000001
 40
0.2968749999999987
 40
0.2968749999999987
 40
0.2968749999999987
 40
0.2968749999999987
 40
0.3124999999999988
 40
0.3124999999999988
 40
0.3124999999999988
 40
0.3124999999999988
 10
71.9871647465998
 20
6.618557086262008
 30
0.0
 10
72.21250793858009
 20
6.6913215150506
 30
0.0
 10
72.43383198352788
 20
6.773196264177953
 30
0.0
 10
72.6468234679426
 20
6.860032526222776
 30
0.0
  0
SPLINE
  5
232
330
1F
100
AcDbEntity
  8
SK3
  6
SLD-Dashed
370
    18
100
AcDbSpline
210
0.0
220
0.0
230
1.0
 70
     8
 71
     3
 72
     8
 73
     4
 74
     0
 42
0.000000001
 43
0.00000001
 40
0.3124999999999988
 40
0.3124999999999988
 40
0.3124999999999988
 40
0.3124999999999988
 40
0.343749999999999
 40
0.343749999999999
 40
0.343749999999999
 40
0.343749999999999
 10
72.6468234679426
 20
6.860032526222776
 30
0.0
 10
73.07280643677208
 20
7.033705050312408
 30
0.0
 10
73.46854742098047
 20
7.227241255364988
 30
0.0
 10
73.84105055683656
 20
7.427402594260321
 30
0.0
  0
SPLINE
  5
233
330
1F
100
AcDbEntity
  8
SK3
  6
SLD-Dashed
370
    18
100
AcDbSpline
210
0.0
220
0.0
230
1.0
 70
     8
 71
     3
 72
     8
 73
     4
 74
     0
 42
0.000000001
 43
0.00000001
 40
0.343749999999999
 40
0.343749999999999
 40
0.343749999999999
 40
0.343749999999999
 40
0.3749999999999992
 40
0.3749999999999992
 40
0.3749999999999992
 40
0.3749999999999992
 10
73.84105055683656
 20
7.427402594260321
 30
0.0
 10
74.2135536926927
 20
7.627563933155668
 30
0.0
 10
74.5652295348781
 20
7.836392403580458
 30
0.0
 10
74.88513106412407
 20
8.03681339729291
 30
0.0
  0
SPLINE
  5
234
330
1F
100
AcDbEntity
  8
SK3
  6
SLD-Dashed
370
    18
100
AcDbSpline
210
0.0
220
0.0
230
1.0
 70
     8
 71
     3
 72
     8
 73
     4
 74
     0
 42
0.000000001
 43
0.00000001
 40
0.3749999999999992
 40
0.3749999999999992
 40
0.3749999999999992
 40
0.3749999999999992
 40
0.4062499999999994
 40
0.4062499999999994
 40
0.4062499999999994
 40
0.4062499999999994
 10
74.88513106412407
 20
8.03681339729291
 30
0.0
 10
75.20503259336996
 20
8.237234391005362
 30
0.0
 10
75.49510788339012
 20
8.43025623487402
 30
0.0
 10
75.75531399849258
 20
8.608748931801442
 30
0.0
  0
SPLINE
  5
235
330
1F
100
AcDbEntity
  8
SK3
  6
SLD-Dashed
370
    18
100
AcDbSpline
210
0.0
220
0.0
230
1.0
 70
     8
 71
     3
 72
     8
 73
     4
 74
     0
 42
0.000000001
 43
0.00000001
 40
0.4062499999999994
 40
0.4062499999999994
 40
0.4062499999999994
 40
0.4062499999999994
 40
0.4374999999999996
 40
0.4374999999999996
 40
0.4374999999999996
 40
0.4374999999999996
 10
75.75531399849258
 20
8.608748931801442
 30
0.0
 10
76.01552011359509
 20
8.787241628728863
 30
0.0
 10
76.24630093688748
 20
8.95174643556118
 30
0.0
 10
76.43392951843362
 20
9.087681368407527
 30
0.0
  0
SPLINE
  5
236
330
1F
100
AcDbEntity
  8
SK3
  6
SLD-Dashed
370
    18
100
AcDbSpline
210
0.0
220
0.0
230
1.0
 70
     8
 71
     3
 72
     8
 73
     4
 74
     0
 42
0.000000001
 43
0.00000001
 40
0.4374999999999996
 40
0.4374999999999996
 40
0.4374999999999996
 40
0.4374999999999996
 40
0.4531249999999997
 40
0.4531249999999997
 40
0.4531249999999997
 40
0.4531249999999997
 10
76.43392951843362
 20
9.087681368407527
 30
0.0
 10
76.52774380920665
 20
9.155648834830693
 30
0.0
 10
76.61146308561656
 20
9.216982516629765
 30
0.0
 10
76.6845873384077
 20
9.270890401483726
 30
0.0
  0
SPLINE
  5
237
330
1F
100
AcDbEntity
  8
SK3
  6
SLD-Dashed
370
    18
100
AcDbSpline
210
0.0
220
0.0
230
1.0
 70
     8
 71
     3
 72
     8
 73
     4
 74
     0
 42
0.000000001
 43
0.00000001
 40
0.4531249999999997
 40
0.4531249999999997
 40
0.4531249999999997
 40
0.4531249999999997
 40
0.4687499999999997
 40
0.4687499999999997
 40
0.4687499999999997
 40
0.4687499999999997
 10
76.6845873384077
 20
9.270890401483726
 30
0.0
 10
76.75771159119881
 20
9.324798286337671
 30
0.0
 10
76.82055278755115
 20
9.371515294523125
 30
0.0
 10
76.87109152830998
 20
9.409226907610742
 30
0.0
  0
SPLINE
  5
238
330
1F
100
AcDbEntity
  8
SK3
  6
SLD-Dashed
370
    18
100
AcDbSpline
210
0.0
220
0.0
230
1.0
 70
     8
 71
     3
 72
     8
 73
     4
 74
     0
 42
0.000000001
 43
0.00000001
 40
0.4687499999999997
 40
0.4687499999999997
 40
0.4687499999999997
 40
0.4687499999999997
 40
0.5000000000000001
 40
0.5000000000000001
 40
0.5000000000000001
 40
0.5000000000000001
 10
76.87109152830998
 20
9.409226907610742
 30
0.0
 10
76.97216900982767
 20
9.484650133785951
 30
0.0
 10
77.02377635180687
 20
9.523701521609556
 30
0.0
 10
77.02545798209984
 20
9.52496834655532
 30
0.0
  0
SPLINE
  5
239
330
1F
100
AcDbEntity
  8
SK3
  6
SLD-Dashed
370
    18
100
AcDbSpline
210
0.0
220
0.0
230
1.0
 70
     8
 71
     3
 72
     8
 73
     4
 74
     0
 42
0.000000001
 43
0.00000001
 40
0.5156250000000003
 40
0.5156250000000003
 40
0.5156250000000003
 40
0.5156250000000003
 40
0.5312500000000004
 40
0.5312500000000004
 40
0.5312500000000004
 40
0.5312500000000004
 10
76.98967527502803
 20
9.498041260325566
 30
0.0
 10
76.96500343898511
 20
9.47949544725131
 30
0.0
 10
76.92794187873167
 20
9.451668134706242
 30
0.0
 10
76.87911054851097
 20
9.415212151257583
 30
0.0
  0
SPLINE
  5
23A
330
1F
100
AcDbEntity
  8
SK3
  6
SLD-Dashed
370
    18
100
AcDbSpline
210
0.0
220
0.0
230
1.0
 70
     8
 71
     3
 72
     8
 73
     4
 74
     0
 42
0.000000001
 43
0.00000001
 40
0.5312500000000004
 40
0.5312500000000004
 40
0.5312500000000004
 40
0.5312500000000004
 40
0.5468750000000007
 40
0.5468750000000007
 40
0.5468750000000007
 40
0.5468750000000007
 10
76.87911054851097
 20
9.415212151257583
 30
0.0
 10
76.83027921829027
 20
9.378756167808907
 30
0.0
 10
76.76967419841158
 20
9.333667164038578
 30
0.0
 10
76.697502509743
 20
9.280415689554886
 30
0.0
  0
SPLINE
  5
23B
330
1F
100
AcDbEntity
  8
SK3
  6
SLD-Dashed
370
    18
100
AcDbSpline
210
0.0
220
0.0
230
1.0
 70
     8
 71
     3
 72
     8
 73
     4
 74
     0
 42
0.000000001
 43
0.00000001
 40
0.5468750000000007
 40
0.5468750000000007
 40
0.5468750000000007
 40
0.5468750000000007
 40
0.5625000000000009
 40
0.5625000000000009
 40
0.5625000000000009
 40
0.5625000000000009
 10
76.697502509743
 20
9.280415689554886
 30
0.0
 10
76.6253308210744
 20
9.227164215071165
 30
0.0
 10
76.54126690346303
 20
9.165519475035424
 30
0.0
 10
76.44792541420814
 20
9.097826362458997
 30
0.0
  0
SPLINE
  5
23C
330
1F
100
AcDbEntity
  8
SK3
  6
SLD-Dashed
370
    18
100
AcDbSpline
210
0.0
220
0.0
230
1.0
 70
     8
 71
     3
 72
     8
 73
     4
 74
     0
 42
0.000000001
 43
0.00000001
 40
0.5625000000000009
 40
0.5625000000000009
 40
0.5625000000000009
 40
0.5625000000000009
 40
0.5937500000000009
 40
0.5937500000000009
 40
0.5937500000000009
 40
0.5937500000000009
 10
76.44792541420814
 20
9.097826362458997
 30
0.0
 10
76.26124243569843
 20
8.962440137306155
 30
0.0
 10
76.03633779043506
 20
8.801855417909552
 30
0.0
 10
75.77537521789802
 20
8.622522613648487
 30
0.0
  0
SPLINE
  5
23D
330
1F
100
AcDbEntity
  8
SK3
  6
SLD-Dashed
370
    18
100
AcDbSpline
210
0.0
220
0.0
230
1.0
 70
     8
 71
     3
 72
     8
 73
     4
 74
     0
 42
0.000000001
 43
0.00000001
 40
0.5937500000000009
 40
0.5937500000000009
 40
0.5937500000000009
 40
0.5937500000000009
 40
0.6250000000000009
 40
0.6250000000000009
 40
0.6250000000000009
 40
0.6250000000000009
 10
75.77537521789802
 20
8.622522613648487
 30
0.0
 10
75.51441264536093
 20
8.443189809387436
 30
0.0
 10
75.22259863144215
 20
8.248695193715516
 30
0.0
 10
74.90352869549841
 20
8.04835244172529
 30
0.0
  0
SPLINE
  5
23E
330
1F
100
AcDbEntity
  8
SK3
  6
SLD-Dashed
370
    18
100
AcDbSpline
210
0.0
220
0.0
230
1.0
 70
     8
 71
     3
 72
     8
 73
     4
 74
     0
 42
0.000000001
 43
0.00000001
 40
0.6250000000000009
 40
0.6250000000000009
 40
0.6250000000000009
 40
0.6250000000000009
 40
0.6406250000000012
 40
0.6406250000000012
 40
0.6406250000000012
 40
0.6406250000000012
 10
74.90352869549841
 20
8.04835244172529
 30
0.0
 10
74.74399372752649
 20
7.948181065730184
 30
0.0
 10
74.57735354937228
 20
7.846391246550732
 30
0.0
 10
74.40321616353668
 20
7.744004273106481
 30
0.0
  0
SPLINE
  5
23F
330
1F
100
AcDbEntity
  8
SK3
  6
SLD-Dashed
370
    18
100
AcDbSpline
210
0.0
220
0.0
230
1.0
 70
     8
 71
     3
 72
     8
 73
     4
 74
     0
 42
0.000000001
 43
0.00000001
 40
0.6406250000000012
 40
0.6406250000000012
 40
0.6406250000000012
 40
0.6406250000000012
 40
0.6562500000000016
 40
0.6562500000000016
 40
0.6562500000000016
 40
0.6562500000000016
 10
74.40321616353668
 20
7.744004273106481
 30
0.0
 10
74.22907877770105
 20
7.641617299662215
 30
0.0
 10
74.04741442890759
 20
7.538664862757116
 30
0.0
 10
73.8610023608557
 20
7.438142556363784
 30
0.0
  0
SPLINE
  5
240
330
1F
100
AcDbEntity
  8
SK3
  6
SLD-Dashed
370
    18
100
AcDbSpline
210
0.0
220
0.0
230
1.0
 70
     8
 71
     3
 72
     8
 73
     4
 74
     0
 42
0.000000001
 43
0.00000001
 40
0.6562500000000016
 40
0.6562500000000016
 40
0.6562500000000016
 40
0.6562500000000016
 40
0.6875000000000016
 40
0.6875000000000016
 40
0.6875000000000016
 40
0.6875000000000016
 10
73.8610023608557
 20
7.438142556363784
 30
0.0
 10
73.4881782247519
 20
7.237097943577103
 30
0.0
 10
73.09370160361325
 20
7.04354248150052
 30
0.0
 10
72.67185368860216
 20
6.870275321257322
 30
0.0
  0
SPLINE
  5
241
330
1F
100
AcDbEntity
  8
SK3
  6
SLD-Dashed
370
    18
100
AcDbSpline
210
0.0
220
0.0
230
1.0
 70
     8
 71
     3
 72
     8
 73
     4
 74
     0
 42
0.000000001
 43
0.00000001
 40
0.6875000000000016
 40
0.6875000000000016
 40
0.6875000000000016
 40
0.6875000000000016
 40
0.7031250000000017
 40
0.7031250000000017
 40
0.7031250000000017
 40
0.7031250000000017
 10
72.67185368860216
 20
6.870275321257322
 30
0.0
 10
72.46092973109658
 20
6.783641741135729
 30
0.0
 10
72.24308047476524
 20
6.702160649266819
 30
0.0
 10
72.01687184492553
 20
6.628209286250006
 30
0.0
  0
SPLINE
  5
242
330
1F
100
AcDbEntity
  8
SK3
  6
SLD-Dashed
370
    18
100
AcDbSpline
210
0.0
220
0.0
230
1.0
 70
     8
 71
     3
 72
     8
 73
     4
 74
     0
 42
0.000000001
 43
0.00000001
 40
0.7031250000000017
 40
0.7031250000000017
 40
0.7031250000000017
 40
0.7031250000000017
 40
0.7187500000000017
 40
0.7187500000000017
 40
0.7187500000000017
 40
0.7187500000000017
 10
72.01687184492553
 20
6.628209286250006
 30
0.0
 10
71.79066321508581
 20
6.554257923233192
 30
0.0
 10
71.55825924244962
 20
6.488713741289981
 30
0.0
 10
71.32272968414225
 20
6.434808270069412
 30
0.0
  0
SPLINE
  5
243
330
1F
100
AcDbEntity
  8
SK3
  6
SLD-Dashed
370
    18
100
AcDbSpline
210
0.0
220
0.0
230
1.0
 70
     8
 71
     3
 72
     8
 73
     4
 74
     0
 42
0.000000001
 43
0.00000001
 40
0.7187500000000017
 40
0.7187500000000017
 40
0.7187500000000017
 40
0.7187500000000017
 40
0.7343750000000018
 40
0.7343750000000018
 40
0.7343750000000018
 40
0.7343750000000018
 10
71.32272968414225
 20
6.434808270069412
 30
0.0
 10
71.08720012583483
 20
6.380902798848815
 30
0.0
 10
70.84747635181127
 20
6.33828649180633
 30
0.0
 10
70.60301885127532
 20
6.309109456997544
 30
0.0
  0
SPLINE
  5
244
330
1F
100
AcDbEntity
  8
SK3
  6
SLD-Dashed
370
    18
100
AcDbSpline
210
0.0
220
0.0
230
1.0
 70
     8
 71
     3
 72
     8
 73
     4
 74
     0
 42
0.000000001
 43
0.00000001
 40
0.7343750000000018
 40
0.7343750000000018
 40
0.7343750000000018
 40
0.7343750000000018
 40
0.7500000000000018
 40
0.7500000000000018
 40
0.7500000000000018
 40
0.7500000000000018
 10
70.60301885127532
 20
6.309109456997544
 30
0.0
 10
70.35856135073934
 20
6.279932422188772
 30
0.0
 10
70.107843897867
 20
6.264447424377609
 30
0.0
 10
69.86084819780486
 20
6.264019670578602
 30
0.0
  0
SPLINE
  5
245
330
1F
100
AcDbEntity
  8
SK3
  6
SLD-Dashed
370
    18
100
AcDbSpline
210
0.0
220
0.0
230
1.0
 70
     8
 71
     3
 72
     8
 73
     4
 74
     0
 42
0.000000001
 43
0.00000001
 40
0.7500000000000018
 40
0.7500000000000018
 40
0.7500000000000018
 40
0.7500000000000018
 40
0.7656250000000019
 40
0.7656250000000019
 40
0.7656250000000019
 40
0.7656250000000019
 10
69.86084819780486
 20
6.264019670578602
 30
0.0
 10
69.61385249774268
 20
6.263591916779582
 30
0.0
 10
69.36869247069416
 20
6.277819323205036
 30
0.0
 10
69.12528164323706
 20
6.305794275634852
 30
0.0
  0
SPLINE
  5
246
330
1F
100
AcDbEntity
  8
SK3
  6
SLD-Dashed
370
    18
100
AcDbSpline
210
0.0
220
0.0
230
1.0
 70
     8
 71
     3
 72
     8
 73
     4
 74
     0
 42
0.000000001
 43
0.00000001
 40
0.7656250000000019
 40
0.7656250000000019
 40
0.7656250000000019
 40
0.7656250000000019
 40
0.781250000000002
 40
0.781250000000002
 40
0.781250000000002
 40
0.781250000000002
 10
69.12528164323706
 20
6.305794275634852
 30
0.0
 10
68.8818708157799
 20
6.333769228064654
 30
0.0
 10
68.63859054331262
 20
6.375869795885822
 30
0.0
 10
68.40091090278914
 20
6.429438852781439
 30
0.0
  0
SPLINE
  5
247
330
1F
100
AcDbEntity
  8
SK3
  6
SLD-Dashed
370
    18
100
AcDbSpline
210
0.0
220
0.0
230
1.0
 70
     8
 71
     3
 72
     8
 73
     4
 74
     0
 42
0.000000001
 43
0.00000001
 40
0.781250000000002
 40
0.781250000000002
 40
0.781250000000002
 40
0.781250000000002
 40
0.8125000000000012
 40
0.8125000000000012
 40
0.8125000000000012
 40
0.8125000000000012
 10
68.40091090278914
 20
6.429438852781439
 30
0.0
 10
67.92555162174219
 20
6.536576966572671
 30
0.0
 10
67.4789099743266
 20
6.686457325455461
 30
0.0
 10
67.05309134773537
 20
6.860067256165419
 30
0.0
  0
SPLINE
  5
248
330
1F
100
AcDbEntity
  8
SK3
  6
SLD-Dashed
370
    18
100
AcDbSpline
210
0.0
220
0.0
230
1.0
 70
     8
 71
     3
 72
     8
 73
     4
 74
     0
 42
0.000000001
 43
0.00000001
 40
0.8125000000000012
 40
0.8125000000000012
 40
0.8125000000000012
 40
0.8125000000000012
 40
0.8281250000000009
 40
0.8281250000000009
 40
0.8281250000000009
 40
0.8281250000000009
 10
67.05309134773537
 20
6.860067256165419
 30
0.0
 10
66.84018203443975
 20
6.946872221520378
 30
0.0
 10
66.63161618483365
 20
7.040231584780566
 30
0.0
 10
66.43116556354614
 20
7.136263283671799
 30
0.0
  0
SPLINE
  5
249
330
1F
100
AcDbEntity
  8
SK3
  6
SLD-Dashed
370
    18
100
AcDbSpline
210
0.0
220
0.0
230
1.0
 70
     8
 71
     3
 72
     8
 73
     4
 74
     0
 42
0.000000001
 43
0.00000001
 40
0.8281250000000009
 40
0.8281250000000009
 40
0.8281250000000009
 40
0.8281250000000009
 40
0.8437500000000004
 40
0.8437500000000004
 40
0.8437500000000004
 40
0.8437500000000004
 10
66.43116556354614
 20
7.136263283671799
 30
0.0
 10
66.23071494225869
 20
7.232294982563045
 30
0.0
 10
66.03789711525843
 20
7.331121877290375
 30
0.0
 10
65.85180747073582
 20
7.431242712431327
 30
0.0
  0
SPLINE
  5
24A
330
1F
100
AcDbEntity
  8
SK3
  6
SLD-Dashed
370
    18
100
AcDbSpline
210
0.0
220
0.0
230
1.0
 70
     8
 71
     3
 72
     8
 73
     4
 74
     0
 42
0.000000001
 43
0.00000001
 40
0.8437500000000004
 40
0.8437500000000004
 40
0.8437500000000004
 40
0.8437500000000004
 40
0.8750000000000004
 40
0.8750000000000004
 40
0.8750000000000004
 40
0.8750000000000004
 10
65.85180747073582
 20
7.431242712431327
 30
0.0
 10
65.47962818169064
 20
7.631484382713216
 30
0.0
 10
65.13406068238223
 20
7.836781660934101
 30
0.0
 10
64.81257921890787
 20
8.038248122307385
 30
0.0
  0
SPLINE
  5
24B
330
1F
100
AcDbEntity
  8
SK3
  6
SLD-Dashed
370
    18
100
AcDbSpline
210
0.0
220
0.0
230
1.0
 70
     8
 71
     3
 72
     8
 73
     4
 74
     0
 42
0.000000001
 43
0.00000001
 40
0.8750000000000004
 40
0.8750000000000004
 40
0.8750000000000004
 40
0.8750000000000004
 40
0.8906250000000003
 40
0.8906250000000003
 40
0.8906250000000003
 40
0.8906250000000003
 10
64.81257921890787
 20
8.038248122307385
 30
0.0
 10
64.6518384871707
 20
8.138981352994026
 30
0.0
 10
64.4968082148562
 20
8.239081736399214
 30
0.0
 10
64.35092425741671
 20
8.335325954794303
 30
0.0
  0
SPLINE
  5
24C
330
1F
100
AcDbEntity
  8
SK3
  6
SLD-Dashed
370
    18
100
AcDbSpline
210
0.0
220
0.0
230
1.0
 70
     8
 71
     3
 72
     8
 73
     4
 74
     0
 42
0.000000001
 43
0.00000001
 40
0.8906250000000003
 40
0.8906250000000003
 40
0.8906250000000003
 40
0.8906250000000003
 40
0.9062500000000003
 40
0.9062500000000003
 40
0.9062500000000003
 40
0.9062500000000003
 10
64.35092425741671
 20
8.335325954794303
 30
0.0
 10
64.2050402999772
 20
8.431570173189407
 30
0.0
 10
64.06752899563133
 20
8.524433433031039
 30
0.0
 10
63.9383190484126
 20
8.613117694735218
 30
0.0
  0
SPLINE
  5
24D
330
1F
100
AcDbEntity
  8
SK3
  6
SLD-Dashed
370
    18
100
AcDbSpline
210
0.0
220
0.0
230
1.0
 70
     8
 71
     3
 72
     8
 73
     4
 74
     0
 42
0.000000001
 43
0.00000001
 40
0.9062500000000003
 40
0.9062500000000003
 40
0.9062500000000003
 40
0.9062500000000003
 40
0.9375000000000001
 40
0.9375000000000001
 40
0.9375000000000001
 40
0.9375000000000001
 10
63.9383190484126
 20
8.613117694735218
 30
0.0
 10
63.67989915397509
 20
8.790486218143572
 30
0.0
 10
63.45430689297879
 20
8.951297372629064
 30
0.0
 10
63.26518876376208
 20
9.088320183999077
 30
0.0
  0
SPLINE
  5
24E
330
1F
100
AcDbEntity
  8
SK3
  6
SLD-Dashed
370
    18
100
AcDbSpline
210
0.0
220
0.0
230
1.0
 70
     8
 71
     3
 72
     8
 73
     4
 74
     0
 42
0.000000001
 43
0.00000001
 40
0.9375000000000001
 40
0.9375000000000001
 40
0.9375000000000001
 40
0.9375000000000001
 40
0.9531250000000001
 40
0.9531250000000001
 40
0.9531250000000001
 40
0.9531250000000001
 10
63.26518876376208
 20
9.088320183999077
 30
0.0
 10
63.17062969915371
 20
9.156831589684097
 30
0.0
 10
63.08543939728042
 20
9.219255215159983
 30
0.0
 10
63.01234105109846
 20
9.273155053782553
 30
0.0
  0
SPLINE
  5
24F
330
1F
100
AcDbEntity
  8
SK3
  6
SLD-Dashed
370
    18
100
AcDbSpline
210
0.0
220
0.0
230
1.0
 70
     8
 71
     3
 72
     8
 73
     4
 74
     0
 42
0.000000001
 43
0.00000001
 40
0.9531250000000001
 40
0.9531250000000001
 40
0.9531250000000001
 40
0.9531250000000001
 40
0.9687500000000001
 40
0.9687500000000001
 40
0.9687500000000001
 40
0.9687500000000001
 10
63.01234105109846
 20
9.273155053782553
 30
0.0
 10
62.93924270491652
 20
9.32705489240511
 30
0.0
 10
62.87753278779354
 20
9.37294062591157
 30
0.0
 10
62.82753172105221
 20
9.410254272804105
 30
0.0
  0
SPLINE
  5
250
330
1F
100
AcDbEntity
  8
SK3
  6
SLD-Dashed
370
    18
100
AcDbSpline
210
0.0
220
0.0
230
1.0
 70
     8
 71
     3
 72
     8
 73
     4
 74
     0
 42
0.000000001
 43
0.00000001
 40
0.9687500000000001
 40
0.9687500000000001
 40
0.9687500000000001
 40
0.9687500000000001
 40
0.984375
 40
0.984375
 40
0.984375
 40
0.984375
 10
62.82753172105221
 20
9.410254272804105
 30
0.0
 10
62.77753065431094
 20
9.447567919696642
 30
0.0
 10
62.7392330651321
 20
9.476314713373082
 30
0.0
 10
62.71339096363701
 20
9.495736584799422
 30
0.0
  0
SPLINE
  5
251
330
1F
100
AcDbEntity
  8
SK3
  6
SLD-Dashed
370
    18
100
AcDbSpline
210
0.0
220
0.0
230
1.0
 70
     8
 71
     2
 72
     6
 73
     3
 74
     0
 42
0.000000001
 43
0.00000001
 40
0.984375
 40
0.984375
 40
0.984375
 40
1.0
 40
1.0
 40
1.0
 10
62.71339096363698
 20
9.495736584799443
 30
0.0
 10
62.68754886214187
 20
9.515158456225775
 30
0.0
 10
62.67449999999999
 20
9.524999999999991
 30
0.0
  0
SPLINE
  5
252
330
1F
100
AcDbEntity
  8
SK3
  6
SLD-Dashed
370
    18
100
AcDbSpline
210
0.0
220
0.0
230
1.0
 70
    24
 71
     3
 72
    18
 73
    14
 74
     0
 42
0.000000001
 43
0.00000001
 40
0.4999175397525485
 40
0.4999175397525485
 40
0.4999175397525485
 40
0.4999175397525485
 40
0.5624159546379729
 40
0.6249257511102556
 40
0.687436563564184
 40
0.7499482266197673
 40
0.7812044172232498
 40
0.8124606091638812
 40
0.8437165938221715
 40
0.8749722451840303
 40
0.9374831363007762
 40
0.9697052884843986
 40
1.0
 40
1.0
 40
1.0
 40
1.0
 10
18.71848819097563
 20
37.49999999999999
 30
0.0
 10
18.71849300488476
 20
37.49999999999998
 30
0.0
 10
18.71482018041548
 20
37.50000000000001
 30
0.0
 10
18.69885031536425
 20
37.49999999999998
 30
0.0
 10
18.67414962741798
 20
37.50000000000001
 30
0.0
 10
18.64860590989245
 20
37.50000000000001
 30
0.0
 10
18.62704242059093
 20
37.49999999999999
 30
0.0
 10
18.61086538141349
 20
37.50000000000001
 30
0.0
 10
18.59524949137067
 20
37.50000000000001
 30
0.0
 10
18.5760164173219
 20
37.50000000000001
 30
0.0
 10
18.56048566002211
 20
37.50000000000002
 30
0.0
 10
18.55141103255467
 20
37.49999999999999
 30
0.0
 10
18.55046057643223
 20
37.49999999999999
 30
0.0
 10
18.55000000000001
 20
37.50000000000001
 30
0.0
  0
SPLINE
  5
253
330
1F
100
AcDbEntity
  8
SK3
  6
SLD-Dashed
370
    18
100
AcDbSpline
210
0.0
220
0.0
230
1.0
 70
    24
 71
     3
 72
    18
 73
    14
 74
     0
 42
0.000000001
 43
0.00000001
 40
0.0
 40
0.0
 40
0.0
 40
0.0
 40
0.0302680301662683
 40
0.0624887223927938
 40
0.1249765139481333
 40
0.1562217966824202
 40
0.1874678647714082
 40
0.2187143551886315
 40
0.2499608440930652
 40
0.3124523121276191
 40
0.3749407582424968
 40
0.437427710257581
 40
0.4999175397525485
 40
0.4999175397525485
 40
0.4999175397525485
 40
0.4999175397525485
 10
18.55000000000001
 20
37.50000000000001
 30
0.0
 10
18.55046072377714
 20
37.50000000000001
 30
0.0
 10
18.55141189370965
 20
37.50000000000001
 30
0.0
 10
18.56047398931876
 20
37.50000000000001
 30
0.0
 10
18.57599744730137
 20
37.49999999999998
 30
0.0
 10
18.5952198660716
 20
37.50000000000002
 30
0.0
 10
18.6108288705879
 20
37.50000000000001
 30
0.0
 10
18.62700014697308
 20
37.50000000000001
 30
0.0
 10
18.64855781079761
 20
37.49999999999998
 30
0.0
 10
18.67409844758588
 20
37.50000000000002
 30
0.0
 10
18.69880494236872
 20
37.49999999999998
 30
0.0
 10
18.71479272987053
 20
37.50000000000001
 30
0.0
 10
18.71848337772775
 20
37.49999999999999
 30
0.0
 10
18.71848819097563
 20
37.49999999999999
 30
0.0
  0
SPLINE
  5
254
330
1F
100
AcDbEntity
  8
1
  6
SLD-Dashed
370
    18
100
AcDbSpline
210
0.0
220
0.0
230
1.0
 70
    24
 71
     3
 72
    20
 73
    16
 74
     0
 42
0.000000001
 43
0.00000001
 40
0.5000341208704109
 40
0.5000341208704109
 40
0.5000341208704109
 40
0.5000341208704109
 40
0.5624584303800648
 40
0.624912392184338
 40
0.6874088687133513
 40
0.7186705371072202
 40
0.7499372899591037
 40
0.7655714491085918
 40
0.781205489777667
 40
0.8124713298670418
 40
0.8437314831427934
 40
0.8749866953169017
 40
0.9374879653983199
 40
0.9697022874341544
 40
0.9999999999999999
 40
0.9999999999999999
 40
0.9999999999999999
 40
0.9999999999999999
 10
3.38908200197266
 20
-35.10000000000001
 30
0.0
 10
3.389086174210298
 20
-35.10000000000001
 30
0.0
 10
3.396844254524551
 20
-35.1
 30
0.0
 10
3.42976831742059
 20
-35.10000000000002
 30
0.0
 10
3.470605267718016
 20
-35.09999999999999
 30
0.0
 10
3.507823202296132
 20
-35.10000000000002
 30
0.0
 10
3.532183935011049
 20
-35.09999999999999
 30
0.0
 10
3.551859016119929
 20
-35.1
 30
0.0
 10
3.571494422413418
 20
-35.09999999999999
 30
0.0
 10
3.595663928218057
 20
-35.1
 30
0.0
 10
3.623099401296737
 20
-35.1
 30
0.0
 10
3.656328298749428
 20
-35.1
 30
0.0
 10
3.68244792700019
 20
-35.10000000000001
 30
0.0
 10
3.697661605734454
 20
-35.1
 30
0.0
 10
3.699236631932681
 20
-35.1
 30
0.0
 10
3.700000000000023
 20
-35.1
 30
0.0
  0
SPLINE
  5
255
330
1F
100
AcDbEntity
  8
1
  6
SLD-Dashed
370
    18
100
AcDbSpline
210
0.0
220
0.0
230
1.0
 70
    24
 71
     3
 72
    20
 73
    16
 74
     0
 42
0.000000001
 43
0.00000001
 40
0.0
 40
0.0
 40
0.0
 40
0.0
 40
0.0302893892015119
 40
0.0625276432903442
 40
0.1250420569672163
 40
0.156303197359018
 40
0.1875681039577584
 40
0.2188379136910618
 40
0.2344740691373721
 40
0.2501103253863374
 40
0.2813811509414967
 40
0.3126466999307906
 40
0.3751498425075551
 40
0.4376082492290173
 40
0.5000341208704109
 40
0.5000341208704109
 40
0.5000341208704109
 40
0.5000341208704109
 10
3.700000000000023
 20
-35.1
 30
0.0
 10
3.699235084588581
 20
-35.1
 30
0.0
 10
3.697656037956978
 20
-35.09999999999999
 30
0.0
 10
3.682446605572931
 20
-35.09999999999999
 30
0.0
 10
3.656309510245467
 20
-35.09999999999999
 30
0.0
 10
3.623070747717574
 20
-35.09999999999999
 30
0.0
 10
3.595628406677307
 20
-35.10000000000001
 30
0.0
 10
3.571454352055747
 20
-35.09999999999999
 30
0.0
 10
3.551816039774045
 20
-35.09999999999999
 30
0.0
 10
3.532138472026145
 20
-35.10000000000001
 30
0.0
 10
3.507775704453833
 20
-35.09999999999999
 30
0.0
 10
3.47055746608177
 20
-35.10000000000001
 30
0.0
 10
3.429726452179718
 20
-35.1
 30
0.0
 10
3.396819783358193
 20
-35.1
 30
0.0
 10
3.389077829630605
 20
-35.10000000000001
 30
0.0
 10
3.38908200197266
 20
-35.10000000000001
 30
0.0
  0
SPLINE
  5
256
330
1F
100
AcDbEntity
  8
SK3
  6
SLD-Dashed
370
    18
100
AcDbSpline
210
0.0
220
0.0
230
1.0
 70
     8
 71
     3
 72
    34
 73
    30
 74
     0
 42
0.000000001
 43
0.00000001
 40
0.499999999999998
 40
0.499999999999998
 40
0.499999999999998
 40
0.499999999999998
 40
0.5312499999999979
 40
0.5312499999999979
 40
0.5624999999999978
 40
0.5624999999999978
 40
0.5937499999999976
 40
0.5937499999999976
 40
0.6249999999999974
 40
0.6249999999999974
 40
0.6562499999999973
 40
0.6562499999999973
 40
0.6874999999999972
 40
0.6874999999999972
 40
0.7499999999999969
 40
0.7499999999999969
 40
0.8124999999999973
 40
0.8124999999999973
 40
0.8437499999999978
 40
0.8437499999999978
 40
0.8749999999999982
 40
0.8749999999999982
 40
0.9062499999999987
 40
0.9062499999999987
 40
0.937499999999999
 40
0.937499999999999
 40
0.9687499999999994
 40
0.9687499999999994
 40
1.0
 40
1.0
 40
1.0
 40
1.0
 10
9.638805742161694
 20
10.95392502366163
 30
0.0
 10
9.6938811607363
 20
10.84705887039521
 30
0.0
 10
9.76317928315662
 20
10.74439645836096
 30
0.0
 10
9.923515798149985
 20
10.55592715127708
 30
0.0
 10
10.01390276352454
 20
10.47020735344792
 30
0.0
 10
10.21445694949211
 20
10.31296552728877
 30
0.0
 10
10.32267837600209
 20
10.24333508542229
 30
0.0
 10
10.54307526498122
 20
10.12288935951391
 30
0.0
 10
10.65791658596824
 20
10.07070374731722
 30
0.0
 10
10.87819871140988
 20
9.984463182040868
 30
0.0
 10
10.98608094611136
 20
9.949205279737832
 30
0.0
 10
11.18968749579596
 20
9.892304259468993
 30
0.0
 10
11.28527842069083
 20
9.870580048613824
 30
0.0
 10
11.5589829745022
 20
9.820769890309986
 30
0.0
 10
11.72337034356696
 20
9.808096789548735
 30
0.0
 10
12.02194861504766
 20
9.821477532699769
 30
0.0
 10
12.15920875119766
 20
9.847310188176737
 30
0.0
 10
12.34760730605758
 20
9.927824692744434
 30
0.0
 10
12.40688352391461
 20
9.961503747003372
 30
0.0
 10
12.51780294837551
 20
10.0474980864718
 30
0.0
 10
12.56969006353045
 20
10.1002182908583
 30
0.0
 10
12.65991931900845
 20
10.22933776798929
 30
0.0
 10
12.69929072119647
 20
10.30748393412818
 30
0.0
 10
12.75586568636477
 20
10.49302732041031
 30
0.0
 10
12.77303399215493
 20
10.60290348381506
 30
0.0
 10
12.77663319740258
 20
10.83901366027914
 30
0.0
 10
12.76306993948384
 20
10.96766771108132
 30
0.0
 10
12.71170841969951
 20
11.21837738140154
 30
0.0
 10
12.67469993892523
 20
11.34057418425335
 30
0.0
 10
12.63040931107559
 20
11.45745606890564
 30
0.0
  0
SPLINE
  5
257
330
1F
100
AcDbEntity
  8
SK3
  6
SLD-Dashed
370
    18
100
AcDbSpline
210
0.0
220
0.0
230
1.0
 70
     8
 71
     3
 72
    26
 73
    22
 74
     0
 42
0.000000001
 43
0.00000001
 40
0.0
 40
0.0
 40
0.0
 40
0.0
 40
0.0624999999999995
 40
0.0624999999999995
 40
0.124999999999999
 40
0.124999999999999
 40
0.1874999999999986
 40
0.1874999999999986
 40
0.2499999999999981
 40
0.2499999999999981
 40
0.281249999999998
 40
0.281249999999998
 40
0.3124999999999979
 40
0.3124999999999979
 40
0.3749999999999981
 40
0.3749999999999981
 40
0.4374999999999984
 40
0.4374999999999984
 40
0.4687499999999982
 40
0.4687499999999982
 40
0.499999999999998
 40
0.499999999999998
 40
0.499999999999998
 40
0.499999999999998
 10
12.63040931107559
 20
11.45745606890564
 30
0.0
 10
12.54182805537629
 20
11.6912198382102
 30
0.0
 10
12.43200682775375
 20
11.89056157115177
 30
0.0
 10
12.18419932759157
 20
12.2551441181375
 30
0.0
 10
12.04834522926918
 20
12.41463399152624
 30
0.0
 10
11.75314013646128
 20
12.69173524411806
 30
0.0
 10
11.59091385222424
 20
12.81202758601131
 30
0.0
 10
11.23004729019511
 20
12.99241430793247
 30
0.0
 10
11.02728334192551
 20
13.05343833574649
 30
0.0
 10
10.69987000905187
 20
13.05646994226838
 30
0.0
 10
10.58531472788943
 20
13.0419760700552
 30
0.0
 10
10.36396153134628
 20
12.97944613660279
 30
0.0
 10
10.25449961952679
 20
12.93102694430326
 30
0.0
 10
9.947578697971304
 20
12.73948161914289
 30
0.0
 10
9.77664657830718
 20
12.55346040827497
 30
0.0
 10
9.542451961566167
 20
12.12678030999252
 30
0.0
 10
9.478612055377923
 20
11.88580640702583
 30
0.0
 10
9.473421112414282
 20
11.52565520755326
 30
0.0
 10
9.486345898652631
 20
11.40749361566878
 30
0.0
 10
9.541390615621037
 20
11.1745915190869
 30
0.0
 10
9.583730323587114
 20
11.06079117692804
 30
0.0
 10
9.638805742161694
 20
10.95392502366163
 30
0.0
  0
SPLINE
  5
258
330
1F
100
AcDbEntity
  8
1
  6
SLD-Dashed
370
    18
100
AcDbSpline
210
0.0
220
0.0
230
1.0
 70
     8
 71
     3
 72
    18
 73
    14
 74
     0
 42
0.000000001
 43
0.00000001
 40
0.0
 40
0.0
 40
0.0
 40
0.0
 40
0.0502615382665357
 40
0.10033468019628
 40
0.1864269172260985
 40
0.2507027460274082
 40
0.3754017544073042
 40
0.500311316077889
 40
0.6254313882219188
 40
0.7499589885078631
 40
0.8750960244973985
 40
0.9373335760526095
 40
1.0
 40
1.0
 40
1.0
 40
1.0
 10
3.700000000000004
 20
-46.55608553132446
 30
0.0
 10
3.700144150483277
 20
-46.56279313752555
 30
0.0
 10
3.700431911127673
 20
-46.57618320767223
 30
0.0
 10
3.703295676421202
 20
-46.60092067762667
 30
0.0
 10
3.708907462307867
 20
-46.62714602347128
 30
0.0
 10
3.720631096385302
 20
-46.66197054189575
 30
0.0
 10
3.739582880208729
 20
-46.69961849706199
 30
0.0
 10
3.770343439395611
 20
-46.73942190905964
 30
0.0
 10
3.80826917241659
 20
-46.77246517777102
 30
0.0
 10
3.852040201917373
 20
-46.79734963485333
 30
0.0
 10
3.891958528799242
 20
-46.81012142354908
 30
0.0
 10
3.924961721559359
 20
-46.81549492486994
 30
0.0
 10
3.94163482417123
 20
-46.81600012195884
 30
0.0
 10
3.950000000000023
 20
-46.81625358782991
 30
0.0
  0
SPLINE
  5
259
330
1F
100
AcDbEntity
  8
1
  6
SLD-Dashed
370
    18
100
AcDbSpline
210
0.0
220
0.0
230
1.0
 70
     8
 71
     3
 72
     9
 73
     5
 74
     0
 42
0.000000001
 43
0.00000001
 40
0.0
 40
0.0
 40
0.0
 40
0.0
 40
0.4999392300218246
 40
1.0
 40
1.0
 40
1.0
 40
1.0
 10
18.55000000000004
 20
-35.6469844446904
 30
0.0
 10
18.5501468810072
 20
-35.61831484130333
 30
0.0
 10
18.55044067872971
 20
-35.56096866467739
 30
0.0
 10
18.55249504322753
 20
-35.50365854338234
 30
0.0
 10
18.55352235032009
 20
-35.475
 30
0.0
  0
SPLINE
  5
25A
330
1F
100
AcDbEntity
  8
1
  6
SLD-Dashed
370
    18
100
AcDbSpline
210
0.0
220
0.0
230
1.0
 70
     8
 71
     3
 72
    18
 73
    14
 74
     0
 42
0.000000001
 43
0.00000001
 40
0.0
 40
0.0
 40
0.0
 40
0.0
 40
0.0503991616718121
 40
0.1007628038190876
 40
0.1867130776841394
 40
0.2507072150020562
 40
0.375905286372667
 40
0.5002764043960803
 40
0.6254720963354453
 40
0.749972270606546
 40
0.8750532073660685
 40
0.9372998649852904
 40
1.0
 40
1.0
 40
1.0
 40
1.0
 10
18.29999999999996
 20
-46.81625358782999
 30
0.0
 10
18.30672660253771
 20
-46.81608984318559
 30
0.0
 10
18.32017506694461
 20
-46.81576246929817
 30
0.0
 10
18.34491401838643
 20
-46.81252198775581
 30
0.0
 10
18.37098012040563
 20
-46.80621002190985
 30
0.0
 10
18.40534842618953
 20
-46.79315095043886
 30
0.0
 10
18.44197989041789
 20
-46.77229767771347
 30
0.0
 10
18.47987064608814
 20
-46.73918481871918
 30
0.0
 10
18.51053910821776
 20
-46.69941299974945
 30
0.0
 10
18.53314593212913
 20
-46.65447319105368
 30
0.0
 10
18.5445493504767
 20
-46.61420903284476
 30
0.0
 10
18.54932786336488
 20
-46.58113218157193
 30
0.0
 10
18.54977541301478
 20
-46.56445459108934
 30
0.0
 10
18.55000000000004
 20
-46.55608553132448
 30
0.0
  0
SPLINE
  5
25B
330
1F
100
AcDbEntity
  8
1
  6
SLD-Dashed
370
    18
100
AcDbSpline
210
0.0
220
0.0
230
1.0
 70
     8
 71
     3
 72
     8
 73
     4
 74
     0
 42
0.000000001
 43
0.00000001
 40
0.0
 40
0.0
 40
0.0
 40
0.0
 40
1.0
 40
1.0
 40
1.0
 40
1.0
 10
14.27271061994456
 20
-46.81625358782632
 30
0.0
 10
13.85790662910136
 20
-46.07081205954768
 30
0.0
 10
13.44364296143272
 20
-45.32507888088012
 30
0.0
 10
13.02999999999999
 20
-44.57901066343648
 30
0.0
  0
SPLINE
  5
25C
330
1F
100
AcDbEntity
  8
1
  6
SLD-Dashed
370
    18
100
AcDbSpline
210
0.0
220
0.0
230
1.0
 70
     8
 71
     3
 72
    12
 73
     8
 74
     0
 42
0.000000001
 43
0.00000001
 40
0.0
 40
0.0
 40
0.0
 40
0.0
 40
0.5
 40
0.5
 40
0.75
 40
0.75
 40
1.0
 40
1.0
 40
1.0
 40
1.0
 10
13.03000000000015
 20
-44.55102159322517
 30
0.0
 10
13.03000000000021
 20
-44.35094747116186
 30
0.0
 10
12.95238692985012
 20
-44.14958800989093
 30
0.0
 10
12.74748896269976
 20
-43.93153570225762
 30
0.0
 10
12.66372770014798
 20
-43.87162606259768
 30
0.0
 10
12.48090790509596
 20
-43.79094541821732
 30
0.0
 10
12.38057331782469
 20
-43.76943596849292
 30
0.0
 10
12.28000000000035
 20
-43.76943596849289
 30
0.0
  0
SPLINE
  5
25D
330
1F
100
AcDbEntity
  8
1
  6
SLD-Dashed
370
    18
100
AcDbSpline
210
0.0
220
0.0
230
1.0
 70
     8
 71
     3
 72
    12
 73
     8
 74
     0
 42
0.000000001
 43
0.00000001
 40
0.0
 40
0.0
 40
0.0
 40
0.0
 40
0.2499999999999961
 40
0.2499999999999961
 40
0.4999999999999922
 40
0.4999999999999922
 40
1.0
 40
1.0
 40
1.0
 40
1.0
 10
9.949999999999717
 20
-43.76943596849318
 30
0.0
 10
9.850030395358651
 20
-43.76943596849321
 30
0.0
 10
9.750114974766085
 20
-43.79051518316439
 30
0.0
 10
9.565507057761108
 20
-43.87194262843729
 30
0.0
 10
9.482715011846532
 20
-43.93126060501251
 30
0.0
 10
9.276579660402716
 20
-44.15080408372911
 30
0.0
 10
9.199999999999905
 20
-44.35163254795847
 30
0.0
 10
9.199999999999985
 20
-44.55102159322551
 30
0.0
  0
SPLINE
  5
25E
330
1F
100
AcDbEntity
  8
1
  6
SLD-Dashed
370
    18
100
AcDbSpline
210
0.0
220
0.0
230
1.0
 70
     8
 71
     3
 72
     8
 73
     4
 74
     0
 42
0.000000001
 43
0.00000001
 40
0.0
 40
0.0
 40
0.0
 40
0.0
 40
1.0
 40
1.0
 40
1.0
 40
1.0
 10
9.20000000000188
 20
-44.57901066343305
 30
0.0
 10
8.786357038568509
 20
-45.32507888087786
 30
0.0
 10
8.372093370899227
 20
-46.07081205954658
 30
0.0
 10
7.957289380055382
 20
-46.8162535878264
 30
0.0
  0
SPLINE
  5
25F
330
1F
100
AcDbEntity
  8
SK3
  6
SLD-Dashed
370
    18
100
AcDbSpline
210
0.0
220
0.0
230
1.0
 70
     8
 71
     3
 72
    18
 73
    14
 74
     0
 42
0.000000001
 43
0.00000001
 40
0.0
 40
0.0
 40
0.0
 40
0.0
 40
0.0501962867734933
 40
0.100030621443722
 40
0.1855667331187706
 40
0.2501823892320661
 40
0.3747066158220745
 40
0.4998232982189725
 40
0.6247294758455316
 40
0.7494251058857281
 40
0.8746331028690637
 40
0.9372230808189629
 40
1.0
 40
1.0
 40
1.0
 40
1.0
 10
3.950000000000016
 20
46.81625358782996
 30
0.0
 10
3.943300488172048
 20
46.81609127853699
 30
0.0
 10
3.929949772918072
 20
46.81576783032028
 30
0.0
 10
3.90536077904808
 20
46.81256776526225
 30
0.0
 10
3.879327985377802
 20
46.80630579793132
 30
0.0
 10
3.844998498051096
 20
46.7933155554719
 30
0.0
 10
3.808260602500898
 20
46.77247000397299
 30
0.0
 10
3.770344503827428
 20
46.73942242416842
 30
0.0
 10
3.739587180509203
 20
46.69961163074887
 30
0.0
 10
3.716933654940716
 20
46.65468875110021
 30
0.0
 10
3.705476597958069
 20
46.61434662644384
 30
0.0
 10
3.700675324942489
 20
46.58119847829342
 30
0.0
 10
3.700225331983636
 20
46.56446483112381
 30
0.0
 10
3.700000000000023
 20
46.55608553132448
 30
0.0
  0
SPLINE
  5
260
330
1F
100
AcDbEntity
  8
1
  6
SLD-Dashed
370
    18
100
AcDbSpline
210
0.0
220
0.0
230
1.0
 70
     8
 71
     3
 72
     8
 73
     4
 74
     0
 42
0.000000001
 43
0.00000001
 40
0.0
 40
0.0
 40
0.0
 40
0.0
 40
1.0
 40
1.0
 40
1.0
 40
1.0
 10
9.200000000002031
 20
44.57901066343278
 30
0.0
 10
8.786353866861463
 20
45.32508460154084
 30
0.0
 10
8.372088490924078
 20
46.07082082932836
 30
0.0
 10
7.957289380062127
 20
46.81625358782997
 30
0.0
  0
SPLINE
  5
261
330
1F
100
AcDbEntity
  8
1
  6
SLD-Dashed
370
    18
100
AcDbSpline
210
0.0
220
0.0
230
1.0
 70
     8
 71
     3
 72
    10
 73
     6
 74
     0
 42
0.000000001
 43
0.00000001
 40
0.0
 40
0.0
 40
0.0
 40
0.0
 40
0.5
 40
0.5
 40
1.0
 40
1.0
 40
1.0
 40
1.0
 10
9.950000000001234
 20
43.76943596849411
 30
0.0
 10
9.748771536222415
 20
43.76943596849377
 30
0.0
 10
9.550990673892228
 20
43.85856672856773
 30
0.0
 10
9.277097785723997
 20
44.15022946993273
 30
0.0
 10
9.200000000000319
 20
44.34957328976746
 30
0.0
 10
9.199999999999985
 20
44.55102159322499
 30
0.0
  0
SPLINE
  5
262
330
1F
100
AcDbEntity
  8
1
  6
SLD-Dashed
370
    18
100
AcDbSpline
210
0.0
220
0.0
230
1.0
 70
     8
 71
     3
 72
    12
 73
     8
 74
     0
 42
0.000000001
 43
0.00000001
 40
0.0
 40
0.0
 40
0.0
 40
0.0
 40
0.5000000000000048
 40
0.5000000000000048
 40
0.7500000000000023
 40
0.7500000000000023
 40
1.0
 40
1.0
 40
1.0
 40
1.0
 10
13.02999999999991
 20
44.55102159322492
 30
0.0
 10
13.02999999999991
 20
44.35104831812322
 30
0.0
 10
12.95399603318284
 20
44.15150826736608
 30
0.0
 10
12.74724095984753
 20
43.93116827138052
 30
0.0
 10
12.66314206268637
 20
43.8712862165096
 30
0.0
 10
12.48048875274074
 20
43.79084228716532
 30
0.0
 10
12.37984375713169
 20
43.76943596849291
 30
0.0
 10
12.28000000000001
 20
43.76943596849289
 30
0.0
  0
SPLINE
  5
263
330
1F
100
AcDbEntity
  8
1
  6
SLD-Dashed
370
    18
100
AcDbSpline
210
0.0
220
0.0
230
1.0
 70
     8
 71
     3
 72
     8
 73
     4
 74
     0
 42
0.000000001
 43
0.00000001
 40
0.0
 40
0.0
 40
0.0
 40
0.0
 40
1.0
 40
1.0
 40
1.0
 40
1.0
 10
14.27271061995093
 20
46.81625358783777
 30
0.0
 10
13.85791150908532
 20
46.07082082933481
 30
0.0
 10
13.44364613314424
 20
45.32508460154595
 30
0.0
 10
13.02999999999999
 20
44.57901066343648
 30
0.0
  0
SPLINE
  5
264
330
1F
100
AcDbEntity
  8
SK3
  6
SLD-Dashed
370
    18
100
AcDbSpline
210
0.0
220
0.0
230
1.0
 70
     8
 71
     3
 72
    18
 73
    14
 74
     0
 42
0.000000001
 43
0.00000001
 40
0.0
 40
0.0
 40
0.0
 40
0.0
 40
0.0502196103872228
 40
0.1000870260924098
 40
0.1855086368940469
 40
0.2501550808791907
 40
0.3746583157461306
 40
0.4998570853792907
 40
0.6242312608259453
 40
0.7494324099488449
 40
0.8740366596180048
 40
0.9370350243166926
 40
1.0
 40
1.0
 40
1.0
 40
1.0
 10
18.55000000000009
 20
46.55608553132442
 30
0.0
 10
18.54985614514715
 20
46.56278755186002
 30
0.0
 10
18.54956944430847
 20
46.57614459105338
 30
0.0
 10
18.54672594518128
 20
46.60076085239338
 30
0.0
 10
18.54114997473674
 20
46.62692328764689
 30
0.0
 10
18.52948583072872
 20
46.66169890756607
 30
0.0
 10
18.51054340758343
 20
46.69941980690709
 30
0.0
 10
18.47987172088775
 20
46.73918434013714
 30
0.0
 10
18.44197136356043
 20
46.77229285140238
 30
0.0
 10
18.39830135356874
 20
46.79720148409478
 30
0.0
 10
18.35828818785668
 20
46.81006094110496
 30
0.0
 10
18.32521964393111
 20
46.81548545401079
 30
0.0
 10
18.30840506230055
 20
46.81599758847395
 30
0.0
 10
18.30000000000004
 20
46.81625358782996
 30
0.0
  0
SPLINE
  5
265
330
1F
100
AcDbEntity
  8
SK3
  6
SLD-Dashed
370
    18
100
AcDbSpline
210
0.0
220
0.0
230
1.0
 70
     8
 71
     3
 72
    34
 73
    30
 74
     0
 42
0.000000001
 43
0.00000001
 40
0.5000000000000003
 40
0.5000000000000003
 40
0.5000000000000003
 40
0.5000000000000003
 40
0.5625000000000013
 40
0.5625000000000013
 40
0.5937500000000011
 40
0.5937500000000011
 40
0.625000000000001
 40
0.625000000000001
 40
0.6562500000000009
 40
0.6562500000000009
 40
0.6875000000000008
 40
0.6875000000000008
 40
0.7187500000000007
 40
0.7187500000000007
 40
0.7500000000000004
 40
0.7500000000000004
 40
0.7812500000000003
 40
0.7812500000000003
 40
0.8125000000000002
 40
0.8125000000000002
 40
0.8437500000000001
 40
0.8437500000000001
 40
0.875
 40
0.875
 40
0.9062499999999999
 40
0.9062499999999999
 40
0.9374999999999997
 40
0.9374999999999997
 40
1.0
 40
1.0
 40
1.0
 40
1.0
 10
10.60808274902045
 20
14.67518531385664
 30
0.0
 10
10.7714399435272
 20
14.66271400222903
 30
0.0
 10
10.9539607682107
 20
14.63137977172278
 30
0.0
 10
11.25812245907615
 20
14.54691770596561
 30
0.0
 10
11.36641585866904
 20
14.51171888144388
 30
0.0
 10
11.58574352105282
 20
14.42634662926307
 30
0.0
 10
11.69715944869879
 20
14.37625545607606
 30
0.0
 10
11.92117180667893
 20
14.25483711630821
 30
0.0
 10
12.02893523597723
 20
14.18587333985283
 30
0.0
 10
12.22961030853029
 20
14.02983333564747
 30
0.0
 10
12.32267742835869
 20
13.94226901556095
 30
0.0
 10
12.48372543018653
 20
13.75415019217112
 30
0.0
 10
12.55366053916099
 20
13.65130323099262
 30
0.0
 10
12.66489321927142
 20
13.43691773984447
 30
0.0
 10
12.70717730188428
 20
13.32435113894571
 30
0.0
 10
12.7632641756493
 20
13.08988167819453
 30
0.0
 10
12.77635511926062
 20
12.9714903905775
 30
0.0
 10
12.77342672652903
 20
12.73211084337569
 30
0.0
 10
12.75684979458239
 20
12.61060743991048
 30
0.0
 10
12.69552150102995
 20
12.37773497196915
 30
0.0
 10
12.65033349294087
 20
12.26373909474826
 30
0.0
 10
12.53298957942556
 20
12.04909612932804
 30
0.0
 10
12.46214536200849
 20
11.95022400081663
 30
0.0
 10
12.29651277322139
 20
11.77143410287179
 30
0.0
 10
12.20150676240367
 20
11.69219588739501
 30
0.0
 10
11.99926684334576
 20
11.56533020093842
 30
0.0
 10
11.88885801145315
 20
11.5158749716928
 30
0.0
 10
11.55399205333035
 20
11.42069275726626
 30
0.0
 10
11.32716468948122
 20
11.42871083881322
 30
0.0
 10
11.12500000000002
 20
11.48273236161758
 30
0.0
  0
SPLINE
  5
266
330
1F
100
AcDbEntity
  8
SK3
  6
SLD-Dashed
370
    18
100
AcDbSpline
210
0.0
220
0.0
230
1.0
 70
     8
 71
     3
 72
    30
 73
    26
 74
     0
 42
0.000000001
 43
0.00000001
 40
0.0
 40
0.0
 40
0.0
 40
0.0
 40
0.0624999999999997
 40
0.0624999999999997
 40
0.1249999999999995
 40
0.1249999999999995
 40
0.1562499999999993
 40
0.1562499999999993
 40
0.1874999999999992
 40
0.1874999999999992
 40
0.2187499999999991
 40
0.2187499999999991
 40
0.2499999999999989
 40
0.2499999999999989
 40
0.2812499999999988
 40
0.2812499999999988
 40
0.3124999999999987
 40
0.3124999999999987
 40
0.3437499999999986
 40
0.3437499999999986
 40
0.3749999999999984
 40
0.3749999999999984
 40
0.4374999999999994
 40
0.4374999999999994
 40
0.5000000000000003
 40
0.5000000000000003
 40
0.5000000000000003
 40
0.5000000000000003
 10
11.12500000000002
 20
11.48273236161758
 30
0.0
 10
10.9228353105188
 20
11.53675388442192
 30
0.0
 10
10.74714710048239
 20
11.63024516394925
 30
0.0
 10
10.42066988662174
 20
11.86454434722231
 30
0.0
 10
10.27375737476435
 20
12.00407384287208
 30
0.0
 10
10.07148943268485
 20
12.2417783920363
 30
0.0
 10
10.00699015299672
 20
12.32609339770681
 30
0.0
 10
9.883509956371189
 20
12.50701007175133
 30
0.0
 10
9.824268573097871
 20
12.60415729348405
 30
0.0
 10
9.71515470609033
 20
12.80934651131552
 30
0.0
 10
9.664396735733465
 20
12.91903622889809
 30
0.0
 10
9.576981863499118
 20
13.14891853741637
 30
0.0
 10
9.540303532497491
 20
13.26831266228051
 30
0.0
 10
9.487704529937997
 20
13.52080982106195
 30
0.0
 10
9.473745253197997
 20
13.64846695671308
 30
0.0
 10
9.476438089560556
 20
13.88700257856812
 30
0.0
 10
9.493197896427997
 20
13.99682053671473
 30
0.0
 10
9.549353346861217
 20
14.18374939795269
 30
0.0
 10
9.58858947784802
 20
14.2623151046244
 30
0.0
 10
9.67848001882432
 20
14.39201189392009
 30
0.0
 10
9.730204466999181
 20
14.44496665500975
 30
0.0
 10
9.896348595184485
 20
14.57471258814565
 30
0.0
 10
10.02083275682619
 20
14.62455209347292
 30
0.0
 10
10.29708420272976
 20
14.68178062150166
 30
0.0
 10
10.4447255545137
 20
14.68765662548424
 30
0.0
 10
10.60808274902045
 20
14.67518531385664
 30
0.0
  0
DIMENSION
  5
267
330
1F
100
AcDbEntity
  8
2
100
AcDbDimension
  2
_D
 10
95.25
 20
69.7550204951
 30
0.0
 11
29.101961807
 21
69.7550204951
 31
0.0
 70
   160
  1
<>
 71
     2
 42
-1.0
  3
SLDDIMSTYLE0
100
AcDbAlignedDimension
 13
0.0
 23
34.925
 33
0.0
 14
95.25
 24
14.605
 34
0.0
100
AcDbRotatedDimension
  0
DIMENSION
  5
27C
330
1F
100
AcDbEntity
  8
SK2
100
AcDbDimension
  2
_D_1
 10
95.25
 20
56.061544924
 30
0.0
 11
54.2778820229
 21
56.061544924
 31
0.0
 70
   160
  1
<>
 71
     2
 42
-1.0
  3
SLDDIMSTYLE0
100
AcDbAlignedDimension
 13
19.05
 23
46.5560855313
 33
0.0
 14
95.25
 24
14.605
 34
0.0
100
AcDbRotatedDimension
  0
DIMENSION
  5
28F
330
1F
100
AcDbEntity
  8
SK2
100
AcDbDimension
  2
_D_2
 10
95.25
 20
43.3169324358
 30
0.0
 11
66.9231074794
 21
43.3169324358
 31
0.0
 70
   160
  1
<>
 71
     2
 42
-1.0
  3
SLDDIMSTYLE0
100
AcDbAlignedDimension
 13
35.1
 23
34.163
 33
0.0
 14
95.25
 24
14.605
 34
0.0
100
AcDbRotatedDimension
  0
DIMENSION
  5
2A2
330
1F
100
AcDbEntity
  8
SK2
100
AcDbDimension
  2
_D_3
 10
95.25
 20
29.6825219275
 30
0.0
 11
82.7640057541
 21
29.6825219275
 31
0.0
 70
   160
  1
<>
 71
     2
 42
-1.0
  3
SLDDIMSTYLE0
100
AcDbAlignedDimension
 13
69.85
 23
22.125
 33
0.0
 14
95.25
 24
14.605
 34
0.0
100
AcDbRotatedDimension
  0
DIMENSION
  5
2B5
330
1F
100
AcDbEntity
  8
SK2
100
AcDbDimension
  2
_D_4
 10
19.05
 20
56.061544924
 30
0.0
 11
7.4957419407
 21
56.061544924
 31
0.0
 70
   160
  1
<>
 71
     2
 42
-1.0
  3
SLDDIMSTYLE1
100
AcDbAlignedDimension
 13
0.0
 23
34.925
 33
0.0
 14
19.05
 24
46.5560855313
 34
0.0
100
AcDbRotatedDimension
  0
DIMENSION
  5
2C0
330
1F
100
AcDbEntity
  8
SK2
100
AcDbDimension
  2
_D_5
 10
112.1866696177
 20
-9.525
 30
0.0
 11
112.1866696177
 21
0.3422578546
 31
0.0
 70
   160
  1
%%c<>
 71
     2
 42
-1.0
  3
SLDDIMSTYLE2
100
AcDbAlignedDimension
 13
93.75
 23
9.525
 33
0.0
 14
93.75
 24
-9.525
 34
0.0
 50
90.0
100
AcDbRotatedDimension
  0
DIMENSION
  5
2D3
330
1F
100
AcDbEntity
  8
SK2
100
AcDbDimension
  2
_D_6
 10
128.4461697571
 20
-14.605
 30
0.0
 11
128.4461697571
 21
0.3422578546
 31
0.0
 70
   160
  1
%%c<>
 71
     2
 42
-1.0
  3
SLDDIMSTYLE0
100
AcDbAlignedDimension
 13
95.25
 23
14.605
 33
0.0
 14
95.25
 24
-14.605
 34
0.0
 50
90.0
100
AcDbRotatedDimension
  0
DIMENSION
  5
2E5
330
1F
100
AcDbEntity
  8
SK2
100
AcDbDimension
  2
_D_7
 10
142.1223848277
 20
-22.225
 30
0.0
 11
142.1223848277
 21
0.3422578546
 31
0.0
 70
   160
  1
%%c<>
 71
     2
 42
-1.0
  3
SLDDIMSTYLE0
100
AcDbAlignedDimension
 13
87.63
 23
22.225
 33
0.0
 14
87.63
 24
-22.225
 34
0.0
 50
90.0
100
AcDbRotatedDimension
  0
DIMENSION
  5
2F7
330
1F
100
AcDbEntity
  8
SK2
100
AcDbDimension
  2
_D_8
 10
95.25
 20
-66.4100060122
 30
0.0
 11
-13.8550426389
 21
-66.4100060122
 31
0.0
 70
   160
  1
<>
 71
     2
 42
-1.0
  3
SLDDIMSTYLE2
100
AcDbAlignedDimension
 13
-101.6
 23
-14.2640498169
 33
0.0
 14
95.25
 24
-10.3705210888
 34
0.0
 50
0.0
100
AcDbRotatedDimension
  0
DIMENSION
  5
30A
330
1F
100
AcDbEntity
  8
SK2
100
AcDbDimension
  2
_D_9
 10
95.25
 20
-56.1473744908
 30
0.0
 11
69.8591245283
 21
-56.1473744908
 31
0.0
 70
   160
  1
<>
 71
     2
 42
-1.0
  3
SLDDIMSTYLE0
100
AcDbAlignedDimension
 13
44.4038662327
 23
-9.525
 33
0.0
 14
95.25
 24
-14.605
 34
0.0
100
AcDbRotatedDimension
  0
DIMENSION
  5
31D
330
1F
100
AcDbEntity
  8
SK2
100
AcDbDimension
  2
_D_10
 10
95.25
 20
-41.0563888742
 30
0.0
 11
79.1879818941
 21
-41.0563888742
 31
0.0
 70
   160
  1
<>
 71
     2
 42
-1.0
  3
SLDDIMSTYLE3
100
AcDbAlignedDimension
 13
87.63
 23
-22.225
 33
0.0
 14
95.25
 24
-14.605
 34
0.0
100
AcDbRotatedDimension
  0
DIMENSION
  5
32A
330
1F
100
AcDbEntity
  8
SK2
100
AcDbDimension
  2
_D_11
 10
-124.0448048277
 20
-47.2968145977
 30
0.0
 11
-124.0448048277
 21
0.3422578546
 31
0.0
 70
   160
  1
%%c<>
 71
     2
 42
-1.0
  3
SLDDIMSTYLE1
100
AcDbAlignedDimension
 13
3.95
 23
47.2968145978
 33
0.0
 14
3.95
 24
-47.2968145978
 34
0.0
 50
90.0
100
AcDbRotatedDimension
  0
DIMENSION
  5
335
330
1F
100
AcDbEntity
  8
SK2
100
AcDbDimension
  2
_D_12
 10
-111.3390720144
 20
-12.6999998465
 30
0.0
 11
-111.3390720144
 21
0.3422578546
 31
0.0
 70
   160
  1
<>
 71
     2
 42
-1.0
  3
SLDDIMSTYLE1
100
AcDbAlignedDimension
 13
-94.967097044
 23
12.6999998465
 33
0.0
 14
-94.967097044
 24
-12.6999998465
 34
0.0
 50
90.0
100
AcDbRotatedDimension
  0
MTEXT
  5
340
330
1F
100
AcDbEntity
  8
SK6
 62
     5
100
AcDbMText
 10
-60.1788214325
 20
-37.5703462075
 30
0.0
 40
3.5
 41
0.0
 71
     1
 72
     1
  1
AA3B20-50 19 095
  7
SLDTEXTSTYLE0
 73
     1
 44
1.0
  0
MTEXT
  5
341
330
1F
100
AcDbEntity
  8
SK6
 62
     5
100
AcDbMText
 10
-63.1781271576
 20
41.1787609079
 30
0.0
 40
3.5
 41
0.0
 71
     1
 72
     1
  1
ASME B5.50 CAT 50
  7
SLDTEXTSTYLE0
 73
     1
 44
1.0
  0
ENDSEC
  0
SECTION
  2
OBJECTS
  0
DICTIONARY
  5
C
330
0
100
AcDbDictionary
281
     1
  3
ACAD_GROUP
350
D
  3
ACAD_LAYOUT
350
1A
  3
ACAD_MLINESTYLE
350
17
  3
ACAD_PLOTSETTINGS
350
19
  3
ACAD_PLOTSTYLENAME
350
E
  3
ACAD_SCALELIST
350
47
  0
DICTIONARY
  5
D
102
{ACAD_REACTORS
330
C
102
}
330
C
100
AcDbDictionary
281
     1
  0
DICTIONARY
  5
1A
102
{ACAD_REACTORS
330
C
102
}
330
C
100
AcDbDictionary
281
     1
  3
Layout1
350
1E
  3
Layout2
350
26
  3
Model
350
22
  0
DICTIONARY
  5
17
102
{ACAD_REACTORS
330
C
102
}
330
C
100
AcDbDictionary
281
     1
  3
Standard
350
18
  0
DICTIONARY
  5
19
102
{ACAD_REACTORS
330
C
102
}
330
C
100
AcDbDictionary
281
     1
  0
ACDBDICTIONARYWDFLT
  5
E
102
{ACAD_REACTORS
330
C
102
}
330
C
100
AcDbDictionary
281
     1
  3
Normal
350
F
100
AcDbDictionaryWithDefault
340
F
  0
DICTIONARY
  5
47
102
{ACAD_REACTORS
330
C
102
}
330
C
100
AcDbDictionary
281
     1
  3
A0
350
48
  3
A1
350
49
  3
A2
350
4A
  3
A3
350
4B
  3
A4
350
4C
  3
A5
350
4D
  3
A6
350
4E
  3
A7
350
4F
  3
A8
350
50
  3
A9
350
51
  3
B0
350
52
  3
B1
350
53
  3
B2
350
54
  3
B3
350
55
  3
B4
350
56
  3
B5
350
57
  3
B6
350
58
  3
B7
350
59
  3
B8
350
5A
  3
B9
350
5B
  3
C0
350
5C
  3
C1
350
5D
  3
C2
350
5E
  3
C3
350
5F
  3
C4
350
60
  3
C5
350
61
  3
C6
350
62
  3
C7
350
63
  3
C8
350
64
  3
C9
350
65
  3
D0
350
66
  3
D1
350
67
  3
D2
350
68
  0
LAYOUT
  5
1E
102
{ACAD_REACTORS
330
1A
102
}
330
1A
100
AcDbPlotSettings
  1

  2
none_device
  4

  6

 40
0.0
 41
0.0
 42
0.0
 43
0.0
 44
0.0
 45
0.0
 46
0.0
 47
0.0
 48
0.0
 49
0.0
140
0.0
141
0.0
142
1.0
143
1.0
 70
   688
 72
     1
 73
     0
 74
     5
  7

 75
    16
147
1.0
148
0.0
149
0.0
100
AcDbLayout
  1
Layout1
 70
     1
 71
     1
 10
0.0
 20
0.0
 11
420.0
 21
297.0
 12
0.0
 22
0.0
 32
0.0
 14
1.0000000000E+20
 24
1.0000000000E+20
 34
1.0000000000E+20
 15
-1.0000000000E+20
 25
-1.0000000000E+20
 35
-1.0000000000E+20
146
0.0
 13
0.0
 23
0.0
 33
0.0
 16
1.0
 26
0.0
 36
0.0
 17
0.0
 27
1.0
 37
0.0
 76
     0
330
1B
  0
LAYOUT
  5
26
102
{ACAD_REACTORS
330
1A
102
}
330
1A
100
AcDbPlotSettings
  1

  2
none_device
  4

  6

 40
0.0
 41
0.0
 42
0.0
 43
0.0
 44
0.0
 45
0.0
 46
0.0
 47
0.0
 48
0.0
 49
0.0
140
0.0
141
0.0
142
1.0
143
1.0
 70
   688
 72
     1
 73
     0
 74
     5
  7

 75
    16
147
1.0
148
0.0
149
0.0
100
AcDbLayout
  1
Layout2
 70
     1
 71
     2
 10
0.0
 20
0.0
 11
0.0
 21
0.0
 12
0.0
 22
0.0
 32
0.0
 14
0.0
 24
0.0
 34
0.0
 15
0.0
 25
0.0
 35
0.0
146
0.0
 13
0.0
 23
0.0
 33
0.0
 16
1.0
 26
0.0
 36
0.0
 17
0.0
 27
1.0
 37
0.0
 76
     0
330
23
  0
LAYOUT
  5
22
102
{ACAD_REACTORS
330
1A
102
}
330
1A
100
AcDbPlotSettings
  1

  2
none_device
  4
Letter_(8.50_x_11.00_Inches)
  6

 40
6.35
 41
6.35
 42
6.35000508
 43
6.35000508
 44
215.9
 45
279.4
 46
0.0
 47
0.0
 48
0.0
 49
0.0
140
0.0
141
0.0
142
1.0
143
1.0
 70
  1712
 72
     1
 73
     0
 74
     0
  7

 75
     0
147
1.0
148
0.0
149
0.0
100
AcDbLayout
  1
Model
 70
     1
 71
     0
 10
0.0
 20
0.0
 11
297.0
 21
210.0
 12
0.0
 22
0.0
 32
0.0
 14
0.0
 24
0.0
 34
0.0
 15
297.0
 25
210.0
 35
0.0
146
0.0
 13
0.0
 23
0.0
 33
0.0
 16
1.0
 26
0.0
 36
0.0
 17
0.0
 27
1.0
 37
0.0
 76
     0
330
1F
331
29
  0
MLINESTYLE
  5
18
102
{ACAD_REACTORS
330
17
102
}
330
17
100
AcDbMlineStyle
  2
Standard
 70
     0
  3

 62
   256
 51
90.0
 52
90.0
 71
     2
 49
0.5
 62
   256
  6
BYLAYER
 49
-0.5
 62
   256
  6
BYLAYER
  0
ACDBPLACEHOLDER
  5
F
102
{ACAD_REACTORS
330
E
102
}
330
E
  0
SCALE
  5
48
102
{ACAD_REACTORS
330
47
102
}
330
47
100
AcDbScale
 70
     0
300
1:1
140
1.0
141
1.0
290
     1
  0
SCALE
  5
49
102
{ACAD_REACTORS
330
47
102
}
330
47
100
AcDbScale
 70
     0
300
1:2
140
1.0
141
2.0
290
     0
  0
SCALE
  5
4A
102
{ACAD_REACTORS
330
47
102
}
330
47
100
AcDbScale
 70
     0
300
1:4
140
1.0
141
4.0
290
     0
  0
SCALE
  5
4B
102
{ACAD_REACTORS
330
47
102
}
330
47
100
AcDbScale
 70
     0
300
1:5
140
1.0
141
5.0
290
     0
  0
SCALE
  5
4C
102
{ACAD_REACTORS
330
47
102
}
330
47
100
AcDbScale
 70
     0
300
1:8
140
1.0
141
8.0
290
     0
  0
SCALE
  5
4D
102
{ACAD_REACTORS
330
47
102
}
330
47
100
AcDbScale
 70
     0
300
1:10
140
1.0
141
10.0
290
     0
  0
SCALE
  5
4E
102
{ACAD_REACTORS
330
47
102
}
330
47
100
AcDbScale
 70
     0
300
1:16
140
1.0
141
16.0
290
     0
  0
SCALE
  5
4F
102
{ACAD_REACTORS
330
47
102
}
330
47
100
AcDbScale
 70
     0
300
1:20
140
1.0
141
20.0
290
     0
  0
SCALE
  5
50
102
{ACAD_REACTORS
330
47
102
}
330
47
100
AcDbScale
 70
     0
300
1:30
140
1.0
141
30.0
290
     0
  0
SCALE
  5
51
102
{ACAD_REACTORS
330
47
102
}
330
47
100
AcDbScale
 70
     0
300
1:40
140
1.0
141
40.0
290
     0
  0
SCALE
  5
52
102
{ACAD_REACTORS
330
47
102
}
330
47
100
AcDbScale
 70
     0
300
1:50
140
1.0
141
50.0
290
     0
  0
SCALE
  5
53
102
{ACAD_REACTORS
330
47
102
}
330
47
100
AcDbScale
 70
     0
300
1:100
140
1.0
141
100.0
290
     0
  0
SCALE
  5
54
102
{ACAD_REACTORS
330
47
102
}
330
47
100
AcDbScale
 70
     0
300
2:1
140
2.0
141
1.0
290
     0
  0
SCALE
  5
55
102
{ACAD_REACTORS
330
47
102
}
330
47
100
AcDbScale
 70
     0
300
4:1
140
4.0
141
1.0
290
     0
  0
SCALE
  5
56
102
{ACAD_REACTORS
330
47
102
}
330
47
100
AcDbScale
 70
     0
300
8:1
140
8.0
141
1.0
290
     0
  0
SCALE
  5
57
102
{ACAD_REACTORS
330
47
102
}
330
47
100
AcDbScale
 70
     0
300
10:1
140
10.0
141
1.0
290
     0
  0
SCALE
  5
58
102
{ACAD_REACTORS
330
47
102
}
330
47
100
AcDbScale
 70
     0
300
100:1
140
100.0
141
1.0
290
     0
  0
SCALE
  5
59
102
{ACAD_REACTORS
330
47
102
}
330
47
100
AcDbScale
 70
     0
300
1/128" = 1'-0"
140
0.0078125
141
12.0
290
     0
  0
SCALE
  5
5A
102
{ACAD_REACTORS
330
47
102
}
330
47
100
AcDbScale
 70
     0
300
1/64" = 1'-0"
140
0.015625
141
12.0
290
     0
  0
SCALE
  5
5B
102
{ACAD_REACTORS
330
47
102
}
330
47
100
AcDbScale
 70
     0
300
1/32" = 1'-0"
140
0.03125
141
12.0
290
     0
  0
SCALE
  5
5C
102
{ACAD_REACTORS
330
47
102
}
330
47
100
AcDbScale
 70
     0
300
1/16" = 1'-0"
140
0.0625
141
12.0
290
     0
  0
SCALE
  5
5D
102
{ACAD_REACTORS
330
47
102
}
330
47
100
AcDbScale
 70
     0
300
3/32" = 1'-0"
140
0.09375
141
12.0
290
     0
  0
SCALE
  5
5E
102
{ACAD_REACTORS
330
47
102
}
330
47
100
AcDbScale
 70
     0
300
1/8" = 1'-0"
140
0.125
141
12.0
290
     0
  0
SCALE
  5
5F
102
{ACAD_REACTORS
330
47
102
}
330
47
100
AcDbScale
 70
     0
300
3/16" = 1'-0"
140
0.1875
141
12.0
290
     0
  0
SCALE
  5
60
102
{ACAD_REACTORS
330
47
102
}
330
47
100
AcDbScale
 70
     0
300
1/4" = 1'-0"
140
0.25
141
12.0
290
     0
  0
SCALE
  5
61
102
{ACAD_REACTORS
330
47
102
}
330
47
100
AcDbScale
 70
     0
300
3/8" = 1'-0"
140
0.375
141
12.0
290
     0
  0
SCALE
  5
62
102
{ACAD_REACTORS
330
47
102
}
330
47
100
AcDbScale
 70
     0
300
1/2" = 1'-0"
140
0.5
141
12.0
290
     0
  0
SCALE
  5
63
102
{ACAD_REACTORS
330
47
102
}
330
47
100
AcDbScale
 70
     0
300
3/4" = 1'-0"
140
0.75
141
12.0
290
     0
  0
SCALE
  5
64
102
{ACAD_REACTORS
330
47
102
}
330
47
100
AcDbScale
 70
     0
300
1" = 1'-0"
140
1.0
141
12.0
290
     0
  0
SCALE
  5
65
102
{ACAD_REACTORS
330
47
102
}
330
47
100
AcDbScale
 70
     0
300
1-1/2" = 1'-0"
140
1.5
141
12.0
290
     0
  0
SCALE
  5
66
102
{ACAD_REACTORS
330
47
102
}
330
47
100
AcDbScale
 70
     0
300
3" = 1'-0"
140
3.0
141
12.0
290
     0
  0
SCALE
  5
67
102
{ACAD_REACTORS
330
47
102
}
330
47
100
AcDbScale
 70
     0
300
6" = 1'-0"
140
6.0
141
12.0
290
     0
  0
SCALE
  5
68
102
{ACAD_REACTORS
330
47
102
}
330
47
100
AcDbScale
 70
     0
300
1'-0" = 1'-0"
140
12.0
141
12.0
290
     0
  0
ENDSEC
  0
EOF
