  0
SECTION
  2
HEADER
  9
$ACADVER
  1
AC1015
  9
$ACADMAINTVER
 70
     6
  9
$DWGCODEPAGE
  3
ANSI_1250
  9
$INSBASE
 10
0.0
 20
0.0
 30
0.0
  9
$EXTMIN
 10
0.0
 20
0.0
 30
0.0
  9
$EXTMAX
 10
297.0
 20
210.0
 30
0.0
  9
$LIMMIN
 10
0.0
 20
0.0
  9
$LIMMAX
 10
297.0
 20
210.0
  9
$ORTHOMODE
 70
     0
  9
$REGENMODE
 70
     1
  9
$FILLMODE
 70
     1
  9
$QTEXTMODE
 70
     0
  9
$MIRRTEXT
 70
     1
  9
$LTSCALE
 40
1.0
  9
$ATTMODE
 70
     1
  9
$TEXTSIZE
 40
3.5
  9
$TRACEWID
 40
1.0
  9
$TEXTSTYLE
  7
Standard
  9
$CLAYER
  8
0
  9
$CELTYPE
  6
ByLayer
  9
$CECOLOR
 62
   256
  9
$CELTSCALE
 40
1.0
  9
$DISPSILH
 70
     0
  9
$DIMSCALE
 40
1.0
  9
$DIMASZ
 40
3.302
  9
$DIMEXO
 40
1.0
  9
$DIMDLI
 40
3.75
  9
$DIMRND
 40
0.0
  9
$DIMDLE
 40
0.0
  9
$DIMEXE
 40
1.0
  9
$DIMTP
 40
0.0
  9
$DIMTM
 40
0.0
  9
$DIMTXT
 40
3.5
  9
$DIMCEN
 40
2.5
  9
$DIMTSZ
 40
0.0
  9
$DIMTOL
 70
     0
  9
$DIMLIM
 70
     0
  9
$DIMTIH
 70
     1
  9
$DIMTOH
 70
     1
  9
$DIMSE1
 70
     0
  9
$DIMSE2
 70
     0
  9
$DIMTAD
 70
     1
  9
$DIMZIN
 70
     0
  9
$DIMBLK
  1

  9
$DIMASO
 70
     1
  9
$DIMSHO
 70
     1
  9
$DIMPOST
  1

  9
$DIMAPOST
  1

  9
$DIMALT
 70
     0
  9
$DIMALTD
 70
     3
  9
$DIMALTF
 40
0.0393700787
  9
$DIMLFAC
 40
1.0
  9
$DIMTOFL
 70
     1
  9
$DIMTVP
 40
0.0
  9
$DIMTIX
 70
     0
  9
$DIMSOXD
 70
     0
  9
$DIMSAH
 70
     0
  9
$DIMBLK1
  1

  9
$DIMBLK2
  1

  9
$DIMSTYLE
  2
ISO-25
  9
$DIMCLRD
 70
     0
  9
$DIMCLRE
 70
     0
  9
$DIMCLRT
 70
     0
  9
$DIMTFAC
 40
1.0
  9
$DIMGAP
 40
1.524
  9
$DIMJUST
 70
     0
  9
$DIMSD1
 70
     0
  9
$DIMSD2
 70
     0
  9
$DIMTOLJ
 70
     0
  9
$DIMTZIN
 70
     0
  9
$DIMALTZ
 70
     0
  9
$DIMALTTZ
 70
     0
  9
$DIMUPT
 70
     0
  9
$DIMDEC
 70
     2
  9
$DIMTDEC
 70
     2
  9
$DIMALTU
 70
     2
  9
$DIMALTTD
 70
     3
  9
$DIMTXSTY
  7
Standard
  9
$DIMAUNIT
 70
     0
  9
$DIMADEC
 70
     2
  9
$DIMALTRND
 40
0.0
  9
$DIMAZIN
 70
     0
  9
$DIMDSEP
 70
    44
  9
$DIMATFIT
 70
     3
  9
$DIMFRAC
 70
     0
  9
$DIMLDRBLK
  1

  9
$DIMLUNIT
 70
     2
  9
$DIMLWD
 70
    -2
  9
$DIMLWE
 70
    -2
  9
$DIMTMOVE
 70
     0
  9
$LUNITS
 70
     2
  9
$LUPREC
 70
     2
  9
$SKETCHINC
 40
1.0
  9
$FILLETRAD
 40
10.0
  9
$AUNITS
 70
     0
  9
$AUPREC
 70
     2
  9
$MENU
  1
.
  9
$ELEVATION
 40
0.0
  9
$PELEVATION
 40
0.0
  9
$THICKNESS
 40
0.0
  9
$LIMCHECK
 70
     0
  9
$CHAMFERA
 40
0.0
  9
$CHAMFERB
 40
0.0
  9
$CHAMFERC
 40
0.0
  9
$CHAMFERD
 40
0.0
  9
$SKPOLY
 70
     0
  9
$TDCREATE
 40
2459278.335694826
  9
$TDUCREATE
 40
2459278.29402816
  9
$TDUPDATE
 40
2459278.335696493
  9
$TDUUPDATE
 40
2459278.294029826
  9
$TDINDWG
 40
0.0000000116
  9
$TDUSRTIMER
 40
0.0000000116
  9
$USRTIMER
 70
     1
  9
$ANGBASE
 50
0.0
  9
$ANGDIR
 70
     0
  9
$PDMODE
 70
     0
  9
$PDSIZE
 40
-1.0
  9
$PLINEWID
 40
0.0
  9
$SPLFRAME
 70
     0
  9
$SPLINETYPE
 70
     6
  9
$SPLINESEGS
 70
     8
  9
$HANDSEED
  5
30B
  9
$SURFTAB1
 70
     6
  9
$SURFTAB2
 70
     6
  9
$SURFTYPE
 70
     6
  9
$SURFU
 70
     6
  9
$SURFV
 70
     6
  9
$UCSBASE
  2

  9
$UCSNAME
  2

  9
$UCSORG
 10
0.0
 20
0.0
 30
0.0
  9
$UCSXDIR
 10
1.0
 20
0.0
 30
0.0
  9
$UCSYDIR
 10
0.0
 20
1.0
 30
0.0
  9
$UCSORTHOREF
  2

  9
$UCSORTHOVIEW
 70
     0
  9
$UCSORGTOP
 10
0.0
 20
0.0
 30
0.0
  9
$UCSORGBOTTOM
 10
0.0
 20
0.0
 30
0.0
  9
$UCSORGLEFT
 10
0.0
 20
0.0
 30
0.0
  9
$UCSORGRIGHT
 10
0.0
 20
0.0
 30
0.0
  9
$UCSORGFRONT
 10
0.0
 20
0.0
 30
0.0
  9
$UCSORGBACK
 10
0.0
 20
0.0
 30
0.0
  9
$PUCSBASE
  2

  9
$PUCSNAME
  2

  9
$PUCSORG
 10
0.0
 20
0.0
 30
0.0
  9
$PUCSXDIR
 10
1.0
 20
0.0
 30
0.0
  9
$PUCSYDIR
 10
0.0
 20
1.0
 30
0.0
  9
$PUCSORTHOREF
  2

  9
$PUCSORTHOVIEW
 70
     0
  9
$PUCSORGTOP
 10
0.0
 20
0.0
 30
0.0
  9
$PUCSORGBOTTOM
 10
0.0
 20
0.0
 30
0.0
  9
$PUCSORGLEFT
 10
0.0
 20
0.0
 30
0.0
  9
$PUCSORGRIGHT
 10
0.0
 20
0.0
 30
0.0
  9
$PUCSORGFRONT
 10
0.0
 20
0.0
 30
0.0
  9
$PUCSORGBACK
 10
0.0
 20
0.0
 30
0.0
  9
$USERI1
 70
     0
  9
$USERI2
 70
     0
  9
$USERI3
 70
     0
  9
$USERI4
 70
     0
  9
$USERI5
 70
     0
  9
$USERR1
 40
0.0
  9
$USERR2
 40
0.0
  9
$USERR3
 40
0.0
  9
$USERR4
 40
0.0
  9
$USERR5
 40
0.0
  9
$WORLDVIEW
 70
     1
  9
$SHADEDGE
 70
     3
  9
$SHADEDIF
 70
    70
  9
$TILEMODE
 70
     1
  9
$MAXACTVP
 70
    64
  9
$PINSBASE
 10
0.0
 20
0.0
 30
0.0
  9
$PLIMCHECK
 70
     0
  9
$PEXTMIN
 10
1.0000000000E+20
 20
1.0000000000E+20
 30
1.0000000000E+20
  9
$PEXTMAX
 10
-1.0000000000E+20
 20
-1.0000000000E+20
 30
-1.0000000000E+20
  9
$PLIMMIN
 10
0.0
 20
0.0
  9
$PLIMMAX
 10
420.0
 20
297.0
  9
$UNITMODE
 70
     0
  9
$VISRETAIN
 70
     1
  9
$PLINEGEN
 70
     0
  9
$PSLTSCALE
 70
     1
  9
$TREEDEPTH
 70
  3020
  9
$CMLSTYLE
  2
Standard
  9
$CMLJUST
 70
     0
  9
$CMLSCALE
 40
20.0
  9
$PROXYGRAPHICS
 70
     1
  9
$MEASUREMENT
 70
     1
  9
$CELWEIGHT
370
    -1
  9
$ENDCAPS
280
     0
  9
$JOINSTYLE
280
     0
  9
$LWDISPLAY
290
     1
  9
$INSUNITS
 70
     4
  9
$HYPERLINKBASE
  1

  9
$STYLESHEET
  1

  9
$XEDIT
290
     1
  9
$CEPSNTYPE
380
     0
  9
$PSTYLEMODE
290
     1
  9
$FINGERPRINTGUID
  2
{45329A3D-DF60-4DA8-91C0-F485C62B941D}
  9
$VERSIONGUID
  2
{FAEB1C32-E019-11D5-929B-00C0DF256EC4}
  9
$EXTNAMES
290
     1
  9
$PSVPSCALE
 40
0.0
  9
$OLESTARTUP
290
     0
  0
ENDSEC
  0
SECTION
  2
CLASSES
  0
CLASS
  1
ACDBDICTIONARYWDFLT
  2
AcDbDictionaryWithDefault
  3
ObjectDBX Classes
 90
        0
280
     0
281
     0
  0
CLASS
  1
VISUALSTYLE
  2
AcDbVisualStyle
  3
ObjectDBX Classes
 90
     4095
280
     0
281
     0
  0
CLASS
  1
MATERIAL
  2
AcDbMaterial
  3
ObjectDBX Classes
 90
     1153
280
     0
281
     0
  0
CLASS
  1
SCALE
  2
AcDbScale
  3
ObjectDBX Classes
 90
     1153
280
     0
281
     0
  0
CLASS
  1
TABLESTYLE
  2
AcDbTableStyle
  3
ObjectDBX Classes
 90
     4095
280
     0
281
     0
  0
CLASS
  1
MLEADERSTYLE
  2
AcDbMLeaderStyle
  3
ACDB_MLEADERSTYLE_CLASS
 90
     4095
280
     0
281
     0
  0
CLASS
  1
SUN
  2
AcDbSun
  3
SCENEOE
 90
     1153
280
     0
281
     0
  0
CLASS
  1
ACDBPLACEHOLDER
  2
AcDbPlaceHolder
  3
ObjectDBX Classes
 90
        0
280
     0
281
     0
  0
CLASS
  1
LAYOUT
  2
AcDbLayout
  3
ObjectDBX Classes
 90
        0
280
     0
281
     0
  0
ENDSEC
  0
SECTION
  2
TABLES
  0
TABLE
  2
VPORT
  5
8
330
0
100
AcDbSymbolTable
 70
     1
  0
VPORT
  5
29
330
8
100
AcDbSymbolTableRecord
100
AcDbViewportTableRecord
  2
*Active
 70
     0
 10
0.0
 20
0.0
 11
1.0
 21
1.0
 12
148.5
 22
105.0
 13
0.0
 23
0.0
 14
10.0
 24
10.0
 15
10.0
 25
10.0
 16
0.0
 26
0.0
 36
1.0
 17
0.0
 27
0.0
 37
0.0
 40
210.0
 41
1.4142857143
 42
50.0
 43
0.0
 44
0.0
 50
0.0
 51
0.0
 71
     0
 72
  2000
 73
     1
 74
     3
 75
     0
 76
     0
 77
     0
 78
     0
281
     0
 65
     1
110
0.0
120
0.0
130
0.0
111
1.0
121
0.0
131
0.0
112
0.0
122
1.0
132
0.0
 79
     0
146
0.0
  0
ENDTAB
  0
TABLE
  2
LTYPE
  5
5
330
0
100
AcDbSymbolTable
 70
     8
  0
LTYPE
  5
14
330
5
100
AcDbSymbolTableRecord
100
AcDbLinetypeTableRecord
  2
ByBlock
 70
     0
  3

 72
    65
 73
     0
 40
0.0
  0
LTYPE
  5
15
330
5
100
AcDbSymbolTableRecord
100
AcDbLinetypeTableRecord
  2
ByLayer
 70
     0
  3

 72
    65
 73
     0
 40
0.0
  0
LTYPE
  5
16
330
5
100
AcDbSymbolTableRecord
100
AcDbLinetypeTableRecord
  2
Continuous
 70
     0
  3
Solid line
 72
    65
 73
     0
 40
0.0
  0
LTYPE
  5
6E
330
5
100
AcDbSymbolTableRecord
100
AcDbLinetypeTableRecord
  2
SLD-Solid
 70
     0
  3
SolidWorks Line Style
 72
    65
 73
     0
 40
0.0
  0
LTYPE
  5
6F
330
5
100
AcDbSymbolTableRecord
100
AcDbLinetypeTableRecord
  2
SLD-Dashed
 70
     0
  3
SolidWorks Line Style
 72
    65
 73
     2
 40
1.905
 49
1.27
 74
     0
 49
-0.635
 74
     0
  0
LTYPE
  5
70
330
5
100
AcDbSymbolTableRecord
100
AcDbLinetypeTableRecord
  2
SLD-Phantom
 70
     0
  3
SolidWorks Line Style
 72
    65
 73
     6
 40
12.7
 49
6.35
 74
     0
 49
-1.27
 74
     0
 49
1.27
 74
     0
 49
-1.27
 74
     0
 49
1.27
 74
     0
 49
-1.27
 74
     0
  0
LTYPE
  5
71
330
5
100
AcDbSymbolTableRecord
100
AcDbLinetypeTableRecord
  2
SLD-Chain
 70
     0
  3
SolidWorks Line Style
 72
    65
 73
     4
 40
10.16
 49
6.35
 74
     0
 49
-1.27
 74
     0
 49
1.27
 74
     0
 49
-1.27
 74
     0
  0
LTYPE
  5
72
330
5
100
AcDbSymbolTableRecord
100
AcDbLinetypeTableRecord
  2
SLD-Center
 70
     0
  3
SolidWorks Line Style
 72
    65
 73
     4
 40
19.05
 49
15.24
 74
     0
 49
-1.27
 74
     0
 49
1.27
 74
     0
 49
-1.27
 74
     0
  0
LTYPE
  5
73
330
5
100
AcDbSymbolTableRecord
100
AcDbLinetypeTableRecord
  2
SLD-Stitch
 70
     0
  3
SolidWorks Line Style
 72
    65
 73
     2
 40
0.635
 49
0.0
 74
     0
 49
-0.635
 74
     0
  0
LTYPE
  5
74
330
5
100
AcDbSymbolTableRecord
100
AcDbLinetypeTableRecord
  2
SLD-Thin-Thick-Chain
 70
     0
  3
SolidWorks Line Style
 72
    65
 73
     4
 40
10.16
 49
6.35
 74
     0
 49
-1.27
 74
     0
 49
1.27
 74
     0
 49
-1.27
 74
     0
  0
ENDTAB
  0
TABLE
  2
LAYER
  5
2
330
0
100
AcDbSymbolTable
 70
    14
  0
LAYER
  5
10
330
2
100
AcDbSymbolTableRecord
100
AcDbLayerTableRecord
  2
0
 70
     0
 62
     7
  6
Continuous
370
    -3
390
F
  0
LAYER
  5
75
330
2
100
AcDbSymbolTableRecord
100
AcDbLayerTableRecord
  2
SLD-0
 70
     0
 62
   179
  6
SLD-Solid
370
    -3
390
F
  0
LAYER
  5
76
330
2
100
AcDbSymbolTableRecord
100
AcDbLayerTableRecord
  2
80
 70
     0
 62
    -6
  6
SLD-Solid
290
     0
370
    -3
390
F
  0
LAYER
  5
77
330
2
100
AcDbSymbolTableRecord
100
AcDbLayerTableRecord
  2
81
 70
     0
 62
    -3
  6
SLD-Solid
290
     0
370
    -3
390
F
  0
LAYER
  5
78
330
2
100
AcDbSymbolTableRecord
100
AcDbLayerTableRecord
  2
1
 70
     0
 62
     4
  6
SLD-Solid
290
     0
370
    -3
390
F
  0
LAYER
  5
79
330
2
100
AcDbSymbolTableRecord
100
AcDbLayerTableRecord
  2
4
 70
     0
 62
    -2
  6
SLD-Chain
290
     0
370
    -3
390
F
  0
LAYER
  5
7A
330
2
100
AcDbSymbolTableRecord
100
AcDbLayerTableRecord
  2
2
 70
     0
 62
     7
  6
SLD-Solid
290
     0
370
    -3
390
F
  0
LAYER
  5
7B
330
2
100
AcDbSymbolTableRecord
100
AcDbLayerTableRecord
  2
SK3
 70
     0
 62
     1
  6
SLD-Dashed
290
     0
370
    -3
390
F
  0
LAYER
  5
7C
330
2
100
AcDbSymbolTableRecord
100
AcDbLayerTableRecord
  2
SK4
 70
     0
 62
     2
  6
SLD-Chain
290
     0
370
    -3
390
F
  0
LAYER
  5
7D
330
2
100
AcDbSymbolTableRecord
100
AcDbLayerTableRecord
  2
SK2
 70
     0
 62
     7
  6
SLD-Solid
290
     0
370
    -3
390
F
  0
LAYER
  5
7E
330
2
100
AcDbSymbolTableRecord
100
AcDbLayerTableRecord
  2
SK6
 70
     0
 62
     5
  6
SLD-Solid
290
     0
370
    -3
390
F
  0
LAYER
  5
7F
330
2
100
AcDbSymbolTableRecord
100
AcDbLayerTableRecord
  2
6
 70
     0
 62
     5
  6
SLD-Solid
370
    -3
390
F
  0
LAYER
  5
80
330
2
100
AcDbSymbolTableRecord
100
AcDbLayerTableRecord
  2
SK1
 70
     0
 62
     4
  6
SLD-Solid
370
    -3
390
F
  0
LAYER
  5
81
330
2
100
AcDbSymbolTableRecord
100
AcDbLayerTableRecord
  2
LAYER5
 70
     0
 62
   218
  6
SLD-Solid
370
    -3
390
F
  0
ENDTAB
  0
TABLE
  2
STYLE
  5
3
330
0
100
AcDbSymbolTable
 70
     3
  0
STYLE
  5
11
330
3
100
AcDbSymbolTableRecord
100
AcDbTextStyleTableRecord
  2
Standard
 70
     0
 40
0.0
 41
1.0
 50
0.0
 71
     0
 42
3.5
  3
txt
  4

  0
STYLE
  5
21A
330
3
100
AcDbSymbolTableRecord
100
AcDbTextStyleTableRecord
  2
SLDTEXTSTYLE0
 70
     0
 40
0.0
 41
0.75
 50
0.0
 71
     0
 42
3.5
  3
TXT
  4

  0
STYLE
  5
307
330
3
100
AcDbSymbolTableRecord
100
AcDbTextStyleTableRecord
  2
SLDTEXTSTYLE1
 70
     0
 40
0.0
 41
0.6666666667
 50
0.0
 71
     0
 42
3.5
  3
TXT
  4

  0
ENDTAB
  0
TABLE
  2
VIEW
  5
6
330
0
100
AcDbSymbolTable
 70
     0
  0
ENDTAB
  0
TABLE
  2
UCS
  5
7
330
0
100
AcDbSymbolTable
 70
     0
  0
ENDTAB
  0
TABLE
  2
APPID
  5
9
330
0
100
AcDbSymbolTable
 70
     1
  0
APPID
  5
12
330
9
100
AcDbSymbolTableRecord
100
AcDbRegAppTableRecord
  2
ACAD
 70
     0
  0
ENDTAB
  0
TABLE
  2
DIMSTYLE
  5
A
330
0
100
AcDbSymbolTable
 70
     6
100
AcDbDimStyleTable
  0
DIMSTYLE
105
27
330
A
100
AcDbSymbolTableRecord
100
AcDbDimStyleTableRecord
  2
ISO-25
 70
     0
 41
2.5
 42
0.625
 43
3.75
 44
1.25
 73
     0
 74
     0
 77
     1
 78
     8
140
2.5
141
2.5
143
0.0393700787
147
0.625
171
     3
172
     1
178
     0
271
     2
272
     2
274
     3
278
    44
283
     0
284
     8
340
11
  0
DIMSTYLE
105
21B
102
{ACAD_REACTORS
330
219
330
22E
330
241
330
254
330
267
330
28F
330
2A1
330
2C8
102
}
330
A
100
AcDbSymbolTableRecord
100
AcDbDimStyleTableRecord
  2
SLDDIMSTYLE0
 70
     0
 41
3.302
 44
0.0
 45
0.000000001
 73
     0
 74
     0
 77
     1
 78
    12
 79
     3
140
3.5
143
0.0393700787
147
0.875
148
0.000000001
170
     1
173
     1
178
     0
271
     2
272
     2
276
     2
284
    12
340
21A
  0
DIMSTYLE
105
27B
102
{ACAD_REACTORS
330
27A
102
}
330
A
100
AcDbSymbolTableRecord
100
AcDbDimStyleTableRecord
  2
SLDDIMSTYLE1
 70
     0
 41
3.302
 44
0.0
 45
0.000000001
 73
     0
 74
     0
 77
     1
 78
    12
 79
     3
140
3.5
143
0.0393700787
147
0.875
148
0.000000001
170
     1
171
     3
172
     1
173
     1
178
     0
271
     3
272
     2
274
     3
276
     2
284
    12
289
     0
340
21A
  0
DIMSTYLE
105
2B5
102
{ACAD_REACTORS
330
2B4
102
}
330
A
100
AcDbSymbolTableRecord
100
AcDbDimStyleTableRecord
  2
SLDDIMSTYLE2
 70
     0
 41
3.302
 44
0.0
 45
0.000000001
 73
     0
 74
     0
 77
     1
 78
    12
 79
     3
140
3.5
143
0.0393700787
147
0.875
148
0.000000001
170
     1
171
     3
173
     1
178
     0
271
     3
272
     2
274
     3
276
     2
284
    12
340
21A
  0
DIMSTYLE
105
2DC
102
{ACAD_REACTORS
330
2DB
102
}
330
A
100
AcDbSymbolTableRecord
100
AcDbDimStyleTableRecord
  2
SLDDIMSTYLE3
 70
     0
 41
3.302
 44
0.0
 45
0.000000001
 73
     0
 74
     0
 77
     1
 78
    12
 79
     3
140
3.5
147
0.875
172
     1
173
     1
178
     0
271
     2
272
     2
276
     2
284
    12
289
     0
340
21A
  0
DIMSTYLE
105
2E9
102
{ACAD_REACTORS
330
2E8
330
2F3
330
2FE
102
}
330
A
100
AcDbSymbolTableRecord
100
AcDbDimStyleTableRecord
  2
SLDDIMSTYLE4
 70
     0
 41
3.302
 44
0.0
 45
0.000000001
 73
     0
 74
     0
 77
     1
 78
    12
 79
     3
140
3.5
147
0.875
173
     1
178
     0
271
     2
272
     2
276
     2
284
    12
340
21A
  0
ENDTAB
  0
TABLE
  2
BLOCK_RECORD
  5
1
330
0
100
AcDbSymbolTable
 70
    15
  0
BLOCK_RECORD
  5
1F
330
1
100
AcDbSymbolTableRecord
100
AcDbBlockTableRecord
  2
*Model_Space
340
22
  0
BLOCK_RECORD
  5
1B
330
1
100
AcDbSymbolTableRecord
100
AcDbBlockTableRecord
  2
*Paper_Space
340
1E
  0
BLOCK_RECORD
  5
23
330
1
100
AcDbSymbolTableRecord
100
AcDbBlockTableRecord
  2
*Paper_Space0
340
26
  0
BLOCK_RECORD
  5
21C
330
1
100
AcDbSymbolTableRecord
100
AcDbBlockTableRecord
  2
_D
340
0
  0
BLOCK_RECORD
  5
22F
330
1
100
AcDbSymbolTableRecord
100
AcDbBlockTableRecord
  2
_D_1
340
0
  0
BLOCK_RECORD
  5
242
330
1
100
AcDbSymbolTableRecord
100
AcDbBlockTableRecord
  2
_D_2
340
0
  0
BLOCK_RECORD
  5
255
330
1
100
AcDbSymbolTableRecord
100
AcDbBlockTableRecord
  2
_D_3
340
0
  0
BLOCK_RECORD
  5
268
330
1
100
AcDbSymbolTableRecord
100
AcDbBlockTableRecord
  2
_D_4
340
0
  0
BLOCK_RECORD
  5
27C
330
1
100
AcDbSymbolTableRecord
100
AcDbBlockTableRecord
  2
_D_5
340
0
  0
BLOCK_RECORD
  5
290
330
1
100
AcDbSymbolTableRecord
100
AcDbBlockTableRecord
  2
_D_6
340
0
  0
BLOCK_RECORD
  5
2A2
330
1
100
AcDbSymbolTableRecord
100
AcDbBlockTableRecord
  2
_D_7
340
0
  0
BLOCK_RECORD
  5
2B6
330
1
100
AcDbSymbolTableRecord
100
AcDbBlockTableRecord
  2
_D_8
340
0
  0
BLOCK_RECORD
  5
2C9
330
1
100
AcDbSymbolTableRecord
100
AcDbBlockTableRecord
  2
_D_9
340
0
  0
BLOCK_RECORD
  5
2DD
330
1
100
AcDbSymbolTableRecord
100
AcDbBlockTableRecord
  2
_D_10
340
0
  0
BLOCK_RECORD
  5
2EA
330
1
100
AcDbSymbolTableRecord
100
AcDbBlockTableRecord
  2
_D_11
340
0
  0
BLOCK_RECORD
  5
2F4
330
1
100
AcDbSymbolTableRecord
100
AcDbBlockTableRecord
  2
_D_12
340
0
  0
BLOCK_RECORD
  5
2FF
330
1
100
AcDbSymbolTableRecord
100
AcDbBlockTableRecord
  2
_D_13
340
0
  0
ENDTAB
  0
ENDSEC
  0
SECTION
  2
BLOCKS
  0
BLOCK
  5
20
330
1F
100
AcDbEntity
  8
0
100
AcDbBlockBegin
  2
*Model_Space
 70
     0
 10
0.0
 20
0.0
 30
0.0
  3
*Model_Space
  1

  0
ENDBLK
  5
21
330
1F
100
AcDbEntity
  8
0
100
AcDbBlockEnd
  0
BLOCK
  5
1C
330
1B
100
AcDbEntity
 67
     1
  8
0
100
AcDbBlockBegin
  2
*Paper_Space
 70
     0
 10
0.0
 20
0.0
 30
0.0
  3
*Paper_Space
  1

  0
ENDBLK
  5
1D
330
1B
100
AcDbEntity
 67
     1
  8
0
100
AcDbBlockEnd
  0
BLOCK
  5
24
330
23
100
AcDbEntity
  8
0
100
AcDbBlockBegin
  2
*Paper_Space0
 70
     0
 10
0.0
 20
0.0
 30
0.0
  3
*Paper_Space0
  1

  0
ENDBLK
  5
25
330
23
100
AcDbEntity
  8
0
100
AcDbBlockEnd
  0
BLOCK
  5
21D
330
21C
100
AcDbEntity
  8
0
100
AcDbBlockBegin
  2
_D
 70
     0
 10
0.0
 20
0.0
 30
0.0
  3
_D
  1

  0
SOLID
  5
21F
330
21C
100
AcDbEntity
  8
2
100
AcDbTrace
 10
0.0
 20
86.8868690473
 30
0.0
 11
3.302
 21
86.3788690473
 31
0.0
 12
3.302
 22
87.3948690473
 32
0.0
 13
3.302
 23
87.3948690473
 33
0.0
  0
SOLID
  5
220
330
21C
100
AcDbEntity
  8
2
100
AcDbTrace
 10
196.85
 20
86.8868690473
 30
0.0
 11
193.548
 21
87.3948690473
 31
0.0
 12
193.548
 22
86.3788690473
 32
0.0
 13
193.548
 23
86.3788690473
 33
0.0
  0
LINE
  5
221
330
21C
100
AcDbEntity
  8
2
100
AcDbLine
 10
60.1782177073
 20
97.6797507633
 30
0.0
 11
59.1118114499
 21
97.6797507633
 31
0.0
  0
LINE
  5
222
330
21C
100
AcDbEntity
  8
2
100
AcDbLine
 10
59.1118114499
 20
97.6797507633
 30
0.0
 11
59.1118114499
 21
92.1235007722
 31
0.0
  0
LINE
  5
223
330
21C
100
AcDbEntity
  8
2
100
AcDbLine
 10
59.1118114499
 20
92.1235007722
 30
0.0
 11
60.1782177073
 21
92.1235007722
 31
0.0
  0
LINE
  5
224
330
21C
100
AcDbEntity
  8
2
100
AcDbLine
 10
69.2296067682
 20
97.6797507633
 30
0.0
 11
70.2960130257
 21
97.6797507633
 31
0.0
  0
LINE
  5
225
330
21C
100
AcDbEntity
  8
2
100
AcDbLine
 10
70.2960130257
 20
97.6797507633
 30
0.0
 11
70.2960130257
 21
92.1235007722
 31
0.0
  0
LINE
  5
226
330
21C
100
AcDbEntity
  8
2
100
AcDbLine
 10
70.2960130257
 20
92.1235007722
 30
0.0
 11
69.2296067682
 21
92.1235007722
 31
0.0
  0
LINE
  5
227
330
21C
100
AcDbEntity
  8
2
100
AcDbLine
 10
0.0
 20
35.925
 30
0.0
 11
0.0
 21
87.8868690473
 31
0.0
  0
LINE
  5
228
330
21C
100
AcDbEntity
  8
2
100
AcDbLine
 10
196.85
 20
14.21
 30
0.0
 11
196.85
 21
87.8868690473
 31
0.0
  0
LINE
  5
229
330
21C
100
AcDbEntity
  8
2
100
AcDbLine
 10
0.0
 20
86.8868690473
 30
0.0
 11
196.85
 21
86.8868690473
 31
0.0
  0
MTEXT
  5
22A
330
21C
100
AcDbEntity
  8
2
100
AcDbMText
 10
57.6115506842
 20
91.4520783131
 30
0.0
 40
3.5
 41
0.0
 71
     1
 72
     1
  1

  7
SLDTEXTSTYLE0
 73
     1
 44
1.0
  0
MTEXT
  5
22B
330
21C
100
AcDbEntity
  8
2
100
AcDbMText
 10
60.1782177073
 20
96.6352376868
 30
0.0
 40
3.5
 41
0.0
 71
     1
 72
     1
  1
7,75
  7
SLDTEXTSTYLE0
 73
     1
 44
1.0
  0
MTEXT
  5
22C
330
21C
100
AcDbEntity
  8
2
100
AcDbMText
 10
57.592106281
 20
91.3986061365
 30
0.0
 40
3.5
 41
0.0
 71
     1
 72
     1
  1
196,85
  7
SLDTEXTSTYLE0
 73
     1
 44
1.0
  0
MTEXT
  5
22D
330
21C
100
AcDbEntity
  8
2
100
AcDbMText
 10
73.128218311
 20
91.4520783131
 30
0.0
 40
3.5
 41
0.0
 71
     1
 72
     1
  1

  7
SLDTEXTSTYLE0
 73
     1
 44
1.0
  0
ENDBLK
  5
21E
330
21C
100
AcDbEntity
  8
0
100
AcDbBlockEnd
  0
BLOCK
  5
230
330
22F
100
AcDbEntity
  8
0
100
AcDbBlockBegin
  2
_D_1
 70
     0
 10
0.0
 20
0.0
 30
0.0
  3
_D_1
  1

  0
SOLID
  5
232
330
22F
100
AcDbEntity
  8
SK2
100
AcDbTrace
 10
19.05
 20
73.2415842774
 30
0.0
 11
22.352
 21
72.7335842774
 31
0.0
 12
22.352
 22
73.7495842774
 32
0.0
 13
22.352
 23
73.7495842774
 33
0.0
  0
SOLID
  5
233
330
22F
100
AcDbEntity
  8
SK2
100
AcDbTrace
 10
196.85
 20
73.2415842774
 30
0.0
 11
193.548
 21
73.7495842774
 31
0.0
 12
193.548
 22
72.7335842774
 32
0.0
 13
193.548
 23
72.7335842774
 33
0.0
  0
LINE
  5
234
330
22F
100
AcDbEntity
  8
SK2
100
AcDbLine
 10
90.7700095505
 20
84.0344659935
 30
0.0
 11
89.7036032931
 21
84.0344659935
 31
0.0
  0
LINE
  5
235
330
22F
100
AcDbEntity
  8
SK2
100
AcDbLine
 10
89.7036032931
 20
84.0344659935
 30
0.0
 11
89.7036032931
 21
78.4782160024
 31
0.0
  0
LINE
  5
236
330
22F
100
AcDbEntity
  8
SK2
100
AcDbLine
 10
89.7036032931
 20
78.4782160024
 30
0.0
 11
90.7700095505
 21
78.4782160024
 31
0.0
  0
LINE
  5
237
330
22F
100
AcDbEntity
  8
SK2
100
AcDbLine
 10
99.8213986114
 20
84.0344659935
 30
0.0
 11
100.8878048689
 21
84.0344659935
 31
0.0
  0
LINE
  5
238
330
22F
100
AcDbEntity
  8
SK2
100
AcDbLine
 10
100.8878048689
 20
84.0344659935
 30
0.0
 11
100.8878048689
 21
78.4782160024
 31
0.0
  0
LINE
  5
239
330
22F
100
AcDbEntity
  8
SK2
100
AcDbLine
 10
100.8878048689
 20
78.4782160024
 30
0.0
 11
99.8213986114
 21
78.4782160024
 31
0.0
  0
LINE
  5
23A
330
22F
100
AcDbEntity
  8
SK2
100
AcDbLine
 10
19.05
 20
47.5560855313
 30
0.0
 11
19.05
 21
74.2415842774
 31
0.0
  0
LINE
  5
23B
330
22F
100
AcDbEntity
  8
SK2
100
AcDbLine
 10
196.85
 20
14.21
 30
0.0
 11
196.85
 21
74.2415842774
 31
0.0
  0
LINE
  5
23C
330
22F
100
AcDbEntity
  8
SK2
100
AcDbLine
 10
19.05
 20
73.2415842774
 30
0.0
 11
196.85
 21
73.2415842774
 31
0.0
  0
MTEXT
  5
23D
330
22F
100
AcDbEntity
  8
SK2
100
AcDbMText
 10
88.6566414388
 20
77.8067935433
 30
0.0
 40
3.5
 41
0.0
 71
     1
 72
     1
  1

  7
SLDTEXTSTYLE0
 73
     1
 44
1.0
  0
MTEXT
  5
23E
330
22F
100
AcDbEntity
  8
SK2
100
AcDbMText
 10
90.7700095505
 20
82.989952917
 30
0.0
 40
3.5
 41
0.0
 71
     1
 72
     1
  1
7,00
  7
SLDTEXTSTYLE0
 73
     1
 44
1.0
  0
MTEXT
  5
23F
330
22F
100
AcDbEntity
  8
SK2
100
AcDbMText
 10
89.4769538373
 20
77.7533213666
 30
0.0
 40
3.5
 41
0.0
 71
     1
 72
     1
  1
177,8
  7
SLDTEXTSTYLE0
 73
     1
 44
1.0
  0
MTEXT
  5
240
330
22F
100
AcDbEntity
  8
SK2
100
AcDbMText
 10
103.2667112427
 20
77.8067935433
 30
0.0
 40
3.5
 41
0.0
 71
     1
 72
     1
  1

  7
SLDTEXTSTYLE0
 73
     1
 44
1.0
  0
ENDBLK
  5
231
330
22F
100
AcDbEntity
  8
0
100
AcDbBlockEnd
  0
BLOCK
  5
243
330
242
100
AcDbEntity
  8
0
100
AcDbBlockBegin
  2
_D_2
 70
     0
 10
0.0
 20
0.0
 30
0.0
  3
_D_2
  1

  0
SOLID
  5
245
330
242
100
AcDbEntity
  8
SK2
100
AcDbTrace
 10
35.1
 20
58.9480694035
 30
0.0
 11
38.402
 21
58.4400694035
 31
0.0
 12
38.402
 22
59.4560694035
 32
0.0
 13
38.402
 23
59.4560694035
 33
0.0
  0
SOLID
  5
246
330
242
100
AcDbEntity
  8
SK2
100
AcDbTrace
 10
196.85
 20
58.9480694035
 30
0.0
 11
193.548
 21
59.4560694035
 31
0.0
 12
193.548
 22
58.4400694035
 32
0.0
 13
193.548
 23
58.4400694035
 33
0.0
  0
LINE
  5
247
330
242
100
AcDbEntity
  8
SK2
100
AcDbLine
 10
96.3753095011
 20
69.7409511195
 30
0.0
 11
95.3089032436
 21
69.7409511195
 31
0.0
  0
LINE
  5
248
330
242
100
AcDbEntity
  8
SK2
100
AcDbLine
 10
95.3089032436
 20
69.7409511195
 30
0.0
 11
95.3089032436
 21
64.1847011284
 31
0.0
  0
LINE
  5
249
330
242
100
AcDbEntity
  8
SK2
100
AcDbLine
 10
95.3089032436
 20
64.1847011284
 30
0.0
 11
96.3753095011
 21
64.1847011284
 31
0.0
  0
LINE
  5
24A
330
242
100
AcDbEntity
  8
SK2
100
AcDbLine
 10
105.426698562
 20
69.7409511195
 30
0.0
 11
106.4931048194
 21
69.7409511195
 31
0.0
  0
LINE
  5
24B
330
242
100
AcDbEntity
  8
SK2
100
AcDbLine
 10
106.4931048194
 20
69.7409511195
 30
0.0
 11
106.4931048194
 21
64.1847011284
 31
0.0
  0
LINE
  5
24C
330
242
100
AcDbEntity
  8
SK2
100
AcDbLine
 10
106.4931048194
 20
64.1847011284
 30
0.0
 11
105.426698562
 21
64.1847011284
 31
0.0
  0
LINE
  5
24D
330
242
100
AcDbEntity
  8
SK2
100
AcDbLine
 10
35.1
 20
34.401
 30
0.0
 11
35.1
 21
59.9480694035
 31
0.0
  0
LINE
  5
24E
330
242
100
AcDbEntity
  8
SK2
100
AcDbLine
 10
196.85
 20
14.21
 30
0.0
 11
196.85
 21
59.9480694035
 31
0.0
  0
LINE
  5
24F
330
242
100
AcDbEntity
  8
SK2
100
AcDbLine
 10
35.1
 20
58.9480694035
 30
0.0
 11
196.85
 21
58.9480694035
 31
0.0
  0
MTEXT
  5
250
330
242
100
AcDbEntity
  8
SK2
100
AcDbMText
 10
93.808642478
 20
63.5132786693
 30
0.0
 40
3.5
 41
0.0
 71
     1
 72
     1
  1

  7
SLDTEXTSTYLE0
 73
     1
 44
1.0
  0
MTEXT
  5
251
330
242
100
AcDbEntity
  8
SK2
100
AcDbMText
 10
96.3753095011
 20
68.696438043
 30
0.0
 40
3.5
 41
0.0
 71
     1
 72
     1
  1
6,37
  7
SLDTEXTSTYLE0
 73
     1
 44
1.0
  0
MTEXT
  5
252
330
242
100
AcDbEntity
  8
SK2
100
AcDbMText
 10
93.7891980747
 20
63.4598064927
 30
0.0
 40
3.5
 41
0.0
 71
     1
 72
     1
  1
161,75
  7
SLDTEXTSTYLE0
 73
     1
 44
1.0
  0
MTEXT
  5
253
330
242
100
AcDbEntity
  8
SK2
100
AcDbMText
 10
109.3253101048
 20
63.5132786693
 30
0.0
 40
3.5
 41
0.0
 71
     1
 72
     1
  1

  7
SLDTEXTSTYLE0
 73
     1
 44
1.0
  0
ENDBLK
  5
244
330
242
100
AcDbEntity
  8
0
100
AcDbBlockEnd
  0
BLOCK
  5
256
330
255
100
AcDbEntity
  8
0
100
AcDbBlockBegin
  2
_D_3
 70
     0
 10
0.0
 20
0.0
 30
0.0
  3
_D_3
  1

  0
SOLID
  5
258
330
255
100
AcDbEntity
  8
SK2
100
AcDbTrace
 10
88.9
 20
45.4953495221
 30
0.0
 11
92.202
 21
44.9873495221
 31
0.0
 12
92.202
 22
46.0033495221
 32
0.0
 13
92.202
 23
46.0033495221
 33
0.0
  0
SOLID
  5
259
330
255
100
AcDbEntity
  8
SK2
100
AcDbTrace
 10
196.85
 20
45.4953495221
 30
0.0
 11
193.548
 21
46.0033495221
 31
0.0
 12
193.548
 22
44.9873495221
 32
0.0
 13
193.548
 23
44.9873495221
 33
0.0
  0
LINE
  5
25A
330
255
100
AcDbEntity
  8
SK2
100
AcDbLine
 10
132.8097591798
 20
56.2882312381
 30
0.0
 11
131.7433529223
 21
56.2882312381
 31
0.0
  0
LINE
  5
25B
330
255
100
AcDbEntity
  8
SK2
100
AcDbLine
 10
131.7433529223
 20
56.2882312381
 30
0.0
 11
131.7433529223
 21
50.7319812471
 31
0.0
  0
LINE
  5
25C
330
255
100
AcDbEntity
  8
SK2
100
AcDbLine
 10
131.7433529223
 20
50.7319812471
 30
0.0
 11
132.8097591798
 21
50.7319812471
 31
0.0
  0
LINE
  5
25D
330
255
100
AcDbEntity
  8
SK2
100
AcDbLine
 10
141.8611482407
 20
56.2882312381
 30
0.0
 11
142.9275544982
 21
56.2882312381
 31
0.0
  0
LINE
  5
25E
330
255
100
AcDbEntity
  8
SK2
100
AcDbLine
 10
142.9275544982
 20
56.2882312381
 30
0.0
 11
142.9275544982
 21
50.7319812471
 31
0.0
  0
LINE
  5
25F
330
255
100
AcDbEntity
  8
SK2
100
AcDbLine
 10
142.9275544982
 20
50.7319812471
 30
0.0
 11
141.8611482407
 21
50.7319812471
 31
0.0
  0
LINE
  5
260
330
255
100
AcDbEntity
  8
SK2
100
AcDbLine
 10
88.9
 20
20.05
 30
0.0
 11
88.9
 21
46.4953495221
 31
0.0
  0
LINE
  5
261
330
255
100
AcDbEntity
  8
SK2
100
AcDbLine
 10
196.85
 20
14.21
 30
0.0
 11
196.85
 21
46.4953495221
 31
0.0
  0
LINE
  5
262
330
255
100
AcDbEntity
  8
SK2
100
AcDbLine
 10
88.9
 20
45.4953495221
 30
0.0
 11
196.85
 21
45.4953495221
 31
0.0
  0
MTEXT
  5
263
330
255
100
AcDbEntity
  8
SK2
100
AcDbMText
 10
130.2430921567
 20
50.0605587879
 30
0.0
 40
3.5
 41
0.0
 71
     1
 72
     1
  1

  7
SLDTEXTSTYLE0
 73
     1
 44
1.0
  0
MTEXT
  5
264
330
255
100
AcDbEntity
  8
SK2
100
AcDbMText
 10
132.8097591798
 20
55.2437181616
 30
0.0
 40
3.5
 41
0.0
 71
     1
 72
     1
  1
4,25
  7
SLDTEXTSTYLE0
 73
     1
 44
1.0
  0
MTEXT
  5
265
330
255
100
AcDbEntity
  8
SK2
100
AcDbMText
 10
130.2236477534
 20
50.0070866113
 30
0.0
 40
3.5
 41
0.0
 71
     1
 72
     1
  1
107,95
  7
SLDTEXTSTYLE0
 73
     1
 44
1.0
  0
MTEXT
  5
266
330
255
100
AcDbEntity
  8
SK2
100
AcDbMText
 10
145.7597597835
 20
50.0605587879
 30
0.0
 40
3.5
 41
0.0
 71
     1
 72
     1
  1

  7
SLDTEXTSTYLE0
 73
     1
 44
1.0
  0
ENDBLK
  5
257
330
255
100
AcDbEntity
  8
0
100
AcDbBlockEnd
  0
BLOCK
  5
269
330
268
100
AcDbEntity
  8
0
100
AcDbBlockBegin
  2
_D_4
 70
     0
 10
0.0
 20
0.0
 30
0.0
  3
_D_4
  1

  0
SOLID
  5
26B
330
268
100
AcDbEntity
  8
SK2
100
AcDbTrace
 10
173.025
 20
32.6031596358
 30
0.0
 11
176.327
 21
32.0951596358
 31
0.0
 12
176.327
 22
33.1111596358
 32
0.0
 13
176.327
 23
33.1111596358
 33
0.0
  0
SOLID
  5
26C
330
268
100
AcDbEntity
  8
SK2
100
AcDbTrace
 10
196.85
 20
32.6031596358
 30
0.0
 11
193.548
 21
33.1111596358
 31
0.0
 12
193.548
 22
32.0951596358
 32
0.0
 13
193.548
 23
32.0951596358
 33
0.0
  0
LINE
  5
26D
330
268
100
AcDbEntity
  8
SK2
100
AcDbLine
 10
179.053483772
 20
43.3960413518
 30
0.0
 11
177.9870775146
 21
43.3960413518
 31
0.0
  0
LINE
  5
26E
330
268
100
AcDbEntity
  8
SK2
100
AcDbLine
 10
177.9870775146
 20
43.3960413518
 30
0.0
 11
177.9870775146
 21
37.8397913607
 31
0.0
  0
LINE
  5
26F
330
268
100
AcDbEntity
  8
SK2
100
AcDbLine
 10
177.9870775146
 20
37.8397913607
 30
0.0
 11
179.053483772
 21
37.8397913607
 31
0.0
  0
LINE
  5
270
330
268
100
AcDbEntity
  8
SK2
100
AcDbLine
 10
188.1048728329
 20
43.3960413518
 30
0.0
 11
189.1712790904
 21
43.3960413518
 31
0.0
  0
LINE
  5
271
330
268
100
AcDbEntity
  8
SK2
100
AcDbLine
 10
189.1712790904
 20
43.3960413518
 30
0.0
 11
189.1712790904
 21
37.8397913607
 31
0.0
  0
LINE
  5
272
330
268
100
AcDbEntity
  8
SK2
100
AcDbLine
 10
189.1712790904
 20
37.8397913607
 30
0.0
 11
188.1048728329
 21
37.8397913607
 31
0.0
  0
LINE
  5
273
330
268
100
AcDbEntity
  8
SK2
100
AcDbLine
 10
173.025
 20
20.3
 30
0.0
 11
173.025
 21
33.6031596358
 31
0.0
  0
LINE
  5
274
330
268
100
AcDbEntity
  8
SK2
100
AcDbLine
 10
196.85
 20
14.21
 30
0.0
 11
196.85
 21
33.6031596358
 31
0.0
  0
LINE
  5
275
330
268
100
AcDbEntity
  8
SK2
100
AcDbLine
 10
173.025
 20
32.6031596358
 30
0.0
 11
196.85
 21
32.6031596358
 31
0.0
  0
MTEXT
  5
276
330
268
100
AcDbEntity
  8
SK2
100
AcDbMText
 10
176.9401156604
 20
37.1683689016
 30
0.0
 40
3.5
 41
0.0
 71
     1
 72
     1
  1

  7
SLDTEXTSTYLE0
 73
     1
 44
1.0
  0
MTEXT
  5
277
330
268
100
AcDbEntity
  8
SK2
100
AcDbMText
 10
179.053483772
 20
42.3515282753
 30
0.0
 40
3.5
 41
0.0
 71
     1
 72
     1
  1
0,94
  7
SLDTEXTSTYLE0
 73
     1
 44
1.0
  0
MTEXT
  5
278
330
268
100
AcDbEntity
  8
SK2
100
AcDbMText
 10
177.7604280588
 20
37.114896725
 30
0.0
 40
3.5
 41
0.0
 71
     1
 72
     1
  1
23,83
  7
SLDTEXTSTYLE0
 73
     1
 44
1.0
  0
MTEXT
  5
279
330
268
100
AcDbEntity
  8
SK2
100
AcDbMText
 10
191.5501854643
 20
37.1683689016
 30
0.0
 40
3.5
 41
0.0
 71
     1
 72
     1
  1

  7
SLDTEXTSTYLE0
 73
     1
 44
1.0
  0
ENDBLK
  5
26A
330
268
100
AcDbEntity
  8
0
100
AcDbBlockEnd
  0
BLOCK
  5
27D
330
27C
100
AcDbEntity
  8
0
100
AcDbBlockBegin
  2
_D_5
 70
     0
 10
0.0
 20
0.0
 30
0.0
  3
_D_5
  1

  0
SOLID
  5
27F
330
27C
100
AcDbEntity
  8
SK2
100
AcDbTrace
 10
215.5717020016
 20
-7.9375
 30
0.0
 11
215.0637020016
 21
-11.2395
 31
0.0
 12
216.0797020016
 22
-11.2395
 32
0.0
 13
216.0797020016
 23
-11.2395
 33
0.0
  0
SOLID
  5
280
330
27C
100
AcDbEntity
  8
SK2
100
AcDbTrace
 10
215.5717020016
 20
7.9375
 30
0.0
 11
216.0797020016
 21
11.2395
 31
0.0
 12
215.0637020016
 22
11.2395
 32
0.0
 13
215.0637020016
 23
11.2395
 33
0.0
  0
LINE
  5
281
330
27C
100
AcDbEntity
  8
SK2
100
AcDbLine
 10
204.7788202855
 20
23.6467496996
 30
0.0
 11
204.7788202855
 21
22.5803434421
 31
0.0
  0
LINE
  5
282
330
27C
100
AcDbEntity
  8
SK2
100
AcDbLine
 10
204.7788202855
 20
22.5803434421
 30
0.0
 11
210.3350702766
 21
22.5803434421
 31
0.0
  0
LINE
  5
283
330
27C
100
AcDbEntity
  8
SK2
100
AcDbLine
 10
210.3350702766
 20
22.5803434421
 30
0.0
 11
210.3350702766
 21
23.6467496996
 31
0.0
  0
LINE
  5
284
330
27C
100
AcDbEntity
  8
SK2
100
AcDbLine
 10
204.7788202855
 20
35.2842501869
 30
0.0
 11
204.7788202855
 21
36.3506564443
 31
0.0
  0
LINE
  5
285
330
27C
100
AcDbEntity
  8
SK2
100
AcDbLine
 10
204.7788202855
 20
36.3506564443
 30
0.0
 11
210.3350702766
 21
36.3506564443
 31
0.0
  0
LINE
  5
286
330
27C
100
AcDbEntity
  8
SK2
100
AcDbLine
 10
210.3350702766
 20
36.3506564443
 30
0.0
 11
210.3350702766
 21
35.2842501869
 31
0.0
  0
LINE
  5
287
330
27C
100
AcDbEntity
  8
SK2
100
AcDbLine
 10
196.35
 20
-7.9375
 30
0.0
 11
216.5717020016
 21
-7.9375
 31
0.0
  0
LINE
  5
288
330
27C
100
AcDbEntity
  8
SK2
100
AcDbLine
 10
196.35
 20
7.9375
 30
0.0
 11
216.5717020016
 21
7.9375
 31
0.0
  0
LINE
  5
289
330
27C
100
AcDbEntity
  8
SK2
100
AcDbLine
 10
215.5717020016
 20
-7.9375
 30
0.0
 11
215.5717020016
 21
-14.2875
 31
0.0
  0
LINE
  5
28A
330
27C
100
AcDbEntity
  8
SK2
100
AcDbLine
 10
215.5717020016
 20
-7.9375
 30
0.0
 11
215.5717020016
 21
7.9375
 31
0.0
  0
LINE
  5
28B
330
27C
100
AcDbEntity
  8
SK2
100
AcDbLine
 10
215.5717020016
 20
7.9375
 30
0.0
 11
215.5717020016
 21
39.2165241336
 31
0.0
  0
MTEXT
  5
28C
330
27C
100
AcDbEntity
  8
SK2
100
AcDbMText
 10
205.823333362
 20
23.6467496996
 30
0.0
 40
3.5
 41
0.0
 71
     1
 72
     1
  1
0,625
  7
SLDTEXTSTYLE0
 11
5.053215498074303E-16
 21
1.0
 31
0.0
 73
     1
 44
1.0
  0
MTEXT
  5
28D
330
27C
100
AcDbEntity
  8
SK2
100
AcDbMText
 10
211.0599649124
 20
19.7144748216
 30
0.0
 40
3.5
 41
0.0
 71
     1
 72
     1
  1
%%c
  7
SLDTEXTSTYLE0
 11
5.053215498074303E-16
 21
1.0
 31
0.0
 73
     1
 44
1.0
  0
MTEXT
  5
28E
330
27C
100
AcDbEntity
  8
SK2
100
AcDbMText
 10
211.0599649124
 20
24.9929122199
 30
0.0
 40
3.5
 41
0.0
 71
     1
 72
     1
  1
15,875
  7
SLDTEXTSTYLE0
 11
5.053215498074303E-16
 21
1.0
 31
0.0
 73
     1
 44
1.0
  0
ENDBLK
  5
27E
330
27C
100
AcDbEntity
  8
0
100
AcDbBlockEnd
  0
BLOCK
  5
291
330
290
100
AcDbEntity
  8
0
100
AcDbBlockBegin
  2
_D_6
 70
     0
 10
0.0
 20
0.0
 30
0.0
  3
_D_6
  1

  0
SOLID
  5
293
330
290
100
AcDbEntity
  8
SK2
100
AcDbTrace
 10
231.1497370306
 20
13.21
 30
0.0
 11
230.6417370306
 21
9.908
 31
0.0
 12
231.6577370306
 22
9.908
 32
0.0
 13
231.6577370306
 23
9.908
 33
0.0
  0
SOLID
  5
294
330
290
100
AcDbEntity
  8
SK2
100
AcDbTrace
 10
231.1497370306
 20
-13.21
 30
0.0
 11
231.6577370306
 21
-9.908
 31
0.0
 12
230.6417370306
 22
-9.908
 32
0.0
 13
230.6417370306
 23
-9.908
 33
0.0
  0
LINE
  5
295
330
290
100
AcDbEntity
  8
SK2
100
AcDbLine
 10
220.3568553145
 20
-4.2539304263
 30
0.0
 11
220.3568553145
 21
-5.3203366837
 31
0.0
  0
LINE
  5
296
330
290
100
AcDbEntity
  8
SK2
100
AcDbLine
 10
220.3568553145
 20
-5.3203366837
 30
0.0
 11
225.9131053056
 21
-5.3203366837
 31
0.0
  0
LINE
  5
297
330
290
100
AcDbEntity
  8
SK2
100
AcDbLine
 10
225.9131053056
 20
-5.3203366837
 30
0.0
 11
225.9131053056
 21
-4.2539304263
 31
0.0
  0
LINE
  5
298
330
290
100
AcDbEntity
  8
SK2
100
AcDbLine
 10
220.3568553145
 20
4.7974586346
 30
0.0
 11
220.3568553145
 21
5.8638648921
 31
0.0
  0
LINE
  5
299
330
290
100
AcDbEntity
  8
SK2
100
AcDbLine
 10
220.3568553145
 20
5.8638648921
 30
0.0
 11
225.9131053056
 21
5.8638648921
 31
0.0
  0
LINE
  5
29A
330
290
100
AcDbEntity
  8
SK2
100
AcDbLine
 10
225.9131053056
 20
5.8638648921
 30
0.0
 11
225.9131053056
 21
4.7974586346
 31
0.0
  0
LINE
  5
29B
330
290
100
AcDbEntity
  8
SK2
100
AcDbLine
 10
197.85
 20
13.21
 30
0.0
 11
232.1497370306
 21
13.21
 31
0.0
  0
LINE
  5
29C
330
290
100
AcDbEntity
  8
SK2
100
AcDbLine
 10
197.85
 20
-13.21
 30
0.0
 11
232.1497370306
 21
-13.21
 31
0.0
  0
LINE
  5
29D
330
290
100
AcDbEntity
  8
SK2
100
AcDbLine
 10
231.1497370306
 20
13.21
 30
0.0
 11
231.1497370306
 21
-13.21
 31
0.0
  0
MTEXT
  5
29E
330
290
100
AcDbEntity
  8
SK2
100
AcDbMText
 10
221.401368391
 20
-4.2539304263
 30
0.0
 40
3.5
 41
0.0
 71
     1
 72
     1
  1
1,04
  7
SLDTEXTSTYLE0
 11
-7.044195017643634E-15
 21
1.0
 31
0.0
 73
     1
 44
1.0
  0
MTEXT
  5
29F
330
290
100
AcDbEntity
  8
SK2
100
AcDbMText
 10
226.6379999414
 20
-8.1862048387
 30
0.0
 40
3.5
 41
0.0
 71
     1
 72
     1
  1
%%c
  7
SLDTEXTSTYLE0
 11
-7.044195017643634E-15
 21
1.0
 31
0.0
 73
     1
 44
1.0
  0
MTEXT
  5
2A0
330
290
100
AcDbEntity
  8
SK2
100
AcDbMText
 10
226.6379999414
 20
-2.9077674403
 30
0.0
 40
3.5
 41
0.0
 71
     1
 72
     1
  1
26,42
  7
SLDTEXTSTYLE0
 11
-7.044195017643634E-15
 21
1.0
 31
0.0
 73
     1
 44
1.0
  0
ENDBLK
  5
292
330
290
100
AcDbEntity
  8
0
100
AcDbBlockEnd
  0
BLOCK
  5
2A3
330
2A2
100
AcDbEntity
  8
0
100
AcDbBlockBegin
  2
_D_7
 70
     0
 10
0.0
 20
0.0
 30
0.0
  3
_D_7
  1

  0
SOLID
  5
2A5
330
2A2
100
AcDbEntity
  8
SK2
100
AcDbTrace
 10
246.8932662137
 20
19.05
 30
0.0
 11
246.3852662137
 21
15.748
 31
0.0
 12
247.4012662137
 22
15.748
 32
0.0
 13
247.4012662137
 23
15.748
 33
0.0
  0
SOLID
  5
2A6
330
2A2
100
AcDbEntity
  8
SK2
100
AcDbTrace
 10
246.8932662137
 20
-19.05
 30
0.0
 11
247.4012662137
 21
-15.748
 31
0.0
 12
246.3852662137
 22
-15.748
 32
0.0
 13
246.3852662137
 23
-15.748
 33
0.0
  0
LINE
  5
2A7
330
2A2
100
AcDbEntity
  8
SK2
100
AcDbLine
 10
236.1003844977
 20
-5.2696203989
 30
0.0
 11
236.1003844977
 21
-6.3360266564
 31
0.0
  0
LINE
  5
2A8
330
2A2
100
AcDbEntity
  8
SK2
100
AcDbLine
 10
236.1003844977
 20
-6.3360266564
 30
0.0
 11
241.6566344887
 21
-6.3360266564
 31
0.0
  0
LINE
  5
2A9
330
2A2
100
AcDbEntity
  8
SK2
100
AcDbLine
 10
241.6566344887
 20
-6.3360266564
 30
0.0
 11
241.6566344887
 21
-5.2696203989
 31
0.0
  0
LINE
  5
2AA
330
2A2
100
AcDbEntity
  8
SK2
100
AcDbLine
 10
236.1003844977
 20
3.781768662
 30
0.0
 11
236.1003844977
 21
4.8481749194
 31
0.0
  0
LINE
  5
2AB
330
2A2
100
AcDbEntity
  8
SK2
100
AcDbLine
 10
236.1003844977
 20
4.8481749194
 30
0.0
 11
241.6566344887
 21
4.8481749194
 31
0.0
  0
LINE
  5
2AC
330
2A2
100
AcDbEntity
  8
SK2
100
AcDbLine
 10
241.6566344887
 20
4.8481749194
 30
0.0
 11
241.6566344887
 21
3.781768662
 31
0.0
  0
LINE
  5
2AD
330
2A2
100
AcDbEntity
  8
SK2
100
AcDbLine
 10
192.01
 20
19.05
 30
0.0
 11
247.8932662137
 21
19.05
 31
0.0
  0
LINE
  5
2AE
330
2A2
100
AcDbEntity
  8
SK2
100
AcDbLine
 10
192.01
 20
-19.05
 30
0.0
 11
247.8932662137
 21
-19.05
 31
0.0
  0
LINE
  5
2AF
330
2A2
100
AcDbEntity
  8
SK2
100
AcDbLine
 10
246.8932662137
 20
19.05
 30
0.0
 11
246.8932662137
 21
-19.05
 31
0.0
  0
MTEXT
  5
2B0
330
2A2
100
AcDbEntity
  8
SK2
100
AcDbMText
 10
242.3280569478
 20
-7.3829885106
 30
0.0
 40
3.5
 41
0.0
 71
     1
 72
     1
  1

  7
SLDTEXTSTYLE0
 11
-7.044195017643634E-15
 21
1.0
 31
0.0
 73
     1
 44
1.0
  0
MTEXT
  5
2B1
330
2A2
100
AcDbEntity
  8
SK2
100
AcDbMText
 10
237.1448975741
 20
-5.2696203989
 30
0.0
 40
3.5
 41
0.0
 71
     1
 72
     1
  1
1,50
  7
SLDTEXTSTYLE0
 11
-7.044195017643634E-15
 21
1.0
 31
0.0
 73
     1
 44
1.0
  0
MTEXT
  5
2B2
330
2A2
100
AcDbEntity
  8
SK2
100
AcDbMText
 10
242.3815291245
 20
-5.2696203989
 30
0.0
 40
3.5
 41
0.0
 71
     1
 72
     1
  1
38,1
  7
SLDTEXTSTYLE0
 11
-7.044195017643634E-15
 21
1.0
 31
0.0
 73
     1
 44
1.0
  0
MTEXT
  5
2B3
330
2A2
100
AcDbEntity
  8
SK2
100
AcDbMText
 10
242.3280569478
 20
7.2270812933
 30
0.0
 40
3.5
 41
0.0
 71
     1
 72
     1
  1

  7
SLDTEXTSTYLE0
 11
-7.044195017643634E-15
 21
1.0
 31
0.0
 73
     1
 44
1.0
  0
ENDBLK
  5
2A4
330
2A2
100
AcDbEntity
  8
0
100
AcDbBlockEnd
  0
BLOCK
  5
2B7
330
2B6
100
AcDbEntity
  8
0
100
AcDbBlockBegin
  2
_D_8
 70
     0
 10
0.0
 20
0.0
 30
0.0
  3
_D_8
  1

  0
SOLID
  5
2B9
330
2B6
100
AcDbEntity
  8
SK2
100
AcDbTrace
 10
196.85
 20
-67.9091950774
 30
0.0
 11
193.548
 21
-67.4011950774
 31
0.0
 12
193.548
 22
-68.4171950774
 32
0.0
 13
193.548
 23
-68.4171950774
 33
0.0
  0
SOLID
  5
2BA
330
2B6
100
AcDbEntity
  8
SK2
100
AcDbTrace
 10
-101.6
 20
-67.9091950774
 30
0.0
 11
-98.298
 21
-68.4171950774
 31
0.0
 12
-98.298
 22
-67.4011950774
 32
0.0
 13
-98.298
 23
-67.4011950774
 33
0.0
  0
LINE
  5
2BB
330
2B6
100
AcDbEntity
  8
SK2
100
AcDbLine
 10
57.592106281
 20
-57.1163133614
 30
0.0
 11
56.5257000235
 21
-57.1163133614
 31
0.0
  0
LINE
  5
2BC
330
2B6
100
AcDbEntity
  8
SK2
100
AcDbLine
 10
56.5257000235
 20
-57.1163133614
 30
0.0
 11
56.5257000235
 21
-62.6725633524
 31
0.0
  0
LINE
  5
2BD
330
2B6
100
AcDbEntity
  8
SK2
100
AcDbLine
 10
56.5257000235
 20
-62.6725633524
 30
0.0
 11
57.592106281
 21
-62.6725633524
 31
0.0
  0
LINE
  5
2BE
330
2B6
100
AcDbEntity
  8
SK2
100
AcDbLine
 10
71.8157181946
 20
-57.1163133614
 30
0.0
 11
72.882124452
 21
-57.1163133614
 31
0.0
  0
LINE
  5
2BF
330
2B6
100
AcDbEntity
  8
SK2
100
AcDbLine
 10
72.882124452
 20
-57.1163133614
 30
0.0
 11
72.882124452
 21
-62.6725633524
 31
0.0
  0
LINE
  5
2C0
330
2B6
100
AcDbEntity
  8
SK2
100
AcDbLine
 10
72.882124452
 20
-62.6725633524
 30
0.0
 11
71.8157181946
 21
-62.6725633524
 31
0.0
  0
LINE
  5
2C1
330
2B6
100
AcDbEntity
  8
SK2
100
AcDbLine
 10
196.85
 20
-9.7963857286
 30
0.0
 11
196.85
 21
-68.9091950774
 31
0.0
  0
LINE
  5
2C2
330
2B6
100
AcDbEntity
  8
SK2
100
AcDbLine
 10
-101.6
 20
-19.2922326599
 30
0.0
 11
-101.6
 21
-68.9091950774
 31
0.0
  0
LINE
  5
2C3
330
2B6
100
AcDbEntity
  8
SK2
100
AcDbLine
 10
196.85
 20
-67.9091950774
 30
0.0
 11
-101.6
 21
-67.9091950774
 31
0.0
  0
MTEXT
  5
2C4
330
2B6
100
AcDbEntity
  8
SK2
100
AcDbMText
 10
55.4787381693
 20
-63.3439858116
 30
0.0
 40
3.5
 41
0.0
 71
     1
 72
     1
  1

  7
SLDTEXTSTYLE0
 73
     1
 44
1.0
  0
MTEXT
  5
2C5
330
2B6
100
AcDbEntity
  8
SK2
100
AcDbMText
 10
57.592106281
 20
-58.1608264379
 30
0.0
 40
3.5
 41
0.0
 71
     1
 72
     1
  1
11,750
  7
SLDTEXTSTYLE0
 73
     1
 44
1.0
  0
MTEXT
  5
2C6
330
2B6
100
AcDbEntity
  8
SK2
100
AcDbMText
 10
57.5921058153
 20
-63.3974579882
 30
0.0
 40
3.5
 41
0.0
 71
     1
 72
     1
  1
298,45
  7
SLDTEXTSTYLE0
 73
     1
 44
1.0
  0
MTEXT
  5
2C7
330
2B6
100
AcDbEntity
  8
SK2
100
AcDbMText
 10
75.2610298946
 20
-63.3439858116
 30
0.0
 40
3.5
 41
0.0
 71
     1
 72
     1
  1

  7
SLDTEXTSTYLE0
 73
     1
 44
1.0
  0
ENDBLK
  5
2B8
330
2B6
100
AcDbEntity
  8
0
100
AcDbBlockEnd
  0
BLOCK
  5
2CA
330
2C9
100
AcDbEntity
  8
0
100
AcDbBlockBegin
  2
_D_9
 70
     0
 10
0.0
 20
0.0
 30
0.0
  3
_D_9
  1

  0
SOLID
  5
2CC
330
2C9
100
AcDbEntity
  8
SK2
100
AcDbTrace
 10
149.1002750267
 20
-54.8705486501
 30
0.0
 11
152.4022750267
 21
-55.3785486501
 31
0.0
 12
152.4022750267
 22
-54.3625486501
 32
0.0
 13
152.4022750267
 23
-54.3625486501
 33
0.0
  0
SOLID
  5
2CD
330
2C9
100
AcDbEntity
  8
SK2
100
AcDbTrace
 10
196.85
 20
-54.8705486501
 30
0.0
 11
193.548
 21
-54.3625486501
 31
0.0
 12
193.548
 22
-55.3785486501
 32
0.0
 13
193.548
 23
-55.3785486501
 33
0.0
  0
LINE
  5
2CE
330
2C9
100
AcDbEntity
  8
SK2
100
AcDbLine
 10
171.6059054205
 20
-44.077666934
 30
0.0
 11
170.539499163
 21
-44.077666934
 31
0.0
  0
LINE
  5
2CF
330
2C9
100
AcDbEntity
  8
SK2
100
AcDbLine
 10
170.539499163
 20
-44.077666934
 30
0.0
 11
170.539499163
 21
-49.6339169251
 31
0.0
  0
LINE
  5
2D0
330
2C9
100
AcDbEntity
  8
SK2
100
AcDbLine
 10
170.539499163
 20
-49.6339169251
 30
0.0
 11
171.6059054205
 21
-49.6339169251
 31
0.0
  0
LINE
  5
2D1
330
2C9
100
AcDbEntity
  8
SK2
100
AcDbLine
 10
180.6572944814
 20
-44.077666934
 30
0.0
 11
181.7237007388
 21
-44.077666934
 31
0.0
  0
LINE
  5
2D2
330
2C9
100
AcDbEntity
  8
SK2
100
AcDbLine
 10
181.7237007388
 20
-44.077666934
 30
0.0
 11
181.7237007388
 21
-49.6339169251
 31
0.0
  0
LINE
  5
2D3
330
2C9
100
AcDbEntity
  8
SK2
100
AcDbLine
 10
181.7237007388
 20
-49.6339169251
 30
0.0
 11
180.6572944814
 21
-49.6339169251
 31
0.0
  0
LINE
  5
2D4
330
2C9
100
AcDbEntity
  8
SK2
100
AcDbLine
 10
149.1002750267
 20
-8.9375
 30
0.0
 11
149.1002750267
 21
-55.8705486501
 31
0.0
  0
LINE
  5
2D5
330
2C9
100
AcDbEntity
  8
SK2
100
AcDbLine
 10
196.85
 20
-14.21
 30
0.0
 11
196.85
 21
-55.8705486501
 31
0.0
  0
LINE
  5
2D6
330
2C9
100
AcDbEntity
  8
SK2
100
AcDbLine
 10
149.1002750267
 20
-54.8705486501
 30
0.0
 11
196.85
 21
-54.8705486501
 31
0.0
  0
MTEXT
  5
2D7
330
2C9
100
AcDbEntity
  8
SK2
100
AcDbMText
 10
169.4925373088
 20
-50.3053393842
 30
0.0
 40
3.5
 41
0.0
 71
     1
 72
     1
  1

  7
SLDTEXTSTYLE0
 73
     1
 44
1.0
  0
MTEXT
  5
2D8
330
2C9
100
AcDbEntity
  8
SK2
100
AcDbMText
 10
171.6059054205
 20
-45.1221800105
 30
0.0
 40
3.5
 41
0.0
 71
     1
 72
     1
  1
1,88
  7
SLDTEXTSTYLE0
 73
     1
 44
1.0
  0
MTEXT
  5
2D9
330
2C9
100
AcDbEntity
  8
SK2
100
AcDbMText
 10
170.3128497073
 20
-50.3588115609
 30
0.0
 40
3.5
 41
0.0
 71
     1
 72
     1
  1
47,75
  7
SLDTEXTSTYLE0
 73
     1
 44
1.0
  0
MTEXT
  5
2DA
330
2C9
100
AcDbEntity
  8
SK2
100
AcDbMText
 10
184.1026071127
 20
-50.3053393842
 30
0.0
 40
3.5
 41
0.0
 71
     1
 72
     1
  1

  7
SLDTEXTSTYLE0
 73
     1
 44
1.0
  0
ENDBLK
  5
2CB
330
2C9
100
AcDbEntity
  8
0
100
AcDbBlockEnd
  0
BLOCK
  5
2DE
330
2DD
100
AcDbEntity
  8
0
100
AcDbBlockBegin
  2
_D_10
 70
     0
 10
0.0
 20
0.0
 30
0.0
  3
_D_10
  1

  0
SOLID
  5
2E0
330
2DD
100
AcDbEntity
  8
SK2
100
AcDbTrace
 10
196.85
 20
-37.4658940941
 30
0.0
 11
200.152
 21
-37.9738940941
 31
0.0
 12
200.152
 22
-36.9578940941
 32
0.0
 13
200.152
 23
-36.9578940941
 33
0.0
  0
SOLID
  5
2E1
330
2DD
100
AcDbEntity
  8
SK2
100
AcDbTrace
 10
191.01
 20
-37.4658940941
 30
0.0
 11
187.708
 21
-36.9578940941
 31
0.0
 12
187.708
 22
-37.9738940941
 32
0.0
 13
187.708
 23
-37.9738940941
 33
0.0
  0
LINE
  5
2E2
330
2DD
100
AcDbEntity
  8
SK2
100
AcDbLine
 10
196.85
 20
-14.21
 30
0.0
 11
196.85
 21
-38.4658940941
 31
0.0
  0
LINE
  5
2E3
330
2DD
100
AcDbEntity
  8
SK2
100
AcDbLine
 10
191.01
 20
-20.05
 30
0.0
 11
191.01
 21
-38.4658940941
 31
0.0
  0
LINE
  5
2E4
330
2DD
100
AcDbEntity
  8
SK2
100
AcDbLine
 10
196.85
 20
-37.4658940941
 30
0.0
 11
203.2
 21
-37.4658940941
 31
0.0
  0
LINE
  5
2E5
330
2DD
100
AcDbEntity
  8
SK2
100
AcDbLine
 10
196.85
 20
-37.4658940941
 30
0.0
 11
191.01
 21
-37.4658940941
 31
0.0
  0
LINE
  5
2E6
330
2DD
100
AcDbEntity
  8
SK2
100
AcDbLine
 10
191.01
 20
-37.4658940941
 30
0.0
 11
179.0534834228
 21
-37.4658940941
 31
0.0
  0
MTEXT
  5
2E7
330
2DD
100
AcDbEntity
  8
SK2
100
AcDbMText
 10
179.0534834228
 20
-32.9541571795
 30
0.0
 40
3.5
 41
0.0
 71
     1
 72
     1
  1
5,84
  7
SLDTEXTSTYLE0
 73
     1
 44
1.0
  0
ENDBLK
  5
2DF
330
2DD
100
AcDbEntity
  8
0
100
AcDbBlockEnd
  0
BLOCK
  5
2EB
330
2EA
100
AcDbEntity
  8
0
100
AcDbBlockBegin
  2
_D_11
 70
     0
 10
0.0
 20
0.0
 30
0.0
  3
_D_11
  1

  0
SOLID
  5
2ED
330
2EA
100
AcDbEntity
  8
SK2
100
AcDbTrace
 10
0.0
 20
73.2415842774
 30
0.0
 11
3.302
 21
72.7335842774
 31
0.0
 12
3.302
 22
73.7495842774
 32
0.0
 13
3.302
 23
73.7495842774
 33
0.0
  0
SOLID
  5
2EE
330
2EA
100
AcDbEntity
  8
SK2
100
AcDbTrace
 10
19.05
 20
73.2415842774
 30
0.0
 11
15.748
 21
73.7495842774
 31
0.0
 12
15.748
 22
72.7335842774
 32
0.0
 13
15.748
 23
72.7335842774
 33
0.0
  0
LINE
  5
2EF
330
2EA
100
AcDbEntity
  8
SK2
100
AcDbLine
 10
0.0
 20
35.925
 30
0.0
 11
0.0
 21
74.2415842774
 31
0.0
  0
LINE
  5
2F0
330
2EA
100
AcDbEntity
  8
SK2
100
AcDbLine
 10
19.05
 20
47.5560855313
 30
0.0
 11
19.05
 21
74.2415842774
 31
0.0
  0
LINE
  5
2F1
330
2EA
100
AcDbEntity
  8
SK2
100
AcDbLine
 10
0.0
 20
73.2415842774
 30
0.0
 11
19.05
 21
73.2415842774
 31
0.0
  0
MTEXT
  5
2F2
330
2EA
100
AcDbEntity
  8
SK2
100
AcDbMText
 10
2.3306171815
 20
77.753321192
 30
0.0
 40
3.5
 41
0.0
 71
     1
 72
     1
  1
19,05
  7
SLDTEXTSTYLE0
 73
     1
 44
1.0
  0
ENDBLK
  5
2EC
330
2EA
100
AcDbEntity
  8
0
100
AcDbBlockEnd
  0
BLOCK
  5
2F5
330
2F4
100
AcDbEntity
  8
0
100
AcDbBlockBegin
  2
_D_12
 70
     0
 10
0.0
 20
0.0
 30
0.0
  3
_D_12
  1

  0
SOLID
  5
2F7
330
2F4
100
AcDbEntity
  8
SK2
100
AcDbTrace
 10
-122.6819600828
 20
-47.4754841997
 30
0.0
 11
-122.1739600828
 21
-44.1734841997
 31
0.0
 12
-123.1899600828
 22
-44.1734841997
 32
0.0
 13
-123.1899600828
 23
-44.1734841997
 33
0.0
  0
SOLID
  5
2F8
330
2F4
100
AcDbEntity
  8
SK2
100
AcDbTrace
 10
-122.6819600828
 20
47.2968145978
 30
0.0
 11
-123.1899600828
 21
43.9948145978
 31
0.0
 12
-122.1739600828
 22
43.9948145978
 32
0.0
 13
-122.1739600828
 23
43.9948145978
 33
0.0
  0
LINE
  5
2F9
330
2F4
100
AcDbEntity
  8
SK2
100
AcDbLine
 10
4.7701383033
 20
-47.4754841997
 30
0.0
 11
-123.6819600828
 21
-47.4754841997
 31
0.0
  0
LINE
  5
2FA
330
2F4
100
AcDbEntity
  8
SK2
100
AcDbLine
 10
2.95
 20
47.2968145978
 30
0.0
 11
-123.6819600828
 21
47.2968145978
 31
0.0
  0
LINE
  5
2FB
330
2F4
100
AcDbEntity
  8
SK2
100
AcDbLine
 10
-122.6819600828
 20
-47.4754841997
 30
0.0
 11
-122.6819600828
 21
47.2968145978
 31
0.0
  0
MTEXT
  5
2FC
330
2F4
100
AcDbEntity
  8
SK2
100
AcDbMText
 10
-127.193697172
 20
-9.2018951605
 30
0.0
 40
3.5
 41
0.0
 71
     1
 72
     1
  1
%%c
  7
SLDTEXTSTYLE0
 11
6.123233995736766E-17
 21
1.0
 31
0.0
 73
     1
 44
1.0
  0
MTEXT
  5
2FD
330
2F4
100
AcDbEntity
  8
SK2
100
AcDbMText
 10
-127.2471693487
 20
-3.9234577622
 30
0.0
 40
3.5
 41
0.0
 71
     1
 72
     1
  1
98,42
  7
SLDTEXTSTYLE0
 11
6.123233995736766E-17
 21
1.0
 31
0.0
 73
     1
 44
1.0
  0
ENDBLK
  5
2F6
330
2F4
100
AcDbEntity
  8
0
100
AcDbBlockEnd
  0
BLOCK
  5
300
330
2FF
100
AcDbEntity
  8
0
100
AcDbBlockBegin
  2
_D_13
 70
     0
 10
0.0
 20
0.0
 30
0.0
  3
_D_13
  1

  0
SOLID
  5
302
330
2FF
100
AcDbEntity
  8
SK2
100
AcDbTrace
 10
-112.0287164186
 20
12.6999998435
 30
0.0
 11
-112.5367164186
 21
9.3979998435
 31
0.0
 12
-111.5207164186
 22
9.3979998435
 32
0.0
 13
-111.5207164186
 23
9.3979998435
 33
0.0
  0
SOLID
  5
303
330
2FF
100
AcDbEntity
  8
SK2
100
AcDbTrace
 10
-112.0287164186
 20
-12.6999998465
 30
0.0
 11
-111.5207164186
 21
-9.3979998465
 31
0.0
 12
-112.5367164186
 22
-9.3979998465
 32
0.0
 13
-112.5367164186
 23
-9.3979998465
 33
0.0
  0
LINE
  5
304
330
2FF
100
AcDbEntity
  8
SK2
100
AcDbLine
 10
-95.967097044
 20
12.6999998435
 30
0.0
 11
-113.0287164186
 21
12.6999998435
 31
0.0
  0
LINE
  5
305
330
2FF
100
AcDbEntity
  8
SK2
100
AcDbLine
 10
-95.967097044
 20
-12.6999998465
 30
0.0
 11
-113.0287164186
 21
-12.6999998465
 31
0.0
  0
LINE
  5
306
330
2FF
100
AcDbEntity
  8
SK2
100
AcDbLine
 10
-112.0287164186
 20
12.6999998435
 30
0.0
 11
-112.0287164186
 21
-12.6999998465
 31
0.0
  0
MTEXT
  5
308
330
2FF
100
AcDbEntity
  8
SK2
100
AcDbMText
 10
-116.5404533332
 20
-10.1796253725
 30
0.0
 40
3.5
 41
0.0
 71
     1
 72
     1
  1
1 - 8 UNC
  7
SLDTEXTSTYLE1
 11
-7.044195017643634E-15
 21
1.0
 31
0.0
 73
     1
 44
1.0
  0
ENDBLK
  5
301
330
2FF
100
AcDbEntity
  8
0
100
AcDbBlockEnd
  0
ENDSEC
  0
SECTION
  2
ENTITIES
  0
LINE
  5
82
330
1F
100
AcDbEntity
  8
SK1
  6
SLD-Solid
370
    25
100
AcDbLine
 10
0.0
 20
34.925
 30
0.0
 11
-99.8030472773
 21
20.3702515116
 31
0.0
  0
LINE
  5
83
330
1F
100
AcDbEntity
  8
SK1
  6
SLD-Solid
370
    25
100
AcDbLine
 10
-99.8030472773
 20
-20.3702515116
 30
0.0
 11
0.0
 21
-34.925
 31
0.0
  0
LINE
  5
84
330
1F
100
AcDbEntity
  8
1
  6
SLD-Solid
370
    25
100
AcDbLine
 10
1.7476022729
 20
34.925
 30
0.0
 11
0.0
 21
34.925
 31
0.0
  0
LINE
  5
85
330
1F
100
AcDbEntity
  8
1
  6
SLD-Solid
370
    25
100
AcDbLine
 10
0.0
 20
-34.925
 30
0.0
 11
1.7476022729
 21
-34.925
 31
0.0
  0
LINE
  5
86
330
1F
100
AcDbEntity
  8
1
  6
SLD-Solid
370
    25
100
AcDbLine
 10
1.7476022729
 20
-34.925
 30
0.0
 11
2.1330363037
 21
-34.7452691597
 31
0.0
  0
LINE
  5
87
330
1F
100
AcDbEntity
  8
1
  6
SLD-Solid
370
    25
100
AcDbLine
 10
2.1330363037
 20
34.7452691597
 30
0.0
 11
1.7476022729
 21
34.925
 31
0.0
  0
LINE
  5
88
330
1F
100
AcDbEntity
  8
1
  6
SLD-Solid
370
    25
100
AcDbLine
 10
33.576
 20
34.925
 30
0.0
 11
19.812
 21
34.925
 31
0.0
  0
LINE
  5
89
330
1F
100
AcDbEntity
  8
1
  6
SLD-Solid
370
    25
100
AcDbLine
 10
19.812
 20
-34.925
 30
0.0
 11
33.576
 21
-34.925
 31
0.0
  0
LINE
  5
8A
330
1F
100
AcDbEntity
  8
1
  6
SLD-Solid
370
    25
100
AcDbLine
 10
36.4382711207
 20
-25.4914903447
 30
0.0
 11
88.9
 21
-19.05
 31
0.0
  0
LINE
  5
8B
330
1F
100
AcDbEntity
  8
1
  6
SLD-Solid
370
    25
100
AcDbLine
 10
88.9
 20
19.05
 30
0.0
 11
36.4382711207
 21
25.4914903447
 31
0.0
  0
LINE
  5
8C
330
1F
100
AcDbEntity
  8
1
  6
SLD-Solid
370
    25
100
AcDbLine
 10
165.275
 20
19.05
 30
0.0
 11
88.9
 21
19.05
 31
0.0
  0
LINE
  5
8D
330
1F
100
AcDbEntity
  8
1
  6
SLD-Solid
370
    25
100
AcDbLine
 10
191.01
 20
19.05
 30
0.0
 11
180.761576911
 21
19.05
 31
0.0
  0
LINE
  5
8E
330
1F
100
AcDbEntity
  8
1
  6
SLD-Solid
370
    25
100
AcDbLine
 10
182.2603468569
 20
-19.05
 30
0.0
 11
191.01
 21
-19.05
 31
0.0
  0
LINE
  5
8F
330
1F
100
AcDbEntity
  8
1
  6
SLD-Solid
370
    25
100
AcDbLine
 10
88.9
 20
-19.05
 30
0.0
 11
163.7784984679
 21
-19.05
 31
0.0
  0
LINE
  5
90
330
1F
100
AcDbEntity
  8
1
  6
SLD-Solid
370
    25
100
AcDbLine
 10
191.01
 20
-19.05
 30
0.0
 11
196.85
 21
-13.21
 31
0.0
  0
LINE
  5
91
330
1F
100
AcDbEntity
  8
1
  6
SLD-Solid
370
    25
100
AcDbLine
 10
196.85
 20
13.21
 30
0.0
 11
191.01
 21
19.05
 31
0.0
  0
LINE
  5
92
330
1F
100
AcDbEntity
  8
1
  6
SLD-Solid
370
    25
100
AcDbLine
 10
14.6397233934
 20
-47.4754841997
 30
0.0
 11
18.3
 21
-47.4754841997
 31
0.0
  0
LINE
  5
93
330
1F
100
AcDbEntity
  8
1
  6
SLD-Solid
370
    25
100
AcDbLine
 10
14.6397233934
 20
47.2968145978
 30
0.0
 11
14.6397233934
 21
-47.4754841997
 31
0.0
  0
LINE
  5
94
330
1F
100
AcDbEntity
  8
1
  6
SLD-Solid
370
    25
100
AcDbLine
 10
18.3
 20
47.2968145978
 30
0.0
 11
14.6397233934
 21
47.2968145978
 31
0.0
  0
LINE
  5
95
330
1F
100
AcDbEntity
  8
1
  6
SLD-Solid
370
    25
100
AcDbLine
 10
18.3
 20
-47.4754841997
 30
0.0
 11
18.3
 21
47.2968145978
 31
0.0
  0
LINE
  5
96
330
1F
100
AcDbEntity
  8
1
  6
SLD-Solid
370
    25
100
AcDbLine
 10
3.95
 20
-47.4754841997
 30
0.0
 11
7.5902766066
 21
-47.4754841997
 31
0.0
  0
LINE
  5
97
330
1F
100
AcDbEntity
  8
1
  6
SLD-Solid
370
    25
100
AcDbLine
 10
3.95
 20
47.2968145978
 30
0.0
 11
3.95
 21
-47.4754841997
 31
0.0
  0
LINE
  5
98
330
1F
100
AcDbEntity
  8
1
  6
SLD-Solid
370
    25
100
AcDbLine
 10
7.5902766066
 20
47.2968145978
 30
0.0
 11
3.95
 21
47.2968145978
 31
0.0
  0
LINE
  5
99
330
1F
100
AcDbEntity
  8
1
  6
SLD-Solid
370
    25
100
AcDbLine
 10
7.5902766066
 20
47.2968145978
 30
0.0
 11
7.5902766066
 21
-47.4754841997
 31
0.0
  0
LINE
  5
9A
330
1F
100
AcDbEntity
  8
1
  6
SLD-Solid
370
    25
100
AcDbLine
 10
3.2
 20
-46.6976348437
 30
0.0
 11
3.2
 21
46.5560855313
 31
0.0
  0
LINE
  5
9B
330
1F
100
AcDbEntity
  8
1
  6
SLD-Solid
370
    25
100
AcDbLine
 10
19.05
 20
46.5560855313
 30
0.0
 11
19.05
 21
-46.6976348437
 31
0.0
  0
LINE
  5
9C
330
1F
100
AcDbEntity
  8
1
  6
SLD-Solid
370
    25
100
AcDbLine
 10
9.2
 20
44.5790106634
 30
0.0
 11
9.2
 21
41.9587011964
 31
0.0
  0
LINE
  5
9D
330
1F
100
AcDbEntity
  8
1
  6
SLD-Solid
370
    25
100
AcDbLine
 10
9.2
 20
41.4830129515
 30
0.0
 11
9.2
 21
35.3885961177
 31
0.0
  0
LINE
  5
9E
330
1F
100
AcDbEntity
  8
1
  6
SLD-Solid
370
    25
100
AcDbLine
 10
9.2
 20
34.676688935
 30
0.0
 11
9.2
 21
-44.5790106634
 31
0.0
  0
LINE
  5
9F
330
1F
100
AcDbEntity
  8
1
  6
SLD-Solid
370
    25
100
AcDbLine
 10
13.03
 20
44.5790106634
 30
0.0
 11
13.03
 21
41.9871173317
 31
0.0
  0
LINE
  5
A0
330
1F
100
AcDbEntity
  8
1
  6
SLD-Solid
370
    25
100
AcDbLine
 10
13.03
 20
34.6324292339
 30
0.0
 11
13.03
 21
-44.5790106634
 31
0.0
  0
LINE
  5
A1
330
1F
100
AcDbEntity
  8
1
  6
SLD-Solid
370
    25
100
AcDbLine
 10
13.03
 20
41.453113616
 30
0.0
 11
13.03
 21
35.4316103884
 31
0.0
  0
LINE
  5
A2
330
1F
100
AcDbEntity
  8
1
  6
SLD-Solid
370
    25
100
AcDbLine
 10
12.28
 20
33.3554707167
 30
0.0
 11
12.28
 21
-43.7694359685
 31
0.0
  0
LINE
  5
A3
330
1F
100
AcDbEntity
  8
1
  6
SLD-Solid
370
    25
100
AcDbLine
 10
9.95
 20
33.3652595305
 30
0.0
 11
9.95
 21
-43.7694359685
 31
0.0
  0
LINE
  5
A4
330
1F
100
AcDbEntity
  8
1
  6
SLD-Solid
370
    25
100
AcDbLine
 10
9.95
 20
-43.7694359685
 30
0.0
 11
12.28
 21
-43.7694359685
 31
0.0
  0
LINE
  5
A5
330
1F
100
AcDbEntity
  8
1
  6
SLD-Solid
370
    25
100
AcDbLine
 10
0.0
 20
34.925
 30
0.0
 11
0.0
 21
-34.925
 31
0.0
  0
LINE
  5
A6
330
1F
100
AcDbEntity
  8
1
  6
SLD-Solid
370
    25
100
AcDbLine
 10
1.7476022729
 20
34.925
 30
0.0
 11
1.7476022729
 21
-34.925
 31
0.0
  0
LINE
  5
A7
330
1F
100
AcDbEntity
  8
1
  6
SLD-Solid
370
    25
100
AcDbLine
 10
35.1
 20
0.0
 30
0.0
 11
35.1
 21
-33.401
 31
0.0
  0
LINE
  5
A8
330
1F
100
AcDbEntity
  8
1
  6
SLD-Solid
370
    25
100
AcDbLine
 10
35.1
 20
33.401
 30
0.0
 11
35.1
 21
0.0
 31
0.0
  0
LINE
  5
A9
330
1F
100
AcDbEntity
  8
1
  6
SLD-Solid
370
    25
100
AcDbLine
 10
13.03
 20
35.4113240881
 30
0.0
 11
13.03
 21
35.4316103884
 31
0.0
  0
LINE
  5
AA
330
1F
100
AcDbEntity
  8
1
  6
SLD-Solid
370
    25
100
AcDbLine
 10
9.2
 20
35.3885961177
 30
0.0
 11
9.2
 21
35.3683101782
 31
0.0
  0
LINE
  5
AB
330
1F
100
AcDbEntity
  8
1
  6
SLD-Solid
370
    25
100
AcDbLine
 10
9.95
 20
40.2901760725
 30
0.0
 11
9.95
 21
35.4888548114
 31
0.0
  0
LINE
  5
AC
330
1F
100
AcDbEntity
  8
1
  6
SLD-Solid
370
    25
100
AcDbLine
 10
12.28
 20
40.2834337913
 30
0.0
 11
12.28
 21
35.4978726362
 31
0.0
  0
LINE
  5
AD
330
1F
100
AcDbEntity
  8
1
  6
SLD-Solid
370
    25
100
AcDbLine
 10
88.9
 20
19.05
 30
0.0
 11
88.9
 21
-19.05
 31
0.0
  0
LINE
  5
AE
330
1F
100
AcDbEntity
  8
1
  6
SLD-Solid
370
    25
100
AcDbLine
 10
9.2
 20
41.9587011964
 30
0.0
 11
9.2
 21
41.9345423912
 31
0.0
  0
LINE
  5
AF
330
1F
100
AcDbEntity
  8
1
  6
SLD-Solid
370
    25
100
AcDbLine
 10
13.03
 20
41.9629580968
 30
0.0
 11
13.03
 21
41.9871173317
 31
0.0
  0
LINE
  5
B0
330
1F
100
AcDbEntity
  8
SK1
  6
SLD-Solid
370
    25
100
AcDbLine
 10
-101.6
 20
-18.2922326599
 30
0.0
 11
-101.6
 21
18.2922326599
 31
0.0
  0
LINE
  5
B1
330
1F
100
AcDbEntity
  8
1
  6
SLD-Solid
370
    25
100
AcDbLine
 10
9.95
 20
43.7694359685
 30
0.0
 11
9.95
 21
41.7091381742
 31
0.0
  0
LINE
  5
B2
330
1F
100
AcDbEntity
  8
1
  6
SLD-Solid
370
    25
100
AcDbLine
 10
12.28
 20
43.7694359685
 30
0.0
 11
12.28
 21
41.714962274
 31
0.0
  0
LINE
  5
B3
330
1F
100
AcDbEntity
  8
1
  6
SLD-Solid
370
    25
100
AcDbLine
 10
191.01
 20
19.05
 30
0.0
 11
191.01
 21
-19.05
 31
0.0
  0
LINE
  5
B4
330
1F
100
AcDbEntity
  8
1
  6
SLD-Solid
370
    25
100
AcDbLine
 10
196.85
 20
13.21
 30
0.0
 11
196.85
 21
-13.21
 31
0.0
  0
LINE
  5
B5
330
1F
100
AcDbEntity
  8
1
  6
SLD-Solid
370
    25
100
AcDbLine
 10
9.95
 20
43.7694359685
 30
0.0
 11
12.28
 21
43.7694359685
 31
0.0
  0
LINE
  5
B6
330
1F
100
AcDbEntity
  8
1
  6
SLD-Solid
370
    25
100
AcDbLine
 10
19.812
 20
0.0
 30
0.0
 11
19.812
 21
-34.925
 31
0.0
  0
LINE
  5
B7
330
1F
100
AcDbEntity
  8
1
  6
SLD-Solid
370
    25
100
AcDbLine
 10
19.812
 20
34.925
 30
0.0
 11
19.812
 21
0.0
 31
0.0
  0
LINE
  5
B8
330
1F
100
AcDbEntity
  8
1
  6
SLD-Solid
370
    25
100
AcDbLine
 10
2.1330363037
 20
34.7452691597
 30
0.0
 11
2.1330363037
 21
-34.7452691597
 31
0.0
  0
LINE
  5
B9
330
1F
100
AcDbEntity
  8
SK1
  6
SLD-Solid
370
    25
100
AcDbLine
 10
-99.8030472773
 20
0.0
 30
0.0
 11
-99.8030472773
 21
-20.3702515116
 31
0.0
  0
LINE
  5
BA
330
1F
100
AcDbEntity
  8
SK1
  6
SLD-Solid
370
    25
100
AcDbLine
 10
-99.8030472773
 20
20.3702515116
 30
0.0
 11
-99.8030472773
 21
0.0
 31
0.0
  0
LINE
  5
BB
330
1F
100
AcDbEntity
  8
1
  6
SLD-Solid
370
    25
100
AcDbLine
 10
33.576
 20
0.0
 30
0.0
 11
33.576
 21
34.925
 31
0.0
  0
LINE
  5
BC
330
1F
100
AcDbEntity
  8
1
  6
SLD-Solid
370
    25
100
AcDbLine
 10
33.576
 20
-34.925
 30
0.0
 11
33.576
 21
0.0
 31
0.0
  0
LINE
  5
BD
330
1F
100
AcDbEntity
  8
1
  6
SLD-Solid
370
    25
100
AcDbLine
 10
36.4382711207
 20
0.0
 30
0.0
 11
36.4382711207
 21
-25.4914903447
 31
0.0
  0
LINE
  5
BE
330
1F
100
AcDbEntity
  8
1
  6
SLD-Solid
370
    25
100
AcDbLine
 10
36.4382711207
 20
25.4914903447
 30
0.0
 11
36.4382711207
 21
0.0
 31
0.0
  0
LINE
  5
BF
330
1F
100
AcDbEntity
  8
SK3
  6
SLD-Dashed
370
    18
100
AcDbLine
 10
6.4723069743
 20
-13.9015950424
 30
0.0
 11
6.2738681408
 21
-13.1524141642
 31
0.0
  0
LINE
  5
C0
330
1F
100
AcDbEntity
  8
SK3
  6
SLD-Dashed
370
    18
100
AcDbLine
 10
6.2738681408
 20
-13.1524141642
 30
0.0
 11
5.9563427035
 21
-12.4698012947
 31
0.0
  0
LINE
  5
C1
330
1F
100
AcDbEntity
  8
SK3
  6
SLD-Dashed
370
    18
100
AcDbLine
 10
5.9563427035
 20
-12.4698012947
 30
0.0
 11
5.5479441909
 21
-11.914409583
 31
0.0
  0
LINE
  5
C2
330
1F
100
AcDbEntity
  8
SK3
  6
SLD-Dashed
370
    18
100
AcDbLine
 10
5.5479441909
 20
-11.914409583
 30
0.0
 11
5.084960603
 21
-11.53558802
 31
0.0
  0
LINE
  5
C3
330
1F
100
AcDbEntity
  8
SK3
  6
SLD-Dashed
370
    18
100
AcDbLine
 10
5.084960603
 20
-11.53558802
 30
0.0
 11
4.6085300634
 21
-11.366996564
 31
0.0
  0
LINE
  5
C4
330
1F
100
AcDbEntity
  8
SK3
  6
SLD-Dashed
370
    18
100
AcDbLine
 10
4.6085300634
 20
-11.366996564
 30
0.0
 11
4.1609855163
 21
-11.4236153057
 31
0.0
  0
LINE
  5
C5
330
1F
100
AcDbEntity
  8
SK3
  6
SLD-Dashed
370
    18
100
AcDbLine
 10
4.1609855163
 20
-11.4236153057
 30
0.0
 11
3.7820932588
 21
-11.7004134215
 31
0.0
  0
LINE
  5
C6
330
1F
100
AcDbEntity
  8
SK3
  6
SLD-Dashed
370
    18
100
AcDbLine
 10
3.7820932588
 20
-11.7004134215
 30
0.0
 11
3.5055195307
 21
-12.172796184
 31
0.0
  0
LINE
  5
C7
330
1F
100
AcDbEntity
  8
SK3
  6
SLD-Dashed
370
    18
100
AcDbLine
 10
3.5055195307
 20
-12.172796184
 30
0.0
 11
3.3558391214
 21
-12.7987903117
 31
0.0
  0
LINE
  5
C8
330
1F
100
AcDbEntity
  8
SK3
  6
SLD-Dashed
370
    18
100
AcDbLine
 10
3.3558391214
 20
-12.7987903117
 30
0.0
 11
3.3463517921
 21
-13.5227734794
 31
0.0
  0
LINE
  5
C9
330
1F
100
AcDbEntity
  8
SK3
  6
SLD-Dashed
370
    18
100
AcDbLine
 10
3.3463517921
 20
-13.5227734794
 30
0.0
 11
3.4779005338
 21
-14.2804166054
 31
0.0
  0
LINE
  5
CA
330
1F
100
AcDbEntity
  8
SK3
  6
SLD-Dashed
370
    18
100
AcDbLine
 10
3.4779005338
 20
-14.2804166054
 30
0.0
 11
3.7387966634
 21
-15.0043997731
 31
0.0
  0
LINE
  5
CB
330
1F
100
AcDbEntity
  8
SK3
  6
SLD-Dashed
370
    18
100
AcDbLine
 10
3.7387966634
 20
-15.0043997731
 30
0.0
 11
4.1058584148
 21
-15.6303939009
 31
0.0
  0
LINE
  5
CC
330
1F
100
AcDbEntity
  8
SK3
  6
SLD-Dashed
370
    18
100
AcDbLine
 10
4.1058584148
 20
-15.6303939009
 30
0.0
 11
4.5464707407
 21
-16.1027766634
 31
0.0
  0
LINE
  5
CD
330
1F
100
AcDbEntity
  8
SK3
  6
SLD-Dashed
370
    18
100
AcDbLine
 10
4.5464707407
 20
-16.1027766634
 30
0.0
 11
5.0214833023
 21
-16.3795747791
 31
0.0
  0
LINE
  5
CE
330
1F
100
AcDbEntity
  8
SK3
  6
SLD-Dashed
370
    18
100
AcDbLine
 10
5.0214833023
 20
-16.3795747791
 30
0.0
 11
5.4886891489
 21
-16.4361935208
 31
0.0
  0
LINE
  5
CF
330
1F
100
AcDbEntity
  8
SK3
  6
SLD-Dashed
370
    18
100
AcDbLine
 10
5.4886891489
 20
-16.4361935208
 30
0.0
 11
5.9065749908
 21
-16.2676020648
 31
0.0
  0
LINE
  5
D0
330
1F
100
AcDbEntity
  8
SK3
  6
SLD-Dashed
370
    18
100
AcDbLine
 10
5.9065749908
 20
-16.2676020648
 30
0.0
 11
6.238009837
 21
-15.8887805018
 31
0.0
  0
LINE
  5
D1
330
1F
100
AcDbEntity
  8
SK3
  6
SLD-Dashed
370
    18
100
AcDbLine
 10
6.238009837
 20
-15.8887805018
 30
0.0
 11
6.453544247
 21
-15.3333887902
 31
0.0
  0
LINE
  5
D2
330
1F
100
AcDbEntity
  8
SK3
  6
SLD-Dashed
370
    18
100
AcDbLine
 10
6.453544247
 20
-15.3333887902
 30
0.0
 11
6.5340270426
 21
-14.6507759207
 31
0.0
  0
LINE
  5
D3
330
1F
100
AcDbEntity
  8
SK3
  6
SLD-Dashed
370
    18
100
AcDbLine
 10
6.5340270426
 20
-14.6507759207
 30
0.0
 11
6.4723069743
 21
-13.9015950424
 31
0.0
  0
LINE
  5
D4
330
1F
100
AcDbEntity
  8
SK3
  6
SLD-Dashed
370
    18
100
AcDbLine
 10
6.4545594773
 20
-13.8826166832
 30
0.0
 11
6.5121013678
 21
-14.6227336269
 31
0.0
  0
LINE
  5
D5
330
1F
100
AcDbEntity
  8
SK3
  6
SLD-Dashed
370
    18
100
AcDbLine
 10
6.5121013678
 20
-14.6227336269
 30
0.0
 11
6.4220830584
 21
-15.2904027674
 31
0.0
  0
LINE
  5
D6
330
1F
100
AcDbEntity
  8
SK3
  6
SLD-Dashed
370
    18
100
AcDbLine
 10
6.4220830584
 20
-15.2904027674
 30
0.0
 11
6.1933161683
 21
-15.8202679974
 31
0.0
  0
LINE
  5
D7
330
1F
100
AcDbEntity
  8
SK3
  6
SLD-Dashed
370
    18
100
AcDbLine
 10
6.1933161683
 20
-15.8202679974
 30
0.0
 11
5.8481939947
 21
-16.1604624163
 31
0.0
  0
LINE
  5
D8
330
1F
100
AcDbEntity
  8
SK3
  6
SLD-Dashed
370
    18
100
AcDbLine
 10
5.8481939947
 20
-16.1604624163
 30
0.0
 11
5.4204995004
 21
-16.2776854242
 31
0.0
  0
LINE
  5
D9
330
1F
100
AcDbEntity
  8
SK3
  6
SLD-Dashed
370
    18
100
AcDbLine
 10
5.4204995004
 20
-16.2776854242
 30
0.0
 11
4.9520984027
 21
-16.1604624163
 31
0.0
  0
LINE
  5
DA
330
1F
100
AcDbEntity
  8
SK3
  6
SLD-Dashed
370
    18
100
AcDbLine
 10
4.9520984027
 20
-16.1604624163
 30
0.0
 11
4.4888410643
 21
-15.8202679974
 31
0.0
  0
LINE
  5
DB
330
1F
100
AcDbEntity
  8
SK3
  6
SLD-Dashed
370
    18
100
AcDbLine
 10
4.4888410643
 20
-15.8202679974
 30
0.0
 11
4.0760743414
 21
-15.2904027674
 31
0.0
  0
LINE
  5
DC
330
1F
100
AcDbEntity
  8
SK3
  6
SLD-Dashed
370
    18
100
AcDbLine
 10
4.0760743414
 20
-15.2904027674
 30
0.0
 11
3.7542027167
 21
-14.6227336269
 31
0.0
  0
LINE
  5
DD
330
1F
100
AcDbEntity
  8
SK3
  6
SLD-Dashed
370
    18
100
AcDbLine
 10
3.7542027167
 20
-14.6227336269
 30
0.0
 11
3.5547332273
 21
-13.8826166832
 31
0.0
  0
LINE
  5
DE
330
1F
100
AcDbEntity
  8
SK3
  6
SLD-Dashed
370
    18
100
AcDbLine
 10
3.5547332273
 20
-13.8826166832
 30
0.0
 11
3.4971913368
 21
-13.1424997395
 31
0.0
  0
LINE
  5
DF
330
1F
100
AcDbEntity
  8
SK3
  6
SLD-Dashed
370
    18
100
AcDbLine
 10
3.4971913368
 20
-13.1424997395
 30
0.0
 11
3.5872096462
 21
-12.4748305989
 31
0.0
  0
LINE
  5
E0
330
1F
100
AcDbEntity
  8
SK3
  6
SLD-Dashed
370
    18
100
AcDbLine
 10
3.5872096462
 20
-12.4748305989
 30
0.0
 11
3.8159765363
 21
-11.9449653689
 31
0.0
  0
LINE
  5
E1
330
1F
100
AcDbEntity
  8
SK3
  6
SLD-Dashed
370
    18
100
AcDbLine
 10
3.8159765363
 20
-11.9449653689
 30
0.0
 11
4.16109871
 21
-11.60477095
 31
0.0
  0
LINE
  5
E2
330
1F
100
AcDbEntity
  8
SK3
  6
SLD-Dashed
370
    18
100
AcDbLine
 10
4.16109871
 20
-11.60477095
 30
0.0
 11
4.5887932042
 21
-11.4875479421
 31
0.0
  0
LINE
  5
E3
330
1F
100
AcDbEntity
  8
SK3
  6
SLD-Dashed
370
    18
100
AcDbLine
 10
4.5887932042
 20
-11.4875479421
 30
0.0
 11
5.057194302
 21
-11.60477095
 31
0.0
  0
LINE
  5
E4
330
1F
100
AcDbEntity
  8
SK3
  6
SLD-Dashed
370
    18
100
AcDbLine
 10
5.057194302
 20
-11.60477095
 30
0.0
 11
5.5204516403
 21
-11.9449653689
 31
0.0
  0
LINE
  5
E5
330
1F
100
AcDbEntity
  8
SK3
  6
SLD-Dashed
370
    18
100
AcDbLine
 10
5.5204516403
 20
-11.9449653689
 30
0.0
 11
5.9332183632
 21
-12.4748305989
 31
0.0
  0
LINE
  5
E6
330
1F
100
AcDbEntity
  8
SK3
  6
SLD-Dashed
370
    18
100
AcDbLine
 10
5.9332183632
 20
-12.4748305989
 30
0.0
 11
6.255089988
 21
-13.1424997395
 31
0.0
  0
LINE
  5
E7
330
1F
100
AcDbEntity
  8
SK3
  6
SLD-Dashed
370
    18
100
AcDbLine
 10
6.255089988
 20
-13.1424997395
 30
0.0
 11
6.4545594773
 21
-13.8826166832
 31
0.0
  0
LINE
  5
E8
330
1F
100
AcDbEntity
  8
SK3
  6
SLD-Dashed
370
    18
100
AcDbLine
 10
17.1792841073
 20
-11.0168048658
 30
0.0
 11
16.979814618
 21
-10.2766879221
 31
0.0
  0
LINE
  5
E9
330
1F
100
AcDbEntity
  8
SK3
  6
SLD-Dashed
370
    18
100
AcDbLine
 10
16.979814618
 20
-10.2766879221
 30
0.0
 11
16.6579429932
 21
-9.6090187815
 31
0.0
  0
LINE
  5
EA
330
1F
100
AcDbEntity
  8
SK3
  6
SLD-Dashed
370
    18
100
AcDbLine
 10
16.6579429932
 20
-9.6090187815
 30
0.0
 11
16.2451762703
 21
-9.0791535516
 31
0.0
  0
LINE
  5
EB
330
1F
100
AcDbEntity
  8
SK3
  6
SLD-Dashed
370
    18
100
AcDbLine
 10
16.2451762703
 20
-9.0791535516
 30
0.0
 11
15.781918932
 21
-8.7389591326
 31
0.0
  0
LINE
  5
EC
330
1F
100
AcDbEntity
  8
SK3
  6
SLD-Dashed
370
    18
100
AcDbLine
 10
15.781918932
 20
-8.7389591326
 30
0.0
 11
15.3135178342
 21
-8.6217361247
 31
0.0
  0
LINE
  5
ED
330
1F
100
AcDbEntity
  8
SK3
  6
SLD-Dashed
370
    18
100
AcDbLine
 10
15.3135178342
 20
-8.6217361247
 30
0.0
 11
14.88582334
 21
-8.7389591326
 31
0.0
  0
LINE
  5
EE
330
1F
100
AcDbEntity
  8
SK3
  6
SLD-Dashed
370
    18
100
AcDbLine
 10
14.88582334
 20
-8.7389591326
 30
0.0
 11
14.5407011664
 21
-9.0791535516
 31
0.0
  0
LINE
  5
EF
330
1F
100
AcDbEntity
  8
SK3
  6
SLD-Dashed
370
    18
100
AcDbLine
 10
14.5407011664
 20
-9.0791535516
 30
0.0
 11
14.3119342763
 21
-9.6090187815
 31
0.0
  0
LINE
  5
F0
330
1F
100
AcDbEntity
  8
SK3
  6
SLD-Dashed
370
    18
100
AcDbLine
 10
14.3119342763
 20
-9.6090187815
 30
0.0
 11
14.2219159668
 21
-10.2766879221
 31
0.0
  0
LINE
  5
F1
330
1F
100
AcDbEntity
  8
SK3
  6
SLD-Dashed
370
    18
100
AcDbLine
 10
14.2219159668
 20
-10.2766879221
 30
0.0
 11
14.2794578574
 21
-11.0168048658
 31
0.0
  0
LINE
  5
F2
330
1F
100
AcDbEntity
  8
SK3
  6
SLD-Dashed
370
    18
100
AcDbLine
 10
14.2794578574
 20
-11.0168048658
 30
0.0
 11
14.4789273467
 21
-11.7569218095
 31
0.0
  0
LINE
  5
F3
330
1F
100
AcDbEntity
  8
SK3
  6
SLD-Dashed
370
    18
100
AcDbLine
 10
14.4789273467
 20
-11.7569218095
 30
0.0
 11
14.8007989714
 21
-12.42459095
 31
0.0
  0
LINE
  5
F4
330
1F
100
AcDbEntity
  8
SK3
  6
SLD-Dashed
370
    18
100
AcDbLine
 10
14.8007989714
 20
-12.42459095
 30
0.0
 11
15.2135656944
 21
-12.95445618
 31
0.0
  0
LINE
  5
F5
330
1F
100
AcDbEntity
  8
SK3
  6
SLD-Dashed
370
    18
100
AcDbLine
 10
15.2135656944
 20
-12.95445618
 30
0.0
 11
15.6768230327
 21
-13.294650599
 31
0.0
  0
LINE
  5
F6
330
1F
100
AcDbEntity
  8
SK3
  6
SLD-Dashed
370
    18
100
AcDbLine
 10
15.6768230327
 20
-13.294650599
 30
0.0
 11
16.1452241305
 21
-13.4118736069
 31
0.0
  0
LINE
  5
F7
330
1F
100
AcDbEntity
  8
SK3
  6
SLD-Dashed
370
    18
100
AcDbLine
 10
16.1452241305
 20
-13.4118736069
 30
0.0
 11
16.5729186247
 21
-13.294650599
 31
0.0
  0
LINE
  5
F8
330
1F
100
AcDbEntity
  8
SK3
  6
SLD-Dashed
370
    18
100
AcDbLine
 10
16.5729186247
 20
-13.294650599
 30
0.0
 11
16.9180407983
 21
-12.95445618
 31
0.0
  0
LINE
  5
F9
330
1F
100
AcDbEntity
  8
SK3
  6
SLD-Dashed
370
    18
100
AcDbLine
 10
16.9180407983
 20
-12.95445618
 30
0.0
 11
17.1468076884
 21
-12.42459095
 31
0.0
  0
LINE
  5
FA
330
1F
100
AcDbEntity
  8
SK3
  6
SLD-Dashed
370
    18
100
AcDbLine
 10
17.1468076884
 20
-12.42459095
 30
0.0
 11
17.2368259979
 21
-11.7569218095
 31
0.0
  0
LINE
  5
FB
330
1F
100
AcDbEntity
  8
SK3
  6
SLD-Dashed
370
    18
100
AcDbLine
 10
17.2368259979
 20
-11.7569218095
 30
0.0
 11
17.1792841073
 21
-11.0168048658
 31
0.0
  0
LINE
  5
FC
330
1F
100
AcDbEntity
  8
SK3
  6
SLD-Dashed
370
    18
100
AcDbLine
 10
-99.7034043657
 20
-13.19
 30
0.0
 11
-99.7034043657
 21
13.19
 31
0.0
  0
LINE
  5
FD
330
1F
100
AcDbEntity
  8
SK3
  6
SLD-Dashed
370
    18
100
AcDbLine
 10
-101.6
 20
-14.2568118156
 30
0.0
 11
-101.6
 21
14.2568118156
 31
0.0
  0
LINE
  5
FE
330
1F
100
AcDbEntity
  8
SK3
  6
SLD-Dashed
370
    18
100
AcDbLine
 10
-95.25
 20
-13.19
 30
0.0
 11
-95.25
 21
13.19
 31
0.0
  0
LINE
  5
FF
330
1F
100
AcDbEntity
  8
SK3
  6
SLD-Dashed
370
    18
100
AcDbLine
 10
-94.0505548158
 20
-11.1125
 30
0.0
 11
-94.0505548158
 21
11.1125
 31
0.0
  0
LINE
  5
100
330
1F
100
AcDbEntity
  8
SK3
  6
SLD-Dashed
370
    18
100
AcDbLine
 10
3.7
 20
37.875
 30
0.0
 11
3.7
 21
46.5560855313
 31
0.0
  0
LINE
  5
101
330
1F
100
AcDbEntity
  8
SK3
  6
SLD-Dashed
370
    18
100
AcDbLine
 10
18.55
 20
46.5560855313
 30
0.0
 11
18.55
 21
37.875
 31
0.0
  0
LINE
  5
102
330
1F
100
AcDbEntity
  8
SK3
  6
SLD-Dashed
370
    18
100
AcDbLine
 10
3.95
 20
46.8162535878
 30
0.0
 11
7.9572893801
 21
46.8162535878
 31
0.0
  0
LINE
  5
103
330
1F
100
AcDbEntity
  8
SK3
  6
SLD-Dashed
370
    18
100
AcDbLine
 10
14.2727106199
 20
46.8162535878
 30
0.0
 11
18.3
 21
46.8162535878
 31
0.0
  0
LINE
  5
104
330
1F
100
AcDbEntity
  8
1
  6
SLD-Dashed
370
    18
100
AcDbLine
 10
13.03
 20
44.5510215932
 30
0.0
 11
13.03
 21
44.5790106634
 31
0.0
  0
LINE
  5
105
330
1F
100
AcDbEntity
  8
1
  6
SLD-Dashed
370
    18
100
AcDbLine
 10
9.2
 20
44.5790106634
 30
0.0
 11
9.2
 21
44.5510215932
 31
0.0
  0
LINE
  5
106
330
1F
100
AcDbEntity
  8
1
  6
SLD-Dashed
370
    18
100
AcDbLine
 10
9.2
 20
-44.5790106634
 30
0.0
 11
9.2
 21
-44.5510215932
 31
0.0
  0
LINE
  5
107
330
1F
100
AcDbEntity
  8
1
  6
SLD-Dashed
370
    18
100
AcDbLine
 10
13.03
 20
-44.5510215932
 30
0.0
 11
13.03
 21
-44.5790106634
 31
0.0
  0
LINE
  5
108
330
1F
100
AcDbEntity
  8
SK3
  6
SLD-Dashed
370
    18
100
AcDbLine
 10
19.05
 20
-46.6976348437
 30
0.0
 11
19.05
 21
-35.475
 31
0.0
  0
LINE
  5
109
330
1F
100
AcDbEntity
  8
SK3
  6
SLD-Dashed
370
    18
100
AcDbLine
 10
3.2
 20
-35.475
 30
0.0
 11
3.2
 21
-46.6976348437
 31
0.0
  0
LINE
  5
10A
330
1F
100
AcDbEntity
  8
SK3
  6
SLD-Dashed
370
    18
100
AcDbLine
 10
19.05
 20
-35.1
 30
0.0
 11
3.2
 21
-35.1
 31
0.0
  0
LINE
  5
10B
330
1F
100
AcDbEntity
  8
SK3
  6
SLD-Dashed
370
    18
100
AcDbLine
 10
3.2
 20
-35.475
 30
0.0
 11
19.05
 21
-35.475
 31
0.0
  0
LINE
  5
10C
330
1F
100
AcDbEntity
  8
SK3
  6
SLD-Dashed
370
    18
100
AcDbLine
 10
3.7
 20
37.5
 30
0.0
 11
18.55
 21
37.5
 31
0.0
  0
LINE
  5
10D
330
1F
100
AcDbEntity
  8
SK3
  6
SLD-Dashed
370
    18
100
AcDbLine
 10
18.55
 20
37.875
 30
0.0
 11
3.7
 21
37.875
 31
0.0
  0
LINE
  5
10E
330
1F
100
AcDbEntity
  8
SK3
  6
SLD-Dashed
370
    18
100
AcDbLine
 10
18.4
 20
-11.1125
 30
0.0
 11
18.4
 21
11.1125
 31
0.0
  0
LINE
  5
10F
330
1F
100
AcDbEntity
  8
SK3
  6
SLD-Dashed
370
    18
100
AcDbLine
 10
19.0684574387
 20
10.0
 30
0.0
 11
19.0684574387
 21
-10.0
 31
0.0
  0
LINE
  5
110
330
1F
100
AcDbEntity
  8
SK3
  6
SLD-Dashed
370
    18
100
AcDbLine
 10
147.861
 20
-10.0
 30
0.0
 11
147.861
 21
10.0
 31
0.0
  0
LINE
  5
111
330
1F
100
AcDbEntity
  8
SK3
  6
SLD-Dashed
370
    18
100
AcDbLine
 10
149.1002750267
 20
-7.9375
 30
0.0
 11
149.1002750267
 21
7.9375
 31
0.0
  0
LINE
  5
112
330
1F
100
AcDbEntity
  8
SK3
  6
SLD-Dashed
370
    18
100
AcDbLine
 10
195.35
 20
-7.9375
 30
0.0
 11
195.35
 21
7.9375
 31
0.0
  0
LINE
  5
113
330
1F
100
AcDbEntity
  8
SK3
  6
SLD-Dashed
370
    18
100
AcDbLine
 10
196.85
 20
-8.7963857286
 30
0.0
 11
196.85
 21
8.7963857286
 31
0.0
  0
LINE
  5
114
330
1F
100
AcDbEntity
  8
SK3
  6
SLD-Dashed
370
    18
100
AcDbLine
 10
180.775
 20
17.3
 30
0.0
 11
165.275
 21
17.3
 31
0.0
  0
LINE
  5
115
330
1F
100
AcDbEntity
  8
SK3
  6
SLD-Dashed
370
    18
100
AcDbLine
 10
179.4004
 20
17.3
 30
0.0
 11
166.6784683048
 21
17.3
 31
0.0
  0
LINE
  5
116
330
1F
100
AcDbEntity
  8
SK3
  6
SLD-Dashed
370
    18
100
AcDbLine
 10
16.1
 20
33.1
 30
0.0
 11
6.1293102142
 21
33.1
 31
0.0
  0
LINE
  5
117
330
1F
100
AcDbEntity
  8
SK3
  6
SLD-Dashed
370
    18
100
AcDbLine
 10
6.1
 20
37.5
 30
0.0
 11
16.0706897858
 21
37.5
 31
0.0
  0
LINE
  5
118
330
1F
100
AcDbEntity
  8
SK3
  6
SLD-Dashed
370
    18
100
AcDbLine
 10
6.4
 20
32.8
 30
0.0
 11
15.8
 21
32.8
 31
0.0
  0
LINE
  5
119
330
1F
100
AcDbEntity
  8
1
  6
SLD-Dashed
370
    18
100
AcDbLine
 10
12.28
 20
43.7694359685
 30
0.0
 11
9.95
 21
43.7694359685
 31
0.0
  0
LINE
  5
11A
330
1F
100
AcDbEntity
  8
1
  6
SLD-Dashed
370
    18
100
AcDbLine
 10
12.28
 20
-43.7694359685
 30
0.0
 11
9.95
 21
-43.7694359685
 31
0.0
  0
LINE
  5
11B
330
1F
100
AcDbEntity
  8
1
  6
SLD-Dashed
370
    18
100
AcDbLine
 10
18.3
 20
-47.4754841997
 30
0.0
 11
14.6397233934
 21
-47.4754841997
 31
0.0
  0
LINE
  5
11C
330
1F
100
AcDbEntity
  8
1
  6
SLD-Dashed
370
    18
100
AcDbLine
 10
7.5902766066
 20
-47.4754841997
 30
0.0
 11
3.95
 21
-47.4754841997
 31
0.0
  0
LINE
  5
11D
330
1F
100
AcDbEntity
  8
SK3
  6
SLD-Dashed
370
    18
100
AcDbLine
 10
3.5547332273
 20
13.8826166832
 30
0.0
 11
3.4971913368
 21
13.1424997395
 31
0.0
  0
LINE
  5
11E
330
1F
100
AcDbEntity
  8
SK3
  6
SLD-Dashed
370
    18
100
AcDbLine
 10
3.4971913368
 20
13.1424997395
 30
0.0
 11
3.5872096462
 21
12.4748305989
 31
0.0
  0
LINE
  5
11F
330
1F
100
AcDbEntity
  8
SK3
  6
SLD-Dashed
370
    18
100
AcDbLine
 10
3.5872096462
 20
12.4748305989
 30
0.0
 11
3.8159765363
 21
11.9449653689
 31
0.0
  0
LINE
  5
120
330
1F
100
AcDbEntity
  8
SK3
  6
SLD-Dashed
370
    18
100
AcDbLine
 10
3.8159765363
 20
11.9449653689
 30
0.0
 11
4.16109871
 21
11.60477095
 31
0.0
  0
LINE
  5
121
330
1F
100
AcDbEntity
  8
SK3
  6
SLD-Dashed
370
    18
100
AcDbLine
 10
4.16109871
 20
11.60477095
 30
0.0
 11
4.5887932042
 21
11.4875479421
 31
0.0
  0
LINE
  5
122
330
1F
100
AcDbEntity
  8
SK3
  6
SLD-Dashed
370
    18
100
AcDbLine
 10
4.5887932042
 20
11.4875479421
 30
0.0
 11
5.057194302
 21
11.60477095
 31
0.0
  0
LINE
  5
123
330
1F
100
AcDbEntity
  8
SK3
  6
SLD-Dashed
370
    18
100
AcDbLine
 10
5.057194302
 20
11.60477095
 30
0.0
 11
5.5204516403
 21
11.9449653689
 31
0.0
  0
LINE
  5
124
330
1F
100
AcDbEntity
  8
SK3
  6
SLD-Dashed
370
    18
100
AcDbLine
 10
5.5204516403
 20
11.9449653689
 30
0.0
 11
5.9332183632
 21
12.4748305989
 31
0.0
  0
LINE
  5
125
330
1F
100
AcDbEntity
  8
SK3
  6
SLD-Dashed
370
    18
100
AcDbLine
 10
5.9332183632
 20
12.4748305989
 30
0.0
 11
6.255089988
 21
13.1424997395
 31
0.0
  0
LINE
  5
126
330
1F
100
AcDbEntity
  8
SK3
  6
SLD-Dashed
370
    18
100
AcDbLine
 10
6.255089988
 20
13.1424997395
 30
0.0
 11
6.4545594773
 21
13.8826166832
 31
0.0
  0
LINE
  5
127
330
1F
100
AcDbEntity
  8
SK3
  6
SLD-Dashed
370
    18
100
AcDbLine
 10
6.4545594773
 20
13.8826166832
 30
0.0
 11
6.5121013678
 21
14.6227336269
 31
0.0
  0
LINE
  5
128
330
1F
100
AcDbEntity
  8
SK3
  6
SLD-Dashed
370
    18
100
AcDbLine
 10
6.5121013678
 20
14.6227336269
 30
0.0
 11
6.4220830584
 21
15.2904027674
 31
0.0
  0
LINE
  5
129
330
1F
100
AcDbEntity
  8
SK3
  6
SLD-Dashed
370
    18
100
AcDbLine
 10
6.4220830584
 20
15.2904027674
 30
0.0
 11
6.1933161683
 21
15.8202679974
 31
0.0
  0
LINE
  5
12A
330
1F
100
AcDbEntity
  8
SK3
  6
SLD-Dashed
370
    18
100
AcDbLine
 10
6.1933161683
 20
15.8202679974
 30
0.0
 11
5.8481939947
 21
16.1604624163
 31
0.0
  0
LINE
  5
12B
330
1F
100
AcDbEntity
  8
SK3
  6
SLD-Dashed
370
    18
100
AcDbLine
 10
5.8481939947
 20
16.1604624163
 30
0.0
 11
5.4204995004
 21
16.2776854242
 31
0.0
  0
LINE
  5
12C
330
1F
100
AcDbEntity
  8
SK3
  6
SLD-Dashed
370
    18
100
AcDbLine
 10
5.4204995004
 20
16.2776854242
 30
0.0
 11
4.9520984027
 21
16.1604624163
 31
0.0
  0
LINE
  5
12D
330
1F
100
AcDbEntity
  8
SK3
  6
SLD-Dashed
370
    18
100
AcDbLine
 10
4.9520984027
 20
16.1604624163
 30
0.0
 11
4.4888410643
 21
15.8202679974
 31
0.0
  0
LINE
  5
12E
330
1F
100
AcDbEntity
  8
SK3
  6
SLD-Dashed
370
    18
100
AcDbLine
 10
4.4888410643
 20
15.8202679974
 30
0.0
 11
4.0760743414
 21
15.2904027674
 31
0.0
  0
LINE
  5
12F
330
1F
100
AcDbEntity
  8
SK3
  6
SLD-Dashed
370
    18
100
AcDbLine
 10
4.0760743414
 20
15.2904027674
 30
0.0
 11
3.7542027167
 21
14.6227336269
 31
0.0
  0
LINE
  5
130
330
1F
100
AcDbEntity
  8
SK3
  6
SLD-Dashed
370
    18
100
AcDbLine
 10
3.7542027167
 20
14.6227336269
 30
0.0
 11
3.5547332273
 21
13.8826166832
 31
0.0
  0
LINE
  5
131
330
1F
100
AcDbEntity
  8
SK3
  6
SLD-Dashed
370
    18
100
AcDbLine
 10
14.2794578574
 20
11.0168048658
 30
0.0
 11
14.4789273467
 21
11.7569218095
 31
0.0
  0
LINE
  5
132
330
1F
100
AcDbEntity
  8
SK3
  6
SLD-Dashed
370
    18
100
AcDbLine
 10
14.4789273467
 20
11.7569218095
 30
0.0
 11
14.8007989714
 21
12.42459095
 31
0.0
  0
LINE
  5
133
330
1F
100
AcDbEntity
  8
SK3
  6
SLD-Dashed
370
    18
100
AcDbLine
 10
14.8007989714
 20
12.42459095
 30
0.0
 11
15.2135656944
 21
12.95445618
 31
0.0
  0
LINE
  5
134
330
1F
100
AcDbEntity
  8
SK3
  6
SLD-Dashed
370
    18
100
AcDbLine
 10
15.2135656944
 20
12.95445618
 30
0.0
 11
15.6768230327
 21
13.294650599
 31
0.0
  0
LINE
  5
135
330
1F
100
AcDbEntity
  8
SK3
  6
SLD-Dashed
370
    18
100
AcDbLine
 10
15.6768230327
 20
13.294650599
 30
0.0
 11
16.1452241305
 21
13.4118736069
 31
0.0
  0
LINE
  5
136
330
1F
100
AcDbEntity
  8
SK3
  6
SLD-Dashed
370
    18
100
AcDbLine
 10
16.1452241305
 20
13.4118736069
 30
0.0
 11
16.5729186247
 21
13.294650599
 31
0.0
  0
LINE
  5
137
330
1F
100
AcDbEntity
  8
SK3
  6
SLD-Dashed
370
    18
100
AcDbLine
 10
16.5729186247
 20
13.294650599
 30
0.0
 11
16.9180407983
 21
12.95445618
 31
0.0
  0
LINE
  5
138
330
1F
100
AcDbEntity
  8
SK3
  6
SLD-Dashed
370
    18
100
AcDbLine
 10
16.9180407983
 20
12.95445618
 30
0.0
 11
17.1468076884
 21
12.42459095
 31
0.0
  0
LINE
  5
139
330
1F
100
AcDbEntity
  8
SK3
  6
SLD-Dashed
370
    18
100
AcDbLine
 10
17.1468076884
 20
12.42459095
 30
0.0
 11
17.2368259979
 21
11.7569218095
 31
0.0
  0
LINE
  5
13A
330
1F
100
AcDbEntity
  8
SK3
  6
SLD-Dashed
370
    18
100
AcDbLine
 10
17.2368259979
 20
11.7569218095
 30
0.0
 11
17.1792841073
 21
11.0168048658
 31
0.0
  0
LINE
  5
13B
330
1F
100
AcDbEntity
  8
SK3
  6
SLD-Dashed
370
    18
100
AcDbLine
 10
17.1792841073
 20
11.0168048658
 30
0.0
 11
16.979814618
 21
10.2766879221
 31
0.0
  0
LINE
  5
13C
330
1F
100
AcDbEntity
  8
SK3
  6
SLD-Dashed
370
    18
100
AcDbLine
 10
16.979814618
 20
10.2766879221
 30
0.0
 11
16.6579429932
 21
9.6090187815
 31
0.0
  0
LINE
  5
13D
330
1F
100
AcDbEntity
  8
SK3
  6
SLD-Dashed
370
    18
100
AcDbLine
 10
16.6579429932
 20
9.6090187815
 30
0.0
 11
16.2451762703
 21
9.0791535516
 31
0.0
  0
LINE
  5
13E
330
1F
100
AcDbEntity
  8
SK3
  6
SLD-Dashed
370
    18
100
AcDbLine
 10
16.2451762703
 20
9.0791535516
 30
0.0
 11
15.781918932
 21
8.7389591326
 31
0.0
  0
LINE
  5
13F
330
1F
100
AcDbEntity
  8
SK3
  6
SLD-Dashed
370
    18
100
AcDbLine
 10
15.781918932
 20
8.7389591326
 30
0.0
 11
15.3135178342
 21
8.6217361247
 31
0.0
  0
LINE
  5
140
330
1F
100
AcDbEntity
  8
SK3
  6
SLD-Dashed
370
    18
100
AcDbLine
 10
15.3135178342
 20
8.6217361247
 30
0.0
 11
14.88582334
 21
8.7389591326
 31
0.0
  0
LINE
  5
141
330
1F
100
AcDbEntity
  8
SK3
  6
SLD-Dashed
370
    18
100
AcDbLine
 10
14.88582334
 20
8.7389591326
 30
0.0
 11
14.5407011664
 21
9.0791535516
 31
0.0
  0
LINE
  5
142
330
1F
100
AcDbEntity
  8
SK3
  6
SLD-Dashed
370
    18
100
AcDbLine
 10
14.5407011664
 20
9.0791535516
 30
0.0
 11
14.3119342763
 21
9.6090187815
 31
0.0
  0
LINE
  5
143
330
1F
100
AcDbEntity
  8
SK3
  6
SLD-Dashed
370
    18
100
AcDbLine
 10
14.3119342763
 20
9.6090187815
 30
0.0
 11
14.2219159668
 21
10.2766879221
 31
0.0
  0
LINE
  5
144
330
1F
100
AcDbEntity
  8
SK3
  6
SLD-Dashed
370
    18
100
AcDbLine
 10
14.2219159668
 20
10.2766879221
 30
0.0
 11
14.2794578574
 21
11.0168048658
 31
0.0
  0
LINE
  5
145
330
1F
100
AcDbEntity
  8
SK3
  6
SLD-Dashed
370
    18
100
AcDbLine
 10
3.3949403416
 20
13.9015950424
 30
0.0
 11
3.5933791751
 21
14.6507759207
 31
0.0
  0
LINE
  5
146
330
1F
100
AcDbEntity
  8
SK3
  6
SLD-Dashed
370
    18
100
AcDbLine
 10
3.5933791751
 20
14.6507759207
 30
0.0
 11
3.9109046124
 21
15.3333887902
 31
0.0
  0
LINE
  5
147
330
1F
100
AcDbEntity
  8
SK3
  6
SLD-Dashed
370
    18
100
AcDbLine
 10
3.9109046124
 20
15.3333887902
 30
0.0
 11
4.319303125
 21
15.8887805018
 31
0.0
  0
LINE
  5
148
330
1F
100
AcDbEntity
  8
SK3
  6
SLD-Dashed
370
    18
100
AcDbLine
 10
4.319303125
 20
15.8887805018
 30
0.0
 11
4.7822867129
 21
16.2676020648
 31
0.0
  0
LINE
  5
149
330
1F
100
AcDbEntity
  8
SK3
  6
SLD-Dashed
370
    18
100
AcDbLine
 10
4.7822867129
 20
16.2676020648
 30
0.0
 11
5.2587172525
 21
16.4361935208
 31
0.0
  0
LINE
  5
14A
330
1F
100
AcDbEntity
  8
SK3
  6
SLD-Dashed
370
    18
100
AcDbLine
 10
5.2587172525
 20
16.4361935208
 30
0.0
 11
5.7062617995
 21
16.3795747791
 31
0.0
  0
LINE
  5
14B
330
1F
100
AcDbEntity
  8
SK3
  6
SLD-Dashed
370
    18
100
AcDbLine
 10
5.7062617995
 20
16.3795747791
 30
0.0
 11
6.0851540571
 21
16.1027766634
 31
0.0
  0
LINE
  5
14C
330
1F
100
AcDbEntity
  8
SK3
  6
SLD-Dashed
370
    18
100
AcDbLine
 10
6.0851540571
 20
16.1027766634
 30
0.0
 11
6.3617277852
 21
15.6303939009
 31
0.0
  0
LINE
  5
14D
330
1F
100
AcDbEntity
  8
SK3
  6
SLD-Dashed
370
    18
100
AcDbLine
 10
6.3617277852
 20
15.6303939009
 30
0.0
 11
6.5114081945
 21
15.0043997731
 31
0.0
  0
LINE
  5
14E
330
1F
100
AcDbEntity
  8
SK3
  6
SLD-Dashed
370
    18
100
AcDbLine
 10
6.5114081945
 20
15.0043997731
 30
0.0
 11
6.5208955237
 21
14.2804166054
 31
0.0
  0
LINE
  5
14F
330
1F
100
AcDbEntity
  8
SK3
  6
SLD-Dashed
370
    18
100
AcDbLine
 10
6.5208955237
 20
14.2804166054
 30
0.0
 11
6.3893467821
 21
13.5227734794
 31
0.0
  0
LINE
  5
150
330
1F
100
AcDbEntity
  8
SK3
  6
SLD-Dashed
370
    18
100
AcDbLine
 10
6.3893467821
 20
13.5227734794
 30
0.0
 11
6.1284506525
 21
12.7987903117
 31
0.0
  0
LINE
  5
151
330
1F
100
AcDbEntity
  8
SK3
  6
SLD-Dashed
370
    18
100
AcDbLine
 10
6.1284506525
 20
12.7987903117
 30
0.0
 11
5.761388901
 21
12.172796184
 31
0.0
  0
LINE
  5
152
330
1F
100
AcDbEntity
  8
SK3
  6
SLD-Dashed
370
    18
100
AcDbLine
 10
5.761388901
 20
12.172796184
 30
0.0
 11
5.3207765751
 21
11.7004134215
 31
0.0
  0
LINE
  5
153
330
1F
100
AcDbEntity
  8
SK3
  6
SLD-Dashed
370
    18
100
AcDbLine
 10
5.3207765751
 20
11.7004134215
 30
0.0
 11
4.8457640135
 21
11.4236153057
 31
0.0
  0
LINE
  5
154
330
1F
100
AcDbEntity
  8
SK3
  6
SLD-Dashed
370
    18
100
AcDbLine
 10
4.8457640135
 20
11.4236153057
 30
0.0
 11
4.3785581669
 21
11.366996564
 31
0.0
  0
LINE
  5
155
330
1F
100
AcDbEntity
  8
SK3
  6
SLD-Dashed
370
    18
100
AcDbLine
 10
4.3785581669
 20
11.366996564
 30
0.0
 11
3.9606723251
 21
11.53558802
 31
0.0
  0
LINE
  5
156
330
1F
100
AcDbEntity
  8
SK3
  6
SLD-Dashed
370
    18
100
AcDbLine
 10
3.9606723251
 20
11.53558802
 30
0.0
 11
3.6292374788
 21
11.914409583
 31
0.0
  0
LINE
  5
157
330
1F
100
AcDbEntity
  8
SK3
  6
SLD-Dashed
370
    18
100
AcDbLine
 10
3.6292374788
 20
11.914409583
 30
0.0
 11
3.4137030688
 21
12.4698012947
 31
0.0
  0
LINE
  5
158
330
1F
100
AcDbEntity
  8
SK3
  6
SLD-Dashed
370
    18
100
AcDbLine
 10
3.4137030688
 20
12.4698012947
 30
0.0
 11
3.3332202732
 21
13.1524141642
 31
0.0
  0
LINE
  5
159
330
1F
100
AcDbEntity
  8
SK3
  6
SLD-Dashed
370
    18
100
AcDbLine
 10
3.3332202732
 20
13.1524141642
 30
0.0
 11
3.3949403416
 21
13.9015950424
 31
0.0
  0
LINE
  5
15A
330
1F
100
AcDbEntity
  8
SK3
  6
SLD-Dashed
370
    18
100
AcDbLine
 10
5.6371324082
 20
-16.2495686026
 30
0.0
 11
16.3618570383
 21
-13.3837567853
 31
0.0
  0
LINE
  5
15B
330
1F
100
AcDbEntity
  8
SK3
  6
SLD-Dashed
370
    18
100
AcDbLine
 10
15.0968849264
 20
-8.6498529463
 30
0.0
 11
4.3721602964
 21
-11.5156647637
 31
0.0
  0
LINE
  5
15C
330
1F
100
AcDbEntity
  8
SK3
  6
SLD-Dashed
370
    18
100
AcDbLine
 10
-101.6
 20
-14.285
 30
0.0
 11
-99.7034043657
 21
-13.19
 31
0.0
  0
LINE
  5
15D
330
1F
100
AcDbEntity
  8
SK3
  6
SLD-Dashed
370
    18
100
AcDbLine
 10
-99.7034043657
 20
13.19
 30
0.0
 11
-101.6
 21
14.285
 31
0.0
  0
LINE
  5
15E
330
1F
100
AcDbEntity
  8
SK3
  6
SLD-Dashed
370
    18
100
AcDbLine
 10
-95.25
 20
-13.19
 30
0.0
 11
-94.0505548158
 21
-11.1125
 31
0.0
  0
LINE
  5
15F
330
1F
100
AcDbEntity
  8
SK3
  6
SLD-Dashed
370
    18
100
AcDbLine
 10
-94.0505548158
 20
11.1125
 30
0.0
 11
-95.25
 21
13.19
 31
0.0
  0
LINE
  5
160
330
1F
100
AcDbEntity
  8
SK3
  6
SLD-Dashed
370
    18
100
AcDbLine
 10
-99.7034043657
 20
-13.19
 30
0.0
 11
-95.25
 21
-13.19
 31
0.0
  0
LINE
  5
161
330
1F
100
AcDbEntity
  8
SK3
  6
SLD-Dashed
370
    18
100
AcDbLine
 10
-95.25
 20
13.19
 30
0.0
 11
-99.7034043657
 21
13.19
 31
0.0
  0
LINE
  5
162
330
1F
100
AcDbEntity
  8
SK3
  6
SLD-Dashed
370
    18
100
AcDbLine
 10
-94.0505548158
 20
-11.1125
 30
0.0
 11
18.4
 21
-11.1125
 31
0.0
  0
LINE
  5
163
330
1F
100
AcDbEntity
  8
SK3
  6
SLD-Dashed
370
    18
100
AcDbLine
 10
18.4
 20
11.1125
 30
0.0
 11
-94.0505548158
 21
11.1125
 31
0.0
  0
LINE
  5
164
330
1F
100
AcDbEntity
  8
SK3
  6
SLD-Dashed
370
    18
100
AcDbLine
 10
18.4
 20
-11.1125
 30
0.0
 11
19.0684574387
 21
-10.0
 31
0.0
  0
LINE
  5
165
330
1F
100
AcDbEntity
  8
SK3
  6
SLD-Dashed
370
    18
100
AcDbLine
 10
19.0684574387
 20
10.0
 30
0.0
 11
18.4
 21
11.1125
 31
0.0
  0
LINE
  5
166
330
1F
100
AcDbEntity
  8
SK3
  6
SLD-Dashed
370
    18
100
AcDbLine
 10
19.0684574387
 20
-10.0
 30
0.0
 11
147.861
 21
-10.0
 31
0.0
  0
LINE
  5
167
330
1F
100
AcDbEntity
  8
SK3
  6
SLD-Dashed
370
    18
100
AcDbLine
 10
147.861
 20
10.0
 30
0.0
 11
19.0684574387
 21
10.0
 31
0.0
  0
LINE
  5
168
330
1F
100
AcDbEntity
  8
SK3
  6
SLD-Dashed
370
    18
100
AcDbLine
 10
147.861
 20
-10.0
 30
0.0
 11
149.1002750267
 21
-7.9375
 31
0.0
  0
LINE
  5
169
330
1F
100
AcDbEntity
  8
SK3
  6
SLD-Dashed
370
    18
100
AcDbLine
 10
149.1002750267
 20
7.9375
 30
0.0
 11
147.861
 21
10.0
 31
0.0
  0
LINE
  5
16A
330
1F
100
AcDbEntity
  8
SK3
  6
SLD-Dashed
370
    18
100
AcDbLine
 10
196.85
 20
8.8035254038
 30
0.0
 11
195.35
 21
7.9375
 31
0.0
  0
LINE
  5
16B
330
1F
100
AcDbEntity
  8
SK3
  6
SLD-Dashed
370
    18
100
AcDbLine
 10
195.35
 20
-7.9375
 30
0.0
 11
196.85
 21
-8.8035254038
 31
0.0
  0
LINE
  5
16C
330
1F
100
AcDbEntity
  8
SK3
  6
SLD-Dashed
370
    18
100
AcDbLine
 10
166.6496
 20
7.9375
 30
0.0
 11
149.1002750267
 21
7.9375
 31
0.0
  0
LINE
  5
16D
330
1F
100
AcDbEntity
  8
SK3
  6
SLD-Dashed
370
    18
100
AcDbLine
 10
195.35
 20
7.9375
 30
0.0
 11
179.3876802748
 21
7.9375
 31
0.0
  0
LINE
  5
16E
330
1F
100
AcDbEntity
  8
SK3
  6
SLD-Dashed
370
    18
100
AcDbLine
 10
149.1002750267
 20
-7.9375
 30
0.0
 11
195.35
 21
-7.9375
 31
0.0
  0
LINE
  5
16F
330
1F
100
AcDbEntity
  8
SK3
  6
SLD-Dashed
370
    18
100
AcDbLine
 10
165.275
 20
19.05
 30
0.0
 11
165.275
 21
17.3
 31
0.0
  0
LINE
  5
170
330
1F
100
AcDbEntity
  8
SK3
  6
SLD-Dashed
370
    18
100
AcDbLine
 10
180.775
 20
17.3
 30
0.0
 11
180.775
 21
19.05
 31
0.0
  0
LINE
  5
171
330
1F
100
AcDbEntity
  8
SK3
  6
SLD-Dashed
370
    18
100
AcDbLine
 10
166.6496
 20
17.3
 30
0.0
 11
166.6496
 21
7.9375
 31
0.0
  0
LINE
  5
172
330
1F
100
AcDbEntity
  8
SK3
  6
SLD-Dashed
370
    18
100
AcDbLine
 10
179.4004
 20
7.9272961207
 30
0.0
 11
179.4004
 21
17.3
 31
0.0
  0
LINE
  5
173
330
1F
100
AcDbEntity
  8
SK3
  6
SLD-Dashed
370
    18
100
AcDbLine
 10
6.1
 20
37.5
 30
0.0
 11
6.1
 21
33.1
 31
0.0
  0
LINE
  5
174
330
1F
100
AcDbEntity
  8
SK3
  6
SLD-Dashed
370
    18
100
AcDbLine
 10
16.1
 20
33.1
 30
0.0
 11
16.1
 21
37.5
 31
0.0
  0
LINE
  5
175
330
1F
100
AcDbEntity
  8
SK3
  6
SLD-Dashed
370
    18
100
AcDbLine
 10
4.3721602964
 20
11.5156647637
 30
0.0
 11
15.0968849264
 21
8.6498529463
 31
0.0
  0
LINE
  5
176
330
1F
100
AcDbEntity
  8
SK3
  6
SLD-Dashed
370
    18
100
AcDbLine
 10
16.3618570383
 20
13.3837567853
 30
0.0
 11
5.6371324082
 21
16.2495686026
 31
0.0
  0
LINE
  5
177
330
1F
100
AcDbEntity
  8
SK3
  6
SLD-Solid
370
    18
100
AcDbLine
 10
-55.5999986827
 20
12.6999998435
 30
0.0
 11
-94.967097044
 21
12.6999998435
 31
0.0
  0
LINE
  5
178
330
1F
100
AcDbEntity
  8
SK3
  6
SLD-Solid
370
    18
100
AcDbLine
 10
-94.967097044
 20
-12.6999998465
 30
0.0
 11
-55.5999986827
 21
-12.6999998465
 31
0.0
  0
LINE
  5
179
330
1F
100
AcDbEntity
  8
SK3
  6
SLD-Solid
370
    18
100
AcDbLine
 10
-55.5999986827
 20
0.0
 30
0.0
 11
-55.5999986827
 21
-2.0372231957
 31
0.0
  0
LINE
  5
17A
330
1F
100
AcDbEntity
  8
SK3
  6
SLD-Solid
370
    18
100
AcDbLine
 10
-55.5999986827
 20
-2.0372231957
 30
0.0
 11
-55.5999986827
 21
-4.0216837078
 31
0.0
  0
LINE
  5
17B
330
1F
100
AcDbEntity
  8
SK3
  6
SLD-Solid
370
    18
100
AcDbLine
 10
-55.5999986827
 20
-4.0216837078
 30
0.0
 11
-55.5999986827
 21
-5.9019844048
 31
0.0
  0
LINE
  5
17C
330
1F
100
AcDbEntity
  8
SK3
  6
SLD-Solid
370
    18
100
AcDbLine
 10
-55.5999986827
 20
-5.9019844048
 30
0.0
 11
-55.5999986827
 21
-7.6294266619
 31
0.0
  0
LINE
  5
17D
330
1F
100
AcDbEntity
  8
SK3
  6
SLD-Solid
370
    18
100
AcDbLine
 10
-55.5999986827
 20
-7.6294266619
 30
0.0
 11
-55.5999986827
 21
-9.159270674
 31
0.0
  0
LINE
  5
17E
330
1F
100
AcDbEntity
  8
SK3
  6
SLD-Solid
370
    18
100
AcDbLine
 10
-55.5999986827
 20
-9.159270674
 30
0.0
 11
-55.5999986827
 21
-10.4518951848
 31
0.0
  0
LINE
  5
17F
330
1F
100
AcDbEntity
  8
SK3
  6
SLD-Solid
370
    18
100
AcDbLine
 10
-55.5999986827
 20
-10.4518951848
 30
0.0
 11
-55.5999986827
 21
-11.4738205448
 31
0.0
  0
LINE
  5
180
330
1F
100
AcDbEntity
  8
SK3
  6
SLD-Solid
370
    18
100
AcDbLine
 10
-55.5999986827
 20
-11.4738205448
 30
0.0
 11
-55.5999986827
 21
-12.198580429
 31
0.0
  0
LINE
  5
181
330
1F
100
AcDbEntity
  8
SK3
  6
SLD-Solid
370
    18
100
AcDbLine
 10
-55.5999986827
 20
-12.198580429
 30
0.0
 11
-55.5999986827
 21
-12.6074030995
 31
0.0
  0
LINE
  5
182
330
1F
100
AcDbEntity
  8
SK3
  6
SLD-Solid
370
    18
100
AcDbLine
 10
-55.5999986827
 20
-12.6074030995
 30
0.0
 11
-55.5999986827
 21
-12.6999998465
 31
0.0
  0
LINE
  5
183
330
1F
100
AcDbEntity
  8
SK3
  6
SLD-Solid
370
    18
100
AcDbLine
 10
-55.5999986827
 20
12.6999998435
 30
0.0
 11
-55.5999986827
 21
12.6074030995
 31
0.0
  0
LINE
  5
184
330
1F
100
AcDbEntity
  8
SK3
  6
SLD-Solid
370
    18
100
AcDbLine
 10
-55.5999986827
 20
12.6074030995
 30
0.0
 11
-55.5999986827
 21
12.198580429
 31
0.0
  0
LINE
  5
185
330
1F
100
AcDbEntity
  8
SK3
  6
SLD-Solid
370
    18
100
AcDbLine
 10
-55.5999986827
 20
12.198580429
 30
0.0
 11
-55.5999986827
 21
11.4738205448
 31
0.0
  0
LINE
  5
186
330
1F
100
AcDbEntity
  8
SK3
  6
SLD-Solid
370
    18
100
AcDbLine
 10
-55.5999986827
 20
11.4738205448
 30
0.0
 11
-55.5999986827
 21
10.4518951848
 31
0.0
  0
LINE
  5
187
330
1F
100
AcDbEntity
  8
SK3
  6
SLD-Solid
370
    18
100
AcDbLine
 10
-55.5999986827
 20
10.4518951848
 30
0.0
 11
-55.5999986827
 21
9.159270674
 31
0.0
  0
LINE
  5
188
330
1F
100
AcDbEntity
  8
SK3
  6
SLD-Solid
370
    18
100
AcDbLine
 10
-55.5999986827
 20
9.159270674
 30
0.0
 11
-55.5999986827
 21
7.6294266619
 31
0.0
  0
LINE
  5
189
330
1F
100
AcDbEntity
  8
SK3
  6
SLD-Solid
370
    18
100
AcDbLine
 10
-55.5999986827
 20
7.6294266619
 30
0.0
 11
-55.5999986827
 21
5.9019844048
 31
0.0
  0
LINE
  5
18A
330
1F
100
AcDbEntity
  8
SK3
  6
SLD-Solid
370
    18
100
AcDbLine
 10
-55.5999986827
 20
5.9019844048
 30
0.0
 11
-55.5999986827
 21
4.0216837078
 31
0.0
  0
LINE
  5
18B
330
1F
100
AcDbEntity
  8
SK3
  6
SLD-Solid
370
    18
100
AcDbLine
 10
-55.5999986827
 20
4.0216837078
 30
0.0
 11
-55.5999986827
 21
2.0372231957
 31
0.0
  0
LINE
  5
18C
330
1F
100
AcDbEntity
  8
SK3
  6
SLD-Solid
370
    18
100
AcDbLine
 10
-55.5999986827
 20
2.0372231957
 30
0.0
 11
-55.5999986827
 21
0.0
 31
0.0
  0
LINE
  5
18D
330
1F
100
AcDbEntity
  8
SK3
  6
SLD-Solid
370
    18
100
AcDbLine
 10
180.1687479019
 20
7.8817354515
 30
0.0
 11
180.1687479019
 21
17.3000004143
 31
0.0
  0
LINE
  5
18E
330
1F
100
AcDbEntity
  8
SK3
  6
SLD-Solid
370
    18
100
AcDbLine
 10
165.8812463284
 20
17.3000004143
 30
0.0
 11
165.8812463284
 21
7.8817354515
 31
0.0
  0
LINE
  5
18F
330
1F
100
AcDbEntity
  8
SK3
  6
SLD-Solid
370
    18
100
AcDbLine
 10
180.106729269
 20
7.8817354515
 30
0.0
 11
180.07825315
 21
7.8561510891
 31
0.0
  0
LINE
  5
190
330
1F
100
AcDbEntity
  8
4
  6
SLD-Center
370
    18
100
AcDbLine
 10
199.0889406986
 20
0.0
 30
0.0
 11
-0.5721383002
 21
0.0
 31
0.0
  0
LINE
  5
191
330
1F
100
AcDbEntity
  8
4
  6
SLD-Center
370
    18
100
AcDbLine
 10
173.025
 20
5.9375
 30
0.0
 11
173.025
 21
19.3
 31
0.0
  0
LINE
  5
192
330
1F
100
AcDbEntity
  8
SK4
  6
SLD-Center
370
    18
100
AcDbLine
 10
-103.7593709085
 20
0.0
 30
0.0
 11
191.01
 21
0.0
 31
0.0
  0
LINE
  5
193
330
1F
100
AcDbEntity
  8
SK3
  6
SLD-Center
370
    18
100
AcDbLine
 10
189.01
 20
0.0
 30
0.0
 11
198.85
 21
0.0
 31
0.0
  0
LINE
  5
194
330
1F
100
AcDbEntity
  8
4
  6
SLD-Center
370
    18
100
AcDbLine
 10
11.125
 20
26.8962285885
 30
0.0
 11
11.125
 21
43.7201154738
 31
0.0
  0
LINE
  5
195
330
1F
100
AcDbEntity
  8
81
370
    18
100
AcDbLine
 10
196.85
 20
0.0
 30
0.0
 11
200.3855339059
 21
3.5355339059
 31
0.0
  0
LINE
  5
196
330
1F
100
AcDbEntity
  8
81
370
    18
100
AcDbLine
 10
196.85
 20
0.0
 30
0.0
 11
193.3144660941
 21
-3.5355339059
 31
0.0
  0
LINE
  5
197
330
1F
100
AcDbEntity
  8
81
370
    18
100
AcDbLine
 10
196.85
 20
0.0
 30
0.0
 11
193.3144660941
 21
3.5355339059
 31
0.0
  0
LINE
  5
198
330
1F
100
AcDbEntity
  8
81
100
AcDbLine
 10
196.85
 20
0.0
 30
0.0
 11
206.85
 21
0.0
 31
0.0
  0
LINE
  5
199
330
1F
100
AcDbEntity
  8
81
370
    18
100
AcDbLine
 10
196.85
 20
0.0
 30
0.0
 11
200.3855339059
 21
-3.5355339059
 31
0.0
  0
LINE
  5
19A
330
1F
100
AcDbEntity
  8
80
370
    18
100
AcDbLine
 10
0.0
 20
0.0
 30
0.0
 11
-3.5355339059
 21
-3.5355339059
 31
0.0
  0
LINE
  5
19B
330
1F
100
AcDbEntity
  8
80
370
    18
100
AcDbLine
 10
0.0
 20
0.0
 30
0.0
 11
3.5355339059
 21
3.5355339059
 31
0.0
  0
LINE
  5
19C
330
1F
100
AcDbEntity
  8
80
370
    18
100
AcDbLine
 10
0.0
 20
0.0
 30
0.0
 11
-3.5355339059
 21
3.5355339059
 31
0.0
  0
LINE
  5
19D
330
1F
100
AcDbEntity
  8
80
370
    18
100
AcDbLine
 10
0.0
 20
0.0
 30
0.0
 11
-10.0
 21
0.0
 31
0.0
  0
LINE
  5
19E
330
1F
100
AcDbEntity
  8
80
370
    18
100
AcDbLine
 10
0.0
 20
0.0
 30
0.0
 11
3.5355339059
 21
-3.5355339059
 31
0.0
  0
ARC
  5
19F
330
1F
100
AcDbEntity
  8
SK3
  6
SLD-Solid
370
    25
100
AcDbCircle
 10
19.812
 20
-35.687
 30
0.0
 40
0.7620000000000005
100
AcDbArc
 50
90.0
 51
129.6624110964
  0
ARC
  5
1A0
330
1F
100
AcDbEntity
  8
1
  6
SLD-Solid
370
    25
100
AcDbCircle
 10
19.812
 20
35.687
 30
0.0
 40
0.7620000000000147
100
AcDbArc
 50
180.0
 51
270.0
  0
ARC
  5
1A1
330
1F
100
AcDbEntity
  8
1
  6
SLD-Solid
370
    25
100
AcDbCircle
 10
2.45
 20
35.425
 30
0.0
 40
0.7500000000000004
100
AcDbArc
 50
245.0
 51
0.0
  0
ARC
  5
1A2
330
1F
100
AcDbEntity
  8
1
  6
SLD-Solid
370
    25
100
AcDbCircle
 10
2.45
 20
-35.425
 30
0.0
 40
0.7500000000000052
100
AcDbArc
 50
25.3173683333
 51
115.0
  0
ARC
  5
1A3
330
1F
100
AcDbEntity
  8
1
  6
SLD-Solid
370
    25
100
AcDbCircle
 10
33.576
 20
-33.401
 30
0.0
 40
1.524000000000001
100
AcDbArc
 50
270.0
 51
0.0
  0
ARC
  5
1A4
330
1F
100
AcDbEntity
  8
1
  6
SLD-Solid
370
    25
100
AcDbCircle
 10
33.576
 20
33.401
 30
0.0
 40
1.524000000000001
100
AcDbArc
 50
0.0
 51
90.0
  0
ARC
  5
1A5
330
1F
100
AcDbEntity
  8
1
  6
SLD-Solid
370
    25
100
AcDbCircle
 10
36.624
 20
-27.0041306798
 30
0.0
 40
1.523999999999999
100
AcDbArc
 50
97.0
 51
180.0
  0
ARC
  5
1A6
330
1F
100
AcDbEntity
  8
1
  6
SLD-Solid
370
    25
100
AcDbCircle
 10
36.624
 20
27.0041306798
 30
0.0
 40
1.52400000000001
100
AcDbArc
 50
180.0
 51
263.0
  0
ARC
  5
1A7
330
1F
100
AcDbEntity
  8
SK1
  6
SLD-Solid
370
    25
100
AcDbCircle
 10
-99.5
 20
18.2922326599
 30
0.0
 40
2.100000000000023
100
AcDbArc
 50
98.2972222222
 51
180.0
  0
ARC
  5
1A8
330
1F
100
AcDbEntity
  8
SK1
  6
SLD-Solid
370
    25
100
AcDbCircle
 10
-99.5
 20
-18.2922326599
 30
0.0
 40
2.100000000000023
100
AcDbArc
 50
180.0
 51
261.7027777778
  0
ARC
  5
1A9
330
1F
100
AcDbEntity
  8
1
  6
SLD-Solid
370
    25
100
AcDbCircle
 10
173.0246517808
 20
37.1593652525
 30
0.0
 40
19.69787330071572
100
AcDbArc
 50
246.8321679592
 51
293.1275725509
  0
ARC
  5
1AA
330
1F
100
AcDbEntity
  8
1
370
    18
100
AcDbCircle
 10
173.0297230198
 20
-45.2843946481
 30
0.0
 40
27.81777522126391
100
AcDbArc
 50
70.6204375306
 51
109.4245480989
  0
CIRCLE
  5
1AB
330
1F
100
AcDbEntity
  8
81
370
    18
100
AcDbCircle
 10
196.85
 20
0.0
 30
0.0
 40
2.499999999999998
  0
CIRCLE
  5
1AC
330
1F
100
AcDbEntity
  8
80
370
    18
100
AcDbCircle
 10
0.0
 20
0.0
 30
0.0
 40
2.500000000000009
  0
SPLINE
  5
1AD
330
1F
100
AcDbEntity
  8
1
  6
SLD-Solid
370
    25
100
AcDbSpline
210
0.0
220
0.0
230
1.0
 70
     8
 71
     3
 72
    12
 73
     8
 74
     0
 42
0.000000001
 43
0.00000001
 40
0.0
 40
0.0
 40
0.0
 40
0.0
 40
0.249999999999997
 40
0.249999999999997
 40
0.499999999999994
 40
0.499999999999994
 40
1.0
 40
1.0
 40
1.0
 40
1.0
 10
3.950000000000009
 20
-47.4754841997425
 30
0.0
 10
3.849084030890598
 20
-47.4754841997425
 30
0.0
 10
3.749978417477457
 20
-47.45437693482703
 30
0.0
 10
3.566847730075512
 20
-47.37426897057827
 30
0.0
 10
3.483455095947372
 20
-47.31511647588032
 30
0.0
 10
3.278048511272599
 20
-47.09831987092233
 30
0.0
 10
3.200000000000008
 20
-46.89926900274103
 30
0.0
 10
3.200000000000008
 20
-46.69763484374771
 30
0.0
  0
SPLINE
  5
1AE
330
1F
100
AcDbEntity
  8
1
  6
SLD-Solid
370
    25
100
AcDbSpline
210
0.0
220
0.0
230
1.0
 70
     8
 71
     3
 72
    17
 73
    13
 74
     0
 42
0.000000001
 43
0.00000001
 40
0.0
 40
0.0
 40
0.0
 40
0.0
 40
0.0631225276679342
 40
0.1266732404557587
 40
0.1906578598239172
 40
0.2550819704917586
 40
0.3779677562094053
 40
0.5065287291742404
 40
0.7536275741715814
 40
0.8770326867277843
 40
0.9293515934451574
 40
1.0
 40
1.0
 40
1.0
 40
1.0
 10
3.950000000000009
 20
47.29681459776457
 30
0.0
 10
3.925201491186303
 20
47.2961118221463
 30
0.0
 10
3.875436255446299
 20
47.29470150370425
 30
0.0
 10
3.801280717948066
 20
47.28327895415907
 30
0.0
 10
3.728120549120999
 20
47.2649874618947
 30
0.0
 10
3.635342933307262
 20
47.23149463841941
 30
0.0
 10
3.525682301867306
 20
47.17267397042566
 30
0.0
 10
3.37470930049232
 20
47.04854698610308
 30
0.0
 10
3.264271220664415
 20
46.88235514412626
 30
0.0
 10
3.217384189869047
 20
46.72497704380525
 30
0.0
 10
3.20237676122297
 20
46.63086119232327
 30
0.0
 10
3.200867255992017
 20
46.58337040934664
 30
0.0
 10
3.200000000000037
 20
46.55608553132451
 30
0.0
  0
SPLINE
  5
1AF
330
1F
100
AcDbEntity
  8
1
  6
SLD-Solid
370
    25
100
AcDbSpline
210
0.0
220
0.0
230
1.0
 70
     8
 71
     3
 72
    12
 73
     8
 74
     0
 42
0.000000001
 43
0.00000001
 40
0.0
 40
0.0
 40
0.0
 40
0.0
 40
0.2499999999999983
 40
0.2499999999999983
 40
0.4999999999999967
 40
0.4999999999999967
 40
1.0
 40
1.0
 40
1.0
 40
1.0
 10
19.05000000000022
 20
-46.69763484374749
 30
0.0
 10
19.05000000000018
 20
-46.79851095846149
 30
0.0
 10
19.03137059366227
 20
-46.89733966428926
 30
0.0
 10
18.95815575330315
 20
-47.0841146964833
 30
0.0
 10
18.90402082648726
 20
-47.16991322229984
 30
0.0
 10
18.69812814693778
 20
-47.38753444472503
 30
0.0
 10
18.50197314321868
 20
-47.47548419974255
 30
0.0
 10
18.30000000000003
 20
-47.4754841997425
 30
0.0
  0
SPLINE
  5
1B0
330
1F
100
AcDbEntity
  8
1
  6
SLD-Solid
370
    25
100
AcDbSpline
210
0.0
220
0.0
230
1.0
 70
     8
 71
     3
 72
    15
 73
    11
 74
     0
 42
0.000000001
 43
0.00000001
 40
0.0
 40
0.0
 40
0.0
 40
0.0
 40
0.0708675467315475
 40
0.1234206290199029
 40
0.2469923695820237
 40
0.4940839350896436
 40
0.6226370207871864
 40
0.7456896564301972
 40
0.8736712715891333
 40
1.0
 40
1.0
 40
1.0
 40
1.0
 10
19.05
 20
46.55608553132449
 30
0.0
 10
19.04912781744714
 20
46.58344641762567
 30
0.0
 10
19.04760885250115
 20
46.6310972529315
 30
0.0
 10
19.03252103265843
 20
46.7254130161436
 30
0.0
 10
18.98548435274756
 20
46.88286431586847
 30
0.0
 10
18.87493087102097
 20
47.04890219784077
 30
0.0
 10
18.72384724354122
 20
47.17307551104538
 30
0.0
 10
18.59213990187963
 20
47.24320117906749
 30
0.0
 10
18.44967423033169
 20
47.28829435245718
 30
0.0
 10
18.34967476169824
 20
47.29398684876384
 30
0.0
 10
18.30000000000002
 20
47.29681459776457
 30
0.0
  0
SPLINE
  5
1B1
330
1F
100
AcDbEntity
  8
1
  6
SLD-Solid
370
    25
100
AcDbSpline
210
0.0
220
0.0
230
1.0
 70
     8
 71
     3
 72
     8
 73
     4
 74
     0
 42
0.000000001
 43
0.00000001
 40
0.0
 40
0.0
 40
0.0
 40
0.0
 40
1.0
 40
1.0
 40
1.0
 40
1.0
 10
7.590276606597335
 20
-47.4754841997425
 30
0.0
 10
8.12777499546441
 20
-46.51049654710809
 30
0.0
 10
8.664408048367878
 20
-45.54503249842017
 30
0.0
 10
9.2
 20
-44.57901066343647
 30
0.0
  0
SPLINE
  5
1B2
330
1F
100
AcDbEntity
  8
1
  6
SLD-Solid
370
    25
100
AcDbSpline
210
0.0
220
0.0
230
1.0
 70
     8
 71
     3
 72
     8
 73
     4
 74
     0
 42
0.000000001
 43
0.00000001
 40
0.0000000000000097
 40
0.0000000000000097
 40
0.0000000000000097
 40
0.0000000000000097
 40
0.000879067901516
 40
0.000879067901516
 40
0.000879067901516
 40
0.000879067901516
 10
7.957289380062127
 20
46.81625358782996
 30
0.0
 10
7.835334863860815
 20
46.97654627942825
 30
0.0
 10
7.712991580674053
 20
47.1367321049955
 30
0.0
 10
7.590276606597335
 20
47.29681459776457
 30
0.0
  0
SPLINE
  5
1B3
330
1F
100
AcDbEntity
  8
1
  6
SLD-Solid
370
    25
100
AcDbSpline
210
0.0
220
0.0
230
1.0
 70
     8
 71
     3
 72
     8
 73
     4
 74
     0
 42
0.000000001
 43
0.00000001
 40
0.0
 40
0.0
 40
0.0
 40
0.0
 40
1.0
 40
1.0
 40
1.0
 40
1.0
 10
7.957289380055708
 20
46.81625358784152
 30
0.0
 10
8.372088490919106
 20
46.07082082933731
 30
0.0
 10
8.786353866857969
 20
45.32508460154718
 30
0.0
 10
9.2
 20
44.57901066343647
 30
0.0
  0
SPLINE
  5
1B4
330
1F
100
AcDbEntity
  8
1
  6
SLD-Solid
370
    25
100
AcDbSpline
210
0.0
220
0.0
230
1.0
 70
     8
 71
     3
 72
    14
 73
    10
 74
     0
 42
0.000000001
 43
0.00000001
 40
0.0
 40
0.0
 40
0.0
 40
0.0
 40
0.25
 40
0.25
 40
0.5
 40
0.5
 40
0.75
 40
0.75
 40
1.0
 40
1.0
 40
1.0
 40
1.0
 10
9.200000000002277
 20
41.48301295145395
 30
0.0
 10
9.17668064615694
 20
41.55645645104906
 30
0.0
 10
9.15795689205555
 20
41.6242930684383
 30
0.0
 10
9.131927678784708
 20
41.74600607925087
 30
0.0
 10
9.125045582368472
 20
41.79860573441294
 30
0.0
 10
9.124954879643765
 20
41.88147815789093
 30
0.0
 10
9.131870505305063
 20
41.91255410941323
 30
0.0
 10
9.157670888230399
 20
41.9512409197013
 30
0.0
 10
9.176601575159578
 20
41.95960923610543
 30
0.0
 10
9.2
 20
41.95870119642319
 30
0.0
  0
SPLINE
  5
1B5
330
1F
100
AcDbEntity
  8
1
  6
SLD-Solid
370
    25
100
AcDbSpline
210
0.0
220
0.0
230
1.0
 70
     8
 71
     3
 72
    14
 73
    10
 74
     0
 42
0.000000001
 43
0.00000001
 40
0.0
 40
0.0
 40
0.0
 40
0.0
 40
0.25
 40
0.25
 40
0.5
 40
0.5
 40
0.75
 40
0.75
 40
1.0
 40
1.0
 40
1.0
 40
1.0
 10
9.2
 20
34.67668893498507
 30
0.0
 10
9.176680646155248
 20
34.76218380134751
 30
0.0
 10
9.157956892054466
 20
34.8440912290537
 30
0.0
 10
9.131927678784734
 20
34.99897222909985
 30
0.0
 10
9.125045582368957
 20
35.07047900120373
 30
0.0
 10
9.124954879645056
 20
35.19440944821504
 30
0.0
 10
9.131870505306672
 20
35.24816533561761
 30
0.0
 10
9.157670888232467
 20
35.33309634836896
 30
0.0
 10
9.176601575161758
 20
35.36545280972802
 30
0.0
 10
9.200000000002277
 20
35.38859611770597
 30
0.0
  0
SPLINE
  5
1B6
330
1F
100
AcDbEntity
  8
1
  6
SLD-Solid
370
    25
100
AcDbSpline
210
0.0
220
0.0
230
1.0
 70
     8
 71
     3
 72
    14
 73
    10
 74
     0
 42
0.000000001
 43
0.00000001
 40
0.0
 40
0.0
 40
0.0
 40
0.0
 40
0.25
 40
0.25
 40
0.5
 40
0.5
 40
0.75
 40
0.75
 40
1.0
 40
1.0
 40
1.0
 40
1.0
 10
13.02999999999609
 20
41.98711733167136
 30
0.0
 10
13.05904068228766
 20
41.99358445674419
 30
0.0
 10
13.08275209482983
 20
41.98923559020629
 30
0.0
 10
13.11609658322471
 20
41.95189511103384
 30
0.0
 10
13.1249214006751
 20
41.91935250781675
 30
0.0
 10
13.12507754967822
 20
41.82511380576852
 30
0.0
 10
13.11615053209061
 20
41.76334893396456
 30
0.0
 10
13.08319562521536
 20
41.62087672885571
 30
0.0
 10
13.0591101994963
 20
41.53942138186894
 30
0.0
 10
13.03000000000001
 20
41.45311361597066
 30
0.0
  0
SPLINE
  5
1B7
330
1F
100
AcDbEntity
  8
1
  6
SLD-Solid
370
    25
100
AcDbSpline
210
0.0
220
0.0
230
1.0
 70
     8
 71
     3
 72
     8
 73
     4
 74
     0
 42
0.000000001
 43
0.00000001
 40
0.0
 40
0.0
 40
0.0
 40
0.0
 40
1.0
 40
1.0
 40
1.0
 40
1.0
 10
13.03
 20
44.57901066343648
 30
0.0
 10
13.44364613314278
 20
45.32508460154331
 30
0.0
 10
13.8579115090824
 20
46.07082082932957
 30
0.0
 10
14.27271061994657
 20
46.81625358782992
 30
0.0
  0
SPLINE
  5
1B8
330
1F
100
AcDbEntity
  8
1
  6
SLD-Solid
370
    25
100
AcDbSpline
210
0.0
220
0.0
230
1.0
 70
     8
 71
     3
 72
     8
 73
     4
 74
     0
 42
0.000000001
 43
0.00000001
 40
0.0
 40
0.0
 40
0.0
 40
0.0
 40
0.0008790679015124
 40
0.0008790679015124
 40
0.0008790679015124
 40
0.0008790679015124
 10
14.63972339340267
 20
47.29681459776456
 30
0.0
 10
14.51700841932646
 20
47.13673210499613
 30
0.0
 10
14.39466513614737
 20
46.97654627942752
 30
0.0
 10
14.27271061994657
 20
46.81625358782992
 30
0.0
  0
SPLINE
  5
1B9
330
1F
100
AcDbEntity
  8
1
  6
SLD-Solid
370
    25
100
AcDbSpline
210
0.0
220
0.0
230
1.0
 70
     8
 71
     3
 72
     8
 73
     4
 74
     0
 42
0.000000001
 43
0.00000001
 40
0.0
 40
0.0
 40
0.0
 40
0.0
 40
1.0
 40
1.0
 40
1.0
 40
1.0
 10
13.03
 20
-44.57901066343648
 30
0.0
 10
13.56559195163211
 20
-45.54503249842018
 30
0.0
 10
14.10222500453559
 20
-46.5104965471081
 30
0.0
 10
14.63972339340267
 20
-47.4754841997425
 30
0.0
  0
SPLINE
  5
1BA
330
1F
100
AcDbEntity
  8
1
  6
SLD-Solid
370
    25
100
AcDbSpline
210
0.0
220
0.0
230
1.0
 70
     8
 71
     3
 72
    14
 73
    10
 74
     0
 42
0.000000001
 43
0.00000001
 40
0.0
 40
0.0
 40
0.0
 40
0.0
 40
0.25
 40
0.25
 40
0.5
 40
0.5
 40
0.75
 40
0.75
 40
1.0
 40
1.0
 40
1.0
 40
1.0
 10
13.03000000000001
 20
35.43161038841293
 30
0.0
 10
13.05904068229165
 20
35.41088512733873
 30
0.0
 10
13.08275209483377
 20
35.37953864703776
 30
0.0
 10
13.1160965832284
 20
35.28872072742526
 30
0.0
 10
13.12492140067853
 20
35.23076880196018
 30
0.0
 10
13.12507754968094
 20
35.08956907537861
 30
0.0
 10
13.11615053209289
 20
35.0064890617757
 30
0.0
 10
13.08319562521658
 20
34.82779421025376
 30
0.0
 10
13.0591101994969
 20
34.73111937885589
 30
0.0
 10
13.03
 20
34.63242923389118
 30
0.0
  0
SPLINE
  5
1BB
330
1F
100
AcDbEntity
  8
1
  6
SLD-Solid
370
    25
100
AcDbSpline
210
0.0
220
0.0
230
1.0
 70
     8
 71
     3
 72
    12
 73
     8
 74
     0
 42
0.000000001
 43
0.00000001
 40
0.0
 40
0.0
 40
0.0
 40
0.0
 40
0.2500000000000032
 40
0.2500000000000032
 40
0.5000000000000063
 40
0.5000000000000063
 40
1.0
 40
1.0
 40
1.0
 40
1.0
 10
12.28000000000003
 20
-43.76943596849289
 30
0.0
 10
12.37996960464108
 20
-43.76943596849289
 30
0.0
 10
12.47988502523367
 20
-43.79051518316404
 30
0.0
 10
12.6644929422387
 20
-43.87194262843689
 30
0.0
 10
12.74728498815326
 20
-43.93126060501207
 30
0.0
 10
12.95342033959715
 20
-44.15080408372863
 30
0.0
 10
13.03000000000001
 20
-44.35163254795798
 30
0.0
 10
13.03000000000001
 20
-44.551021593225
 30
0.0
  0
SPLINE
  5
1BC
330
1F
100
AcDbEntity
  8
1
  6
SLD-Solid
370
    25
100
AcDbSpline
210
0.0
220
0.0
230
1.0
 70
     8
 71
     3
 72
    16
 73
    12
 74
     0
 42
0.000000001
 43
0.00000001
 40
0.0
 40
0.0
 40
0.0
 40
0.0
 40
0.1250000000000001
 40
0.1250000000000001
 40
0.2500000000000003
 40
0.2500000000000003
 40
0.5000000000000002
 40
0.5000000000000002
 40
0.7500000000000001
 40
0.7500000000000001
 40
1.0
 40
1.0
 40
1.0
 40
1.0
 10
13.03000000000001
 20
34.61214293353757
 30
0.0
 10
13.03000000000003
 20
34.56119277402759
 30
0.0
 10
13.02067456260611
 20
34.49413963137994
 30
0.0
 10
12.99367590047851
 20
34.36331338142202
 30
0.0
 10
12.97626449755332
 20
34.29908556562462
 30
0.0
 10
12.91545405813534
 20
34.11096290842622
 30
0.0
 10
12.86271449633859
 20
33.99023971150844
 30
0.0
 10
12.73634152951909
 20
33.76817627154973
 30
0.0
 10
12.66098841639739
 20
33.66394234496747
 30
0.0
 10
12.48671204537784
 20
33.48358218869544
 30
0.0
 10
12.38972674335428
 20
33.40848998465463
 30
0.0
 10
12.28000000000003
 20
33.35547071674117
 30
0.0
  0
SPLINE
  5
1BD
330
1F
100
AcDbEntity
  8
1
  6
SLD-Solid
370
    25
100
AcDbSpline
210
0.0
220
0.0
230
1.0
 70
     8
 71
     3
 72
    12
 73
     8
 74
     0
 42
0.000000001
 43
0.00000001
 40
0.0
 40
0.0
 40
0.0
 40
0.0
 40
0.5
 40
0.5
 40
0.75
 40
0.75
 40
1.0
 40
1.0
 40
1.0
 40
1.0
 10
9.2
 20
-44.55102159322499
 30
0.0
 10
9.2
 20
-44.35094747116167
 30
0.0
 10
9.277613070150112
 20
-44.14958800989076
 30
0.0
 10
9.482511037300592
 20
-43.93153570225751
 30
0.0
 10
9.56627229985231
 20
-43.87162606259759
 30
0.0
 10
9.749092094904377
 20
-43.79094541821726
 30
0.0
 10
9.849426682175658
 20
-43.7694359684929
 30
0.0
 10
9.950000000000001
 20
-43.76943596849289
 30
0.0
  0
SPLINE
  5
1BE
330
1F
100
AcDbEntity
  8
1
  6
SLD-Solid
370
    25
100
AcDbSpline
210
0.0
220
0.0
230
1.0
 70
     8
 71
     3
 72
    16
 73
    12
 74
     0
 42
0.000000001
 43
0.00000001
 40
0.0
 40
0.0
 40
0.0
 40
0.0
 40
0.2500000000000035
 40
0.2500000000000035
 40
0.500000000000007
 40
0.500000000000007
 40
0.7500000000000104
 40
0.7500000000000104
 40
0.8750000000000052
 40
0.8750000000000052
 40
1.0
 40
1.0
 40
1.0
 40
1.0
 10
9.950000000000001
 20
33.36525953046025
 30
0.0
 10
9.839257595210663
 20
33.42015914282666
 30
0.0
 10
9.740416734001444
 20
33.49854219709402
 30
0.0
 10
9.564708009184061
 20
33.68553569890508
 30
0.0
 10
9.490830483266114
 20
33.79082769792041
 30
0.0
 10
9.364658348120031
 20
34.01955880125701
 30
0.0
 10
9.312951425518149
 20
34.1424743957044
 30
0.0
 10
9.253206550793827
 20
34.33488461785979
 30
0.0
 10
9.236028623043957
 20
34.4012196258066
 30
0.0
 10
9.209723703057046
 20
34.53368853253286
 30
0.0
 10
9.200000000000014
 20
34.60516910831216
 30
0.0
 10
9.200000000000014
 20
34.65640299543516
 30
0.0
  0
SPLINE
  5
1BF
330
1F
100
AcDbEntity
  8
1
  6
SLD-Solid
370
    25
100
AcDbSpline
210
0.0
220
0.0
230
1.0
 70
     8
 71
     3
 72
    12
 73
     8
 74
     0
 42
0.000000001
 43
0.00000001
 40
0.0
 40
0.0
 40
0.0
 40
0.0
 40
0.2500000000000006
 40
0.2500000000000006
 40
0.5000000000000011
 40
0.5000000000000011
 40
1.0
 40
1.0
 40
1.0
 40
1.0
 10
12.28000000000003
 20
33.35547071674117
 30
0.0
 10
12.10934456477528
 20
33.27301109054178
 30
0.0
 10
11.92465326465505
 20
33.21019284332252
 30
0.0
 10
11.52752277837885
 20
33.124142789094
 30
0.0
 10
11.32193513118782
 20
33.10278110396342
 30
0.0
 10
10.69948105299426
 20
33.10504385732295
 30
0.0
 10
10.28831449591983
 20
33.19754297491613
 30
0.0
 10
9.950000000000001
 20
33.36525953046025
 30
0.0
  0
SPLINE
  5
1C0
330
1F
100
AcDbEntity
  8
1
  6
SLD-Solid
370
    25
100
AcDbSpline
210
0.0
220
0.0
230
1.0
 70
     8
 71
     3
 72
    16
 73
    12
 74
     0
 42
0.000000001
 43
0.00000001
 40
0.0
 40
0.0
 40
0.0
 40
0.0
 40
0.2500000000000002
 40
0.2500000000000002
 40
0.5000000000000004
 40
0.5000000000000004
 40
0.7500000000000007
 40
0.7500000000000007
 40
0.8750000000000003
 40
0.8750000000000003
 40
1.0
 40
1.0
 40
1.0
 40
1.0
 10
12.28000000000003
 20
35.49787263615901
 30
0.0
 10
12.38938127142808
 20
35.44920071538321
 30
0.0
 10
12.48719790588469
 20
35.4125691393556
 30
0.0
 10
12.66235653858859
 20
35.35237067244716
 30
0.0
 10
12.73630362704299
 20
35.33005450148762
 30
0.0
 10
12.86322577731737
 20
35.29810085202675
 30
0.0
 10
12.91570572130095
 20
35.28773767542292
 30
0.0
 10
12.97658934509431
 20
35.29443860847591
 30
0.0
 10
12.99409980251967
 20
35.30029296727562
 30
0.0
 10
13.02084597296049
 20
35.33271449864376
 30
0.0
 10
13.03000000000003
 20
35.36068432142828
 30
0.0
 10
13.03000000000001
 20
35.41132408805679
 30
0.0
  0
SPLINE
  5
1C1
330
1F
100
AcDbEntity
  8
1
  6
SLD-Solid
370
    25
100
AcDbSpline
210
0.0
220
0.0
230
1.0
 70
     8
 71
     3
 72
    16
 73
    12
 74
     0
 42
0.000000001
 43
0.00000001
 40
0.0
 40
0.0
 40
0.0
 40
0.0
 40
0.1250000000000023
 40
0.1250000000000023
 40
0.2500000000000046
 40
0.2500000000000046
 40
0.5000000000000031
 40
0.5000000000000031
 40
0.7500000000000016
 40
0.7500000000000016
 40
1.0
 40
1.0
 40
1.0
 40
1.0
 10
9.200000000002277
 20
35.36831017815611
 30
0.0
 10
9.200000000002277
 20
35.31693147875156
 30
0.0
 10
9.209688078859537
 20
35.29149399689031
 30
0.0
 10
9.236073415531509
 20
35.26518486787037
 30
0.0
 10
9.253070624736903
 20
35.26193032552649
 30
0.0
 10
9.313034815209036
 20
35.26168910608327
 30
0.0
 10
9.363922455821447
 20
35.27477154515098
 30
0.0
 10
9.490054525543995
 20
35.31156519648361
 30
0.0
 10
9.565092430037724
 20
35.33621653959832
 30
0.0
 10
9.7389246472655
 20
35.39932894997411
 30
0.0
 10
9.839445946349986
 20
35.43834692831611
 30
0.0
 10
9.950000000000001
 20
35.48885481142475
 30
0.0
  0
SPLINE
  5
1C2
330
1F
100
AcDbEntity
  8
1
  6
SLD-Solid
370
    25
100
AcDbSpline
210
0.0
220
0.0
230
1.0
 70
     8
 71
     3
 72
    12
 73
     8
 74
     0
 42
0.000000001
 43
0.00000001
 40
0.0
 40
0.0
 40
0.0
 40
0.0
 40
0.25
 40
0.25
 40
0.5
 40
0.5
 40
1.0
 40
1.0
 40
1.0
 40
1.0
 10
9.950000000000001
 20
35.48885481142475
 30
0.0
 10
10.11915676939239
 20
35.56613601508452
 30
0.0
 10
10.30270770519948
 20
35.62476545355776
 30
0.0
 10
10.69826560395111
 20
35.70597605697655
 30
0.0
 10
10.9034564783033
 20
35.72681273192288
 30
0.0
 10
11.52590240230555
 20
35.72953904175431
 30
0.0
 10
11.93868796900774
 20
35.64974792445469
 30
0.0
 10
12.28000000000003
 20
35.49787263615901
 30
0.0
  0
SPLINE
  5
1C3
330
1F
100
AcDbEntity
  8
1
  6
SLD-Solid
370
    25
100
AcDbSpline
210
0.0
220
0.0
230
1.0
 70
     8
 71
     3
 72
    16
 73
    12
 74
     0
 42
0.000000001
 43
0.00000001
 40
0.0
 40
0.0
 40
0.0
 40
0.0
 40
0.2499999999999998
 40
0.2499999999999998
 40
0.4999999999999996
 40
0.4999999999999996
 40
0.7499999999999993
 40
0.7499999999999993
 40
0.8749999999999997
 40
0.8749999999999997
 40
1.0
 40
1.0
 40
1.0
 40
1.0
 10
9.950000000000001
 20
40.29017607249212
 30
0.0
 10
9.839257595210677
 20
40.32798470963449
 30
0.0
 10
9.740416734001444
 20
40.39081531012379
 30
0.0
 10
9.564708009184075
 20
40.54795546550076
 30
0.0
 10
9.490830483266114
 20
40.63949231484413
 30
0.0
 10
9.364658348120031
 20
40.8424769902905
 30
0.0
 10
9.312951425518149
 20
40.95326880810712
 30
0.0
 10
9.253206550793827
 20
41.13218036853985
 30
0.0
 10
9.236028623043957
 20
41.19470581500534
 30
0.0
 10
9.209723703057046
 20
41.32469951294973
 30
0.0
 10
9.200000000000014
 20
41.3978390036328
 30
0.0
 10
9.200000000000014
 20
41.45885414630703
 30
0.0
  0
SPLINE
  5
1C4
330
1F
100
AcDbEntity
  8
1
  6
SLD-Solid
370
    25
100
AcDbSpline
210
0.0
220
0.0
230
1.0
 70
     8
 71
     3
 72
    16
 73
    12
 74
     0
 42
0.000000001
 43
0.00000001
 40
0.0
 40
0.0
 40
0.0
 40
0.0
 40
0.1250000000000039
 40
0.1250000000000039
 40
0.2500000000000078
 40
0.2500000000000078
 40
0.5000000000000051
 40
0.5000000000000051
 40
0.7500000000000026
 40
0.7500000000000026
 40
1.0
 40
1.0
 40
1.0
 40
1.0
 10
13.02999999999836
 20
41.42895438114485
 30
0.0
 10
13.02999999999838
 20
41.36827713359745
 30
0.0
 10
13.02067456260446
 20
41.29860125514492
 30
0.0
 10
12.99367590047686
 20
41.16856540733186
 30
0.0
 10
12.97626449755167
 20
41.10738101936697
 30
0.0
 10
12.91545405813368
 20
40.93079740642491
 30
0.0
 10
12.86271449633694
 20
40.8213021261172
 30
0.0
 10
12.73634152951744
 20
40.6232035604692
 30
0.0
 10
12.66098841639576
 20
40.53226162144244
 30
0.0
 10
12.48671204537619
 20
40.38027498384282
 30
0.0
 10
12.38972674335263
 20
40.31995671599527
 30
0.0
 10
12.27999999999838
 20
40.28343379132452
 30
0.0
  0
SPLINE
  5
1C5
330
1F
100
AcDbEntity
  8
1
  6
SLD-Solid
370
    25
100
AcDbSpline
210
0.0
220
0.0
230
1.0
 70
     8
 71
     3
 72
    12
 73
     8
 74
     0
 42
0.000000001
 43
0.00000001
 40
0.0
 40
0.0
 40
0.0
 40
0.0
 40
0.25
 40
0.25
 40
0.5
 40
0.5
 40
1.0
 40
1.0
 40
1.0
 40
1.0
 10
12.27999999999838
 20
40.28343379132452
 30
0.0
 10
12.10934456477363
 20
40.22663054158943
 30
0.0
 10
11.9246532646534
 20
40.1831865120628
 30
0.0
 10
11.52752277837721
 20
40.12362389225039
 30
0.0
 10
11.32193513118618
 20
40.10880147711194
 30
0.0
 10
10.69948105299263
 20
40.11037023230935
 30
0.0
 10
10.28831449592009
 20
40.17467189827313
 30
0.0
 10
9.950000000000001
 20
40.29017607249212
 30
0.0
  0
SPLINE
  5
1C6
330
1F
100
AcDbEntity
  8
1
  6
SLD-Solid
370
    25
100
AcDbSpline
210
0.0
220
0.0
230
1.0
 70
     8
 71
     3
 72
    16
 73
    12
 74
     0
 42
0.000000001
 43
0.00000001
 40
0.0
 40
0.0
 40
0.0
 40
0.0
 40
0.1250000000000007
 40
0.1250000000000007
 40
0.2500000000000013
 40
0.2500000000000013
 40
0.5000000000000009
 40
0.5000000000000009
 40
0.7500000000000004
 40
0.7500000000000004
 40
1.0
 40
1.0
 40
1.0
 40
1.0
 10
9.2
 20
41.93454239124897
 30
0.0
 10
9.200000000002511
 20
41.87335478963723
 30
0.0
 10
9.209688078861273
 20
41.83111047963454
 30
0.0
 10
9.236073415534646
 20
41.77192904688973
 30
0.0
 10
9.253070624740484
 20
41.7517445546343
 30
0.0
 10
9.313034815213339
 20
41.70102846576505
 30
0.0
 10
9.363922455825804
 20
41.68155707128334
 30
0.0
 10
9.490054525547894
 20
41.65587219504388
 30
0.0
 10
9.56509243004093
 20
41.65088437918838
 30
0.0
 10
9.738924647266625
 20
41.66113961911402
 30
0.0
 10
9.839445946349597
 20
41.67651281331742
 30
0.0
 10
9.949999999997724
 20
41.7091381742131
 30
0.0
  0
SPLINE
  5
1C7
330
1F
100
AcDbEntity
  8
1
  6
SLD-Solid
370
    25
100
AcDbSpline
210
0.0
220
0.0
230
1.0
 70
     8
 71
     3
 72
    12
 73
     8
 74
     0
 42
0.000000001
 43
0.00000001
 40
0.0
 40
0.0
 40
0.0
 40
0.0
 40
0.25
 40
0.25
 40
0.5
 40
0.5
 40
1.0
 40
1.0
 40
1.0
 40
1.0
 10
9.949999999997724
 20
41.7091381742131
 30
0.0
 10
10.11915676938996
 20
41.75905765221763
 30
0.0
 10
10.30270770519869
 20
41.79673649998864
 30
0.0
 10
10.69826560394989
 20
41.84886357628232
 30
0.0
 10
10.90345647830176
 20
41.86219397810196
 30
0.0
 10
11.52590240230299
 20
41.8639399469169
 30
0.0
 10
11.93868796900438
 20
41.81303425518009
 30
0.0
 10
12.2799999999961
 20
41.71496227396707
 30
0.0
  0
SPLINE
  5
1C8
330
1F
100
AcDbEntity
  8
1
  6
SLD-Solid
370
    25
100
AcDbSpline
210
0.0
220
0.0
230
1.0
 70
     8
 71
     3
 72
    16
 73
    12
 74
     0
 42
0.000000001
 43
0.00000001
 40
0.0
 40
0.0
 40
0.0
 40
0.0
 40
0.2500000000000007
 40
0.2500000000000007
 40
0.5000000000000013
 40
0.5000000000000013
 40
0.750000000000002
 40
0.750000000000002
 40
0.875000000000001
 40
0.875000000000001
 40
1.0
 40
1.0
 40
1.0
 40
1.0
 10
12.2799999999961
 20
41.71496227396707
 30
0.0
 10
12.38938127142414
 20
41.68353285741419
 30
0.0
 10
12.48719790588076
 20
41.66923447164883
 30
0.0
 10
12.66235653858466
 20
41.66075308180612
 30
0.0
 10
12.73630362703906
 20
41.66679667497377
 30
0.0
 10
12.86322577731344
 20
41.69542238628982
 30
0.0
 10
12.91570572129702
 20
41.71723646207175
 30
0.0
 10
12.9765893450904
 20
41.77277628648039
 30
0.0
 10
12.99409980251576
 20
41.79517110958684
 30
0.0
 10
13.02084597295657
 20
41.85934368895602
 30
0.0
 10
13.02999999999609
 20
41.90265050045378
 30
0.0
 10
13.02999999999609
 20
41.96295809683838
 30
0.0
  0
SPLINE
  5
1C9
330
1F
100
AcDbEntity
  8
1
  6
SLD-Solid
370
    25
100
AcDbSpline
210
0.0
220
0.0
230
1.0
 70
     8
 71
     3
 72
    12
 73
     8
 74
     0
 42
0.000000001
 43
0.00000001
 40
0.0
 40
0.0
 40
0.0
 40
0.0
 40
0.5
 40
0.5
 40
0.75
 40
0.75
 40
1.0
 40
1.0
 40
1.0
 40
1.0
 10
9.2
 20
44.55102159322499
 30
0.0
 10
9.2
 20
44.35104831812288
 30
0.0
 10
9.27600396681734
 20
44.15150826736531
 30
0.0
 10
9.482759040153486
 20
43.93116827137958
 30
0.0
 10
9.566857937314946
 20
43.87128621650869
 30
0.0
 10
9.749511247261145
 20
43.79084228716471
 30
0.0
 10
9.850156242870487
 20
43.76943596849257
 30
0.0
 10
9.950000000002415
 20
43.76943596849289
 30
0.0
  0
SPLINE
  5
1CA
330
1F
100
AcDbEntity
  8
1
  6
SLD-Solid
370
    25
100
AcDbSpline
210
0.0
220
0.0
230
1.0
 70
     8
 71
     3
 72
    10
 73
     6
 74
     0
 42
0.000000001
 43
0.00000001
 40
0.0
 40
0.0
 40
0.0
 40
0.0
 40
0.5
 40
0.5
 40
1.0
 40
1.0
 40
1.0
 40
1.0
 10
12.28000000000003
 20
43.76943596849289
 30
0.0
 10
12.48122846377885
 20
43.76943596849291
 30
0.0
 10
12.6790093261089
 20
43.85856672856718
 30
0.0
 10
12.95290221427664
 20
44.15022946993261
 30
0.0
 10
13.03000000000001
 20
44.34957328976747
 30
0.0
 10
13.03000000000001
 20
44.55102159322499
 30
0.0
  0
SPLINE
  5
1CB
330
1F
100
AcDbEntity
  8
SK3
  6
SLD-Dashed
370
    18
100
AcDbSpline
210
0.0
220
0.0
230
1.0
 70
     8
 71
     3
 72
    30
 73
    26
 74
     0
 42
0.000000001
 43
0.00000001
 40
0.4999999999999934
 40
0.4999999999999934
 40
0.4999999999999934
 40
0.4999999999999934
 40
0.5624999999999941
 40
0.5624999999999941
 40
0.6249999999999949
 40
0.6249999999999949
 40
0.6874999999999956
 40
0.6874999999999956
 40
0.7499999999999962
 40
0.7499999999999962
 40
0.7812499999999968
 40
0.7812499999999968
 40
0.8124999999999972
 40
0.8124999999999972
 40
0.8437499999999977
 40
0.8437499999999977
 40
0.8749999999999981
 40
0.8749999999999981
 40
0.9062499999999986
 40
0.9062499999999986
 40
0.9374999999999991
 40
0.9374999999999991
 40
0.9687499999999996
 40
0.9687499999999996
 40
1.0
 40
1.0
 40
1.0
 40
1.0
 10
9.602846279599758
 20
-14.27915034605701
 30
0.0
 10
9.68645653869378
 20
-14.42125418637639
 30
0.0
 10
9.797407143447817
 20
-14.51131733768216
 30
0.0
 10
10.04010223607202
 20
-14.63242374926582
 30
0.0
 10
10.17571106347531
 20
-14.66434400040093
 30
0.0
 10
10.46843928875954
 20
-14.6878509066433
 30
0.0
 10
10.62555865364897
 20
-14.68003033606001
 30
0.0
 10
10.98145473780839
 20
-14.62436653420486
 30
0.0
 10
11.18157682258662
 20
-14.57632221838472
 30
0.0
 10
11.50801002825755
 20
-14.4586089343655
 30
0.0
 10
11.61873162334195
 20
-14.41242944660508
 30
0.0
 10
11.84220113938107
 20
-14.30063256215535
 30
0.0
 10
11.95412269444689
 20
-14.23490090158665
 30
0.0
 10
12.16107863552154
 20
-14.08747705033184
 30
0.0
 10
12.25901625186734
 20
-14.00366784802362
 30
0.0
 10
12.43052677631516
 20
-13.82249974419393
 30
0.0
 10
12.50593330594163
 20
-13.72350506925876
 30
0.0
 10
12.63000303324958
 20
-13.51367430078405
 30
0.0
 10
12.67841410243614
 20
-13.4039848685676
 30
0.0
 10
12.74789370637348
 20
-13.17359881812363
 30
0.0
 10
12.7681012463063
 20
-13.05468203931826
 30
0.0
 10
12.77891027826543
 20
-12.81644825424547
 30
0.0
 10
12.76940813581852
 20
-12.69449512908379
 30
0.0
 10
12.72129905847916
 20
-12.45817259633889
 30
0.0
 10
12.68301625646431
 20
-12.3430480331033
 30
0.0
 10
12.63040931107569
 20
-12.2323343638947
 30
0.0
  0
SPLINE
  5
1CC
330
1F
100
AcDbEntity
  8
SK3
  6
SLD-Dashed
370
    18
100
AcDbSpline
210
0.0
220
0.0
230
1.0
 70
     8
 71
     3
 72
    30
 73
    26
 74
     0
 42
0.000000001
 43
0.00000001
 40
0.0
 40
0.0
 40
0.0
 40
0.0
 40
0.0312499999999991
 40
0.0312499999999991
 40
0.0624999999999983
 40
0.0624999999999983
 40
0.0937499999999974
 40
0.0937499999999974
 40
0.1249999999999965
 40
0.1249999999999965
 40
0.187499999999996
 40
0.187499999999996
 40
0.2499999999999955
 40
0.2499999999999955
 40
0.312499999999995
 40
0.312499999999995
 40
0.3749999999999944
 40
0.3749999999999944
 40
0.4062499999999942
 40
0.4062499999999942
 40
0.4374999999999939
 40
0.4374999999999939
 40
0.4687499999999937
 40
0.4687499999999937
 40
0.4999999999999934
 40
0.4999999999999934
 40
0.4999999999999934
 40
0.4999999999999934
 10
12.63040931107569
 20
-12.2323343638947
 30
0.0
 10
12.57780236568703
 20
-12.12162069468611
 30
0.0
 10
12.5126720645931
 20
-12.01896209858504
 30
0.0
 10
12.35821503903349
 20
-11.83123217673027
 30
0.0
 10
12.2680065585952
 20
-11.74609765066666
 30
0.0
 10
12.07343499093628
 20
-11.60605794329098
 30
0.0
 10
11.96643370486067
 20
-11.54920121804521
 30
0.0
 10
11.74573264298214
 20
-11.4698171939369
 30
0.0
 10
11.6340655249776
 20
-11.44748668283022
 30
0.0
 10
11.2995180174269
 20
-11.42770686560523
 30
0.0
 10
11.09198428069953
 20
-11.47806879673263
 30
0.0
 10
10.72217844091648
 20
-11.64236243808864
 30
0.0
 10
10.55844908096597
 20
-11.75496051093635
 30
0.0
 10
10.25324958882708
 20
-12.02428585488715
 30
0.0
 10
10.11576882260312
 20
-12.17795893248197
 30
0.0
 10
9.86252561936532
 20
-12.52988094775973
 30
0.0
 10
9.74626089640203
 20
-12.72918710194006
 30
0.0
 10
9.605692660850485
 20
-13.06645756895028
 30
0.0
 10
9.565421636406127
 20
-13.18319961587417
 30
0.0
 10
9.503286004234612
 20
-13.4293677611186
 30
0.0
 10
9.482363995141311
 20
-13.55752069830021
 30
0.0
 10
9.470908412243753
 20
-13.80546799718778
 30
0.0
 10
9.480664817462667
 20
-13.92083957613647
 30
0.0
 10
9.525951505689648
 20
-14.12239475073259
 30
0.0
 10
9.561041150052768
 20
-14.20809842589733
 30
0.0
 10
9.602846279599758
 20
-14.27915034605701
 30
0.0
  0
SPLINE
  5
1CD
330
1F
100
AcDbEntity
  8
SK3
  6
SLD-Dashed
370
    18
100
AcDbSpline
210
0.0
220
0.0
230
1.0
 70
     8
 71
     3
 72
    26
 73
    22
 74
     0
 42
0.000000001
 43
0.00000001
 40
0.5000000000000062
 40
0.5000000000000062
 40
0.5000000000000062
 40
0.5000000000000062
 40
0.5625000000000058
 40
0.5625000000000058
 40
0.6250000000000051
 40
0.6250000000000051
 40
0.6562500000000046
 40
0.6562500000000046
 40
0.687500000000004
 40
0.687500000000004
 40
0.7187500000000034
 40
0.7187500000000034
 40
0.7500000000000029
 40
0.7500000000000029
 40
0.8125000000000022
 40
0.8125000000000022
 40
0.8750000000000014
 40
0.8750000000000014
 40
0.9375000000000008
 40
0.9375000000000008
 40
1.0
 40
1.0
 40
1.0
 40
1.0
 10
11.63869831779571
 20
-9.819390371339228
 30
0.0
 10
11.80317915771348
 20
-9.806594466981574
 30
0.0
 10
11.95081782962318
 20
-9.812432081454686
 30
0.0
 10
12.22616299685252
 20
-9.868839301598992
 30
0.0
 10
12.3523651546992
 20
-9.918953620877927
 30
0.0
 10
12.51874661426342
 20
-10.04837289060635
 30
0.0
 10
12.57051953396254
 20
-10.10115000339698
 30
0.0
 10
12.66070184098386
 20
-10.23071744026808
 30
0.0
 10
12.7000179600585
 20
-10.30921538460778
 30
0.0
 10
12.7562433913955
 20
-10.49493258066048
 30
0.0
 10
12.7732316530057
 20
-10.60488156995157
 30
0.0
 10
12.7764946288975
 20
-10.84110300053568
 30
0.0
 10
12.76278670669288
 20
-10.96977043023328
 30
0.0
 10
12.68516730486995
 20
-11.34647137591011
 30
0.0
 10
12.58996305158963
 20
-11.58088814423495
 30
0.0
 10
12.37315603453731
 20
-11.98947715399204
 30
0.0
 10
12.24747178673947
 20
-12.17132846963892
 30
0.0
 10
11.97676737519451
 20
-12.48981349043029
 30
0.0
 10
11.83102686354771
 20
-12.62828009284685
 30
0.0
 10
11.50508373269933
 20
-12.86276351579439
 30
0.0
 10
11.32747339457477
 20
-12.95749122616766
 30
0.0
 10
11.12500000000001
 20
-13.01159523973385
 30
0.0
  0
SPLINE
  5
1CE
330
1F
100
AcDbEntity
  8
SK3
  6
SLD-Dashed
370
    18
100
AcDbSpline
210
0.0
220
0.0
230
1.0
 70
     8
 71
     3
 72
    34
 73
    30
 74
     0
 42
0.000000001
 43
0.00000001
 40
0.0
 40
0.0
 40
0.0
 40
0.0
 40
0.0312500000000005
 40
0.0312500000000005
 40
0.0625000000000011
 40
0.0625000000000011
 40
0.0937500000000016
 40
0.0937500000000016
 40
0.1250000000000022
 40
0.1250000000000022
 40
0.1562500000000027
 40
0.1562500000000027
 40
0.1875000000000032
 40
0.1875000000000032
 40
0.2187500000000038
 40
0.2187500000000038
 40
0.2500000000000043
 40
0.2500000000000043
 40
0.2812500000000049
 40
0.2812500000000049
 40
0.3125000000000054
 40
0.3125000000000054
 40
0.3750000000000063
 40
0.3750000000000063
 40
0.4062500000000066
 40
0.4062500000000066
 40
0.4375000000000068
 40
0.4375000000000068
 40
0.5000000000000062
 40
0.5000000000000062
 40
0.5000000000000062
 40
0.5000000000000062
 10
11.12500000000001
 20
-13.01159523973386
 30
0.0
 10
11.02376330271263
 20
-13.03864724651694
 30
0.0
 10
10.91875434041334
 20
-13.05441768585464
 30
0.0
 10
10.6998219372948
 20
-13.05649587060871
 30
0.0
 10
10.58565504429783
 20
-13.04203538439391
 30
0.0
 10
10.3643330690885
 20
-12.97958779527627
 30
0.0
 10
10.25386240054305
 20
-12.93066318687883
 30
0.0
 10
10.04998753866612
 20
-12.80335962284301
 30
0.0
 10
9.955887873020986
 20
-12.72514830576757
 30
0.0
 10
9.789076352163569
 20
-12.54575166602603
 30
0.0
 10
9.718022202672067
 20
-12.44674722204855
 30
0.0
 10
9.600536001433193
 20
-12.2325086195109
 30
0.0
 10
9.555159683901222
 20
-12.11851015366411
 30
0.0
 10
9.49353895391432
 20
-11.88585378314762
 30
0.0
 10
9.476799814585934
 20
-11.76451266100634
 30
0.0
 10
9.473480888754688
 20
-11.52533259241782
 30
0.0
 10
9.486354225371821
 20
-11.40705029377197
 30
0.0
 10
9.541906609790443
 20
-11.17282024047875
 30
0.0
 10
9.583939125903774
 20
-11.06025657731945
 30
0.0
 10
9.694361385739578
 20
-10.84625731946299
 30
0.0
 10
9.764046986917323
 20
-10.74326010657126
 30
0.0
 10
10.00399120049177
 20
-10.46156575413965
 30
0.0
 10
10.21277179464264
 20
-10.30327029353935
 30
0.0
 10
10.54446991129009
 20
-10.12219171688678
 30
0.0
 10
10.6592589859006
 20
-10.07012567259635
 30
0.0
 10
10.87934718809656
 20
-9.984066675225876
 30
0.0
 10
10.98764418607852
 20
-9.948726825148157
 30
0.0
 10
11.29210738731389
 20
-9.863765363482663
 30
0.0
 10
11.47421747787793
 20
-9.832186275696882
 30
0.0
 10
11.63869831779571
 20
-9.819390371339228
 30
0.0
  0
SPLINE
  5
1CF
330
1F
100
AcDbEntity
  8
SK3
  6
SLD-Dashed
370
    18
100
AcDbSpline
210
0.0
220
0.0
230
1.0
 70
    24
 71
     3
 72
    10
 73
     6
 74
     0
 42
0.000000001
 43
0.00000001
 40
0.0
 40
0.0
 40
0.0
 40
0.0
 40
0.0412513599854001
 40
0.6084400633843371
 40
1.0
 40
1.0
 40
1.0
 40
1.0
 10
19.05
 20
-35.1
 30
0.0
 10
19.05022425452504
 20
-35.10000000000001
 30
0.0
 10
19.05353191365372
 20
-35.10000000000004
 30
0.0
 10
19.19786180910087
 20
-35.10000000000001
 30
0.0
 10
19.26048762700176
 20
-35.1
 30
0.0
 10
19.2860644677547
 20
-35.1
 30
0.0
  0
SPLINE
  5
1D0
330
1F
100
AcDbEntity
  8
SK3
  6
SLD-Dashed
370
    18
100
AcDbSpline
210
0.0
220
0.0
230
1.0
 70
    24
 71
     3
 72
     8
 73
     4
 74
     0
 42
0.000000001
 43
0.00000001
 40
0.0
 40
0.0
 40
0.0
 40
0.0
 40
0.5
 40
0.5
 40
0.5
 40
0.5
 10
19.3261262571493
 20
-35.10000000000001
 30
0.0
 10
19.32611985836828
 20
-35.10000000000001
 30
0.0
 10
19.25867457682366
 20
-35.10000000000001
 30
0.0
 10
19.18940136355635
 20
-35.1
 30
0.0
  0
SPLINE
  5
1D1
330
1F
100
AcDbEntity
  8
SK3
  6
SLD-Dashed
370
    18
100
AcDbSpline
210
0.0
220
0.0
230
1.0
 70
    24
 71
     2
 72
     6
 73
     3
 74
     0
 42
0.000000001
 43
0.00000001
 40
0.5
 40
0.5
 40
0.5
 40
1.0
 40
1.0
 40
1.0
 10
19.18940136355635
 20
-35.1
 30
0.0
 10
19.12012904004691
 20
-35.09999999999999
 30
0.0
 10
19.05
 20
-35.1
 30
0.0
  0
SPLINE
  5
1D2
330
1F
100
AcDbEntity
  8
1
  6
SLD-Dashed
370
    18
100
AcDbSpline
210
0.0
220
0.0
230
1.0
 70
    24
 71
     2
 72
     6
 73
     3
 74
     0
 42
0.000000001
 43
0.00000001
 40
0.0
 40
0.0
 40
0.0
 40
0.25
 40
0.25
 40
0.25
 10
3.200000000018438
 20
-35.09999999995728
 30
0.0
 10
3.178023089486184
 20
-35.09999999996996
 30
0.0
 10
3.159393676864686
 20
-35.0999999999807
 30
0.0
  0
SPLINE
  5
1D3
330
1F
100
AcDbEntity
  8
1
  6
SLD-Dashed
370
    18
100
AcDbSpline
210
0.0
220
0.0
230
1.0
 70
    24
 71
     3
 72
     8
 73
     4
 74
     0
 42
0.000000001
 43
0.00000001
 40
0.25
 40
0.25
 40
0.25
 40
0.25
 40
0.5
 40
0.5
 40
0.5
 40
0.5
 10
3.159393676864686
 20
-35.0999999999807
 30
0.0
 10
3.140764264251639
 20
-35.09999999999143
 30
0.0
 10
3.125935313376432
 20
-35.09999999999999
 30
0.0
 10
3.125925297481333
 20
-35.1
 30
0.0
  0
SPLINE
  5
1D4
330
1F
100
AcDbEntity
  8
1
  6
SLD-Dashed
370
    18
100
AcDbSpline
210
0.0
220
0.0
230
1.0
 70
    24
 71
     3
 72
     8
 73
     4
 74
     0
 42
0.000000001
 43
0.00000001
 40
0.5
 40
0.5
 40
0.5
 40
0.5
 40
0.75
 40
0.75
 40
0.75
 40
0.75
 10
3.125925297481333
 20
-35.1
 30
0.0
 10
3.125915281586247
 20
-35.10000000000001
 30
0.0
 10
3.140736475081146
 20
-35.09999999999146
 30
0.0
 10
3.159374026153516
 20
-35.09999999998071
 30
0.0
  0
SPLINE
  5
1D5
330
1F
100
AcDbEntity
  8
1
  6
SLD-Dashed
370
    18
100
AcDbSpline
210
0.0
220
0.0
230
1.0
 70
    24
 71
     2
 72
     6
 73
     3
 74
     0
 42
0.000000001
 43
0.00000001
 40
0.75
 40
0.75
 40
0.75
 40
1.0
 40
1.0
 40
1.0
 10
3.159374026153516
 20
-35.09999999998071
 30
0.0
 10
3.178011577234352
 20
-35.09999999996997
 30
0.0
 10
3.200000000018438
 20
-35.09999999995728
 30
0.0
  0
SPLINE
  5
1D6
330
1F
100
AcDbEntity
  8
SK3
  6
SLD-Dashed
370
    18
100
AcDbSpline
210
0.0
220
0.0
230
1.0
 70
     8
 71
     3
 72
    30
 73
    26
 74
     0
 42
0.000000001
 43
0.00000001
 40
0.5000000000000009
 40
0.5000000000000009
 40
0.5000000000000009
 40
0.5000000000000009
 40
0.5625000000000008
 40
0.5625000000000008
 40
0.6250000000000008
 40
0.6250000000000008
 40
0.6562500000000007
 40
0.6562500000000007
 40
0.6875000000000007
 40
0.6875000000000007
 40
0.7187500000000007
 40
0.7187500000000007
 40
0.7500000000000006
 40
0.7500000000000006
 40
0.7812500000000006
 40
0.7812500000000006
 40
0.8125000000000006
 40
0.8125000000000006
 40
0.8437500000000006
 40
0.8437500000000006
 40
0.8750000000000004
 40
0.8750000000000004
 40
0.9375000000000003
 40
0.9375000000000003
 40
1.0
 40
1.0
 40
1.0
 40
1.0
 10
11.1256340867126
 20
-2.20807613194432
 30
0.0
 10
10.91012831143848
 20
-2.207994055743366
 30
0.0
 10
10.69273190607926
 20
-2.250950739379316
 30
0.0
 10
10.29545710457801
 20
-2.413221511274807
 30
0.0
 10
10.11161887920199
 20
-2.533970605358114
 30
0.0
 10
9.88325685805247
 20
-2.7563935005223
 30
0.0
 10
9.81357030025859
 20
-2.838822643502561
 30
0.0
 10
9.693828420307707
 20
-3.012044829892147
 30
0.0
 10
9.643049505613192
 20
-3.103292515775104
 30
0.0
 10
9.559939885115277
 20
-3.294987142140778
 30
0.0
 10
9.528110569339109
 20
-3.394937637341195
 30
0.0
 10
9.485932078998186
 20
-3.59527852615478
 30
0.0
 10
9.47509331111486
 20
-3.696889173272905
 30
0.0
 10
9.474907881274767
 20
-3.901872321533127
 30
0.0
 10
9.485524003425505
 20
-4.002149034246283
 30
0.0
 10
9.527345716529718
 20
-4.19850671782998
 30
0.0
 10
9.559089732329273
 20
-4.295610098711392
 30
0.0
 10
9.64173363838837
 20
-4.47937067040146
 30
0.0
 10
9.692330936314553
 20
-4.566117382228355
 30
0.0
 10
9.811994061612566
 20
-4.72969567326164
 30
0.0
 10
9.881475262593503
 20
-4.80655485490828
 30
0.0
 10
10.10919445985289
 20
-5.012639596316017
 30
0.0
 10
10.29295795309711
 20
-5.122781885588346
 30
0.0
 10
10.68976853487483
 20
-5.270055084887766
 30
0.0
 10
10.90666257993483
 20
-5.309061659790622
 30
0.0
 10
11.12500000000001
 20
-5.309061659790622
 30
0.0
  0
SPLINE
  5
1D7
330
1F
100
AcDbEntity
  8
SK3
  6
SLD-Dashed
370
    18
100
AcDbSpline
210
0.0
220
0.0
230
1.0
 70
     8
 71
     3
 72
    34
 73
    30
 74
     0
 42
0.000000001
 43
0.00000001
 40
0.0
 40
0.0
 40
0.0
 40
0.0
 40
0.0312500000000002
 40
0.0312500000000002
 40
0.0625000000000004
 40
0.0625000000000004
 40
0.0937500000000006
 40
0.0937500000000006
 40
0.1250000000000007
 40
0.1250000000000007
 40
0.1875000000000009
 40
0.1875000000000009
 40
0.2500000000000012
 40
0.2500000000000012
 40
0.2812500000000011
 40
0.2812500000000011
 40
0.3125000000000011
 40
0.3125000000000011
 40
0.3437500000000011
 40
0.3437500000000011
 40
0.375000000000001
 40
0.375000000000001
 40
0.406250000000001
 40
0.406250000000001
 40
0.4375000000000009
 40
0.4375000000000009
 40
0.4687500000000009
 40
0.4687500000000009
 40
0.5000000000000009
 40
0.5000000000000009
 40
0.5000000000000009
 40
0.5000000000000009
 10
11.12500000000001
 20
-5.309061659790622
 30
0.0
 10
11.23416871003259
 20
-5.309061659790622
 30
0.0
 10
11.34148252556934
 20
-5.299537349621526
 30
0.0
 10
11.55256160023164
 20
-5.262182100287872
 30
0.0
 10
11.65743203047548
 20
-5.233886962156417
 30
0.0
 10
11.85717198594064
 20
-5.159939537795331
 30
0.0
 10
11.95188217044848
 20
-5.114630280030591
 30
0.0
 10
12.13112457505727
 20
-5.007215473783244
 30
0.0
 10
12.21587296426146
 20
-4.944611663283506
 30
0.0
 10
12.44381779984265
 20
-4.738598197540293
 30
0.0
 10
12.56670516675
 20
-4.571329361139985
 30
0.0
 10
12.73138667216642
 20
-4.20606048265669
 30
0.0
 10
12.77487792035802
 20
-4.004112810281367
 30
0.0
 10
12.77506064455627
 20
-3.700306253597567
 30
0.0
 10
12.76431481439133
 20
-3.596867972028003
 30
0.0
 10
12.72215926890363
 20
-3.395807648785803
 30
0.0
 10
12.69097028794158
 20
-3.297550131697885
 30
0.0
 10
12.60821939488967
 20
-3.105767645319002
 30
0.0
 10
12.55662183160312
 20
-3.012826865172881
 30
0.0
 10
12.43728120518577
 20
-2.839925186415154
 30
0.0
 10
12.36897548289651
 20
-2.758757585038234
 30
0.0
 10
12.21525208496078
 20
-2.608656191484399
 30
0.0
 10
12.13209058330414
 20
-2.541870610032901
 30
0.0
 10
11.95357507686055
 20
-2.424499981749671
 30
0.0
 10
11.85705358084936
 20
-2.373501415354251
 30
0.0
 10
11.6574094418268
 20
-2.291755408436395
 30
0.0
 10
11.55456819584583
 20
-2.260806334720908
 30
0.0
 10
11.34284591554824
 20
-2.218868681349191
 30
0.0
 10
11.23338697434965
 20
-2.2081171700448
 30
0.0
 10
11.1256340867126
 20
-2.20807613194432
 30
0.0
  0
SPLINE
  5
1D8
330
1F
100
AcDbEntity
  8
SK3
  6
SLD-Dashed
370
    18
100
AcDbSpline
210
0.0
220
0.0
230
1.0
 70
     8
 71
     3
 72
    18
 73
    14
 74
     0
 42
0.000000001
 43
0.00000001
 40
0.0
 40
0.0
 40
0.0
 40
0.0
 40
0.0502196103872393
 40
0.1000870260924269
 40
0.185508636894043
 40
0.250155080879186
 40
0.3746583157461185
 40
0.4998570853792876
 40
0.6242312608259408
 40
0.749432409948843
 40
0.8740366596180013
 40
0.9370350243166901
 40
1.0
 40
1.0
 40
1.0
 40
1.0
 10
3.699999999999968
 20
46.55608553132445
 30
0.0
 10
3.700143854852887
 20
46.56278755186002
 30
0.0
 10
3.700430555691595
 20
46.57614459105339
 30
0.0
 10
3.703274054818796
 20
46.60076085239342
 30
0.0
 10
3.708850025263292
 20
46.62692328764687
 30
0.0
 10
3.720514169271314
 20
46.66169890756613
 30
0.0
 10
3.739456592416618
 20
46.69941980690709
 30
0.0
 10
3.770128279112259
 20
46.73918434013718
 30
0.0
 10
3.808028636439601
 20
46.77229285140238
 30
0.0
 10
3.851698646431312
 20
46.79720148409477
 30
0.0
 10
3.891711812143344
 20
46.81006094110495
 30
0.0
 10
3.924780356068899
 20
46.81548545401084
 30
0.0
 10
3.94159493769948
 20
46.81599758847396
 30
0.0
 10
3.950000000000009
 20
46.81625358782996
 30
0.0
  0
SPLINE
  5
1D9
330
1F
100
AcDbEntity
  8
SK3
  6
SLD-Dashed
370
    18
100
AcDbSpline
210
0.0
220
0.0
230
1.0
 70
     8
 71
     3
 72
    18
 73
    14
 74
     0
 42
0.000000001
 43
0.00000001
 40
0.0
 40
0.0
 40
0.0
 40
0.0
 40
0.0501962867734855
 40
0.100030621443731
 40
0.1855667331187788
 40
0.2501823892320809
 40
0.3747066158220843
 40
0.4998232982189663
 40
0.6247294758455423
 40
0.7494251058857327
 40
0.8746331028690486
 40
0.9372230808189556
 40
1.0
 40
1.0
 40
1.0
 40
1.0
 10
18.30000000000003
 20
46.81625358782992
 30
0.0
 10
18.30669951182796
 20
46.81609127853698
 30
0.0
 10
18.32005022708195
 20
46.8157678303203
 30
0.0
 10
18.34463922095195
 20
46.81256776526224
 30
0.0
 10
18.37067201462221
 20
46.80630579793124
 30
0.0
 10
18.40500150194893
 20
46.7933155554719
 30
0.0
 10
18.44173939749912
 20
46.77247000397293
 30
0.0
 10
18.47965549617257
 20
46.73942242416843
 30
0.0
 10
18.51041281949077
 20
46.69961163074883
 30
0.0
 10
18.53306634505926
 20
46.65468875110019
 30
0.0
 10
18.54452340204191
 20
46.61434662644385
 30
0.0
 10
18.5493246750575
 20
46.58119847829339
 30
0.0
 10
18.54977466801635
 20
46.5644648311238
 30
0.0
 10
18.54999999999997
 20
46.55608553132448
 30
0.0
  0
SPLINE
  5
1DA
330
1F
100
AcDbEntity
  8
SK3
  6
SLD-Dashed
370
    18
100
AcDbSpline
210
0.0
220
0.0
230
1.0
 70
     8
 71
     3
 72
    30
 73
    26
 74
     0
 42
0.000000001
 43
0.00000001
 40
0.4999999999999997
 40
0.4999999999999997
 40
0.4999999999999997
 40
0.4999999999999997
 40
0.5624999999999998
 40
0.5624999999999998
 40
0.6249999999999998
 40
0.6249999999999998
 40
0.6562499999999998
 40
0.6562499999999998
 40
0.6874999999999999
 40
0.6874999999999999
 40
0.7187499999999999
 40
0.7187499999999999
 40
0.75
 40
0.75
 40
0.78125
 40
0.78125
 40
0.8125000000000001
 40
0.8125000000000001
 40
0.8437500000000001
 40
0.8437500000000001
 40
0.8750000000000002
 40
0.8750000000000002
 40
0.9375000000000001
 40
0.9375000000000001
 40
1.0
 40
1.0
 40
1.0
 40
1.0
 10
11.12436591328743
 20
5.309061551556936
 30
0.0
 10
11.33987168856153
 20
5.309135121894147
 30
0.0
 10
11.55726809392074
 20
5.270777053767752
 30
0.0
 10
11.954542895422
 20
5.12408212790752
 30
0.0
 10
12.13838112079803
 20
5.014350511864031
 30
0.0
 10
12.36674314194754
 20
4.808404051991837
 30
0.0
 10
12.43642969974143
 20
4.73154347486815
 30
0.0
 10
12.55617157969231
 20
4.568463540703782
 30
0.0
 10
12.60695049438682
 20
4.481836472086089
 30
0.0
 10
12.69006011488474
 20
4.297948630822695
 30
0.0
 10
12.7218894306609
 20
4.201137306228634
 30
0.0
 10
12.76406792100185
 20
4.004999015154103
 30
0.0
 10
12.77490668888515
 20
3.904499034786603
 30
0.0
 10
12.77509211872524
 20
3.699534720125443
 30
0.0
 10
12.76447599657453
 20
3.59816991660681
 30
0.0
 10
12.72265428347032
 20
3.397643705646352
 30
0.0
 10
12.69091026767073
 20
3.297408274791268
 30
0.0
 10
12.60826636161166
 20
3.105879249911001
 30
0.0
 10
12.55766906368547
 20
3.014523490936158
 30
0.0
 10
12.43800593838745
 20
2.840798433450351
 30
0.0
 10
12.3685247374065
 20
2.758380635546162
 30
0.0
 10
12.14080554014713
 20
2.535838019871825
 30
0.0
 10
11.95704204690291
 20
2.414653532234787
 30
0.0
 10
11.56023146512521
 20
2.251755559321202
 30
0.0
 10
11.34333742006517
 20
2.208076011197158
 30
0.0
 10
11.125
 20
2.208076011197158
 30
0.0
  0
SPLINE
  5
1DB
330
1F
100
AcDbEntity
  8
SK3
  6
SLD-Dashed
370
    18
100
AcDbSpline
210
0.0
220
0.0
230
1.0
 70
     8
 71
     3
 72
    34
 73
    30
 74
     0
 42
0.000000001
 43
0.00000001
 40
0.0
 40
0.0
 40
0.0
 40
0.0
 40
0.0312500000000001
 40
0.0312500000000001
 40
0.0625000000000001
 40
0.0625000000000001
 40
0.0937500000000002
 40
0.0937500000000002
 40
0.1250000000000002
 40
0.1250000000000002
 40
0.1875
 40
0.1875
 40
0.2499999999999997
 40
0.2499999999999997
 40
0.2812499999999997
 40
0.2812499999999997
 40
0.3124999999999997
 40
0.3124999999999997
 40
0.3437499999999997
 40
0.3437499999999997
 40
0.3749999999999997
 40
0.3749999999999997
 40
0.4062499999999997
 40
0.4062499999999997
 40
0.4374999999999997
 40
0.4374999999999997
 40
0.4687499999999997
 40
0.4687499999999997
 40
0.4999999999999997
 40
0.4999999999999997
 40
0.4999999999999997
 40
0.4999999999999997
 10
11.125
 20
2.208076011197158
 30
0.0
 10
11.0158312899674
 20
2.208076011197158
 30
0.0
 10
10.90851747443065
 20
2.218712438100942
 30
0.0
 10
10.69743839976835
 20
2.260296858835581
 30
0.0
 10
10.59256796952453
 20
2.291759353259954
 30
0.0
 10
10.39282801405939
 20
2.373555205373627
 30
0.0
 10
10.29811782955151
 20
2.423509628226177
 30
0.0
 10
10.11887542494273
 20
2.541114583907898
 30
0.0
 10
10.03412703573853
 20
2.609294845854274
 30
0.0
 10
9.806182200157373
 20
2.831771837438379
 30
0.0
 10
9.683294833249992
 20
3.010016554592661
 30
0.0
 10
9.518613327833602
 20
3.390759943898584
 30
0.0
 10
9.475122079642004
 20
3.597272475835495
 30
0.0
 10
9.474939355443759
 20
3.901097591317418
 30
0.0
 10
9.48568518560869
 20
4.003434499602373
 30
0.0
 10
9.5278407310964
 20
4.200293854804638
 30
0.0
 10
9.559029712058436
 20
4.295473899993296
 30
0.0
 10
9.641780605110368
 20
4.479477843829412
 30
0.0
 10
9.693378168396896
 20
4.567722017178394
 30
0.0
 10
9.812718794814254
 20
4.730510706064061
 30
0.0
 10
9.881024517103516
 20
4.806208116124408
 30
0.0
 10
10.03474791503922
 20
4.945204256680421
 30
0.0
 10
10.11790941669588
 20
5.006521730708598
 30
0.0
 10
10.29642492313949
 20
5.113728914877727
 30
0.0
 10
10.39294641915069
 20
5.159988239582892
 30
0.0
 10
10.5925905581732
 20
5.233890455420366
 30
0.0
 10
10.69543180415421
 20
5.261724005488293
 30
0.0
 10
10.90715408445175
 20
5.299397422676641
 30
0.0
 10
11.01661302565036
 20
5.309024766388337
 30
0.0
 10
11.12436591328743
 20
5.309061551556936
 30
0.0
  0
SPLINE
  5
1DC
330
1F
100
AcDbEntity
  8
SK3
  6
SLD-Dashed
370
    18
100
AcDbSpline
210
0.0
220
0.0
230
1.0
 70
     8
 71
     2
 72
     6
 73
     3
 74
     0
 42
0.000000001
 43
0.00000001
 40
0.0
 40
0.0
 40
0.0
 40
0.0312499999999999
 40
0.0312499999999999
 40
0.0312499999999999
 10
166.6496
 20
7.937500000000007
 30
0.0
 10
166.6960309891531
 20
7.900070931530681
 30
0.0
 10
166.7853331930462
 20
7.828896662480704
 30
0.0
  0
SPLINE
  5
1DD
330
1F
100
AcDbEntity
  8
SK3
  6
SLD-Dashed
370
    18
100
AcDbSpline
210
0.0
220
0.0
230
1.0
 70
     8
 71
     3
 72
     8
 73
     4
 74
     0
 42
0.000000001
 43
0.00000001
 40
0.0312499999999999
 40
0.0312499999999999
 40
0.0312499999999999
 40
0.0312499999999999
 40
0.0468749999999999
 40
0.0468749999999999
 40
0.0468749999999999
 40
0.0468749999999999
 10
166.7853331930462
 20
7.828896662480704
 30
0.0
 10
166.8299842949927
 20
7.793309527955719
 30
0.0
 10
166.8858813229873
 20
7.74889204674091
 30
0.0
 10
166.9516269415203
 20
7.697015096611567
 30
0.0
  0
SPLINE
  5
1DE
330
1F
100
AcDbEntity
  8
SK3
  6
SLD-Dashed
370
    18
100
AcDbSpline
210
0.0
220
0.0
230
1.0
 70
     8
 71
     3
 72
     8
 73
     4
 74
     0
 42
0.000000001
 43
0.00000001
 40
0.0468749999999999
 40
0.0468749999999999
 40
0.0468749999999999
 40
0.0468749999999999
 40
0.0624999999999998
 40
0.0624999999999998
 40
0.0624999999999998
 40
0.0624999999999998
 10
166.9516269415203
 20
7.697015096611567
 30
0.0
 10
167.0173725600533
 20
7.645138146482232
 30
0.0
 10
167.0924873502724
 20
7.586178935087736
 30
0.0
 10
167.1763007836823
 20
7.521001503320905
 30
0.0
  0
SPLINE
  5
1DF
330
1F
100
AcDbEntity
  8
SK3
  6
SLD-Dashed
370
    18
100
AcDbSpline
210
0.0
220
0.0
230
1.0
 70
     8
 71
     3
 72
     8
 73
     4
 74
     0
 42
0.000000001
 43
0.00000001
 40
0.0624999999999998
 40
0.0624999999999998
 40
0.0624999999999998
 40
0.0624999999999998
 40
0.0781249999999998
 40
0.0781249999999998
 40
0.0781249999999998
 40
0.0781249999999998
 10
167.1763007836823
 20
7.521001503320905
 30
0.0
 10
167.2601142170921
 20
7.455824071554096
 30
0.0
 10
167.3526314310409
 20
7.384421594897411
 30
0.0
 10
167.4535467418712
 20
7.30748058481949
 30
0.0
  0
SPLINE
  5
1E0
330
1F
100
AcDbEntity
  8
SK3
  6
SLD-Dashed
370
    18
100
AcDbSpline
210
0.0
220
0.0
230
1.0
 70
     8
 71
     3
 72
     8
 73
     4
 74
     0
 42
0.000000001
 43
0.00000001
 40
0.0781249999999998
 40
0.0781249999999998
 40
0.0781249999999998
 40
0.0781249999999998
 40
0.0937499999999998
 40
0.0937499999999998
 40
0.0937499999999998
 40
0.0937499999999998
 10
167.4535467418712
 20
7.30748058481949
 30
0.0
 10
167.5544620527015
 20
7.230539574741575
 30
0.0
 10
167.6643307311275
 20
7.147652226655102
 30
0.0
 10
167.7802394387447
 20
7.061564588311802
 30
0.0
  0
SPLINE
  5
1E1
330
1F
100
AcDbEntity
  8
SK3
  6
SLD-Dashed
370
    18
100
AcDbSpline
210
0.0
220
0.0
230
1.0
 70
     8
 71
     3
 72
     8
 73
     4
 74
     0
 42
0.000000001
 43
0.00000001
 40
0.0937499999999998
 40
0.0937499999999998
 40
0.0937499999999998
 40
0.0937499999999998
 40
0.1249999999999998
 40
0.1249999999999998
 40
0.1249999999999998
 40
0.1249999999999998
 10
167.7802394387447
 20
7.061564588311802
 30
0.0
 10
168.012056853979
 20
6.889389311625201
 30
0.0
 10
168.2690291513089
 20
6.703407058178984
 30
0.0
 10
168.5504222332892
 20
6.509994414770535
 30
0.0
  0
SPLINE
  5
1E2
330
1F
100
AcDbEntity
  8
SK3
  6
SLD-Dashed
370
    18
100
AcDbSpline
210
0.0
220
0.0
230
1.0
 70
     8
 71
     3
 72
     8
 73
     4
 74
     0
 42
0.000000001
 43
0.00000001
 40
0.1249999999999998
 40
0.1249999999999998
 40
0.1249999999999998
 40
0.1249999999999998
 40
0.1562499999999997
 40
0.1562499999999997
 40
0.1562499999999997
 40
0.1562499999999997
 10
168.5504222332892
 20
6.509994414770535
 30
0.0
 10
168.8318153152693
 20
6.316581771362073
 30
0.0
 10
169.1406681943296
 20
6.113726039656486
 30
0.0
 10
169.4683319573947
 20
5.916761669637345
 30
0.0
  0
SPLINE
  5
1E3
330
1F
100
AcDbEntity
  8
SK3
  6
SLD-Dashed
370
    18
100
AcDbSpline
210
0.0
220
0.0
230
1.0
 70
     8
 71
     3
 72
     8
 73
     4
 74
     0
 42
0.000000001
 43
0.00000001
 40
0.1562499999999997
 40
0.1562499999999997
 40
0.1562499999999997
 40
0.1562499999999997
 40
0.1874999999999997
 40
0.1874999999999997
 40
0.1874999999999997
 40
0.1874999999999997
 10
169.4683319573947
 20
5.916761669637345
 30
0.0
 10
169.7959957204599
 20
5.719797299618197
 30
0.0
 10
170.142453859403
 20
5.528079381236402
 30
0.0
 10
170.5138521333934
 20
5.353881274175125
 30
0.0
  0
SPLINE
  5
1E4
330
1F
100
AcDbEntity
  8
SK3
  6
SLD-Dashed
370
    18
100
AcDbSpline
210
0.0
220
0.0
230
1.0
 70
     8
 71
     3
 72
     8
 73
     4
 74
     0
 42
0.000000001
 43
0.00000001
 40
0.1874999999999997
 40
0.1874999999999997
 40
0.1874999999999997
 40
0.1874999999999997
 40
0.2187499999999997
 40
0.2187499999999997
 40
0.2187499999999997
 40
0.2187499999999997
 10
170.5138521333934
 20
5.353881274175125
 30
0.0
 10
170.8852504073836
 20
5.179683167113855
 30
0.0
 10
171.2871622010506
 20
5.021557437384708
 30
0.0
 10
171.7053226969044
 20
4.909147509935485
 30
0.0
  0
SPLINE
  5
1E5
330
1F
100
AcDbEntity
  8
SK3
  6
SLD-Dashed
370
    18
100
AcDbSpline
210
0.0
220
0.0
230
1.0
 70
     8
 71
     3
 72
     8
 73
     4
 74
     0
 42
0.000000001
 43
0.00000001
 40
0.2187499999999997
 40
0.2187499999999997
 40
0.2187499999999997
 40
0.2187499999999997
 40
0.2343749999999997
 40
0.2343749999999997
 40
0.2343749999999997
 40
0.2343749999999997
 10
171.7053226969044
 20
4.909147509935485
 30
0.0
 10
171.9144029448313
 20
4.852942546210874
 30
0.0
 10
172.1281838139693
 20
4.807837395982763
 30
0.0
 10
172.3475645992794
 20
4.776724799708434
 30
0.0
  0
SPLINE
  5
1E6
330
1F
100
AcDbEntity
  8
SK3
  6
SLD-Dashed
370
    18
100
AcDbSpline
210
0.0
220
0.0
230
1.0
 70
     8
 71
     3
 72
     8
 73
     4
 74
     0
 42
0.000000001
 43
0.00000001
 40
0.2343749999999997
 40
0.2343749999999997
 40
0.2343749999999997
 40
0.2343749999999997
 40
0.2499999999999997
 40
0.2499999999999997
 40
0.2499999999999997
 40
0.2499999999999997
 10
172.3475645992794
 20
4.776724799708434
 30
0.0
 10
172.5669453845893
 20
4.745612203434113
 30
0.0
 10
172.7900365621012
 20
4.729148623066524
 30
0.0
 10
173.0103605812068
 20
4.728466495871844
 30
0.0
  0
SPLINE
  5
1E7
330
1F
100
AcDbEntity
  8
SK3
  6
SLD-Dashed
370
    18
100
AcDbSpline
210
0.0
220
0.0
230
1.0
 70
     8
 71
     3
 72
     8
 73
     4
 74
     0
 42
0.000000001
 43
0.00000001
 40
0.2499999999999997
 40
0.2499999999999997
 40
0.2499999999999997
 40
0.2499999999999997
 40
0.2656249999999997
 40
0.2656249999999997
 40
0.2656249999999997
 40
0.2656249999999997
 10
173.0103605812068
 20
4.728466495871844
 30
0.0
 10
173.2306846003123
 20
4.727784368677185
 30
0.0
 10
173.4501213741239
 20
4.742573252469643
 30
0.0
 10
173.6687021213205
 20
4.772057576244514
 30
0.0
  0
SPLINE
  5
1E8
330
1F
100
AcDbEntity
  8
SK3
  6
SLD-Dashed
370
    18
100
AcDbSpline
210
0.0
220
0.0
230
1.0
 70
     8
 71
     3
 72
     8
 73
     4
 74
     0
 42
0.000000001
 43
0.00000001
 40
0.2656249999999997
 40
0.2656249999999997
 40
0.2656249999999997
 40
0.2656249999999997
 40
0.2812499999999997
 40
0.2812499999999997
 40
0.2812499999999997
 40
0.2812499999999997
 10
173.6687021213205
 20
4.772057576244514
 30
0.0
 10
173.8872828685172
 20
4.801541900019378
 30
0.0
 10
174.1053662350054
 20
4.846074115867953
 30
0.0
 10
174.3150931328593
 20
4.901277525446917
 30
0.0
  0
SPLINE
  5
1E9
330
1F
100
AcDbEntity
  8
SK3
  6
SLD-Dashed
370
    18
100
AcDbSpline
210
0.0
220
0.0
230
1.0
 70
     8
 71
     3
 72
     8
 73
     4
 74
     0
 42
0.000000001
 43
0.00000001
 40
0.2812499999999997
 40
0.2812499999999997
 40
0.2812499999999997
 40
0.2812499999999997
 40
0.3124999999999997
 40
0.3124999999999997
 40
0.3124999999999997
 40
0.3124999999999997
 10
174.3150931328593
 20
4.901277525446917
 30
0.0
 10
174.7345469285675
 20
5.011684344604861
 30
0.0
 10
175.130897970718
 20
5.165431581693997
 30
0.0
 10
175.5077122143871
 20
5.340603058594303
 30
0.0
  0
SPLINE
  5
1EA
330
1F
100
AcDbEntity
  8
SK3
  6
SLD-Dashed
370
    18
100
AcDbSpline
210
0.0
220
0.0
230
1.0
 70
     8
 71
     3
 72
     8
 73
     4
 74
     0
 42
0.000000001
 43
0.00000001
 40
0.3124999999999997
 40
0.3124999999999997
 40
0.3124999999999997
 40
0.3124999999999997
 40
0.3437499999999997
 40
0.3437499999999997
 40
0.3437499999999997
 40
0.3437499999999997
 10
175.5077122143871
 20
5.340603058594303
 30
0.0
 10
175.8845264580561
 20
5.515774535494601
 30
0.0
 10
176.2327134326952
 20
5.707787869733936
 30
0.0
 10
176.5601275444322
 20
5.903838399330015
 30
0.0
  0
SPLINE
  5
1EB
330
1F
100
AcDbEntity
  8
SK3
  6
SLD-Dashed
370
    18
100
AcDbSpline
210
0.0
220
0.0
230
1.0
 70
     8
 71
     3
 72
     8
 73
     4
 74
     0
 42
0.000000001
 43
0.00000001
 40
0.3437499999999997
 40
0.3437499999999997
 40
0.3437499999999997
 40
0.3437499999999997
 40
0.3593749999999989
 40
0.3593749999999989
 40
0.3593749999999989
 40
0.3593749999999989
 10
176.5601275444322
 20
5.903838399330015
 30
0.0
 10
176.7238346003008
 20
6.001863664128041
 30
0.0
 10
176.8822143134887
 20
6.101032172799892
 30
0.0
 10
177.0356374320315
 20
6.20027367954129
 30
0.0
  0
SPLINE
  5
1EC
330
1F
100
AcDbEntity
  8
SK3
  6
SLD-Dashed
370
    18
100
AcDbSpline
210
0.0
220
0.0
230
1.0
 70
     8
 71
     3
 72
     8
 73
     4
 74
     0
 42
0.000000001
 43
0.00000001
 40
0.3593749999999989
 40
0.3593749999999989
 40
0.3593749999999989
 40
0.3593749999999989
 40
0.3749999999999982
 40
0.3749999999999982
 40
0.3749999999999982
 40
0.3749999999999982
 10
177.0356374320315
 20
6.20027367954129
 30
0.0
 10
177.1890605505743
 20
6.299515186282682
 30
0.0
 10
177.3381874635615
 20
6.399300471535731
 30
0.0
 10
177.480451874882
 20
6.496863281568288
 30
0.0
  0
SPLINE
  5
1ED
330
1F
100
AcDbEntity
  8
SK3
  6
SLD-Dashed
370
    18
100
AcDbSpline
210
0.0
220
0.0
230
1.0
 70
     8
 71
     3
 72
     8
 73
     4
 74
     0
 42
0.000000001
 43
0.00000001
 40
0.3749999999999982
 40
0.3749999999999982
 40
0.3749999999999982
 40
0.3749999999999982
 40
0.4062499999999979
 40
0.4062499999999979
 40
0.4062499999999979
 40
0.4062499999999979
 10
177.480451874882
 20
6.496863281568288
 30
0.0
 10
177.7649806975231
 20
6.691988901633396
 30
0.0
 10
178.022545135253
 20
6.878200182161128
 30
0.0
 10
178.2535135606097
 20
7.049506021238702
 30
0.0
  0
SPLINE
  5
1EE
330
1F
100
AcDbEntity
  8
SK3
  6
SLD-Dashed
370
    18
100
AcDbSpline
210
0.0
220
0.0
230
1.0
 70
     8
 71
     3
 72
     8
 73
     4
 74
     0
 42
0.000000001
 43
0.00000001
 40
0.4062499999999979
 40
0.4062499999999979
 40
0.4062499999999979
 40
0.4062499999999979
 40
0.4218749999999978
 40
0.4218749999999978
 40
0.4218749999999978
 40
0.4218749999999978
 10
178.2535135606097
 20
7.049506021238702
 30
0.0
 10
178.3689977732881
 20
7.135158940777493
 30
0.0
 10
178.4777611924309
 20
7.21709398189542
 30
0.0
 10
178.5793929600267
 20
7.294481629587825
 30
0.0
  0
SPLINE
  5
1EF
330
1F
100
AcDbEntity
  8
SK3
  6
SLD-Dashed
370
    18
100
AcDbSpline
210
0.0
220
0.0
230
1.0
 70
     8
 71
     3
 72
     8
 73
     4
 74
     0
 42
0.000000001
 43
0.00000001
 40
0.4218749999999978
 40
0.4218749999999978
 40
0.4218749999999978
 40
0.4218749999999978
 40
0.4374999999999977
 40
0.4374999999999977
 40
0.4374999999999977
 40
0.4374999999999977
 10
178.5793929600267
 20
7.294481629587825
 30
0.0
 10
178.6810247276225
 20
7.371869277280229
 30
0.0
 10
178.7759902990978
 20
7.445078577464417
 30
0.0
 10
178.8611728076301
 20
7.511264482796507
 30
0.0
  0
SPLINE
  5
1F0
330
1F
100
AcDbEntity
  8
SK3
  6
SLD-Dashed
370
    18
100
AcDbSpline
210
0.0
220
0.0
230
1.0
 70
     8
 71
     3
 72
     8
 73
     4
 74
     0
 42
0.000000001
 43
0.00000001
 40
0.4374999999999977
 40
0.4374999999999977
 40
0.4374999999999977
 40
0.4374999999999977
 40
0.4687499999999974
 40
0.4687499999999974
 40
0.4687499999999974
 40
0.4687499999999974
 10
178.8611728076301
 20
7.511264482796507
 30
0.0
 10
179.0315378246949
 20
7.643636293460709
 30
0.0
 10
179.1648213015569
 20
7.749352939758585
 30
0.0
 10
179.2571698410343
 20
7.822922856419896
 30
0.0
  0
SPLINE
  5
1F1
330
1F
100
AcDbEntity
  8
SK3
  6
SLD-Dashed
370
    18
100
AcDbSpline
210
0.0
220
0.0
230
1.0
 70
     8
 71
     3
 72
     8
 73
     4
 74
     0
 42
0.000000001
 43
0.00000001
 40
0.4687499999999974
 40
0.4687499999999974
 40
0.4687499999999974
 40
0.4687499999999974
 40
0.4843749999999975
 40
0.4843749999999975
 40
0.4843749999999975
 40
0.4843749999999975
 10
179.2571698410343
 20
7.822922856419896
 30
0.0
 10
179.3033441107729
 20
7.859707814750553
 30
0.0
 10
179.3389657799466
 20
7.888228033795317
 30
0.0
 10
179.3628185247472
 20
7.907346251596073
 30
0.0
  0
SPLINE
  5
1F2
330
1F
100
AcDbEntity
  8
SK3
  6
SLD-Dashed
370
    18
100
AcDbSpline
210
0.0
220
0.0
230
1.0
 70
     8
 71
     3
 72
     8
 73
     4
 74
     0
 42
0.000000001
 43
0.00000001
 40
0.4843749999999975
 40
0.4843749999999975
 40
0.4843749999999975
 40
0.4843749999999975
 40
0.4999999999999976
 40
0.4999999999999976
 40
0.4999999999999976
 40
0.4999999999999976
 10
179.3628185247472
 20
7.907346251596073
 30
0.0
 10
179.386671269548
 20
7.926464469396821
 30
0.0
 10
179.3991670963758
 20
7.936509736413917
 30
0.0
 10
179.4003134196736
 20
7.937430458849398
 30
0.0
  0
SPLINE
  5
1F3
330
1F
100
AcDbEntity
  8
SK3
  6
SLD-Dashed
370
    18
100
AcDbSpline
210
0.0
220
0.0
230
1.0
 70
     8
 71
     3
 72
     8
 73
     4
 74
     0
 42
0.000000001
 43
0.00000001
 40
0.5312499999999977
 40
0.5312499999999977
 40
0.5312499999999977
 40
0.5312499999999977
 40
0.5468749999999978
 40
0.5468749999999978
 40
0.5468749999999978
 40
0.5468749999999978
 10
179.2701087187822
 20
7.833234580900114
 30
0.0
 10
179.2262317693034
 20
7.798253333126483
 30
0.0
 10
179.1718208226472
 20
7.754999489359967
 30
0.0
 10
179.1072580701198
 20
7.704027798595796
 30
0.0
  0
SPLINE
  5
1F4
330
1F
100
AcDbEntity
  8
SK3
  6
SLD-Dashed
370
    18
100
AcDbSpline
210
0.0
220
0.0
230
1.0
 70
     8
 71
     3
 72
     8
 73
     4
 74
     0
 42
0.000000001
 43
0.00000001
 40
0.5468749999999978
 40
0.5468749999999978
 40
0.5468749999999978
 40
0.5468749999999978
 40
0.5624999999999979
 40
0.5624999999999979
 40
0.5624999999999979
 40
0.5624999999999979
 10
179.1072580701198
 20
7.704027798595796
 30
0.0
 10
179.0426953175923
 20
7.65305610783161
 30
0.0
 10
178.9674525707448
 20
7.593955081707383
 30
0.0
 10
178.8836545974785
 20
7.528745897063878
 30
0.0
  0
SPLINE
  5
1F5
330
1F
100
AcDbEntity
  8
SK3
  6
SLD-Dashed
370
    18
100
AcDbSpline
210
0.0
220
0.0
230
1.0
 70
     8
 71
     3
 72
     8
 73
     4
 74
     0
 42
0.000000001
 43
0.00000001
 40
0.5624999999999979
 40
0.5624999999999979
 40
0.5624999999999979
 40
0.5624999999999979
 40
0.593749999999998
 40
0.593749999999998
 40
0.593749999999998
 40
0.593749999999998
 10
178.8836545974785
 20
7.528745897063878
 30
0.0
 10
178.716058650946
 20
7.398327527776861
 30
0.0
 10
178.5150303548398
 20
7.243937605810137
 30
0.0
 10
178.2834228883882
 20
7.071717780223072
 30
0.0
  0
SPLINE
  5
1F6
330
1F
100
AcDbEntity
  8
SK3
  6
SLD-Dashed
370
    18
100
AcDbSpline
210
0.0
220
0.0
230
1.0
 70
     8
 71
     3
 72
     8
 73
     4
 74
     0
 42
0.000000001
 43
0.00000001
 40
0.593749999999998
 40
0.593749999999998
 40
0.593749999999998
 40
0.593749999999998
 40
0.6093749999999981
 40
0.6093749999999981
 40
0.6093749999999981
 40
0.6093749999999981
 10
178.2834228883882
 20
7.071717780223072
 30
0.0
 10
178.1676191551624
 20
6.985607867429557
 30
0.0
 10
178.0439792390167
 20
6.894946052800638
 30
0.0
 10
177.9148881335095
 20
6.802145767935079
 30
0.0
  0
SPLINE
  5
1F7
330
1F
100
AcDbEntity
  8
SK3
  6
SLD-Dashed
370
    18
100
AcDbSpline
210
0.0
220
0.0
230
1.0
 70
     8
 71
     3
 72
     8
 73
     4
 74
     0
 42
0.000000001
 43
0.00000001
 40
0.6093749999999981
 40
0.6093749999999981
 40
0.6093749999999981
 40
0.6093749999999981
 40
0.6249999999999981
 40
0.6249999999999981
 40
0.6249999999999981
 40
0.6249999999999981
 10
177.9148881335095
 20
6.802145767935079
 30
0.0
 10
177.7857970280022
 20
6.709345483069513
 30
0.0
 10
177.6507509317185
 20
6.614022099829691
 30
0.0
 10
177.5097612727328
 20
6.516998140509475
 30
0.0
  0
SPLINE
  5
1F8
330
1F
100
AcDbEntity
  8
SK3
  6
SLD-Dashed
370
    18
100
AcDbSpline
210
0.0
220
0.0
230
1.0
 70
     8
 71
     3
 72
     8
 73
     4
 74
     0
 42
0.000000001
 43
0.00000001
 40
0.6249999999999981
 40
0.6249999999999981
 40
0.6249999999999981
 40
0.6249999999999981
 40
0.6406249999999982
 40
0.6406249999999982
 40
0.6406249999999982
 40
0.6406249999999982
 10
177.5097612727328
 20
6.516998140509475
 30
0.0
 10
177.3687716137472
 20
6.419974181189267
 30
0.0
 10
177.2218407173814
 20
6.321242174592505
 30
0.0
 10
177.0686729006408
 20
6.22169362934058
 30
0.0
  0
SPLINE
  5
1F9
330
1F
100
AcDbEntity
  8
SK3
  6
SLD-Dashed
370
    18
100
AcDbSpline
210
0.0
220
0.0
230
1.0
 70
     8
 71
     3
 72
     8
 73
     4
 74
     0
 42
0.000000001
 43
0.00000001
 40
0.6406249999999982
 40
0.6406249999999982
 40
0.6406249999999982
 40
0.6406249999999982
 40
0.6562499999999983
 40
0.6562499999999983
 40
0.6562499999999983
 40
0.6562499999999983
 10
177.0686729006408
 20
6.22169362934058
 30
0.0
 10
176.9155050839003
 20
6.122145084088649
 30
0.0
 10
176.755451545978
 20
6.021398222991498
 30
0.0
 10
176.5911223260194
 20
5.922449622760416
 30
0.0
  0
SPLINE
  5
1FA
330
1F
100
AcDbEntity
  8
SK3
  6
SLD-Dashed
370
    18
100
AcDbSpline
210
0.0
220
0.0
230
1.0
 70
     8
 71
     3
 72
     8
 73
     4
 74
     0
 42
0.000000001
 43
0.00000001
 40
0.6562499999999983
 40
0.6562499999999983
 40
0.6562499999999983
 40
0.6562499999999983
 40
0.6874999999999984
 40
0.6874999999999984
 40
0.6874999999999984
 40
0.6874999999999984
 10
176.5911223260194
 20
5.922449622760416
 30
0.0
 10
176.2624638861026
 20
5.724552422298252
 30
0.0
 10
175.9156942986866
 20
5.532397188757317
 30
0.0
 10
175.5452382127851
 20
5.358150962709251
 30
0.0
  0
SPLINE
  5
1FB
330
1F
100
AcDbEntity
  8
SK3
  6
SLD-Dashed
370
    18
100
AcDbSpline
210
0.0
220
0.0
230
1.0
 70
     8
 71
     3
 72
     8
 73
     4
 74
     0
 42
0.000000001
 43
0.00000001
 40
0.6874999999999984
 40
0.6874999999999984
 40
0.6874999999999984
 40
0.6874999999999984
 40
0.7031249999999986
 40
0.7031249999999986
 40
0.7031249999999986
 40
0.7031249999999986
 10
175.5452382127851
 20
5.358150962709251
 30
0.0
 10
175.3600101698343
 20
5.271027849685201
 30
0.0
 10
175.1687792375556
 20
5.188468916617284
 30
0.0
 10
174.9700992085181
 20
5.112884901988115
 30
0.0
  0
SPLINE
  5
1FC
330
1F
100
AcDbEntity
  8
SK3
  6
SLD-Dashed
370
    18
100
AcDbSpline
210
0.0
220
0.0
230
1.0
 70
     8
 71
     3
 72
     8
 73
     4
 74
     0
 42
0.000000001
 43
0.00000001
 40
0.7031249999999986
 40
0.7031249999999986
 40
0.7031249999999986
 40
0.7031249999999986
 40
0.7187499999999986
 40
0.7187499999999986
 40
0.7187499999999986
 40
0.7187499999999986
 10
174.9700992085181
 20
5.112884901988115
 30
0.0
 10
174.7714191794807
 20
5.037300887358945
 30
0.0
 10
174.5640961938296
 20
4.968510294405578
 30
0.0
 10
174.3540129073635
 20
4.91166533855257
 30
0.0
  0
SPLINE
  5
1FD
330
1F
100
AcDbEntity
  8
SK3
  6
SLD-Dashed
370
    18
100
AcDbSpline
210
0.0
220
0.0
230
1.0
 70
     8
 71
     3
 72
     8
 73
     4
 74
     0
 42
0.000000001
 43
0.00000001
 40
0.7187499999999986
 40
0.7187499999999986
 40
0.7187499999999986
 40
0.7187499999999986
 40
0.7343749999999987
 40
0.7343749999999987
 40
0.7343749999999987
 40
0.7343749999999987
 10
174.3540129073635
 20
4.91166533855257
 30
0.0
 10
174.1439296208974
 20
4.854820382699576
 30
0.0
 10
173.9298882241335
 20
4.809384993842772
 30
0.0
 10
173.7112425501123
 20
4.777981783931871
 30
0.0
  0
SPLINE
  5
1FE
330
1F
100
AcDbEntity
  8
SK3
  6
SLD-Dashed
370
    18
100
AcDbSpline
210
0.0
220
0.0
230
1.0
 70
     8
 71
     3
 72
     8
 73
     4
 74
     0
 42
0.000000001
 43
0.00000001
 40
0.7343749999999987
 40
0.7343749999999987
 40
0.7343749999999987
 40
0.7343749999999987
 40
0.7499999999999987
 40
0.7499999999999987
 40
0.7499999999999987
 40
0.7499999999999987
 10
173.7112425501123
 20
4.777981783931871
 30
0.0
 10
173.4925968760911
 20
4.746578574020964
 30
0.0
 10
173.2672766223352
 20
4.729432927675894
 30
0.0
 10
173.0451412365124
 20
4.728486730383029
 30
0.0
  0
SPLINE
  5
1FF
330
1F
100
AcDbEntity
  8
SK3
  6
SLD-Dashed
370
    18
100
AcDbSpline
210
0.0
220
0.0
230
1.0
 70
     8
 71
     3
 72
     8
 73
     4
 74
     0
 42
0.000000001
 43
0.00000001
 40
0.7499999999999987
 40
0.7499999999999987
 40
0.7499999999999987
 40
0.7499999999999987
 40
0.7656249999999988
 40
0.7656249999999988
 40
0.7656249999999988
 40
0.7656249999999988
 10
173.0451412365124
 20
4.728486730383029
 30
0.0
 10
172.8230058506897
 20
4.727540533090164
 30
0.0
 10
172.6027537743579
 20
4.742320059482781
 30
0.0
 10
172.3842724500521
 20
4.771657247043468
 30
0.0
  0
SPLINE
  5
200
330
1F
100
AcDbEntity
  8
SK3
  6
SLD-Dashed
370
    18
100
AcDbSpline
210
0.0
220
0.0
230
1.0
 70
     8
 71
     3
 72
     8
 73
     4
 74
     0
 42
0.000000001
 43
0.00000001
 40
0.7656249999999988
 40
0.7656249999999988
 40
0.7656249999999988
 40
0.7656249999999988
 40
0.7812499999999989
 40
0.7812499999999989
 40
0.7812499999999989
 40
0.7812499999999989
 10
172.3842724500521
 20
4.771657247043468
 30
0.0
 10
172.1657911257463
 20
4.800994434604196
 30
0.0
 10
171.9472747922458
 20
4.845427292100059
 30
0.0
 10
171.7361087501366
 20
4.900961308149224
 30
0.0
  0
SPLINE
  5
201
330
1F
100
AcDbEntity
  8
SK3
  6
SLD-Dashed
370
    18
100
AcDbSpline
210
0.0
220
0.0
230
1.0
 70
     8
 71
     3
 72
     8
 73
     4
 74
     0
 42
0.000000001
 43
0.00000001
 40
0.7812499999999989
 40
0.7812499999999989
 40
0.7812499999999989
 40
0.7812499999999989
 40
0.812499999999999
 40
0.812499999999999
 40
0.812499999999999
 40
0.812499999999999
 10
171.7361087501366
 20
4.900961308149223
 30
0.0
 10
171.3137766659181
 20
5.012029340247427
 30
0.0
 10
170.9184563919841
 20
5.165682206463949
 30
0.0
 10
170.5413919473369
 20
5.341019570199439
 30
0.0
  0
SPLINE
  5
202
330
1F
100
AcDbEntity
  8
SK3
  6
SLD-Dashed
370
    18
100
AcDbSpline
210
0.0
220
0.0
230
1.0
 70
     8
 71
     3
 72
     8
 73
     4
 74
     0
 42
0.000000001
 43
0.00000001
 40
0.812499999999999
 40
0.812499999999999
 40
0.812499999999999
 40
0.812499999999999
 40
0.8281249999999991
 40
0.8281249999999991
 40
0.8281249999999991
 40
0.8281249999999991
 10
170.5413919473369
 20
5.341019570199439
 30
0.0
 10
170.3528597250133
 20
5.428688252067195
 30
0.0
 10
170.1695166766046
 20
5.521776818736106
 30
0.0
 10
169.9935406873426
 20
5.616754103065023
 30
0.0
  0
SPLINE
  5
203
330
1F
100
AcDbEntity
  8
SK3
  6
SLD-Dashed
370
    18
100
AcDbSpline
210
0.0
220
0.0
230
1.0
 70
     8
 71
     3
 72
     8
 73
     4
 74
     0
 42
0.000000001
 43
0.00000001
 40
0.8281249999999991
 40
0.8281249999999991
 40
0.8281249999999991
 40
0.8281249999999991
 40
0.8437499999999991
 40
0.8437499999999991
 40
0.8437499999999991
 40
0.8437499999999991
 10
169.9935406873426
 20
5.616754103065023
 30
0.0
 10
169.8175646980805
 20
5.711731387393941
 30
0.0
 10
169.6479970217355
 20
5.809053641444045
 30
0.0
 10
169.4840264312858
 20
5.907340764196099
 30
0.0
  0
SPLINE
  5
204
330
1F
100
AcDbEntity
  8
SK3
  6
SLD-Dashed
370
    18
100
AcDbSpline
210
0.0
220
0.0
230
1.0
 70
     8
 71
     3
 72
     8
 73
     4
 74
     0
 42
0.000000001
 43
0.00000001
 40
0.8437499999999991
 40
0.8437499999999991
 40
0.8437499999999991
 40
0.8437499999999991
 40
0.8749999999999993
 40
0.8749999999999993
 40
0.8749999999999993
 40
0.8749999999999993
 10
169.4840264312858
 20
5.907340764196099
 30
0.0
 10
169.1560852503865
 20
6.103915009700193
 30
0.0
 10
168.8502598932742
 20
6.30423711843793
 30
0.0
 10
168.5644251649452
 20
6.500377600503205
 30
0.0
  0
SPLINE
  5
205
330
1F
100
AcDbEntity
  8
SK3
  6
SLD-Dashed
370
    18
100
AcDbSpline
210
0.0
220
0.0
230
1.0
 70
     8
 71
     3
 72
     8
 73
     4
 74
     0
 42
0.000000001
 43
0.00000001
 40
0.8749999999999993
 40
0.8749999999999993
 40
0.8749999999999993
 40
0.8749999999999993
 40
0.9062499999999994
 40
0.9062499999999994
 40
0.9062499999999994
 40
0.9062499999999994
 10
168.5644251649452
 20
6.500377600503205
 30
0.0
 10
168.2785904366163
 20
6.696518082568478
 30
0.0
 10
168.0189557433456
 20
6.884386753605656
 30
0.0
 10
167.7883760584962
 20
7.055523467095176
 30
0.0
  0
SPLINE
  5
206
330
1F
100
AcDbEntity
  8
SK3
  6
SLD-Dashed
370
    18
100
AcDbSpline
210
0.0
220
0.0
230
1.0
 70
     8
 71
     3
 72
     8
 73
     4
 74
     0
 42
0.000000001
 43
0.00000001
 40
0.9062499999999994
 40
0.9062499999999994
 40
0.9062499999999994
 40
0.9062499999999994
 40
0.9374999999999996
 40
0.9374999999999996
 40
0.9374999999999996
 40
0.9374999999999996
 10
167.7883760584962
 20
7.055523467095176
 30
0.0
 10
167.5577963736469
 20
7.226660180584703
 30
0.0
 10
167.3549872945628
 20
7.382116970214854
 30
0.0
 10
167.1840026211056
 20
7.515013737196333
 30
0.0
  0
SPLINE
  5
207
330
1F
100
AcDbEntity
  8
SK3
  6
SLD-Dashed
370
    18
100
AcDbSpline
210
0.0
220
0.0
230
1.0
 70
     8
 71
     3
 72
     8
 73
     4
 74
     0
 42
0.000000001
 43
0.00000001
 40
0.9374999999999996
 40
0.9374999999999996
 40
0.9374999999999996
 40
0.9374999999999996
 40
0.9687499999999999
 40
0.9687499999999999
 40
0.9687499999999999
 40
0.9687499999999999
 10
167.1840026211056
 20
7.515013737196333
 30
0.0
 10
167.0130179476484
 20
7.647910504177832
 30
0.0
 10
166.8796722274915
 20
7.753722902492516
 30
0.0
 10
166.7887809939607
 20
7.826149026263586
 30
0.0
  0
SPLINE
  5
208
330
1F
100
AcDbEntity
  8
SK3
  6
SLD-Dashed
370
    18
100
AcDbSpline
210
0.0
220
0.0
230
1.0
 70
     8
 71
     2
 72
     6
 73
     3
 74
     0
 42
0.000000001
 43
0.00000001
 40
0.9687499999999999
 40
0.9687499999999999
 40
0.9687499999999999
 40
1.0
 40
1.0
 40
1.0
 10
166.7887809939607
 20
7.826149026263586
 30
0.0
 10
166.6978897604299
 20
7.89857515003465
 30
0.0
 10
166.6496
 20
7.937500000000007
 30
0.0
  0
SPLINE
  5
209
330
1F
100
AcDbEntity
  8
SK3
  6
SLD-Dashed
370
    18
100
AcDbSpline
210
0.0
220
0.0
230
1.0
 70
     8
 71
     3
 72
    34
 73
    30
 74
     0
 42
0.000000001
 43
0.00000001
 40
0.499999999999998
 40
0.499999999999998
 40
0.499999999999998
 40
0.499999999999998
 40
0.5312499999999979
 40
0.5312499999999979
 40
0.5624999999999978
 40
0.5624999999999978
 40
0.5937499999999976
 40
0.5937499999999976
 40
0.6249999999999974
 40
0.6249999999999974
 40
0.6562499999999973
 40
0.6562499999999973
 40
0.6874999999999972
 40
0.6874999999999972
 40
0.7499999999999969
 40
0.7499999999999969
 40
0.8124999999999973
 40
0.8124999999999973
 40
0.8437499999999978
 40
0.8437499999999978
 40
0.8749999999999982
 40
0.8749999999999982
 40
0.9062499999999987
 40
0.9062499999999987
 40
0.937499999999999
 40
0.937499999999999
 40
0.9687499999999994
 40
0.9687499999999994
 40
1.0
 40
1.0
 40
1.0
 40
1.0
 10
9.638805742161722
 20
10.95392502366162
 30
0.0
 10
9.6938811607363
 20
10.84705887039521
 30
0.0
 10
9.763179283156633
 20
10.74439645836097
 30
0.0
 10
9.923515798149985
 20
10.55592715127708
 30
0.0
 10
10.01390276352453
 20
10.47020735344793
 30
0.0
 10
10.21445694949211
 20
10.31296552728879
 30
0.0
 10
10.32267837600209
 20
10.24333508542229
 30
0.0
 10
10.54307526498122
 20
10.12288935951392
 30
0.0
 10
10.65791658596824
 20
10.07070374731723
 30
0.0
 10
10.87819871140988
 20
9.984463182040875
 30
0.0
 10
10.98608094611136
 20
9.949205279737846
 30
0.0
 10
11.18968749579595
 20
9.892304259468993
 30
0.0
 10
11.28527842069085
 20
9.870580048613839
 30
0.0
 10
11.55898297450223
 20
9.820769890309993
 30
0.0
 10
11.72337034356696
 20
9.808096789548735
 30
0.0
 10
12.02194861504766
 20
9.821477532699776
 30
0.0
 10
12.15920875119768
 20
9.847310188176722
 30
0.0
 10
12.34760730605759
 20
9.92782469274444
 30
0.0
 10
12.40688352391459
 20
9.961503747003379
 30
0.0
 10
12.51780294837551
 20
10.04749808647181
 30
0.0
 10
12.56969006353045
 20
10.10021829085831
 30
0.0
 10
12.65991931900844
 20
10.22933776798929
 30
0.0
 10
12.69929072119648
 20
10.30748393412819
 30
0.0
 10
12.75586568636479
 20
10.49302732041031
 30
0.0
 10
12.77303399215494
 20
10.60290348381506
 30
0.0
 10
12.77663319740259
 20
10.83901366027915
 30
0.0
 10
12.76306993948383
 20
10.96766771108133
 30
0.0
 10
12.71170841969953
 20
11.21837738140154
 30
0.0
 10
12.67469993892524
 20
11.34057418425336
 30
0.0
 10
12.63040931107559
 20
11.45745606890565
 30
0.0
  0
SPLINE
  5
20A
330
1F
100
AcDbEntity
  8
SK3
  6
SLD-Dashed
370
    18
100
AcDbSpline
210
0.0
220
0.0
230
1.0
 70
     8
 71
     3
 72
    26
 73
    22
 74
     0
 42
0.000000001
 43
0.00000001
 40
0.0
 40
0.0
 40
0.0
 40
0.0
 40
0.0624999999999995
 40
0.0624999999999995
 40
0.124999999999999
 40
0.124999999999999
 40
0.1874999999999986
 40
0.1874999999999986
 40
0.2499999999999981
 40
0.2499999999999981
 40
0.281249999999998
 40
0.281249999999998
 40
0.3124999999999979
 40
0.3124999999999979
 40
0.3749999999999981
 40
0.3749999999999981
 40
0.4374999999999984
 40
0.4374999999999984
 40
0.4687499999999982
 40
0.4687499999999982
 40
0.499999999999998
 40
0.499999999999998
 40
0.499999999999998
 40
0.499999999999998
 10
12.63040931107559
 20
11.45745606890565
 30
0.0
 10
12.54182805537631
 20
11.69121983821021
 30
0.0
 10
12.43200682775378
 20
11.89056157115178
 30
0.0
 10
12.18419932759159
 20
12.25514411813748
 30
0.0
 10
12.04834522926919
 20
12.41463399152625
 30
0.0
 10
11.7531401364613
 20
12.69173524411806
 30
0.0
 10
11.59091385222426
 20
12.81202758601131
 30
0.0
 10
11.23004729019513
 20
12.99241430793247
 30
0.0
 10
11.02728334192551
 20
13.05343833574649
 30
0.0
 10
10.69987000905186
 20
13.05646994226838
 30
0.0
 10
10.58531472788943
 20
13.0419760700552
 30
0.0
 10
10.36396153134628
 20
12.97944613660278
 30
0.0
 10
10.25449961952682
 20
12.93102694430326
 30
0.0
 10
9.947578697971332
 20
12.7394816191429
 30
0.0
 10
9.776646578307194
 20
12.55346040827498
 30
0.0
 10
9.542451961566195
 20
12.12678030999253
 30
0.0
 10
9.478612055377935
 20
11.88580640702583
 30
0.0
 10
9.473421112414282
 20
11.52565520755326
 30
0.0
 10
9.486345898652631
 20
11.40749361566879
 30
0.0
 10
9.54139061562105
 20
11.1745915190869
 30
0.0
 10
9.583730323587128
 20
11.06079117692804
 30
0.0
 10
9.638805742161722
 20
10.95392502366162
 30
0.0
  0
SPLINE
  5
20B
330
1F
100
AcDbEntity
  8
SK3
  6
SLD-Dashed
370
    18
100
AcDbSpline
210
0.0
220
0.0
230
1.0
 70
     8
 71
     3
 72
    18
 73
    14
 74
     0
 42
0.000000001
 43
0.00000001
 40
0.0
 40
0.0
 40
0.0
 40
0.0
 40
0.0501962867734933
 40
0.100030621443722
 40
0.1855667331187706
 40
0.2501823892320661
 40
0.3747066158220745
 40
0.4998232982189725
 40
0.6247294758455316
 40
0.7494251058857281
 40
0.8746331028690637
 40
0.9372230808189629
 40
1.0
 40
1.0
 40
1.0
 40
1.0
 10
3.950000000000009
 20
46.81625358782996
 30
0.0
 10
3.943300488172069
 20
46.81609127853699
 30
0.0
 10
3.929949772918079
 20
46.8157678303203
 30
0.0
 10
3.905360779048073
 20
46.81256776526227
 30
0.0
 10
3.879327985377809
 20
46.80630579793133
 30
0.0
 10
3.844998498051089
 20
46.79331555547191
 30
0.0
 10
3.808260602500904
 20
46.77247000397301
 30
0.0
 10
3.770344503827433
 20
46.73942242416843
 30
0.0
 10
3.739587180509207
 20
46.69961163074888
 30
0.0
 10
3.716933654940719
 20
46.65468875110022
 30
0.0
 10
3.705476597958071
 20
46.61434662644385
 30
0.0
 10
3.700675324942504
 20
46.58119847829342
 30
0.0
 10
3.700225331983637
 20
46.56446483112381
 30
0.0
 10
3.700000000000009
 20
46.55608553132449
 30
0.0
  0
SPLINE
  5
20C
330
1F
100
AcDbEntity
  8
SK3
  6
SLD-Dashed
370
    18
100
AcDbSpline
210
0.0
220
0.0
230
1.0
 70
     8
 71
     3
 72
    18
 73
    14
 74
     0
 42
0.000000001
 43
0.00000001
 40
0.0
 40
0.0
 40
0.0
 40
0.0
 40
0.0502196103872459
 40
0.1000870260924544
 40
0.1855086368940347
 40
0.2501550808792018
 40
0.374658315746124
 40
0.499857085379306
 40
0.6242312608259575
 40
0.7494324099488543
 40
0.8740366596180059
 40
0.9370350243166945
 40
1.0
 40
1.0
 40
1.0
 40
1.0
 10
18.55000000000004
 20
46.5560855313244
 30
0.0
 10
18.54985614514712
 20
46.56278755186
 30
0.0
 10
18.54956944430841
 20
46.57614459105336
 30
0.0
 10
18.54672594518124
 20
46.60076085239339
 30
0.0
 10
18.54114997473669
 20
46.62692328764684
 30
0.0
 10
18.5294858307287
 20
46.66169890756605
 30
0.0
 10
18.51054340758339
 20
46.69941980690709
 30
0.0
 10
18.47987172088775
 20
46.73918434013715
 30
0.0
 10
18.44197136356039
 20
46.77229285140231
 30
0.0
 10
18.39830135356872
 20
46.79720148409474
 30
0.0
 10
18.35828818785666
 20
46.81006094110487
 30
0.0
 10
18.32521964393113
 20
46.81548545401076
 30
0.0
 10
18.30840506230054
 20
46.8159975884739
 30
0.0
 10
18.30000000000003
 20
46.81625358782992
 30
0.0
  0
SPLINE
  5
20D
330
1F
100
AcDbEntity
  8
1
  6
SLD-Dashed
370
    18
100
AcDbSpline
210
0.0
220
0.0
230
1.0
 70
     8
 71
     3
 72
     8
 73
     4
 74
     0
 42
0.000000001
 43
0.00000001
 40
0.0
 40
0.0
 40
0.0
 40
0.0
 40
1.0
 40
1.0
 40
1.0
 40
1.0
 10
9.200000000002047
 20
44.57901066343278
 30
0.0
 10
8.786353866861473
 20
45.32508460154084
 30
0.0
 10
8.37208849092408
 20
46.07082082932836
 30
0.0
 10
7.957289380062127
 20
46.81625358782996
 30
0.0
  0
SPLINE
  5
20E
330
1F
100
AcDbEntity
  8
1
  6
SLD-Dashed
370
    18
100
AcDbSpline
210
0.0
220
0.0
230
1.0
 70
     8
 71
     3
 72
    10
 73
     6
 74
     0
 42
0.000000001
 43
0.00000001
 40
0.0
 40
0.0
 40
0.0
 40
0.0
 40
0.5
 40
0.5
 40
1.0
 40
1.0
 40
1.0
 40
1.0
 10
9.950000000001248
 20
43.7694359684941
 30
0.0
 10
9.74877153622243
 20
43.76943596849377
 30
0.0
 10
9.550990673892228
 20
43.85856672856774
 30
0.0
 10
9.277097785723983
 20
44.15022946993274
 30
0.0
 10
9.200000000000319
 20
44.34957328976747
 30
0.0
 10
9.2
 20
44.55102159322499
 30
0.0
  0
SPLINE
  5
20F
330
1F
100
AcDbEntity
  8
1
  6
SLD-Dashed
370
    18
100
AcDbSpline
210
0.0
220
0.0
230
1.0
 70
     8
 71
     3
 72
    12
 73
     8
 74
     0
 42
0.000000001
 43
0.00000001
 40
0.0
 40
0.0
 40
0.0
 40
0.0
 40
0.5000000000000048
 40
0.5000000000000048
 40
0.7500000000000023
 40
0.7500000000000023
 40
1.0
 40
1.0
 40
1.0
 40
1.0
 10
13.02999999999994
 20
44.55102159322491
 30
0.0
 10
13.02999999999991
 20
44.35104831812321
 30
0.0
 10
12.95399603318285
 20
44.15150826736608
 30
0.0
 10
12.74724095984755
 20
43.93116827138052
 30
0.0
 10
12.6631420626864
 20
43.8712862165096
 30
0.0
 10
12.48048875274074
 20
43.79084228716531
 30
0.0
 10
12.37984375713171
 20
43.76943596849289
 30
0.0
 10
12.28000000000003
 20
43.76943596849289
 30
0.0
  0
SPLINE
  5
210
330
1F
100
AcDbEntity
  8
1
  6
SLD-Dashed
370
    18
100
AcDbSpline
210
0.0
220
0.0
230
1.0
 70
     8
 71
     3
 72
     8
 73
     4
 74
     0
 42
0.000000001
 43
0.00000001
 40
0.0
 40
0.0
 40
0.0
 40
0.0
 40
1.0
 40
1.0
 40
1.0
 40
1.0
 10
14.27271061995092
 20
46.81625358783775
 30
0.0
 10
13.85791150908531
 20
46.07082082933481
 30
0.0
 10
13.44364613314423
 20
45.32508460154594
 30
0.0
 10
13.03
 20
44.57901066343648
 30
0.0
  0
SPLINE
  5
211
330
1F
100
AcDbEntity
  8
1
  6
SLD-Dashed
370
    18
100
AcDbSpline
210
0.0
220
0.0
230
1.0
 70
     8
 71
     3
 72
    12
 73
     8
 74
     0
 42
0.000000001
 43
0.00000001
 40
0.0
 40
0.0
 40
0.0
 40
0.0
 40
0.2499999999999967
 40
0.2499999999999967
 40
0.4999999999999933
 40
0.4999999999999933
 40
1.0
 40
1.0
 40
1.0
 40
1.0
 10
3.19999999999979
 20
-46.69763484374749
 30
0.0
 10
3.199999999999831
 20
-46.7985109584615
 30
0.0
 10
3.218629406337786
 20
-46.89733966428926
 30
0.0
 10
3.291844246696875
 20
-47.0841146964833
 30
0.0
 10
3.345979173512774
 20
-47.16991322229985
 30
0.0
 10
3.551871853062258
 20
-47.38753444472503
 30
0.0
 10
3.748026856781355
 20
-47.47548419974255
 30
0.0
 10
3.950000000000009
 20
-47.4754841997425
 30
0.0
  0
SPLINE
  5
212
330
1F
100
AcDbEntity
  8
1
  6
SLD-Dashed
370
    18
100
AcDbSpline
210
0.0
220
0.0
230
1.0
 70
     8
 71
     3
 72
    12
 73
     8
 74
     0
 42
0.000000001
 43
0.00000001
 40
0.0
 40
0.0
 40
0.0
 40
0.0
 40
0.2499999999999985
 40
0.2499999999999985
 40
0.499999999999997
 40
0.499999999999997
 40
1.0
 40
1.0
 40
1.0
 40
1.0
 10
18.30000000000003
 20
-47.4754841997425
 30
0.0
 10
18.40091596910942
 20
-47.47548419974249
 30
0.0
 10
18.50002158252256
 20
-47.45437693482704
 30
0.0
 10
18.68315226992451
 20
-47.37426897057826
 30
0.0
 10
18.76654490405269
 20
-47.31511647588037
 30
0.0
 10
18.97195148872742
 20
-47.09831987092234
 30
0.0
 10
19.05
 20
-46.89926900274104
 30
0.0
 10
19.05
 20
-46.69763484374771
 30
0.0
  0
SPLINE
  5
213
330
1F
100
AcDbEntity
  8
1
  6
SLD-Dashed
370
    18
100
AcDbSpline
210
0.0
220
0.0
230
1.0
 70
     8
 71
     3
 72
     8
 73
     4
 74
     0
 42
0.000000001
 43
0.00000001
 40
0.0
 40
0.0
 40
0.0
 40
0.0
 40
1.0
 40
1.0
 40
1.0
 40
1.0
 10
14.63972339340267
 20
-47.4754841997425
 30
0.0
 10
14.10222500453559
 20
-46.5104965471081
 30
0.0
 10
13.56559195163211
 20
-45.54503249842018
 30
0.0
 10
13.03
 20
-44.57901066343648
 30
0.0
  0
SPLINE
  5
214
330
1F
100
AcDbEntity
  8
1
  6
SLD-Dashed
370
    18
100
AcDbSpline
210
0.0
220
0.0
230
1.0
 70
     8
 71
     3
 72
    12
 73
     8
 74
     0
 42
0.000000001
 43
0.00000001
 40
0.0
 40
0.0
 40
0.0
 40
0.0
 40
0.5
 40
0.5
 40
0.75
 40
0.75
 40
1.0
 40
1.0
 40
1.0
 40
1.0
 10
13.03000000000028
 20
-44.55102159322527
 30
0.0
 10
13.03000000000035
 20
-44.35094747116185
 30
0.0
 10
12.95238692985019
 20
-44.14958800989085
 30
0.0
 10
12.74748896269969
 20
-43.93153570225749
 30
0.0
 10
12.6637277001479
 20
-43.87162606259755
 30
0.0
 10
12.48090790509572
 20
-43.79094541821721
 30
0.0
 10
12.3805733178244
 20
-43.76943596849286
 30
0.0
 10
12.28000000000003
 20
-43.76943596849289
 30
0.0
  0
SPLINE
  5
215
330
1F
100
AcDbEntity
  8
1
  6
SLD-Dashed
370
    18
100
AcDbSpline
210
0.0
220
0.0
230
1.0
 70
     8
 71
     3
 72
    12
 73
     8
 74
     0
 42
0.000000001
 43
0.00000001
 40
0.0
 40
0.0
 40
0.0
 40
0.0
 40
0.2500000000000039
 40
0.2500000000000039
 40
0.5000000000000078
 40
0.5000000000000078
 40
1.0
 40
1.0
 40
1.0
 40
1.0
 10
9.949999999999834
 20
-43.76943596849306
 30
0.0
 10
9.850030395358797
 20
-43.76943596849311
 30
0.0
 10
9.75011497476623
 20
-43.79051518316425
 30
0.0
 10
9.56550705776127
 20
-43.87194262843708
 30
0.0
 10
9.482715011846734
 20
-43.93126060501225
 30
0.0
 10
9.276579660402891
 20
-44.15080408372874
 30
0.0
 10
9.200000000000042
 20
-44.35163254795803
 30
0.0
 10
9.2
 20
-44.55102159322499
 30
0.0
  0
SPLINE
  5
216
330
1F
100
AcDbEntity
  8
1
  6
SLD-Dashed
370
    18
100
AcDbSpline
210
0.0
220
0.0
230
1.0
 70
     8
 71
     3
 72
     8
 73
     4
 74
     0
 42
0.000000001
 43
0.00000001
 40
0.0
 40
0.0
 40
0.0
 40
0.0
 40
1.0
 40
1.0
 40
1.0
 40
1.0
 10
9.2
 20
-44.57901066343648
 30
0.0
 10
8.664408048367878
 20
-45.54503249842017
 30
0.0
 10
8.12777499546441
 20
-46.51049654710808
 30
0.0
 10
7.590276606597349
 20
-47.47548419974248
 30
0.0
  0
SPLINE
  5
217
330
1F
100
AcDbEntity
  8
SK3
  6
SLD-Dashed
370
    18
100
AcDbSpline
210
0.0
220
0.0
230
1.0
 70
     8
 71
     3
 72
    34
 73
    30
 74
     0
 42
0.000000001
 43
0.00000001
 40
0.5000000000000003
 40
0.5000000000000003
 40
0.5000000000000003
 40
0.5000000000000003
 40
0.5625000000000013
 40
0.5625000000000013
 40
0.5937500000000011
 40
0.5937500000000011
 40
0.625000000000001
 40
0.625000000000001
 40
0.6562500000000009
 40
0.6562500000000009
 40
0.6875000000000008
 40
0.6875000000000008
 40
0.7187500000000007
 40
0.7187500000000007
 40
0.7500000000000004
 40
0.7500000000000004
 40
0.7812500000000003
 40
0.7812500000000003
 40
0.8125000000000002
 40
0.8125000000000002
 40
0.8437500000000001
 40
0.8437500000000001
 40
0.875
 40
0.875
 40
0.9062499999999999
 40
0.9062499999999999
 40
0.9374999999999997
 40
0.9374999999999997
 40
1.0
 40
1.0
 40
1.0
 40
1.0
 10
10.60808274902045
 20
14.67518531385664
 30
0.0
 10
10.77143994352721
 20
14.66271400222903
 30
0.0
 10
10.95396076821072
 20
14.63137977172278
 30
0.0
 10
11.25812245907615
 20
14.54691770596562
 30
0.0
 10
11.36641585866904
 20
14.51171888144389
 30
0.0
 10
11.58574352105282
 20
14.42634662926307
 30
0.0
 10
11.69715944869877
 20
14.37625545607606
 30
0.0
 10
11.92117180667888
 20
14.25483711630821
 30
0.0
 10
12.02893523597723
 20
14.18587333985283
 30
0.0
 10
12.22961030853029
 20
14.02983333564747
 30
0.0
 10
12.3226774283587
 20
13.94226901556095
 30
0.0
 10
12.48372543018653
 20
13.75415019217113
 30
0.0
 10
12.55366053916099
 20
13.65130323099262
 30
0.0
 10
12.66489321927143
 20
13.43691773984448
 30
0.0
 10
12.7071773018843
 20
13.32435113894572
 30
0.0
 10
12.76326417564931
 20
13.08988167819453
 30
0.0
 10
12.7763551192606
 20
12.97149039057749
 30
0.0
 10
12.77342672652905
 20
12.7321108433757
 30
0.0
 10
12.75684979458239
 20
12.61060743991049
 30
0.0
 10
12.69552150102997
 20
12.37773497196915
 30
0.0
 10
12.65033349294087
 20
12.26373909474827
 30
0.0
 10
12.53298957942557
 20
12.04909612932805
 30
0.0
 10
12.46214536200849
 20
11.95022400081662
 30
0.0
 10
12.29651277322139
 20
11.7714341028718
 30
0.0
 10
12.20150676240367
 20
11.69219588739501
 30
0.0
 10
11.99926684334575
 20
11.56533020093842
 30
0.0
 10
11.88885801145316
 20
11.51587497169281
 30
0.0
 10
11.55399205333034
 20
11.42069275726626
 30
0.0
 10
11.32716468948122
 20
11.42871083881322
 30
0.0
 10
11.12500000000001
 20
11.48273236161759
 30
0.0
  0
SPLINE
  5
218
330
1F
100
AcDbEntity
  8
SK3
  6
SLD-Dashed
370
    18
100
AcDbSpline
210
0.0
220
0.0
230
1.0
 70
     8
 71
     3
 72
    30
 73
    26
 74
     0
 42
0.000000001
 43
0.00000001
 40
0.0
 40
0.0
 40
0.0
 40
0.0
 40
0.0624999999999997
 40
0.0624999999999997
 40
0.1249999999999995
 40
0.1249999999999995
 40
0.1562499999999993
 40
0.1562499999999993
 40
0.1874999999999992
 40
0.1874999999999992
 40
0.2187499999999991
 40
0.2187499999999991
 40
0.2499999999999989
 40
0.2499999999999989
 40
0.2812499999999988
 40
0.2812499999999988
 40
0.3124999999999987
 40
0.3124999999999987
 40
0.3437499999999986
 40
0.3437499999999986
 40
0.3749999999999984
 40
0.3749999999999984
 40
0.4374999999999994
 40
0.4374999999999994
 40
0.5000000000000003
 40
0.5000000000000003
 40
0.5000000000000003
 40
0.5000000000000003
 10
11.12500000000001
 20
11.48273236161759
 30
0.0
 10
10.92283531051878
 20
11.53675388442193
 30
0.0
 10
10.74714710048237
 20
11.63024516394926
 30
0.0
 10
10.42066988662173
 20
11.86454434722231
 30
0.0
 10
10.27375737476435
 20
12.00407384287208
 30
0.0
 10
10.07148943268484
 20
12.2417783920363
 30
0.0
 10
10.00699015299672
 20
12.32609339770682
 30
0.0
 10
9.883509956371176
 20
12.50701007175131
 30
0.0
 10
9.824268573097857
 20
12.60415729348405
 30
0.0
 10
9.71515470609033
 20
12.80934651131552
 30
0.0
 10
9.664396735733453
 20
12.9190362288981
 30
0.0
 10
9.576981863499118
 20
13.14891853741638
 30
0.0
 10
9.540303532497477
 20
13.26831266228052
 30
0.0
 10
9.487704529937997
 20
13.52080982106196
 30
0.0
 10
9.473745253197968
 20
13.64846695671307
 30
0.0
 10
9.47643808956057
 20
13.88700257856813
 30
0.0
 10
9.493197896428024
 20
13.99682053671475
 30
0.0
 10
9.549353346861217
 20
14.18374939795271
 30
0.0
 10
9.58858947784802
 20
14.26231510462442
 30
0.0
 10
9.67848001882432
 20
14.39201189392007
 30
0.0
 10
9.730204466999195
 20
14.44496665500976
 30
0.0
 10
9.89634859518447
 20
14.57471258814563
 30
0.0
 10
10.02083275682619
 20
14.62455209347293
 30
0.0
 10
10.29708420272975
 20
14.68178062150165
 30
0.0
 10
10.4447255545137
 20
14.68765662548424
 30
0.0
 10
10.60808274902045
 20
14.67518531385664
 30
0.0
  0
DIMENSION
  5
219
330
1F
100
AcDbEntity
  8
2
100
AcDbDimension
  2
_D
 10
196.85
 20
86.8868690473
 30
0.0
 11
64.7039118885
 21
86.8868690473
 31
0.0
 70
   160
  1
<>
 71
     2
 42
-1.0
  3
SLDDIMSTYLE0
100
AcDbAlignedDimension
 13
0.0
 23
34.925
 33
0.0
 14
196.85
 24
13.21
 34
0.0
 50
0.0
100
AcDbRotatedDimension
  0
DIMENSION
  5
22E
330
1F
100
AcDbEntity
  8
SK2
100
AcDbDimension
  2
_D_1
 10
196.85
 20
73.2415842774
 30
0.0
 11
95.2957037317
 21
73.2415842774
 31
0.0
 70
   160
  1
<>
 71
     2
 42
-1.0
  3
SLDDIMSTYLE0
100
AcDbAlignedDimension
 13
19.05
 23
46.5560855313
 33
0.0
 14
196.85
 24
13.21
 34
0.0
100
AcDbRotatedDimension
  0
DIMENSION
  5
241
330
1F
100
AcDbEntity
  8
SK2
100
AcDbDimension
  2
_D_2
 10
196.85
 20
58.9480694035
 30
0.0
 11
100.9010036823
 21
58.9480694035
 31
0.0
 70
   160
  1
<>
 71
     2
 42
-1.0
  3
SLDDIMSTYLE0
100
AcDbAlignedDimension
 13
35.1
 23
33.401
 33
0.0
 14
196.85
 24
13.21
 34
0.0
 50
0.0
100
AcDbRotatedDimension
  0
DIMENSION
  5
254
330
1F
100
AcDbEntity
  8
SK2
100
AcDbDimension
  2
_D_3
 10
196.85
 20
45.4953495221
 30
0.0
 11
137.335453361
 21
45.4953495221
 31
0.0
 70
   160
  1
<>
 71
     2
 42
-1.0
  3
SLDDIMSTYLE0
100
AcDbAlignedDimension
 13
88.9
 23
19.05
 33
0.0
 14
196.85
 24
13.21
 34
0.0
 50
0.0
100
AcDbRotatedDimension
  0
DIMENSION
  5
267
330
1F
100
AcDbEntity
  8
SK2
100
AcDbDimension
  2
_D_4
 10
196.85
 20
32.6031596358
 30
0.0
 11
183.5791779532
 21
32.6031596358
 31
0.0
 70
   160
  1
<>
 71
     2
 42
-1.0
  3
SLDDIMSTYLE0
100
AcDbAlignedDimension
 13
173.025
 23
19.3
 33
0.0
 14
196.85
 24
13.21
 34
0.0
100
AcDbRotatedDimension
  0
DIMENSION
  5
27A
330
1F
100
AcDbEntity
  8
SK2
100
AcDbDimension
  2
_D_5
 10
215.5717020016
 20
7.9375
 30
0.0
 11
215.5717020016
 21
29.4654994776
 31
0.0
 70
   160
  1
%%c<>
 71
     2
 42
-1.0
  3
SLDDIMSTYLE1
100
AcDbAlignedDimension
 13
195.35
 23
-7.9375
 33
0.0
 14
195.35
 24
7.9375
 34
0.0
 50
90.0
100
AcDbRotatedDimension
  0
DIMENSION
  5
28F
330
1F
100
AcDbEntity
  8
SK2
100
AcDbDimension
  2
_D_6
 10
231.1497370306
 20
-13.21
 30
0.0
 11
231.1497370306
 21
0.2717641042
 31
0.0
 70
   160
  1
%%c<>
 71
     2
 42
-1.0
  3
SLDDIMSTYLE0
100
AcDbAlignedDimension
 13
196.85
 23
13.21
 33
0.0
 14
196.85
 24
-13.21
 34
0.0
 50
90.0
100
AcDbRotatedDimension
  0
DIMENSION
  5
2A1
330
1F
100
AcDbEntity
  8
SK2
100
AcDbDimension
  2
_D_7
 10
246.8932662137
 20
-19.05
 30
0.0
 11
246.8932662137
 21
-0.7439262177
 31
0.0
 70
   160
  1
<>
 71
     2
 42
-1.0
  3
SLDDIMSTYLE0
100
AcDbAlignedDimension
 13
191.01
 23
19.05
 33
0.0
 14
191.01
 24
-19.05
 34
0.0
 50
90.0
100
AcDbRotatedDimension
  0
DIMENSION
  5
2B4
330
1F
100
AcDbEntity
  8
SK2
100
AcDbDimension
  2
_D_8
 10
-101.6
 20
-67.9091950774
 30
0.0
 11
64.7039118885
 21
-67.9091950774
 31
0.0
 70
   160
  1
<>
 71
     2
 42
-1.0
  3
SLDDIMSTYLE2
100
AcDbAlignedDimension
 13
196.85
 23
-8.7963857286
 33
0.0
 14
-101.6
 24
-18.2922326599
 34
0.0
 50
0.0
100
AcDbRotatedDimension
  0
DIMENSION
  5
2C8
330
1F
100
AcDbEntity
  8
SK2
100
AcDbDimension
  2
_D_9
 10
196.85
 20
-54.8705486501
 30
0.0
 11
176.1315996017
 21
-54.8705486501
 31
0.0
 70
   160
  1
<>
 71
     2
 42
-1.0
  3
SLDDIMSTYLE0
100
AcDbAlignedDimension
 13
149.1002750267
 23
-7.9375
 33
0.0
 14
196.85
 24
-13.21
 34
0.0
100
AcDbRotatedDimension
  0
DIMENSION
  5
2DB
330
1F
100
AcDbEntity
  8
SK2
100
AcDbDimension
  2
_D_10
 10
191.01
 20
-37.4658940941
 30
0.0
 11
183.5791779532
 21
-37.4658940941
 31
0.0
 70
   160
  1
<>
 71
     2
 42
-1.0
  3
SLDDIMSTYLE3
100
AcDbAlignedDimension
 13
196.85
 23
-13.21
 33
0.0
 14
191.01
 24
-19.05
 34
0.0
100
AcDbRotatedDimension
  0
DIMENSION
  5
2E8
330
1F
100
AcDbEntity
  8
SK2
100
AcDbDimension
  2
_D_11
 10
19.05
 20
73.2415842774
 30
0.0
 11
8.1493674251
 21
73.2415842774
 31
0.0
 70
   160
  1
<>
 71
     2
 42
-1.0
  3
SLDDIMSTYLE4
100
AcDbAlignedDimension
 13
0.0
 23
34.925
 33
0.0
 14
19.05
 24
46.5560855313
 34
0.0
100
AcDbRotatedDimension
  0
DIMENSION
  5
2F3
330
1F
100
AcDbEntity
  8
SK2
100
AcDbDimension
  2
_D_12
 10
-122.6819600828
 20
47.2968145978
 30
0.0
 11
-122.6819600828
 21
-0.7439262177
 31
0.0
 70
   160
  1
%%c<>
 71
     2
 42
-1.0
  3
SLDDIMSTYLE4
100
AcDbAlignedDimension
 13
5.7701383033
 23
-47.4754841997
 33
0.0
 14
3.95
 24
47.2968145978
 34
0.0
 50
90.0
100
AcDbRotatedDimension
  0
DIMENSION
  5
2FE
330
1F
100
AcDbEntity
  8
SK2
100
AcDbDimension
  2
_D_13
 10
-112.0287164186
 20
-12.6999998465
 30
0.0
 11
-112.0287164186
 21
0.2717641042
 31
0.0
 70
   160
  1
<>
 71
     2
 42
-1.0
  3
SLDDIMSTYLE4
100
AcDbAlignedDimension
 13
-94.967097044
 23
12.6999998435
 33
0.0
 14
-94.967097044
 24
-12.6999998465
 34
0.0
 50
90.0
100
AcDbRotatedDimension
  0
MTEXT
  5
309
330
1F
100
AcDbEntity
  8
SK6
 62
     5
100
AcDbMText
 10
-50.6344000901
 20
-18.8234962009
 30
0.0
 40
3.5
 41
0.0
 71
     1
 72
     1
  1
AA3B20-50 16 197
  7
SLDTEXTSTYLE0
 73
     1
 44
1.0
  0
MTEXT
  5
30A
330
1F
100
AcDbEntity
  8
SK6
 62
     5
100
AcDbMText
 10
-57.0462780316
 20
42.4234652474
 30
0.0
 40
3.5
 41
0.0
 71
     1
 72
     1
  1
ASME B5.50 CAT 50
  7
SLDTEXTSTYLE0
 73
     1
 44
1.0
  0
ENDSEC
  0
SECTION
  2
OBJECTS
  0
DICTIONARY
  5
C
330
0
100
AcDbDictionary
281
     1
  3
ACAD_GROUP
350
D
  3
ACAD_LAYOUT
350
1A
  3
ACAD_MLINESTYLE
350
17
  3
ACAD_PLOTSETTINGS
350
19
  3
ACAD_PLOTSTYLENAME
350
E
  3
ACAD_SCALELIST
350
47
  0
DICTIONARY
  5
D
102
{ACAD_REACTORS
330
C
102
}
330
C
100
AcDbDictionary
281
     1
  0
DICTIONARY
  5
1A
102
{ACAD_REACTORS
330
C
102
}
330
C
100
AcDbDictionary
281
     1
  3
Layout1
350
1E
  3
Layout2
350
26
  3
Model
350
22
  0
DICTIONARY
  5
17
102
{ACAD_REACTORS
330
C
102
}
330
C
100
AcDbDictionary
281
     1
  3
Standard
350
18
  0
DICTIONARY
  5
19
102
{ACAD_REACTORS
330
C
102
}
330
C
100
AcDbDictionary
281
     1
  0
ACDBDICTIONARYWDFLT
  5
E
102
{ACAD_REACTORS
330
C
102
}
330
C
100
AcDbDictionary
281
     1
  3
Normal
350
F
100
AcDbDictionaryWithDefault
340
F
  0
DICTIONARY
  5
47
102
{ACAD_REACTORS
330
C
102
}
330
C
100
AcDbDictionary
281
     1
  3
A0
350
48
  3
A1
350
49
  3
A2
350
4A
  3
A3
350
4B
  3
A4
350
4C
  3
A5
350
4D
  3
A6
350
4E
  3
A7
350
4F
  3
A8
350
50
  3
A9
350
51
  3
B0
350
52
  3
B1
350
53
  3
B2
350
54
  3
B3
350
55
  3
B4
350
56
  3
B5
350
57
  3
B6
350
58
  3
B7
350
59
  3
B8
350
5A
  3
B9
350
5B
  3
C0
350
5C
  3
C1
350
5D
  3
C2
350
5E
  3
C3
350
5F
  3
C4
350
60
  3
C5
350
61
  3
C6
350
62
  3
C7
350
63
  3
C8
350
64
  3
C9
350
65
  3
D0
350
66
  3
D1
350
67
  3
D2
350
68
  0
LAYOUT
  5
1E
102
{ACAD_REACTORS
330
1A
102
}
330
1A
100
AcDbPlotSettings
  1

  2
none_device
  4

  6

 40
0.0
 41
0.0
 42
0.0
 43
0.0
 44
0.0
 45
0.0
 46
0.0
 47
0.0
 48
0.0
 49
0.0
140
0.0
141
0.0
142
1.0
143
1.0
 70
   688
 72
     1
 73
     0
 74
     5
  7

 75
    16
147
1.0
148
0.0
149
0.0
100
AcDbLayout
  1
Layout1
 70
     1
 71
     1
 10
0.0
 20
0.0
 11
420.0
 21
297.0
 12
0.0
 22
0.0
 32
0.0
 14
1.0000000000E+20
 24
1.0000000000E+20
 34
1.0000000000E+20
 15
-1.0000000000E+20
 25
-1.0000000000E+20
 35
-1.0000000000E+20
146
0.0
 13
0.0
 23
0.0
 33
0.0
 16
1.0
 26
0.0
 36
0.0
 17
0.0
 27
1.0
 37
0.0
 76
     0
330
1B
  0
LAYOUT
  5
26
102
{ACAD_REACTORS
330
1A
102
}
330
1A
100
AcDbPlotSettings
  1

  2
none_device
  4

  6

 40
0.0
 41
0.0
 42
0.0
 43
0.0
 44
0.0
 45
0.0
 46
0.0
 47
0.0
 48
0.0
 49
0.0
140
0.0
141
0.0
142
1.0
143
1.0
 70
   688
 72
     1
 73
     0
 74
     5
  7

 75
    16
147
1.0
148
0.0
149
0.0
100
AcDbLayout
  1
Layout2
 70
     1
 71
     2
 10
0.0
 20
0.0
 11
0.0
 21
0.0
 12
0.0
 22
0.0
 32
0.0
 14
0.0
 24
0.0
 34
0.0
 15
0.0
 25
0.0
 35
0.0
146
0.0
 13
0.0
 23
0.0
 33
0.0
 16
1.0
 26
0.0
 36
0.0
 17
0.0
 27
1.0
 37
0.0
 76
     0
330
23
  0
LAYOUT
  5
22
102
{ACAD_REACTORS
330
1A
102
}
330
1A
100
AcDbPlotSettings
  1

  2
none_device
  4
Letter_(8.50_x_11.00_Inches)
  6

 40
6.35
 41
6.35
 42
6.35000508
 43
6.35000508
 44
215.9
 45
279.4
 46
0.0
 47
0.0
 48
0.0
 49
0.0
140
0.0
141
0.0
142
1.0
143
1.0
 70
  1712
 72
     1
 73
     0
 74
     0
  7

 75
     0
147
1.0
148
0.0
149
0.0
100
AcDbLayout
  1
Model
 70
     1
 71
     0
 10
0.0
 20
0.0
 11
297.0
 21
210.0
 12
0.0
 22
0.0
 32
0.0
 14
0.0
 24
0.0
 34
0.0
 15
297.0
 25
210.0
 35
0.0
146
0.0
 13
0.0
 23
0.0
 33
0.0
 16
1.0
 26
0.0
 36
0.0
 17
0.0
 27
1.0
 37
0.0
 76
     0
330
1F
331
29
  0
MLINESTYLE
  5
18
102
{ACAD_REACTORS
330
17
102
}
330
17
100
AcDbMlineStyle
  2
Standard
 70
     0
  3

 62
   256
 51
90.0
 52
90.0
 71
     2
 49
0.5
 62
   256
  6
BYLAYER
 49
-0.5
 62
   256
  6
BYLAYER
  0
ACDBPLACEHOLDER
  5
F
102
{ACAD_REACTORS
330
E
102
}
330
E
  0
SCALE
  5
48
102
{ACAD_REACTORS
330
47
102
}
330
47
100
AcDbScale
 70
     0
300
1:1
140
1.0
141
1.0
290
     1
  0
SCALE
  5
49
102
{ACAD_REACTORS
330
47
102
}
330
47
100
AcDbScale
 70
     0
300
1:2
140
1.0
141
2.0
290
     0
  0
SCALE
  5
4A
102
{ACAD_REACTORS
330
47
102
}
330
47
100
AcDbScale
 70
     0
300
1:4
140
1.0
141
4.0
290
     0
  0
SCALE
  5
4B
102
{ACAD_REACTORS
330
47
102
}
330
47
100
AcDbScale
 70
     0
300
1:5
140
1.0
141
5.0
290
     0
  0
SCALE
  5
4C
102
{ACAD_REACTORS
330
47
102
}
330
47
100
AcDbScale
 70
     0
300
1:8
140
1.0
141
8.0
290
     0
  0
SCALE
  5
4D
102
{ACAD_REACTORS
330
47
102
}
330
47
100
AcDbScale
 70
     0
300
1:10
140
1.0
141
10.0
290
     0
  0
SCALE
  5
4E
102
{ACAD_REACTORS
330
47
102
}
330
47
100
AcDbScale
 70
     0
300
1:16
140
1.0
141
16.0
290
     0
  0
SCALE
  5
4F
102
{ACAD_REACTORS
330
47
102
}
330
47
100
AcDbScale
 70
     0
300
1:20
140
1.0
141
20.0
290
     0
  0
SCALE
  5
50
102
{ACAD_REACTORS
330
47
102
}
330
47
100
AcDbScale
 70
     0
300
1:30
140
1.0
141
30.0
290
     0
  0
SCALE
  5
51
102
{ACAD_REACTORS
330
47
102
}
330
47
100
AcDbScale
 70
     0
300
1:40
140
1.0
141
40.0
290
     0
  0
SCALE
  5
52
102
{ACAD_REACTORS
330
47
102
}
330
47
100
AcDbScale
 70
     0
300
1:50
140
1.0
141
50.0
290
     0
  0
SCALE
  5
53
102
{ACAD_REACTORS
330
47
102
}
330
47
100
AcDbScale
 70
     0
300
1:100
140
1.0
141
100.0
290
     0
  0
SCALE
  5
54
102
{ACAD_REACTORS
330
47
102
}
330
47
100
AcDbScale
 70
     0
300
2:1
140
2.0
141
1.0
290
     0
  0
SCALE
  5
55
102
{ACAD_REACTORS
330
47
102
}
330
47
100
AcDbScale
 70
     0
300
4:1
140
4.0
141
1.0
290
     0
  0
SCALE
  5
56
102
{ACAD_REACTORS
330
47
102
}
330
47
100
AcDbScale
 70
     0
300
8:1
140
8.0
141
1.0
290
     0
  0
SCALE
  5
57
102
{ACAD_REACTORS
330
47
102
}
330
47
100
AcDbScale
 70
     0
300
10:1
140
10.0
141
1.0
290
     0
  0
SCALE
  5
58
102
{ACAD_REACTORS
330
47
102
}
330
47
100
AcDbScale
 70
     0
300
100:1
140
100.0
141
1.0
290
     0
  0
SCALE
  5
59
102
{ACAD_REACTORS
330
47
102
}
330
47
100
AcDbScale
 70
     0
300
1/128" = 1'-0"
140
0.0078125
141
12.0
290
     0
  0
SCALE
  5
5A
102
{ACAD_REACTORS
330
47
102
}
330
47
100
AcDbScale
 70
     0
300
1/64" = 1'-0"
140
0.015625
141
12.0
290
     0
  0
SCALE
  5
5B
102
{ACAD_REACTORS
330
47
102
}
330
47
100
AcDbScale
 70
     0
300
1/32" = 1'-0"
140
0.03125
141
12.0
290
     0
  0
SCALE
  5
5C
102
{ACAD_REACTORS
330
47
102
}
330
47
100
AcDbScale
 70
     0
300
1/16" = 1'-0"
140
0.0625
141
12.0
290
     0
  0
SCALE
  5
5D
102
{ACAD_REACTORS
330
47
102
}
330
47
100
AcDbScale
 70
     0
300
3/32" = 1'-0"
140
0.09375
141
12.0
290
     0
  0
SCALE
  5
5E
102
{ACAD_REACTORS
330
47
102
}
330
47
100
AcDbScale
 70
     0
300
1/8" = 1'-0"
140
0.125
141
12.0
290
     0
  0
SCALE
  5
5F
102
{ACAD_REACTORS
330
47
102
}
330
47
100
AcDbScale
 70
     0
300
3/16" = 1'-0"
140
0.1875
141
12.0
290
     0
  0
SCALE
  5
60
102
{ACAD_REACTORS
330
47
102
}
330
47
100
AcDbScale
 70
     0
300
1/4" = 1'-0"
140
0.25
141
12.0
290
     0
  0
SCALE
  5
61
102
{ACAD_REACTORS
330
47
102
}
330
47
100
AcDbScale
 70
     0
300
3/8" = 1'-0"
140
0.375
141
12.0
290
     0
  0
SCALE
  5
62
102
{ACAD_REACTORS
330
47
102
}
330
47
100
AcDbScale
 70
     0
300
1/2" = 1'-0"
140
0.5
141
12.0
290
     0
  0
SCALE
  5
63
102
{ACAD_REACTORS
330
47
102
}
330
47
100
AcDbScale
 70
     0
300
3/4" = 1'-0"
140
0.75
141
12.0
290
     0
  0
SCALE
  5
64
102
{ACAD_REACTORS
330
47
102
}
330
47
100
AcDbScale
 70
     0
300
1" = 1'-0"
140
1.0
141
12.0
290
     0
  0
SCALE
  5
65
102
{ACAD_REACTORS
330
47
102
}
330
47
100
AcDbScale
 70
     0
300
1-1/2" = 1'-0"
140
1.5
141
12.0
290
     0
  0
SCALE
  5
66
102
{ACAD_REACTORS
330
47
102
}
330
47
100
AcDbScale
 70
     0
300
3" = 1'-0"
140
3.0
141
12.0
290
     0
  0
SCALE
  5
67
102
{ACAD_REACTORS
330
47
102
}
330
47
100
AcDbScale
 70
     0
300
6" = 1'-0"
140
6.0
141
12.0
290
     0
  0
SCALE
  5
68
102
{ACAD_REACTORS
330
47
102
}
330
47
100
AcDbScale
 70
     0
300
1'-0" = 1'-0"
140
12.0
141
12.0
290
     0
  0
ENDSEC
  0
EOF
