  0
SECTION
  2
HEADER
  9
$ACADVER
  1
AC1015
  9
$ACADMAINTVER
 70
     6
  9
$DWGCODEPAGE
  3
ANSI_1250
  9
$INSBASE
 10
0.0
 20
0.0
 30
0.0
  9
$EXTMIN
 10
0.0
 20
0.0
 30
0.0
  9
$EXTMAX
 10
297.0
 20
210.0
 30
0.0
  9
$LIMMIN
 10
0.0
 20
0.0
  9
$LIMMAX
 10
297.0
 20
210.0
  9
$ORTHOMODE
 70
     0
  9
$REGENMODE
 70
     1
  9
$FILLMODE
 70
     1
  9
$QTEXTMODE
 70
     0
  9
$MIRRTEXT
 70
     1
  9
$LTSCALE
 40
1.0
  9
$ATTMODE
 70
     1
  9
$TEXTSIZE
 40
3.5
  9
$TRACEWID
 40
1.0
  9
$TEXTSTYLE
  7
Standard
  9
$CLAYER
  8
0
  9
$CELTYPE
  6
ByLayer
  9
$CECOLOR
 62
   256
  9
$CELTSCALE
 40
1.0
  9
$DISPSILH
 70
     0
  9
$DIMSCALE
 40
1.0
  9
$DIMASZ
 40
3.302
  9
$DIMEXO
 40
1.0
  9
$DIMDLI
 40
3.75
  9
$DIMRND
 40
0.0
  9
$DIMDLE
 40
0.0
  9
$DIMEXE
 40
1.0
  9
$DIMTP
 40
0.0
  9
$DIMTM
 40
0.0
  9
$DIMTXT
 40
3.5
  9
$DIMCEN
 40
2.5
  9
$DIMTSZ
 40
0.0
  9
$DIMTOL
 70
     0
  9
$DIMLIM
 70
     0
  9
$DIMTIH
 70
     1
  9
$DIMTOH
 70
     1
  9
$DIMSE1
 70
     0
  9
$DIMSE2
 70
     0
  9
$DIMTAD
 70
     1
  9
$DIMZIN
 70
     0
  9
$DIMBLK
  1

  9
$DIMASO
 70
     1
  9
$DIMSHO
 70
     1
  9
$DIMPOST
  1

  9
$DIMAPOST
  1

  9
$DIMALT
 70
     0
  9
$DIMALTD
 70
     3
  9
$DIMALTF
 40
0.0393700787
  9
$DIMLFAC
 40
1.0
  9
$DIMTOFL
 70
     1
  9
$DIMTVP
 40
0.0
  9
$DIMTIX
 70
     0
  9
$DIMSOXD
 70
     0
  9
$DIMSAH
 70
     0
  9
$DIMBLK1
  1

  9
$DIMBLK2
  1

  9
$DIMSTYLE
  2
ISO-25
  9
$DIMCLRD
 70
     0
  9
$DIMCLRE
 70
     0
  9
$DIMCLRT
 70
     0
  9
$DIMTFAC
 40
1.0
  9
$DIMGAP
 40
1.524
  9
$DIMJUST
 70
     0
  9
$DIMSD1
 70
     0
  9
$DIMSD2
 70
     0
  9
$DIMTOLJ
 70
     0
  9
$DIMTZIN
 70
     0
  9
$DIMALTZ
 70
     0
  9
$DIMALTTZ
 70
     0
  9
$DIMUPT
 70
     0
  9
$DIMDEC
 70
     2
  9
$DIMTDEC
 70
     2
  9
$DIMALTU
 70
     2
  9
$DIMALTTD
 70
     3
  9
$DIMTXSTY
  7
Standard
  9
$DIMAUNIT
 70
     0
  9
$DIMADEC
 70
     2
  9
$DIMALTRND
 40
0.0
  9
$DIMAZIN
 70
     0
  9
$DIMDSEP
 70
    44
  9
$DIMATFIT
 70
     3
  9
$DIMFRAC
 70
     0
  9
$DIMLDRBLK
  1

  9
$DIMLUNIT
 70
     2
  9
$DIMLWD
 70
    -2
  9
$DIMLWE
 70
    -2
  9
$DIMTMOVE
 70
     0
  9
$LUNITS
 70
     2
  9
$LUPREC
 70
     2
  9
$SKETCHINC
 40
1.0
  9
$FILLETRAD
 40
10.0
  9
$AUNITS
 70
     0
  9
$AUPREC
 70
     2
  9
$MENU
  1
.
  9
$ELEVATION
 40
0.0
  9
$PELEVATION
 40
0.0
  9
$THICKNESS
 40
0.0
  9
$LIMCHECK
 70
     0
  9
$CHAMFERA
 40
0.0
  9
$CHAMFERB
 40
0.0
  9
$CHAMFERC
 40
0.0
  9
$CHAMFERD
 40
0.0
  9
$SKPOLY
 70
     0
  9
$TDCREATE
 40
2459278.335326748
  9
$TDUCREATE
 40
2459278.293660081
  9
$TDUPDATE
 40
2459278.335328484
  9
$TDUUPDATE
 40
2459278.293661817
  9
$TDINDWG
 40
0.0000000116
  9
$TDUSRTIMER
 40
0.0000000116
  9
$USRTIMER
 70
     1
  9
$ANGBASE
 50
0.0
  9
$ANGDIR
 70
     0
  9
$PDMODE
 70
     0
  9
$PDSIZE
 40
-1.0
  9
$PLINEWID
 40
0.0
  9
$SPLFRAME
 70
     0
  9
$SPLINETYPE
 70
     6
  9
$SPLINESEGS
 70
     8
  9
$HANDSEED
  5
34B
  9
$SURFTAB1
 70
     6
  9
$SURFTAB2
 70
     6
  9
$SURFTYPE
 70
     6
  9
$SURFU
 70
     6
  9
$SURFV
 70
     6
  9
$UCSBASE
  2

  9
$UCSNAME
  2

  9
$UCSORG
 10
0.0
 20
0.0
 30
0.0
  9
$UCSXDIR
 10
1.0
 20
0.0
 30
0.0
  9
$UCSYDIR
 10
0.0
 20
1.0
 30
0.0
  9
$UCSORTHOREF
  2

  9
$UCSORTHOVIEW
 70
     0
  9
$UCSORGTOP
 10
0.0
 20
0.0
 30
0.0
  9
$UCSORGBOTTOM
 10
0.0
 20
0.0
 30
0.0
  9
$UCSORGLEFT
 10
0.0
 20
0.0
 30
0.0
  9
$UCSORGRIGHT
 10
0.0
 20
0.0
 30
0.0
  9
$UCSORGFRONT
 10
0.0
 20
0.0
 30
0.0
  9
$UCSORGBACK
 10
0.0
 20
0.0
 30
0.0
  9
$PUCSBASE
  2

  9
$PUCSNAME
  2

  9
$PUCSORG
 10
0.0
 20
0.0
 30
0.0
  9
$PUCSXDIR
 10
1.0
 20
0.0
 30
0.0
  9
$PUCSYDIR
 10
0.0
 20
1.0
 30
0.0
  9
$PUCSORTHOREF
  2

  9
$PUCSORTHOVIEW
 70
     0
  9
$PUCSORGTOP
 10
0.0
 20
0.0
 30
0.0
  9
$PUCSORGBOTTOM
 10
0.0
 20
0.0
 30
0.0
  9
$PUCSORGLEFT
 10
0.0
 20
0.0
 30
0.0
  9
$PUCSORGRIGHT
 10
0.0
 20
0.0
 30
0.0
  9
$PUCSORGFRONT
 10
0.0
 20
0.0
 30
0.0
  9
$PUCSORGBACK
 10
0.0
 20
0.0
 30
0.0
  9
$USERI1
 70
     0
  9
$USERI2
 70
     0
  9
$USERI3
 70
     0
  9
$USERI4
 70
     0
  9
$USERI5
 70
     0
  9
$USERR1
 40
0.0
  9
$USERR2
 40
0.0
  9
$USERR3
 40
0.0
  9
$USERR4
 40
0.0
  9
$USERR5
 40
0.0
  9
$WORLDVIEW
 70
     1
  9
$SHADEDGE
 70
     3
  9
$SHADEDIF
 70
    70
  9
$TILEMODE
 70
     1
  9
$MAXACTVP
 70
    64
  9
$PINSBASE
 10
0.0
 20
0.0
 30
0.0
  9
$PLIMCHECK
 70
     0
  9
$PEXTMIN
 10
1.0000000000E+20
 20
1.0000000000E+20
 30
1.0000000000E+20
  9
$PEXTMAX
 10
-1.0000000000E+20
 20
-1.0000000000E+20
 30
-1.0000000000E+20
  9
$PLIMMIN
 10
0.0
 20
0.0
  9
$PLIMMAX
 10
420.0
 20
297.0
  9
$UNITMODE
 70
     0
  9
$VISRETAIN
 70
     1
  9
$PLINEGEN
 70
     0
  9
$PSLTSCALE
 70
     1
  9
$TREEDEPTH
 70
  3020
  9
$CMLSTYLE
  2
Standard
  9
$CMLJUST
 70
     0
  9
$CMLSCALE
 40
20.0
  9
$PROXYGRAPHICS
 70
     1
  9
$MEASUREMENT
 70
     1
  9
$CELWEIGHT
370
    -1
  9
$ENDCAPS
280
     0
  9
$JOINSTYLE
280
     0
  9
$LWDISPLAY
290
     1
  9
$INSUNITS
 70
     4
  9
$HYPERLINKBASE
  1

  9
$STYLESHEET
  1

  9
$XEDIT
290
     1
  9
$CEPSNTYPE
380
     0
  9
$PSTYLEMODE
290
     1
  9
$FINGERPRINTGUID
  2
{E493D42A-167B-4A9C-9686-E8B0C4E72468}
  9
$VERSIONGUID
  2
{FAEB1C32-E019-11D5-929B-00C0DF256EC4}
  9
$EXTNAMES
290
     1
  9
$PSVPSCALE
 40
0.0
  9
$OLESTARTUP
290
     0
  0
ENDSEC
  0
SECTION
  2
CLASSES
  0
CLASS
  1
ACDBDICTIONARYWDFLT
  2
AcDbDictionaryWithDefault
  3
ObjectDBX Classes
 90
        0
280
     0
281
     0
  0
CLASS
  1
VISUALSTYLE
  2
AcDbVisualStyle
  3
ObjectDBX Classes
 90
     4095
280
     0
281
     0
  0
CLASS
  1
MATERIAL
  2
AcDbMaterial
  3
ObjectDBX Classes
 90
     1153
280
     0
281
     0
  0
CLASS
  1
SCALE
  2
AcDbScale
  3
ObjectDBX Classes
 90
     1153
280
     0
281
     0
  0
CLASS
  1
TABLESTYLE
  2
AcDbTableStyle
  3
ObjectDBX Classes
 90
     4095
280
     0
281
     0
  0
CLASS
  1
MLEADERSTYLE
  2
AcDbMLeaderStyle
  3
ACDB_MLEADERSTYLE_CLASS
 90
     4095
280
     0
281
     0
  0
CLASS
  1
SUN
  2
AcDbSun
  3
SCENEOE
 90
     1153
280
     0
281
     0
  0
CLASS
  1
ACDBPLACEHOLDER
  2
AcDbPlaceHolder
  3
ObjectDBX Classes
 90
        0
280
     0
281
     0
  0
CLASS
  1
LAYOUT
  2
AcDbLayout
  3
ObjectDBX Classes
 90
        0
280
     0
281
     0
  0
ENDSEC
  0
SECTION
  2
TABLES
  0
TABLE
  2
VPORT
  5
8
330
0
100
AcDbSymbolTable
 70
     1
  0
VPORT
  5
29
330
8
100
AcDbSymbolTableRecord
100
AcDbViewportTableRecord
  2
*Active
 70
     0
 10
0.0
 20
0.0
 11
1.0
 21
1.0
 12
148.5
 22
105.0
 13
0.0
 23
0.0
 14
10.0
 24
10.0
 15
10.0
 25
10.0
 16
0.0
 26
0.0
 36
1.0
 17
0.0
 27
0.0
 37
0.0
 40
210.0
 41
1.4142857143
 42
50.0
 43
0.0
 44
0.0
 50
0.0
 51
0.0
 71
     0
 72
  2000
 73
     1
 74
     3
 75
     0
 76
     0
 77
     0
 78
     0
281
     0
 65
     1
110
0.0
120
0.0
130
0.0
111
1.0
121
0.0
131
0.0
112
0.0
122
1.0
132
0.0
 79
     0
146
0.0
  0
ENDTAB
  0
TABLE
  2
LTYPE
  5
5
330
0
100
AcDbSymbolTable
 70
     8
  0
LTYPE
  5
14
330
5
100
AcDbSymbolTableRecord
100
AcDbLinetypeTableRecord
  2
ByBlock
 70
     0
  3

 72
    65
 73
     0
 40
0.0
  0
LTYPE
  5
15
330
5
100
AcDbSymbolTableRecord
100
AcDbLinetypeTableRecord
  2
ByLayer
 70
     0
  3

 72
    65
 73
     0
 40
0.0
  0
LTYPE
  5
16
330
5
100
AcDbSymbolTableRecord
100
AcDbLinetypeTableRecord
  2
Continuous
 70
     0
  3
Solid line
 72
    65
 73
     0
 40
0.0
  0
LTYPE
  5
6E
330
5
100
AcDbSymbolTableRecord
100
AcDbLinetypeTableRecord
  2
SLD-Solid
 70
     0
  3
SolidWorks Line Style
 72
    65
 73
     0
 40
0.0
  0
LTYPE
  5
6F
330
5
100
AcDbSymbolTableRecord
100
AcDbLinetypeTableRecord
  2
SLD-Dashed
 70
     0
  3
SolidWorks Line Style
 72
    65
 73
     2
 40
1.905
 49
1.27
 74
     0
 49
-0.635
 74
     0
  0
LTYPE
  5
70
330
5
100
AcDbSymbolTableRecord
100
AcDbLinetypeTableRecord
  2
SLD-Phantom
 70
     0
  3
SolidWorks Line Style
 72
    65
 73
     6
 40
12.7
 49
6.35
 74
     0
 49
-1.27
 74
     0
 49
1.27
 74
     0
 49
-1.27
 74
     0
 49
1.27
 74
     0
 49
-1.27
 74
     0
  0
LTYPE
  5
71
330
5
100
AcDbSymbolTableRecord
100
AcDbLinetypeTableRecord
  2
SLD-Chain
 70
     0
  3
SolidWorks Line Style
 72
    65
 73
     4
 40
10.16
 49
6.35
 74
     0
 49
-1.27
 74
     0
 49
1.27
 74
     0
 49
-1.27
 74
     0
  0
LTYPE
  5
72
330
5
100
AcDbSymbolTableRecord
100
AcDbLinetypeTableRecord
  2
SLD-Center
 70
     0
  3
SolidWorks Line Style
 72
    65
 73
     4
 40
19.05
 49
15.24
 74
     0
 49
-1.27
 74
     0
 49
1.27
 74
     0
 49
-1.27
 74
     0
  0
LTYPE
  5
73
330
5
100
AcDbSymbolTableRecord
100
AcDbLinetypeTableRecord
  2
SLD-Stitch
 70
     0
  3
SolidWorks Line Style
 72
    65
 73
     2
 40
0.635
 49
0.0
 74
     0
 49
-0.635
 74
     0
  0
LTYPE
  5
74
330
5
100
AcDbSymbolTableRecord
100
AcDbLinetypeTableRecord
  2
SLD-Thin-Thick-Chain
 70
     0
  3
SolidWorks Line Style
 72
    65
 73
     4
 40
10.16
 49
6.35
 74
     0
 49
-1.27
 74
     0
 49
1.27
 74
     0
 49
-1.27
 74
     0
  0
ENDTAB
  0
TABLE
  2
LAYER
  5
2
330
0
100
AcDbSymbolTable
 70
    14
  0
LAYER
  5
10
330
2
100
AcDbSymbolTableRecord
100
AcDbLayerTableRecord
  2
0
 70
     0
 62
     7
  6
Continuous
370
    -3
390
F
  0
LAYER
  5
75
330
2
100
AcDbSymbolTableRecord
100
AcDbLayerTableRecord
  2
SLD-0
 70
     0
 62
   179
  6
SLD-Solid
370
    -3
390
F
  0
LAYER
  5
76
330
2
100
AcDbSymbolTableRecord
100
AcDbLayerTableRecord
  2
80
 70
     0
 62
    -6
  6
SLD-Solid
290
     0
370
    -3
390
F
  0
LAYER
  5
77
330
2
100
AcDbSymbolTableRecord
100
AcDbLayerTableRecord
  2
81
 70
     0
 62
    -3
  6
SLD-Solid
290
     0
370
    -3
390
F
  0
LAYER
  5
78
330
2
100
AcDbSymbolTableRecord
100
AcDbLayerTableRecord
  2
1
 70
     0
 62
     4
  6
SLD-Solid
290
     0
370
    -3
390
F
  0
LAYER
  5
79
330
2
100
AcDbSymbolTableRecord
100
AcDbLayerTableRecord
  2
4
 70
     0
 62
    -2
  6
SLD-Chain
290
     0
370
    -3
390
F
  0
LAYER
  5
7A
330
2
100
AcDbSymbolTableRecord
100
AcDbLayerTableRecord
  2
2
 70
     0
 62
     7
  6
SLD-Solid
290
     0
370
    -3
390
F
  0
LAYER
  5
7B
330
2
100
AcDbSymbolTableRecord
100
AcDbLayerTableRecord
  2
SK3
 70
     0
 62
     1
  6
SLD-Dashed
290
     0
370
    -3
390
F
  0
LAYER
  5
7C
330
2
100
AcDbSymbolTableRecord
100
AcDbLayerTableRecord
  2
SK4
 70
     0
 62
     2
  6
SLD-Chain
290
     0
370
    -3
390
F
  0
LAYER
  5
7D
330
2
100
AcDbSymbolTableRecord
100
AcDbLayerTableRecord
  2
SK2
 70
     0
 62
     7
  6
SLD-Solid
290
     0
370
    -3
390
F
  0
LAYER
  5
7E
330
2
100
AcDbSymbolTableRecord
100
AcDbLayerTableRecord
  2
SK6
 70
     0
 62
     5
  6
SLD-Solid
290
     0
370
    -3
390
F
  0
LAYER
  5
7F
330
2
100
AcDbSymbolTableRecord
100
AcDbLayerTableRecord
  2
6
 70
     0
 62
     5
  6
SLD-Solid
370
    -3
390
F
  0
LAYER
  5
80
330
2
100
AcDbSymbolTableRecord
100
AcDbLayerTableRecord
  2
SK1
 70
     0
 62
     4
  6
SLD-Solid
370
    -3
390
F
  0
LAYER
  5
81
330
2
100
AcDbSymbolTableRecord
100
AcDbLayerTableRecord
  2
LAYER5
 70
     0
 62
   218
  6
SLD-Solid
370
    -3
390
F
  0
ENDTAB
  0
TABLE
  2
STYLE
  5
3
330
0
100
AcDbSymbolTable
 70
     3
  0
STYLE
  5
11
330
3
100
AcDbSymbolTableRecord
100
AcDbTextStyleTableRecord
  2
Standard
 70
     0
 40
0.0
 41
1.0
 50
0.0
 71
     0
 42
3.5
  3
txt
  4

  0
STYLE
  5
26E
330
3
100
AcDbSymbolTableRecord
100
AcDbTextStyleTableRecord
  2
SLDTEXTSTYLE0
 70
     0
 40
0.0
 41
0.75
 50
0.0
 71
     0
 42
3.5
  3
TXT
  4

  0
STYLE
  5
347
330
3
100
AcDbSymbolTableRecord
100
AcDbTextStyleTableRecord
  2
SLDTEXTSTYLE1
 70
     0
 40
0.0
 41
0.6666666667
 50
0.0
 71
     0
 42
3.5
  3
TXT
  4

  0
ENDTAB
  0
TABLE
  2
VIEW
  5
6
330
0
100
AcDbSymbolTable
 70
     0
  0
ENDTAB
  0
TABLE
  2
UCS
  5
7
330
0
100
AcDbSymbolTable
 70
     0
  0
ENDTAB
  0
TABLE
  2
APPID
  5
9
330
0
100
AcDbSymbolTable
 70
     1
  0
APPID
  5
12
330
9
100
AcDbSymbolTableRecord
100
AcDbRegAppTableRecord
  2
ACAD
 70
     0
  0
ENDTAB
  0
TABLE
  2
DIMSTYLE
  5
A
330
0
100
AcDbSymbolTable
 70
     6
100
AcDbDimStyleTable
  0
DIMSTYLE
105
27
330
A
100
AcDbSymbolTableRecord
100
AcDbDimStyleTableRecord
  2
ISO-25
 70
     0
 41
2.5
 42
0.625
 43
3.75
 44
1.25
 73
     0
 74
     0
 77
     1
 78
     8
140
2.5
141
2.5
143
0.0393700787
147
0.625
171
     3
172
     1
178
     0
271
     2
272
     2
274
     3
278
    44
283
     0
284
     8
340
11
  0
DIMSTYLE
105
26F
102
{ACAD_REACTORS
330
26D
330
282
330
2A0
330
2B3
330
2DB
330
2ED
330
313
102
}
330
A
100
AcDbSymbolTableRecord
100
AcDbDimStyleTableRecord
  2
SLDDIMSTYLE0
 70
     0
 41
3.302
 44
0.0
 45
0.000000001
 73
     0
 74
     0
 77
     1
 78
    12
 79
     3
140
3.5
143
0.0393700787
147
0.875
148
0.000000001
170
     1
173
     1
178
     0
271
     2
272
     2
276
     2
284
    12
340
26E
  0
DIMSTYLE
105
296
102
{ACAD_REACTORS
330
295
330
333
330
33E
102
}
330
A
100
AcDbSymbolTableRecord
100
AcDbDimStyleTableRecord
  2
SLDDIMSTYLE1
 70
     0
 41
3.302
 44
0.0
 45
0.000000001
 73
     0
 74
     0
 77
     1
 78
    12
 79
     3
140
3.5
147
0.875
173
     1
178
     0
271
     2
272
     2
276
     2
284
    12
340
26E
  0
DIMSTYLE
105
2C7
102
{ACAD_REACTORS
330
2C6
102
}
330
A
100
AcDbSymbolTableRecord
100
AcDbDimStyleTableRecord
  2
SLDDIMSTYLE2
 70
     0
 41
3.302
 44
0.0
 45
0.000000001
 73
     0
 74
     0
 77
     1
 78
    12
 79
     3
140
3.5
143
0.0393700787
147
0.875
148
0.000000001
170
     1
171
     3
172
     1
173
     1
178
     0
271
     3
272
     2
274
     3
276
     2
284
    12
289
     0
340
26E
  0
DIMSTYLE
105
300
102
{ACAD_REACTORS
330
2FF
102
}
330
A
100
AcDbSymbolTableRecord
100
AcDbDimStyleTableRecord
  2
SLDDIMSTYLE3
 70
     0
 41
3.302
 44
0.0
 45
0.000000001
 73
     0
 74
     0
 77
     1
 78
    12
 79
     3
140
3.5
143
0.0393700787
147
0.875
148
0.000000001
170
     1
171
     3
173
     1
178
     0
271
     3
272
     2
274
     3
276
     2
284
    12
340
26E
  0
DIMSTYLE
105
327
102
{ACAD_REACTORS
330
326
102
}
330
A
100
AcDbSymbolTableRecord
100
AcDbDimStyleTableRecord
  2
SLDDIMSTYLE4
 70
     0
 41
3.302
 44
0.0
 45
0.000000001
 73
     0
 74
     0
 77
     1
 78
    12
 79
     3
140
3.5
147
0.875
172
     1
173
     1
178
     0
271
     2
272
     2
276
     2
284
    12
289
     0
340
26E
  0
ENDTAB
  0
TABLE
  2
BLOCK_RECORD
  5
1
330
0
100
AcDbSymbolTable
 70
    14
  0
BLOCK_RECORD
  5
1F
330
1
100
AcDbSymbolTableRecord
100
AcDbBlockTableRecord
  2
*Model_Space
340
22
  0
BLOCK_RECORD
  5
1B
330
1
100
AcDbSymbolTableRecord
100
AcDbBlockTableRecord
  2
*Paper_Space
340
1E
  0
BLOCK_RECORD
  5
23
330
1
100
AcDbSymbolTableRecord
100
AcDbBlockTableRecord
  2
*Paper_Space0
340
26
  0
BLOCK_RECORD
  5
270
330
1
100
AcDbSymbolTableRecord
100
AcDbBlockTableRecord
  2
_D
340
0
  0
BLOCK_RECORD
  5
283
330
1
100
AcDbSymbolTableRecord
100
AcDbBlockTableRecord
  2
_D_1
340
0
  0
BLOCK_RECORD
  5
297
330
1
100
AcDbSymbolTableRecord
100
AcDbBlockTableRecord
  2
_D_2
340
0
  0
BLOCK_RECORD
  5
2A1
330
1
100
AcDbSymbolTableRecord
100
AcDbBlockTableRecord
  2
_D_3
340
0
  0
BLOCK_RECORD
  5
2B4
330
1
100
AcDbSymbolTableRecord
100
AcDbBlockTableRecord
  2
_D_4
340
0
  0
BLOCK_RECORD
  5
2C8
330
1
100
AcDbSymbolTableRecord
100
AcDbBlockTableRecord
  2
_D_5
340
0
  0
BLOCK_RECORD
  5
2DC
330
1
100
AcDbSymbolTableRecord
100
AcDbBlockTableRecord
  2
_D_6
340
0
  0
BLOCK_RECORD
  5
2EE
330
1
100
AcDbSymbolTableRecord
100
AcDbBlockTableRecord
  2
_D_7
340
0
  0
BLOCK_RECORD
  5
301
330
1
100
AcDbSymbolTableRecord
100
AcDbBlockTableRecord
  2
_D_8
340
0
  0
BLOCK_RECORD
  5
314
330
1
100
AcDbSymbolTableRecord
100
AcDbBlockTableRecord
  2
_D_9
340
0
  0
BLOCK_RECORD
  5
328
330
1
100
AcDbSymbolTableRecord
100
AcDbBlockTableRecord
  2
_D_10
340
0
  0
BLOCK_RECORD
  5
334
330
1
100
AcDbSymbolTableRecord
100
AcDbBlockTableRecord
  2
_D_11
340
0
  0
BLOCK_RECORD
  5
33F
330
1
100
AcDbSymbolTableRecord
100
AcDbBlockTableRecord
  2
_D_12
340
0
  0
ENDTAB
  0
ENDSEC
  0
SECTION
  2
BLOCKS
  0
BLOCK
  5
20
330
1F
100
AcDbEntity
  8
0
100
AcDbBlockBegin
  2
*Model_Space
 70
     0
 10
0.0
 20
0.0
 30
0.0
  3
*Model_Space
  1

  0
ENDBLK
  5
21
330
1F
100
AcDbEntity
  8
0
100
AcDbBlockEnd
  0
BLOCK
  5
1C
330
1B
100
AcDbEntity
 67
     1
  8
0
100
AcDbBlockBegin
  2
*Paper_Space
 70
     0
 10
0.0
 20
0.0
 30
0.0
  3
*Paper_Space
  1

  0
ENDBLK
  5
1D
330
1B
100
AcDbEntity
 67
     1
  8
0
100
AcDbBlockEnd
  0
BLOCK
  5
24
330
23
100
AcDbEntity
  8
0
100
AcDbBlockBegin
  2
*Paper_Space0
 70
     0
 10
0.0
 20
0.0
 30
0.0
  3
*Paper_Space0
  1

  0
ENDBLK
  5
25
330
23
100
AcDbEntity
  8
0
100
AcDbBlockEnd
  0
BLOCK
  5
271
330
270
100
AcDbEntity
  8
0
100
AcDbBlockBegin
  2
_D
 70
     0
 10
0.0
 20
0.0
 30
0.0
  3
_D
  1

  0
SOLID
  5
273
330
270
100
AcDbEntity
  8
2
100
AcDbTrace
 10
0.0
 20
72.0212134136
 30
0.0
 11
3.302
 21
71.5132134136
 31
0.0
 12
3.302
 22
72.5292134136
 32
0.0
 13
3.302
 23
72.5292134136
 33
0.0
  0
SOLID
  5
274
330
270
100
AcDbEntity
  8
2
100
AcDbTrace
 10
95.25
 20
72.0212134136
 30
0.0
 11
91.948
 21
72.5292134136
 31
0.0
 12
91.948
 22
71.5132134136
 32
0.0
 13
91.948
 23
71.5132134136
 33
0.0
  0
LINE
  5
275
330
270
100
AcDbEntity
  8
2
100
AcDbLine
 10
27.9618147467
 20
82.8140951296
 30
0.0
 11
26.8954084893
 21
82.8140951296
 31
0.0
  0
LINE
  5
276
330
270
100
AcDbEntity
  8
2
100
AcDbLine
 10
26.8954084893
 20
82.8140951296
 30
0.0
 11
26.8954084893
 21
77.2578451386
 31
0.0
  0
LINE
  5
277
330
270
100
AcDbEntity
  8
2
100
AcDbLine
 10
26.8954084893
 20
77.2578451386
 30
0.0
 11
27.9618147467
 21
77.2578451386
 31
0.0
  0
LINE
  5
278
330
270
100
AcDbEntity
  8
2
100
AcDbLine
 10
37.0132038077
 20
82.8140951296
 30
0.0
 11
38.0796100651
 21
82.8140951296
 31
0.0
  0
LINE
  5
279
330
270
100
AcDbEntity
  8
2
100
AcDbLine
 10
38.0796100651
 20
82.8140951296
 30
0.0
 11
38.0796100651
 21
77.2578451386
 31
0.0
  0
LINE
  5
27A
330
270
100
AcDbEntity
  8
2
100
AcDbLine
 10
38.0796100651
 20
77.2578451386
 30
0.0
 11
37.0132038077
 21
77.2578451386
 31
0.0
  0
LINE
  5
27B
330
270
100
AcDbEntity
  8
2
100
AcDbLine
 10
0.0
 20
35.925
 30
0.0
 11
0.0
 21
73.0212134136
 31
0.0
  0
LINE
  5
27C
330
270
100
AcDbEntity
  8
2
100
AcDbLine
 10
95.25
 20
14.21
 30
0.0
 11
95.25
 21
73.0212134136
 31
0.0
  0
LINE
  5
27D
330
270
100
AcDbEntity
  8
2
100
AcDbLine
 10
0.0
 20
72.0212134136
 30
0.0
 11
95.25
 21
72.0212134136
 31
0.0
  0
MTEXT
  5
27E
330
270
100
AcDbEntity
  8
2
100
AcDbMText
 10
25.8484466351
 20
76.5864226794
 30
0.0
 40
3.5
 41
0.0
 71
     1
 72
     1
  1

  7
SLDTEXTSTYLE0
 73
     1
 44
1.0
  0
MTEXT
  5
27F
330
270
100
AcDbEntity
  8
2
100
AcDbMText
 10
27.9618147467
 20
81.7695820531
 30
0.0
 40
3.5
 41
0.0
 71
     1
 72
     1
  1
3,75
  7
SLDTEXTSTYLE0
 73
     1
 44
1.0
  0
MTEXT
  5
280
330
270
100
AcDbEntity
  8
2
100
AcDbMText
 10
26.6687590336
 20
76.5329505028
 30
0.0
 40
3.5
 41
0.0
 71
     1
 72
     1
  1
95,25
  7
SLDTEXTSTYLE0
 73
     1
 44
1.0
  0
MTEXT
  5
281
330
270
100
AcDbEntity
  8
2
100
AcDbMText
 10
40.458516439
 20
76.5864226794
 30
0.0
 40
3.5
 41
0.0
 71
     1
 72
     1
  1

  7
SLDTEXTSTYLE0
 73
     1
 44
1.0
  0
ENDBLK
  5
272
330
270
100
AcDbEntity
  8
0
100
AcDbBlockEnd
  0
BLOCK
  5
284
330
283
100
AcDbEntity
  8
0
100
AcDbBlockBegin
  2
_D_1
 70
     0
 10
0.0
 20
0.0
 30
0.0
  3
_D_1
  1

  0
SOLID
  5
286
330
283
100
AcDbEntity
  8
SK2
100
AcDbTrace
 10
95.25
 20
58.3787910154
 30
0.0
 11
91.948
 21
58.8867910154
 31
0.0
 12
91.948
 22
57.8707910154
 32
0.0
 13
91.948
 23
57.8707910154
 33
0.0
  0
SOLID
  5
287
330
283
100
AcDbEntity
  8
SK2
100
AcDbTrace
 10
19.05
 20
58.3787910154
 30
0.0
 11
22.352
 21
57.8707910154
 31
0.0
 12
22.352
 22
58.8867910154
 32
0.0
 13
22.352
 23
58.8867910154
 33
0.0
  0
LINE
  5
288
330
283
100
AcDbEntity
  8
SK2
100
AcDbLine
 10
44.7794341576
 20
69.1716727315
 30
0.0
 11
43.7130279001
 21
69.1716727315
 31
0.0
  0
LINE
  5
289
330
283
100
AcDbEntity
  8
SK2
100
AcDbLine
 10
43.7130279001
 20
69.1716727315
 30
0.0
 11
43.7130279001
 21
63.6154227404
 31
0.0
  0
LINE
  5
28A
330
283
100
AcDbEntity
  8
SK2
100
AcDbLine
 10
43.7130279001
 20
63.6154227404
 30
0.0
 11
44.7794341576
 21
63.6154227404
 31
0.0
  0
LINE
  5
28B
330
283
100
AcDbEntity
  8
SK2
100
AcDbLine
 10
53.8308232185
 20
69.1716727315
 30
0.0
 11
54.897229476
 21
69.1716727315
 31
0.0
  0
LINE
  5
28C
330
283
100
AcDbEntity
  8
SK2
100
AcDbLine
 10
54.897229476
 20
69.1716727315
 30
0.0
 11
54.897229476
 21
63.6154227404
 31
0.0
  0
LINE
  5
28D
330
283
100
AcDbEntity
  8
SK2
100
AcDbLine
 10
54.897229476
 20
63.6154227404
 30
0.0
 11
53.8308232185
 21
63.6154227404
 31
0.0
  0
LINE
  5
28E
330
283
100
AcDbEntity
  8
SK2
100
AcDbLine
 10
95.25
 20
14.21
 30
0.0
 11
95.25
 21
59.3787910154
 31
0.0
  0
LINE
  5
28F
330
283
100
AcDbEntity
  8
SK2
100
AcDbLine
 10
19.05
 20
47.5560855313
 30
0.0
 11
19.05
 21
59.3787910154
 31
0.0
  0
LINE
  5
290
330
283
100
AcDbEntity
  8
SK2
100
AcDbLine
 10
95.25
 20
58.3787910154
 30
0.0
 11
19.05
 21
58.3787910154
 31
0.0
  0
MTEXT
  5
291
330
283
100
AcDbEntity
  8
SK2
100
AcDbMText
 10
42.6660660459
 20
62.9440002813
 30
0.0
 40
3.5
 41
0.0
 71
     1
 72
     1
  1

  7
SLDTEXTSTYLE0
 73
     1
 44
1.0
  0
MTEXT
  5
292
330
283
100
AcDbEntity
  8
SK2
100
AcDbMText
 10
44.7794341576
 20
68.127159655
 30
0.0
 40
3.5
 41
0.0
 71
     1
 72
     1
  1
3,00
  7
SLDTEXTSTYLE0
 73
     1
 44
1.0
  0
MTEXT
  5
293
330
283
100
AcDbEntity
  8
SK2
100
AcDbMText
 10
44.7794341576
 20
62.8905281046
 30
0.0
 40
3.5
 41
0.0
 71
     1
 72
     1
  1
76,2
  7
SLDTEXTSTYLE0
 73
     1
 44
1.0
  0
MTEXT
  5
294
330
283
100
AcDbEntity
  8
SK2
100
AcDbMText
 10
57.2761358498
 20
62.9440002813
 30
0.0
 40
3.5
 41
0.0
 71
     1
 72
     1
  1

  7
SLDTEXTSTYLE0
 73
     1
 44
1.0
  0
ENDBLK
  5
285
330
283
100
AcDbEntity
  8
0
100
AcDbBlockEnd
  0
BLOCK
  5
298
330
297
100
AcDbEntity
  8
0
100
AcDbBlockBegin
  2
_D_2
 70
     0
 10
0.0
 20
0.0
 30
0.0
  3
_D_2
  1

  0
SOLID
  5
29A
330
297
100
AcDbEntity
  8
SK2
100
AcDbTrace
 10
19.05
 20
58.3787910154
 30
0.0
 11
15.748
 21
58.8867910154
 31
0.0
 12
15.748
 22
57.8707910154
 32
0.0
 13
15.748
 23
57.8707910154
 33
0.0
  0
SOLID
  5
29B
330
297
100
AcDbEntity
  8
SK2
100
AcDbTrace
 10
0.0
 20
58.3787910154
 30
0.0
 11
3.302
 21
57.8707910154
 31
0.0
 12
3.302
 22
58.8867910154
 32
0.0
 13
3.302
 23
58.8867910154
 33
0.0
  0
LINE
  5
29C
330
297
100
AcDbEntity
  8
SK2
100
AcDbLine
 10
19.05
 20
47.5560855313
 30
0.0
 11
19.05
 21
59.3787910154
 31
0.0
  0
LINE
  5
29D
330
297
100
AcDbEntity
  8
SK2
100
AcDbLine
 10
0.0
 20
35.925
 30
0.0
 11
0.0
 21
59.3787910154
 31
0.0
  0
LINE
  5
29E
330
297
100
AcDbEntity
  8
SK2
100
AcDbLine
 10
19.05
 20
58.3787910154
 30
0.0
 11
0.0
 21
58.3787910154
 31
0.0
  0
MTEXT
  5
29F
330
297
100
AcDbEntity
  8
SK2
100
AcDbMText
 10
2.5794168089
 20
62.89052793
 30
0.0
 40
3.5
 41
0.0
 71
     1
 72
     1
  1
19,05
  7
SLDTEXTSTYLE0
 73
     1
 44
1.0
  0
ENDBLK
  5
299
330
297
100
AcDbEntity
  8
0
100
AcDbBlockEnd
  0
BLOCK
  5
2A2
330
2A1
100
AcDbEntity
  8
0
100
AcDbBlockBegin
  2
_D_3
 70
     0
 10
0.0
 20
0.0
 30
0.0
  3
_D_3
  1

  0
SOLID
  5
2A4
330
2A1
100
AcDbEntity
  8
SK2
100
AcDbTrace
 10
35.1
 20
44.7959389373
 30
0.0
 11
38.402
 21
44.2879389373
 31
0.0
 12
38.402
 22
45.3039389373
 32
0.0
 13
38.402
 23
45.3039389373
 33
0.0
  0
SOLID
  5
2A5
330
2A1
100
AcDbEntity
  8
SK2
100
AcDbTrace
 10
95.25
 20
44.7959389373
 30
0.0
 11
91.948
 21
45.3039389373
 31
0.0
 12
91.948
 22
44.2879389373
 32
0.0
 13
91.948
 23
44.2879389373
 33
0.0
  0
LINE
  5
2A6
330
2A1
100
AcDbEntity
  8
SK2
100
AcDbLine
 10
61.060211378
 20
55.5888206534
 30
0.0
 11
59.9938051206
 21
55.5888206534
 31
0.0
  0
LINE
  5
2A7
330
2A1
100
AcDbEntity
  8
SK2
100
AcDbLine
 10
59.9938051206
 20
55.5888206534
 30
0.0
 11
59.9938051206
 21
50.0325706623
 31
0.0
  0
LINE
  5
2A8
330
2A1
100
AcDbEntity
  8
SK2
100
AcDbLine
 10
59.9938051206
 20
50.0325706623
 30
0.0
 11
61.060211378
 21
50.0325706623
 31
0.0
  0
LINE
  5
2A9
330
2A1
100
AcDbEntity
  8
SK2
100
AcDbLine
 10
70.1116004389
 20
55.5888206534
 30
0.0
 11
71.1780066964
 21
55.5888206534
 31
0.0
  0
LINE
  5
2AA
330
2A1
100
AcDbEntity
  8
SK2
100
AcDbLine
 10
71.1780066964
 20
55.5888206534
 30
0.0
 11
71.1780066964
 21
50.0325706623
 31
0.0
  0
LINE
  5
2AB
330
2A1
100
AcDbEntity
  8
SK2
100
AcDbLine
 10
71.1780066964
 20
50.0325706623
 30
0.0
 11
70.1116004389
 21
50.0325706623
 31
0.0
  0
LINE
  5
2AC
330
2A1
100
AcDbEntity
  8
SK2
100
AcDbLine
 10
35.1
 20
34.401
 30
0.0
 11
35.1
 21
45.7959389373
 31
0.0
  0
LINE
  5
2AD
330
2A1
100
AcDbEntity
  8
SK2
100
AcDbLine
 10
95.25
 20
14.21
 30
0.0
 11
95.25
 21
45.7959389373
 31
0.0
  0
LINE
  5
2AE
330
2A1
100
AcDbEntity
  8
SK2
100
AcDbLine
 10
35.1
 20
44.7959389373
 30
0.0
 11
95.25
 21
44.7959389373
 31
0.0
  0
MTEXT
  5
2AF
330
2A1
100
AcDbEntity
  8
SK2
100
AcDbMText
 10
58.9468432664
 20
49.3611482032
 30
0.0
 40
3.5
 41
0.0
 71
     1
 72
     1
  1

  7
SLDTEXTSTYLE0
 73
     1
 44
1.0
  0
MTEXT
  5
2B0
330
2A1
100
AcDbEntity
  8
SK2
100
AcDbMText
 10
61.060211378
 20
54.5443075769
 30
0.0
 40
3.5
 41
0.0
 71
     1
 72
     1
  1
2,37
  7
SLDTEXTSTYLE0
 73
     1
 44
1.0
  0
MTEXT
  5
2B1
330
2A1
100
AcDbEntity
  8
SK2
100
AcDbMText
 10
59.7671556649
 20
49.3076760265
 30
0.0
 40
3.5
 41
0.0
 71
     1
 72
     1
  1
60,15
  7
SLDTEXTSTYLE0
 73
     1
 44
1.0
  0
MTEXT
  5
2B2
330
2A1
100
AcDbEntity
  8
SK2
100
AcDbMText
 10
73.5569130703
 20
49.3611482032
 30
0.0
 40
3.5
 41
0.0
 71
     1
 72
     1
  1

  7
SLDTEXTSTYLE0
 73
     1
 44
1.0
  0
ENDBLK
  5
2A3
330
2A1
100
AcDbEntity
  8
0
100
AcDbBlockEnd
  0
BLOCK
  5
2B5
330
2B4
100
AcDbEntity
  8
0
100
AcDbBlockBegin
  2
_D_4
 70
     0
 10
0.0
 20
0.0
 30
0.0
  3
_D_4
  1

  0
SOLID
  5
2B7
330
2B4
100
AcDbEntity
  8
SK2
100
AcDbTrace
 10
71.425
 20
31.2557838823
 30
0.0
 11
74.727
 21
30.7477838823
 31
0.0
 12
74.727
 22
31.7637838823
 32
0.0
 13
74.727
 23
31.7637838823
 33
0.0
  0
SOLID
  5
2B8
330
2B4
100
AcDbEntity
  8
SK2
100
AcDbTrace
 10
95.25
 20
31.2557838823
 30
0.0
 11
91.948
 21
31.7637838823
 31
0.0
 12
91.948
 22
30.7477838823
 32
0.0
 13
91.948
 23
30.7477838823
 33
0.0
  0
LINE
  5
2B9
330
2B4
100
AcDbEntity
  8
SK2
100
AcDbLine
 10
77.9737084493
 20
42.0486655983
 30
0.0
 11
76.9073021918
 21
42.0486655983
 31
0.0
  0
LINE
  5
2BA
330
2B4
100
AcDbEntity
  8
SK2
100
AcDbLine
 10
76.9073021918
 20
42.0486655983
 30
0.0
 11
76.9073021918
 21
36.4924156072
 31
0.0
  0
LINE
  5
2BB
330
2B4
100
AcDbEntity
  8
SK2
100
AcDbLine
 10
76.9073021918
 20
36.4924156072
 30
0.0
 11
77.9737084493
 21
36.4924156072
 31
0.0
  0
LINE
  5
2BC
330
2B4
100
AcDbEntity
  8
SK2
100
AcDbLine
 10
87.0250975102
 20
42.0486655983
 30
0.0
 11
88.0915037676
 21
42.0486655983
 31
0.0
  0
LINE
  5
2BD
330
2B4
100
AcDbEntity
  8
SK2
100
AcDbLine
 10
88.0915037676
 20
42.0486655983
 30
0.0
 11
88.0915037676
 21
36.4924156072
 31
0.0
  0
LINE
  5
2BE
330
2B4
100
AcDbEntity
  8
SK2
100
AcDbLine
 10
88.0915037676
 20
36.4924156072
 30
0.0
 11
87.0250975102
 21
36.4924156072
 31
0.0
  0
LINE
  5
2BF
330
2B4
100
AcDbEntity
  8
SK2
100
AcDbLine
 10
71.425
 20
20.3
 30
0.0
 11
71.425
 21
32.2557838823
 31
0.0
  0
LINE
  5
2C0
330
2B4
100
AcDbEntity
  8
SK2
100
AcDbLine
 10
95.25
 20
14.21
 30
0.0
 11
95.25
 21
32.2557838823
 31
0.0
  0
LINE
  5
2C1
330
2B4
100
AcDbEntity
  8
SK2
100
AcDbLine
 10
71.425
 20
31.2557838823
 30
0.0
 11
95.25
 21
31.2557838823
 31
0.0
  0
MTEXT
  5
2C2
330
2B4
100
AcDbEntity
  8
SK2
100
AcDbMText
 10
75.8603403376
 20
35.8209931481
 30
0.0
 40
3.5
 41
0.0
 71
     1
 72
     1
  1

  7
SLDTEXTSTYLE0
 73
     1
 44
1.0
  0
MTEXT
  5
2C3
330
2B4
100
AcDbEntity
  8
SK2
100
AcDbMText
 10
77.9737084493
 20
41.0041525218
 30
0.0
 40
3.5
 41
0.0
 71
     1
 72
     1
  1
0,94
  7
SLDTEXTSTYLE0
 73
     1
 44
1.0
  0
MTEXT
  5
2C4
330
2B4
100
AcDbEntity
  8
SK2
100
AcDbMText
 10
76.6806527361
 20
35.7675209715
 30
0.0
 40
3.5
 41
0.0
 71
     1
 72
     1
  1
23,83
  7
SLDTEXTSTYLE0
 73
     1
 44
1.0
  0
MTEXT
  5
2C5
330
2B4
100
AcDbEntity
  8
SK2
100
AcDbMText
 10
90.4704101415
 20
35.8209931481
 30
0.0
 40
3.5
 41
0.0
 71
     1
 72
     1
  1

  7
SLDTEXTSTYLE0
 73
     1
 44
1.0
  0
ENDBLK
  5
2B6
330
2B4
100
AcDbEntity
  8
0
100
AcDbBlockEnd
  0
BLOCK
  5
2C9
330
2C8
100
AcDbEntity
  8
0
100
AcDbBlockBegin
  2
_D_5
 70
     0
 10
0.0
 20
0.0
 30
0.0
  3
_D_5
  1

  0
SOLID
  5
2CB
330
2C8
100
AcDbEntity
  8
SK2
100
AcDbTrace
 10
111.0215253688
 20
7.9375
 30
0.0
 11
111.5295253688
 21
11.2395
 31
0.0
 12
110.5135253688
 22
11.2395
 32
0.0
 13
110.5135253688
 23
11.2395
 33
0.0
  0
SOLID
  5
2CC
330
2C8
100
AcDbEntity
  8
SK2
100
AcDbTrace
 10
111.0215253688
 20
-7.9375
 30
0.0
 11
110.5135253688
 21
-11.2395
 31
0.0
 12
111.5295253688
 22
-11.2395
 32
0.0
 13
111.5295253688
 23
-11.2395
 33
0.0
  0
LINE
  5
2CD
330
2C8
100
AcDbEntity
  8
SK2
100
AcDbLine
 10
100.2286436527
 20
25.4370341043
 30
0.0
 11
100.2286436527
 21
24.3706278468
 31
0.0
  0
LINE
  5
2CE
330
2C8
100
AcDbEntity
  8
SK2
100
AcDbLine
 10
100.2286436527
 20
24.3706278468
 30
0.0
 11
105.7848936438
 21
24.3706278468
 31
0.0
  0
LINE
  5
2CF
330
2C8
100
AcDbEntity
  8
SK2
100
AcDbLine
 10
105.7848936438
 20
24.3706278468
 30
0.0
 11
105.7848936438
 21
25.4370341043
 31
0.0
  0
LINE
  5
2D0
330
2C8
100
AcDbEntity
  8
SK2
100
AcDbLine
 10
100.2286436527
 20
37.0745345916
 30
0.0
 11
100.2286436527
 21
38.140940849
 31
0.0
  0
LINE
  5
2D1
330
2C8
100
AcDbEntity
  8
SK2
100
AcDbLine
 10
100.2286436527
 20
38.140940849
 30
0.0
 11
105.7848936438
 21
38.140940849
 31
0.0
  0
LINE
  5
2D2
330
2C8
100
AcDbEntity
  8
SK2
100
AcDbLine
 10
105.7848936438
 20
38.140940849
 30
0.0
 11
105.7848936438
 21
37.0745345916
 31
0.0
  0
LINE
  5
2D3
330
2C8
100
AcDbEntity
  8
SK2
100
AcDbLine
 10
94.75
 20
7.9375
 30
0.0
 11
112.0215253688
 21
7.9375
 31
0.0
  0
LINE
  5
2D4
330
2C8
100
AcDbEntity
  8
SK2
100
AcDbLine
 10
94.75
 20
-7.9375
 30
0.0
 11
112.0215253688
 21
-7.9375
 31
0.0
  0
LINE
  5
2D5
330
2C8
100
AcDbEntity
  8
SK2
100
AcDbLine
 10
111.0215253688
 20
7.9375
 30
0.0
 11
111.0215253688
 21
41.0068085383
 31
0.0
  0
LINE
  5
2D6
330
2C8
100
AcDbEntity
  8
SK2
100
AcDbLine
 10
111.0215253688
 20
7.9375
 30
0.0
 11
111.0215253688
 21
-7.9375
 31
0.0
  0
LINE
  5
2D7
330
2C8
100
AcDbEntity
  8
SK2
100
AcDbLine
 10
111.0215253688
 20
-7.9375
 30
0.0
 11
111.0215253688
 21
-14.2875
 31
0.0
  0
MTEXT
  5
2D8
330
2C8
100
AcDbEntity
  8
SK2
100
AcDbMText
 10
101.2731567292
 20
25.4370341043
 30
0.0
 40
3.5
 41
0.0
 71
     1
 72
     1
  1
0,625
  7
SLDTEXTSTYLE0
 11
-7.044195017643634E-15
 21
1.0
 31
0.0
 73
     1
 44
1.0
  0
MTEXT
  5
2D9
330
2C8
100
AcDbEntity
  8
SK2
100
AcDbMText
 10
106.5097882796
 20
21.5047592263
 30
0.0
 40
3.5
 41
0.0
 71
     1
 72
     1
  1
%%c
  7
SLDTEXTSTYLE0
 11
-7.044195017643634E-15
 21
1.0
 31
0.0
 73
     1
 44
1.0
  0
MTEXT
  5
2DA
330
2C8
100
AcDbEntity
  8
SK2
100
AcDbMText
 10
106.5097882796
 20
26.7831966246
 30
0.0
 40
3.5
 41
0.0
 71
     1
 72
     1
  1
15,875
  7
SLDTEXTSTYLE0
 11
-7.044195017643634E-15
 21
1.0
 31
0.0
 73
     1
 44
1.0
  0
ENDBLK
  5
2CA
330
2C8
100
AcDbEntity
  8
0
100
AcDbBlockEnd
  0
BLOCK
  5
2DD
330
2DC
100
AcDbEntity
  8
0
100
AcDbBlockBegin
  2
_D_6
 70
     0
 10
0.0
 20
0.0
 30
0.0
  3
_D_6
  1

  0
SOLID
  5
2DF
330
2DC
100
AcDbEntity
  8
SK2
100
AcDbTrace
 10
125.4060347075
 20
13.21
 30
0.0
 11
124.8980347075
 21
9.908
 31
0.0
 12
125.9140347075
 22
9.908
 32
0.0
 13
125.9140347075
 23
9.908
 33
0.0
  0
SOLID
  5
2E0
330
2DC
100
AcDbEntity
  8
SK2
100
AcDbTrace
 10
125.4060347075
 20
-13.21
 30
0.0
 11
125.9140347075
 21
-9.908
 31
0.0
 12
124.8980347075
 22
-9.908
 32
0.0
 13
124.8980347075
 23
-9.908
 33
0.0
  0
LINE
  5
2E1
330
2DC
100
AcDbEntity
  8
SK2
100
AcDbLine
 10
114.6131529915
 20
-4.3661361615
 30
0.0
 11
114.6131529915
 21
-5.4325424189
 31
0.0
  0
LINE
  5
2E2
330
2DC
100
AcDbEntity
  8
SK2
100
AcDbLine
 10
114.6131529915
 20
-5.4325424189
 30
0.0
 11
120.1694029825
 21
-5.4325424189
 31
0.0
  0
LINE
  5
2E3
330
2DC
100
AcDbEntity
  8
SK2
100
AcDbLine
 10
120.1694029825
 20
-5.4325424189
 30
0.0
 11
120.1694029825
 21
-4.3661361615
 31
0.0
  0
LINE
  5
2E4
330
2DC
100
AcDbEntity
  8
SK2
100
AcDbLine
 10
114.6131529915
 20
4.6852528994
 30
0.0
 11
114.6131529915
 21
5.7516591569
 31
0.0
  0
LINE
  5
2E5
330
2DC
100
AcDbEntity
  8
SK2
100
AcDbLine
 10
114.6131529915
 20
5.7516591569
 30
0.0
 11
120.1694029825
 21
5.7516591569
 31
0.0
  0
LINE
  5
2E6
330
2DC
100
AcDbEntity
  8
SK2
100
AcDbLine
 10
120.1694029825
 20
5.7516591569
 30
0.0
 11
120.1694029825
 21
4.6852528994
 31
0.0
  0
LINE
  5
2E7
330
2DC
100
AcDbEntity
  8
SK2
100
AcDbLine
 10
96.25
 20
13.21
 30
0.0
 11
126.4060347075
 21
13.21
 31
0.0
  0
LINE
  5
2E8
330
2DC
100
AcDbEntity
  8
SK2
100
AcDbLine
 10
96.25
 20
-13.21
 30
0.0
 11
126.4060347075
 21
-13.21
 31
0.0
  0
LINE
  5
2E9
330
2DC
100
AcDbEntity
  8
SK2
100
AcDbLine
 10
125.4060347075
 20
13.21
 30
0.0
 11
125.4060347075
 21
-13.21
 31
0.0
  0
MTEXT
  5
2EA
330
2DC
100
AcDbEntity
  8
SK2
100
AcDbMText
 10
115.657666068
 20
-4.3661361615
 30
0.0
 40
3.5
 41
0.0
 71
     1
 72
     1
  1
1,04
  7
SLDTEXTSTYLE0
 11
-7.044195017643634E-15
 21
1.0
 31
0.0
 73
     1
 44
1.0
  0
MTEXT
  5
2EB
330
2DC
100
AcDbEntity
  8
SK2
100
AcDbMText
 10
120.8942976183
 20
-8.2984105739
 30
0.0
 40
3.5
 41
0.0
 71
     1
 72
     1
  1
%%c
  7
SLDTEXTSTYLE0
 11
-7.044195017643634E-15
 21
1.0
 31
0.0
 73
     1
 44
1.0
  0
MTEXT
  5
2EC
330
2DC
100
AcDbEntity
  8
SK2
100
AcDbMText
 10
120.8942976183
 20
-3.0199731755
 30
0.0
 40
3.5
 41
0.0
 71
     1
 72
     1
  1
26,42
  7
SLDTEXTSTYLE0
 11
-7.044195017643634E-15
 21
1.0
 31
0.0
 73
     1
 44
1.0
  0
ENDBLK
  5
2DE
330
2DC
100
AcDbEntity
  8
0
100
AcDbBlockEnd
  0
BLOCK
  5
2EF
330
2EE
100
AcDbEntity
  8
0
100
AcDbBlockBegin
  2
_D_7
 70
     0
 10
0.0
 20
0.0
 30
0.0
  3
_D_7
  1

  0
SOLID
  5
2F1
330
2EE
100
AcDbEntity
  8
SK2
100
AcDbTrace
 10
139.1299400025
 20
19.05
 30
0.0
 11
138.6219400025
 21
15.748
 31
0.0
 12
139.6379400025
 22
15.748
 32
0.0
 13
139.6379400025
 23
15.748
 33
0.0
  0
SOLID
  5
2F2
330
2EE
100
AcDbEntity
  8
SK2
100
AcDbTrace
 10
139.1299400025
 20
-19.05
 30
0.0
 11
139.6379400025
 21
-15.748
 31
0.0
 12
138.6219400025
 22
-15.748
 32
0.0
 13
138.6219400025
 23
-15.748
 33
0.0
  0
LINE
  5
2F3
330
2EE
100
AcDbEntity
  8
SK2
100
AcDbLine
 10
128.3370582864
 20
-4.3661361615
 30
0.0
 11
128.3370582864
 21
-5.4325424189
 31
0.0
  0
LINE
  5
2F4
330
2EE
100
AcDbEntity
  8
SK2
100
AcDbLine
 10
128.3370582864
 20
-5.4325424189
 30
0.0
 11
133.8933082775
 21
-5.4325424189
 31
0.0
  0
LINE
  5
2F5
330
2EE
100
AcDbEntity
  8
SK2
100
AcDbLine
 10
133.8933082775
 20
-5.4325424189
 30
0.0
 11
133.8933082775
 21
-4.3661361615
 31
0.0
  0
LINE
  5
2F6
330
2EE
100
AcDbEntity
  8
SK2
100
AcDbLine
 10
128.3370582864
 20
4.6852528994
 30
0.0
 11
128.3370582864
 21
5.7516591569
 31
0.0
  0
LINE
  5
2F7
330
2EE
100
AcDbEntity
  8
SK2
100
AcDbLine
 10
128.3370582864
 20
5.7516591569
 30
0.0
 11
133.8933082775
 21
5.7516591569
 31
0.0
  0
LINE
  5
2F8
330
2EE
100
AcDbEntity
  8
SK2
100
AcDbLine
 10
133.8933082775
 20
5.7516591569
 30
0.0
 11
133.8933082775
 21
4.6852528994
 31
0.0
  0
LINE
  5
2F9
330
2EE
100
AcDbEntity
  8
SK2
100
AcDbLine
 10
90.41
 20
19.05
 30
0.0
 11
140.1299400025
 21
19.05
 31
0.0
  0
LINE
  5
2FA
330
2EE
100
AcDbEntity
  8
SK2
100
AcDbLine
 10
90.41
 20
-19.05
 30
0.0
 11
140.1299400025
 21
-19.05
 31
0.0
  0
LINE
  5
2FB
330
2EE
100
AcDbEntity
  8
SK2
100
AcDbLine
 10
139.1299400025
 20
19.05
 30
0.0
 11
139.1299400025
 21
-19.05
 31
0.0
  0
MTEXT
  5
2FC
330
2EE
100
AcDbEntity
  8
SK2
100
AcDbMText
 10
129.3815713629
 20
-4.3661361615
 30
0.0
 40
3.5
 41
0.0
 71
     1
 72
     1
  1
1,50
  7
SLDTEXTSTYLE0
 11
-7.044195017643634E-15
 21
1.0
 31
0.0
 73
     1
 44
1.0
  0
MTEXT
  5
2FD
330
2EE
100
AcDbEntity
  8
SK2
100
AcDbMText
 10
134.6182029133
 20
-7.0053553263
 30
0.0
 40
3.5
 41
0.0
 71
     1
 72
     1
  1
%%c
  7
SLDTEXTSTYLE0
 11
-7.044195017643634E-15
 21
1.0
 31
0.0
 73
     1
 44
1.0
  0
MTEXT
  5
2FE
330
2EE
100
AcDbEntity
  8
SK2
100
AcDbMText
 10
134.6182029133
 20
-1.726917928
 30
0.0
 40
3.5
 41
0.0
 71
     1
 72
     1
  1
38,1
  7
SLDTEXTSTYLE0
 11
-7.044195017643634E-15
 21
1.0
 31
0.0
 73
     1
 44
1.0
  0
ENDBLK
  5
2F0
330
2EE
100
AcDbEntity
  8
0
100
AcDbBlockEnd
  0
BLOCK
  5
302
330
301
100
AcDbEntity
  8
0
100
AcDbBlockBegin
  2
_D_8
 70
     0
 10
0.0
 20
0.0
 30
0.0
  3
_D_8
  1

  0
SOLID
  5
304
330
301
100
AcDbEntity
  8
SK2
100
AcDbTrace
 10
-101.6
 20
-62.822504542
 30
0.0
 11
-98.298
 21
-63.330504542
 31
0.0
 12
-98.298
 22
-62.314504542
 32
0.0
 13
-98.298
 23
-62.314504542
 33
0.0
  0
SOLID
  5
305
330
301
100
AcDbEntity
  8
SK2
100
AcDbTrace
 10
95.25
 20
-62.822504542
 30
0.0
 11
91.948
 21
-62.314504542
 31
0.0
 12
91.948
 22
-63.330504542
 32
0.0
 13
91.948
 23
-63.330504542
 33
0.0
  0
LINE
  5
306
330
301
100
AcDbEntity
  8
SK2
100
AcDbLine
 10
11.3153768698
 20
-52.0296228259
 30
0.0
 11
10.2489706123
 21
-52.0296228259
 31
0.0
  0
LINE
  5
307
330
301
100
AcDbEntity
  8
SK2
100
AcDbLine
 10
10.2489706123
 20
-52.0296228259
 30
0.0
 11
10.2489706123
 21
-57.585872817
 31
0.0
  0
LINE
  5
308
330
301
100
AcDbEntity
  8
SK2
100
AcDbLine
 10
10.2489706123
 20
-57.585872817
 30
0.0
 11
11.3153768698
 21
-57.585872817
 31
0.0
  0
LINE
  5
309
330
301
100
AcDbEntity
  8
SK2
100
AcDbLine
 10
22.952877357
 20
-52.0296228259
 30
0.0
 11
24.0192836145
 21
-52.0296228259
 31
0.0
  0
LINE
  5
30A
330
301
100
AcDbEntity
  8
SK2
100
AcDbLine
 10
24.0192836145
 20
-52.0296228259
 30
0.0
 11
24.0192836145
 21
-57.585872817
 31
0.0
  0
LINE
  5
30B
330
301
100
AcDbEntity
  8
SK2
100
AcDbLine
 10
24.0192836145
 20
-57.585872817
 30
0.0
 11
22.952877357
 21
-57.585872817
 31
0.0
  0
LINE
  5
30C
330
301
100
AcDbEntity
  8
SK2
100
AcDbLine
 10
-101.6
 20
-19.2922326599
 30
0.0
 11
-101.6
 21
-63.822504542
 31
0.0
  0
LINE
  5
30D
330
301
100
AcDbEntity
  8
SK2
100
AcDbLine
 10
95.25
 20
-14.21
 30
0.0
 11
95.25
 21
-63.822504542
 31
0.0
  0
LINE
  5
30E
330
301
100
AcDbEntity
  8
SK2
100
AcDbLine
 10
-101.6
 20
-62.822504542
 30
0.0
 11
95.25
 21
-62.822504542
 31
0.0
  0
MTEXT
  5
30F
330
301
100
AcDbEntity
  8
SK2
100
AcDbMText
 10
9.2020087581
 20
-58.2572952761
 30
0.0
 40
3.5
 41
0.0
 71
     1
 72
     1
  1

  7
SLDTEXTSTYLE0
 73
     1
 44
1.0
  0
MTEXT
  5
310
330
301
100
AcDbEntity
  8
SK2
100
AcDbMText
 10
11.3153768698
 20
-53.0741359024
 30
0.0
 40
3.5
 41
0.0
 71
     1
 72
     1
  1
7,750
  7
SLDTEXTSTYLE0
 73
     1
 44
1.0
  0
MTEXT
  5
311
330
301
100
AcDbEntity
  8
SK2
100
AcDbMText
 10
10.0223206909
 20
-58.3107674528
 30
0.0
 40
3.5
 41
0.0
 71
     1
 72
     1
  1
196,85
  7
SLDTEXTSTYLE0
 73
     1
 44
1.0
  0
MTEXT
  5
312
330
301
100
AcDbEntity
  8
SK2
100
AcDbMText
 10
26.398189057
 20
-58.2572952761
 30
0.0
 40
3.5
 41
0.0
 71
     1
 72
     1
  1

  7
SLDTEXTSTYLE0
 73
     1
 44
1.0
  0
ENDBLK
  5
303
330
301
100
AcDbEntity
  8
0
100
AcDbBlockEnd
  0
BLOCK
  5
315
330
314
100
AcDbEntity
  8
0
100
AcDbBlockBegin
  2
_D_9
 70
     0
 10
0.0
 20
0.0
 30
0.0
  3
_D_9
  1

  0
SOLID
  5
317
330
314
100
AcDbEntity
  8
SK2
100
AcDbTrace
 10
95.25
 20
-45.8105717288
 30
0.0
 11
91.948
 21
-45.3025717288
 31
0.0
 12
91.948
 22
-46.3185717288
 32
0.0
 13
91.948
 23
-46.3185717288
 33
0.0
  0
SOLID
  5
318
330
314
100
AcDbEntity
  8
SK2
100
AcDbTrace
 10
47.4997324654
 20
-45.8105717288
 30
0.0
 11
50.8017324654
 21
-46.3185717288
 31
0.0
 12
50.8017324654
 22
-45.3025717288
 32
0.0
 13
50.8017324654
 23
-45.3025717288
 33
0.0
  0
LINE
  5
319
330
314
100
AcDbEntity
  8
SK2
100
AcDbLine
 10
66.2808200074
 20
-35.0176900127
 30
0.0
 11
65.21441375
 21
-35.0176900127
 31
0.0
  0
LINE
  5
31A
330
314
100
AcDbEntity
  8
SK2
100
AcDbLine
 10
65.21441375
 20
-35.0176900127
 30
0.0
 11
65.21441375
 21
-40.5739400038
 31
0.0
  0
LINE
  5
31B
330
314
100
AcDbEntity
  8
SK2
100
AcDbLine
 10
65.21441375
 20
-40.5739400038
 30
0.0
 11
66.2808200074
 21
-40.5739400038
 31
0.0
  0
LINE
  5
31C
330
314
100
AcDbEntity
  8
SK2
100
AcDbLine
 10
75.3322090683
 20
-35.0176900127
 30
0.0
 11
76.3986153258
 21
-35.0176900127
 31
0.0
  0
LINE
  5
31D
330
314
100
AcDbEntity
  8
SK2
100
AcDbLine
 10
76.3986153258
 20
-35.0176900127
 30
0.0
 11
76.3986153258
 21
-40.5739400038
 31
0.0
  0
LINE
  5
31E
330
314
100
AcDbEntity
  8
SK2
100
AcDbLine
 10
76.3986153258
 20
-40.5739400038
 30
0.0
 11
75.3322090683
 21
-40.5739400038
 31
0.0
  0
LINE
  5
31F
330
314
100
AcDbEntity
  8
SK2
100
AcDbLine
 10
95.25
 20
-14.21
 30
0.0
 11
95.25
 21
-46.8105717288
 31
0.0
  0
LINE
  5
320
330
314
100
AcDbEntity
  8
SK2
100
AcDbLine
 10
47.4997324654
 20
-8.9375
 30
0.0
 11
47.4997324654
 21
-46.8105717288
 31
0.0
  0
LINE
  5
321
330
314
100
AcDbEntity
  8
SK2
100
AcDbLine
 10
95.25
 20
-45.8105717288
 30
0.0
 11
47.4997324654
 21
-45.8105717288
 31
0.0
  0
MTEXT
  5
322
330
314
100
AcDbEntity
  8
SK2
100
AcDbMText
 10
64.1674518958
 20
-41.2453624629
 30
0.0
 40
3.5
 41
0.0
 71
     1
 72
     1
  1

  7
SLDTEXTSTYLE0
 73
     1
 44
1.0
  0
MTEXT
  5
323
330
314
100
AcDbEntity
  8
SK2
100
AcDbMText
 10
66.2808200074
 20
-36.0622030892
 30
0.0
 40
3.5
 41
0.0
 71
     1
 72
     1
  1
1,88
  7
SLDTEXTSTYLE0
 73
     1
 44
1.0
  0
MTEXT
  5
324
330
314
100
AcDbEntity
  8
SK2
100
AcDbMText
 10
64.9877642942
 20
-41.2988346396
 30
0.0
 40
3.5
 41
0.0
 71
     1
 72
     1
  1
47,75
  7
SLDTEXTSTYLE0
 73
     1
 44
1.0
  0
MTEXT
  5
325
330
314
100
AcDbEntity
  8
SK2
100
AcDbMText
 10
78.7775216997
 20
-41.2453624629
 30
0.0
 40
3.5
 41
0.0
 71
     1
 72
     1
  1

  7
SLDTEXTSTYLE0
 73
     1
 44
1.0
  0
ENDBLK
  5
316
330
314
100
AcDbEntity
  8
0
100
AcDbBlockEnd
  0
BLOCK
  5
329
330
328
100
AcDbEntity
  8
0
100
AcDbBlockBegin
  2
_D_10
 70
     0
 10
0.0
 20
0.0
 30
0.0
  3
_D_10
  1

  0
SOLID
  5
32B
330
328
100
AcDbEntity
  8
SK2
100
AcDbTrace
 10
95.25
 20
-31.6074660868
 30
0.0
 11
98.552
 21
-32.1154660868
 31
0.0
 12
98.552
 22
-31.0994660868
 32
0.0
 13
98.552
 23
-31.0994660868
 33
0.0
  0
SOLID
  5
32C
330
328
100
AcDbEntity
  8
SK2
100
AcDbTrace
 10
89.41
 20
-31.6074660868
 30
0.0
 11
86.108
 21
-31.0994660868
 31
0.0
 12
86.108
 22
-32.1154660868
 32
0.0
 13
86.108
 23
-32.1154660868
 33
0.0
  0
LINE
  5
32D
330
328
100
AcDbEntity
  8
SK2
100
AcDbLine
 10
95.25
 20
-14.21
 30
0.0
 11
95.25
 21
-32.6074660868
 31
0.0
  0
LINE
  5
32E
330
328
100
AcDbEntity
  8
SK2
100
AcDbLine
 10
89.41
 20
-20.05
 30
0.0
 11
89.41
 21
-32.6074660868
 31
0.0
  0
LINE
  5
32F
330
328
100
AcDbEntity
  8
SK2
100
AcDbLine
 10
95.25
 20
-31.6074660868
 30
0.0
 11
101.6
 21
-31.6074660868
 31
0.0
  0
LINE
  5
330
330
328
100
AcDbEntity
  8
SK2
100
AcDbLine
 10
95.25
 20
-31.6074660868
 30
0.0
 11
89.41
 21
-31.6074660868
 31
0.0
  0
LINE
  5
331
330
328
100
AcDbEntity
  8
SK2
100
AcDbLine
 10
89.41
 20
-31.6074660868
 30
0.0
 11
77.9737081
 21
-31.6074660868
 31
0.0
  0
MTEXT
  5
332
330
328
100
AcDbEntity
  8
SK2
100
AcDbMText
 10
77.9737081
 20
-27.0957291723
 30
0.0
 40
3.5
 41
0.0
 71
     1
 72
     1
  1
5,84
  7
SLDTEXTSTYLE0
 73
     1
 44
1.0
  0
ENDBLK
  5
32A
330
328
100
AcDbEntity
  8
0
100
AcDbBlockEnd
  0
BLOCK
  5
335
330
334
100
AcDbEntity
  8
0
100
AcDbBlockBegin
  2
_D_11
 70
     0
 10
0.0
 20
0.0
 30
0.0
  3
_D_11
  1

  0
SOLID
  5
337
330
334
100
AcDbEntity
  8
SK2
100
AcDbTrace
 10
-121.9476501967
 20
47.2968145978
 30
0.0
 11
-122.4556501967
 21
43.9948145978
 31
0.0
 12
-121.4396501967
 22
43.9948145978
 32
0.0
 13
-121.4396501967
 23
43.9948145978
 33
0.0
  0
SOLID
  5
338
330
334
100
AcDbEntity
  8
SK2
100
AcDbTrace
 10
-121.9476501967
 20
-47.4754841997
 30
0.0
 11
-121.4396501967
 21
-44.1734841997
 31
0.0
 12
-122.4556501967
 22
-44.1734841997
 32
0.0
 13
-122.4556501967
 23
-44.1734841997
 33
0.0
  0
LINE
  5
339
330
334
100
AcDbEntity
  8
SK2
100
AcDbLine
 10
2.95
 20
47.2968145978
 30
0.0
 11
-122.9476501967
 21
47.2968145978
 31
0.0
  0
LINE
  5
33A
330
334
100
AcDbEntity
  8
SK2
100
AcDbLine
 10
2.95
 20
-47.4754841997
 30
0.0
 11
-122.9476501967
 21
-47.4754841997
 31
0.0
  0
LINE
  5
33B
330
334
100
AcDbEntity
  8
SK2
100
AcDbLine
 10
-121.9476501967
 20
47.2968145978
 30
0.0
 11
-121.9476501967
 21
-47.4754841997
 31
0.0
  0
MTEXT
  5
33C
330
334
100
AcDbEntity
  8
SK2
100
AcDbMText
 10
-126.4593872859
 20
-8.2984105739
 30
0.0
 40
3.5
 41
0.0
 71
     1
 72
     1
  1
%%c
  7
SLDTEXTSTYLE0
 11
-7.044195017643634E-15
 21
1.0
 31
0.0
 73
     1
 44
1.0
  0
MTEXT
  5
33D
330
334
100
AcDbEntity
  8
SK2
100
AcDbMText
 10
-126.5128594626
 20
-3.0199731755
 30
0.0
 40
3.5
 41
0.0
 71
     1
 72
     1
  1
98,42
  7
SLDTEXTSTYLE0
 11
-7.044195017643634E-15
 21
1.0
 31
0.0
 73
     1
 44
1.0
  0
ENDBLK
  5
336
330
334
100
AcDbEntity
  8
0
100
AcDbBlockEnd
  0
BLOCK
  5
340
330
33F
100
AcDbEntity
  8
0
100
AcDbBlockBegin
  2
_D_12
 70
     0
 10
0.0
 20
0.0
 30
0.0
  3
_D_12
  1

  0
SOLID
  5
342
330
33F
100
AcDbEntity
  8
SK2
100
AcDbTrace
 10
-111.6875871409
 20
12.6999998465
 30
0.0
 11
-112.1955871409
 21
9.3979998465
 31
0.0
 12
-111.1795871409
 22
9.3979998465
 32
0.0
 13
-111.1795871409
 23
9.3979998465
 33
0.0
  0
SOLID
  5
343
330
33F
100
AcDbEntity
  8
SK2
100
AcDbTrace
 10
-111.6875871409
 20
-12.6999998465
 30
0.0
 11
-111.1795871409
 21
-9.3979998465
 31
0.0
 12
-112.1955871409
 22
-9.3979998465
 32
0.0
 13
-112.1955871409
 23
-9.3979998465
 33
0.0
  0
LINE
  5
344
330
33F
100
AcDbEntity
  8
SK2
100
AcDbLine
 10
-95.967097044
 20
12.6999998465
 30
0.0
 11
-112.6875871409
 21
12.6999998465
 31
0.0
  0
LINE
  5
345
330
33F
100
AcDbEntity
  8
SK2
100
AcDbLine
 10
-95.967097044
 20
-12.6999998465
 30
0.0
 11
-112.6875871409
 21
-12.6999998465
 31
0.0
  0
LINE
  5
346
330
33F
100
AcDbEntity
  8
SK2
100
AcDbLine
 10
-111.6875871409
 20
12.6999998465
 30
0.0
 11
-111.6875871409
 21
-12.6999998465
 31
0.0
  0
MTEXT
  5
348
330
33F
100
AcDbEntity
  8
SK2
100
AcDbMText
 10
-116.1993240555
 20
-10.2918311077
 30
0.0
 40
3.5
 41
0.0
 71
     1
 72
     1
  1
1 - 8 UNC
  7
SLDTEXTSTYLE1
 11
-7.044195017643634E-15
 21
1.0
 31
0.0
 73
     1
 44
1.0
  0
ENDBLK
  5
341
330
33F
100
AcDbEntity
  8
0
100
AcDbBlockEnd
  0
ENDSEC
  0
SECTION
  2
ENTITIES
  0
LINE
  5
82
330
1F
100
AcDbEntity
  8
1
  6
SLD-Solid
370
    25
100
AcDbLine
 10
1.7476022729
 20
34.925
 30
0.0
 11
0.0
 21
34.925
 31
0.0
  0
LINE
  5
83
330
1F
100
AcDbEntity
  8
1
  6
SLD-Solid
370
    25
100
AcDbLine
 10
0.0
 20
-34.925
 30
0.0
 11
1.7476022729
 21
-34.925
 31
0.0
  0
LINE
  5
84
330
1F
100
AcDbEntity
  8
1
  6
SLD-Solid
370
    25
100
AcDbLine
 10
1.7476022729
 20
-34.925
 30
0.0
 11
2.1330363037
 21
-34.7452691597
 31
0.0
  0
LINE
  5
85
330
1F
100
AcDbEntity
  8
1
  6
SLD-Solid
370
    25
100
AcDbLine
 10
2.1330363037
 20
34.7452691597
 30
0.0
 11
1.7476022729
 21
34.925
 31
0.0
  0
LINE
  5
86
330
1F
100
AcDbEntity
  8
SK1
  6
SLD-Solid
370
    25
100
AcDbLine
 10
0.0
 20
34.925
 30
0.0
 11
-99.8030472773
 21
20.3702515116
 31
0.0
  0
LINE
  5
87
330
1F
100
AcDbEntity
  8
SK1
  6
SLD-Solid
370
    25
100
AcDbLine
 10
-99.8030472773
 20
-20.3702515116
 30
0.0
 11
0.0
 21
-34.925
 31
0.0
  0
LINE
  5
88
330
1F
100
AcDbEntity
  8
1
  6
SLD-Solid
370
    25
100
AcDbLine
 10
33.576
 20
34.925
 30
0.0
 11
19.812
 21
34.925
 31
0.0
  0
LINE
  5
89
330
1F
100
AcDbEntity
  8
1
  6
SLD-Solid
370
    25
100
AcDbLine
 10
19.812
 20
-34.925
 30
0.0
 11
33.576
 21
-34.925
 31
0.0
  0
LINE
  5
8A
330
1F
100
AcDbEntity
  8
1
  6
SLD-Solid
370
    25
100
AcDbLine
 10
63.675
 20
19.05
 30
0.0
 11
36.624
 21
19.05
 31
0.0
  0
LINE
  5
8B
330
1F
100
AcDbEntity
  8
1
  6
SLD-Solid
370
    25
100
AcDbLine
 10
89.41
 20
19.05
 30
0.0
 11
79.1679275343
 21
19.05
 31
0.0
  0
LINE
  5
8C
330
1F
100
AcDbEntity
  8
1
  6
SLD-Solid
370
    25
100
AcDbLine
 10
80.6729606526
 20
-19.05
 30
0.0
 11
89.41
 21
-19.05
 31
0.0
  0
LINE
  5
8D
330
1F
100
AcDbEntity
  8
1
  6
SLD-Solid
370
    25
100
AcDbLine
 10
36.624
 20
-19.05
 30
0.0
 11
62.172912565
 21
-19.05
 31
0.0
  0
LINE
  5
8E
330
1F
100
AcDbEntity
  8
1
  6
SLD-Solid
370
    25
100
AcDbLine
 10
89.41
 20
-19.05
 30
0.0
 11
95.25
 21
-13.21
 31
0.0
  0
LINE
  5
8F
330
1F
100
AcDbEntity
  8
1
  6
SLD-Solid
370
    25
100
AcDbLine
 10
95.25
 20
13.21
 30
0.0
 11
89.41
 21
19.05
 31
0.0
  0
LINE
  5
90
330
1F
100
AcDbEntity
  8
1
  6
SLD-Solid
370
    25
100
AcDbLine
 10
3.2
 20
-46.6976348437
 30
0.0
 11
3.2
 21
46.5560855313
 31
0.0
  0
LINE
  5
91
330
1F
100
AcDbEntity
  8
1
  6
SLD-Solid
370
    25
100
AcDbLine
 10
3.95
 20
47.2968145978
 30
0.0
 11
3.95
 21
-47.4754841997
 31
0.0
  0
LINE
  5
92
330
1F
100
AcDbEntity
  8
1
  6
SLD-Solid
370
    25
100
AcDbLine
 10
18.3
 20
-47.4754841997
 30
0.0
 11
18.3
 21
47.2968145978
 31
0.0
  0
LINE
  5
93
330
1F
100
AcDbEntity
  8
1
  6
SLD-Solid
370
    25
100
AcDbLine
 10
19.05
 20
46.5560855313
 30
0.0
 11
19.05
 21
-46.6976348437
 31
0.0
  0
LINE
  5
94
330
1F
100
AcDbEntity
  8
1
  6
SLD-Solid
370
    25
100
AcDbLine
 10
14.6397233934
 20
-47.4754841997
 30
0.0
 11
18.3
 21
-47.4754841997
 31
0.0
  0
LINE
  5
95
330
1F
100
AcDbEntity
  8
1
  6
SLD-Solid
370
    25
100
AcDbLine
 10
14.6397233934
 20
47.2968145978
 30
0.0
 11
14.6397233934
 21
-47.4754841997
 31
0.0
  0
LINE
  5
96
330
1F
100
AcDbEntity
  8
1
  6
SLD-Solid
370
    25
100
AcDbLine
 10
18.3
 20
47.2968145978
 30
0.0
 11
14.6397233934
 21
47.2968145978
 31
0.0
  0
LINE
  5
97
330
1F
100
AcDbEntity
  8
1
  6
SLD-Solid
370
    25
100
AcDbLine
 10
3.95
 20
-47.4754841997
 30
0.0
 11
7.5902766066
 21
-47.4754841997
 31
0.0
  0
LINE
  5
98
330
1F
100
AcDbEntity
  8
1
  6
SLD-Solid
370
    25
100
AcDbLine
 10
7.5902766066
 20
47.2968145978
 30
0.0
 11
3.95
 21
47.2968145978
 31
0.0
  0
LINE
  5
99
330
1F
100
AcDbEntity
  8
1
  6
SLD-Solid
370
    25
100
AcDbLine
 10
7.5902766066
 20
47.2968145978
 30
0.0
 11
7.5902766066
 21
-47.4754841997
 31
0.0
  0
LINE
  5
9A
330
1F
100
AcDbEntity
  8
1
  6
SLD-Solid
370
    25
100
AcDbLine
 10
9.2
 20
44.5790106634
 30
0.0
 11
9.2
 21
41.9587011964
 31
0.0
  0
LINE
  5
9B
330
1F
100
AcDbEntity
  8
1
  6
SLD-Solid
370
    25
100
AcDbLine
 10
9.2
 20
41.4830129515
 30
0.0
 11
9.2
 21
35.3885961177
 31
0.0
  0
LINE
  5
9C
330
1F
100
AcDbEntity
  8
1
  6
SLD-Solid
370
    25
100
AcDbLine
 10
9.2
 20
34.676688935
 30
0.0
 11
9.2
 21
-44.5790106634
 31
0.0
  0
LINE
  5
9D
330
1F
100
AcDbEntity
  8
1
  6
SLD-Solid
370
    25
100
AcDbLine
 10
13.03
 20
44.5790106634
 30
0.0
 11
13.03
 21
41.9871173317
 31
0.0
  0
LINE
  5
9E
330
1F
100
AcDbEntity
  8
1
  6
SLD-Solid
370
    25
100
AcDbLine
 10
13.03
 20
34.6324292339
 30
0.0
 11
13.03
 21
-44.5790106634
 31
0.0
  0
LINE
  5
9F
330
1F
100
AcDbEntity
  8
1
  6
SLD-Solid
370
    25
100
AcDbLine
 10
13.03
 20
41.453113616
 30
0.0
 11
13.03
 21
35.4316103884
 31
0.0
  0
LINE
  5
A0
330
1F
100
AcDbEntity
  8
1
  6
SLD-Solid
370
    25
100
AcDbLine
 10
12.28
 20
33.3554707167
 30
0.0
 11
12.28
 21
-43.7694359685
 31
0.0
  0
LINE
  5
A1
330
1F
100
AcDbEntity
  8
1
  6
SLD-Solid
370
    25
100
AcDbLine
 10
9.95
 20
33.3652595305
 30
0.0
 11
9.95
 21
-43.7694359685
 31
0.0
  0
LINE
  5
A2
330
1F
100
AcDbEntity
  8
1
  6
SLD-Solid
370
    25
100
AcDbLine
 10
9.95
 20
-43.7694359685
 30
0.0
 11
12.28
 21
-43.7694359685
 31
0.0
  0
LINE
  5
A3
330
1F
100
AcDbEntity
  8
1
  6
SLD-Solid
370
    25
100
AcDbLine
 10
0.0
 20
34.925
 30
0.0
 11
0.0
 21
-34.925
 31
0.0
  0
LINE
  5
A4
330
1F
100
AcDbEntity
  8
1
  6
SLD-Solid
370
    25
100
AcDbLine
 10
1.7476022729
 20
34.925
 30
0.0
 11
1.7476022729
 21
-34.925
 31
0.0
  0
LINE
  5
A5
330
1F
100
AcDbEntity
  8
1
  6
SLD-Solid
370
    25
100
AcDbLine
 10
35.1
 20
0.0
 30
0.0
 11
35.1
 21
-33.401
 31
0.0
  0
LINE
  5
A6
330
1F
100
AcDbEntity
  8
1
  6
SLD-Solid
370
    25
100
AcDbLine
 10
35.1
 20
33.401
 30
0.0
 11
35.1
 21
0.0
 31
0.0
  0
LINE
  5
A7
330
1F
100
AcDbEntity
  8
1
  6
SLD-Solid
370
    25
100
AcDbLine
 10
9.2
 20
35.3885961177
 30
0.0
 11
9.2
 21
35.3683101781
 31
0.0
  0
LINE
  5
A8
330
1F
100
AcDbEntity
  8
1
  6
SLD-Solid
370
    25
100
AcDbLine
 10
13.03
 20
35.4113240881
 30
0.0
 11
13.03
 21
35.4316103884
 31
0.0
  0
LINE
  5
A9
330
1F
100
AcDbEntity
  8
1
  6
SLD-Solid
370
    25
100
AcDbLine
 10
9.95
 20
40.2901760725
 30
0.0
 11
9.95
 21
35.4888548114
 31
0.0
  0
LINE
  5
AA
330
1F
100
AcDbEntity
  8
1
  6
SLD-Solid
370
    25
100
AcDbLine
 10
12.28
 20
40.2834337913
 30
0.0
 11
12.28
 21
35.4978726362
 31
0.0
  0
LINE
  5
AB
330
1F
100
AcDbEntity
  8
1
  6
SLD-Solid
370
    25
100
AcDbLine
 10
9.2
 20
41.9587011964
 30
0.0
 11
9.2
 21
41.9345423912
 31
0.0
  0
LINE
  5
AC
330
1F
100
AcDbEntity
  8
1
  6
SLD-Solid
370
    25
100
AcDbLine
 10
13.03
 20
41.9629580968
 30
0.0
 11
13.03
 21
41.9871173317
 31
0.0
  0
LINE
  5
AD
330
1F
100
AcDbEntity
  8
SK1
  6
SLD-Solid
370
    25
100
AcDbLine
 10
-101.6
 20
-18.2922326599
 30
0.0
 11
-101.6
 21
18.2922326599
 31
0.0
  0
LINE
  5
AE
330
1F
100
AcDbEntity
  8
1
  6
SLD-Solid
370
    25
100
AcDbLine
 10
9.95
 20
43.7694359685
 30
0.0
 11
9.95
 21
41.7091381742
 31
0.0
  0
LINE
  5
AF
330
1F
100
AcDbEntity
  8
1
  6
SLD-Solid
370
    25
100
AcDbLine
 10
12.28
 20
43.7694359685
 30
0.0
 11
12.28
 21
41.714962274
 31
0.0
  0
LINE
  5
B0
330
1F
100
AcDbEntity
  8
1
  6
SLD-Solid
370
    25
100
AcDbLine
 10
89.41
 20
19.05
 30
0.0
 11
89.41
 21
-19.05
 31
0.0
  0
LINE
  5
B1
330
1F
100
AcDbEntity
  8
1
  6
SLD-Solid
370
    25
100
AcDbLine
 10
95.25
 20
13.21
 30
0.0
 11
95.25
 21
-13.21
 31
0.0
  0
LINE
  5
B2
330
1F
100
AcDbEntity
  8
1
  6
SLD-Solid
370
    25
100
AcDbLine
 10
9.95
 20
43.7694359685
 30
0.0
 11
12.28
 21
43.7694359685
 31
0.0
  0
LINE
  5
B3
330
1F
100
AcDbEntity
  8
1
  6
SLD-Solid
370
    25
100
AcDbLine
 10
19.812
 20
0.0
 30
0.0
 11
19.812
 21
-34.925
 31
0.0
  0
LINE
  5
B4
330
1F
100
AcDbEntity
  8
1
  6
SLD-Solid
370
    25
100
AcDbLine
 10
19.812
 20
34.925
 30
0.0
 11
19.812
 21
0.0
 31
0.0
  0
LINE
  5
B5
330
1F
100
AcDbEntity
  8
1
  6
SLD-Solid
370
    25
100
AcDbLine
 10
2.1330363037
 20
34.7452691597
 30
0.0
 11
2.1330363037
 21
-34.7452691597
 31
0.0
  0
LINE
  5
B6
330
1F
100
AcDbEntity
  8
1
  6
SLD-Solid
370
    25
100
AcDbLine
 10
33.576
 20
0.0
 30
0.0
 11
33.576
 21
34.925
 31
0.0
  0
LINE
  5
B7
330
1F
100
AcDbEntity
  8
1
  6
SLD-Solid
370
    25
100
AcDbLine
 10
33.576
 20
-34.925
 30
0.0
 11
33.576
 21
0.0
 31
0.0
  0
LINE
  5
B8
330
1F
100
AcDbEntity
  8
SK1
  6
SLD-Solid
370
    25
100
AcDbLine
 10
-99.8030472773
 20
0.0
 30
0.0
 11
-99.8030472773
 21
-20.3702515116
 31
0.0
  0
LINE
  5
B9
330
1F
100
AcDbEntity
  8
SK1
  6
SLD-Solid
370
    25
100
AcDbLine
 10
-99.8030472773
 20
20.3702515116
 30
0.0
 11
-99.8030472773
 21
0.0
 31
0.0
  0
LINE
  5
BA
330
1F
100
AcDbEntity
  8
1
  6
SLD-Solid
370
    25
100
AcDbLine
 10
36.624
 20
0.0
 30
0.0
 11
36.624
 21
-19.05
 31
0.0
  0
LINE
  5
BB
330
1F
100
AcDbEntity
  8
1
  6
SLD-Solid
370
    25
100
AcDbLine
 10
36.624
 20
19.05
 30
0.0
 11
36.624
 21
0.0
 31
0.0
  0
LINE
  5
BC
330
1F
100
AcDbEntity
  8
SK3
  6
SLD-Dashed
370
    18
100
AcDbLine
 10
6.4723069743
 20
-13.9015950424
 30
0.0
 11
6.3056572614
 21
-13.2437532254
 31
0.0
  0
LINE
  5
BD
330
1F
100
AcDbEntity
  8
SK3
  6
SLD-Dashed
370
    18
100
AcDbLine
 10
6.3056572614
 20
-13.2437532254
 30
0.0
 11
6.0455057258
 21
-12.630742241
 31
0.0
  0
LINE
  5
BE
330
1F
100
AcDbEntity
  8
SK3
  6
SLD-Dashed
370
    18
100
AcDbLine
 10
6.0455057258
 20
-12.630742241
 30
0.0
 11
5.7095812647
 21
-12.1043377749
 31
0.0
  0
LINE
  5
BF
330
1F
100
AcDbEntity
  8
SK3
  6
SLD-Dashed
370
    18
100
AcDbLine
 10
5.7095812647
 20
-12.1043377749
 30
0.0
 11
5.3207765751
 21
-11.7004134215
 31
0.0
  0
LINE
  5
C0
330
1F
100
AcDbEntity
  8
SK3
  6
SLD-Dashed
370
    18
100
AcDbLine
 10
5.3207765751
 20
-11.7004134215
 30
0.0
 11
4.905588054
 21
-11.4464959579
 31
0.0
  0
LINE
  5
C1
330
1F
100
AcDbEntity
  8
SK3
  6
SLD-Dashed
370
    18
100
AcDbLine
 10
4.905588054
 20
-11.4464959579
 30
0.0
 11
4.492310113
 21
-11.3598894396
 31
0.0
  0
LINE
  5
C2
330
1F
100
AcDbEntity
  8
SK3
  6
SLD-Dashed
370
    18
100
AcDbLine
 10
4.492310113
 20
-11.3598894396
 30
0.0
 11
4.1091069607
 21
-11.4464959579
 31
0.0
  0
LINE
  5
C3
330
1F
100
AcDbEntity
  8
SK3
  6
SLD-Dashed
370
    18
100
AcDbLine
 10
4.1091069607
 20
-11.4464959579
 30
0.0
 11
3.7820932588
 21
-11.7004134215
 31
0.0
  0
LINE
  5
C4
330
1F
100
AcDbEntity
  8
SK3
  6
SLD-Dashed
370
    18
100
AcDbLine
 10
3.7820932588
 20
-11.7004134215
 30
0.0
 11
3.5335544506
 21
-12.1043377749
 31
0.0
  0
LINE
  5
C5
330
1F
100
AcDbEntity
  8
SK3
  6
SLD-Dashed
370
    18
100
AcDbLine
 10
3.5335544506
 20
-12.1043377749
 30
0.0
 11
3.3804280451
 21
-12.630742241
 31
0.0
  0
LINE
  5
C6
330
1F
100
AcDbEntity
  8
SK3
  6
SLD-Dashed
370
    18
100
AcDbLine
 10
3.3804280451
 20
-12.630742241
 30
0.0
 11
3.3331493539
 21
-13.2437532254
 31
0.0
  0
LINE
  5
C7
330
1F
100
AcDbEntity
  8
SK3
  6
SLD-Dashed
370
    18
100
AcDbLine
 10
3.3331493539
 20
-13.2437532254
 30
0.0
 11
3.3949403416
 21
-13.9015950424
 31
0.0
  0
LINE
  5
C8
330
1F
100
AcDbEntity
  8
SK3
  6
SLD-Dashed
370
    18
100
AcDbLine
 10
3.3949403416
 20
-13.9015950424
 30
0.0
 11
3.5615900545
 21
-14.5594368595
 31
0.0
  0
LINE
  5
C9
330
1F
100
AcDbEntity
  8
SK3
  6
SLD-Dashed
370
    18
100
AcDbLine
 10
3.5615900545
 20
-14.5594368595
 30
0.0
 11
3.8217415901
 21
-15.1724478438
 31
0.0
  0
LINE
  5
CA
330
1F
100
AcDbEntity
  8
SK3
  6
SLD-Dashed
370
    18
100
AcDbLine
 10
3.8217415901
 20
-15.1724478438
 30
0.0
 11
4.1576660511
 21
-15.6988523099
 31
0.0
  0
LINE
  5
CB
330
1F
100
AcDbEntity
  8
SK3
  6
SLD-Dashed
370
    18
100
AcDbLine
 10
4.1576660511
 20
-15.6988523099
 30
0.0
 11
4.5464707407
 21
-16.1027766634
 31
0.0
  0
LINE
  5
CC
330
1F
100
AcDbEntity
  8
SK3
  6
SLD-Dashed
370
    18
100
AcDbLine
 10
4.5464707407
 20
-16.1027766634
 30
0.0
 11
4.9616592619
 21
-16.356694127
 31
0.0
  0
LINE
  5
CD
330
1F
100
AcDbEntity
  8
SK3
  6
SLD-Dashed
370
    18
100
AcDbLine
 10
4.9616592619
 20
-16.356694127
 30
0.0
 11
5.3749372029
 21
-16.4433006452
 31
0.0
  0
LINE
  5
CE
330
1F
100
AcDbEntity
  8
SK3
  6
SLD-Dashed
370
    18
100
AcDbLine
 10
5.3749372029
 20
-16.4433006452
 30
0.0
 11
5.7581403551
 21
-16.356694127
 31
0.0
  0
LINE
  5
CF
330
1F
100
AcDbEntity
  8
SK3
  6
SLD-Dashed
370
    18
100
AcDbLine
 10
5.7581403551
 20
-16.356694127
 30
0.0
 11
6.0851540571
 21
-16.1027766634
 31
0.0
  0
LINE
  5
D0
330
1F
100
AcDbEntity
  8
SK3
  6
SLD-Dashed
370
    18
100
AcDbLine
 10
6.0851540571
 20
-16.1027766634
 30
0.0
 11
6.3336928653
 21
-15.6988523099
 31
0.0
  0
LINE
  5
D1
330
1F
100
AcDbEntity
  8
SK3
  6
SLD-Dashed
370
    18
100
AcDbLine
 10
6.3336928653
 20
-15.6988523099
 30
0.0
 11
6.4868192707
 21
-15.1724478438
 31
0.0
  0
LINE
  5
D2
330
1F
100
AcDbEntity
  8
SK3
  6
SLD-Dashed
370
    18
100
AcDbLine
 10
6.4868192707
 20
-15.1724478438
 30
0.0
 11
6.5340979619
 21
-14.5594368595
 31
0.0
  0
LINE
  5
D3
330
1F
100
AcDbEntity
  8
SK3
  6
SLD-Dashed
370
    18
100
AcDbLine
 10
6.5340979619
 20
-14.5594368595
 30
0.0
 11
6.4723069743
 21
-13.9015950424
 31
0.0
  0
LINE
  5
D4
330
1F
100
AcDbEntity
  8
SK3
  6
SLD-Dashed
370
    18
100
AcDbLine
 10
6.4545594773
 20
-13.8826166832
 30
0.0
 11
6.5127856003
 21
-14.5025060877
 31
0.0
  0
LINE
  5
D5
330
1F
100
AcDbEntity
  8
SK3
  6
SLD-Dashed
370
    18
100
AcDbLine
 10
6.5127856003
 20
-14.5025060877
 30
0.0
 11
6.4682345259
 21
-15.0801510537
 31
0.0
  0
LINE
  5
D6
330
1F
100
AcDbEntity
  8
SK3
  6
SLD-Dashed
370
    18
100
AcDbLine
 10
6.4682345259
 20
-15.0801510537
 30
0.0
 11
6.3239423361
 21
-15.5761860314
 31
0.0
  0
LINE
  5
D7
330
1F
100
AcDbEntity
  8
SK3
  6
SLD-Dashed
370
    18
100
AcDbLine
 10
6.3239423361
 20
-15.5761860314
 30
0.0
 11
6.0897423053
 21
-15.9568070568
 31
0.0
  0
LINE
  5
D8
330
1F
100
AcDbEntity
  8
SK3
  6
SLD-Dashed
370
    18
100
AcDbLine
 10
6.0897423053
 20
-15.9568070568
 30
0.0
 11
5.7815947785
 21
-16.1960754359
 31
0.0
  0
LINE
  5
D9
330
1F
100
AcDbEntity
  8
SK3
  6
SLD-Dashed
370
    18
100
AcDbLine
 10
5.7815947785
 20
-16.1960754359
 30
0.0
 11
5.4204995004
 21
-16.2776854242
 31
0.0
  0
LINE
  5
DA
330
1F
100
AcDbEntity
  8
SK3
  6
SLD-Dashed
370
    18
100
AcDbLine
 10
5.4204995004
 20
-16.2776854242
 30
0.0
 11
5.0310645175
 21
-16.1960754359
 31
0.0
  0
LINE
  5
DB
330
1F
100
AcDbEntity
  8
SK3
  6
SLD-Dashed
370
    18
100
AcDbLine
 10
5.0310645175
 20
-16.1960754359
 30
0.0
 11
4.6398291803
 21
-15.9568070568
 31
0.0
  0
LINE
  5
DC
330
1F
100
AcDbEntity
  8
SK3
  6
SLD-Dashed
370
    18
100
AcDbLine
 10
4.6398291803
 20
-15.9568070568
 30
0.0
 11
4.2734555305
 21
-15.5761860314
 31
0.0
  0
LINE
  5
DD
330
1F
100
AcDbEntity
  8
SK3
  6
SLD-Dashed
370
    18
100
AcDbLine
 10
4.2734555305
 20
-15.5761860314
 30
0.0
 11
3.9569113269
 21
-15.0801510537
 31
0.0
  0
LINE
  5
DE
330
1F
100
AcDbEntity
  8
SK3
  6
SLD-Dashed
370
    18
100
AcDbLine
 10
3.9569113269
 20
-15.0801510537
 30
0.0
 11
3.7117685337
 21
-14.5025060877
 31
0.0
  0
LINE
  5
DF
330
1F
100
AcDbEntity
  8
SK3
  6
SLD-Dashed
370
    18
100
AcDbLine
 10
3.7117685337
 20
-14.5025060877
 30
0.0
 11
3.5547332273
 21
-13.8826166832
 31
0.0
  0
LINE
  5
E0
330
1F
100
AcDbEntity
  8
SK3
  6
SLD-Dashed
370
    18
100
AcDbLine
 10
3.5547332273
 20
-13.8826166832
 30
0.0
 11
3.4965071043
 21
-13.2627272786
 31
0.0
  0
LINE
  5
E1
330
1F
100
AcDbEntity
  8
SK3
  6
SLD-Dashed
370
    18
100
AcDbLine
 10
3.4965071043
 20
-13.2627272786
 30
0.0
 11
3.5410581787
 21
-12.6850823126
 31
0.0
  0
LINE
  5
E2
330
1F
100
AcDbEntity
  8
SK3
  6
SLD-Dashed
370
    18
100
AcDbLine
 10
3.5410581787
 20
-12.6850823126
 30
0.0
 11
3.6853503685
 21
-12.1890473349
 31
0.0
  0
LINE
  5
E3
330
1F
100
AcDbEntity
  8
SK3
  6
SLD-Dashed
370
    18
100
AcDbLine
 10
3.6853503685
 20
-12.1890473349
 30
0.0
 11
3.9195503993
 21
-11.8084263096
 31
0.0
  0
LINE
  5
E4
330
1F
100
AcDbEntity
  8
SK3
  6
SLD-Dashed
370
    18
100
AcDbLine
 10
3.9195503993
 20
-11.8084263096
 30
0.0
 11
4.2276979261
 21
-11.5691579304
 31
0.0
  0
LINE
  5
E5
330
1F
100
AcDbEntity
  8
SK3
  6
SLD-Dashed
370
    18
100
AcDbLine
 10
4.2276979261
 20
-11.5691579304
 30
0.0
 11
4.5887932042
 21
-11.4875479421
 31
0.0
  0
LINE
  5
E6
330
1F
100
AcDbEntity
  8
SK3
  6
SLD-Dashed
370
    18
100
AcDbLine
 10
4.5887932042
 20
-11.4875479421
 30
0.0
 11
4.9782281871
 21
-11.5691579304
 31
0.0
  0
LINE
  5
E7
330
1F
100
AcDbEntity
  8
SK3
  6
SLD-Dashed
370
    18
100
AcDbLine
 10
4.9782281871
 20
-11.5691579304
 30
0.0
 11
5.3694635243
 21
-11.8084263096
 31
0.0
  0
LINE
  5
E8
330
1F
100
AcDbEntity
  8
SK3
  6
SLD-Dashed
370
    18
100
AcDbLine
 10
5.3694635243
 20
-11.8084263096
 30
0.0
 11
5.7358371741
 21
-12.1890473349
 31
0.0
  0
LINE
  5
E9
330
1F
100
AcDbEntity
  8
SK3
  6
SLD-Dashed
370
    18
100
AcDbLine
 10
5.7358371741
 20
-12.1890473349
 30
0.0
 11
6.0523813778
 21
-12.6850823126
 31
0.0
  0
LINE
  5
EA
330
1F
100
AcDbEntity
  8
SK3
  6
SLD-Dashed
370
    18
100
AcDbLine
 10
6.0523813778
 20
-12.6850823126
 30
0.0
 11
6.2975241709
 21
-13.2627272786
 31
0.0
  0
LINE
  5
EB
330
1F
100
AcDbEntity
  8
SK3
  6
SLD-Dashed
370
    18
100
AcDbLine
 10
6.2975241709
 20
-13.2627272786
 30
0.0
 11
6.4545594773
 21
-13.8826166832
 31
0.0
  0
LINE
  5
EC
330
1F
100
AcDbEntity
  8
SK3
  6
SLD-Dashed
370
    18
100
AcDbLine
 10
17.1792841073
 20
-11.0168048658
 30
0.0
 11
17.022248801
 21
-10.3969154613
 31
0.0
  0
LINE
  5
ED
330
1F
100
AcDbEntity
  8
SK3
  6
SLD-Dashed
370
    18
100
AcDbLine
 10
17.022248801
 20
-10.3969154613
 30
0.0
 11
16.7771060078
 21
-9.8192704952
 31
0.0
  0
LINE
  5
EE
330
1F
100
AcDbEntity
  8
SK3
  6
SLD-Dashed
370
    18
100
AcDbLine
 10
16.7771060078
 20
-9.8192704952
 30
0.0
 11
16.4605618041
 21
-9.3232355176
 31
0.0
  0
LINE
  5
EF
330
1F
100
AcDbEntity
  8
SK3
  6
SLD-Dashed
370
    18
100
AcDbLine
 10
16.4605618041
 20
-9.3232355176
 30
0.0
 11
16.0941881543
 21
-8.9426144922
 31
0.0
  0
LINE
  5
F0
330
1F
100
AcDbEntity
  8
SK3
  6
SLD-Dashed
370
    18
100
AcDbLine
 10
16.0941881543
 20
-8.9426144922
 30
0.0
 11
15.7029528171
 21
-8.703346113
 31
0.0
  0
LINE
  5
F1
330
1F
100
AcDbEntity
  8
SK3
  6
SLD-Dashed
370
    18
100
AcDbLine
 10
15.7029528171
 20
-8.703346113
 30
0.0
 11
15.3135178342
 21
-8.6217361247
 31
0.0
  0
LINE
  5
F2
330
1F
100
AcDbEntity
  8
SK3
  6
SLD-Dashed
370
    18
100
AcDbLine
 10
15.3135178342
 20
-8.6217361247
 30
0.0
 11
14.9524225561
 21
-8.703346113
 31
0.0
  0
LINE
  5
F3
330
1F
100
AcDbEntity
  8
SK3
  6
SLD-Dashed
370
    18
100
AcDbLine
 10
14.9524225561
 20
-8.703346113
 30
0.0
 11
14.6442750293
 21
-8.9426144922
 31
0.0
  0
LINE
  5
F4
330
1F
100
AcDbEntity
  8
SK3
  6
SLD-Dashed
370
    18
100
AcDbLine
 10
14.6442750293
 20
-8.9426144922
 30
0.0
 11
14.4100749985
 21
-9.3232355176
 31
0.0
  0
LINE
  5
F5
330
1F
100
AcDbEntity
  8
SK3
  6
SLD-Dashed
370
    18
100
AcDbLine
 10
14.4100749985
 20
-9.3232355176
 30
0.0
 11
14.2657828088
 21
-9.8192704952
 31
0.0
  0
LINE
  5
F6
330
1F
100
AcDbEntity
  8
SK3
  6
SLD-Dashed
370
    18
100
AcDbLine
 10
14.2657828088
 20
-9.8192704952
 30
0.0
 11
14.2212317343
 21
-10.3969154613
 31
0.0
  0
LINE
  5
F7
330
1F
100
AcDbEntity
  8
SK3
  6
SLD-Dashed
370
    18
100
AcDbLine
 10
14.2212317343
 20
-10.3969154613
 30
0.0
 11
14.2794578574
 21
-11.0168048658
 31
0.0
  0
LINE
  5
F8
330
1F
100
AcDbEntity
  8
SK3
  6
SLD-Dashed
370
    18
100
AcDbLine
 10
14.2794578574
 20
-11.0168048658
 30
0.0
 11
14.4364931637
 21
-11.6366942703
 31
0.0
  0
LINE
  5
F9
330
1F
100
AcDbEntity
  8
SK3
  6
SLD-Dashed
370
    18
100
AcDbLine
 10
14.4364931637
 20
-11.6366942703
 30
0.0
 11
14.6816359569
 21
-12.2143392363
 31
0.0
  0
LINE
  5
FA
330
1F
100
AcDbEntity
  8
SK3
  6
SLD-Dashed
370
    18
100
AcDbLine
 10
14.6816359569
 20
-12.2143392363
 30
0.0
 11
14.9981801606
 21
-12.710374214
 31
0.0
  0
LINE
  5
FB
330
1F
100
AcDbEntity
  8
SK3
  6
SLD-Dashed
370
    18
100
AcDbLine
 10
14.9981801606
 20
-12.710374214
 30
0.0
 11
15.3645538104
 21
-13.0909952394
 31
0.0
  0
LINE
  5
FC
330
1F
100
AcDbEntity
  8
SK3
  6
SLD-Dashed
370
    18
100
AcDbLine
 10
15.3645538104
 20
-13.0909952394
 30
0.0
 11
15.7557891476
 21
-13.3302636185
 31
0.0
  0
LINE
  5
FD
330
1F
100
AcDbEntity
  8
SK3
  6
SLD-Dashed
370
    18
100
AcDbLine
 10
15.7557891476
 20
-13.3302636185
 30
0.0
 11
16.1452241305
 21
-13.4118736069
 31
0.0
  0
LINE
  5
FE
330
1F
100
AcDbEntity
  8
SK3
  6
SLD-Dashed
370
    18
100
AcDbLine
 10
16.1452241305
 20
-13.4118736069
 30
0.0
 11
16.5063194086
 21
-13.3302636185
 31
0.0
  0
LINE
  5
FF
330
1F
100
AcDbEntity
  8
SK3
  6
SLD-Dashed
370
    18
100
AcDbLine
 10
16.5063194086
 20
-13.3302636185
 30
0.0
 11
16.8144669354
 21
-13.0909952394
 31
0.0
  0
LINE
  5
100
330
1F
100
AcDbEntity
  8
SK3
  6
SLD-Dashed
370
    18
100
AcDbLine
 10
16.8144669354
 20
-13.0909952394
 30
0.0
 11
17.0486669662
 21
-12.710374214
 31
0.0
  0
LINE
  5
101
330
1F
100
AcDbEntity
  8
SK3
  6
SLD-Dashed
370
    18
100
AcDbLine
 10
17.0486669662
 20
-12.710374214
 30
0.0
 11
17.1929591559
 21
-12.2143392363
 31
0.0
  0
LINE
  5
102
330
1F
100
AcDbEntity
  8
SK3
  6
SLD-Dashed
370
    18
100
AcDbLine
 10
17.1929591559
 20
-12.2143392363
 30
0.0
 11
17.2375102304
 21
-11.6366942703
 31
0.0
  0
LINE
  5
103
330
1F
100
AcDbEntity
  8
SK3
  6
SLD-Dashed
370
    18
100
AcDbLine
 10
17.2375102304
 20
-11.6366942703
 30
0.0
 11
17.1792841073
 21
-11.0168048658
 31
0.0
  0
LINE
  5
104
330
1F
100
AcDbEntity
  8
SK3
  6
SLD-Dashed
370
    18
100
AcDbLine
 10
-99.7034043657
 20
-13.19
 30
0.0
 11
-99.7034043657
 21
13.19
 31
0.0
  0
LINE
  5
105
330
1F
100
AcDbEntity
  8
SK3
  6
SLD-Dashed
370
    18
100
AcDbLine
 10
-101.6
 20
-14.2640498169
 30
0.0
 11
-101.6
 21
14.2640498169
 31
0.0
  0
LINE
  5
106
330
1F
100
AcDbEntity
  8
SK3
  6
SLD-Dashed
370
    18
100
AcDbLine
 10
-95.25
 20
-13.19
 30
0.0
 11
-95.25
 21
13.19
 31
0.0
  0
LINE
  5
107
330
1F
100
AcDbEntity
  8
SK3
  6
SLD-Dashed
370
    18
100
AcDbLine
 10
-94.0505548158
 20
-11.1125
 30
0.0
 11
-94.0505548158
 21
11.1125
 31
0.0
  0
LINE
  5
108
330
1F
100
AcDbEntity
  8
SK3
  6
SLD-Dashed
370
    18
100
AcDbLine
 10
3.7
 20
37.875
 30
0.0
 11
3.7
 21
46.5560855313
 31
0.0
  0
LINE
  5
109
330
1F
100
AcDbEntity
  8
SK3
  6
SLD-Dashed
370
    18
100
AcDbLine
 10
18.55
 20
46.5560855313
 30
0.0
 11
18.55
 21
37.875
 31
0.0
  0
LINE
  5
10A
330
1F
100
AcDbEntity
  8
SK3
  6
SLD-Dashed
370
    18
100
AcDbLine
 10
14.2727106199
 20
46.8162535878
 30
0.0
 11
18.3
 21
46.8162535878
 31
0.0
  0
LINE
  5
10B
330
1F
100
AcDbEntity
  8
SK3
  6
SLD-Dashed
370
    18
100
AcDbLine
 10
3.95
 20
46.8162535878
 30
0.0
 11
7.9572893801
 21
46.8162535878
 31
0.0
  0
LINE
  5
10C
330
1F
100
AcDbEntity
  8
1
  6
SLD-Dashed
370
    18
100
AcDbLine
 10
13.03
 20
44.5510215932
 30
0.0
 11
13.03
 21
44.5790106634
 31
0.0
  0
LINE
  5
10D
330
1F
100
AcDbEntity
  8
1
  6
SLD-Dashed
370
    18
100
AcDbLine
 10
9.2
 20
44.5790106634
 30
0.0
 11
9.2
 21
44.5510215932
 31
0.0
  0
LINE
  5
10E
330
1F
100
AcDbEntity
  8
1
  6
SLD-Dashed
370
    18
100
AcDbLine
 10
9.2
 20
-44.5790106634
 30
0.0
 11
9.2
 21
-44.5510215932
 31
0.0
  0
LINE
  5
10F
330
1F
100
AcDbEntity
  8
1
  6
SLD-Dashed
370
    18
100
AcDbLine
 10
13.03
 20
-44.5510215932
 30
0.0
 11
13.03
 21
-44.5790106634
 31
0.0
  0
LINE
  5
110
330
1F
100
AcDbEntity
  8
SK3
  6
SLD-Dashed
370
    18
100
AcDbLine
 10
3.2
 20
-35.475
 30
0.0
 11
3.2
 21
-46.6976348437
 31
0.0
  0
LINE
  5
111
330
1F
100
AcDbEntity
  8
SK3
  6
SLD-Dashed
370
    18
100
AcDbLine
 10
19.05
 20
-46.6976348437
 30
0.0
 11
19.05
 21
-35.475
 31
0.0
  0
LINE
  5
112
330
1F
100
AcDbEntity
  8
SK3
  6
SLD-Dashed
370
    18
100
AcDbLine
 10
19.05
 20
-35.1
 30
0.0
 11
3.2
 21
-35.1
 31
0.0
  0
LINE
  5
113
330
1F
100
AcDbEntity
  8
SK3
  6
SLD-Dashed
370
    18
100
AcDbLine
 10
3.2
 20
-35.475
 30
0.0
 11
19.05
 21
-35.475
 31
0.0
  0
LINE
  5
114
330
1F
100
AcDbEntity
  8
SK3
  6
SLD-Dashed
370
    18
100
AcDbLine
 10
3.7
 20
37.5
 30
0.0
 11
18.55
 21
37.5
 31
0.0
  0
LINE
  5
115
330
1F
100
AcDbEntity
  8
SK3
  6
SLD-Dashed
370
    18
100
AcDbLine
 10
18.55
 20
37.875
 30
0.0
 11
3.7
 21
37.875
 31
0.0
  0
LINE
  5
116
330
1F
100
AcDbEntity
  8
SK3
  6
SLD-Dashed
370
    18
100
AcDbLine
 10
45.592
 20
-11.1125
 30
0.0
 11
45.592
 21
11.1125
 31
0.0
  0
LINE
  5
117
330
1F
100
AcDbEntity
  8
SK3
  6
SLD-Dashed
370
    18
100
AcDbLine
 10
47.4997324654
 20
7.9375
 30
0.0
 11
47.4997324654
 21
-7.9375
 31
0.0
  0
LINE
  5
118
330
1F
100
AcDbEntity
  8
SK3
  6
SLD-Dashed
370
    18
100
AcDbLine
 10
93.75
 20
-7.9375
 30
0.0
 11
93.75
 21
7.9375
 31
0.0
  0
LINE
  5
119
330
1F
100
AcDbEntity
  8
SK3
  6
SLD-Dashed
370
    18
100
AcDbLine
 10
95.25
 20
-8.7830023541
 30
0.0
 11
95.25
 21
8.7830023541
 31
0.0
  0
LINE
  5
11A
330
1F
100
AcDbEntity
  8
SK3
  6
SLD-Dashed
370
    18
100
AcDbLine
 10
79.175
 20
17.3
 30
0.0
 11
63.675
 21
17.3
 31
0.0
  0
LINE
  5
11B
330
1F
100
AcDbEntity
  8
SK3
  6
SLD-Dashed
370
    18
100
AcDbLine
 10
77.8004
 20
17.3
 30
0.0
 11
65.0702734577
 21
17.3
 31
0.0
  0
LINE
  5
11C
330
1F
100
AcDbEntity
  8
SK3
  6
SLD-Dashed
370
    18
100
AcDbLine
 10
16.1
 20
33.1
 30
0.0
 11
6.1
 21
33.1
 31
0.0
  0
LINE
  5
11D
330
1F
100
AcDbEntity
  8
SK3
  6
SLD-Dashed
370
    18
100
AcDbLine
 10
6.1
 20
37.5
 30
0.0
 11
16.1
 21
37.5
 31
0.0
  0
LINE
  5
11E
330
1F
100
AcDbEntity
  8
SK3
  6
SLD-Dashed
370
    18
100
AcDbLine
 10
6.4000000879
 20
32.8
 30
0.0
 11
15.8
 21
32.8
 31
0.0
  0
LINE
  5
11F
330
1F
100
AcDbEntity
  8
1
  6
SLD-Dashed
370
    18
100
AcDbLine
 10
12.28
 20
43.7694359685
 30
0.0
 11
9.95
 21
43.7694359685
 31
0.0
  0
LINE
  5
120
330
1F
100
AcDbEntity
  8
1
  6
SLD-Dashed
370
    18
100
AcDbLine
 10
12.28
 20
-43.7694359685
 30
0.0
 11
9.95
 21
-43.7694359685
 31
0.0
  0
LINE
  5
121
330
1F
100
AcDbEntity
  8
1
  6
SLD-Dashed
370
    18
100
AcDbLine
 10
18.3
 20
-47.4754841997
 30
0.0
 11
14.6397233934
 21
-47.4754841997
 31
0.0
  0
LINE
  5
122
330
1F
100
AcDbEntity
  8
1
  6
SLD-Dashed
370
    18
100
AcDbLine
 10
7.5902766066
 20
-47.4754841997
 30
0.0
 11
3.95
 21
-47.4754841997
 31
0.0
  0
LINE
  5
123
330
1F
100
AcDbEntity
  8
SK3
  6
SLD-Dashed
370
    18
100
AcDbLine
 10
3.5547332273
 20
13.8826166832
 30
0.0
 11
3.4965071043
 21
13.2627272786
 31
0.0
  0
LINE
  5
124
330
1F
100
AcDbEntity
  8
SK3
  6
SLD-Dashed
370
    18
100
AcDbLine
 10
3.4965071043
 20
13.2627272786
 30
0.0
 11
3.5410581787
 21
12.6850823126
 31
0.0
  0
LINE
  5
125
330
1F
100
AcDbEntity
  8
SK3
  6
SLD-Dashed
370
    18
100
AcDbLine
 10
3.5410581787
 20
12.6850823126
 30
0.0
 11
3.6853503685
 21
12.1890473349
 31
0.0
  0
LINE
  5
126
330
1F
100
AcDbEntity
  8
SK3
  6
SLD-Dashed
370
    18
100
AcDbLine
 10
3.6853503685
 20
12.1890473349
 30
0.0
 11
3.9195503993
 21
11.8084263096
 31
0.0
  0
LINE
  5
127
330
1F
100
AcDbEntity
  8
SK3
  6
SLD-Dashed
370
    18
100
AcDbLine
 10
3.9195503993
 20
11.8084263096
 30
0.0
 11
4.2276979261
 21
11.5691579304
 31
0.0
  0
LINE
  5
128
330
1F
100
AcDbEntity
  8
SK3
  6
SLD-Dashed
370
    18
100
AcDbLine
 10
4.2276979261
 20
11.5691579304
 30
0.0
 11
4.5887932042
 21
11.4875479421
 31
0.0
  0
LINE
  5
129
330
1F
100
AcDbEntity
  8
SK3
  6
SLD-Dashed
370
    18
100
AcDbLine
 10
4.5887932042
 20
11.4875479421
 30
0.0
 11
4.9782281871
 21
11.5691579304
 31
0.0
  0
LINE
  5
12A
330
1F
100
AcDbEntity
  8
SK3
  6
SLD-Dashed
370
    18
100
AcDbLine
 10
4.9782281871
 20
11.5691579304
 30
0.0
 11
5.3694635243
 21
11.8084263096
 31
0.0
  0
LINE
  5
12B
330
1F
100
AcDbEntity
  8
SK3
  6
SLD-Dashed
370
    18
100
AcDbLine
 10
5.3694635243
 20
11.8084263096
 30
0.0
 11
5.7358371741
 21
12.1890473349
 31
0.0
  0
LINE
  5
12C
330
1F
100
AcDbEntity
  8
SK3
  6
SLD-Dashed
370
    18
100
AcDbLine
 10
5.7358371741
 20
12.1890473349
 30
0.0
 11
6.0523813778
 21
12.6850823126
 31
0.0
  0
LINE
  5
12D
330
1F
100
AcDbEntity
  8
SK3
  6
SLD-Dashed
370
    18
100
AcDbLine
 10
6.0523813778
 20
12.6850823126
 30
0.0
 11
6.2975241709
 21
13.2627272786
 31
0.0
  0
LINE
  5
12E
330
1F
100
AcDbEntity
  8
SK3
  6
SLD-Dashed
370
    18
100
AcDbLine
 10
6.2975241709
 20
13.2627272786
 30
0.0
 11
6.4545594773
 21
13.8826166832
 31
0.0
  0
LINE
  5
12F
330
1F
100
AcDbEntity
  8
SK3
  6
SLD-Dashed
370
    18
100
AcDbLine
 10
6.4545594773
 20
13.8826166832
 30
0.0
 11
6.5127856003
 21
14.5025060877
 31
0.0
  0
LINE
  5
130
330
1F
100
AcDbEntity
  8
SK3
  6
SLD-Dashed
370
    18
100
AcDbLine
 10
6.5127856003
 20
14.5025060877
 30
0.0
 11
6.4682345259
 21
15.0801510537
 31
0.0
  0
LINE
  5
131
330
1F
100
AcDbEntity
  8
SK3
  6
SLD-Dashed
370
    18
100
AcDbLine
 10
6.4682345259
 20
15.0801510537
 30
0.0
 11
6.3239423361
 21
15.5761860314
 31
0.0
  0
LINE
  5
132
330
1F
100
AcDbEntity
  8
SK3
  6
SLD-Dashed
370
    18
100
AcDbLine
 10
6.3239423361
 20
15.5761860314
 30
0.0
 11
6.0897423053
 21
15.9568070568
 31
0.0
  0
LINE
  5
133
330
1F
100
AcDbEntity
  8
SK3
  6
SLD-Dashed
370
    18
100
AcDbLine
 10
6.0897423053
 20
15.9568070568
 30
0.0
 11
5.7815947785
 21
16.1960754359
 31
0.0
  0
LINE
  5
134
330
1F
100
AcDbEntity
  8
SK3
  6
SLD-Dashed
370
    18
100
AcDbLine
 10
5.7815947785
 20
16.1960754359
 30
0.0
 11
5.4204995004
 21
16.2776854242
 31
0.0
  0
LINE
  5
135
330
1F
100
AcDbEntity
  8
SK3
  6
SLD-Dashed
370
    18
100
AcDbLine
 10
5.4204995004
 20
16.2776854242
 30
0.0
 11
5.0310645175
 21
16.1960754359
 31
0.0
  0
LINE
  5
136
330
1F
100
AcDbEntity
  8
SK3
  6
SLD-Dashed
370
    18
100
AcDbLine
 10
5.0310645175
 20
16.1960754359
 30
0.0
 11
4.6398291803
 21
15.9568070568
 31
0.0
  0
LINE
  5
137
330
1F
100
AcDbEntity
  8
SK3
  6
SLD-Dashed
370
    18
100
AcDbLine
 10
4.6398291803
 20
15.9568070568
 30
0.0
 11
4.2734555305
 21
15.5761860314
 31
0.0
  0
LINE
  5
138
330
1F
100
AcDbEntity
  8
SK3
  6
SLD-Dashed
370
    18
100
AcDbLine
 10
4.2734555305
 20
15.5761860314
 30
0.0
 11
3.9569113269
 21
15.0801510537
 31
0.0
  0
LINE
  5
139
330
1F
100
AcDbEntity
  8
SK3
  6
SLD-Dashed
370
    18
100
AcDbLine
 10
3.9569113269
 20
15.0801510537
 30
0.0
 11
3.7117685337
 21
14.5025060877
 31
0.0
  0
LINE
  5
13A
330
1F
100
AcDbEntity
  8
SK3
  6
SLD-Dashed
370
    18
100
AcDbLine
 10
3.7117685337
 20
14.5025060877
 30
0.0
 11
3.5547332273
 21
13.8826166832
 31
0.0
  0
LINE
  5
13B
330
1F
100
AcDbEntity
  8
SK3
  6
SLD-Dashed
370
    18
100
AcDbLine
 10
14.2794578574
 20
11.0168048658
 30
0.0
 11
14.4364931637
 21
11.6366942703
 31
0.0
  0
LINE
  5
13C
330
1F
100
AcDbEntity
  8
SK3
  6
SLD-Dashed
370
    18
100
AcDbLine
 10
14.4364931637
 20
11.6366942703
 30
0.0
 11
14.6816359569
 21
12.2143392363
 31
0.0
  0
LINE
  5
13D
330
1F
100
AcDbEntity
  8
SK3
  6
SLD-Dashed
370
    18
100
AcDbLine
 10
14.6816359569
 20
12.2143392363
 30
0.0
 11
14.9981801606
 21
12.710374214
 31
0.0
  0
LINE
  5
13E
330
1F
100
AcDbEntity
  8
SK3
  6
SLD-Dashed
370
    18
100
AcDbLine
 10
14.9981801606
 20
12.710374214
 30
0.0
 11
15.3645538104
 21
13.0909952394
 31
0.0
  0
LINE
  5
13F
330
1F
100
AcDbEntity
  8
SK3
  6
SLD-Dashed
370
    18
100
AcDbLine
 10
15.3645538104
 20
13.0909952394
 30
0.0
 11
15.7557891476
 21
13.3302636185
 31
0.0
  0
LINE
  5
140
330
1F
100
AcDbEntity
  8
SK3
  6
SLD-Dashed
370
    18
100
AcDbLine
 10
15.7557891476
 20
13.3302636185
 30
0.0
 11
16.1452241305
 21
13.4118736069
 31
0.0
  0
LINE
  5
141
330
1F
100
AcDbEntity
  8
SK3
  6
SLD-Dashed
370
    18
100
AcDbLine
 10
16.1452241305
 20
13.4118736069
 30
0.0
 11
16.5063194086
 21
13.3302636185
 31
0.0
  0
LINE
  5
142
330
1F
100
AcDbEntity
  8
SK3
  6
SLD-Dashed
370
    18
100
AcDbLine
 10
16.5063194086
 20
13.3302636185
 30
0.0
 11
16.8144669354
 21
13.0909952394
 31
0.0
  0
LINE
  5
143
330
1F
100
AcDbEntity
  8
SK3
  6
SLD-Dashed
370
    18
100
AcDbLine
 10
16.8144669354
 20
13.0909952394
 30
0.0
 11
17.0486669662
 21
12.710374214
 31
0.0
  0
LINE
  5
144
330
1F
100
AcDbEntity
  8
SK3
  6
SLD-Dashed
370
    18
100
AcDbLine
 10
17.0486669662
 20
12.710374214
 30
0.0
 11
17.1929591559
 21
12.2143392363
 31
0.0
  0
LINE
  5
145
330
1F
100
AcDbEntity
  8
SK3
  6
SLD-Dashed
370
    18
100
AcDbLine
 10
17.1929591559
 20
12.2143392363
 30
0.0
 11
17.2375102304
 21
11.6366942703
 31
0.0
  0
LINE
  5
146
330
1F
100
AcDbEntity
  8
SK3
  6
SLD-Dashed
370
    18
100
AcDbLine
 10
17.2375102304
 20
11.6366942703
 30
0.0
 11
17.1792841073
 21
11.0168048658
 31
0.0
  0
LINE
  5
147
330
1F
100
AcDbEntity
  8
SK3
  6
SLD-Dashed
370
    18
100
AcDbLine
 10
17.1792841073
 20
11.0168048658
 30
0.0
 11
17.022248801
 21
10.3969154613
 31
0.0
  0
LINE
  5
148
330
1F
100
AcDbEntity
  8
SK3
  6
SLD-Dashed
370
    18
100
AcDbLine
 10
17.022248801
 20
10.3969154613
 30
0.0
 11
16.7771060078
 21
9.8192704952
 31
0.0
  0
LINE
  5
149
330
1F
100
AcDbEntity
  8
SK3
  6
SLD-Dashed
370
    18
100
AcDbLine
 10
16.7771060078
 20
9.8192704952
 30
0.0
 11
16.4605618041
 21
9.3232355176
 31
0.0
  0
LINE
  5
14A
330
1F
100
AcDbEntity
  8
SK3
  6
SLD-Dashed
370
    18
100
AcDbLine
 10
16.4605618041
 20
9.3232355176
 30
0.0
 11
16.0941881543
 21
8.9426144922
 31
0.0
  0
LINE
  5
14B
330
1F
100
AcDbEntity
  8
SK3
  6
SLD-Dashed
370
    18
100
AcDbLine
 10
16.0941881543
 20
8.9426144922
 30
0.0
 11
15.7029528171
 21
8.703346113
 31
0.0
  0
LINE
  5
14C
330
1F
100
AcDbEntity
  8
SK3
  6
SLD-Dashed
370
    18
100
AcDbLine
 10
15.7029528171
 20
8.703346113
 30
0.0
 11
15.3135178342
 21
8.6217361247
 31
0.0
  0
LINE
  5
14D
330
1F
100
AcDbEntity
  8
SK3
  6
SLD-Dashed
370
    18
100
AcDbLine
 10
15.3135178342
 20
8.6217361247
 30
0.0
 11
14.9524225561
 21
8.703346113
 31
0.0
  0
LINE
  5
14E
330
1F
100
AcDbEntity
  8
SK3
  6
SLD-Dashed
370
    18
100
AcDbLine
 10
14.9524225561
 20
8.703346113
 30
0.0
 11
14.6442750293
 21
8.9426144922
 31
0.0
  0
LINE
  5
14F
330
1F
100
AcDbEntity
  8
SK3
  6
SLD-Dashed
370
    18
100
AcDbLine
 10
14.6442750293
 20
8.9426144922
 30
0.0
 11
14.4100749985
 21
9.3232355176
 31
0.0
  0
LINE
  5
150
330
1F
100
AcDbEntity
  8
SK3
  6
SLD-Dashed
370
    18
100
AcDbLine
 10
14.4100749985
 20
9.3232355176
 30
0.0
 11
14.2657828088
 21
9.8192704952
 31
0.0
  0
LINE
  5
151
330
1F
100
AcDbEntity
  8
SK3
  6
SLD-Dashed
370
    18
100
AcDbLine
 10
14.2657828088
 20
9.8192704952
 30
0.0
 11
14.2212317343
 21
10.3969154613
 31
0.0
  0
LINE
  5
152
330
1F
100
AcDbEntity
  8
SK3
  6
SLD-Dashed
370
    18
100
AcDbLine
 10
14.2212317343
 20
10.3969154613
 30
0.0
 11
14.2794578574
 21
11.0168048658
 31
0.0
  0
LINE
  5
153
330
1F
100
AcDbEntity
  8
SK3
  6
SLD-Dashed
370
    18
100
AcDbLine
 10
3.3949403416
 20
13.9015950424
 30
0.0
 11
3.5615900545
 21
14.5594368595
 31
0.0
  0
LINE
  5
154
330
1F
100
AcDbEntity
  8
SK3
  6
SLD-Dashed
370
    18
100
AcDbLine
 10
3.5615900545
 20
14.5594368595
 30
0.0
 11
3.8217415901
 21
15.1724478438
 31
0.0
  0
LINE
  5
155
330
1F
100
AcDbEntity
  8
SK3
  6
SLD-Dashed
370
    18
100
AcDbLine
 10
3.8217415901
 20
15.1724478438
 30
0.0
 11
4.1576660511
 21
15.6988523099
 31
0.0
  0
LINE
  5
156
330
1F
100
AcDbEntity
  8
SK3
  6
SLD-Dashed
370
    18
100
AcDbLine
 10
4.1576660511
 20
15.6988523099
 30
0.0
 11
4.5464707407
 21
16.1027766634
 31
0.0
  0
LINE
  5
157
330
1F
100
AcDbEntity
  8
SK3
  6
SLD-Dashed
370
    18
100
AcDbLine
 10
4.5464707407
 20
16.1027766634
 30
0.0
 11
4.9616592619
 21
16.356694127
 31
0.0
  0
LINE
  5
158
330
1F
100
AcDbEntity
  8
SK3
  6
SLD-Dashed
370
    18
100
AcDbLine
 10
4.9616592619
 20
16.356694127
 30
0.0
 11
5.3749372029
 21
16.4433006452
 31
0.0
  0
LINE
  5
159
330
1F
100
AcDbEntity
  8
SK3
  6
SLD-Dashed
370
    18
100
AcDbLine
 10
5.3749372029
 20
16.4433006452
 30
0.0
 11
5.7581403551
 21
16.356694127
 31
0.0
  0
LINE
  5
15A
330
1F
100
AcDbEntity
  8
SK3
  6
SLD-Dashed
370
    18
100
AcDbLine
 10
5.7581403551
 20
16.356694127
 30
0.0
 11
6.0851540571
 21
16.1027766634
 31
0.0
  0
LINE
  5
15B
330
1F
100
AcDbEntity
  8
SK3
  6
SLD-Dashed
370
    18
100
AcDbLine
 10
6.0851540571
 20
16.1027766634
 30
0.0
 11
6.3336928653
 21
15.6988523099
 31
0.0
  0
LINE
  5
15C
330
1F
100
AcDbEntity
  8
SK3
  6
SLD-Dashed
370
    18
100
AcDbLine
 10
6.3336928653
 20
15.6988523099
 30
0.0
 11
6.4868192707
 21
15.1724478438
 31
0.0
  0
LINE
  5
15D
330
1F
100
AcDbEntity
  8
SK3
  6
SLD-Dashed
370
    18
100
AcDbLine
 10
6.4868192707
 20
15.1724478438
 30
0.0
 11
6.5340979619
 21
14.5594368595
 31
0.0
  0
LINE
  5
15E
330
1F
100
AcDbEntity
  8
SK3
  6
SLD-Dashed
370
    18
100
AcDbLine
 10
6.5340979619
 20
14.5594368595
 30
0.0
 11
6.4723069743
 21
13.9015950424
 31
0.0
  0
LINE
  5
15F
330
1F
100
AcDbEntity
  8
SK3
  6
SLD-Dashed
370
    18
100
AcDbLine
 10
6.4723069743
 20
13.9015950424
 30
0.0
 11
6.3056572614
 21
13.2437532254
 31
0.0
  0
LINE
  5
160
330
1F
100
AcDbEntity
  8
SK3
  6
SLD-Dashed
370
    18
100
AcDbLine
 10
6.3056572614
 20
13.2437532254
 30
0.0
 11
6.0455057258
 21
12.630742241
 31
0.0
  0
LINE
  5
161
330
1F
100
AcDbEntity
  8
SK3
  6
SLD-Dashed
370
    18
100
AcDbLine
 10
6.0455057258
 20
12.630742241
 30
0.0
 11
5.7095812647
 21
12.1043377749
 31
0.0
  0
LINE
  5
162
330
1F
100
AcDbEntity
  8
SK3
  6
SLD-Dashed
370
    18
100
AcDbLine
 10
5.7095812647
 20
12.1043377749
 30
0.0
 11
5.3207765751
 21
11.7004134215
 31
0.0
  0
LINE
  5
163
330
1F
100
AcDbEntity
  8
SK3
  6
SLD-Dashed
370
    18
100
AcDbLine
 10
5.3207765751
 20
11.7004134215
 30
0.0
 11
4.905588054
 21
11.4464959579
 31
0.0
  0
LINE
  5
164
330
1F
100
AcDbEntity
  8
SK3
  6
SLD-Dashed
370
    18
100
AcDbLine
 10
4.905588054
 20
11.4464959579
 30
0.0
 11
4.492310113
 21
11.3598894396
 31
0.0
  0
LINE
  5
165
330
1F
100
AcDbEntity
  8
SK3
  6
SLD-Dashed
370
    18
100
AcDbLine
 10
4.492310113
 20
11.3598894396
 30
0.0
 11
4.1091069607
 21
11.4464959579
 31
0.0
  0
LINE
  5
166
330
1F
100
AcDbEntity
  8
SK3
  6
SLD-Dashed
370
    18
100
AcDbLine
 10
4.1091069607
 20
11.4464959579
 30
0.0
 11
3.7820932588
 21
11.7004134215
 31
0.0
  0
LINE
  5
167
330
1F
100
AcDbEntity
  8
SK3
  6
SLD-Dashed
370
    18
100
AcDbLine
 10
3.7820932588
 20
11.7004134215
 30
0.0
 11
3.5335544506
 21
12.1043377749
 31
0.0
  0
LINE
  5
168
330
1F
100
AcDbEntity
  8
SK3
  6
SLD-Dashed
370
    18
100
AcDbLine
 10
3.5335544506
 20
12.1043377749
 30
0.0
 11
3.3804280451
 21
12.630742241
 31
0.0
  0
LINE
  5
169
330
1F
100
AcDbEntity
  8
SK3
  6
SLD-Dashed
370
    18
100
AcDbLine
 10
3.3804280451
 20
12.630742241
 30
0.0
 11
3.3331493539
 21
13.2437532254
 31
0.0
  0
LINE
  5
16A
330
1F
100
AcDbEntity
  8
SK3
  6
SLD-Dashed
370
    18
100
AcDbLine
 10
3.3331493539
 20
13.2437532254
 30
0.0
 11
3.3949403416
 21
13.9015950424
 31
0.0
  0
LINE
  5
16B
330
1F
100
AcDbEntity
  8
SK3
  6
SLD-Dashed
370
    18
100
AcDbLine
 10
5.6371324082
 20
-16.2495686026
 30
0.0
 11
16.3618570383
 21
-13.3837567853
 31
0.0
  0
LINE
  5
16C
330
1F
100
AcDbEntity
  8
SK3
  6
SLD-Dashed
370
    18
100
AcDbLine
 10
15.0968849264
 20
-8.6498529463
 30
0.0
 11
4.3721602964
 21
-11.5156647637
 31
0.0
  0
LINE
  5
16D
330
1F
100
AcDbEntity
  8
SK3
  6
SLD-Dashed
370
    18
100
AcDbLine
 10
-101.6
 20
-14.285
 30
0.0
 11
-99.7034043657
 21
-13.19
 31
0.0
  0
LINE
  5
16E
330
1F
100
AcDbEntity
  8
SK3
  6
SLD-Dashed
370
    18
100
AcDbLine
 10
-99.7034043657
 20
13.19
 30
0.0
 11
-101.6
 21
14.285
 31
0.0
  0
LINE
  5
16F
330
1F
100
AcDbEntity
  8
SK3
  6
SLD-Dashed
370
    18
100
AcDbLine
 10
-99.7034043657
 20
-13.19
 30
0.0
 11
-95.25
 21
-13.19
 31
0.0
  0
LINE
  5
170
330
1F
100
AcDbEntity
  8
SK3
  6
SLD-Dashed
370
    18
100
AcDbLine
 10
-95.25
 20
13.19
 30
0.0
 11
-99.7034043657
 21
13.19
 31
0.0
  0
LINE
  5
171
330
1F
100
AcDbEntity
  8
SK3
  6
SLD-Dashed
370
    18
100
AcDbLine
 10
-95.25
 20
-13.19
 30
0.0
 11
-94.0505548158
 21
-11.1125
 31
0.0
  0
LINE
  5
172
330
1F
100
AcDbEntity
  8
SK3
  6
SLD-Dashed
370
    18
100
AcDbLine
 10
-94.0505548158
 20
11.1125
 30
0.0
 11
-95.25
 21
13.19
 31
0.0
  0
LINE
  5
173
330
1F
100
AcDbEntity
  8
SK3
  6
SLD-Dashed
370
    18
100
AcDbLine
 10
-94.0505548158
 20
-11.1125
 30
0.0
 11
45.592
 21
-11.1125
 31
0.0
  0
LINE
  5
174
330
1F
100
AcDbEntity
  8
SK3
  6
SLD-Dashed
370
    18
100
AcDbLine
 10
45.592
 20
11.1125
 30
0.0
 11
-94.0505548158
 21
11.1125
 31
0.0
  0
LINE
  5
175
330
1F
100
AcDbEntity
  8
SK3
  6
SLD-Dashed
370
    18
100
AcDbLine
 10
45.592
 20
-11.1125
 30
0.0
 11
47.4997324654
 21
-7.9375
 31
0.0
  0
LINE
  5
176
330
1F
100
AcDbEntity
  8
SK3
  6
SLD-Dashed
370
    18
100
AcDbLine
 10
47.4997324654
 20
7.9375
 30
0.0
 11
45.592
 21
11.1125
 31
0.0
  0
LINE
  5
177
330
1F
100
AcDbEntity
  8
SK3
  6
SLD-Dashed
370
    18
100
AcDbLine
 10
95.25
 20
8.8035254038
 30
0.0
 11
93.75
 21
7.9375
 31
0.0
  0
LINE
  5
178
330
1F
100
AcDbEntity
  8
SK3
  6
SLD-Dashed
370
    18
100
AcDbLine
 10
93.75
 20
-7.9375
 30
0.0
 11
95.25
 21
-8.8035254038
 31
0.0
  0
LINE
  5
179
330
1F
100
AcDbEntity
  8
SK3
  6
SLD-Dashed
370
    18
100
AcDbLine
 10
65.0496
 20
7.9375
 30
0.0
 11
47.4997324654
 21
7.9375
 31
0.0
  0
LINE
  5
17A
330
1F
100
AcDbEntity
  8
SK3
  6
SLD-Dashed
370
    18
100
AcDbLine
 10
93.75
 20
7.9375
 30
0.0
 11
77.7961935209
 21
7.9375
 31
0.0
  0
LINE
  5
17B
330
1F
100
AcDbEntity
  8
SK3
  6
SLD-Dashed
370
    18
100
AcDbLine
 10
47.4997324654
 20
-7.9375
 30
0.0
 11
93.75
 21
-7.9375
 31
0.0
  0
LINE
  5
17C
330
1F
100
AcDbEntity
  8
SK3
  6
SLD-Dashed
370
    18
100
AcDbLine
 10
63.675
 20
19.05
 30
0.0
 11
63.675
 21
17.3
 31
0.0
  0
LINE
  5
17D
330
1F
100
AcDbEntity
  8
SK3
  6
SLD-Dashed
370
    18
100
AcDbLine
 10
79.175
 20
17.3
 30
0.0
 11
79.175
 21
19.05
 31
0.0
  0
LINE
  5
17E
330
1F
100
AcDbEntity
  8
SK3
  6
SLD-Dashed
370
    18
100
AcDbLine
 10
65.0496
 20
17.3
 30
0.0
 11
65.0496
 21
7.9375
 31
0.0
  0
LINE
  5
17F
330
1F
100
AcDbEntity
  8
SK3
  6
SLD-Dashed
370
    18
100
AcDbLine
 10
77.8004
 20
7.9341217533
 30
0.0
 11
77.8004
 21
17.3
 31
0.0
  0
LINE
  5
180
330
1F
100
AcDbEntity
  8
SK3
  6
SLD-Dashed
370
    18
100
AcDbLine
 10
6.1
 20
37.5
 30
0.0
 11
6.1
 21
33.1
 31
0.0
  0
LINE
  5
181
330
1F
100
AcDbEntity
  8
SK3
  6
SLD-Dashed
370
    18
100
AcDbLine
 10
16.1
 20
33.1
 30
0.0
 11
16.1
 21
37.5
 31
0.0
  0
LINE
  5
182
330
1F
100
AcDbEntity
  8
SK3
  6
SLD-Dashed
370
    18
100
AcDbLine
 10
4.3721602964
 20
11.5156647637
 30
0.0
 11
15.0968849264
 21
8.6498529463
 31
0.0
  0
LINE
  5
183
330
1F
100
AcDbEntity
  8
SK3
  6
SLD-Dashed
370
    18
100
AcDbLine
 10
16.3618570383
 20
13.3837567853
 30
0.0
 11
5.6371324082
 21
16.2495686026
 31
0.0
  0
LINE
  5
184
330
1F
100
AcDbEntity
  8
SK3
  6
SLD-Solid
370
    18
100
AcDbLine
 10
-55.5999986827
 20
12.6999998465
 30
0.0
 11
-94.967097044
 21
12.6999998465
 31
0.0
  0
LINE
  5
185
330
1F
100
AcDbEntity
  8
SK3
  6
SLD-Solid
370
    18
100
AcDbLine
 10
-94.967097044
 20
-12.6999998465
 30
0.0
 11
-55.5999986827
 21
-12.6999998465
 31
0.0
  0
LINE
  5
186
330
1F
100
AcDbEntity
  8
SK3
  6
SLD-Solid
370
    18
100
AcDbLine
 10
-55.5999986827
 20
0.0
 30
0.0
 11
-55.5999986827
 21
-1.7674983246
 31
0.0
  0
LINE
  5
187
330
1F
100
AcDbEntity
  8
SK3
  6
SLD-Solid
370
    18
100
AcDbLine
 10
-55.5999986827
 20
0.0
 30
0.0
 11
-55.5999986827
 21
-1.7674983246
 31
0.0
  0
LINE
  5
188
330
1F
100
AcDbEntity
  8
SK3
  6
SLD-Solid
370
    18
100
AcDbLine
 10
-55.5999986827
 20
-1.7674983246
 30
0.0
 11
-55.5999986827
 21
-3.5005945247
 31
0.0
  0
LINE
  5
189
330
1F
100
AcDbEntity
  8
SK3
  6
SLD-Solid
370
    18
100
AcDbLine
 10
-55.5999986827
 20
-3.5005945247
 30
0.0
 11
-55.5999986827
 21
-5.1655555144
 31
0.0
  0
LINE
  5
18A
330
1F
100
AcDbEntity
  8
SK3
  6
SLD-Solid
370
    18
100
AcDbLine
 10
-55.5999986827
 20
-5.1655555144
 30
0.0
 11
-55.5999986827
 21
-6.7299748771
 31
0.0
  0
LINE
  5
18B
330
1F
100
AcDbEntity
  8
SK3
  6
SLD-Solid
370
    18
100
AcDbLine
 10
-55.5999986827
 20
-6.7299748771
 30
0.0
 11
-55.5999986827
 21
-8.1634027883
 31
0.0
  0
LINE
  5
18C
330
1F
100
AcDbEntity
  8
SK3
  6
SLD-Solid
370
    18
100
AcDbLine
 10
-55.5999986827
 20
-8.1634027883
 30
0.0
 11
-55.5999986827
 21
-9.4379391521
 31
0.0
  0
LINE
  5
18D
330
1F
100
AcDbEntity
  8
SK3
  6
SLD-Solid
370
    18
100
AcDbLine
 10
-55.5999986827
 20
-9.4379391521
 30
0.0
 11
-55.5999986827
 21
-10.5287767947
 31
0.0
  0
LINE
  5
18E
330
1F
100
AcDbEntity
  8
SK3
  6
SLD-Solid
370
    18
100
AcDbLine
 10
-55.5999986827
 20
-10.5287767947
 30
0.0
 11
-55.5999986827
 21
-11.4146843553
 31
0.0
  0
LINE
  5
18F
330
1F
100
AcDbEntity
  8
SK3
  6
SLD-Solid
370
    18
100
AcDbLine
 10
-55.5999986827
 20
-11.4146843553
 30
0.0
 11
-55.5999986827
 21
-12.0784174651
 31
0.0
  0
LINE
  5
190
330
1F
100
AcDbEntity
  8
SK3
  6
SLD-Solid
370
    18
100
AcDbLine
 10
-55.5999986827
 20
-12.0784174651
 30
0.0
 11
-55.5999986827
 21
-12.5070586801
 31
0.0
  0
LINE
  5
191
330
1F
100
AcDbEntity
  8
SK3
  6
SLD-Solid
370
    18
100
AcDbLine
 10
-55.5999986827
 20
-12.5070586801
 30
0.0
 11
-55.5999986827
 21
-12.6922633499
 31
0.0
  0
LINE
  5
192
330
1F
100
AcDbEntity
  8
SK3
  6
SLD-Solid
370
    18
100
AcDbLine
 10
-55.5999986827
 20
-12.6922633499
 30
0.0
 11
-55.5999986827
 21
-12.6999998465
 31
0.0
  0
LINE
  5
193
330
1F
100
AcDbEntity
  8
SK3
  6
SLD-Solid
370
    18
100
AcDbLine
 10
-55.5999986827
 20
12.6999998465
 30
0.0
 11
-55.5999986827
 21
12.6922633499
 31
0.0
  0
LINE
  5
194
330
1F
100
AcDbEntity
  8
SK3
  6
SLD-Solid
370
    18
100
AcDbLine
 10
-55.5999986827
 20
12.6922633499
 30
0.0
 11
-55.5999986827
 21
12.5070586801
 31
0.0
  0
LINE
  5
195
330
1F
100
AcDbEntity
  8
SK3
  6
SLD-Solid
370
    18
100
AcDbLine
 10
-55.5999986827
 20
12.5070586801
 30
0.0
 11
-55.5999986827
 21
12.0784174651
 31
0.0
  0
LINE
  5
196
330
1F
100
AcDbEntity
  8
SK3
  6
SLD-Solid
370
    18
100
AcDbLine
 10
-55.5999986827
 20
12.0784174651
 30
0.0
 11
-55.5999986827
 21
11.4146843553
 31
0.0
  0
LINE
  5
197
330
1F
100
AcDbEntity
  8
SK3
  6
SLD-Solid
370
    18
100
AcDbLine
 10
-55.5999986827
 20
11.4146843553
 30
0.0
 11
-55.5999986827
 21
10.5287767947
 31
0.0
  0
LINE
  5
198
330
1F
100
AcDbEntity
  8
SK3
  6
SLD-Solid
370
    18
100
AcDbLine
 10
-55.5999986827
 20
10.5287767947
 30
0.0
 11
-55.5999986827
 21
9.4379391521
 31
0.0
  0
LINE
  5
199
330
1F
100
AcDbEntity
  8
SK3
  6
SLD-Solid
370
    18
100
AcDbLine
 10
-55.5999986827
 20
9.4379391521
 30
0.0
 11
-55.5999986827
 21
8.1634027883
 31
0.0
  0
LINE
  5
19A
330
1F
100
AcDbEntity
  8
SK3
  6
SLD-Solid
370
    18
100
AcDbLine
 10
-55.5999986827
 20
8.1634027883
 30
0.0
 11
-55.5999986827
 21
6.7299748771
 31
0.0
  0
LINE
  5
19B
330
1F
100
AcDbEntity
  8
SK3
  6
SLD-Solid
370
    18
100
AcDbLine
 10
-55.5999986827
 20
6.7299748771
 30
0.0
 11
-55.5999986827
 21
5.1655555144
 31
0.0
  0
LINE
  5
19C
330
1F
100
AcDbEntity
  8
SK3
  6
SLD-Solid
370
    18
100
AcDbLine
 10
-55.5999986827
 20
5.1655555144
 30
0.0
 11
-55.5999986827
 21
3.5005945247
 31
0.0
  0
LINE
  5
19D
330
1F
100
AcDbEntity
  8
SK3
  6
SLD-Solid
370
    18
100
AcDbLine
 10
-55.5999986827
 20
3.5005945247
 30
0.0
 11
-55.5999986827
 21
1.7674983246
 31
0.0
  0
LINE
  5
19E
330
1F
100
AcDbEntity
  8
SK3
  6
SLD-Solid
370
    18
100
AcDbLine
 10
-55.5999986827
 20
1.7674983246
 30
0.0
 11
-55.5999986827
 21
0.0
 31
0.0
  0
LINE
  5
19F
330
1F
100
AcDbEntity
  8
SK3
  6
SLD-Solid
370
    18
100
AcDbLine
 10
-55.5999986827
 20
-1.7674983246
 30
0.0
 11
-55.5999986827
 21
-3.5005945247
 31
0.0
  0
LINE
  5
1A0
330
1F
100
AcDbEntity
  8
SK3
  6
SLD-Solid
370
    18
100
AcDbLine
 10
-55.5999986827
 20
-3.5005945247
 30
0.0
 11
-55.5999986827
 21
-5.1655555144
 31
0.0
  0
LINE
  5
1A1
330
1F
100
AcDbEntity
  8
SK3
  6
SLD-Solid
370
    18
100
AcDbLine
 10
-55.5999986827
 20
-5.1655555144
 30
0.0
 11
-55.5999986827
 21
-6.7299748771
 31
0.0
  0
LINE
  5
1A2
330
1F
100
AcDbEntity
  8
SK3
  6
SLD-Solid
370
    18
100
AcDbLine
 10
-55.5999986827
 20
-6.7299748771
 30
0.0
 11
-55.5999986827
 21
-8.1634027883
 31
0.0
  0
LINE
  5
1A3
330
1F
100
AcDbEntity
  8
SK3
  6
SLD-Solid
370
    18
100
AcDbLine
 10
-55.5999986827
 20
-8.1634027883
 30
0.0
 11
-55.5999986827
 21
-9.4379391521
 31
0.0
  0
LINE
  5
1A4
330
1F
100
AcDbEntity
  8
SK3
  6
SLD-Solid
370
    18
100
AcDbLine
 10
-55.5999986827
 20
-9.4379391521
 30
0.0
 11
-55.5999986827
 21
-10.5287767947
 31
0.0
  0
LINE
  5
1A5
330
1F
100
AcDbEntity
  8
SK3
  6
SLD-Solid
370
    18
100
AcDbLine
 10
-55.5999986827
 20
-10.5287767947
 30
0.0
 11
-55.5999986827
 21
-11.4146843553
 31
0.0
  0
LINE
  5
1A6
330
1F
100
AcDbEntity
  8
SK3
  6
SLD-Solid
370
    18
100
AcDbLine
 10
-55.5999986827
 20
-11.4146843553
 30
0.0
 11
-55.5999986827
 21
-12.0784174651
 31
0.0
  0
LINE
  5
1A7
330
1F
100
AcDbEntity
  8
SK3
  6
SLD-Solid
370
    18
100
AcDbLine
 10
-55.5999986827
 20
-12.0784174651
 30
0.0
 11
-55.5999986827
 21
-12.5070586801
 31
0.0
  0
LINE
  5
1A8
330
1F
100
AcDbEntity
  8
SK3
  6
SLD-Solid
370
    18
100
AcDbLine
 10
-55.5999986827
 20
-12.5070586801
 30
0.0
 11
-55.5999986827
 21
-12.6922633499
 31
0.0
  0
LINE
  5
1A9
330
1F
100
AcDbEntity
  8
SK3
  6
SLD-Solid
370
    18
100
AcDbLine
 10
-55.5999986827
 20
-12.6922633499
 30
0.0
 11
-55.5999986827
 21
-12.6999998465
 31
0.0
  0
LINE
  5
1AA
330
1F
100
AcDbEntity
  8
SK3
  6
SLD-Solid
370
    18
100
AcDbLine
 10
-55.5999986827
 20
12.6999998465
 30
0.0
 11
-55.5999986827
 21
12.6922633499
 31
0.0
  0
LINE
  5
1AB
330
1F
100
AcDbEntity
  8
SK3
  6
SLD-Solid
370
    18
100
AcDbLine
 10
-55.5999986827
 20
12.6922633499
 30
0.0
 11
-55.5999986827
 21
12.5070586801
 31
0.0
  0
LINE
  5
1AC
330
1F
100
AcDbEntity
  8
SK3
  6
SLD-Solid
370
    18
100
AcDbLine
 10
-55.5999986827
 20
12.5070586801
 30
0.0
 11
-55.5999986827
 21
12.0784174651
 31
0.0
  0
LINE
  5
1AD
330
1F
100
AcDbEntity
  8
SK3
  6
SLD-Solid
370
    18
100
AcDbLine
 10
-55.5999986827
 20
12.0784174651
 30
0.0
 11
-55.5999986827
 21
11.4146843553
 31
0.0
  0
LINE
  5
1AE
330
1F
100
AcDbEntity
  8
SK3
  6
SLD-Solid
370
    18
100
AcDbLine
 10
-55.5999986827
 20
11.4146843553
 30
0.0
 11
-55.5999986827
 21
10.5287767947
 31
0.0
  0
LINE
  5
1AF
330
1F
100
AcDbEntity
  8
SK3
  6
SLD-Solid
370
    18
100
AcDbLine
 10
-55.5999986827
 20
10.5287767947
 30
0.0
 11
-55.5999986827
 21
9.4379391521
 31
0.0
  0
LINE
  5
1B0
330
1F
100
AcDbEntity
  8
SK3
  6
SLD-Solid
370
    18
100
AcDbLine
 10
-55.5999986827
 20
9.4379391521
 30
0.0
 11
-55.5999986827
 21
8.1634027883
 31
0.0
  0
LINE
  5
1B1
330
1F
100
AcDbEntity
  8
SK3
  6
SLD-Solid
370
    18
100
AcDbLine
 10
-55.5999986827
 20
8.1634027883
 30
0.0
 11
-55.5999986827
 21
6.7299748771
 31
0.0
  0
LINE
  5
1B2
330
1F
100
AcDbEntity
  8
SK3
  6
SLD-Solid
370
    18
100
AcDbLine
 10
-55.5999986827
 20
6.7299748771
 30
0.0
 11
-55.5999986827
 21
5.1655555144
 31
0.0
  0
LINE
  5
1B3
330
1F
100
AcDbEntity
  8
SK3
  6
SLD-Solid
370
    18
100
AcDbLine
 10
-55.5999986827
 20
5.1655555144
 30
0.0
 11
-55.5999986827
 21
3.5005945247
 31
0.0
  0
LINE
  5
1B4
330
1F
100
AcDbEntity
  8
SK3
  6
SLD-Solid
370
    18
100
AcDbLine
 10
-55.5999986827
 20
3.5005945247
 30
0.0
 11
-55.5999986827
 21
1.7674983246
 31
0.0
  0
LINE
  5
1B5
330
1F
100
AcDbEntity
  8
SK3
  6
SLD-Solid
370
    18
100
AcDbLine
 10
-55.5999986827
 20
1.7674983246
 30
0.0
 11
-55.5999986827
 21
0.0
 31
0.0
  0
LINE
  5
1B6
330
1F
100
AcDbEntity
  8
SK3
  6
SLD-Solid
370
    18
100
AcDbLine
 10
78.5687491298
 20
7.8817354515
 30
0.0
 11
78.5687491298
 21
17.3000004143
 31
0.0
  0
LINE
  5
1B7
330
1F
100
AcDbEntity
  8
SK3
  6
SLD-Solid
370
    18
100
AcDbLine
 10
64.2812475562
 20
17.3000004143
 30
0.0
 11
64.2812475562
 21
7.8817354515
 31
0.0
  0
LINE
  5
1B8
330
1F
100
AcDbEntity
  8
SK3
  6
SLD-Solid
370
    18
100
AcDbLine
 10
78.5067304969
 20
7.8817354515
 30
0.0
 11
78.4782543778
 21
7.8561510891
 31
0.0
  0
LINE
  5
1B9
330
1F
100
AcDbEntity
  8
4
  6
SLD-Center
370
    18
100
AcDbLine
 10
71.425
 20
5.9375
 30
0.0
 11
71.425
 21
19.3
 31
0.0
  0
LINE
  5
1BA
330
1F
100
AcDbEntity
  8
4
  6
SLD-Center
370
    18
100
AcDbLine
 10
95.1592270778
 20
0.0
 30
0.0
 11
-0.0783788486
 21
0.0
 31
0.0
  0
LINE
  5
1BB
330
1F
100
AcDbEntity
  8
SK4
  6
SLD-Center
370
    18
100
AcDbLine
 10
-99.8030472773
 20
0.0
 30
0.0
 11
95.6782331047
 21
0.0
 31
0.0
  0
LINE
  5
1BC
330
1F
100
AcDbEntity
  8
81
370
    18
100
AcDbLine
 10
95.25
 20
0.0
 30
0.0
 11
98.7855339059
 21
3.5355339059
 31
0.0
  0
LINE
  5
1BD
330
1F
100
AcDbEntity
  8
81
370
    18
100
AcDbLine
 10
95.25
 20
0.0
 30
0.0
 11
91.7144660941
 21
-3.5355339059
 31
0.0
  0
LINE
  5
1BE
330
1F
100
AcDbEntity
  8
81
370
    18
100
AcDbLine
 10
95.25
 20
0.0
 30
0.0
 11
91.7144660941
 21
3.5355339059
 31
0.0
  0
LINE
  5
1BF
330
1F
100
AcDbEntity
  8
81
100
AcDbLine
 10
95.25
 20
0.0
 30
0.0
 11
105.25
 21
0.0
 31
0.0
  0
LINE
  5
1C0
330
1F
100
AcDbEntity
  8
81
370
    18
100
AcDbLine
 10
95.25
 20
0.0
 30
0.0
 11
98.7855339059
 21
-3.5355339059
 31
0.0
  0
LINE
  5
1C1
330
1F
100
AcDbEntity
  8
80
370
    18
100
AcDbLine
 10
0.0
 20
0.0
 30
0.0
 11
-3.5355339059
 21
-3.5355339059
 31
0.0
  0
LINE
  5
1C2
330
1F
100
AcDbEntity
  8
80
370
    18
100
AcDbLine
 10
0.0
 20
0.0
 30
0.0
 11
3.5355339059
 21
3.5355339059
 31
0.0
  0
LINE
  5
1C3
330
1F
100
AcDbEntity
  8
80
370
    18
100
AcDbLine
 10
0.0
 20
0.0
 30
0.0
 11
-3.5355339059
 21
3.5355339059
 31
0.0
  0
LINE
  5
1C4
330
1F
100
AcDbEntity
  8
80
370
    18
100
AcDbLine
 10
0.0
 20
0.0
 30
0.0
 11
-10.0
 21
0.0
 31
0.0
  0
LINE
  5
1C5
330
1F
100
AcDbEntity
  8
80
370
    18
100
AcDbLine
 10
0.0
 20
0.0
 30
0.0
 11
3.5355339059
 21
-3.5355339059
 31
0.0
  0
ARC
  5
1C6
330
1F
100
AcDbEntity
  8
1
  6
SLD-Solid
370
    25
100
AcDbCircle
 10
19.812
 20
-35.687
 30
0.0
 40
0.7620000000000076
100
AcDbArc
 50
90.0
 51
129.6577350102
  0
ARC
  5
1C7
330
1F
100
AcDbEntity
  8
1
  6
SLD-Solid
370
    25
100
AcDbCircle
 10
19.812
 20
35.687
 30
0.0
 40
0.7620000000000147
100
AcDbArc
 50
180.0
 51
270.0
  0
ARC
  5
1C8
330
1F
100
AcDbEntity
  8
1
  6
SLD-Solid
370
    25
100
AcDbCircle
 10
2.45
 20
35.425
 30
0.0
 40
0.7500000000000284
100
AcDbArc
 50
245.0
 51
0.0
  0
ARC
  5
1C9
330
1F
100
AcDbEntity
  8
1
  6
SLD-Solid
370
    25
100
AcDbCircle
 10
2.45
 20
-35.425
 30
0.0
 40
0.7500000000000145
100
AcDbArc
 50
25.5474951632
 51
115.0
  0
ARC
  5
1CA
330
1F
100
AcDbEntity
  8
1
  6
SLD-Solid
370
    25
100
AcDbCircle
 10
33.576
 20
-33.401
 30
0.0
 40
1.524000000000001
100
AcDbArc
 50
270.0
 51
0.0
  0
ARC
  5
1CB
330
1F
100
AcDbEntity
  8
1
  6
SLD-Solid
370
    25
100
AcDbCircle
 10
33.576
 20
33.401
 30
0.0
 40
1.524000000000008
100
AcDbArc
 50
0.0
 51
90.0
  0
ARC
  5
1CC
330
1F
100
AcDbEntity
  8
1
  6
SLD-Solid
370
    25
100
AcDbCircle
 10
36.624
 20
-20.574
 30
0.0
 40
1.524000000000022
100
AcDbArc
 50
90.0
 51
180.0
  0
ARC
  5
1CD
330
1F
100
AcDbEntity
  8
1
  6
SLD-Solid
370
    25
100
AcDbCircle
 10
36.624
 20
20.574
 30
0.0
 40
1.524000000000022
100
AcDbArc
 50
180.0
 51
270.0
  0
ARC
  5
1CE
330
1F
100
AcDbEntity
  8
SK1
  6
SLD-Solid
370
    25
100
AcDbCircle
 10
-99.5
 20
18.2922326599
 30
0.0
 40
2.100000000000009
100
AcDbArc
 50
98.2972222222
 51
180.0
  0
ARC
  5
1CF
330
1F
100
AcDbEntity
  8
SK1
  6
SLD-Solid
370
    25
100
AcDbCircle
 10
-99.5
 20
-18.2922326599
 30
0.0
 40
2.100000000000009
100
AcDbArc
 50
180.0
 51
261.7027777778
  0
ARC
  5
1D0
330
1F
100
AcDbEntity
  8
1
370
    18
100
AcDbCircle
 10
71.4229366088
 20
-45.3554954224
 30
0.0
 40
27.88444071932697
100
AcDbArc
 50
70.6263643337
 51
109.3736356663
  0
CIRCLE
  5
1D1
330
1F
100
AcDbEntity
  8
81
370
    18
100
AcDbCircle
 10
95.25
 20
0.0
 30
0.0
 40
2.499999999999984
  0
CIRCLE
  5
1D2
330
1F
100
AcDbEntity
  8
80
370
    18
100
AcDbCircle
 10
0.0
 20
0.0
 30
0.0
 40
2.500000000000009
  0
SPLINE
  5
1D3
330
1F
100
AcDbEntity
  8
1
  6
SLD-Solid
370
    25
100
AcDbSpline
210
0.0
220
0.0
230
1.0
 70
     8
 71
     3
 72
    12
 73
     8
 74
     0
 42
0.000000001
 43
0.00000001
 40
0.0
 40
0.0
 40
0.0
 40
0.0
 40
0.249999999999997
 40
0.249999999999997
 40
0.499999999999994
 40
0.499999999999994
 40
1.0
 40
1.0
 40
1.0
 40
1.0
 10
3.950000000000009
 20
-47.4754841997425
 30
0.0
 10
3.849084030890612
 20
-47.47548419974251
 30
0.0
 10
3.749978417477457
 20
-47.45437693482704
 30
0.0
 10
3.566847730075526
 20
-47.37426897057828
 30
0.0
 10
3.483455095947358
 20
-47.31511647588033
 30
0.0
 10
3.278048511272585
 20
-47.09831987092234
 30
0.0
 10
3.200000000000008
 20
-46.89926900274104
 30
0.0
 10
3.200000000000008
 20
-46.69763484374772
 30
0.0
  0
SPLINE
  5
1D4
330
1F
100
AcDbEntity
  8
1
  6
SLD-Solid
370
    25
100
AcDbSpline
210
0.0
220
0.0
230
1.0
 70
     8
 71
     3
 72
    17
 73
    13
 74
     0
 42
0.000000001
 43
0.00000001
 40
0.0
 40
0.0
 40
0.0
 40
0.0
 40
0.0631225276679342
 40
0.1266732404557587
 40
0.1906578598239172
 40
0.2550819704917586
 40
0.3779677562094053
 40
0.5065287291742404
 40
0.7536275741715814
 40
0.8770326867277843
 40
0.9293515934451574
 40
1.0
 40
1.0
 40
1.0
 40
1.0
 10
3.94999999999994
 20
47.29681459776456
 30
0.0
 10
3.925201491186248
 20
47.29611182214629
 30
0.0
 10
3.87543625544623
 20
47.29470150370423
 30
0.0
 10
3.801280717948011
 20
47.28327895415905
 30
0.0
 10
3.728120549120945
 20
47.26498746189469
 30
0.0
 10
3.635342933307195
 20
47.23149463841938
 30
0.0
 10
3.525682301867242
 20
47.17267397042565
 30
0.0
 10
3.374709300492287
 20
47.04854698610305
 30
0.0
 10
3.264271220664375
 20
46.88235514412623
 30
0.0
 10
3.217384189869013
 20
46.7249770438052
 30
0.0
 10
3.202376761222952
 20
46.63086119232323
 30
0.0
 10
3.200867255991988
 20
46.58337040934659
 30
0.0
 10
3.200000000000008
 20
46.55608553132448
 30
0.0
  0
SPLINE
  5
1D5
330
1F
100
AcDbEntity
  8
1
  6
SLD-Solid
370
    25
100
AcDbSpline
210
0.0
220
0.0
230
1.0
 70
     8
 71
     3
 72
    12
 73
     8
 74
     0
 42
0.000000001
 43
0.00000001
 40
0.0
 40
0.0
 40
0.0
 40
0.0
 40
0.2499999999999983
 40
0.2499999999999983
 40
0.4999999999999967
 40
0.4999999999999967
 40
1.0
 40
1.0
 40
1.0
 40
1.0
 10
19.05000000000001
 20
-46.69763484374772
 30
0.0
 10
19.05000000000001
 20
-46.79851095846173
 30
0.0
 10
19.03137059366211
 20
-46.89733966428951
 30
0.0
 10
18.95815575330309
 20
-47.08411469648357
 30
0.0
 10
18.90402082648723
 20
-47.16991322230013
 30
0.0
 10
18.6981281469378
 20
-47.3875344447254
 30
0.0
 10
18.50197314321878
 20
-47.47548419974301
 30
0.0
 10
18.30000000000015
 20
-47.47548419974304
 30
0.0
  0
SPLINE
  5
1D6
330
1F
100
AcDbEntity
  8
1
  6
SLD-Solid
370
    25
100
AcDbSpline
210
0.0
220
0.0
230
1.0
 70
     8
 71
     3
 72
    15
 73
    11
 74
     0
 42
0.000000001
 43
0.00000001
 40
0.0
 40
0.0
 40
0.0
 40
0.0
 40
0.070867546718904
 40
0.1234206290198622
 40
0.2469923695819581
 40
0.4940839350894875
 40
0.6226370203369791
 40
0.7456896564301834
 40
0.8736712713987574
 40
1.0
 40
1.0
 40
1.0
 40
1.0
 10
19.05000000000001
 20
46.55608553132449
 30
0.0
 10
19.04912781744744
 20
46.58344641762079
 30
0.0
 10
19.04760885250167
 20
46.63109725292662
 30
0.0
 10
19.03252103265987
 20
46.72541301613892
 30
0.0
 10
18.98548435274791
 20
46.88286431586828
 30
0.0
 10
18.87493087111882
 20
47.04890219769219
 30
0.0
 10
18.72384724369288
 20
47.17307551094378
 30
0.0
 10
18.59213990211475
 20
47.24320117897884
 30
0.0
 10
18.44967423040807
 20
47.28829435244317
 30
0.0
 10
18.34967476177367
 20
47.29398684875638
 30
0.0
 10
18.30000000000009
 20
47.29681459776462
 30
0.0
  0
SPLINE
  5
1D7
330
1F
100
AcDbEntity
  8
1
  6
SLD-Solid
370
    25
100
AcDbSpline
210
0.0
220
0.0
230
1.0
 70
     8
 71
     3
 72
     8
 73
     4
 74
     0
 42
0.000000001
 43
0.00000001
 40
0.0
 40
0.0
 40
0.0
 40
0.0
 40
1.0
 40
1.0
 40
1.0
 40
1.0
 10
7.590276606597335
 20
-47.4754841997425
 30
0.0
 10
8.127774995464424
 20
-46.5104965471081
 30
0.0
 10
8.664408048367891
 20
-45.54503249842018
 30
0.0
 10
9.199999999999985
 20
-44.57901066343648
 30
0.0
  0
SPLINE
  5
1D8
330
1F
100
AcDbEntity
  8
1
  6
SLD-Solid
370
    25
100
AcDbSpline
210
0.0
220
0.0
230
1.0
 70
     8
 71
     3
 72
     8
 73
     4
 74
     0
 42
0.000000001
 43
0.00000001
 40
0.0000000000000097
 40
0.0000000000000097
 40
0.0000000000000097
 40
0.0000000000000097
 40
0.000879067901516
 40
0.000879067901516
 40
0.000879067901516
 40
0.000879067901516
 10
7.957289380062127
 20
46.81625358782996
 30
0.0
 10
7.835334863860815
 20
46.97654627942823
 30
0.0
 10
7.712991580674039
 20
47.13673210499548
 30
0.0
 10
7.590276606597335
 20
47.29681459776456
 30
0.0
  0
SPLINE
  5
1D9
330
1F
100
AcDbEntity
  8
1
  6
SLD-Solid
370
    25
100
AcDbSpline
210
0.0
220
0.0
230
1.0
 70
     8
 71
     3
 72
     8
 73
     4
 74
     0
 42
0.000000001
 43
0.00000001
 40
0.0
 40
0.0
 40
0.0
 40
0.0
 40
1.0
 40
1.0
 40
1.0
 40
1.0
 10
7.957289380055702
 20
46.81625358784152
 30
0.0
 10
8.372088490919111
 20
46.0708208293373
 30
0.0
 10
8.786353866857985
 20
45.32508460154717
 30
0.0
 10
9.199999999999985
 20
44.57901066343646
 30
0.0
  0
SPLINE
  5
1DA
330
1F
100
AcDbEntity
  8
1
  6
SLD-Solid
370
    25
100
AcDbSpline
210
0.0
220
0.0
230
1.0
 70
     8
 71
     3
 72
    14
 73
    10
 74
     0
 42
0.000000001
 43
0.00000001
 40
0.0
 40
0.0
 40
0.0
 40
0.0
 40
0.25
 40
0.25
 40
0.5
 40
0.5
 40
0.75
 40
0.75
 40
1.0
 40
1.0
 40
1.0
 40
1.0
 10
9.200000000002262
 20
41.48301295145394
 30
0.0
 10
9.176680646156925
 20
41.55645645104904
 30
0.0
 10
9.157956892055532
 20
41.62429306843828
 30
0.0
 10
9.1319276787847
 20
41.74600607925086
 30
0.0
 10
9.12504558236849
 20
41.79860573441292
 30
0.0
 10
9.124954879643768
 20
41.88147815789091
 30
0.0
 10
9.13187050530505
 20
41.91255410941321
 30
0.0
 10
9.157670888230399
 20
41.9512409197013
 30
0.0
 10
9.176601575159566
 20
41.95960923610541
 30
0.0
 10
9.199999999999985
 20
41.95870119642319
 30
0.0
  0
SPLINE
  5
1DB
330
1F
100
AcDbEntity
  8
1
  6
SLD-Solid
370
    25
100
AcDbSpline
210
0.0
220
0.0
230
1.0
 70
     8
 71
     3
 72
    14
 73
    10
 74
     0
 42
0.000000001
 43
0.00000001
 40
0.0
 40
0.0
 40
0.0
 40
0.0
 40
0.25
 40
0.25
 40
0.5
 40
0.5
 40
0.75
 40
0.75
 40
1.0
 40
1.0
 40
1.0
 40
1.0
 10
9.199999999999985
 20
34.67668893498511
 30
0.0
 10
9.176680646155262
 20
34.76218380134754
 30
0.0
 10
9.15795689205447
 20
34.8440912290537
 30
0.0
 10
9.13192767878474
 20
34.99897222909988
 30
0.0
 10
9.125045582368992
 20
35.07047900120375
 30
0.0
 10
9.12495487964505
 20
35.19440944821504
 30
0.0
 10
9.131870505306654
 20
35.24816533561762
 30
0.0
 10
9.157670888232479
 20
35.33309634836898
 30
0.0
 10
9.176601575161756
 20
35.36545280972802
 30
0.0
 10
9.200000000002262
 20
35.388596117706
 30
0.0
  0
SPLINE
  5
1DC
330
1F
100
AcDbEntity
  8
1
  6
SLD-Solid
370
    25
100
AcDbSpline
210
0.0
220
0.0
230
1.0
 70
     8
 71
     3
 72
    14
 73
    10
 74
     0
 42
0.000000001
 43
0.00000001
 40
0.0
 40
0.0
 40
0.0
 40
0.0
 40
0.25
 40
0.25
 40
0.5
 40
0.5
 40
0.75
 40
0.75
 40
1.0
 40
1.0
 40
1.0
 40
1.0
 10
13.02999999999606
 20
41.98711733167136
 30
0.0
 10
13.05904068228765
 20
41.99358445674422
 30
0.0
 10
13.08275209482983
 20
41.98923559020632
 30
0.0
 10
13.1160965832247
 20
41.95189511103387
 30
0.0
 10
13.12492140067509
 20
41.91935250781676
 30
0.0
 10
13.1250775496782
 20
41.82511380576852
 30
0.0
 10
13.11615053209061
 20
41.76334893396457
 30
0.0
 10
13.08319562521537
 20
41.62087672885573
 30
0.0
 10
13.05911019949631
 20
41.53942138186897
 30
0.0
 10
13.03
 20
41.45311361597066
 30
0.0
  0
SPLINE
  5
1DD
330
1F
100
AcDbEntity
  8
1
  6
SLD-Solid
370
    25
100
AcDbSpline
210
0.0
220
0.0
230
1.0
 70
     8
 71
     3
 72
     8
 73
     4
 74
     0
 42
0.000000001
 43
0.00000001
 40
0.0
 40
0.0
 40
0.0
 40
0.0
 40
1.0
 40
1.0
 40
1.0
 40
1.0
 10
13.02999999999999
 20
44.57901066343647
 30
0.0
 10
13.44364613314278
 20
45.32508460154332
 30
0.0
 10
13.85791150908243
 20
46.07082082932958
 30
0.0
 10
14.27271061994659
 20
46.81625358782995
 30
0.0
  0
SPLINE
  5
1DE
330
1F
100
AcDbEntity
  8
1
  6
SLD-Solid
370
    25
100
AcDbSpline
210
0.0
220
0.0
230
1.0
 70
     8
 71
     3
 72
     8
 73
     4
 74
     0
 42
0.000000001
 43
0.00000001
 40
0.0
 40
0.0
 40
0.0
 40
0.0
 40
0.0008790679015123
 40
0.0008790679015123
 40
0.0008790679015123
 40
0.0008790679015123
 10
14.63972339340268
 20
47.29681459776456
 30
0.0
 10
14.51700841932647
 20
47.13673210499614
 30
0.0
 10
14.3946651361474
 20
46.97654627942757
 30
0.0
 10
14.27271061994659
 20
46.81625358782995
 30
0.0
  0
SPLINE
  5
1DF
330
1F
100
AcDbEntity
  8
1
  6
SLD-Solid
370
    25
100
AcDbSpline
210
0.0
220
0.0
230
1.0
 70
     8
 71
     3
 72
     8
 73
     4
 74
     0
 42
0.000000001
 43
0.00000001
 40
0.0
 40
0.0
 40
0.0
 40
0.0
 40
1.0
 40
1.0
 40
1.0
 40
1.0
 10
13.02999999999999
 20
-44.57901066343648
 30
0.0
 10
13.56559195163211
 20
-45.54503249842018
 30
0.0
 10
14.10222500453559
 20
-46.5104965471081
 30
0.0
 10
14.63972339340268
 20
-47.47548419974251
 30
0.0
  0
SPLINE
  5
1E0
330
1F
100
AcDbEntity
  8
1
  6
SLD-Solid
370
    25
100
AcDbSpline
210
0.0
220
0.0
230
1.0
 70
     8
 71
     3
 72
    14
 73
    10
 74
     0
 42
0.000000001
 43
0.00000001
 40
0.0
 40
0.0
 40
0.0
 40
0.0
 40
0.25
 40
0.25
 40
0.5
 40
0.5
 40
0.75
 40
0.75
 40
1.0
 40
1.0
 40
1.0
 40
1.0
 10
13.03
 20
35.43161038841291
 30
0.0
 10
13.05904068229164
 20
35.41088512733869
 30
0.0
 10
13.08275209483378
 20
35.37953864703776
 30
0.0
 10
13.11609658322839
 20
35.28872072742522
 30
0.0
 10
13.12492140067852
 20
35.23076880196018
 30
0.0
 10
13.12507754968095
 20
35.08956907537858
 30
0.0
 10
13.1161505320929
 20
35.00648906177567
 30
0.0
 10
13.0831956252166
 20
34.82779421025369
 30
0.0
 10
13.0591101994969
 20
34.73111937885586
 30
0.0
 10
13.02999999999999
 20
34.63242923389114
 30
0.0
  0
SPLINE
  5
1E1
330
1F
100
AcDbEntity
  8
1
  6
SLD-Solid
370
    25
100
AcDbSpline
210
0.0
220
0.0
230
1.0
 70
     8
 71
     3
 72
    12
 73
     8
 74
     0
 42
0.000000001
 43
0.00000001
 40
0.0
 40
0.0
 40
0.0
 40
0.0
 40
0.2500000000000032
 40
0.2500000000000032
 40
0.5000000000000063
 40
0.5000000000000063
 40
1.0
 40
1.0
 40
1.0
 40
1.0
 10
12.28000000000001
 20
-43.76943596849289
 30
0.0
 10
12.37996960464109
 20
-43.76943596849289
 30
0.0
 10
12.47988502523369
 20
-43.79051518316405
 30
0.0
 10
12.66449294223869
 20
-43.8719426284369
 30
0.0
 10
12.74728498815325
 20
-43.93126060501208
 30
0.0
 10
12.95342033959715
 20
-44.15080408372864
 30
0.0
 10
13.03
 20
-44.35163254795799
 30
0.0
 10
13.03
 20
-44.55102159322501
 30
0.0
  0
SPLINE
  5
1E2
330
1F
100
AcDbEntity
  8
1
  6
SLD-Solid
370
    25
100
AcDbSpline
210
0.0
220
0.0
230
1.0
 70
     8
 71
     3
 72
    16
 73
    12
 74
     0
 42
0.000000001
 43
0.00000001
 40
0.0
 40
0.0
 40
0.0
 40
0.0
 40
0.1250000000000001
 40
0.1250000000000001
 40
0.2500000000000003
 40
0.2500000000000003
 40
0.5000000000000002
 40
0.5000000000000002
 40
0.7500000000000001
 40
0.7500000000000001
 40
1.0
 40
1.0
 40
1.0
 40
1.0
 10
13.03
 20
34.61214293353756
 30
0.0
 10
13.03000000000001
 20
34.56119277402757
 30
0.0
 10
13.02067456260611
 20
34.49413963137992
 30
0.0
 10
12.99367590047851
 20
34.363313381422
 30
0.0
 10
12.97626449755333
 20
34.29908556562462
 30
0.0
 10
12.91545405813532
 20
34.11096290842622
 30
0.0
 10
12.86271449633858
 20
33.99023971150842
 30
0.0
 10
12.73634152951908
 20
33.76817627154972
 30
0.0
 10
12.66098841639739
 20
33.66394234496747
 30
0.0
 10
12.48671204537782
 20
33.48358218869542
 30
0.0
 10
12.38972674335427
 20
33.40848998465462
 30
0.0
 10
12.28000000000001
 20
33.35547071674116
 30
0.0
  0
SPLINE
  5
1E3
330
1F
100
AcDbEntity
  8
1
  6
SLD-Solid
370
    25
100
AcDbSpline
210
0.0
220
0.0
230
1.0
 70
     8
 71
     3
 72
    12
 73
     8
 74
     0
 42
0.000000001
 43
0.00000001
 40
0.0
 40
0.0
 40
0.0
 40
0.0
 40
0.5
 40
0.5
 40
0.75
 40
0.75
 40
1.0
 40
1.0
 40
1.0
 40
1.0
 10
9.199999999999985
 20
-44.551021593225
 30
0.0
 10
9.199999999999985
 20
-44.35094747116168
 30
0.0
 10
9.277613070150126
 20
-44.14958800989077
 30
0.0
 10
9.482511037300565
 20
-43.93153570225752
 30
0.0
 10
9.566272299852297
 20
-43.8716260625976
 30
0.0
 10
9.749092094904377
 20
-43.79094541821727
 30
0.0
 10
9.849426682175643
 20
-43.76943596849291
 30
0.0
 10
9.949999999999987
 20
-43.7694359684929
 30
0.0
  0
SPLINE
  5
1E4
330
1F
100
AcDbEntity
  8
1
  6
SLD-Solid
370
    25
100
AcDbSpline
210
0.0
220
0.0
230
1.0
 70
     8
 71
     3
 72
    16
 73
    12
 74
     0
 42
0.000000001
 43
0.00000001
 40
0.0
 40
0.0
 40
0.0
 40
0.0
 40
0.2499999999999967
 40
0.2499999999999967
 40
0.4999999999999934
 40
0.4999999999999934
 40
0.7499999999999902
 40
0.7499999999999902
 40
0.8749999999999951
 40
0.8749999999999951
 40
1.0
 40
1.0
 40
1.0
 40
1.0
 10
9.949999999999987
 20
33.36525953046024
 30
0.0
 10
9.839257595210649
 20
33.42015914282663
 30
0.0
 10
9.740416734001458
 20
33.49854219709403
 30
0.0
 10
9.564708009184075
 20
33.68553569890508
 30
0.0
 10
9.490830483266114
 20
33.79082769792042
 30
0.0
 10
9.364658348120017
 20
34.01955880125701
 30
0.0
 10
9.312951425518134
 20
34.14247439570437
 30
0.0
 10
9.253206550793827
 20
34.33488461785981
 30
0.0
 10
9.236028623043957
 20
34.4012196258066
 30
0.0
 10
9.209723703057032
 20
34.53368853253288
 30
0.0
 10
9.2
 20
34.60516910831216
 30
0.0
 10
9.2
 20
34.65640299543514
 30
0.0
  0
SPLINE
  5
1E5
330
1F
100
AcDbEntity
  8
1
  6
SLD-Solid
370
    25
100
AcDbSpline
210
0.0
220
0.0
230
1.0
 70
     8
 71
     3
 72
    12
 73
     8
 74
     0
 42
0.000000001
 43
0.00000001
 40
0.0
 40
0.0
 40
0.0
 40
0.0
 40
0.2500000000000006
 40
0.2500000000000006
 40
0.5000000000000011
 40
0.5000000000000011
 40
1.0
 40
1.0
 40
1.0
 40
1.0
 10
12.28000000000001
 20
33.35547071674116
 30
0.0
 10
12.10934456477526
 20
33.27301109054178
 30
0.0
 10
11.92465326465505
 20
33.21019284332252
 30
0.0
 10
11.52752277837883
 20
33.12414278909399
 30
0.0
 10
11.32193513118783
 20
33.10278110396341
 30
0.0
 10
10.69948105299426
 20
33.10504385732294
 30
0.0
 10
10.28831449591981
 20
33.19754297491611
 30
0.0
 10
9.949999999999987
 20
33.36525953046024
 30
0.0
  0
SPLINE
  5
1E6
330
1F
100
AcDbEntity
  8
1
  6
SLD-Solid
370
    25
100
AcDbSpline
210
0.0
220
0.0
230
1.0
 70
     8
 71
     3
 72
    16
 73
    12
 74
     0
 42
0.000000001
 43
0.00000001
 40
0.0
 40
0.0
 40
0.0
 40
0.0
 40
0.125
 40
0.125
 40
0.25
 40
0.25
 40
0.5
 40
0.5
 40
0.75
 40
0.75
 40
1.0
 40
1.0
 40
1.0
 40
1.0
 10
9.200000000002262
 20
35.36831017813518
 30
0.0
 10
9.200000000004774
 20
35.31693147873784
 30
0.0
 10
9.209688078863534
 20
35.29149399688277
 30
0.0
 10
9.236073415536922
 20
35.2651848678685
 30
0.0
 10
9.253070624742746
 20
35.26193032552565
 30
0.0
 10
9.313034815215602
 20
35.26168910608484
 30
0.0
 10
9.363922455828094
 20
35.27477154515269
 30
0.0
 10
9.490054525550185
 20
35.31156519648559
 30
0.0
 10
9.565092430043192
 20
35.33621653960018
 30
0.0
 10
9.738924647268888
 20
35.39932894997543
 30
0.0
 10
9.83944594635186
 20
35.43834692831698
 30
0.0
 10
9.949999999999987
 20
35.48885481142475
 30
0.0
  0
SPLINE
  5
1E7
330
1F
100
AcDbEntity
  8
1
  6
SLD-Solid
370
    25
100
AcDbSpline
210
0.0
220
0.0
230
1.0
 70
     8
 71
     3
 72
    12
 73
     8
 74
     0
 42
0.000000001
 43
0.00000001
 40
0.0
 40
0.0
 40
0.0
 40
0.0
 40
0.25
 40
0.25
 40
0.5
 40
0.5
 40
1.0
 40
1.0
 40
1.0
 40
1.0
 10
9.949999999999987
 20
35.48885481142475
 30
0.0
 10
10.11915676939237
 20
35.56613601508454
 30
0.0
 10
10.30270770519946
 20
35.62476545355776
 30
0.0
 10
10.6982656039511
 20
35.70597605697657
 30
0.0
 10
10.90345647830329
 20
35.72681273192288
 30
0.0
 10
11.52590240230555
 20
35.72953904175432
 30
0.0
 10
11.93868796900774
 20
35.64974792445472
 30
0.0
 10
12.28000000000001
 20
35.49787263615901
 30
0.0
  0
SPLINE
  5
1E8
330
1F
100
AcDbEntity
  8
1
  6
SLD-Solid
370
    25
100
AcDbSpline
210
0.0
220
0.0
230
1.0
 70
     8
 71
     3
 72
    16
 73
    12
 74
     0
 42
0.000000001
 43
0.00000001
 40
0.0
 40
0.0
 40
0.0
 40
0.0
 40
0.2499999999999999
 40
0.2499999999999999
 40
0.4999999999999998
 40
0.4999999999999998
 40
0.7499999999999997
 40
0.7499999999999997
 40
0.8749999999999998
 40
0.8749999999999998
 40
1.0
 40
1.0
 40
1.0
 40
1.0
 10
12.28000000000001
 20
35.49787263615901
 30
0.0
 10
12.38938127142807
 20
35.44920071538321
 30
0.0
 10
12.48719790588469
 20
35.41256913935561
 30
0.0
 10
12.66235653858859
 20
35.35237067244714
 30
0.0
 10
12.73630362704299
 20
35.33005450148764
 30
0.0
 10
12.86322577731737
 20
35.29810085202678
 30
0.0
 10
12.91570572130093
 20
35.28773767542295
 30
0.0
 10
12.97658934509431
 20
35.29443860847594
 30
0.0
 10
12.99409980251967
 20
35.30029296727562
 30
0.0
 10
13.02084597296049
 20
35.33271449864375
 30
0.0
 10
13.03
 20
35.36068432142831
 30
0.0
 10
13.03
 20
35.41132408805679
 30
0.0
  0
SPLINE
  5
1E9
330
1F
100
AcDbEntity
  8
1
  6
SLD-Solid
370
    25
100
AcDbSpline
210
0.0
220
0.0
230
1.0
 70
     8
 71
     3
 72
    16
 73
    12
 74
     0
 42
0.000000001
 43
0.00000001
 40
0.0
 40
0.0
 40
0.0
 40
0.0
 40
0.2499999999999998
 40
0.2499999999999998
 40
0.4999999999999996
 40
0.4999999999999996
 40
0.7499999999999993
 40
0.7499999999999993
 40
0.8749999999999997
 40
0.8749999999999997
 40
1.0
 40
1.0
 40
1.0
 40
1.0
 10
9.949999999999987
 20
40.2901760724921
 30
0.0
 10
9.839257595210663
 20
40.32798470963448
 30
0.0
 10
9.740416734001458
 20
40.39081531012378
 30
0.0
 10
9.564708009184075
 20
40.54795546550074
 30
0.0
 10
9.490830483266114
 20
40.63949231484413
 30
0.0
 10
9.364658348120017
 20
40.84247699029049
 30
0.0
 10
9.312951425518134
 20
40.9532688081071
 30
0.0
 10
9.253206550793827
 20
41.13218036853985
 30
0.0
 10
9.236028623043957
 20
41.19470581500532
 30
0.0
 10
9.209723703057032
 20
41.32469951294972
 30
0.0
 10
9.2
 20
41.39783900363279
 30
0.0
 10
9.2
 20
41.45885414630703
 30
0.0
  0
SPLINE
  5
1EA
330
1F
100
AcDbEntity
  8
1
  6
SLD-Solid
370
    25
100
AcDbSpline
210
0.0
220
0.0
230
1.0
 70
     8
 71
     3
 72
    16
 73
    12
 74
     0
 42
0.000000001
 43
0.00000001
 40
0.0
 40
0.0
 40
0.0
 40
0.0
 40
0.1250000000000039
 40
0.1250000000000039
 40
0.2500000000000078
 40
0.2500000000000078
 40
0.5000000000000051
 40
0.5000000000000051
 40
0.7500000000000026
 40
0.7500000000000026
 40
1.0
 40
1.0
 40
1.0
 40
1.0
 10
13.02999999999833
 20
41.42895438114485
 30
0.0
 10
13.02999999999835
 20
41.36827713359745
 30
0.0
 10
13.02067456260444
 20
41.29860125514492
 30
0.0
 10
12.99367590047684
 20
41.16856540733185
 30
0.0
 10
12.97626449755167
 20
41.10738101936695
 30
0.0
 10
12.91545405813366
 20
40.93079740642489
 30
0.0
 10
12.86271449633691
 20
40.82130212611718
 30
0.0
 10
12.73634152951741
 20
40.6232035604692
 30
0.0
 10
12.66098841639574
 20
40.53226162144243
 30
0.0
 10
12.48671204537616
 20
40.38027498384282
 30
0.0
 10
12.38972674335261
 20
40.31995671599527
 30
0.0
 10
12.27999999999835
 20
40.28343379132452
 30
0.0
  0
SPLINE
  5
1EB
330
1F
100
AcDbEntity
  8
1
  6
SLD-Solid
370
    25
100
AcDbSpline
210
0.0
220
0.0
230
1.0
 70
     8
 71
     3
 72
    12
 73
     8
 74
     0
 42
0.000000001
 43
0.00000001
 40
0.0
 40
0.0
 40
0.0
 40
0.0
 40
0.25
 40
0.25
 40
0.5
 40
0.5
 40
1.0
 40
1.0
 40
1.0
 40
1.0
 10
12.27999999999835
 20
40.28343379132452
 30
0.0
 10
12.1093445647736
 20
40.22663054158942
 30
0.0
 10
11.92465326465339
 20
40.18318651206278
 30
0.0
 10
11.52752277837718
 20
40.12362389225039
 30
0.0
 10
11.32193513118616
 20
40.10880147711192
 30
0.0
 10
10.69948105299261
 20
40.11037023230934
 30
0.0
 10
10.28831449592008
 20
40.17467189827311
 30
0.0
 10
9.949999999999987
 20
40.2901760724921
 30
0.0
  0
SPLINE
  5
1EC
330
1F
100
AcDbEntity
  8
1
  6
SLD-Solid
370
    25
100
AcDbSpline
210
0.0
220
0.0
230
1.0
 70
     8
 71
     3
 72
    16
 73
    12
 74
     0
 42
0.000000001
 43
0.00000001
 40
0.0
 40
0.0
 40
0.0
 40
0.0
 40
0.1250000000000007
 40
0.1250000000000007
 40
0.2500000000000013
 40
0.2500000000000013
 40
0.5000000000000009
 40
0.5000000000000009
 40
0.7500000000000004
 40
0.7500000000000004
 40
1.0
 40
1.0
 40
1.0
 40
1.0
 10
9.199999999999985
 20
41.93454239124897
 30
0.0
 10
9.200000000002499
 20
41.87335478963723
 30
0.0
 10
9.209688078861245
 20
41.83111047963454
 30
0.0
 10
9.236073415534632
 20
41.77192904688975
 30
0.0
 10
9.25307062474047
 20
41.75174455463431
 30
0.0
 10
9.313034815213324
 20
41.70102846576506
 30
0.0
 10
9.363922455825819
 20
41.68155707128334
 30
0.0
 10
9.490054525547908
 20
41.65587219504388
 30
0.0
 10
9.565092430040917
 20
41.6508843791884
 30
0.0
 10
9.738924647266611
 20
41.66113961911402
 30
0.0
 10
9.839445946349585
 20
41.67651281331742
 30
0.0
 10
9.949999999997711
 20
41.7091381742131
 30
0.0
  0
SPLINE
  5
1ED
330
1F
100
AcDbEntity
  8
1
  6
SLD-Solid
370
    25
100
AcDbSpline
210
0.0
220
0.0
230
1.0
 70
     8
 71
     3
 72
    12
 73
     8
 74
     0
 42
0.000000001
 43
0.00000001
 40
0.0
 40
0.0
 40
0.0
 40
0.0
 40
0.25
 40
0.25
 40
0.5
 40
0.5
 40
1.0
 40
1.0
 40
1.0
 40
1.0
 10
9.949999999997711
 20
41.7091381742131
 30
0.0
 10
10.11915676938996
 20
41.75905765221763
 30
0.0
 10
10.30270770519866
 20
41.79673649998864
 30
0.0
 10
10.69826560394989
 20
41.84886357628232
 30
0.0
 10
10.90345647830174
 20
41.86219397810196
 30
0.0
 10
11.52590240230299
 20
41.8639399469169
 30
0.0
 10
11.93868796900435
 20
41.81303425518009
 30
0.0
 10
12.27999999999607
 20
41.71496227396707
 30
0.0
  0
SPLINE
  5
1EE
330
1F
100
AcDbEntity
  8
1
  6
SLD-Solid
370
    25
100
AcDbSpline
210
0.0
220
0.0
230
1.0
 70
     8
 71
     3
 72
    16
 73
    12
 74
     0
 42
0.000000001
 43
0.00000001
 40
0.0
 40
0.0
 40
0.0
 40
0.0
 40
0.2500000000000007
 40
0.2500000000000007
 40
0.5000000000000013
 40
0.5000000000000013
 40
0.750000000000002
 40
0.750000000000002
 40
0.875000000000001
 40
0.875000000000001
 40
1.0
 40
1.0
 40
1.0
 40
1.0
 10
12.27999999999607
 20
41.71496227396707
 30
0.0
 10
12.38938127142412
 20
41.68353285741419
 30
0.0
 10
12.48719790588075
 20
41.66923447164883
 30
0.0
 10
12.66235653858465
 20
41.66075308180612
 30
0.0
 10
12.73630362703905
 20
41.66679667497377
 30
0.0
 10
12.86322577731343
 20
41.69542238628982
 30
0.0
 10
12.91570572129699
 20
41.71723646207177
 30
0.0
 10
12.97658934509038
 20
41.77277628648039
 30
0.0
 10
12.99409980251574
 20
41.79517110958684
 30
0.0
 10
13.02084597295655
 20
41.85934368895603
 30
0.0
 10
13.02999999999606
 20
41.90265050045378
 30
0.0
 10
13.02999999999606
 20
41.96295809683838
 30
0.0
  0
SPLINE
  5
1EF
330
1F
100
AcDbEntity
  8
1
  6
SLD-Solid
370
    25
100
AcDbSpline
210
0.0
220
0.0
230
1.0
 70
     8
 71
     3
 72
    12
 73
     8
 74
     0
 42
0.000000001
 43
0.00000001
 40
0.0
 40
0.0
 40
0.0
 40
0.0
 40
0.5
 40
0.5
 40
0.75
 40
0.75
 40
1.0
 40
1.0
 40
1.0
 40
1.0
 10
9.199999999999985
 20
44.55102159322499
 30
0.0
 10
9.199999999999985
 20
44.35104831812288
 30
0.0
 10
9.27600396681734
 20
44.15150826736531
 30
0.0
 10
9.4827590401535
 20
43.93116827137958
 30
0.0
 10
9.566857937314932
 20
43.87128621650869
 30
0.0
 10
9.74951124726116
 20
43.7908422871647
 30
0.0
 10
9.8501562428705
 20
43.76943596849255
 30
0.0
 10
9.950000000002401
 20
43.76943596849289
 30
0.0
  0
SPLINE
  5
1F0
330
1F
100
AcDbEntity
  8
1
  6
SLD-Solid
370
    25
100
AcDbSpline
210
0.0
220
0.0
230
1.0
 70
     8
 71
     3
 72
    10
 73
     6
 74
     0
 42
0.000000001
 43
0.00000001
 40
0.0
 40
0.0
 40
0.0
 40
0.0
 40
0.5
 40
0.5
 40
1.0
 40
1.0
 40
1.0
 40
1.0
 10
12.28000000000001
 20
43.76943596849289
 30
0.0
 10
12.48122846377883
 20
43.76943596849291
 30
0.0
 10
12.67900932610888
 20
43.85856672856716
 30
0.0
 10
12.95290221427664
 20
44.1502294699326
 30
0.0
 10
13.03
 20
44.34957328976746
 30
0.0
 10
13.03
 20
44.55102159322499
 30
0.0
  0
SPLINE
  5
1F1
330
1F
100
AcDbEntity
  8
SK3
  6
SLD-Dashed
370
    18
100
AcDbSpline
210
0.0
220
0.0
230
1.0
 70
     8
 71
     3
 72
    30
 73
    26
 74
     0
 42
0.000000001
 43
0.00000001
 40
0.4999999999999934
 40
0.4999999999999934
 40
0.4999999999999934
 40
0.4999999999999934
 40
0.5624999999999941
 40
0.5624999999999941
 40
0.6249999999999949
 40
0.6249999999999949
 40
0.6874999999999956
 40
0.6874999999999956
 40
0.7499999999999962
 40
0.7499999999999962
 40
0.7812499999999968
 40
0.7812499999999968
 40
0.8124999999999972
 40
0.8124999999999972
 40
0.8437499999999977
 40
0.8437499999999977
 40
0.8749999999999981
 40
0.8749999999999981
 40
0.9062499999999986
 40
0.9062499999999986
 40
0.9374999999999991
 40
0.9374999999999991
 40
0.9687499999999996
 40
0.9687499999999996
 40
1.0
 40
1.0
 40
1.0
 40
1.0
 10
9.602846279599758
 20
-14.27915034605704
 30
0.0
 10
9.68645653869378
 20
-14.42125418637641
 30
0.0
 10
9.797407143447817
 20
-14.51131733768216
 30
0.0
 10
10.04010223607203
 20
-14.63242374926582
 30
0.0
 10
10.1757110634753
 20
-14.66434400040093
 30
0.0
 10
10.46843928875954
 20
-14.6878509066433
 30
0.0
 10
10.62555865364896
 20
-14.68003033606002
 30
0.0
 10
10.98145473780837
 20
-14.62436653420487
 30
0.0
 10
11.18157682258664
 20
-14.57632221838472
 30
0.0
 10
11.50801002825756
 20
-14.4586089343655
 30
0.0
 10
11.61873162334194
 20
-14.41242944660508
 30
0.0
 10
11.84220113938106
 20
-14.30063256215536
 30
0.0
 10
11.95412269444689
 20
-14.23490090158665
 30
0.0
 10
12.16107863552153
 20
-14.08747705033184
 30
0.0
 10
12.25901625186734
 20
-14.00366784802363
 30
0.0
 10
12.43052677631516
 20
-13.82249974419394
 30
0.0
 10
12.50593330594163
 20
-13.72350506925876
 30
0.0
 10
12.63000303324958
 20
-13.51367430078406
 30
0.0
 10
12.67841410243614
 20
-13.40398486856761
 30
0.0
 10
12.74789370637347
 20
-13.17359881812364
 30
0.0
 10
12.76810124630629
 20
-13.05468203931826
 30
0.0
 10
12.77891027826543
 20
-12.81644825424547
 30
0.0
 10
12.76940813581851
 20
-12.69449512908379
 30
0.0
 10
12.72129905847914
 20
-12.4581725963389
 30
0.0
 10
12.68301625646431
 20
-12.34304803310331
 30
0.0
 10
12.63040931107566
 20
-12.2323343638947
 30
0.0
  0
SPLINE
  5
1F2
330
1F
100
AcDbEntity
  8
SK3
  6
SLD-Dashed
370
    18
100
AcDbSpline
210
0.0
220
0.0
230
1.0
 70
     8
 71
     3
 72
    30
 73
    26
 74
     0
 42
0.000000001
 43
0.00000001
 40
0.0
 40
0.0
 40
0.0
 40
0.0
 40
0.0312499999999991
 40
0.0312499999999991
 40
0.0624999999999983
 40
0.0624999999999983
 40
0.0937499999999974
 40
0.0937499999999974
 40
0.1249999999999965
 40
0.1249999999999965
 40
0.187499999999996
 40
0.187499999999996
 40
0.2499999999999955
 40
0.2499999999999955
 40
0.312499999999995
 40
0.312499999999995
 40
0.3749999999999944
 40
0.3749999999999944
 40
0.4062499999999942
 40
0.4062499999999942
 40
0.4374999999999939
 40
0.4374999999999939
 40
0.4687499999999937
 40
0.4687499999999937
 40
0.4999999999999934
 40
0.4999999999999934
 40
0.4999999999999934
 40
0.4999999999999934
 10
12.63040931107569
 20
-12.23233436389469
 30
0.0
 10
12.57780236568703
 20
-12.12162069468611
 30
0.0
 10
12.5126720645931
 20
-12.01896209858504
 30
0.0
 10
12.35821503903349
 20
-11.83123217673027
 30
0.0
 10
12.2680065585952
 20
-11.74609765066666
 30
0.0
 10
12.07343499093627
 20
-11.60605794329097
 30
0.0
 10
11.96643370486067
 20
-11.5492012180452
 30
0.0
 10
11.74573264298214
 20
-11.4698171939369
 30
0.0
 10
11.6340655249776
 20
-11.44748668283022
 30
0.0
 10
11.29951801742689
 20
-11.42770686560522
 30
0.0
 10
11.09198428069952
 20
-11.47806879673262
 30
0.0
 10
10.7221784409165
 20
-11.64236243808864
 30
0.0
 10
10.55844908096595
 20
-11.75496051093636
 30
0.0
 10
10.25324958882709
 20
-12.02428585488716
 30
0.0
 10
10.11576882260312
 20
-12.17795893248198
 30
0.0
 10
9.86252561936532
 20
-12.52988094775973
 30
0.0
 10
9.74626089640203
 20
-12.72918710194007
 30
0.0
 10
9.605692660850485
 20
-13.06645756895028
 30
0.0
 10
9.565421636406112
 20
-13.18319961587417
 30
0.0
 10
9.503286004234626
 20
-13.4293677611186
 30
0.0
 10
9.482363995141311
 20
-13.55752069830021
 30
0.0
 10
9.470908412243725
 20
-13.80546799718779
 30
0.0
 10
9.480664817462667
 20
-13.92083957613647
 30
0.0
 10
9.525951505689648
 20
-14.1223947507326
 30
0.0
 10
9.561041150052754
 20
-14.20809842589734
 30
0.0
 10
9.602846279599758
 20
-14.27915034605704
 30
0.0
  0
SPLINE
  5
1F3
330
1F
100
AcDbEntity
  8
SK3
  6
SLD-Dashed
370
    18
100
AcDbSpline
210
0.0
220
0.0
230
1.0
 70
     8
 71
     3
 72
    26
 73
    22
 74
     0
 42
0.000000001
 43
0.00000001
 40
0.5000000000000062
 40
0.5000000000000062
 40
0.5000000000000062
 40
0.5000000000000062
 40
0.5625000000000058
 40
0.5625000000000058
 40
0.6250000000000051
 40
0.6250000000000051
 40
0.6562500000000046
 40
0.6562500000000046
 40
0.687500000000004
 40
0.687500000000004
 40
0.7187500000000034
 40
0.7187500000000034
 40
0.7500000000000029
 40
0.7500000000000029
 40
0.8125000000000022
 40
0.8125000000000022
 40
0.8750000000000014
 40
0.8750000000000014
 40
0.9375000000000008
 40
0.9375000000000008
 40
1.0
 40
1.0
 40
1.0
 40
1.0
 10
11.6386983177957
 20
-9.819390371339235
 30
0.0
 10
11.80317915771348
 20
-9.806594466981586
 30
0.0
 10
11.95081782962319
 20
-9.812432081454693
 30
0.0
 10
12.22616299685252
 20
-9.868839301598992
 30
0.0
 10
12.35236515469922
 20
-9.918953620877934
 30
0.0
 10
12.5187466142634
 20
-10.04837289060637
 30
0.0
 10
12.57051953396256
 20
-10.10115000339699
 30
0.0
 10
12.66070184098386
 20
-10.23071744026808
 30
0.0
 10
12.70001796005849
 20
-10.30921538460778
 30
0.0
 10
12.7562433913955
 20
-10.4949325806605
 30
0.0
 10
12.7732316530057
 20
-10.60488156995158
 30
0.0
 10
12.7764946288975
 20
-10.84110300053568
 30
0.0
 10
12.76278670669288
 20
-10.96977043023329
 30
0.0
 10
12.68516730486993
 20
-11.34647137591012
 30
0.0
 10
12.58996305158962
 20
-11.58088814423496
 30
0.0
 10
12.3731560345373
 20
-11.98947715399205
 30
0.0
 10
12.24747178673946
 20
-12.17132846963892
 30
0.0
 10
11.97676737519451
 20
-12.4898134904303
 30
0.0
 10
11.8310268635477
 20
-12.62828009284685
 30
0.0
 10
11.50508373269932
 20
-12.8627635157944
 30
0.0
 10
11.32747339457477
 20
-12.95749122616766
 30
0.0
 10
11.125
 20
-13.01159523973385
 30
0.0
  0
SPLINE
  5
1F4
330
1F
100
AcDbEntity
  8
SK3
  6
SLD-Dashed
370
    18
100
AcDbSpline
210
0.0
220
0.0
230
1.0
 70
     8
 71
     3
 72
    34
 73
    30
 74
     0
 42
0.000000001
 43
0.00000001
 40
0.0
 40
0.0
 40
0.0
 40
0.0
 40
0.0312500000000005
 40
0.0312500000000005
 40
0.0625000000000011
 40
0.0625000000000011
 40
0.0937500000000016
 40
0.0937500000000016
 40
0.1250000000000022
 40
0.1250000000000022
 40
0.1562500000000027
 40
0.1562500000000027
 40
0.1875000000000032
 40
0.1875000000000032
 40
0.2187500000000038
 40
0.2187500000000038
 40
0.2500000000000043
 40
0.2500000000000043
 40
0.2812500000000049
 40
0.2812500000000049
 40
0.3125000000000054
 40
0.3125000000000054
 40
0.3750000000000063
 40
0.3750000000000063
 40
0.4062500000000066
 40
0.4062500000000066
 40
0.4375000000000068
 40
0.4375000000000068
 40
0.5000000000000062
 40
0.5000000000000062
 40
0.5000000000000062
 40
0.5000000000000062
 10
11.125
 20
-13.01159523973386
 30
0.0
 10
11.02376330271263
 20
-13.03864724651695
 30
0.0
 10
10.91875434041334
 20
-13.05441768585464
 30
0.0
 10
10.6998219372948
 20
-13.05649587060872
 30
0.0
 10
10.58565504429784
 20
-13.04203538439392
 30
0.0
 10
10.36433306908852
 20
-12.97958779527628
 30
0.0
 10
10.25386240054307
 20
-12.93066318687883
 30
0.0
 10
10.04998753866614
 20
-12.80335962284303
 30
0.0
 10
9.955887873021
 20
-12.72514830576758
 30
0.0
 10
9.789076352163569
 20
-12.54575166602605
 30
0.0
 10
9.71802220267208
 20
-12.44674722204856
 30
0.0
 10
9.600536001433193
 20
-12.23250861951093
 30
0.0
 10
9.555159683901222
 20
-12.11851015366412
 30
0.0
 10
9.49353895391432
 20
-11.88585378314763
 30
0.0
 10
9.476799814585963
 20
-11.76451266100636
 30
0.0
 10
9.473480888754688
 20
-11.52533259241783
 30
0.0
 10
9.486354225371821
 20
-11.40705029377198
 30
0.0
 10
9.541906609790443
 20
-11.17282024047877
 30
0.0
 10
9.5839391259038
 20
-11.06025657731945
 30
0.0
 10
9.694361385739578
 20
-10.846257319463
 30
0.0
 10
9.764046986917352
 20
-10.74326010657128
 30
0.0
 10
10.00399120049175
 20
-10.46156575413967
 30
0.0
 10
10.21277179464264
 20
-10.30327029353936
 30
0.0
 10
10.54446991129009
 20
-10.12219171688679
 30
0.0
 10
10.65925898590057
 20
-10.07012567259635
 30
0.0
 10
10.87934718809658
 20
-9.984066675225883
 30
0.0
 10
10.98764418607852
 20
-9.948726825148164
 30
0.0
 10
11.29210738731386
 20
-9.863765363482678
 30
0.0
 10
11.47421747787791
 20
-9.832186275696882
 30
0.0
 10
11.6386983177957
 20
-9.819390371339235
 30
0.0
  0
SPLINE
  5
1F5
330
1F
100
AcDbEntity
  8
1
  6
SLD-Dashed
370
    18
100
AcDbSpline
210
0.0
220
0.0
230
1.0
 70
    24
 71
     3
 72
    10
 73
     6
 74
     0
 42
0.000000001
 43
0.00000001
 40
0.0
 40
0.0
 40
0.0
 40
0.0
 40
0.0601389328041062
 40
0.8870237514629138
 40
1.0
 40
1.0
 40
1.0
 40
1.0
 10
19.04999999999998
 20
-35.10000000000001
 30
0.0
 10
19.050210902819
 20
-35.10000000000001
 30
0.0
 10
19.05332162994602
 20
-35.1
 30
0.0
 10
19.16192430159278
 20
-35.09999999999999
 30
0.0
 10
19.20875609416212
 20
-35.10000000000002
 30
0.0
 10
19.21438552219293
 20
-35.10000000000001
 30
0.0
  0
SPLINE
  5
1F6
330
1F
100
AcDbEntity
  8
1
  6
SLD-Dashed
370
    18
100
AcDbSpline
210
0.0
220
0.0
230
1.0
 70
    24
 71
     3
 72
     8
 73
     4
 74
     0
 42
0.000000001
 43
0.00000001
 40
0.0
 40
0.0
 40
0.0
 40
0.0
 40
0.5
 40
0.5
 40
0.5
 40
0.5
 10
19.32612114219315
 20
-35.09999999999999
 30
0.0
 10
19.32611607042292
 20
-35.09999999999999
 30
0.0
 10
19.2586735293809
 20
-35.10000000000001
 30
0.0
 10
19.18940251793086
 20
-35.10000000000001
 30
0.0
  0
SPLINE
  5
1F7
330
1F
100
AcDbEntity
  8
1
  6
SLD-Dashed
370
    18
100
AcDbSpline
210
0.0
220
0.0
230
1.0
 70
    24
 71
     2
 72
     6
 73
     3
 74
     0
 42
0.000000001
 43
0.00000001
 40
0.5
 40
0.5
 40
0.5
 40
1.0
 40
1.0
 40
1.0
 10
19.18940251793086
 20
-35.10000000000001
 30
0.0
 10
19.12012980456756
 20
-35.1
 30
0.0
 10
19.04999999999998
 20
-35.10000000000001
 30
0.0
  0
SPLINE
  5
1F8
330
1F
100
AcDbEntity
  8
1
  6
SLD-Dashed
370
    18
100
AcDbSpline
210
0.0
220
0.0
230
1.0
 70
    24
 71
     2
 72
     6
 73
     3
 74
     0
 42
0.000000001
 43
0.00000001
 40
0.0
 40
0.0
 40
0.0
 40
0.25
 40
0.25
 40
0.25
 10
3.200000000005865
 20
-35.0999999999857
 30
0.0
 10
3.178023089480419
 20
-35.09999999998994
 30
0.0
 10
3.159393676864672
 20
-35.09999999999354
 30
0.0
  0
SPLINE
  5
1F9
330
1F
100
AcDbEntity
  8
1
  6
SLD-Dashed
370
    18
100
AcDbSpline
210
0.0
220
0.0
230
1.0
 70
    24
 71
     3
 72
     8
 73
     4
 74
     0
 42
0.000000001
 43
0.00000001
 40
0.25
 40
0.25
 40
0.25
 40
0.25
 40
0.5
 40
0.5
 40
0.5
 40
0.5
 10
3.159393676864672
 20
-35.09999999999354
 30
0.0
 10
3.140764264251625
 20
-35.09999999999713
 30
0.0
 10
3.125935313376446
 20
-35.10000000000001
 30
0.0
 10
3.125925297481347
 20
-35.10000000000001
 30
0.0
  0
SPLINE
  5
1FA
330
1F
100
AcDbEntity
  8
1
  6
SLD-Dashed
370
    18
100
AcDbSpline
210
0.0
220
0.0
230
1.0
 70
    24
 71
     3
 72
     8
 73
     4
 74
     0
 42
0.000000001
 43
0.00000001
 40
0.5
 40
0.5
 40
0.5
 40
0.5
 40
0.75
 40
0.75
 40
0.75
 40
0.75
 10
3.125925297481347
 20
-35.10000000000001
 30
0.0
 10
3.125915281586261
 20
-35.10000000000001
 30
0.0
 10
3.140736475081146
 20
-35.09999999999715
 30
0.0
 10
3.159374026153516
 20
-35.09999999999354
 30
0.0
  0
SPLINE
  5
1FB
330
1F
100
AcDbEntity
  8
1
  6
SLD-Dashed
370
    18
100
AcDbSpline
210
0.0
220
0.0
230
1.0
 70
    24
 71
     2
 72
     6
 73
     3
 74
     0
 42
0.000000001
 43
0.00000001
 40
0.75
 40
0.75
 40
0.75
 40
1.0
 40
1.0
 40
1.0
 10
3.159374026153516
 20
-35.09999999999354
 30
0.0
 10
3.178011577228587
 20
-35.09999999998994
 30
0.0
 10
3.200000000005865
 20
-35.0999999999857
 30
0.0
  0
SPLINE
  5
1FC
330
1F
100
AcDbEntity
  8
SK3
  6
SLD-Dashed
370
    18
100
AcDbSpline
210
0.0
220
0.0
230
1.0
 70
     8
 71
     3
 72
    30
 73
    26
 74
     0
 42
0.000000001
 43
0.00000001
 40
0.4999999999999964
 40
0.4999999999999964
 40
0.4999999999999964
 40
0.4999999999999964
 40
0.5624999999999966
 40
0.5624999999999966
 40
0.6249999999999966
 40
0.6249999999999966
 40
0.6562499999999969
 40
0.6562499999999969
 40
0.6874999999999972
 40
0.6874999999999972
 40
0.7187499999999976
 40
0.7187499999999976
 40
0.7499999999999978
 40
0.7499999999999978
 40
0.7812499999999981
 40
0.7812499999999981
 40
0.8124999999999984
 40
0.8124999999999984
 40
0.8437499999999988
 40
0.8437499999999988
 40
0.8749999999999991
 40
0.8749999999999991
 40
0.9374999999999996
 40
0.9374999999999996
 40
1.0
 40
1.0
 40
1.0
 40
1.0
 10
11.1256340867126
 20
-2.208076131944327
 30
0.0
 10
10.91012831143848
 20
-2.207994055743373
 30
0.0
 10
10.69273190607926
 20
-2.250950739379309
 30
0.0
 10
10.29545710457801
 20
-2.413221511274807
 30
0.0
 10
10.11161887920198
 20
-2.533970605358114
 30
0.0
 10
9.88325685805247
 20
-2.756393500522307
 30
0.0
 10
9.813570300258576
 20
-2.838822643502555
 30
0.0
 10
9.693828420307693
 20
-3.012044829892147
 30
0.0
 10
9.643049505613192
 20
-3.103292515775117
 30
0.0
 10
9.559939885115263
 20
-3.294987142140778
 30
0.0
 10
9.528110569339109
 20
-3.394937637341195
 30
0.0
 10
9.485932078998172
 20
-3.595278526154787
 30
0.0
 10
9.47509331111486
 20
-3.696889173272898
 30
0.0
 10
9.474907881274767
 20
-3.901872321533134
 30
0.0
 10
9.48552400342549
 20
-4.00214903424629
 30
0.0
 10
9.527345716529704
 20
-4.19850671782998
 30
0.0
 10
9.559089732329287
 20
-4.295610098711385
 30
0.0
 10
9.641733638388356
 20
-4.47937067040146
 30
0.0
 10
9.692330936314525
 20
-4.566117382228348
 30
0.0
 10
9.811994061612566
 20
-4.72969567326164
 30
0.0
 10
9.881475262593517
 20
-4.806554854908287
 30
0.0
 10
10.10919445985289
 20
-5.01263959631603
 30
0.0
 10
10.29295795309711
 20
-5.122781885588346
 30
0.0
 10
10.68976853487481
 20
-5.27005508488778
 30
0.0
 10
10.90666257993485
 20
-5.309061659790635
 30
0.0
 10
11.12500000000001
 20
-5.309061659790642
 30
0.0
  0
SPLINE
  5
1FD
330
1F
100
AcDbEntity
  8
SK3
  6
SLD-Dashed
370
    18
100
AcDbSpline
210
0.0
220
0.0
230
1.0
 70
     8
 71
     3
 72
    34
 73
    30
 74
     0
 42
0.000000001
 43
0.00000001
 40
0.0
 40
0.0
 40
0.0
 40
0.0
 40
0.0312499999999999
 40
0.0312499999999999
 40
0.0624999999999997
 40
0.0624999999999997
 40
0.0937499999999996
 40
0.0937499999999996
 40
0.1249999999999995
 40
0.1249999999999995
 40
0.1874999999999987
 40
0.1874999999999987
 40
0.2499999999999979
 40
0.2499999999999979
 40
0.2812499999999977
 40
0.2812499999999977
 40
0.3124999999999975
 40
0.3124999999999975
 40
0.3437499999999973
 40
0.3437499999999973
 40
0.3749999999999972
 40
0.3749999999999972
 40
0.4062499999999969
 40
0.4062499999999969
 40
0.4374999999999968
 40
0.4374999999999968
 40
0.4687499999999966
 40
0.4687499999999966
 40
0.4999999999999964
 40
0.4999999999999964
 40
0.4999999999999964
 40
0.4999999999999964
 10
11.12500000000001
 20
-5.309061659790629
 30
0.0
 10
11.23416871003256
 20
-5.309061659790635
 30
0.0
 10
11.34148252556931
 20
-5.299537349621533
 30
0.0
 10
11.55256160023163
 20
-5.262182100287893
 30
0.0
 10
11.65743203047545
 20
-5.233886962156424
 30
0.0
 10
11.85717198594058
 20
-5.159939537795352
 30
0.0
 10
11.95188217044846
 20
-5.114630280030598
 30
0.0
 10
12.13112457505724
 20
-5.007215473783258
 30
0.0
 10
12.21587296426144
 20
-4.944611663283534
 30
0.0
 10
12.44381779984259
 20
-4.738598197540307
 30
0.0
 10
12.56670516675
 20
-4.571329361139999
 30
0.0
 10
12.73138667216637
 20
-4.206060482656718
 30
0.0
 10
12.77487792035797
 20
-4.004112810281388
 30
0.0
 10
12.77506064455625
 20
-3.700306253597588
 30
0.0
 10
12.76431481439132
 20
-3.596867972028024
 30
0.0
 10
12.72215926890359
 20
-3.395807648785818
 30
0.0
 10
12.69097028794157
 20
-3.297550131697913
 30
0.0
 10
12.60821939488964
 20
-3.105767645319023
 30
0.0
 10
12.55662183160311
 20
-3.012826865172895
 30
0.0
 10
12.43728120518575
 20
-2.839925186415175
 30
0.0
 10
12.36897548289651
 20
-2.758757585038269
 30
0.0
 10
12.21525208496078
 20
-2.608656191484413
 30
0.0
 10
12.13209058330412
 20
-2.541870610032928
 30
0.0
 10
11.95357507686053
 20
-2.424499981749685
 30
0.0
 10
11.85705358084933
 20
-2.373501415354265
 30
0.0
 10
11.65740944182679
 20
-2.291755408436409
 30
0.0
 10
11.55456819584581
 20
-2.260806334720922
 30
0.0
 10
11.34284591554824
 20
-2.218868681349205
 30
0.0
 10
11.23338697434964
 20
-2.208117170044807
 30
0.0
 10
11.1256340867126
 20
-2.208076131944327
 30
0.0
  0
SPLINE
  5
1FE
330
1F
100
AcDbEntity
  8
1
  6
SLD-Dashed
370
    18
100
AcDbSpline
210
0.0
220
0.0
230
1.0
 70
     8
 71
     3
 72
    39
 73
    35
 74
     0
 42
0.000000001
 43
0.00000001
 40
0.0
 40
0.0
 40
0.0
 40
0.0
 40
0.0249122956456668
 40
0.0628724022938431
 40
0.1015993006558948
 40
0.1265116102841192
 40
0.1644081502695628
 40
0.2029744188168863
 40
0.2289956799360139
 40
0.2685648078794881
 40
0.308832827453332
 40
0.3359802492155269
 40
0.3773524724100099
 40
0.3913514677364219
 40
0.4053505528773122
 40
0.4196451202169495
 40
0.4454833804530579
 40
0.4849061066018313
 40
0.5252242895773297
 40
0.5492650694728903
 40
0.5858578972870526
 40
0.6231284426585232
 40
0.6477213932293266
 40
0.6850973438854808
 40
0.7230890967199674
 40
0.7496215759313577
 40
0.7899881143263165
 40
0.8311059382851193
 40
0.8581142413917648
 40
0.8992966323440272
 40
0.9132383200678451
 40
0.9414157005295005
 40
0.9667789703591715
 40
1.0
 40
1.0
 40
1.0
 40
1.0
 10
63.67500000000004
 20
19.04999999999999
 30
0.0
 10
63.67981041663143
 20
19.04804142717195
 30
0.0
 10
63.6919507048632
 20
19.04309847929917
 30
0.0
 10
63.81250687298112
 20
18.99422814906107
 30
0.0
 10
64.02579114939422
 20
18.90953429569252
 30
0.0
 10
64.31798095862004
 20
18.79693712614345
 30
0.0
 10
64.6830328463722
 20
18.66100828382127
 30
0.0
 10
65.13630802532913
 20
18.50194129670406
 30
0.0
 10
65.66291369390149
 20
18.32922303964205
 30
0.0
 10
66.26276439753818
 20
18.14746489041962
 30
0.0
 10
66.9405023485248
 20
17.96682109155979
 30
0.0
 10
67.6831457072157
 20
17.79537148146925
 30
0.0
 10
68.28487344673653
 20
17.67943754737102
 30
0.0
 10
68.81064361675438
 20
17.59662596018798
 30
0.0
 10
69.13699557415717
 20
17.55104683758146
 30
0.0
 10
69.5613018123851
 20
17.49963558155123
 30
0.0
 10
70.19703906592476
 20
17.43956357123353
 30
0.0
 10
71.05941606000476
 20
17.39685650739291
 30
0.0
 10
71.9135362222685
 20
17.40306100876665
 30
0.0
 10
72.7354288434845
 20
17.44632697721798
 30
0.0
 10
73.51885737304151
 20
17.52066795189983
 30
0.0
 10
74.2775412067907
 20
17.63004502602306
 30
0.0
 10
75.00872229970415
 20
17.76331745949191
 30
0.0
 10
75.70743825325141
 20
17.9163978489031
 30
0.0
 10
76.3641742538061
 20
18.08665145397443
 30
0.0
 10
76.9846351667889
 20
18.26603405491523
 30
0.0
 10
77.56059890577713
 20
18.44932106684599
 30
0.0
 10
78.05334160646967
 20
18.6205377645368
 30
0.0
 10
78.47036973781779
 20
18.77335242519942
 30
0.0
 10
78.72109864535787
 20
18.86955925666243
 30
0.0
 10
78.92008395389006
 20
18.94756896897379
 30
0.0
 10
79.04503691717821
 20
18.99738809403014
 30
0.0
 10
79.15379356746885
 20
19.04134797096995
 30
0.0
 10
79.16281296267644
 20
19.04503674947145
 30
0.0
 10
79.16792753429792
 20
19.04712852185835
 30
0.0
  0
SPLINE
  5
1FF
330
1F
100
AcDbEntity
  8
SK3
  6
SLD-Dashed
370
    18
100
AcDbSpline
210
0.0
220
0.0
230
1.0
 70
     8
 71
     3
 72
    18
 73
    14
 74
     0
 42
0.000000001
 43
0.00000001
 40
0.0
 40
0.0
 40
0.0
 40
0.0
 40
0.0501962867734974
 40
0.1000306214437302
 40
0.1855667331187636
 40
0.250182389232072
 40
0.3747066158220824
 40
0.4998232982189783
 40
0.6247294758455333
 40
0.7494251058857277
 40
0.8746331028690638
 40
0.9372230808189287
 40
1.0
 40
1.0
 40
1.0
 40
1.0
 10
18.30000000000001
 20
46.81625358782995
 30
0.0
 10
18.30669951182798
 20
46.81609127853698
 30
0.0
 10
18.32005022708197
 20
46.81576783032028
 30
0.0
 10
18.34463922095195
 20
46.81256776526222
 30
0.0
 10
18.37067201462223
 20
46.80630579793129
 30
0.0
 10
18.40500150194893
 20
46.7933155554719
 30
0.0
 10
18.44173939749916
 20
46.77247000397298
 30
0.0
 10
18.47965549617259
 20
46.73942242416845
 30
0.0
 10
18.51041281949081
 20
46.69961163074883
 30
0.0
 10
18.5330663450593
 20
46.65468875110023
 30
0.0
 10
18.54452340204196
 20
46.61434662644386
 30
0.0
 10
18.54932467505754
 20
46.58119847829342
 30
0.0
 10
18.54977466801638
 20
46.5644648311238
 30
0.0
 10
18.55000000000001
 20
46.55608553132448
 30
0.0
  0
SPLINE
  5
200
330
1F
100
AcDbEntity
  8
SK3
  6
SLD-Dashed
370
    18
100
AcDbSpline
210
0.0
220
0.0
230
1.0
 70
     8
 71
     3
 72
    18
 73
    14
 74
     0
 42
0.000000001
 43
0.00000001
 40
0.0
 40
0.0
 40
0.0
 40
0.0
 40
0.0502196103872393
 40
0.1000870260924269
 40
0.185508636894043
 40
0.250155080879186
 40
0.3746583157461185
 40
0.4998570853792876
 40
0.6242312608259408
 40
0.749432409948843
 40
0.8740366596180013
 40
0.9370350243166901
 40
1.0
 40
1.0
 40
1.0
 40
1.0
 10
3.699999999999968
 20
46.55608553132443
 30
0.0
 10
3.700143854852901
 20
46.56278755186
 30
0.0
 10
3.700430555691595
 20
46.57614459105338
 30
0.0
 10
3.703274054818796
 20
46.60076085239342
 30
0.0
 10
3.70885002526332
 20
46.62692328764685
 30
0.0
 10
3.720514169271328
 20
46.6616989075661
 30
0.0
 10
3.739456592416646
 20
46.69941980690708
 30
0.0
 10
3.770128279112287
 20
46.73918434013715
 30
0.0
 10
3.808028636439601
 20
46.77229285140236
 30
0.0
 10
3.851698646431312
 20
46.79720148409477
 30
0.0
 10
3.891711812143359
 20
46.81006094110495
 30
0.0
 10
3.924780356068899
 20
46.81548545401081
 30
0.0
 10
3.941594937699494
 20
46.81599758847394
 30
0.0
 10
3.950000000000009
 20
46.81625358782996
 30
0.0
  0
SPLINE
  5
201
330
1F
100
AcDbEntity
  8
SK3
  6
SLD-Dashed
370
    18
100
AcDbSpline
210
0.0
220
0.0
230
1.0
 70
     8
 71
     3
 72
    30
 73
    26
 74
     0
 42
0.000000001
 43
0.00000001
 40
0.4999999999999986
 40
0.4999999999999986
 40
0.4999999999999986
 40
0.4999999999999986
 40
0.5624999999999986
 40
0.5624999999999986
 40
0.6249999999999986
 40
0.6249999999999986
 40
0.6562499999999987
 40
0.6562499999999987
 40
0.6874999999999989
 40
0.6874999999999989
 40
0.718749999999999
 40
0.718749999999999
 40
0.7499999999999991
 40
0.7499999999999991
 40
0.7812499999999993
 40
0.7812499999999993
 40
0.8124999999999994
 40
0.8124999999999994
 40
0.8437499999999997
 40
0.8437499999999997
 40
0.8749999999999998
 40
0.8749999999999998
 40
0.9374999999999999
 40
0.9374999999999999
 40
1.0
 40
1.0
 40
1.0
 40
1.0
 10
11.12436591328741
 20
5.309061551556936
 30
0.0
 10
11.33987168856151
 20
5.309135121894133
 30
0.0
 10
11.55726809392074
 20
5.270777053767738
 30
0.0
 10
11.954542895422
 20
5.124082127907513
 30
0.0
 10
12.13838112079804
 20
5.014350511864003
 30
0.0
 10
12.36674314194754
 20
4.808404051991823
 30
0.0
 10
12.43642969974143
 20
4.731543474868142
 30
0.0
 10
12.55617157969231
 20
4.568463540703775
 30
0.0
 10
12.60695049438682
 20
4.481836472086075
 30
0.0
 10
12.69006011488474
 20
4.297948630822688
 30
0.0
 10
12.7218894306609
 20
4.201137306228612
 30
0.0
 10
12.76406792100185
 20
4.004999015154088
 30
0.0
 10
12.77490668888515
 20
3.904499034786589
 30
0.0
 10
12.77509211872524
 20
3.699534720125429
 30
0.0
 10
12.76447599657451
 20
3.598169916606796
 30
0.0
 10
12.7226542834703
 20
3.397643705646339
 30
0.0
 10
12.69091026767073
 20
3.297408274791247
 30
0.0
 10
12.60826636161165
 20
3.105879249910994
 30
0.0
 10
12.55766906368547
 20
3.014523490936151
 30
0.0
 10
12.43800593838744
 20
2.840798433450351
 30
0.0
 10
12.3685247374065
 20
2.758380635546162
 30
0.0
 10
12.14080554014713
 20
2.535838019871818
 30
0.0
 10
11.9570420469029
 20
2.41465353223478
 30
0.0
 10
11.56023146512519
 20
2.251755559321188
 30
0.0
 10
11.34333742006519
 20
2.208076011197137
 30
0.0
 10
11.125
 20
2.208076011197137
 30
0.0
  0
SPLINE
  5
202
330
1F
100
AcDbEntity
  8
SK3
  6
SLD-Dashed
370
    18
100
AcDbSpline
210
0.0
220
0.0
230
1.0
 70
     8
 71
     3
 72
    34
 73
    30
 74
     0
 42
0.000000001
 43
0.00000001
 40
0.0
 40
0.0
 40
0.0
 40
0.0
 40
0.0312499999999998
 40
0.0312499999999998
 40
0.0624999999999997
 40
0.0624999999999997
 40
0.0937499999999995
 40
0.0937499999999995
 40
0.1249999999999993
 40
0.1249999999999993
 40
0.1874999999999989
 40
0.1874999999999989
 40
0.2499999999999986
 40
0.2499999999999986
 40
0.2812499999999986
 40
0.2812499999999986
 40
0.3124999999999986
 40
0.3124999999999986
 40
0.3437499999999986
 40
0.3437499999999986
 40
0.3749999999999986
 40
0.3749999999999986
 40
0.4062499999999986
 40
0.4062499999999986
 40
0.4374999999999986
 40
0.4374999999999986
 40
0.4687499999999986
 40
0.4687499999999986
 40
0.4999999999999986
 40
0.4999999999999986
 40
0.4999999999999986
 40
0.4999999999999986
 10
11.125
 20
2.208076011197137
 30
0.0
 10
11.0158312899674
 20
2.208076011197137
 30
0.0
 10
10.90851747443065
 20
2.218712438100942
 30
0.0
 10
10.69743839976836
 20
2.260296858835581
 30
0.0
 10
10.59256796952454
 20
2.291759353259954
 30
0.0
 10
10.39282801405937
 20
2.37355520537362
 30
0.0
 10
10.29811782955151
 20
2.423509628226163
 30
0.0
 10
10.11887542494275
 20
2.54111458390787
 30
0.0
 10
10.03412703573853
 20
2.60929484585426
 30
0.0
 10
9.806182200157373
 20
2.831771837438379
 30
0.0
 10
9.683294833250006
 20
3.010016554592661
 30
0.0
 10
9.518613327833588
 20
3.390759943898584
 30
0.0
 10
9.47512207964199
 20
3.597272475835474
 30
0.0
 10
9.474939355443732
 20
3.901097591317397
 30
0.0
 10
9.485685185608675
 20
4.003434499602353
 30
0.0
 10
9.527840731096374
 20
4.200293854804617
 30
0.0
 10
9.55902971205841
 20
4.295473899993276
 30
0.0
 10
9.64178060511034
 20
4.479477843829398
 30
0.0
 10
9.693378168396869
 20
4.567722017178373
 30
0.0
 10
9.812718794814227
 20
4.730510706064027
 30
0.0
 10
9.881024517103528
 20
4.806208116124387
 30
0.0
 10
10.03474791503923
 20
4.945204256680401
 30
0.0
 10
10.11790941669588
 20
5.006521730708584
 30
0.0
 10
10.29642492313947
 20
5.11372891487772
 30
0.0
 10
10.39294641915067
 20
5.159988239582878
 30
0.0
 10
10.5925905581732
 20
5.233890455420352
 30
0.0
 10
10.69543180415419
 20
5.261724005488279
 30
0.0
 10
10.90715408445175
 20
5.299397422676634
 30
0.0
 10
11.01661302565036
 20
5.309024766388331
 30
0.0
 10
11.12436591328741
 20
5.309061551556936
 30
0.0
  0
SPLINE
  5
203
330
1F
100
AcDbEntity
  8
SK3
  6
SLD-Dashed
370
    18
100
AcDbSpline
210
0.0
220
0.0
230
1.0
 70
     8
 71
     2
 72
     6
 73
     3
 74
     0
 42
0.000000001
 43
0.00000001
 40
0.0
 40
0.0
 40
0.0
 40
0.0312500000000006
 40
0.0312500000000006
 40
0.0312500000000006
 10
65.04960000000001
 20
7.93749999999998
 30
0.0
 10
65.09603098915304
 20
7.90007093153066
 30
0.0
 10
65.1853331930462
 20
7.82889666248069
 30
0.0
  0
SPLINE
  5
204
330
1F
100
AcDbEntity
  8
SK3
  6
SLD-Dashed
370
    18
100
AcDbSpline
210
0.0
220
0.0
230
1.0
 70
     8
 71
     3
 72
     8
 73
     4
 74
     0
 42
0.000000001
 43
0.00000001
 40
0.0312500000000006
 40
0.0312500000000006
 40
0.0312500000000006
 40
0.0312500000000006
 40
0.0468750000000008
 40
0.0468750000000008
 40
0.0468750000000008
 40
0.0468750000000008
 10
65.1853331930462
 20
7.82889666248069
 30
0.0
 10
65.22998429499275
 20
7.793309527955699
 30
0.0
 10
65.2858813229873
 20
7.748892046740889
 30
0.0
 10
65.35162694152034
 20
7.697015096611532
 30
0.0
  0
SPLINE
  5
205
330
1F
100
AcDbEntity
  8
SK3
  6
SLD-Dashed
370
    18
100
AcDbSpline
210
0.0
220
0.0
230
1.0
 70
     8
 71
     3
 72
     8
 73
     4
 74
     0
 42
0.000000001
 43
0.00000001
 40
0.0468750000000008
 40
0.0468750000000008
 40
0.0468750000000008
 40
0.0468750000000008
 40
0.0625000000000011
 40
0.0625000000000011
 40
0.0625000000000011
 40
0.0625000000000011
 10
65.35162694152034
 20
7.697015096611532
 30
0.0
 10
65.4173725600534
 20
7.645138146482204
 30
0.0
 10
65.49248735027255
 20
7.586178935087708
 30
0.0
 10
65.57630078368234
 20
7.521001503320892
 30
0.0
  0
SPLINE
  5
206
330
1F
100
AcDbEntity
  8
SK3
  6
SLD-Dashed
370
    18
100
AcDbSpline
210
0.0
220
0.0
230
1.0
 70
     8
 71
     3
 72
     8
 73
     4
 74
     0
 42
0.000000001
 43
0.00000001
 40
0.0625000000000011
 40
0.0625000000000011
 40
0.0625000000000011
 40
0.0625000000000011
 40
0.0781250000000014
 40
0.0781250000000014
 40
0.0781250000000014
 40
0.0781250000000014
 10
65.57630078368234
 20
7.521001503320892
 30
0.0
 10
65.66011421709217
 20
7.455824071554075
 30
0.0
 10
65.75263143104092
 20
7.384421594897391
 30
0.0
 10
65.85354674187127
 20
7.307480584819468
 30
0.0
  0
SPLINE
  5
207
330
1F
100
AcDbEntity
  8
SK3
  6
SLD-Dashed
370
    18
100
AcDbSpline
210
0.0
220
0.0
230
1.0
 70
     8
 71
     3
 72
     8
 73
     4
 74
     0
 42
0.000000001
 43
0.00000001
 40
0.0781250000000014
 40
0.0781250000000014
 40
0.0781250000000014
 40
0.0781250000000014
 40
0.0937500000000017
 40
0.0937500000000017
 40
0.0937500000000017
 40
0.0937500000000017
 10
65.85354674187127
 20
7.307480584819468
 30
0.0
 10
65.95446205270161
 20
7.230539574741561
 30
0.0
 10
66.06433073112755
 20
7.147652226655081
 30
0.0
 10
66.18023943874468
 20
7.061564588311787
 30
0.0
  0
SPLINE
  5
208
330
1F
100
AcDbEntity
  8
SK3
  6
SLD-Dashed
370
    18
100
AcDbSpline
210
0.0
220
0.0
230
1.0
 70
     8
 71
     3
 72
     8
 73
     4
 74
     0
 42
0.000000001
 43
0.00000001
 40
0.0937500000000017
 40
0.0937500000000017
 40
0.0937500000000017
 40
0.0937500000000017
 40
0.1250000000000018
 40
0.1250000000000018
 40
0.1250000000000018
 40
0.1250000000000018
 10
66.18023943874468
 20
7.061564588311787
 30
0.0
 10
66.41205685397897
 20
6.889389311625187
 30
0.0
 10
66.66902915130888
 20
6.703407058178991
 30
0.0
 10
66.95042223328912
 20
6.509994414770522
 30
0.0
  0
SPLINE
  5
209
330
1F
100
AcDbEntity
  8
SK3
  6
SLD-Dashed
370
    18
100
AcDbSpline
210
0.0
220
0.0
230
1.0
 70
     8
 71
     3
 72
     8
 73
     4
 74
     0
 42
0.000000001
 43
0.00000001
 40
0.1250000000000018
 40
0.1250000000000018
 40
0.1250000000000018
 40
0.1250000000000018
 40
0.1562500000000018
 40
0.1562500000000018
 40
0.1562500000000018
 40
0.1562500000000018
 10
66.95042223328912
 20
6.509994414770522
 30
0.0
 10
67.2318153152694
 20
6.316581771362053
 30
0.0
 10
67.54066819432961
 20
6.113726039656465
 30
0.0
 10
67.86833195739474
 20
5.916761669637332
 30
0.0
  0
SPLINE
  5
20A
330
1F
100
AcDbEntity
  8
SK3
  6
SLD-Dashed
370
    18
100
AcDbSpline
210
0.0
220
0.0
230
1.0
 70
     8
 71
     3
 72
     8
 73
     4
 74
     0
 42
0.000000001
 43
0.00000001
 40
0.1562500000000018
 40
0.1562500000000018
 40
0.1562500000000018
 40
0.1562500000000018
 40
0.1875000000000019
 40
0.1875000000000019
 40
0.1875000000000019
 40
0.1875000000000019
 10
67.86833195739474
 20
5.916761669637332
 30
0.0
 10
68.19599572045989
 20
5.719797299618169
 30
0.0
 10
68.54245385940311
 20
5.528079381236374
 30
0.0
 10
68.91385213339338
 20
5.353881274175097
 30
0.0
  0
SPLINE
  5
20B
330
1F
100
AcDbEntity
  8
SK3
  6
SLD-Dashed
370
    18
100
AcDbSpline
210
0.0
220
0.0
230
1.0
 70
     8
 71
     3
 72
     8
 73
     4
 74
     0
 42
0.000000001
 43
0.00000001
 40
0.1875000000000019
 40
0.1875000000000019
 40
0.1875000000000019
 40
0.1875000000000019
 40
0.218750000000002
 40
0.218750000000002
 40
0.218750000000002
 40
0.218750000000002
 10
68.91385213339338
 20
5.353881274175097
 30
0.0
 10
69.28525040738367
 20
5.17968316711382
 30
0.0
 10
69.68716220105073
 20
5.021557437384687
 30
0.0
 10
70.10532269690442
 20
4.909147509935464
 30
0.0
  0
SPLINE
  5
20C
330
1F
100
AcDbEntity
  8
SK3
  6
SLD-Dashed
370
    18
100
AcDbSpline
210
0.0
220
0.0
230
1.0
 70
     8
 71
     3
 72
     8
 73
     4
 74
     0
 42
0.000000001
 43
0.00000001
 40
0.218750000000002
 40
0.218750000000002
 40
0.218750000000002
 40
0.218750000000002
 40
0.234375000000002
 40
0.234375000000002
 40
0.234375000000002
 40
0.234375000000002
 10
70.10532269690442
 20
4.909147509935464
 30
0.0
 10
70.3144029448313
 20
4.852942546210846
 30
0.0
 10
70.52818381396939
 20
4.807837395982735
 30
0.0
 10
70.74756459927936
 20
4.776724799708427
 30
0.0
  0
SPLINE
  5
20D
330
1F
100
AcDbEntity
  8
SK3
  6
SLD-Dashed
370
    18
100
AcDbSpline
210
0.0
220
0.0
230
1.0
 70
     8
 71
     3
 72
     8
 73
     4
 74
     0
 42
0.000000001
 43
0.00000001
 40
0.234375000000002
 40
0.234375000000002
 40
0.234375000000002
 40
0.234375000000002
 40
0.2500000000000021
 40
0.2500000000000021
 40
0.2500000000000021
 40
0.2500000000000021
 10
70.74756459927936
 20
4.776724799708427
 30
0.0
 10
70.96694538458931
 20
4.745612203434092
 30
0.0
 10
71.19003656210118
 20
4.729148623066497
 30
0.0
 10
71.41036058120676
 20
4.728466495871837
 30
0.0
  0
SPLINE
  5
20E
330
1F
100
AcDbEntity
  8
SK3
  6
SLD-Dashed
370
    18
100
AcDbSpline
210
0.0
220
0.0
230
1.0
 70
     8
 71
     3
 72
     8
 73
     4
 74
     0
 42
0.000000001
 43
0.00000001
 40
0.2500000000000021
 40
0.2500000000000021
 40
0.2500000000000021
 40
0.2500000000000021
 40
0.2656250000000021
 40
0.2656250000000021
 40
0.2656250000000021
 40
0.2656250000000021
 10
71.41036058120676
 20
4.728466495871837
 30
0.0
 10
71.63068460031228
 20
4.727784368677164
 30
0.0
 10
71.85012137412386
 20
4.742573252469621
 30
0.0
 10
72.0687021213205
 20
4.772057576244486
 30
0.0
  0
SPLINE
  5
20F
330
1F
100
AcDbEntity
  8
SK3
  6
SLD-Dashed
370
    18
100
AcDbSpline
210
0.0
220
0.0
230
1.0
 70
     8
 71
     3
 72
     8
 73
     4
 74
     0
 42
0.000000001
 43
0.00000001
 40
0.2656250000000021
 40
0.2656250000000021
 40
0.2656250000000021
 40
0.2656250000000021
 40
0.2812500000000021
 40
0.2812500000000021
 40
0.2812500000000021
 40
0.2812500000000021
 10
72.0687021213205
 20
4.772057576244486
 30
0.0
 10
72.28728286851712
 20
4.80154190001935
 30
0.0
 10
72.50536623500534
 20
4.846074115867911
 30
0.0
 10
72.7150931328594
 20
4.901277525446869
 30
0.0
  0
SPLINE
  5
210
330
1F
100
AcDbEntity
  8
SK3
  6
SLD-Dashed
370
    18
100
AcDbSpline
210
0.0
220
0.0
230
1.0
 70
     8
 71
     3
 72
     8
 73
     4
 74
     0
 42
0.000000001
 43
0.00000001
 40
0.2812500000000021
 40
0.2812500000000021
 40
0.2812500000000021
 40
0.2812500000000021
 40
0.3125000000000021
 40
0.3125000000000021
 40
0.3125000000000021
 40
0.3125000000000021
 10
72.7150931328594
 20
4.901277525446869
 30
0.0
 10
73.13454692856754
 20
5.011684344604826
 30
0.0
 10
73.53089797071796
 20
5.165431581693962
 30
0.0
 10
73.90771221438702
 20
5.340603058594275
 30
0.0
  0
SPLINE
  5
211
330
1F
100
AcDbEntity
  8
SK3
  6
SLD-Dashed
370
    18
100
AcDbSpline
210
0.0
220
0.0
230
1.0
 70
     8
 71
     3
 72
     8
 73
     4
 74
     0
 42
0.000000001
 43
0.00000001
 40
0.3125000000000021
 40
0.3125000000000021
 40
0.3125000000000021
 40
0.3125000000000021
 40
0.3437500000000022
 40
0.3437500000000022
 40
0.3437500000000022
 40
0.3437500000000022
 10
73.90771221438702
 20
5.340603058594275
 30
0.0
 10
74.28452645805608
 20
5.515774535494574
 30
0.0
 10
74.63271343269496
 20
5.707787869733923
 30
0.0
 10
74.96012754443224
 20
5.903838399330001
 30
0.0
  0
SPLINE
  5
212
330
1F
100
AcDbEntity
  8
SK3
  6
SLD-Dashed
370
    18
100
AcDbSpline
210
0.0
220
0.0
230
1.0
 70
     8
 71
     3
 72
     8
 73
     4
 74
     0
 42
0.000000001
 43
0.00000001
 40
0.3437500000000022
 40
0.3437500000000022
 40
0.3437500000000022
 40
0.3437500000000022
 40
0.3593750000000019
 40
0.3593750000000019
 40
0.3593750000000019
 40
0.3593750000000019
 10
74.96012754443224
 20
5.903838399330001
 30
0.0
 10
75.12383460030087
 20
6.001863664128019
 30
0.0
 10
75.28221431348878
 20
6.101032172799885
 30
0.0
 10
75.43563743203156
 20
6.20027367954127
 30
0.0
  0
SPLINE
  5
213
330
1F
100
AcDbEntity
  8
SK3
  6
SLD-Dashed
370
    18
100
AcDbSpline
210
0.0
220
0.0
230
1.0
 70
     8
 71
     3
 72
     8
 73
     4
 74
     0
 42
0.000000001
 43
0.00000001
 40
0.3593750000000019
 40
0.3593750000000019
 40
0.3593750000000019
 40
0.3593750000000019
 40
0.3750000000000016
 40
0.3750000000000016
 40
0.3750000000000016
 40
0.3750000000000016
 10
75.43563743203156
 20
6.20027367954127
 30
0.0
 10
75.58906055057429
 20
6.299515186282655
 30
0.0
 10
75.7381874635615
 20
6.399300471535703
 30
0.0
 10
75.8804518748821
 20
6.496863281568253
 30
0.0
  0
SPLINE
  5
214
330
1F
100
AcDbEntity
  8
SK3
  6
SLD-Dashed
370
    18
100
AcDbSpline
210
0.0
220
0.0
230
1.0
 70
     8
 71
     3
 72
     8
 73
     4
 74
     0
 42
0.000000001
 43
0.00000001
 40
0.3750000000000016
 40
0.3750000000000016
 40
0.3750000000000016
 40
0.3750000000000016
 40
0.4062500000000009
 40
0.4062500000000009
 40
0.4062500000000009
 40
0.4062500000000009
 10
75.8804518748821
 20
6.496863281568253
 30
0.0
 10
76.16498069752323
 20
6.691988901633382
 30
0.0
 10
76.42254513525302
 20
6.878200182161113
 30
0.0
 10
76.65351356060978
 20
7.049506021238668
 30
0.0
  0
SPLINE
  5
215
330
1F
100
AcDbEntity
  8
SK3
  6
SLD-Dashed
370
    18
100
AcDbSpline
210
0.0
220
0.0
230
1.0
 70
     8
 71
     3
 72
     8
 73
     4
 74
     0
 42
0.000000001
 43
0.00000001
 40
0.4062500000000009
 40
0.4062500000000009
 40
0.4062500000000009
 40
0.4062500000000009
 40
0.4218750000000006
 40
0.4218750000000006
 40
0.4218750000000006
 40
0.4218750000000006
 10
76.65351356060978
 20
7.049506021238668
 30
0.0
 10
76.76899777328822
 20
7.135158940777465
 30
0.0
 10
76.87776119243087
 20
7.217093981895399
 30
0.0
 10
76.97939296002667
 20
7.294481629587811
 30
0.0
  0
SPLINE
  5
216
330
1F
100
AcDbEntity
  8
SK3
  6
SLD-Dashed
370
    18
100
AcDbSpline
210
0.0
220
0.0
230
1.0
 70
     8
 71
     3
 72
     8
 73
     4
 74
     0
 42
0.000000001
 43
0.00000001
 40
0.4218750000000006
 40
0.4218750000000006
 40
0.4218750000000006
 40
0.4218750000000006
 40
0.4375000000000002
 40
0.4375000000000002
 40
0.4375000000000002
 40
0.4375000000000002
 10
76.97939296002667
 20
7.294481629587811
 30
0.0
 10
77.08102472762255
 20
7.371869277280209
 30
0.0
 10
77.17599029909769
 20
7.445078577464397
 30
0.0
 10
77.26117280763012
 20
7.511264482796494
 30
0.0
  0
SPLINE
  5
217
330
1F
100
AcDbEntity
  8
SK3
  6
SLD-Dashed
370
    18
100
AcDbSpline
210
0.0
220
0.0
230
1.0
 70
     8
 71
     3
 72
     8
 73
     4
 74
     0
 42
0.000000001
 43
0.00000001
 40
0.4375000000000002
 40
0.4375000000000002
 40
0.4375000000000002
 40
0.4375000000000002
 40
0.4687499999999996
 40
0.4687499999999996
 40
0.4687499999999996
 40
0.4687499999999996
 10
77.26117280763012
 20
7.511264482796494
 30
0.0
 10
77.43153782469494
 20
7.643636293460674
 30
0.0
 10
77.56482130155682
 20
7.749352939758556
 30
0.0
 10
77.65716984103425
 20
7.822922856419883
 30
0.0
  0
SPLINE
  5
218
330
1F
100
AcDbEntity
  8
SK3
  6
SLD-Dashed
370
    18
100
AcDbSpline
210
0.0
220
0.0
230
1.0
 70
     8
 71
     3
 72
     8
 73
     4
 74
     0
 42
0.000000001
 43
0.00000001
 40
0.4687499999999996
 40
0.4687499999999996
 40
0.4687499999999996
 40
0.4687499999999996
 40
0.4843749999999994
 40
0.4843749999999994
 40
0.4843749999999994
 40
0.4843749999999994
 10
77.65716984103425
 20
7.822922856419883
 30
0.0
 10
77.70334411077296
 20
7.859707814750531
 30
0.0
 10
77.73896577994657
 20
7.88822803379529
 30
0.0
 10
77.76281852474732
 20
7.907346251596052
 30
0.0
  0
SPLINE
  5
219
330
1F
100
AcDbEntity
  8
SK3
  6
SLD-Dashed
370
    18
100
AcDbSpline
210
0.0
220
0.0
230
1.0
 70
     8
 71
     3
 72
     8
 73
     4
 74
     0
 42
0.000000001
 43
0.00000001
 40
0.4843749999999994
 40
0.4843749999999994
 40
0.4843749999999994
 40
0.4843749999999994
 40
0.4999999999999992
 40
0.4999999999999992
 40
0.4999999999999992
 40
0.4999999999999992
 10
77.76281852474732
 20
7.907346251596052
 30
0.0
 10
77.78667126954805
 20
7.926464469396814
 30
0.0
 10
77.79916709637583
 20
7.936509736413903
 30
0.0
 10
77.80031341967364
 20
7.937430458849406
 30
0.0
  0
SPLINE
  5
21A
330
1F
100
AcDbEntity
  8
SK3
  6
SLD-Dashed
370
    18
100
AcDbSpline
210
0.0
220
0.0
230
1.0
 70
     8
 71
     3
 72
     8
 73
     4
 74
     0
 42
0.000000001
 43
0.00000001
 40
0.5312499999999987
 40
0.5312499999999987
 40
0.5312499999999987
 40
0.5312499999999987
 40
0.5468749999999984
 40
0.5468749999999984
 40
0.5468749999999984
 40
0.5468749999999984
 10
77.67010871878219
 20
7.833234580900079
 30
0.0
 10
77.62623176930339
 20
7.798253333126455
 30
0.0
 10
77.5718208226471
 20
7.754999489359947
 30
0.0
 10
77.50725807011973
 20
7.704027798595768
 30
0.0
  0
SPLINE
  5
21B
330
1F
100
AcDbEntity
  8
SK3
  6
SLD-Dashed
370
    18
100
AcDbSpline
210
0.0
220
0.0
230
1.0
 70
     8
 71
     3
 72
     8
 73
     4
 74
     0
 42
0.000000001
 43
0.00000001
 40
0.5468749999999984
 40
0.5468749999999984
 40
0.5468749999999984
 40
0.5468749999999984
 40
0.5624999999999982
 40
0.5624999999999982
 40
0.5624999999999982
 40
0.5624999999999982
 10
77.50725807011973
 20
7.704027798595768
 30
0.0
 10
77.44269531759238
 20
7.653056107831575
 30
0.0
 10
77.36745257074476
 20
7.593955081707356
 30
0.0
 10
77.28365459747855
 20
7.528745897063864
 30
0.0
  0
SPLINE
  5
21C
330
1F
100
AcDbEntity
  8
SK3
  6
SLD-Dashed
370
    18
100
AcDbSpline
210
0.0
220
0.0
230
1.0
 70
     8
 71
     3
 72
     8
 73
     4
 74
     0
 42
0.000000001
 43
0.00000001
 40
0.5624999999999982
 40
0.5624999999999982
 40
0.5624999999999982
 40
0.5624999999999982
 40
0.5937499999999978
 40
0.5937499999999978
 40
0.5937499999999978
 40
0.5937499999999978
 10
77.28365459747855
 20
7.528745897063864
 30
0.0
 10
77.11605865094603
 20
7.398327527776853
 30
0.0
 10
76.91503035483984
 20
7.243937605810109
 30
0.0
 10
76.68342288838822
 20
7.071717780223051
 30
0.0
  0
SPLINE
  5
21D
330
1F
100
AcDbEntity
  8
SK3
  6
SLD-Dashed
370
    18
100
AcDbSpline
210
0.0
220
0.0
230
1.0
 70
     8
 71
     3
 72
     8
 73
     4
 74
     0
 42
0.000000001
 43
0.00000001
 40
0.5937499999999978
 40
0.5937499999999978
 40
0.5937499999999978
 40
0.5937499999999978
 40
0.6093749999999973
 40
0.6093749999999973
 40
0.6093749999999973
 40
0.6093749999999973
 10
76.68342288838822
 20
7.071717780223051
 30
0.0
 10
76.56761915516242
 20
6.985607867429529
 30
0.0
 10
76.44397923901671
 20
6.894946052800603
 30
0.0
 10
76.31488813350948
 20
6.802145767935051
 30
0.0
  0
SPLINE
  5
21E
330
1F
100
AcDbEntity
  8
SK3
  6
SLD-Dashed
370
    18
100
AcDbSpline
210
0.0
220
0.0
230
1.0
 70
     8
 71
     3
 72
     8
 73
     4
 74
     0
 42
0.000000001
 43
0.00000001
 40
0.6093749999999973
 40
0.6093749999999973
 40
0.6093749999999973
 40
0.6093749999999973
 40
0.6249999999999968
 40
0.6249999999999968
 40
0.6249999999999968
 40
0.6249999999999968
 10
76.31488813350948
 20
6.802145767935051
 30
0.0
 10
76.18579702800227
 20
6.709345483069486
 30
0.0
 10
76.05075093171848
 20
6.614022099829676
 30
0.0
 10
75.9097612727328
 20
6.516998140509454
 30
0.0
  0
SPLINE
  5
21F
330
1F
100
AcDbEntity
  8
SK3
  6
SLD-Dashed
370
    18
100
AcDbSpline
210
0.0
220
0.0
230
1.0
 70
     8
 71
     3
 72
     8
 73
     4
 74
     0
 42
0.000000001
 43
0.00000001
 40
0.6249999999999968
 40
0.6249999999999968
 40
0.6249999999999968
 40
0.6249999999999968
 40
0.6406249999999963
 40
0.6406249999999963
 40
0.6406249999999963
 40
0.6406249999999963
 10
75.9097612727328
 20
6.516998140509454
 30
0.0
 10
75.76877161374715
 20
6.419974181189246
 30
0.0
 10
75.62184071738135
 20
6.321242174592477
 30
0.0
 10
75.4686729006408
 20
6.221693629340545
 30
0.0
  0
SPLINE
  5
220
330
1F
100
AcDbEntity
  8
SK3
  6
SLD-Dashed
370
    18
100
AcDbSpline
210
0.0
220
0.0
230
1.0
 70
     8
 71
     3
 72
     8
 73
     4
 74
     0
 42
0.000000001
 43
0.00000001
 40
0.6406249999999963
 40
0.6406249999999963
 40
0.6406249999999963
 40
0.6406249999999963
 40
0.6562499999999959
 40
0.6562499999999959
 40
0.6562499999999959
 40
0.6562499999999959
 10
75.4686729006408
 20
6.221693629340545
 30
0.0
 10
75.31550508390028
 20
6.122145084088642
 30
0.0
 10
75.15545154597794
 20
6.021398222991463
 30
0.0
 10
74.99112232601951
 20
5.922449622760388
 30
0.0
  0
SPLINE
  5
221
330
1F
100
AcDbEntity
  8
SK3
  6
SLD-Dashed
370
    18
100
AcDbSpline
210
0.0
220
0.0
230
1.0
 70
     8
 71
     3
 72
     8
 73
     4
 74
     0
 42
0.000000001
 43
0.00000001
 40
0.6562499999999959
 40
0.6562499999999959
 40
0.6562499999999959
 40
0.6562499999999959
 40
0.6874999999999957
 40
0.6874999999999957
 40
0.6874999999999957
 40
0.6874999999999957
 10
74.99112232601951
 20
5.922449622760388
 30
0.0
 10
74.66246388610259
 20
5.724552422298225
 30
0.0
 10
74.31569429868665
 20
5.532397188757289
 30
0.0
 10
73.94523821278499
 20
5.358150962709203
 30
0.0
  0
SPLINE
  5
222
330
1F
100
AcDbEntity
  8
SK3
  6
SLD-Dashed
370
    18
100
AcDbSpline
210
0.0
220
0.0
230
1.0
 70
     8
 71
     3
 72
     8
 73
     4
 74
     0
 42
0.000000001
 43
0.00000001
 40
0.6874999999999957
 40
0.6874999999999957
 40
0.6874999999999957
 40
0.6874999999999957
 40
0.7031249999999959
 40
0.7031249999999959
 40
0.7031249999999959
 40
0.7031249999999959
 10
73.94523821278499
 20
5.358150962709203
 30
0.0
 10
73.76001016983422
 20
5.271027849685174
 30
0.0
 10
73.56877923755556
 20
5.188468916617249
 30
0.0
 10
73.37009920851811
 20
5.112884901988086
 30
0.0
  0
SPLINE
  5
223
330
1F
100
AcDbEntity
  8
SK3
  6
SLD-Dashed
370
    18
100
AcDbSpline
210
0.0
220
0.0
230
1.0
 70
     8
 71
     3
 72
     8
 73
     4
 74
     0
 42
0.000000001
 43
0.00000001
 40
0.7031249999999959
 40
0.7031249999999959
 40
0.7031249999999959
 40
0.7031249999999959
 40
0.7187499999999962
 40
0.7187499999999962
 40
0.7187499999999962
 40
0.7187499999999962
 10
73.37009920851811
 20
5.112884901988086
 30
0.0
 10
73.17141917948064
 20
5.03730088735891
 30
0.0
 10
72.96409619382952
 20
4.968510294405558
 30
0.0
 10
72.75401290736345
 20
4.91166533855255
 30
0.0
  0
SPLINE
  5
224
330
1F
100
AcDbEntity
  8
SK3
  6
SLD-Dashed
370
    18
100
AcDbSpline
210
0.0
220
0.0
230
1.0
 70
     8
 71
     3
 72
     8
 73
     4
 74
     0
 42
0.000000001
 43
0.00000001
 40
0.7187499999999962
 40
0.7187499999999962
 40
0.7187499999999962
 40
0.7187499999999962
 40
0.7343749999999964
 40
0.7343749999999964
 40
0.7343749999999964
 40
0.7343749999999964
 10
72.75401290736345
 20
4.91166533855255
 30
0.0
 10
72.54392962089737
 20
4.854820382699542
 30
0.0
 10
72.32988822413353
 20
4.809384993842751
 30
0.0
 10
72.11124255011231
 20
4.777981783931843
 30
0.0
  0
SPLINE
  5
225
330
1F
100
AcDbEntity
  8
SK3
  6
SLD-Dashed
370
    18
100
AcDbSpline
210
0.0
220
0.0
230
1.0
 70
     8
 71
     3
 72
     8
 73
     4
 74
     0
 42
0.000000001
 43
0.00000001
 40
0.7343749999999964
 40
0.7343749999999964
 40
0.7343749999999964
 40
0.7343749999999964
 40
0.7499999999999968
 40
0.7499999999999968
 40
0.7499999999999968
 40
0.7499999999999968
 10
72.11124255011231
 20
4.777981783931843
 30
0.0
 10
71.89259687609109
 20
4.746578574020923
 30
0.0
 10
71.66727662233511
 20
4.729432927675865
 30
0.0
 10
71.44514123651238
 20
4.728486730383001
 30
0.0
  0
SPLINE
  5
226
330
1F
100
AcDbEntity
  8
SK3
  6
SLD-Dashed
370
    18
100
AcDbSpline
210
0.0
220
0.0
230
1.0
 70
     8
 71
     3
 72
     8
 73
     4
 74
     0
 42
0.000000001
 43
0.00000001
 40
0.7499999999999968
 40
0.7499999999999968
 40
0.7499999999999968
 40
0.7499999999999968
 40
0.7656249999999971
 40
0.7656249999999971
 40
0.7656249999999971
 40
0.7656249999999971
 10
71.44514123651238
 20
4.728486730383001
 30
0.0
 10
71.22300585068966
 20
4.727540533090137
 30
0.0
 10
71.00275377435786
 20
4.742320059482753
 30
0.0
 10
70.78427245005206
 20
4.771657247043433
 30
0.0
  0
SPLINE
  5
227
330
1F
100
AcDbEntity
  8
SK3
  6
SLD-Dashed
370
    18
100
AcDbSpline
210
0.0
220
0.0
230
1.0
 70
     8
 71
     3
 72
     8
 73
     4
 74
     0
 42
0.000000001
 43
0.00000001
 40
0.7656249999999971
 40
0.7656249999999971
 40
0.7656249999999971
 40
0.7656249999999971
 40
0.7812499999999973
 40
0.7812499999999973
 40
0.7812499999999973
 40
0.7812499999999973
 10
70.78427245005206
 20
4.771657247043433
 30
0.0
 10
70.56579112574626
 20
4.800994434604126
 30
0.0
 10
70.34727479224587
 20
4.845427292099934
 30
0.0
 10
70.13610875013663
 20
4.900961308149064
 30
0.0
  0
SPLINE
  5
228
330
1F
100
AcDbEntity
  8
SK3
  6
SLD-Dashed
370
    18
100
AcDbSpline
210
0.0
220
0.0
230
1.0
 70
     8
 71
     3
 72
     8
 73
     4
 74
     0
 42
0.000000001
 43
0.00000001
 40
0.7812499999999973
 40
0.7812499999999973
 40
0.7812499999999973
 40
0.7812499999999973
 40
0.812499999999997
 40
0.812499999999997
 40
0.812499999999997
 40
0.812499999999997
 10
70.13610875013663
 20
4.900961308149064
 30
0.0
 10
69.7137766659181
 20
5.01202934024731
 30
0.0
 10
69.31845639198406
 20
5.165682206463871
 30
0.0
 10
68.94139194733684
 20
5.341019570199397
 30
0.0
  0
SPLINE
  5
229
330
1F
100
AcDbEntity
  8
SK3
  6
SLD-Dashed
370
    18
100
AcDbSpline
210
0.0
220
0.0
230
1.0
 70
     8
 71
     3
 72
     8
 73
     4
 74
     0
 42
0.000000001
 43
0.00000001
 40
0.812499999999997
 40
0.812499999999997
 40
0.812499999999997
 40
0.812499999999997
 40
0.8281249999999973
 40
0.8281249999999973
 40
0.8281249999999973
 40
0.8281249999999973
 10
68.94139194733684
 20
5.341019570199397
 30
0.0
 10
68.75285972501324
 20
5.428688252067166
 30
0.0
 10
68.56951667660461
 20
5.521776818736064
 30
0.0
 10
68.39354068734261
 20
5.616754103064982
 30
0.0
  0
SPLINE
  5
22A
330
1F
100
AcDbEntity
  8
SK3
  6
SLD-Dashed
370
    18
100
AcDbSpline
210
0.0
220
0.0
230
1.0
 70
     8
 71
     3
 72
     8
 73
     4
 74
     0
 42
0.000000001
 43
0.00000001
 40
0.8281249999999973
 40
0.8281249999999973
 40
0.8281249999999973
 40
0.8281249999999973
 40
0.8437499999999976
 40
0.8437499999999976
 40
0.8437499999999976
 40
0.8437499999999976
 10
68.39354068734261
 20
5.616754103064982
 30
0.0
 10
68.21756469808058
 20
5.7117313873939
 30
0.0
 10
68.0479970217355
 20
5.809053641443997
 30
0.0
 10
67.88402643128586
 20
5.907340764196058
 30
0.0
  0
SPLINE
  5
22B
330
1F
100
AcDbEntity
  8
SK3
  6
SLD-Dashed
370
    18
100
AcDbSpline
210
0.0
220
0.0
230
1.0
 70
     8
 71
     3
 72
     8
 73
     4
 74
     0
 42
0.000000001
 43
0.00000001
 40
0.8437499999999976
 40
0.8437499999999976
 40
0.8437499999999976
 40
0.8437499999999976
 40
0.8749999999999981
 40
0.8749999999999981
 40
0.8749999999999981
 40
0.8749999999999981
 10
67.88402643128586
 20
5.907340764196058
 30
0.0
 10
67.55608525038647
 20
6.103915009700152
 30
0.0
 10
67.25025989327423
 20
6.30423711843791
 30
0.0
 10
66.96442516494527
 20
6.500377600503169
 30
0.0
  0
SPLINE
  5
22C
330
1F
100
AcDbEntity
  8
SK3
  6
SLD-Dashed
370
    18
100
AcDbSpline
210
0.0
220
0.0
230
1.0
 70
     8
 71
     3
 72
     8
 73
     4
 74
     0
 42
0.000000001
 43
0.00000001
 40
0.8749999999999981
 40
0.8749999999999981
 40
0.8749999999999981
 40
0.8749999999999981
 40
0.9062499999999987
 40
0.9062499999999987
 40
0.9062499999999987
 40
0.9062499999999987
 10
66.96442516494527
 20
6.500377600503169
 30
0.0
 10
66.67859043661628
 20
6.696518082568444
 30
0.0
 10
66.41895574334563
 20
6.884386753605622
 30
0.0
 10
66.18837605849626
 20
7.055523467095141
 30
0.0
  0
SPLINE
  5
22D
330
1F
100
AcDbEntity
  8
SK3
  6
SLD-Dashed
370
    18
100
AcDbSpline
210
0.0
220
0.0
230
1.0
 70
     8
 71
     3
 72
     8
 73
     4
 74
     0
 42
0.000000001
 43
0.00000001
 40
0.9062499999999987
 40
0.9062499999999987
 40
0.9062499999999987
 40
0.9062499999999987
 40
0.9374999999999991
 40
0.9374999999999991
 40
0.9374999999999991
 40
0.9374999999999991
 10
66.18837605849626
 20
7.055523467095141
 30
0.0
 10
65.95779637364681
 20
7.226660180584675
 30
0.0
 10
65.7549872945629
 20
7.382116970214812
 30
0.0
 10
65.58400262110561
 20
7.515013737196312
 30
0.0
  0
SPLINE
  5
22E
330
1F
100
AcDbEntity
  8
SK3
  6
SLD-Dashed
370
    18
100
AcDbSpline
210
0.0
220
0.0
230
1.0
 70
     8
 71
     3
 72
     8
 73
     4
 74
     0
 42
0.000000001
 43
0.00000001
 40
0.9374999999999991
 40
0.9374999999999991
 40
0.9374999999999991
 40
0.9374999999999991
 40
0.9687499999999996
 40
0.9687499999999996
 40
0.9687499999999996
 40
0.9687499999999996
 10
65.58400262110561
 20
7.515013737196312
 30
0.0
 10
65.4130179476484
 20
7.647910504177811
 30
0.0
 10
65.27967222749146
 20
7.753722902492509
 30
0.0
 10
65.18878099396066
 20
7.826149026263572
 30
0.0
  0
SPLINE
  5
22F
330
1F
100
AcDbEntity
  8
SK3
  6
SLD-Dashed
370
    18
100
AcDbSpline
210
0.0
220
0.0
230
1.0
 70
     8
 71
     2
 72
     6
 73
     3
 74
     0
 42
0.000000001
 43
0.00000001
 40
0.9687499999999996
 40
0.9687499999999996
 40
0.9687499999999996
 40
1.0
 40
1.0
 40
1.0
 10
65.18878099396069
 20
7.82614902626355
 30
0.0
 10
65.09788976042991
 20
7.898575150034623
 30
0.0
 10
65.04960000000001
 20
7.93749999999998
 30
0.0
  0
SPLINE
  5
230
330
1F
100
AcDbEntity
  8
SK3
  6
SLD-Dashed
370
    18
100
AcDbSpline
210
0.0
220
0.0
230
1.0
 70
     8
 71
     2
 72
     6
 73
     3
 74
     0
 42
0.000000001
 43
0.00000001
 40
0.0
 40
0.0
 40
0.0
 40
0.0312500000000006
 40
0.0312500000000006
 40
0.0312500000000006
 10
65.04960000000001
 20
7.93749999999998
 30
0.0
 10
65.09603098915304
 20
7.90007093153066
 30
0.0
 10
65.1853331930462
 20
7.82889666248069
 30
0.0
  0
SPLINE
  5
231
330
1F
100
AcDbEntity
  8
SK3
  6
SLD-Dashed
370
    18
100
AcDbSpline
210
0.0
220
0.0
230
1.0
 70
     8
 71
     3
 72
     8
 73
     4
 74
     0
 42
0.000000001
 43
0.00000001
 40
0.0312500000000006
 40
0.0312500000000006
 40
0.0312500000000006
 40
0.0312500000000006
 40
0.0468750000000008
 40
0.0468750000000008
 40
0.0468750000000008
 40
0.0468750000000008
 10
65.1853331930462
 20
7.82889666248069
 30
0.0
 10
65.22998429499275
 20
7.793309527955699
 30
0.0
 10
65.2858813229873
 20
7.748892046740889
 30
0.0
 10
65.35162694152034
 20
7.697015096611532
 30
0.0
  0
SPLINE
  5
232
330
1F
100
AcDbEntity
  8
SK3
  6
SLD-Dashed
370
    18
100
AcDbSpline
210
0.0
220
0.0
230
1.0
 70
     8
 71
     3
 72
     8
 73
     4
 74
     0
 42
0.000000001
 43
0.00000001
 40
0.0468750000000008
 40
0.0468750000000008
 40
0.0468750000000008
 40
0.0468750000000008
 40
0.0625000000000011
 40
0.0625000000000011
 40
0.0625000000000011
 40
0.0625000000000011
 10
65.35162694152034
 20
7.697015096611532
 30
0.0
 10
65.4173725600534
 20
7.645138146482204
 30
0.0
 10
65.49248735027255
 20
7.586178935087708
 30
0.0
 10
65.57630078368234
 20
7.521001503320892
 30
0.0
  0
SPLINE
  5
233
330
1F
100
AcDbEntity
  8
SK3
  6
SLD-Dashed
370
    18
100
AcDbSpline
210
0.0
220
0.0
230
1.0
 70
     8
 71
     3
 72
     8
 73
     4
 74
     0
 42
0.000000001
 43
0.00000001
 40
0.0625000000000011
 40
0.0625000000000011
 40
0.0625000000000011
 40
0.0625000000000011
 40
0.0781250000000014
 40
0.0781250000000014
 40
0.0781250000000014
 40
0.0781250000000014
 10
65.57630078368234
 20
7.521001503320892
 30
0.0
 10
65.66011421709217
 20
7.455824071554075
 30
0.0
 10
65.75263143104092
 20
7.384421594897391
 30
0.0
 10
65.85354674187127
 20
7.307480584819468
 30
0.0
  0
SPLINE
  5
234
330
1F
100
AcDbEntity
  8
SK3
  6
SLD-Dashed
370
    18
100
AcDbSpline
210
0.0
220
0.0
230
1.0
 70
     8
 71
     3
 72
     8
 73
     4
 74
     0
 42
0.000000001
 43
0.00000001
 40
0.0781250000000014
 40
0.0781250000000014
 40
0.0781250000000014
 40
0.0781250000000014
 40
0.0937500000000017
 40
0.0937500000000017
 40
0.0937500000000017
 40
0.0937500000000017
 10
65.85354674187127
 20
7.307480584819468
 30
0.0
 10
65.95446205270161
 20
7.230539574741561
 30
0.0
 10
66.06433073112755
 20
7.147652226655081
 30
0.0
 10
66.18023943874468
 20
7.061564588311787
 30
0.0
  0
SPLINE
  5
235
330
1F
100
AcDbEntity
  8
SK3
  6
SLD-Dashed
370
    18
100
AcDbSpline
210
0.0
220
0.0
230
1.0
 70
     8
 71
     3
 72
     8
 73
     4
 74
     0
 42
0.000000001
 43
0.00000001
 40
0.0937500000000017
 40
0.0937500000000017
 40
0.0937500000000017
 40
0.0937500000000017
 40
0.1250000000000018
 40
0.1250000000000018
 40
0.1250000000000018
 40
0.1250000000000018
 10
66.18023943874468
 20
7.061564588311787
 30
0.0
 10
66.41205685397897
 20
6.889389311625187
 30
0.0
 10
66.66902915130888
 20
6.703407058178991
 30
0.0
 10
66.95042223328912
 20
6.509994414770522
 30
0.0
  0
SPLINE
  5
236
330
1F
100
AcDbEntity
  8
SK3
  6
SLD-Dashed
370
    18
100
AcDbSpline
210
0.0
220
0.0
230
1.0
 70
     8
 71
     3
 72
     8
 73
     4
 74
     0
 42
0.000000001
 43
0.00000001
 40
0.1250000000000018
 40
0.1250000000000018
 40
0.1250000000000018
 40
0.1250000000000018
 40
0.1562500000000018
 40
0.1562500000000018
 40
0.1562500000000018
 40
0.1562500000000018
 10
66.95042223328912
 20
6.509994414770522
 30
0.0
 10
67.2318153152694
 20
6.316581771362053
 30
0.0
 10
67.54066819432961
 20
6.113726039656465
 30
0.0
 10
67.86833195739474
 20
5.916761669637332
 30
0.0
  0
SPLINE
  5
237
330
1F
100
AcDbEntity
  8
SK3
  6
SLD-Dashed
370
    18
100
AcDbSpline
210
0.0
220
0.0
230
1.0
 70
     8
 71
     3
 72
     8
 73
     4
 74
     0
 42
0.000000001
 43
0.00000001
 40
0.1562500000000018
 40
0.1562500000000018
 40
0.1562500000000018
 40
0.1562500000000018
 40
0.1875000000000019
 40
0.1875000000000019
 40
0.1875000000000019
 40
0.1875000000000019
 10
67.86833195739474
 20
5.916761669637332
 30
0.0
 10
68.19599572045989
 20
5.719797299618169
 30
0.0
 10
68.54245385940311
 20
5.528079381236374
 30
0.0
 10
68.91385213339338
 20
5.353881274175097
 30
0.0
  0
SPLINE
  5
238
330
1F
100
AcDbEntity
  8
SK3
  6
SLD-Dashed
370
    18
100
AcDbSpline
210
0.0
220
0.0
230
1.0
 70
     8
 71
     3
 72
     8
 73
     4
 74
     0
 42
0.000000001
 43
0.00000001
 40
0.1875000000000019
 40
0.1875000000000019
 40
0.1875000000000019
 40
0.1875000000000019
 40
0.218750000000002
 40
0.218750000000002
 40
0.218750000000002
 40
0.218750000000002
 10
68.91385213339338
 20
5.353881274175097
 30
0.0
 10
69.28525040738367
 20
5.17968316711382
 30
0.0
 10
69.68716220105073
 20
5.021557437384687
 30
0.0
 10
70.10532269690442
 20
4.909147509935464
 30
0.0
  0
SPLINE
  5
239
330
1F
100
AcDbEntity
  8
SK3
  6
SLD-Dashed
370
    18
100
AcDbSpline
210
0.0
220
0.0
230
1.0
 70
     8
 71
     3
 72
     8
 73
     4
 74
     0
 42
0.000000001
 43
0.00000001
 40
0.218750000000002
 40
0.218750000000002
 40
0.218750000000002
 40
0.218750000000002
 40
0.234375000000002
 40
0.234375000000002
 40
0.234375000000002
 40
0.234375000000002
 10
70.10532269690442
 20
4.909147509935464
 30
0.0
 10
70.3144029448313
 20
4.852942546210846
 30
0.0
 10
70.52818381396939
 20
4.807837395982735
 30
0.0
 10
70.74756459927936
 20
4.776724799708427
 30
0.0
  0
SPLINE
  5
23A
330
1F
100
AcDbEntity
  8
SK3
  6
SLD-Dashed
370
    18
100
AcDbSpline
210
0.0
220
0.0
230
1.0
 70
     8
 71
     3
 72
     8
 73
     4
 74
     0
 42
0.000000001
 43
0.00000001
 40
0.234375000000002
 40
0.234375000000002
 40
0.234375000000002
 40
0.234375000000002
 40
0.2500000000000021
 40
0.2500000000000021
 40
0.2500000000000021
 40
0.2500000000000021
 10
70.74756459927936
 20
4.776724799708427
 30
0.0
 10
70.96694538458931
 20
4.745612203434092
 30
0.0
 10
71.19003656210118
 20
4.729148623066497
 30
0.0
 10
71.41036058120676
 20
4.728466495871837
 30
0.0
  0
SPLINE
  5
23B
330
1F
100
AcDbEntity
  8
SK3
  6
SLD-Dashed
370
    18
100
AcDbSpline
210
0.0
220
0.0
230
1.0
 70
     8
 71
     3
 72
     8
 73
     4
 74
     0
 42
0.000000001
 43
0.00000001
 40
0.2500000000000021
 40
0.2500000000000021
 40
0.2500000000000021
 40
0.2500000000000021
 40
0.2656250000000021
 40
0.2656250000000021
 40
0.2656250000000021
 40
0.2656250000000021
 10
71.41036058120676
 20
4.728466495871837
 30
0.0
 10
71.63068460031228
 20
4.727784368677164
 30
0.0
 10
71.85012137412386
 20
4.742573252469621
 30
0.0
 10
72.0687021213205
 20
4.772057576244486
 30
0.0
  0
SPLINE
  5
23C
330
1F
100
AcDbEntity
  8
SK3
  6
SLD-Dashed
370
    18
100
AcDbSpline
210
0.0
220
0.0
230
1.0
 70
     8
 71
     3
 72
     8
 73
     4
 74
     0
 42
0.000000001
 43
0.00000001
 40
0.2656250000000021
 40
0.2656250000000021
 40
0.2656250000000021
 40
0.2656250000000021
 40
0.2812500000000021
 40
0.2812500000000021
 40
0.2812500000000021
 40
0.2812500000000021
 10
72.0687021213205
 20
4.772057576244486
 30
0.0
 10
72.28728286851712
 20
4.80154190001935
 30
0.0
 10
72.50536623500534
 20
4.846074115867911
 30
0.0
 10
72.7150931328594
 20
4.901277525446869
 30
0.0
  0
SPLINE
  5
23D
330
1F
100
AcDbEntity
  8
SK3
  6
SLD-Dashed
370
    18
100
AcDbSpline
210
0.0
220
0.0
230
1.0
 70
     8
 71
     3
 72
     8
 73
     4
 74
     0
 42
0.000000001
 43
0.00000001
 40
0.2812500000000021
 40
0.2812500000000021
 40
0.2812500000000021
 40
0.2812500000000021
 40
0.3125000000000021
 40
0.3125000000000021
 40
0.3125000000000021
 40
0.3125000000000021
 10
72.7150931328594
 20
4.901277525446869
 30
0.0
 10
73.13454692856754
 20
5.011684344604826
 30
0.0
 10
73.53089797071796
 20
5.165431581693962
 30
0.0
 10
73.90771221438702
 20
5.340603058594275
 30
0.0
  0
SPLINE
  5
23E
330
1F
100
AcDbEntity
  8
SK3
  6
SLD-Dashed
370
    18
100
AcDbSpline
210
0.0
220
0.0
230
1.0
 70
     8
 71
     3
 72
     8
 73
     4
 74
     0
 42
0.000000001
 43
0.00000001
 40
0.3125000000000021
 40
0.3125000000000021
 40
0.3125000000000021
 40
0.3125000000000021
 40
0.3437500000000022
 40
0.3437500000000022
 40
0.3437500000000022
 40
0.3437500000000022
 10
73.90771221438702
 20
5.340603058594275
 30
0.0
 10
74.28452645805608
 20
5.515774535494574
 30
0.0
 10
74.63271343269496
 20
5.707787869733923
 30
0.0
 10
74.96012754443224
 20
5.903838399330001
 30
0.0
  0
SPLINE
  5
23F
330
1F
100
AcDbEntity
  8
SK3
  6
SLD-Dashed
370
    18
100
AcDbSpline
210
0.0
220
0.0
230
1.0
 70
     8
 71
     3
 72
     8
 73
     4
 74
     0
 42
0.000000001
 43
0.00000001
 40
0.3437500000000022
 40
0.3437500000000022
 40
0.3437500000000022
 40
0.3437500000000022
 40
0.3593750000000019
 40
0.3593750000000019
 40
0.3593750000000019
 40
0.3593750000000019
 10
74.96012754443224
 20
5.903838399330001
 30
0.0
 10
75.12383460030087
 20
6.001863664128019
 30
0.0
 10
75.28221431348878
 20
6.101032172799885
 30
0.0
 10
75.43563743203156
 20
6.20027367954127
 30
0.0
  0
SPLINE
  5
240
330
1F
100
AcDbEntity
  8
SK3
  6
SLD-Dashed
370
    18
100
AcDbSpline
210
0.0
220
0.0
230
1.0
 70
     8
 71
     3
 72
     8
 73
     4
 74
     0
 42
0.000000001
 43
0.00000001
 40
0.3593750000000019
 40
0.3593750000000019
 40
0.3593750000000019
 40
0.3593750000000019
 40
0.3750000000000016
 40
0.3750000000000016
 40
0.3750000000000016
 40
0.3750000000000016
 10
75.43563743203156
 20
6.20027367954127
 30
0.0
 10
75.58906055057429
 20
6.299515186282655
 30
0.0
 10
75.7381874635615
 20
6.399300471535703
 30
0.0
 10
75.8804518748821
 20
6.496863281568253
 30
0.0
  0
SPLINE
  5
241
330
1F
100
AcDbEntity
  8
SK3
  6
SLD-Dashed
370
    18
100
AcDbSpline
210
0.0
220
0.0
230
1.0
 70
     8
 71
     3
 72
     8
 73
     4
 74
     0
 42
0.000000001
 43
0.00000001
 40
0.3750000000000016
 40
0.3750000000000016
 40
0.3750000000000016
 40
0.3750000000000016
 40
0.4062500000000009
 40
0.4062500000000009
 40
0.4062500000000009
 40
0.4062500000000009
 10
75.8804518748821
 20
6.496863281568253
 30
0.0
 10
76.16498069752323
 20
6.691988901633382
 30
0.0
 10
76.42254513525302
 20
6.878200182161113
 30
0.0
 10
76.65351356060978
 20
7.049506021238668
 30
0.0
  0
SPLINE
  5
242
330
1F
100
AcDbEntity
  8
SK3
  6
SLD-Dashed
370
    18
100
AcDbSpline
210
0.0
220
0.0
230
1.0
 70
     8
 71
     3
 72
     8
 73
     4
 74
     0
 42
0.000000001
 43
0.00000001
 40
0.4062500000000009
 40
0.4062500000000009
 40
0.4062500000000009
 40
0.4062500000000009
 40
0.4218750000000006
 40
0.4218750000000006
 40
0.4218750000000006
 40
0.4218750000000006
 10
76.65351356060978
 20
7.049506021238668
 30
0.0
 10
76.76899777328822
 20
7.135158940777465
 30
0.0
 10
76.87776119243087
 20
7.217093981895399
 30
0.0
 10
76.97939296002667
 20
7.294481629587811
 30
0.0
  0
SPLINE
  5
243
330
1F
100
AcDbEntity
  8
SK3
  6
SLD-Dashed
370
    18
100
AcDbSpline
210
0.0
220
0.0
230
1.0
 70
     8
 71
     3
 72
     8
 73
     4
 74
     0
 42
0.000000001
 43
0.00000001
 40
0.4218750000000006
 40
0.4218750000000006
 40
0.4218750000000006
 40
0.4218750000000006
 40
0.4375000000000002
 40
0.4375000000000002
 40
0.4375000000000002
 40
0.4375000000000002
 10
76.97939296002667
 20
7.294481629587811
 30
0.0
 10
77.08102472762255
 20
7.371869277280209
 30
0.0
 10
77.17599029909769
 20
7.445078577464397
 30
0.0
 10
77.26117280763012
 20
7.511264482796494
 30
0.0
  0
SPLINE
  5
244
330
1F
100
AcDbEntity
  8
SK3
  6
SLD-Dashed
370
    18
100
AcDbSpline
210
0.0
220
0.0
230
1.0
 70
     8
 71
     3
 72
     8
 73
     4
 74
     0
 42
0.000000001
 43
0.00000001
 40
0.4375000000000002
 40
0.4375000000000002
 40
0.4375000000000002
 40
0.4375000000000002
 40
0.4687499999999996
 40
0.4687499999999996
 40
0.4687499999999996
 40
0.4687499999999996
 10
77.26117280763012
 20
7.511264482796494
 30
0.0
 10
77.43153782469494
 20
7.643636293460674
 30
0.0
 10
77.56482130155682
 20
7.749352939758556
 30
0.0
 10
77.65716984103425
 20
7.822922856419883
 30
0.0
  0
SPLINE
  5
245
330
1F
100
AcDbEntity
  8
SK3
  6
SLD-Dashed
370
    18
100
AcDbSpline
210
0.0
220
0.0
230
1.0
 70
     8
 71
     3
 72
     8
 73
     4
 74
     0
 42
0.000000001
 43
0.00000001
 40
0.4687499999999996
 40
0.4687499999999996
 40
0.4687499999999996
 40
0.4687499999999996
 40
0.4843749999999994
 40
0.4843749999999994
 40
0.4843749999999994
 40
0.4843749999999994
 10
77.65716984103425
 20
7.822922856419883
 30
0.0
 10
77.70334411077296
 20
7.859707814750531
 30
0.0
 10
77.73896577994657
 20
7.88822803379529
 30
0.0
 10
77.76281852474732
 20
7.907346251596052
 30
0.0
  0
SPLINE
  5
246
330
1F
100
AcDbEntity
  8
SK3
  6
SLD-Dashed
370
    18
100
AcDbSpline
210
0.0
220
0.0
230
1.0
 70
     8
 71
     3
 72
     8
 73
     4
 74
     0
 42
0.000000001
 43
0.00000001
 40
0.4843749999999994
 40
0.4843749999999994
 40
0.4843749999999994
 40
0.4843749999999994
 40
0.4999999999999992
 40
0.4999999999999992
 40
0.4999999999999992
 40
0.4999999999999992
 10
77.76281852474732
 20
7.907346251596052
 30
0.0
 10
77.78667126954805
 20
7.926464469396814
 30
0.0
 10
77.79916709637583
 20
7.936509736413903
 30
0.0
 10
77.80031341967364
 20
7.937430458849406
 30
0.0
  0
SPLINE
  5
247
330
1F
100
AcDbEntity
  8
SK3
  6
SLD-Dashed
370
    18
100
AcDbSpline
210
0.0
220
0.0
230
1.0
 70
     8
 71
     3
 72
     8
 73
     4
 74
     0
 42
0.000000001
 43
0.00000001
 40
0.5312499999999987
 40
0.5312499999999987
 40
0.5312499999999987
 40
0.5312499999999987
 40
0.5468749999999984
 40
0.5468749999999984
 40
0.5468749999999984
 40
0.5468749999999984
 10
77.67010871878219
 20
7.833234580900079
 30
0.0
 10
77.62623176930339
 20
7.798253333126455
 30
0.0
 10
77.5718208226471
 20
7.754999489359947
 30
0.0
 10
77.50725807011973
 20
7.704027798595768
 30
0.0
  0
SPLINE
  5
248
330
1F
100
AcDbEntity
  8
SK3
  6
SLD-Dashed
370
    18
100
AcDbSpline
210
0.0
220
0.0
230
1.0
 70
     8
 71
     3
 72
     8
 73
     4
 74
     0
 42
0.000000001
 43
0.00000001
 40
0.5468749999999984
 40
0.5468749999999984
 40
0.5468749999999984
 40
0.5468749999999984
 40
0.5624999999999982
 40
0.5624999999999982
 40
0.5624999999999982
 40
0.5624999999999982
 10
77.50725807011973
 20
7.704027798595768
 30
0.0
 10
77.44269531759238
 20
7.653056107831575
 30
0.0
 10
77.36745257074476
 20
7.593955081707356
 30
0.0
 10
77.28365459747855
 20
7.528745897063864
 30
0.0
  0
SPLINE
  5
249
330
1F
100
AcDbEntity
  8
SK3
  6
SLD-Dashed
370
    18
100
AcDbSpline
210
0.0
220
0.0
230
1.0
 70
     8
 71
     3
 72
     8
 73
     4
 74
     0
 42
0.000000001
 43
0.00000001
 40
0.5624999999999982
 40
0.5624999999999982
 40
0.5624999999999982
 40
0.5624999999999982
 40
0.5937499999999978
 40
0.5937499999999978
 40
0.5937499999999978
 40
0.5937499999999978
 10
77.28365459747855
 20
7.528745897063864
 30
0.0
 10
77.11605865094603
 20
7.398327527776853
 30
0.0
 10
76.91503035483984
 20
7.243937605810109
 30
0.0
 10
76.68342288838822
 20
7.071717780223051
 30
0.0
  0
SPLINE
  5
24A
330
1F
100
AcDbEntity
  8
SK3
  6
SLD-Dashed
370
    18
100
AcDbSpline
210
0.0
220
0.0
230
1.0
 70
     8
 71
     3
 72
     8
 73
     4
 74
     0
 42
0.000000001
 43
0.00000001
 40
0.5937499999999978
 40
0.5937499999999978
 40
0.5937499999999978
 40
0.5937499999999978
 40
0.6093749999999973
 40
0.6093749999999973
 40
0.6093749999999973
 40
0.6093749999999973
 10
76.68342288838822
 20
7.071717780223051
 30
0.0
 10
76.56761915516242
 20
6.985607867429529
 30
0.0
 10
76.44397923901671
 20
6.894946052800603
 30
0.0
 10
76.31488813350948
 20
6.802145767935051
 30
0.0
  0
SPLINE
  5
24B
330
1F
100
AcDbEntity
  8
SK3
  6
SLD-Dashed
370
    18
100
AcDbSpline
210
0.0
220
0.0
230
1.0
 70
     8
 71
     3
 72
     8
 73
     4
 74
     0
 42
0.000000001
 43
0.00000001
 40
0.6093749999999973
 40
0.6093749999999973
 40
0.6093749999999973
 40
0.6093749999999973
 40
0.6249999999999968
 40
0.6249999999999968
 40
0.6249999999999968
 40
0.6249999999999968
 10
76.31488813350948
 20
6.802145767935051
 30
0.0
 10
76.18579702800227
 20
6.709345483069486
 30
0.0
 10
76.05075093171848
 20
6.614022099829676
 30
0.0
 10
75.9097612727328
 20
6.516998140509454
 30
0.0
  0
SPLINE
  5
24C
330
1F
100
AcDbEntity
  8
SK3
  6
SLD-Dashed
370
    18
100
AcDbSpline
210
0.0
220
0.0
230
1.0
 70
     8
 71
     3
 72
     8
 73
     4
 74
     0
 42
0.000000001
 43
0.00000001
 40
0.6249999999999968
 40
0.6249999999999968
 40
0.6249999999999968
 40
0.6249999999999968
 40
0.6406249999999963
 40
0.6406249999999963
 40
0.6406249999999963
 40
0.6406249999999963
 10
75.9097612727328
 20
6.516998140509454
 30
0.0
 10
75.76877161374715
 20
6.419974181189246
 30
0.0
 10
75.62184071738135
 20
6.321242174592477
 30
0.0
 10
75.4686729006408
 20
6.221693629340545
 30
0.0
  0
SPLINE
  5
24D
330
1F
100
AcDbEntity
  8
SK3
  6
SLD-Dashed
370
    18
100
AcDbSpline
210
0.0
220
0.0
230
1.0
 70
     8
 71
     3
 72
     8
 73
     4
 74
     0
 42
0.000000001
 43
0.00000001
 40
0.6406249999999963
 40
0.6406249999999963
 40
0.6406249999999963
 40
0.6406249999999963
 40
0.6562499999999959
 40
0.6562499999999959
 40
0.6562499999999959
 40
0.6562499999999959
 10
75.4686729006408
 20
6.221693629340545
 30
0.0
 10
75.31550508390028
 20
6.122145084088642
 30
0.0
 10
75.15545154597794
 20
6.021398222991463
 30
0.0
 10
74.99112232601951
 20
5.922449622760388
 30
0.0
  0
SPLINE
  5
24E
330
1F
100
AcDbEntity
  8
SK3
  6
SLD-Dashed
370
    18
100
AcDbSpline
210
0.0
220
0.0
230
1.0
 70
     8
 71
     3
 72
     8
 73
     4
 74
     0
 42
0.000000001
 43
0.00000001
 40
0.6562499999999959
 40
0.6562499999999959
 40
0.6562499999999959
 40
0.6562499999999959
 40
0.6874999999999957
 40
0.6874999999999957
 40
0.6874999999999957
 40
0.6874999999999957
 10
74.99112232601951
 20
5.922449622760388
 30
0.0
 10
74.66246388610259
 20
5.724552422298225
 30
0.0
 10
74.31569429868665
 20
5.532397188757289
 30
0.0
 10
73.94523821278499
 20
5.358150962709203
 30
0.0
  0
SPLINE
  5
24F
330
1F
100
AcDbEntity
  8
SK3
  6
SLD-Dashed
370
    18
100
AcDbSpline
210
0.0
220
0.0
230
1.0
 70
     8
 71
     3
 72
     8
 73
     4
 74
     0
 42
0.000000001
 43
0.00000001
 40
0.6874999999999957
 40
0.6874999999999957
 40
0.6874999999999957
 40
0.6874999999999957
 40
0.7031249999999959
 40
0.7031249999999959
 40
0.7031249999999959
 40
0.7031249999999959
 10
73.94523821278499
 20
5.358150962709203
 30
0.0
 10
73.76001016983422
 20
5.271027849685174
 30
0.0
 10
73.56877923755556
 20
5.188468916617249
 30
0.0
 10
73.37009920851811
 20
5.112884901988086
 30
0.0
  0
SPLINE
  5
250
330
1F
100
AcDbEntity
  8
SK3
  6
SLD-Dashed
370
    18
100
AcDbSpline
210
0.0
220
0.0
230
1.0
 70
     8
 71
     3
 72
     8
 73
     4
 74
     0
 42
0.000000001
 43
0.00000001
 40
0.7031249999999959
 40
0.7031249999999959
 40
0.7031249999999959
 40
0.7031249999999959
 40
0.7187499999999962
 40
0.7187499999999962
 40
0.7187499999999962
 40
0.7187499999999962
 10
73.37009920851811
 20
5.112884901988086
 30
0.0
 10
73.17141917948064
 20
5.03730088735891
 30
0.0
 10
72.96409619382952
 20
4.968510294405558
 30
0.0
 10
72.75401290736345
 20
4.91166533855255
 30
0.0
  0
SPLINE
  5
251
330
1F
100
AcDbEntity
  8
SK3
  6
SLD-Dashed
370
    18
100
AcDbSpline
210
0.0
220
0.0
230
1.0
 70
     8
 71
     3
 72
     8
 73
     4
 74
     0
 42
0.000000001
 43
0.00000001
 40
0.7187499999999962
 40
0.7187499999999962
 40
0.7187499999999962
 40
0.7187499999999962
 40
0.7343749999999964
 40
0.7343749999999964
 40
0.7343749999999964
 40
0.7343749999999964
 10
72.75401290736345
 20
4.91166533855255
 30
0.0
 10
72.54392962089737
 20
4.854820382699542
 30
0.0
 10
72.32988822413353
 20
4.809384993842751
 30
0.0
 10
72.11124255011231
 20
4.777981783931843
 30
0.0
  0
SPLINE
  5
252
330
1F
100
AcDbEntity
  8
SK3
  6
SLD-Dashed
370
    18
100
AcDbSpline
210
0.0
220
0.0
230
1.0
 70
     8
 71
     3
 72
     8
 73
     4
 74
     0
 42
0.000000001
 43
0.00000001
 40
0.7343749999999964
 40
0.7343749999999964
 40
0.7343749999999964
 40
0.7343749999999964
 40
0.7499999999999968
 40
0.7499999999999968
 40
0.7499999999999968
 40
0.7499999999999968
 10
72.11124255011231
 20
4.777981783931843
 30
0.0
 10
71.89259687609109
 20
4.746578574020923
 30
0.0
 10
71.66727662233511
 20
4.729432927675865
 30
0.0
 10
71.44514123651238
 20
4.728486730383001
 30
0.0
  0
SPLINE
  5
253
330
1F
100
AcDbEntity
  8
SK3
  6
SLD-Dashed
370
    18
100
AcDbSpline
210
0.0
220
0.0
230
1.0
 70
     8
 71
     3
 72
     8
 73
     4
 74
     0
 42
0.000000001
 43
0.00000001
 40
0.7499999999999968
 40
0.7499999999999968
 40
0.7499999999999968
 40
0.7499999999999968
 40
0.7656249999999971
 40
0.7656249999999971
 40
0.7656249999999971
 40
0.7656249999999971
 10
71.44514123651238
 20
4.728486730383001
 30
0.0
 10
71.22300585068966
 20
4.727540533090137
 30
0.0
 10
71.00275377435786
 20
4.742320059482753
 30
0.0
 10
70.78427245005206
 20
4.771657247043433
 30
0.0
  0
SPLINE
  5
254
330
1F
100
AcDbEntity
  8
SK3
  6
SLD-Dashed
370
    18
100
AcDbSpline
210
0.0
220
0.0
230
1.0
 70
     8
 71
     3
 72
     8
 73
     4
 74
     0
 42
0.000000001
 43
0.00000001
 40
0.7656249999999971
 40
0.7656249999999971
 40
0.7656249999999971
 40
0.7656249999999971
 40
0.7812499999999973
 40
0.7812499999999973
 40
0.7812499999999973
 40
0.7812499999999973
 10
70.78427245005206
 20
4.771657247043433
 30
0.0
 10
70.56579112574626
 20
4.800994434604126
 30
0.0
 10
70.34727479224587
 20
4.845427292099934
 30
0.0
 10
70.13610875013663
 20
4.900961308149064
 30
0.0
  0
SPLINE
  5
255
330
1F
100
AcDbEntity
  8
SK3
  6
SLD-Dashed
370
    18
100
AcDbSpline
210
0.0
220
0.0
230
1.0
 70
     8
 71
     3
 72
     8
 73
     4
 74
     0
 42
0.000000001
 43
0.00000001
 40
0.7812499999999973
 40
0.7812499999999973
 40
0.7812499999999973
 40
0.7812499999999973
 40
0.812499999999997
 40
0.812499999999997
 40
0.812499999999997
 40
0.812499999999997
 10
70.13610875013663
 20
4.900961308149064
 30
0.0
 10
69.7137766659181
 20
5.01202934024731
 30
0.0
 10
69.31845639198406
 20
5.165682206463871
 30
0.0
 10
68.94139194733684
 20
5.341019570199397
 30
0.0
  0
SPLINE
  5
256
330
1F
100
AcDbEntity
  8
SK3
  6
SLD-Dashed
370
    18
100
AcDbSpline
210
0.0
220
0.0
230
1.0
 70
     8
 71
     3
 72
     8
 73
     4
 74
     0
 42
0.000000001
 43
0.00000001
 40
0.812499999999997
 40
0.812499999999997
 40
0.812499999999997
 40
0.812499999999997
 40
0.8281249999999973
 40
0.8281249999999973
 40
0.8281249999999973
 40
0.8281249999999973
 10
68.94139194733684
 20
5.341019570199397
 30
0.0
 10
68.75285972501324
 20
5.428688252067166
 30
0.0
 10
68.56951667660461
 20
5.521776818736064
 30
0.0
 10
68.39354068734261
 20
5.616754103064982
 30
0.0
  0
SPLINE
  5
257
330
1F
100
AcDbEntity
  8
SK3
  6
SLD-Dashed
370
    18
100
AcDbSpline
210
0.0
220
0.0
230
1.0
 70
     8
 71
     3
 72
     8
 73
     4
 74
     0
 42
0.000000001
 43
0.00000001
 40
0.8281249999999973
 40
0.8281249999999973
 40
0.8281249999999973
 40
0.8281249999999973
 40
0.8437499999999976
 40
0.8437499999999976
 40
0.8437499999999976
 40
0.8437499999999976
 10
68.39354068734261
 20
5.616754103064982
 30
0.0
 10
68.21756469808058
 20
5.7117313873939
 30
0.0
 10
68.0479970217355
 20
5.809053641443997
 30
0.0
 10
67.88402643128586
 20
5.907340764196058
 30
0.0
  0
SPLINE
  5
258
330
1F
100
AcDbEntity
  8
SK3
  6
SLD-Dashed
370
    18
100
AcDbSpline
210
0.0
220
0.0
230
1.0
 70
     8
 71
     3
 72
     8
 73
     4
 74
     0
 42
0.000000001
 43
0.00000001
 40
0.8437499999999976
 40
0.8437499999999976
 40
0.8437499999999976
 40
0.8437499999999976
 40
0.8749999999999981
 40
0.8749999999999981
 40
0.8749999999999981
 40
0.8749999999999981
 10
67.88402643128586
 20
5.907340764196058
 30
0.0
 10
67.55608525038647
 20
6.103915009700152
 30
0.0
 10
67.25025989327423
 20
6.30423711843791
 30
0.0
 10
66.96442516494527
 20
6.500377600503169
 30
0.0
  0
SPLINE
  5
259
330
1F
100
AcDbEntity
  8
SK3
  6
SLD-Dashed
370
    18
100
AcDbSpline
210
0.0
220
0.0
230
1.0
 70
     8
 71
     3
 72
     8
 73
     4
 74
     0
 42
0.000000001
 43
0.00000001
 40
0.8749999999999981
 40
0.8749999999999981
 40
0.8749999999999981
 40
0.8749999999999981
 40
0.9062499999999987
 40
0.9062499999999987
 40
0.9062499999999987
 40
0.9062499999999987
 10
66.96442516494527
 20
6.500377600503169
 30
0.0
 10
66.67859043661628
 20
6.696518082568444
 30
0.0
 10
66.41895574334563
 20
6.884386753605622
 30
0.0
 10
66.18837605849626
 20
7.055523467095141
 30
0.0
  0
SPLINE
  5
25A
330
1F
100
AcDbEntity
  8
SK3
  6
SLD-Dashed
370
    18
100
AcDbSpline
210
0.0
220
0.0
230
1.0
 70
     8
 71
     3
 72
     8
 73
     4
 74
     0
 42
0.000000001
 43
0.00000001
 40
0.9062499999999987
 40
0.9062499999999987
 40
0.9062499999999987
 40
0.9062499999999987
 40
0.9374999999999991
 40
0.9374999999999991
 40
0.9374999999999991
 40
0.9374999999999991
 10
66.18837605849626
 20
7.055523467095141
 30
0.0
 10
65.95779637364681
 20
7.226660180584675
 30
0.0
 10
65.7549872945629
 20
7.382116970214812
 30
0.0
 10
65.58400262110561
 20
7.515013737196312
 30
0.0
  0
SPLINE
  5
25B
330
1F
100
AcDbEntity
  8
SK3
  6
SLD-Dashed
370
    18
100
AcDbSpline
210
0.0
220
0.0
230
1.0
 70
     8
 71
     3
 72
     8
 73
     4
 74
     0
 42
0.000000001
 43
0.00000001
 40
0.9374999999999991
 40
0.9374999999999991
 40
0.9374999999999991
 40
0.9374999999999991
 40
0.9687499999999996
 40
0.9687499999999996
 40
0.9687499999999996
 40
0.9687499999999996
 10
65.58400262110561
 20
7.515013737196312
 30
0.0
 10
65.4130179476484
 20
7.647910504177811
 30
0.0
 10
65.27967222749146
 20
7.753722902492509
 30
0.0
 10
65.18878099396066
 20
7.826149026263572
 30
0.0
  0
SPLINE
  5
25C
330
1F
100
AcDbEntity
  8
SK3
  6
SLD-Dashed
370
    18
100
AcDbSpline
210
0.0
220
0.0
230
1.0
 70
     8
 71
     2
 72
     6
 73
     3
 74
     0
 42
0.000000001
 43
0.00000001
 40
0.9687499999999996
 40
0.9687499999999996
 40
0.9687499999999996
 40
1.0
 40
1.0
 40
1.0
 10
65.18878099396069
 20
7.82614902626355
 30
0.0
 10
65.09788976042991
 20
7.898575150034623
 30
0.0
 10
65.04960000000001
 20
7.93749999999998
 30
0.0
  0
SPLINE
  5
25D
330
1F
100
AcDbEntity
  8
SK3
  6
SLD-Dashed
370
    18
100
AcDbSpline
210
0.0
220
0.0
230
1.0
 70
     8
 71
     3
 72
    34
 73
    30
 74
     0
 42
0.000000001
 43
0.00000001
 40
0.499999999999998
 40
0.499999999999998
 40
0.499999999999998
 40
0.499999999999998
 40
0.5312499999999979
 40
0.5312499999999979
 40
0.5624999999999978
 40
0.5624999999999978
 40
0.5937499999999976
 40
0.5937499999999976
 40
0.6249999999999974
 40
0.6249999999999974
 40
0.6562499999999973
 40
0.6562499999999973
 40
0.6874999999999972
 40
0.6874999999999972
 40
0.7499999999999969
 40
0.7499999999999969
 40
0.8124999999999973
 40
0.8124999999999973
 40
0.8437499999999978
 40
0.8437499999999978
 40
0.8749999999999982
 40
0.8749999999999982
 40
0.9062499999999987
 40
0.9062499999999987
 40
0.937499999999999
 40
0.937499999999999
 40
0.9687499999999994
 40
0.9687499999999994
 40
1.0
 40
1.0
 40
1.0
 40
1.0
 10
9.638805742161708
 20
10.95392502366162
 30
0.0
 10
9.6938811607363
 20
10.8470588703952
 30
0.0
 10
9.763179283156648
 20
10.74439645836096
 30
0.0
 10
9.923515798149985
 20
10.55592715127707
 30
0.0
 10
10.01390276352453
 20
10.47020735344791
 30
0.0
 10
10.21445694949212
 20
10.31296552728877
 30
0.0
 10
10.32267837600209
 20
10.24333508542228
 30
0.0
 10
10.54307526498122
 20
10.12288935951391
 30
0.0
 10
10.65791658596822
 20
10.07070374731722
 30
0.0
 10
10.87819871140988
 20
9.98446318204086
 30
0.0
 10
10.98608094611136
 20
9.949205279737825
 30
0.0
 10
11.18968749579594
 20
9.892304259468986
 30
0.0
 10
11.28527842069084
 20
9.870580048613817
 30
0.0
 10
11.55898297450221
 20
9.820769890309979
 30
0.0
 10
11.72337034356695
 20
9.808096789548728
 30
0.0
 10
12.02194861504764
 20
9.821477532699761
 30
0.0
 10
12.15920875119765
 20
9.84731018817673
 30
0.0
 10
12.34760730605758
 20
9.927824692744426
 30
0.0
 10
12.40688352391457
 20
9.961503747003366
 30
0.0
 10
12.51780294837551
 20
10.0474980864718
 30
0.0
 10
12.56969006353044
 20
10.1002182908583
 30
0.0
 10
12.65991931900842
 20
10.22933776798928
 30
0.0
 10
12.69929072119649
 20
10.30748393412818
 30
0.0
 10
12.7558656863648
 20
10.4930273204103
 30
0.0
 10
12.77303399215493
 20
10.60290348381505
 30
0.0
 10
12.77663319740259
 20
10.83901366027914
 30
0.0
 10
12.76306993948381
 20
10.96766771108131
 30
0.0
 10
12.71170841969951
 20
11.21837738140153
 30
0.0
 10
12.67469993892523
 20
11.34057418425335
 30
0.0
 10
12.63040931107558
 20
11.45745606890562
 30
0.0
  0
SPLINE
  5
25E
330
1F
100
AcDbEntity
  8
SK3
  6
SLD-Dashed
370
    18
100
AcDbSpline
210
0.0
220
0.0
230
1.0
 70
     8
 71
     3
 72
    26
 73
    22
 74
     0
 42
0.000000001
 43
0.00000001
 40
0.0
 40
0.0
 40
0.0
 40
0.0
 40
0.0624999999999995
 40
0.0624999999999995
 40
0.124999999999999
 40
0.124999999999999
 40
0.1874999999999986
 40
0.1874999999999986
 40
0.2499999999999981
 40
0.2499999999999981
 40
0.281249999999998
 40
0.281249999999998
 40
0.3124999999999979
 40
0.3124999999999979
 40
0.3749999999999981
 40
0.3749999999999981
 40
0.4374999999999984
 40
0.4374999999999984
 40
0.4687499999999982
 40
0.4687499999999982
 40
0.499999999999998
 40
0.499999999999998
 40
0.499999999999998
 40
0.499999999999998
 10
12.63040931107558
 20
11.45745606890562
 30
0.0
 10
12.54182805537631
 20
11.69121983821018
 30
0.0
 10
12.43200682775376
 20
11.89056157115175
 30
0.0
 10
12.18419932759159
 20
12.25514411813747
 30
0.0
 10
12.04834522926919
 20
12.41463399152622
 30
0.0
 10
11.75314013646128
 20
12.69173524411803
 30
0.0
 10
11.59091385222424
 20
12.81202758601131
 30
0.0
 10
11.23004729019513
 20
12.99241430793246
 30
0.0
 10
11.02728334192554
 20
13.05343833574647
 30
0.0
 10
10.69987000905187
 20
13.05646994226835
 30
0.0
 10
10.58531472788946
 20
13.04197607005517
 30
0.0
 10
10.36396153134629
 20
12.97944613660277
 30
0.0
 10
10.25449961952682
 20
12.93102694430325
 30
0.0
 10
9.947578697971318
 20
12.73948161914288
 30
0.0
 10
9.776646578307194
 20
12.55346040827497
 30
0.0
 10
9.542451961566181
 20
12.12678030999252
 30
0.0
 10
9.478612055377923
 20
11.88580640702582
 30
0.0
 10
9.473421112414268
 20
11.52565520755326
 30
0.0
 10
9.486345898652646
 20
11.40749361566878
 30
0.0
 10
9.541390615621022
 20
11.17459151908689
 30
0.0
 10
9.583730323587114
 20
11.06079117692803
 30
0.0
 10
9.638805742161708
 20
10.95392502366162
 30
0.0
  0
SPLINE
  5
25F
330
1F
100
AcDbEntity
  8
SK3
  6
SLD-Dashed
370
    18
100
AcDbSpline
210
0.0
220
0.0
230
1.0
 70
     8
 71
     3
 72
    18
 73
    14
 74
     0
 42
0.000000001
 43
0.00000001
 40
0.0
 40
0.0
 40
0.0
 40
0.0
 40
0.0501962867734933
 40
0.100030621443722
 40
0.1855667331187706
 40
0.2501823892320661
 40
0.3747066158220745
 40
0.4998232982189725
 40
0.6247294758455316
 40
0.7494251058857281
 40
0.8746331028690637
 40
0.9372230808189629
 40
1.0
 40
1.0
 40
1.0
 40
1.0
 10
3.950000000000009
 20
46.81625358782996
 30
0.0
 10
3.943300488172055
 20
46.81609127853698
 30
0.0
 10
3.929949772918079
 20
46.81576783032027
 30
0.0
 10
3.905360779048073
 20
46.81256776526224
 30
0.0
 10
3.879327985377809
 20
46.8063057979313
 30
0.0
 10
3.844998498051089
 20
46.79331555547189
 30
0.0
 10
3.808260602500904
 20
46.77247000397299
 30
0.0
 10
3.770344503827447
 20
46.73942242416843
 30
0.0
 10
3.739587180509221
 20
46.69961163074886
 30
0.0
 10
3.716933654940719
 20
46.6546887511002
 30
0.0
 10
3.705476597958085
 20
46.61434662644383
 30
0.0
 10
3.70067532494249
 20
46.58119847829342
 30
0.0
 10
3.700225331983622
 20
46.5644648311238
 30
0.0
 10
3.700000000000009
 20
46.55608553132448
 30
0.0
  0
SPLINE
  5
260
330
1F
100
AcDbEntity
  8
SK3
  6
SLD-Dashed
370
    18
100
AcDbSpline
210
0.0
220
0.0
230
1.0
 70
     8
 71
     3
 72
    18
 73
    14
 74
     0
 42
0.000000001
 43
0.00000001
 40
0.0
 40
0.0
 40
0.0
 40
0.0
 40
0.0502196103872228
 40
0.1000870260924098
 40
0.1855086368940469
 40
0.2501550808791907
 40
0.3746583157461306
 40
0.4998570853792907
 40
0.6242312608259453
 40
0.7494324099488449
 40
0.8740366596180048
 40
0.9370350243166926
 40
1.0
 40
1.0
 40
1.0
 40
1.0
 10
18.55000000000007
 20
46.55608553132441
 30
0.0
 10
18.54985614514715
 20
46.56278755186001
 30
0.0
 10
18.54956944430847
 20
46.57614459105337
 30
0.0
 10
18.54672594518125
 20
46.60076085239336
 30
0.0
 10
18.54114997473672
 20
46.62692328764688
 30
0.0
 10
18.52948583072872
 20
46.66169890756606
 30
0.0
 10
18.51054340758337
 20
46.69941980690709
 30
0.0
 10
18.47987172088775
 20
46.73918434013711
 30
0.0
 10
18.44197136356041
 20
46.77229285140236
 30
0.0
 10
18.39830135356874
 20
46.79720148409476
 30
0.0
 10
18.35828818785668
 20
46.81006094110494
 30
0.0
 10
18.32521964393113
 20
46.81548545401078
 30
0.0
 10
18.30840506230055
 20
46.81599758847393
 30
0.0
 10
18.30000000000001
 20
46.81625358782995
 30
0.0
  0
SPLINE
  5
261
330
1F
100
AcDbEntity
  8
1
  6
SLD-Dashed
370
    18
100
AcDbSpline
210
0.0
220
0.0
230
1.0
 70
     8
 71
     3
 72
     8
 73
     4
 74
     0
 42
0.000000001
 43
0.00000001
 40
0.0
 40
0.0
 40
0.0
 40
0.0
 40
1.0
 40
1.0
 40
1.0
 40
1.0
 10
9.200000000002031
 20
44.57901066343277
 30
0.0
 10
8.786353866861477
 20
45.32508460154084
 30
0.0
 10
8.372088490924064
 20
46.07082082932835
 30
0.0
 10
7.957289380062127
 20
46.81625358782996
 30
0.0
  0
SPLINE
  5
262
330
1F
100
AcDbEntity
  8
1
  6
SLD-Dashed
370
    18
100
AcDbSpline
210
0.0
220
0.0
230
1.0
 70
     8
 71
     3
 72
    10
 73
     6
 74
     0
 42
0.000000001
 43
0.00000001
 40
0.0
 40
0.0
 40
0.0
 40
0.0
 40
0.5
 40
0.5
 40
1.0
 40
1.0
 40
1.0
 40
1.0
 10
9.950000000001234
 20
43.7694359684941
 30
0.0
 10
9.748771536222415
 20
43.76943596849377
 30
0.0
 10
9.550990673892214
 20
43.85856672856772
 30
0.0
 10
9.277097785723997
 20
44.15022946993273
 30
0.0
 10
9.200000000000305
 20
44.34957328976746
 30
0.0
 10
9.199999999999985
 20
44.55102159322499
 30
0.0
  0
SPLINE
  5
263
330
1F
100
AcDbEntity
  8
1
  6
SLD-Dashed
370
    18
100
AcDbSpline
210
0.0
220
0.0
230
1.0
 70
     8
 71
     3
 72
    12
 73
     8
 74
     0
 42
0.000000001
 43
0.00000001
 40
0.0
 40
0.0
 40
0.0
 40
0.0
 40
0.5000000000000048
 40
0.5000000000000048
 40
0.7500000000000023
 40
0.7500000000000023
 40
1.0
 40
1.0
 40
1.0
 40
1.0
 10
13.02999999999992
 20
44.55102159322491
 30
0.0
 10
13.0299999999999
 20
44.35104831812321
 30
0.0
 10
12.95399603318285
 20
44.15150826736607
 30
0.0
 10
12.74724095984754
 20
43.93116827138051
 30
0.0
 10
12.66314206268639
 20
43.87128621650958
 30
0.0
 10
12.48048875274076
 20
43.7908422871653
 30
0.0
 10
12.37984375713169
 20
43.76943596849289
 30
0.0
 10
12.28000000000001
 20
43.76943596849289
 30
0.0
  0
SPLINE
  5
264
330
1F
100
AcDbEntity
  8
1
  6
SLD-Dashed
370
    18
100
AcDbSpline
210
0.0
220
0.0
230
1.0
 70
     8
 71
     3
 72
     8
 73
     4
 74
     0
 42
0.000000001
 43
0.00000001
 40
0.0
 40
0.0
 40
0.0
 40
0.0
 40
1.0
 40
1.0
 40
1.0
 40
1.0
 10
14.27271061995094
 20
46.81625358783778
 30
0.0
 10
13.85791150908532
 20
46.07082082933482
 30
0.0
 10
13.44364613314422
 20
45.32508460154594
 30
0.0
 10
13.02999999999999
 20
44.57901066343647
 30
0.0
  0
SPLINE
  5
265
330
1F
100
AcDbEntity
  8
1
  6
SLD-Dashed
370
    18
100
AcDbSpline
210
0.0
220
0.0
230
1.0
 70
     8
 71
     3
 72
    12
 73
     8
 74
     0
 42
0.000000001
 43
0.00000001
 40
0.0
 40
0.0
 40
0.0
 40
0.0
 40
0.2499999999999967
 40
0.2499999999999967
 40
0.4999999999999933
 40
0.4999999999999933
 40
1.0
 40
1.0
 40
1.0
 40
1.0
 10
3.199999999999797
 20
-46.69763484374749
 30
0.0
 10
3.199999999999839
 20
-46.79851095846152
 30
0.0
 10
3.218629406337781
 20
-46.89733966428927
 30
0.0
 10
3.291844246696886
 20
-47.08411469648332
 30
0.0
 10
3.345979173512772
 20
-47.16991322229987
 30
0.0
 10
3.551871853062272
 20
-47.38753444472504
 30
0.0
 10
3.74802685678137
 20
-47.47548419974256
 30
0.0
 10
3.950000000000009
 20
-47.4754841997425
 30
0.0
  0
SPLINE
  5
266
330
1F
100
AcDbEntity
  8
1
  6
SLD-Dashed
370
    18
100
AcDbSpline
210
0.0
220
0.0
230
1.0
 70
     8
 71
     3
 72
    12
 73
     8
 74
     0
 42
0.000000001
 43
0.00000001
 40
0.0
 40
0.0
 40
0.0
 40
0.0
 40
0.2499999999999985
 40
0.2499999999999985
 40
0.499999999999997
 40
0.499999999999997
 40
1.0
 40
1.0
 40
1.0
 40
1.0
 10
18.30000000000036
 20
-47.47548419974282
 30
0.0
 10
18.40091596910978
 20
-47.47548419974277
 30
0.0
 10
18.50002158252289
 20
-47.45437693482729
 30
0.0
 10
18.68315226992481
 20
-47.37426897057841
 30
0.0
 10
18.76654490405296
 20
-47.31511647588049
 30
0.0
 10
18.97195148872762
 20
-47.09831987092238
 30
0.0
 10
19.05000000000009
 20
-46.89926900274105
 30
0.0
 10
19.05000000000001
 20
-46.69763484374772
 30
0.0
  0
SPLINE
  5
267
330
1F
100
AcDbEntity
  8
1
  6
SLD-Dashed
370
    18
100
AcDbSpline
210
0.0
220
0.0
230
1.0
 70
     8
 71
     3
 72
     8
 73
     4
 74
     0
 42
0.000000001
 43
0.00000001
 40
0.0
 40
0.0
 40
0.0
 40
0.0
 40
1.0
 40
1.0
 40
1.0
 40
1.0
 10
14.63972339340268
 20
-47.47548419974251
 30
0.0
 10
14.10222500453559
 20
-46.5104965471081
 30
0.0
 10
13.56559195163211
 20
-45.54503249842019
 30
0.0
 10
13.02999999999999
 20
-44.57901066343649
 30
0.0
  0
SPLINE
  5
268
330
1F
100
AcDbEntity
  8
1
  6
SLD-Dashed
370
    18
100
AcDbSpline
210
0.0
220
0.0
230
1.0
 70
     8
 71
     3
 72
    12
 73
     8
 74
     0
 42
0.000000001
 43
0.00000001
 40
0.0
 40
0.0
 40
0.0
 40
0.0
 40
0.5
 40
0.5
 40
0.75
 40
0.75
 40
1.0
 40
1.0
 40
1.0
 40
1.0
 10
13.03000000000026
 20
-44.55102159322528
 30
0.0
 10
13.03000000000033
 20
-44.35094747116185
 30
0.0
 10
12.9523869298502
 20
-44.14958800989085
 30
0.0
 10
12.74748896269967
 20
-43.9315357022575
 30
0.0
 10
12.66372770014787
 20
-43.87162606259755
 30
0.0
 10
12.48090790509572
 20
-43.79094541821722
 30
0.0
 10
12.3805733178244
 20
-43.76943596849286
 30
0.0
 10
12.28000000000001
 20
-43.76943596849289
 30
0.0
  0
SPLINE
  5
269
330
1F
100
AcDbEntity
  8
1
  6
SLD-Dashed
370
    18
100
AcDbSpline
210
0.0
220
0.0
230
1.0
 70
     8
 71
     3
 72
    12
 73
     8
 74
     0
 42
0.000000001
 43
0.00000001
 40
0.0
 40
0.0
 40
0.0
 40
0.0
 40
0.2500000000000039
 40
0.2500000000000039
 40
0.5000000000000078
 40
0.5000000000000078
 40
1.0
 40
1.0
 40
1.0
 40
1.0
 10
9.94999999999983
 20
-43.76943596849306
 30
0.0
 10
9.850030395358793
 20
-43.76943596849309
 30
0.0
 10
9.750114974766229
 20
-43.79051518316425
 30
0.0
 10
9.565507057761268
 20
-43.87194262843708
 30
0.0
 10
9.482715011846746
 20
-43.93126060501225
 30
0.0
 10
9.27657966040289
 20
-44.15080408372875
 30
0.0
 10
9.20000000000004
 20
-44.35163254795803
 30
0.0
 10
9.199999999999985
 20
-44.551021593225
 30
0.0
  0
SPLINE
  5
26A
330
1F
100
AcDbEntity
  8
1
  6
SLD-Dashed
370
    18
100
AcDbSpline
210
0.0
220
0.0
230
1.0
 70
     8
 71
     3
 72
     8
 73
     4
 74
     0
 42
0.000000001
 43
0.00000001
 40
0.0
 40
0.0
 40
0.0
 40
0.0
 40
1.0
 40
1.0
 40
1.0
 40
1.0
 10
9.199999999999985
 20
-44.57901066343648
 30
0.0
 10
8.664408048367891
 20
-45.54503249842018
 30
0.0
 10
8.127774995464424
 20
-46.51049654710809
 30
0.0
 10
7.590276606597349
 20
-47.47548419974249
 30
0.0
  0
SPLINE
  5
26B
330
1F
100
AcDbEntity
  8
SK3
  6
SLD-Dashed
370
    18
100
AcDbSpline
210
0.0
220
0.0
230
1.0
 70
     8
 71
     3
 72
    34
 73
    30
 74
     0
 42
0.000000001
 43
0.00000001
 40
0.5000000000000003
 40
0.5000000000000003
 40
0.5000000000000003
 40
0.5000000000000003
 40
0.5625000000000013
 40
0.5625000000000013
 40
0.5937500000000011
 40
0.5937500000000011
 40
0.625000000000001
 40
0.625000000000001
 40
0.6562500000000009
 40
0.6562500000000009
 40
0.6875000000000008
 40
0.6875000000000008
 40
0.7187500000000007
 40
0.7187500000000007
 40
0.7500000000000004
 40
0.7500000000000004
 40
0.7812500000000003
 40
0.7812500000000003
 40
0.8125000000000002
 40
0.8125000000000002
 40
0.8437500000000001
 40
0.8437500000000001
 40
0.875
 40
0.875
 40
0.9062499999999999
 40
0.9062499999999999
 40
0.9374999999999997
 40
0.9374999999999997
 40
1.0
 40
1.0
 40
1.0
 40
1.0
 10
10.60808274902045
 20
14.67518531385664
 30
0.0
 10
10.7714399435272
 20
14.66271400222902
 30
0.0
 10
10.9539607682107
 20
14.63137977172278
 30
0.0
 10
11.25812245907615
 20
14.5469177059656
 30
0.0
 10
11.36641585866904
 20
14.51171888144388
 30
0.0
 10
11.58574352105284
 20
14.42634662926306
 30
0.0
 10
11.69715944869877
 20
14.37625545607605
 30
0.0
 10
11.92117180667888
 20
14.2548371163082
 30
0.0
 10
12.02893523597722
 20
14.18587333985282
 30
0.0
 10
12.2296103085303
 20
14.02983333564747
 30
0.0
 10
12.32267742835869
 20
13.94226901556094
 30
0.0
 10
12.48372543018654
 20
13.75415019217111
 30
0.0
 10
12.55366053916099
 20
13.65130323099261
 30
0.0
 10
12.66489321927142
 20
13.43691773984446
 30
0.0
 10
12.70717730188428
 20
13.32435113894571
 30
0.0
 10
12.76326417564931
 20
13.08988167819452
 30
0.0
 10
12.7763551192606
 20
12.97149039057748
 30
0.0
 10
12.77342672652903
 20
12.73211084337569
 30
0.0
 10
12.75684979458239
 20
12.61060743991047
 30
0.0
 10
12.69552150102995
 20
12.37773497196914
 30
0.0
 10
12.65033349294085
 20
12.26373909474825
 30
0.0
 10
12.53298957942556
 20
12.04909612932804
 30
0.0
 10
12.46214536200849
 20
11.95022400081663
 30
0.0
 10
12.29651277322139
 20
11.77143410287179
 30
0.0
 10
12.20150676240367
 20
11.692195887395
 30
0.0
 10
11.99926684334574
 20
11.56533020093841
 30
0.0
 10
11.88885801145315
 20
11.5158749716928
 30
0.0
 10
11.55399205333034
 20
11.42069275726625
 30
0.0
 10
11.32716468948122
 20
11.42871083881322
 30
0.0
 10
11.12500000000001
 20
11.48273236161757
 30
0.0
  0
SPLINE
  5
26C
330
1F
100
AcDbEntity
  8
SK3
  6
SLD-Dashed
370
    18
100
AcDbSpline
210
0.0
220
0.0
230
1.0
 70
     8
 71
     3
 72
    30
 73
    26
 74
     0
 42
0.000000001
 43
0.00000001
 40
0.0
 40
0.0
 40
0.0
 40
0.0
 40
0.0624999999999997
 40
0.0624999999999997
 40
0.1249999999999995
 40
0.1249999999999995
 40
0.1562499999999993
 40
0.1562499999999993
 40
0.1874999999999992
 40
0.1874999999999992
 40
0.2187499999999991
 40
0.2187499999999991
 40
0.2499999999999989
 40
0.2499999999999989
 40
0.2812499999999988
 40
0.2812499999999988
 40
0.3124999999999987
 40
0.3124999999999987
 40
0.3437499999999986
 40
0.3437499999999986
 40
0.3749999999999984
 40
0.3749999999999984
 40
0.4374999999999994
 40
0.4374999999999994
 40
0.5000000000000003
 40
0.5000000000000003
 40
0.5000000000000003
 40
0.5000000000000003
 10
11.12500000000001
 20
11.48273236161759
 30
0.0
 10
10.92283531051878
 20
11.53675388442191
 30
0.0
 10
10.74714710048237
 20
11.63024516394925
 30
0.0
 10
10.42066988662174
 20
11.8645443472223
 30
0.0
 10
10.27375737476434
 20
12.00407384287207
 30
0.0
 10
10.07148943268484
 20
12.24177839203629
 30
0.0
 10
10.00699015299671
 20
12.3260933977068
 30
0.0
 10
9.883509956371203
 20
12.50701007175133
 30
0.0
 10
9.824268573097845
 20
12.60415729348405
 30
0.0
 10
9.715154706090315
 20
12.80934651131552
 30
0.0
 10
9.664396735733453
 20
12.9190362288981
 30
0.0
 10
9.576981863499132
 20
13.14891853741638
 30
0.0
 10
9.540303532497491
 20
13.26831266228052
 30
0.0
 10
9.487704529937997
 20
13.52080982106196
 30
0.0
 10
9.473745253197983
 20
13.64846695671307
 30
0.0
 10
9.476438089560556
 20
13.88700257856813
 30
0.0
 10
9.49319789642801
 20
13.99682053671474
 30
0.0
 10
9.549353346861217
 20
14.1837493979527
 30
0.0
 10
9.588589477848034
 20
14.26231510462441
 30
0.0
 10
9.67848001882432
 20
14.39201189392009
 30
0.0
 10
9.730204466999181
 20
14.44496665500975
 30
0.0
 10
9.89634859518447
 20
14.57471258814564
 30
0.0
 10
10.02083275682618
 20
14.62455209347292
 30
0.0
 10
10.29708420272973
 20
14.68178062150165
 30
0.0
 10
10.4447255545137
 20
14.68765662548423
 30
0.0
 10
10.60808274902045
 20
14.67518531385664
 30
0.0
  0
DIMENSION
  5
26D
330
1F
100
AcDbEntity
  8
2
100
AcDbDimension
  2
_D
 10
95.25
 20
72.0212134136
 30
0.0
 11
32.4875089279
 21
72.0212134136
 31
0.0
 70
   160
  1
<>
 71
     2
 42
-1.0
  3
SLDDIMSTYLE0
100
AcDbAlignedDimension
 13
0.0
 23
34.925
 33
0.0
 14
95.25
 24
13.21
 34
0.0
 50
0.0
100
AcDbRotatedDimension
  0
DIMENSION
  5
282
330
1F
100
AcDbEntity
  8
SK2
100
AcDbDimension
  2
_D_1
 10
19.05
 20
58.3787910154
 30
0.0
 11
49.3051283388
 21
58.3787910154
 31
0.0
 70
   160
  1
<>
 71
     2
 42
-1.0
  3
SLDDIMSTYLE0
100
AcDbAlignedDimension
 13
95.25
 23
13.21
 33
0.0
 14
19.05
 24
46.5560855313
 34
0.0
100
AcDbRotatedDimension
  0
DIMENSION
  5
295
330
1F
100
AcDbEntity
  8
SK2
100
AcDbDimension
  2
_D_2
 10
0.0
 20
58.3787910154
 30
0.0
 11
8.3981670526
 21
58.3787910154
 31
0.0
 70
   160
  1
<>
 71
     2
 42
-1.0
  3
SLDDIMSTYLE1
100
AcDbAlignedDimension
 13
19.05
 23
46.5560855313
 33
0.0
 14
0.0
 24
34.925
 34
0.0
100
AcDbRotatedDimension
  0
DIMENSION
  5
2A0
330
1F
100
AcDbEntity
  8
SK2
100
AcDbDimension
  2
_D_3
 10
95.25
 20
44.7959389373
 30
0.0
 11
65.5859055592
 21
44.7959389373
 31
0.0
 70
   160
  1
<>
 71
     2
 42
-1.0
  3
SLDDIMSTYLE0
100
AcDbAlignedDimension
 13
35.1
 23
33.401
 33
0.0
 14
95.25
 24
13.21
 34
0.0
 50
0.0
100
AcDbRotatedDimension
  0
DIMENSION
  5
2B3
330
1F
100
AcDbEntity
  8
SK2
100
AcDbDimension
  2
_D_4
 10
95.25
 20
31.2557838823
 30
0.0
 11
82.4994026305
 21
31.2557838823
 31
0.0
 70
   160
  1
<>
 71
     2
 42
-1.0
  3
SLDDIMSTYLE0
100
AcDbAlignedDimension
 13
71.425
 23
19.3
 33
0.0
 14
95.25
 24
13.21
 34
0.0
100
AcDbRotatedDimension
  0
DIMENSION
  5
2C6
330
1F
100
AcDbEntity
  8
SK2
100
AcDbDimension
  2
_D_5
 10
111.0215253688
 20
-7.9375
 30
0.0
 11
111.0215253688
 21
31.2557838823
 31
0.0
 70
   160
  1
%%c<>
 71
     2
 42
-1.0
  3
SLDDIMSTYLE2
100
AcDbAlignedDimension
 13
93.75
 23
7.9375
 33
0.0
 14
93.75
 24
-7.9375
 34
0.0
 50
90.0
100
AcDbRotatedDimension
  0
DIMENSION
  5
2DB
330
1F
100
AcDbEntity
  8
SK2
100
AcDbDimension
  2
_D_6
 10
125.4060347075
 20
-13.21
 30
0.0
 11
125.4060347075
 21
0.159558369
 31
0.0
 70
   160
  1
%%c<>
 71
     2
 42
-1.0
  3
SLDDIMSTYLE0
100
AcDbAlignedDimension
 13
95.25
 23
13.21
 33
0.0
 14
95.25
 24
-13.21
 34
0.0
 50
90.0
100
AcDbRotatedDimension
  0
DIMENSION
  5
2ED
330
1F
100
AcDbEntity
  8
SK2
100
AcDbDimension
  2
_D_7
 10
139.1299400025
 20
-19.05
 30
0.0
 11
139.1299400025
 21
0.159558369
 31
0.0
 70
   160
  1
%%c<>
 71
     2
 42
-1.0
  3
SLDDIMSTYLE0
100
AcDbAlignedDimension
 13
89.41
 23
19.05
 33
0.0
 14
89.41
 24
-19.05
 34
0.0
 50
90.0
100
AcDbRotatedDimension
  0
DIMENSION
  5
2FF
330
1F
100
AcDbEntity
  8
SK2
100
AcDbDimension
  2
_D_8
 10
95.25
 20
-62.822504542
 30
0.0
 11
17.1341267642
 21
-62.822504542
 31
0.0
 70
   160
  1
<>
 71
     2
 42
-1.0
  3
SLDDIMSTYLE3
100
AcDbAlignedDimension
 13
-101.6
 23
-18.2922326599
 33
0.0
 14
95.25
 24
-13.21
 34
0.0
 50
0.0
100
AcDbRotatedDimension
  0
DIMENSION
  5
313
330
1F
100
AcDbEntity
  8
SK2
100
AcDbDimension
  2
_D_9
 10
47.4997324654
 20
-45.8105717288
 30
0.0
 11
70.8065141886
 21
-45.8105717288
 31
0.0
 70
   160
  1
<>
 71
     2
 42
-1.0
  3
SLDDIMSTYLE0
100
AcDbAlignedDimension
 13
95.25
 23
-13.21
 33
0.0
 14
47.4997324654
 24
-7.9375
 34
0.0
100
AcDbRotatedDimension
  0
DIMENSION
  5
326
330
1F
100
AcDbEntity
  8
SK2
100
AcDbDimension
  2
_D_10
 10
89.41
 20
-31.6074660868
 30
0.0
 11
82.4994026305
 21
-31.6074660868
 31
0.0
 70
   160
  1
<>
 71
     2
 42
-1.0
  3
SLDDIMSTYLE4
100
AcDbAlignedDimension
 13
95.25
 23
-13.21
 33
0.0
 14
89.41
 24
-19.05
 34
0.0
 50
0.0
100
AcDbRotatedDimension
  0
DIMENSION
  5
333
330
1F
100
AcDbEntity
  8
SK2
100
AcDbDimension
  2
_D_11
 10
-121.9476501967
 20
-47.4754841997
 30
0.0
 11
-121.9476501967
 21
0.159558369
 31
0.0
 70
   160
  1
%%c<>
 71
     2
 42
-1.0
  3
SLDDIMSTYLE1
100
AcDbAlignedDimension
 13
3.95
 23
47.2968145978
 33
0.0
 14
3.95
 24
-47.4754841997
 34
0.0
 50
90.0
100
AcDbRotatedDimension
  0
DIMENSION
  5
33E
330
1F
100
AcDbEntity
  8
SK2
100
AcDbDimension
  2
_D_12
 10
-111.6875871409
 20
-12.6999998465
 30
0.0
 11
-111.6875871409
 21
0.159558369
 31
0.0
 70
   160
  1
<>
 71
     2
 42
-1.0
  3
SLDDIMSTYLE1
100
AcDbAlignedDimension
 13
-94.967097044
 23
12.6999998465
 33
0.0
 14
-94.967097044
 24
-12.6999998465
 34
0.0
 50
90.0
100
AcDbRotatedDimension
  0
MTEXT
  5
349
330
1F
100
AcDbEntity
  8
SK6
 62
     5
100
AcDbMText
 10
-62.4560093134
 20
-37.3209500336
 30
0.0
 40
3.5
 41
0.0
 71
     1
 72
     1
  1
AA3B20-50 16 095
  7
SLDTEXTSTYLE0
 73
     1
 44
1.0
  0
MTEXT
  5
34A
330
1F
100
AcDbEntity
  8
SK6
 62
     5
100
AcDbMText
 10
-65.4553150385
 20
40.5542411906
 30
0.0
 40
3.5
 41
0.0
 71
     1
 72
     1
  1
ASME B5.50 CAT 50
  7
SLDTEXTSTYLE0
 73
     1
 44
1.0
  0
ENDSEC
  0
SECTION
  2
OBJECTS
  0
DICTIONARY
  5
C
330
0
100
AcDbDictionary
281
     1
  3
ACAD_GROUP
350
D
  3
ACAD_LAYOUT
350
1A
  3
ACAD_MLINESTYLE
350
17
  3
ACAD_PLOTSETTINGS
350
19
  3
ACAD_PLOTSTYLENAME
350
E
  3
ACAD_SCALELIST
350
47
  0
DICTIONARY
  5
D
102
{ACAD_REACTORS
330
C
102
}
330
C
100
AcDbDictionary
281
     1
  0
DICTIONARY
  5
1A
102
{ACAD_REACTORS
330
C
102
}
330
C
100
AcDbDictionary
281
     1
  3
Layout1
350
1E
  3
Layout2
350
26
  3
Model
350
22
  0
DICTIONARY
  5
17
102
{ACAD_REACTORS
330
C
102
}
330
C
100
AcDbDictionary
281
     1
  3
Standard
350
18
  0
DICTIONARY
  5
19
102
{ACAD_REACTORS
330
C
102
}
330
C
100
AcDbDictionary
281
     1
  0
ACDBDICTIONARYWDFLT
  5
E
102
{ACAD_REACTORS
330
C
102
}
330
C
100
AcDbDictionary
281
     1
  3
Normal
350
F
100
AcDbDictionaryWithDefault
340
F
  0
DICTIONARY
  5
47
102
{ACAD_REACTORS
330
C
102
}
330
C
100
AcDbDictionary
281
     1
  3
A0
350
48
  3
A1
350
49
  3
A2
350
4A
  3
A3
350
4B
  3
A4
350
4C
  3
A5
350
4D
  3
A6
350
4E
  3
A7
350
4F
  3
A8
350
50
  3
A9
350
51
  3
B0
350
52
  3
B1
350
53
  3
B2
350
54
  3
B3
350
55
  3
B4
350
56
  3
B5
350
57
  3
B6
350
58
  3
B7
350
59
  3
B8
350
5A
  3
B9
350
5B
  3
C0
350
5C
  3
C1
350
5D
  3
C2
350
5E
  3
C3
350
5F
  3
C4
350
60
  3
C5
350
61
  3
C6
350
62
  3
C7
350
63
  3
C8
350
64
  3
C9
350
65
  3
D0
350
66
  3
D1
350
67
  3
D2
350
68
  0
LAYOUT
  5
1E
102
{ACAD_REACTORS
330
1A
102
}
330
1A
100
AcDbPlotSettings
  1

  2
none_device
  4

  6

 40
0.0
 41
0.0
 42
0.0
 43
0.0
 44
0.0
 45
0.0
 46
0.0
 47
0.0
 48
0.0
 49
0.0
140
0.0
141
0.0
142
1.0
143
1.0
 70
   688
 72
     1
 73
     0
 74
     5
  7

 75
    16
147
1.0
148
0.0
149
0.0
100
AcDbLayout
  1
Layout1
 70
     1
 71
     1
 10
0.0
 20
0.0
 11
420.0
 21
297.0
 12
0.0
 22
0.0
 32
0.0
 14
1.0000000000E+20
 24
1.0000000000E+20
 34
1.0000000000E+20
 15
-1.0000000000E+20
 25
-1.0000000000E+20
 35
-1.0000000000E+20
146
0.0
 13
0.0
 23
0.0
 33
0.0
 16
1.0
 26
0.0
 36
0.0
 17
0.0
 27
1.0
 37
0.0
 76
     0
330
1B
  0
LAYOUT
  5
26
102
{ACAD_REACTORS
330
1A
102
}
330
1A
100
AcDbPlotSettings
  1

  2
none_device
  4

  6

 40
0.0
 41
0.0
 42
0.0
 43
0.0
 44
0.0
 45
0.0
 46
0.0
 47
0.0
 48
0.0
 49
0.0
140
0.0
141
0.0
142
1.0
143
1.0
 70
   688
 72
     1
 73
     0
 74
     5
  7

 75
    16
147
1.0
148
0.0
149
0.0
100
AcDbLayout
  1
Layout2
 70
     1
 71
     2
 10
0.0
 20
0.0
 11
0.0
 21
0.0
 12
0.0
 22
0.0
 32
0.0
 14
0.0
 24
0.0
 34
0.0
 15
0.0
 25
0.0
 35
0.0
146
0.0
 13
0.0
 23
0.0
 33
0.0
 16
1.0
 26
0.0
 36
0.0
 17
0.0
 27
1.0
 37
0.0
 76
     0
330
23
  0
LAYOUT
  5
22
102
{ACAD_REACTORS
330
1A
102
}
330
1A
100
AcDbPlotSettings
  1

  2
none_device
  4
Letter_(8.50_x_11.00_Inches)
  6

 40
6.35
 41
6.35
 42
6.35000508
 43
6.35000508
 44
215.9
 45
279.4
 46
0.0
 47
0.0
 48
0.0
 49
0.0
140
0.0
141
0.0
142
1.0
143
1.0
 70
  1712
 72
     1
 73
     0
 74
     0
  7

 75
     0
147
1.0
148
0.0
149
0.0
100
AcDbLayout
  1
Model
 70
     1
 71
     0
 10
0.0
 20
0.0
 11
297.0
 21
210.0
 12
0.0
 22
0.0
 32
0.0
 14
0.0
 24
0.0
 34
0.0
 15
297.0
 25
210.0
 35
0.0
146
0.0
 13
0.0
 23
0.0
 33
0.0
 16
1.0
 26
0.0
 36
0.0
 17
0.0
 27
1.0
 37
0.0
 76
     0
330
1F
331
29
  0
MLINESTYLE
  5
18
102
{ACAD_REACTORS
330
17
102
}
330
17
100
AcDbMlineStyle
  2
Standard
 70
     0
  3

 62
   256
 51
90.0
 52
90.0
 71
     2
 49
0.5
 62
   256
  6
BYLAYER
 49
-0.5
 62
   256
  6
BYLAYER
  0
ACDBPLACEHOLDER
  5
F
102
{ACAD_REACTORS
330
E
102
}
330
E
  0
SCALE
  5
48
102
{ACAD_REACTORS
330
47
102
}
330
47
100
AcDbScale
 70
     0
300
1:1
140
1.0
141
1.0
290
     1
  0
SCALE
  5
49
102
{ACAD_REACTORS
330
47
102
}
330
47
100
AcDbScale
 70
     0
300
1:2
140
1.0
141
2.0
290
     0
  0
SCALE
  5
4A
102
{ACAD_REACTORS
330
47
102
}
330
47
100
AcDbScale
 70
     0
300
1:4
140
1.0
141
4.0
290
     0
  0
SCALE
  5
4B
102
{ACAD_REACTORS
330
47
102
}
330
47
100
AcDbScale
 70
     0
300
1:5
140
1.0
141
5.0
290
     0
  0
SCALE
  5
4C
102
{ACAD_REACTORS
330
47
102
}
330
47
100
AcDbScale
 70
     0
300
1:8
140
1.0
141
8.0
290
     0
  0
SCALE
  5
4D
102
{ACAD_REACTORS
330
47
102
}
330
47
100
AcDbScale
 70
     0
300
1:10
140
1.0
141
10.0
290
     0
  0
SCALE
  5
4E
102
{ACAD_REACTORS
330
47
102
}
330
47
100
AcDbScale
 70
     0
300
1:16
140
1.0
141
16.0
290
     0
  0
SCALE
  5
4F
102
{ACAD_REACTORS
330
47
102
}
330
47
100
AcDbScale
 70
     0
300
1:20
140
1.0
141
20.0
290
     0
  0
SCALE
  5
50
102
{ACAD_REACTORS
330
47
102
}
330
47
100
AcDbScale
 70
     0
300
1:30
140
1.0
141
30.0
290
     0
  0
SCALE
  5
51
102
{ACAD_REACTORS
330
47
102
}
330
47
100
AcDbScale
 70
     0
300
1:40
140
1.0
141
40.0
290
     0
  0
SCALE
  5
52
102
{ACAD_REACTORS
330
47
102
}
330
47
100
AcDbScale
 70
     0
300
1:50
140
1.0
141
50.0
290
     0
  0
SCALE
  5
53
102
{ACAD_REACTORS
330
47
102
}
330
47
100
AcDbScale
 70
     0
300
1:100
140
1.0
141
100.0
290
     0
  0
SCALE
  5
54
102
{ACAD_REACTORS
330
47
102
}
330
47
100
AcDbScale
 70
     0
300
2:1
140
2.0
141
1.0
290
     0
  0
SCALE
  5
55
102
{ACAD_REACTORS
330
47
102
}
330
47
100
AcDbScale
 70
     0
300
4:1
140
4.0
141
1.0
290
     0
  0
SCALE
  5
56
102
{ACAD_REACTORS
330
47
102
}
330
47
100
AcDbScale
 70
     0
300
8:1
140
8.0
141
1.0
290
     0
  0
SCALE
  5
57
102
{ACAD_REACTORS
330
47
102
}
330
47
100
AcDbScale
 70
     0
300
10:1
140
10.0
141
1.0
290
     0
  0
SCALE
  5
58
102
{ACAD_REACTORS
330
47
102
}
330
47
100
AcDbScale
 70
     0
300
100:1
140
100.0
141
1.0
290
     0
  0
SCALE
  5
59
102
{ACAD_REACTORS
330
47
102
}
330
47
100
AcDbScale
 70
     0
300
1/128" = 1'-0"
140
0.0078125
141
12.0
290
     0
  0
SCALE
  5
5A
102
{ACAD_REACTORS
330
47
102
}
330
47
100
AcDbScale
 70
     0
300
1/64" = 1'-0"
140
0.015625
141
12.0
290
     0
  0
SCALE
  5
5B
102
{ACAD_REACTORS
330
47
102
}
330
47
100
AcDbScale
 70
     0
300
1/32" = 1'-0"
140
0.03125
141
12.0
290
     0
  0
SCALE
  5
5C
102
{ACAD_REACTORS
330
47
102
}
330
47
100
AcDbScale
 70
     0
300
1/16" = 1'-0"
140
0.0625
141
12.0
290
     0
  0
SCALE
  5
5D
102
{ACAD_REACTORS
330
47
102
}
330
47
100
AcDbScale
 70
     0
300
3/32" = 1'-0"
140
0.09375
141
12.0
290
     0
  0
SCALE
  5
5E
102
{ACAD_REACTORS
330
47
102
}
330
47
100
AcDbScale
 70
     0
300
1/8" = 1'-0"
140
0.125
141
12.0
290
     0
  0
SCALE
  5
5F
102
{ACAD_REACTORS
330
47
102
}
330
47
100
AcDbScale
 70
     0
300
3/16" = 1'-0"
140
0.1875
141
12.0
290
     0
  0
SCALE
  5
60
102
{ACAD_REACTORS
330
47
102
}
330
47
100
AcDbScale
 70
     0
300
1/4" = 1'-0"
140
0.25
141
12.0
290
     0
  0
SCALE
  5
61
102
{ACAD_REACTORS
330
47
102
}
330
47
100
AcDbScale
 70
     0
300
3/8" = 1'-0"
140
0.375
141
12.0
290
     0
  0
SCALE
  5
62
102
{ACAD_REACTORS
330
47
102
}
330
47
100
AcDbScale
 70
     0
300
1/2" = 1'-0"
140
0.5
141
12.0
290
     0
  0
SCALE
  5
63
102
{ACAD_REACTORS
330
47
102
}
330
47
100
AcDbScale
 70
     0
300
3/4" = 1'-0"
140
0.75
141
12.0
290
     0
  0
SCALE
  5
64
102
{ACAD_REACTORS
330
47
102
}
330
47
100
AcDbScale
 70
     0
300
1" = 1'-0"
140
1.0
141
12.0
290
     0
  0
SCALE
  5
65
102
{ACAD_REACTORS
330
47
102
}
330
47
100
AcDbScale
 70
     0
300
1-1/2" = 1'-0"
140
1.5
141
12.0
290
     0
  0
SCALE
  5
66
102
{ACAD_REACTORS
330
47
102
}
330
47
100
AcDbScale
 70
     0
300
3" = 1'-0"
140
3.0
141
12.0
290
     0
  0
SCALE
  5
67
102
{ACAD_REACTORS
330
47
102
}
330
47
100
AcDbScale
 70
     0
300
6" = 1'-0"
140
6.0
141
12.0
290
     0
  0
SCALE
  5
68
102
{ACAD_REACTORS
330
47
102
}
330
47
100
AcDbScale
 70
     0
300
1'-0" = 1'-0"
140
12.0
141
12.0
290
     0
  0
ENDSEC
  0
EOF
