  0
SECTION
  2
HEADER
  9
$ACADVER
  1
AC1015
  9
$ACADMAINTVER
 70
     6
  9
$DWGCODEPAGE
  3
ANSI_1250
  9
$INSBASE
 10
0.0
 20
0.0
 30
0.0
  9
$EXTMIN
 10
0.0
 20
0.0
 30
0.0
  9
$EXTMAX
 10
297.0
 20
210.0
 30
0.0
  9
$LIMMIN
 10
0.0
 20
0.0
  9
$LIMMAX
 10
297.0
 20
210.0
  9
$ORTHOMODE
 70
     0
  9
$REGENMODE
 70
     1
  9
$FILLMODE
 70
     1
  9
$QTEXTMODE
 70
     0
  9
$MIRRTEXT
 70
     1
  9
$LTSCALE
 40
1.0
  9
$ATTMODE
 70
     1
  9
$TEXTSIZE
 40
3.5
  9
$TRACEWID
 40
1.0
  9
$TEXTSTYLE
  7
Standard
  9
$CLAYER
  8
0
  9
$CELTYPE
  6
ByLayer
  9
$CECOLOR
 62
   256
  9
$CELTSCALE
 40
1.0
  9
$DISPSILH
 70
     0
  9
$DIMSCALE
 40
1.0
  9
$DIMASZ
 40
3.302
  9
$DIMEXO
 40
1.0
  9
$DIMDLI
 40
3.75
  9
$DIMRND
 40
0.0
  9
$DIMDLE
 40
0.0
  9
$DIMEXE
 40
1.0
  9
$DIMTP
 40
0.0
  9
$DIMTM
 40
0.0
  9
$DIMTXT
 40
3.5
  9
$DIMCEN
 40
2.5
  9
$DIMTSZ
 40
0.0
  9
$DIMTOL
 70
     0
  9
$DIMLIM
 70
     0
  9
$DIMTIH
 70
     1
  9
$DIMTOH
 70
     1
  9
$DIMSE1
 70
     0
  9
$DIMSE2
 70
     0
  9
$DIMTAD
 70
     1
  9
$DIMZIN
 70
     0
  9
$DIMBLK
  1

  9
$DIMASO
 70
     1
  9
$DIMSHO
 70
     1
  9
$DIMPOST
  1

  9
$DIMAPOST
  1

  9
$DIMALT
 70
     0
  9
$DIMALTD
 70
     3
  9
$DIMALTF
 40
0.0393700787
  9
$DIMLFAC
 40
1.0
  9
$DIMTOFL
 70
     1
  9
$DIMTVP
 40
0.0
  9
$DIMTIX
 70
     0
  9
$DIMSOXD
 70
     0
  9
$DIMSAH
 70
     0
  9
$DIMBLK1
  1

  9
$DIMBLK2
  1

  9
$DIMSTYLE
  2
ISO-25
  9
$DIMCLRD
 70
     0
  9
$DIMCLRE
 70
     0
  9
$DIMCLRT
 70
     0
  9
$DIMTFAC
 40
1.0
  9
$DIMGAP
 40
1.524
  9
$DIMJUST
 70
     0
  9
$DIMSD1
 70
     0
  9
$DIMSD2
 70
     0
  9
$DIMTOLJ
 70
     0
  9
$DIMTZIN
 70
     0
  9
$DIMALTZ
 70
     0
  9
$DIMALTTZ
 70
     0
  9
$DIMUPT
 70
     0
  9
$DIMDEC
 70
     2
  9
$DIMTDEC
 70
     2
  9
$DIMALTU
 70
     2
  9
$DIMALTTD
 70
     3
  9
$DIMTXSTY
  7
Standard
  9
$DIMAUNIT
 70
     0
  9
$DIMADEC
 70
     2
  9
$DIMALTRND
 40
0.0
  9
$DIMAZIN
 70
     0
  9
$DIMDSEP
 70
    44
  9
$DIMATFIT
 70
     3
  9
$DIMFRAC
 70
     0
  9
$DIMLDRBLK
  1

  9
$DIMLUNIT
 70
     2
  9
$DIMLWD
 70
    -2
  9
$DIMLWE
 70
    -2
  9
$DIMTMOVE
 70
     0
  9
$LUNITS
 70
     2
  9
$LUPREC
 70
     2
  9
$SKETCHINC
 40
1.0
  9
$FILLETRAD
 40
10.0
  9
$AUNITS
 70
     0
  9
$AUPREC
 70
     2
  9
$MENU
  1
.
  9
$ELEVATION
 40
0.0
  9
$PELEVATION
 40
0.0
  9
$THICKNESS
 40
0.0
  9
$LIMCHECK
 70
     0
  9
$CHAMFERA
 40
0.0
  9
$CHAMFERB
 40
0.0
  9
$CHAMFERC
 40
0.0
  9
$CHAMFERD
 40
0.0
  9
$SKPOLY
 70
     0
  9
$TDCREATE
 40
2459278.335002269
  9
$TDUCREATE
 40
2459278.293335602
  9
$TDUPDATE
 40
2459278.335004016
  9
$TDUUPDATE
 40
2459278.293337349
  9
$TDINDWG
 40
0.0000000116
  9
$TDUSRTIMER
 40
0.0000000116
  9
$USRTIMER
 70
     1
  9
$ANGBASE
 50
0.0
  9
$ANGDIR
 70
     0
  9
$PDMODE
 70
     0
  9
$PDSIZE
 40
-1.0
  9
$PLINEWID
 40
0.0
  9
$SPLFRAME
 70
     0
  9
$SPLINETYPE
 70
     6
  9
$SPLINESEGS
 70
     8
  9
$HANDSEED
  5
329
  9
$SURFTAB1
 70
     6
  9
$SURFTAB2
 70
     6
  9
$SURFTYPE
 70
     6
  9
$SURFU
 70
     6
  9
$SURFV
 70
     6
  9
$UCSBASE
  2

  9
$UCSNAME
  2

  9
$UCSORG
 10
0.0
 20
0.0
 30
0.0
  9
$UCSXDIR
 10
1.0
 20
0.0
 30
0.0
  9
$UCSYDIR
 10
0.0
 20
1.0
 30
0.0
  9
$UCSORTHOREF
  2

  9
$UCSORTHOVIEW
 70
     0
  9
$UCSORGTOP
 10
0.0
 20
0.0
 30
0.0
  9
$UCSORGBOTTOM
 10
0.0
 20
0.0
 30
0.0
  9
$UCSORGLEFT
 10
0.0
 20
0.0
 30
0.0
  9
$UCSORGRIGHT
 10
0.0
 20
0.0
 30
0.0
  9
$UCSORGFRONT
 10
0.0
 20
0.0
 30
0.0
  9
$UCSORGBACK
 10
0.0
 20
0.0
 30
0.0
  9
$PUCSBASE
  2

  9
$PUCSNAME
  2

  9
$PUCSORG
 10
0.0
 20
0.0
 30
0.0
  9
$PUCSXDIR
 10
1.0
 20
0.0
 30
0.0
  9
$PUCSYDIR
 10
0.0
 20
1.0
 30
0.0
  9
$PUCSORTHOREF
  2

  9
$PUCSORTHOVIEW
 70
     0
  9
$PUCSORGTOP
 10
0.0
 20
0.0
 30
0.0
  9
$PUCSORGBOTTOM
 10
0.0
 20
0.0
 30
0.0
  9
$PUCSORGLEFT
 10
0.0
 20
0.0
 30
0.0
  9
$PUCSORGRIGHT
 10
0.0
 20
0.0
 30
0.0
  9
$PUCSORGFRONT
 10
0.0
 20
0.0
 30
0.0
  9
$PUCSORGBACK
 10
0.0
 20
0.0
 30
0.0
  9
$USERI1
 70
     0
  9
$USERI2
 70
     0
  9
$USERI3
 70
     0
  9
$USERI4
 70
     0
  9
$USERI5
 70
     0
  9
$USERR1
 40
0.0
  9
$USERR2
 40
0.0
  9
$USERR3
 40
0.0
  9
$USERR4
 40
0.0
  9
$USERR5
 40
0.0
  9
$WORLDVIEW
 70
     1
  9
$SHADEDGE
 70
     3
  9
$SHADEDIF
 70
    70
  9
$TILEMODE
 70
     1
  9
$MAXACTVP
 70
    64
  9
$PINSBASE
 10
0.0
 20
0.0
 30
0.0
  9
$PLIMCHECK
 70
     0
  9
$PEXTMIN
 10
1.0000000000E+20
 20
1.0000000000E+20
 30
1.0000000000E+20
  9
$PEXTMAX
 10
-1.0000000000E+20
 20
-1.0000000000E+20
 30
-1.0000000000E+20
  9
$PLIMMIN
 10
0.0
 20
0.0
  9
$PLIMMAX
 10
420.0
 20
297.0
  9
$UNITMODE
 70
     0
  9
$VISRETAIN
 70
     1
  9
$PLINEGEN
 70
     0
  9
$PSLTSCALE
 70
     1
  9
$TREEDEPTH
 70
  3020
  9
$CMLSTYLE
  2
Standard
  9
$CMLJUST
 70
     0
  9
$CMLSCALE
 40
20.0
  9
$PROXYGRAPHICS
 70
     1
  9
$MEASUREMENT
 70
     1
  9
$CELWEIGHT
370
    -1
  9
$ENDCAPS
280
     0
  9
$JOINSTYLE
280
     0
  9
$LWDISPLAY
290
     1
  9
$INSUNITS
 70
     4
  9
$HYPERLINKBASE
  1

  9
$STYLESHEET
  1

  9
$XEDIT
290
     1
  9
$CEPSNTYPE
380
     0
  9
$PSTYLEMODE
290
     1
  9
$FINGERPRINTGUID
  2
{C3B61A81-7454-4812-851C-F732A8C14AE1}
  9
$VERSIONGUID
  2
{FAEB1C32-E019-11D5-929B-00C0DF256EC4}
  9
$EXTNAMES
290
     1
  9
$PSVPSCALE
 40
0.0
  9
$OLESTARTUP
290
     0
  0
ENDSEC
  0
SECTION
  2
CLASSES
  0
CLASS
  1
ACDBDICTIONARYWDFLT
  2
AcDbDictionaryWithDefault
  3
ObjectDBX Classes
 90
        0
280
     0
281
     0
  0
CLASS
  1
VISUALSTYLE
  2
AcDbVisualStyle
  3
ObjectDBX Classes
 90
     4095
280
     0
281
     0
  0
CLASS
  1
MATERIAL
  2
AcDbMaterial
  3
ObjectDBX Classes
 90
     1153
280
     0
281
     0
  0
CLASS
  1
SCALE
  2
AcDbScale
  3
ObjectDBX Classes
 90
     1153
280
     0
281
     0
  0
CLASS
  1
TABLESTYLE
  2
AcDbTableStyle
  3
ObjectDBX Classes
 90
     4095
280
     0
281
     0
  0
CLASS
  1
MLEADERSTYLE
  2
AcDbMLeaderStyle
  3
ACDB_MLEADERSTYLE_CLASS
 90
     4095
280
     0
281
     0
  0
CLASS
  1
SUN
  2
AcDbSun
  3
SCENEOE
 90
     1153
280
     0
281
     0
  0
CLASS
  1
ACDBPLACEHOLDER
  2
AcDbPlaceHolder
  3
ObjectDBX Classes
 90
        0
280
     0
281
     0
  0
CLASS
  1
LAYOUT
  2
AcDbLayout
  3
ObjectDBX Classes
 90
        0
280
     0
281
     0
  0
ENDSEC
  0
SECTION
  2
TABLES
  0
TABLE
  2
VPORT
  5
8
330
0
100
AcDbSymbolTable
 70
     1
  0
VPORT
  5
29
330
8
100
AcDbSymbolTableRecord
100
AcDbViewportTableRecord
  2
*Active
 70
     0
 10
0.0
 20
0.0
 11
1.0
 21
1.0
 12
148.5
 22
105.0
 13
0.0
 23
0.0
 14
10.0
 24
10.0
 15
10.0
 25
10.0
 16
0.0
 26
0.0
 36
1.0
 17
0.0
 27
0.0
 37
0.0
 40
210.0
 41
1.4142857143
 42
50.0
 43
0.0
 44
0.0
 50
0.0
 51
0.0
 71
     0
 72
  2000
 73
     1
 74
     3
 75
     0
 76
     0
 77
     0
 78
     0
281
     0
 65
     1
110
0.0
120
0.0
130
0.0
111
1.0
121
0.0
131
0.0
112
0.0
122
1.0
132
0.0
 79
     0
146
0.0
  0
ENDTAB
  0
TABLE
  2
LTYPE
  5
5
330
0
100
AcDbSymbolTable
 70
     8
  0
LTYPE
  5
14
330
5
100
AcDbSymbolTableRecord
100
AcDbLinetypeTableRecord
  2
ByBlock
 70
     0
  3

 72
    65
 73
     0
 40
0.0
  0
LTYPE
  5
15
330
5
100
AcDbSymbolTableRecord
100
AcDbLinetypeTableRecord
  2
ByLayer
 70
     0
  3

 72
    65
 73
     0
 40
0.0
  0
LTYPE
  5
16
330
5
100
AcDbSymbolTableRecord
100
AcDbLinetypeTableRecord
  2
Continuous
 70
     0
  3
Solid line
 72
    65
 73
     0
 40
0.0
  0
LTYPE
  5
6E
330
5
100
AcDbSymbolTableRecord
100
AcDbLinetypeTableRecord
  2
SLD-Solid
 70
     0
  3
SolidWorks Line Style
 72
    65
 73
     0
 40
0.0
  0
LTYPE
  5
6F
330
5
100
AcDbSymbolTableRecord
100
AcDbLinetypeTableRecord
  2
SLD-Dashed
 70
     0
  3
SolidWorks Line Style
 72
    65
 73
     2
 40
1.905
 49
1.27
 74
     0
 49
-0.635
 74
     0
  0
LTYPE
  5
70
330
5
100
AcDbSymbolTableRecord
100
AcDbLinetypeTableRecord
  2
SLD-Phantom
 70
     0
  3
SolidWorks Line Style
 72
    65
 73
     6
 40
12.7
 49
6.35
 74
     0
 49
-1.27
 74
     0
 49
1.27
 74
     0
 49
-1.27
 74
     0
 49
1.27
 74
     0
 49
-1.27
 74
     0
  0
LTYPE
  5
71
330
5
100
AcDbSymbolTableRecord
100
AcDbLinetypeTableRecord
  2
SLD-Chain
 70
     0
  3
SolidWorks Line Style
 72
    65
 73
     4
 40
10.16
 49
6.35
 74
     0
 49
-1.27
 74
     0
 49
1.27
 74
     0
 49
-1.27
 74
     0
  0
LTYPE
  5
72
330
5
100
AcDbSymbolTableRecord
100
AcDbLinetypeTableRecord
  2
SLD-Center
 70
     0
  3
SolidWorks Line Style
 72
    65
 73
     4
 40
19.05
 49
15.24
 74
     0
 49
-1.27
 74
     0
 49
1.27
 74
     0
 49
-1.27
 74
     0
  0
LTYPE
  5
73
330
5
100
AcDbSymbolTableRecord
100
AcDbLinetypeTableRecord
  2
SLD-Stitch
 70
     0
  3
SolidWorks Line Style
 72
    65
 73
     2
 40
0.635
 49
0.0
 74
     0
 49
-0.635
 74
     0
  0
LTYPE
  5
74
330
5
100
AcDbSymbolTableRecord
100
AcDbLinetypeTableRecord
  2
SLD-Thin-Thick-Chain
 70
     0
  3
SolidWorks Line Style
 72
    65
 73
     4
 40
10.16
 49
6.35
 74
     0
 49
-1.27
 74
     0
 49
1.27
 74
     0
 49
-1.27
 74
     0
  0
ENDTAB
  0
TABLE
  2
LAYER
  5
2
330
0
100
AcDbSymbolTable
 70
    14
  0
LAYER
  5
10
330
2
100
AcDbSymbolTableRecord
100
AcDbLayerTableRecord
  2
0
 70
     0
 62
     7
  6
Continuous
370
    -3
390
F
  0
LAYER
  5
75
330
2
100
AcDbSymbolTableRecord
100
AcDbLayerTableRecord
  2
SLD-0
 70
     0
 62
   179
  6
SLD-Solid
370
    -3
390
F
  0
LAYER
  5
76
330
2
100
AcDbSymbolTableRecord
100
AcDbLayerTableRecord
  2
80
 70
     0
 62
    -6
  6
SLD-Solid
290
     0
370
    -3
390
F
  0
LAYER
  5
77
330
2
100
AcDbSymbolTableRecord
100
AcDbLayerTableRecord
  2
81
 70
     0
 62
    -3
  6
SLD-Solid
290
     0
370
    -3
390
F
  0
LAYER
  5
78
330
2
100
AcDbSymbolTableRecord
100
AcDbLayerTableRecord
  2
1
 70
     0
 62
     4
  6
SLD-Solid
290
     0
370
    -3
390
F
  0
LAYER
  5
79
330
2
100
AcDbSymbolTableRecord
100
AcDbLayerTableRecord
  2
4
 70
     0
 62
    -2
  6
SLD-Chain
290
     0
370
    -3
390
F
  0
LAYER
  5
7A
330
2
100
AcDbSymbolTableRecord
100
AcDbLayerTableRecord
  2
2
 70
     0
 62
     7
  6
SLD-Solid
290
     0
370
    -3
390
F
  0
LAYER
  5
7B
330
2
100
AcDbSymbolTableRecord
100
AcDbLayerTableRecord
  2
SK3
 70
     0
 62
     1
  6
SLD-Dashed
290
     0
370
    -3
390
F
  0
LAYER
  5
7C
330
2
100
AcDbSymbolTableRecord
100
AcDbLayerTableRecord
  2
SK4
 70
     0
 62
     2
  6
SLD-Chain
290
     0
370
    -3
390
F
  0
LAYER
  5
7D
330
2
100
AcDbSymbolTableRecord
100
AcDbLayerTableRecord
  2
SK2
 70
     0
 62
     7
  6
SLD-Solid
290
     0
370
    -3
390
F
  0
LAYER
  5
7E
330
2
100
AcDbSymbolTableRecord
100
AcDbLayerTableRecord
  2
SK6
 70
     0
 62
     5
  6
SLD-Solid
290
     0
370
    -3
390
F
  0
LAYER
  5
7F
330
2
100
AcDbSymbolTableRecord
100
AcDbLayerTableRecord
  2
6
 70
     0
 62
     5
  6
SLD-Solid
370
    -3
390
F
  0
LAYER
  5
80
330
2
100
AcDbSymbolTableRecord
100
AcDbLayerTableRecord
  2
SK1
 70
     0
 62
     4
  6
SLD-Solid
370
    -3
390
F
  0
LAYER
  5
81
330
2
100
AcDbSymbolTableRecord
100
AcDbLayerTableRecord
  2
LAYER5
 70
     0
 62
   218
  6
SLD-Solid
370
    -3
390
F
  0
ENDTAB
  0
TABLE
  2
STYLE
  5
3
330
0
100
AcDbSymbolTable
 70
     3
  0
STYLE
  5
11
330
3
100
AcDbSymbolTableRecord
100
AcDbTextStyleTableRecord
  2
Standard
 70
     0
 40
0.0
 41
1.0
 50
0.0
 71
     0
 42
3.5
  3
txt
  4

  0
STYLE
  5
239
330
3
100
AcDbSymbolTableRecord
100
AcDbTextStyleTableRecord
  2
SLDTEXTSTYLE0
 70
     0
 40
0.0
 41
0.75
 50
0.0
 71
     0
 42
3.5
  3
TXT
  4

  0
STYLE
  5
325
330
3
100
AcDbSymbolTableRecord
100
AcDbTextStyleTableRecord
  2
SLDTEXTSTYLE1
 70
     0
 40
0.0
 41
0.6666666667
 50
0.0
 71
     0
 42
3.5
  3
TXT
  4

  0
ENDTAB
  0
TABLE
  2
VIEW
  5
6
330
0
100
AcDbSymbolTable
 70
     0
  0
ENDTAB
  0
TABLE
  2
UCS
  5
7
330
0
100
AcDbSymbolTable
 70
     0
  0
ENDTAB
  0
TABLE
  2
APPID
  5
9
330
0
100
AcDbSymbolTable
 70
     1
  0
APPID
  5
12
330
9
100
AcDbSymbolTableRecord
100
AcDbRegAppTableRecord
  2
ACAD
 70
     0
  0
ENDTAB
  0
TABLE
  2
DIMSTYLE
  5
A
330
0
100
AcDbSymbolTable
 70
     6
100
AcDbDimStyleTable
  0
DIMSTYLE
105
27
330
A
100
AcDbSymbolTableRecord
100
AcDbDimStyleTableRecord
  2
ISO-25
 70
     0
 41
2.5
 42
0.625
 43
3.75
 44
1.25
 73
     0
 74
     0
 77
     1
 78
     8
140
2.5
141
2.5
143
0.0393700787
147
0.625
171
     3
172
     1
178
     0
271
     2
272
     2
274
     3
278
    44
283
     0
284
     8
340
11
  0
DIMSTYLE
105
23A
102
{ACAD_REACTORS
330
238
330
24D
330
260
330
273
330
286
330
2B9
330
2CB
330
2F1
102
}
330
A
100
AcDbSymbolTableRecord
100
AcDbDimStyleTableRecord
  2
SLDDIMSTYLE0
 70
     0
 41
3.302
 44
0.0
 45
0.000000001
 73
     0
 74
     0
 77
     1
 78
    12
 79
     3
140
3.5
143
0.0393700787
147
0.875
148
0.000000001
170
     1
173
     1
178
     0
271
     2
272
     2
276
     2
284
    12
340
239
  0
DIMSTYLE
105
29A
102
{ACAD_REACTORS
330
299
330
311
330
31C
102
}
330
A
100
AcDbSymbolTableRecord
100
AcDbDimStyleTableRecord
  2
SLDDIMSTYLE1
 70
     0
 41
3.302
 44
0.0
 45
0.000000001
 73
     0
 74
     0
 77
     1
 78
    12
 79
     3
140
3.5
147
0.875
173
     1
178
     0
271
     2
272
     2
276
     2
284
    12
340
239
  0
DIMSTYLE
105
2A5
102
{ACAD_REACTORS
330
2A4
102
}
330
A
100
AcDbSymbolTableRecord
100
AcDbDimStyleTableRecord
  2
SLDDIMSTYLE2
 70
     0
 41
3.302
 44
0.0
 45
0.000000001
 73
     0
 74
     0
 77
     1
 78
    12
 79
     3
140
3.5
143
0.0393700787
147
0.875
148
0.000000001
170
     1
172
     1
173
     1
178
     0
271
     2
272
     2
276
     2
284
    12
289
     0
340
239
  0
DIMSTYLE
105
2DE
102
{ACAD_REACTORS
330
2DD
102
}
330
A
100
AcDbSymbolTableRecord
100
AcDbDimStyleTableRecord
  2
SLDDIMSTYLE3
 70
     0
 41
3.302
 44
0.0
 45
0.000000001
 73
     0
 74
     0
 77
     1
 78
    12
 79
     3
140
3.5
143
0.0393700787
147
0.875
148
0.000000001
170
     1
171
     3
173
     1
178
     0
271
     3
272
     2
274
     3
276
     2
284
    12
340
239
  0
DIMSTYLE
105
305
102
{ACAD_REACTORS
330
304
102
}
330
A
100
AcDbSymbolTableRecord
100
AcDbDimStyleTableRecord
  2
SLDDIMSTYLE4
 70
     0
 41
3.302
 44
0.0
 45
0.000000001
 73
     0
 74
     0
 77
     1
 78
    12
 79
     3
140
3.5
147
0.875
172
     1
173
     1
178
     0
271
     2
272
     2
276
     2
284
    12
289
     0
340
239
  0
ENDTAB
  0
TABLE
  2
BLOCK_RECORD
  5
1
330
0
100
AcDbSymbolTable
 70
    15
  0
BLOCK_RECORD
  5
1F
330
1
100
AcDbSymbolTableRecord
100
AcDbBlockTableRecord
  2
*Model_Space
340
22
  0
BLOCK_RECORD
  5
1B
330
1
100
AcDbSymbolTableRecord
100
AcDbBlockTableRecord
  2
*Paper_Space
340
1E
  0
BLOCK_RECORD
  5
23
330
1
100
AcDbSymbolTableRecord
100
AcDbBlockTableRecord
  2
*Paper_Space0
340
26
  0
BLOCK_RECORD
  5
23B
330
1
100
AcDbSymbolTableRecord
100
AcDbBlockTableRecord
  2
_D
340
0
  0
BLOCK_RECORD
  5
24E
330
1
100
AcDbSymbolTableRecord
100
AcDbBlockTableRecord
  2
_D_1
340
0
  0
BLOCK_RECORD
  5
261
330
1
100
AcDbSymbolTableRecord
100
AcDbBlockTableRecord
  2
_D_2
340
0
  0
BLOCK_RECORD
  5
274
330
1
100
AcDbSymbolTableRecord
100
AcDbBlockTableRecord
  2
_D_3
340
0
  0
BLOCK_RECORD
  5
287
330
1
100
AcDbSymbolTableRecord
100
AcDbBlockTableRecord
  2
_D_4
340
0
  0
BLOCK_RECORD
  5
29B
330
1
100
AcDbSymbolTableRecord
100
AcDbBlockTableRecord
  2
_D_5
340
0
  0
BLOCK_RECORD
  5
2A6
330
1
100
AcDbSymbolTableRecord
100
AcDbBlockTableRecord
  2
_D_6
340
0
  0
BLOCK_RECORD
  5
2BA
330
1
100
AcDbSymbolTableRecord
100
AcDbBlockTableRecord
  2
_D_7
340
0
  0
BLOCK_RECORD
  5
2CC
330
1
100
AcDbSymbolTableRecord
100
AcDbBlockTableRecord
  2
_D_8
340
0
  0
BLOCK_RECORD
  5
2DF
330
1
100
AcDbSymbolTableRecord
100
AcDbBlockTableRecord
  2
_D_9
340
0
  0
BLOCK_RECORD
  5
2F2
330
1
100
AcDbSymbolTableRecord
100
AcDbBlockTableRecord
  2
_D_10
340
0
  0
BLOCK_RECORD
  5
306
330
1
100
AcDbSymbolTableRecord
100
AcDbBlockTableRecord
  2
_D_11
340
0
  0
BLOCK_RECORD
  5
312
330
1
100
AcDbSymbolTableRecord
100
AcDbBlockTableRecord
  2
_D_12
340
0
  0
BLOCK_RECORD
  5
31D
330
1
100
AcDbSymbolTableRecord
100
AcDbBlockTableRecord
  2
_D_13
340
0
  0
ENDTAB
  0
ENDSEC
  0
SECTION
  2
BLOCKS
  0
BLOCK
  5
20
330
1F
100
AcDbEntity
  8
0
100
AcDbBlockBegin
  2
*Model_Space
 70
     0
 10
0.0
 20
0.0
 30
0.0
  3
*Model_Space
  1

  0
ENDBLK
  5
21
330
1F
100
AcDbEntity
  8
0
100
AcDbBlockEnd
  0
BLOCK
  5
1C
330
1B
100
AcDbEntity
 67
     1
  8
0
100
AcDbBlockBegin
  2
*Paper_Space
 70
     0
 10
0.0
 20
0.0
 30
0.0
  3
*Paper_Space
  1

  0
ENDBLK
  5
1D
330
1B
100
AcDbEntity
 67
     1
  8
0
100
AcDbBlockEnd
  0
BLOCK
  5
24
330
23
100
AcDbEntity
  8
0
100
AcDbBlockBegin
  2
*Paper_Space0
 70
     0
 10
0.0
 20
0.0
 30
0.0
  3
*Paper_Space0
  1

  0
ENDBLK
  5
25
330
23
100
AcDbEntity
  8
0
100
AcDbBlockEnd
  0
BLOCK
  5
23C
330
23B
100
AcDbEntity
  8
0
100
AcDbBlockBegin
  2
_D
 70
     0
 10
0.0
 20
0.0
 30
0.0
  3
_D
  1

  0
SOLID
  5
23E
330
23B
100
AcDbEntity
  8
2
100
AcDbTrace
 10
0.0
 20
77.8719820922
 30
0.0
 11
3.302
 21
77.3639820922
 31
0.0
 12
3.302
 22
78.3799820922
 32
0.0
 13
3.302
 23
78.3799820922
 33
0.0
  0
SOLID
  5
23F
330
23B
100
AcDbEntity
  8
2
100
AcDbTrace
 10
168.275
 20
77.8719820922
 30
0.0
 11
164.973
 21
78.3799820922
 31
0.0
 12
164.973
 22
77.3639820922
 32
0.0
 13
164.973
 23
77.3639820922
 33
0.0
  0
LINE
  5
240
330
23B
100
AcDbEntity
  8
2
100
AcDbLine
 10
52.8832149382
 20
88.6648638083
 30
0.0
 11
51.8168086808
 21
88.6648638083
 31
0.0
  0
LINE
  5
241
330
23B
100
AcDbEntity
  8
2
100
AcDbLine
 10
51.8168086808
 20
88.6648638083
 30
0.0
 11
51.8168086808
 21
83.1086138172
 31
0.0
  0
LINE
  5
242
330
23B
100
AcDbEntity
  8
2
100
AcDbLine
 10
51.8168086808
 20
83.1086138172
 30
0.0
 11
52.8832149382
 21
83.1086138172
 31
0.0
  0
LINE
  5
243
330
23B
100
AcDbEntity
  8
2
100
AcDbLine
 10
61.9346039992
 20
88.6648638083
 30
0.0
 11
63.0010102566
 21
88.6648638083
 31
0.0
  0
LINE
  5
244
330
23B
100
AcDbEntity
  8
2
100
AcDbLine
 10
63.0010102566
 20
88.6648638083
 30
0.0
 11
63.0010102566
 21
83.1086138172
 31
0.0
  0
LINE
  5
245
330
23B
100
AcDbEntity
  8
2
100
AcDbLine
 10
63.0010102566
 20
83.1086138172
 30
0.0
 11
61.9346039992
 21
83.1086138172
 31
0.0
  0
LINE
  5
246
330
23B
100
AcDbEntity
  8
2
100
AcDbLine
 10
0.0
 20
35.925
 30
0.0
 11
0.0
 21
78.8719820922
 31
0.0
  0
LINE
  5
247
330
23B
100
AcDbEntity
  8
2
100
AcDbLine
 10
168.275
 20
12.305
 30
0.0
 11
168.275
 21
78.8719820922
 31
0.0
  0
LINE
  5
248
330
23B
100
AcDbEntity
  8
2
100
AcDbLine
 10
0.0
 20
77.8719820922
 30
0.0
 11
168.275
 21
77.8719820922
 31
0.0
  0
MTEXT
  5
249
330
23B
100
AcDbEntity
  8
2
100
AcDbMText
 10
50.3165479151
 20
82.4371913581
 30
0.0
 40
3.5
 41
0.0
 71
     1
 72
     1
  1

  7
SLDTEXTSTYLE0
 73
     1
 44
1.0
  0
MTEXT
  5
24A
330
23B
100
AcDbEntity
  8
2
100
AcDbMText
 10
52.8832149382
 20
87.6203507318
 30
0.0
 40
3.5
 41
0.0
 71
     1
 72
     1
  1
6,63
  7
SLDTEXTSTYLE0
 73
     1
 44
1.0
  0
MTEXT
  5
24B
330
23B
100
AcDbEntity
  8
2
100
AcDbMText
 10
50.2971035119
 20
82.3837191814
 30
0.0
 40
3.5
 41
0.0
 71
     1
 72
     1
  1
168,28
  7
SLDTEXTSTYLE0
 73
     1
 44
1.0
  0
MTEXT
  5
24C
330
23B
100
AcDbEntity
  8
2
100
AcDbMText
 10
65.8332155419
 20
82.4371913581
 30
0.0
 40
3.5
 41
0.0
 71
     1
 72
     1
  1

  7
SLDTEXTSTYLE0
 73
     1
 44
1.0
  0
ENDBLK
  5
23D
330
23B
100
AcDbEntity
  8
0
100
AcDbBlockEnd
  0
BLOCK
  5
24F
330
24E
100
AcDbEntity
  8
0
100
AcDbBlockBegin
  2
_D_1
 70
     0
 10
0.0
 20
0.0
 30
0.0
  3
_D_1
  1

  0
SOLID
  5
251
330
24E
100
AcDbEntity
  8
SK2
100
AcDbTrace
 10
19.05
 20
64.3368450555
 30
0.0
 11
22.352
 21
63.8288450555
 31
0.0
 12
22.352
 22
64.8448450555
 32
0.0
 13
22.352
 23
64.8448450555
 33
0.0
  0
SOLID
  5
252
330
24E
100
AcDbEntity
  8
SK2
100
AcDbTrace
 10
168.275
 20
64.3368450555
 30
0.0
 11
164.973
 21
64.8448450555
 31
0.0
 12
164.973
 22
63.8288450555
 32
0.0
 13
164.973
 23
63.8288450555
 33
0.0
  0
LINE
  5
253
330
24E
100
AcDbEntity
  8
SK2
100
AcDbLine
 10
82.9118550633
 20
75.1297267715
 30
0.0
 11
81.8454488058
 21
75.1297267715
 31
0.0
  0
LINE
  5
254
330
24E
100
AcDbEntity
  8
SK2
100
AcDbLine
 10
81.8454488058
 20
75.1297267715
 30
0.0
 11
81.8454488058
 21
69.5734767805
 31
0.0
  0
LINE
  5
255
330
24E
100
AcDbEntity
  8
SK2
100
AcDbLine
 10
81.8454488058
 20
69.5734767805
 30
0.0
 11
82.9118550633
 21
69.5734767805
 31
0.0
  0
LINE
  5
256
330
24E
100
AcDbEntity
  8
SK2
100
AcDbLine
 10
91.9632441242
 20
75.1297267715
 30
0.0
 11
93.0296503816
 21
75.1297267715
 31
0.0
  0
LINE
  5
257
330
24E
100
AcDbEntity
  8
SK2
100
AcDbLine
 10
93.0296503816
 20
75.1297267715
 30
0.0
 11
93.0296503816
 21
69.5734767805
 31
0.0
  0
LINE
  5
258
330
24E
100
AcDbEntity
  8
SK2
100
AcDbLine
 10
93.0296503816
 20
69.5734767805
 30
0.0
 11
91.9632441242
 21
69.5734767805
 31
0.0
  0
LINE
  5
259
330
24E
100
AcDbEntity
  8
SK2
100
AcDbLine
 10
19.05
 20
47.5560855313
 30
0.0
 11
19.05
 21
65.3368450555
 31
0.0
  0
LINE
  5
25A
330
24E
100
AcDbEntity
  8
SK2
100
AcDbLine
 10
168.275
 20
12.305
 30
0.0
 11
168.275
 21
65.3368450555
 31
0.0
  0
LINE
  5
25B
330
24E
100
AcDbEntity
  8
SK2
100
AcDbLine
 10
19.05
 20
64.3368450555
 30
0.0
 11
168.275
 21
64.3368450555
 31
0.0
  0
MTEXT
  5
25C
330
24E
100
AcDbEntity
  8
SK2
100
AcDbMText
 10
80.3451880401
 20
68.9020543214
 30
0.0
 40
3.5
 41
0.0
 71
     1
 72
     1
  1

  7
SLDTEXTSTYLE0
 73
     1
 44
1.0
  0
MTEXT
  5
25D
330
24E
100
AcDbEntity
  8
SK2
100
AcDbMText
 10
82.9118550633
 20
74.0852136951
 30
0.0
 40
3.5
 41
0.0
 71
     1
 72
     1
  1
5,88
  7
SLDTEXTSTYLE0
 73
     1
 44
1.0
  0
MTEXT
  5
25E
330
24E
100
AcDbEntity
  8
SK2
100
AcDbMText
 10
80.3257436369
 20
68.8485821447
 30
0.0
 40
3.5
 41
0.0
 71
     1
 72
     1
  1
149,23
  7
SLDTEXTSTYLE0
 73
     1
 44
1.0
  0
MTEXT
  5
25F
330
24E
100
AcDbEntity
  8
SK2
100
AcDbMText
 10
95.8618556669
 20
68.9020543214
 30
0.0
 40
3.5
 41
0.0
 71
     1
 72
     1
  1

  7
SLDTEXTSTYLE0
 73
     1
 44
1.0
  0
ENDBLK
  5
250
330
24E
100
AcDbEntity
  8
0
100
AcDbBlockEnd
  0
BLOCK
  5
262
330
261
100
AcDbEntity
  8
0
100
AcDbBlockBegin
  2
_D_2
 70
     0
 10
0.0
 20
0.0
 30
0.0
  3
_D_2
  1

  0
SOLID
  5
264
330
261
100
AcDbEntity
  8
SK2
100
AcDbTrace
 10
35.1
 20
49.5220395602
 30
0.0
 11
38.402
 21
49.0140395602
 31
0.0
 12
38.402
 22
50.0300395602
 32
0.0
 13
38.402
 23
50.0300395602
 33
0.0
  0
SOLID
  5
265
330
261
100
AcDbEntity
  8
SK2
100
AcDbTrace
 10
168.275
 20
49.5220395602
 30
0.0
 11
164.973
 21
50.0300395602
 31
0.0
 12
164.973
 22
49.0140395602
 32
0.0
 13
164.973
 23
49.0140395602
 33
0.0
  0
LINE
  5
266
330
261
100
AcDbEntity
  8
SK2
100
AcDbLine
 10
94.9500915366
 20
60.3149212763
 30
0.0
 11
93.8836852791
 21
60.3149212763
 31
0.0
  0
LINE
  5
267
330
261
100
AcDbEntity
  8
SK2
100
AcDbLine
 10
93.8836852791
 20
60.3149212763
 30
0.0
 11
93.8836852791
 21
54.7586712852
 31
0.0
  0
LINE
  5
268
330
261
100
AcDbEntity
  8
SK2
100
AcDbLine
 10
93.8836852791
 20
54.7586712852
 30
0.0
 11
94.9500915366
 21
54.7586712852
 31
0.0
  0
LINE
  5
269
330
261
100
AcDbEntity
  8
SK2
100
AcDbLine
 10
104.0014805975
 20
60.3149212763
 30
0.0
 11
105.067886855
 21
60.3149212763
 31
0.0
  0
LINE
  5
26A
330
261
100
AcDbEntity
  8
SK2
100
AcDbLine
 10
105.067886855
 20
60.3149212763
 30
0.0
 11
105.067886855
 21
54.7586712852
 31
0.0
  0
LINE
  5
26B
330
261
100
AcDbEntity
  8
SK2
100
AcDbLine
 10
105.067886855
 20
54.7586712852
 30
0.0
 11
104.0014805975
 21
54.7586712852
 31
0.0
  0
LINE
  5
26C
330
261
100
AcDbEntity
  8
SK2
100
AcDbLine
 10
35.1
 20
34.401
 30
0.0
 11
35.1
 21
50.5220395602
 31
0.0
  0
LINE
  5
26D
330
261
100
AcDbEntity
  8
SK2
100
AcDbLine
 10
168.275
 20
12.305
 30
0.0
 11
168.275
 21
50.5220395602
 31
0.0
  0
LINE
  5
26E
330
261
100
AcDbEntity
  8
SK2
100
AcDbLine
 10
35.1
 20
49.5220395602
 30
0.0
 11
168.275
 21
49.5220395602
 31
0.0
  0
MTEXT
  5
26F
330
261
100
AcDbEntity
  8
SK2
100
AcDbMText
 10
92.3834245135
 20
54.0872488261
 30
0.0
 40
3.5
 41
0.0
 71
     1
 72
     1
  1

  7
SLDTEXTSTYLE0
 73
     1
 44
1.0
  0
MTEXT
  5
270
330
261
100
AcDbEntity
  8
SK2
100
AcDbMText
 10
94.9500915366
 20
59.2704081998
 30
0.0
 40
3.5
 41
0.0
 71
     1
 72
     1
  1
5,24
  7
SLDTEXTSTYLE0
 73
     1
 44
1.0
  0
MTEXT
  5
271
330
261
100
AcDbEntity
  8
SK2
100
AcDbMText
 10
92.3639801102
 20
54.0337766494
 30
0.0
 40
3.5
 41
0.0
 71
     1
 72
     1
  1
133,18
  7
SLDTEXTSTYLE0
 73
     1
 44
1.0
  0
MTEXT
  5
272
330
261
100
AcDbEntity
  8
SK2
100
AcDbMText
 10
107.9000921403
 20
54.0872488261
 30
0.0
 40
3.5
 41
0.0
 71
     1
 72
     1
  1

  7
SLDTEXTSTYLE0
 73
     1
 44
1.0
  0
ENDBLK
  5
263
330
261
100
AcDbEntity
  8
0
100
AcDbBlockEnd
  0
BLOCK
  5
275
330
274
100
AcDbEntity
  8
0
100
AcDbBlockBegin
  2
_D_3
 70
     0
 10
0.0
 20
0.0
 30
0.0
  3
_D_3
  1

  0
SOLID
  5
277
330
274
100
AcDbEntity
  8
SK2
100
AcDbTrace
 10
89.075
 20
35.9869025235
 30
0.0
 11
92.377
 21
35.4789025235
 31
0.0
 12
92.377
 22
36.4949025235
 32
0.0
 13
92.377
 23
36.4949025235
 33
0.0
  0
SOLID
  5
278
330
274
100
AcDbEntity
  8
SK2
100
AcDbTrace
 10
168.275
 20
35.9869025235
 30
0.0
 11
164.973
 21
36.4949025235
 31
0.0
 12
164.973
 22
35.4789025235
 32
0.0
 13
164.973
 23
35.4789025235
 33
0.0
  0
LINE
  5
279
330
274
100
AcDbEntity
  8
SK2
100
AcDbLine
 10
124.9078615112
 20
46.7797842395
 30
0.0
 11
123.8414552538
 21
46.7797842395
 31
0.0
  0
LINE
  5
27A
330
274
100
AcDbEntity
  8
SK2
100
AcDbLine
 10
123.8414552538
 20
46.7797842395
 30
0.0
 11
123.8414552538
 21
41.2235342485
 31
0.0
  0
LINE
  5
27B
330
274
100
AcDbEntity
  8
SK2
100
AcDbLine
 10
123.8414552538
 20
41.2235342485
 30
0.0
 11
124.9078615112
 21
41.2235342485
 31
0.0
  0
LINE
  5
27C
330
274
100
AcDbEntity
  8
SK2
100
AcDbLine
 10
133.9592505721
 20
46.7797842395
 30
0.0
 11
135.0256568296
 21
46.7797842395
 31
0.0
  0
LINE
  5
27D
330
274
100
AcDbEntity
  8
SK2
100
AcDbLine
 10
135.0256568296
 20
46.7797842395
 30
0.0
 11
135.0256568296
 21
41.2235342485
 31
0.0
  0
LINE
  5
27E
330
274
100
AcDbEntity
  8
SK2
100
AcDbLine
 10
135.0256568296
 20
41.2235342485
 30
0.0
 11
133.9592505721
 21
41.2235342485
 31
0.0
  0
LINE
  5
27F
330
274
100
AcDbEntity
  8
SK2
100
AcDbLine
 10
89.075
 20
16.875
 30
0.0
 11
89.075
 21
36.9869025235
 31
0.0
  0
LINE
  5
280
330
274
100
AcDbEntity
  8
SK2
100
AcDbLine
 10
168.275
 20
12.305
 30
0.0
 11
168.275
 21
36.9869025235
 31
0.0
  0
LINE
  5
281
330
274
100
AcDbEntity
  8
SK2
100
AcDbLine
 10
89.075
 20
35.9869025235
 30
0.0
 11
168.275
 21
35.9869025235
 31
0.0
  0
MTEXT
  5
282
330
274
100
AcDbEntity
  8
SK2
100
AcDbMText
 10
122.7944933995
 20
40.5521117894
 30
0.0
 40
3.5
 41
0.0
 71
     1
 72
     1
  1

  7
SLDTEXTSTYLE0
 73
     1
 44
1.0
  0
MTEXT
  5
283
330
274
100
AcDbEntity
  8
SK2
100
AcDbMText
 10
124.9078615112
 20
45.7352711631
 30
0.0
 40
3.5
 41
0.0
 71
     1
 72
     1
  1
3,12
  7
SLDTEXTSTYLE0
 73
     1
 44
1.0
  0
MTEXT
  5
284
330
274
100
AcDbEntity
  8
SK2
100
AcDbMText
 10
124.9078615112
 20
40.4986396127
 30
0.0
 40
3.5
 41
0.0
 71
     1
 72
     1
  1
79,2
  7
SLDTEXTSTYLE0
 73
     1
 44
1.0
  0
MTEXT
  5
285
330
274
100
AcDbEntity
  8
SK2
100
AcDbMText
 10
137.4045632034
 20
40.5521117894
 30
0.0
 40
3.5
 41
0.0
 71
     1
 72
     1
  1

  7
SLDTEXTSTYLE0
 73
     1
 44
1.0
  0
ENDBLK
  5
276
330
274
100
AcDbEntity
  8
0
100
AcDbBlockEnd
  0
BLOCK
  5
288
330
287
100
AcDbEntity
  8
0
100
AcDbBlockBegin
  2
_D_4
 70
     0
 10
0.0
 20
0.0
 30
0.0
  3
_D_4
  1

  0
SOLID
  5
28A
330
287
100
AcDbEntity
  8
SK2
100
AcDbTrace
 10
168.275
 20
24.2905569644
 30
0.0
 11
164.973
 21
24.7985569644
 31
0.0
 12
164.973
 22
23.7825569644
 32
0.0
 13
164.973
 23
23.7825569644
 33
0.0
  0
SOLID
  5
28B
330
287
100
AcDbEntity
  8
SK2
100
AcDbTrace
 10
146.05
 20
24.2905569644
 30
0.0
 11
149.352
 21
23.7825569644
 31
0.0
 12
149.352
 22
24.7985569644
 32
0.0
 13
149.352
 23
24.7985569644
 33
0.0
  0
LINE
  5
28C
330
287
100
AcDbEntity
  8
SK2
100
AcDbLine
 10
153.6023520291
 20
35.0834386804
 30
0.0
 11
152.5359457716
 21
35.0834386804
 31
0.0
  0
LINE
  5
28D
330
287
100
AcDbEntity
  8
SK2
100
AcDbLine
 10
152.5359457716
 20
35.0834386804
 30
0.0
 11
152.5359457716
 21
29.5271886894
 31
0.0
  0
LINE
  5
28E
330
287
100
AcDbEntity
  8
SK2
100
AcDbLine
 10
152.5359457716
 20
29.5271886894
 30
0.0
 11
153.6023520291
 21
29.5271886894
 31
0.0
  0
LINE
  5
28F
330
287
100
AcDbEntity
  8
SK2
100
AcDbLine
 10
162.65374109
 20
35.0834386804
 30
0.0
 11
163.7201473474
 21
35.0834386804
 31
0.0
  0
LINE
  5
290
330
287
100
AcDbEntity
  8
SK2
100
AcDbLine
 10
163.7201473474
 20
35.0834386804
 30
0.0
 11
163.7201473474
 21
29.5271886894
 31
0.0
  0
LINE
  5
291
330
287
100
AcDbEntity
  8
SK2
100
AcDbLine
 10
163.7201473474
 20
29.5271886894
 30
0.0
 11
162.65374109
 21
29.5271886894
 31
0.0
  0
LINE
  5
292
330
287
100
AcDbEntity
  8
SK2
100
AcDbLine
 10
168.275
 20
8.209523521
 30
0.0
 11
168.275
 21
25.2905569644
 31
0.0
  0
LINE
  5
293
330
287
100
AcDbEntity
  8
SK2
100
AcDbLine
 10
146.05
 20
17.375
 30
0.0
 11
146.05
 21
25.2905569644
 31
0.0
  0
LINE
  5
294
330
287
100
AcDbEntity
  8
SK2
100
AcDbLine
 10
168.275
 20
24.2905569644
 30
0.0
 11
146.05
 21
24.2905569644
 31
0.0
  0
MTEXT
  5
295
330
287
100
AcDbEntity
  8
SK2
100
AcDbMText
 10
151.4889839174
 20
28.8557662303
 30
0.0
 40
3.5
 41
0.0
 71
     1
 72
     1
  1

  7
SLDTEXTSTYLE0
 73
     1
 44
1.0
  0
MTEXT
  5
296
330
287
100
AcDbEntity
  8
SK2
100
AcDbMText
 10
153.6023520291
 20
34.038925604
 30
0.0
 40
3.5
 41
0.0
 71
     1
 72
     1
  1
0,88
  7
SLDTEXTSTYLE0
 73
     1
 44
1.0
  0
MTEXT
  5
297
330
287
100
AcDbEntity
  8
SK2
100
AcDbMText
 10
152.3092963159
 20
28.8022940536
 30
0.0
 40
3.5
 41
0.0
 71
     1
 72
     1
  1
22,23
  7
SLDTEXTSTYLE0
 73
     1
 44
1.0
  0
MTEXT
  5
298
330
287
100
AcDbEntity
  8
SK2
100
AcDbMText
 10
166.0990537213
 20
28.8557662303
 30
0.0
 40
3.5
 41
0.0
 71
     1
 72
     1
  1

  7
SLDTEXTSTYLE0
 73
     1
 44
1.0
  0
ENDBLK
  5
289
330
287
100
AcDbEntity
  8
0
100
AcDbBlockEnd
  0
BLOCK
  5
29C
330
29B
100
AcDbEntity
  8
0
100
AcDbBlockBegin
  2
_D_5
 70
     0
 10
0.0
 20
0.0
 30
0.0
  3
_D_5
  1

  0
SOLID
  5
29E
330
29B
100
AcDbEntity
  8
SK2
100
AcDbTrace
 10
0.0
 20
64.3368450555
 30
0.0
 11
3.302
 21
63.8288450555
 31
0.0
 12
3.302
 22
64.8448450555
 32
0.0
 13
3.302
 23
64.8448450555
 33
0.0
  0
SOLID
  5
29F
330
29B
100
AcDbEntity
  8
SK2
100
AcDbTrace
 10
19.05
 20
64.3368450555
 30
0.0
 11
15.748
 21
64.8448450555
 31
0.0
 12
15.748
 22
63.8288450555
 32
0.0
 13
15.748
 23
63.8288450555
 33
0.0
  0
LINE
  5
2A0
330
29B
100
AcDbEntity
  8
SK2
100
AcDbLine
 10
0.0
 20
35.925
 30
0.0
 11
0.0
 21
65.3368450555
 31
0.0
  0
LINE
  5
2A1
330
29B
100
AcDbEntity
  8
SK2
100
AcDbLine
 10
19.05
 20
47.5560855313
 30
0.0
 11
19.05
 21
65.3368450555
 31
0.0
  0
LINE
  5
2A2
330
29B
100
AcDbEntity
  8
SK2
100
AcDbLine
 10
0.0
 20
64.3368450555
 30
0.0
 11
19.05
 21
64.3368450555
 31
0.0
  0
MTEXT
  5
2A3
330
29B
100
AcDbEntity
  8
SK2
100
AcDbMText
 10
4.6683504818
 20
68.8485819701
 30
0.0
 40
3.5
 41
0.0
 71
     1
 72
     1
  1
19,05
  7
SLDTEXTSTYLE0
 73
     1
 44
1.0
  0
ENDBLK
  5
29D
330
29B
100
AcDbEntity
  8
0
100
AcDbBlockEnd
  0
BLOCK
  5
2A7
330
2A6
100
AcDbEntity
  8
0
100
AcDbBlockBegin
  2
_D_6
 70
     0
 10
0.0
 20
0.0
 30
0.0
  3
_D_6
  1

  0
SOLID
  5
2A9
330
2A6
100
AcDbEntity
  8
SK2
100
AcDbTrace
 10
183.9484912897
 20
-6.35
 30
0.0
 11
183.4404912897
 21
-9.652
 31
0.0
 12
184.4564912897
 22
-9.652
 32
0.0
 13
184.4564912897
 23
-9.652
 33
0.0
  0
SOLID
  5
2AA
330
2A6
100
AcDbEntity
  8
SK2
100
AcDbTrace
 10
183.9484912897
 20
6.35
 30
0.0
 11
184.4564912897
 21
9.652
 31
0.0
 12
183.4404912897
 22
9.652
 32
0.0
 13
183.4404912897
 23
9.652
 33
0.0
  0
LINE
  5
2AB
330
2A6
100
AcDbEntity
  8
SK2
100
AcDbLine
 10
173.1556095736
 20
-4.2827235632
 30
0.0
 11
173.1556095736
 21
-5.3491298206
 31
0.0
  0
LINE
  5
2AC
330
2A6
100
AcDbEntity
  8
SK2
100
AcDbLine
 10
173.1556095736
 20
-5.3491298206
 30
0.0
 11
178.7118595647
 21
-5.3491298206
 31
0.0
  0
LINE
  5
2AD
330
2A6
100
AcDbEntity
  8
SK2
100
AcDbLine
 10
178.7118595647
 20
-5.3491298206
 30
0.0
 11
178.7118595647
 21
-4.2827235632
 31
0.0
  0
LINE
  5
2AE
330
2A6
100
AcDbEntity
  8
SK2
100
AcDbLine
 10
173.1556095736
 20
4.7686654977
 30
0.0
 11
173.1556095736
 21
5.8350717552
 31
0.0
  0
LINE
  5
2AF
330
2A6
100
AcDbEntity
  8
SK2
100
AcDbLine
 10
173.1556095736
 20
5.8350717552
 30
0.0
 11
178.7118595647
 21
5.8350717552
 31
0.0
  0
LINE
  5
2B0
330
2A6
100
AcDbEntity
  8
SK2
100
AcDbLine
 10
178.7118595647
 20
5.8350717552
 30
0.0
 11
178.7118595647
 21
4.7686654977
 31
0.0
  0
LINE
  5
2B1
330
2A6
100
AcDbEntity
  8
SK2
100
AcDbLine
 10
167.775
 20
-6.35
 30
0.0
 11
184.9484912897
 21
-6.35
 31
0.0
  0
LINE
  5
2B2
330
2A6
100
AcDbEntity
  8
SK2
100
AcDbLine
 10
167.775
 20
6.35
 30
0.0
 11
184.9484912897
 21
6.35
 31
0.0
  0
LINE
  5
2B3
330
2A6
100
AcDbEntity
  8
SK2
100
AcDbLine
 10
183.9484912897
 20
-6.35
 30
0.0
 11
183.9484912897
 21
-12.7
 31
0.0
  0
LINE
  5
2B4
330
2A6
100
AcDbEntity
  8
SK2
100
AcDbLine
 10
183.9484912897
 20
-6.35
 30
0.0
 11
183.9484912897
 21
6.35
 31
0.0
  0
LINE
  5
2B5
330
2A6
100
AcDbEntity
  8
SK2
100
AcDbLine
 10
183.9484912897
 20
6.35
 30
0.0
 11
183.9484912897
 21
12.7
 31
0.0
  0
MTEXT
  5
2B6
330
2A6
100
AcDbEntity
  8
SK2
100
AcDbMText
 10
174.2001226501
 20
-4.2827235632
 30
0.0
 40
3.5
 41
0.0
 71
     1
 72
     1
  1
0,50
  7
SLDTEXTSTYLE0
 11
-1.608122649676637E-16
 21
1.0
 31
0.0
 73
     1
 44
1.0
  0
MTEXT
  5
2B7
330
2A6
100
AcDbEntity
  8
SK2
100
AcDbMText
 10
179.4367542005
 20
-6.921942728
 30
0.0
 40
3.5
 41
0.0
 71
     1
 72
     1
  1
%%c
  7
SLDTEXTSTYLE0
 11
-1.608122649676637E-16
 21
1.0
 31
0.0
 73
     1
 44
1.0
  0
MTEXT
  5
2B8
330
2A6
100
AcDbEntity
  8
SK2
100
AcDbMText
 10
179.4367542005
 20
-1.6435053296
 30
0.0
 40
3.5
 41
0.0
 71
     1
 72
     1
  1
12,7
  7
SLDTEXTSTYLE0
 11
-1.608122649676637E-16
 21
1.0
 31
0.0
 73
     1
 44
1.0
  0
ENDBLK
  5
2A8
330
2A6
100
AcDbEntity
  8
0
100
AcDbBlockEnd
  0
BLOCK
  5
2BB
330
2BA
100
AcDbEntity
  8
0
100
AcDbBlockBegin
  2
_D_7
 70
     0
 10
0.0
 20
0.0
 30
0.0
  3
_D_7
  1

  0
SOLID
  5
2BD
330
2BA
100
AcDbEntity
  8
SK2
100
AcDbTrace
 10
199.1385581962
 20
11.305
 30
0.0
 11
198.6305581962
 21
8.003
 31
0.0
 12
199.6465581962
 22
8.003
 32
0.0
 13
199.6465581962
 23
8.003
 33
0.0
  0
SOLID
  5
2BE
330
2BA
100
AcDbEntity
  8
SK2
100
AcDbTrace
 10
199.1385581962
 20
-11.305
 30
0.0
 11
199.6465581962
 21
-8.003
 31
0.0
 12
198.6305581962
 22
-8.003
 32
0.0
 13
198.6305581962
 23
-8.003
 33
0.0
  0
LINE
  5
2BF
330
2BA
100
AcDbEntity
  8
SK2
100
AcDbLine
 10
188.3456764802
 20
-4.2827235632
 30
0.0
 11
188.3456764802
 21
-5.3491298206
 31
0.0
  0
LINE
  5
2C0
330
2BA
100
AcDbEntity
  8
SK2
100
AcDbLine
 10
188.3456764802
 20
-5.3491298206
 30
0.0
 11
193.9019264712
 21
-5.3491298206
 31
0.0
  0
LINE
  5
2C1
330
2BA
100
AcDbEntity
  8
SK2
100
AcDbLine
 10
193.9019264712
 20
-5.3491298206
 30
0.0
 11
193.9019264712
 21
-4.2827235632
 31
0.0
  0
LINE
  5
2C2
330
2BA
100
AcDbEntity
  8
SK2
100
AcDbLine
 10
188.3456764802
 20
4.7686654977
 30
0.0
 11
188.3456764802
 21
5.8350717552
 31
0.0
  0
LINE
  5
2C3
330
2BA
100
AcDbEntity
  8
SK2
100
AcDbLine
 10
188.3456764802
 20
5.8350717552
 30
0.0
 11
193.9019264712
 21
5.8350717552
 31
0.0
  0
LINE
  5
2C4
330
2BA
100
AcDbEntity
  8
SK2
100
AcDbLine
 10
193.9019264712
 20
5.8350717552
 30
0.0
 11
193.9019264712
 21
4.7686654977
 31
0.0
  0
LINE
  5
2C5
330
2BA
100
AcDbEntity
  8
SK2
100
AcDbLine
 10
169.275
 20
11.305
 30
0.0
 11
200.1385581962
 21
11.305
 31
0.0
  0
LINE
  5
2C6
330
2BA
100
AcDbEntity
  8
SK2
100
AcDbLine
 10
169.275
 20
-11.305
 30
0.0
 11
200.1385581962
 21
-11.305
 31
0.0
  0
LINE
  5
2C7
330
2BA
100
AcDbEntity
  8
SK2
100
AcDbLine
 10
199.1385581962
 20
11.305
 30
0.0
 11
199.1385581962
 21
-11.305
 31
0.0
  0
MTEXT
  5
2C8
330
2BA
100
AcDbEntity
  8
SK2
100
AcDbMText
 10
189.3901895567
 20
-4.2827235632
 30
0.0
 40
3.5
 41
0.0
 71
     1
 72
     1
  1
0,89
  7
SLDTEXTSTYLE0
 11
-7.044195017643634E-15
 21
1.0
 31
0.0
 73
     1
 44
1.0
  0
MTEXT
  5
2C9
330
2BA
100
AcDbEntity
  8
SK2
100
AcDbMText
 10
194.626821107
 20
-8.2149979755
 30
0.0
 40
3.5
 41
0.0
 71
     1
 72
     1
  1
%%c
  7
SLDTEXTSTYLE0
 11
-7.044195017643634E-15
 21
1.0
 31
0.0
 73
     1
 44
1.0
  0
MTEXT
  5
2CA
330
2BA
100
AcDbEntity
  8
SK2
100
AcDbMText
 10
194.626821107
 20
-2.9365605772
 30
0.0
 40
3.5
 41
0.0
 71
     1
 72
     1
  1
22,61
  7
SLDTEXTSTYLE0
 11
-7.044195017643634E-15
 21
1.0
 31
0.0
 73
     1
 44
1.0
  0
ENDBLK
  5
2BC
330
2BA
100
AcDbEntity
  8
0
100
AcDbBlockEnd
  0
BLOCK
  5
2CD
330
2CC
100
AcDbEntity
  8
0
100
AcDbBlockBegin
  2
_D_8
 70
     0
 10
0.0
 20
0.0
 30
0.0
  3
_D_8
  1

  0
SOLID
  5
2CF
330
2CC
100
AcDbEntity
  8
SK2
100
AcDbTrace
 10
212.7231708769
 20
-15.875
 30
0.0
 11
213.2311708769
 21
-12.573
 31
0.0
 12
212.2151708769
 22
-12.573
 32
0.0
 13
212.2151708769
 23
-12.573
 33
0.0
  0
SOLID
  5
2D0
330
2CC
100
AcDbEntity
  8
SK2
100
AcDbTrace
 10
212.7231708769
 20
15.875
 30
0.0
 11
212.2151708769
 21
12.573
 31
0.0
 12
213.2311708769
 22
12.573
 32
0.0
 13
213.2311708769
 23
12.573
 33
0.0
  0
LINE
  5
2D1
330
2CC
100
AcDbEntity
  8
SK2
100
AcDbLine
 10
201.9302891608
 20
-4.2827235632
 30
0.0
 11
201.9302891608
 21
-5.3491298206
 31
0.0
  0
LINE
  5
2D2
330
2CC
100
AcDbEntity
  8
SK2
100
AcDbLine
 10
201.9302891608
 20
-5.3491298206
 30
0.0
 11
207.4865391519
 21
-5.3491298206
 31
0.0
  0
LINE
  5
2D3
330
2CC
100
AcDbEntity
  8
SK2
100
AcDbLine
 10
207.4865391519
 20
-5.3491298206
 30
0.0
 11
207.4865391519
 21
-4.2827235632
 31
0.0
  0
LINE
  5
2D4
330
2CC
100
AcDbEntity
  8
SK2
100
AcDbLine
 10
201.9302891608
 20
4.7686654977
 30
0.0
 11
201.9302891608
 21
5.8350717552
 31
0.0
  0
LINE
  5
2D5
330
2CC
100
AcDbEntity
  8
SK2
100
AcDbLine
 10
201.9302891608
 20
5.8350717552
 30
0.0
 11
207.4865391519
 21
5.8350717552
 31
0.0
  0
LINE
  5
2D6
330
2CC
100
AcDbEntity
  8
SK2
100
AcDbLine
 10
207.4865391519
 20
5.8350717552
 30
0.0
 11
207.4865391519
 21
4.7686654977
 31
0.0
  0
LINE
  5
2D7
330
2CC
100
AcDbEntity
  8
SK2
100
AcDbLine
 10
164.705
 20
-15.875
 30
0.0
 11
213.7231708769
 21
-15.875
 31
0.0
  0
LINE
  5
2D8
330
2CC
100
AcDbEntity
  8
SK2
100
AcDbLine
 10
164.705
 20
15.875
 30
0.0
 11
213.7231708769
 21
15.875
 31
0.0
  0
LINE
  5
2D9
330
2CC
100
AcDbEntity
  8
SK2
100
AcDbLine
 10
212.7231708769
 20
-15.875
 30
0.0
 11
212.7231708769
 21
15.875
 31
0.0
  0
MTEXT
  5
2DA
330
2CC
100
AcDbEntity
  8
SK2
100
AcDbMText
 10
202.9748022373
 20
-4.2827235632
 30
0.0
 40
3.5
 41
0.0
 71
     1
 72
     1
  1
1,25
  7
SLDTEXTSTYLE0
 11
6.123233995736766E-17
 21
1.0
 31
0.0
 73
     1
 44
1.0
  0
MTEXT
  5
2DB
330
2CC
100
AcDbEntity
  8
SK2
100
AcDbMText
 10
208.2114337877
 20
-8.2149979755
 30
0.0
 40
3.5
 41
0.0
 71
     1
 72
     1
  1
%%c
  7
SLDTEXTSTYLE0
 11
6.123233995736766E-17
 21
1.0
 31
0.0
 73
     1
 44
1.0
  0
MTEXT
  5
2DC
330
2CC
100
AcDbEntity
  8
SK2
100
AcDbMText
 10
208.2114337877
 20
-2.9365605772
 30
0.0
 40
3.5
 41
0.0
 71
     1
 72
     1
  1
31,75
  7
SLDTEXTSTYLE0
 11
6.123233995736766E-17
 21
1.0
 31
0.0
 73
     1
 44
1.0
  0
ENDBLK
  5
2CE
330
2CC
100
AcDbEntity
  8
0
100
AcDbBlockEnd
  0
BLOCK
  5
2E0
330
2DF
100
AcDbEntity
  8
0
100
AcDbBlockBegin
  2
_D_9
 70
     0
 10
0.0
 20
0.0
 30
0.0
  3
_D_9
  1

  0
SOLID
  5
2E2
330
2DF
100
AcDbEntity
  8
SK2
100
AcDbTrace
 10
-101.6
 20
-63.6608313327
 30
0.0
 11
-98.298
 21
-64.1688313327
 31
0.0
 12
-98.298
 22
-63.1528313327
 32
0.0
 13
-98.298
 23
-63.1528313327
 33
0.0
  0
SOLID
  5
2E3
330
2DF
100
AcDbEntity
  8
SK2
100
AcDbTrace
 10
168.275
 20
-63.6608313327
 30
0.0
 11
164.973
 21
-63.1528313327
 31
0.0
 12
164.973
 22
-64.1688313327
 32
0.0
 13
164.973
 23
-64.1688313327
 33
0.0
  0
LINE
  5
2E4
330
2DF
100
AcDbEntity
  8
SK2
100
AcDbLine
 10
41.3619282643
 20
-52.8679496167
 30
0.0
 11
40.2955220069
 21
-52.8679496167
 31
0.0
  0
LINE
  5
2E5
330
2DF
100
AcDbEntity
  8
SK2
100
AcDbLine
 10
40.2955220069
 20
-52.8679496167
 30
0.0
 11
40.2955220069
 21
-58.4241996078
 31
0.0
  0
LINE
  5
2E6
330
2DF
100
AcDbEntity
  8
SK2
100
AcDbLine
 10
40.2955220069
 20
-58.4241996078
 30
0.0
 11
41.3619282643
 21
-58.4241996078
 31
0.0
  0
LINE
  5
2E7
330
2DF
100
AcDbEntity
  8
SK2
100
AcDbLine
 10
55.5855401779
 20
-52.8679496167
 30
0.0
 11
56.6519464354
 21
-52.8679496167
 31
0.0
  0
LINE
  5
2E8
330
2DF
100
AcDbEntity
  8
SK2
100
AcDbLine
 10
56.6519464354
 20
-52.8679496167
 30
0.0
 11
56.6519464354
 21
-58.4241996078
 31
0.0
  0
LINE
  5
2E9
330
2DF
100
AcDbEntity
  8
SK2
100
AcDbLine
 10
56.6519464354
 20
-58.4241996078
 30
0.0
 11
55.5855401779
 21
-58.4241996078
 31
0.0
  0
LINE
  5
2EA
330
2DF
100
AcDbEntity
  8
SK2
100
AcDbLine
 10
-101.6
 20
-19.2922326599
 30
0.0
 11
-101.6
 21
-64.6608313327
 31
0.0
  0
LINE
  5
2EB
330
2DF
100
AcDbEntity
  8
SK2
100
AcDbLine
 10
168.275
 20
-12.305
 30
0.0
 11
168.275
 21
-64.6608313327
 31
0.0
  0
LINE
  5
2EC
330
2DF
100
AcDbEntity
  8
SK2
100
AcDbLine
 10
-101.6
 20
-63.6608313327
 30
0.0
 11
168.275
 21
-63.6608313327
 31
0.0
  0
MTEXT
  5
2ED
330
2DF
100
AcDbEntity
  8
SK2
100
AcDbMText
 10
39.2485601527
 20
-59.0956220669
 30
0.0
 40
3.5
 41
0.0
 71
     1
 72
     1
  1

  7
SLDTEXTSTYLE0
 73
     1
 44
1.0
  0
MTEXT
  5
2EE
330
2DF
100
AcDbEntity
  8
SK2
100
AcDbMText
 10
41.3619282643
 20
-53.9124626932
 30
0.0
 40
3.5
 41
0.0
 71
     1
 72
     1
  1
10,625
  7
SLDTEXTSTYLE0
 73
     1
 44
1.0
  0
MTEXT
  5
2EF
330
2DF
100
AcDbEntity
  8
SK2
100
AcDbMText
 10
40.0688725511
 20
-59.1490942435
 30
0.0
 40
3.5
 41
0.0
 71
     1
 72
     1
  1
269,875
  7
SLDTEXTSTYLE0
 73
     1
 44
1.0
  0
MTEXT
  5
2F0
330
2DF
100
AcDbEntity
  8
SK2
100
AcDbMText
 10
59.0308518779
 20
-59.0956220669
 30
0.0
 40
3.5
 41
0.0
 71
     1
 72
     1
  1

  7
SLDTEXTSTYLE0
 73
     1
 44
1.0
  0
ENDBLK
  5
2E1
330
2DF
100
AcDbEntity
  8
0
100
AcDbBlockEnd
  0
BLOCK
  5
2F3
330
2F2
100
AcDbEntity
  8
0
100
AcDbBlockBegin
  2
_D_10
 70
     0
 10
0.0
 20
0.0
 30
0.0
  3
_D_10
  1

  0
SOLID
  5
2F5
330
2F2
100
AcDbEntity
  8
SK2
100
AcDbTrace
 10
123.8254200214
 20
-53.0515096804
 30
0.0
 11
127.1274200214
 21
-53.5595096804
 31
0.0
 12
127.1274200214
 22
-52.5435096804
 32
0.0
 13
127.1274200214
 23
-52.5435096804
 33
0.0
  0
SOLID
  5
2F6
330
2F2
100
AcDbEntity
  8
SK2
100
AcDbTrace
 10
168.275
 20
-53.0515096804
 30
0.0
 11
164.973
 21
-52.5435096804
 31
0.0
 12
164.973
 22
-53.5595096804
 32
0.0
 13
164.973
 23
-53.5595096804
 33
0.0
  0
LINE
  5
2F7
330
2F2
100
AcDbEntity
  8
SK2
100
AcDbLine
 10
142.5452638555
 20
-42.2586279643
 30
0.0
 11
141.4788575981
 21
-42.2586279643
 31
0.0
  0
LINE
  5
2F8
330
2F2
100
AcDbEntity
  8
SK2
100
AcDbLine
 10
141.4788575981
 20
-42.2586279643
 30
0.0
 11
141.4788575981
 21
-47.8148779554
 31
0.0
  0
LINE
  5
2F9
330
2F2
100
AcDbEntity
  8
SK2
100
AcDbLine
 10
141.4788575981
 20
-47.8148779554
 30
0.0
 11
142.5452638555
 21
-47.8148779554
 31
0.0
  0
LINE
  5
2FA
330
2F2
100
AcDbEntity
  8
SK2
100
AcDbLine
 10
151.5966529164
 20
-42.2586279643
 30
0.0
 11
152.6630591739
 21
-42.2586279643
 31
0.0
  0
LINE
  5
2FB
330
2F2
100
AcDbEntity
  8
SK2
100
AcDbLine
 10
152.6630591739
 20
-42.2586279643
 30
0.0
 11
152.6630591739
 21
-47.8148779554
 31
0.0
  0
LINE
  5
2FC
330
2F2
100
AcDbEntity
  8
SK2
100
AcDbLine
 10
152.6630591739
 20
-47.8148779554
 30
0.0
 11
151.5966529164
 21
-47.8148779554
 31
0.0
  0
LINE
  5
2FD
330
2F2
100
AcDbEntity
  8
SK2
100
AcDbLine
 10
123.8254200214
 20
-7.35
 30
0.0
 11
123.8254200214
 21
-54.0515096804
 31
0.0
  0
LINE
  5
2FE
330
2F2
100
AcDbEntity
  8
SK2
100
AcDbLine
 10
168.275
 20
-12.305
 30
0.0
 11
168.275
 21
-54.0515096804
 31
0.0
  0
LINE
  5
2FF
330
2F2
100
AcDbEntity
  8
SK2
100
AcDbLine
 10
123.8254200214
 20
-53.0515096804
 30
0.0
 11
168.275
 21
-53.0515096804
 31
0.0
  0
MTEXT
  5
300
330
2F2
100
AcDbEntity
  8
SK2
100
AcDbMText
 10
140.4318957438
 20
-48.4863004145
 30
0.0
 40
3.5
 41
0.0
 71
     1
 72
     1
  1

  7
SLDTEXTSTYLE0
 73
     1
 44
1.0
  0
MTEXT
  5
301
330
2F2
100
AcDbEntity
  8
SK2
100
AcDbMText
 10
142.5452638555
 20
-43.3031410408
 30
0.0
 40
3.5
 41
0.0
 71
     1
 72
     1
  1
1,75
  7
SLDTEXTSTYLE0
 73
     1
 44
1.0
  0
MTEXT
  5
302
330
2F2
100
AcDbEntity
  8
SK2
100
AcDbMText
 10
141.2522081423
 20
-48.5397725912
 30
0.0
 40
3.5
 41
0.0
 71
     1
 72
     1
  1
44,45
  7
SLDTEXTSTYLE0
 73
     1
 44
1.0
  0
MTEXT
  5
303
330
2F2
100
AcDbEntity
  8
SK2
100
AcDbMText
 10
155.0419655477
 20
-48.4863004145
 30
0.0
 40
3.5
 41
0.0
 71
     1
 72
     1
  1

  7
SLDTEXTSTYLE0
 73
     1
 44
1.0
  0
ENDBLK
  5
2F4
330
2F2
100
AcDbEntity
  8
0
100
AcDbBlockEnd
  0
BLOCK
  5
307
330
306
100
AcDbEntity
  8
0
100
AcDbBlockBegin
  2
_D_11
 70
     0
 10
0.0
 20
0.0
 30
0.0
  3
_D_11
  1

  0
SOLID
  5
309
330
306
100
AcDbEntity
  8
SK2
100
AcDbTrace
 10
163.705
 20
-36.8050432957
 30
0.0
 11
160.403
 21
-36.2970432957
 31
0.0
 12
160.403
 22
-37.3130432957
 32
0.0
 13
160.403
 23
-37.3130432957
 33
0.0
  0
SOLID
  5
30A
330
306
100
AcDbEntity
  8
SK2
100
AcDbTrace
 10
168.275
 20
-36.8050432957
 30
0.0
 11
171.577
 21
-37.3130432957
 31
0.0
 12
171.577
 22
-36.2970432957
 32
0.0
 13
171.577
 23
-36.2970432957
 33
0.0
  0
LINE
  5
30B
330
306
100
AcDbEntity
  8
SK2
100
AcDbLine
 10
163.705
 20
-16.875
 30
0.0
 11
163.705
 21
-37.8050432957
 31
0.0
  0
LINE
  5
30C
330
306
100
AcDbEntity
  8
SK2
100
AcDbLine
 10
168.275
 20
-12.305
 30
0.0
 11
168.275
 21
-37.8050432957
 31
0.0
  0
LINE
  5
30D
330
306
100
AcDbEntity
  8
SK2
100
AcDbLine
 10
163.705
 20
-36.8050432957
 30
0.0
 11
148.4480062963
 21
-36.8050432957
 31
0.0
  0
LINE
  5
30E
330
306
100
AcDbEntity
  8
SK2
100
AcDbLine
 10
163.705
 20
-36.8050432957
 30
0.0
 11
168.275
 21
-36.8050432957
 31
0.0
  0
LINE
  5
30F
330
306
100
AcDbEntity
  8
SK2
100
AcDbLine
 10
168.275
 20
-36.8050432957
 30
0.0
 11
174.625
 21
-36.8050432957
 31
0.0
  0
MTEXT
  5
310
330
306
100
AcDbEntity
  8
SK2
100
AcDbMText
 10
148.4480062963
 20
-32.2933063812
 30
0.0
 40
3.5
 41
0.0
 71
     1
 72
     1
  1
4,57
  7
SLDTEXTSTYLE0
 73
     1
 44
1.0
  0
ENDBLK
  5
308
330
306
100
AcDbEntity
  8
0
100
AcDbBlockEnd
  0
BLOCK
  5
313
330
312
100
AcDbEntity
  8
0
100
AcDbBlockBegin
  2
_D_12
 70
     0
 10
0.0
 20
0.0
 30
0.0
  3
_D_12
  1

  0
SOLID
  5
315
330
312
100
AcDbEntity
  8
SK2
100
AcDbTrace
 10
-122.6207383346
 20
47.2968145978
 30
0.0
 11
-123.1287383346
 21
43.9948145978
 31
0.0
 12
-122.1127383346
 22
43.9948145978
 32
0.0
 13
-122.1127383346
 23
43.9948145978
 33
0.0
  0
SOLID
  5
316
330
312
100
AcDbEntity
  8
SK2
100
AcDbTrace
 10
-122.6207383346
 20
-47.4754841997
 30
0.0
 11
-122.1127383346
 21
-44.1734841997
 31
0.0
 12
-123.1287383346
 22
-44.1734841997
 32
0.0
 13
-123.1287383346
 23
-44.1734841997
 33
0.0
  0
LINE
  5
317
330
312
100
AcDbEntity
  8
SK2
100
AcDbLine
 10
6.5902766066
 20
47.2968145978
 30
0.0
 11
-123.6207383346
 21
47.2968145978
 31
0.0
  0
LINE
  5
318
330
312
100
AcDbEntity
  8
SK2
100
AcDbLine
 10
2.95
 20
-47.4754841997
 30
0.0
 11
-123.6207383346
 21
-47.4754841997
 31
0.0
  0
LINE
  5
319
330
312
100
AcDbEntity
  8
SK2
100
AcDbLine
 10
-122.6207383346
 20
47.2968145978
 30
0.0
 11
-122.6207383346
 21
-47.4754841997
 31
0.0
  0
MTEXT
  5
31A
330
312
100
AcDbEntity
  8
SK2
100
AcDbMText
 10
-127.1324754238
 20
-7.2819066343
 30
0.0
 40
3.5
 41
0.0
 71
     1
 72
     1
  1
%%c
  7
SLDTEXTSTYLE0
 11
-7.044195017643634E-15
 21
1.0
 31
0.0
 73
     1
 44
1.0
  0
MTEXT
  5
31B
330
312
100
AcDbEntity
  8
SK2
100
AcDbMText
 10
-127.1859476005
 20
-2.0034692359
 30
0.0
 40
3.5
 41
0.0
 71
     1
 72
     1
  1
98,42
  7
SLDTEXTSTYLE0
 11
-7.044195017643634E-15
 21
1.0
 31
0.0
 73
     1
 44
1.0
  0
ENDBLK
  5
314
330
312
100
AcDbEntity
  8
0
100
AcDbBlockEnd
  0
BLOCK
  5
31E
330
31D
100
AcDbEntity
  8
0
100
AcDbBlockBegin
  2
_D_13
 70
     0
 10
0.0
 20
0.0
 30
0.0
  3
_D_13
  1

  0
SOLID
  5
320
330
31D
100
AcDbEntity
  8
SK2
100
AcDbTrace
 10
-112.6794344586
 20
12.6999998465
 30
0.0
 11
-113.1874344586
 21
9.3979998465
 31
0.0
 12
-112.1714344586
 22
9.3979998465
 32
0.0
 13
-112.1714344586
 23
9.3979998465
 33
0.0
  0
SOLID
  5
321
330
31D
100
AcDbEntity
  8
SK2
100
AcDbTrace
 10
-112.6794344586
 20
-12.6999998465
 30
0.0
 11
-112.1714344586
 21
-9.3979998465
 31
0.0
 12
-113.1874344586
 22
-9.3979998465
 32
0.0
 13
-113.1874344586
 23
-9.3979998465
 33
0.0
  0
LINE
  5
322
330
31D
100
AcDbEntity
  8
SK2
100
AcDbLine
 10
-95.967097044
 20
12.6999998465
 30
0.0
 11
-113.6794344586
 21
12.6999998465
 31
0.0
  0
LINE
  5
323
330
31D
100
AcDbEntity
  8
SK2
100
AcDbLine
 10
-95.967097044
 20
-12.6999998465
 30
0.0
 11
-113.6794344586
 21
-12.6999998465
 31
0.0
  0
LINE
  5
324
330
31D
100
AcDbEntity
  8
SK2
100
AcDbLine
 10
-112.6794344586
 20
12.6999998465
 30
0.0
 11
-112.6794344586
 21
-12.6999998465
 31
0.0
  0
MTEXT
  5
326
330
31D
100
AcDbEntity
  8
SK2
100
AcDbMText
 10
-117.1911713732
 20
-9.2753271681
 30
0.0
 40
3.5
 41
0.0
 71
     1
 72
     1
  1
1 - 8 UNC
  7
SLDTEXTSTYLE1
 11
-7.044195017643634E-15
 21
1.0
 31
0.0
 73
     1
 44
1.0
  0
ENDBLK
  5
31F
330
31D
100
AcDbEntity
  8
0
100
AcDbBlockEnd
  0
ENDSEC
  0
SECTION
  2
ENTITIES
  0
LINE
  5
82
330
1F
100
AcDbEntity
  8
SK1
  6
SLD-Solid
370
    25
100
AcDbLine
 10
0.0
 20
34.925
 30
0.0
 11
-99.8030472773
 21
20.3702515116
 31
0.0
  0
LINE
  5
83
330
1F
100
AcDbEntity
  8
SK1
  6
SLD-Solid
370
    25
100
AcDbLine
 10
-99.8030472773
 20
-20.3702515116
 30
0.0
 11
0.0
 21
-34.925
 31
0.0
  0
LINE
  5
84
330
1F
100
AcDbEntity
  8
1
  6
SLD-Solid
370
    25
100
AcDbLine
 10
1.7476022729
 20
34.925
 30
0.0
 11
0.0
 21
34.925
 31
0.0
  0
LINE
  5
85
330
1F
100
AcDbEntity
  8
1
  6
SLD-Solid
370
    25
100
AcDbLine
 10
0.0
 20
-34.925
 30
0.0
 11
1.7476022729
 21
-34.925
 31
0.0
  0
LINE
  5
86
330
1F
100
AcDbEntity
  8
1
  6
SLD-Solid
370
    25
100
AcDbLine
 10
33.576
 20
34.925
 30
0.0
 11
19.812
 21
34.925
 31
0.0
  0
LINE
  5
87
330
1F
100
AcDbEntity
  8
1
  6
SLD-Solid
370
    25
100
AcDbLine
 10
19.812
 20
-34.925
 30
0.0
 11
33.576
 21
-34.925
 31
0.0
  0
LINE
  5
88
330
1F
100
AcDbEntity
  8
1
  6
SLD-Solid
370
    25
100
AcDbLine
 10
1.7476022729
 20
-34.925
 30
0.0
 11
2.1330363037
 21
-34.7452691597
 31
0.0
  0
LINE
  5
89
330
1F
100
AcDbEntity
  8
1
  6
SLD-Solid
370
    25
100
AcDbLine
 10
2.1330363037
 20
34.7452691597
 30
0.0
 11
1.7476022729
 21
34.925
 31
0.0
  0
LINE
  5
8A
330
1F
100
AcDbEntity
  8
1
  6
SLD-Solid
370
    25
100
AcDbLine
 10
36.4382711207
 20
-22.3379776428
 30
0.0
 11
89.075
 21
-15.875
 31
0.0
  0
LINE
  5
8B
330
1F
100
AcDbEntity
  8
1
  6
SLD-Solid
370
    25
100
AcDbLine
 10
89.075
 20
15.875
 30
0.0
 11
36.4382711207
 21
22.3379776428
 31
0.0
  0
LINE
  5
8C
330
1F
100
AcDbEntity
  8
1
  6
SLD-Solid
370
    25
100
AcDbLine
 10
139.8
 20
15.875
 30
0.0
 11
89.075
 21
15.875
 31
0.0
  0
LINE
  5
8D
330
1F
100
AcDbEntity
  8
1
  6
SLD-Solid
370
    25
100
AcDbLine
 10
163.705
 20
15.875
 30
0.0
 11
152.2912116644
 21
15.875
 31
0.0
  0
LINE
  5
8E
330
1F
100
AcDbEntity
  8
1
  6
SLD-Solid
370
    25
100
AcDbLine
 10
152.8446500788
 20
-15.875
 30
0.0
 11
163.705
 21
-15.875
 31
0.0
  0
LINE
  5
8F
330
1F
100
AcDbEntity
  8
1
  6
SLD-Solid
370
    25
100
AcDbLine
 10
89.075
 20
-15.875
 30
0.0
 11
139.2506168714
 21
-15.875
 31
0.0
  0
LINE
  5
90
330
1F
100
AcDbEntity
  8
1
  6
SLD-Solid
370
    25
100
AcDbLine
 10
163.705
 20
-15.875
 30
0.0
 11
168.275
 21
-11.305
 31
0.0
  0
LINE
  5
91
330
1F
100
AcDbEntity
  8
1
  6
SLD-Solid
370
    25
100
AcDbLine
 10
168.275
 20
11.305
 30
0.0
 11
163.705
 21
15.875
 31
0.0
  0
LINE
  5
92
330
1F
100
AcDbEntity
  8
1
  6
SLD-Solid
370
    25
100
AcDbLine
 10
3.95
 20
-47.4754841997
 30
0.0
 11
7.5902766066
 21
-47.4754841997
 31
0.0
  0
LINE
  5
93
330
1F
100
AcDbEntity
  8
1
  6
SLD-Solid
370
    25
100
AcDbLine
 10
3.95
 20
47.2968145978
 30
0.0
 11
3.95
 21
-47.4754841997
 31
0.0
  0
LINE
  5
94
330
1F
100
AcDbEntity
  8
1
  6
SLD-Solid
370
    25
100
AcDbLine
 10
7.5902766066
 20
47.2968145978
 30
0.0
 11
3.95
 21
47.2968145978
 31
0.0
  0
LINE
  5
95
330
1F
100
AcDbEntity
  8
1
  6
SLD-Solid
370
    25
100
AcDbLine
 10
7.5902766066
 20
47.2968145978
 30
0.0
 11
7.5902766066
 21
-47.4754841997
 31
0.0
  0
LINE
  5
96
330
1F
100
AcDbEntity
  8
1
  6
SLD-Solid
370
    25
100
AcDbLine
 10
18.3
 20
-47.4754841997
 30
0.0
 11
18.3
 21
47.2968145978
 31
0.0
  0
LINE
  5
97
330
1F
100
AcDbEntity
  8
1
  6
SLD-Solid
370
    25
100
AcDbLine
 10
19.05
 20
46.5560855313
 30
0.0
 11
19.05
 21
-46.6976348437
 31
0.0
  0
LINE
  5
98
330
1F
100
AcDbEntity
  8
1
  6
SLD-Solid
370
    25
100
AcDbLine
 10
14.6397233934
 20
-47.4754841997
 30
0.0
 11
18.3
 21
-47.4754841997
 31
0.0
  0
LINE
  5
99
330
1F
100
AcDbEntity
  8
1
  6
SLD-Solid
370
    25
100
AcDbLine
 10
14.6397233934
 20
47.2968145978
 30
0.0
 11
14.6397233934
 21
-47.4754841997
 31
0.0
  0
LINE
  5
9A
330
1F
100
AcDbEntity
  8
1
  6
SLD-Solid
370
    25
100
AcDbLine
 10
18.3
 20
47.2968145978
 30
0.0
 11
14.6397233934
 21
47.2968145978
 31
0.0
  0
LINE
  5
9B
330
1F
100
AcDbEntity
  8
1
  6
SLD-Solid
370
    25
100
AcDbLine
 10
3.2
 20
-46.6976348437
 30
0.0
 11
3.2
 21
46.5560855313
 31
0.0
  0
LINE
  5
9C
330
1F
100
AcDbEntity
  8
1
  6
SLD-Solid
370
    25
100
AcDbLine
 10
9.2
 20
44.5790106634
 30
0.0
 11
9.2
 21
41.9587011964
 31
0.0
  0
LINE
  5
9D
330
1F
100
AcDbEntity
  8
1
  6
SLD-Solid
370
    25
100
AcDbLine
 10
9.2
 20
41.4830129515
 30
0.0
 11
9.2
 21
35.3885961177
 31
0.0
  0
LINE
  5
9E
330
1F
100
AcDbEntity
  8
1
  6
SLD-Solid
370
    25
100
AcDbLine
 10
9.2
 20
34.676688935
 30
0.0
 11
9.2
 21
-44.5790106634
 31
0.0
  0
LINE
  5
9F
330
1F
100
AcDbEntity
  8
1
  6
SLD-Solid
370
    25
100
AcDbLine
 10
13.03
 20
44.5790106634
 30
0.0
 11
13.03
 21
41.9871173317
 31
0.0
  0
LINE
  5
A0
330
1F
100
AcDbEntity
  8
1
  6
SLD-Solid
370
    25
100
AcDbLine
 10
13.03
 20
34.6324292339
 30
0.0
 11
13.03
 21
-44.5790106634
 31
0.0
  0
LINE
  5
A1
330
1F
100
AcDbEntity
  8
1
  6
SLD-Solid
370
    25
100
AcDbLine
 10
13.03
 20
41.453113616
 30
0.0
 11
13.03
 21
35.4316103884
 31
0.0
  0
LINE
  5
A2
330
1F
100
AcDbEntity
  8
1
  6
SLD-Solid
370
    25
100
AcDbLine
 10
12.28
 20
33.3554707167
 30
0.0
 11
12.28
 21
-43.7694359685
 31
0.0
  0
LINE
  5
A3
330
1F
100
AcDbEntity
  8
1
  6
SLD-Solid
370
    25
100
AcDbLine
 10
9.95
 20
33.3652595305
 30
0.0
 11
9.95
 21
-43.7694359685
 31
0.0
  0
LINE
  5
A4
330
1F
100
AcDbEntity
  8
1
  6
SLD-Solid
370
    25
100
AcDbLine
 10
9.95
 20
-43.7694359685
 30
0.0
 11
12.28
 21
-43.7694359685
 31
0.0
  0
LINE
  5
A5
330
1F
100
AcDbEntity
  8
1
  6
SLD-Solid
370
    25
100
AcDbLine
 10
0.0
 20
34.925
 30
0.0
 11
0.0
 21
-34.925
 31
0.0
  0
LINE
  5
A6
330
1F
100
AcDbEntity
  8
1
  6
SLD-Solid
370
    25
100
AcDbLine
 10
1.7476022729
 20
34.925
 30
0.0
 11
1.7476022729
 21
-34.925
 31
0.0
  0
LINE
  5
A7
330
1F
100
AcDbEntity
  8
1
  6
SLD-Solid
370
    25
100
AcDbLine
 10
35.1
 20
0.0
 30
0.0
 11
35.1
 21
-33.401
 31
0.0
  0
LINE
  5
A8
330
1F
100
AcDbEntity
  8
1
  6
SLD-Solid
370
    25
100
AcDbLine
 10
35.1
 20
33.401
 30
0.0
 11
35.1
 21
0.0
 31
0.0
  0
LINE
  5
A9
330
1F
100
AcDbEntity
  8
1
  6
SLD-Solid
370
    25
100
AcDbLine
 10
9.2
 20
35.3885961177
 30
0.0
 11
9.2
 21
35.3683101782
 31
0.0
  0
LINE
  5
AA
330
1F
100
AcDbEntity
  8
1
  6
SLD-Solid
370
    25
100
AcDbLine
 10
13.03
 20
35.4113240881
 30
0.0
 11
13.03
 21
35.4316103884
 31
0.0
  0
LINE
  5
AB
330
1F
100
AcDbEntity
  8
1
  6
SLD-Solid
370
    25
100
AcDbLine
 10
9.95
 20
40.2901760725
 30
0.0
 11
9.95
 21
35.4888548114
 31
0.0
  0
LINE
  5
AC
330
1F
100
AcDbEntity
  8
1
  6
SLD-Solid
370
    25
100
AcDbLine
 10
12.28
 20
40.2834337913
 30
0.0
 11
12.28
 21
35.4978726362
 31
0.0
  0
LINE
  5
AD
330
1F
100
AcDbEntity
  8
1
  6
SLD-Solid
370
    25
100
AcDbLine
 10
89.075
 20
15.875
 30
0.0
 11
89.075
 21
-15.875
 31
0.0
  0
LINE
  5
AE
330
1F
100
AcDbEntity
  8
1
  6
SLD-Solid
370
    25
100
AcDbLine
 10
9.2
 20
41.9587011964
 30
0.0
 11
9.2
 21
41.9345423912
 31
0.0
  0
LINE
  5
AF
330
1F
100
AcDbEntity
  8
1
  6
SLD-Solid
370
    25
100
AcDbLine
 10
13.03
 20
41.9629580968
 30
0.0
 11
13.03
 21
41.9871173317
 31
0.0
  0
LINE
  5
B0
330
1F
100
AcDbEntity
  8
SK1
  6
SLD-Solid
370
    25
100
AcDbLine
 10
-101.6
 20
-18.2922326599
 30
0.0
 11
-101.6
 21
18.2922326599
 31
0.0
  0
LINE
  5
B1
330
1F
100
AcDbEntity
  8
1
  6
SLD-Solid
370
    25
100
AcDbLine
 10
9.95
 20
43.7694359685
 30
0.0
 11
9.95
 21
41.7091381742
 31
0.0
  0
LINE
  5
B2
330
1F
100
AcDbEntity
  8
1
  6
SLD-Solid
370
    25
100
AcDbLine
 10
12.28
 20
43.7694359685
 30
0.0
 11
12.28
 21
41.714962274
 31
0.0
  0
LINE
  5
B3
330
1F
100
AcDbEntity
  8
1
  6
SLD-Solid
370
    25
100
AcDbLine
 10
9.95
 20
43.7694359685
 30
0.0
 11
12.28
 21
43.7694359685
 31
0.0
  0
LINE
  5
B4
330
1F
100
AcDbEntity
  8
1
  6
SLD-Solid
370
    25
100
AcDbLine
 10
163.705
 20
15.875
 30
0.0
 11
163.705
 21
-15.875
 31
0.0
  0
LINE
  5
B5
330
1F
100
AcDbEntity
  8
1
  6
SLD-Solid
370
    25
100
AcDbLine
 10
168.275
 20
11.305
 30
0.0
 11
168.275
 21
-11.305
 31
0.0
  0
LINE
  5
B6
330
1F
100
AcDbEntity
  8
1
  6
SLD-Solid
370
    25
100
AcDbLine
 10
19.812
 20
0.0
 30
0.0
 11
19.812
 21
-34.925
 31
0.0
  0
LINE
  5
B7
330
1F
100
AcDbEntity
  8
1
  6
SLD-Solid
370
    25
100
AcDbLine
 10
19.812
 20
34.925
 30
0.0
 11
19.812
 21
0.0
 31
0.0
  0
LINE
  5
B8
330
1F
100
AcDbEntity
  8
1
  6
SLD-Solid
370
    25
100
AcDbLine
 10
2.1330363037
 20
34.7452691597
 30
0.0
 11
2.1330363037
 21
-34.7452691597
 31
0.0
  0
LINE
  5
B9
330
1F
100
AcDbEntity
  8
SK1
  6
SLD-Solid
370
    25
100
AcDbLine
 10
-99.8030472773
 20
0.0
 30
0.0
 11
-99.8030472773
 21
-20.3702515116
 31
0.0
  0
LINE
  5
BA
330
1F
100
AcDbEntity
  8
SK1
  6
SLD-Solid
370
    25
100
AcDbLine
 10
-99.8030472773
 20
20.3702515116
 30
0.0
 11
-99.8030472773
 21
0.0
 31
0.0
  0
LINE
  5
BB
330
1F
100
AcDbEntity
  8
1
  6
SLD-Solid
370
    25
100
AcDbLine
 10
33.576
 20
0.0
 30
0.0
 11
33.576
 21
34.925
 31
0.0
  0
LINE
  5
BC
330
1F
100
AcDbEntity
  8
1
  6
SLD-Solid
370
    25
100
AcDbLine
 10
33.576
 20
-34.925
 30
0.0
 11
33.576
 21
0.0
 31
0.0
  0
LINE
  5
BD
330
1F
100
AcDbEntity
  8
1
  6
SLD-Solid
370
    25
100
AcDbLine
 10
36.4382711207
 20
0.0
 30
0.0
 11
36.4382711207
 21
-22.3379776428
 31
0.0
  0
LINE
  5
BE
330
1F
100
AcDbEntity
  8
1
  6
SLD-Solid
370
    25
100
AcDbLine
 10
36.4382711207
 20
22.3379776428
 30
0.0
 11
36.4382711207
 21
0.0
 31
0.0
  0
LINE
  5
BF
330
1F
100
AcDbEntity
  8
SK3
  6
SLD-Dashed
370
    18
100
AcDbLine
 10
6.4723069743
 20
-13.9015950424
 30
0.0
 11
6.2856470952
 21
-13.1855138242
 31
0.0
  0
LINE
  5
C0
330
1F
100
AcDbEntity
  8
SK3
  6
SLD-Dashed
370
    18
100
AcDbLine
 10
6.2856470952
 20
-13.1855138242
 30
0.0
 11
5.989454318
 21
-12.5274452476
 31
0.0
  0
LINE
  5
C1
330
1F
100
AcDbEntity
  8
SK3
  6
SLD-Dashed
370
    18
100
AcDbLine
 10
5.989454318
 20
-12.5274452476
 30
0.0
 11
5.60772442
 21
-11.980702115
 31
0.0
  0
LINE
  5
C2
330
1F
100
AcDbEntity
  8
SK3
  6
SLD-Dashed
370
    18
100
AcDbLine
 10
5.60772442
 20
-11.980702115
 30
0.0
 11
5.1713828873
 21
-11.5895783033
 31
0.0
  0
LINE
  5
C3
330
1F
100
AcDbEntity
  8
SK3
  6
SLD-Dashed
370
    18
100
AcDbLine
 10
5.1713828873
 20
-11.5895783033
 30
0.0
 11
4.7157795159
 21
-11.3857603378
 31
0.0
  0
LINE
  5
C4
330
1F
100
AcDbEntity
  8
SK3
  6
SLD-Dashed
370
    18
100
AcDbLine
 10
4.7157795159
 20
-11.3857603378
 30
0.0
 11
4.2778245812
 21
-11.3857603378
 31
0.0
  0
LINE
  5
C5
330
1F
100
AcDbEntity
  8
SK3
  6
SLD-Dashed
370
    18
100
AcDbLine
 10
4.2778245812
 20
-11.3857603378
 30
0.0
 11
3.8929985876
 21
-11.5895783033
 31
0.0
  0
LINE
  5
C6
330
1F
100
AcDbEntity
  8
SK3
  6
SLD-Dashed
370
    18
100
AcDbLine
 10
3.8929985876
 20
-11.5895783033
 30
0.0
 11
3.5924778483
 21
-11.980702115
 31
0.0
  0
LINE
  5
C7
330
1F
100
AcDbEntity
  8
SK3
  6
SLD-Dashed
370
    18
100
AcDbLine
 10
3.5924778483
 20
-11.980702115
 30
0.0
 11
3.4006087665
 21
-12.5274452476
 31
0.0
  0
LINE
  5
C8
330
1F
100
AcDbEntity
  8
SK3
  6
SLD-Dashed
370
    18
100
AcDbLine
 10
3.4006087665
 20
-12.5274452476
 30
0.0
 11
3.3329354339
 21
-13.1855138242
 31
0.0
  0
LINE
  5
C9
330
1F
100
AcDbEntity
  8
SK3
  6
SLD-Dashed
370
    18
100
AcDbLine
 10
3.3329354339
 20
-13.1855138242
 30
0.0
 11
3.3949403416
 21
-13.9015950424
 31
0.0
  0
LINE
  5
CA
330
1F
100
AcDbEntity
  8
SK3
  6
SLD-Dashed
370
    18
100
AcDbLine
 10
3.3949403416
 20
-13.9015950424
 30
0.0
 11
3.5816002207
 21
-14.6176762606
 31
0.0
  0
LINE
  5
CB
330
1F
100
AcDbEntity
  8
SK3
  6
SLD-Dashed
370
    18
100
AcDbLine
 10
3.5816002207
 20
-14.6176762606
 30
0.0
 11
3.8777929979
 21
-15.2757448372
 31
0.0
  0
LINE
  5
CC
330
1F
100
AcDbEntity
  8
SK3
  6
SLD-Dashed
370
    18
100
AcDbLine
 10
3.8777929979
 20
-15.2757448372
 30
0.0
 11
4.2595228959
 21
-15.8224879698
 31
0.0
  0
LINE
  5
CD
330
1F
100
AcDbEntity
  8
SK3
  6
SLD-Dashed
370
    18
100
AcDbLine
 10
4.2595228959
 20
-15.8224879698
 30
0.0
 11
4.6958644286
 21
-16.2136117815
 31
0.0
  0
LINE
  5
CE
330
1F
100
AcDbEntity
  8
SK3
  6
SLD-Dashed
370
    18
100
AcDbLine
 10
4.6958644286
 20
-16.2136117815
 30
0.0
 11
5.1514678
 21
-16.417429747
 31
0.0
  0
LINE
  5
CF
330
1F
100
AcDbEntity
  8
SK3
  6
SLD-Dashed
370
    18
100
AcDbLine
 10
5.1514678
 20
-16.417429747
 30
0.0
 11
5.5894227346
 21
-16.417429747
 31
0.0
  0
LINE
  5
D0
330
1F
100
AcDbEntity
  8
SK3
  6
SLD-Dashed
370
    18
100
AcDbLine
 10
5.5894227346
 20
-16.417429747
 30
0.0
 11
5.9742487283
 21
-16.2136117815
 31
0.0
  0
LINE
  5
D1
330
1F
100
AcDbEntity
  8
SK3
  6
SLD-Dashed
370
    18
100
AcDbLine
 10
5.9742487283
 20
-16.2136117815
 30
0.0
 11
6.2747694675
 21
-15.8224879698
 31
0.0
  0
LINE
  5
D2
330
1F
100
AcDbEntity
  8
SK3
  6
SLD-Dashed
370
    18
100
AcDbLine
 10
6.2747694675
 20
-15.8224879698
 30
0.0
 11
6.4666385494
 21
-15.2757448372
 31
0.0
  0
LINE
  5
D3
330
1F
100
AcDbEntity
  8
SK3
  6
SLD-Dashed
370
    18
100
AcDbLine
 10
6.4666385494
 20
-15.2757448372
 30
0.0
 11
6.5343118819
 21
-14.6176762606
 31
0.0
  0
LINE
  5
D4
330
1F
100
AcDbEntity
  8
SK3
  6
SLD-Dashed
370
    18
100
AcDbLine
 10
6.5343118819
 20
-14.6176762606
 30
0.0
 11
6.4723069743
 21
-13.9015950424
 31
0.0
  0
LINE
  5
D5
330
1F
100
AcDbEntity
  8
SK3
  6
SLD-Dashed
370
    18
100
AcDbLine
 10
6.4545594773
 20
-13.8826166832
 30
0.0
 11
6.5127187725
 21
-14.5885755877
 31
0.0
  0
LINE
  5
D6
330
1F
100
AcDbEntity
  8
SK3
  6
SLD-Dashed
370
    18
100
AcDbLine
 10
6.5127187725
 20
-14.5885755877
 30
0.0
 11
6.4368792151
 21
-15.2318069455
 31
0.0
  0
LINE
  5
D7
330
1F
100
AcDbEntity
  8
SK3
  6
SLD-Dashed
370
    18
100
AcDbLine
 10
6.4368792151
 20
-15.2318069455
 30
0.0
 11
6.2337794826
 21
-15.7551568276
 31
0.0
  0
LINE
  5
D8
330
1F
100
AcDbEntity
  8
SK3
  6
SLD-Dashed
370
    18
100
AcDbLine
 10
6.2337794826
 20
-15.7551568276
 30
0.0
 11
5.9214658775
 21
-16.1121233004
 31
0.0
  0
LINE
  5
D9
330
1F
100
AcDbEntity
  8
SK3
  6
SLD-Dashed
370
    18
100
AcDbLine
 10
5.9214658775
 20
-16.1121233004
 30
0.0
 11
5.5276888342
 21
-16.2709883263
 31
0.0
  0
LINE
  5
DA
330
1F
100
AcDbEntity
  8
SK3
  6
SLD-Dashed
370
    18
100
AcDbLine
 10
5.5276888342
 20
-16.2709883263
 30
0.0
 11
5.0874371711
 21
-16.2176360504
 31
0.0
  0
LINE
  5
DB
330
1F
100
AcDbEntity
  8
SK3
  6
SLD-Dashed
370
    18
100
AcDbLine
 10
5.0874371711
 20
-16.2176360504
 30
0.0
 11
4.6398291803
 21
-15.9568070568
 31
0.0
  0
LINE
  5
DC
330
1F
100
AcDbEntity
  8
SK3
  6
SLD-Dashed
370
    18
100
AcDbLine
 10
4.6398291803
 20
-15.9568070568
 30
0.0
 11
4.2246367963
 21
-15.5116771459
 31
0.0
  0
LINE
  5
DD
330
1F
100
AcDbEntity
  8
SK3
  6
SLD-Dashed
370
    18
100
AcDbLine
 10
4.2246367963
 20
-15.5116771459
 30
0.0
 11
3.8787516844
 21
-14.921798064
 31
0.0
  0
LINE
  5
DE
330
1F
100
AcDbEntity
  8
SK3
  6
SLD-Dashed
370
    18
100
AcDbLine
 10
3.8787516844
 20
-14.921798064
 30
0.0
 11
3.6329072546
 21
-14.239583156
 31
0.0
  0
LINE
  5
DF
330
1F
100
AcDbEntity
  8
SK3
  6
SLD-Dashed
370
    18
100
AcDbLine
 10
3.6329072546
 20
-14.239583156
 30
0.0
 11
3.5089478634
 21
-13.5256502103
 31
0.0
  0
LINE
  5
E0
330
1F
100
AcDbEntity
  8
SK3
  6
SLD-Dashed
370
    18
100
AcDbLine
 10
3.5089478634
 20
-13.5256502103
 30
0.0
 11
3.5178878467
 21
-12.8434353023
 31
0.0
  0
LINE
  5
E1
330
1F
100
AcDbEntity
  8
SK3
  6
SLD-Dashed
370
    18
100
AcDbLine
 10
3.5178878467
 20
-12.8434353023
 30
0.0
 11
3.6589328478
 21
-12.2535562204
 31
0.0
  0
LINE
  5
E2
330
1F
100
AcDbEntity
  8
SK3
  6
SLD-Dashed
370
    18
100
AcDbLine
 10
3.6589328478
 20
-12.2535562204
 30
0.0
 11
3.9195503993
 21
-11.8084263096
 31
0.0
  0
LINE
  5
E3
330
1F
100
AcDbEntity
  8
SK3
  6
SLD-Dashed
370
    18
100
AcDbLine
 10
3.9195503993
 20
-11.8084263096
 30
0.0
 11
4.2765834881
 21
-11.5475973159
 31
0.0
  0
LINE
  5
E4
330
1F
100
AcDbEntity
  8
SK3
  6
SLD-Dashed
370
    18
100
AcDbLine
 10
4.2765834881
 20
-11.5475973159
 30
0.0
 11
4.6983081575
 21
-11.49424504
 31
0.0
  0
LINE
  5
E5
330
1F
100
AcDbEntity
  8
SK3
  6
SLD-Dashed
370
    18
100
AcDbLine
 10
4.6983081575
 20
-11.49424504
 30
0.0
 11
5.1472523198
 21
-11.6531100659
 31
0.0
  0
LINE
  5
E6
330
1F
100
AcDbEntity
  8
SK3
  6
SLD-Dashed
370
    18
100
AcDbLine
 10
5.1472523198
 20
-11.6531100659
 30
0.0
 11
5.583525316
 21
-12.0100765387
 31
0.0
  0
LINE
  5
E7
330
1F
100
AcDbEntity
  8
SK3
  6
SLD-Dashed
370
    18
100
AcDbLine
 10
5.583525316
 20
-12.0100765387
 30
0.0
 11
5.968362376
 21
-12.5334264209
 31
0.0
  0
LINE
  5
E8
330
1F
100
AcDbEntity
  8
SK3
  6
SLD-Dashed
370
    18
100
AcDbLine
 10
5.968362376
 20
-12.5334264209
 30
0.0
 11
6.2675690381
 21
-13.1766577787
 31
0.0
  0
LINE
  5
E9
330
1F
100
AcDbEntity
  8
SK3
  6
SLD-Dashed
370
    18
100
AcDbLine
 10
6.2675690381
 20
-13.1766577787
 30
0.0
 11
6.4545594773
 21
-13.8826166832
 31
0.0
  0
LINE
  5
EA
330
1F
100
AcDbEntity
  8
SK3
  6
SLD-Dashed
370
    18
100
AcDbLine
 10
17.1792841073
 20
-11.0168048658
 30
0.0
 11
16.9922936681
 21
-10.3108459613
 31
0.0
  0
LINE
  5
EB
330
1F
100
AcDbEntity
  8
SK3
  6
SLD-Dashed
370
    18
100
AcDbLine
 10
16.9922936681
 20
-10.3108459613
 30
0.0
 11
16.6930870061
 21
-9.6676146035
 31
0.0
  0
LINE
  5
EC
330
1F
100
AcDbEntity
  8
SK3
  6
SLD-Dashed
370
    18
100
AcDbLine
 10
16.6930870061
 20
-9.6676146035
 30
0.0
 11
16.3082499461
 21
-9.1442647213
 31
0.0
  0
LINE
  5
ED
330
1F
100
AcDbEntity
  8
SK3
  6
SLD-Dashed
370
    18
100
AcDbLine
 10
16.3082499461
 20
-9.1442647213
 30
0.0
 11
15.8719769498
 21
-8.7872982485
 31
0.0
  0
LINE
  5
EE
330
1F
100
AcDbEntity
  8
SK3
  6
SLD-Dashed
370
    18
100
AcDbLine
 10
15.8719769498
 20
-8.7872982485
 30
0.0
 11
15.4230327875
 21
-8.6284332227
 31
0.0
  0
LINE
  5
EF
330
1F
100
AcDbEntity
  8
SK3
  6
SLD-Dashed
370
    18
100
AcDbLine
 10
15.4230327875
 20
-8.6284332227
 30
0.0
 11
15.0013081181
 21
-8.6817854985
 31
0.0
  0
LINE
  5
F0
330
1F
100
AcDbEntity
  8
SK3
  6
SLD-Dashed
370
    18
100
AcDbLine
 10
15.0013081181
 20
-8.6817854985
 30
0.0
 11
14.6442750293
 21
-8.9426144922
 31
0.0
  0
LINE
  5
F1
330
1F
100
AcDbEntity
  8
SK3
  6
SLD-Dashed
370
    18
100
AcDbLine
 10
14.6442750293
 20
-8.9426144922
 30
0.0
 11
14.3836574778
 21
-9.387744403
 31
0.0
  0
LINE
  5
F2
330
1F
100
AcDbEntity
  8
SK3
  6
SLD-Dashed
370
    18
100
AcDbLine
 10
14.3836574778
 20
-9.387744403
 30
0.0
 11
14.2426124767
 21
-9.977623485
 31
0.0
  0
LINE
  5
F3
330
1F
100
AcDbEntity
  8
SK3
  6
SLD-Dashed
370
    18
100
AcDbLine
 10
14.2426124767
 20
-9.977623485
 30
0.0
 11
14.2336724934
 21
-10.659838393
 31
0.0
  0
LINE
  5
F4
330
1F
100
AcDbEntity
  8
SK3
  6
SLD-Dashed
370
    18
100
AcDbLine
 10
14.2336724934
 20
-10.659838393
 30
0.0
 11
14.3576318846
 21
-11.3737713386
 31
0.0
  0
LINE
  5
F5
330
1F
100
AcDbEntity
  8
SK3
  6
SLD-Dashed
370
    18
100
AcDbLine
 10
14.3576318846
 20
-11.3737713386
 30
0.0
 11
14.6034763144
 21
-12.0559862466
 31
0.0
  0
LINE
  5
F6
330
1F
100
AcDbEntity
  8
SK3
  6
SLD-Dashed
370
    18
100
AcDbLine
 10
14.6034763144
 20
-12.0559862466
 30
0.0
 11
14.9493614264
 21
-12.6458653286
 31
0.0
  0
LINE
  5
F7
330
1F
100
AcDbEntity
  8
SK3
  6
SLD-Dashed
370
    18
100
AcDbLine
 10
14.9493614264
 20
-12.6458653286
 30
0.0
 11
15.3645538104
 21
-13.0909952394
 31
0.0
  0
LINE
  5
F8
330
1F
100
AcDbEntity
  8
SK3
  6
SLD-Dashed
370
    18
100
AcDbLine
 10
15.3645538104
 20
-13.0909952394
 30
0.0
 11
15.8121618011
 21
-13.3518242331
 31
0.0
  0
LINE
  5
F9
330
1F
100
AcDbEntity
  8
SK3
  6
SLD-Dashed
370
    18
100
AcDbLine
 10
15.8121618011
 20
-13.3518242331
 30
0.0
 11
16.2524134643
 21
-13.4051765089
 31
0.0
  0
LINE
  5
FA
330
1F
100
AcDbEntity
  8
SK3
  6
SLD-Dashed
370
    18
100
AcDbLine
 10
16.2524134643
 20
-13.4051765089
 30
0.0
 11
16.6461905076
 21
-13.2463114831
 31
0.0
  0
LINE
  5
FB
330
1F
100
AcDbEntity
  8
SK3
  6
SLD-Dashed
370
    18
100
AcDbLine
 10
16.6461905076
 20
-13.2463114831
 30
0.0
 11
16.9585041126
 21
-12.8893450102
 31
0.0
  0
LINE
  5
FC
330
1F
100
AcDbEntity
  8
SK3
  6
SLD-Dashed
370
    18
100
AcDbLine
 10
16.9585041126
 20
-12.8893450102
 30
0.0
 11
17.1616038452
 21
-12.3659951281
 31
0.0
  0
LINE
  5
FD
330
1F
100
AcDbEntity
  8
SK3
  6
SLD-Dashed
370
    18
100
AcDbLine
 10
17.1616038452
 20
-12.3659951281
 30
0.0
 11
17.2374434025
 21
-11.7227637703
 31
0.0
  0
LINE
  5
FE
330
1F
100
AcDbEntity
  8
SK3
  6
SLD-Dashed
370
    18
100
AcDbLine
 10
17.2374434025
 20
-11.7227637703
 30
0.0
 11
17.1792841073
 21
-11.0168048658
 31
0.0
  0
LINE
  5
FF
330
1F
100
AcDbEntity
  8
SK3
  6
SLD-Dashed
370
    18
100
AcDbLine
 10
-99.7034043657
 20
-13.19
 30
0.0
 11
-99.7034043657
 21
13.19
 31
0.0
  0
LINE
  5
100
330
1F
100
AcDbEntity
  8
SK3
  6
SLD-Dashed
370
    18
100
AcDbLine
 10
-101.6
 20
-14.285
 30
0.0
 11
-101.6
 21
14.285
 31
0.0
  0
LINE
  5
101
330
1F
100
AcDbEntity
  8
SK3
  6
SLD-Dashed
370
    18
100
AcDbLine
 10
-95.25
 20
-13.19
 30
0.0
 11
-95.25
 21
13.19
 31
0.0
  0
LINE
  5
102
330
1F
100
AcDbEntity
  8
SK3
  6
SLD-Dashed
370
    18
100
AcDbLine
 10
-94.0505548158
 20
-11.1125
 30
0.0
 11
-94.0505548158
 21
11.1125
 31
0.0
  0
LINE
  5
103
330
1F
100
AcDbEntity
  8
SK3
  6
SLD-Dashed
370
    18
100
AcDbLine
 10
3.7
 20
37.875
 30
0.0
 11
3.7
 21
46.5560855313
 31
0.0
  0
LINE
  5
104
330
1F
100
AcDbEntity
  8
SK3
  6
SLD-Dashed
370
    18
100
AcDbLine
 10
18.55
 20
46.5560855313
 30
0.0
 11
18.55
 21
37.875
 31
0.0
  0
LINE
  5
105
330
1F
100
AcDbEntity
  8
SK3
  6
SLD-Dashed
370
    18
100
AcDbLine
 10
3.95
 20
46.8162535878
 30
0.0
 11
7.9572893801
 21
46.8162535878
 31
0.0
  0
LINE
  5
106
330
1F
100
AcDbEntity
  8
SK3
  6
SLD-Dashed
370
    18
100
AcDbLine
 10
14.2727106199
 20
46.8162535878
 30
0.0
 11
18.3
 21
46.8162535878
 31
0.0
  0
LINE
  5
107
330
1F
100
AcDbEntity
  8
1
  6
SLD-Dashed
370
    18
100
AcDbLine
 10
13.03
 20
44.5510215932
 30
0.0
 11
13.03
 21
44.5790106634
 31
0.0
  0
LINE
  5
108
330
1F
100
AcDbEntity
  8
1
  6
SLD-Dashed
370
    18
100
AcDbLine
 10
9.2
 20
44.5790106634
 30
0.0
 11
9.2
 21
44.5510215932
 31
0.0
  0
LINE
  5
109
330
1F
100
AcDbEntity
  8
1
  6
SLD-Dashed
370
    18
100
AcDbLine
 10
9.2
 20
-44.5790106634
 30
0.0
 11
9.2
 21
-44.5510215932
 31
0.0
  0
LINE
  5
10A
330
1F
100
AcDbEntity
  8
1
  6
SLD-Dashed
370
    18
100
AcDbLine
 10
13.03
 20
-44.5510215932
 30
0.0
 11
13.03
 21
-44.5790106634
 31
0.0
  0
LINE
  5
10B
330
1F
100
AcDbEntity
  8
SK3
  6
SLD-Dashed
370
    18
100
AcDbLine
 10
3.2
 20
-35.475
 30
0.0
 11
3.2
 21
-46.6976348437
 31
0.0
  0
LINE
  5
10C
330
1F
100
AcDbEntity
  8
SK3
  6
SLD-Dashed
370
    18
100
AcDbLine
 10
19.05
 20
-46.6976348437
 30
0.0
 11
19.05
 21
-35.475
 31
0.0
  0
LINE
  5
10D
330
1F
100
AcDbEntity
  8
SK3
  6
SLD-Dashed
370
    18
100
AcDbLine
 10
19.05
 20
-35.1
 30
0.0
 11
3.2
 21
-35.1
 31
0.0
  0
LINE
  5
10E
330
1F
100
AcDbEntity
  8
SK3
  6
SLD-Dashed
370
    18
100
AcDbLine
 10
3.2
 20
-35.475
 30
0.0
 11
19.05
 21
-35.475
 31
0.0
  0
LINE
  5
10F
330
1F
100
AcDbEntity
  8
SK3
  6
SLD-Dashed
370
    18
100
AcDbLine
 10
3.7
 20
37.5
 30
0.0
 11
18.55
 21
37.5
 31
0.0
  0
LINE
  5
110
330
1F
100
AcDbEntity
  8
SK3
  6
SLD-Dashed
370
    18
100
AcDbLine
 10
18.55
 20
37.875
 30
0.0
 11
3.7
 21
37.875
 31
0.0
  0
LINE
  5
111
330
1F
100
AcDbEntity
  8
SK3
  6
SLD-Dashed
370
    18
100
AcDbLine
 10
18.4
 20
-11.1125
 30
0.0
 11
18.4
 21
11.1125
 31
0.0
  0
LINE
  5
112
330
1F
100
AcDbEntity
  8
SK3
  6
SLD-Dashed
370
    18
100
AcDbLine
 10
20.2701786767
 20
8.0
 30
0.0
 11
20.2701786767
 21
-8.0
 31
0.0
  0
LINE
  5
113
330
1F
100
AcDbEntity
  8
SK3
  6
SLD-Dashed
370
    18
100
AcDbLine
 10
122.834
 20
-8.0
 30
0.0
 11
122.834
 21
8.0
 31
0.0
  0
LINE
  5
114
330
1F
100
AcDbEntity
  8
SK3
  6
SLD-Dashed
370
    18
100
AcDbLine
 10
123.8254200214
 20
-6.35
 30
0.0
 11
123.8254200214
 21
6.35
 31
0.0
  0
LINE
  5
115
330
1F
100
AcDbEntity
  8
SK3
  6
SLD-Dashed
370
    18
100
AcDbLine
 10
166.775
 20
-6.35
 30
0.0
 11
166.775
 21
6.35
 31
0.0
  0
LINE
  5
116
330
1F
100
AcDbEntity
  8
SK3
  6
SLD-Dashed
370
    18
100
AcDbLine
 10
168.275
 20
-7.209523521
 30
0.0
 11
168.275
 21
7.209523521
 31
0.0
  0
LINE
  5
117
330
1F
100
AcDbEntity
  8
SK3
  6
SLD-Dashed
370
    18
100
AcDbLine
 10
152.3
 20
14.375
 30
0.0
 11
139.8
 21
14.375
 31
0.0
  0
LINE
  5
118
330
1F
100
AcDbEntity
  8
SK3
  6
SLD-Dashed
370
    18
100
AcDbLine
 10
16.1
 20
33.1
 30
0.0
 11
6.1
 21
33.1
 31
0.0
  0
LINE
  5
119
330
1F
100
AcDbEntity
  8
SK3
  6
SLD-Dashed
370
    18
100
AcDbLine
 10
6.1
 20
37.5
 30
0.0
 11
16.1
 21
37.5
 31
0.0
  0
LINE
  5
11A
330
1F
100
AcDbEntity
  8
SK3
  6
SLD-Dashed
370
    18
100
AcDbLine
 10
6.4000005661
 20
32.8
 30
0.0
 11
15.8
 21
32.8
 31
0.0
  0
LINE
  5
11B
330
1F
100
AcDbEntity
  8
SK3
  6
SLD-Dashed
370
    18
100
AcDbLine
 10
150.9141
 20
14.375
 30
0.0
 11
141.1859
 21
14.375
 31
0.0
  0
LINE
  5
11C
330
1F
100
AcDbEntity
  8
1
  6
SLD-Dashed
370
    18
100
AcDbLine
 10
12.28
 20
43.7694359685
 30
0.0
 11
9.95
 21
43.7694359685
 31
0.0
  0
LINE
  5
11D
330
1F
100
AcDbEntity
  8
1
  6
SLD-Dashed
370
    18
100
AcDbLine
 10
12.28
 20
-43.7694359685
 30
0.0
 11
9.95
 21
-43.7694359685
 31
0.0
  0
LINE
  5
11E
330
1F
100
AcDbEntity
  8
1
  6
SLD-Dashed
370
    18
100
AcDbLine
 10
7.5902766066
 20
-47.4754841997
 30
0.0
 11
3.95
 21
-47.4754841997
 31
0.0
  0
LINE
  5
11F
330
1F
100
AcDbEntity
  8
1
  6
SLD-Dashed
370
    18
100
AcDbLine
 10
18.3
 20
-47.4754841997
 30
0.0
 11
14.6397233934
 21
-47.4754841997
 31
0.0
  0
LINE
  5
120
330
1F
100
AcDbEntity
  8
SK3
  6
SLD-Dashed
370
    18
100
AcDbLine
 10
3.5547332273
 20
13.8826166832
 30
0.0
 11
3.4965739321
 21
13.1766577787
 31
0.0
  0
LINE
  5
121
330
1F
100
AcDbEntity
  8
SK3
  6
SLD-Dashed
370
    18
100
AcDbLine
 10
3.4965739321
 20
13.1766577787
 30
0.0
 11
3.5724134895
 21
12.5334264209
 31
0.0
  0
LINE
  5
122
330
1F
100
AcDbEntity
  8
SK3
  6
SLD-Dashed
370
    18
100
AcDbLine
 10
3.5724134895
 20
12.5334264209
 30
0.0
 11
3.775513222
 21
12.0100765387
 31
0.0
  0
LINE
  5
123
330
1F
100
AcDbEntity
  8
SK3
  6
SLD-Dashed
370
    18
100
AcDbLine
 10
3.775513222
 20
12.0100765387
 30
0.0
 11
4.0878268271
 21
11.6531100659
 31
0.0
  0
LINE
  5
124
330
1F
100
AcDbEntity
  8
SK3
  6
SLD-Dashed
370
    18
100
AcDbLine
 10
4.0878268271
 20
11.6531100659
 30
0.0
 11
4.4816038704
 21
11.49424504
 31
0.0
  0
LINE
  5
125
330
1F
100
AcDbEntity
  8
SK3
  6
SLD-Dashed
370
    18
100
AcDbLine
 10
4.4816038704
 20
11.49424504
 30
0.0
 11
4.9218555336
 21
11.5475973159
 31
0.0
  0
LINE
  5
126
330
1F
100
AcDbEntity
  8
SK3
  6
SLD-Dashed
370
    18
100
AcDbLine
 10
4.9218555336
 20
11.5475973159
 30
0.0
 11
5.3694635243
 21
11.8084263096
 31
0.0
  0
LINE
  5
127
330
1F
100
AcDbEntity
  8
SK3
  6
SLD-Dashed
370
    18
100
AcDbLine
 10
5.3694635243
 20
11.8084263096
 30
0.0
 11
5.7846559083
 21
12.2535562204
 31
0.0
  0
LINE
  5
128
330
1F
100
AcDbEntity
  8
SK3
  6
SLD-Dashed
370
    18
100
AcDbLine
 10
5.7846559083
 20
12.2535562204
 30
0.0
 11
6.1305410203
 21
12.8434353023
 31
0.0
  0
LINE
  5
129
330
1F
100
AcDbEntity
  8
SK3
  6
SLD-Dashed
370
    18
100
AcDbLine
 10
6.1305410203
 20
12.8434353023
 30
0.0
 11
6.3763854501
 21
13.5256502103
 31
0.0
  0
LINE
  5
12A
330
1F
100
AcDbEntity
  8
SK3
  6
SLD-Dashed
370
    18
100
AcDbLine
 10
6.3763854501
 20
13.5256502103
 30
0.0
 11
6.5003448413
 21
14.239583156
 31
0.0
  0
LINE
  5
12B
330
1F
100
AcDbEntity
  8
SK3
  6
SLD-Dashed
370
    18
100
AcDbLine
 10
6.5003448413
 20
14.239583156
 30
0.0
 11
6.4914048579
 21
14.921798064
 31
0.0
  0
LINE
  5
12C
330
1F
100
AcDbEntity
  8
SK3
  6
SLD-Dashed
370
    18
100
AcDbLine
 10
6.4914048579
 20
14.921798064
 30
0.0
 11
6.3503598569
 21
15.5116771459
 31
0.0
  0
LINE
  5
12D
330
1F
100
AcDbEntity
  8
SK3
  6
SLD-Dashed
370
    18
100
AcDbLine
 10
6.3503598569
 20
15.5116771459
 30
0.0
 11
6.0897423053
 21
15.9568070568
 31
0.0
  0
LINE
  5
12E
330
1F
100
AcDbEntity
  8
SK3
  6
SLD-Dashed
370
    18
100
AcDbLine
 10
6.0897423053
 20
15.9568070568
 30
0.0
 11
5.7327092165
 21
16.2176360504
 31
0.0
  0
LINE
  5
12F
330
1F
100
AcDbEntity
  8
SK3
  6
SLD-Dashed
370
    18
100
AcDbLine
 10
5.7327092165
 20
16.2176360504
 30
0.0
 11
5.3109845472
 21
16.2709883263
 31
0.0
  0
LINE
  5
130
330
1F
100
AcDbEntity
  8
SK3
  6
SLD-Dashed
370
    18
100
AcDbLine
 10
5.3109845472
 20
16.2709883263
 30
0.0
 11
4.8620403849
 21
16.1121233004
 31
0.0
  0
LINE
  5
131
330
1F
100
AcDbEntity
  8
SK3
  6
SLD-Dashed
370
    18
100
AcDbLine
 10
4.8620403849
 20
16.1121233004
 30
0.0
 11
4.4257673886
 21
15.7551568276
 31
0.0
  0
LINE
  5
132
330
1F
100
AcDbEntity
  8
SK3
  6
SLD-Dashed
370
    18
100
AcDbLine
 10
4.4257673886
 20
15.7551568276
 30
0.0
 11
4.0409303286
 21
15.2318069455
 31
0.0
  0
LINE
  5
133
330
1F
100
AcDbEntity
  8
SK3
  6
SLD-Dashed
370
    18
100
AcDbLine
 10
4.0409303286
 20
15.2318069455
 30
0.0
 11
3.7417236665
 21
14.5885755877
 31
0.0
  0
LINE
  5
134
330
1F
100
AcDbEntity
  8
SK3
  6
SLD-Dashed
370
    18
100
AcDbLine
 10
3.7417236665
 20
14.5885755877
 30
0.0
 11
3.5547332273
 21
13.8826166832
 31
0.0
  0
LINE
  5
135
330
1F
100
AcDbEntity
  8
SK3
  6
SLD-Dashed
370
    18
100
AcDbLine
 10
14.2794578574
 20
11.0168048658
 30
0.0
 11
14.4664482966
 21
11.7227637703
 31
0.0
  0
LINE
  5
136
330
1F
100
AcDbEntity
  8
SK3
  6
SLD-Dashed
370
    18
100
AcDbLine
 10
14.4664482966
 20
11.7227637703
 30
0.0
 11
14.7656549586
 21
12.3659951281
 31
0.0
  0
LINE
  5
137
330
1F
100
AcDbEntity
  8
SK3
  6
SLD-Dashed
370
    18
100
AcDbLine
 10
14.7656549586
 20
12.3659951281
 30
0.0
 11
15.1504920186
 21
12.8893450102
 31
0.0
  0
LINE
  5
138
330
1F
100
AcDbEntity
  8
SK3
  6
SLD-Dashed
370
    18
100
AcDbLine
 10
15.1504920186
 20
12.8893450102
 30
0.0
 11
15.5867650149
 21
13.2463114831
 31
0.0
  0
LINE
  5
139
330
1F
100
AcDbEntity
  8
SK3
  6
SLD-Dashed
370
    18
100
AcDbLine
 10
15.5867650149
 20
13.2463114831
 30
0.0
 11
16.0357091772
 21
13.4051765089
 31
0.0
  0
LINE
  5
13A
330
1F
100
AcDbEntity
  8
SK3
  6
SLD-Dashed
370
    18
100
AcDbLine
 10
16.0357091772
 20
13.4051765089
 30
0.0
 11
16.4574338466
 21
13.3518242331
 31
0.0
  0
LINE
  5
13B
330
1F
100
AcDbEntity
  8
SK3
  6
SLD-Dashed
370
    18
100
AcDbLine
 10
16.4574338466
 20
13.3518242331
 30
0.0
 11
16.8144669354
 21
13.0909952394
 31
0.0
  0
LINE
  5
13C
330
1F
100
AcDbEntity
  8
SK3
  6
SLD-Dashed
370
    18
100
AcDbLine
 10
16.8144669354
 20
13.0909952394
 30
0.0
 11
17.0750844869
 21
12.6458653286
 31
0.0
  0
LINE
  5
13D
330
1F
100
AcDbEntity
  8
SK3
  6
SLD-Dashed
370
    18
100
AcDbLine
 10
17.0750844869
 20
12.6458653286
 30
0.0
 11
17.216129488
 21
12.0559862466
 31
0.0
  0
LINE
  5
13E
330
1F
100
AcDbEntity
  8
SK3
  6
SLD-Dashed
370
    18
100
AcDbLine
 10
17.216129488
 20
12.0559862466
 30
0.0
 11
17.2250694713
 21
11.3737713386
 31
0.0
  0
LINE
  5
13F
330
1F
100
AcDbEntity
  8
SK3
  6
SLD-Dashed
370
    18
100
AcDbLine
 10
17.2250694713
 20
11.3737713386
 30
0.0
 11
17.1011100801
 21
10.659838393
 31
0.0
  0
LINE
  5
140
330
1F
100
AcDbEntity
  8
SK3
  6
SLD-Dashed
370
    18
100
AcDbLine
 10
17.1011100801
 20
10.659838393
 30
0.0
 11
16.8552656503
 21
9.977623485
 31
0.0
  0
LINE
  5
141
330
1F
100
AcDbEntity
  8
SK3
  6
SLD-Dashed
370
    18
100
AcDbLine
 10
16.8552656503
 20
9.977623485
 30
0.0
 11
16.5093805383
 21
9.387744403
 31
0.0
  0
LINE
  5
142
330
1F
100
AcDbEntity
  8
SK3
  6
SLD-Dashed
370
    18
100
AcDbLine
 10
16.5093805383
 20
9.387744403
 30
0.0
 11
16.0941881543
 21
8.9426144922
 31
0.0
  0
LINE
  5
143
330
1F
100
AcDbEntity
  8
SK3
  6
SLD-Dashed
370
    18
100
AcDbLine
 10
16.0941881543
 20
8.9426144922
 30
0.0
 11
15.6465801636
 21
8.6817854985
 31
0.0
  0
LINE
  5
144
330
1F
100
AcDbEntity
  8
SK3
  6
SLD-Dashed
370
    18
100
AcDbLine
 10
15.6465801636
 20
8.6817854985
 30
0.0
 11
15.2063285004
 21
8.6284332227
 31
0.0
  0
LINE
  5
145
330
1F
100
AcDbEntity
  8
SK3
  6
SLD-Dashed
370
    18
100
AcDbLine
 10
15.2063285004
 20
8.6284332227
 30
0.0
 11
14.8125514571
 21
8.7872982485
 31
0.0
  0
LINE
  5
146
330
1F
100
AcDbEntity
  8
SK3
  6
SLD-Dashed
370
    18
100
AcDbLine
 10
14.8125514571
 20
8.7872982485
 30
0.0
 11
14.500237852
 21
9.1442647213
 31
0.0
  0
LINE
  5
147
330
1F
100
AcDbEntity
  8
SK3
  6
SLD-Dashed
370
    18
100
AcDbLine
 10
14.500237852
 20
9.1442647213
 30
0.0
 11
14.2971381195
 21
9.6676146035
 31
0.0
  0
LINE
  5
148
330
1F
100
AcDbEntity
  8
SK3
  6
SLD-Dashed
370
    18
100
AcDbLine
 10
14.2971381195
 20
9.6676146035
 30
0.0
 11
14.2212985621
 21
10.3108459613
 31
0.0
  0
LINE
  5
149
330
1F
100
AcDbEntity
  8
SK3
  6
SLD-Dashed
370
    18
100
AcDbLine
 10
14.2212985621
 20
10.3108459613
 30
0.0
 11
14.2794578574
 21
11.0168048658
 31
0.0
  0
LINE
  5
14A
330
1F
100
AcDbEntity
  8
SK3
  6
SLD-Dashed
370
    18
100
AcDbLine
 10
3.3949403416
 20
13.9015950424
 30
0.0
 11
3.5816002207
 21
14.6176762606
 31
0.0
  0
LINE
  5
14B
330
1F
100
AcDbEntity
  8
SK3
  6
SLD-Dashed
370
    18
100
AcDbLine
 10
3.5816002207
 20
14.6176762606
 30
0.0
 11
3.8777929979
 21
15.2757448372
 31
0.0
  0
LINE
  5
14C
330
1F
100
AcDbEntity
  8
SK3
  6
SLD-Dashed
370
    18
100
AcDbLine
 10
3.8777929979
 20
15.2757448372
 30
0.0
 11
4.2595228959
 21
15.8224879698
 31
0.0
  0
LINE
  5
14D
330
1F
100
AcDbEntity
  8
SK3
  6
SLD-Dashed
370
    18
100
AcDbLine
 10
4.2595228959
 20
15.8224879698
 30
0.0
 11
4.6958644286
 21
16.2136117815
 31
0.0
  0
LINE
  5
14E
330
1F
100
AcDbEntity
  8
SK3
  6
SLD-Dashed
370
    18
100
AcDbLine
 10
4.6958644286
 20
16.2136117815
 30
0.0
 11
5.1514678
 21
16.417429747
 31
0.0
  0
LINE
  5
14F
330
1F
100
AcDbEntity
  8
SK3
  6
SLD-Dashed
370
    18
100
AcDbLine
 10
5.1514678
 20
16.417429747
 30
0.0
 11
5.5894227346
 21
16.417429747
 31
0.0
  0
LINE
  5
150
330
1F
100
AcDbEntity
  8
SK3
  6
SLD-Dashed
370
    18
100
AcDbLine
 10
5.5894227346
 20
16.417429747
 30
0.0
 11
5.9742487283
 21
16.2136117815
 31
0.0
  0
LINE
  5
151
330
1F
100
AcDbEntity
  8
SK3
  6
SLD-Dashed
370
    18
100
AcDbLine
 10
5.9742487283
 20
16.2136117815
 30
0.0
 11
6.2747694675
 21
15.8224879698
 31
0.0
  0
LINE
  5
152
330
1F
100
AcDbEntity
  8
SK3
  6
SLD-Dashed
370
    18
100
AcDbLine
 10
6.2747694675
 20
15.8224879698
 30
0.0
 11
6.4666385494
 21
15.2757448372
 31
0.0
  0
LINE
  5
153
330
1F
100
AcDbEntity
  8
SK3
  6
SLD-Dashed
370
    18
100
AcDbLine
 10
6.4666385494
 20
15.2757448372
 30
0.0
 11
6.5343118819
 21
14.6176762606
 31
0.0
  0
LINE
  5
154
330
1F
100
AcDbEntity
  8
SK3
  6
SLD-Dashed
370
    18
100
AcDbLine
 10
6.5343118819
 20
14.6176762606
 30
0.0
 11
6.4723069743
 21
13.9015950424
 31
0.0
  0
LINE
  5
155
330
1F
100
AcDbEntity
  8
SK3
  6
SLD-Dashed
370
    18
100
AcDbLine
 10
6.4723069743
 20
13.9015950424
 30
0.0
 11
6.2856470952
 21
13.1855138242
 31
0.0
  0
LINE
  5
156
330
1F
100
AcDbEntity
  8
SK3
  6
SLD-Dashed
370
    18
100
AcDbLine
 10
6.2856470952
 20
13.1855138242
 30
0.0
 11
5.989454318
 21
12.5274452476
 31
0.0
  0
LINE
  5
157
330
1F
100
AcDbEntity
  8
SK3
  6
SLD-Dashed
370
    18
100
AcDbLine
 10
5.989454318
 20
12.5274452476
 30
0.0
 11
5.60772442
 21
11.980702115
 31
0.0
  0
LINE
  5
158
330
1F
100
AcDbEntity
  8
SK3
  6
SLD-Dashed
370
    18
100
AcDbLine
 10
5.60772442
 20
11.980702115
 30
0.0
 11
5.1713828873
 21
11.5895783033
 31
0.0
  0
LINE
  5
159
330
1F
100
AcDbEntity
  8
SK3
  6
SLD-Dashed
370
    18
100
AcDbLine
 10
5.1713828873
 20
11.5895783033
 30
0.0
 11
4.7157795159
 21
11.3857603378
 31
0.0
  0
LINE
  5
15A
330
1F
100
AcDbEntity
  8
SK3
  6
SLD-Dashed
370
    18
100
AcDbLine
 10
4.7157795159
 20
11.3857603378
 30
0.0
 11
4.2778245812
 21
11.3857603378
 31
0.0
  0
LINE
  5
15B
330
1F
100
AcDbEntity
  8
SK3
  6
SLD-Dashed
370
    18
100
AcDbLine
 10
4.2778245812
 20
11.3857603378
 30
0.0
 11
3.8929985876
 21
11.5895783033
 31
0.0
  0
LINE
  5
15C
330
1F
100
AcDbEntity
  8
SK3
  6
SLD-Dashed
370
    18
100
AcDbLine
 10
3.8929985876
 20
11.5895783033
 30
0.0
 11
3.5924778483
 21
11.980702115
 31
0.0
  0
LINE
  5
15D
330
1F
100
AcDbEntity
  8
SK3
  6
SLD-Dashed
370
    18
100
AcDbLine
 10
3.5924778483
 20
11.980702115
 30
0.0
 11
3.4006087665
 21
12.5274452476
 31
0.0
  0
LINE
  5
15E
330
1F
100
AcDbEntity
  8
SK3
  6
SLD-Dashed
370
    18
100
AcDbLine
 10
3.4006087665
 20
12.5274452476
 30
0.0
 11
3.3329354339
 21
13.1855138242
 31
0.0
  0
LINE
  5
15F
330
1F
100
AcDbEntity
  8
SK3
  6
SLD-Dashed
370
    18
100
AcDbLine
 10
3.3329354339
 20
13.1855138242
 30
0.0
 11
3.3949403416
 21
13.9015950424
 31
0.0
  0
LINE
  5
160
330
1F
100
AcDbEntity
  8
SK3
  6
SLD-Dashed
370
    18
100
AcDbLine
 10
5.6371324082
 20
-16.2495686026
 30
0.0
 11
16.3618570383
 21
-13.3837567853
 31
0.0
  0
LINE
  5
161
330
1F
100
AcDbEntity
  8
SK3
  6
SLD-Dashed
370
    18
100
AcDbLine
 10
15.0968849264
 20
-8.6498529463
 30
0.0
 11
4.3721602964
 21
-11.5156647637
 31
0.0
  0
LINE
  5
162
330
1F
100
AcDbEntity
  8
SK3
  6
SLD-Dashed
370
    18
100
AcDbLine
 10
-101.6
 20
-14.285
 30
0.0
 11
-99.7034043657
 21
-13.19
 31
0.0
  0
LINE
  5
163
330
1F
100
AcDbEntity
  8
SK3
  6
SLD-Dashed
370
    18
100
AcDbLine
 10
-99.7034043657
 20
13.19
 30
0.0
 11
-101.6
 21
14.285
 31
0.0
  0
LINE
  5
164
330
1F
100
AcDbEntity
  8
SK3
  6
SLD-Dashed
370
    18
100
AcDbLine
 10
-99.7034043657
 20
-13.19
 30
0.0
 11
-95.25
 21
-13.19
 31
0.0
  0
LINE
  5
165
330
1F
100
AcDbEntity
  8
SK3
  6
SLD-Dashed
370
    18
100
AcDbLine
 10
-95.25
 20
13.19
 30
0.0
 11
-99.7034043657
 21
13.19
 31
0.0
  0
LINE
  5
166
330
1F
100
AcDbEntity
  8
SK3
  6
SLD-Dashed
370
    18
100
AcDbLine
 10
-95.25
 20
-13.19
 30
0.0
 11
-94.0505548158
 21
-11.1125
 31
0.0
  0
LINE
  5
167
330
1F
100
AcDbEntity
  8
SK3
  6
SLD-Dashed
370
    18
100
AcDbLine
 10
-94.0505548158
 20
11.1125
 30
0.0
 11
-95.25
 21
13.19
 31
0.0
  0
LINE
  5
168
330
1F
100
AcDbEntity
  8
SK3
  6
SLD-Dashed
370
    18
100
AcDbLine
 10
-94.0505548158
 20
-11.1125
 30
0.0
 11
18.4
 21
-11.1125
 31
0.0
  0
LINE
  5
169
330
1F
100
AcDbEntity
  8
SK3
  6
SLD-Dashed
370
    18
100
AcDbLine
 10
18.4
 20
11.1125
 30
0.0
 11
-94.0505548158
 21
11.1125
 31
0.0
  0
LINE
  5
16A
330
1F
100
AcDbEntity
  8
SK3
  6
SLD-Dashed
370
    18
100
AcDbLine
 10
18.4
 20
-11.1125
 30
0.0
 11
20.2701786767
 21
-8.0
 31
0.0
  0
LINE
  5
16B
330
1F
100
AcDbEntity
  8
SK3
  6
SLD-Dashed
370
    18
100
AcDbLine
 10
20.2701786767
 20
8.0
 30
0.0
 11
18.4
 21
11.1125
 31
0.0
  0
LINE
  5
16C
330
1F
100
AcDbEntity
  8
SK3
  6
SLD-Dashed
370
    18
100
AcDbLine
 10
20.2701786767
 20
-8.0
 30
0.0
 11
122.834
 21
-8.0
 31
0.0
  0
LINE
  5
16D
330
1F
100
AcDbEntity
  8
SK3
  6
SLD-Dashed
370
    18
100
AcDbLine
 10
122.834
 20
8.0
 30
0.0
 11
20.2701786767
 21
8.0
 31
0.0
  0
LINE
  5
16E
330
1F
100
AcDbEntity
  8
SK3
  6
SLD-Dashed
370
    18
100
AcDbLine
 10
122.834
 20
-8.0
 30
0.0
 11
123.8254200214
 21
-6.35
 31
0.0
  0
LINE
  5
16F
330
1F
100
AcDbEntity
  8
SK3
  6
SLD-Dashed
370
    18
100
AcDbLine
 10
123.8254200214
 20
6.35
 30
0.0
 11
122.834
 21
8.0
 31
0.0
  0
LINE
  5
170
330
1F
100
AcDbEntity
  8
SK3
  6
SLD-Dashed
370
    18
100
AcDbLine
 10
168.275
 20
7.2160254038
 30
0.0
 11
166.775
 21
6.35
 31
0.0
  0
LINE
  5
171
330
1F
100
AcDbEntity
  8
SK3
  6
SLD-Dashed
370
    18
100
AcDbLine
 10
166.775
 20
-6.35
 30
0.0
 11
168.275
 21
-7.2160254038
 31
0.0
  0
LINE
  5
172
330
1F
100
AcDbEntity
  8
SK3
  6
SLD-Dashed
370
    18
100
AcDbLine
 10
141.1859
 20
6.35
 30
0.0
 11
123.8254200214
 21
6.35
 31
0.0
  0
LINE
  5
173
330
1F
100
AcDbEntity
  8
SK3
  6
SLD-Dashed
370
    18
100
AcDbLine
 10
166.775
 20
6.35
 30
0.0
 11
150.9108580013
 21
6.35
 31
0.0
  0
LINE
  5
174
330
1F
100
AcDbEntity
  8
SK3
  6
SLD-Dashed
370
    18
100
AcDbLine
 10
123.8254200214
 20
-6.35
 30
0.0
 11
166.775
 21
-6.35
 31
0.0
  0
LINE
  5
175
330
1F
100
AcDbEntity
  8
SK3
  6
SLD-Dashed
370
    18
100
AcDbLine
 10
139.8
 20
15.875
 30
0.0
 11
139.8
 21
14.375
 31
0.0
  0
LINE
  5
176
330
1F
100
AcDbEntity
  8
SK3
  6
SLD-Dashed
370
    18
100
AcDbLine
 10
152.3
 20
14.375
 30
0.0
 11
152.3
 21
15.875
 31
0.0
  0
LINE
  5
177
330
1F
100
AcDbEntity
  8
SK3
  6
SLD-Dashed
370
    18
100
AcDbLine
 10
6.1
 20
37.5
 30
0.0
 11
6.1
 21
33.1
 31
0.0
  0
LINE
  5
178
330
1F
100
AcDbEntity
  8
SK3
  6
SLD-Dashed
370
    18
100
AcDbLine
 10
16.1
 20
33.1
 30
0.0
 11
16.1
 21
37.5
 31
0.0
  0
LINE
  5
179
330
1F
100
AcDbEntity
  8
SK3
  6
SLD-Dashed
370
    18
100
AcDbLine
 10
141.1859
 20
14.375
 30
0.0
 11
141.1859
 21
6.35
 31
0.0
  0
LINE
  5
17A
330
1F
100
AcDbEntity
  8
SK3
  6
SLD-Dashed
370
    18
100
AcDbLine
 10
150.9141
 20
6.3475174188
 30
0.0
 11
150.9141
 21
14.375
 31
0.0
  0
LINE
  5
17B
330
1F
100
AcDbEntity
  8
SK3
  6
SLD-Dashed
370
    18
100
AcDbLine
 10
4.3721602964
 20
11.5156647637
 30
0.0
 11
15.0968849264
 21
8.6498529463
 31
0.0
  0
LINE
  5
17C
330
1F
100
AcDbEntity
  8
SK3
  6
SLD-Dashed
370
    18
100
AcDbLine
 10
16.3618570383
 20
13.3837567853
 30
0.0
 11
5.6371324082
 21
16.2495686026
 31
0.0
  0
LINE
  5
17D
330
1F
100
AcDbEntity
  8
SK3
  6
SLD-Solid
370
    18
100
AcDbLine
 10
-55.5999986827
 20
12.6999998465
 30
0.0
 11
-94.967097044
 21
12.6999998465
 31
0.0
  0
LINE
  5
17E
330
1F
100
AcDbEntity
  8
SK3
  6
SLD-Solid
370
    18
100
AcDbLine
 10
-94.967097044
 20
-12.6999998465
 30
0.0
 11
-55.5999986827
 21
-12.6999998465
 31
0.0
  0
LINE
  5
17F
330
1F
100
AcDbEntity
  8
SK3
  6
SLD-Solid
370
    18
100
AcDbLine
 10
-55.5999986827
 20
0.0
 30
0.0
 11
-55.5999986827
 21
-1.9867178053
 31
0.0
  0
LINE
  5
180
330
1F
100
AcDbEntity
  8
SK3
  6
SLD-Solid
370
    18
100
AcDbLine
 10
-55.6000115556
 20
-1.9867178053
 30
0.0
 11
-55.5999986827
 21
-3.9245160297
 31
0.0
  0
LINE
  5
181
330
1F
100
AcDbEntity
  8
SK3
  6
SLD-Solid
370
    18
100
AcDbLine
 10
-55.5999986827
 20
-3.9245160297
 30
0.0
 11
-55.5999986827
 21
-5.7656792924
 31
0.0
  0
LINE
  5
182
330
1F
100
AcDbEntity
  8
SK3
  6
SLD-Solid
370
    18
100
AcDbLine
 10
-55.5999986827
 20
-5.7656792924
 30
0.0
 11
-55.5999986827
 21
-7.4648726732
 31
0.0
  0
LINE
  5
183
330
1F
100
AcDbEntity
  8
SK3
  6
SLD-Solid
370
    18
100
AcDbLine
 10
-55.5999986827
 20
-7.4648726732
 30
0.0
 11
-55.5999986827
 21
-8.9802565053
 31
0.0
  0
LINE
  5
184
330
1F
100
AcDbEntity
  8
SK3
  6
SLD-Solid
370
    18
100
AcDbLine
 10
-55.5999986827
 20
-8.9802565053
 30
0.0
 11
-55.5999986827
 21
-10.2745154873
 31
0.0
  0
LINE
  5
185
330
1F
100
AcDbEntity
  8
SK3
  6
SLD-Solid
370
    18
100
AcDbLine
 10
-55.5999986827
 20
-10.2745154873
 30
0.0
 11
-55.5999986827
 21
-11.3157825544
 31
0.0
  0
LINE
  5
186
330
1F
100
AcDbEntity
  8
SK3
  6
SLD-Solid
370
    18
100
AcDbLine
 10
-55.5999986827
 20
-11.3157825544
 30
0.0
 11
-55.5999986827
 21
-12.0784174651
 31
0.0
  0
LINE
  5
187
330
1F
100
AcDbEntity
  8
SK3
  6
SLD-Solid
370
    18
100
AcDbLine
 10
-55.5999986827
 20
-12.0784174651
 30
0.0
 11
-55.5999986827
 21
-12.5436419621
 31
0.0
  0
LINE
  5
188
330
1F
100
AcDbEntity
  8
SK3
  6
SLD-Solid
370
    18
100
AcDbLine
 10
-55.5999986827
 20
-12.5436419621
 30
0.0
 11
-55.5999986827
 21
-12.6999998465
 31
0.0
  0
LINE
  5
189
330
1F
100
AcDbEntity
  8
SK3
  6
SLD-Solid
370
    18
100
AcDbLine
 10
-55.6000115556
 20
12.6999998465
 30
0.0
 11
-55.5999986827
 21
12.5436419621
 31
0.0
  0
LINE
  5
18A
330
1F
100
AcDbEntity
  8
SK3
  6
SLD-Solid
370
    18
100
AcDbLine
 10
-55.5999986827
 20
12.5436419621
 30
0.0
 11
-55.5999986827
 21
12.0784174651
 31
0.0
  0
LINE
  5
18B
330
1F
100
AcDbEntity
  8
SK3
  6
SLD-Solid
370
    18
100
AcDbLine
 10
-55.5999986827
 20
12.0784174651
 30
0.0
 11
-55.5999986827
 21
11.3157825544
 31
0.0
  0
LINE
  5
18C
330
1F
100
AcDbEntity
  8
SK3
  6
SLD-Solid
370
    18
100
AcDbLine
 10
-55.5999986827
 20
11.3157825544
 30
0.0
 11
-55.5999986827
 21
10.2745154873
 31
0.0
  0
LINE
  5
18D
330
1F
100
AcDbEntity
  8
SK3
  6
SLD-Solid
370
    18
100
AcDbLine
 10
-55.5999986827
 20
10.2745154873
 30
0.0
 11
-55.5999986827
 21
8.9802565053
 31
0.0
  0
LINE
  5
18E
330
1F
100
AcDbEntity
  8
SK3
  6
SLD-Solid
370
    18
100
AcDbLine
 10
-55.5999986827
 20
8.9802565053
 30
0.0
 11
-55.5999986827
 21
7.4648726732
 31
0.0
  0
LINE
  5
18F
330
1F
100
AcDbEntity
  8
SK3
  6
SLD-Solid
370
    18
100
AcDbLine
 10
-55.5999986827
 20
7.4648726732
 30
0.0
 11
-55.5999986827
 21
5.7656792924
 31
0.0
  0
LINE
  5
190
330
1F
100
AcDbEntity
  8
SK3
  6
SLD-Solid
370
    18
100
AcDbLine
 10
-55.5999986827
 20
5.7656792924
 30
0.0
 11
-55.5999986827
 21
3.9245160297
 31
0.0
  0
LINE
  5
191
330
1F
100
AcDbEntity
  8
SK3
  6
SLD-Solid
370
    18
100
AcDbLine
 10
-55.5999986827
 20
3.9245160297
 30
0.0
 11
-55.5999986827
 21
1.9867178053
 31
0.0
  0
LINE
  5
192
330
1F
100
AcDbEntity
  8
SK3
  6
SLD-Solid
370
    18
100
AcDbLine
 10
-55.5999986827
 20
1.9867178053
 30
0.0
 11
-55.5999986827
 21
0.0
 31
0.0
  0
LINE
  5
193
330
1F
100
AcDbEntity
  8
SK3
  6
SLD-Solid
370
    18
100
AcDbLine
 10
151.606246829
 20
6.3050435856
 30
0.0
 11
151.606246829
 21
14.3750002608
 31
0.0
  0
LINE
  5
194
330
1F
100
AcDbEntity
  8
SK3
  6
SLD-Solid
370
    18
100
AcDbLine
 10
140.4937505722
 20
14.3750002608
 30
0.0
 11
140.4937505722
 21
6.3050435856
 31
0.0
  0
LINE
  5
195
330
1F
100
AcDbEntity
  8
SK3
  6
SLD-Solid
370
    18
100
AcDbLine
 10
151.5548080206
 20
6.3050435856
 30
0.0
 11
151.5445560217
 21
6.2960847281
 31
0.0
  0
LINE
  5
196
330
1F
100
AcDbEntity
  8
4
  6
SLD-Center
370
    18
100
AcDbLine
 10
169.9940181543
 20
0.0
 30
0.0
 11
-0.1397846152
 21
0.0
 31
0.0
  0
LINE
  5
197
330
1F
100
AcDbEntity
  8
4
  6
SLD-Center
370
    18
100
AcDbLine
 10
146.05
 20
4.35
 30
0.0
 11
146.05
 21
16.375
 31
0.0
  0
LINE
  5
198
330
1F
100
AcDbEntity
  8
SK4
  6
SLD-Center
370
    18
100
AcDbLine
 10
-103.0431181127
 20
0.0
 30
0.0
 11
169.775
 21
0.0
 31
0.0
  0
LINE
  5
199
330
1F
100
AcDbEntity
  8
81
370
    18
100
AcDbLine
 10
168.275
 20
0.0
 30
0.0
 11
171.8105339059
 21
3.5355339059
 31
0.0
  0
LINE
  5
19A
330
1F
100
AcDbEntity
  8
81
370
    18
100
AcDbLine
 10
168.275
 20
0.0
 30
0.0
 11
164.7394660941
 21
-3.5355339059
 31
0.0
  0
LINE
  5
19B
330
1F
100
AcDbEntity
  8
81
370
    18
100
AcDbLine
 10
168.275
 20
0.0
 30
0.0
 11
164.7394660941
 21
3.5355339059
 31
0.0
  0
LINE
  5
19C
330
1F
100
AcDbEntity
  8
81
100
AcDbLine
 10
168.275
 20
0.0
 30
0.0
 11
178.275
 21
0.0
 31
0.0
  0
LINE
  5
19D
330
1F
100
AcDbEntity
  8
81
370
    18
100
AcDbLine
 10
168.275
 20
0.0
 30
0.0
 11
171.8105339059
 21
-3.5355339059
 31
0.0
  0
LINE
  5
19E
330
1F
100
AcDbEntity
  8
80
370
    18
100
AcDbLine
 10
0.0
 20
0.0
 30
0.0
 11
-3.5355339059
 21
-3.5355339059
 31
0.0
  0
LINE
  5
19F
330
1F
100
AcDbEntity
  8
80
370
    18
100
AcDbLine
 10
0.0
 20
0.0
 30
0.0
 11
3.5355339059
 21
3.5355339059
 31
0.0
  0
LINE
  5
1A0
330
1F
100
AcDbEntity
  8
80
370
    18
100
AcDbLine
 10
0.0
 20
0.0
 30
0.0
 11
-3.5355339059
 21
3.5355339059
 31
0.0
  0
LINE
  5
1A1
330
1F
100
AcDbEntity
  8
80
370
    18
100
AcDbLine
 10
0.0
 20
0.0
 30
0.0
 11
-10.0
 21
0.0
 31
0.0
  0
LINE
  5
1A2
330
1F
100
AcDbEntity
  8
80
370
    18
100
AcDbLine
 10
0.0
 20
0.0
 30
0.0
 11
3.5355339059
 21
-3.5355339059
 31
0.0
  0
ARC
  5
1A3
330
1F
100
AcDbEntity
  8
1
  6
SLD-Solid
370
    25
100
AcDbCircle
 10
19.812
 20
-35.687
 30
0.0
 40
0.7620000000000005
100
AcDbArc
 50
90.0
 51
129.6613231613
  0
ARC
  5
1A4
330
1F
100
AcDbEntity
  8
1
  6
SLD-Solid
370
    25
100
AcDbCircle
 10
19.812
 20
35.687
 30
0.0
 40
0.7620000000000147
100
AcDbArc
 50
180.0
 51
270.0
  0
ARC
  5
1A5
330
1F
100
AcDbEntity
  8
1
  6
SLD-Solid
370
    25
100
AcDbCircle
 10
2.45
 20
35.425
 30
0.0
 40
0.7500000000000147
100
AcDbArc
 50
245.0
 51
0.0
  0
ARC
  5
1A6
330
1F
100
AcDbEntity
  8
1
  6
SLD-Solid
370
    25
100
AcDbCircle
 10
2.45
 20
-35.425
 30
0.0
 40
0.7500000000000193
100
AcDbArc
 50
25.3835445978
 51
115.0
  0
ARC
  5
1A7
330
1F
100
AcDbEntity
  8
1
  6
SLD-Solid
370
    25
100
AcDbCircle
 10
33.576
 20
-33.401
 30
0.0
 40
1.524000000000001
100
AcDbArc
 50
270.0
 51
0.0
  0
ARC
  5
1A8
330
1F
100
AcDbEntity
  8
1
  6
SLD-Solid
370
    25
100
AcDbCircle
 10
33.576
 20
33.401
 30
0.0
 40
1.524000000000001
100
AcDbArc
 50
0.0
 51
90.0
  0
ARC
  5
1A9
330
1F
100
AcDbEntity
  8
1
  6
SLD-Solid
370
    25
100
AcDbCircle
 10
36.624
 20
-23.8506179779
 30
0.0
 40
1.523999999999996
100
AcDbArc
 50
97.0
 51
180.0
  0
ARC
  5
1AA
330
1F
100
AcDbEntity
  8
1
  6
SLD-Solid
370
    25
100
AcDbCircle
 10
36.624
 20
23.8506179779
 30
0.0
 40
1.523999999999996
100
AcDbArc
 50
180.0
 51
263.0
  0
ARC
  5
1AB
330
1F
100
AcDbEntity
  8
SK1
  6
SLD-Solid
370
    25
100
AcDbCircle
 10
-99.5
 20
18.2922326599
 30
0.0
 40
2.100000000000023
100
AcDbArc
 50
98.2972222222
 51
180.0
  0
ARC
  5
1AC
330
1F
100
AcDbEntity
  8
SK1
  6
SLD-Solid
370
    25
100
AcDbCircle
 10
-99.5
 20
-18.2922326599
 30
0.0
 40
2.100000000000009
100
AcDbArc
 50
180.0
 51
261.7027777778
  0
ARC
  5
1AD
330
1F
100
AcDbEntity
  8
1
  6
SLD-Solid
370
    25
100
AcDbCircle
 10
146.0497841568
 20
31.0201720636
 30
0.0
 40
16.38401778697743
100
AcDbArc
 50
247.5760915745
 51
292.3922979387
  0
ARC
  5
1AE
330
1F
100
AcDbEntity
  8
1
370
    18
100
AcDbCircle
 10
146.0476334751
 20
-35.2495020678
 30
0.0
 40
20.53218851181771
100
AcDbArc
 50
70.6679675832
 51
109.3320324168
  0
CIRCLE
  5
1AF
330
1F
100
AcDbEntity
  8
81
370
    18
100
AcDbCircle
 10
168.275
 20
0.0
 30
0.0
 40
2.499999999999998
  0
CIRCLE
  5
1B0
330
1F
100
AcDbEntity
  8
80
370
    18
100
AcDbCircle
 10
0.0
 20
0.0
 30
0.0
 40
2.500000000000009
  0
SPLINE
  5
1B1
330
1F
100
AcDbEntity
  8
1
  6
SLD-Solid
370
    25
100
AcDbSpline
210
0.0
220
0.0
230
1.0
 70
     8
 71
     3
 72
    12
 73
     8
 74
     0
 42
0.000000001
 43
0.00000001
 40
0.0
 40
0.0
 40
0.0
 40
0.0
 40
0.2499999999999983
 40
0.2499999999999983
 40
0.4999999999999967
 40
0.4999999999999967
 40
1.0
 40
1.0
 40
1.0
 40
1.0
 10
19.05000000000001
 20
-46.69763484374772
 30
0.0
 10
19.05000000000001
 20
-46.79851095846173
 30
0.0
 10
19.03137059366211
 20
-46.89733966428951
 30
0.0
 10
18.9581557533031
 20
-47.08411469648357
 30
0.0
 10
18.90402082648723
 20
-47.16991322230013
 30
0.0
 10
18.69812814693782
 20
-47.3875344447254
 30
0.0
 10
18.50197314321876
 20
-47.47548419974301
 30
0.0
 10
18.30000000000011
 20
-47.47548419974304
 30
0.0
  0
SPLINE
  5
1B2
330
1F
100
AcDbEntity
  8
1
  6
SLD-Solid
370
    25
100
AcDbSpline
210
0.0
220
0.0
230
1.0
 70
     8
 71
     3
 72
    15
 73
    11
 74
     0
 42
0.000000001
 43
0.00000001
 40
0.0
 40
0.0
 40
0.0
 40
0.0
 40
0.0708675455650064
 40
0.1234206290205499
 40
0.2469923695825739
 40
0.4940839350899143
 40
0.6226370203444117
 40
0.74568965643039
 40
0.8736712713979901
 40
1.0
 40
1.0
 40
1.0
 40
1.0
 10
19.05000000000001
 20
46.55608553132447
 30
0.0
 10
19.04912781747367
 20
46.58344641717448
 30
0.0
 10
19.04760885254889
 20
46.63109725247914
 30
0.0
 10
19.03252103278827
 20
46.72541301571034
 30
0.0
 10
18.98548435274785
 20
46.88286431586754
 30
0.0
 10
18.87493087111724
 20
47.04890219769468
 30
0.0
 10
18.72384724369046
 20
47.17307551094535
 30
0.0
 10
18.59213990211232
 20
47.24320117897949
 30
0.0
 10
18.44967423040841
 20
47.28829435244305
 30
0.0
 10
18.34967476177398
 20
47.29398684875629
 30
0.0
 10
18.30000000000006
 20
47.29681459776459
 30
0.0
  0
SPLINE
  5
1B3
330
1F
100
AcDbEntity
  8
1
  6
SLD-Solid
370
    25
100
AcDbSpline
210
0.0
220
0.0
230
1.0
 70
     8
 71
     3
 72
    12
 73
     8
 74
     0
 42
0.000000001
 43
0.00000001
 40
0.0
 40
0.0
 40
0.0
 40
0.0
 40
0.249999999999997
 40
0.249999999999997
 40
0.499999999999994
 40
0.499999999999994
 40
1.0
 40
1.0
 40
1.0
 40
1.0
 10
3.950000000000009
 20
-47.4754841997425
 30
0.0
 10
3.849084030890612
 20
-47.47548419974251
 30
0.0
 10
3.749978417477457
 20
-47.45437693482704
 30
0.0
 10
3.566847730075526
 20
-47.37426897057828
 30
0.0
 10
3.483455095947358
 20
-47.31511647588033
 30
0.0
 10
3.278048511272585
 20
-47.09831987092234
 30
0.0
 10
3.200000000000008
 20
-46.89926900274104
 30
0.0
 10
3.200000000000008
 20
-46.69763484374772
 30
0.0
  0
SPLINE
  5
1B4
330
1F
100
AcDbEntity
  8
1
  6
SLD-Solid
370
    25
100
AcDbSpline
210
0.0
220
0.0
230
1.0
 70
     8
 71
     3
 72
    17
 73
    13
 74
     0
 42
0.000000001
 43
0.00000001
 40
0.0
 40
0.0
 40
0.0
 40
0.0
 40
0.0631225276654152
 40
0.1266732404523964
 40
0.1906578598213871
 40
0.2550819704917399
 40
0.3779677561954641
 40
0.506528729174184
 40
0.7536275741714931
 40
0.8770326867277093
 40
0.9293515935900165
 40
1.0
 40
1.0
 40
1.0
 40
1.0
 10
3.949999999999912
 20
47.29681459776457
 30
0.0
 10
3.925201491187219
 20
47.29611182214634
 30
0.0
 10
3.875436255448519
 20
47.2947015037044
 30
0.0
 10
3.801280717951244
 20
47.28327895415969
 30
0.0
 10
3.728120549123137
 20
47.26498746189544
 30
0.0
 10
3.635342933313177
 20
47.2314946384217
 30
0.0
 10
3.525682301871933
 20
47.17267397042873
 30
0.0
 10
3.374709300495313
 20
47.0485469861077
 30
0.0
 10
3.264271220664416
 20
46.88235514412616
 30
0.0
 10
3.217384189852929
 20
46.72497704375137
 30
0.0
 10
3.202376761217054
 20
46.63086119226706
 30
0.0
 10
3.200867255988713
 20
46.58337040929056
 30
0.0
 10
3.200000000000008
 20
46.55608553132448
 30
0.0
  0
SPLINE
  5
1B5
330
1F
100
AcDbEntity
  8
1
  6
SLD-Solid
370
    25
100
AcDbSpline
210
0.0
220
0.0
230
1.0
 70
     8
 71
     3
 72
     8
 73
     4
 74
     0
 42
0.000000001
 43
0.00000001
 40
0.0
 40
0.0
 40
0.0
 40
0.0
 40
1.0
 40
1.0
 40
1.0
 40
1.0
 10
7.590276606597335
 20
-47.4754841997425
 30
0.0
 10
8.127774995464424
 20
-46.5104965471081
 30
0.0
 10
8.664408048367891
 20
-45.54503249842018
 30
0.0
 10
9.199999999999985
 20
-44.57901066343648
 30
0.0
  0
SPLINE
  5
1B6
330
1F
100
AcDbEntity
  8
1
  6
SLD-Solid
370
    25
100
AcDbSpline
210
0.0
220
0.0
230
1.0
 70
     8
 71
     3
 72
     8
 73
     4
 74
     0
 42
0.000000001
 43
0.00000001
 40
0.0000000000000098
 40
0.0000000000000098
 40
0.0000000000000098
 40
0.0000000000000098
 40
0.0008790679015159
 40
0.0008790679015159
 40
0.0008790679015159
 40
0.0008790679015159
 10
7.957289380062113
 20
46.81625358783003
 30
0.0
 10
7.835334863860815
 20
46.97654627942828
 30
0.0
 10
7.712991580674025
 20
47.1367321049955
 30
0.0
 10
7.590276606597335
 20
47.29681459776458
 30
0.0
  0
SPLINE
  5
1B7
330
1F
100
AcDbEntity
  8
1
  6
SLD-Solid
370
    25
100
AcDbSpline
210
0.0
220
0.0
230
1.0
 70
     8
 71
     3
 72
     8
 73
     4
 74
     0
 42
0.000000001
 43
0.00000001
 40
0.0
 40
0.0
 40
0.0
 40
0.0
 40
1.0
 40
1.0
 40
1.0
 40
1.0
 10
7.957289380055708
 20
46.81625358784155
 30
0.0
 10
8.372088490919092
 20
46.07082082933733
 30
0.0
 10
8.786353866857981
 20
45.32508460154719
 30
0.0
 10
9.199999999999985
 20
44.57901066343645
 30
0.0
  0
SPLINE
  5
1B8
330
1F
100
AcDbEntity
  8
1
  6
SLD-Solid
370
    25
100
AcDbSpline
210
0.0
220
0.0
230
1.0
 70
     8
 71
     3
 72
    14
 73
    10
 74
     0
 42
0.000000001
 43
0.00000001
 40
0.0
 40
0.0
 40
0.0
 40
0.0
 40
0.25
 40
0.25
 40
0.5
 40
0.5
 40
0.75
 40
0.75
 40
1.0
 40
1.0
 40
1.0
 40
1.0
 10
9.200000000002262
 20
41.48301295145394
 30
0.0
 10
9.17668064615694
 20
41.55645645104905
 30
0.0
 10
9.157956892055536
 20
41.62429306843829
 30
0.0
 10
9.131927678784693
 20
41.74600607925087
 30
0.0
 10
9.125045582368486
 20
41.79860573441294
 30
0.0
 10
9.124954879643765
 20
41.88147815789094
 30
0.0
 10
9.131870505305049
 20
41.91255410941324
 30
0.0
 10
9.157670888230413
 20
41.9512409197013
 30
0.0
 10
9.176601575159566
 20
41.95960923610542
 30
0.0
 10
9.199999999999985
 20
41.9587011964232
 30
0.0
  0
SPLINE
  5
1B9
330
1F
100
AcDbEntity
  8
1
  6
SLD-Solid
370
    25
100
AcDbSpline
210
0.0
220
0.0
230
1.0
 70
     8
 71
     3
 72
    14
 73
    10
 74
     0
 42
0.000000001
 43
0.00000001
 40
0.0
 40
0.0
 40
0.0
 40
0.0
 40
0.25
 40
0.25
 40
0.5
 40
0.5
 40
0.75
 40
0.75
 40
1.0
 40
1.0
 40
1.0
 40
1.0
 10
9.199999999999985
 20
34.6766889349851
 30
0.0
 10
9.17668064615526
 20
34.76218380134755
 30
0.0
 10
9.15795689205448
 20
34.84409122905373
 30
0.0
 10
9.131927678784734
 20
34.99897222909988
 30
0.0
 10
9.125045582368985
 20
35.07047900120374
 30
0.0
 10
9.124954879645056
 20
35.19440944821502
 30
0.0
 10
9.131870505306672
 20
35.24816533561761
 30
0.0
 10
9.15767088823248
 20
35.33309634836897
 30
0.0
 10
9.176601575161772
 20
35.365452809728
 30
0.0
 10
9.200000000002262
 20
35.38859611770598
 30
0.0
  0
SPLINE
  5
1BA
330
1F
100
AcDbEntity
  8
1
  6
SLD-Solid
370
    25
100
AcDbSpline
210
0.0
220
0.0
230
1.0
 70
     8
 71
     3
 72
    14
 73
    10
 74
     0
 42
0.000000001
 43
0.00000001
 40
0.0
 40
0.0
 40
0.0
 40
0.0
 40
0.25
 40
0.25
 40
0.5
 40
0.5
 40
0.75
 40
0.75
 40
1.0
 40
1.0
 40
1.0
 40
1.0
 10
13.02999999999605
 20
41.98711733167135
 30
0.0
 10
13.05904068228762
 20
41.99358445674419
 30
0.0
 10
13.08275209482981
 20
41.98923559020628
 30
0.0
 10
13.11609658322468
 20
41.95189511103383
 30
0.0
 10
13.12492140067506
 20
41.91935250781673
 30
0.0
 10
13.12507754967819
 20
41.8251138057685
 30
0.0
 10
13.11615053209061
 20
41.76334893396455
 30
0.0
 10
13.08319562521536
 20
41.6208767288557
 30
0.0
 10
13.0591101994963
 20
41.53942138186893
 30
0.0
 10
13.03
 20
41.45311361597064
 30
0.0
  0
SPLINE
  5
1BB
330
1F
100
AcDbEntity
  8
1
  6
SLD-Solid
370
    25
100
AcDbSpline
210
0.0
220
0.0
230
1.0
 70
     8
 71
     3
 72
     8
 73
     4
 74
     0
 42
0.000000001
 43
0.00000001
 40
0.0
 40
0.0
 40
0.0
 40
0.0
 40
1.0
 40
1.0
 40
1.0
 40
1.0
 10
13.02999999999999
 20
44.57901066343648
 30
0.0
 10
13.44364613314278
 20
45.3250846015433
 30
0.0
 10
13.85791150908241
 20
46.07082082932958
 30
0.0
 10
14.27271061994656
 20
46.81625358782991
 30
0.0
  0
SPLINE
  5
1BC
330
1F
100
AcDbEntity
  8
1
  6
SLD-Solid
370
    25
100
AcDbSpline
210
0.0
220
0.0
230
1.0
 70
     8
 71
     3
 72
     8
 73
     4
 74
     0
 42
0.000000001
 43
0.00000001
 40
0.0
 40
0.0
 40
0.0
 40
0.0
 40
0.0008790679015124
 40
0.0008790679015124
 40
0.0008790679015124
 40
0.0008790679015124
 10
14.63972339340268
 20
47.29681459776454
 30
0.0
 10
14.51700841932647
 20
47.13673210499611
 30
0.0
 10
14.39466513614737
 20
46.97654627942752
 30
0.0
 10
14.27271061994656
 20
46.81625358782991
 30
0.0
  0
SPLINE
  5
1BD
330
1F
100
AcDbEntity
  8
1
  6
SLD-Solid
370
    25
100
AcDbSpline
210
0.0
220
0.0
230
1.0
 70
     8
 71
     3
 72
     8
 73
     4
 74
     0
 42
0.000000001
 43
0.00000001
 40
0.0
 40
0.0
 40
0.0
 40
0.0
 40
1.0
 40
1.0
 40
1.0
 40
1.0
 10
13.02999999999999
 20
-44.57901066343648
 30
0.0
 10
13.56559195163211
 20
-45.54503249842018
 30
0.0
 10
14.10222500453559
 20
-46.5104965471081
 30
0.0
 10
14.63972339340268
 20
-47.47548419974251
 30
0.0
  0
SPLINE
  5
1BE
330
1F
100
AcDbEntity
  8
1
  6
SLD-Solid
370
    25
100
AcDbSpline
210
0.0
220
0.0
230
1.0
 70
     8
 71
     3
 72
    14
 73
    10
 74
     0
 42
0.000000001
 43
0.00000001
 40
0.0
 40
0.0
 40
0.0
 40
0.0
 40
0.25
 40
0.25
 40
0.5
 40
0.5
 40
0.75
 40
0.75
 40
1.0
 40
1.0
 40
1.0
 40
1.0
 10
13.03
 20
35.43161038841291
 30
0.0
 10
13.05904068229164
 20
35.4108851273387
 30
0.0
 10
13.08275209483378
 20
35.37953864703775
 30
0.0
 10
13.11609658322839
 20
35.28872072742523
 30
0.0
 10
13.12492140067851
 20
35.23076880196017
 30
0.0
 10
13.12507754968093
 20
35.08956907537859
 30
0.0
 10
13.1161505320929
 20
35.00648906177568
 30
0.0
 10
13.08319562521659
 20
34.82779421025374
 30
0.0
 10
13.05911019949692
 20
34.73111937885588
 30
0.0
 10
13.02999999999999
 20
34.63242923389119
 30
0.0
  0
SPLINE
  5
1BF
330
1F
100
AcDbEntity
  8
1
  6
SLD-Solid
370
    25
100
AcDbSpline
210
0.0
220
0.0
230
1.0
 70
     8
 71
     3
 72
    12
 73
     8
 74
     0
 42
0.000000001
 43
0.00000001
 40
0.0
 40
0.0
 40
0.0
 40
0.0
 40
0.2500000000000032
 40
0.2500000000000032
 40
0.5000000000000063
 40
0.5000000000000063
 40
1.0
 40
1.0
 40
1.0
 40
1.0
 10
12.28000000000001
 20
-43.76943596849289
 30
0.0
 10
12.37996960464109
 20
-43.76943596849289
 30
0.0
 10
12.47988502523369
 20
-43.79051518316405
 30
0.0
 10
12.66449294223869
 20
-43.8719426284369
 30
0.0
 10
12.74728498815325
 20
-43.93126060501208
 30
0.0
 10
12.95342033959715
 20
-44.15080408372864
 30
0.0
 10
13.03
 20
-44.35163254795799
 30
0.0
 10
13.03
 20
-44.55102159322501
 30
0.0
  0
SPLINE
  5
1C0
330
1F
100
AcDbEntity
  8
1
  6
SLD-Solid
370
    25
100
AcDbSpline
210
0.0
220
0.0
230
1.0
 70
     8
 71
     3
 72
    16
 73
    12
 74
     0
 42
0.000000001
 43
0.00000001
 40
0.0
 40
0.0
 40
0.0
 40
0.0
 40
0.1250000000000001
 40
0.1250000000000001
 40
0.2500000000000003
 40
0.2500000000000003
 40
0.5000000000000002
 40
0.5000000000000002
 40
0.7500000000000001
 40
0.7500000000000001
 40
1.0
 40
1.0
 40
1.0
 40
1.0
 10
13.03
 20
34.61214293353756
 30
0.0
 10
13.03000000000001
 20
34.56119277402757
 30
0.0
 10
13.02067456260611
 20
34.49413963137994
 30
0.0
 10
12.99367590047851
 20
34.36331338142201
 30
0.0
 10
12.97626449755333
 20
34.29908556562461
 30
0.0
 10
12.91545405813532
 20
34.11096290842622
 30
0.0
 10
12.86271449633858
 20
33.99023971150843
 30
0.0
 10
12.73634152951908
 20
33.76817627154973
 30
0.0
 10
12.66098841639739
 20
33.66394234496747
 30
0.0
 10
12.48671204537782
 20
33.48358218869542
 30
0.0
 10
12.38972674335427
 20
33.40848998465462
 30
0.0
 10
12.28000000000001
 20
33.35547071674118
 30
0.0
  0
SPLINE
  5
1C1
330
1F
100
AcDbEntity
  8
1
  6
SLD-Solid
370
    25
100
AcDbSpline
210
0.0
220
0.0
230
1.0
 70
     8
 71
     3
 72
    12
 73
     8
 74
     0
 42
0.000000001
 43
0.00000001
 40
0.0
 40
0.0
 40
0.0
 40
0.0
 40
0.5
 40
0.5
 40
0.75
 40
0.75
 40
1.0
 40
1.0
 40
1.0
 40
1.0
 10
9.199999999999985
 20
-44.551021593225
 30
0.0
 10
9.199999999999985
 20
-44.35094747116168
 30
0.0
 10
9.277613070150126
 20
-44.14958800989077
 30
0.0
 10
9.48251103730058
 20
-43.93153570225752
 30
0.0
 10
9.566272299852297
 20
-43.8716260625976
 30
0.0
 10
9.749092094904377
 20
-43.79094541821727
 30
0.0
 10
9.849426682175643
 20
-43.76943596849291
 30
0.0
 10
9.949999999999987
 20
-43.7694359684929
 30
0.0
  0
SPLINE
  5
1C2
330
1F
100
AcDbEntity
  8
1
  6
SLD-Solid
370
    25
100
AcDbSpline
210
0.0
220
0.0
230
1.0
 70
     8
 71
     3
 72
    16
 73
    12
 74
     0
 42
0.000000001
 43
0.00000001
 40
0.0
 40
0.0
 40
0.0
 40
0.0
 40
0.2499999999999967
 40
0.2499999999999967
 40
0.4999999999999934
 40
0.4999999999999934
 40
0.7499999999999902
 40
0.7499999999999902
 40
0.8749999999999951
 40
0.8749999999999951
 40
1.0
 40
1.0
 40
1.0
 40
1.0
 10
9.949999999999987
 20
33.36525953046024
 30
0.0
 10
9.839257595210649
 20
33.42015914282664
 30
0.0
 10
9.740416734001458
 20
33.49854219709403
 30
0.0
 10
9.564708009184075
 20
33.68553569890509
 30
0.0
 10
9.490830483266114
 20
33.79082769792041
 30
0.0
 10
9.364658348120017
 20
34.01955880125703
 30
0.0
 10
9.312951425518134
 20
34.14247439570436
 30
0.0
 10
9.253206550793827
 20
34.3348846178598
 30
0.0
 10
9.236028623043957
 20
34.40121962580661
 30
0.0
 10
9.209723703057032
 20
34.53368853253287
 30
0.0
 10
9.2
 20
34.60516910831217
 30
0.0
 10
9.2
 20
34.65640299543514
 30
0.0
  0
SPLINE
  5
1C3
330
1F
100
AcDbEntity
  8
1
  6
SLD-Solid
370
    25
100
AcDbSpline
210
0.0
220
0.0
230
1.0
 70
     8
 71
     3
 72
    12
 73
     8
 74
     0
 42
0.000000001
 43
0.00000001
 40
0.0
 40
0.0
 40
0.0
 40
0.0
 40
0.2500000000000006
 40
0.2500000000000006
 40
0.5000000000000011
 40
0.5000000000000011
 40
1.0
 40
1.0
 40
1.0
 40
1.0
 10
12.28000000000001
 20
33.35547071674118
 30
0.0
 10
12.10934456477528
 20
33.27301109054177
 30
0.0
 10
11.92465326465505
 20
33.21019284332252
 30
0.0
 10
11.52752277837883
 20
33.12414278909399
 30
0.0
 10
11.32193513118783
 20
33.10278110396342
 30
0.0
 10
10.69948105299426
 20
33.10504385732293
 30
0.0
 10
10.28831449591983
 20
33.19754297491613
 30
0.0
 10
9.949999999999987
 20
33.36525953046024
 30
0.0
  0
SPLINE
  5
1C4
330
1F
100
AcDbEntity
  8
1
  6
SLD-Solid
370
    25
100
AcDbSpline
210
0.0
220
0.0
230
1.0
 70
     8
 71
     3
 72
    16
 73
    12
 74
     0
 42
0.000000001
 43
0.00000001
 40
0.0
 40
0.0
 40
0.0
 40
0.0
 40
0.1250000000000023
 40
0.1250000000000023
 40
0.2500000000000046
 40
0.2500000000000046
 40
0.5000000000000031
 40
0.5000000000000031
 40
0.7500000000000016
 40
0.7500000000000016
 40
1.0
 40
1.0
 40
1.0
 40
1.0
 10
9.200000000002262
 20
35.36831017815611
 30
0.0
 10
9.200000000002262
 20
35.31693147875156
 30
0.0
 10
9.209688078859537
 20
35.29149399689032
 30
0.0
 10
9.236073415531509
 20
35.26518486787037
 30
0.0
 10
9.253070624736889
 20
35.26193032552648
 30
0.0
 10
9.313034815209024
 20
35.26168910608328
 30
0.0
 10
9.363922455821447
 20
35.27477154515099
 30
0.0
 10
9.49005452554398
 20
35.31156519648358
 30
0.0
 10
9.565092430037724
 20
35.33621653959831
 30
0.0
 10
9.7389246472655
 20
35.39932894997412
 30
0.0
 10
9.83944594635
 20
35.4383469283161
 30
0.0
 10
9.949999999999987
 20
35.48885481142474
 30
0.0
  0
SPLINE
  5
1C5
330
1F
100
AcDbEntity
  8
1
  6
SLD-Solid
370
    25
100
AcDbSpline
210
0.0
220
0.0
230
1.0
 70
     8
 71
     3
 72
    12
 73
     8
 74
     0
 42
0.000000001
 43
0.00000001
 40
0.0
 40
0.0
 40
0.0
 40
0.0
 40
0.25
 40
0.25
 40
0.5
 40
0.5
 40
1.0
 40
1.0
 40
1.0
 40
1.0
 10
9.949999999999987
 20
35.48885481142474
 30
0.0
 10
10.11915676939237
 20
35.56613601508452
 30
0.0
 10
10.30270770519946
 20
35.62476545355776
 30
0.0
 10
10.6982656039511
 20
35.70597605697656
 30
0.0
 10
10.90345647830329
 20
35.72681273192289
 30
0.0
 10
11.52590240230555
 20
35.72953904175431
 30
0.0
 10
11.93868796900774
 20
35.6497479244547
 30
0.0
 10
12.28000000000001
 20
35.49787263615899
 30
0.0
  0
SPLINE
  5
1C6
330
1F
100
AcDbEntity
  8
1
  6
SLD-Solid
370
    25
100
AcDbSpline
210
0.0
220
0.0
230
1.0
 70
     8
 71
     3
 72
    16
 73
    12
 74
     0
 42
0.000000001
 43
0.00000001
 40
0.0
 40
0.0
 40
0.0
 40
0.0
 40
0.2500000000000002
 40
0.2500000000000002
 40
0.5000000000000004
 40
0.5000000000000004
 40
0.7500000000000007
 40
0.7500000000000007
 40
0.8750000000000003
 40
0.8750000000000003
 40
1.0
 40
1.0
 40
1.0
 40
1.0
 10
12.28000000000001
 20
35.49787263615899
 30
0.0
 10
12.38938127142809
 20
35.4492007153832
 30
0.0
 10
12.48719790588469
 20
35.41256913935559
 30
0.0
 10
12.66235653858859
 20
35.35237067244714
 30
0.0
 10
12.73630362704299
 20
35.33005450148763
 30
0.0
 10
12.86322577731738
 20
35.29810085202676
 30
0.0
 10
12.91570572130093
 20
35.28773767542291
 30
0.0
 10
12.97658934509431
 20
35.29443860847592
 30
0.0
 10
12.99409980251968
 20
35.30029296727562
 30
0.0
 10
13.02084597296049
 20
35.33271449864374
 30
0.0
 10
13.03000000000001
 20
35.36068432142829
 30
0.0
 10
13.03
 20
35.41132408805678
 30
0.0
  0
SPLINE
  5
1C7
330
1F
100
AcDbEntity
  8
1
  6
SLD-Solid
370
    25
100
AcDbSpline
210
0.0
220
0.0
230
1.0
 70
     8
 71
     3
 72
    16
 73
    12
 74
     0
 42
0.000000001
 43
0.00000001
 40
0.0
 40
0.0
 40
0.0
 40
0.0
 40
0.2499999999999998
 40
0.2499999999999998
 40
0.4999999999999996
 40
0.4999999999999996
 40
0.7499999999999993
 40
0.7499999999999993
 40
0.8749999999999997
 40
0.8749999999999997
 40
1.0
 40
1.0
 40
1.0
 40
1.0
 10
9.949999999999987
 20
40.29017607249211
 30
0.0
 10
9.839257595210663
 20
40.32798470963447
 30
0.0
 10
9.740416734001458
 20
40.3908153101238
 30
0.0
 10
9.56470800918409
 20
40.54795546550073
 30
0.0
 10
9.490830483266114
 20
40.63949231484412
 30
0.0
 10
9.364658348120031
 20
40.84247699029049
 30
0.0
 10
9.312951425518134
 20
40.95326880810711
 30
0.0
 10
9.253206550793827
 20
41.13218036853984
 30
0.0
 10
9.236028623043957
 20
41.19470581500533
 30
0.0
 10
9.209723703057032
 20
41.32469951294973
 30
0.0
 10
9.2
 20
41.39783900363278
 30
0.0
 10
9.2
 20
41.45885414630704
 30
0.0
  0
SPLINE
  5
1C8
330
1F
100
AcDbEntity
  8
1
  6
SLD-Solid
370
    25
100
AcDbSpline
210
0.0
220
0.0
230
1.0
 70
     8
 71
     3
 72
    16
 73
    12
 74
     0
 42
0.000000001
 43
0.00000001
 40
0.0
 40
0.0
 40
0.0
 40
0.0
 40
0.1250000000000039
 40
0.1250000000000039
 40
0.2500000000000078
 40
0.2500000000000078
 40
0.5000000000000051
 40
0.5000000000000051
 40
0.7500000000000026
 40
0.7500000000000026
 40
1.0
 40
1.0
 40
1.0
 40
1.0
 10
13.02999999999832
 20
41.42895438114483
 30
0.0
 10
13.02999999999833
 20
41.36827713359745
 30
0.0
 10
13.02067456260443
 20
41.29860125514491
 30
0.0
 10
12.99367590047683
 20
41.16856540733184
 30
0.0
 10
12.97626449755165
 20
41.10738101936694
 30
0.0
 10
12.91545405813364
 20
40.93079740642487
 30
0.0
 10
12.8627144963369
 20
40.82130212611717
 30
0.0
 10
12.7363415295174
 20
40.62320356046919
 30
0.0
 10
12.66098841639572
 20
40.53226162144242
 30
0.0
 10
12.48671204537614
 20
40.3802749838428
 30
0.0
 10
12.38972674335259
 20
40.31995671599527
 30
0.0
 10
12.27999999999833
 20
40.2834337913245
 30
0.0
  0
SPLINE
  5
1C9
330
1F
100
AcDbEntity
  8
1
  6
SLD-Solid
370
    25
100
AcDbSpline
210
0.0
220
0.0
230
1.0
 70
     8
 71
     3
 72
    12
 73
     8
 74
     0
 42
0.000000001
 43
0.00000001
 40
0.0
 40
0.0
 40
0.0
 40
0.0
 40
0.25
 40
0.25
 40
0.5
 40
0.5
 40
1.0
 40
1.0
 40
1.0
 40
1.0
 10
12.27999999999833
 20
40.2834337913245
 30
0.0
 10
12.1093445647736
 20
40.2266305415894
 30
0.0
 10
11.92465326465338
 20
40.18318651206279
 30
0.0
 10
11.52752277837717
 20
40.12362389225038
 30
0.0
 10
11.32193513118616
 20
40.10880147711192
 30
0.0
 10
10.69948105299261
 20
40.11037023230933
 30
0.0
 10
10.28831449592008
 20
40.1746718982731
 30
0.0
 10
9.949999999999987
 20
40.29017607249211
 30
0.0
  0
SPLINE
  5
1CA
330
1F
100
AcDbEntity
  8
1
  6
SLD-Solid
370
    25
100
AcDbSpline
210
0.0
220
0.0
230
1.0
 70
     8
 71
     3
 72
    16
 73
    12
 74
     0
 42
0.000000001
 43
0.00000001
 40
0.0
 40
0.0
 40
0.0
 40
0.0
 40
0.1250000000000007
 40
0.1250000000000007
 40
0.2500000000000013
 40
0.2500000000000013
 40
0.5000000000000009
 40
0.5000000000000009
 40
0.7500000000000004
 40
0.7500000000000004
 40
1.0
 40
1.0
 40
1.0
 40
1.0
 10
9.199999999999985
 20
41.93454239124897
 30
0.0
 10
9.200000000002499
 20
41.87335478963722
 30
0.0
 10
9.209688078861259
 20
41.83111047963452
 30
0.0
 10
9.236073415534632
 20
41.77192904688972
 30
0.0
 10
9.25307062474047
 20
41.75174455463429
 30
0.0
 10
9.313034815213324
 20
41.70102846576506
 30
0.0
 10
9.363922455825819
 20
41.68155707128332
 30
0.0
 10
9.490054525547908
 20
41.65587219504386
 30
0.0
 10
9.565092430040917
 20
41.65088437918838
 30
0.0
 10
9.738924647266611
 20
41.661139619114
 30
0.0
 10
9.839445946349585
 20
41.67651281331742
 30
0.0
 10
9.949999999997711
 20
41.70913817421309
 30
0.0
  0
SPLINE
  5
1CB
330
1F
100
AcDbEntity
  8
1
  6
SLD-Solid
370
    25
100
AcDbSpline
210
0.0
220
0.0
230
1.0
 70
     8
 71
     3
 72
    12
 73
     8
 74
     0
 42
0.000000001
 43
0.00000001
 40
0.0
 40
0.0
 40
0.0
 40
0.0
 40
0.25
 40
0.25
 40
0.5
 40
0.5
 40
1.0
 40
1.0
 40
1.0
 40
1.0
 10
9.949999999997711
 20
41.70913817421309
 30
0.0
 10
10.11915676938994
 20
41.75905765221761
 30
0.0
 10
10.30270770519866
 20
41.7967364999886
 30
0.0
 10
10.69826560394987
 20
41.84886357628231
 30
0.0
 10
10.90345647830172
 20
41.86219397810193
 30
0.0
 10
11.52590240230297
 20
41.86393994691688
 30
0.0
 10
11.93868796900434
 20
41.81303425518007
 30
0.0
 10
12.27999999999606
 20
41.71496227396705
 30
0.0
  0
SPLINE
  5
1CC
330
1F
100
AcDbEntity
  8
1
  6
SLD-Solid
370
    25
100
AcDbSpline
210
0.0
220
0.0
230
1.0
 70
     8
 71
     3
 72
    16
 73
    12
 74
     0
 42
0.000000001
 43
0.00000001
 40
0.0
 40
0.0
 40
0.0
 40
0.0
 40
0.2500000000000007
 40
0.2500000000000007
 40
0.5000000000000013
 40
0.5000000000000013
 40
0.750000000000002
 40
0.750000000000002
 40
0.875000000000001
 40
0.875000000000001
 40
1.0
 40
1.0
 40
1.0
 40
1.0
 10
12.27999999999606
 20
41.71496227396705
 30
0.0
 10
12.38938127142412
 20
41.68353285741415
 30
0.0
 10
12.48719790588074
 20
41.66923447164881
 30
0.0
 10
12.66235653858464
 20
41.66075308180611
 30
0.0
 10
12.73630362703904
 20
41.66679667497374
 30
0.0
 10
12.86322577731343
 20
41.69542238628978
 30
0.0
 10
12.91570572129698
 20
41.71723646207175
 30
0.0
 10
12.97658934509037
 20
41.77277628648038
 30
0.0
 10
12.99409980251573
 20
41.79517110958683
 30
0.0
 10
13.02084597295654
 20
41.85934368895601
 30
0.0
 10
13.02999999999605
 20
41.90265050045376
 30
0.0
 10
13.02999999999605
 20
41.96295809683836
 30
0.0
  0
SPLINE
  5
1CD
330
1F
100
AcDbEntity
  8
1
  6
SLD-Solid
370
    25
100
AcDbSpline
210
0.0
220
0.0
230
1.0
 70
     8
 71
     3
 72
    12
 73
     8
 74
     0
 42
0.000000001
 43
0.00000001
 40
0.0
 40
0.0
 40
0.0
 40
0.0
 40
0.5
 40
0.5
 40
0.75
 40
0.75
 40
1.0
 40
1.0
 40
1.0
 40
1.0
 10
9.199999999999985
 20
44.55102159322501
 30
0.0
 10
9.199999999999985
 20
44.35104831812288
 30
0.0
 10
9.276003966817326
 20
44.1515082673653
 30
0.0
 10
9.4827590401535
 20
43.93116827137959
 30
0.0
 10
9.566857937314932
 20
43.87128621650868
 30
0.0
 10
9.749511247261145
 20
43.79084228716471
 30
0.0
 10
9.8501562428705
 20
43.76943596849257
 30
0.0
 10
9.950000000002401
 20
43.76943596849289
 30
0.0
  0
SPLINE
  5
1CE
330
1F
100
AcDbEntity
  8
1
  6
SLD-Solid
370
    25
100
AcDbSpline
210
0.0
220
0.0
230
1.0
 70
     8
 71
     3
 72
    10
 73
     6
 74
     0
 42
0.000000001
 43
0.00000001
 40
0.0
 40
0.0
 40
0.0
 40
0.0
 40
0.5
 40
0.5
 40
1.0
 40
1.0
 40
1.0
 40
1.0
 10
12.28000000000001
 20
43.76943596849289
 30
0.0
 10
12.48122846377883
 20
43.76943596849291
 30
0.0
 10
12.67900932610888
 20
43.85856672856717
 30
0.0
 10
12.95290221427664
 20
44.1502294699326
 30
0.0
 10
13.03
 20
44.34957328976746
 30
0.0
 10
13.03
 20
44.55102159322501
 30
0.0
  0
SPLINE
  5
1CF
330
1F
100
AcDbEntity
  8
SK3
  6
SLD-Dashed
370
    18
100
AcDbSpline
210
0.0
220
0.0
230
1.0
 70
     8
 71
     3
 72
    30
 73
    26
 74
     0
 42
0.000000001
 43
0.00000001
 40
0.4999999999999934
 40
0.4999999999999934
 40
0.4999999999999934
 40
0.4999999999999934
 40
0.5624999999999941
 40
0.5624999999999941
 40
0.6249999999999949
 40
0.6249999999999949
 40
0.6874999999999956
 40
0.6874999999999956
 40
0.7499999999999962
 40
0.7499999999999962
 40
0.7812499999999968
 40
0.7812499999999968
 40
0.8124999999999972
 40
0.8124999999999972
 40
0.8437499999999977
 40
0.8437499999999977
 40
0.8749999999999981
 40
0.8749999999999981
 40
0.9062499999999986
 40
0.9062499999999986
 40
0.9374999999999991
 40
0.9374999999999991
 40
0.9687499999999996
 40
0.9687499999999996
 40
1.0
 40
1.0
 40
1.0
 40
1.0
 10
9.602846279599758
 20
-14.27915034605704
 30
0.0
 10
9.68645653869378
 20
-14.42125418637641
 30
0.0
 10
9.797407143447831
 20
-14.51131733768216
 30
0.0
 10
10.04010223607203
 20
-14.63242374926582
 30
0.0
 10
10.1757110634753
 20
-14.66434400040093
 30
0.0
 10
10.46843928875954
 20
-14.68785090664331
 30
0.0
 10
10.62555865364896
 20
-14.68003033606002
 30
0.0
 10
10.98145473780837
 20
-14.62436653420487
 30
0.0
 10
11.18157682258664
 20
-14.57632221838472
 30
0.0
 10
11.50801002825756
 20
-14.45860893436551
 30
0.0
 10
11.61873162334194
 20
-14.41242944660509
 30
0.0
 10
11.84220113938106
 20
-14.30063256215536
 30
0.0
 10
11.95412269444689
 20
-14.23490090158666
 30
0.0
 10
12.16107863552153
 20
-14.08747705033184
 30
0.0
 10
12.25901625186734
 20
-14.00366784802364
 30
0.0
 10
12.43052677631518
 20
-13.82249974419394
 30
0.0
 10
12.50593330594163
 20
-13.72350506925877
 30
0.0
 10
12.63000303324958
 20
-13.51367430078406
 30
0.0
 10
12.67841410243614
 20
-13.4039848685676
 30
0.0
 10
12.74789370637347
 20
-13.17359881812364
 30
0.0
 10
12.76810124630629
 20
-13.05468203931826
 30
0.0
 10
12.77891027826544
 20
-12.81644825424548
 30
0.0
 10
12.76940813581851
 20
-12.6944951290838
 30
0.0
 10
12.72129905847914
 20
-12.4581725963389
 30
0.0
 10
12.68301625646433
 20
-12.34304803310331
 30
0.0
 10
12.63040931107567
 20
-12.23233436389472
 30
0.0
  0
SPLINE
  5
1D0
330
1F
100
AcDbEntity
  8
SK3
  6
SLD-Dashed
370
    18
100
AcDbSpline
210
0.0
220
0.0
230
1.0
 70
     8
 71
     3
 72
    30
 73
    26
 74
     0
 42
0.000000001
 43
0.00000001
 40
0.0
 40
0.0
 40
0.0
 40
0.0
 40
0.0312499999999991
 40
0.0312499999999991
 40
0.0624999999999983
 40
0.0624999999999983
 40
0.0937499999999974
 40
0.0937499999999974
 40
0.1249999999999965
 40
0.1249999999999965
 40
0.187499999999996
 40
0.187499999999996
 40
0.2499999999999955
 40
0.2499999999999955
 40
0.312499999999995
 40
0.312499999999995
 40
0.3749999999999944
 40
0.3749999999999944
 40
0.4062499999999942
 40
0.4062499999999942
 40
0.4374999999999939
 40
0.4374999999999939
 40
0.4687499999999937
 40
0.4687499999999937
 40
0.4999999999999934
 40
0.4999999999999934
 40
0.4999999999999934
 40
0.4999999999999934
 10
12.63040931107569
 20
-12.23233436389471
 30
0.0
 10
12.57780236568705
 20
-12.12162069468613
 30
0.0
 10
12.5126720645931
 20
-12.01896209858507
 30
0.0
 10
12.35821503903348
 20
-11.83123217673027
 30
0.0
 10
12.2680065585952
 20
-11.74609765066667
 30
0.0
 10
12.07343499093627
 20
-11.60605794329098
 30
0.0
 10
11.96643370486067
 20
-11.54920121804521
 30
0.0
 10
11.74573264298215
 20
-11.46981719393691
 30
0.0
 10
11.63406552497762
 20
-11.44748668283023
 30
0.0
 10
11.29951801742689
 20
-11.42770686560523
 30
0.0
 10
11.09198428069952
 20
-11.47806879673263
 30
0.0
 10
10.7221784409165
 20
-11.64236243808864
 30
0.0
 10
10.55844908096595
 20
-11.75496051093637
 30
0.0
 10
10.25324958882709
 20
-12.02428585488716
 30
0.0
 10
10.11576882260312
 20
-12.17795893248198
 30
0.0
 10
9.86252561936532
 20
-12.52988094775973
 30
0.0
 10
9.746260896402015
 20
-12.72918710194007
 30
0.0
 10
9.605692660850485
 20
-13.06645756895029
 30
0.0
 10
9.565421636406112
 20
-13.18319961587417
 30
0.0
 10
9.503286004234626
 20
-13.4293677611186
 30
0.0
 10
9.482363995141297
 20
-13.5575206983002
 30
0.0
 10
9.47090841224374
 20
-13.8054679971878
 30
0.0
 10
9.480664817462667
 20
-13.92083957613647
 30
0.0
 10
9.525951505689648
 20
-14.1223947507326
 30
0.0
 10
9.561041150052754
 20
-14.20809842589734
 30
0.0
 10
9.602846279599758
 20
-14.27915034605704
 30
0.0
  0
SPLINE
  5
1D1
330
1F
100
AcDbEntity
  8
SK3
  6
SLD-Dashed
370
    18
100
AcDbSpline
210
0.0
220
0.0
230
1.0
 70
     8
 71
     3
 72
    26
 73
    22
 74
     0
 42
0.000000001
 43
0.00000001
 40
0.5000000000000062
 40
0.5000000000000062
 40
0.5000000000000062
 40
0.5000000000000062
 40
0.5625000000000058
 40
0.5625000000000058
 40
0.6250000000000051
 40
0.6250000000000051
 40
0.6562500000000046
 40
0.6562500000000046
 40
0.687500000000004
 40
0.687500000000004
 40
0.7187500000000034
 40
0.7187500000000034
 40
0.7500000000000029
 40
0.7500000000000029
 40
0.8125000000000022
 40
0.8125000000000022
 40
0.8750000000000014
 40
0.8750000000000014
 40
0.9375000000000008
 40
0.9375000000000008
 40
1.0
 40
1.0
 40
1.0
 40
1.0
 10
11.6386983177957
 20
-9.819390371339235
 30
0.0
 10
11.80317915771348
 20
-9.806594466981586
 30
0.0
 10
11.95081782962319
 20
-9.812432081454693
 30
0.0
 10
12.2261629968525
 20
-9.868839301599
 30
0.0
 10
12.35236515469922
 20
-9.918953620877927
 30
0.0
 10
12.5187466142634
 20
-10.04837289060637
 30
0.0
 10
12.57051953396256
 20
-10.10115000339699
 30
0.0
 10
12.66070184098388
 20
-10.23071744026809
 30
0.0
 10
12.70001796005849
 20
-10.30921538460779
 30
0.0
 10
12.7562433913955
 20
-10.4949325806605
 30
0.0
 10
12.7732316530057
 20
-10.60488156995158
 30
0.0
 10
12.7764946288975
 20
-10.84110300053568
 30
0.0
 10
12.7627867066929
 20
-10.96977043023329
 30
0.0
 10
12.68516730486993
 20
-11.34647137591013
 30
0.0
 10
12.58996305158962
 20
-11.58088814423496
 30
0.0
 10
12.3731560345373
 20
-11.98947715399204
 30
0.0
 10
12.24747178673946
 20
-12.17132846963892
 30
0.0
 10
11.97676737519453
 20
-12.48981349043031
 30
0.0
 10
11.8310268635477
 20
-12.62828009284685
 30
0.0
 10
11.50508373269932
 20
-12.8627635157944
 30
0.0
 10
11.32747339457477
 20
-12.95749122616766
 30
0.0
 10
11.12500000000001
 20
-13.01159523973386
 30
0.0
  0
SPLINE
  5
1D2
330
1F
100
AcDbEntity
  8
SK3
  6
SLD-Dashed
370
    18
100
AcDbSpline
210
0.0
220
0.0
230
1.0
 70
     8
 71
     3
 72
    34
 73
    30
 74
     0
 42
0.000000001
 43
0.00000001
 40
0.0
 40
0.0
 40
0.0
 40
0.0
 40
0.0312500000000005
 40
0.0312500000000005
 40
0.0625000000000011
 40
0.0625000000000011
 40
0.0937500000000016
 40
0.0937500000000016
 40
0.1250000000000022
 40
0.1250000000000022
 40
0.1562500000000027
 40
0.1562500000000027
 40
0.1875000000000032
 40
0.1875000000000032
 40
0.2187500000000038
 40
0.2187500000000038
 40
0.2500000000000043
 40
0.2500000000000043
 40
0.2812500000000049
 40
0.2812500000000049
 40
0.3125000000000054
 40
0.3125000000000054
 40
0.3750000000000063
 40
0.3750000000000063
 40
0.4062500000000066
 40
0.4062500000000066
 40
0.4375000000000068
 40
0.4375000000000068
 40
0.5000000000000062
 40
0.5000000000000062
 40
0.5000000000000062
 40
0.5000000000000062
 10
11.12500000000001
 20
-13.01159523973386
 30
0.0
 10
11.02376330271265
 20
-13.03864724651695
 30
0.0
 10
10.91875434041334
 20
-13.05441768585465
 30
0.0
 10
10.6998219372948
 20
-13.05649587060871
 30
0.0
 10
10.58565504429784
 20
-13.04203538439391
 30
0.0
 10
10.36433306908852
 20
-12.97958779527628
 30
0.0
 10
10.25386240054307
 20
-12.93066318687884
 30
0.0
 10
10.04998753866614
 20
-12.80335962284303
 30
0.0
 10
9.955887873021013
 20
-12.72514830576758
 30
0.0
 10
9.789076352163569
 20
-12.54575166602605
 30
0.0
 10
9.71802220267208
 20
-12.44674722204856
 30
0.0
 10
9.600536001433193
 20
-12.23250861951093
 30
0.0
 10
9.555159683901222
 20
-12.11851015366411
 30
0.0
 10
9.49353895391432
 20
-11.88585378314764
 30
0.0
 10
9.476799814585963
 20
-11.76451266100636
 30
0.0
 10
9.473480888754688
 20
-11.52533259241783
 30
0.0
 10
9.486354225371821
 20
-11.40705029377199
 30
0.0
 10
9.541906609790443
 20
-11.17282024047877
 30
0.0
 10
9.583939125903788
 20
-11.06025657731945
 30
0.0
 10
9.694361385739578
 20
-10.84625731946299
 30
0.0
 10
9.764046986917352
 20
-10.74326010657129
 30
0.0
 10
10.00399120049177
 20
-10.46156575413967
 30
0.0
 10
10.21277179464265
 20
-10.30327029353937
 30
0.0
 10
10.5444699112901
 20
-10.12219171688679
 30
0.0
 10
10.6592589859006
 20
-10.07012567259635
 30
0.0
 10
10.87934718809659
 20
-9.984066675225895
 30
0.0
 10
10.98764418607853
 20
-9.94872682514817
 30
0.0
 10
11.29210738731387
 20
-9.863765363482678
 30
0.0
 10
11.47421747787791
 20
-9.832186275696882
 30
0.0
 10
11.6386983177957
 20
-9.819390371339235
 30
0.0
  0
SPLINE
  5
1D3
330
1F
100
AcDbEntity
  8
SK3
  6
SLD-Dashed
370
    18
100
AcDbSpline
210
0.0
220
0.0
230
1.0
 70
    24
 71
     3
 72
    10
 73
     6
 74
     0
 42
0.000000001
 43
0.00000001
 40
0.0
 40
0.0
 40
0.0
 40
0.0
 40
0.0436941343065927
 40
0.6444699485407558
 40
1.0
 40
1.0
 40
1.0
 40
1.0
 10
19.05000000000001
 20
-35.10000000000001
 30
0.0
 10
19.05022267397677
 20
-35.10000000000002
 30
0.0
 10
19.05350702068889
 20
-35.1
 30
0.0
 10
19.1913324123741
 20
-35.1
 30
0.0
 10
19.25108904692277
 20
-35.10000000000001
 30
0.0
 10
19.2733050346295
 20
-35.10000000000001
 30
0.0
  0
SPLINE
  5
1D4
330
1F
100
AcDbEntity
  8
SK3
  6
SLD-Dashed
370
    18
100
AcDbSpline
210
0.0
220
0.0
230
1.0
 70
    24
 71
     3
 72
     8
 73
     4
 74
     0
 42
0.000000001
 43
0.00000001
 40
0.0
 40
0.0
 40
0.0
 40
0.0
 40
0.5
 40
0.5
 40
0.5
 40
0.5
 10
19.32612700825116
 20
-35.10000000000001
 30
0.0
 10
19.32612099437381
 20
-35.10000000000001
 30
0.0
 10
19.25867540536573
 20
-35.10000000000001
 30
0.0
 10
19.18940169846428
 20
-35.10000000000001
 30
0.0
  0
SPLINE
  5
1D5
330
1F
100
AcDbEntity
  8
SK3
  6
SLD-Dashed
370
    18
100
AcDbSpline
210
0.0
220
0.0
230
1.0
 70
    24
 71
     2
 72
     6
 73
     3
 74
     0
 42
0.000000001
 43
0.00000001
 40
0.5
 40
0.5
 40
0.5
 40
1.0
 40
1.0
 40
1.0
 10
19.18940169846428
 20
-35.10000000000001
 30
0.0
 10
19.12012926184972
 20
-35.1
 30
0.0
 10
19.05000000000001
 20
-35.10000000000001
 30
0.0
  0
SPLINE
  5
1D6
330
1F
100
AcDbEntity
  8
SK3
  6
SLD-Dashed
370
    18
100
AcDbSpline
210
0.0
220
0.0
230
1.0
 70
    24
 71
     2
 72
     6
 73
     3
 74
     0
 42
0.000000001
 43
0.00000001
 40
0.0
 40
0.0
 40
0.0
 40
0.25
 40
0.25
 40
0.25
 10
3.200000000000536
 20
-35.09999999995728
 30
0.0
 10
3.178023089477975
 20
-35.09999999996996
 30
0.0
 10
3.159393676864672
 20
-35.0999999999807
 30
0.0
  0
SPLINE
  5
1D7
330
1F
100
AcDbEntity
  8
1
  6
SLD-Dashed
370
    18
100
AcDbSpline
210
0.0
220
0.0
230
1.0
 70
    24
 71
     3
 72
     8
 73
     4
 74
     0
 42
0.000000001
 43
0.00000001
 40
0.25
 40
0.25
 40
0.25
 40
0.25
 40
0.5
 40
0.5
 40
0.5
 40
0.5
 10
3.159393676864672
 20
-35.0999999999807
 30
0.0
 10
3.140764264251625
 20
-35.09999999999144
 30
0.0
 10
3.125935313376446
 20
-35.10000000000001
 30
0.0
 10
3.12592529748136
 20
-35.10000000000001
 30
0.0
  0
SPLINE
  5
1D8
330
1F
100
AcDbEntity
  8
1
  6
SLD-Dashed
370
    18
100
AcDbSpline
210
0.0
220
0.0
230
1.0
 70
    24
 71
     3
 72
     8
 73
     4
 74
     0
 42
0.000000001
 43
0.00000001
 40
0.5
 40
0.5
 40
0.5
 40
0.5
 40
0.75
 40
0.75
 40
0.75
 40
0.75
 10
3.12592529748136
 20
-35.10000000000001
 30
0.0
 10
3.125915281586261
 20
-35.10000000000002
 30
0.0
 10
3.140736475081146
 20
-35.09999999999147
 30
0.0
 10
3.15937402615353
 20
-35.09999999998072
 30
0.0
  0
SPLINE
  5
1D9
330
1F
100
AcDbEntity
  8
SK3
  6
SLD-Dashed
370
    18
100
AcDbSpline
210
0.0
220
0.0
230
1.0
 70
    24
 71
     2
 72
     6
 73
     3
 74
     0
 42
0.000000001
 43
0.00000001
 40
0.75
 40
0.75
 40
0.75
 40
1.0
 40
1.0
 40
1.0
 10
3.15937402615353
 20
-35.09999999998072
 30
0.0
 10
3.178011577226128
 20
-35.09999999996995
 30
0.0
 10
3.200000000000536
 20
-35.09999999995728
 30
0.0
  0
SPLINE
  5
1DA
330
1F
100
AcDbEntity
  8
SK3
  6
SLD-Dashed
370
    18
100
AcDbSpline
210
0.0
220
0.0
230
1.0
 70
     8
 71
     3
 72
    30
 73
    26
 74
     0
 42
0.000000001
 43
0.00000001
 40
0.5000000000000009
 40
0.5000000000000009
 40
0.5000000000000009
 40
0.5000000000000009
 40
0.5625000000000008
 40
0.5625000000000008
 40
0.6250000000000008
 40
0.6250000000000008
 40
0.6562500000000007
 40
0.6562500000000007
 40
0.6875000000000007
 40
0.6875000000000007
 40
0.7187500000000007
 40
0.7187500000000007
 40
0.7500000000000006
 40
0.7500000000000006
 40
0.7812500000000006
 40
0.7812500000000006
 40
0.8125000000000006
 40
0.8125000000000006
 40
0.8437500000000006
 40
0.8437500000000006
 40
0.8750000000000004
 40
0.8750000000000004
 40
0.9375000000000003
 40
0.9375000000000003
 40
1.0
 40
1.0
 40
1.0
 40
1.0
 10
11.1256340867126
 20
-2.208076131944334
 30
0.0
 10
10.91012831143848
 20
-2.20799405574338
 30
0.0
 10
10.69273190607926
 20
-2.250950739379316
 30
0.0
 10
10.29545710457802
 20
-2.413221511274821
 30
0.0
 10
10.11161887920198
 20
-2.533970605358121
 30
0.0
 10
9.88325685805247
 20
-2.756393500522314
 30
0.0
 10
9.81357030025859
 20
-2.838822643502569
 30
0.0
 10
9.693828420307693
 20
-3.012044829892154
 30
0.0
 10
9.643049505613192
 20
-3.103292515775125
 30
0.0
 10
9.559939885115277
 20
-3.294987142140784
 30
0.0
 10
9.528110569339109
 20
-3.394937637341201
 30
0.0
 10
9.485932078998172
 20
-3.595278526154794
 30
0.0
 10
9.475093311114847
 20
-3.696889173272905
 30
0.0
 10
9.474907881274767
 20
-3.901872321533141
 30
0.0
 10
9.48552400342549
 20
-4.002149034246297
 30
0.0
 10
9.527345716529704
 20
-4.198506717829995
 30
0.0
 10
9.559089732329287
 20
-4.295610098711398
 30
0.0
 10
9.641733638388356
 20
-4.47937067040148
 30
0.0
 10
9.692330936314553
 20
-4.566117382228368
 30
0.0
 10
9.81199406161258
 20
-4.729695673261654
 30
0.0
 10
9.881475262593503
 20
-4.806554854908295
 30
0.0
 10
10.10919445985289
 20
-5.01263959631603
 30
0.0
 10
10.29295795309711
 20
-5.122781885588353
 30
0.0
 10
10.68976853487481
 20
-5.27005508488778
 30
0.0
 10
10.90666257993485
 20
-5.309061659790635
 30
0.0
 10
11.125
 20
-5.309061659790657
 30
0.0
  0
SPLINE
  5
1DB
330
1F
100
AcDbEntity
  8
SK3
  6
SLD-Dashed
370
    18
100
AcDbSpline
210
0.0
220
0.0
230
1.0
 70
     8
 71
     3
 72
    34
 73
    30
 74
     0
 42
0.000000001
 43
0.00000001
 40
0.0
 40
0.0
 40
0.0
 40
0.0
 40
0.0312500000000002
 40
0.0312500000000002
 40
0.0625000000000004
 40
0.0625000000000004
 40
0.0937500000000006
 40
0.0937500000000006
 40
0.1250000000000007
 40
0.1250000000000007
 40
0.1875000000000009
 40
0.1875000000000009
 40
0.2500000000000012
 40
0.2500000000000012
 40
0.2812500000000011
 40
0.2812500000000011
 40
0.3125000000000011
 40
0.3125000000000011
 40
0.3437500000000011
 40
0.3437500000000011
 40
0.375000000000001
 40
0.375000000000001
 40
0.406250000000001
 40
0.406250000000001
 40
0.4375000000000009
 40
0.4375000000000009
 40
0.4687500000000009
 40
0.4687500000000009
 40
0.5000000000000009
 40
0.5000000000000009
 40
0.5000000000000009
 40
0.5000000000000009
 10
11.125
 20
-5.309061659790657
 30
0.0
 10
11.23416871003259
 20
-5.309061659790649
 30
0.0
 10
11.34148252556934
 20
-5.299537349621533
 30
0.0
 10
11.55256160023166
 20
-5.262182100287887
 30
0.0
 10
11.65743203047549
 20
-5.233886962156424
 30
0.0
 10
11.85717198594062
 20
-5.159939537795346
 30
0.0
 10
11.9518821704485
 20
-5.114630280030598
 30
0.0
 10
12.13112457505729
 20
-5.007215473783244
 30
0.0
 10
12.21587296426148
 20
-4.94461166328352
 30
0.0
 10
12.44381779984263
 20
-4.7385981975403
 30
0.0
 10
12.56670516675001
 20
-4.571329361139985
 30
0.0
 10
12.7313866721664
 20
-4.206060482656704
 30
0.0
 10
12.77487792035802
 20
-4.004112810281374
 30
0.0
 10
12.77506064455626
 20
-3.700306253597574
 30
0.0
 10
12.76431481439133
 20
-3.59686797202801
 30
0.0
 10
12.72215926890362
 20
-3.395807648785803
 30
0.0
 10
12.6909702879416
 20
-3.297550131697899
 30
0.0
 10
12.60821939488965
 20
-3.105767645319009
 30
0.0
 10
12.55662183160312
 20
-3.012826865172881
 30
0.0
 10
12.43728120518575
 20
-2.839925186415161
 30
0.0
 10
12.36897548289652
 20
-2.758757585038248
 30
0.0
 10
12.2152520849608
 20
-2.608656191484406
 30
0.0
 10
12.13209058330414
 20
-2.541870610032915
 30
0.0
 10
11.95357507686054
 20
-2.424499981749685
 30
0.0
 10
11.85705358084935
 20
-2.373501415354258
 30
0.0
 10
11.6574094418268
 20
-2.291755408436409
 30
0.0
 10
11.55456819584581
 20
-2.260806334720915
 30
0.0
 10
11.34284591554824
 20
-2.218868681349198
 30
0.0
 10
11.23338697434964
 20
-2.208117170044814
 30
0.0
 10
11.1256340867126
 20
-2.208076131944334
 30
0.0
  0
SPLINE
  5
1DC
330
1F
100
AcDbEntity
  8
SK3
  6
SLD-Dashed
370
    18
100
AcDbSpline
210
0.0
220
0.0
230
1.0
 70
     8
 71
     3
 72
    18
 73
    14
 74
     0
 42
0.000000001
 43
0.00000001
 40
0.0
 40
0.0
 40
0.0
 40
0.0
 40
0.0502196103872353
 40
0.1000870260924192
 40
0.1855086368940137
 40
0.250155080879203
 40
0.3746583157461283
 40
0.499857085379295
 40
0.6242312608259434
 40
0.7494324099488491
 40
0.8740366596179964
 40
0.9370350243166867
 40
1.0
 40
1.0
 40
1.0
 40
1.0
 10
3.69999999999994
 20
46.55608553132444
 30
0.0
 10
3.700143854852873
 20
46.56278755186004
 30
0.0
 10
3.700430555691568
 20
46.5761445910534
 30
0.0
 10
3.703274054818768
 20
46.60076085239343
 30
0.0
 10
3.708850025263292
 20
46.6269232876469
 30
0.0
 10
3.7205141692713
 20
46.66169890756616
 30
0.0
 10
3.739456592416618
 20
46.69941980690714
 30
0.0
 10
3.770128279112259
 20
46.7391843401372
 30
0.0
 10
3.808028636439587
 20
46.77229285140241
 30
0.0
 10
3.851698646431299
 20
46.7972014840948
 30
0.0
 10
3.891711812143359
 20
46.81006094110503
 30
0.0
 10
3.924780356068886
 20
46.81548545401085
 30
0.0
 10
3.94159493769948
 20
46.815997588474
 30
0.0
 10
3.950000000000009
 20
46.81625358783003
 30
0.0
  0
SPLINE
  5
1DD
330
1F
100
AcDbEntity
  8
SK3
  6
SLD-Dashed
370
    18
100
AcDbSpline
210
0.0
220
0.0
230
1.0
 70
     8
 71
     3
 72
    18
 73
    14
 74
     0
 42
0.000000001
 43
0.00000001
 40
0.0
 40
0.0
 40
0.0
 40
0.0
 40
0.0501962867734867
 40
0.1000306214437369
 40
0.1855667331187733
 40
0.2501823892320679
 40
0.3747066158220713
 40
0.4998232982189594
 40
0.6247294758455311
 40
0.7494251058857306
 40
0.8746331028690476
 40
0.9372230808189722
 40
1.0
 40
1.0
 40
1.0
 40
1.0
 10
18.30000000000002
 20
46.81625358782991
 30
0.0
 10
18.30669951182797
 20
46.81609127853694
 30
0.0
 10
18.32005022708196
 20
46.81576783032025
 30
0.0
 10
18.34463922095194
 20
46.81256776526218
 30
0.0
 10
18.37067201462222
 20
46.80630579793124
 30
0.0
 10
18.40500150194893
 20
46.79331555547188
 30
0.0
 10
18.44173939749911
 20
46.77247000397293
 30
0.0
 10
18.47965549617258
 20
46.73942242416841
 30
0.0
 10
18.51041281949079
 20
46.69961163074881
 30
0.0
 10
18.53306634505928
 20
46.65468875110017
 30
0.0
 10
18.54452340204195
 20
46.61434662644384
 30
0.0
 10
18.5493246750575
 20
46.58119847829337
 30
0.0
 10
18.54977466801637
 20
46.56446483112378
 30
0.0
 10
18.54999999999998
 20
46.55608553132446
 30
0.0
  0
SPLINE
  5
1DE
330
1F
100
AcDbEntity
  8
SK3
  6
SLD-Dashed
370
    18
100
AcDbSpline
210
0.0
220
0.0
230
1.0
 70
     8
 71
     3
 72
    30
 73
    26
 74
     0
 42
0.000000001
 43
0.00000001
 40
0.4999999999999997
 40
0.4999999999999997
 40
0.4999999999999997
 40
0.4999999999999997
 40
0.5624999999999998
 40
0.5624999999999998
 40
0.6249999999999998
 40
0.6249999999999998
 40
0.6562499999999998
 40
0.6562499999999998
 40
0.6874999999999999
 40
0.6874999999999999
 40
0.7187499999999999
 40
0.7187499999999999
 40
0.75
 40
0.75
 40
0.78125
 40
0.78125
 40
0.8125000000000001
 40
0.8125000000000001
 40
0.8437500000000001
 40
0.8437500000000001
 40
0.8750000000000002
 40
0.8750000000000002
 40
0.9375000000000001
 40
0.9375000000000001
 40
1.0
 40
1.0
 40
1.0
 40
1.0
 10
11.12436591328741
 20
5.309061551556929
 30
0.0
 10
11.33987168856151
 20
5.309135121894133
 30
0.0
 10
11.55726809392076
 20
5.270777053767752
 30
0.0
 10
11.954542895422
 20
5.124082127907506
 30
0.0
 10
12.13838112079801
 20
5.01435051186401
 30
0.0
 10
12.36674314194752
 20
4.808404051991837
 30
0.0
 10
12.43642969974143
 20
4.731543474868135
 30
0.0
 10
12.5561715796923
 20
4.568463540703782
 30
0.0
 10
12.60695049438682
 20
4.48183647208606
 30
0.0
 10
12.69006011488474
 20
4.297948630822695
 30
0.0
 10
12.72188943066091
 20
4.201137306228619
 30
0.0
 10
12.76406792100183
 20
4.004999015154074
 30
0.0
 10
12.77490668888515
 20
3.904499034786603
 30
0.0
 10
12.77509211872524
 20
3.699534720125415
 30
0.0
 10
12.76447599657451
 20
3.598169916606782
 30
0.0
 10
12.7226542834703
 20
3.397643705646339
 30
0.0
 10
12.69091026767075
 20
3.29740827479124
 30
0.0
 10
12.60826636161165
 20
3.105879249911001
 30
0.0
 10
12.55766906368548
 20
3.014523490936158
 30
0.0
 10
12.43800593838745
 20
2.840798433450336
 30
0.0
 10
12.3685247374065
 20
2.758380635546162
 30
0.0
 10
12.14080554014711
 20
2.535838019871825
 30
0.0
 10
11.95704204690291
 20
2.414653532234787
 30
0.0
 10
11.56023146512519
 20
2.251755559321188
 30
0.0
 10
11.34333742006519
 20
2.208076011197137
 30
0.0
 10
11.125
 20
2.208076011197123
 30
0.0
  0
SPLINE
  5
1DF
330
1F
100
AcDbEntity
  8
SK3
  6
SLD-Dashed
370
    18
100
AcDbSpline
210
0.0
220
0.0
230
1.0
 70
     8
 71
     3
 72
    34
 73
    30
 74
     0
 42
0.000000001
 43
0.00000001
 40
0.0
 40
0.0
 40
0.0
 40
0.0
 40
0.0312500000000001
 40
0.0312500000000001
 40
0.0625000000000001
 40
0.0625000000000001
 40
0.0937500000000002
 40
0.0937500000000002
 40
0.1250000000000002
 40
0.1250000000000002
 40
0.1875
 40
0.1875
 40
0.2499999999999997
 40
0.2499999999999997
 40
0.2812499999999997
 40
0.2812499999999997
 40
0.3124999999999997
 40
0.3124999999999997
 40
0.3437499999999997
 40
0.3437499999999997
 40
0.3749999999999997
 40
0.3749999999999997
 40
0.4062499999999997
 40
0.4062499999999997
 40
0.4374999999999997
 40
0.4374999999999997
 40
0.4687499999999997
 40
0.4687499999999997
 40
0.4999999999999997
 40
0.4999999999999997
 40
0.4999999999999997
 40
0.4999999999999997
 10
11.125
 20
2.208076011197137
 30
0.0
 10
11.0158312899674
 20
2.208076011197137
 30
0.0
 10
10.90851747443067
 20
2.218712438100928
 30
0.0
 10
10.69743839976836
 20
2.260296858835588
 30
0.0
 10
10.59256796952454
 20
2.29175935325996
 30
0.0
 10
10.39282801405937
 20
2.373555205373634
 30
0.0
 10
10.29811782955151
 20
2.42350962822617
 30
0.0
 10
10.11887542494275
 20
2.541114583907885
 30
0.0
 10
10.03412703573853
 20
2.609294845854246
 30
0.0
 10
9.806182200157373
 20
2.831771837438379
 30
0.0
 10
9.683294833250006
 20
3.010016554592668
 30
0.0
 10
9.518613327833588
 20
3.390759943898584
 30
0.0
 10
9.47512207964199
 20
3.597272475835481
 30
0.0
 10
9.474939355443745
 20
3.901097591317404
 30
0.0
 10
9.485685185608702
 20
4.003434499602346
 30
0.0
 10
9.527840731096388
 20
4.200293854804624
 30
0.0
 10
9.55902971205845
 20
4.295473899993282
 30
0.0
 10
9.641780605110354
 20
4.479477843829412
 30
0.0
 10
9.693378168396896
 20
4.56772201717838
 30
0.0
 10
9.81271879481424
 20
4.730510706064034
 30
0.0
 10
9.881024517103528
 20
4.806208116124408
 30
0.0
 10
10.03474791503923
 20
4.945204256680394
 30
0.0
 10
10.11790941669588
 20
5.006521730708598
 30
0.0
 10
10.29642492313948
 20
5.11372891487772
 30
0.0
 10
10.39294641915067
 20
5.1599882395829
 30
0.0
 10
10.59259055817322
 20
5.233890455420346
 30
0.0
 10
10.69543180415419
 20
5.261724005488285
 30
0.0
 10
10.90715408445175
 20
5.299397422676641
 30
0.0
 10
11.01661302565036
 20
5.309024766388323
 30
0.0
 10
11.12436591328741
 20
5.309061551556929
 30
0.0
  0
SPLINE
  5
1E0
330
1F
100
AcDbEntity
  8
SK3
  6
SLD-Dashed
370
    18
100
AcDbSpline
210
0.0
220
0.0
230
1.0
 70
     8
 71
     2
 72
     6
 73
     3
 74
     0
 42
0.000000001
 43
0.00000001
 40
0.0
 40
0.0
 40
0.0
 40
0.0312499999999943
 40
0.0312499999999943
 40
0.0312499999999943
 10
141.1859
 20
6.350000000000001
 30
0.0
 10
141.2207503088723
 20
6.323193392518668
 30
0.0
 10
141.287886631625
 20
6.272220892415762
 30
0.0
  0
SPLINE
  5
1E1
330
1F
100
AcDbEntity
  8
SK3
  6
SLD-Dashed
370
    18
100
AcDbSpline
210
0.0
220
0.0
230
1.0
 70
     8
 71
     3
 72
     8
 73
     4
 74
     0
 42
0.000000001
 43
0.00000001
 40
0.0312499999999943
 40
0.0312499999999943
 40
0.0312499999999943
 40
0.0312499999999943
 40
0.0624999999999886
 40
0.0624999999999886
 40
0.0624999999999886
 40
0.0624999999999886
 10
141.287886631625
 20
6.272220892415762
 30
0.0
 10
141.3550229543776
 20
6.221248392312861
 30
0.0
 10
141.4559849734974
 20
6.144973574219795
 30
0.0
 10
141.5826895828885
 20
6.051437312972315
 30
0.0
  0
SPLINE
  5
1E2
330
1F
100
AcDbEntity
  8
SK3
  6
SLD-Dashed
370
    18
100
AcDbSpline
210
0.0
220
0.0
230
1.0
 70
     8
 71
     3
 72
     8
 73
     4
 74
     0
 42
0.000000001
 43
0.00000001
 40
0.0624999999999886
 40
0.0624999999999886
 40
0.0624999999999886
 40
0.0624999999999886
 40
0.0937499999999829
 40
0.0937499999999829
 40
0.0937499999999829
 40
0.0937499999999829
 10
141.5826895828885
 20
6.051437312972315
 30
0.0
 10
141.7093941922796
 20
5.957901051724834
 30
0.0
 10
141.8637812264068
 20
5.845644976662685
 30
0.0
 10
142.0404941023442
 20
5.72181516071054
 30
0.0
  0
SPLINE
  5
1E3
330
1F
100
AcDbEntity
  8
SK3
  6
SLD-Dashed
370
    18
100
AcDbSpline
210
0.0
220
0.0
230
1.0
 70
     8
 71
     3
 72
     8
 73
     4
 74
     0
 42
0.000000001
 43
0.00000001
 40
0.0937499999999829
 40
0.0937499999999829
 40
0.0937499999999829
 40
0.0937499999999829
 40
0.1249999999999772
 40
0.1249999999999772
 40
0.1249999999999772
 40
0.1249999999999772
 10
142.0404941023442
 20
5.72181516071054
 30
0.0
 10
142.2172069782816
 20
5.597985344758402
 30
0.0
 10
142.4139785932873
 20
5.464075548148366
 30
0.0
 10
142.6305458200541
 20
5.325006861850015
 30
0.0
  0
SPLINE
  5
1E4
330
1F
100
AcDbEntity
  8
SK3
  6
SLD-Dashed
370
    18
100
AcDbSpline
210
0.0
220
0.0
230
1.0
 70
     8
 71
     3
 72
     8
 73
     4
 74
     0
 42
0.000000001
 43
0.00000001
 40
0.1249999999999772
 40
0.1249999999999772
 40
0.1249999999999772
 40
0.1249999999999772
 40
0.1562499999999716
 40
0.1562499999999716
 40
0.1562499999999716
 40
0.1562499999999716
 10
142.6305458200541
 20
5.325006861850015
 30
0.0
 10
142.8471130468209
 20
5.185938175551671
 30
0.0
 10
143.0841480610244
 20
5.041388969144765
 30
0.0
 10
143.3352204349408
 20
4.902352422752061
 30
0.0
  0
SPLINE
  5
1E5
330
1F
100
AcDbEntity
  8
SK3
  6
SLD-Dashed
370
    18
100
AcDbSpline
210
0.0
220
0.0
230
1.0
 70
     8
 71
     3
 72
     8
 73
     4
 74
     0
 42
0.000000001
 43
0.00000001
 40
0.1562499999999716
 40
0.1562499999999716
 40
0.1562499999999716
 40
0.1562499999999716
 40
0.1874999999999659
 40
0.1874999999999659
 40
0.1874999999999659
 40
0.1874999999999659
 10
143.3352204349408
 20
4.902352422752061
 30
0.0
 10
143.5862928088573
 20
4.763315876359364
 30
0.0
 10
143.8530299709392
 20
4.628388880184874
 30
0.0
 10
144.1403396643048
 20
4.506643294928884
 30
0.0
  0
SPLINE
  5
1E6
330
1F
100
AcDbEntity
  8
SK3
  6
SLD-Dashed
370
    18
100
AcDbSpline
210
0.0
220
0.0
230
1.0
 70
     8
 71
     3
 72
     8
 73
     4
 74
     0
 42
0.000000001
 43
0.00000001
 40
0.1874999999999659
 40
0.1874999999999659
 40
0.1874999999999659
 40
0.1874999999999659
 40
0.203124999999963
 40
0.203124999999963
 40
0.203124999999963
 40
0.203124999999963
 10
144.1403396643048
 20
4.506643294928884
 30
0.0
 10
144.2839945109876
 20
4.445770502300876
 30
0.0
 10
144.4335224648905
 20
4.388110015743039
 30
0.0
 10
144.5857128260495
 20
4.336723200504725
 30
0.0
  0
SPLINE
  5
1E7
330
1F
100
AcDbEntity
  8
SK3
  6
SLD-Dashed
370
    18
100
AcDbSpline
210
0.0
220
0.0
230
1.0
 70
     8
 71
     3
 72
     8
 73
     4
 74
     0
 42
0.000000001
 43
0.00000001
 40
0.203124999999963
 40
0.203124999999963
 40
0.203124999999963
 40
0.203124999999963
 40
0.2187499999999602
 40
0.2187499999999602
 40
0.2187499999999602
 40
0.2187499999999602
 10
144.5857128260495
 20
4.336723200504725
 30
0.0
 10
144.7379031872085
 20
4.28533638526641
 30
0.0
 10
144.8934245799275
 20
4.239896757954304
 30
0.0
 10
145.0528109455418
 20
4.202072964660547
 30
0.0
  0
SPLINE
  5
1E8
330
1F
100
AcDbEntity
  8
SK3
  6
SLD-Dashed
370
    18
100
AcDbSpline
210
0.0
220
0.0
230
1.0
 70
     8
 71
     3
 72
     8
 73
     4
 74
     0
 42
0.000000001
 43
0.00000001
 40
0.2187499999999602
 40
0.2187499999999602
 40
0.2187499999999602
 40
0.2187499999999602
 40
0.2499999999999545
 40
0.2499999999999545
 40
0.2499999999999545
 40
0.2499999999999545
 10
145.0528109455418
 20
4.202072964660547
 30
0.0
 10
145.3715836767706
 20
4.126425378073069
 30
0.0
 10
145.7096609734754
 20
4.08268036599839
 30
0.0
 10
146.0422016110823
 20
4.082045076290758
 30
0.0
  0
SPLINE
  5
1E9
330
1F
100
AcDbEntity
  8
SK3
  6
SLD-Dashed
370
    18
100
AcDbSpline
210
0.0
220
0.0
230
1.0
 70
     8
 71
     3
 72
     8
 73
     4
 74
     0
 42
0.000000001
 43
0.00000001
 40
0.2499999999999545
 40
0.2499999999999545
 40
0.2499999999999545
 40
0.2499999999999545
 40
0.2656249999999529
 40
0.2656249999999529
 40
0.2656249999999529
 40
0.2656249999999529
 10
146.0422016110823
 20
4.082045076290758
 30
0.0
 10
146.2084719298857
 20
4.081727431436949
 30
0.0
 10
146.3746122669565
 20
4.091605659725619
 30
0.0
 10
146.5406240025029
 20
4.111416191755812
 30
0.0
  0
SPLINE
  5
1EA
330
1F
100
AcDbEntity
  8
SK3
  6
SLD-Dashed
370
    18
100
AcDbSpline
210
0.0
220
0.0
230
1.0
 70
     8
 71
     3
 72
     8
 73
     4
 74
     0
 42
0.000000001
 43
0.00000001
 40
0.2656249999999529
 40
0.2656249999999529
 40
0.2656249999999529
 40
0.2656249999999529
 40
0.2812499999999513
 40
0.2812499999999513
 40
0.2812499999999513
 40
0.2812499999999513
 10
146.5406240025029
 20
4.111416191755812
 30
0.0
 10
146.7066357380493
 20
4.131226723786005
 30
0.0
 10
146.8720739640284
 20
4.161082971828358
 30
0.0
 10
147.0321605660543
 20
4.198531953851504
 30
0.0
  0
SPLINE
  5
1EB
330
1F
100
AcDbEntity
  8
SK3
  6
SLD-Dashed
370
    18
100
AcDbSpline
210
0.0
220
0.0
230
1.0
 70
     8
 71
     3
 72
     8
 73
     4
 74
     0
 42
0.000000001
 43
0.00000001
 40
0.2812499999999513
 40
0.2812499999999513
 40
0.2812499999999513
 40
0.2812499999999513
 40
0.3124999999999507
 40
0.3124999999999507
 40
0.3124999999999507
 40
0.3124999999999507
 10
147.0321605660543
 20
4.198531953851504
 30
0.0
 10
147.352333770106
 20
4.273429917897801
 30
0.0
 10
147.6600397067073
 20
4.380323568229177
 30
0.0
 10
147.9476601638676
 20
4.501571424239494
 30
0.0
  0
SPLINE
  5
1EC
330
1F
100
AcDbEntity
  8
SK3
  6
SLD-Dashed
370
    18
100
AcDbSpline
210
0.0
220
0.0
230
1.0
 70
     8
 71
     3
 72
     8
 73
     4
 74
     0
 42
0.000000001
 43
0.00000001
 40
0.3124999999999507
 40
0.3124999999999507
 40
0.3124999999999507
 40
0.3124999999999507
 40
0.34374999999995
 40
0.34374999999995
 40
0.34374999999995
 40
0.34374999999995
 10
147.9476601638676
 20
4.501571424239494
 30
0.0
 10
148.2352806210278
 20
4.622819280249817
 30
0.0
 10
148.502889097338
 20
4.757675294647941
 30
0.0
 10
148.7551644801162
 20
4.897034414263604
 30
0.0
  0
SPLINE
  5
1ED
330
1F
100
AcDbEntity
  8
SK3
  6
SLD-Dashed
370
    18
100
AcDbSpline
210
0.0
220
0.0
230
1.0
 70
     8
 71
     3
 72
     8
 73
     4
 74
     0
 42
0.000000001
 43
0.00000001
 40
0.34374999999995
 40
0.34374999999995
 40
0.34374999999995
 40
0.34374999999995
 40
0.3749999999999493
 40
0.3749999999999493
 40
0.3749999999999493
 40
0.3749999999999493
 10
148.7551644801162
 20
4.897034414263604
 30
0.0
 10
149.0074398628944
 20
5.036393533879267
 30
0.0
 10
149.2453821395299
 20
5.181307524838196
 30
0.0
 10
149.4617050274677
 20
5.320034058579711
 30
0.0
  0
SPLINE
  5
1EE
330
1F
100
AcDbEntity
  8
SK3
  6
SLD-Dashed
370
    18
100
AcDbSpline
210
0.0
220
0.0
230
1.0
 70
     8
 71
     3
 72
     8
 73
     4
 74
     0
 42
0.000000001
 43
0.00000001
 40
0.3749999999999493
 40
0.3749999999999493
 40
0.3749999999999493
 40
0.3749999999999493
 40
0.4062499999999486
 40
0.4062499999999486
 40
0.4062499999999486
 40
0.4062499999999486
 10
149.4617050274677
 20
5.320034058579711
 30
0.0
 10
149.6780279154055
 20
5.458760592321248
 30
0.0
 10
149.874763672048
 20
5.592485355579789
 30
0.0
 10
150.051652153227
 20
5.716314472229957
 30
0.0
  0
SPLINE
  5
1EF
330
1F
100
AcDbEntity
  8
SK3
  6
SLD-Dashed
370
    18
100
AcDbSpline
210
0.0
220
0.0
230
1.0
 70
     8
 71
     3
 72
     8
 73
     4
 74
     0
 42
0.000000001
 43
0.00000001
 40
0.4062499999999486
 40
0.4062499999999486
 40
0.4062499999999486
 40
0.4062499999999486
 40
0.4374999999999479
 40
0.4374999999999479
 40
0.4374999999999479
 40
0.4374999999999479
 10
150.051652153227
 20
5.716314472229957
 30
0.0
 10
150.2285406344059
 20
5.840143588880132
 30
0.0
 10
150.3846700901704
 20
5.953570769368956
 30
0.0
 10
150.5120367969788
 20
6.047545251388571
 30
0.0
  0
SPLINE
  5
1F0
330
1F
100
AcDbEntity
  8
SK3
  6
SLD-Dashed
370
    18
100
AcDbSpline
210
0.0
220
0.0
230
1.0
 70
     8
 71
     3
 72
     8
 73
     4
 74
     0
 42
0.000000001
 43
0.00000001
 40
0.4374999999999479
 40
0.4374999999999479
 40
0.4374999999999479
 40
0.4374999999999479
 40
0.453124999999948
 40
0.453124999999948
 40
0.453124999999948
 40
0.453124999999948
 10
150.5120367969788
 20
6.047545251388571
 30
0.0
 10
150.5757201503831
 20
6.094532492398407
 30
0.0
 10
150.632671028558
 20
6.137004197443209
 30
0.0
 10
150.6824809774157
 20
6.174375368903175
 30
0.0
  0
SPLINE
  5
1F1
330
1F
100
AcDbEntity
  8
SK3
  6
SLD-Dashed
370
    18
100
AcDbSpline
210
0.0
220
0.0
230
1.0
 70
     8
 71
     3
 72
     8
 73
     4
 74
     0
 42
0.000000001
 43
0.00000001
 40
0.453124999999948
 40
0.453124999999948
 40
0.453124999999948
 40
0.453124999999948
 40
0.4687499999999482
 40
0.4687499999999482
 40
0.4687499999999482
 40
0.4687499999999482
 10
150.6824809774157
 20
6.174375368903175
 30
0.0
 10
150.7322909262734
 20
6.211746540363141
 30
0.0
 10
150.7751349161059
 20
6.244152105492978
 30
0.0
 10
150.8093316919269
 20
6.270109197117693
 30
0.0
  0
SPLINE
  5
1F2
330
1F
100
AcDbEntity
  8
SK3
  6
SLD-Dashed
370
    18
100
AcDbSpline
210
0.0
220
0.0
230
1.0
 70
     8
 71
     3
 72
     8
 73
     4
 74
     0
 42
0.000000001
 43
0.00000001
 40
0.4687499999999482
 40
0.4687499999999482
 40
0.4687499999999482
 40
0.4687499999999482
 40
0.499999999999949
 40
0.499999999999949
 40
0.499999999999949
 40
0.499999999999949
 10
150.8093316919269
 20
6.270109197117693
 30
0.0
 10
150.8777252435688
 20
6.32202338036713
 30
0.0
 10
150.9129830861007
 20
6.349144445809523
 30
0.0
 10
150.9140741602959
 20
6.349980206808429
 30
0.0
  0
SPLINE
  5
1F3
330
1F
100
AcDbEntity
  8
SK3
  6
SLD-Dashed
370
    18
100
AcDbSpline
210
0.0
220
0.0
230
1.0
 70
     8
 71
     3
 72
     8
 73
     4
 74
     0
 42
0.000000001
 43
0.00000001
 40
0.5156249999999494
 40
0.5156249999999494
 40
0.5156249999999494
 40
0.5156249999999494
 40
0.5312499999999498
 40
0.5312499999999498
 40
0.5312499999999498
 40
0.5312499999999498
 10
150.8895591971816
 20
6.331221399779402
 30
0.0
 10
150.8727619099203
 20
6.318381623546615
 30
0.0
 10
150.8475575312155
 20
6.299136547680696
 30
0.0
 10
150.8143008269005
 20
6.273881857287722
 30
0.0
  0
SPLINE
  5
1F4
330
1F
100
AcDbEntity
  8
SK3
  6
SLD-Dashed
370
    18
100
AcDbSpline
210
0.0
220
0.0
230
1.0
 70
     8
 71
     3
 72
     8
 73
     4
 74
     0
 42
0.000000001
 43
0.00000001
 40
0.5312499999999498
 40
0.5312499999999498
 40
0.5312499999999498
 40
0.5312499999999498
 40
0.5624999999999506
 40
0.5624999999999506
 40
0.5624999999999506
 40
0.5624999999999506
 10
150.8143008269005
 20
6.273881857287722
 30
0.0
 10
150.7477874182705
 20
6.223372476501801
 30
0.0
 10
150.6475050101515
 20
6.147583367113602
 30
0.0
 10
150.5207709642103
 20
6.053992418596624
 30
0.0
  0
SPLINE
  5
1F5
330
1F
100
AcDbEntity
  8
SK3
  6
SLD-Dashed
370
    18
100
AcDbSpline
210
0.0
220
0.0
230
1.0
 70
     8
 71
     3
 72
     8
 73
     4
 74
     0
 42
0.000000001
 43
0.00000001
 40
0.5624999999999506
 40
0.5624999999999506
 40
0.5624999999999506
 40
0.5624999999999506
 40
0.5937499999999515
 40
0.5937499999999515
 40
0.5937499999999515
 40
0.5937499999999515
 10
150.5207709642103
 20
6.053992418596624
 30
0.0
 10
150.394036918269
 20
5.960401470079653
 30
0.0
 10
150.2406594955909
 20
5.848820543242532
 30
0.0
 10
150.0635107905046
 20
5.724622263127616
 30
0.0
  0
SPLINE
  5
1F6
330
1F
100
AcDbEntity
  8
SK3
  6
SLD-Dashed
370
    18
100
AcDbSpline
210
0.0
220
0.0
230
1.0
 70
     8
 71
     3
 72
     8
 73
     4
 74
     0
 42
0.000000001
 43
0.00000001
 40
0.5937499999999515
 40
0.5937499999999515
 40
0.5937499999999515
 40
0.5937499999999515
 40
0.6249999999999523
 40
0.6249999999999523
 40
0.6249999999999523
 40
0.6249999999999523
 10
150.0635107905046
 20
5.724622263127616
 30
0.0
 10
149.8863620854183
 20
5.60042398301272
 30
0.0
 10
149.6893653998825
 20
5.466308374829317
 30
0.0
 10
149.4730074568778
 20
5.327289295677592
 30
0.0
  0
SPLINE
  5
1F7
330
1F
100
AcDbEntity
  8
SK3
  6
SLD-Dashed
370
    18
100
AcDbSpline
210
0.0
220
0.0
230
1.0
 70
     8
 71
     3
 72
     8
 73
     4
 74
     0
 42
0.000000001
 43
0.00000001
 40
0.6249999999999523
 40
0.6249999999999523
 40
0.6249999999999523
 40
0.6249999999999523
 40
0.6562499999999531
 40
0.6562499999999531
 40
0.6562499999999531
 40
0.6562499999999531
 10
149.4730074568778
 20
5.327289295677592
 30
0.0
 10
149.2566495138731
 20
5.188270216525869
 30
0.0
 10
149.0190492266461
 20
5.043252034668925
 30
0.0
 10
148.7673660864125
 20
4.90378523567097
 30
0.0
  0
SPLINE
  5
1F8
330
1F
100
AcDbEntity
  8
SK3
  6
SLD-Dashed
370
    18
100
AcDbSpline
210
0.0
220
0.0
230
1.0
 70
     8
 71
     3
 72
     8
 73
     4
 74
     0
 42
0.000000001
 43
0.00000001
 40
0.6562499999999531
 40
0.6562499999999531
 40
0.6562499999999531
 40
0.6562499999999531
 40
0.687499999999954
 40
0.687499999999954
 40
0.687499999999954
 40
0.687499999999954
 10
148.7673660864125
 20
4.90378523567097
 30
0.0
 10
148.5156829461789
 20
4.764318436673014
 30
0.0
 10
148.2488371344324
 20
4.629320205583203
 30
0.0
 10
147.96233591811
 20
4.507777706774525
 30
0.0
  0
SPLINE
  5
1F9
330
1F
100
AcDbEntity
  8
SK3
  6
SLD-Dashed
370
    18
100
AcDbSpline
210
0.0
220
0.0
230
1.0
 70
     8
 71
     3
 72
     8
 73
     4
 74
     0
 42
0.000000001
 43
0.00000001
 40
0.687499999999954
 40
0.687499999999954
 40
0.687499999999954
 40
0.687499999999954
 40
0.7187499999999548
 40
0.7187499999999548
 40
0.7187499999999548
 40
0.7187499999999548
 10
147.96233591811
 20
4.507777706774525
 30
0.0
 10
147.6758347017877
 20
4.386235207965855
 30
0.0
 10
147.3672218863851
 20
4.278084423231937
 30
0.0
 10
147.0480925476913
 20
4.202287463246266
 30
0.0
  0
SPLINE
  5
1FA
330
1F
100
AcDbEntity
  8
SK3
  6
SLD-Dashed
370
    18
100
AcDbSpline
210
0.0
220
0.0
230
1.0
 70
     8
 71
     3
 72
     8
 73
     4
 74
     0
 42
0.000000001
 43
0.00000001
 40
0.7187499999999548
 40
0.7187499999999548
 40
0.7187499999999548
 40
0.7187499999999548
 40
0.7499999999999557
 40
0.7499999999999557
 40
0.7499999999999557
 40
0.7499999999999557
 10
147.0480925476913
 20
4.202287463246266
 30
0.0
 10
146.7289632089974
 20
4.126490503260603
 30
0.0
 10
146.3898994797263
 20
4.082528902957551
 30
0.0
 10
146.0559521186927
 20
4.082041966677566
 30
0.0
  0
SPLINE
  5
1FB
330
1F
100
AcDbEntity
  8
SK3
  6
SLD-Dashed
370
    18
100
AcDbSpline
210
0.0
220
0.0
230
1.0
 70
     8
 71
     3
 72
     8
 73
     4
 74
     0
 42
0.000000001
 43
0.00000001
 40
0.7499999999999557
 40
0.7499999999999557
 40
0.7499999999999557
 40
0.7499999999999557
 40
0.7656249999999574
 40
0.7656249999999574
 40
0.7656249999999574
 40
0.7656249999999574
 10
146.0559521186927
 20
4.082041966677566
 30
0.0
 10
145.8889784381759
 20
4.081798498537584
 30
0.0
 10
145.7226232557627
 20
4.091836701125777
 30
0.0
 10
145.5568694541833
 20
4.111716056005993
 30
0.0
  0
SPLINE
  5
1FC
330
1F
100
AcDbEntity
  8
SK3
  6
SLD-Dashed
370
    18
100
AcDbSpline
210
0.0
220
0.0
230
1.0
 70
     8
 71
     3
 72
     8
 73
     4
 74
     0
 42
0.000000001
 43
0.00000001
 40
0.7656249999999574
 40
0.7656249999999574
 40
0.7656249999999574
 40
0.7656249999999574
 40
0.7812499999999591
 40
0.7812499999999591
 40
0.7812499999999591
 40
0.7812499999999591
 10
145.5568694541833
 20
4.111716056005993
 30
0.0
 10
145.391115652604
 20
4.131595410886209
 30
0.0
 10
145.2250467335596
 20
4.161647356182359
 30
0.0
 10
145.0647839628534
 20
4.199247769523809
 30
0.0
  0
SPLINE
  5
1FD
330
1F
100
AcDbEntity
  8
SK3
  6
SLD-Dashed
370
    18
100
AcDbSpline
210
0.0
220
0.0
230
1.0
 70
     8
 71
     3
 72
     8
 73
     4
 74
     0
 42
0.000000001
 43
0.00000001
 40
0.7812499999999591
 40
0.7812499999999591
 40
0.7812499999999591
 40
0.7812499999999591
 40
0.8124999999999649
 40
0.8124999999999649
 40
0.8124999999999649
 40
0.8124999999999649
 10
145.0647839628534
 20
4.199247769523809
 30
0.0
 10
144.744258421441
 20
4.274448596206744
 30
0.0
 10
144.4415942187207
 20
4.379618041180255
 30
0.0
 10
144.1520232210042
 20
4.501704904101025
 30
0.0
  0
SPLINE
  5
1FE
330
1F
100
AcDbEntity
  8
SK3
  6
SLD-Dashed
370
    18
100
AcDbSpline
210
0.0
220
0.0
230
1.0
 70
     8
 71
     3
 72
     8
 73
     4
 74
     0
 42
0.000000001
 43
0.00000001
 40
0.8124999999999649
 40
0.8124999999999649
 40
0.8124999999999649
 40
0.8124999999999649
 40
0.8437499999999708
 40
0.8437499999999708
 40
0.8437499999999708
 40
0.8437499999999708
 10
144.1520232210042
 20
4.501704904101025
 30
0.0
 10
143.8624522232877
 20
4.623791767021788
 30
0.0
 10
143.5929536315727
 20
4.759851519138623
 30
0.0
 10
143.3414400576085
 20
4.898910914838954
 30
0.0
  0
SPLINE
  5
1FF
330
1F
100
AcDbEntity
  8
SK3
  6
SLD-Dashed
370
    18
100
AcDbSpline
210
0.0
220
0.0
230
1.0
 70
     8
 71
     3
 72
     8
 73
     4
 74
     0
 42
0.000000001
 43
0.00000001
 40
0.8437499999999708
 40
0.8437499999999708
 40
0.8437499999999708
 40
0.8437499999999708
 40
0.8749999999999766
 40
0.8749999999999766
 40
0.8749999999999766
 40
0.8749999999999766
 10
143.3414400576085
 20
4.898910914838954
 30
0.0
 10
143.0899264836442
 20
5.037970310539285
 30
0.0
 10
142.8548224938697
 20
5.181130167142743
 30
0.0
 10
142.6363777659404
 20
5.321263754679499
 30
0.0
  0
SPLINE
  5
200
330
1F
100
AcDbEntity
  8
SK3
  6
SLD-Dashed
370
    18
100
AcDbSpline
210
0.0
220
0.0
230
1.0
 70
     8
 71
     3
 72
     8
 73
     4
 74
     0
 42
0.000000001
 43
0.00000001
 40
0.8749999999999766
 40
0.8749999999999766
 40
0.8749999999999766
 40
0.8749999999999766
 40
0.9062499999999825
 40
0.9062499999999825
 40
0.9062499999999825
 40
0.9062499999999825
 10
142.6363777659404
 20
5.321263754679499
 30
0.0
 10
142.4179330380112
 20
5.461397342216248
 30
0.0
 10
142.2213605032883
 20
5.595162002578764
 30
0.0
 10
142.0459922980214
 20
5.717963699386722
 30
0.0
  0
SPLINE
  5
201
330
1F
100
AcDbEntity
  8
SK3
  6
SLD-Dashed
370
    18
100
AcDbSpline
210
0.0
220
0.0
230
1.0
 70
     8
 71
     3
 72
     8
 73
     4
 74
     0
 42
0.000000001
 43
0.00000001
 40
0.9062499999999825
 40
0.9062499999999825
 40
0.9062499999999825
 40
0.9062499999999825
 40
0.9374999999999883
 40
0.9374999999999883
 40
0.9374999999999883
 40
0.9374999999999883
 10
142.0459922980214
 20
5.717963699386722
 30
0.0
 10
141.8706240927545
 20
5.840765396194686
 30
0.0
 10
141.7154295031937
 20
5.95348606957389
 30
0.0
 10
141.5868001790739
 20
6.048403411770341
 30
0.0
  0
SPLINE
  5
202
330
1F
100
AcDbEntity
  8
SK3
  6
SLD-Dashed
370
    18
100
AcDbSpline
210
0.0
220
0.0
230
1.0
 70
     8
 71
     3
 72
     8
 73
     4
 74
     0
 42
0.000000001
 43
0.00000001
 40
0.9374999999999883
 40
0.9374999999999883
 40
0.9374999999999883
 40
0.9374999999999883
 40
0.9687499999999941
 40
0.9687499999999941
 40
0.9687499999999941
 40
0.9687499999999941
 10
141.5868001790739
 20
6.048403411770341
 30
0.0
 10
141.4581708549541
 20
6.143320753966779
 30
0.0
 10
141.3586035368612
 20
6.218540952516408
 30
0.0
 10
141.2902445958642
 20
6.2704308222961
 30
0.0
  0
SPLINE
  5
203
330
1F
100
AcDbEntity
  8
SK3
  6
SLD-Dashed
370
    18
100
AcDbSpline
210
0.0
220
0.0
230
1.0
 70
     8
 71
     2
 72
     6
 73
     3
 74
     0
 42
0.000000001
 43
0.00000001
 40
0.9687499999999941
 40
0.9687499999999941
 40
0.9687499999999941
 40
1.0
 40
1.0
 40
1.0
 10
141.2902445958642
 20
6.27043082229612
 30
0.0
 10
141.2218856548672
 20
6.322320692075778
 30
0.0
 10
141.1859
 20
6.350000000000001
 30
0.0
  0
SPLINE
  5
204
330
1F
100
AcDbEntity
  8
SK3
  6
SLD-Dashed
370
    18
100
AcDbSpline
210
0.0
220
0.0
230
1.0
 70
     8
 71
     2
 72
     6
 73
     3
 74
     0
 42
0.000000001
 43
0.00000001
 40
0.0
 40
0.0
 40
0.0
 40
0.0312499999999943
 40
0.0312499999999943
 40
0.0312499999999943
 10
141.1859
 20
6.350000000000001
 30
0.0
 10
141.2207503088723
 20
6.323193392518668
 30
0.0
 10
141.287886631625
 20
6.272220892415762
 30
0.0
  0
SPLINE
  5
205
330
1F
100
AcDbEntity
  8
SK3
  6
SLD-Dashed
370
    18
100
AcDbSpline
210
0.0
220
0.0
230
1.0
 70
     8
 71
     3
 72
     8
 73
     4
 74
     0
 42
0.000000001
 43
0.00000001
 40
0.0312499999999943
 40
0.0312499999999943
 40
0.0312499999999943
 40
0.0312499999999943
 40
0.0624999999999886
 40
0.0624999999999886
 40
0.0624999999999886
 40
0.0624999999999886
 10
141.287886631625
 20
6.272220892415762
 30
0.0
 10
141.3550229543776
 20
6.221248392312861
 30
0.0
 10
141.4559849734974
 20
6.144973574219795
 30
0.0
 10
141.5826895828885
 20
6.051437312972315
 30
0.0
  0
SPLINE
  5
206
330
1F
100
AcDbEntity
  8
SK3
  6
SLD-Dashed
370
    18
100
AcDbSpline
210
0.0
220
0.0
230
1.0
 70
     8
 71
     3
 72
     8
 73
     4
 74
     0
 42
0.000000001
 43
0.00000001
 40
0.0624999999999886
 40
0.0624999999999886
 40
0.0624999999999886
 40
0.0624999999999886
 40
0.0937499999999829
 40
0.0937499999999829
 40
0.0937499999999829
 40
0.0937499999999829
 10
141.5826895828885
 20
6.051437312972315
 30
0.0
 10
141.7093941922796
 20
5.957901051724834
 30
0.0
 10
141.8637812264068
 20
5.845644976662685
 30
0.0
 10
142.0404941023442
 20
5.72181516071054
 30
0.0
  0
SPLINE
  5
207
330
1F
100
AcDbEntity
  8
SK3
  6
SLD-Dashed
370
    18
100
AcDbSpline
210
0.0
220
0.0
230
1.0
 70
     8
 71
     3
 72
     8
 73
     4
 74
     0
 42
0.000000001
 43
0.00000001
 40
0.0937499999999829
 40
0.0937499999999829
 40
0.0937499999999829
 40
0.0937499999999829
 40
0.1249999999999772
 40
0.1249999999999772
 40
0.1249999999999772
 40
0.1249999999999772
 10
142.0404941023442
 20
5.72181516071054
 30
0.0
 10
142.2172069782816
 20
5.597985344758402
 30
0.0
 10
142.4139785932873
 20
5.464075548148366
 30
0.0
 10
142.6305458200541
 20
5.325006861850015
 30
0.0
  0
SPLINE
  5
208
330
1F
100
AcDbEntity
  8
SK3
  6
SLD-Dashed
370
    18
100
AcDbSpline
210
0.0
220
0.0
230
1.0
 70
     8
 71
     3
 72
     8
 73
     4
 74
     0
 42
0.000000001
 43
0.00000001
 40
0.1249999999999772
 40
0.1249999999999772
 40
0.1249999999999772
 40
0.1249999999999772
 40
0.1562499999999716
 40
0.1562499999999716
 40
0.1562499999999716
 40
0.1562499999999716
 10
142.6305458200541
 20
5.325006861850015
 30
0.0
 10
142.8471130468209
 20
5.185938175551671
 30
0.0
 10
143.0841480610244
 20
5.041388969144765
 30
0.0
 10
143.3352204349408
 20
4.902352422752061
 30
0.0
  0
SPLINE
  5
209
330
1F
100
AcDbEntity
  8
SK3
  6
SLD-Dashed
370
    18
100
AcDbSpline
210
0.0
220
0.0
230
1.0
 70
     8
 71
     3
 72
     8
 73
     4
 74
     0
 42
0.000000001
 43
0.00000001
 40
0.1562499999999716
 40
0.1562499999999716
 40
0.1562499999999716
 40
0.1562499999999716
 40
0.1874999999999659
 40
0.1874999999999659
 40
0.1874999999999659
 40
0.1874999999999659
 10
143.3352204349408
 20
4.902352422752061
 30
0.0
 10
143.5862928088573
 20
4.763315876359364
 30
0.0
 10
143.8530299709392
 20
4.628388880184874
 30
0.0
 10
144.1403396643048
 20
4.506643294928884
 30
0.0
  0
SPLINE
  5
20A
330
1F
100
AcDbEntity
  8
SK3
  6
SLD-Dashed
370
    18
100
AcDbSpline
210
0.0
220
0.0
230
1.0
 70
     8
 71
     3
 72
     8
 73
     4
 74
     0
 42
0.000000001
 43
0.00000001
 40
0.1874999999999659
 40
0.1874999999999659
 40
0.1874999999999659
 40
0.1874999999999659
 40
0.203124999999963
 40
0.203124999999963
 40
0.203124999999963
 40
0.203124999999963
 10
144.1403396643048
 20
4.506643294928884
 30
0.0
 10
144.2839945109876
 20
4.445770502300876
 30
0.0
 10
144.4335224648905
 20
4.388110015743039
 30
0.0
 10
144.5857128260495
 20
4.336723200504725
 30
0.0
  0
SPLINE
  5
20B
330
1F
100
AcDbEntity
  8
SK3
  6
SLD-Dashed
370
    18
100
AcDbSpline
210
0.0
220
0.0
230
1.0
 70
     8
 71
     3
 72
     8
 73
     4
 74
     0
 42
0.000000001
 43
0.00000001
 40
0.203124999999963
 40
0.203124999999963
 40
0.203124999999963
 40
0.203124999999963
 40
0.2187499999999602
 40
0.2187499999999602
 40
0.2187499999999602
 40
0.2187499999999602
 10
144.5857128260495
 20
4.336723200504725
 30
0.0
 10
144.7379031872085
 20
4.28533638526641
 30
0.0
 10
144.8934245799275
 20
4.239896757954304
 30
0.0
 10
145.0528109455418
 20
4.202072964660547
 30
0.0
  0
SPLINE
  5
20C
330
1F
100
AcDbEntity
  8
SK3
  6
SLD-Dashed
370
    18
100
AcDbSpline
210
0.0
220
0.0
230
1.0
 70
     8
 71
     3
 72
     8
 73
     4
 74
     0
 42
0.000000001
 43
0.00000001
 40
0.2187499999999602
 40
0.2187499999999602
 40
0.2187499999999602
 40
0.2187499999999602
 40
0.2499999999999545
 40
0.2499999999999545
 40
0.2499999999999545
 40
0.2499999999999545
 10
145.0528109455418
 20
4.202072964660547
 30
0.0
 10
145.3715836767706
 20
4.126425378073069
 30
0.0
 10
145.7096609734754
 20
4.08268036599839
 30
0.0
 10
146.0422016110823
 20
4.082045076290758
 30
0.0
  0
SPLINE
  5
20D
330
1F
100
AcDbEntity
  8
SK3
  6
SLD-Dashed
370
    18
100
AcDbSpline
210
0.0
220
0.0
230
1.0
 70
     8
 71
     3
 72
     8
 73
     4
 74
     0
 42
0.000000001
 43
0.00000001
 40
0.2499999999999545
 40
0.2499999999999545
 40
0.2499999999999545
 40
0.2499999999999545
 40
0.2656249999999529
 40
0.2656249999999529
 40
0.2656249999999529
 40
0.2656249999999529
 10
146.0422016110823
 20
4.082045076290758
 30
0.0
 10
146.2084719298857
 20
4.081727431436949
 30
0.0
 10
146.3746122669565
 20
4.091605659725619
 30
0.0
 10
146.5406240025029
 20
4.111416191755812
 30
0.0
  0
SPLINE
  5
20E
330
1F
100
AcDbEntity
  8
SK3
  6
SLD-Dashed
370
    18
100
AcDbSpline
210
0.0
220
0.0
230
1.0
 70
     8
 71
     3
 72
     8
 73
     4
 74
     0
 42
0.000000001
 43
0.00000001
 40
0.2656249999999529
 40
0.2656249999999529
 40
0.2656249999999529
 40
0.2656249999999529
 40
0.2812499999999513
 40
0.2812499999999513
 40
0.2812499999999513
 40
0.2812499999999513
 10
146.5406240025029
 20
4.111416191755812
 30
0.0
 10
146.7066357380493
 20
4.131226723786005
 30
0.0
 10
146.8720739640284
 20
4.161082971828358
 30
0.0
 10
147.0321605660543
 20
4.198531953851504
 30
0.0
  0
SPLINE
  5
20F
330
1F
100
AcDbEntity
  8
SK3
  6
SLD-Dashed
370
    18
100
AcDbSpline
210
0.0
220
0.0
230
1.0
 70
     8
 71
     3
 72
     8
 73
     4
 74
     0
 42
0.000000001
 43
0.00000001
 40
0.2812499999999513
 40
0.2812499999999513
 40
0.2812499999999513
 40
0.2812499999999513
 40
0.3124999999999507
 40
0.3124999999999507
 40
0.3124999999999507
 40
0.3124999999999507
 10
147.0321605660543
 20
4.198531953851504
 30
0.0
 10
147.352333770106
 20
4.273429917897801
 30
0.0
 10
147.6600397067073
 20
4.380323568229177
 30
0.0
 10
147.9476601638676
 20
4.501571424239494
 30
0.0
  0
SPLINE
  5
210
330
1F
100
AcDbEntity
  8
SK3
  6
SLD-Dashed
370
    18
100
AcDbSpline
210
0.0
220
0.0
230
1.0
 70
     8
 71
     3
 72
     8
 73
     4
 74
     0
 42
0.000000001
 43
0.00000001
 40
0.3124999999999507
 40
0.3124999999999507
 40
0.3124999999999507
 40
0.3124999999999507
 40
0.34374999999995
 40
0.34374999999995
 40
0.34374999999995
 40
0.34374999999995
 10
147.9476601638676
 20
4.501571424239494
 30
0.0
 10
148.2352806210278
 20
4.622819280249817
 30
0.0
 10
148.502889097338
 20
4.757675294647941
 30
0.0
 10
148.7551644801162
 20
4.897034414263604
 30
0.0
  0
SPLINE
  5
211
330
1F
100
AcDbEntity
  8
SK3
  6
SLD-Dashed
370
    18
100
AcDbSpline
210
0.0
220
0.0
230
1.0
 70
     8
 71
     3
 72
     8
 73
     4
 74
     0
 42
0.000000001
 43
0.00000001
 40
0.34374999999995
 40
0.34374999999995
 40
0.34374999999995
 40
0.34374999999995
 40
0.3749999999999493
 40
0.3749999999999493
 40
0.3749999999999493
 40
0.3749999999999493
 10
148.7551644801162
 20
4.897034414263604
 30
0.0
 10
149.0074398628944
 20
5.036393533879267
 30
0.0
 10
149.2453821395299
 20
5.181307524838196
 30
0.0
 10
149.4617050274677
 20
5.320034058579711
 30
0.0
  0
SPLINE
  5
212
330
1F
100
AcDbEntity
  8
SK3
  6
SLD-Dashed
370
    18
100
AcDbSpline
210
0.0
220
0.0
230
1.0
 70
     8
 71
     3
 72
     8
 73
     4
 74
     0
 42
0.000000001
 43
0.00000001
 40
0.3749999999999493
 40
0.3749999999999493
 40
0.3749999999999493
 40
0.3749999999999493
 40
0.4062499999999486
 40
0.4062499999999486
 40
0.4062499999999486
 40
0.4062499999999486
 10
149.4617050274677
 20
5.320034058579711
 30
0.0
 10
149.6780279154055
 20
5.458760592321248
 30
0.0
 10
149.874763672048
 20
5.592485355579789
 30
0.0
 10
150.051652153227
 20
5.716314472229957
 30
0.0
  0
SPLINE
  5
213
330
1F
100
AcDbEntity
  8
SK3
  6
SLD-Dashed
370
    18
100
AcDbSpline
210
0.0
220
0.0
230
1.0
 70
     8
 71
     3
 72
     8
 73
     4
 74
     0
 42
0.000000001
 43
0.00000001
 40
0.4062499999999486
 40
0.4062499999999486
 40
0.4062499999999486
 40
0.4062499999999486
 40
0.4374999999999479
 40
0.4374999999999479
 40
0.4374999999999479
 40
0.4374999999999479
 10
150.051652153227
 20
5.716314472229957
 30
0.0
 10
150.2285406344059
 20
5.840143588880132
 30
0.0
 10
150.3846700901704
 20
5.953570769368956
 30
0.0
 10
150.5120367969788
 20
6.047545251388571
 30
0.0
  0
SPLINE
  5
214
330
1F
100
AcDbEntity
  8
SK3
  6
SLD-Dashed
370
    18
100
AcDbSpline
210
0.0
220
0.0
230
1.0
 70
     8
 71
     3
 72
     8
 73
     4
 74
     0
 42
0.000000001
 43
0.00000001
 40
0.4374999999999479
 40
0.4374999999999479
 40
0.4374999999999479
 40
0.4374999999999479
 40
0.453124999999948
 40
0.453124999999948
 40
0.453124999999948
 40
0.453124999999948
 10
150.5120367969788
 20
6.047545251388571
 30
0.0
 10
150.5757201503831
 20
6.094532492398407
 30
0.0
 10
150.632671028558
 20
6.137004197443209
 30
0.0
 10
150.6824809774157
 20
6.174375368903175
 30
0.0
  0
SPLINE
  5
215
330
1F
100
AcDbEntity
  8
SK3
  6
SLD-Dashed
370
    18
100
AcDbSpline
210
0.0
220
0.0
230
1.0
 70
     8
 71
     3
 72
     8
 73
     4
 74
     0
 42
0.000000001
 43
0.00000001
 40
0.453124999999948
 40
0.453124999999948
 40
0.453124999999948
 40
0.453124999999948
 40
0.4687499999999482
 40
0.4687499999999482
 40
0.4687499999999482
 40
0.4687499999999482
 10
150.6824809774157
 20
6.174375368903175
 30
0.0
 10
150.7322909262734
 20
6.211746540363141
 30
0.0
 10
150.7751349161059
 20
6.244152105492978
 30
0.0
 10
150.8093316919269
 20
6.270109197117693
 30
0.0
  0
SPLINE
  5
216
330
1F
100
AcDbEntity
  8
SK3
  6
SLD-Dashed
370
    18
100
AcDbSpline
210
0.0
220
0.0
230
1.0
 70
     8
 71
     3
 72
     8
 73
     4
 74
     0
 42
0.000000001
 43
0.00000001
 40
0.4687499999999482
 40
0.4687499999999482
 40
0.4687499999999482
 40
0.4687499999999482
 40
0.499999999999949
 40
0.499999999999949
 40
0.499999999999949
 40
0.499999999999949
 10
150.8093316919269
 20
6.270109197117693
 30
0.0
 10
150.8777252435688
 20
6.32202338036713
 30
0.0
 10
150.9129830861007
 20
6.349144445809523
 30
0.0
 10
150.9140741602959
 20
6.349980206808429
 30
0.0
  0
SPLINE
  5
217
330
1F
100
AcDbEntity
  8
SK3
  6
SLD-Dashed
370
    18
100
AcDbSpline
210
0.0
220
0.0
230
1.0
 70
     8
 71
     3
 72
     8
 73
     4
 74
     0
 42
0.000000001
 43
0.00000001
 40
0.5156249999999494
 40
0.5156249999999494
 40
0.5156249999999494
 40
0.5156249999999494
 40
0.5312499999999498
 40
0.5312499999999498
 40
0.5312499999999498
 40
0.5312499999999498
 10
150.8895591971816
 20
6.331221399779402
 30
0.0
 10
150.8727619099203
 20
6.318381623546615
 30
0.0
 10
150.8475575312155
 20
6.299136547680696
 30
0.0
 10
150.8143008269005
 20
6.273881857287722
 30
0.0
  0
SPLINE
  5
218
330
1F
100
AcDbEntity
  8
SK3
  6
SLD-Dashed
370
    18
100
AcDbSpline
210
0.0
220
0.0
230
1.0
 70
     8
 71
     3
 72
     8
 73
     4
 74
     0
 42
0.000000001
 43
0.00000001
 40
0.5312499999999498
 40
0.5312499999999498
 40
0.5312499999999498
 40
0.5312499999999498
 40
0.5624999999999506
 40
0.5624999999999506
 40
0.5624999999999506
 40
0.5624999999999506
 10
150.8143008269005
 20
6.273881857287722
 30
0.0
 10
150.7477874182705
 20
6.223372476501801
 30
0.0
 10
150.6475050101515
 20
6.147583367113602
 30
0.0
 10
150.5207709642103
 20
6.053992418596624
 30
0.0
  0
SPLINE
  5
219
330
1F
100
AcDbEntity
  8
SK3
  6
SLD-Dashed
370
    18
100
AcDbSpline
210
0.0
220
0.0
230
1.0
 70
     8
 71
     3
 72
     8
 73
     4
 74
     0
 42
0.000000001
 43
0.00000001
 40
0.5624999999999506
 40
0.5624999999999506
 40
0.5624999999999506
 40
0.5624999999999506
 40
0.5937499999999515
 40
0.5937499999999515
 40
0.5937499999999515
 40
0.5937499999999515
 10
150.5207709642103
 20
6.053992418596624
 30
0.0
 10
150.394036918269
 20
5.960401470079653
 30
0.0
 10
150.2406594955909
 20
5.848820543242532
 30
0.0
 10
150.0635107905046
 20
5.724622263127616
 30
0.0
  0
SPLINE
  5
21A
330
1F
100
AcDbEntity
  8
SK3
  6
SLD-Dashed
370
    18
100
AcDbSpline
210
0.0
220
0.0
230
1.0
 70
     8
 71
     3
 72
     8
 73
     4
 74
     0
 42
0.000000001
 43
0.00000001
 40
0.5937499999999515
 40
0.5937499999999515
 40
0.5937499999999515
 40
0.5937499999999515
 40
0.6249999999999523
 40
0.6249999999999523
 40
0.6249999999999523
 40
0.6249999999999523
 10
150.0635107905046
 20
5.724622263127616
 30
0.0
 10
149.8863620854183
 20
5.60042398301272
 30
0.0
 10
149.6893653998825
 20
5.466308374829317
 30
0.0
 10
149.4730074568778
 20
5.327289295677592
 30
0.0
  0
SPLINE
  5
21B
330
1F
100
AcDbEntity
  8
SK3
  6
SLD-Dashed
370
    18
100
AcDbSpline
210
0.0
220
0.0
230
1.0
 70
     8
 71
     3
 72
     8
 73
     4
 74
     0
 42
0.000000001
 43
0.00000001
 40
0.6249999999999523
 40
0.6249999999999523
 40
0.6249999999999523
 40
0.6249999999999523
 40
0.6562499999999531
 40
0.6562499999999531
 40
0.6562499999999531
 40
0.6562499999999531
 10
149.4730074568778
 20
5.327289295677592
 30
0.0
 10
149.2566495138731
 20
5.188270216525869
 30
0.0
 10
149.0190492266461
 20
5.043252034668925
 30
0.0
 10
148.7673660864125
 20
4.90378523567097
 30
0.0
  0
SPLINE
  5
21C
330
1F
100
AcDbEntity
  8
SK3
  6
SLD-Dashed
370
    18
100
AcDbSpline
210
0.0
220
0.0
230
1.0
 70
     8
 71
     3
 72
     8
 73
     4
 74
     0
 42
0.000000001
 43
0.00000001
 40
0.6562499999999531
 40
0.6562499999999531
 40
0.6562499999999531
 40
0.6562499999999531
 40
0.687499999999954
 40
0.687499999999954
 40
0.687499999999954
 40
0.687499999999954
 10
148.7673660864125
 20
4.90378523567097
 30
0.0
 10
148.5156829461789
 20
4.764318436673014
 30
0.0
 10
148.2488371344324
 20
4.629320205583203
 30
0.0
 10
147.96233591811
 20
4.507777706774525
 30
0.0
  0
SPLINE
  5
21D
330
1F
100
AcDbEntity
  8
SK3
  6
SLD-Dashed
370
    18
100
AcDbSpline
210
0.0
220
0.0
230
1.0
 70
     8
 71
     3
 72
     8
 73
     4
 74
     0
 42
0.000000001
 43
0.00000001
 40
0.687499999999954
 40
0.687499999999954
 40
0.687499999999954
 40
0.687499999999954
 40
0.7187499999999548
 40
0.7187499999999548
 40
0.7187499999999548
 40
0.7187499999999548
 10
147.96233591811
 20
4.507777706774525
 30
0.0
 10
147.6758347017877
 20
4.386235207965855
 30
0.0
 10
147.3672218863851
 20
4.278084423231937
 30
0.0
 10
147.0480925476913
 20
4.202287463246266
 30
0.0
  0
SPLINE
  5
21E
330
1F
100
AcDbEntity
  8
SK3
  6
SLD-Dashed
370
    18
100
AcDbSpline
210
0.0
220
0.0
230
1.0
 70
     8
 71
     3
 72
     8
 73
     4
 74
     0
 42
0.000000001
 43
0.00000001
 40
0.7187499999999548
 40
0.7187499999999548
 40
0.7187499999999548
 40
0.7187499999999548
 40
0.7499999999999557
 40
0.7499999999999557
 40
0.7499999999999557
 40
0.7499999999999557
 10
147.0480925476913
 20
4.202287463246266
 30
0.0
 10
146.7289632089974
 20
4.126490503260603
 30
0.0
 10
146.3898994797263
 20
4.082528902957551
 30
0.0
 10
146.0559521186927
 20
4.082041966677566
 30
0.0
  0
SPLINE
  5
21F
330
1F
100
AcDbEntity
  8
SK3
  6
SLD-Dashed
370
    18
100
AcDbSpline
210
0.0
220
0.0
230
1.0
 70
     8
 71
     3
 72
     8
 73
     4
 74
     0
 42
0.000000001
 43
0.00000001
 40
0.7499999999999557
 40
0.7499999999999557
 40
0.7499999999999557
 40
0.7499999999999557
 40
0.7656249999999574
 40
0.7656249999999574
 40
0.7656249999999574
 40
0.7656249999999574
 10
146.0559521186927
 20
4.082041966677566
 30
0.0
 10
145.8889784381759
 20
4.081798498537584
 30
0.0
 10
145.7226232557627
 20
4.091836701125777
 30
0.0
 10
145.5568694541833
 20
4.111716056005993
 30
0.0
  0
SPLINE
  5
220
330
1F
100
AcDbEntity
  8
SK3
  6
SLD-Dashed
370
    18
100
AcDbSpline
210
0.0
220
0.0
230
1.0
 70
     8
 71
     3
 72
     8
 73
     4
 74
     0
 42
0.000000001
 43
0.00000001
 40
0.7656249999999574
 40
0.7656249999999574
 40
0.7656249999999574
 40
0.7656249999999574
 40
0.7812499999999591
 40
0.7812499999999591
 40
0.7812499999999591
 40
0.7812499999999591
 10
145.5568694541833
 20
4.111716056005993
 30
0.0
 10
145.391115652604
 20
4.131595410886209
 30
0.0
 10
145.2250467335596
 20
4.161647356182359
 30
0.0
 10
145.0647839628534
 20
4.199247769523809
 30
0.0
  0
SPLINE
  5
221
330
1F
100
AcDbEntity
  8
SK3
  6
SLD-Dashed
370
    18
100
AcDbSpline
210
0.0
220
0.0
230
1.0
 70
     8
 71
     3
 72
     8
 73
     4
 74
     0
 42
0.000000001
 43
0.00000001
 40
0.7812499999999591
 40
0.7812499999999591
 40
0.7812499999999591
 40
0.7812499999999591
 40
0.8124999999999649
 40
0.8124999999999649
 40
0.8124999999999649
 40
0.8124999999999649
 10
145.0647839628534
 20
4.199247769523809
 30
0.0
 10
144.744258421441
 20
4.274448596206744
 30
0.0
 10
144.4415942187207
 20
4.379618041180255
 30
0.0
 10
144.1520232210042
 20
4.501704904101025
 30
0.0
  0
SPLINE
  5
222
330
1F
100
AcDbEntity
  8
SK3
  6
SLD-Dashed
370
    18
100
AcDbSpline
210
0.0
220
0.0
230
1.0
 70
     8
 71
     3
 72
     8
 73
     4
 74
     0
 42
0.000000001
 43
0.00000001
 40
0.8124999999999649
 40
0.8124999999999649
 40
0.8124999999999649
 40
0.8124999999999649
 40
0.8437499999999708
 40
0.8437499999999708
 40
0.8437499999999708
 40
0.8437499999999708
 10
144.1520232210042
 20
4.501704904101025
 30
0.0
 10
143.8624522232877
 20
4.623791767021788
 30
0.0
 10
143.5929536315727
 20
4.759851519138623
 30
0.0
 10
143.3414400576085
 20
4.898910914838954
 30
0.0
  0
SPLINE
  5
223
330
1F
100
AcDbEntity
  8
SK3
  6
SLD-Dashed
370
    18
100
AcDbSpline
210
0.0
220
0.0
230
1.0
 70
     8
 71
     3
 72
     8
 73
     4
 74
     0
 42
0.000000001
 43
0.00000001
 40
0.8437499999999708
 40
0.8437499999999708
 40
0.8437499999999708
 40
0.8437499999999708
 40
0.8749999999999766
 40
0.8749999999999766
 40
0.8749999999999766
 40
0.8749999999999766
 10
143.3414400576085
 20
4.898910914838954
 30
0.0
 10
143.0899264836442
 20
5.037970310539285
 30
0.0
 10
142.8548224938697
 20
5.181130167142743
 30
0.0
 10
142.6363777659404
 20
5.321263754679499
 30
0.0
  0
SPLINE
  5
224
330
1F
100
AcDbEntity
  8
SK3
  6
SLD-Dashed
370
    18
100
AcDbSpline
210
0.0
220
0.0
230
1.0
 70
     8
 71
     3
 72
     8
 73
     4
 74
     0
 42
0.000000001
 43
0.00000001
 40
0.8749999999999766
 40
0.8749999999999766
 40
0.8749999999999766
 40
0.8749999999999766
 40
0.9062499999999825
 40
0.9062499999999825
 40
0.9062499999999825
 40
0.9062499999999825
 10
142.6363777659404
 20
5.321263754679499
 30
0.0
 10
142.4179330380112
 20
5.461397342216248
 30
0.0
 10
142.2213605032883
 20
5.595162002578764
 30
0.0
 10
142.0459922980214
 20
5.717963699386722
 30
0.0
  0
SPLINE
  5
225
330
1F
100
AcDbEntity
  8
SK3
  6
SLD-Dashed
370
    18
100
AcDbSpline
210
0.0
220
0.0
230
1.0
 70
     8
 71
     3
 72
     8
 73
     4
 74
     0
 42
0.000000001
 43
0.00000001
 40
0.9062499999999825
 40
0.9062499999999825
 40
0.9062499999999825
 40
0.9062499999999825
 40
0.9374999999999883
 40
0.9374999999999883
 40
0.9374999999999883
 40
0.9374999999999883
 10
142.0459922980214
 20
5.717963699386722
 30
0.0
 10
141.8706240927545
 20
5.840765396194686
 30
0.0
 10
141.7154295031937
 20
5.95348606957389
 30
0.0
 10
141.5868001790739
 20
6.048403411770341
 30
0.0
  0
SPLINE
  5
226
330
1F
100
AcDbEntity
  8
SK3
  6
SLD-Dashed
370
    18
100
AcDbSpline
210
0.0
220
0.0
230
1.0
 70
     8
 71
     3
 72
     8
 73
     4
 74
     0
 42
0.000000001
 43
0.00000001
 40
0.9374999999999883
 40
0.9374999999999883
 40
0.9374999999999883
 40
0.9374999999999883
 40
0.9687499999999941
 40
0.9687499999999941
 40
0.9687499999999941
 40
0.9687499999999941
 10
141.5868001790739
 20
6.048403411770341
 30
0.0
 10
141.4581708549541
 20
6.143320753966779
 30
0.0
 10
141.3586035368612
 20
6.218540952516408
 30
0.0
 10
141.2902445958642
 20
6.2704308222961
 30
0.0
  0
SPLINE
  5
227
330
1F
100
AcDbEntity
  8
SK3
  6
SLD-Dashed
370
    18
100
AcDbSpline
210
0.0
220
0.0
230
1.0
 70
     8
 71
     2
 72
     6
 73
     3
 74
     0
 42
0.000000001
 43
0.00000001
 40
0.9687499999999941
 40
0.9687499999999941
 40
0.9687499999999941
 40
1.0
 40
1.0
 40
1.0
 10
141.2902445958642
 20
6.27043082229612
 30
0.0
 10
141.2218856548672
 20
6.322320692075778
 30
0.0
 10
141.1859
 20
6.350000000000001
 30
0.0
  0
SPLINE
  5
228
330
1F
100
AcDbEntity
  8
SK3
  6
SLD-Dashed
370
    18
100
AcDbSpline
210
0.0
220
0.0
230
1.0
 70
     8
 71
     3
 72
    34
 73
    30
 74
     0
 42
0.000000001
 43
0.00000001
 40
0.499999999999998
 40
0.499999999999998
 40
0.499999999999998
 40
0.499999999999998
 40
0.5312499999999979
 40
0.5312499999999979
 40
0.5624999999999978
 40
0.5624999999999978
 40
0.5937499999999976
 40
0.5937499999999976
 40
0.6249999999999974
 40
0.6249999999999974
 40
0.6562499999999973
 40
0.6562499999999973
 40
0.6874999999999972
 40
0.6874999999999972
 40
0.7499999999999969
 40
0.7499999999999969
 40
0.8124999999999973
 40
0.8124999999999973
 40
0.8437499999999978
 40
0.8437499999999978
 40
0.8749999999999982
 40
0.8749999999999982
 40
0.9062499999999987
 40
0.9062499999999987
 40
0.937499999999999
 40
0.937499999999999
 40
0.9687499999999994
 40
0.9687499999999994
 40
1.0
 40
1.0
 40
1.0
 40
1.0
 10
9.638805742161722
 20
10.95392502366161
 30
0.0
 10
9.693881160736314
 20
10.84705887039519
 30
0.0
 10
9.763179283156648
 20
10.74439645836094
 30
0.0
 10
9.923515798149985
 20
10.55592715127707
 30
0.0
 10
10.01390276352453
 20
10.47020735344793
 30
0.0
 10
10.21445694949212
 20
10.31296552728877
 30
0.0
 10
10.32267837600209
 20
10.24333508542228
 30
0.0
 10
10.54307526498122
 20
10.12288935951391
 30
0.0
 10
10.65791658596822
 20
10.0707037473172
 30
0.0
 10
10.8781987114099
 20
9.984463182040875
 30
0.0
 10
10.98608094611136
 20
9.949205279737832
 30
0.0
 10
11.18968749579594
 20
9.892304259468993
 30
0.0
 10
11.28527842069084
 20
9.870580048613805
 30
0.0
 10
11.55898297450221
 20
9.820769890309965
 30
0.0
 10
11.72337034356695
 20
9.808096789548735
 30
0.0
 10
12.02194861504764
 20
9.821477532699761
 30
0.0
 10
12.15920875119766
 20
9.847310188176722
 30
0.0
 10
12.34760730605758
 20
9.927824692744412
 30
0.0
 10
12.40688352391457
 20
9.961503747003352
 30
0.0
 10
12.51780294837551
 20
10.0474980864718
 30
0.0
 10
12.56969006353044
 20
10.10021829085828
 30
0.0
 10
12.65991931900842
 20
10.22933776798928
 30
0.0
 10
12.69929072119649
 20
10.30748393412818
 30
0.0
 10
12.7558656863648
 20
10.49302732041031
 30
0.0
 10
12.77303399215493
 20
10.60290348381505
 30
0.0
 10
12.7766331974026
 20
10.83901366027914
 30
0.0
 10
12.76306993948381
 20
10.96766771108131
 30
0.0
 10
12.71170841969951
 20
11.21837738140153
 30
0.0
 10
12.67469993892523
 20
11.34057418425335
 30
0.0
 10
12.63040931107559
 20
11.45745606890562
 30
0.0
  0
SPLINE
  5
229
330
1F
100
AcDbEntity
  8
SK3
  6
SLD-Dashed
370
    18
100
AcDbSpline
210
0.0
220
0.0
230
1.0
 70
     8
 71
     3
 72
    26
 73
    22
 74
     0
 42
0.000000001
 43
0.00000001
 40
0.0
 40
0.0
 40
0.0
 40
0.0
 40
0.0624999999999995
 40
0.0624999999999995
 40
0.124999999999999
 40
0.124999999999999
 40
0.1874999999999986
 40
0.1874999999999986
 40
0.2499999999999981
 40
0.2499999999999981
 40
0.281249999999998
 40
0.281249999999998
 40
0.3124999999999979
 40
0.3124999999999979
 40
0.3749999999999981
 40
0.3749999999999981
 40
0.4374999999999984
 40
0.4374999999999984
 40
0.4687499999999982
 40
0.4687499999999982
 40
0.499999999999998
 40
0.499999999999998
 40
0.499999999999998
 40
0.499999999999998
 10
12.63040931107559
 20
11.45745606890562
 30
0.0
 10
12.54182805537631
 20
11.69121983821018
 30
0.0
 10
12.43200682775376
 20
11.89056157115175
 30
0.0
 10
12.1841993275916
 20
12.25514411813747
 30
0.0
 10
12.04834522926922
 20
12.41463399152624
 30
0.0
 10
11.7531401364613
 20
12.69173524411803
 30
0.0
 10
11.59091385222426
 20
12.81202758601129
 30
0.0
 10
11.23004729019513
 20
12.99241430793244
 30
0.0
 10
11.02728334192554
 20
13.05343833574646
 30
0.0
 10
10.69987000905187
 20
13.05646994226836
 30
0.0
 10
10.58531472788946
 20
13.04197607005518
 30
0.0
 10
10.36396153134631
 20
12.97944613660276
 30
0.0
 10
10.25449961952682
 20
12.93102694430324
 30
0.0
 10
9.947578697971332
 20
12.73948161914287
 30
0.0
 10
9.776646578307208
 20
12.55346040827497
 30
0.0
 10
9.542451961566195
 20
12.1267803099925
 30
0.0
 10
9.478612055377923
 20
11.88580640702581
 30
0.0
 10
9.473421112414268
 20
11.52565520755326
 30
0.0
 10
9.486345898652646
 20
11.40749361566879
 30
0.0
 10
9.541390615621037
 20
11.17459151908688
 30
0.0
 10
9.583730323587114
 20
11.06079117692803
 30
0.0
 10
9.638805742161722
 20
10.95392502366161
 30
0.0
  0
SPLINE
  5
22A
330
1F
100
AcDbEntity
  8
SK3
  6
SLD-Dashed
370
    18
100
AcDbSpline
210
0.0
220
0.0
230
1.0
 70
     8
 71
     3
 72
    18
 73
    14
 74
     0
 42
0.000000001
 43
0.00000001
 40
0.0
 40
0.0
 40
0.0
 40
0.0
 40
0.0501962867734899
 40
0.1000306214437217
 40
0.1855667331187663
 40
0.2501823892320729
 40
0.3747066158220749
 40
0.4998232982189584
 40
0.6247294758455363
 40
0.7494251058857195
 40
0.8746331028690599
 40
0.9372230808189526
 40
0.9999999999999999
 40
0.9999999999999999
 40
0.9999999999999999
 40
0.9999999999999999
 10
3.949999999999995
 20
46.81625358783001
 30
0.0
 10
3.943300488172027
 20
46.81609127853704
 30
0.0
 10
3.929949772918065
 20
46.81576783032033
 30
0.0
 10
3.905360779048059
 20
46.81256776526226
 30
0.0
 10
3.879327985377781
 20
46.80630579793137
 30
0.0
 10
3.844998498051075
 20
46.79331555547192
 30
0.0
 10
3.808260602500877
 20
46.77247000397304
 30
0.0
 10
3.770344503827405
 20
46.73942242416847
 30
0.0
 10
3.739587180509194
 20
46.69961163074887
 30
0.0
 10
3.716933654940704
 20
46.65468875110025
 30
0.0
 10
3.705476597958057
 20
46.61434662644385
 30
0.0
 10
3.700675324942462
 20
46.58119847829342
 30
0.0
 10
3.700225331983609
 20
46.56446483112379
 30
0.0
 10
3.699999999999981
 20
46.55608553132448
 30
0.0
  0
SPLINE
  5
22B
330
1F
100
AcDbEntity
  8
SK3
  6
SLD-Dashed
370
    18
100
AcDbSpline
210
0.0
220
0.0
230
1.0
 70
     8
 71
     3
 72
    18
 73
    14
 74
     0
 42
0.000000001
 43
0.00000001
 40
0.0
 40
0.0
 40
0.0
 40
0.0
 40
0.0502196103872456
 40
0.1000870260924015
 40
0.1855086368940068
 40
0.2501550808791891
 40
0.3746583157461322
 40
0.4998570853792654
 40
0.6242312608259536
 40
0.7494324099488395
 40
0.8740366596180023
 40
0.937035024316687
 40
1.0
 40
1.0
 40
1.0
 40
1.0
 10
18.55000000000003
 20
46.55608553132441
 30
0.0
 10
18.54985614514711
 20
46.56278755185999
 30
0.0
 10
18.54956944430838
 20
46.57614459105336
 30
0.0
 10
18.54672594518123
 20
46.60076085239336
 30
0.0
 10
18.54114997473677
 20
46.62692328764683
 30
0.0
 10
18.52948583072878
 20
46.66169890756606
 30
0.0
 10
18.51054340758346
 20
46.69941980690705
 30
0.0
 10
18.47987172088782
 20
46.73918434013714
 30
0.0
 10
18.44197136356048
 20
46.7722928514023
 30
0.0
 10
18.39830135356869
 20
46.79720148409471
 30
0.0
 10
18.35828818785669
 20
46.81006094110488
 30
0.0
 10
18.32521964393112
 20
46.81548545401076
 30
0.0
 10
18.30840506230055
 20
46.81599758847405
 30
0.0
 10
18.30000000000001
 20
46.81625358782991
 30
0.0
  0
SPLINE
  5
22C
330
1F
100
AcDbEntity
  8
1
  6
SLD-Dashed
370
    18
100
AcDbSpline
210
0.0
220
0.0
230
1.0
 70
     8
 71
     3
 72
     8
 73
     4
 74
     0
 42
0.000000001
 43
0.00000001
 40
0.0
 40
0.0
 40
0.0
 40
0.0
 40
1.0
 40
1.0
 40
1.0
 40
1.0
 10
9.200000000002012
 20
44.5790106634328
 30
0.0
 10
8.78635386686144
 20
45.32508460154089
 30
0.0
 10
8.372088490924023
 20
46.07082082932843
 30
0.0
 10
7.957289380062113
 20
46.81625358783003
 30
0.0
  0
SPLINE
  5
22D
330
1F
100
AcDbEntity
  8
1
  6
SLD-Dashed
370
    18
100
AcDbSpline
210
0.0
220
0.0
230
1.0
 70
     8
 71
     3
 72
    10
 73
     6
 74
     0
 42
0.000000001
 43
0.00000001
 40
0.0
 40
0.0
 40
0.0
 40
0.0
 40
0.5
 40
0.5
 40
1.0
 40
1.0
 40
1.0
 40
1.0
 10
9.950000000001237
 20
43.76943596849411
 30
0.0
 10
9.748771536222419
 20
43.76943596849377
 30
0.0
 10
9.550990673892231
 20
43.85856672856773
 30
0.0
 10
9.277097785724012
 20
44.15022946993272
 30
0.0
 10
9.200000000000319
 20
44.34957328976746
 30
0.0
 10
9.199999999999985
 20
44.55102159322501
 30
0.0
  0
SPLINE
  5
22E
330
1F
100
AcDbEntity
  8
1
  6
SLD-Dashed
370
    18
100
AcDbSpline
210
0.0
220
0.0
230
1.0
 70
     8
 71
     3
 72
    12
 73
     8
 74
     0
 42
0.000000001
 43
0.00000001
 40
0.0
 40
0.0
 40
0.0
 40
0.0
 40
0.5000000000000048
 40
0.5000000000000048
 40
0.7500000000000023
 40
0.7500000000000023
 40
1.0
 40
1.0
 40
1.0
 40
1.0
 10
13.02999999999991
 20
44.55102159322491
 30
0.0
 10
13.02999999999989
 20
44.35104831812321
 30
0.0
 10
12.95399603318284
 20
44.15150826736608
 30
0.0
 10
12.74724095984753
 20
43.93116827138052
 30
0.0
 10
12.66314206268639
 20
43.8712862165096
 30
0.0
 10
12.48048875274074
 20
43.79084228716532
 30
0.0
 10
12.37984375713169
 20
43.76943596849291
 30
0.0
 10
12.28000000000001
 20
43.76943596849289
 30
0.0
  0
SPLINE
  5
22F
330
1F
100
AcDbEntity
  8
1
  6
SLD-Dashed
370
    18
100
AcDbSpline
210
0.0
220
0.0
230
1.0
 70
     8
 71
     3
 72
     8
 73
     4
 74
     0
 42
0.000000001
 43
0.00000001
 40
0.0
 40
0.0
 40
0.0
 40
0.0
 40
1.0
 40
1.0
 40
1.0
 40
1.0
 10
14.2727106199509
 20
46.81625358783774
 30
0.0
 10
13.85791150908532
 20
46.07082082933479
 30
0.0
 10
13.44364613314422
 20
45.32508460154592
 30
0.0
 10
13.02999999999999
 20
44.57901066343648
 30
0.0
  0
SPLINE
  5
230
330
1F
100
AcDbEntity
  8
1
  6
SLD-Dashed
370
    18
100
AcDbSpline
210
0.0
220
0.0
230
1.0
 70
     8
 71
     3
 72
    12
 73
     8
 74
     0
 42
0.000000001
 43
0.00000001
 40
0.0
 40
0.0
 40
0.0
 40
0.0
 40
0.2499999999999967
 40
0.2499999999999967
 40
0.4999999999999933
 40
0.4999999999999933
 40
1.0
 40
1.0
 40
1.0
 40
1.0
 10
3.1999999999998
 20
-46.6976348437475
 30
0.0
 10
3.199999999999842
 20
-46.79851095846152
 30
0.0
 10
3.218629406337783
 20
-46.89733966428927
 30
0.0
 10
3.291844246696887
 20
-47.08411469648332
 30
0.0
 10
3.345979173512772
 20
-47.16991322229987
 30
0.0
 10
3.551871853062272
 20
-47.38753444472504
 30
0.0
 10
3.74802685678137
 20
-47.47548419974256
 30
0.0
 10
3.950000000000009
 20
-47.4754841997425
 30
0.0
  0
SPLINE
  5
231
330
1F
100
AcDbEntity
  8
1
  6
SLD-Dashed
370
    18
100
AcDbSpline
210
0.0
220
0.0
230
1.0
 70
     8
 71
     3
 72
    12
 73
     8
 74
     0
 42
0.000000001
 43
0.00000001
 40
0.0
 40
0.0
 40
0.0
 40
0.0
 40
0.2499999999999985
 40
0.2499999999999985
 40
0.499999999999997
 40
0.499999999999997
 40
1.0
 40
1.0
 40
1.0
 40
1.0
 10
18.30000000000035
 20
-47.47548419974279
 30
0.0
 10
18.40091596910977
 20
-47.47548419974275
 30
0.0
 10
18.50002158252288
 20
-47.45437693482727
 30
0.0
 10
18.68315226992481
 20
-47.3742689705784
 30
0.0
 10
18.76654490405294
 20
-47.31511647588048
 30
0.0
 10
18.97195148872762
 20
-47.09831987092238
 30
0.0
 10
19.05000000000009
 20
-46.89926900274105
 30
0.0
 10
19.05000000000001
 20
-46.69763484374772
 30
0.0
  0
SPLINE
  5
232
330
1F
100
AcDbEntity
  8
1
  6
SLD-Dashed
370
    18
100
AcDbSpline
210
0.0
220
0.0
230
1.0
 70
     8
 71
     3
 72
     8
 73
     4
 74
     0
 42
0.000000001
 43
0.00000001
 40
0.0
 40
0.0
 40
0.0
 40
0.0
 40
1.0
 40
1.0
 40
1.0
 40
1.0
 10
14.63972339340268
 20
-47.47548419974251
 30
0.0
 10
14.10222500453559
 20
-46.5104965471081
 30
0.0
 10
13.56559195163211
 20
-45.54503249842019
 30
0.0
 10
13.02999999999999
 20
-44.57901066343649
 30
0.0
  0
SPLINE
  5
233
330
1F
100
AcDbEntity
  8
1
  6
SLD-Dashed
370
    18
100
AcDbSpline
210
0.0
220
0.0
230
1.0
 70
     8
 71
     3
 72
    12
 73
     8
 74
     0
 42
0.000000001
 43
0.00000001
 40
0.0
 40
0.0
 40
0.0
 40
0.0
 40
0.5
 40
0.5
 40
0.75
 40
0.75
 40
1.0
 40
1.0
 40
1.0
 40
1.0
 10
13.03000000000026
 20
-44.55102159322528
 30
0.0
 10
13.03000000000033
 20
-44.35094747116185
 30
0.0
 10
12.9523869298502
 20
-44.14958800989086
 30
0.0
 10
12.74748896269967
 20
-43.9315357022575
 30
0.0
 10
12.66372770014788
 20
-43.87162606259755
 30
0.0
 10
12.48090790509573
 20
-43.79094541821722
 30
0.0
 10
12.38057331782438
 20
-43.76943596849286
 30
0.0
 10
12.28000000000001
 20
-43.76943596849289
 30
0.0
  0
SPLINE
  5
234
330
1F
100
AcDbEntity
  8
1
  6
SLD-Dashed
370
    18
100
AcDbSpline
210
0.0
220
0.0
230
1.0
 70
     8
 71
     3
 72
    12
 73
     8
 74
     0
 42
0.000000001
 43
0.00000001
 40
0.0
 40
0.0
 40
0.0
 40
0.0
 40
0.2500000000000039
 40
0.2500000000000039
 40
0.5000000000000078
 40
0.5000000000000078
 40
1.0
 40
1.0
 40
1.0
 40
1.0
 10
9.949999999999823
 20
-43.76943596849306
 30
0.0
 10
9.8500303953588
 20
-43.7694359684931
 30
0.0
 10
9.750114974766248
 20
-43.79051518316425
 30
0.0
 10
9.565507057761259
 20
-43.87194262843708
 30
0.0
 10
9.482715011846738
 20
-43.93126060501226
 30
0.0
 10
9.276579660402893
 20
-44.15080408372875
 30
0.0
 10
9.200000000000028
 20
-44.35163254795803
 30
0.0
 10
9.199999999999985
 20
-44.551021593225
 30
0.0
  0
SPLINE
  5
235
330
1F
100
AcDbEntity
  8
1
  6
SLD-Dashed
370
    18
100
AcDbSpline
210
0.0
220
0.0
230
1.0
 70
     8
 71
     3
 72
     8
 73
     4
 74
     0
 42
0.000000001
 43
0.00000001
 40
0.0
 40
0.0
 40
0.0
 40
0.0
 40
1.0
 40
1.0
 40
1.0
 40
1.0
 10
9.199999999999985
 20
-44.57901066343648
 30
0.0
 10
8.664408048367891
 20
-45.54503249842018
 30
0.0
 10
8.127774995464424
 20
-46.51049654710809
 30
0.0
 10
7.590276606597349
 20
-47.47548419974249
 30
0.0
  0
SPLINE
  5
236
330
1F
100
AcDbEntity
  8
SK3
  6
SLD-Dashed
370
    18
100
AcDbSpline
210
0.0
220
0.0
230
1.0
 70
     8
 71
     3
 72
    34
 73
    30
 74
     0
 42
0.000000001
 43
0.00000001
 40
0.5000000000000003
 40
0.5000000000000003
 40
0.5000000000000003
 40
0.5000000000000003
 40
0.5625000000000013
 40
0.5625000000000013
 40
0.5937500000000011
 40
0.5937500000000011
 40
0.625000000000001
 40
0.625000000000001
 40
0.6562500000000009
 40
0.6562500000000009
 40
0.6875000000000008
 40
0.6875000000000008
 40
0.7187500000000007
 40
0.7187500000000007
 40
0.7500000000000004
 40
0.7500000000000004
 40
0.7812500000000003
 40
0.7812500000000003
 40
0.8125000000000002
 40
0.8125000000000002
 40
0.8437500000000001
 40
0.8437500000000001
 40
0.875
 40
0.875
 40
0.9062499999999999
 40
0.9062499999999999
 40
0.9374999999999997
 40
0.9374999999999997
 40
1.0
 40
1.0
 40
1.0
 40
1.0
 10
10.60808274902045
 20
14.67518531385664
 30
0.0
 10
10.7714399435272
 20
14.66271400222903
 30
0.0
 10
10.9539607682107
 20
14.63137977172278
 30
0.0
 10
11.25812245907615
 20
14.5469177059656
 30
0.0
 10
11.36641585866904
 20
14.51171888144388
 30
0.0
 10
11.58574352105284
 20
14.42634662926307
 30
0.0
 10
11.69715944869879
 20
14.37625545607604
 30
0.0
 10
11.92117180667888
 20
14.2548371163082
 30
0.0
 10
12.02893523597722
 20
14.18587333985282
 30
0.0
 10
12.2296103085303
 20
14.02983333564746
 30
0.0
 10
12.32267742835869
 20
13.94226901556094
 30
0.0
 10
12.48372543018654
 20
13.7541501921711
 30
0.0
 10
12.553660539161
 20
13.6513032309926
 30
0.0
 10
12.66489321927142
 20
13.43691773984445
 30
0.0
 10
12.70717730188428
 20
13.32435113894571
 30
0.0
 10
12.76326417564931
 20
13.08988167819452
 30
0.0
 10
12.77635511926062
 20
12.97149039057748
 30
0.0
 10
12.77342672652903
 20
12.7321108433757
 30
0.0
 10
12.75684979458239
 20
12.61060743991046
 30
0.0
 10
12.69552150102995
 20
12.37773497196915
 30
0.0
 10
12.65033349294085
 20
12.26373909474825
 30
0.0
 10
12.53298957942556
 20
12.04909612932804
 30
0.0
 10
12.4621453620085
 20
11.95022400081661
 30
0.0
 10
12.29651277322139
 20
11.77143410287179
 30
0.0
 10
12.20150676240368
 20
11.69219588739501
 30
0.0
 10
11.99926684334574
 20
11.56533020093841
 30
0.0
 10
11.88885801145315
 20
11.51587497169278
 30
0.0
 10
11.55399205333034
 20
11.42069275726626
 30
0.0
 10
11.32716468948124
 20
11.42871083881322
 30
0.0
 10
11.12500000000002
 20
11.48273236161757
 30
0.0
  0
SPLINE
  5
237
330
1F
100
AcDbEntity
  8
SK3
  6
SLD-Dashed
370
    18
100
AcDbSpline
210
0.0
220
0.0
230
1.0
 70
     8
 71
     3
 72
    30
 73
    26
 74
     0
 42
0.000000001
 43
0.00000001
 40
0.0
 40
0.0
 40
0.0
 40
0.0
 40
0.0624999999999997
 40
0.0624999999999997
 40
0.1249999999999995
 40
0.1249999999999995
 40
0.1562499999999993
 40
0.1562499999999993
 40
0.1874999999999992
 40
0.1874999999999992
 40
0.2187499999999991
 40
0.2187499999999991
 40
0.2499999999999989
 40
0.2499999999999989
 40
0.2812499999999988
 40
0.2812499999999988
 40
0.3124999999999987
 40
0.3124999999999987
 40
0.3437499999999986
 40
0.3437499999999986
 40
0.3749999999999984
 40
0.3749999999999984
 40
0.4374999999999994
 40
0.4374999999999994
 40
0.5000000000000003
 40
0.5000000000000003
 40
0.5000000000000003
 40
0.5000000000000003
 10
11.12500000000002
 20
11.48273236161759
 30
0.0
 10
10.9228353105188
 20
11.53675388442191
 30
0.0
 10
10.74714710048239
 20
11.63024516394926
 30
0.0
 10
10.42066988662176
 20
11.86454434722231
 30
0.0
 10
10.27375737476435
 20
12.00407384287208
 30
0.0
 10
10.07148943268485
 20
12.2417783920363
 30
0.0
 10
10.00699015299672
 20
12.3260933977068
 30
0.0
 10
9.883509956371203
 20
12.50701007175131
 30
0.0
 10
9.824268573097886
 20
12.60415729348403
 30
0.0
 10
9.71515470609033
 20
12.8093465113155
 30
0.0
 10
9.66439673573348
 20
12.91903622889807
 30
0.0
 10
9.576981863499146
 20
13.14891853741636
 30
0.0
 10
9.540303532497504
 20
13.26831266228051
 30
0.0
 10
9.487704529937997
 20
13.52080982106193
 30
0.0
 10
9.473745253197983
 20
13.64846695671307
 30
0.0
 10
9.476438089560556
 20
13.88700257856812
 30
0.0
 10
9.49319789642801
 20
13.99682053671473
 30
0.0
 10
9.549353346861217
 20
14.18374939795269
 30
0.0
 10
9.588589477848034
 20
14.2623151046244
 30
0.0
 10
9.678480018824335
 20
14.39201189392007
 30
0.0
 10
9.730204466999181
 20
14.44496665500972
 30
0.0
 10
9.89634859518447
 20
14.57471258814562
 30
0.0
 10
10.02083275682618
 20
14.6245520934729
 30
0.0
 10
10.29708420272973
 20
14.68178062150165
 30
0.0
 10
10.4447255545137
 20
14.68765662548424
 30
0.0
 10
10.60808274902045
 20
14.67518531385664
 30
0.0
  0
DIMENSION
  5
238
330
1F
100
AcDbEntity
  8
2
100
AcDbDimension
  2
_D
 10
168.275
 20
77.8719820922
 30
0.0
 11
57.4089091195
 21
77.8719820922
 31
0.0
 70
   160
  1
<>
 71
     2
 42
-1.0
  3
SLDDIMSTYLE0
100
AcDbAlignedDimension
 13
0.0
 23
34.925
 33
0.0
 14
168.275
 24
11.305
 34
0.0
100
AcDbRotatedDimension
  0
DIMENSION
  5
24D
330
1F
100
AcDbEntity
  8
SK2
100
AcDbDimension
  2
_D_1
 10
168.275
 20
64.3368450555
 30
0.0
 11
87.4375492445
 21
64.3368450555
 31
0.0
 70
   160
  1
<>
 71
     2
 42
-1.0
  3
SLDDIMSTYLE0
100
AcDbAlignedDimension
 13
19.05
 23
46.5560855313
 33
0.0
 14
168.275
 24
11.305
 34
0.0
100
AcDbRotatedDimension
  0
DIMENSION
  5
260
330
1F
100
AcDbEntity
  8
SK2
100
AcDbDimension
  2
_D_2
 10
168.275
 20
49.5220395602
 30
0.0
 11
99.4757857178
 21
49.5220395602
 31
0.0
 70
   160
  1
<>
 71
     2
 42
-1.0
  3
SLDDIMSTYLE0
100
AcDbAlignedDimension
 13
35.1
 23
33.401
 33
0.0
 14
168.275
 24
11.305
 34
0.0
 50
0.0
100
AcDbRotatedDimension
  0
DIMENSION
  5
273
330
1F
100
AcDbEntity
  8
SK2
100
AcDbDimension
  2
_D_3
 10
168.275
 20
35.9869025235
 30
0.0
 11
129.4335556924
 21
35.9869025235
 31
0.0
 70
   160
  1
<>
 71
     2
 42
-1.0
  3
SLDDIMSTYLE0
100
AcDbAlignedDimension
 13
89.075
 23
15.875
 33
0.0
 14
168.275
 24
11.305
 34
0.0
100
AcDbRotatedDimension
  0
DIMENSION
  5
286
330
1F
100
AcDbEntity
  8
SK2
100
AcDbDimension
  2
_D_4
 10
146.05
 20
24.2905569644
 30
0.0
 11
158.1280462103
 21
24.2905569644
 31
0.0
 70
   160
  1
<>
 71
     2
 42
-1.0
  3
SLDDIMSTYLE0
100
AcDbAlignedDimension
 13
168.275
 23
7.209523521
 33
0.0
 14
146.05
 24
16.375
 34
0.0
100
AcDbRotatedDimension
  0
DIMENSION
  5
299
330
1F
100
AcDbEntity
  8
SK2
100
AcDbDimension
  2
_D_5
 10
19.05
 20
64.3368450555
 30
0.0
 11
10.4871007255
 21
64.3368450555
 31
0.0
 70
   160
  1
<>
 71
     2
 42
-1.0
  3
SLDDIMSTYLE1
100
AcDbAlignedDimension
 13
0.0
 23
34.925
 33
0.0
 14
19.05
 24
46.5560855313
 34
0.0
100
AcDbRotatedDimension
  0
DIMENSION
  5
2A4
330
1F
100
AcDbEntity
  8
SK2
100
AcDbDimension
  2
_D_6
 10
183.9484912897
 20
6.35
 30
0.0
 11
183.9484912897
 21
0.2429709673
 31
0.0
 70
   160
  1
%%c<>
 71
     2
 42
-1.0
  3
SLDDIMSTYLE2
100
AcDbAlignedDimension
 13
166.775
 23
-6.35
 33
0.0
 14
166.775
 24
6.35
 34
0.0
 50
90.0
100
AcDbRotatedDimension
  0
DIMENSION
  5
2B9
330
1F
100
AcDbEntity
  8
SK2
100
AcDbDimension
  2
_D_7
 10
199.1385581962
 20
-11.305
 30
0.0
 11
199.1385581962
 21
0.2429709673
 31
0.0
 70
   160
  1
%%c<>
 71
     2
 42
-1.0
  3
SLDDIMSTYLE0
100
AcDbAlignedDimension
 13
168.275
 23
11.305
 33
0.0
 14
168.275
 24
-11.305
 34
0.0
 50
90.0
100
AcDbRotatedDimension
  0
DIMENSION
  5
2CB
330
1F
100
AcDbEntity
  8
SK2
100
AcDbDimension
  2
_D_8
 10
212.7231708769
 20
15.875
 30
0.0
 11
212.7231708769
 21
0.2429709673
 31
0.0
 70
   160
  1
%%c<>
 71
     2
 42
-1.0
  3
SLDDIMSTYLE0
100
AcDbAlignedDimension
 13
163.705
 23
-15.875
 33
0.0
 14
163.705
 24
15.875
 34
0.0
 50
90.0
100
AcDbRotatedDimension
  0
DIMENSION
  5
2DD
330
1F
100
AcDbEntity
  8
SK2
100
AcDbDimension
  2
_D_9
 10
168.275
 20
-63.6608313327
 30
0.0
 11
48.4737338719
 21
-63.6608313327
 31
0.0
 70
   160
  1
<>
 71
     2
 42
-1.0
  3
SLDDIMSTYLE3
100
AcDbAlignedDimension
 13
-101.6
 23
-18.2922326599
 33
0.0
 14
168.275
 24
-11.305
 34
0.0
 50
0.0
100
AcDbRotatedDimension
  0
DIMENSION
  5
2F1
330
1F
100
AcDbEntity
  8
SK2
100
AcDbDimension
  2
_D_10
 10
168.275
 20
-53.0515096804
 30
0.0
 11
147.0709580367
 21
-53.0515096804
 31
0.0
 70
   160
  1
<>
 71
     2
 42
-1.0
  3
SLDDIMSTYLE0
100
AcDbAlignedDimension
 13
123.8254200214
 23
-6.35
 33
0.0
 14
168.275
 24
-11.305
 34
0.0
 50
0.0
100
AcDbRotatedDimension
  0
DIMENSION
  5
304
330
1F
100
AcDbEntity
  8
SK2
100
AcDbDimension
  2
_D_11
 10
168.275
 20
-36.8050432957
 30
0.0
 11
152.9737008267
 21
-36.8050432957
 31
0.0
 70
   160
  1
<>
 71
     2
 42
-1.0
  3
SLDDIMSTYLE4
100
AcDbAlignedDimension
 13
163.705
 23
-15.875
 33
0.0
 14
168.275
 24
-11.305
 34
0.0
100
AcDbRotatedDimension
  0
DIMENSION
  5
311
330
1F
100
AcDbEntity
  8
SK2
100
AcDbDimension
  2
_D_12
 10
-122.6207383346
 20
-47.4754841997
 30
0.0
 11
-122.6207383346
 21
1.1760623086
 31
0.0
 70
   160
  1
%%c<>
 71
     2
 42
-1.0
  3
SLDDIMSTYLE1
100
AcDbAlignedDimension
 13
7.5902766066
 23
47.2968145978
 33
0.0
 14
3.95
 24
-47.4754841997
 34
0.0
 50
90.0
100
AcDbRotatedDimension
  0
DIMENSION
  5
31C
330
1F
100
AcDbEntity
  8
SK2
100
AcDbDimension
  2
_D_13
 10
-112.6794344586
 20
-12.6999998465
 30
0.0
 11
-112.6794344586
 21
1.1760623086
 31
0.0
 70
   160
  1
<>
 71
     2
 42
-1.0
  3
SLDDIMSTYLE1
100
AcDbAlignedDimension
 13
-94.967097044
 23
12.6999998465
 33
0.0
 14
-94.967097044
 24
-12.6999998465
 34
0.0
 50
90.0
100
AcDbRotatedDimension
  0
MTEXT
  5
327
330
1F
100
AcDbEntity
  8
SK6
 62
     5
100
AcDbMText
 10
-59.6087196797
 20
-37.8841945174
 30
0.0
 40
3.5
 41
0.0
 71
     1
 72
     1
  1
AA3B20-50 13 168
  7
SLDTEXTSTYLE0
 73
     1
 44
1.0
  0
MTEXT
  5
328
330
1F
100
AcDbEntity
  8
SK6
 62
     5
100
AcDbMText
 10
-64.7460917206
 20
42.0112082879
 30
0.0
 40
3.5
 41
0.0
 71
     1
 72
     1
  1
ASME B5.50 CAT 50
  7
SLDTEXTSTYLE0
 73
     1
 44
1.0
  0
ENDSEC
  0
SECTION
  2
OBJECTS
  0
DICTIONARY
  5
C
330
0
100
AcDbDictionary
281
     1
  3
ACAD_GROUP
350
D
  3
ACAD_LAYOUT
350
1A
  3
ACAD_MLINESTYLE
350
17
  3
ACAD_PLOTSETTINGS
350
19
  3
ACAD_PLOTSTYLENAME
350
E
  3
ACAD_SCALELIST
350
47
  0
DICTIONARY
  5
D
102
{ACAD_REACTORS
330
C
102
}
330
C
100
AcDbDictionary
281
     1
  0
DICTIONARY
  5
1A
102
{ACAD_REACTORS
330
C
102
}
330
C
100
AcDbDictionary
281
     1
  3
Layout1
350
1E
  3
Layout2
350
26
  3
Model
350
22
  0
DICTIONARY
  5
17
102
{ACAD_REACTORS
330
C
102
}
330
C
100
AcDbDictionary
281
     1
  3
Standard
350
18
  0
DICTIONARY
  5
19
102
{ACAD_REACTORS
330
C
102
}
330
C
100
AcDbDictionary
281
     1
  0
ACDBDICTIONARYWDFLT
  5
E
102
{ACAD_REACTORS
330
C
102
}
330
C
100
AcDbDictionary
281
     1
  3
Normal
350
F
100
AcDbDictionaryWithDefault
340
F
  0
DICTIONARY
  5
47
102
{ACAD_REACTORS
330
C
102
}
330
C
100
AcDbDictionary
281
     1
  3
A0
350
48
  3
A1
350
49
  3
A2
350
4A
  3
A3
350
4B
  3
A4
350
4C
  3
A5
350
4D
  3
A6
350
4E
  3
A7
350
4F
  3
A8
350
50
  3
A9
350
51
  3
B0
350
52
  3
B1
350
53
  3
B2
350
54
  3
B3
350
55
  3
B4
350
56
  3
B5
350
57
  3
B6
350
58
  3
B7
350
59
  3
B8
350
5A
  3
B9
350
5B
  3
C0
350
5C
  3
C1
350
5D
  3
C2
350
5E
  3
C3
350
5F
  3
C4
350
60
  3
C5
350
61
  3
C6
350
62
  3
C7
350
63
  3
C8
350
64
  3
C9
350
65
  3
D0
350
66
  3
D1
350
67
  3
D2
350
68
  0
LAYOUT
  5
1E
102
{ACAD_REACTORS
330
1A
102
}
330
1A
100
AcDbPlotSettings
  1

  2
none_device
  4

  6

 40
0.0
 41
0.0
 42
0.0
 43
0.0
 44
0.0
 45
0.0
 46
0.0
 47
0.0
 48
0.0
 49
0.0
140
0.0
141
0.0
142
1.0
143
1.0
 70
   688
 72
     1
 73
     0
 74
     5
  7

 75
    16
147
1.0
148
0.0
149
0.0
100
AcDbLayout
  1
Layout1
 70
     1
 71
     1
 10
0.0
 20
0.0
 11
420.0
 21
297.0
 12
0.0
 22
0.0
 32
0.0
 14
1.0000000000E+20
 24
1.0000000000E+20
 34
1.0000000000E+20
 15
-1.0000000000E+20
 25
-1.0000000000E+20
 35
-1.0000000000E+20
146
0.0
 13
0.0
 23
0.0
 33
0.0
 16
1.0
 26
0.0
 36
0.0
 17
0.0
 27
1.0
 37
0.0
 76
     0
330
1B
  0
LAYOUT
  5
26
102
{ACAD_REACTORS
330
1A
102
}
330
1A
100
AcDbPlotSettings
  1

  2
none_device
  4

  6

 40
0.0
 41
0.0
 42
0.0
 43
0.0
 44
0.0
 45
0.0
 46
0.0
 47
0.0
 48
0.0
 49
0.0
140
0.0
141
0.0
142
1.0
143
1.0
 70
   688
 72
     1
 73
     0
 74
     5
  7

 75
    16
147
1.0
148
0.0
149
0.0
100
AcDbLayout
  1
Layout2
 70
     1
 71
     2
 10
0.0
 20
0.0
 11
0.0
 21
0.0
 12
0.0
 22
0.0
 32
0.0
 14
0.0
 24
0.0
 34
0.0
 15
0.0
 25
0.0
 35
0.0
146
0.0
 13
0.0
 23
0.0
 33
0.0
 16
1.0
 26
0.0
 36
0.0
 17
0.0
 27
1.0
 37
0.0
 76
     0
330
23
  0
LAYOUT
  5
22
102
{ACAD_REACTORS
330
1A
102
}
330
1A
100
AcDbPlotSettings
  1

  2
none_device
  4
Letter_(8.50_x_11.00_Inches)
  6

 40
6.35
 41
6.35
 42
6.35000508
 43
6.35000508
 44
215.9
 45
279.4
 46
0.0
 47
0.0
 48
0.0
 49
0.0
140
0.0
141
0.0
142
1.0
143
1.0
 70
  1712
 72
     1
 73
     0
 74
     0
  7

 75
     0
147
1.0
148
0.0
149
0.0
100
AcDbLayout
  1
Model
 70
     1
 71
     0
 10
0.0
 20
0.0
 11
297.0
 21
210.0
 12
0.0
 22
0.0
 32
0.0
 14
0.0
 24
0.0
 34
0.0
 15
297.0
 25
210.0
 35
0.0
146
0.0
 13
0.0
 23
0.0
 33
0.0
 16
1.0
 26
0.0
 36
0.0
 17
0.0
 27
1.0
 37
0.0
 76
     0
330
1F
331
29
  0
MLINESTYLE
  5
18
102
{ACAD_REACTORS
330
17
102
}
330
17
100
AcDbMlineStyle
  2
Standard
 70
     0
  3

 62
   256
 51
90.0
 52
90.0
 71
     2
 49
0.5
 62
   256
  6
BYLAYER
 49
-0.5
 62
   256
  6
BYLAYER
  0
ACDBPLACEHOLDER
  5
F
102
{ACAD_REACTORS
330
E
102
}
330
E
  0
SCALE
  5
48
102
{ACAD_REACTORS
330
47
102
}
330
47
100
AcDbScale
 70
     0
300
1:1
140
1.0
141
1.0
290
     1
  0
SCALE
  5
49
102
{ACAD_REACTORS
330
47
102
}
330
47
100
AcDbScale
 70
     0
300
1:2
140
1.0
141
2.0
290
     0
  0
SCALE
  5
4A
102
{ACAD_REACTORS
330
47
102
}
330
47
100
AcDbScale
 70
     0
300
1:4
140
1.0
141
4.0
290
     0
  0
SCALE
  5
4B
102
{ACAD_REACTORS
330
47
102
}
330
47
100
AcDbScale
 70
     0
300
1:5
140
1.0
141
5.0
290
     0
  0
SCALE
  5
4C
102
{ACAD_REACTORS
330
47
102
}
330
47
100
AcDbScale
 70
     0
300
1:8
140
1.0
141
8.0
290
     0
  0
SCALE
  5
4D
102
{ACAD_REACTORS
330
47
102
}
330
47
100
AcDbScale
 70
     0
300
1:10
140
1.0
141
10.0
290
     0
  0
SCALE
  5
4E
102
{ACAD_REACTORS
330
47
102
}
330
47
100
AcDbScale
 70
     0
300
1:16
140
1.0
141
16.0
290
     0
  0
SCALE
  5
4F
102
{ACAD_REACTORS
330
47
102
}
330
47
100
AcDbScale
 70
     0
300
1:20
140
1.0
141
20.0
290
     0
  0
SCALE
  5
50
102
{ACAD_REACTORS
330
47
102
}
330
47
100
AcDbScale
 70
     0
300
1:30
140
1.0
141
30.0
290
     0
  0
SCALE
  5
51
102
{ACAD_REACTORS
330
47
102
}
330
47
100
AcDbScale
 70
     0
300
1:40
140
1.0
141
40.0
290
     0
  0
SCALE
  5
52
102
{ACAD_REACTORS
330
47
102
}
330
47
100
AcDbScale
 70
     0
300
1:50
140
1.0
141
50.0
290
     0
  0
SCALE
  5
53
102
{ACAD_REACTORS
330
47
102
}
330
47
100
AcDbScale
 70
     0
300
1:100
140
1.0
141
100.0
290
     0
  0
SCALE
  5
54
102
{ACAD_REACTORS
330
47
102
}
330
47
100
AcDbScale
 70
     0
300
2:1
140
2.0
141
1.0
290
     0
  0
SCALE
  5
55
102
{ACAD_REACTORS
330
47
102
}
330
47
100
AcDbScale
 70
     0
300
4:1
140
4.0
141
1.0
290
     0
  0
SCALE
  5
56
102
{ACAD_REACTORS
330
47
102
}
330
47
100
AcDbScale
 70
     0
300
8:1
140
8.0
141
1.0
290
     0
  0
SCALE
  5
57
102
{ACAD_REACTORS
330
47
102
}
330
47
100
AcDbScale
 70
     0
300
10:1
140
10.0
141
1.0
290
     0
  0
SCALE
  5
58
102
{ACAD_REACTORS
330
47
102
}
330
47
100
AcDbScale
 70
     0
300
100:1
140
100.0
141
1.0
290
     0
  0
SCALE
  5
59
102
{ACAD_REACTORS
330
47
102
}
330
47
100
AcDbScale
 70
     0
300
1/128" = 1'-0"
140
0.0078125
141
12.0
290
     0
  0
SCALE
  5
5A
102
{ACAD_REACTORS
330
47
102
}
330
47
100
AcDbScale
 70
     0
300
1/64" = 1'-0"
140
0.015625
141
12.0
290
     0
  0
SCALE
  5
5B
102
{ACAD_REACTORS
330
47
102
}
330
47
100
AcDbScale
 70
     0
300
1/32" = 1'-0"
140
0.03125
141
12.0
290
     0
  0
SCALE
  5
5C
102
{ACAD_REACTORS
330
47
102
}
330
47
100
AcDbScale
 70
     0
300
1/16" = 1'-0"
140
0.0625
141
12.0
290
     0
  0
SCALE
  5
5D
102
{ACAD_REACTORS
330
47
102
}
330
47
100
AcDbScale
 70
     0
300
3/32" = 1'-0"
140
0.09375
141
12.0
290
     0
  0
SCALE
  5
5E
102
{ACAD_REACTORS
330
47
102
}
330
47
100
AcDbScale
 70
     0
300
1/8" = 1'-0"
140
0.125
141
12.0
290
     0
  0
SCALE
  5
5F
102
{ACAD_REACTORS
330
47
102
}
330
47
100
AcDbScale
 70
     0
300
3/16" = 1'-0"
140
0.1875
141
12.0
290
     0
  0
SCALE
  5
60
102
{ACAD_REACTORS
330
47
102
}
330
47
100
AcDbScale
 70
     0
300
1/4" = 1'-0"
140
0.25
141
12.0
290
     0
  0
SCALE
  5
61
102
{ACAD_REACTORS
330
47
102
}
330
47
100
AcDbScale
 70
     0
300
3/8" = 1'-0"
140
0.375
141
12.0
290
     0
  0
SCALE
  5
62
102
{ACAD_REACTORS
330
47
102
}
330
47
100
AcDbScale
 70
     0
300
1/2" = 1'-0"
140
0.5
141
12.0
290
     0
  0
SCALE
  5
63
102
{ACAD_REACTORS
330
47
102
}
330
47
100
AcDbScale
 70
     0
300
3/4" = 1'-0"
140
0.75
141
12.0
290
     0
  0
SCALE
  5
64
102
{ACAD_REACTORS
330
47
102
}
330
47
100
AcDbScale
 70
     0
300
1" = 1'-0"
140
1.0
141
12.0
290
     0
  0
SCALE
  5
65
102
{ACAD_REACTORS
330
47
102
}
330
47
100
AcDbScale
 70
     0
300
1-1/2" = 1'-0"
140
1.5
141
12.0
290
     0
  0
SCALE
  5
66
102
{ACAD_REACTORS
330
47
102
}
330
47
100
AcDbScale
 70
     0
300
3" = 1'-0"
140
3.0
141
12.0
290
     0
  0
SCALE
  5
67
102
{ACAD_REACTORS
330
47
102
}
330
47
100
AcDbScale
 70
     0
300
6" = 1'-0"
140
6.0
141
12.0
290
     0
  0
SCALE
  5
68
102
{ACAD_REACTORS
330
47
102
}
330
47
100
AcDbScale
 70
     0
300
1'-0" = 1'-0"
140
12.0
141
12.0
290
     0
  0
ENDSEC
  0
EOF
