  0
SECTION
  2
HEADER
  9
$ACADVER
  1
AC1015
  9
$ACADMAINTVER
 70
     6
  9
$DWGCODEPAGE
  3
ANSI_1250
  9
$INSBASE
 10
0.0
 20
0.0
 30
0.0
  9
$EXTMIN
 10
0.0
 20
0.0
 30
0.0
  9
$EXTMAX
 10
297.0
 20
210.0
 30
0.0
  9
$LIMMIN
 10
0.0
 20
0.0
  9
$LIMMAX
 10
297.0
 20
210.0
  9
$ORTHOMODE
 70
     0
  9
$REGENMODE
 70
     1
  9
$FILLMODE
 70
     1
  9
$QTEXTMODE
 70
     0
  9
$MIRRTEXT
 70
     1
  9
$LTSCALE
 40
1.0
  9
$ATTMODE
 70
     1
  9
$TEXTSIZE
 40
3.5
  9
$TRACEWID
 40
1.0
  9
$TEXTSTYLE
  7
Standard
  9
$CLAYER
  8
0
  9
$CELTYPE
  6
ByLayer
  9
$CECOLOR
 62
   256
  9
$CELTSCALE
 40
1.0
  9
$DISPSILH
 70
     0
  9
$DIMSCALE
 40
1.0
  9
$DIMASZ
 40
3.302
  9
$DIMEXO
 40
1.0
  9
$DIMDLI
 40
3.75
  9
$DIMRND
 40
0.0
  9
$DIMDLE
 40
0.0
  9
$DIMEXE
 40
1.0
  9
$DIMTP
 40
0.0
  9
$DIMTM
 40
0.0
  9
$DIMTXT
 40
3.5
  9
$DIMCEN
 40
2.5
  9
$DIMTSZ
 40
0.0
  9
$DIMTOL
 70
     0
  9
$DIMLIM
 70
     0
  9
$DIMTIH
 70
     1
  9
$DIMTOH
 70
     1
  9
$DIMSE1
 70
     0
  9
$DIMSE2
 70
     0
  9
$DIMTAD
 70
     1
  9
$DIMZIN
 70
     0
  9
$DIMBLK
  1

  9
$DIMASO
 70
     1
  9
$DIMSHO
 70
     1
  9
$DIMPOST
  1

  9
$DIMAPOST
  1

  9
$DIMALT
 70
     0
  9
$DIMALTD
 70
     3
  9
$DIMALTF
 40
0.0393700787
  9
$DIMLFAC
 40
1.0
  9
$DIMTOFL
 70
     1
  9
$DIMTVP
 40
0.0
  9
$DIMTIX
 70
     0
  9
$DIMSOXD
 70
     0
  9
$DIMSAH
 70
     0
  9
$DIMBLK1
  1

  9
$DIMBLK2
  1

  9
$DIMSTYLE
  2
ISO-25
  9
$DIMCLRD
 70
     0
  9
$DIMCLRE
 70
     0
  9
$DIMCLRT
 70
     0
  9
$DIMTFAC
 40
1.0
  9
$DIMGAP
 40
1.524
  9
$DIMJUST
 70
     0
  9
$DIMSD1
 70
     0
  9
$DIMSD2
 70
     0
  9
$DIMTOLJ
 70
     0
  9
$DIMTZIN
 70
     0
  9
$DIMALTZ
 70
     0
  9
$DIMALTTZ
 70
     0
  9
$DIMUPT
 70
     0
  9
$DIMDEC
 70
     2
  9
$DIMTDEC
 70
     2
  9
$DIMALTU
 70
     2
  9
$DIMALTTD
 70
     3
  9
$DIMTXSTY
  7
Standard
  9
$DIMAUNIT
 70
     0
  9
$DIMADEC
 70
     2
  9
$DIMALTRND
 40
0.0
  9
$DIMAZIN
 70
     0
  9
$DIMDSEP
 70
    44
  9
$DIMATFIT
 70
     3
  9
$DIMFRAC
 70
     0
  9
$DIMLDRBLK
  1

  9
$DIMLUNIT
 70
     2
  9
$DIMLWD
 70
    -2
  9
$DIMLWE
 70
    -2
  9
$DIMTMOVE
 70
     0
  9
$LUNITS
 70
     2
  9
$LUPREC
 70
     2
  9
$SKETCHINC
 40
1.0
  9
$FILLETRAD
 40
10.0
  9
$AUNITS
 70
     0
  9
$AUPREC
 70
     2
  9
$MENU
  1
.
  9
$ELEVATION
 40
0.0
  9
$PELEVATION
 40
0.0
  9
$THICKNESS
 40
0.0
  9
$LIMCHECK
 70
     0
  9
$CHAMFERA
 40
0.0
  9
$CHAMFERB
 40
0.0
  9
$CHAMFERC
 40
0.0
  9
$CHAMFERD
 40
0.0
  9
$SKPOLY
 70
     0
  9
$TDCREATE
 40
2459278.334503692
  9
$TDUCREATE
 40
2459278.292837026
  9
$TDUPDATE
 40
2459278.33450544
  9
$TDUUPDATE
 40
2459278.292838773
  9
$TDINDWG
 40
0.0000000116
  9
$TDUSRTIMER
 40
0.0000000116
  9
$USRTIMER
 70
     1
  9
$ANGBASE
 50
0.0
  9
$ANGDIR
 70
     0
  9
$PDMODE
 70
     0
  9
$PDSIZE
 40
-1.0
  9
$PLINEWID
 40
0.0
  9
$SPLFRAME
 70
     0
  9
$SPLINETYPE
 70
     6
  9
$SPLINESEGS
 70
     8
  9
$HANDSEED
  5
308
  9
$SURFTAB1
 70
     6
  9
$SURFTAB2
 70
     6
  9
$SURFTYPE
 70
     6
  9
$SURFU
 70
     6
  9
$SURFV
 70
     6
  9
$UCSBASE
  2

  9
$UCSNAME
  2

  9
$UCSORG
 10
0.0
 20
0.0
 30
0.0
  9
$UCSXDIR
 10
1.0
 20
0.0
 30
0.0
  9
$UCSYDIR
 10
0.0
 20
1.0
 30
0.0
  9
$UCSORTHOREF
  2

  9
$UCSORTHOVIEW
 70
     0
  9
$UCSORGTOP
 10
0.0
 20
0.0
 30
0.0
  9
$UCSORGBOTTOM
 10
0.0
 20
0.0
 30
0.0
  9
$UCSORGLEFT
 10
0.0
 20
0.0
 30
0.0
  9
$UCSORGRIGHT
 10
0.0
 20
0.0
 30
0.0
  9
$UCSORGFRONT
 10
0.0
 20
0.0
 30
0.0
  9
$UCSORGBACK
 10
0.0
 20
0.0
 30
0.0
  9
$PUCSBASE
  2

  9
$PUCSNAME
  2

  9
$PUCSORG
 10
0.0
 20
0.0
 30
0.0
  9
$PUCSXDIR
 10
1.0
 20
0.0
 30
0.0
  9
$PUCSYDIR
 10
0.0
 20
1.0
 30
0.0
  9
$PUCSORTHOREF
  2

  9
$PUCSORTHOVIEW
 70
     0
  9
$PUCSORGTOP
 10
0.0
 20
0.0
 30
0.0
  9
$PUCSORGBOTTOM
 10
0.0
 20
0.0
 30
0.0
  9
$PUCSORGLEFT
 10
0.0
 20
0.0
 30
0.0
  9
$PUCSORGRIGHT
 10
0.0
 20
0.0
 30
0.0
  9
$PUCSORGFRONT
 10
0.0
 20
0.0
 30
0.0
  9
$PUCSORGBACK
 10
0.0
 20
0.0
 30
0.0
  9
$USERI1
 70
     0
  9
$USERI2
 70
     0
  9
$USERI3
 70
     0
  9
$USERI4
 70
     0
  9
$USERI5
 70
     0
  9
$USERR1
 40
0.0
  9
$USERR2
 40
0.0
  9
$USERR3
 40
0.0
  9
$USERR4
 40
0.0
  9
$USERR5
 40
0.0
  9
$WORLDVIEW
 70
     1
  9
$SHADEDGE
 70
     3
  9
$SHADEDIF
 70
    70
  9
$TILEMODE
 70
     1
  9
$MAXACTVP
 70
    64
  9
$PINSBASE
 10
0.0
 20
0.0
 30
0.0
  9
$PLIMCHECK
 70
     0
  9
$PEXTMIN
 10
1.0000000000E+20
 20
1.0000000000E+20
 30
1.0000000000E+20
  9
$PEXTMAX
 10
-1.0000000000E+20
 20
-1.0000000000E+20
 30
-1.0000000000E+20
  9
$PLIMMIN
 10
0.0
 20
0.0
  9
$PLIMMAX
 10
420.0
 20
297.0
  9
$UNITMODE
 70
     0
  9
$VISRETAIN
 70
     1
  9
$PLINEGEN
 70
     0
  9
$PSLTSCALE
 70
     1
  9
$TREEDEPTH
 70
  3020
  9
$CMLSTYLE
  2
Standard
  9
$CMLJUST
 70
     0
  9
$CMLSCALE
 40
20.0
  9
$PROXYGRAPHICS
 70
     1
  9
$MEASUREMENT
 70
     1
  9
$CELWEIGHT
370
    -1
  9
$ENDCAPS
280
     0
  9
$JOINSTYLE
280
     0
  9
$LWDISPLAY
290
     1
  9
$INSUNITS
 70
     4
  9
$HYPERLINKBASE
  1

  9
$STYLESHEET
  1

  9
$XEDIT
290
     1
  9
$CEPSNTYPE
380
     0
  9
$PSTYLEMODE
290
     1
  9
$FINGERPRINTGUID
  2
{DB24BBE0-677D-4419-AD05-D2B335E1BFD8}
  9
$VERSIONGUID
  2
{FAEB1C32-E019-11D5-929B-00C0DF256EC4}
  9
$EXTNAMES
290
     1
  9
$PSVPSCALE
 40
0.0
  9
$OLESTARTUP
290
     0
  0
ENDSEC
  0
SECTION
  2
CLASSES
  0
CLASS
  1
ACDBDICTIONARYWDFLT
  2
AcDbDictionaryWithDefault
  3
ObjectDBX Classes
 90
        0
280
     0
281
     0
  0
CLASS
  1
VISUALSTYLE
  2
AcDbVisualStyle
  3
ObjectDBX Classes
 90
     4095
280
     0
281
     0
  0
CLASS
  1
MATERIAL
  2
AcDbMaterial
  3
ObjectDBX Classes
 90
     1153
280
     0
281
     0
  0
CLASS
  1
SCALE
  2
AcDbScale
  3
ObjectDBX Classes
 90
     1153
280
     0
281
     0
  0
CLASS
  1
TABLESTYLE
  2
AcDbTableStyle
  3
ObjectDBX Classes
 90
     4095
280
     0
281
     0
  0
CLASS
  1
MLEADERSTYLE
  2
AcDbMLeaderStyle
  3
ACDB_MLEADERSTYLE_CLASS
 90
     4095
280
     0
281
     0
  0
CLASS
  1
SUN
  2
AcDbSun
  3
SCENEOE
 90
     1153
280
     0
281
     0
  0
CLASS
  1
ACDBPLACEHOLDER
  2
AcDbPlaceHolder
  3
ObjectDBX Classes
 90
        0
280
     0
281
     0
  0
CLASS
  1
LAYOUT
  2
AcDbLayout
  3
ObjectDBX Classes
 90
        0
280
     0
281
     0
  0
ENDSEC
  0
SECTION
  2
TABLES
  0
TABLE
  2
VPORT
  5
8
330
0
100
AcDbSymbolTable
 70
     1
  0
VPORT
  5
29
330
8
100
AcDbSymbolTableRecord
100
AcDbViewportTableRecord
  2
*Active
 70
     0
 10
0.0
 20
0.0
 11
1.0
 21
1.0
 12
148.5
 22
105.0
 13
0.0
 23
0.0
 14
10.0
 24
10.0
 15
10.0
 25
10.0
 16
0.0
 26
0.0
 36
1.0
 17
0.0
 27
0.0
 37
0.0
 40
210.0
 41
1.4142857143
 42
50.0
 43
0.0
 44
0.0
 50
0.0
 51
0.0
 71
     0
 72
  2000
 73
     1
 74
     3
 75
     0
 76
     0
 77
     0
 78
     0
281
     0
 65
     1
110
0.0
120
0.0
130
0.0
111
1.0
121
0.0
131
0.0
112
0.0
122
1.0
132
0.0
 79
     0
146
0.0
  0
ENDTAB
  0
TABLE
  2
LTYPE
  5
5
330
0
100
AcDbSymbolTable
 70
     8
  0
LTYPE
  5
14
330
5
100
AcDbSymbolTableRecord
100
AcDbLinetypeTableRecord
  2
ByBlock
 70
     0
  3

 72
    65
 73
     0
 40
0.0
  0
LTYPE
  5
15
330
5
100
AcDbSymbolTableRecord
100
AcDbLinetypeTableRecord
  2
ByLayer
 70
     0
  3

 72
    65
 73
     0
 40
0.0
  0
LTYPE
  5
16
330
5
100
AcDbSymbolTableRecord
100
AcDbLinetypeTableRecord
  2
Continuous
 70
     0
  3
Solid line
 72
    65
 73
     0
 40
0.0
  0
LTYPE
  5
6E
330
5
100
AcDbSymbolTableRecord
100
AcDbLinetypeTableRecord
  2
SLD-Solid
 70
     0
  3
SolidWorks Line Style
 72
    65
 73
     0
 40
0.0
  0
LTYPE
  5
6F
330
5
100
AcDbSymbolTableRecord
100
AcDbLinetypeTableRecord
  2
SLD-Dashed
 70
     0
  3
SolidWorks Line Style
 72
    65
 73
     2
 40
1.905
 49
1.27
 74
     0
 49
-0.635
 74
     0
  0
LTYPE
  5
70
330
5
100
AcDbSymbolTableRecord
100
AcDbLinetypeTableRecord
  2
SLD-Phantom
 70
     0
  3
SolidWorks Line Style
 72
    65
 73
     6
 40
12.7
 49
6.35
 74
     0
 49
-1.27
 74
     0
 49
1.27
 74
     0
 49
-1.27
 74
     0
 49
1.27
 74
     0
 49
-1.27
 74
     0
  0
LTYPE
  5
71
330
5
100
AcDbSymbolTableRecord
100
AcDbLinetypeTableRecord
  2
SLD-Chain
 70
     0
  3
SolidWorks Line Style
 72
    65
 73
     4
 40
10.16
 49
6.35
 74
     0
 49
-1.27
 74
     0
 49
1.27
 74
     0
 49
-1.27
 74
     0
  0
LTYPE
  5
72
330
5
100
AcDbSymbolTableRecord
100
AcDbLinetypeTableRecord
  2
SLD-Center
 70
     0
  3
SolidWorks Line Style
 72
    65
 73
     4
 40
19.05
 49
15.24
 74
     0
 49
-1.27
 74
     0
 49
1.27
 74
     0
 49
-1.27
 74
     0
  0
LTYPE
  5
73
330
5
100
AcDbSymbolTableRecord
100
AcDbLinetypeTableRecord
  2
SLD-Stitch
 70
     0
  3
SolidWorks Line Style
 72
    65
 73
     2
 40
0.635
 49
0.0
 74
     0
 49
-0.635
 74
     0
  0
LTYPE
  5
74
330
5
100
AcDbSymbolTableRecord
100
AcDbLinetypeTableRecord
  2
SLD-Thin-Thick-Chain
 70
     0
  3
SolidWorks Line Style
 72
    65
 73
     4
 40
10.16
 49
6.35
 74
     0
 49
-1.27
 74
     0
 49
1.27
 74
     0
 49
-1.27
 74
     0
  0
ENDTAB
  0
TABLE
  2
LAYER
  5
2
330
0
100
AcDbSymbolTable
 70
    14
  0
LAYER
  5
10
330
2
100
AcDbSymbolTableRecord
100
AcDbLayerTableRecord
  2
0
 70
     0
 62
     7
  6
Continuous
370
    -3
390
F
  0
LAYER
  5
75
330
2
100
AcDbSymbolTableRecord
100
AcDbLayerTableRecord
  2
SLD-0
 70
     0
 62
   179
  6
SLD-Solid
370
    -3
390
F
  0
LAYER
  5
76
330
2
100
AcDbSymbolTableRecord
100
AcDbLayerTableRecord
  2
80
 70
     0
 62
    -6
  6
SLD-Solid
290
     0
370
    -3
390
F
  0
LAYER
  5
77
330
2
100
AcDbSymbolTableRecord
100
AcDbLayerTableRecord
  2
81
 70
     0
 62
    -3
  6
SLD-Solid
290
     0
370
    -3
390
F
  0
LAYER
  5
78
330
2
100
AcDbSymbolTableRecord
100
AcDbLayerTableRecord
  2
1
 70
     0
 62
     4
  6
SLD-Solid
290
     0
370
    -3
390
F
  0
LAYER
  5
79
330
2
100
AcDbSymbolTableRecord
100
AcDbLayerTableRecord
  2
4
 70
     0
 62
    -2
  6
SLD-Chain
290
     0
370
    -3
390
F
  0
LAYER
  5
7A
330
2
100
AcDbSymbolTableRecord
100
AcDbLayerTableRecord
  2
2
 70
     0
 62
     7
  6
SLD-Solid
290
     0
370
    -3
390
F
  0
LAYER
  5
7B
330
2
100
AcDbSymbolTableRecord
100
AcDbLayerTableRecord
  2
SK3
 70
     0
 62
     1
  6
SLD-Dashed
290
     0
370
    -3
390
F
  0
LAYER
  5
7C
330
2
100
AcDbSymbolTableRecord
100
AcDbLayerTableRecord
  2
SK4
 70
     0
 62
     2
  6
SLD-Chain
290
     0
370
    -3
390
F
  0
LAYER
  5
7D
330
2
100
AcDbSymbolTableRecord
100
AcDbLayerTableRecord
  2
SK2
 70
     0
 62
     7
  6
SLD-Solid
290
     0
370
    -3
390
F
  0
LAYER
  5
7E
330
2
100
AcDbSymbolTableRecord
100
AcDbLayerTableRecord
  2
SK6
 70
     0
 62
     5
  6
SLD-Solid
290
     0
370
    -3
390
F
  0
LAYER
  5
7F
330
2
100
AcDbSymbolTableRecord
100
AcDbLayerTableRecord
  2
6
 70
     0
 62
     5
  6
SLD-Solid
370
    -3
390
F
  0
LAYER
  5
80
330
2
100
AcDbSymbolTableRecord
100
AcDbLayerTableRecord
  2
SK1
 70
     0
 62
     4
  6
SLD-Solid
370
    -3
390
F
  0
LAYER
  5
81
330
2
100
AcDbSymbolTableRecord
100
AcDbLayerTableRecord
  2
LAYER5
 70
     0
 62
   218
  6
SLD-Solid
370
    -3
390
F
  0
ENDTAB
  0
TABLE
  2
STYLE
  5
3
330
0
100
AcDbSymbolTable
 70
     3
  0
STYLE
  5
11
330
3
100
AcDbSymbolTableRecord
100
AcDbTextStyleTableRecord
  2
Standard
 70
     0
 40
0.0
 41
1.0
 50
0.0
 71
     0
 42
3.5
  3
txt
  4

  0
STYLE
  5
218
330
3
100
AcDbSymbolTableRecord
100
AcDbTextStyleTableRecord
  2
SLDTEXTSTYLE0
 70
     0
 40
0.0
 41
0.75
 50
0.0
 71
     0
 42
3.5
  3
TXT
  4

  0
STYLE
  5
297
330
3
100
AcDbSymbolTableRecord
100
AcDbTextStyleTableRecord
  2
SLDTEXTSTYLE1
 70
     0
 40
0.0
 41
0.6666666667
 50
0.0
 71
     0
 42
3.5
  3
TXT
  4

  0
ENDTAB
  0
TABLE
  2
VIEW
  5
6
330
0
100
AcDbSymbolTable
 70
     0
  0
ENDTAB
  0
TABLE
  2
UCS
  5
7
330
0
100
AcDbSymbolTable
 70
     0
  0
ENDTAB
  0
TABLE
  2
APPID
  5
9
330
0
100
AcDbSymbolTable
 70
     1
  0
APPID
  5
12
330
9
100
AcDbSymbolTableRecord
100
AcDbRegAppTableRecord
  2
ACAD
 70
     0
  0
ENDTAB
  0
TABLE
  2
DIMSTYLE
  5
A
330
0
100
AcDbSymbolTable
 70
     5
100
AcDbDimStyleTable
  0
DIMSTYLE
105
27
330
A
100
AcDbSymbolTableRecord
100
AcDbDimStyleTableRecord
  2
ISO-25
 70
     0
 41
2.5
 42
0.625
 43
3.75
 44
1.25
 73
     0
 74
     0
 77
     1
 78
     8
140
2.5
141
2.5
143
0.0393700787
147
0.625
171
     3
172
     1
178
     0
271
     2
272
     2
274
     3
278
    44
283
     0
284
     8
340
11
  0
DIMSTYLE
105
219
102
{ACAD_REACTORS
330
217
330
22C
330
23F
330
252
330
265
330
299
330
2AC
330
2E1
330
2F3
102
}
330
A
100
AcDbSymbolTableRecord
100
AcDbDimStyleTableRecord
  2
SLDDIMSTYLE0
 70
     0
 41
3.302
 44
0.0
 45
0.000000001
 73
     0
 74
     0
 77
     1
 78
    12
 79
     3
140
3.5
143
0.0393700787
147
0.875
148
0.000000001
170
     1
173
     1
178
     0
271
     2
272
     2
276
     2
284
    12
340
218
  0
DIMSTYLE
105
279
102
{ACAD_REACTORS
330
278
330
283
330
28E
102
}
330
A
100
AcDbSymbolTableRecord
100
AcDbDimStyleTableRecord
  2
SLDDIMSTYLE1
 70
     0
 41
3.302
 44
0.0
 45
0.000000001
 73
     0
 74
     0
 77
     1
 78
    12
 79
     3
140
3.5
147
0.875
173
     1
178
     0
271
     2
272
     2
276
     2
284
    12
340
218
  0
DIMSTYLE
105
2C0
102
{ACAD_REACTORS
330
2BF
102
}
330
A
100
AcDbSymbolTableRecord
100
AcDbDimStyleTableRecord
  2
SLDDIMSTYLE2
 70
     0
 41
3.302
 44
0.0
 45
0.000000001
 73
     0
 74
     0
 77
     1
 78
    12
 79
     3
140
3.5
147
0.875
172
     1
173
     1
178
     0
271
     2
272
     2
276
     2
284
    12
289
     0
340
218
  0
DIMSTYLE
105
2CD
102
{ACAD_REACTORS
330
2CC
102
}
330
A
100
AcDbSymbolTableRecord
100
AcDbDimStyleTableRecord
  2
SLDDIMSTYLE3
 70
     0
 41
3.302
 44
0.0
 45
0.000000001
 73
     0
 74
     0
 77
     1
 78
    12
 79
     3
140
3.5
143
0.0393700787
147
0.875
148
0.000000001
170
     1
171
     3
172
     1
173
     1
178
     0
271
     3
272
     2
274
     3
276
     2
284
    12
289
     0
340
218
  0
ENDTAB
  0
TABLE
  2
BLOCK_RECORD
  5
1
330
0
100
AcDbSymbolTable
 70
    15
  0
BLOCK_RECORD
  5
1F
330
1
100
AcDbSymbolTableRecord
100
AcDbBlockTableRecord
  2
*Model_Space
340
22
  0
BLOCK_RECORD
  5
1B
330
1
100
AcDbSymbolTableRecord
100
AcDbBlockTableRecord
  2
*Paper_Space
340
1E
  0
BLOCK_RECORD
  5
23
330
1
100
AcDbSymbolTableRecord
100
AcDbBlockTableRecord
  2
*Paper_Space0
340
26
  0
BLOCK_RECORD
  5
21A
330
1
100
AcDbSymbolTableRecord
100
AcDbBlockTableRecord
  2
_D
340
0
  0
BLOCK_RECORD
  5
22D
330
1
100
AcDbSymbolTableRecord
100
AcDbBlockTableRecord
  2
_D_1
340
0
  0
BLOCK_RECORD
  5
240
330
1
100
AcDbSymbolTableRecord
100
AcDbBlockTableRecord
  2
_D_2
340
0
  0
BLOCK_RECORD
  5
253
330
1
100
AcDbSymbolTableRecord
100
AcDbBlockTableRecord
  2
_D_3
340
0
  0
BLOCK_RECORD
  5
266
330
1
100
AcDbSymbolTableRecord
100
AcDbBlockTableRecord
  2
_D_4
340
0
  0
BLOCK_RECORD
  5
27A
330
1
100
AcDbSymbolTableRecord
100
AcDbBlockTableRecord
  2
_D_5
340
0
  0
BLOCK_RECORD
  5
284
330
1
100
AcDbSymbolTableRecord
100
AcDbBlockTableRecord
  2
_D_6
340
0
  0
BLOCK_RECORD
  5
28F
330
1
100
AcDbSymbolTableRecord
100
AcDbBlockTableRecord
  2
_D_7
340
0
  0
BLOCK_RECORD
  5
29A
330
1
100
AcDbSymbolTableRecord
100
AcDbBlockTableRecord
  2
_D_8
340
0
  0
BLOCK_RECORD
  5
2AD
330
1
100
AcDbSymbolTableRecord
100
AcDbBlockTableRecord
  2
_D_9
340
0
  0
BLOCK_RECORD
  5
2C1
330
1
100
AcDbSymbolTableRecord
100
AcDbBlockTableRecord
  2
_D_10
340
0
  0
BLOCK_RECORD
  5
2CE
330
1
100
AcDbSymbolTableRecord
100
AcDbBlockTableRecord
  2
_D_11
340
0
  0
BLOCK_RECORD
  5
2E2
330
1
100
AcDbSymbolTableRecord
100
AcDbBlockTableRecord
  2
_D_12
340
0
  0
BLOCK_RECORD
  5
2F4
330
1
100
AcDbSymbolTableRecord
100
AcDbBlockTableRecord
  2
_D_13
340
0
  0
ENDTAB
  0
ENDSEC
  0
SECTION
  2
BLOCKS
  0
BLOCK
  5
20
330
1F
100
AcDbEntity
  8
0
100
AcDbBlockBegin
  2
*Model_Space
 70
     0
 10
0.0
 20
0.0
 30
0.0
  3
*Model_Space
  1

  0
ENDBLK
  5
21
330
1F
100
AcDbEntity
  8
0
100
AcDbBlockEnd
  0
BLOCK
  5
1C
330
1B
100
AcDbEntity
 67
     1
  8
0
100
AcDbBlockBegin
  2
*Paper_Space
 70
     0
 10
0.0
 20
0.0
 30
0.0
  3
*Paper_Space
  1

  0
ENDBLK
  5
1D
330
1B
100
AcDbEntity
 67
     1
  8
0
100
AcDbBlockEnd
  0
BLOCK
  5
24
330
23
100
AcDbEntity
  8
0
100
AcDbBlockBegin
  2
*Paper_Space0
 70
     0
 10
0.0
 20
0.0
 30
0.0
  3
*Paper_Space0
  1

  0
ENDBLK
  5
25
330
23
100
AcDbEntity
  8
0
100
AcDbBlockEnd
  0
BLOCK
  5
21B
330
21A
100
AcDbEntity
  8
0
100
AcDbBlockBegin
  2
_D
 70
     0
 10
0.0
 20
0.0
 30
0.0
  3
_D
  1

  0
SOLID
  5
21D
330
21A
100
AcDbEntity
  8
2
100
AcDbTrace
 10
0.0
 20
86.8206272896
 30
0.0
 11
3.302
 21
86.3126272896
 31
0.0
 12
3.302
 22
87.3286272896
 32
0.0
 13
3.302
 23
87.3286272896
 33
0.0
  0
SOLID
  5
21E
330
21A
100
AcDbEntity
  8
2
100
AcDbTrace
 10
165.1
 20
86.8206272896
 30
0.0
 11
161.798
 21
87.3286272896
 31
0.0
 12
161.798
 22
86.3126272896
 32
0.0
 13
161.798
 23
86.3126272896
 33
0.0
  0
LINE
  5
21F
330
21A
100
AcDbEntity
  8
2
100
AcDbLine
 10
53.0947159662
 20
97.6135090056
 30
0.0
 11
52.0283097088
 21
97.6135090056
 31
0.0
  0
LINE
  5
220
330
21A
100
AcDbEntity
  8
2
100
AcDbLine
 10
52.0283097088
 20
97.6135090056
 30
0.0
 11
52.0283097088
 21
92.0572590146
 31
0.0
  0
LINE
  5
221
330
21A
100
AcDbEntity
  8
2
100
AcDbLine
 10
52.0283097088
 20
92.0572590146
 30
0.0
 11
53.0947159662
 21
92.0572590146
 31
0.0
  0
LINE
  5
222
330
21A
100
AcDbEntity
  8
2
100
AcDbLine
 10
62.1461050271
 20
97.6135090056
 30
0.0
 11
63.2125112846
 21
97.6135090056
 31
0.0
  0
LINE
  5
223
330
21A
100
AcDbEntity
  8
2
100
AcDbLine
 10
63.2125112846
 20
97.6135090056
 30
0.0
 11
63.2125112846
 21
92.0572590146
 31
0.0
  0
LINE
  5
224
330
21A
100
AcDbEntity
  8
2
100
AcDbLine
 10
63.2125112846
 20
92.0572590146
 30
0.0
 11
62.1461050271
 21
92.0572590146
 31
0.0
  0
LINE
  5
225
330
21A
100
AcDbEntity
  8
2
100
AcDbLine
 10
0.0
 20
35.925
 30
0.0
 11
0.0
 21
87.8206272896
 31
0.0
  0
LINE
  5
226
330
21A
100
AcDbEntity
  8
2
100
AcDbLine
 10
165.1
 20
10.91
 30
0.0
 11
165.1
 21
87.8206272896
 31
0.0
  0
LINE
  5
227
330
21A
100
AcDbEntity
  8
2
100
AcDbLine
 10
0.0
 20
86.8206272896
 30
0.0
 11
165.1
 21
86.8206272896
 31
0.0
  0
MTEXT
  5
228
330
21A
100
AcDbEntity
  8
2
100
AcDbMText
 10
50.9813478545
 20
91.3858365554
 30
0.0
 40
3.5
 41
0.0
 71
     1
 72
     1
  1

  7
SLDTEXTSTYLE0
 73
     1
 44
1.0
  0
MTEXT
  5
229
330
21A
100
AcDbEntity
  8
2
100
AcDbMText
 10
53.0947159662
 20
96.5689959291
 30
0.0
 40
3.5
 41
0.0
 71
     1
 72
     1
  1
6,50
  7
SLDTEXTSTYLE0
 73
     1
 44
1.0
  0
MTEXT
  5
22A
330
21A
100
AcDbEntity
  8
2
100
AcDbMText
 10
51.801660253
 20
91.3323643788
 30
0.0
 40
3.5
 41
0.0
 71
     1
 72
     1
  1
165,1
  7
SLDTEXTSTYLE0
 73
     1
 44
1.0
  0
MTEXT
  5
22B
330
21A
100
AcDbEntity
  8
2
100
AcDbMText
 10
65.5914176584
 20
91.3858365554
 30
0.0
 40
3.5
 41
0.0
 71
     1
 72
     1
  1

  7
SLDTEXTSTYLE0
 73
     1
 44
1.0
  0
ENDBLK
  5
21C
330
21A
100
AcDbEntity
  8
0
100
AcDbBlockEnd
  0
BLOCK
  5
22E
330
22D
100
AcDbEntity
  8
0
100
AcDbBlockBegin
  2
_D_1
 70
     0
 10
0.0
 20
0.0
 30
0.0
  3
_D_1
  1

  0
SOLID
  5
230
330
22D
100
AcDbEntity
  8
SK2
100
AcDbTrace
 10
165.1
 20
72.0011862426
 30
0.0
 11
161.798
 21
72.5091862426
 31
0.0
 12
161.798
 22
71.4931862426
 32
0.0
 13
161.798
 23
71.4931862426
 33
0.0
  0
SOLID
  5
231
330
22D
100
AcDbEntity
  8
SK2
100
AcDbTrace
 10
19.05
 20
72.0011862426
 30
0.0
 11
22.352
 21
71.4931862426
 31
0.0
 12
22.352
 22
72.5091862426
 32
0.0
 13
22.352
 23
72.5091862426
 33
0.0
  0
LINE
  5
232
330
22D
100
AcDbEntity
  8
SK2
100
AcDbLine
 10
74.6573180195
 20
82.7940679587
 30
0.0
 11
73.590911762
 21
82.7940679587
 31
0.0
  0
LINE
  5
233
330
22D
100
AcDbEntity
  8
SK2
100
AcDbLine
 10
73.590911762
 20
82.7940679587
 30
0.0
 11
73.590911762
 21
77.2378179676
 31
0.0
  0
LINE
  5
234
330
22D
100
AcDbEntity
  8
SK2
100
AcDbLine
 10
73.590911762
 20
77.2378179676
 30
0.0
 11
74.6573180195
 21
77.2378179676
 31
0.0
  0
LINE
  5
235
330
22D
100
AcDbEntity
  8
SK2
100
AcDbLine
 10
83.7087070804
 20
82.7940679587
 30
0.0
 11
84.7751133378
 21
82.7940679587
 31
0.0
  0
LINE
  5
236
330
22D
100
AcDbEntity
  8
SK2
100
AcDbLine
 10
84.7751133378
 20
82.7940679587
 30
0.0
 11
84.7751133378
 21
77.2378179676
 31
0.0
  0
LINE
  5
237
330
22D
100
AcDbEntity
  8
SK2
100
AcDbLine
 10
84.7751133378
 20
77.2378179676
 30
0.0
 11
83.7087070804
 21
77.2378179676
 31
0.0
  0
LINE
  5
238
330
22D
100
AcDbEntity
  8
SK2
100
AcDbLine
 10
165.1
 20
10.91
 30
0.0
 11
165.1
 21
73.0011862426
 31
0.0
  0
LINE
  5
239
330
22D
100
AcDbEntity
  8
SK2
100
AcDbLine
 10
19.05
 20
47.5560855313
 30
0.0
 11
19.05
 21
73.0011862426
 31
0.0
  0
LINE
  5
23A
330
22D
100
AcDbEntity
  8
SK2
100
AcDbLine
 10
165.1
 20
72.0011862426
 30
0.0
 11
19.05
 21
72.0011862426
 31
0.0
  0
MTEXT
  5
23B
330
22D
100
AcDbEntity
  8
SK2
100
AcDbMText
 10
72.0906509964
 20
76.5663955085
 30
0.0
 40
3.5
 41
0.0
 71
     1
 72
     1
  1

  7
SLDTEXTSTYLE0
 73
     1
 44
1.0
  0
MTEXT
  5
23C
330
22D
100
AcDbEntity
  8
SK2
100
AcDbMText
 10
74.6573180195
 20
81.7495548822
 30
0.0
 40
3.5
 41
0.0
 71
     1
 72
     1
  1
5,75
  7
SLDTEXTSTYLE0
 73
     1
 44
1.0
  0
MTEXT
  5
23D
330
22D
100
AcDbEntity
  8
SK2
100
AcDbMText
 10
72.0712065931
 20
76.5129233318
 30
0.0
 40
3.5
 41
0.0
 71
     1
 72
     1
  1
146,05
  7
SLDTEXTSTYLE0
 73
     1
 44
1.0
  0
MTEXT
  5
23E
330
22D
100
AcDbEntity
  8
SK2
100
AcDbMText
 10
87.6073186231
 20
76.5663955085
 30
0.0
 40
3.5
 41
0.0
 71
     1
 72
     1
  1

  7
SLDTEXTSTYLE0
 73
     1
 44
1.0
  0
ENDBLK
  5
22F
330
22D
100
AcDbEntity
  8
0
100
AcDbBlockEnd
  0
BLOCK
  5
241
330
240
100
AcDbEntity
  8
0
100
AcDbBlockBegin
  2
_D_2
 70
     0
 10
0.0
 20
0.0
 30
0.0
  3
_D_2
  1

  0
SOLID
  5
243
330
240
100
AcDbEntity
  8
SK2
100
AcDbTrace
 10
165.1
 20
56.4912020176
 30
0.0
 11
161.798
 21
56.9992020176
 31
0.0
 12
161.798
 22
55.9832020176
 32
0.0
 13
161.798
 23
55.9832020176
 33
0.0
  0
SOLID
  5
244
330
240
100
AcDbEntity
  8
SK2
100
AcDbTrace
 10
35.1
 20
56.4912020176
 30
0.0
 11
38.402
 21
55.9832020176
 31
0.0
 12
38.402
 22
56.9992020176
 32
0.0
 13
38.402
 23
56.9992020176
 33
0.0
  0
LINE
  5
245
330
240
100
AcDbEntity
  8
SK2
100
AcDbLine
 10
93.2355434866
 20
67.2840837336
 30
0.0
 11
92.1691372292
 21
67.2840837336
 31
0.0
  0
LINE
  5
246
330
240
100
AcDbEntity
  8
SK2
100
AcDbLine
 10
92.1691372292
 20
67.2840837336
 30
0.0
 11
92.1691372292
 21
61.7278337426
 31
0.0
  0
LINE
  5
247
330
240
100
AcDbEntity
  8
SK2
100
AcDbLine
 10
92.1691372292
 20
61.7278337426
 30
0.0
 11
93.2355434866
 21
61.7278337426
 31
0.0
  0
LINE
  5
248
330
240
100
AcDbEntity
  8
SK2
100
AcDbLine
 10
102.2869325476
 20
67.2840837336
 30
0.0
 11
103.353338805
 21
67.2840837336
 31
0.0
  0
LINE
  5
249
330
240
100
AcDbEntity
  8
SK2
100
AcDbLine
 10
103.353338805
 20
67.2840837336
 30
0.0
 11
103.353338805
 21
61.7278337426
 31
0.0
  0
LINE
  5
24A
330
240
100
AcDbEntity
  8
SK2
100
AcDbLine
 10
103.353338805
 20
61.7278337426
 30
0.0
 11
102.2869325476
 21
61.7278337426
 31
0.0
  0
LINE
  5
24B
330
240
100
AcDbEntity
  8
SK2
100
AcDbLine
 10
165.1
 20
10.91
 30
0.0
 11
165.1
 21
57.4912020176
 31
0.0
  0
LINE
  5
24C
330
240
100
AcDbEntity
  8
SK2
100
AcDbLine
 10
35.1
 20
34.401
 30
0.0
 11
35.1
 21
57.4912020176
 31
0.0
  0
LINE
  5
24D
330
240
100
AcDbEntity
  8
SK2
100
AcDbLine
 10
165.1
 20
56.4912020176
 30
0.0
 11
35.1
 21
56.4912020176
 31
0.0
  0
MTEXT
  5
24E
330
240
100
AcDbEntity
  8
SK2
100
AcDbMText
 10
91.122175375
 20
61.0564112835
 30
0.0
 40
3.5
 41
0.0
 71
     1
 72
     1
  1

  7
SLDTEXTSTYLE0
 73
     1
 44
1.0
  0
MTEXT
  5
24F
330
240
100
AcDbEntity
  8
SK2
100
AcDbMText
 10
93.2355434866
 20
66.2395706572
 30
0.0
 40
3.5
 41
0.0
 71
     1
 72
     1
  1
5,12
  7
SLDTEXTSTYLE0
 73
     1
 44
1.0
  0
MTEXT
  5
250
330
240
100
AcDbEntity
  8
SK2
100
AcDbMText
 10
93.8820713432
 20
61.0029391068
 30
0.0
 40
3.5
 41
0.0
 71
     1
 72
     1
  1
130
  7
SLDTEXTSTYLE0
 73
     1
 44
1.0
  0
MTEXT
  5
251
330
240
100
AcDbEntity
  8
SK2
100
AcDbMText
 10
105.7322451789
 20
61.0564112835
 30
0.0
 40
3.5
 41
0.0
 71
     1
 72
     1
  1

  7
SLDTEXTSTYLE0
 73
     1
 44
1.0
  0
ENDBLK
  5
242
330
240
100
AcDbEntity
  8
0
100
AcDbBlockEnd
  0
BLOCK
  5
254
330
253
100
AcDbEntity
  8
0
100
AcDbBlockBegin
  2
_D_3
 70
     0
 10
0.0
 20
0.0
 30
0.0
  3
_D_3
  1

  0
SOLID
  5
256
330
253
100
AcDbEntity
  8
SK2
100
AcDbTrace
 10
165.1
 20
39.60830202
 30
0.0
 11
161.798
 21
40.11630202
 31
0.0
 12
161.798
 22
39.10030202
 32
0.0
 13
161.798
 23
39.10030202
 33
0.0
  0
SOLID
  5
257
330
253
100
AcDbEntity
  8
SK2
100
AcDbTrace
 10
88.9
 20
39.60830202
 30
0.0
 11
92.202
 21
39.10030202
 31
0.0
 12
92.202
 22
40.11630202
 32
0.0
 13
92.202
 23
40.11630202
 33
0.0
  0
LINE
  5
258
330
253
100
AcDbEntity
  8
SK2
100
AcDbLine
 10
119.0232685921
 20
50.4011837361
 30
0.0
 11
117.9568623347
 21
50.4011837361
 31
0.0
  0
LINE
  5
259
330
253
100
AcDbEntity
  8
SK2
100
AcDbLine
 10
117.9568623347
 20
50.4011837361
 30
0.0
 11
117.9568623347
 21
44.844933745
 31
0.0
  0
LINE
  5
25A
330
253
100
AcDbEntity
  8
SK2
100
AcDbLine
 10
117.9568623347
 20
44.844933745
 30
0.0
 11
119.0232685921
 21
44.844933745
 31
0.0
  0
LINE
  5
25B
330
253
100
AcDbEntity
  8
SK2
100
AcDbLine
 10
128.074657653
 20
50.4011837361
 30
0.0
 11
129.1410639105
 21
50.4011837361
 31
0.0
  0
LINE
  5
25C
330
253
100
AcDbEntity
  8
SK2
100
AcDbLine
 10
129.1410639105
 20
50.4011837361
 30
0.0
 11
129.1410639105
 21
44.844933745
 31
0.0
  0
LINE
  5
25D
330
253
100
AcDbEntity
  8
SK2
100
AcDbLine
 10
129.1410639105
 20
44.844933745
 30
0.0
 11
128.074657653
 21
44.844933745
 31
0.0
  0
LINE
  5
25E
330
253
100
AcDbEntity
  8
SK2
100
AcDbLine
 10
165.1
 20
10.91
 30
0.0
 11
165.1
 21
40.60830202
 31
0.0
  0
LINE
  5
25F
330
253
100
AcDbEntity
  8
SK2
100
AcDbLine
 10
88.9
 20
13.7
 30
0.0
 11
88.9
 21
40.60830202
 31
0.0
  0
LINE
  5
260
330
253
100
AcDbEntity
  8
SK2
100
AcDbLine
 10
165.1
 20
39.60830202
 30
0.0
 11
88.9
 21
39.60830202
 31
0.0
  0
MTEXT
  5
261
330
253
100
AcDbEntity
  8
SK2
100
AcDbMText
 10
116.9099004805
 20
44.1735112859
 30
0.0
 40
3.5
 41
0.0
 71
     1
 72
     1
  1

  7
SLDTEXTSTYLE0
 73
     1
 44
1.0
  0
MTEXT
  5
262
330
253
100
AcDbEntity
  8
SK2
100
AcDbMText
 10
119.0232685921
 20
49.3566706596
 30
0.0
 40
3.5
 41
0.0
 71
     1
 72
     1
  1
3,00
  7
SLDTEXTSTYLE0
 73
     1
 44
1.0
  0
MTEXT
  5
263
330
253
100
AcDbEntity
  8
SK2
100
AcDbMText
 10
119.0232685921
 20
44.1200391092
 30
0.0
 40
3.5
 41
0.0
 71
     1
 72
     1
  1
76,2
  7
SLDTEXTSTYLE0
 73
     1
 44
1.0
  0
MTEXT
  5
264
330
253
100
AcDbEntity
  8
SK2
100
AcDbMText
 10
131.5199702843
 20
44.1735112859
 30
0.0
 40
3.5
 41
0.0
 71
     1
 72
     1
  1

  7
SLDTEXTSTYLE0
 73
     1
 44
1.0
  0
ENDBLK
  5
255
330
253
100
AcDbEntity
  8
0
100
AcDbBlockEnd
  0
BLOCK
  5
267
330
266
100
AcDbEntity
  8
0
100
AcDbBlockBegin
  2
_D_4
 70
     0
 10
0.0
 20
0.0
 30
0.0
  3
_D_4
  1

  0
SOLID
  5
269
330
266
100
AcDbEntity
  8
SK2
100
AcDbTrace
 10
146.05
 20
24.8172066548
 30
0.0
 11
149.352
 21
24.3092066548
 31
0.0
 12
149.352
 22
25.3252066548
 32
0.0
 13
149.352
 23
25.3252066548
 33
0.0
  0
SOLID
  5
26A
330
266
100
AcDbEntity
  8
SK2
100
AcDbTrace
 10
165.1
 20
24.8172066548
 30
0.0
 11
161.798
 21
25.3252066548
 31
0.0
 12
161.798
 22
24.3092066548
 32
0.0
 13
161.798
 23
24.3092066548
 33
0.0
  0
LINE
  5
26B
330
266
100
AcDbEntity
  8
SK2
100
AcDbLine
 10
150.763537746
 20
35.6100883708
 30
0.0
 11
149.6971314886
 21
35.6100883708
 31
0.0
  0
LINE
  5
26C
330
266
100
AcDbEntity
  8
SK2
100
AcDbLine
 10
149.6971314886
 20
35.6100883708
 30
0.0
 11
149.6971314886
 21
30.0538383798
 31
0.0
  0
LINE
  5
26D
330
266
100
AcDbEntity
  8
SK2
100
AcDbLine
 10
149.6971314886
 20
30.0538383798
 30
0.0
 11
150.763537746
 21
30.0538383798
 31
0.0
  0
LINE
  5
26E
330
266
100
AcDbEntity
  8
SK2
100
AcDbLine
 10
159.8149268069
 20
35.6100883708
 30
0.0
 11
160.8813330644
 21
35.6100883708
 31
0.0
  0
LINE
  5
26F
330
266
100
AcDbEntity
  8
SK2
100
AcDbLine
 10
160.8813330644
 20
35.6100883708
 30
0.0
 11
160.8813330644
 21
30.0538383798
 31
0.0
  0
LINE
  5
270
330
266
100
AcDbEntity
  8
SK2
100
AcDbLine
 10
160.8813330644
 20
30.0538383798
 30
0.0
 11
159.8149268069
 21
30.0538383798
 31
0.0
  0
LINE
  5
271
330
266
100
AcDbEntity
  8
SK2
100
AcDbLine
 10
146.05
 20
8.98125
 30
0.0
 11
146.05
 21
25.8172066548
 31
0.0
  0
LINE
  5
272
330
266
100
AcDbEntity
  8
SK2
100
AcDbLine
 10
165.1
 20
10.91
 30
0.0
 11
165.1
 21
25.8172066548
 31
0.0
  0
LINE
  5
273
330
266
100
AcDbEntity
  8
SK2
100
AcDbLine
 10
146.05
 20
24.8172066548
 30
0.0
 11
165.1
 21
24.8172066548
 31
0.0
  0
MTEXT
  5
274
330
266
100
AcDbEntity
  8
SK2
100
AcDbMText
 10
148.6501696343
 20
29.3824159207
 30
0.0
 40
3.5
 41
0.0
 71
     1
 72
     1
  1

  7
SLDTEXTSTYLE0
 73
     1
 44
1.0
  0
MTEXT
  5
275
330
266
100
AcDbEntity
  8
SK2
100
AcDbMText
 10
150.763537746
 20
34.5655752944
 30
0.0
 40
3.5
 41
0.0
 71
     1
 72
     1
  1
0,75
  7
SLDTEXTSTYLE0
 73
     1
 44
1.0
  0
MTEXT
  5
276
330
266
100
AcDbEntity
  8
SK2
100
AcDbMText
 10
149.4704820328
 20
29.328943744
 30
0.0
 40
3.5
 41
0.0
 71
     1
 72
     1
  1
19,05
  7
SLDTEXTSTYLE0
 73
     1
 44
1.0
  0
MTEXT
  5
277
330
266
100
AcDbEntity
  8
SK2
100
AcDbMText
 10
163.2602394382
 20
29.3824159207
 30
0.0
 40
3.5
 41
0.0
 71
     1
 72
     1
  1

  7
SLDTEXTSTYLE0
 73
     1
 44
1.0
  0
ENDBLK
  5
268
330
266
100
AcDbEntity
  8
0
100
AcDbBlockEnd
  0
BLOCK
  5
27B
330
27A
100
AcDbEntity
  8
0
100
AcDbBlockBegin
  2
_D_5
 70
     0
 10
0.0
 20
0.0
 30
0.0
  3
_D_5
  1

  0
SOLID
  5
27D
330
27A
100
AcDbEntity
  8
SK2
100
AcDbTrace
 10
0.0
 20
72.0011862426
 30
0.0
 11
3.302
 21
71.4931862426
 31
0.0
 12
3.302
 22
72.5091862426
 32
0.0
 13
3.302
 23
72.5091862426
 33
0.0
  0
SOLID
  5
27E
330
27A
100
AcDbEntity
  8
SK2
100
AcDbTrace
 10
19.05
 20
72.0011862426
 30
0.0
 11
15.748
 21
72.5091862426
 31
0.0
 12
15.748
 22
71.4931862426
 32
0.0
 13
15.748
 23
71.4931862426
 33
0.0
  0
LINE
  5
27F
330
27A
100
AcDbEntity
  8
SK2
100
AcDbLine
 10
0.0
 20
35.925
 30
0.0
 11
0.0
 21
73.0011862426
 31
0.0
  0
LINE
  5
280
330
27A
100
AcDbEntity
  8
SK2
100
AcDbLine
 10
19.05
 20
47.5560855313
 30
0.0
 11
19.05
 21
73.0011862426
 31
0.0
  0
LINE
  5
281
330
27A
100
AcDbEntity
  8
SK2
100
AcDbLine
 10
0.0
 20
72.0011862426
 30
0.0
 11
19.05
 21
72.0011862426
 31
0.0
  0
MTEXT
  5
282
330
27A
100
AcDbEntity
  8
SK2
100
AcDbMText
 10
3.8417427854
 20
76.5129231572
 30
0.0
 40
3.5
 41
0.0
 71
     1
 72
     1
  1
19,05
  7
SLDTEXTSTYLE0
 73
     1
 44
1.0
  0
ENDBLK
  5
27C
330
27A
100
AcDbEntity
  8
0
100
AcDbBlockEnd
  0
BLOCK
  5
285
330
284
100
AcDbEntity
  8
0
100
AcDbBlockBegin
  2
_D_6
 70
     0
 10
0.0
 20
0.0
 30
0.0
  3
_D_6
  1

  0
SOLID
  5
287
330
284
100
AcDbEntity
  8
SK2
100
AcDbTrace
 10
-122.2277532724
 20
47.2968145978
 30
0.0
 11
-122.7357532724
 21
43.9948145978
 31
0.0
 12
-121.7197532724
 22
43.9948145978
 32
0.0
 13
-121.7197532724
 23
43.9948145978
 33
0.0
  0
SOLID
  5
288
330
284
100
AcDbEntity
  8
SK2
100
AcDbTrace
 10
-122.2277532724
 20
-47.4754841997
 30
0.0
 11
-121.7197532724
 21
-44.1734841997
 31
0.0
 12
-122.7357532724
 22
-44.1734841997
 32
0.0
 13
-122.7357532724
 23
-44.1734841997
 33
0.0
  0
LINE
  5
289
330
284
100
AcDbEntity
  8
SK2
100
AcDbLine
 10
2.95
 20
47.2968145978
 30
0.0
 11
-123.2277532724
 21
47.2968145978
 31
0.0
  0
LINE
  5
28A
330
284
100
AcDbEntity
  8
SK2
100
AcDbLine
 10
2.95
 20
-47.4754841997
 30
0.0
 11
-123.2277532724
 21
-47.4754841997
 31
0.0
  0
LINE
  5
28B
330
284
100
AcDbEntity
  8
SK2
100
AcDbLine
 10
-122.2277532724
 20
47.2968145978
 30
0.0
 11
-122.2277532724
 21
-47.4754841997
 31
0.0
  0
MTEXT
  5
28C
330
284
100
AcDbEntity
  8
SK2
100
AcDbMText
 10
-126.7394903616
 20
-11.613646439
 30
0.0
 40
3.5
 41
0.0
 71
     1
 72
     1
  1
%%c
  7
SLDTEXTSTYLE0
 11
-1.059690869644414E-14
 21
1.0
 31
0.0
 73
     1
 44
1.0
  0
MTEXT
  5
28D
330
284
100
AcDbEntity
  8
SK2
100
AcDbMText
 10
-126.7929625382
 20
-6.3352090406
 30
0.0
 40
3.5
 41
0.0
 71
     1
 72
     1
  1
98,42
  7
SLDTEXTSTYLE0
 11
-1.059690869644414E-14
 21
1.0
 31
0.0
 73
     1
 44
1.0
  0
ENDBLK
  5
286
330
284
100
AcDbEntity
  8
0
100
AcDbBlockEnd
  0
BLOCK
  5
290
330
28F
100
AcDbEntity
  8
0
100
AcDbBlockBegin
  2
_D_7
 70
     0
 10
0.0
 20
0.0
 30
0.0
  3
_D_7
  1

  0
SOLID
  5
292
330
28F
100
AcDbEntity
  8
SK2
100
AcDbTrace
 10
-110.5879339481
 20
12.6999998465
 30
0.0
 11
-111.0959339481
 21
9.3979998465
 31
0.0
 12
-110.0799339481
 22
9.3979998465
 32
0.0
 13
-110.0799339481
 23
9.3979998465
 33
0.0
  0
SOLID
  5
293
330
28F
100
AcDbEntity
  8
SK2
100
AcDbTrace
 10
-110.5879339481
 20
-12.6999998465
 30
0.0
 11
-110.0799339481
 21
-9.3979998465
 31
0.0
 12
-111.0959339481
 22
-9.3979998465
 32
0.0
 13
-111.0959339481
 23
-9.3979998465
 33
0.0
  0
LINE
  5
294
330
28F
100
AcDbEntity
  8
SK2
100
AcDbLine
 10
-95.967097044
 20
12.6999998465
 30
0.0
 11
-111.5879339481
 21
12.6999998465
 31
0.0
  0
LINE
  5
295
330
28F
100
AcDbEntity
  8
SK2
100
AcDbLine
 10
-95.967097044
 20
-12.6999998465
 30
0.0
 11
-111.5879339481
 21
-12.6999998465
 31
0.0
  0
LINE
  5
296
330
28F
100
AcDbEntity
  8
SK2
100
AcDbLine
 10
-110.5879339481
 20
12.6999998465
 30
0.0
 11
-110.5879339481
 21
-12.6999998465
 31
0.0
  0
MTEXT
  5
298
330
28F
100
AcDbEntity
  8
SK2
100
AcDbMText
 10
-115.0996708627
 20
-9.1869611369
 30
0.0
 40
3.5
 41
0.0
 71
     1
 72
     1
  1
1 - 8 UNC
  7
SLDTEXTSTYLE1
 11
-7.044195017643634E-15
 21
1.0
 31
0.0
 73
     1
 44
1.0
  0
ENDBLK
  5
291
330
28F
100
AcDbEntity
  8
0
100
AcDbBlockEnd
  0
BLOCK
  5
29B
330
29A
100
AcDbEntity
  8
0
100
AcDbBlockBegin
  2
_D_8
 70
     0
 10
0.0
 20
0.0
 30
0.0
  3
_D_8
  1

  0
SOLID
  5
29D
330
29A
100
AcDbEntity
  8
SK2
100
AcDbTrace
 10
-101.6
 20
-64.8401279666
 30
0.0
 11
-98.298
 21
-65.3481279666
 31
0.0
 12
-98.298
 22
-64.3321279666
 32
0.0
 13
-98.298
 23
-64.3321279666
 33
0.0
  0
SOLID
  5
29E
330
29A
100
AcDbEntity
  8
SK2
100
AcDbTrace
 10
165.1
 20
-64.8401279666
 30
0.0
 11
161.798
 21
-64.3321279666
 31
0.0
 12
161.798
 22
-65.3481279666
 32
0.0
 13
161.798
 23
-65.3481279666
 33
0.0
  0
LINE
  5
29F
330
29A
100
AcDbEntity
  8
SK2
100
AcDbLine
 10
65.1923173407
 20
-54.0472462506
 30
0.0
 11
64.1259110832
 21
-54.0472462506
 31
0.0
  0
LINE
  5
2A0
330
29A
100
AcDbEntity
  8
SK2
100
AcDbLine
 10
64.1259110832
 20
-54.0472462506
 30
0.0
 11
64.1259110832
 21
-59.6034962416
 31
0.0
  0
LINE
  5
2A1
330
29A
100
AcDbEntity
  8
SK2
100
AcDbLine
 10
64.1259110832
 20
-59.6034962416
 30
0.0
 11
65.1923173407
 21
-59.6034962416
 31
0.0
  0
LINE
  5
2A2
330
29A
100
AcDbEntity
  8
SK2
100
AcDbLine
 10
76.829817828
 20
-54.0472462506
 30
0.0
 11
77.8962240854
 21
-54.0472462506
 31
0.0
  0
LINE
  5
2A3
330
29A
100
AcDbEntity
  8
SK2
100
AcDbLine
 10
77.8962240854
 20
-54.0472462506
 30
0.0
 11
77.8962240854
 21
-59.6034962416
 31
0.0
  0
LINE
  5
2A4
330
29A
100
AcDbEntity
  8
SK2
100
AcDbLine
 10
77.8962240854
 20
-59.6034962416
 30
0.0
 11
76.829817828
 21
-59.6034962416
 31
0.0
  0
LINE
  5
2A5
330
29A
100
AcDbEntity
  8
SK2
100
AcDbLine
 10
-101.6
 20
-19.2922326599
 30
0.0
 11
-101.6
 21
-65.8401279666
 31
0.0
  0
LINE
  5
2A6
330
29A
100
AcDbEntity
  8
SK2
100
AcDbLine
 10
165.1
 20
-10.91
 30
0.0
 11
165.1
 21
-65.8401279666
 31
0.0
  0
LINE
  5
2A7
330
29A
100
AcDbEntity
  8
SK2
100
AcDbLine
 10
-101.6
 20
-64.8401279666
 30
0.0
 11
165.1
 21
-64.8401279666
 31
0.0
  0
MTEXT
  5
2A8
330
29A
100
AcDbEntity
  8
SK2
100
AcDbMText
 10
63.078949229
 20
-60.2749187008
 30
0.0
 40
3.5
 41
0.0
 71
     1
 72
     1
  1

  7
SLDTEXTSTYLE0
 73
     1
 44
1.0
  0
MTEXT
  5
2A9
330
29A
100
AcDbEntity
  8
SK2
100
AcDbMText
 10
65.1923173407
 20
-55.0917593271
 30
0.0
 40
3.5
 41
0.0
 71
     1
 72
     1
  1
10,50
  7
SLDTEXTSTYLE0
 73
     1
 44
1.0
  0
MTEXT
  5
2AA
330
29A
100
AcDbEntity
  8
SK2
100
AcDbMText
 10
65.192316875
 20
-60.3283908774
 30
0.0
 40
3.5
 41
0.0
 71
     1
 72
     1
  1
266,7
  7
SLDTEXTSTYLE0
 73
     1
 44
1.0
  0
MTEXT
  5
2AB
330
29A
100
AcDbEntity
  8
SK2
100
AcDbMText
 10
80.275129528
 20
-60.2749187008
 30
0.0
 40
3.5
 41
0.0
 71
     1
 72
     1
  1

  7
SLDTEXTSTYLE0
 73
     1
 44
1.0
  0
ENDBLK
  5
29C
330
29A
100
AcDbEntity
  8
0
100
AcDbBlockEnd
  0
BLOCK
  5
2AE
330
2AD
100
AcDbEntity
  8
0
100
AcDbBlockBegin
  2
_D_9
 70
     0
 10
0.0
 20
0.0
 30
0.0
  3
_D_9
  1

  0
SOLID
  5
2B0
330
2AD
100
AcDbEntity
  8
SK2
100
AcDbTrace
 10
165.1
 20
-48.8356023658
 30
0.0
 11
161.798
 21
-48.3276023658
 31
0.0
 12
161.798
 22
-49.3436023658
 32
0.0
 13
161.798
 23
-49.3436023658
 33
0.0
  0
SOLID
  5
2B1
330
2AD
100
AcDbEntity
  8
SK2
100
AcDbTrace
 10
126.999565016
 20
-48.8356023658
 30
0.0
 11
130.301565016
 21
-49.3436023658
 31
0.0
 12
130.301565016
 22
-48.3276023658
 32
0.0
 13
130.301565016
 23
-48.3276023658
 33
0.0
  0
LINE
  5
2B2
330
2AD
100
AcDbEntity
  8
SK2
100
AcDbLine
 10
138.7640811595
 20
-38.0427206498
 30
0.0
 11
137.6976749021
 21
-38.0427206498
 31
0.0
  0
LINE
  5
2B3
330
2AD
100
AcDbEntity
  8
SK2
100
AcDbLine
 10
137.6976749021
 20
-38.0427206498
 30
0.0
 11
137.6976749021
 21
-43.5989706408
 31
0.0
  0
LINE
  5
2B4
330
2AD
100
AcDbEntity
  8
SK2
100
AcDbLine
 10
137.6976749021
 20
-43.5989706408
 30
0.0
 11
138.7640811595
 21
-43.5989706408
 31
0.0
  0
LINE
  5
2B5
330
2AD
100
AcDbEntity
  8
SK2
100
AcDbLine
 10
147.8154702204
 20
-38.0427206498
 30
0.0
 11
148.8818764779
 21
-38.0427206498
 31
0.0
  0
LINE
  5
2B6
330
2AD
100
AcDbEntity
  8
SK2
100
AcDbLine
 10
148.8818764779
 20
-38.0427206498
 30
0.0
 11
148.8818764779
 21
-43.5989706408
 31
0.0
  0
LINE
  5
2B7
330
2AD
100
AcDbEntity
  8
SK2
100
AcDbLine
 10
148.8818764779
 20
-43.5989706408
 30
0.0
 11
147.8154702204
 21
-43.5989706408
 31
0.0
  0
LINE
  5
2B8
330
2AD
100
AcDbEntity
  8
SK2
100
AcDbLine
 10
165.1
 20
-10.91
 30
0.0
 11
165.1
 21
-49.8356023658
 31
0.0
  0
LINE
  5
2B9
330
2AD
100
AcDbEntity
  8
SK2
100
AcDbLine
 10
126.999565016
 20
-5.7625
 30
0.0
 11
126.999565016
 21
-49.8356023658
 31
0.0
  0
LINE
  5
2BA
330
2AD
100
AcDbEntity
  8
SK2
100
AcDbLine
 10
165.1
 20
-48.8356023658
 30
0.0
 11
126.999565016
 21
-48.8356023658
 31
0.0
  0
MTEXT
  5
2BB
330
2AD
100
AcDbEntity
  8
SK2
100
AcDbMText
 10
136.6507130478
 20
-44.2703931
 30
0.0
 40
3.5
 41
0.0
 71
     1
 72
     1
  1

  7
SLDTEXTSTYLE0
 73
     1
 44
1.0
  0
MTEXT
  5
2BC
330
2AD
100
AcDbEntity
  8
SK2
100
AcDbMText
 10
138.7640811595
 20
-39.0872337263
 30
0.0
 40
3.5
 41
0.0
 71
     1
 72
     1
  1
1,50
  7
SLDTEXTSTYLE0
 73
     1
 44
1.0
  0
MTEXT
  5
2BD
330
2AD
100
AcDbEntity
  8
SK2
100
AcDbMText
 10
138.7640811595
 20
-44.3238652766
 30
0.0
 40
3.5
 41
0.0
 71
     1
 72
     1
  1
38,1
  7
SLDTEXTSTYLE0
 73
     1
 44
1.0
  0
MTEXT
  5
2BE
330
2AD
100
AcDbEntity
  8
SK2
100
AcDbMText
 10
151.2607828517
 20
-44.2703931
 30
0.0
 40
3.5
 41
0.0
 71
     1
 72
     1
  1

  7
SLDTEXTSTYLE0
 73
     1
 44
1.0
  0
ENDBLK
  5
2AF
330
2AD
100
AcDbEntity
  8
0
100
AcDbBlockEnd
  0
BLOCK
  5
2C2
330
2C1
100
AcDbEntity
  8
0
100
AcDbBlockBegin
  2
_D_10
 70
     0
 10
0.0
 20
0.0
 30
0.0
  3
_D_10
  1

  0
SOLID
  5
2C4
330
2C1
100
AcDbEntity
  8
SK2
100
AcDbTrace
 10
162.31
 20
-34.4267107377
 30
0.0
 11
159.008
 21
-33.9187107377
 31
0.0
 12
159.008
 22
-34.9347107377
 32
0.0
 13
159.008
 23
-34.9347107377
 33
0.0
  0
SOLID
  5
2C5
330
2C1
100
AcDbEntity
  8
SK2
100
AcDbTrace
 10
165.1
 20
-34.4267107377
 30
0.0
 11
168.402
 21
-34.9347107377
 31
0.0
 12
168.402
 22
-33.9187107377
 32
0.0
 13
168.402
 23
-33.9187107377
 33
0.0
  0
LINE
  5
2C6
330
2C1
100
AcDbEntity
  8
SK2
100
AcDbLine
 10
162.31
 20
-13.7
 30
0.0
 11
162.31
 21
-35.4267107377
 31
0.0
  0
LINE
  5
2C7
330
2C1
100
AcDbEntity
  8
SK2
100
AcDbLine
 10
165.1
 20
-10.91
 30
0.0
 11
165.1
 21
-35.4267107377
 31
0.0
  0
LINE
  5
2C8
330
2C1
100
AcDbEntity
  8
SK2
100
AcDbLine
 10
162.31
 20
-34.4267107377
 30
0.0
 11
150.7635373968
 21
-34.4267107377
 31
0.0
  0
LINE
  5
2C9
330
2C1
100
AcDbEntity
  8
SK2
100
AcDbLine
 10
162.31
 20
-34.4267107377
 30
0.0
 11
165.1
 21
-34.4267107377
 31
0.0
  0
LINE
  5
2CA
330
2C1
100
AcDbEntity
  8
SK2
100
AcDbLine
 10
165.1
 20
-34.4267107377
 30
0.0
 11
171.45
 21
-34.4267107377
 31
0.0
  0
MTEXT
  5
2CB
330
2C1
100
AcDbEntity
  8
SK2
100
AcDbMText
 10
150.7635373968
 20
-29.9149738231
 30
0.0
 40
3.5
 41
0.0
 71
     1
 72
     1
  1
2,79
  7
SLDTEXTSTYLE0
 73
     1
 44
1.0
  0
ENDBLK
  5
2C3
330
2C1
100
AcDbEntity
  8
0
100
AcDbBlockEnd
  0
BLOCK
  5
2CF
330
2CE
100
AcDbEntity
  8
0
100
AcDbBlockBegin
  2
_D_11
 70
     0
 10
0.0
 20
0.0
 30
0.0
  3
_D_11
  1

  0
SOLID
  5
2D1
330
2CE
100
AcDbEntity
  8
SK2
100
AcDbTrace
 10
183.3555493924
 20
4.7625
 30
0.0
 11
183.8635493924
 21
8.0645
 31
0.0
 12
182.8475493924
 22
8.0645
 32
0.0
 13
182.8475493924
 23
8.0645
 33
0.0
  0
SOLID
  5
2D2
330
2CE
100
AcDbEntity
  8
SK2
100
AcDbTrace
 10
183.3555493924
 20
-4.7625
 30
0.0
 11
182.8475493924
 21
-8.0645
 31
0.0
 12
183.8635493924
 22
-8.0645
 32
0.0
 13
183.8635493924
 23
-8.0645
 33
0.0
  0
LINE
  5
2D3
330
2CE
100
AcDbEntity
  8
SK2
100
AcDbLine
 10
172.5626676763
 20
17.0409885001
 30
0.0
 11
172.5626676763
 21
15.9745822427
 31
0.0
  0
LINE
  5
2D4
330
2CE
100
AcDbEntity
  8
SK2
100
AcDbLine
 10
172.5626676763
 20
15.9745822427
 30
0.0
 11
178.1189176674
 21
15.9745822427
 31
0.0
  0
LINE
  5
2D5
330
2CE
100
AcDbEntity
  8
SK2
100
AcDbLine
 10
178.1189176674
 20
15.9745822427
 30
0.0
 11
178.1189176674
 21
17.0409885001
 31
0.0
  0
LINE
  5
2D6
330
2CE
100
AcDbEntity
  8
SK2
100
AcDbLine
 10
172.5626676763
 20
28.6784889874
 30
0.0
 11
172.5626676763
 21
29.7448952449
 31
0.0
  0
LINE
  5
2D7
330
2CE
100
AcDbEntity
  8
SK2
100
AcDbLine
 10
172.5626676763
 20
29.7448952449
 30
0.0
 11
178.1189176674
 21
29.7448952449
 31
0.0
  0
LINE
  5
2D8
330
2CE
100
AcDbEntity
  8
SK2
100
AcDbLine
 10
178.1189176674
 20
29.7448952449
 30
0.0
 11
178.1189176674
 21
28.6784889874
 31
0.0
  0
LINE
  5
2D9
330
2CE
100
AcDbEntity
  8
SK2
100
AcDbLine
 10
165.35
 20
4.7625
 30
0.0
 11
184.3555493924
 21
4.7625
 31
0.0
  0
LINE
  5
2DA
330
2CE
100
AcDbEntity
  8
SK2
100
AcDbLine
 10
165.35
 20
-4.7625
 30
0.0
 11
184.3555493924
 21
-4.7625
 31
0.0
  0
LINE
  5
2DB
330
2CE
100
AcDbEntity
  8
SK2
100
AcDbLine
 10
183.3555493924
 20
4.7625
 30
0.0
 11
183.3555493924
 21
31.3177072209
 31
0.0
  0
LINE
  5
2DC
330
2CE
100
AcDbEntity
  8
SK2
100
AcDbLine
 10
183.3555493924
 20
4.7625
 30
0.0
 11
183.3555493924
 21
-4.7625
 31
0.0
  0
LINE
  5
2DD
330
2CE
100
AcDbEntity
  8
SK2
100
AcDbLine
 10
183.3555493924
 20
-4.7625
 30
0.0
 11
183.3555493924
 21
-11.1125
 31
0.0
  0
MTEXT
  5
2DE
330
2CE
100
AcDbEntity
  8
SK2
100
AcDbMText
 10
173.6071807528
 20
17.0409885001
 30
0.0
 40
3.5
 41
0.0
 71
     1
 72
     1
  1
0,375
  7
SLDTEXTSTYLE0
 11
-7.044195017643634E-15
 21
1.0
 31
0.0
 73
     1
 44
1.0
  0
MTEXT
  5
2DF
330
2CE
100
AcDbEntity
  8
SK2
100
AcDbMText
 10
178.8438123032
 20
14.4017693353
 30
0.0
 40
3.5
 41
0.0
 71
     1
 72
     1
  1
%%c
  7
SLDTEXTSTYLE0
 11
-7.044195017643634E-15
 21
1.0
 31
0.0
 73
     1
 44
1.0
  0
MTEXT
  5
2E0
330
2CE
100
AcDbEntity
  8
SK2
100
AcDbMText
 10
178.8438123032
 20
19.6802067337
 30
0.0
 40
3.5
 41
0.0
 71
     1
 72
     1
  1
9,525
  7
SLDTEXTSTYLE0
 11
-7.044195017643634E-15
 21
1.0
 31
0.0
 73
     1
 44
1.0
  0
ENDBLK
  5
2D0
330
2CE
100
AcDbEntity
  8
0
100
AcDbBlockEnd
  0
BLOCK
  5
2E3
330
2E2
100
AcDbEntity
  8
0
100
AcDbBlockBegin
  2
_D_12
 70
     0
 10
0.0
 20
0.0
 30
0.0
  3
_D_12
  1

  0
SOLID
  5
2E5
330
2E2
100
AcDbEntity
  8
SK2
100
AcDbTrace
 10
198.2330859846
 20
9.91
 30
0.0
 11
197.7250859846
 21
6.608
 31
0.0
 12
198.7410859846
 22
6.608
 32
0.0
 13
198.7410859846
 23
6.608
 33
0.0
  0
SOLID
  5
2E6
330
2E2
100
AcDbEntity
  8
SK2
100
AcDbTrace
 10
198.2330859846
 20
-9.91
 30
0.0
 11
198.7410859846
 21
-6.608
 31
0.0
 12
197.7250859846
 22
-6.608
 32
0.0
 13
197.7250859846
 23
-6.608
 33
0.0
  0
LINE
  5
2E7
330
2E2
100
AcDbEntity
  8
SK2
100
AcDbLine
 10
187.4402042685
 20
-4.120016109
 30
0.0
 11
187.4402042685
 21
-5.1864223665
 31
0.0
  0
LINE
  5
2E8
330
2E2
100
AcDbEntity
  8
SK2
100
AcDbLine
 10
187.4402042685
 20
-5.1864223665
 30
0.0
 11
192.9964542596
 21
-5.1864223665
 31
0.0
  0
LINE
  5
2E9
330
2E2
100
AcDbEntity
  8
SK2
100
AcDbLine
 10
192.9964542596
 20
-5.1864223665
 30
0.0
 11
192.9964542596
 21
-4.120016109
 31
0.0
  0
LINE
  5
2EA
330
2E2
100
AcDbEntity
  8
SK2
100
AcDbLine
 10
187.4402042685
 20
4.9313729519
 30
0.0
 11
187.4402042685
 21
5.9977792093
 31
0.0
  0
LINE
  5
2EB
330
2E2
100
AcDbEntity
  8
SK2
100
AcDbLine
 10
187.4402042685
 20
5.9977792093
 30
0.0
 11
192.9964542596
 21
5.9977792093
 31
0.0
  0
LINE
  5
2EC
330
2E2
100
AcDbEntity
  8
SK2
100
AcDbLine
 10
192.9964542596
 20
5.9977792093
 30
0.0
 11
192.9964542596
 21
4.9313729519
 31
0.0
  0
LINE
  5
2ED
330
2E2
100
AcDbEntity
  8
SK2
100
AcDbLine
 10
166.1
 20
9.91
 30
0.0
 11
199.2330859846
 21
9.91
 31
0.0
  0
LINE
  5
2EE
330
2E2
100
AcDbEntity
  8
SK2
100
AcDbLine
 10
166.1
 20
-9.91
 30
0.0
 11
199.2330859846
 21
-9.91
 31
0.0
  0
LINE
  5
2EF
330
2E2
100
AcDbEntity
  8
SK2
100
AcDbLine
 10
198.2330859846
 20
9.91
 30
0.0
 11
198.2330859846
 21
-9.91
 31
0.0
  0
MTEXT
  5
2F0
330
2E2
100
AcDbEntity
  8
SK2
100
AcDbMText
 10
188.484717345
 20
-4.120016109
 30
0.0
 40
3.5
 41
0.0
 71
     1
 72
     1
  1
0,78
  7
SLDTEXTSTYLE0
 11
-7.044195017643634E-15
 21
1.0
 31
0.0
 73
     1
 44
1.0
  0
MTEXT
  5
2F1
330
2E2
100
AcDbEntity
  8
SK2
100
AcDbMText
 10
193.7213488954
 20
-8.0522905214
 30
0.0
 40
3.5
 41
0.0
 71
     1
 72
     1
  1
%%c
  7
SLDTEXTSTYLE0
 11
-7.044195017643634E-15
 21
1.0
 31
0.0
 73
     1
 44
1.0
  0
MTEXT
  5
2F2
330
2E2
100
AcDbEntity
  8
SK2
100
AcDbMText
 10
193.7213488954
 20
-2.773853123
 30
0.0
 40
3.5
 41
0.0
 71
     1
 72
     1
  1
19,82
  7
SLDTEXTSTYLE0
 11
-7.044195017643634E-15
 21
1.0
 31
0.0
 73
     1
 44
1.0
  0
ENDBLK
  5
2E4
330
2E2
100
AcDbEntity
  8
0
100
AcDbBlockEnd
  0
BLOCK
  5
2F5
330
2F4
100
AcDbEntity
  8
0
100
AcDbBlockBegin
  2
_D_13
 70
     0
 10
0.0
 20
0.0
 30
0.0
  3
_D_13
  1

  0
SOLID
  5
2F7
330
2F4
100
AcDbEntity
  8
SK2
100
AcDbTrace
 10
212.6973576714
 20
12.7
 30
0.0
 11
212.1893576714
 21
9.398
 31
0.0
 12
213.2053576714
 22
9.398
 32
0.0
 13
213.2053576714
 23
9.398
 33
0.0
  0
SOLID
  5
2F8
330
2F4
100
AcDbEntity
  8
SK2
100
AcDbTrace
 10
212.6973576714
 20
-12.7
 30
0.0
 11
213.2053576714
 21
-9.398
 31
0.0
 12
212.1893576714
 22
-9.398
 32
0.0
 13
212.1893576714
 23
-9.398
 33
0.0
  0
LINE
  5
2F9
330
2F4
100
AcDbEntity
  8
SK2
100
AcDbLine
 10
201.9044759554
 20
-4.1200157598
 30
0.0
 11
201.9044759554
 21
-5.1864220173
 31
0.0
  0
LINE
  5
2FA
330
2F4
100
AcDbEntity
  8
SK2
100
AcDbLine
 10
201.9044759554
 20
-5.1864220173
 30
0.0
 11
207.4607259464
 21
-5.1864220173
 31
0.0
  0
LINE
  5
2FB
330
2F4
100
AcDbEntity
  8
SK2
100
AcDbLine
 10
207.4607259464
 20
-5.1864220173
 30
0.0
 11
207.4607259464
 21
-4.1200157598
 31
0.0
  0
LINE
  5
2FC
330
2F4
100
AcDbEntity
  8
SK2
100
AcDbLine
 10
201.9044759554
 20
4.9313733011
 30
0.0
 11
201.9044759554
 21
5.9977795586
 31
0.0
  0
LINE
  5
2FD
330
2F4
100
AcDbEntity
  8
SK2
100
AcDbLine
 10
201.9044759554
 20
5.9977795586
 30
0.0
 11
207.4607259464
 21
5.9977795586
 31
0.0
  0
LINE
  5
2FE
330
2F4
100
AcDbEntity
  8
SK2
100
AcDbLine
 10
207.4607259464
 20
5.9977795586
 30
0.0
 11
207.4607259464
 21
4.9313733011
 31
0.0
  0
LINE
  5
2FF
330
2F4
100
AcDbEntity
  8
SK2
100
AcDbLine
 10
163.31
 20
12.7
 30
0.0
 11
213.6973576714
 21
12.7
 31
0.0
  0
LINE
  5
300
330
2F4
100
AcDbEntity
  8
SK2
100
AcDbLine
 10
163.31
 20
-12.7
 30
0.0
 11
213.6973576714
 21
-12.7
 31
0.0
  0
LINE
  5
301
330
2F4
100
AcDbEntity
  8
SK2
100
AcDbLine
 10
212.6973576714
 20
12.7
 30
0.0
 11
212.6973576714
 21
-12.7
 31
0.0
  0
MTEXT
  5
302
330
2F4
100
AcDbEntity
  8
SK2
100
AcDbMText
 10
208.1321484055
 20
-6.2333838715
 30
0.0
 40
3.5
 41
0.0
 71
     1
 72
     1
  1

  7
SLDTEXTSTYLE0
 11
-7.044195017643634E-15
 21
1.0
 31
0.0
 73
     1
 44
1.0
  0
MTEXT
  5
303
330
2F4
100
AcDbEntity
  8
SK2
100
AcDbMText
 10
202.9489890318
 20
-4.1200157598
 30
0.0
 40
3.5
 41
0.0
 71
     1
 72
     1
  1
1,00
  7
SLDTEXTSTYLE0
 11
-7.044195017643634E-15
 21
1.0
 31
0.0
 73
     1
 44
1.0
  0
MTEXT
  5
304
330
2F4
100
AcDbEntity
  8
SK2
100
AcDbMText
 10
208.1856205822
 20
-4.1200157598
 30
0.0
 40
3.5
 41
0.0
 71
     1
 72
     1
  1
25,4
  7
SLDTEXTSTYLE0
 11
-7.044195017643634E-15
 21
1.0
 31
0.0
 73
     1
 44
1.0
  0
MTEXT
  5
305
330
2F4
100
AcDbEntity
  8
SK2
100
AcDbMText
 10
208.1321484055
 20
8.3766859324
 30
0.0
 40
3.5
 41
0.0
 71
     1
 72
     1
  1

  7
SLDTEXTSTYLE0
 11
-7.044195017643634E-15
 21
1.0
 31
0.0
 73
     1
 44
1.0
  0
ENDBLK
  5
2F6
330
2F4
100
AcDbEntity
  8
0
100
AcDbBlockEnd
  0
ENDSEC
  0
SECTION
  2
ENTITIES
  0
LINE
  5
82
330
1F
100
AcDbEntity
  8
1
  6
SLD-Solid
370
    25
100
AcDbLine
 10
1.7476022729
 20
-34.925
 30
0.0
 11
2.1330363037
 21
-34.7452691597
 31
0.0
  0
LINE
  5
83
330
1F
100
AcDbEntity
  8
1
  6
SLD-Solid
370
    25
100
AcDbLine
 10
2.1330363037
 20
34.7452691597
 30
0.0
 11
1.7476022729
 21
34.925
 31
0.0
  0
LINE
  5
84
330
1F
100
AcDbEntity
  8
SK1
  6
SLD-Solid
370
    25
100
AcDbLine
 10
0.0
 20
34.925
 30
0.0
 11
-99.8030472773
 21
20.3702515116
 31
0.0
  0
LINE
  5
85
330
1F
100
AcDbEntity
  8
SK1
  6
SLD-Solid
370
    25
100
AcDbLine
 10
-99.8030472773
 20
-20.3702515116
 30
0.0
 11
0.0
 21
-34.925
 31
0.0
  0
LINE
  5
86
330
1F
100
AcDbEntity
  8
1
  6
SLD-Solid
370
    25
100
AcDbLine
 10
1.7476022729
 20
34.925
 30
0.0
 11
0.0
 21
34.925
 31
0.0
  0
LINE
  5
87
330
1F
100
AcDbEntity
  8
1
  6
SLD-Solid
370
    25
100
AcDbLine
 10
0.0
 20
-34.925
 30
0.0
 11
1.7476022729
 21
-34.925
 31
0.0
  0
LINE
  5
88
330
1F
100
AcDbEntity
  8
1
  6
SLD-Solid
370
    25
100
AcDbLine
 10
33.576
 20
34.925
 30
0.0
 11
19.812
 21
34.925
 31
0.0
  0
LINE
  5
89
330
1F
100
AcDbEntity
  8
1
  6
SLD-Solid
370
    25
100
AcDbLine
 10
19.812
 20
-34.925
 30
0.0
 11
33.576
 21
-34.925
 31
0.0
  0
LINE
  5
8A
330
1F
100
AcDbEntity
  8
1
  6
SLD-Solid
370
    25
100
AcDbLine
 10
36.4382711207
 20
-19.1414903447
 30
0.0
 11
88.9
 21
-12.7
 31
0.0
  0
LINE
  5
8B
330
1F
100
AcDbEntity
  8
1
  6
SLD-Solid
370
    25
100
AcDbLine
 10
88.9
 20
12.7
 30
0.0
 11
36.4382711207
 21
19.1414903447
 31
0.0
  0
LINE
  5
8C
330
1F
100
AcDbEntity
  8
1
  6
SLD-Solid
370
    25
100
AcDbLine
 10
140.55
 20
12.7
 30
0.0
 11
88.9
 21
12.7
 31
0.0
  0
LINE
  5
8D
330
1F
100
AcDbEntity
  8
1
  6
SLD-Solid
370
    25
100
AcDbLine
 10
162.31
 20
12.7
 30
0.0
 11
151.54730372
 21
12.7
 31
0.0
  0
LINE
  5
8E
330
1F
100
AcDbEntity
  8
1
  6
SLD-Solid
370
    25
100
AcDbLine
 10
149.3411821064
 20
-12.7
 30
0.0
 11
162.31
 21
-12.7
 31
0.0
  0
LINE
  5
8F
330
1F
100
AcDbEntity
  8
1
  6
SLD-Solid
370
    25
100
AcDbLine
 10
88.9
 20
-12.7
 30
0.0
 11
136.4200031563
 21
-12.7
 31
0.0
  0
LINE
  5
90
330
1F
100
AcDbEntity
  8
1
  6
SLD-Solid
370
    25
100
AcDbLine
 10
162.31
 20
-12.7
 30
0.0
 11
165.1
 21
-9.91
 31
0.0
  0
LINE
  5
91
330
1F
100
AcDbEntity
  8
1
  6
SLD-Solid
370
    25
100
AcDbLine
 10
165.1
 20
9.91
 30
0.0
 11
162.31
 21
12.7
 31
0.0
  0
LINE
  5
92
330
1F
100
AcDbEntity
  8
1
  6
SLD-Solid
370
    25
100
AcDbLine
 10
18.3
 20
-47.4754841997
 30
0.0
 11
18.3
 21
47.2968145978
 31
0.0
  0
LINE
  5
93
330
1F
100
AcDbEntity
  8
1
  6
SLD-Solid
370
    25
100
AcDbLine
 10
19.05
 20
46.5560855313
 30
0.0
 11
19.05
 21
-46.6976348437
 31
0.0
  0
LINE
  5
94
330
1F
100
AcDbEntity
  8
1
  6
SLD-Solid
370
    25
100
AcDbLine
 10
14.6397233934
 20
-47.4754841997
 30
0.0
 11
18.3
 21
-47.4754841997
 31
0.0
  0
LINE
  5
95
330
1F
100
AcDbEntity
  8
1
  6
SLD-Solid
370
    25
100
AcDbLine
 10
14.6397233934
 20
47.2968145978
 30
0.0
 11
14.6397233934
 21
-47.4754841997
 31
0.0
  0
LINE
  5
96
330
1F
100
AcDbEntity
  8
1
  6
SLD-Solid
370
    25
100
AcDbLine
 10
18.3
 20
47.2968145978
 30
0.0
 11
14.6397233934
 21
47.2968145978
 31
0.0
  0
LINE
  5
97
330
1F
100
AcDbEntity
  8
1
  6
SLD-Solid
370
    25
100
AcDbLine
 10
3.95
 20
-47.4754841997
 30
0.0
 11
7.5902766066
 21
-47.4754841997
 31
0.0
  0
LINE
  5
98
330
1F
100
AcDbEntity
  8
1
  6
SLD-Solid
370
    25
100
AcDbLine
 10
3.95
 20
47.2968145978
 30
0.0
 11
3.95
 21
-47.4754841997
 31
0.0
  0
LINE
  5
99
330
1F
100
AcDbEntity
  8
1
  6
SLD-Solid
370
    25
100
AcDbLine
 10
7.5902766066
 20
47.2968145978
 30
0.0
 11
3.95
 21
47.2968145978
 31
0.0
  0
LINE
  5
9A
330
1F
100
AcDbEntity
  8
1
  6
SLD-Solid
370
    25
100
AcDbLine
 10
7.5902766066
 20
47.2968145978
 30
0.0
 11
7.5902766066
 21
-47.4754841997
 31
0.0
  0
LINE
  5
9B
330
1F
100
AcDbEntity
  8
1
  6
SLD-Solid
370
    25
100
AcDbLine
 10
3.2
 20
-46.6976348437
 30
0.0
 11
3.2
 21
46.5560855313
 31
0.0
  0
LINE
  5
9C
330
1F
100
AcDbEntity
  8
1
  6
SLD-Solid
370
    25
100
AcDbLine
 10
13.03
 20
44.5790106634
 30
0.0
 11
13.03
 21
41.9871173317
 31
0.0
  0
LINE
  5
9D
330
1F
100
AcDbEntity
  8
1
  6
SLD-Solid
370
    25
100
AcDbLine
 10
13.03
 20
34.6324292339
 30
0.0
 11
13.03
 21
-44.5790106634
 31
0.0
  0
LINE
  5
9E
330
1F
100
AcDbEntity
  8
1
  6
SLD-Solid
370
    25
100
AcDbLine
 10
13.03
 20
41.453113616
 30
0.0
 11
13.03
 21
35.4316103884
 31
0.0
  0
LINE
  5
9F
330
1F
100
AcDbEntity
  8
1
  6
SLD-Solid
370
    25
100
AcDbLine
 10
9.2
 20
44.5790106634
 30
0.0
 11
9.2
 21
41.9587011964
 31
0.0
  0
LINE
  5
A0
330
1F
100
AcDbEntity
  8
1
  6
SLD-Solid
370
    25
100
AcDbLine
 10
9.2
 20
41.4830129515
 30
0.0
 11
9.2
 21
35.3885961177
 31
0.0
  0
LINE
  5
A1
330
1F
100
AcDbEntity
  8
1
  6
SLD-Solid
370
    25
100
AcDbLine
 10
9.2
 20
34.676688935
 30
0.0
 11
9.2
 21
-44.5790106634
 31
0.0
  0
LINE
  5
A2
330
1F
100
AcDbEntity
  8
1
  6
SLD-Solid
370
    25
100
AcDbLine
 10
12.28
 20
33.3554707167
 30
0.0
 11
12.28
 21
-43.7694359685
 31
0.0
  0
LINE
  5
A3
330
1F
100
AcDbEntity
  8
1
  6
SLD-Solid
370
    25
100
AcDbLine
 10
9.95
 20
33.3652595305
 30
0.0
 11
9.95
 21
-43.7694359685
 31
0.0
  0
LINE
  5
A4
330
1F
100
AcDbEntity
  8
1
  6
SLD-Solid
370
    25
100
AcDbLine
 10
9.95
 20
-43.7694359685
 30
0.0
 11
12.28
 21
-43.7694359685
 31
0.0
  0
LINE
  5
A5
330
1F
100
AcDbEntity
  8
1
  6
SLD-Solid
370
    25
100
AcDbLine
 10
1.7476022729
 20
34.925
 30
0.0
 11
1.7476022729
 21
-34.925
 31
0.0
  0
LINE
  5
A6
330
1F
100
AcDbEntity
  8
1
  6
SLD-Solid
370
    25
100
AcDbLine
 10
0.0
 20
34.925
 30
0.0
 11
0.0
 21
-34.925
 31
0.0
  0
LINE
  5
A7
330
1F
100
AcDbEntity
  8
1
  6
SLD-Solid
370
    25
100
AcDbLine
 10
35.1
 20
0.0
 30
0.0
 11
35.1
 21
-33.401
 31
0.0
  0
LINE
  5
A8
330
1F
100
AcDbEntity
  8
1
  6
SLD-Solid
370
    25
100
AcDbLine
 10
35.1
 20
33.401
 30
0.0
 11
35.1
 21
0.0
 31
0.0
  0
LINE
  5
A9
330
1F
100
AcDbEntity
  8
1
  6
SLD-Solid
370
    25
100
AcDbLine
 10
9.2
 20
35.3885961177
 30
0.0
 11
9.2
 21
35.3683101781
 31
0.0
  0
LINE
  5
AA
330
1F
100
AcDbEntity
  8
1
  6
SLD-Solid
370
    25
100
AcDbLine
 10
13.03
 20
35.4113240881
 30
0.0
 11
13.03
 21
35.4316103884
 31
0.0
  0
LINE
  5
AB
330
1F
100
AcDbEntity
  8
1
  6
SLD-Solid
370
    25
100
AcDbLine
 10
9.95
 20
40.2901760725
 30
0.0
 11
9.95
 21
35.4888548114
 31
0.0
  0
LINE
  5
AC
330
1F
100
AcDbEntity
  8
1
  6
SLD-Solid
370
    25
100
AcDbLine
 10
12.28
 20
40.2834337913
 30
0.0
 11
12.28
 21
35.4978726362
 31
0.0
  0
LINE
  5
AD
330
1F
100
AcDbEntity
  8
1
  6
SLD-Solid
370
    25
100
AcDbLine
 10
9.2
 20
41.9587011964
 30
0.0
 11
9.2
 21
41.9345423912
 31
0.0
  0
LINE
  5
AE
330
1F
100
AcDbEntity
  8
1
  6
SLD-Solid
370
    25
100
AcDbLine
 10
13.03
 20
41.9629580968
 30
0.0
 11
13.03
 21
41.9871173317
 31
0.0
  0
LINE
  5
AF
330
1F
100
AcDbEntity
  8
SK1
  6
SLD-Solid
370
    25
100
AcDbLine
 10
-101.6
 20
-18.2922326599
 30
0.0
 11
-101.6
 21
18.2922326599
 31
0.0
  0
LINE
  5
B0
330
1F
100
AcDbEntity
  8
1
  6
SLD-Solid
370
    25
100
AcDbLine
 10
9.95
 20
43.7694359685
 30
0.0
 11
9.95
 21
41.7091381742
 31
0.0
  0
LINE
  5
B1
330
1F
100
AcDbEntity
  8
1
  6
SLD-Solid
370
    25
100
AcDbLine
 10
12.28
 20
43.7694359685
 30
0.0
 11
12.28
 21
41.714962274
 31
0.0
  0
LINE
  5
B2
330
1F
100
AcDbEntity
  8
1
  6
SLD-Solid
370
    25
100
AcDbLine
 10
88.9
 20
12.7
 30
0.0
 11
88.9
 21
-12.7
 31
0.0
  0
LINE
  5
B3
330
1F
100
AcDbEntity
  8
1
  6
SLD-Solid
370
    25
100
AcDbLine
 10
9.95
 20
43.7694359685
 30
0.0
 11
12.28
 21
43.7694359685
 31
0.0
  0
LINE
  5
B4
330
1F
100
AcDbEntity
  8
1
  6
SLD-Solid
370
    25
100
AcDbLine
 10
162.31
 20
12.7
 30
0.0
 11
162.31
 21
-12.7
 31
0.0
  0
LINE
  5
B5
330
1F
100
AcDbEntity
  8
1
  6
SLD-Solid
370
    25
100
AcDbLine
 10
165.1
 20
9.91
 30
0.0
 11
165.1
 21
-9.91
 31
0.0
  0
LINE
  5
B6
330
1F
100
AcDbEntity
  8
1
  6
SLD-Solid
370
    25
100
AcDbLine
 10
19.812
 20
0.0
 30
0.0
 11
19.812
 21
-34.925
 31
0.0
  0
LINE
  5
B7
330
1F
100
AcDbEntity
  8
1
  6
SLD-Solid
370
    25
100
AcDbLine
 10
19.812
 20
34.925
 30
0.0
 11
19.812
 21
0.0
 31
0.0
  0
LINE
  5
B8
330
1F
100
AcDbEntity
  8
1
  6
SLD-Solid
370
    25
100
AcDbLine
 10
2.1330363037
 20
34.7452691597
 30
0.0
 11
2.1330363037
 21
-34.7452691597
 31
0.0
  0
LINE
  5
B9
330
1F
100
AcDbEntity
  8
SK1
  6
SLD-Solid
370
    25
100
AcDbLine
 10
-99.8030472773
 20
0.0
 30
0.0
 11
-99.8030472773
 21
-20.3702515116
 31
0.0
  0
LINE
  5
BA
330
1F
100
AcDbEntity
  8
SK1
  6
SLD-Solid
370
    25
100
AcDbLine
 10
-99.8030472773
 20
20.3702515116
 30
0.0
 11
-99.8030472773
 21
0.0
 31
0.0
  0
LINE
  5
BB
330
1F
100
AcDbEntity
  8
1
  6
SLD-Solid
370
    25
100
AcDbLine
 10
33.576
 20
0.0
 30
0.0
 11
33.576
 21
34.925
 31
0.0
  0
LINE
  5
BC
330
1F
100
AcDbEntity
  8
1
  6
SLD-Solid
370
    25
100
AcDbLine
 10
33.576
 20
-34.925
 30
0.0
 11
33.576
 21
0.0
 31
0.0
  0
LINE
  5
BD
330
1F
100
AcDbEntity
  8
1
  6
SLD-Solid
370
    25
100
AcDbLine
 10
36.4382711207
 20
0.0
 30
0.0
 11
36.4382711207
 21
-19.1414903447
 31
0.0
  0
LINE
  5
BE
330
1F
100
AcDbEntity
  8
1
  6
SLD-Solid
370
    25
100
AcDbLine
 10
36.4382711207
 20
19.1414903447
 30
0.0
 11
36.4382711207
 21
0.0
 31
0.0
  0
LINE
  5
BF
330
1F
100
AcDbEntity
  8
SK3
  6
SLD-Dashed
370
    18
100
AcDbLine
 10
6.4723069743
 20
-13.9015950424
 30
0.0
 11
6.2856470952
 21
-13.1855138242
 31
0.0
  0
LINE
  5
C0
330
1F
100
AcDbEntity
  8
SK3
  6
SLD-Dashed
370
    18
100
AcDbLine
 10
6.2856470952
 20
-13.1855138242
 30
0.0
 11
5.989454318
 21
-12.5274452476
 31
0.0
  0
LINE
  5
C1
330
1F
100
AcDbEntity
  8
SK3
  6
SLD-Dashed
370
    18
100
AcDbLine
 10
5.989454318
 20
-12.5274452476
 30
0.0
 11
5.60772442
 21
-11.980702115
 31
0.0
  0
LINE
  5
C2
330
1F
100
AcDbEntity
  8
SK3
  6
SLD-Dashed
370
    18
100
AcDbLine
 10
5.60772442
 20
-11.980702115
 30
0.0
 11
5.1713828873
 21
-11.5895783033
 31
0.0
  0
LINE
  5
C3
330
1F
100
AcDbEntity
  8
SK3
  6
SLD-Dashed
370
    18
100
AcDbLine
 10
5.1713828873
 20
-11.5895783033
 30
0.0
 11
4.7157795159
 21
-11.3857603378
 31
0.0
  0
LINE
  5
C4
330
1F
100
AcDbEntity
  8
SK3
  6
SLD-Dashed
370
    18
100
AcDbLine
 10
4.7157795159
 20
-11.3857603378
 30
0.0
 11
4.2778245812
 21
-11.3857603378
 31
0.0
  0
LINE
  5
C5
330
1F
100
AcDbEntity
  8
SK3
  6
SLD-Dashed
370
    18
100
AcDbLine
 10
4.2778245812
 20
-11.3857603378
 30
0.0
 11
3.8929985876
 21
-11.5895783033
 31
0.0
  0
LINE
  5
C6
330
1F
100
AcDbEntity
  8
SK3
  6
SLD-Dashed
370
    18
100
AcDbLine
 10
3.8929985876
 20
-11.5895783033
 30
0.0
 11
3.5924778483
 21
-11.980702115
 31
0.0
  0
LINE
  5
C7
330
1F
100
AcDbEntity
  8
SK3
  6
SLD-Dashed
370
    18
100
AcDbLine
 10
3.5924778483
 20
-11.980702115
 30
0.0
 11
3.4006087665
 21
-12.5274452476
 31
0.0
  0
LINE
  5
C8
330
1F
100
AcDbEntity
  8
SK3
  6
SLD-Dashed
370
    18
100
AcDbLine
 10
3.4006087665
 20
-12.5274452476
 30
0.0
 11
3.3329354339
 21
-13.1855138242
 31
0.0
  0
LINE
  5
C9
330
1F
100
AcDbEntity
  8
SK3
  6
SLD-Dashed
370
    18
100
AcDbLine
 10
3.3329354339
 20
-13.1855138242
 30
0.0
 11
3.3949403416
 21
-13.9015950424
 31
0.0
  0
LINE
  5
CA
330
1F
100
AcDbEntity
  8
SK3
  6
SLD-Dashed
370
    18
100
AcDbLine
 10
3.3949403416
 20
-13.9015950424
 30
0.0
 11
3.5816002207
 21
-14.6176762606
 31
0.0
  0
LINE
  5
CB
330
1F
100
AcDbEntity
  8
SK3
  6
SLD-Dashed
370
    18
100
AcDbLine
 10
3.5816002207
 20
-14.6176762606
 30
0.0
 11
3.8777929979
 21
-15.2757448372
 31
0.0
  0
LINE
  5
CC
330
1F
100
AcDbEntity
  8
SK3
  6
SLD-Dashed
370
    18
100
AcDbLine
 10
3.8777929979
 20
-15.2757448372
 30
0.0
 11
4.2595228959
 21
-15.8224879698
 31
0.0
  0
LINE
  5
CD
330
1F
100
AcDbEntity
  8
SK3
  6
SLD-Dashed
370
    18
100
AcDbLine
 10
4.2595228959
 20
-15.8224879698
 30
0.0
 11
4.6958644286
 21
-16.2136117815
 31
0.0
  0
LINE
  5
CE
330
1F
100
AcDbEntity
  8
SK3
  6
SLD-Dashed
370
    18
100
AcDbLine
 10
4.6958644286
 20
-16.2136117815
 30
0.0
 11
5.1514678
 21
-16.417429747
 31
0.0
  0
LINE
  5
CF
330
1F
100
AcDbEntity
  8
SK3
  6
SLD-Dashed
370
    18
100
AcDbLine
 10
5.1514678
 20
-16.417429747
 30
0.0
 11
5.5894227346
 21
-16.417429747
 31
0.0
  0
LINE
  5
D0
330
1F
100
AcDbEntity
  8
SK3
  6
SLD-Dashed
370
    18
100
AcDbLine
 10
5.5894227346
 20
-16.417429747
 30
0.0
 11
5.9742487283
 21
-16.2136117815
 31
0.0
  0
LINE
  5
D1
330
1F
100
AcDbEntity
  8
SK3
  6
SLD-Dashed
370
    18
100
AcDbLine
 10
5.9742487283
 20
-16.2136117815
 30
0.0
 11
6.2747694675
 21
-15.8224879698
 31
0.0
  0
LINE
  5
D2
330
1F
100
AcDbEntity
  8
SK3
  6
SLD-Dashed
370
    18
100
AcDbLine
 10
6.2747694675
 20
-15.8224879698
 30
0.0
 11
6.4666385494
 21
-15.2757448372
 31
0.0
  0
LINE
  5
D3
330
1F
100
AcDbEntity
  8
SK3
  6
SLD-Dashed
370
    18
100
AcDbLine
 10
6.4666385494
 20
-15.2757448372
 30
0.0
 11
6.5343118819
 21
-14.6176762606
 31
0.0
  0
LINE
  5
D4
330
1F
100
AcDbEntity
  8
SK3
  6
SLD-Dashed
370
    18
100
AcDbLine
 10
6.5343118819
 20
-14.6176762606
 30
0.0
 11
6.4723069743
 21
-13.9015950424
 31
0.0
  0
LINE
  5
D5
330
1F
100
AcDbEntity
  8
SK3
  6
SLD-Dashed
370
    18
100
AcDbLine
 10
6.4545594773
 20
-13.8826166832
 30
0.0
 11
6.5127187725
 21
-14.5885755877
 31
0.0
  0
LINE
  5
D6
330
1F
100
AcDbEntity
  8
SK3
  6
SLD-Dashed
370
    18
100
AcDbLine
 10
6.5127187725
 20
-14.5885755877
 30
0.0
 11
6.4368792151
 21
-15.2318069455
 31
0.0
  0
LINE
  5
D7
330
1F
100
AcDbEntity
  8
SK3
  6
SLD-Dashed
370
    18
100
AcDbLine
 10
6.4368792151
 20
-15.2318069455
 30
0.0
 11
6.2337794826
 21
-15.7551568276
 31
0.0
  0
LINE
  5
D8
330
1F
100
AcDbEntity
  8
SK3
  6
SLD-Dashed
370
    18
100
AcDbLine
 10
6.2337794826
 20
-15.7551568276
 30
0.0
 11
5.9214658775
 21
-16.1121233004
 31
0.0
  0
LINE
  5
D9
330
1F
100
AcDbEntity
  8
SK3
  6
SLD-Dashed
370
    18
100
AcDbLine
 10
5.9214658775
 20
-16.1121233004
 30
0.0
 11
5.5276888342
 21
-16.2709883263
 31
0.0
  0
LINE
  5
DA
330
1F
100
AcDbEntity
  8
SK3
  6
SLD-Dashed
370
    18
100
AcDbLine
 10
5.5276888342
 20
-16.2709883263
 30
0.0
 11
5.0874371711
 21
-16.2176360504
 31
0.0
  0
LINE
  5
DB
330
1F
100
AcDbEntity
  8
SK3
  6
SLD-Dashed
370
    18
100
AcDbLine
 10
5.0874371711
 20
-16.2176360504
 30
0.0
 11
4.6398291803
 21
-15.9568070568
 31
0.0
  0
LINE
  5
DC
330
1F
100
AcDbEntity
  8
SK3
  6
SLD-Dashed
370
    18
100
AcDbLine
 10
4.6398291803
 20
-15.9568070568
 30
0.0
 11
4.2246367963
 21
-15.5116771459
 31
0.0
  0
LINE
  5
DD
330
1F
100
AcDbEntity
  8
SK3
  6
SLD-Dashed
370
    18
100
AcDbLine
 10
4.2246367963
 20
-15.5116771459
 30
0.0
 11
3.8787516844
 21
-14.921798064
 31
0.0
  0
LINE
  5
DE
330
1F
100
AcDbEntity
  8
SK3
  6
SLD-Dashed
370
    18
100
AcDbLine
 10
3.8787516844
 20
-14.921798064
 30
0.0
 11
3.6329072546
 21
-14.239583156
 31
0.0
  0
LINE
  5
DF
330
1F
100
AcDbEntity
  8
SK3
  6
SLD-Dashed
370
    18
100
AcDbLine
 10
3.6329072546
 20
-14.239583156
 30
0.0
 11
3.5089478634
 21
-13.5256502103
 31
0.0
  0
LINE
  5
E0
330
1F
100
AcDbEntity
  8
SK3
  6
SLD-Dashed
370
    18
100
AcDbLine
 10
3.5089478634
 20
-13.5256502103
 30
0.0
 11
3.5178878467
 21
-12.8434353023
 31
0.0
  0
LINE
  5
E1
330
1F
100
AcDbEntity
  8
SK3
  6
SLD-Dashed
370
    18
100
AcDbLine
 10
3.5178878467
 20
-12.8434353023
 30
0.0
 11
3.6589328478
 21
-12.2535562204
 31
0.0
  0
LINE
  5
E2
330
1F
100
AcDbEntity
  8
SK3
  6
SLD-Dashed
370
    18
100
AcDbLine
 10
3.6589328478
 20
-12.2535562204
 30
0.0
 11
3.9195503993
 21
-11.8084263096
 31
0.0
  0
LINE
  5
E3
330
1F
100
AcDbEntity
  8
SK3
  6
SLD-Dashed
370
    18
100
AcDbLine
 10
3.9195503993
 20
-11.8084263096
 30
0.0
 11
4.2765834881
 21
-11.5475973159
 31
0.0
  0
LINE
  5
E4
330
1F
100
AcDbEntity
  8
SK3
  6
SLD-Dashed
370
    18
100
AcDbLine
 10
4.2765834881
 20
-11.5475973159
 30
0.0
 11
4.6983081575
 21
-11.49424504
 31
0.0
  0
LINE
  5
E5
330
1F
100
AcDbEntity
  8
SK3
  6
SLD-Dashed
370
    18
100
AcDbLine
 10
4.6983081575
 20
-11.49424504
 30
0.0
 11
5.1472523198
 21
-11.6531100659
 31
0.0
  0
LINE
  5
E6
330
1F
100
AcDbEntity
  8
SK3
  6
SLD-Dashed
370
    18
100
AcDbLine
 10
5.1472523198
 20
-11.6531100659
 30
0.0
 11
5.583525316
 21
-12.0100765387
 31
0.0
  0
LINE
  5
E7
330
1F
100
AcDbEntity
  8
SK3
  6
SLD-Dashed
370
    18
100
AcDbLine
 10
5.583525316
 20
-12.0100765387
 30
0.0
 11
5.968362376
 21
-12.5334264209
 31
0.0
  0
LINE
  5
E8
330
1F
100
AcDbEntity
  8
SK3
  6
SLD-Dashed
370
    18
100
AcDbLine
 10
5.968362376
 20
-12.5334264209
 30
0.0
 11
6.2675690381
 21
-13.1766577787
 31
0.0
  0
LINE
  5
E9
330
1F
100
AcDbEntity
  8
SK3
  6
SLD-Dashed
370
    18
100
AcDbLine
 10
6.2675690381
 20
-13.1766577787
 30
0.0
 11
6.4545594773
 21
-13.8826166832
 31
0.0
  0
LINE
  5
EA
330
1F
100
AcDbEntity
  8
SK3
  6
SLD-Dashed
370
    18
100
AcDbLine
 10
17.1792841073
 20
-11.0168048658
 30
0.0
 11
16.9922936681
 21
-10.3108459613
 31
0.0
  0
LINE
  5
EB
330
1F
100
AcDbEntity
  8
SK3
  6
SLD-Dashed
370
    18
100
AcDbLine
 10
16.9922936681
 20
-10.3108459613
 30
0.0
 11
16.6930870061
 21
-9.6676146035
 31
0.0
  0
LINE
  5
EC
330
1F
100
AcDbEntity
  8
SK3
  6
SLD-Dashed
370
    18
100
AcDbLine
 10
16.6930870061
 20
-9.6676146035
 30
0.0
 11
16.3082499461
 21
-9.1442647213
 31
0.0
  0
LINE
  5
ED
330
1F
100
AcDbEntity
  8
SK3
  6
SLD-Dashed
370
    18
100
AcDbLine
 10
16.3082499461
 20
-9.1442647213
 30
0.0
 11
15.8719769498
 21
-8.7872982485
 31
0.0
  0
LINE
  5
EE
330
1F
100
AcDbEntity
  8
SK3
  6
SLD-Dashed
370
    18
100
AcDbLine
 10
15.8719769498
 20
-8.7872982485
 30
0.0
 11
15.4230327875
 21
-8.6284332227
 31
0.0
  0
LINE
  5
EF
330
1F
100
AcDbEntity
  8
SK3
  6
SLD-Dashed
370
    18
100
AcDbLine
 10
15.4230327875
 20
-8.6284332227
 30
0.0
 11
15.0013081181
 21
-8.6817854985
 31
0.0
  0
LINE
  5
F0
330
1F
100
AcDbEntity
  8
SK3
  6
SLD-Dashed
370
    18
100
AcDbLine
 10
15.0013081181
 20
-8.6817854985
 30
0.0
 11
14.6442750293
 21
-8.9426144922
 31
0.0
  0
LINE
  5
F1
330
1F
100
AcDbEntity
  8
SK3
  6
SLD-Dashed
370
    18
100
AcDbLine
 10
14.6442750293
 20
-8.9426144922
 30
0.0
 11
14.3836574778
 21
-9.387744403
 31
0.0
  0
LINE
  5
F2
330
1F
100
AcDbEntity
  8
SK3
  6
SLD-Dashed
370
    18
100
AcDbLine
 10
14.3836574778
 20
-9.387744403
 30
0.0
 11
14.2426124767
 21
-9.977623485
 31
0.0
  0
LINE
  5
F3
330
1F
100
AcDbEntity
  8
SK3
  6
SLD-Dashed
370
    18
100
AcDbLine
 10
14.2426124767
 20
-9.977623485
 30
0.0
 11
14.2336724934
 21
-10.659838393
 31
0.0
  0
LINE
  5
F4
330
1F
100
AcDbEntity
  8
SK3
  6
SLD-Dashed
370
    18
100
AcDbLine
 10
14.2336724934
 20
-10.659838393
 30
0.0
 11
14.3576318846
 21
-11.3737713386
 31
0.0
  0
LINE
  5
F5
330
1F
100
AcDbEntity
  8
SK3
  6
SLD-Dashed
370
    18
100
AcDbLine
 10
14.3576318846
 20
-11.3737713386
 30
0.0
 11
14.6034763144
 21
-12.0559862466
 31
0.0
  0
LINE
  5
F6
330
1F
100
AcDbEntity
  8
SK3
  6
SLD-Dashed
370
    18
100
AcDbLine
 10
14.6034763144
 20
-12.0559862466
 30
0.0
 11
14.9493614264
 21
-12.6458653286
 31
0.0
  0
LINE
  5
F7
330
1F
100
AcDbEntity
  8
SK3
  6
SLD-Dashed
370
    18
100
AcDbLine
 10
14.9493614264
 20
-12.6458653286
 30
0.0
 11
15.3645538104
 21
-13.0909952394
 31
0.0
  0
LINE
  5
F8
330
1F
100
AcDbEntity
  8
SK3
  6
SLD-Dashed
370
    18
100
AcDbLine
 10
15.3645538104
 20
-13.0909952394
 30
0.0
 11
15.8121618011
 21
-13.3518242331
 31
0.0
  0
LINE
  5
F9
330
1F
100
AcDbEntity
  8
SK3
  6
SLD-Dashed
370
    18
100
AcDbLine
 10
15.8121618011
 20
-13.3518242331
 30
0.0
 11
16.2524134643
 21
-13.4051765089
 31
0.0
  0
LINE
  5
FA
330
1F
100
AcDbEntity
  8
SK3
  6
SLD-Dashed
370
    18
100
AcDbLine
 10
16.2524134643
 20
-13.4051765089
 30
0.0
 11
16.6461905076
 21
-13.2463114831
 31
0.0
  0
LINE
  5
FB
330
1F
100
AcDbEntity
  8
SK3
  6
SLD-Dashed
370
    18
100
AcDbLine
 10
16.6461905076
 20
-13.2463114831
 30
0.0
 11
16.9585041126
 21
-12.8893450102
 31
0.0
  0
LINE
  5
FC
330
1F
100
AcDbEntity
  8
SK3
  6
SLD-Dashed
370
    18
100
AcDbLine
 10
16.9585041126
 20
-12.8893450102
 30
0.0
 11
17.1616038452
 21
-12.3659951281
 31
0.0
  0
LINE
  5
FD
330
1F
100
AcDbEntity
  8
SK3
  6
SLD-Dashed
370
    18
100
AcDbLine
 10
17.1616038452
 20
-12.3659951281
 30
0.0
 11
17.2374434025
 21
-11.7227637703
 31
0.0
  0
LINE
  5
FE
330
1F
100
AcDbEntity
  8
SK3
  6
SLD-Dashed
370
    18
100
AcDbLine
 10
17.2374434025
 20
-11.7227637703
 30
0.0
 11
17.1792841073
 21
-11.0168048658
 31
0.0
  0
LINE
  5
FF
330
1F
100
AcDbEntity
  8
SK3
  6
SLD-Dashed
370
    18
100
AcDbLine
 10
-99.7034043657
 20
-13.19
 30
0.0
 11
-99.7034043657
 21
13.19
 31
0.0
  0
LINE
  5
100
330
1F
100
AcDbEntity
  8
SK3
  6
SLD-Dashed
370
    18
100
AcDbLine
 10
-101.6
 20
-14.285
 30
0.0
 11
-101.6
 21
14.285
 31
0.0
  0
LINE
  5
101
330
1F
100
AcDbEntity
  8
SK3
  6
SLD-Dashed
370
    18
100
AcDbLine
 10
-95.25
 20
-13.19
 30
0.0
 11
-95.25
 21
13.19
 31
0.0
  0
LINE
  5
102
330
1F
100
AcDbEntity
  8
SK3
  6
SLD-Dashed
370
    18
100
AcDbLine
 10
-94.0505548158
 20
-11.1125
 30
0.0
 11
-94.0505548158
 21
11.1125
 31
0.0
  0
LINE
  5
103
330
1F
100
AcDbEntity
  8
SK3
  6
SLD-Dashed
370
    18
100
AcDbLine
 10
3.7
 20
37.875
 30
0.0
 11
3.7
 21
46.5560855313
 31
0.0
  0
LINE
  5
104
330
1F
100
AcDbEntity
  8
SK3
  6
SLD-Dashed
370
    18
100
AcDbLine
 10
18.55
 20
46.5560855313
 30
0.0
 11
18.55
 21
37.875
 31
0.0
  0
LINE
  5
105
330
1F
100
AcDbEntity
  8
SK3
  6
SLD-Dashed
370
    18
100
AcDbLine
 10
14.2727106199
 20
46.8162535878
 30
0.0
 11
18.3
 21
46.8162535878
 31
0.0
  0
LINE
  5
106
330
1F
100
AcDbEntity
  8
SK3
  6
SLD-Dashed
370
    18
100
AcDbLine
 10
3.95
 20
46.8162535878
 30
0.0
 11
7.9572893801
 21
46.8162535878
 31
0.0
  0
LINE
  5
107
330
1F
100
AcDbEntity
  8
SK3
  6
SLD-Dashed
370
    18
100
AcDbLine
 10
13.03
 20
44.5510215932
 30
0.0
 11
13.03
 21
44.5790106634
 31
0.0
  0
LINE
  5
108
330
1F
100
AcDbEntity
  8
SK3
  6
SLD-Dashed
370
    18
100
AcDbLine
 10
9.2
 20
44.5790106634
 30
0.0
 11
9.2
 21
44.5510215932
 31
0.0
  0
LINE
  5
109
330
1F
100
AcDbEntity
  8
1
  6
SLD-Dashed
370
    18
100
AcDbLine
 10
9.2
 20
-44.5790106634
 30
0.0
 11
9.2
 21
-44.5510215932
 31
0.0
  0
LINE
  5
10A
330
1F
100
AcDbEntity
  8
1
  6
SLD-Dashed
370
    18
100
AcDbLine
 10
13.03
 20
-44.5510215932
 30
0.0
 11
13.03
 21
-44.5790106634
 31
0.0
  0
LINE
  5
10B
330
1F
100
AcDbEntity
  8
SK3
  6
SLD-Dashed
370
    18
100
AcDbLine
 10
19.05
 20
-46.6976348437
 30
0.0
 11
19.05
 21
-35.475
 31
0.0
  0
LINE
  5
10C
330
1F
100
AcDbEntity
  8
SK3
  6
SLD-Dashed
370
    18
100
AcDbLine
 10
3.2
 20
-35.475
 30
0.0
 11
3.2
 21
-46.6976348437
 31
0.0
  0
LINE
  5
10D
330
1F
100
AcDbEntity
  8
SK3
  6
SLD-Dashed
370
    18
100
AcDbLine
 10
19.05
 20
-35.1
 30
0.0
 11
3.2
 21
-35.1
 31
0.0
  0
LINE
  5
10E
330
1F
100
AcDbEntity
  8
SK3
  6
SLD-Dashed
370
    18
100
AcDbLine
 10
3.2
 20
-35.475
 30
0.0
 11
19.05
 21
-35.475
 31
0.0
  0
LINE
  5
10F
330
1F
100
AcDbEntity
  8
SK3
  6
SLD-Dashed
370
    18
100
AcDbLine
 10
3.7
 20
37.5
 30
0.0
 11
18.55
 21
37.5
 31
0.0
  0
LINE
  5
110
330
1F
100
AcDbEntity
  8
SK3
  6
SLD-Dashed
370
    18
100
AcDbLine
 10
18.55
 20
37.875
 30
0.0
 11
3.7
 21
37.875
 31
0.0
  0
LINE
  5
111
330
1F
100
AcDbEntity
  8
SK3
  6
SLD-Dashed
370
    18
100
AcDbLine
 10
18.4
 20
-11.1125
 30
0.0
 11
18.4
 21
11.1125
 31
0.0
  0
LINE
  5
112
330
1F
100
AcDbEntity
  8
SK3
  6
SLD-Dashed
370
    18
100
AcDbLine
 10
21.4718999148
 20
6.0
 30
0.0
 11
21.4718999148
 21
-6.0
 31
0.0
  0
LINE
  5
113
330
1F
100
AcDbEntity
  8
SK3
  6
SLD-Dashed
370
    18
100
AcDbLine
 10
126.256
 20
-6.0
 30
0.0
 11
126.256
 21
6.0
 31
0.0
  0
LINE
  5
114
330
1F
100
AcDbEntity
  8
SK3
  6
SLD-Dashed
370
    18
100
AcDbLine
 10
126.999565016
 20
-4.7625
 30
0.0
 11
126.999565016
 21
4.7625
 31
0.0
  0
LINE
  5
115
330
1F
100
AcDbEntity
  8
SK3
  6
SLD-Dashed
370
    18
100
AcDbLine
 10
151.55
 20
11.2
 30
0.0
 11
140.55
 21
11.2
 31
0.0
  0
LINE
  5
116
330
1F
100
AcDbEntity
  8
SK3
  6
SLD-Dashed
370
    18
100
AcDbLine
 10
164.35
 20
-4.7625
 30
0.0
 11
164.35
 21
4.7625
 31
0.0
  0
LINE
  5
117
330
1F
100
AcDbEntity
  8
SK3
  6
SLD-Dashed
370
    18
100
AcDbLine
 10
165.1
 20
-5.1888442986
 30
0.0
 11
165.1
 21
5.1888442986
 31
0.0
  0
LINE
  5
118
330
1F
100
AcDbEntity
  8
SK3
  6
SLD-Dashed
370
    18
100
AcDbLine
 10
16.1
 20
33.1
 30
0.0
 11
6.125653383
 21
33.1
 31
0.0
  0
LINE
  5
119
330
1F
100
AcDbEntity
  8
SK3
  6
SLD-Dashed
370
    18
100
AcDbLine
 10
6.1
 20
37.5
 30
0.0
 11
16.074346617
 21
37.5
 31
0.0
  0
LINE
  5
11A
330
1F
100
AcDbEntity
  8
SK3
  6
SLD-Dashed
370
    18
100
AcDbLine
 10
6.4
 20
32.8
 30
0.0
 11
15.8
 21
32.8
 31
0.0
  0
LINE
  5
11B
330
1F
100
AcDbEntity
  8
SK3
  6
SLD-Dashed
370
    18
100
AcDbLine
 10
150.241
 20
11.2
 30
0.0
 11
141.859
 21
11.2
 31
0.0
  0
LINE
  5
11C
330
1F
100
AcDbEntity
  8
1
  6
SLD-Dashed
370
    18
100
AcDbLine
 10
12.28
 20
43.7694359685
 30
0.0
 11
9.95
 21
43.7694359685
 31
0.0
  0
LINE
  5
11D
330
1F
100
AcDbEntity
  8
1
  6
SLD-Dashed
370
    18
100
AcDbLine
 10
12.28
 20
-43.7694359685
 30
0.0
 11
9.95
 21
-43.7694359685
 31
0.0
  0
LINE
  5
11E
330
1F
100
AcDbEntity
  8
1
  6
SLD-Dashed
370
    18
100
AcDbLine
 10
18.3
 20
-47.4754841997
 30
0.0
 11
14.6397233934
 21
-47.4754841997
 31
0.0
  0
LINE
  5
11F
330
1F
100
AcDbEntity
  8
1
  6
SLD-Dashed
370
    18
100
AcDbLine
 10
7.5902766066
 20
-47.4754841997
 30
0.0
 11
3.95
 21
-47.4754841997
 31
0.0
  0
LINE
  5
120
330
1F
100
AcDbEntity
  8
SK3
  6
SLD-Dashed
370
    18
100
AcDbLine
 10
3.5547332273
 20
13.8826166832
 30
0.0
 11
3.4965739321
 21
13.1766577787
 31
0.0
  0
LINE
  5
121
330
1F
100
AcDbEntity
  8
SK3
  6
SLD-Dashed
370
    18
100
AcDbLine
 10
3.4965739321
 20
13.1766577787
 30
0.0
 11
3.5724134895
 21
12.5334264209
 31
0.0
  0
LINE
  5
122
330
1F
100
AcDbEntity
  8
SK3
  6
SLD-Dashed
370
    18
100
AcDbLine
 10
3.5724134895
 20
12.5334264209
 30
0.0
 11
3.775513222
 21
12.0100765387
 31
0.0
  0
LINE
  5
123
330
1F
100
AcDbEntity
  8
SK3
  6
SLD-Dashed
370
    18
100
AcDbLine
 10
3.775513222
 20
12.0100765387
 30
0.0
 11
4.0878268271
 21
11.6531100659
 31
0.0
  0
LINE
  5
124
330
1F
100
AcDbEntity
  8
SK3
  6
SLD-Dashed
370
    18
100
AcDbLine
 10
4.0878268271
 20
11.6531100659
 30
0.0
 11
4.4816038704
 21
11.49424504
 31
0.0
  0
LINE
  5
125
330
1F
100
AcDbEntity
  8
SK3
  6
SLD-Dashed
370
    18
100
AcDbLine
 10
4.4816038704
 20
11.49424504
 30
0.0
 11
4.9218555336
 21
11.5475973159
 31
0.0
  0
LINE
  5
126
330
1F
100
AcDbEntity
  8
SK3
  6
SLD-Dashed
370
    18
100
AcDbLine
 10
4.9218555336
 20
11.5475973159
 30
0.0
 11
5.3694635243
 21
11.8084263096
 31
0.0
  0
LINE
  5
127
330
1F
100
AcDbEntity
  8
SK3
  6
SLD-Dashed
370
    18
100
AcDbLine
 10
5.3694635243
 20
11.8084263096
 30
0.0
 11
5.7846559083
 21
12.2535562204
 31
0.0
  0
LINE
  5
128
330
1F
100
AcDbEntity
  8
SK3
  6
SLD-Dashed
370
    18
100
AcDbLine
 10
5.7846559083
 20
12.2535562204
 30
0.0
 11
6.1305410203
 21
12.8434353023
 31
0.0
  0
LINE
  5
129
330
1F
100
AcDbEntity
  8
SK3
  6
SLD-Dashed
370
    18
100
AcDbLine
 10
6.1305410203
 20
12.8434353023
 30
0.0
 11
6.3763854501
 21
13.5256502103
 31
0.0
  0
LINE
  5
12A
330
1F
100
AcDbEntity
  8
SK3
  6
SLD-Dashed
370
    18
100
AcDbLine
 10
6.3763854501
 20
13.5256502103
 30
0.0
 11
6.5003448413
 21
14.239583156
 31
0.0
  0
LINE
  5
12B
330
1F
100
AcDbEntity
  8
SK3
  6
SLD-Dashed
370
    18
100
AcDbLine
 10
6.5003448413
 20
14.239583156
 30
0.0
 11
6.4914048579
 21
14.921798064
 31
0.0
  0
LINE
  5
12C
330
1F
100
AcDbEntity
  8
SK3
  6
SLD-Dashed
370
    18
100
AcDbLine
 10
6.4914048579
 20
14.921798064
 30
0.0
 11
6.3503598569
 21
15.5116771459
 31
0.0
  0
LINE
  5
12D
330
1F
100
AcDbEntity
  8
SK3
  6
SLD-Dashed
370
    18
100
AcDbLine
 10
6.3503598569
 20
15.5116771459
 30
0.0
 11
6.0897423053
 21
15.9568070568
 31
0.0
  0
LINE
  5
12E
330
1F
100
AcDbEntity
  8
SK3
  6
SLD-Dashed
370
    18
100
AcDbLine
 10
6.0897423053
 20
15.9568070568
 30
0.0
 11
5.7327092165
 21
16.2176360504
 31
0.0
  0
LINE
  5
12F
330
1F
100
AcDbEntity
  8
SK3
  6
SLD-Dashed
370
    18
100
AcDbLine
 10
5.7327092165
 20
16.2176360504
 30
0.0
 11
5.3109845472
 21
16.2709883263
 31
0.0
  0
LINE
  5
130
330
1F
100
AcDbEntity
  8
SK3
  6
SLD-Dashed
370
    18
100
AcDbLine
 10
5.3109845472
 20
16.2709883263
 30
0.0
 11
4.8620403849
 21
16.1121233004
 31
0.0
  0
LINE
  5
131
330
1F
100
AcDbEntity
  8
SK3
  6
SLD-Dashed
370
    18
100
AcDbLine
 10
4.8620403849
 20
16.1121233004
 30
0.0
 11
4.4257673886
 21
15.7551568276
 31
0.0
  0
LINE
  5
132
330
1F
100
AcDbEntity
  8
SK3
  6
SLD-Dashed
370
    18
100
AcDbLine
 10
4.4257673886
 20
15.7551568276
 30
0.0
 11
4.0409303286
 21
15.2318069455
 31
0.0
  0
LINE
  5
133
330
1F
100
AcDbEntity
  8
SK3
  6
SLD-Dashed
370
    18
100
AcDbLine
 10
4.0409303286
 20
15.2318069455
 30
0.0
 11
3.7417236665
 21
14.5885755877
 31
0.0
  0
LINE
  5
134
330
1F
100
AcDbEntity
  8
SK3
  6
SLD-Dashed
370
    18
100
AcDbLine
 10
3.7417236665
 20
14.5885755877
 30
0.0
 11
3.5547332273
 21
13.8826166832
 31
0.0
  0
LINE
  5
135
330
1F
100
AcDbEntity
  8
SK3
  6
SLD-Dashed
370
    18
100
AcDbLine
 10
14.2794578574
 20
11.0168048658
 30
0.0
 11
14.4664482966
 21
11.7227637703
 31
0.0
  0
LINE
  5
136
330
1F
100
AcDbEntity
  8
SK3
  6
SLD-Dashed
370
    18
100
AcDbLine
 10
14.4664482966
 20
11.7227637703
 30
0.0
 11
14.7656549586
 21
12.3659951281
 31
0.0
  0
LINE
  5
137
330
1F
100
AcDbEntity
  8
SK3
  6
SLD-Dashed
370
    18
100
AcDbLine
 10
14.7656549586
 20
12.3659951281
 30
0.0
 11
15.1504920186
 21
12.8893450102
 31
0.0
  0
LINE
  5
138
330
1F
100
AcDbEntity
  8
SK3
  6
SLD-Dashed
370
    18
100
AcDbLine
 10
15.1504920186
 20
12.8893450102
 30
0.0
 11
15.5867650149
 21
13.2463114831
 31
0.0
  0
LINE
  5
139
330
1F
100
AcDbEntity
  8
SK3
  6
SLD-Dashed
370
    18
100
AcDbLine
 10
15.5867650149
 20
13.2463114831
 30
0.0
 11
16.0357091772
 21
13.4051765089
 31
0.0
  0
LINE
  5
13A
330
1F
100
AcDbEntity
  8
SK3
  6
SLD-Dashed
370
    18
100
AcDbLine
 10
16.0357091772
 20
13.4051765089
 30
0.0
 11
16.4574338466
 21
13.3518242331
 31
0.0
  0
LINE
  5
13B
330
1F
100
AcDbEntity
  8
SK3
  6
SLD-Dashed
370
    18
100
AcDbLine
 10
16.4574338466
 20
13.3518242331
 30
0.0
 11
16.8144669354
 21
13.0909952394
 31
0.0
  0
LINE
  5
13C
330
1F
100
AcDbEntity
  8
SK3
  6
SLD-Dashed
370
    18
100
AcDbLine
 10
16.8144669354
 20
13.0909952394
 30
0.0
 11
17.0750844869
 21
12.6458653286
 31
0.0
  0
LINE
  5
13D
330
1F
100
AcDbEntity
  8
SK3
  6
SLD-Dashed
370
    18
100
AcDbLine
 10
17.0750844869
 20
12.6458653286
 30
0.0
 11
17.216129488
 21
12.0559862466
 31
0.0
  0
LINE
  5
13E
330
1F
100
AcDbEntity
  8
SK3
  6
SLD-Dashed
370
    18
100
AcDbLine
 10
17.216129488
 20
12.0559862466
 30
0.0
 11
17.2250694713
 21
11.3737713386
 31
0.0
  0
LINE
  5
13F
330
1F
100
AcDbEntity
  8
SK3
  6
SLD-Dashed
370
    18
100
AcDbLine
 10
17.2250694713
 20
11.3737713386
 30
0.0
 11
17.1011100801
 21
10.659838393
 31
0.0
  0
LINE
  5
140
330
1F
100
AcDbEntity
  8
SK3
  6
SLD-Dashed
370
    18
100
AcDbLine
 10
17.1011100801
 20
10.659838393
 30
0.0
 11
16.8552656503
 21
9.977623485
 31
0.0
  0
LINE
  5
141
330
1F
100
AcDbEntity
  8
SK3
  6
SLD-Dashed
370
    18
100
AcDbLine
 10
16.8552656503
 20
9.977623485
 30
0.0
 11
16.5093805383
 21
9.387744403
 31
0.0
  0
LINE
  5
142
330
1F
100
AcDbEntity
  8
SK3
  6
SLD-Dashed
370
    18
100
AcDbLine
 10
16.5093805383
 20
9.387744403
 30
0.0
 11
16.0941881543
 21
8.9426144922
 31
0.0
  0
LINE
  5
143
330
1F
100
AcDbEntity
  8
SK3
  6
SLD-Dashed
370
    18
100
AcDbLine
 10
16.0941881543
 20
8.9426144922
 30
0.0
 11
15.6465801636
 21
8.6817854985
 31
0.0
  0
LINE
  5
144
330
1F
100
AcDbEntity
  8
SK3
  6
SLD-Dashed
370
    18
100
AcDbLine
 10
15.6465801636
 20
8.6817854985
 30
0.0
 11
15.2063285004
 21
8.6284332227
 31
0.0
  0
LINE
  5
145
330
1F
100
AcDbEntity
  8
SK3
  6
SLD-Dashed
370
    18
100
AcDbLine
 10
15.2063285004
 20
8.6284332227
 30
0.0
 11
14.8125514571
 21
8.7872982485
 31
0.0
  0
LINE
  5
146
330
1F
100
AcDbEntity
  8
SK3
  6
SLD-Dashed
370
    18
100
AcDbLine
 10
14.8125514571
 20
8.7872982485
 30
0.0
 11
14.500237852
 21
9.1442647213
 31
0.0
  0
LINE
  5
147
330
1F
100
AcDbEntity
  8
SK3
  6
SLD-Dashed
370
    18
100
AcDbLine
 10
14.500237852
 20
9.1442647213
 30
0.0
 11
14.2971381195
 21
9.6676146035
 31
0.0
  0
LINE
  5
148
330
1F
100
AcDbEntity
  8
SK3
  6
SLD-Dashed
370
    18
100
AcDbLine
 10
14.2971381195
 20
9.6676146035
 30
0.0
 11
14.2212985621
 21
10.3108459613
 31
0.0
  0
LINE
  5
149
330
1F
100
AcDbEntity
  8
SK3
  6
SLD-Dashed
370
    18
100
AcDbLine
 10
14.2212985621
 20
10.3108459613
 30
0.0
 11
14.2794578574
 21
11.0168048658
 31
0.0
  0
LINE
  5
14A
330
1F
100
AcDbEntity
  8
SK3
  6
SLD-Dashed
370
    18
100
AcDbLine
 10
3.3949403416
 20
13.9015950424
 30
0.0
 11
3.5816002207
 21
14.6176762606
 31
0.0
  0
LINE
  5
14B
330
1F
100
AcDbEntity
  8
SK3
  6
SLD-Dashed
370
    18
100
AcDbLine
 10
3.5816002207
 20
14.6176762606
 30
0.0
 11
3.8777929979
 21
15.2757448372
 31
0.0
  0
LINE
  5
14C
330
1F
100
AcDbEntity
  8
SK3
  6
SLD-Dashed
370
    18
100
AcDbLine
 10
3.8777929979
 20
15.2757448372
 30
0.0
 11
4.2595228959
 21
15.8224879698
 31
0.0
  0
LINE
  5
14D
330
1F
100
AcDbEntity
  8
SK3
  6
SLD-Dashed
370
    18
100
AcDbLine
 10
4.2595228959
 20
15.8224879698
 30
0.0
 11
4.6958644286
 21
16.2136117815
 31
0.0
  0
LINE
  5
14E
330
1F
100
AcDbEntity
  8
SK3
  6
SLD-Dashed
370
    18
100
AcDbLine
 10
4.6958644286
 20
16.2136117815
 30
0.0
 11
5.1514678
 21
16.417429747
 31
0.0
  0
LINE
  5
14F
330
1F
100
AcDbEntity
  8
SK3
  6
SLD-Dashed
370
    18
100
AcDbLine
 10
5.1514678
 20
16.417429747
 30
0.0
 11
5.5894227346
 21
16.417429747
 31
0.0
  0
LINE
  5
150
330
1F
100
AcDbEntity
  8
SK3
  6
SLD-Dashed
370
    18
100
AcDbLine
 10
5.5894227346
 20
16.417429747
 30
0.0
 11
5.9742487283
 21
16.2136117815
 31
0.0
  0
LINE
  5
151
330
1F
100
AcDbEntity
  8
SK3
  6
SLD-Dashed
370
    18
100
AcDbLine
 10
5.9742487283
 20
16.2136117815
 30
0.0
 11
6.2747694675
 21
15.8224879698
 31
0.0
  0
LINE
  5
152
330
1F
100
AcDbEntity
  8
SK3
  6
SLD-Dashed
370
    18
100
AcDbLine
 10
6.2747694675
 20
15.8224879698
 30
0.0
 11
6.4666385494
 21
15.2757448372
 31
0.0
  0
LINE
  5
153
330
1F
100
AcDbEntity
  8
SK3
  6
SLD-Dashed
370
    18
100
AcDbLine
 10
6.4666385494
 20
15.2757448372
 30
0.0
 11
6.5343118819
 21
14.6176762606
 31
0.0
  0
LINE
  5
154
330
1F
100
AcDbEntity
  8
SK3
  6
SLD-Dashed
370
    18
100
AcDbLine
 10
6.5343118819
 20
14.6176762606
 30
0.0
 11
6.4723069743
 21
13.9015950424
 31
0.0
  0
LINE
  5
155
330
1F
100
AcDbEntity
  8
SK3
  6
SLD-Dashed
370
    18
100
AcDbLine
 10
6.4723069743
 20
13.9015950424
 30
0.0
 11
6.2856470952
 21
13.1855138242
 31
0.0
  0
LINE
  5
156
330
1F
100
AcDbEntity
  8
SK3
  6
SLD-Dashed
370
    18
100
AcDbLine
 10
6.2856470952
 20
13.1855138242
 30
0.0
 11
5.989454318
 21
12.5274452476
 31
0.0
  0
LINE
  5
157
330
1F
100
AcDbEntity
  8
SK3
  6
SLD-Dashed
370
    18
100
AcDbLine
 10
5.989454318
 20
12.5274452476
 30
0.0
 11
5.60772442
 21
11.980702115
 31
0.0
  0
LINE
  5
158
330
1F
100
AcDbEntity
  8
SK3
  6
SLD-Dashed
370
    18
100
AcDbLine
 10
5.60772442
 20
11.980702115
 30
0.0
 11
5.1713828873
 21
11.5895783033
 31
0.0
  0
LINE
  5
159
330
1F
100
AcDbEntity
  8
SK3
  6
SLD-Dashed
370
    18
100
AcDbLine
 10
5.1713828873
 20
11.5895783033
 30
0.0
 11
4.7157795159
 21
11.3857603378
 31
0.0
  0
LINE
  5
15A
330
1F
100
AcDbEntity
  8
SK3
  6
SLD-Dashed
370
    18
100
AcDbLine
 10
4.7157795159
 20
11.3857603378
 30
0.0
 11
4.2778245812
 21
11.3857603378
 31
0.0
  0
LINE
  5
15B
330
1F
100
AcDbEntity
  8
SK3
  6
SLD-Dashed
370
    18
100
AcDbLine
 10
4.2778245812
 20
11.3857603378
 30
0.0
 11
3.8929985876
 21
11.5895783033
 31
0.0
  0
LINE
  5
15C
330
1F
100
AcDbEntity
  8
SK3
  6
SLD-Dashed
370
    18
100
AcDbLine
 10
3.8929985876
 20
11.5895783033
 30
0.0
 11
3.5924778483
 21
11.980702115
 31
0.0
  0
LINE
  5
15D
330
1F
100
AcDbEntity
  8
SK3
  6
SLD-Dashed
370
    18
100
AcDbLine
 10
3.5924778483
 20
11.980702115
 30
0.0
 11
3.4006087665
 21
12.5274452476
 31
0.0
  0
LINE
  5
15E
330
1F
100
AcDbEntity
  8
SK3
  6
SLD-Dashed
370
    18
100
AcDbLine
 10
3.4006087665
 20
12.5274452476
 30
0.0
 11
3.3329354339
 21
13.1855138242
 31
0.0
  0
LINE
  5
15F
330
1F
100
AcDbEntity
  8
SK3
  6
SLD-Dashed
370
    18
100
AcDbLine
 10
3.3329354339
 20
13.1855138242
 30
0.0
 11
3.3949403416
 21
13.9015950424
 31
0.0
  0
LINE
  5
160
330
1F
100
AcDbEntity
  8
SK3
  6
SLD-Dashed
370
    18
100
AcDbLine
 10
5.6371324082
 20
-16.2495686026
 30
0.0
 11
16.3618570383
 21
-13.3837567853
 31
0.0
  0
LINE
  5
161
330
1F
100
AcDbEntity
  8
SK3
  6
SLD-Dashed
370
    18
100
AcDbLine
 10
15.0968849264
 20
-8.6498529463
 30
0.0
 11
4.3721602964
 21
-11.5156647637
 31
0.0
  0
LINE
  5
162
330
1F
100
AcDbEntity
  8
SK3
  6
SLD-Dashed
370
    18
100
AcDbLine
 10
-101.6
 20
-14.285
 30
0.0
 11
-99.7034043657
 21
-13.19
 31
0.0
  0
LINE
  5
163
330
1F
100
AcDbEntity
  8
SK3
  6
SLD-Dashed
370
    18
100
AcDbLine
 10
-99.7034043657
 20
13.19
 30
0.0
 11
-101.6
 21
14.285
 31
0.0
  0
LINE
  5
164
330
1F
100
AcDbEntity
  8
SK3
  6
SLD-Dashed
370
    18
100
AcDbLine
 10
-99.7034043657
 20
-13.19
 30
0.0
 11
-95.25
 21
-13.19
 31
0.0
  0
LINE
  5
165
330
1F
100
AcDbEntity
  8
SK3
  6
SLD-Dashed
370
    18
100
AcDbLine
 10
-95.25
 20
13.19
 30
0.0
 11
-99.7034043657
 21
13.19
 31
0.0
  0
LINE
  5
166
330
1F
100
AcDbEntity
  8
SK3
  6
SLD-Dashed
370
    18
100
AcDbLine
 10
-95.25
 20
-13.19
 30
0.0
 11
-94.0505548158
 21
-11.1125
 31
0.0
  0
LINE
  5
167
330
1F
100
AcDbEntity
  8
SK3
  6
SLD-Dashed
370
    18
100
AcDbLine
 10
-94.0505548158
 20
11.1125
 30
0.0
 11
-95.25
 21
13.19
 31
0.0
  0
LINE
  5
168
330
1F
100
AcDbEntity
  8
SK3
  6
SLD-Dashed
370
    18
100
AcDbLine
 10
-94.0505548158
 20
-11.1125
 30
0.0
 11
18.4
 21
-11.1125
 31
0.0
  0
LINE
  5
169
330
1F
100
AcDbEntity
  8
SK3
  6
SLD-Dashed
370
    18
100
AcDbLine
 10
18.4
 20
11.1125
 30
0.0
 11
-94.0505548158
 21
11.1125
 31
0.0
  0
LINE
  5
16A
330
1F
100
AcDbEntity
  8
SK3
  6
SLD-Dashed
370
    18
100
AcDbLine
 10
18.4
 20
-11.1125
 30
0.0
 11
21.4718999148
 21
-6.0
 31
0.0
  0
LINE
  5
16B
330
1F
100
AcDbEntity
  8
SK3
  6
SLD-Dashed
370
    18
100
AcDbLine
 10
21.4718999148
 20
6.0
 30
0.0
 11
18.4
 21
11.1125
 31
0.0
  0
LINE
  5
16C
330
1F
100
AcDbEntity
  8
SK3
  6
SLD-Dashed
370
    18
100
AcDbLine
 10
21.4718999148
 20
-6.0
 30
0.0
 11
126.256
 21
-6.0
 31
0.0
  0
LINE
  5
16D
330
1F
100
AcDbEntity
  8
SK3
  6
SLD-Dashed
370
    18
100
AcDbLine
 10
126.256
 20
6.0
 30
0.0
 11
21.4718999148
 21
6.0
 31
0.0
  0
LINE
  5
16E
330
1F
100
AcDbEntity
  8
SK3
  6
SLD-Dashed
370
    18
100
AcDbLine
 10
126.256
 20
-6.0
 30
0.0
 11
126.999565016
 21
-4.7625
 31
0.0
  0
LINE
  5
16F
330
1F
100
AcDbEntity
  8
SK3
  6
SLD-Dashed
370
    18
100
AcDbLine
 10
126.999565016
 20
4.7625
 30
0.0
 11
126.256
 21
6.0
 31
0.0
  0
LINE
  5
170
330
1F
100
AcDbEntity
  8
SK3
  6
SLD-Dashed
370
    18
100
AcDbLine
 10
140.55
 20
12.7
 30
0.0
 11
140.55
 21
11.2
 31
0.0
  0
LINE
  5
171
330
1F
100
AcDbEntity
  8
SK3
  6
SLD-Dashed
370
    18
100
AcDbLine
 10
151.55
 20
11.2
 30
0.0
 11
151.55
 21
12.7
 31
0.0
  0
LINE
  5
172
330
1F
100
AcDbEntity
  8
SK3
  6
SLD-Dashed
370
    18
100
AcDbLine
 10
165.1
 20
5.1955127019
 30
0.0
 11
164.35
 21
4.7625
 31
0.0
  0
LINE
  5
173
330
1F
100
AcDbEntity
  8
SK3
  6
SLD-Dashed
370
    18
100
AcDbLine
 10
164.35
 20
-4.7625
 30
0.0
 11
165.1
 21
-5.1955127019
 31
0.0
  0
LINE
  5
174
330
1F
100
AcDbEntity
  8
SK3
  6
SLD-Dashed
370
    18
100
AcDbLine
 10
6.1
 20
37.5
 30
0.0
 11
6.1
 21
33.1
 31
0.0
  0
LINE
  5
175
330
1F
100
AcDbEntity
  8
SK3
  6
SLD-Dashed
370
    18
100
AcDbLine
 10
16.1
 20
33.1
 30
0.0
 11
16.1
 21
37.5
 31
0.0
  0
LINE
  5
176
330
1F
100
AcDbEntity
  8
SK3
  6
SLD-Dashed
370
    18
100
AcDbLine
 10
141.859
 20
4.7625
 30
0.0
 11
126.999565016
 21
4.7625
 31
0.0
  0
LINE
  5
177
330
1F
100
AcDbEntity
  8
SK3
  6
SLD-Dashed
370
    18
100
AcDbLine
 10
164.35
 20
4.7625
 30
0.0
 11
150.2334528783
 21
4.7625
 31
0.0
  0
LINE
  5
178
330
1F
100
AcDbEntity
  8
SK3
  6
SLD-Dashed
370
    18
100
AcDbLine
 10
126.999565016
 20
-4.7625
 30
0.0
 11
164.35
 21
-4.7625
 31
0.0
  0
LINE
  5
179
330
1F
100
AcDbEntity
  8
SK3
  6
SLD-Dashed
370
    18
100
AcDbLine
 10
141.859
 20
11.2
 30
0.0
 11
141.859
 21
4.7625
 31
0.0
  0
LINE
  5
17A
330
1F
100
AcDbEntity
  8
SK3
  6
SLD-Dashed
370
    18
100
AcDbLine
 10
150.241
 20
4.7558639123
 30
0.0
 11
150.241
 21
11.2
 31
0.0
  0
LINE
  5
17B
330
1F
100
AcDbEntity
  8
SK3
  6
SLD-Dashed
370
    18
100
AcDbLine
 10
4.3721602964
 20
11.5156647637
 30
0.0
 11
15.0968849264
 21
8.6498529463
 31
0.0
  0
LINE
  5
17C
330
1F
100
AcDbEntity
  8
SK3
  6
SLD-Dashed
370
    18
100
AcDbLine
 10
16.3618570383
 20
13.3837567853
 30
0.0
 11
5.6371324082
 21
16.2495686026
 31
0.0
  0
LINE
  5
17D
330
1F
100
AcDbEntity
  8
SK3
  6
SLD-Solid
370
    18
100
AcDbLine
 10
-55.5999986827
 20
12.6999998465
 30
0.0
 11
-94.967097044
 21
12.6999998465
 31
0.0
  0
LINE
  5
17E
330
1F
100
AcDbEntity
  8
SK3
  6
SLD-Solid
370
    18
100
AcDbLine
 10
-94.967097044
 20
-12.6999998465
 30
0.0
 11
-55.5999986827
 21
-12.6999998465
 31
0.0
  0
LINE
  5
17F
330
1F
100
AcDbEntity
  8
SK3
  6
SLD-Solid
370
    18
100
AcDbLine
 10
-55.5999986827
 20
0.0
 30
0.0
 11
-55.5999986827
 21
-1.9867178053
 31
0.0
  0
LINE
  5
180
330
1F
100
AcDbEntity
  8
SK3
  6
SLD-Solid
370
    18
100
AcDbLine
 10
-55.5999986827
 20
-1.9867178053
 30
0.0
 11
-55.5999986827
 21
-3.9245160297
 31
0.0
  0
LINE
  5
181
330
1F
100
AcDbEntity
  8
SK3
  6
SLD-Solid
370
    18
100
AcDbLine
 10
-55.5999986827
 20
-3.9245160297
 30
0.0
 11
-55.5999986827
 21
-5.7656792924
 31
0.0
  0
LINE
  5
182
330
1F
100
AcDbEntity
  8
SK3
  6
SLD-Solid
370
    18
100
AcDbLine
 10
-55.5999986827
 20
-5.7656792924
 30
0.0
 11
-55.5999986827
 21
-7.4648726732
 31
0.0
  0
LINE
  5
183
330
1F
100
AcDbEntity
  8
SK3
  6
SLD-Solid
370
    18
100
AcDbLine
 10
-55.5999986827
 20
-7.4648726732
 30
0.0
 11
-55.5999986827
 21
-8.9802565053
 31
0.0
  0
LINE
  5
184
330
1F
100
AcDbEntity
  8
SK3
  6
SLD-Solid
370
    18
100
AcDbLine
 10
-55.5999986827
 20
-8.9802565053
 30
0.0
 11
-55.5999986827
 21
-10.2745154873
 31
0.0
  0
LINE
  5
185
330
1F
100
AcDbEntity
  8
SK3
  6
SLD-Solid
370
    18
100
AcDbLine
 10
-55.5999986827
 20
-10.2745154873
 30
0.0
 11
-55.5999986827
 21
-11.3157825544
 31
0.0
  0
LINE
  5
186
330
1F
100
AcDbEntity
  8
SK3
  6
SLD-Solid
370
    18
100
AcDbLine
 10
-55.5999986827
 20
-11.3157825544
 30
0.0
 11
-55.5999986827
 21
-12.0784174651
 31
0.0
  0
LINE
  5
187
330
1F
100
AcDbEntity
  8
SK3
  6
SLD-Solid
370
    18
100
AcDbLine
 10
-55.5999986827
 20
-12.0784174651
 30
0.0
 11
-55.5999986827
 21
-12.5436419621
 31
0.0
  0
LINE
  5
188
330
1F
100
AcDbEntity
  8
SK3
  6
SLD-Solid
370
    18
100
AcDbLine
 10
-55.5999986827
 20
-12.5436419621
 30
0.0
 11
-55.5999986827
 21
-12.6999998465
 31
0.0
  0
LINE
  5
189
330
1F
100
AcDbEntity
  8
SK3
  6
SLD-Solid
370
    18
100
AcDbLine
 10
-55.5999986827
 20
12.6999998465
 30
0.0
 11
-55.5999986827
 21
12.5436419621
 31
0.0
  0
LINE
  5
18A
330
1F
100
AcDbEntity
  8
SK3
  6
SLD-Solid
370
    18
100
AcDbLine
 10
-55.5999986827
 20
12.5436419621
 30
0.0
 11
-55.5999986827
 21
12.0784174651
 31
0.0
  0
LINE
  5
18B
330
1F
100
AcDbEntity
  8
SK3
  6
SLD-Solid
370
    18
100
AcDbLine
 10
-55.5999986827
 20
12.0784174651
 30
0.0
 11
-55.5999986827
 21
11.3157825544
 31
0.0
  0
LINE
  5
18C
330
1F
100
AcDbEntity
  8
SK3
  6
SLD-Solid
370
    18
100
AcDbLine
 10
-55.5999986827
 20
11.3157825544
 30
0.0
 11
-55.5999986827
 21
10.2745154873
 31
0.0
  0
LINE
  5
18D
330
1F
100
AcDbEntity
  8
SK3
  6
SLD-Solid
370
    18
100
AcDbLine
 10
-55.5999986827
 20
10.2745154873
 30
0.0
 11
-55.5999986827
 21
8.9802565053
 31
0.0
  0
LINE
  5
18E
330
1F
100
AcDbEntity
  8
SK3
  6
SLD-Solid
370
    18
100
AcDbLine
 10
-55.5999986827
 20
8.9802565053
 30
0.0
 11
-55.5999986827
 21
7.4648726732
 31
0.0
  0
LINE
  5
18F
330
1F
100
AcDbEntity
  8
SK3
  6
SLD-Solid
370
    18
100
AcDbLine
 10
-55.5999986827
 20
7.4648726732
 30
0.0
 11
-55.5999986827
 21
5.7656792924
 31
0.0
  0
LINE
  5
190
330
1F
100
AcDbEntity
  8
SK3
  6
SLD-Solid
370
    18
100
AcDbLine
 10
-55.5999986827
 20
5.7656792924
 30
0.0
 11
-55.5999986827
 21
3.9245160297
 31
0.0
  0
LINE
  5
191
330
1F
100
AcDbEntity
  8
SK3
  6
SLD-Solid
370
    18
100
AcDbLine
 10
-55.5999986827
 20
3.9245160297
 30
0.0
 11
-55.5999986827
 21
1.9867178053
 31
0.0
  0
LINE
  5
192
330
1F
100
AcDbEntity
  8
SK3
  6
SLD-Solid
370
    18
100
AcDbLine
 10
-55.5999986827
 20
1.9867178053
 30
0.0
 11
-55.5999986827
 21
0.0
 31
0.0
  0
LINE
  5
193
330
1F
100
AcDbEntity
  8
SK3
  6
SLD-Solid
370
    18
100
AcDbLine
 10
150.8125066757
 20
4.7625000589
 30
0.0
 11
150.8125066757
 21
11.1999996006
 31
0.0
  0
LINE
  5
194
330
1F
100
AcDbEntity
  8
SK3
  6
SLD-Solid
370
    18
100
AcDbLine
 10
141.2875056267
 20
11.1999996006
 30
0.0
 11
141.2875056267
 21
4.7625000589
 31
0.0
  0
LINE
  5
195
330
1F
100
AcDbEntity
  8
SK3
  6
SLD-Solid
370
    18
100
AcDbLine
 10
150.8125066757
 20
4.7625000589
 30
0.0
 11
150.7361382246
 21
4.686142318
 31
0.0
  0
LINE
  5
196
330
1F
100
AcDbEntity
  8
SK3
  6
SLD-Solid
370
    18
100
AcDbLine
 10
141.3638591766
 20
4.686142318
 30
0.0
 11
141.2875056267
 21
4.7625000589
 31
0.0
  0
LINE
  5
197
330
1F
100
AcDbEntity
  8
4
  6
SLD-Center
370
    18
100
AcDbLine
 10
167.1
 20
0.0
 30
0.0
 11
-0.1444685163
 21
0.0
 31
0.0
  0
LINE
  5
198
330
1F
100
AcDbEntity
  8
4
  6
SLD-Center
370
    18
100
AcDbLine
 10
146.05
 20
2.7625
 30
0.0
 11
146.05
 21
13.2
 31
0.0
  0
LINE
  5
199
330
1F
100
AcDbEntity
  8
SK4
  6
SLD-Center
370
    18
100
AcDbLine
 10
-101.8030472773
 20
0.0
 30
0.0
 11
165.2014580365
 21
0.0
 31
0.0
  0
LINE
  5
19A
330
1F
100
AcDbEntity
  8
81
370
    18
100
AcDbLine
 10
165.1
 20
0.0
 30
0.0
 11
168.6355339059
 21
3.5355339059
 31
0.0
  0
LINE
  5
19B
330
1F
100
AcDbEntity
  8
81
370
    18
100
AcDbLine
 10
165.1
 20
0.0
 30
0.0
 11
161.5644660941
 21
-3.5355339059
 31
0.0
  0
LINE
  5
19C
330
1F
100
AcDbEntity
  8
81
370
    18
100
AcDbLine
 10
165.1
 20
0.0
 30
0.0
 11
161.5644660941
 21
3.5355339059
 31
0.0
  0
LINE
  5
19D
330
1F
100
AcDbEntity
  8
81
100
AcDbLine
 10
165.1
 20
0.0
 30
0.0
 11
175.1
 21
0.0
 31
0.0
  0
LINE
  5
19E
330
1F
100
AcDbEntity
  8
81
370
    18
100
AcDbLine
 10
165.1
 20
0.0
 30
0.0
 11
168.6355339059
 21
-3.5355339059
 31
0.0
  0
LINE
  5
19F
330
1F
100
AcDbEntity
  8
80
370
    18
100
AcDbLine
 10
0.0
 20
0.0
 30
0.0
 11
-3.5355339059
 21
-3.5355339059
 31
0.0
  0
LINE
  5
1A0
330
1F
100
AcDbEntity
  8
80
370
    18
100
AcDbLine
 10
0.0
 20
0.0
 30
0.0
 11
3.5355339059
 21
3.5355339059
 31
0.0
  0
LINE
  5
1A1
330
1F
100
AcDbEntity
  8
80
370
    18
100
AcDbLine
 10
0.0
 20
0.0
 30
0.0
 11
-3.5355339059
 21
3.5355339059
 31
0.0
  0
LINE
  5
1A2
330
1F
100
AcDbEntity
  8
80
370
    18
100
AcDbLine
 10
0.0
 20
0.0
 30
0.0
 11
-10.0
 21
0.0
 31
0.0
  0
LINE
  5
1A3
330
1F
100
AcDbEntity
  8
80
370
    18
100
AcDbLine
 10
0.0
 20
0.0
 30
0.0
 11
3.5355339059
 21
-3.5355339059
 31
0.0
  0
ARC
  5
1A4
330
1F
100
AcDbEntity
  8
1
  6
SLD-Solid
370
    25
100
AcDbCircle
 10
19.812
 20
-35.687
 30
0.0
 40
0.7620000000000076
100
AcDbArc
 50
90.0
 51
129.6623837972
  0
ARC
  5
1A5
330
1F
100
AcDbEntity
  8
1
  6
SLD-Solid
370
    25
100
AcDbCircle
 10
19.812
 20
35.687
 30
0.0
 40
0.7620000000000147
100
AcDbArc
 50
180.0
 51
270.0
  0
ARC
  5
1A6
330
1F
100
AcDbEntity
  8
1
  6
SLD-Solid
370
    25
100
AcDbCircle
 10
2.45
 20
35.425
 30
0.0
 40
0.7500000000000072
100
AcDbArc
 50
245.0
 51
0.0
  0
ARC
  5
1A7
330
1F
100
AcDbEntity
  8
1
  6
SLD-Solid
370
    25
100
AcDbCircle
 10
2.45
 20
-35.425
 30
0.0
 40
0.7500000000000008
100
AcDbArc
 50
25.3908212536
 51
115.0
  0
ARC
  5
1A8
330
1F
100
AcDbEntity
  8
1
  6
SLD-Solid
370
    25
100
AcDbCircle
 10
33.576
 20
-33.401
 30
0.0
 40
1.524000000000029
100
AcDbArc
 50
270.0
 51
0.0
  0
ARC
  5
1A9
330
1F
100
AcDbEntity
  8
1
  6
SLD-Solid
370
    25
100
AcDbCircle
 10
33.576
 20
33.401
 30
0.0
 40
1.524000000000029
100
AcDbArc
 50
0.0
 51
90.0
  0
ARC
  5
1AA
330
1F
100
AcDbEntity
  8
1
  6
SLD-Solid
370
    25
100
AcDbCircle
 10
36.624
 20
-20.6541306798
 30
0.0
 40
1.524000000000022
100
AcDbArc
 50
97.0
 51
180.0
  0
ARC
  5
1AB
330
1F
100
AcDbEntity
  8
1
  6
SLD-Solid
370
    25
100
AcDbCircle
 10
36.624
 20
20.6541306798
 30
0.0
 40
1.524000000000022
100
AcDbArc
 50
180.0
 51
263.0
  0
ARC
  5
1AC
330
1F
100
AcDbEntity
  8
SK1
  6
SLD-Solid
370
    25
100
AcDbCircle
 10
-99.5
 20
18.2922326599
 30
0.0
 40
2.100000000000009
100
AcDbArc
 50
98.2972222222
 51
180.0
  0
ARC
  5
1AD
330
1F
100
AcDbEntity
  8
SK1
  6
SLD-Solid
370
    25
100
AcDbCircle
 10
-99.5
 20
-18.2922326599
 30
0.0
 40
2.100000000000009
100
AcDbArc
 50
180.0
 51
261.7027777778
  0
ARC
  5
1AE
330
1F
100
AcDbEntity
  8
1
  6
SLD-Solid
370
    25
100
AcDbCircle
 10
146.0499105961
 20
24.5939371007
 30
0.0
 40
13.10399772287373
100
AcDbArc
 50
245.1835673028
 51
294.8043060589
  0
ARC
  5
1AF
330
1F
100
AcDbEntity
  8
1
370
    18
100
AcDbCircle
 10
142.8805926313
 20
-29.5722563339
 30
0.0
 40
18.06688269078566
100
AcDbArc
 50
69.04755714
 51
110.95244286
  0
CIRCLE
  5
1B0
330
1F
100
AcDbEntity
  8
81
370
    18
100
AcDbCircle
 10
165.1
 20
0.0
 30
0.0
 40
2.499999999999998
  0
CIRCLE
  5
1B1
330
1F
100
AcDbEntity
  8
80
370
    18
100
AcDbCircle
 10
0.0
 20
0.0
 30
0.0
 40
2.500000000000009
  0
SPLINE
  5
1B2
330
1F
100
AcDbEntity
  8
1
  6
SLD-Solid
370
    25
100
AcDbSpline
210
0.0
220
0.0
230
1.0
 70
     8
 71
     3
 72
    12
 73
     8
 74
     0
 42
0.000000001
 43
0.00000001
 40
0.0
 40
0.0
 40
0.0
 40
0.0
 40
0.2499999999999983
 40
0.2499999999999983
 40
0.4999999999999967
 40
0.4999999999999967
 40
1.0
 40
1.0
 40
1.0
 40
1.0
 10
19.04999999999998
 20
-46.69763484374772
 30
0.0
 10
19.04999999999999
 20
-46.79851095846173
 30
0.0
 10
19.03137059366211
 20
-46.89733966428951
 30
0.0
 10
18.95815575330309
 20
-47.08411469648357
 30
0.0
 10
18.90402082648724
 20
-47.16991322230013
 30
0.0
 10
18.69812814693783
 20
-47.3875344447254
 30
0.0
 10
18.50197314321875
 20
-47.475484199743
 30
0.0
 10
18.30000000000009
 20
-47.47548419974304
 30
0.0
  0
SPLINE
  5
1B3
330
1F
100
AcDbEntity
  8
1
  6
SLD-Solid
370
    25
100
AcDbSpline
210
0.0
220
0.0
230
1.0
 70
     8
 71
     3
 72
    15
 73
    11
 74
     0
 42
0.000000001
 43
0.00000001
 40
0.0
 40
0.0
 40
0.0
 40
0.0
 40
0.0708675466398782
 40
0.1234206290199329
 40
0.2469923695820378
 40
0.4940839350896176
 40
0.6226370205665461
 40
0.7456896564301587
 40
0.8736712713971236
 40
1.0
 40
1.0
 40
1.0
 40
1.0
 10
19.04999999999998
 20
46.55608553132448
 30
0.0
 10
19.04912781744919
 20
46.58344641759021
 30
0.0
 10
19.04760885250489
 20
46.63109725289595
 30
0.0
 10
19.03252103266862
 20
46.72541301610953
 30
0.0
 10
18.9854843527477
 20
46.88286431586818
 30
0.0
 10
18.87493087106905
 20
47.04890219776884
 30
0.0
 10
18.72384724361527
 20
47.17307551099399
 30
0.0
 10
18.59213990202895
 20
47.24320117900595
 30
0.0
 10
18.44967423040857
 20
47.28829435244303
 30
0.0
 10
18.34967476177423
 20
47.29398684875628
 30
0.0
 10
18.30000000000003
 20
47.29681459776462
 30
0.0
  0
SPLINE
  5
1B4
330
1F
100
AcDbEntity
  8
1
  6
SLD-Solid
370
    25
100
AcDbSpline
210
0.0
220
0.0
230
1.0
 70
     8
 71
     3
 72
    12
 73
     8
 74
     0
 42
0.000000001
 43
0.00000001
 40
0.0
 40
0.0
 40
0.0
 40
0.0
 40
0.249999999999997
 40
0.249999999999997
 40
0.499999999999994
 40
0.499999999999994
 40
1.0
 40
1.0
 40
1.0
 40
1.0
 10
3.950000000000009
 20
-47.4754841997425
 30
0.0
 10
3.849084030890598
 20
-47.47548419974251
 30
0.0
 10
3.749978417477457
 20
-47.45437693482704
 30
0.0
 10
3.566847730075512
 20
-47.37426897057828
 30
0.0
 10
3.483455095947358
 20
-47.31511647588033
 30
0.0
 10
3.278048511272613
 20
-47.09831987092234
 30
0.0
 10
3.200000000000008
 20
-46.89926900274104
 30
0.0
 10
3.200000000000008
 20
-46.69763484374772
 30
0.0
  0
SPLINE
  5
1B5
330
1F
100
AcDbEntity
  8
1
  6
SLD-Solid
370
    25
100
AcDbSpline
210
0.0
220
0.0
230
1.0
 70
     8
 71
     3
 72
    17
 73
    13
 74
     0
 42
0.000000001
 43
0.00000001
 40
0.0
 40
0.0
 40
0.0
 40
0.0
 40
0.0631225276665443
 40
0.1266732404539068
 40
0.1906578598225301
 40
0.255081970491762
 40
0.3779677561801769
 40
0.5065287291742424
 40
0.7536275741715768
 40
0.8770326867277833
 40
0.9293515934403508
 40
1.0
 40
1.0
 40
1.0
 40
1.0
 10
3.950000000000007
 20
47.29681459776455
 30
0.0
 10
3.925201491186856
 20
47.29611182214632
 30
0.0
 10
3.875436255447588
 20
47.29470150370432
 30
0.0
 10
3.801280717949882
 20
47.28327895415941
 30
0.0
 10
3.728120549122246
 20
47.2649874618951
 30
0.0
 10
3.635342933318515
 20
47.23149463842356
 30
0.0
 10
3.525682301877184
 20
47.1726739704321
 30
0.0
 10
3.374709300498671
 20
47.0485469861128
 30
0.0
 10
3.26427122066445
 20
46.88235514412629
 30
0.0
 10
3.217384189869581
 20
46.72497704380703
 30
0.0
 10
3.202376761223196
 20
46.63086119232513
 30
0.0
 10
3.200867255992159
 20
46.58337040934848
 30
0.0
 10
3.200000000000054
 20
46.55608553132451
 30
0.0
  0
SPLINE
  5
1B6
330
1F
100
AcDbEntity
  8
1
  6
SLD-Solid
370
    25
100
AcDbSpline
210
0.0
220
0.0
230
1.0
 70
     8
 71
     3
 72
    14
 73
    10
 74
     0
 42
0.000000001
 43
0.00000001
 40
0.0
 40
0.0
 40
0.0
 40
0.0
 40
0.25
 40
0.25
 40
0.5
 40
0.5
 40
0.75
 40
0.75
 40
1.0
 40
1.0
 40
1.0
 40
1.0
 10
13.02999999999673
 20
41.98711733167362
 30
0.0
 10
13.05904068228836
 20
41.99358445674643
 30
0.0
 10
13.0827520948305
 20
41.98923559020851
 30
0.0
 10
13.11609658322535
 20
41.951895111036
 30
0.0
 10
13.1249214006757
 20
41.91935250781889
 30
0.0
 10
13.12507754967867
 20
41.82511380577067
 30
0.0
 10
13.116150532091
 20
41.76334893396672
 30
0.0
 10
13.08319562521556
 20
41.62087672885792
 30
0.0
 10
13.0591101994964
 20
41.53942138187118
 30
0.0
 10
13.03000000000001
 20
41.45311361597292
 30
0.0
  0
SPLINE
  5
1B7
330
1F
100
AcDbEntity
  8
1
  6
SLD-Solid
370
    25
100
AcDbSpline
210
0.0
220
0.0
230
1.0
 70
     8
 71
     3
 72
     8
 73
     4
 74
     0
 42
0.000000001
 43
0.00000001
 40
0.0
 40
0.0
 40
0.0
 40
0.0
 40
1.0
 40
1.0
 40
1.0
 40
1.0
 10
13.03000000000001
 20
44.57901066343648
 30
0.0
 10
13.44364613314278
 20
45.32508460154332
 30
0.0
 10
13.85791150908241
 20
46.07082082932959
 30
0.0
 10
14.27271061994659
 20
46.81625358782994
 30
0.0
  0
SPLINE
  5
1B8
330
1F
100
AcDbEntity
  8
1
  6
SLD-Solid
370
    25
100
AcDbSpline
210
0.0
220
0.0
230
1.0
 70
     8
 71
     3
 72
     8
 73
     4
 74
     0
 42
0.000000001
 43
0.00000001
 40
0.0
 40
0.0
 40
0.0
 40
0.0
 40
0.0008790679015124
 40
0.0008790679015124
 40
0.0008790679015124
 40
0.0008790679015124
 10
14.63972339340267
 20
47.29681459776455
 30
0.0
 10
14.51700841932646
 20
47.13673210499612
 30
0.0
 10
14.39466513614737
 20
46.97654627942756
 30
0.0
 10
14.27271061994659
 20
46.81625358782994
 30
0.0
  0
SPLINE
  5
1B9
330
1F
100
AcDbEntity
  8
1
  6
SLD-Solid
370
    25
100
AcDbSpline
210
0.0
220
0.0
230
1.0
 70
     8
 71
     3
 72
     8
 73
     4
 74
     0
 42
0.000000001
 43
0.00000001
 40
0.0
 40
0.0
 40
0.0
 40
0.0
 40
1.0
 40
1.0
 40
1.0
 40
1.0
 10
13.03000000000001
 20
-44.57901066343648
 30
0.0
 10
13.56559195163212
 20
-45.54503249842018
 30
0.0
 10
14.10222500453559
 20
-46.5104965471081
 30
0.0
 10
14.63972339340267
 20
-47.47548419974251
 30
0.0
  0
SPLINE
  5
1BA
330
1F
100
AcDbEntity
  8
1
  6
SLD-Solid
370
    25
100
AcDbSpline
210
0.0
220
0.0
230
1.0
 70
     8
 71
     3
 72
    14
 73
    10
 74
     0
 42
0.000000001
 43
0.00000001
 40
0.0
 40
0.0
 40
0.0
 40
0.0
 40
0.25
 40
0.25
 40
0.5
 40
0.5
 40
0.75
 40
0.75
 40
1.0
 40
1.0
 40
1.0
 40
1.0
 10
13.03000000000001
 20
35.4316103884129
 30
0.0
 10
13.05904068229166
 20
35.4108851273387
 30
0.0
 10
13.08275209483378
 20
35.37953864703776
 30
0.0
 10
13.1160965832284
 20
35.28872072742523
 30
0.0
 10
13.12492140067853
 20
35.23076880196017
 30
0.0
 10
13.12507754968095
 20
35.08956907537858
 30
0.0
 10
13.11615053209289
 20
35.00648906177567
 30
0.0
 10
13.08319562521659
 20
34.8277942102537
 30
0.0
 10
13.05911019949693
 20
34.73111937885585
 30
0.0
 10
13.03000000000001
 20
34.63242923389115
 30
0.0
  0
SPLINE
  5
1BB
330
1F
100
AcDbEntity
  8
1
  6
SLD-Solid
370
    25
100
AcDbSpline
210
0.0
220
0.0
230
1.0
 70
     8
 71
     3
 72
     8
 73
     4
 74
     0
 42
0.000000001
 43
0.00000001
 40
0.0
 40
0.0
 40
0.0
 40
0.0
 40
1.0
 40
1.0
 40
1.0
 40
1.0
 10
7.590276606597335
 20
-47.4754841997425
 30
0.0
 10
8.12777499546441
 20
-46.5104965471081
 30
0.0
 10
8.664408048367878
 20
-45.54503249842018
 30
0.0
 10
9.199999999999985
 20
-44.57901066343648
 30
0.0
  0
SPLINE
  5
1BC
330
1F
100
AcDbEntity
  8
1
  6
SLD-Solid
370
    25
100
AcDbSpline
210
0.0
220
0.0
230
1.0
 70
     8
 71
     3
 72
     8
 73
     4
 74
     0
 42
0.000000001
 43
0.00000001
 40
0.0000000000000098
 40
0.0000000000000098
 40
0.0000000000000098
 40
0.0000000000000098
 40
0.000879067901516
 40
0.000879067901516
 40
0.000879067901516
 40
0.000879067901516
 10
7.957289380062154
 20
46.81625358782994
 30
0.0
 10
7.835334863860815
 20
46.97654627942823
 30
0.0
 10
7.712991580674039
 20
47.13673210499547
 30
0.0
 10
7.590276606597335
 20
47.29681459776455
 30
0.0
  0
SPLINE
  5
1BD
330
1F
100
AcDbEntity
  8
1
  6
SLD-Solid
370
    25
100
AcDbSpline
210
0.0
220
0.0
230
1.0
 70
     8
 71
     3
 72
     8
 73
     4
 74
     0
 42
0.000000001
 43
0.00000001
 40
0.0
 40
0.0
 40
0.0
 40
0.0
 40
1.0
 40
1.0
 40
1.0
 40
1.0
 10
7.957289380062154
 20
46.81625358782994
 30
0.0
 10
8.372088490919108
 20
46.07082082933729
 30
0.0
 10
8.786353866857969
 20
45.32508460154716
 30
0.0
 10
9.199999999999985
 20
44.57901066343646
 30
0.0
  0
SPLINE
  5
1BE
330
1F
100
AcDbEntity
  8
1
  6
SLD-Solid
370
    25
100
AcDbSpline
210
0.0
220
0.0
230
1.0
 70
     8
 71
     3
 72
    14
 73
    10
 74
     0
 42
0.000000001
 43
0.00000001
 40
0.0
 40
0.0
 40
0.0
 40
0.0
 40
0.25
 40
0.25
 40
0.5
 40
0.5
 40
0.75
 40
0.75
 40
1.0
 40
1.0
 40
1.0
 40
1.0
 10
9.200000000002206
 20
41.48301295145394
 30
0.0
 10
9.176680646156898
 20
41.55645645104907
 30
0.0
 10
9.15795689205548
 20
41.62429306843829
 30
0.0
 10
9.13192767878465
 20
41.74600607925087
 30
0.0
 10
9.125045582368458
 20
41.79860573441295
 30
0.0
 10
9.124954879643738
 20
41.88147815789094
 30
0.0
 10
9.131870505305034
 20
41.91255410941324
 30
0.0
 10
9.157670888230356
 20
41.9512409197013
 30
0.0
 10
9.176601575159566
 20
41.95960923610542
 30
0.0
 10
9.199999999999985
 20
41.95870119642318
 30
0.0
  0
SPLINE
  5
1BF
330
1F
100
AcDbEntity
  8
1
  6
SLD-Solid
370
    25
100
AcDbSpline
210
0.0
220
0.0
230
1.0
 70
     8
 71
     3
 72
    14
 73
    10
 74
     0
 42
0.000000001
 43
0.00000001
 40
0.0
 40
0.0
 40
0.0
 40
0.0
 40
0.25
 40
0.25
 40
0.5
 40
0.5
 40
0.75
 40
0.75
 40
1.0
 40
1.0
 40
1.0
 40
1.0
 10
9.199999999999985
 20
34.6766889349851
 30
0.0
 10
9.17668064615526
 20
34.76218380134753
 30
0.0
 10
9.157956892054454
 20
34.84409122905372
 30
0.0
 10
9.131927678784708
 20
34.99897222909987
 30
0.0
 10
9.125045582368957
 20
35.07047900120375
 30
0.0
 10
9.124954879645014
 20
35.19440944821503
 30
0.0
 10
9.131870505306615
 20
35.24816533561761
 30
0.0
 10
9.157670888232438
 20
35.33309634836898
 30
0.0
 10
9.176601575161703
 20
35.36545280972801
 30
0.0
 10
9.200000000002206
 20
35.38859611770601
 30
0.0
  0
SPLINE
  5
1C0
330
1F
100
AcDbEntity
  8
1
  6
SLD-Solid
370
    25
100
AcDbSpline
210
0.0
220
0.0
230
1.0
 70
     8
 71
     3
 72
    12
 73
     8
 74
     0
 42
0.000000001
 43
0.00000001
 40
0.0
 40
0.0
 40
0.0
 40
0.0
 40
0.2500000000000032
 40
0.2500000000000032
 40
0.5000000000000063
 40
0.5000000000000063
 40
1.0
 40
1.0
 40
1.0
 40
1.0
 10
12.28000000000001
 20
-43.76943596849289
 30
0.0
 10
12.37996960464108
 20
-43.76943596849289
 30
0.0
 10
12.47988502523367
 20
-43.79051518316405
 30
0.0
 10
12.6644929422387
 20
-43.8719426284369
 30
0.0
 10
12.74728498815328
 20
-43.93126060501208
 30
0.0
 10
12.95342033959715
 20
-44.15080408372864
 30
0.0
 10
13.03000000000001
 20
-44.35163254795799
 30
0.0
 10
13.03000000000001
 20
-44.55102159322501
 30
0.0
  0
SPLINE
  5
1C1
330
1F
100
AcDbEntity
  8
1
  6
SLD-Solid
370
    25
100
AcDbSpline
210
0.0
220
0.0
230
1.0
 70
     8
 71
     3
 72
    16
 73
    12
 74
     0
 42
0.000000001
 43
0.00000001
 40
0.0
 40
0.0
 40
0.0
 40
0.0
 40
0.1250000000000001
 40
0.1250000000000001
 40
0.2500000000000003
 40
0.2500000000000003
 40
0.5000000000000002
 40
0.5000000000000002
 40
0.7500000000000001
 40
0.7500000000000001
 40
1.0
 40
1.0
 40
1.0
 40
1.0
 10
13.03000000000001
 20
34.61214293353755
 30
0.0
 10
13.03000000000001
 20
34.56119277402757
 30
0.0
 10
13.02067456260611
 20
34.49413963137993
 30
0.0
 10
12.99367590047851
 20
34.363313381422
 30
0.0
 10
12.97626449755332
 20
34.29908556562461
 30
0.0
 10
12.91545405813535
 20
34.11096290842622
 30
0.0
 10
12.86271449633858
 20
33.99023971150843
 30
0.0
 10
12.73634152951908
 20
33.76817627154973
 30
0.0
 10
12.66098841639737
 20
33.66394234496746
 30
0.0
 10
12.48671204537782
 20
33.48358218869542
 30
0.0
 10
12.38972674335426
 20
33.40848998465462
 30
0.0
 10
12.28000000000001
 20
33.35547071674117
 30
0.0
  0
SPLINE
  5
1C2
330
1F
100
AcDbEntity
  8
1
  6
SLD-Solid
370
    25
100
AcDbSpline
210
0.0
220
0.0
230
1.0
 70
     8
 71
     3
 72
    12
 73
     8
 74
     0
 42
0.000000001
 43
0.00000001
 40
0.0
 40
0.0
 40
0.0
 40
0.0
 40
0.5
 40
0.5
 40
0.75
 40
0.75
 40
1.0
 40
1.0
 40
1.0
 40
1.0
 10
9.199999999999985
 20
-44.551021593225
 30
0.0
 10
9.199999999999985
 20
-44.35094747116168
 30
0.0
 10
9.277613070150126
 20
-44.14958800989077
 30
0.0
 10
9.48251103730058
 20
-43.93153570225752
 30
0.0
 10
9.566272299852297
 20
-43.8716260625976
 30
0.0
 10
9.749092094904405
 20
-43.79094541821727
 30
0.0
 10
9.849426682175643
 20
-43.76943596849291
 30
0.0
 10
9.949999999999987
 20
-43.7694359684929
 30
0.0
  0
SPLINE
  5
1C3
330
1F
100
AcDbEntity
  8
1
  6
SLD-Solid
370
    25
100
AcDbSpline
210
0.0
220
0.0
230
1.0
 70
     8
 71
     3
 72
    16
 73
    12
 74
     0
 42
0.000000001
 43
0.00000001
 40
0.0
 40
0.0
 40
0.0
 40
0.0
 40
0.2499999999999967
 40
0.2499999999999967
 40
0.4999999999999934
 40
0.4999999999999934
 40
0.7499999999999902
 40
0.7499999999999902
 40
0.8749999999999951
 40
0.8749999999999951
 40
1.0
 40
1.0
 40
1.0
 40
1.0
 10
9.949999999999987
 20
33.36525953046024
 30
0.0
 10
9.839257595210649
 20
33.42015914282663
 30
0.0
 10
9.740416734001444
 20
33.49854219709403
 30
0.0
 10
9.564708009184047
 20
33.68553569890509
 30
0.0
 10
9.4908304832661
 20
33.7908276979204
 30
0.0
 10
9.364658348120003
 20
34.019558801257
 30
0.0
 10
9.312951425518163
 20
34.14247439570436
 30
0.0
 10
9.253206550793841
 20
34.3348846178598
 30
0.0
 10
9.236028623043957
 20
34.4012196258066
 30
0.0
 10
9.209723703057032
 20
34.53368853253287
 30
0.0
 10
9.200000000000014
 20
34.60516910831215
 30
0.0
 10
9.200000000000014
 20
34.65640299543514
 30
0.0
  0
SPLINE
  5
1C4
330
1F
100
AcDbEntity
  8
1
  6
SLD-Solid
370
    25
100
AcDbSpline
210
0.0
220
0.0
230
1.0
 70
     8
 71
     3
 72
    12
 73
     8
 74
     0
 42
0.000000001
 43
0.00000001
 40
0.0
 40
0.0
 40
0.0
 40
0.0
 40
0.2500000000000006
 40
0.2500000000000006
 40
0.5000000000000011
 40
0.5000000000000011
 40
1.0
 40
1.0
 40
1.0
 40
1.0
 10
12.28000000000001
 20
33.35547071674117
 30
0.0
 10
12.10934456477528
 20
33.27301109054177
 30
0.0
 10
11.92465326465505
 20
33.21019284332251
 30
0.0
 10
11.52752277837882
 20
33.12414278909399
 30
0.0
 10
11.32193513118782
 20
33.1027811039634
 30
0.0
 10
10.69948105299426
 20
33.10504385732293
 30
0.0
 10
10.28831449591983
 20
33.19754297491612
 30
0.0
 10
9.949999999999987
 20
33.36525953046024
 30
0.0
  0
SPLINE
  5
1C5
330
1F
100
AcDbEntity
  8
1
  6
SLD-Solid
370
    25
100
AcDbSpline
210
0.0
220
0.0
230
1.0
 70
    24
 71
     3
 72
    10
 73
     6
 74
     0
 42
0.000000001
 43
0.00000001
 40
0.0
 40
0.0
 40
0.0
 40
0.0
 40
0.2272239011926044
 40
0.6132960025343323
 40
1.0
 40
1.0
 40
1.0
 40
1.0
 10
19.26260877774744
 20
-35.10000000000001
 30
0.0
 10
19.2711531563701
 20
-35.10000000000001
 30
0.0
 10
19.29421513720009
 20
-35.10000000000001
 30
0.0
 10
19.31973944932092
 20
-35.10000000000001
 30
0.0
 10
19.32399499088941
 20
-35.09999999999999
 30
0.0
 10
19.32612450154386
 20
-35.10000000000001
 30
0.0
  0
SPLINE
  5
1C6
330
1F
100
AcDbEntity
  8
1
  6
SLD-Solid
370
    25
100
AcDbSpline
210
0.0
220
0.0
230
1.0
 70
     8
 71
     3
 72
    16
 73
    12
 74
     0
 42
0.000000001
 43
0.00000001
 40
0.0
 40
0.0
 40
0.0
 40
0.0
 40
0.125
 40
0.125
 40
0.25
 40
0.25
 40
0.5
 40
0.5
 40
0.75
 40
0.75
 40
1.0
 40
1.0
 40
1.0
 40
1.0
 10
9.200000000002206
 20
35.36831017813554
 30
0.0
 10
9.200000000004705
 20
35.3169314787382
 30
0.0
 10
9.209688078863437
 20
35.29149399688313
 30
0.0
 10
9.236073415536838
 20
35.26518486786884
 30
0.0
 10
9.253070624742676
 20
35.261930325526
 30
0.0
 10
9.313034815215504
 20
35.26168910608515
 30
0.0
 10
9.363922455827984
 20
35.27477154515296
 30
0.0
 10
9.490054525550073
 20
35.3115651964858
 30
0.0
 10
9.565092430043137
 20
35.33621653960036
 30
0.0
 10
9.73892464726886
 20
35.39932894997553
 30
0.0
 10
9.83944594635186
 20
35.43834692831705
 30
0.0
 10
9.949999999999987
 20
35.48885481142474
 30
0.0
  0
SPLINE
  5
1C7
330
1F
100
AcDbEntity
  8
1
  6
SLD-Solid
370
    25
100
AcDbSpline
210
0.0
220
0.0
230
1.0
 70
     8
 71
     3
 72
    12
 73
     8
 74
     0
 42
0.000000001
 43
0.00000001
 40
0.0
 40
0.0
 40
0.0
 40
0.0
 40
0.25
 40
0.25
 40
0.5
 40
0.5
 40
1.0
 40
1.0
 40
1.0
 40
1.0
 10
9.949999999999987
 20
35.48885481142474
 30
0.0
 10
10.11915676939232
 20
35.56613601508469
 30
0.0
 10
10.30270770519934
 20
35.62476545355813
 30
0.0
 10
10.6982656039509
 20
35.70597605697734
 30
0.0
 10
10.90345647830304
 20
35.72681273192389
 30
0.0
 10
11.5259024023053
 20
35.72953904175598
 30
0.0
 10
11.93868796900757
 20
35.64974792445684
 30
0.0
 10
12.28000000000001
 20
35.49787263616148
 30
0.0
  0
SPLINE
  5
1C8
330
1F
100
AcDbEntity
  8
1
  6
SLD-Solid
370
    25
100
AcDbSpline
210
0.0
220
0.0
230
1.0
 70
     8
 71
     3
 72
    16
 73
    12
 74
     0
 42
0.000000001
 43
0.00000001
 40
0.0
 40
0.0
 40
0.0
 40
0.0
 40
0.2499999999999999
 40
0.2499999999999999
 40
0.4999999999999998
 40
0.4999999999999998
 40
0.7499999999999997
 40
0.7499999999999997
 40
0.8749999999999998
 40
0.8749999999999998
 40
1.0
 40
1.0
 40
1.0
 40
1.0
 10
12.28000000000001
 20
35.49787263616148
 30
0.0
 10
12.38938127142805
 20
35.44920071538568
 30
0.0
 10
12.48719790588471
 20
35.41256913935808
 30
0.0
 10
12.6623565385886
 20
35.35237067244962
 30
0.0
 10
12.73630362704295
 20
35.33005450149011
 30
0.0
 10
12.86322577731733
 20
35.29810085202925
 30
0.0
 10
12.91570572130093
 20
35.28773767542544
 30
0.0
 10
12.97658934509427
 20
35.29443860847842
 30
0.0
 10
12.99409980251964
 20
35.3002929672781
 30
0.0
 10
13.02084597296047
 20
35.33271449864623
 30
0.0
 10
13.03000000000001
 20
35.36068432143077
 30
0.0
 10
13.03000000000001
 20
35.41132408805925
 30
0.0
  0
SPLINE
  5
1C9
330
1F
100
AcDbEntity
  8
1
  6
SLD-Solid
370
    25
100
AcDbSpline
210
0.0
220
0.0
230
1.0
 70
     8
 71
     3
 72
    16
 73
    12
 74
     0
 42
0.000000001
 43
0.00000001
 40
0.0
 40
0.0
 40
0.0
 40
0.0
 40
0.2499999999999998
 40
0.2499999999999998
 40
0.4999999999999996
 40
0.4999999999999996
 40
0.7499999999999993
 40
0.7499999999999993
 40
0.8749999999999997
 40
0.8749999999999997
 40
1.0
 40
1.0
 40
1.0
 40
1.0
 10
9.949999999999987
 20
40.29017607249211
 30
0.0
 10
9.839257595210649
 20
40.32798470963447
 30
0.0
 10
9.740416734001444
 20
40.39081531012378
 30
0.0
 10
9.564708009184075
 20
40.54795546550075
 30
0.0
 10
9.4908304832661
 20
40.63949231484412
 30
0.0
 10
9.364658348120031
 20
40.84247699029049
 30
0.0
 10
9.312951425518163
 20
40.95326880810711
 30
0.0
 10
9.253206550793841
 20
41.13218036853984
 30
0.0
 10
9.236028623043957
 20
41.19470581500533
 30
0.0
 10
9.209723703057032
 20
41.32469951294971
 30
0.0
 10
9.200000000000014
 20
41.3978390036328
 30
0.0
 10
9.200000000000014
 20
41.45885414630703
 30
0.0
  0
SPLINE
  5
1CA
330
1F
100
AcDbEntity
  8
1
  6
SLD-Solid
370
    25
100
AcDbSpline
210
0.0
220
0.0
230
1.0
 70
     8
 71
     3
 72
    16
 73
    12
 74
     0
 42
0.000000001
 43
0.00000001
 40
0.0
 40
0.0
 40
0.0
 40
0.0
 40
0.1250000000000039
 40
0.1250000000000039
 40
0.2500000000000078
 40
0.2500000000000078
 40
0.5000000000000051
 40
0.5000000000000051
 40
0.7500000000000026
 40
0.7500000000000026
 40
1.0
 40
1.0
 40
1.0
 40
1.0
 10
13.02999999999951
 20
41.4289543811435
 30
0.0
 10
13.02999999999943
 20
41.3682771335961
 30
0.0
 10
13.02067456260547
 20
41.29860125514357
 30
0.0
 10
12.99367590047773
 20
41.16856540733053
 30
0.0
 10
12.97626449755249
 20
41.10738101936565
 30
0.0
 10
12.91545405813432
 20
40.93079740642366
 30
0.0
 10
12.86271449633744
 20
40.82130212611601
 30
0.0
 10
12.73634152951775
 20
40.62320356046814
 30
0.0
 10
12.66098841639599
 20
40.53226162144146
 30
0.0
 10
12.48671204537624
 20
40.380274983842
 30
0.0
 10
12.38972674335262
 20
40.31995671599456
 30
0.0
 10
12.27999999999835
 20
40.28343379132393
 30
0.0
  0
SPLINE
  5
1CB
330
1F
100
AcDbEntity
  8
1
  6
SLD-Solid
370
    25
100
AcDbSpline
210
0.0
220
0.0
230
1.0
 70
     8
 71
     3
 72
    12
 73
     8
 74
     0
 42
0.000000001
 43
0.00000001
 40
0.0
 40
0.0
 40
0.0
 40
0.0
 40
0.25
 40
0.25
 40
0.5
 40
0.5
 40
1.0
 40
1.0
 40
1.0
 40
1.0
 10
12.27999999999835
 20
40.28343379132393
 30
0.0
 10
12.10934456477358
 20
40.22663054158888
 30
0.0
 10
11.92465326465336
 20
40.18318651206231
 30
0.0
 10
11.52752277837713
 20
40.12362389225
 30
0.0
 10
11.32193513118609
 20
40.10880147711158
 30
0.0
 10
10.69948105299257
 20
40.11037023230915
 30
0.0
 10
10.28831449592002
 20
40.17467189827303
 30
0.0
 10
9.949999999999987
 20
40.29017607249211
 30
0.0
  0
SPLINE
  5
1CC
330
1F
100
AcDbEntity
  8
1
  6
SLD-Solid
370
    25
100
AcDbSpline
210
0.0
220
0.0
230
1.0
 70
     8
 71
     3
 72
    16
 73
    12
 74
     0
 42
0.000000001
 43
0.00000001
 40
0.0
 40
0.0
 40
0.0
 40
0.0
 40
0.1250000000000007
 40
0.1250000000000007
 40
0.2500000000000013
 40
0.2500000000000013
 40
0.5000000000000009
 40
0.5000000000000009
 40
0.7500000000000004
 40
0.7500000000000004
 40
1.0
 40
1.0
 40
1.0
 40
1.0
 10
9.199999999999985
 20
41.93454239124897
 30
0.0
 10
9.200000000002678
 20
41.87335478963722
 30
0.0
 10
9.209688078861548
 20
41.83111047963457
 30
0.0
 10
9.236073415535143
 20
41.77192904688984
 30
0.0
 10
9.253070624741037
 20
41.75174455463446
 30
0.0
 10
9.31303481521403
 20
41.70102846576538
 30
0.0
 10
9.363922455826565
 20
41.68155707128381
 30
0.0
 10
9.490054525548738
 20
41.65587219504474
 30
0.0
 10
9.565092430041775
 20
41.65088437918948
 30
0.0
 10
9.73892464726744
 20
41.66113961911563
 30
0.0
 10
9.839445946350358
 20
41.67651281331933
 30
0.0
 10
9.949999999998374
 20
41.70913817421537
 30
0.0
  0
SPLINE
  5
1CD
330
1F
100
AcDbEntity
  8
1
  6
SLD-Solid
370
    25
100
AcDbSpline
210
0.0
220
0.0
230
1.0
 70
     8
 71
     3
 72
    12
 73
     8
 74
     0
 42
0.000000001
 43
0.00000001
 40
0.0
 40
0.0
 40
0.0
 40
0.0
 40
0.25
 40
0.25
 40
0.5
 40
0.5
 40
1.0
 40
1.0
 40
1.0
 40
1.0
 10
9.949999999998374
 20
41.70913817421537
 30
0.0
 10
10.11915676939062
 20
41.75905765221989
 30
0.0
 10
10.30270770519934
 20
41.7967364999909
 30
0.0
 10
10.69826560395054
 20
41.84886357628459
 30
0.0
 10
10.9034564783024
 20
41.86219397810422
 30
0.0
 10
11.52590240230364
 20
41.86393994691916
 30
0.0
 10
11.93868796900502
 20
41.81303425518236
 30
0.0
 10
12.27999999999673
 20
41.71496227396934
 30
0.0
  0
SPLINE
  5
1CE
330
1F
100
AcDbEntity
  8
1
  6
SLD-Solid
370
    25
100
AcDbSpline
210
0.0
220
0.0
230
1.0
 70
     8
 71
     3
 72
    16
 73
    12
 74
     0
 42
0.000000001
 43
0.00000001
 40
0.0
 40
0.0
 40
0.0
 40
0.0
 40
0.2500000000000007
 40
0.2500000000000007
 40
0.5000000000000013
 40
0.5000000000000013
 40
0.750000000000002
 40
0.750000000000002
 40
0.875000000000001
 40
0.875000000000001
 40
1.0
 40
1.0
 40
1.0
 40
1.0
 10
12.27999999999673
 20
41.71496227396934
 30
0.0
 10
12.38938127142478
 20
41.68353285741645
 30
0.0
 10
12.48719790588143
 20
41.66923447165109
 30
0.0
 10
12.66235653858533
 20
41.66075308180839
 30
0.0
 10
12.7363036270397
 20
41.66679667497603
 30
0.0
 10
12.86322577731408
 20
41.69542238629208
 30
0.0
 10
12.91570572129769
 20
41.71723646207402
 30
0.0
 10
12.97658934509102
 20
41.77277628648265
 30
0.0
 10
12.99409980251639
 20
41.79517110958911
 30
0.0
 10
13.02084597295722
 20
41.85934368895828
 30
0.0
 10
13.02999999999674
 20
41.90265050045605
 30
0.0
 10
13.02999999999673
 20
41.96295809684066
 30
0.0
  0
SPLINE
  5
1CF
330
1F
100
AcDbEntity
  8
1
  6
SLD-Solid
370
    25
100
AcDbSpline
210
0.0
220
0.0
230
1.0
 70
     8
 71
     3
 72
    12
 73
     8
 74
     0
 42
0.000000001
 43
0.00000001
 40
0.0
 40
0.0
 40
0.0
 40
0.0
 40
0.5
 40
0.5
 40
0.75
 40
0.75
 40
1.0
 40
1.0
 40
1.0
 40
1.0
 10
9.199999999999985
 20
44.55102159322498
 30
0.0
 10
9.199999999999985
 20
44.35104831812288
 30
0.0
 10
9.276003966817353
 20
44.1515082673653
 30
0.0
 10
9.4827590401535
 20
43.93116827137958
 30
0.0
 10
9.56685793731496
 20
43.87128621650868
 30
0.0
 10
9.749511247261145
 20
43.79084228716471
 30
0.0
 10
9.8501562428705
 20
43.76943596849256
 30
0.0
 10
9.950000000002401
 20
43.76943596849288
 30
0.0
  0
SPLINE
  5
1D0
330
1F
100
AcDbEntity
  8
1
  6
SLD-Solid
370
    25
100
AcDbSpline
210
0.0
220
0.0
230
1.0
 70
     8
 71
     3
 72
    10
 73
     6
 74
     0
 42
0.000000001
 43
0.00000001
 40
0.0
 40
0.0
 40
0.0
 40
0.0
 40
0.5
 40
0.5
 40
1.0
 40
1.0
 40
1.0
 40
1.0
 10
12.28000000000001
 20
43.76943596849288
 30
0.0
 10
12.48122846377883
 20
43.76943596849291
 30
0.0
 10
12.67900932610888
 20
43.85856672856717
 30
0.0
 10
12.95290221427664
 20
44.15022946993259
 30
0.0
 10
13.03000000000001
 20
44.34957328976746
 30
0.0
 10
13.03000000000001
 20
44.55102159322498
 30
0.0
  0
SPLINE
  5
1D1
330
1F
100
AcDbEntity
  8
SK3
  6
SLD-Dashed
370
    18
100
AcDbSpline
210
0.0
220
0.0
230
1.0
 70
     8
 71
     3
 72
    30
 73
    26
 74
     0
 42
0.000000001
 43
0.00000001
 40
0.4999999999999934
 40
0.4999999999999934
 40
0.4999999999999934
 40
0.4999999999999934
 40
0.5624999999999941
 40
0.5624999999999941
 40
0.6249999999999949
 40
0.6249999999999949
 40
0.6874999999999956
 40
0.6874999999999956
 40
0.7499999999999962
 40
0.7499999999999962
 40
0.7812499999999968
 40
0.7812499999999968
 40
0.8124999999999972
 40
0.8124999999999972
 40
0.8437499999999977
 40
0.8437499999999977
 40
0.8749999999999981
 40
0.8749999999999981
 40
0.9062499999999986
 40
0.9062499999999986
 40
0.9374999999999991
 40
0.9374999999999991
 40
0.9687499999999996
 40
0.9687499999999996
 40
1.0
 40
1.0
 40
1.0
 40
1.0
 10
9.602846279599758
 20
-14.27915034605703
 30
0.0
 10
9.686456538693793
 20
-14.4212541863764
 30
0.0
 10
9.797407143447817
 20
-14.51131733768216
 30
0.0
 10
10.04010223607202
 20
-14.63242374926582
 30
0.0
 10
10.17571106347529
 20
-14.66434400040093
 30
0.0
 10
10.46843928875957
 20
-14.6878509066433
 30
0.0
 10
10.62555865364897
 20
-14.68003033606002
 30
0.0
 10
10.98145473780837
 20
-14.62436653420487
 30
0.0
 10
11.18157682258661
 20
-14.57632221838472
 30
0.0
 10
11.50801002825755
 20
-14.4586089343655
 30
0.0
 10
11.61873162334195
 20
-14.41242944660509
 30
0.0
 10
11.84220113938106
 20
-14.30063256215536
 30
0.0
 10
11.95412269444687
 20
-14.23490090158665
 30
0.0
 10
12.16107863552154
 20
-14.08747705033184
 30
0.0
 10
12.25901625186734
 20
-14.00366784802363
 30
0.0
 10
12.43052677631515
 20
-13.82249974419394
 30
0.0
 10
12.50593330594163
 20
-13.72350506925876
 30
0.0
 10
12.63000303324957
 20
-13.51367430078405
 30
0.0
 10
12.67841410243614
 20
-13.40398486856761
 30
0.0
 10
12.74789370637347
 20
-13.17359881812364
 30
0.0
 10
12.76810124630629
 20
-13.05468203931826
 30
0.0
 10
12.77891027826544
 20
-12.81644825424547
 30
0.0
 10
12.76940813581851
 20
-12.69449512908379
 30
0.0
 10
12.72129905847916
 20
-12.4581725963389
 30
0.0
 10
12.68301625646428
 20
-12.34304803310331
 30
0.0
 10
12.63040931107567
 20
-12.23233436389471
 30
0.0
  0
SPLINE
  5
1D2
330
1F
100
AcDbEntity
  8
SK3
  6
SLD-Dashed
370
    18
100
AcDbSpline
210
0.0
220
0.0
230
1.0
 70
     8
 71
     3
 72
    30
 73
    26
 74
     0
 42
0.000000001
 43
0.00000001
 40
0.0
 40
0.0
 40
0.0
 40
0.0
 40
0.0312499999999991
 40
0.0312499999999991
 40
0.0624999999999983
 40
0.0624999999999983
 40
0.0937499999999974
 40
0.0937499999999974
 40
0.1249999999999965
 40
0.1249999999999965
 40
0.187499999999996
 40
0.187499999999996
 40
0.2499999999999955
 40
0.2499999999999955
 40
0.312499999999995
 40
0.312499999999995
 40
0.3749999999999944
 40
0.3749999999999944
 40
0.4062499999999942
 40
0.4062499999999942
 40
0.4374999999999939
 40
0.4374999999999939
 40
0.4687499999999937
 40
0.4687499999999937
 40
0.4999999999999934
 40
0.4999999999999934
 40
0.4999999999999934
 40
0.4999999999999934
 10
12.63040931107567
 20
-12.2323343638947
 30
0.0
 10
12.57780236568703
 20
-12.12162069468612
 30
0.0
 10
12.51267206459308
 20
-12.01896209858506
 30
0.0
 10
12.35821503903348
 20
-11.83123217673027
 30
0.0
 10
12.2680065585952
 20
-11.74609765066667
 30
0.0
 10
12.07343499093624
 20
-11.60605794329098
 30
0.0
 10
11.9664337048607
 20
-11.54920121804521
 30
0.0
 10
11.74573264298212
 20
-11.46981719393691
 30
0.0
 10
11.63406552497762
 20
-11.44748668283022
 30
0.0
 10
11.2995180174269
 20
-11.42770686560523
 30
0.0
 10
11.09198428069952
 20
-11.47806879673263
 30
0.0
 10
10.72217844091647
 20
-11.64236243808864
 30
0.0
 10
10.55844908096598
 20
-11.75496051093636
 30
0.0
 10
10.25324958882706
 20
-12.02428585488716
 30
0.0
 10
10.11576882260312
 20
-12.17795893248198
 30
0.0
 10
9.86252561936532
 20
-12.52988094775973
 30
0.0
 10
9.746260896402015
 20
-12.72918710194007
 30
0.0
 10
9.605692660850485
 20
-13.06645756895029
 30
0.0
 10
9.565421636406112
 20
-13.18319961587417
 30
0.0
 10
9.503286004234612
 20
-13.4293677611186
 30
0.0
 10
9.482363995141297
 20
-13.55752069830021
 30
0.0
 10
9.47090841224374
 20
-13.8054679971878
 30
0.0
 10
9.480664817462682
 20
-13.92083957613647
 30
0.0
 10
9.525951505689633
 20
-14.1223947507326
 30
0.0
 10
9.561041150052741
 20
-14.20809842589734
 30
0.0
 10
9.602846279599758
 20
-14.27915034605703
 30
0.0
  0
SPLINE
  5
1D3
330
1F
100
AcDbEntity
  8
SK3
  6
SLD-Dashed
370
    18
100
AcDbSpline
210
0.0
220
0.0
230
1.0
 70
     8
 71
     3
 72
    26
 73
    22
 74
     0
 42
0.000000001
 43
0.00000001
 40
0.5000000000000062
 40
0.5000000000000062
 40
0.5000000000000062
 40
0.5000000000000062
 40
0.5625000000000058
 40
0.5625000000000058
 40
0.6250000000000051
 40
0.6250000000000051
 40
0.6562500000000046
 40
0.6562500000000046
 40
0.687500000000004
 40
0.687500000000004
 40
0.7187500000000034
 40
0.7187500000000034
 40
0.7500000000000029
 40
0.7500000000000029
 40
0.8125000000000022
 40
0.8125000000000022
 40
0.8750000000000014
 40
0.8750000000000014
 40
0.9375000000000008
 40
0.9375000000000008
 40
1.0
 40
1.0
 40
1.0
 40
1.0
 10
11.63869831779571
 20
-9.819390371339235
 30
0.0
 10
11.80317915771348
 20
-9.806594466981586
 30
0.0
 10
11.95081782962315
 20
-9.812432081454693
 30
0.0
 10
12.2261629968525
 20
-9.868839301598992
 30
0.0
 10
12.35236515469918
 20
-9.918953620877934
 30
0.0
 10
12.51874661426339
 20
-10.04837289060637
 30
0.0
 10
12.57051953396254
 20
-10.10115000339699
 30
0.0
 10
12.66070184098386
 20
-10.23071744026808
 30
0.0
 10
12.70001796005849
 20
-10.30921538460778
 30
0.0
 10
12.7562433913955
 20
-10.4949325806605
 30
0.0
 10
12.7732316530057
 20
-10.60488156995158
 30
0.0
 10
12.77649462889749
 20
-10.84110300053568
 30
0.0
 10
12.76278670669287
 20
-10.96977043023329
 30
0.0
 10
12.68516730486993
 20
-11.34647137591012
 30
0.0
 10
12.58996305158963
 20
-11.58088814423496
 30
0.0
 10
12.37315603453729
 20
-11.98947715399205
 30
0.0
 10
12.24747178673946
 20
-12.17132846963892
 30
0.0
 10
11.97676737519449
 20
-12.4898134904303
 30
0.0
 10
11.8310268635477
 20
-12.62828009284685
 30
0.0
 10
11.50508373269932
 20
-12.8627635157944
 30
0.0
 10
11.32747339457477
 20
-12.95749122616766
 30
0.0
 10
11.125
 20
-13.01159523973385
 30
0.0
  0
SPLINE
  5
1D4
330
1F
100
AcDbEntity
  8
SK3
  6
SLD-Dashed
370
    18
100
AcDbSpline
210
0.0
220
0.0
230
1.0
 70
     8
 71
     3
 72
    34
 73
    30
 74
     0
 42
0.000000001
 43
0.00000001
 40
0.0
 40
0.0
 40
0.0
 40
0.0
 40
0.0312500000000005
 40
0.0312500000000005
 40
0.0625000000000011
 40
0.0625000000000011
 40
0.0937500000000016
 40
0.0937500000000016
 40
0.1250000000000022
 40
0.1250000000000022
 40
0.1562500000000027
 40
0.1562500000000027
 40
0.1875000000000032
 40
0.1875000000000032
 40
0.2187500000000038
 40
0.2187500000000038
 40
0.2500000000000043
 40
0.2500000000000043
 40
0.2812500000000049
 40
0.2812500000000049
 40
0.3125000000000054
 40
0.3125000000000054
 40
0.3750000000000063
 40
0.3750000000000063
 40
0.4062500000000066
 40
0.4062500000000066
 40
0.4375000000000068
 40
0.4375000000000068
 40
0.5000000000000062
 40
0.5000000000000062
 40
0.5000000000000062
 40
0.5000000000000062
 10
11.125
 20
-13.01159523973386
 30
0.0
 10
11.0237633027126
 20
-13.03864724651695
 30
0.0
 10
10.91875434041334
 20
-13.05441768585464
 30
0.0
 10
10.6998219372948
 20
-13.05649587060872
 30
0.0
 10
10.58565504429781
 20
-13.04203538439392
 30
0.0
 10
10.36433306908849
 20
-12.97958779527628
 30
0.0
 10
10.25386240054305
 20
-12.93066318687883
 30
0.0
 10
10.04998753866609
 20
-12.80335962284303
 30
0.0
 10
9.955887873020986
 20
-12.72514830576758
 30
0.0
 10
9.789076352163557
 20
-12.54575166602604
 30
0.0
 10
9.718022202672067
 20
-12.44674722204855
 30
0.0
 10
9.600536001433207
 20
-12.23250861951092
 30
0.0
 10
9.555159683901222
 20
-12.11851015366411
 30
0.0
 10
9.493538953914305
 20
-11.88585378314762
 30
0.0
 10
9.476799814585934
 20
-11.76451266100636
 30
0.0
 10
9.47348088875466
 20
-11.52533259241782
 30
0.0
 10
9.486354225371807
 20
-11.40705029377197
 30
0.0
 10
9.541906609790429
 20
-11.17282024047876
 30
0.0
 10
9.583939125903774
 20
-11.06025657731945
 30
0.0
 10
9.694361385739564
 20
-10.84625731946299
 30
0.0
 10
9.764046986917323
 20
-10.74326010657127
 30
0.0
 10
10.00399120049175
 20
-10.46156575413966
 30
0.0
 10
10.21277179464264
 20
-10.30327029353935
 30
0.0
 10
10.5444699112901
 20
-10.12219171688678
 30
0.0
 10
10.65925898590059
 20
-10.07012567259635
 30
0.0
 10
10.87934718809658
 20
-9.984066675225883
 30
0.0
 10
10.98764418607851
 20
-9.948726825148164
 30
0.0
 10
11.29210738731384
 20
-9.863765363482678
 30
0.0
 10
11.47421747787791
 20
-9.832186275696882
 30
0.0
 10
11.63869831779571
 20
-9.819390371339235
 30
0.0
  0
SPLINE
  5
1D5
330
1F
100
AcDbEntity
  8
1
  6
SLD-Dashed
370
    18
100
AcDbSpline
210
0.0
220
0.0
230
1.0
 70
    24
 71
     3
 72
    15
 73
    11
 74
     0
 42
0.000000001
 43
0.00000001
 40
0.0
 40
0.0
 40
0.0
 40
0.0
 40
0.0255089671327397
 40
0.0510184851934326
 40
0.2262806066362252
 40
0.4015343403545831
 40
0.5767833788652982
 40
0.7525854016470663
 40
0.927878357452964
 40
1.0
 40
1.0
 40
1.0
 40
1.0
 10
19.04999999999998
 20
-35.10000000000002
 30
0.0
 10
19.05005315960981
 20
-35.10000000000002
 30
0.0
 10
19.05015947997746
 20
-35.10000000000001
 30
0.0
 10
19.05258789845013
 20
-35.1
 30
0.0
 10
19.0659566421546
 20
-35.10000000000002
 30
0.0
 10
19.10090191625149
 20
-35.10000000000001
 30
0.0
 10
19.14643438862187
 20
-35.1
 30
0.0
 10
19.19638419982786
 20
-35.10000000000001
 30
0.0
 10
19.23782878441813
 20
-35.10000000000002
 30
0.0
 10
19.25701575388203
 20
-35.1
 30
0.0
 10
19.26260877774744
 20
-35.10000000000001
 30
0.0
  0
SPLINE
  5
1D6
330
1F
100
AcDbEntity
  8
1
  6
SLD-Dashed
370
    18
100
AcDbSpline
210
0.0
220
0.0
230
1.0
 70
    24
 71
     3
 72
     8
 73
     4
 74
     0
 42
0.000000001
 43
0.00000001
 40
0.0
 40
0.0
 40
0.0
 40
0.0
 40
1.0
 40
1.0
 40
1.0
 40
1.0
 10
19.32612450154386
 20
-35.10000000000001
 30
0.0
 10
19.25868113412682
 20
-35.10000000000001
 30
0.0
 10
19.1201327270159
 20
-35.1
 30
0.0
 10
19.04999999999998
 20
-35.10000000000002
 30
0.0
  0
SPLINE
  5
1D7
330
1F
100
AcDbEntity
  8
1
  6
SLD-Dashed
370
    18
100
AcDbSpline
210
0.0
220
0.0
230
1.0
 70
    24
 71
     2
 72
     6
 73
     3
 74
     0
 42
0.000000001
 43
0.00000001
 40
0.0
 40
0.0
 40
0.0
 40
0.25
 40
0.25
 40
0.25
 10
3.200000000000536
 20
-35.09999999997149
 30
0.0
 10
3.178023089477975
 20
-35.09999999997996
 30
0.0
 10
3.159393676864686
 20
-35.09999999998712
 30
0.0
  0
SPLINE
  5
1D8
330
1F
100
AcDbEntity
  8
1
  6
SLD-Dashed
370
    18
100
AcDbSpline
210
0.0
220
0.0
230
1.0
 70
    24
 71
     3
 72
     8
 73
     4
 74
     0
 42
0.000000001
 43
0.00000001
 40
0.25
 40
0.25
 40
0.25
 40
0.25
 40
0.5
 40
0.5
 40
0.5
 40
0.5
 10
3.159393676864686
 20
-35.09999999998712
 30
0.0
 10
3.140764264251639
 20
-35.09999999999427
 30
0.0
 10
3.125935313376432
 20
-35.09999999999999
 30
0.0
 10
3.125925297481347
 20
-35.10000000000001
 30
0.0
  0
SPLINE
  5
1D9
330
1F
100
AcDbEntity
  8
1
  6
SLD-Dashed
370
    18
100
AcDbSpline
210
0.0
220
0.0
230
1.0
 70
    24
 71
     3
 72
     8
 73
     4
 74
     0
 42
0.000000001
 43
0.00000001
 40
0.5
 40
0.5
 40
0.5
 40
0.5
 40
0.75
 40
0.75
 40
0.75
 40
0.75
 10
3.125925297481347
 20
-35.10000000000001
 30
0.0
 10
3.125915281586261
 20
-35.10000000000002
 30
0.0
 10
3.140736475081146
 20
-35.09999999999431
 30
0.0
 10
3.159374026153516
 20
-35.09999999998713
 30
0.0
  0
SPLINE
  5
1DA
330
1F
100
AcDbEntity
  8
1
  6
SLD-Dashed
370
    18
100
AcDbSpline
210
0.0
220
0.0
230
1.0
 70
    24
 71
     2
 72
     6
 73
     3
 74
     0
 42
0.000000001
 43
0.00000001
 40
0.75
 40
0.75
 40
0.75
 40
1.0
 40
1.0
 40
1.0
 10
3.159374026153516
 20
-35.09999999998713
 30
0.0
 10
3.178011577226128
 20
-35.09999999997994
 30
0.0
 10
3.200000000000536
 20
-35.09999999997149
 30
0.0
  0
SPLINE
  5
1DB
330
1F
100
AcDbEntity
  8
SK3
  6
SLD-Dashed
370
    18
100
AcDbSpline
210
0.0
220
0.0
230
1.0
 70
     8
 71
     3
 72
    30
 73
    26
 74
     0
 42
0.000000001
 43
0.00000001
 40
0.5000000000000009
 40
0.5000000000000009
 40
0.5000000000000009
 40
0.5000000000000009
 40
0.5625000000000008
 40
0.5625000000000008
 40
0.6250000000000008
 40
0.6250000000000008
 40
0.6562500000000007
 40
0.6562500000000007
 40
0.6875000000000007
 40
0.6875000000000007
 40
0.7187500000000007
 40
0.7187500000000007
 40
0.7500000000000006
 40
0.7500000000000006
 40
0.7812500000000006
 40
0.7812500000000006
 40
0.8125000000000006
 40
0.8125000000000006
 40
0.8437500000000006
 40
0.8437500000000006
 40
0.8750000000000004
 40
0.8750000000000004
 40
0.9375000000000003
 40
0.9375000000000003
 40
1.0
 40
1.0
 40
1.0
 40
1.0
 10
11.1256340867126
 20
-2.208076131944327
 30
0.0
 10
10.91012831143848
 20
-2.20799405574338
 30
0.0
 10
10.69273190607928
 20
-2.250950739379316
 30
0.0
 10
10.29545710457799
 20
-2.413221511274821
 30
0.0
 10
10.11161887920198
 20
-2.533970605358121
 30
0.0
 10
9.88325685805247
 20
-2.756393500522307
 30
0.0
 10
9.81357030025859
 20
-2.838822643502569
 30
0.0
 10
9.693828420307721
 20
-3.012044829892147
 30
0.0
 10
9.643049505613204
 20
-3.103292515775117
 30
0.0
 10
9.559939885115249
 20
-3.294987142140784
 30
0.0
 10
9.528110569339137
 20
-3.394937637341201
 30
0.0
 10
9.485932078998172
 20
-3.595278526154794
 30
0.0
 10
9.475093311114847
 20
-3.696889173272905
 30
0.0
 10
9.474907881274753
 20
-3.901872321533141
 30
0.0
 10
9.485524003425505
 20
-4.002149034246297
 30
0.0
 10
9.527345716529718
 20
-4.198506717829995
 30
0.0
 10
9.559089732329273
 20
-4.295610098711392
 30
0.0
 10
9.641733638388356
 20
-4.479370670401474
 30
0.0
 10
9.692330936314553
 20
-4.566117382228361
 30
0.0
 10
9.811994061612566
 20
-4.729695673261654
 30
0.0
 10
9.881475262593503
 20
-4.806554854908295
 30
0.0
 10
10.10919445985289
 20
-5.01263959631603
 30
0.0
 10
10.29295795309709
 20
-5.122781885588346
 30
0.0
 10
10.68976853487483
 20
-5.27005508488778
 30
0.0
 10
10.90666257993483
 20
-5.309061659790629
 30
0.0
 10
11.125
 20
-5.309061659790629
 30
0.0
  0
SPLINE
  5
1DC
330
1F
100
AcDbEntity
  8
SK3
  6
SLD-Dashed
370
    18
100
AcDbSpline
210
0.0
220
0.0
230
1.0
 70
     8
 71
     3
 72
    34
 73
    30
 74
     0
 42
0.000000001
 43
0.00000001
 40
0.0
 40
0.0
 40
0.0
 40
0.0
 40
0.0312500000000002
 40
0.0312500000000002
 40
0.0625000000000004
 40
0.0625000000000004
 40
0.0937500000000006
 40
0.0937500000000006
 40
0.1250000000000007
 40
0.1250000000000007
 40
0.1875000000000009
 40
0.1875000000000009
 40
0.2500000000000012
 40
0.2500000000000012
 40
0.2812500000000011
 40
0.2812500000000011
 40
0.3125000000000011
 40
0.3125000000000011
 40
0.3437500000000011
 40
0.3437500000000011
 40
0.375000000000001
 40
0.375000000000001
 40
0.406250000000001
 40
0.406250000000001
 40
0.4375000000000009
 40
0.4375000000000009
 40
0.4687500000000009
 40
0.4687500000000009
 40
0.5000000000000009
 40
0.5000000000000009
 40
0.5000000000000009
 40
0.5000000000000009
 10
11.125
 20
-5.309061659790635
 30
0.0
 10
11.23416871003261
 20
-5.309061659790629
 30
0.0
 10
11.34148252556935
 20
-5.299537349621533
 30
0.0
 10
11.55256160023166
 20
-5.262182100287879
 30
0.0
 10
11.65743203047545
 20
-5.233886962156424
 30
0.0
 10
11.85717198594064
 20
-5.159939537795339
 30
0.0
 10
11.95188217044848
 20
-5.114630280030598
 30
0.0
 10
12.13112457505727
 20
-5.007215473783244
 30
0.0
 10
12.21587296426146
 20
-4.94461166328352
 30
0.0
 10
12.44381779984263
 20
-4.7385981975403
 30
0.0
 10
12.56670516674999
 20
-4.571329361139985
 30
0.0
 10
12.73138667216639
 20
-4.206060482656704
 30
0.0
 10
12.77487792035803
 20
-4.004112810281374
 30
0.0
 10
12.77506064455625
 20
-3.700306253597567
 30
0.0
 10
12.76431481439133
 20
-3.59686797202801
 30
0.0
 10
12.72215926890363
 20
-3.395807648785803
 30
0.0
 10
12.69097028794158
 20
-3.297550131697899
 30
0.0
 10
12.60821939488965
 20
-3.105767645319009
 30
0.0
 10
12.55662183160311
 20
-3.012826865172881
 30
0.0
 10
12.43728120518578
 20
-2.839925186415161
 30
0.0
 10
12.36897548289651
 20
-2.758757585038248
 30
0.0
 10
12.21525208496077
 20
-2.608656191484399
 30
0.0
 10
12.13209058330411
 20
-2.541870610032908
 30
0.0
 10
11.95357507686054
 20
-2.424499981749685
 30
0.0
 10
11.85705358084935
 20
-2.373501415354258
 30
0.0
 10
11.6574094418268
 20
-2.291755408436409
 30
0.0
 10
11.5545681958458
 20
-2.260806334720915
 30
0.0
 10
11.34284591554821
 20
-2.218868681349198
 30
0.0
 10
11.23338697434967
 20
-2.208117170044807
 30
0.0
 10
11.1256340867126
 20
-2.208076131944327
 30
0.0
  0
SPLINE
  5
1DD
330
1F
100
AcDbEntity
  8
SK3
  6
SLD-Dashed
370
    18
100
AcDbSpline
210
0.0
220
0.0
230
1.0
 70
     8
 71
     3
 72
    18
 73
    14
 74
     0
 42
0.000000001
 43
0.00000001
 40
0.0
 40
0.0
 40
0.0
 40
0.0
 40
0.0501962867734829
 40
0.1000306214437034
 40
0.1855667331187673
 40
0.2501823892320643
 40
0.3747066158220764
 40
0.4998232982189674
 40
0.6247294758455242
 40
0.7494251058857241
 40
0.8746331028690452
 40
0.9372230808189452
 40
1.0
 40
1.0
 40
1.0
 40
1.0
 10
18.3
 20
46.81625358782995
 30
0.0
 10
18.30669951182794
 20
46.81609127853699
 30
0.0
 10
18.32005022708196
 20
46.81576783032028
 30
0.0
 10
18.34463922095191
 20
46.81256776526223
 30
0.0
 10
18.37067201462222
 20
46.80630579793128
 30
0.0
 10
18.40500150194892
 20
46.79331555547192
 30
0.0
 10
18.4417393974991
 20
46.77247000397298
 30
0.0
 10
18.47965549617255
 20
46.73942242416845
 30
0.0
 10
18.51041281949075
 20
46.69961163074885
 30
0.0
 10
18.53306634505927
 20
46.65468875110021
 30
0.0
 10
18.54452340204193
 20
46.61434662644383
 30
0.0
 10
18.54932467505752
 20
46.58119847829338
 30
0.0
 10
18.54977466801635
 20
46.56446483112378
 30
0.0
 10
18.54999999999998
 20
46.55608553132448
 30
0.0
  0
SPLINE
  5
1DE
330
1F
100
AcDbEntity
  8
SK3
  6
SLD-Dashed
370
    18
100
AcDbSpline
210
0.0
220
0.0
230
1.0
 70
     8
 71
     3
 72
    18
 73
    14
 74
     0
 42
0.000000001
 43
0.00000001
 40
0.0
 40
0.0
 40
0.0
 40
0.0
 40
0.0502196103872221
 40
0.1000870260924099
 40
0.1855086368940122
 40
0.2501550808791879
 40
0.3746583157461204
 40
0.4998570853793075
 40
0.6242312608259372
 40
0.7494324099488413
 40
0.8740366596179953
 40
0.9370350243166866
 40
1.0
 40
1.0
 40
1.0
 40
1.0
 10
3.699999999999962
 20
46.55608553132442
 30
0.0
 10
3.70014385485288
 20
46.56278755186
 30
0.0
 10
3.700430555691588
 20
46.57614459105336
 30
0.0
 10
3.703274054818802
 20
46.60076085239334
 30
0.0
 10
3.708850025263311
 20
46.62692328764686
 30
0.0
 10
3.720514169271304
 20
46.66169890756606
 30
0.0
 10
3.73945659241665
 20
46.69941980690708
 30
0.0
 10
3.770128279112247
 20
46.73918434013714
 30
0.0
 10
3.808028636439615
 20
46.77229285140233
 30
0.0
 10
3.851698646431313
 20
46.79720148409474
 30
0.0
 10
3.891711812143345
 20
46.81006094110491
 30
0.0
 10
3.924780356068886
 20
46.81548545401079
 30
0.0
 10
3.941594937699466
 20
46.81599758847393
 30
0.0
 10
3.950000000000009
 20
46.81625358782994
 30
0.0
  0
SPLINE
  5
1DF
330
1F
100
AcDbEntity
  8
SK3
  6
SLD-Dashed
370
    18
100
AcDbSpline
210
0.0
220
0.0
230
1.0
 70
     8
 71
     3
 72
    30
 73
    26
 74
     0
 42
0.000000001
 43
0.00000001
 40
0.4999999999999997
 40
0.4999999999999997
 40
0.4999999999999997
 40
0.4999999999999997
 40
0.5624999999999998
 40
0.5624999999999998
 40
0.6249999999999998
 40
0.6249999999999998
 40
0.6562499999999998
 40
0.6562499999999998
 40
0.6874999999999999
 40
0.6874999999999999
 40
0.7187499999999999
 40
0.7187499999999999
 40
0.75
 40
0.75
 40
0.78125
 40
0.78125
 40
0.8125000000000001
 40
0.8125000000000001
 40
0.8437500000000001
 40
0.8437500000000001
 40
0.8750000000000002
 40
0.8750000000000002
 40
0.9375000000000001
 40
0.9375000000000001
 40
1.0
 40
1.0
 40
1.0
 40
1.0
 10
11.12436591328741
 20
5.309061551556929
 30
0.0
 10
11.33987168856151
 20
5.309135121894133
 30
0.0
 10
11.55726809392071
 20
5.270777053767745
 30
0.0
 10
11.954542895422
 20
5.124082127907513
 30
0.0
 10
12.13838112079801
 20
5.01435051186401
 30
0.0
 10
12.36674314194752
 20
4.80840405199183
 30
0.0
 10
12.43642969974143
 20
4.731543474868142
 30
0.0
 10
12.5561715796923
 20
4.568463540703782
 30
0.0
 10
12.60695049438682
 20
4.481836472086075
 30
0.0
 10
12.69006011488474
 20
4.297948630822695
 30
0.0
 10
12.72188943066088
 20
4.201137306228627
 30
0.0
 10
12.76406792100185
 20
4.004999015154088
 30
0.0
 10
12.77490668888515
 20
3.904499034786596
 30
0.0
 10
12.77509211872524
 20
3.699534720125429
 30
0.0
 10
12.76447599657454
 20
3.598169916606796
 30
0.0
 10
12.7226542834703
 20
3.397643705646346
 30
0.0
 10
12.69091026767072
 20
3.297408274791247
 30
0.0
 10
12.60826636161164
 20
3.105879249910994
 30
0.0
 10
12.55766906368547
 20
3.014523490936151
 30
0.0
 10
12.43800593838745
 20
2.840798433450344
 30
0.0
 10
12.36852473740649
 20
2.758380635546162
 30
0.0
 10
12.14080554014713
 20
2.535838019871825
 30
0.0
 10
11.9570420469029
 20
2.41465353223478
 30
0.0
 10
11.56023146512519
 20
2.251755559321181
 30
0.0
 10
11.34333742006519
 20
2.20807601119715
 30
0.0
 10
11.125
 20
2.208076011197137
 30
0.0
  0
SPLINE
  5
1E0
330
1F
100
AcDbEntity
  8
SK3
  6
SLD-Dashed
370
    18
100
AcDbSpline
210
0.0
220
0.0
230
1.0
 70
     8
 71
     3
 72
    34
 73
    30
 74
     0
 42
0.000000001
 43
0.00000001
 40
0.0
 40
0.0
 40
0.0
 40
0.0
 40
0.0312500000000001
 40
0.0312500000000001
 40
0.0625000000000001
 40
0.0625000000000001
 40
0.0937500000000002
 40
0.0937500000000002
 40
0.1250000000000002
 40
0.1250000000000002
 40
0.1875
 40
0.1875
 40
0.2499999999999997
 40
0.2499999999999997
 40
0.2812499999999997
 40
0.2812499999999997
 40
0.3124999999999997
 40
0.3124999999999997
 40
0.3437499999999997
 40
0.3437499999999997
 40
0.3749999999999997
 40
0.3749999999999997
 40
0.4062499999999997
 40
0.4062499999999997
 40
0.4374999999999997
 40
0.4374999999999997
 40
0.4687499999999997
 40
0.4687499999999997
 40
0.4999999999999997
 40
0.4999999999999997
 40
0.4999999999999997
 40
0.4999999999999997
 10
11.125
 20
2.208076011197137
 30
0.0
 10
11.01583128996742
 20
2.208076011197137
 30
0.0
 10
10.90851747443064
 20
2.218712438100935
 30
0.0
 10
10.69743839976836
 20
2.260296858835588
 30
0.0
 10
10.59256796952454
 20
2.291759353259954
 30
0.0
 10
10.39282801405941
 20
2.373555205373627
 30
0.0
 10
10.29811782955153
 20
2.423509628226163
 30
0.0
 10
10.11887542494272
 20
2.541114583907885
 30
0.0
 10
10.03412703573856
 20
2.609294845854253
 30
0.0
 10
9.806182200157387
 20
2.831771837438366
 30
0.0
 10
9.683294833250006
 20
3.010016554592661
 30
0.0
 10
9.518613327833602
 20
3.39075994389857
 30
0.0
 10
9.475122079642018
 20
3.597272475835474
 30
0.0
 10
9.474939355443745
 20
3.901097591317397
 30
0.0
 10
9.485685185608661
 20
4.003434499602346
 30
0.0
 10
9.527840731096415
 20
4.200293854804624
 30
0.0
 10
9.559029712058436
 20
4.295473899993269
 30
0.0
 10
9.641780605110368
 20
4.479477843829405
 30
0.0
 10
9.693378168396883
 20
4.56772201717838
 30
0.0
 10
9.81271879481424
 20
4.730510706064034
 30
0.0
 10
9.881024517103516
 20
4.806208116124394
 30
0.0
 10
10.03474791503922
 20
4.945204256680401
 30
0.0
 10
10.11790941669588
 20
5.006521730708591
 30
0.0
 10
10.29642492313948
 20
5.11372891487772
 30
0.0
 10
10.39294641915067
 20
5.159988239582885
 30
0.0
 10
10.59259055817322
 20
5.233890455420352
 30
0.0
 10
10.69543180415419
 20
5.261724005488279
 30
0.0
 10
10.90715408445178
 20
5.299397422676641
 30
0.0
 10
11.01661302565038
 20
5.309024766388323
 30
0.0
 10
11.12436591328741
 20
5.309061551556929
 30
0.0
  0
SPLINE
  5
1E1
330
1F
100
AcDbEntity
  8
SK3
  6
SLD-Dashed
370
    18
100
AcDbSpline
210
0.0
220
0.0
230
1.0
 70
     8
 71
     2
 72
     6
 73
     3
 74
     0
 42
0.000000001
 43
0.00000001
 40
0.0
 40
0.0
 40
0.0
 40
0.0312499999999986
 40
0.0312499999999986
 40
0.0312499999999986
 10
141.8589999999999
 20
4.762500000000003
 30
0.0
 10
141.8909393000191
 20
4.734325305954752
 30
0.0
 10
141.9521499548433
 20
4.680737147350969
 30
0.0
  0
SPLINE
  5
1E2
330
1F
100
AcDbEntity
  8
SK3
  6
SLD-Dashed
370
    18
100
AcDbSpline
210
0.0
220
0.0
230
1.0
 70
     8
 71
     3
 72
     8
 73
     4
 74
     0
 42
0.000000001
 43
0.00000001
 40
0.0312499999999986
 40
0.0312499999999986
 40
0.0312499999999986
 40
0.0312499999999986
 40
0.046874999999998
 40
0.046874999999998
 40
0.046874999999998
 40
0.046874999999998
 10
141.9521499548433
 20
4.680737147350969
 30
0.0
 10
141.9827552822553
 20
4.653943068049081
 30
0.0
 10
142.021112930845
 20
4.620429581277744
 30
0.0
 10
142.0657980626497
 20
4.581570727118199
 30
0.0
  0
SPLINE
  5
1E3
330
1F
100
AcDbEntity
  8
SK3
  6
SLD-Dashed
370
    18
100
AcDbSpline
210
0.0
220
0.0
230
1.0
 70
     8
 71
     3
 72
     8
 73
     4
 74
     0
 42
0.000000001
 43
0.00000001
 40
0.046874999999998
 40
0.046874999999998
 40
0.046874999999998
 40
0.046874999999998
 40
0.0624999999999973
 40
0.0624999999999973
 40
0.0624999999999973
 40
0.0624999999999973
 10
142.0657980626497
 20
4.581570727118199
 30
0.0
 10
142.1104831944543
 20
4.542711872958669
 30
0.0
 10
142.1614203624257
 20
4.498571562975215
 30
0.0
 10
142.2181178044463
 20
4.449746780503499
 30
0.0
  0
SPLINE
  5
1E4
330
1F
100
AcDbEntity
  8
SK3
  6
SLD-Dashed
370
    18
100
AcDbSpline
210
0.0
220
0.0
230
1.0
 70
     8
 71
     3
 72
     8
 73
     4
 74
     0
 42
0.000000001
 43
0.00000001
 40
0.0624999999999973
 40
0.0624999999999973
 40
0.0624999999999973
 40
0.0624999999999973
 40
0.0937499999999959
 40
0.0937499999999959
 40
0.0937499999999959
 40
0.0937499999999959
 10
142.2181178044463
 20
4.449746780503499
 30
0.0
 10
142.3315126884876
 20
4.352097215560062
 30
0.0
 10
142.4695812713412
 20
4.234279707352593
 30
0.0
 10
142.6235815848966
 20
4.105760393076981
 30
0.0
  0
SPLINE
  5
1E5
330
1F
100
AcDbEntity
  8
SK3
  6
SLD-Dashed
370
    18
100
AcDbSpline
210
0.0
220
0.0
230
1.0
 70
     8
 71
     3
 72
     8
 73
     4
 74
     0
 42
0.000000001
 43
0.00000001
 40
0.0937499999999959
 40
0.0937499999999959
 40
0.0937499999999959
 40
0.0937499999999959
 40
0.1249999999999946
 40
0.1249999999999946
 40
0.1249999999999946
 40
0.1249999999999946
 10
142.6235815848966
 20
4.105760393076981
 30
0.0
 10
142.7775818984521
 20
3.977241078801367
 30
0.0
 10
142.9474745682694
 20
3.837933257327508
 30
0.0
 10
143.1325295061272
 20
3.691687870421657
 30
0.0
  0
SPLINE
  5
1E6
330
1F
100
AcDbEntity
  8
SK3
  6
SLD-Dashed
370
    18
100
AcDbSpline
210
0.0
220
0.0
230
1.0
 70
     8
 71
     3
 72
     8
 73
     4
 74
     0
 42
0.000000001
 43
0.00000001
 40
0.1249999999999946
 40
0.1249999999999946
 40
0.1249999999999946
 40
0.1249999999999946
 40
0.1562499999999932
 40
0.1562499999999932
 40
0.1562499999999932
 40
0.1562499999999932
 10
143.1325295061272
 20
3.691687870421657
 30
0.0
 10
143.3175844439849
 20
3.545442483515814
 30
0.0
 10
143.5189448060009
 20
3.391350357523679
 30
0.0
 10
143.7309237935347
 20
3.239604868096303
 30
0.0
  0
SPLINE
  5
1E7
330
1F
100
AcDbEntity
  8
SK3
  6
SLD-Dashed
370
    18
100
AcDbSpline
210
0.0
220
0.0
230
1.0
 70
     8
 71
     3
 72
     8
 73
     4
 74
     0
 42
0.000000001
 43
0.00000001
 40
0.1562499999999932
 40
0.1562499999999932
 40
0.1562499999999932
 40
0.1562499999999932
 40
0.1874999999999918
 40
0.1874999999999918
 40
0.1874999999999918
 40
0.1874999999999918
 10
143.7309237935347
 20
3.239604868096303
 30
0.0
 10
143.9429027810686
 20
3.087859378668935
 30
0.0
 10
144.1665424322979
 20
2.937084319534926
 30
0.0
 10
144.4070667317367
 20
2.795738717041786
 30
0.0
  0
SPLINE
  5
1E8
330
1F
100
AcDbEntity
  8
SK3
  6
SLD-Dashed
370
    18
100
AcDbSpline
210
0.0
220
0.0
230
1.0
 70
     8
 71
     3
 72
     8
 73
     4
 74
     0
 42
0.000000001
 43
0.00000001
 40
0.1874999999999918
 40
0.1874999999999918
 40
0.1874999999999918
 40
0.1874999999999918
 40
0.2187499999999905
 40
0.2187499999999905
 40
0.2187499999999905
 40
0.2187499999999905
 10
144.4070667317367
 20
2.795738717041786
 30
0.0
 10
144.6475910311754
 20
2.654393114548653
 30
0.0
 10
144.9054454976621
 20
2.522107990004123
 30
0.0
 10
145.1804713145211
 20
2.423428436094312
 30
0.0
  0
SPLINE
  5
1E9
330
1F
100
AcDbEntity
  8
SK3
  6
SLD-Dashed
370
    18
100
AcDbSpline
210
0.0
220
0.0
230
1.0
 70
     8
 71
     3
 72
     8
 73
     4
 74
     0
 42
0.000000001
 43
0.00000001
 40
0.2187499999999905
 40
0.2187499999999905
 40
0.2187499999999905
 40
0.2187499999999905
 40
0.2343749999999911
 40
0.2343749999999911
 40
0.2343749999999911
 40
0.2343749999999911
 10
145.1804713145211
 20
2.423428436094312
 30
0.0
 10
145.3179842229507
 20
2.374088659139392
 30
0.0
 10
145.4617563563059
 20
2.332944604084584
 30
0.0
 10
145.6070310416908
 20
2.305026409398718
 30
0.0
  0
SPLINE
  5
1EA
330
1F
100
AcDbEntity
  8
SK3
  6
SLD-Dashed
370
    18
100
AcDbSpline
210
0.0
220
0.0
230
1.0
 70
     8
 71
     3
 72
     8
 73
     4
 74
     0
 42
0.000000001
 43
0.00000001
 40
0.2343749999999911
 40
0.2343749999999911
 40
0.2343749999999911
 40
0.2343749999999911
 40
0.2499999999999918
 40
0.2499999999999918
 40
0.2499999999999918
 40
0.2499999999999918
 10
145.6070310416908
 20
2.305026409398718
 30
0.0
 10
145.7523057270758
 20
2.277108214712712
 30
0.0
 10
145.8997598976824
 20
2.26208160339384
 30
0.0
 10
146.0497070827416
 20
2.26206218654539
 30
0.0
  0
SPLINE
  5
1EB
330
1F
100
AcDbEntity
  8
SK3
  6
SLD-Dashed
370
    18
100
AcDbSpline
210
0.0
220
0.0
230
1.0
 70
     8
 71
     3
 72
     8
 73
     4
 74
     0
 42
0.000000001
 43
0.00000001
 40
0.2499999999999918
 40
0.2499999999999918
 40
0.2499999999999918
 40
0.2499999999999918
 40
0.2812499999999932
 40
0.2812499999999932
 40
0.2812499999999932
 40
0.2812499999999932
 10
146.0497070827416
 20
2.26206218654539
 30
0.0
 10
146.3496014528599
 20
2.262023352848901
 30
0.0
 10
146.6444365456355
 20
2.324687414737551
 30
0.0
 10
146.9199093507577
 20
2.423565045245487
 30
0.0
  0
SPLINE
  5
1EC
330
1F
100
AcDbEntity
  8
SK3
  6
SLD-Dashed
370
    18
100
AcDbSpline
210
0.0
220
0.0
230
1.0
 70
     8
 71
     3
 72
     8
 73
     4
 74
     0
 42
0.000000001
 43
0.00000001
 40
0.2812499999999932
 40
0.2812499999999932
 40
0.2812499999999932
 40
0.2812499999999932
 40
0.3124999999999946
 40
0.3124999999999946
 40
0.3124999999999946
 40
0.3124999999999946
 10
146.9199093507577
 20
2.423565045245487
 30
0.0
 10
147.1953821558801
 20
2.522442675753306
 30
0.0
 10
147.4487972799242
 20
2.652427112557594
 30
0.0
 10
147.6901838290571
 20
2.794123877550994
 30
0.0
  0
SPLINE
  5
1ED
330
1F
100
AcDbEntity
  8
SK3
  6
SLD-Dashed
370
    18
100
AcDbSpline
210
0.0
220
0.0
230
1.0
 70
     8
 71
     3
 72
     8
 73
     4
 74
     0
 42
0.000000001
 43
0.00000001
 40
0.3124999999999946
 40
0.3124999999999946
 40
0.3124999999999946
 40
0.3124999999999946
 40
0.3437499999999959
 40
0.3437499999999959
 40
0.3437499999999959
 40
0.3437499999999959
 10
147.6901838290571
 20
2.794123877550994
 30
0.0
 10
147.9315703781901
 20
2.935820642544394
 30
0.0
 10
148.1567846423916
 20
3.08767801497135
 30
0.0
 10
148.3677456978415
 20
3.238652554668783
 30
0.0
  0
SPLINE
  5
1EE
330
1F
100
AcDbEntity
  8
SK3
  6
SLD-Dashed
370
    18
100
AcDbSpline
210
0.0
220
0.0
230
1.0
 70
     8
 71
     3
 72
     8
 73
     4
 74
     0
 42
0.000000001
 43
0.00000001
 40
0.3437499999999959
 40
0.3437499999999959
 40
0.3437499999999959
 40
0.3437499999999959
 40
0.3749999999999973
 40
0.3749999999999973
 40
0.3749999999999973
 40
0.3749999999999973
 10
148.3677456978415
 20
3.238652554668783
 30
0.0
 10
148.5787067532913
 20
3.38962709436623
 30
0.0
 10
148.776471715956
 20
3.540843655332758
 30
0.0
 10
148.962340443293
 20
3.687635029072155
 30
0.0
  0
SPLINE
  5
1EF
330
1F
100
AcDbEntity
  8
SK3
  6
SLD-Dashed
370
    18
100
AcDbSpline
210
0.0
220
0.0
230
1.0
 70
     8
 71
     3
 72
     8
 73
     4
 74
     0
 42
0.000000001
 43
0.00000001
 40
0.3749999999999973
 40
0.3749999999999973
 40
0.3749999999999973
 40
0.3749999999999973
 40
0.4062499999999986
 40
0.4062499999999986
 40
0.4062499999999986
 40
0.4062499999999986
 10
148.962340443293
 20
3.687635029072132
 30
0.0
 10
149.14820917063
 20
3.834426402811511
 30
0.0
 10
149.3206343890931
 20
3.975778598737401
 30
0.0
 10
149.4741372989019
 20
4.1038569043926
 30
0.0
  0
SPLINE
  5
1F0
330
1F
100
AcDbEntity
  8
SK3
  6
SLD-Dashed
370
    18
100
AcDbSpline
210
0.0
220
0.0
230
1.0
 70
     8
 71
     3
 72
     8
 73
     4
 74
     0
 42
0.000000001
 43
0.00000001
 40
0.4062499999999986
 40
0.4062499999999986
 40
0.4062499999999986
 40
0.4062499999999986
 40
0.4375
 40
0.4375
 40
0.4375
 40
0.4375
 10
149.4741372989019
 20
4.1038569043926
 30
0.0
 10
149.6276402087106
 20
4.231935210047799
 30
0.0
 10
149.7647760121806
 20
4.348919126938855
 30
0.0
 10
149.8792247451537
 20
4.447458532566416
 30
0.0
  0
SPLINE
  5
1F1
330
1F
100
AcDbEntity
  8
SK3
  6
SLD-Dashed
370
    18
100
AcDbSpline
210
0.0
220
0.0
230
1.0
 70
     8
 71
     3
 72
     8
 73
     4
 74
     0
 42
0.000000001
 43
0.00000001
 40
0.4375
 40
0.4375
 40
0.4375
 40
0.4375
 40
0.4687500000000013
 40
0.4687500000000013
 40
0.4687500000000013
 40
0.4687500000000013
 10
149.8792247451537
 20
4.447458532566438
 30
0.0
 10
149.9936734781269
 20
4.545997938194007
 30
0.0
 10
150.0834836954806
 20
4.62439326300912
 30
0.0
 10
150.1456356271948
 20
4.678798610834583
 30
0.0
  0
SPLINE
  5
1F2
330
1F
100
AcDbEntity
  8
SK3
  6
SLD-Dashed
370
    18
100
AcDbSpline
210
0.0
220
0.0
230
1.0
 70
     8
 71
     3
 72
     8
 73
     4
 74
     0
 42
0.000000001
 43
0.00000001
 40
0.4687500000000013
 40
0.4687500000000013
 40
0.4687500000000013
 40
0.4687500000000013
 40
0.484375000000002
 40
0.484375000000002
 40
0.484375000000002
 40
0.484375000000002
 10
150.1456356271948
 20
4.678798610834582
 30
0.0
 10
150.1767115930519
 20
4.706001284747315
 30
0.0
 10
150.2006841002455
 20
4.727054702904254
 30
0.0
 10
150.2165888198179
 20
4.741032339420592
 30
0.0
  0
SPLINE
  5
1F3
330
1F
100
AcDbEntity
  8
SK3
  6
SLD-Dashed
370
    18
100
AcDbSpline
210
0.0
220
0.0
230
1.0
 70
     8
 71
     3
 72
     8
 73
     4
 74
     0
 42
0.000000001
 43
0.00000001
 40
0.484375000000002
 40
0.484375000000002
 40
0.484375000000002
 40
0.484375000000002
 40
0.5000000000000027
 40
0.5000000000000027
 40
0.5000000000000027
 40
0.5000000000000027
 10
150.2165888198179
 20
4.741032339420592
 30
0.0
 10
150.2324935393903
 20
4.755009975936934
 30
0.0
 10
150.2406318855877
 20
4.762176059525952
 30
0.0
 10
150.2409878261771
 20
4.762489287039345
 30
0.0
  0
SPLINE
  5
1F4
330
1F
100
AcDbEntity
  8
SK3
  6
SLD-Dashed
370
    18
100
AcDbSpline
210
0.0
220
0.0
230
1.0
 70
     8
 71
     3
 72
     8
 73
     4
 74
     0
 42
0.000000001
 43
0.00000001
 40
0.5000000000000027
 40
0.5000000000000027
 40
0.5000000000000027
 40
0.5000000000000027
 40
0.531250000000004
 40
0.531250000000004
 40
0.531250000000004
 40
0.531250000000004
 10
150.2409878261771
 20
4.762489287039345
 30
0.0
 10
150.2416997073558
 20
4.763115742066129
 30
0.0
 10
150.2100534964813
 20
4.735199252748197
 30
0.0
 10
150.1494110948118
 20
4.682103861969026
 30
0.0
  0
SPLINE
  5
1F5
330
1F
100
AcDbEntity
  8
SK3
  6
SLD-Dashed
370
    18
100
AcDbSpline
210
0.0
220
0.0
230
1.0
 70
     8
 71
     3
 72
     8
 73
     4
 74
     0
 42
0.000000001
 43
0.00000001
 40
0.531250000000004
 40
0.531250000000004
 40
0.531250000000004
 40
0.531250000000004
 40
0.5625000000000052
 40
0.5625000000000052
 40
0.5625000000000052
 40
0.5625000000000052
 10
150.1494110948118
 20
4.682103861969026
 30
0.0
 10
150.0887686931423
 20
4.629008471189856
 30
0.0
 10
149.998319624869
 20
4.550036632950219
 30
0.0
 10
149.8849130921339
 20
4.452357091947997
 30
0.0
  0
SPLINE
  5
1F6
330
1F
100
AcDbEntity
  8
SK3
  6
SLD-Dashed
370
    18
100
AcDbSpline
210
0.0
220
0.0
230
1.0
 70
     8
 71
     3
 72
     8
 73
     4
 74
     0
 42
0.000000001
 43
0.00000001
 40
0.5625000000000052
 40
0.5625000000000052
 40
0.5625000000000052
 40
0.5625000000000052
 40
0.5937500000000066
 40
0.5937500000000066
 40
0.5937500000000066
 40
0.5937500000000066
 10
149.8849130921339
 20
4.452357091947997
 30
0.0
 10
149.7715065593987
 20
4.354677550945775
 30
0.0
 10
149.635936171411
 20
4.238936989937224
 30
0.0
 10
149.4809630084801
 20
4.10955379762308
 30
0.0
  0
SPLINE
  5
1F7
330
1F
100
AcDbEntity
  8
SK3
  6
SLD-Dashed
370
    18
100
AcDbSpline
210
0.0
220
0.0
230
1.0
 70
     8
 71
     3
 72
     8
 73
     4
 74
     0
 42
0.000000001
 43
0.00000001
 40
0.5937500000000066
 40
0.5937500000000066
 40
0.5937500000000066
 40
0.5937500000000066
 40
0.6250000000000079
 40
0.6250000000000079
 40
0.6250000000000079
 40
0.6250000000000079
 10
149.4809630084801
 20
4.10955379762308
 30
0.0
 10
149.3259898455491
 20
3.980170605308934
 30
0.0
 10
149.1558985524246
 20
3.840681439463149
 30
0.0
 10
148.9718303396604
 20
3.695134339068104
 30
0.0
  0
SPLINE
  5
1F8
330
1F
100
AcDbEntity
  8
SK3
  6
SLD-Dashed
370
    18
100
AcDbSpline
210
0.0
220
0.0
230
1.0
 70
     8
 71
     3
 72
     8
 73
     4
 74
     0
 42
0.000000001
 43
0.00000001
 40
0.6250000000000079
 40
0.6250000000000079
 40
0.6250000000000079
 40
0.6250000000000079
 40
0.6562500000000092
 40
0.6562500000000092
 40
0.6562500000000092
 40
0.6562500000000092
 10
148.9718303396604
 20
3.695134339068104
 30
0.0
 10
148.7877621268962
 20
3.54958723867305
 30
0.0
 10
148.5889253871702
 20
3.397205389082225
 30
0.0
 10
148.3758801255953
 20
3.244478942548358
 30
0.0
  0
SPLINE
  5
1F9
330
1F
100
AcDbEntity
  8
SK3
  6
SLD-Dashed
370
    18
100
AcDbSpline
210
0.0
220
0.0
230
1.0
 70
     8
 71
     3
 72
     8
 73
     4
 74
     0
 42
0.000000001
 43
0.00000001
 40
0.6562500000000092
 40
0.6562500000000092
 40
0.6562500000000092
 40
0.6562500000000092
 40
0.6875000000000104
 40
0.6875000000000104
 40
0.6875000000000104
 40
0.6875000000000104
 10
148.3758801255953
 20
3.244478942548358
 30
0.0
 10
148.1628348640204
 20
3.091752496014481
 30
0.0
 10
147.9393805065383
 20
2.941037029497543
 30
0.0
 10
147.701275873843
 20
2.800649435673049
 30
0.0
  0
SPLINE
  5
1FA
330
1F
100
AcDbEntity
  8
SK3
  6
SLD-Dashed
370
    18
100
AcDbSpline
210
0.0
220
0.0
230
1.0
 70
     8
 71
     3
 72
     8
 73
     4
 74
     0
 42
0.000000001
 43
0.00000001
 40
0.6875000000000104
 40
0.6875000000000104
 40
0.6875000000000104
 40
0.6875000000000104
 40
0.7031250000000099
 40
0.7031250000000099
 40
0.7031250000000099
 40
0.7031250000000099
 10
147.701275873843
 20
2.800649435673049
 30
0.0
 10
147.5822235574953
 20
2.730455638760816
 30
0.0
 10
147.4594458959589
 20
2.66291436930829
 30
0.0
 10
147.3317155485008
 20
2.59994615276329
 30
0.0
  0
SPLINE
  5
1FB
330
1F
100
AcDbEntity
  8
SK3
  6
SLD-Dashed
370
    18
100
AcDbSpline
210
0.0
220
0.0
230
1.0
 70
     8
 71
     3
 72
     8
 73
     4
 74
     0
 42
0.000000001
 43
0.00000001
 40
0.7031250000000099
 40
0.7031250000000099
 40
0.7031250000000099
 40
0.7031250000000099
 40
0.7187500000000093
 40
0.7187500000000093
 40
0.7187500000000093
 40
0.7187500000000093
 10
147.3317155485008
 20
2.599946152763291
 30
0.0
 10
147.2039852010425
 20
2.536977936218297
 30
0.0
 10
147.0702435402445
 20
2.478156719665459
 30
0.0
 10
146.9321136150615
 20
2.427972339191064
 30
0.0
  0
SPLINE
  5
1FC
330
1F
100
AcDbEntity
  8
SK3
  6
SLD-Dashed
370
    18
100
AcDbSpline
210
0.0
220
0.0
230
1.0
 70
     8
 71
     3
 72
     8
 73
     4
 74
     0
 42
0.000000001
 43
0.00000001
 40
0.7187500000000093
 40
0.7187500000000093
 40
0.7187500000000093
 40
0.7187500000000093
 40
0.7343750000000088
 40
0.7343750000000088
 40
0.7343750000000088
 40
0.7343750000000088
 10
146.9321136150615
 20
2.427972339191064
 30
0.0
 10
146.7939836898786
 20
2.377787958716676
 30
0.0
 10
146.6525802660943
 20
2.336589061858916
 30
0.0
 10
146.506939033039
 20
2.307751834559922
 30
0.0
  0
SPLINE
  5
1FD
330
1F
100
AcDbEntity
  8
SK3
  6
SLD-Dashed
370
    18
100
AcDbSpline
210
0.0
220
0.0
230
1.0
 70
     8
 71
     3
 72
     8
 73
     4
 74
     0
 42
0.000000001
 43
0.00000001
 40
0.7343750000000088
 40
0.7343750000000088
 40
0.7343750000000088
 40
0.7343750000000088
 40
0.7500000000000082
 40
0.7500000000000082
 40
0.7500000000000082
 40
0.7500000000000082
 10
146.506939033039
 20
2.307751834559922
 30
0.0
 10
146.3612977999839
 20
2.278914607260942
 30
0.0
 10
146.2099183231061
 20
2.262822498803434
 30
0.0
 10
146.0611433383355
 20
2.262089614491282
 30
0.0
  0
SPLINE
  5
1FE
330
1F
100
AcDbEntity
  8
SK3
  6
SLD-Dashed
370
    18
100
AcDbSpline
210
0.0
220
0.0
230
1.0
 70
     8
 71
     3
 72
     8
 73
     4
 74
     0
 42
0.000000001
 43
0.00000001
 40
0.7500000000000082
 40
0.7500000000000082
 40
0.7500000000000082
 40
0.7500000000000082
 40
0.7656250000000077
 40
0.7656250000000077
 40
0.7656250000000077
 40
0.7656250000000077
 10
146.0611433383355
 20
2.262089614491282
 30
0.0
 10
145.912368353565
 20
2.261356730179117
 30
0.0
 10
145.7647292605631
 20
2.275427657613304
 30
0.0
 10
145.6181368484362
 20
2.302917938546367
 30
0.0
  0
SPLINE
  5
1FF
330
1F
100
AcDbEntity
  8
SK3
  6
SLD-Dashed
370
    18
100
AcDbSpline
210
0.0
220
0.0
230
1.0
 70
     8
 71
     3
 72
     8
 73
     4
 74
     0
 42
0.000000001
 43
0.00000001
 40
0.7656250000000077
 40
0.7656250000000077
 40
0.7656250000000077
 40
0.7656250000000077
 40
0.7812500000000071
 40
0.7812500000000071
 40
0.7812500000000071
 40
0.7812500000000071
 10
145.6181368484362
 20
2.302917938546368
 30
0.0
 10
145.4715444363094
 20
2.330408219479418
 30
0.0
 10
145.3279022761123
 20
2.371039899115458
 30
0.0
 10
145.1904040931421
 20
2.419882305627017
 30
0.0
  0
SPLINE
  5
200
330
1F
100
AcDbEntity
  8
SK3
  6
SLD-Dashed
370
    18
100
AcDbSpline
210
0.0
220
0.0
230
1.0
 70
     8
 71
     3
 72
     8
 73
     4
 74
     0
 42
0.000000001
 43
0.00000001
 40
0.7812500000000071
 40
0.7812500000000071
 40
0.7812500000000071
 40
0.7812500000000071
 40
0.812500000000006
 40
0.812500000000006
 40
0.812500000000006
 40
0.812500000000006
 10
145.1904040931421
 20
2.419882305627016
 30
0.0
 10
144.9154077272019
 20
2.517567118650118
 30
0.0
 10
144.6563405562689
 20
2.649717807154578
 30
0.0
 10
144.415168504746
 20
2.790985357875347
 30
0.0
  0
SPLINE
  5
201
330
1F
100
AcDbEntity
  8
SK3
  6
SLD-Dashed
370
    18
100
AcDbSpline
210
0.0
220
0.0
230
1.0
 70
     8
 71
     3
 72
     8
 73
     4
 74
     0
 42
0.000000001
 43
0.00000001
 40
0.812500000000006
 40
0.812500000000006
 40
0.812500000000006
 40
0.812500000000006
 40
0.843750000000005
 40
0.843750000000005
 40
0.843750000000005
 40
0.843750000000005
 10
144.415168504746
 20
2.790985357875347
 30
0.0
 10
144.1739964532231
 20
2.93225290859612
 30
0.0
 10
143.9497720936135
 20
3.08314669869949
 30
0.0
 10
143.7372172530968
 20
3.235102669834989
 30
0.0
  0
SPLINE
  5
202
330
1F
100
AcDbEntity
  8
SK3
  6
SLD-Dashed
370
    18
100
AcDbSpline
210
0.0
220
0.0
230
1.0
 70
     8
 71
     3
 72
     8
 73
     4
 74
     0
 42
0.000000001
 43
0.00000001
 40
0.843750000000005
 40
0.843750000000005
 40
0.843750000000005
 40
0.843750000000005
 40
0.875000000000004
 40
0.875000000000004
 40
0.875000000000004
 40
0.875000000000004
 10
143.7372172530968
 20
3.235102669834989
 30
0.0
 10
143.52466241258
 20
3.387058640970481
 30
0.0
 10
143.3226204547867
 20
3.541552145539093
 30
0.0
 10
143.1372109595594
 20
3.687989322667729
 30
0.0
  0
SPLINE
  5
203
330
1F
100
AcDbEntity
  8
SK3
  6
SLD-Dashed
370
    18
100
AcDbSpline
210
0.0
220
0.0
230
1.0
 70
     8
 71
     3
 72
     8
 73
     4
 74
     0
 42
0.000000001
 43
0.00000001
 40
0.875000000000004
 40
0.875000000000004
 40
0.875000000000004
 40
0.875000000000004
 40
0.906250000000003
 40
0.906250000000003
 40
0.906250000000003
 40
0.906250000000003
 10
143.1372109595594
 20
3.687989322667729
 30
0.0
 10
142.951801464332
 20
3.834426499796375
 30
0.0
 10
142.7818471861787
 20
3.973731932099658
 30
0.0
 10
142.6279437065416
 20
4.102120735131794
 30
0.0
  0
SPLINE
  5
204
330
1F
100
AcDbEntity
  8
SK3
  6
SLD-Dashed
370
    18
100
AcDbSpline
210
0.0
220
0.0
230
1.0
 70
     8
 71
     3
 72
     8
 73
     4
 74
     0
 42
0.000000001
 43
0.00000001
 40
0.906250000000003
 40
0.906250000000003
 40
0.906250000000003
 40
0.906250000000003
 40
0.9375000000000019
 40
0.9375000000000019
 40
0.9375000000000019
 40
0.9375000000000019
 10
142.6279437065416
 20
4.102120735131794
 30
0.0
 10
142.4740402269047
 20
4.230509538163923
 30
0.0
 10
142.3349444083888
 20
4.34916021531686
 30
0.0
 10
142.2208314079469
 20
4.447410185306286
 30
0.0
  0
SPLINE
  5
205
330
1F
100
AcDbEntity
  8
SK3
  6
SLD-Dashed
370
    18
100
AcDbSpline
210
0.0
220
0.0
230
1.0
 70
     8
 71
     3
 72
     8
 73
     4
 74
     0
 42
0.000000001
 43
0.00000001
 40
0.9375000000000019
 40
0.9375000000000019
 40
0.9375000000000019
 40
0.9375000000000019
 40
0.9687500000000009
 40
0.9687500000000009
 40
0.9687500000000009
 40
0.9687500000000009
 10
142.2208314079469
 20
4.447410185306286
 30
0.0
 10
142.106718407505
 20
4.545660155295716
 30
0.0
 10
142.0157362717026
 20
4.62507316873765
 30
0.0
 10
141.9534241014645
 20
4.67962170933308
 30
0.0
  0
SPLINE
  5
206
330
1F
100
AcDbEntity
  8
SK3
  6
SLD-Dashed
370
    18
100
AcDbSpline
210
0.0
220
0.0
230
1.0
 70
     8
 71
     2
 72
     6
 73
     3
 74
     0
 42
0.000000001
 43
0.00000001
 40
0.9687500000000009
 40
0.9687500000000009
 40
0.9687500000000009
 40
1.0
 40
1.0
 40
1.0
 10
141.9534241014645
 20
4.67962170933308
 30
0.0
 10
141.8911119312264
 20
4.734170249928519
 30
0.0
 10
141.8589999999999
 20
4.762500000000003
 30
0.0
  0
SPLINE
  5
207
330
1F
100
AcDbEntity
  8
SK3
  6
SLD-Dashed
370
    18
100
AcDbSpline
210
0.0
220
0.0
230
1.0
 70
     8
 71
     3
 72
    34
 73
    30
 74
     0
 42
0.000000001
 43
0.00000001
 40
0.499999999999998
 40
0.499999999999998
 40
0.499999999999998
 40
0.499999999999998
 40
0.5312499999999979
 40
0.5312499999999979
 40
0.5624999999999978
 40
0.5624999999999978
 40
0.5937499999999976
 40
0.5937499999999976
 40
0.6249999999999974
 40
0.6249999999999974
 40
0.6562499999999973
 40
0.6562499999999973
 40
0.6874999999999972
 40
0.6874999999999972
 40
0.7499999999999969
 40
0.7499999999999969
 40
0.8124999999999973
 40
0.8124999999999973
 40
0.8437499999999978
 40
0.8437499999999978
 40
0.8749999999999982
 40
0.8749999999999982
 40
0.9062499999999987
 40
0.9062499999999987
 40
0.937499999999999
 40
0.937499999999999
 40
0.9687499999999994
 40
0.9687499999999994
 40
1.0
 40
1.0
 40
1.0
 40
1.0
 10
9.638805742161722
 20
10.95392502366162
 30
0.0
 10
9.6938811607363
 20
10.8470588703952
 30
0.0
 10
9.76317928315662
 20
10.74439645836096
 30
0.0
 10
9.923515798149957
 20
10.55592715127707
 30
0.0
 10
10.01390276352454
 20
10.47020735344792
 30
0.0
 10
10.21445694949211
 20
10.31296552728877
 30
0.0
 10
10.32267837600206
 20
10.24333508542228
 30
0.0
 10
10.54307526498122
 20
10.12288935951391
 30
0.0
 10
10.65791658596824
 20
10.07070374731721
 30
0.0
 10
10.87819871140988
 20
9.98446318204086
 30
0.0
 10
10.98608094611136
 20
9.949205279737832
 30
0.0
 10
11.18968749579594
 20
9.892304259468986
 30
0.0
 10
11.28527842069085
 20
9.870580048613824
 30
0.0
 10
11.55898297450223
 20
9.820769890309972
 30
0.0
 10
11.72337034356696
 20
9.808096789548728
 30
0.0
 10
12.02194861504766
 20
9.821477532699769
 30
0.0
 10
12.15920875119766
 20
9.847310188176722
 30
0.0
 10
12.34760730605761
 20
9.927824692744426
 30
0.0
 10
12.40688352391456
 20
9.961503747003366
 30
0.0
 10
12.51780294837554
 20
10.0474980864718
 30
0.0
 10
12.56969006353042
 20
10.1002182908583
 30
0.0
 10
12.65991931900842
 20
10.22933776798929
 30
0.0
 10
12.69929072119649
 20
10.30748393412818
 30
0.0
 10
12.75586568636477
 20
10.4930273204103
 30
0.0
 10
12.77303399215493
 20
10.60290348381505
 30
0.0
 10
12.77663319740258
 20
10.83901366027914
 30
0.0
 10
12.76306993948381
 20
10.96766771108132
 30
0.0
 10
12.71170841969951
 20
11.21837738140153
 30
0.0
 10
12.67469993892523
 20
11.34057418425335
 30
0.0
 10
12.63040931107556
 20
11.45745606890563
 30
0.0
  0
SPLINE
  5
208
330
1F
100
AcDbEntity
  8
SK3
  6
SLD-Dashed
370
    18
100
AcDbSpline
210
0.0
220
0.0
230
1.0
 70
     8
 71
     3
 72
    26
 73
    22
 74
     0
 42
0.000000001
 43
0.00000001
 40
0.0
 40
0.0
 40
0.0
 40
0.0
 40
0.0624999999999995
 40
0.0624999999999995
 40
0.124999999999999
 40
0.124999999999999
 40
0.1874999999999986
 40
0.1874999999999986
 40
0.2499999999999981
 40
0.2499999999999981
 40
0.281249999999998
 40
0.281249999999998
 40
0.3124999999999979
 40
0.3124999999999979
 40
0.3749999999999981
 40
0.3749999999999981
 40
0.4374999999999984
 40
0.4374999999999984
 40
0.4687499999999982
 40
0.4687499999999982
 40
0.499999999999998
 40
0.499999999999998
 40
0.499999999999998
 40
0.499999999999998
 10
12.63040931107556
 20
11.45745606890563
 30
0.0
 10
12.54182805537629
 20
11.69121983821019
 30
0.0
 10
12.43200682775378
 20
11.89056157115177
 30
0.0
 10
12.18419932759157
 20
12.25514411813747
 30
0.0
 10
12.04834522926918
 20
12.41463399152624
 30
0.0
 10
11.75314013646128
 20
12.69173524411805
 30
0.0
 10
11.59091385222424
 20
12.81202758601131
 30
0.0
 10
11.23004729019511
 20
12.99241430793246
 30
0.0
 10
11.02728334192551
 20
13.05343833574647
 30
0.0
 10
10.69987000905187
 20
13.05646994226838
 30
0.0
 10
10.58531472788943
 20
13.04197607005518
 30
0.0
 10
10.36396153134628
 20
12.97944613660277
 30
0.0
 10
10.25449961952679
 20
12.93102694430325
 30
0.0
 10
9.947578697971332
 20
12.73948161914289
 30
0.0
 10
9.776646578307208
 20
12.55346040827497
 30
0.0
 10
9.542451961566167
 20
12.12678030999252
 30
0.0
 10
9.478612055377923
 20
11.88580640702582
 30
0.0
 10
9.473421112414282
 20
11.52565520755326
 30
0.0
 10
9.486345898652631
 20
11.40749361566878
 30
0.0
 10
9.541390615621037
 20
11.17459151908689
 30
0.0
 10
9.583730323587114
 20
11.06079117692804
 30
0.0
 10
9.638805742161722
 20
10.95392502366162
 30
0.0
  0
SPLINE
  5
209
330
1F
100
AcDbEntity
  8
SK3
  6
SLD-Dashed
370
    18
100
AcDbSpline
210
0.0
220
0.0
230
1.0
 70
     8
 71
     3
 72
    18
 73
    14
 74
     0
 42
0.000000001
 43
0.00000001
 40
0.0
 40
0.0
 40
0.0
 40
0.0
 40
0.0501962867734916
 40
0.1000306214437251
 40
0.1855667331187733
 40
0.2501823892320673
 40
0.3747066158220748
 40
0.4998232982189708
 40
0.6247294758455407
 40
0.7494251058857258
 40
0.874633102869045
 40
0.937223080818945
 40
1.0
 40
1.0
 40
1.0
 40
1.0
 10
3.949999999999989
 20
46.81625358782992
 30
0.0
 10
3.943300488172049
 20
46.81609127853695
 30
0.0
 10
3.929949772918031
 20
46.81576783032025
 30
0.0
 10
3.90536077904808
 20
46.81256776526219
 30
0.0
 10
3.879327985377802
 20
46.80630579793124
 30
0.0
 10
3.84499849805104
 20
46.79331555547189
 30
0.0
 10
3.808260602500869
 20
46.77247000397295
 30
0.0
 10
3.770344503827411
 20
46.73942242416842
 30
0.0
 10
3.739587180509211
 20
46.69961163074881
 30
0.0
 10
3.716933654940665
 20
46.65468875110021
 30
0.0
 10
3.705476597958059
 20
46.61434662644381
 30
0.0
 10
3.700675324942504
 20
46.58119847829338
 30
0.0
 10
3.700225331983637
 20
46.56446483112376
 30
0.0
 10
3.700000000000009
 20
46.55608553132447
 30
0.0
  0
SPLINE
  5
20A
330
1F
100
AcDbEntity
  8
SK3
  6
SLD-Dashed
370
    18
100
AcDbSpline
210
0.0
220
0.0
230
1.0
 70
     8
 71
     3
 72
    18
 73
    14
 74
     0
 42
0.000000001
 43
0.00000001
 40
0.0
 40
0.0
 40
0.0
 40
0.0
 40
0.0502196103872572
 40
0.1000870260924107
 40
0.1855086368940309
 40
0.2501550808791911
 40
0.3746583157461272
 40
0.4998570853792874
 40
0.6242312608259419
 40
0.7494324099488491
 40
0.874036659617998
 40
0.9370350243166916
 40
1.0
 40
1.0
 40
1.0
 40
1.0
 10
18.55000000000006
 20
46.55608553132441
 30
0.0
 10
18.54985614514714
 20
46.56278755186
 30
0.0
 10
18.54956944430843
 20
46.57614459105336
 30
0.0
 10
18.54672594518124
 20
46.60076085239336
 30
0.0
 10
18.5411499747367
 20
46.62692328764685
 30
0.0
 10
18.52948583072871
 20
46.66169890756607
 30
0.0
 10
18.51054340758341
 20
46.69941980690711
 30
0.0
 10
18.47987172088773
 20
46.73918434013714
 30
0.0
 10
18.44197136356041
 20
46.77229285140233
 30
0.0
 10
18.39830135356868
 20
46.79720148409473
 30
0.0
 10
18.35828818785665
 20
46.81006094110495
 30
0.0
 10
18.32521964393113
 20
46.81548545401078
 30
0.0
 10
18.30840506230055
 20
46.81599758847392
 30
0.0
 10
18.30000000000001
 20
46.81625358782994
 30
0.0
  0
SPLINE
  5
20B
330
1F
100
AcDbEntity
  8
1
  6
SLD-Dashed
370
    18
100
AcDbSpline
210
0.0
220
0.0
230
1.0
 70
     8
 71
     3
 72
     8
 73
     4
 74
     0
 42
0.000000001
 43
0.00000001
 40
0.0
 40
0.0
 40
0.0
 40
0.0
 40
1.0
 40
1.0
 40
1.0
 40
1.0
 10
9.20000000000204
 20
44.57901066343275
 30
0.0
 10
8.786353866861496
 20
45.32508460154082
 30
0.0
 10
8.372088490924106
 20
46.07082082932834
 30
0.0
 10
7.957289380062154
 20
46.81625358782994
 30
0.0
  0
SPLINE
  5
20C
330
1F
100
AcDbEntity
  8
1
  6
SLD-Dashed
370
    18
100
AcDbSpline
210
0.0
220
0.0
230
1.0
 70
     8
 71
     3
 72
    10
 73
     6
 74
     0
 42
0.000000001
 43
0.00000001
 40
0.0
 40
0.0
 40
0.0
 40
0.0
 40
0.5
 40
0.5
 40
1.0
 40
1.0
 40
1.0
 40
1.0
 10
9.950000000001227
 20
43.7694359684941
 30
0.0
 10
9.748771536222408
 20
43.76943596849378
 30
0.0
 10
9.550990673892246
 20
43.85856672856774
 30
0.0
 10
9.27709778572398
 20
44.15022946993272
 30
0.0
 10
9.200000000000296
 20
44.34957328976746
 30
0.0
 10
9.199999999999985
 20
44.55102159322498
 30
0.0
  0
SPLINE
  5
20D
330
1F
100
AcDbEntity
  8
1
  6
SLD-Dashed
370
    18
100
AcDbSpline
210
0.0
220
0.0
230
1.0
 70
     8
 71
     3
 72
    12
 73
     8
 74
     0
 42
0.000000001
 43
0.00000001
 40
0.0
 40
0.0
 40
0.0
 40
0.0
 40
0.5000000000000048
 40
0.5000000000000048
 40
0.7500000000000023
 40
0.7500000000000023
 40
1.0
 40
1.0
 40
1.0
 40
1.0
 10
13.02999999999993
 20
44.5510215932249
 30
0.0
 10
13.02999999999993
 20
44.3510483181232
 30
0.0
 10
12.95399603318287
 20
44.15150826736607
 30
0.0
 10
12.74724095984756
 20
43.93116827138051
 30
0.0
 10
12.6631420626864
 20
43.87128621650957
 30
0.0
 10
12.48048875274074
 20
43.7908422871653
 30
0.0
 10
12.37984375713169
 20
43.76943596849289
 30
0.0
 10
12.28000000000001
 20
43.76943596849288
 30
0.0
  0
SPLINE
  5
20E
330
1F
100
AcDbEntity
  8
1
  6
SLD-Dashed
370
    18
100
AcDbSpline
210
0.0
220
0.0
230
1.0
 70
     8
 71
     3
 72
     8
 73
     4
 74
     0
 42
0.000000001
 43
0.00000001
 40
0.0
 40
0.0
 40
0.0
 40
0.0
 40
1.0
 40
1.0
 40
1.0
 40
1.0
 10
14.27271061995094
 20
46.81625358783776
 30
0.0
 10
13.85791150908531
 20
46.0708208293348
 30
0.0
 10
13.44364613314423
 20
45.32508460154593
 30
0.0
 10
13.03000000000001
 20
44.57901066343648
 30
0.0
  0
SPLINE
  5
20F
330
1F
100
AcDbEntity
  8
1
  6
SLD-Dashed
370
    18
100
AcDbSpline
210
0.0
220
0.0
230
1.0
 70
     8
 71
     3
 72
    12
 73
     8
 74
     0
 42
0.000000001
 43
0.00000001
 40
0.0
 40
0.0
 40
0.0
 40
0.0
 40
0.2499999999999967
 40
0.2499999999999967
 40
0.4999999999999933
 40
0.4999999999999933
 40
1.0
 40
1.0
 40
1.0
 40
1.0
 10
3.199999999999794
 20
-46.69763484374749
 30
0.0
 10
3.199999999999849
 20
-46.79851095846151
 30
0.0
 10
3.218629406337775
 20
-46.89733966428926
 30
0.0
 10
3.291844246696877
 20
-47.08411469648331
 30
0.0
 10
3.345979173512789
 20
-47.16991322229986
 30
0.0
 10
3.5518718530623
 20
-47.38753444472503
 30
0.0
 10
3.748026856781355
 20
-47.47548419974255
 30
0.0
 10
3.950000000000009
 20
-47.4754841997425
 30
0.0
  0
SPLINE
  5
210
330
1F
100
AcDbEntity
  8
1
  6
SLD-Dashed
370
    18
100
AcDbSpline
210
0.0
220
0.0
230
1.0
 70
     8
 71
     3
 72
    12
 73
     8
 74
     0
 42
0.000000001
 43
0.00000001
 40
0.0
 40
0.0
 40
0.0
 40
0.0
 40
0.2499999999999985
 40
0.2499999999999985
 40
0.499999999999997
 40
0.499999999999997
 40
1.0
 40
1.0
 40
1.0
 40
1.0
 10
18.30000000000032
 20
-47.47548419974281
 30
0.0
 10
18.40091596910973
 20
-47.47548419974276
 30
0.0
 10
18.5000215825229
 20
-47.45437693482728
 30
0.0
 10
18.68315226992475
 20
-47.37426897057841
 30
0.0
 10
18.76654490405291
 20
-47.31511647588049
 30
0.0
 10
18.97195148872757
 20
-47.09831987092239
 30
0.0
 10
19.05000000000007
 20
-46.89926900274105
 30
0.0
 10
19.04999999999998
 20
-46.69763484374772
 30
0.0
  0
SPLINE
  5
211
330
1F
100
AcDbEntity
  8
1
  6
SLD-Dashed
370
    18
100
AcDbSpline
210
0.0
220
0.0
230
1.0
 70
     8
 71
     3
 72
     8
 73
     4
 74
     0
 42
0.000000001
 43
0.00000001
 40
0.0
 40
0.0
 40
0.0
 40
0.0
 40
1.0
 40
1.0
 40
1.0
 40
1.0
 10
14.63972339340267
 20
-47.47548419974251
 30
0.0
 10
14.10222500453559
 20
-46.5104965471081
 30
0.0
 10
13.56559195163212
 20
-45.54503249842019
 30
0.0
 10
13.03000000000001
 20
-44.57901066343649
 30
0.0
  0
SPLINE
  5
212
330
1F
100
AcDbEntity
  8
1
  6
SLD-Dashed
370
    18
100
AcDbSpline
210
0.0
220
0.0
230
1.0
 70
     8
 71
     3
 72
    12
 73
     8
 74
     0
 42
0.000000001
 43
0.00000001
 40
0.0
 40
0.0
 40
0.0
 40
0.0
 40
0.5
 40
0.5
 40
0.75
 40
0.75
 40
1.0
 40
1.0
 40
1.0
 40
1.0
 10
13.03000000000026
 20
-44.55102159322527
 30
0.0
 10
13.03000000000035
 20
-44.35094747116185
 30
0.0
 10
12.95238692985018
 20
-44.14958800989085
 30
0.0
 10
12.7474889626997
 20
-43.93153570225749
 30
0.0
 10
12.6637277001479
 20
-43.87162606259755
 30
0.0
 10
12.48090790509571
 20
-43.79094541821722
 30
0.0
 10
12.38057331782441
 20
-43.76943596849286
 30
0.0
 10
12.28000000000001
 20
-43.76943596849289
 30
0.0
  0
SPLINE
  5
213
330
1F
100
AcDbEntity
  8
1
  6
SLD-Dashed
370
    18
100
AcDbSpline
210
0.0
220
0.0
230
1.0
 70
     8
 71
     3
 72
    12
 73
     8
 74
     0
 42
0.000000001
 43
0.00000001
 40
0.0
 40
0.0
 40
0.0
 40
0.0
 40
0.2500000000000039
 40
0.2500000000000039
 40
0.5000000000000078
 40
0.5000000000000078
 40
1.0
 40
1.0
 40
1.0
 40
1.0
 10
9.94999999999984
 20
-43.76943596849305
 30
0.0
 10
9.850030395358774
 20
-43.76943596849309
 30
0.0
 10
9.750114974766207
 20
-43.79051518316425
 30
0.0
 10
9.565507057761263
 20
-43.87194262843708
 30
0.0
 10
9.482715011846686
 20
-43.93126060501225
 30
0.0
 10
9.276579660402874
 20
-44.15080408372875
 30
0.0
 10
9.20000000000004
 20
-44.35163254795803
 30
0.0
 10
9.199999999999985
 20
-44.551021593225
 30
0.0
  0
SPLINE
  5
214
330
1F
100
AcDbEntity
  8
1
  6
SLD-Dashed
370
    18
100
AcDbSpline
210
0.0
220
0.0
230
1.0
 70
     8
 71
     3
 72
     8
 73
     4
 74
     0
 42
0.000000001
 43
0.00000001
 40
0.0
 40
0.0
 40
0.0
 40
0.0
 40
1.0
 40
1.0
 40
1.0
 40
1.0
 10
9.199999999999985
 20
-44.57901066343649
 30
0.0
 10
8.664408048367878
 20
-45.54503249842019
 30
0.0
 10
8.12777499546441
 20
-46.5104965471081
 30
0.0
 10
7.590276606597335
 20
-47.4754841997425
 30
0.0
  0
SPLINE
  5
215
330
1F
100
AcDbEntity
  8
SK3
  6
SLD-Dashed
370
    18
100
AcDbSpline
210
0.0
220
0.0
230
1.0
 70
     8
 71
     3
 72
    34
 73
    30
 74
     0
 42
0.000000001
 43
0.00000001
 40
0.5000000000000003
 40
0.5000000000000003
 40
0.5000000000000003
 40
0.5000000000000003
 40
0.5625000000000013
 40
0.5625000000000013
 40
0.5937500000000011
 40
0.5937500000000011
 40
0.625000000000001
 40
0.625000000000001
 40
0.6562500000000009
 40
0.6562500000000009
 40
0.6875000000000008
 40
0.6875000000000008
 40
0.7187500000000007
 40
0.7187500000000007
 40
0.7500000000000004
 40
0.7500000000000004
 40
0.7812500000000003
 40
0.7812500000000003
 40
0.8125000000000002
 40
0.8125000000000002
 40
0.8437500000000001
 40
0.8437500000000001
 40
0.875
 40
0.875
 40
0.9062499999999999
 40
0.9062499999999999
 40
0.9374999999999997
 40
0.9374999999999997
 40
1.0
 40
1.0
 40
1.0
 40
1.0
 10
10.60808274902048
 20
14.67518531385663
 30
0.0
 10
10.77143994352722
 20
14.66271400222902
 30
0.0
 10
10.9539607682107
 20
14.63137977172278
 30
0.0
 10
11.25812245907612
 20
14.54691770596561
 30
0.0
 10
11.36641585866907
 20
14.51171888144388
 30
0.0
 10
11.58574352105282
 20
14.42634662926307
 30
0.0
 10
11.69715944869879
 20
14.37625545607605
 30
0.0
 10
11.92117180667887
 20
14.25483711630819
 30
0.0
 10
12.02893523597723
 20
14.18587333985281
 30
0.0
 10
12.22961030853029
 20
14.02983333564747
 30
0.0
 10
12.32267742835869
 20
13.94226901556094
 30
0.0
 10
12.48372543018653
 20
13.7541501921711
 30
0.0
 10
12.55366053916096
 20
13.65130323099261
 30
0.0
 10
12.66489321927142
 20
13.43691773984446
 30
0.0
 10
12.70717730188428
 20
13.32435113894571
 30
0.0
 10
12.76326417564933
 20
13.08988167819451
 30
0.0
 10
12.77635511926062
 20
12.97149039057748
 30
0.0
 10
12.77342672652903
 20
12.73211084337569
 30
0.0
 10
12.75684979458239
 20
12.61060743991047
 30
0.0
 10
12.69552150102995
 20
12.37773497196914
 30
0.0
 10
12.65033349294087
 20
12.26373909474826
 30
0.0
 10
12.53298957942556
 20
12.04909612932804
 30
0.0
 10
12.46214536200849
 20
11.95022400081661
 30
0.0
 10
12.29651277322139
 20
11.77143410287179
 30
0.0
 10
12.20150676240364
 20
11.692195887395
 30
0.0
 10
11.99926684334574
 20
11.56533020093841
 30
0.0
 10
11.88885801145315
 20
11.5158749716928
 30
0.0
 10
11.55399205333035
 20
11.42069275726626
 30
0.0
 10
11.3271646894812
 20
11.42871083881322
 30
0.0
 10
11.125
 20
11.48273236161756
 30
0.0
  0
SPLINE
  5
216
330
1F
100
AcDbEntity
  8
SK3
  6
SLD-Dashed
370
    18
100
AcDbSpline
210
0.0
220
0.0
230
1.0
 70
     8
 71
     3
 72
    30
 73
    26
 74
     0
 42
0.000000001
 43
0.00000001
 40
0.0
 40
0.0
 40
0.0
 40
0.0
 40
0.0624999999999997
 40
0.0624999999999997
 40
0.1249999999999995
 40
0.1249999999999995
 40
0.1562499999999993
 40
0.1562499999999993
 40
0.1874999999999992
 40
0.1874999999999992
 40
0.2187499999999991
 40
0.2187499999999991
 40
0.2499999999999989
 40
0.2499999999999989
 40
0.2812499999999988
 40
0.2812499999999988
 40
0.3124999999999987
 40
0.3124999999999987
 40
0.3437499999999986
 40
0.3437499999999986
 40
0.3749999999999984
 40
0.3749999999999984
 40
0.4374999999999994
 40
0.4374999999999994
 40
0.5000000000000003
 40
0.5000000000000003
 40
0.5000000000000003
 40
0.5000000000000003
 10
11.12499999999999
 20
11.48273236161758
 30
0.0
 10
10.92283531051877
 20
11.53675388442191
 30
0.0
 10
10.74714710048238
 20
11.63024516394926
 30
0.0
 10
10.42066988662174
 20
11.8645443472223
 30
0.0
 10
10.27375737476435
 20
12.00407384287208
 30
0.0
 10
10.07148943268484
 20
12.24177839203629
 30
0.0
 10
10.00699015299674
 20
12.3260933977068
 30
0.0
 10
9.88350995637118
 20
12.5070100717513
 30
0.0
 10
9.82426857309786
 20
12.60415729348404
 30
0.0
 10
9.715154706090344
 20
12.80934651131551
 30
0.0
 10
9.664396735733453
 20
12.91903622889807
 30
0.0
 10
9.576981863499102
 20
13.14891853741636
 30
0.0
 10
9.540303532497475
 20
13.2683126622805
 30
0.0
 10
9.487704529938005
 20
13.52080982106194
 30
0.0
 10
9.473745253197977
 20
13.64846695671306
 30
0.0
 10
9.476438089560537
 20
13.88700257856811
 30
0.0
 10
9.493197896427974
 20
13.99682053671473
 30
0.0
 10
9.549353346861192
 20
14.18374939795269
 30
0.0
 10
9.588589477847995
 20
14.2623151046244
 30
0.0
 10
9.678480018824294
 20
14.39201189392007
 30
0.0
 10
9.730204466999156
 20
14.44496665500973
 30
0.0
 10
9.89634859518443
 20
14.57471258814563
 30
0.0
 10
10.02083275682616
 20
14.62455209347291
 30
0.0
 10
10.29708420272973
 20
14.68178062150164
 30
0.0
 10
10.44472555451373
 20
14.68765662548423
 30
0.0
 10
10.60808274902048
 20
14.67518531385663
 30
0.0
  0
DIMENSION
  5
217
330
1F
100
AcDbEntity
  8
2
100
AcDbDimension
  2
_D
 10
165.1
 20
86.8206272896
 30
0.0
 11
57.6204101474
 21
86.8206272896
 31
0.0
 70
   160
  1
<>
 71
     2
 42
-1.0
  3
SLDDIMSTYLE0
100
AcDbAlignedDimension
 13
0.0
 23
34.925
 33
0.0
 14
165.1
 24
9.91
 34
0.0
100
AcDbRotatedDimension
  0
DIMENSION
  5
22C
330
1F
100
AcDbEntity
  8
SK2
100
AcDbDimension
  2
_D_1
 10
19.05
 20
72.0011862426
 30
0.0
 11
79.1830122007
 21
72.0011862426
 31
0.0
 70
   160
  1
<>
 71
     2
 42
-1.0
  3
SLDDIMSTYLE0
100
AcDbAlignedDimension
 13
165.1
 23
9.91
 33
0.0
 14
19.05
 24
46.5560855313
 34
0.0
100
AcDbRotatedDimension
  0
DIMENSION
  5
23F
330
1F
100
AcDbEntity
  8
SK2
100
AcDbDimension
  2
_D_2
 10
35.1
 20
56.4912020176
 30
0.0
 11
97.7612376679
 21
56.4912020176
 31
0.0
 70
   160
  1
<>
 71
     2
 42
-1.0
  3
SLDDIMSTYLE0
100
AcDbAlignedDimension
 13
165.1
 23
9.91
 33
0.0
 14
35.1
 24
33.401
 34
0.0
 50
0.0
100
AcDbRotatedDimension
  0
DIMENSION
  5
252
330
1F
100
AcDbEntity
  8
SK2
100
AcDbDimension
  2
_D_3
 10
88.9
 20
39.60830202
 30
0.0
 11
123.5489627733
 21
39.60830202
 31
0.0
 70
   160
  1
<>
 71
     2
 42
-1.0
  3
SLDDIMSTYLE0
100
AcDbAlignedDimension
 13
165.1
 23
9.91
 33
0.0
 14
88.9
 24
12.7
 34
0.0
100
AcDbRotatedDimension
  0
DIMENSION
  5
265
330
1F
100
AcDbEntity
  8
SK2
100
AcDbDimension
  2
_D_4
 10
165.1
 20
24.8172066548
 30
0.0
 11
155.2892319272
 21
24.8172066548
 31
0.0
 70
   160
  1
<>
 71
     2
 42
-1.0
  3
SLDDIMSTYLE0
100
AcDbAlignedDimension
 13
146.05
 23
7.98125
 33
0.0
 14
165.1
 24
9.91
 34
0.0
100
AcDbRotatedDimension
  0
DIMENSION
  5
278
330
1F
100
AcDbEntity
  8
SK2
100
AcDbDimension
  2
_D_5
 10
19.05
 20
72.0011862426
 30
0.0
 11
9.660493029
 21
72.0011862426
 31
0.0
 70
   160
  1
<>
 71
     2
 42
-1.0
  3
SLDDIMSTYLE1
100
AcDbAlignedDimension
 13
0.0
 23
34.925
 33
0.0
 14
19.05
 24
46.5560855313
 34
0.0
100
AcDbRotatedDimension
  0
DIMENSION
  5
283
330
1F
100
AcDbEntity
  8
SK2
100
AcDbDimension
  2
_D_6
 10
-122.2277532724
 20
-47.4754841997
 30
0.0
 11
-122.2277532724
 21
-3.1556774962
 31
0.0
 70
   160
  1
%%c<>
 71
     2
 42
-1.0
  3
SLDDIMSTYLE1
100
AcDbAlignedDimension
 13
3.95
 23
47.2968145978
 33
0.0
 14
3.95
 24
-47.4754841997
 34
0.0
 50
90.0
100
AcDbRotatedDimension
  0
DIMENSION
  5
28E
330
1F
100
AcDbEntity
  8
SK2
100
AcDbDimension
  2
_D_7
 10
-110.5879339481
 20
-12.6999998465
 30
0.0
 11
-110.5879339481
 21
1.2644283398
 31
0.0
 70
   160
  1
<>
 71
     2
 42
-1.0
  3
SLDDIMSTYLE1
100
AcDbAlignedDimension
 13
-94.967097044
 23
12.6999998465
 33
0.0
 14
-94.967097044
 24
-12.6999998465
 34
0.0
 50
90.0
100
AcDbRotatedDimension
  0
DIMENSION
  5
299
330
1F
100
AcDbEntity
  8
SK2
100
AcDbDimension
  2
_D_8
 10
165.1
 20
-64.8401279666
 30
0.0
 11
71.0110672351
 21
-64.8401279666
 31
0.0
 70
   160
  1
<>
 71
     2
 42
-1.0
  3
SLDDIMSTYLE0
100
AcDbAlignedDimension
 13
-101.6
 23
-18.2922326599
 33
0.0
 14
165.1
 24
-9.91
 34
0.0
 50
0.0
100
AcDbRotatedDimension
  0
DIMENSION
  5
2AC
330
1F
100
AcDbEntity
  8
SK2
100
AcDbDimension
  2
_D_9
 10
126.999565016
 20
-48.8356023658
 30
0.0
 11
143.2897753407
 21
-48.8356023658
 31
0.0
 70
   160
  1
<>
 71
     2
 42
-1.0
  3
SLDDIMSTYLE0
100
AcDbAlignedDimension
 13
165.1
 23
-9.91
 33
0.0
 14
126.999565016
 24
-4.7625
 34
0.0
100
AcDbRotatedDimension
  0
DIMENSION
  5
2BF
330
1F
100
AcDbEntity
  8
SK2
100
AcDbDimension
  2
_D_10
 10
165.1
 20
-34.4267107377
 30
0.0
 11
155.2892319272
 21
-34.4267107377
 31
0.0
 70
   160
  1
<>
 71
     2
 42
-1.0
  3
SLDDIMSTYLE2
100
AcDbAlignedDimension
 13
162.31
 23
-12.7
 33
0.0
 14
165.1
 24
-9.91
 34
0.0
100
AcDbRotatedDimension
  0
DIMENSION
  5
2CC
330
1F
100
AcDbEntity
  8
SK2
100
AcDbDimension
  2
_D_11
 10
183.3555493924
 20
-4.7625
 30
0.0
 11
183.3555493924
 21
22.8597382781
 31
0.0
 70
   160
  1
%%c<>
 71
     2
 42
-1.0
  3
SLDDIMSTYLE3
100
AcDbAlignedDimension
 13
164.35
 23
4.7625
 33
0.0
 14
164.35
 24
-4.7625
 34
0.0
 50
90.0
100
AcDbRotatedDimension
  0
DIMENSION
  5
2E1
330
1F
100
AcDbEntity
  8
SK2
100
AcDbDimension
  2
_D_12
 10
198.2330859846
 20
-9.91
 30
0.0
 11
198.2330859846
 21
0.4056784214
 31
0.0
 70
   160
  1
%%c<>
 71
     2
 42
-1.0
  3
SLDDIMSTYLE0
100
AcDbAlignedDimension
 13
165.1
 23
9.91
 33
0.0
 14
165.1
 24
-9.91
 34
0.0
 50
90.0
100
AcDbRotatedDimension
  0
DIMENSION
  5
2F3
330
1F
100
AcDbEntity
  8
SK2
100
AcDbDimension
  2
_D_13
 10
212.6973576714
 20
-12.7
 30
0.0
 11
212.6973576714
 21
0.4056784214
 31
0.0
 70
   160
  1
<>
 71
     2
 42
-1.0
  3
SLDDIMSTYLE0
100
AcDbAlignedDimension
 13
162.31
 23
12.7
 33
0.0
 14
162.31
 24
-12.7
 34
0.0
 50
90.0
100
AcDbRotatedDimension
  0
MTEXT
  5
306
330
1F
100
AcDbEntity
  8
SK6
 62
     5
100
AcDbMText
 10
-59.0128767144
 20
-35.8248055852
 30
0.0
 40
3.5
 41
0.0
 71
     1
 72
     1
  1
AA3B20-50 09 165
  7
SLDTEXTSTYLE0
 73
     1
 44
1.0
  0
MTEXT
  5
307
330
1F
100
AcDbEntity
  8
SK6
 62
     5
100
AcDbMText
 10
-65.8467520926
 20
43.0943446868
 30
0.0
 40
3.5
 41
0.0
 71
     1
 72
     1
  1
ASME B5.50 CAT 50
  7
SLDTEXTSTYLE0
 73
     1
 44
1.0
  0
ENDSEC
  0
SECTION
  2
OBJECTS
  0
DICTIONARY
  5
C
330
0
100
AcDbDictionary
281
     1
  3
ACAD_GROUP
350
D
  3
ACAD_LAYOUT
350
1A
  3
ACAD_MLINESTYLE
350
17
  3
ACAD_PLOTSETTINGS
350
19
  3
ACAD_PLOTSTYLENAME
350
E
  3
ACAD_SCALELIST
350
47
  0
DICTIONARY
  5
D
102
{ACAD_REACTORS
330
C
102
}
330
C
100
AcDbDictionary
281
     1
  0
DICTIONARY
  5
1A
102
{ACAD_REACTORS
330
C
102
}
330
C
100
AcDbDictionary
281
     1
  3
Layout1
350
1E
  3
Layout2
350
26
  3
Model
350
22
  0
DICTIONARY
  5
17
102
{ACAD_REACTORS
330
C
102
}
330
C
100
AcDbDictionary
281
     1
  3
Standard
350
18
  0
DICTIONARY
  5
19
102
{ACAD_REACTORS
330
C
102
}
330
C
100
AcDbDictionary
281
     1
  0
ACDBDICTIONARYWDFLT
  5
E
102
{ACAD_REACTORS
330
C
102
}
330
C
100
AcDbDictionary
281
     1
  3
Normal
350
F
100
AcDbDictionaryWithDefault
340
F
  0
DICTIONARY
  5
47
102
{ACAD_REACTORS
330
C
102
}
330
C
100
AcDbDictionary
281
     1
  3
A0
350
48
  3
A1
350
49
  3
A2
350
4A
  3
A3
350
4B
  3
A4
350
4C
  3
A5
350
4D
  3
A6
350
4E
  3
A7
350
4F
  3
A8
350
50
  3
A9
350
51
  3
B0
350
52
  3
B1
350
53
  3
B2
350
54
  3
B3
350
55
  3
B4
350
56
  3
B5
350
57
  3
B6
350
58
  3
B7
350
59
  3
B8
350
5A
  3
B9
350
5B
  3
C0
350
5C
  3
C1
350
5D
  3
C2
350
5E
  3
C3
350
5F
  3
C4
350
60
  3
C5
350
61
  3
C6
350
62
  3
C7
350
63
  3
C8
350
64
  3
C9
350
65
  3
D0
350
66
  3
D1
350
67
  3
D2
350
68
  0
LAYOUT
  5
1E
102
{ACAD_REACTORS
330
1A
102
}
330
1A
100
AcDbPlotSettings
  1

  2
none_device
  4

  6

 40
0.0
 41
0.0
 42
0.0
 43
0.0
 44
0.0
 45
0.0
 46
0.0
 47
0.0
 48
0.0
 49
0.0
140
0.0
141
0.0
142
1.0
143
1.0
 70
   688
 72
     1
 73
     0
 74
     5
  7

 75
    16
147
1.0
148
0.0
149
0.0
100
AcDbLayout
  1
Layout1
 70
     1
 71
     1
 10
0.0
 20
0.0
 11
420.0
 21
297.0
 12
0.0
 22
0.0
 32
0.0
 14
1.0000000000E+20
 24
1.0000000000E+20
 34
1.0000000000E+20
 15
-1.0000000000E+20
 25
-1.0000000000E+20
 35
-1.0000000000E+20
146
0.0
 13
0.0
 23
0.0
 33
0.0
 16
1.0
 26
0.0
 36
0.0
 17
0.0
 27
1.0
 37
0.0
 76
     0
330
1B
  0
LAYOUT
  5
26
102
{ACAD_REACTORS
330
1A
102
}
330
1A
100
AcDbPlotSettings
  1

  2
none_device
  4

  6

 40
0.0
 41
0.0
 42
0.0
 43
0.0
 44
0.0
 45
0.0
 46
0.0
 47
0.0
 48
0.0
 49
0.0
140
0.0
141
0.0
142
1.0
143
1.0
 70
   688
 72
     1
 73
     0
 74
     5
  7

 75
    16
147
1.0
148
0.0
149
0.0
100
AcDbLayout
  1
Layout2
 70
     1
 71
     2
 10
0.0
 20
0.0
 11
0.0
 21
0.0
 12
0.0
 22
0.0
 32
0.0
 14
0.0
 24
0.0
 34
0.0
 15
0.0
 25
0.0
 35
0.0
146
0.0
 13
0.0
 23
0.0
 33
0.0
 16
1.0
 26
0.0
 36
0.0
 17
0.0
 27
1.0
 37
0.0
 76
     0
330
23
  0
LAYOUT
  5
22
102
{ACAD_REACTORS
330
1A
102
}
330
1A
100
AcDbPlotSettings
  1

  2
none_device
  4
Letter_(8.50_x_11.00_Inches)
  6

 40
6.35
 41
6.35
 42
6.35000508
 43
6.35000508
 44
215.9
 45
279.4
 46
0.0
 47
0.0
 48
0.0
 49
0.0
140
0.0
141
0.0
142
1.0
143
1.0
 70
  1712
 72
     1
 73
     0
 74
     0
  7

 75
     0
147
1.0
148
0.0
149
0.0
100
AcDbLayout
  1
Model
 70
     1
 71
     0
 10
0.0
 20
0.0
 11
297.0
 21
210.0
 12
0.0
 22
0.0
 32
0.0
 14
0.0
 24
0.0
 34
0.0
 15
297.0
 25
210.0
 35
0.0
146
0.0
 13
0.0
 23
0.0
 33
0.0
 16
1.0
 26
0.0
 36
0.0
 17
0.0
 27
1.0
 37
0.0
 76
     0
330
1F
331
29
  0
MLINESTYLE
  5
18
102
{ACAD_REACTORS
330
17
102
}
330
17
100
AcDbMlineStyle
  2
Standard
 70
     0
  3

 62
   256
 51
90.0
 52
90.0
 71
     2
 49
0.5
 62
   256
  6
BYLAYER
 49
-0.5
 62
   256
  6
BYLAYER
  0
ACDBPLACEHOLDER
  5
F
102
{ACAD_REACTORS
330
E
102
}
330
E
  0
SCALE
  5
48
102
{ACAD_REACTORS
330
47
102
}
330
47
100
AcDbScale
 70
     0
300
1:1
140
1.0
141
1.0
290
     1
  0
SCALE
  5
49
102
{ACAD_REACTORS
330
47
102
}
330
47
100
AcDbScale
 70
     0
300
1:2
140
1.0
141
2.0
290
     0
  0
SCALE
  5
4A
102
{ACAD_REACTORS
330
47
102
}
330
47
100
AcDbScale
 70
     0
300
1:4
140
1.0
141
4.0
290
     0
  0
SCALE
  5
4B
102
{ACAD_REACTORS
330
47
102
}
330
47
100
AcDbScale
 70
     0
300
1:5
140
1.0
141
5.0
290
     0
  0
SCALE
  5
4C
102
{ACAD_REACTORS
330
47
102
}
330
47
100
AcDbScale
 70
     0
300
1:8
140
1.0
141
8.0
290
     0
  0
SCALE
  5
4D
102
{ACAD_REACTORS
330
47
102
}
330
47
100
AcDbScale
 70
     0
300
1:10
140
1.0
141
10.0
290
     0
  0
SCALE
  5
4E
102
{ACAD_REACTORS
330
47
102
}
330
47
100
AcDbScale
 70
     0
300
1:16
140
1.0
141
16.0
290
     0
  0
SCALE
  5
4F
102
{ACAD_REACTORS
330
47
102
}
330
47
100
AcDbScale
 70
     0
300
1:20
140
1.0
141
20.0
290
     0
  0
SCALE
  5
50
102
{ACAD_REACTORS
330
47
102
}
330
47
100
AcDbScale
 70
     0
300
1:30
140
1.0
141
30.0
290
     0
  0
SCALE
  5
51
102
{ACAD_REACTORS
330
47
102
}
330
47
100
AcDbScale
 70
     0
300
1:40
140
1.0
141
40.0
290
     0
  0
SCALE
  5
52
102
{ACAD_REACTORS
330
47
102
}
330
47
100
AcDbScale
 70
     0
300
1:50
140
1.0
141
50.0
290
     0
  0
SCALE
  5
53
102
{ACAD_REACTORS
330
47
102
}
330
47
100
AcDbScale
 70
     0
300
1:100
140
1.0
141
100.0
290
     0
  0
SCALE
  5
54
102
{ACAD_REACTORS
330
47
102
}
330
47
100
AcDbScale
 70
     0
300
2:1
140
2.0
141
1.0
290
     0
  0
SCALE
  5
55
102
{ACAD_REACTORS
330
47
102
}
330
47
100
AcDbScale
 70
     0
300
4:1
140
4.0
141
1.0
290
     0
  0
SCALE
  5
56
102
{ACAD_REACTORS
330
47
102
}
330
47
100
AcDbScale
 70
     0
300
8:1
140
8.0
141
1.0
290
     0
  0
SCALE
  5
57
102
{ACAD_REACTORS
330
47
102
}
330
47
100
AcDbScale
 70
     0
300
10:1
140
10.0
141
1.0
290
     0
  0
SCALE
  5
58
102
{ACAD_REACTORS
330
47
102
}
330
47
100
AcDbScale
 70
     0
300
100:1
140
100.0
141
1.0
290
     0
  0
SCALE
  5
59
102
{ACAD_REACTORS
330
47
102
}
330
47
100
AcDbScale
 70
     0
300
1/128" = 1'-0"
140
0.0078125
141
12.0
290
     0
  0
SCALE
  5
5A
102
{ACAD_REACTORS
330
47
102
}
330
47
100
AcDbScale
 70
     0
300
1/64" = 1'-0"
140
0.015625
141
12.0
290
     0
  0
SCALE
  5
5B
102
{ACAD_REACTORS
330
47
102
}
330
47
100
AcDbScale
 70
     0
300
1/32" = 1'-0"
140
0.03125
141
12.0
290
     0
  0
SCALE
  5
5C
102
{ACAD_REACTORS
330
47
102
}
330
47
100
AcDbScale
 70
     0
300
1/16" = 1'-0"
140
0.0625
141
12.0
290
     0
  0
SCALE
  5
5D
102
{ACAD_REACTORS
330
47
102
}
330
47
100
AcDbScale
 70
     0
300
3/32" = 1'-0"
140
0.09375
141
12.0
290
     0
  0
SCALE
  5
5E
102
{ACAD_REACTORS
330
47
102
}
330
47
100
AcDbScale
 70
     0
300
1/8" = 1'-0"
140
0.125
141
12.0
290
     0
  0
SCALE
  5
5F
102
{ACAD_REACTORS
330
47
102
}
330
47
100
AcDbScale
 70
     0
300
3/16" = 1'-0"
140
0.1875
141
12.0
290
     0
  0
SCALE
  5
60
102
{ACAD_REACTORS
330
47
102
}
330
47
100
AcDbScale
 70
     0
300
1/4" = 1'-0"
140
0.25
141
12.0
290
     0
  0
SCALE
  5
61
102
{ACAD_REACTORS
330
47
102
}
330
47
100
AcDbScale
 70
     0
300
3/8" = 1'-0"
140
0.375
141
12.0
290
     0
  0
SCALE
  5
62
102
{ACAD_REACTORS
330
47
102
}
330
47
100
AcDbScale
 70
     0
300
1/2" = 1'-0"
140
0.5
141
12.0
290
     0
  0
SCALE
  5
63
102
{ACAD_REACTORS
330
47
102
}
330
47
100
AcDbScale
 70
     0
300
3/4" = 1'-0"
140
0.75
141
12.0
290
     0
  0
SCALE
  5
64
102
{ACAD_REACTORS
330
47
102
}
330
47
100
AcDbScale
 70
     0
300
1" = 1'-0"
140
1.0
141
12.0
290
     0
  0
SCALE
  5
65
102
{ACAD_REACTORS
330
47
102
}
330
47
100
AcDbScale
 70
     0
300
1-1/2" = 1'-0"
140
1.5
141
12.0
290
     0
  0
SCALE
  5
66
102
{ACAD_REACTORS
330
47
102
}
330
47
100
AcDbScale
 70
     0
300
3" = 1'-0"
140
3.0
141
12.0
290
     0
  0
SCALE
  5
67
102
{ACAD_REACTORS
330
47
102
}
330
47
100
AcDbScale
 70
     0
300
6" = 1'-0"
140
6.0
141
12.0
290
     0
  0
SCALE
  5
68
102
{ACAD_REACTORS
330
47
102
}
330
47
100
AcDbScale
 70
     0
300
1'-0" = 1'-0"
140
12.0
141
12.0
290
     0
  0
ENDSEC
  0
EOF
