  0
SECTION
  2
HEADER
  9
$ACADVER
  1
AC1015
  9
$ACADMAINTVER
 70
     6
  9
$DWGCODEPAGE
  3
ANSI_1250
  9
$INSBASE
 10
0.0
 20
0.0
 30
0.0
  9
$EXTMIN
 10
0.0
 20
0.0
 30
0.0
  9
$EXTMAX
 10
297.0
 20
210.0
 30
0.0
  9
$LIMMIN
 10
0.0
 20
0.0
  9
$LIMMAX
 10
297.0
 20
210.0
  9
$ORTHOMODE
 70
     0
  9
$REGENMODE
 70
     1
  9
$FILLMODE
 70
     1
  9
$QTEXTMODE
 70
     0
  9
$MIRRTEXT
 70
     1
  9
$LTSCALE
 40
1.0
  9
$ATTMODE
 70
     1
  9
$TEXTSIZE
 40
3.5
  9
$TRACEWID
 40
1.0
  9
$TEXTSTYLE
  7
Standard
  9
$CLAYER
  8
0
  9
$CELTYPE
  6
ByLayer
  9
$CECOLOR
 62
   256
  9
$CELTSCALE
 40
1.0
  9
$DISPSILH
 70
     0
  9
$DIMSCALE
 40
1.0
  9
$DIMASZ
 40
3.302
  9
$DIMEXO
 40
1.0
  9
$DIMDLI
 40
3.75
  9
$DIMRND
 40
0.0
  9
$DIMDLE
 40
0.0
  9
$DIMEXE
 40
1.0
  9
$DIMTP
 40
0.0
  9
$DIMTM
 40
0.0
  9
$DIMTXT
 40
3.5
  9
$DIMCEN
 40
2.5
  9
$DIMTSZ
 40
0.0
  9
$DIMTOL
 70
     0
  9
$DIMLIM
 70
     0
  9
$DIMTIH
 70
     1
  9
$DIMTOH
 70
     1
  9
$DIMSE1
 70
     0
  9
$DIMSE2
 70
     0
  9
$DIMTAD
 70
     1
  9
$DIMZIN
 70
     0
  9
$DIMBLK
  1

  9
$DIMASO
 70
     1
  9
$DIMSHO
 70
     1
  9
$DIMPOST
  1

  9
$DIMAPOST
  1

  9
$DIMALT
 70
     0
  9
$DIMALTD
 70
     3
  9
$DIMALTF
 40
0.0393700787
  9
$DIMLFAC
 40
1.0
  9
$DIMTOFL
 70
     1
  9
$DIMTVP
 40
0.0
  9
$DIMTIX
 70
     0
  9
$DIMSOXD
 70
     0
  9
$DIMSAH
 70
     0
  9
$DIMBLK1
  1

  9
$DIMBLK2
  1

  9
$DIMSTYLE
  2
ISO-25
  9
$DIMCLRD
 70
     0
  9
$DIMCLRE
 70
     0
  9
$DIMCLRT
 70
     0
  9
$DIMTFAC
 40
1.0
  9
$DIMGAP
 40
1.524
  9
$DIMJUST
 70
     0
  9
$DIMSD1
 70
     0
  9
$DIMSD2
 70
     0
  9
$DIMTOLJ
 70
     0
  9
$DIMTZIN
 70
     0
  9
$DIMALTZ
 70
     0
  9
$DIMALTTZ
 70
     0
  9
$DIMUPT
 70
     0
  9
$DIMDEC
 70
     2
  9
$DIMTDEC
 70
     2
  9
$DIMALTU
 70
     2
  9
$DIMALTTD
 70
     3
  9
$DIMTXSTY
  7
Standard
  9
$DIMAUNIT
 70
     0
  9
$DIMADEC
 70
     2
  9
$DIMALTRND
 40
0.0
  9
$DIMAZIN
 70
     0
  9
$DIMDSEP
 70
    44
  9
$DIMATFIT
 70
     3
  9
$DIMFRAC
 70
     0
  9
$DIMLDRBLK
  1

  9
$DIMLUNIT
 70
     2
  9
$DIMLWD
 70
    -2
  9
$DIMLWE
 70
    -2
  9
$DIMTMOVE
 70
     0
  9
$LUNITS
 70
     2
  9
$LUPREC
 70
     2
  9
$SKETCHINC
 40
1.0
  9
$FILLETRAD
 40
10.0
  9
$AUNITS
 70
     0
  9
$AUPREC
 70
     2
  9
$MENU
  1
.
  9
$ELEVATION
 40
0.0
  9
$PELEVATION
 40
0.0
  9
$THICKNESS
 40
0.0
  9
$LIMCHECK
 70
     0
  9
$CHAMFERA
 40
0.0
  9
$CHAMFERB
 40
0.0
  9
$CHAMFERC
 40
0.0
  9
$CHAMFERD
 40
0.0
  9
$SKPOLY
 70
     0
  9
$TDCREATE
 40
2459278.313410683
  9
$TDUCREATE
 40
2459278.271744016
  9
$TDUPDATE
 40
2459278.313412407
  9
$TDUUPDATE
 40
2459278.271745741
  9
$TDINDWG
 40
0.0000000116
  9
$TDUSRTIMER
 40
0.0000000116
  9
$USRTIMER
 70
     1
  9
$ANGBASE
 50
0.0
  9
$ANGDIR
 70
     0
  9
$PDMODE
 70
     0
  9
$PDSIZE
 40
-1.0
  9
$PLINEWID
 40
0.0
  9
$SPLFRAME
 70
     0
  9
$SPLINETYPE
 70
     6
  9
$SPLINESEGS
 70
     8
  9
$HANDSEED
  5
313
  9
$SURFTAB1
 70
     6
  9
$SURFTAB2
 70
     6
  9
$SURFTYPE
 70
     6
  9
$SURFU
 70
     6
  9
$SURFV
 70
     6
  9
$UCSBASE
  2

  9
$UCSNAME
  2

  9
$UCSORG
 10
0.0
 20
0.0
 30
0.0
  9
$UCSXDIR
 10
1.0
 20
0.0
 30
0.0
  9
$UCSYDIR
 10
0.0
 20
1.0
 30
0.0
  9
$UCSORTHOREF
  2

  9
$UCSORTHOVIEW
 70
     0
  9
$UCSORGTOP
 10
0.0
 20
0.0
 30
0.0
  9
$UCSORGBOTTOM
 10
0.0
 20
0.0
 30
0.0
  9
$UCSORGLEFT
 10
0.0
 20
0.0
 30
0.0
  9
$UCSORGRIGHT
 10
0.0
 20
0.0
 30
0.0
  9
$UCSORGFRONT
 10
0.0
 20
0.0
 30
0.0
  9
$UCSORGBACK
 10
0.0
 20
0.0
 30
0.0
  9
$PUCSBASE
  2

  9
$PUCSNAME
  2

  9
$PUCSORG
 10
0.0
 20
0.0
 30
0.0
  9
$PUCSXDIR
 10
1.0
 20
0.0
 30
0.0
  9
$PUCSYDIR
 10
0.0
 20
1.0
 30
0.0
  9
$PUCSORTHOREF
  2

  9
$PUCSORTHOVIEW
 70
     0
  9
$PUCSORGTOP
 10
0.0
 20
0.0
 30
0.0
  9
$PUCSORGBOTTOM
 10
0.0
 20
0.0
 30
0.0
  9
$PUCSORGLEFT
 10
0.0
 20
0.0
 30
0.0
  9
$PUCSORGRIGHT
 10
0.0
 20
0.0
 30
0.0
  9
$PUCSORGFRONT
 10
0.0
 20
0.0
 30
0.0
  9
$PUCSORGBACK
 10
0.0
 20
0.0
 30
0.0
  9
$USERI1
 70
     0
  9
$USERI2
 70
     0
  9
$USERI3
 70
     0
  9
$USERI4
 70
     0
  9
$USERI5
 70
     0
  9
$USERR1
 40
0.0
  9
$USERR2
 40
0.0
  9
$USERR3
 40
0.0
  9
$USERR4
 40
0.0
  9
$USERR5
 40
0.0
  9
$WORLDVIEW
 70
     1
  9
$SHADEDGE
 70
     3
  9
$SHADEDIF
 70
    70
  9
$TILEMODE
 70
     1
  9
$MAXACTVP
 70
    64
  9
$PINSBASE
 10
0.0
 20
0.0
 30
0.0
  9
$PLIMCHECK
 70
     0
  9
$PEXTMIN
 10
1.0000000000E+20
 20
1.0000000000E+20
 30
1.0000000000E+20
  9
$PEXTMAX
 10
-1.0000000000E+20
 20
-1.0000000000E+20
 30
-1.0000000000E+20
  9
$PLIMMIN
 10
0.0
 20
0.0
  9
$PLIMMAX
 10
420.0
 20
297.0
  9
$UNITMODE
 70
     0
  9
$VISRETAIN
 70
     1
  9
$PLINEGEN
 70
     0
  9
$PSLTSCALE
 70
     1
  9
$TREEDEPTH
 70
  3020
  9
$CMLSTYLE
  2
Standard
  9
$CMLJUST
 70
     0
  9
$CMLSCALE
 40
20.0
  9
$PROXYGRAPHICS
 70
     1
  9
$MEASUREMENT
 70
     1
  9
$CELWEIGHT
370
    -1
  9
$ENDCAPS
280
     0
  9
$JOINSTYLE
280
     0
  9
$LWDISPLAY
290
     1
  9
$INSUNITS
 70
     4
  9
$HYPERLINKBASE
  1

  9
$STYLESHEET
  1

  9
$XEDIT
290
     1
  9
$CEPSNTYPE
380
     0
  9
$PSTYLEMODE
290
     1
  9
$FINGERPRINTGUID
  2
{AEED8688-4665-4AF2-A790-E2A6BF91576A}
  9
$VERSIONGUID
  2
{FAEB1C32-E019-11D5-929B-00C0DF256EC4}
  9
$EXTNAMES
290
     1
  9
$PSVPSCALE
 40
0.0
  9
$OLESTARTUP
290
     0
  0
ENDSEC
  0
SECTION
  2
CLASSES
  0
CLASS
  1
ACDBDICTIONARYWDFLT
  2
AcDbDictionaryWithDefault
  3
ObjectDBX Classes
 90
        0
280
     0
281
     0
  0
CLASS
  1
VISUALSTYLE
  2
AcDbVisualStyle
  3
ObjectDBX Classes
 90
     4095
280
     0
281
     0
  0
CLASS
  1
MATERIAL
  2
AcDbMaterial
  3
ObjectDBX Classes
 90
     1153
280
     0
281
     0
  0
CLASS
  1
SCALE
  2
AcDbScale
  3
ObjectDBX Classes
 90
     1153
280
     0
281
     0
  0
CLASS
  1
TABLESTYLE
  2
AcDbTableStyle
  3
ObjectDBX Classes
 90
     4095
280
     0
281
     0
  0
CLASS
  1
MLEADERSTYLE
  2
AcDbMLeaderStyle
  3
ACDB_MLEADERSTYLE_CLASS
 90
     4095
280
     0
281
     0
  0
CLASS
  1
SUN
  2
AcDbSun
  3
SCENEOE
 90
     1153
280
     0
281
     0
  0
CLASS
  1
ACDBPLACEHOLDER
  2
AcDbPlaceHolder
  3
ObjectDBX Classes
 90
        0
280
     0
281
     0
  0
CLASS
  1
LAYOUT
  2
AcDbLayout
  3
ObjectDBX Classes
 90
        0
280
     0
281
     0
  0
ENDSEC
  0
SECTION
  2
TABLES
  0
TABLE
  2
VPORT
  5
8
330
0
100
AcDbSymbolTable
 70
     1
  0
VPORT
  5
29
330
8
100
AcDbSymbolTableRecord
100
AcDbViewportTableRecord
  2
*Active
 70
     0
 10
0.0
 20
0.0
 11
1.0
 21
1.0
 12
148.5
 22
105.0
 13
0.0
 23
0.0
 14
10.0
 24
10.0
 15
10.0
 25
10.0
 16
0.0
 26
0.0
 36
1.0
 17
0.0
 27
0.0
 37
0.0
 40
210.0
 41
1.4142857143
 42
50.0
 43
0.0
 44
0.0
 50
0.0
 51
0.0
 71
     0
 72
  2000
 73
     1
 74
     3
 75
     0
 76
     0
 77
     0
 78
     0
281
     0
 65
     1
110
0.0
120
0.0
130
0.0
111
1.0
121
0.0
131
0.0
112
0.0
122
1.0
132
0.0
 79
     0
146
0.0
  0
ENDTAB
  0
TABLE
  2
LTYPE
  5
5
330
0
100
AcDbSymbolTable
 70
     8
  0
LTYPE
  5
14
330
5
100
AcDbSymbolTableRecord
100
AcDbLinetypeTableRecord
  2
ByBlock
 70
     0
  3

 72
    65
 73
     0
 40
0.0
  0
LTYPE
  5
15
330
5
100
AcDbSymbolTableRecord
100
AcDbLinetypeTableRecord
  2
ByLayer
 70
     0
  3

 72
    65
 73
     0
 40
0.0
  0
LTYPE
  5
16
330
5
100
AcDbSymbolTableRecord
100
AcDbLinetypeTableRecord
  2
Continuous
 70
     0
  3
Solid line
 72
    65
 73
     0
 40
0.0
  0
LTYPE
  5
6E
330
5
100
AcDbSymbolTableRecord
100
AcDbLinetypeTableRecord
  2
SLD-Solid
 70
     0
  3
SolidWorks Line Style
 72
    65
 73
     0
 40
0.0
  0
LTYPE
  5
6F
330
5
100
AcDbSymbolTableRecord
100
AcDbLinetypeTableRecord
  2
SLD-Dashed
 70
     0
  3
SolidWorks Line Style
 72
    65
 73
     2
 40
1.905
 49
1.27
 74
     0
 49
-0.635
 74
     0
  0
LTYPE
  5
70
330
5
100
AcDbSymbolTableRecord
100
AcDbLinetypeTableRecord
  2
SLD-Phantom
 70
     0
  3
SolidWorks Line Style
 72
    65
 73
     6
 40
12.7
 49
6.35
 74
     0
 49
-1.27
 74
     0
 49
1.27
 74
     0
 49
-1.27
 74
     0
 49
1.27
 74
     0
 49
-1.27
 74
     0
  0
LTYPE
  5
71
330
5
100
AcDbSymbolTableRecord
100
AcDbLinetypeTableRecord
  2
SLD-Chain
 70
     0
  3
SolidWorks Line Style
 72
    65
 73
     4
 40
10.16
 49
6.35
 74
     0
 49
-1.27
 74
     0
 49
1.27
 74
     0
 49
-1.27
 74
     0
  0
LTYPE
  5
72
330
5
100
AcDbSymbolTableRecord
100
AcDbLinetypeTableRecord
  2
SLD-Center
 70
     0
  3
SolidWorks Line Style
 72
    65
 73
     4
 40
19.05
 49
15.24
 74
     0
 49
-1.27
 74
     0
 49
1.27
 74
     0
 49
-1.27
 74
     0
  0
LTYPE
  5
73
330
5
100
AcDbSymbolTableRecord
100
AcDbLinetypeTableRecord
  2
SLD-Stitch
 70
     0
  3
SolidWorks Line Style
 72
    65
 73
     2
 40
0.635
 49
0.0
 74
     0
 49
-0.635
 74
     0
  0
LTYPE
  5
74
330
5
100
AcDbSymbolTableRecord
100
AcDbLinetypeTableRecord
  2
SLD-Thin-Thick-Chain
 70
     0
  3
SolidWorks Line Style
 72
    65
 73
     4
 40
10.16
 49
6.35
 74
     0
 49
-1.27
 74
     0
 49
1.27
 74
     0
 49
-1.27
 74
     0
  0
ENDTAB
  0
TABLE
  2
LAYER
  5
2
330
0
100
AcDbSymbolTable
 70
    14
  0
LAYER
  5
10
330
2
100
AcDbSymbolTableRecord
100
AcDbLayerTableRecord
  2
0
 70
     0
 62
     7
  6
Continuous
370
    -3
390
F
  0
LAYER
  5
75
330
2
100
AcDbSymbolTableRecord
100
AcDbLayerTableRecord
  2
SLD-0
 70
     0
 62
   179
  6
SLD-Solid
370
    -3
390
F
  0
LAYER
  5
76
330
2
100
AcDbSymbolTableRecord
100
AcDbLayerTableRecord
  2
80
 70
     0
 62
    -6
  6
SLD-Solid
290
     0
370
    -3
390
F
  0
LAYER
  5
77
330
2
100
AcDbSymbolTableRecord
100
AcDbLayerTableRecord
  2
81
 70
     0
 62
    -3
  6
SLD-Solid
290
     0
370
    -3
390
F
  0
LAYER
  5
78
330
2
100
AcDbSymbolTableRecord
100
AcDbLayerTableRecord
  2
1
 70
     0
 62
     4
  6
SLD-Solid
290
     0
370
    -3
390
F
  0
LAYER
  5
79
330
2
100
AcDbSymbolTableRecord
100
AcDbLayerTableRecord
  2
4
 70
     0
 62
    -2
  6
SLD-Chain
290
     0
370
    -3
390
F
  0
LAYER
  5
7A
330
2
100
AcDbSymbolTableRecord
100
AcDbLayerTableRecord
  2
2
 70
     0
 62
     7
  6
SLD-Solid
290
     0
370
    -3
390
F
  0
LAYER
  5
7B
330
2
100
AcDbSymbolTableRecord
100
AcDbLayerTableRecord
  2
SK3
 70
     0
 62
     1
  6
SLD-Dashed
290
     0
370
    -3
390
F
  0
LAYER
  5
7C
330
2
100
AcDbSymbolTableRecord
100
AcDbLayerTableRecord
  2
SK4
 70
     0
 62
     2
  6
SLD-Chain
290
     0
370
    -3
390
F
  0
LAYER
  5
7D
330
2
100
AcDbSymbolTableRecord
100
AcDbLayerTableRecord
  2
SK2
 70
     0
 62
     7
  6
SLD-Solid
290
     0
370
    -3
390
F
  0
LAYER
  5
7E
330
2
100
AcDbSymbolTableRecord
100
AcDbLayerTableRecord
  2
SK6
 70
     0
 62
     5
  6
SLD-Solid
290
     0
370
    -3
390
F
  0
LAYER
  5
7F
330
2
100
AcDbSymbolTableRecord
100
AcDbLayerTableRecord
  2
6
 70
     0
 62
     5
  6
SLD-Solid
370
    -3
390
F
  0
LAYER
  5
80
330
2
100
AcDbSymbolTableRecord
100
AcDbLayerTableRecord
  2
SK1
 70
     0
 62
     4
  6
SLD-Solid
370
    -3
390
F
  0
LAYER
  5
81
330
2
100
AcDbSymbolTableRecord
100
AcDbLayerTableRecord
  2
LAYER5
 70
     0
 62
   218
  6
SLD-Solid
370
    -3
390
F
  0
ENDTAB
  0
TABLE
  2
STYLE
  5
3
330
0
100
AcDbSymbolTable
 70
     3
  0
STYLE
  5
11
330
3
100
AcDbSymbolTableRecord
100
AcDbTextStyleTableRecord
  2
Standard
 70
     0
 40
0.0
 41
1.0
 50
0.0
 71
     0
 42
3.5
  3
txt
  4

  0
STYLE
  5
248
330
3
100
AcDbSymbolTableRecord
100
AcDbTextStyleTableRecord
  2
SLDTEXTSTYLE0
 70
     0
 40
0.0
 41
0.75
 50
0.0
 71
     0
 42
3.5
  3
TXT
  4

  0
STYLE
  5
30F
330
3
100
AcDbSymbolTableRecord
100
AcDbTextStyleTableRecord
  2
SLDTEXTSTYLE1
 70
     0
 40
0.0
 41
0.6875
 50
0.0
 71
     0
 42
3.5
  3
TXT
  4

  0
ENDTAB
  0
TABLE
  2
VIEW
  5
6
330
0
100
AcDbSymbolTable
 70
     0
  0
ENDTAB
  0
TABLE
  2
UCS
  5
7
330
0
100
AcDbSymbolTable
 70
     0
  0
ENDTAB
  0
TABLE
  2
APPID
  5
9
330
0
100
AcDbSymbolTable
 70
     1
  0
APPID
  5
12
330
9
100
AcDbSymbolTableRecord
100
AcDbRegAppTableRecord
  2
ACAD
 70
     0
  0
ENDTAB
  0
TABLE
  2
DIMSTYLE
  5
A
330
0
100
AcDbSymbolTable
 70
     7
100
AcDbDimStyleTable
  0
DIMSTYLE
105
27
330
A
100
AcDbSymbolTableRecord
100
AcDbDimStyleTableRecord
  2
ISO-25
 70
     0
 41
2.5
 42
0.625
 43
3.75
 44
1.25
 73
     0
 74
     0
 77
     1
 78
     8
140
2.5
141
2.5
143
0.0393700787
147
0.625
171
     3
172
     1
178
     0
271
     2
272
     2
274
     3
278
    44
283
     0
284
     8
340
11
  0
DIMSTYLE
105
249
102
{ACAD_REACTORS
330
247
330
28E
102
}
330
A
100
AcDbSymbolTableRecord
100
AcDbDimStyleTableRecord
  2
SLDDIMSTYLE0
 70
     0
 41
3.302
 44
0.0
 45
0.000000001
 73
     0
 74
     0
 77
     1
 78
    12
 79
     3
140
3.5
143
0.0393700787
147
0.875
148
0.000000001
170
     1
173
     1
178
     0
271
     3
272
     2
276
     2
284
    12
340
248
  0
DIMSTYLE
105
25D
102
{ACAD_REACTORS
330
25C
330
27B
330
2A0
330
2B2
330
2D8
102
}
330
A
100
AcDbSymbolTableRecord
100
AcDbDimStyleTableRecord
  2
SLDDIMSTYLE1
 70
     0
 41
3.302
 44
0.0
 45
0.000000001
 73
     0
 74
     0
 77
     1
 78
    12
 79
     3
140
3.5
143
0.0393700787
147
0.875
148
0.000000001
170
     1
173
     1
178
     0
271
     2
272
     2
276
     2
284
    12
340
248
  0
DIMSTYLE
105
271
102
{ACAD_REACTORS
330
270
330
2F8
102
}
330
A
100
AcDbSymbolTableRecord
100
AcDbDimStyleTableRecord
  2
SLDDIMSTYLE2
 70
     0
 41
3.302
 44
0.0
 45
0.000000001
 73
     0
 74
     0
 77
     1
 78
    12
 79
     3
140
3.5
147
0.875
173
     1
178
     0
271
     2
272
     2
276
     2
284
    12
340
248
  0
DIMSTYLE
105
2C5
102
{ACAD_REACTORS
330
2C4
102
}
330
A
100
AcDbSymbolTableRecord
100
AcDbDimStyleTableRecord
  2
SLDDIMSTYLE3
 70
     0
 41
3.302
 44
0.0
 45
0.000000001
 73
     0
 74
     0
 77
     1
 78
    12
 79
     3
140
3.5
143
0.0393700787
147
0.875
148
0.000000001
170
     1
171
     3
173
     1
178
     0
271
     3
272
     2
274
     3
276
     2
284
    12
340
248
  0
DIMSTYLE
105
2EC
102
{ACAD_REACTORS
330
2EB
102
}
330
A
100
AcDbSymbolTableRecord
100
AcDbDimStyleTableRecord
  2
SLDDIMSTYLE4
 70
     0
 41
3.302
 44
0.0
 45
0.000000001
 73
     0
 74
     0
 77
     1
 78
    12
 79
     3
140
3.5
147
0.875
172
     1
173
     1
178
     0
271
     2
272
     2
276
     2
284
    12
289
     0
340
248
  0
DIMSTYLE
105
304
102
{ACAD_REACTORS
330
303
102
}
330
A
100
AcDbSymbolTableRecord
100
AcDbDimStyleTableRecord
  2
SLDDIMSTYLE5
 70
     0
 41
3.302
 44
0.0
 45
0.000000001
 73
     0
 74
     0
 77
     1
 78
    12
 79
     3
140
3.5
147
0.875
172
     1
173
     1
178
     0
271
     6
272
     2
276
     2
284
    12
289
     0
340
248
  0
ENDTAB
  0
TABLE
  2
BLOCK_RECORD
  5
1
330
0
100
AcDbSymbolTable
 70
    13
  0
BLOCK_RECORD
  5
1F
330
1
100
AcDbSymbolTableRecord
100
AcDbBlockTableRecord
  2
*Model_Space
340
22
  0
BLOCK_RECORD
  5
1B
330
1
100
AcDbSymbolTableRecord
100
AcDbBlockTableRecord
  2
*Paper_Space
340
1E
  0
BLOCK_RECORD
  5
23
330
1
100
AcDbSymbolTableRecord
100
AcDbBlockTableRecord
  2
*Paper_Space0
340
26
  0
BLOCK_RECORD
  5
24A
330
1
100
AcDbSymbolTableRecord
100
AcDbBlockTableRecord
  2
_D
340
0
  0
BLOCK_RECORD
  5
25E
330
1
100
AcDbSymbolTableRecord
100
AcDbBlockTableRecord
  2
_D_1
340
0
  0
BLOCK_RECORD
  5
272
330
1
100
AcDbSymbolTableRecord
100
AcDbBlockTableRecord
  2
_D_2
340
0
  0
BLOCK_RECORD
  5
27C
330
1
100
AcDbSymbolTableRecord
100
AcDbBlockTableRecord
  2
_D_3
340
0
  0
BLOCK_RECORD
  5
28F
330
1
100
AcDbSymbolTableRecord
100
AcDbBlockTableRecord
  2
_D_4
340
0
  0
BLOCK_RECORD
  5
2A1
330
1
100
AcDbSymbolTableRecord
100
AcDbBlockTableRecord
  2
_D_5
340
0
  0
BLOCK_RECORD
  5
2B3
330
1
100
AcDbSymbolTableRecord
100
AcDbBlockTableRecord
  2
_D_6
340
0
  0
BLOCK_RECORD
  5
2C6
330
1
100
AcDbSymbolTableRecord
100
AcDbBlockTableRecord
  2
_D_7
340
0
  0
BLOCK_RECORD
  5
2D9
330
1
100
AcDbSymbolTableRecord
100
AcDbBlockTableRecord
  2
_D_8
340
0
  0
BLOCK_RECORD
  5
2ED
330
1
100
AcDbSymbolTableRecord
100
AcDbBlockTableRecord
  2
_D_9
340
0
  0
BLOCK_RECORD
  5
2F9
330
1
100
AcDbSymbolTableRecord
100
AcDbBlockTableRecord
  2
_D_10
340
0
  0
BLOCK_RECORD
  5
305
330
1
100
AcDbSymbolTableRecord
100
AcDbBlockTableRecord
  2
_D_11
340
0
  0
ENDTAB
  0
ENDSEC
  0
SECTION
  2
BLOCKS
  0
BLOCK
  5
20
330
1F
100
AcDbEntity
  8
0
100
AcDbBlockBegin
  2
*Model_Space
 70
     0
 10
0.0
 20
0.0
 30
0.0
  3
*Model_Space
  1

  0
ENDBLK
  5
21
330
1F
100
AcDbEntity
  8
0
100
AcDbBlockEnd
  0
BLOCK
  5
1C
330
1B
100
AcDbEntity
 67
     1
  8
0
100
AcDbBlockBegin
  2
*Paper_Space
 70
     0
 10
0.0
 20
0.0
 30
0.0
  3
*Paper_Space
  1

  0
ENDBLK
  5
1D
330
1B
100
AcDbEntity
 67
     1
  8
0
100
AcDbBlockEnd
  0
BLOCK
  5
24
330
23
100
AcDbEntity
  8
0
100
AcDbBlockBegin
  2
*Paper_Space0
 70
     0
 10
0.0
 20
0.0
 30
0.0
  3
*Paper_Space0
  1

  0
ENDBLK
  5
25
330
23
100
AcDbEntity
  8
0
100
AcDbBlockEnd
  0
BLOCK
  5
24B
330
24A
100
AcDbEntity
  8
0
100
AcDbBlockBegin
  2
_D
 70
     0
 10
0.0
 20
0.0
 30
0.0
  3
_D
  1

  0
SOLID
  5
24D
330
24A
100
AcDbEntity
  8
2
100
AcDbTrace
 10
0.0
 20
59.7721467203
 30
0.0
 11
3.302
 21
59.2641467203
 31
0.0
 12
3.302
 22
60.2801467203
 32
0.0
 13
3.302
 23
60.2801467203
 33
0.0
  0
SOLID
  5
24E
330
24A
100
AcDbEntity
  8
2
100
AcDbTrace
 10
88.9
 20
59.7721467203
 30
0.0
 11
85.598
 21
60.2801467203
 31
0.0
 12
85.598
 22
59.2641467203
 32
0.0
 13
85.598
 23
59.2641467203
 33
0.0
  0
LINE
  5
24F
330
24A
100
AcDbEntity
  8
2
100
AcDbLine
 10
29.9545120869
 20
70.5650284364
 30
0.0
 11
28.8881058294
 21
70.5650284364
 31
0.0
  0
LINE
  5
250
330
24A
100
AcDbEntity
  8
2
100
AcDbLine
 10
28.8881058294
 20
70.5650284364
 30
0.0
 11
28.8881058294
 21
65.0087784453
 31
0.0
  0
LINE
  5
251
330
24A
100
AcDbEntity
  8
2
100
AcDbLine
 10
28.8881058294
 20
65.0087784453
 30
0.0
 11
29.9545120869
 21
65.0087784453
 31
0.0
  0
LINE
  5
252
330
24A
100
AcDbEntity
  8
2
100
AcDbLine
 10
39.0059011478
 20
70.5650284364
 30
0.0
 11
40.0723074052
 21
70.5650284364
 31
0.0
  0
LINE
  5
253
330
24A
100
AcDbEntity
  8
2
100
AcDbLine
 10
40.0723074052
 20
70.5650284364
 30
0.0
 11
40.0723074052
 21
65.0087784453
 31
0.0
  0
LINE
  5
254
330
24A
100
AcDbEntity
  8
2
100
AcDbLine
 10
40.0723074052
 20
65.0087784453
 30
0.0
 11
39.0059011478
 21
65.0087784453
 31
0.0
  0
LINE
  5
255
330
24A
100
AcDbEntity
  8
2
100
AcDbLine
 10
0.0
 20
23.225
 30
0.0
 11
0.0
 21
60.7721467203
 31
0.0
  0
LINE
  5
256
330
24A
100
AcDbEntity
  8
2
100
AcDbLine
 10
88.9
 20
15.605
 30
0.0
 11
88.9
 21
60.7721467203
 31
0.0
  0
LINE
  5
257
330
24A
100
AcDbEntity
  8
2
100
AcDbLine
 10
0.0
 20
59.7721467203
 30
0.0
 11
88.9
 21
59.7721467203
 31
0.0
  0
MTEXT
  5
258
330
24A
100
AcDbEntity
  8
2
100
AcDbMText
 10
27.8411439752
 20
64.3373559862
 30
0.0
 40
3.5
 41
0.0
 71
     1
 72
     1
  1

  7
SLDTEXTSTYLE0
 73
     1
 44
1.0
  0
MTEXT
  5
259
330
24A
100
AcDbEntity
  8
2
100
AcDbMText
 10
29.9545120869
 20
69.5205153599
 30
0.0
 40
3.5
 41
0.0
 71
     1
 72
     1
  1
3,50
  7
SLDTEXTSTYLE0
 73
     1
 44
1.0
  0
MTEXT
  5
25A
330
24A
100
AcDbEntity
  8
2
100
AcDbMText
 10
29.9545120869
 20
64.2838838095
 30
0.0
 40
3.5
 41
0.0
 71
     1
 72
     1
  1
88,9
  7
SLDTEXTSTYLE0
 73
     1
 44
1.0
  0
MTEXT
  5
25B
330
24A
100
AcDbEntity
  8
2
100
AcDbMText
 10
42.4512137791
 20
64.3373559862
 30
0.0
 40
3.5
 41
0.0
 71
     1
 72
     1
  1

  7
SLDTEXTSTYLE0
 73
     1
 44
1.0
  0
ENDBLK
  5
24C
330
24A
100
AcDbEntity
  8
0
100
AcDbBlockEnd
  0
BLOCK
  5
25F
330
25E
100
AcDbEntity
  8
0
100
AcDbBlockBegin
  2
_D_1
 70
     0
 10
0.0
 20
0.0
 30
0.0
  3
_D_1
  1

  0
SOLID
  5
261
330
25E
100
AcDbEntity
  8
SK2
100
AcDbTrace
 10
19.05
 20
44.9393167958
 30
0.0
 11
22.352
 21
44.4313167958
 31
0.0
 12
22.352
 22
45.4473167958
 32
0.0
 13
22.352
 23
45.4473167958
 33
0.0
  0
SOLID
  5
262
330
25E
100
AcDbEntity
  8
SK2
100
AcDbTrace
 10
88.9
 20
44.9393167958
 30
0.0
 11
85.598
 21
45.4473167958
 31
0.0
 12
85.598
 22
44.4313167958
 32
0.0
 13
85.598
 23
44.4313167958
 33
0.0
  0
LINE
  5
263
330
25E
100
AcDbEntity
  8
SK2
100
AcDbLine
 10
42.9294959711
 20
55.7321985118
 30
0.0
 11
41.8630897137
 21
55.7321985118
 31
0.0
  0
LINE
  5
264
330
25E
100
AcDbEntity
  8
SK2
100
AcDbLine
 10
41.8630897137
 20
55.7321985118
 30
0.0
 11
41.8630897137
 21
50.1759485208
 31
0.0
  0
LINE
  5
265
330
25E
100
AcDbEntity
  8
SK2
100
AcDbLine
 10
41.8630897137
 20
50.1759485208
 30
0.0
 11
42.9294959711
 21
50.1759485208
 31
0.0
  0
LINE
  5
266
330
25E
100
AcDbEntity
  8
SK2
100
AcDbLine
 10
51.980885032
 20
55.7321985118
 30
0.0
 11
53.0472912895
 21
55.7321985118
 31
0.0
  0
LINE
  5
267
330
25E
100
AcDbEntity
  8
SK2
100
AcDbLine
 10
53.0472912895
 20
55.7321985118
 30
0.0
 11
53.0472912895
 21
50.1759485208
 31
0.0
  0
LINE
  5
268
330
25E
100
AcDbEntity
  8
SK2
100
AcDbLine
 10
53.0472912895
 20
50.1759485208
 30
0.0
 11
51.980885032
 21
50.1759485208
 31
0.0
  0
LINE
  5
269
330
25E
100
AcDbEntity
  8
SK2
100
AcDbLine
 10
19.05
 20
30.8048664484
 30
0.0
 11
19.05
 21
45.9393167958
 31
0.0
  0
LINE
  5
26A
330
25E
100
AcDbEntity
  8
SK2
100
AcDbLine
 10
88.9
 20
15.605
 30
0.0
 11
88.9
 21
45.9393167958
 31
0.0
  0
LINE
  5
26B
330
25E
100
AcDbEntity
  8
SK2
100
AcDbLine
 10
19.05
 20
44.9393167958
 30
0.0
 11
88.9
 21
44.9393167958
 31
0.0
  0
MTEXT
  5
26C
330
25E
100
AcDbEntity
  8
SK2
100
AcDbMText
 10
40.8161278594
 20
49.5045260617
 30
0.0
 40
3.5
 41
0.0
 71
     1
 72
     1
  1

  7
SLDTEXTSTYLE0
 73
     1
 44
1.0
  0
MTEXT
  5
26D
330
25E
100
AcDbEntity
  8
SK2
100
AcDbMText
 10
42.9294959711
 20
54.6876854354
 30
0.0
 40
3.5
 41
0.0
 71
     1
 72
     1
  1
2,75
  7
SLDTEXTSTYLE0
 73
     1
 44
1.0
  0
MTEXT
  5
26E
330
25E
100
AcDbEntity
  8
SK2
100
AcDbMText
 10
41.6364402579
 20
49.451053885
 30
0.0
 40
3.5
 41
0.0
 71
     1
 72
     1
  1
69,85
  7
SLDTEXTSTYLE0
 73
     1
 44
1.0
  0
MTEXT
  5
26F
330
25E
100
AcDbEntity
  8
SK2
100
AcDbMText
 10
55.4261976633
 20
49.5045260617
 30
0.0
 40
3.5
 41
0.0
 71
     1
 72
     1
  1

  7
SLDTEXTSTYLE0
 73
     1
 44
1.0
  0
ENDBLK
  5
260
330
25E
100
AcDbEntity
  8
0
100
AcDbBlockEnd
  0
BLOCK
  5
273
330
272
100
AcDbEntity
  8
0
100
AcDbBlockBegin
  2
_D_2
 70
     0
 10
0.0
 20
0.0
 30
0.0
  3
_D_2
  1

  0
SOLID
  5
275
330
272
100
AcDbEntity
  8
SK2
100
AcDbTrace
 10
0.0
 20
44.9393167958
 30
0.0
 11
3.302
 21
44.4313167958
 31
0.0
 12
3.302
 22
45.4473167958
 32
0.0
 13
3.302
 23
45.4473167958
 33
0.0
  0
SOLID
  5
276
330
272
100
AcDbEntity
  8
SK2
100
AcDbTrace
 10
19.05
 20
44.9393167958
 30
0.0
 11
15.748
 21
45.4473167958
 31
0.0
 12
15.748
 22
44.4313167958
 32
0.0
 13
15.748
 23
44.4313167958
 33
0.0
  0
LINE
  5
277
330
272
100
AcDbEntity
  8
SK2
100
AcDbLine
 10
0.0
 20
23.225
 30
0.0
 11
0.0
 21
45.9393167958
 31
0.0
  0
LINE
  5
278
330
272
100
AcDbEntity
  8
SK2
100
AcDbLine
 10
19.05
 20
30.8048664484
 30
0.0
 11
19.05
 21
45.9393167958
 31
0.0
  0
LINE
  5
279
330
272
100
AcDbEntity
  8
SK2
100
AcDbLine
 10
0.0
 20
44.9393167958
 30
0.0
 11
19.05
 21
44.9393167958
 31
0.0
  0
MTEXT
  5
27A
330
272
100
AcDbEntity
  8
SK2
100
AcDbMText
 10
3.9973135438
 20
49.4510537104
 30
0.0
 40
3.5
 41
0.0
 71
     1
 72
     1
  1
19,05
  7
SLDTEXTSTYLE0
 73
     1
 44
1.0
  0
ENDBLK
  5
274
330
272
100
AcDbEntity
  8
0
100
AcDbBlockEnd
  0
BLOCK
  5
27D
330
27C
100
AcDbEntity
  8
0
100
AcDbBlockBegin
  2
_D_3
 70
     0
 10
0.0
 20
0.0
 30
0.0
  3
_D_3
  1

  0
SOLID
  5
27F
330
27C
100
AcDbEntity
  8
SK2
100
AcDbTrace
 10
63.5
 20
30.962518668
 30
0.0
 11
66.802
 21
30.454518668
 31
0.0
 12
66.802
 22
31.470518668
 32
0.0
 13
66.802
 23
31.470518668
 33
0.0
  0
SOLID
  5
280
330
27C
100
AcDbEntity
  8
SK2
100
AcDbTrace
 10
88.9
 20
30.962518668
 30
0.0
 11
85.598
 21
31.470518668
 31
0.0
 12
85.598
 22
30.454518668
 32
0.0
 13
85.598
 23
30.454518668
 33
0.0
  0
LINE
  5
281
330
27C
100
AcDbEntity
  8
SK2
100
AcDbLine
 10
71.3616352066
 20
41.7554003841
 30
0.0
 11
70.2952289492
 21
41.7554003841
 31
0.0
  0
LINE
  5
282
330
27C
100
AcDbEntity
  8
SK2
100
AcDbLine
 10
70.2952289492
 20
41.7554003841
 30
0.0
 11
70.2952289492
 21
36.199150393
 31
0.0
  0
LINE
  5
283
330
27C
100
AcDbEntity
  8
SK2
100
AcDbLine
 10
70.2952289492
 20
36.199150393
 30
0.0
 11
71.3616352066
 21
36.199150393
 31
0.0
  0
LINE
  5
284
330
27C
100
AcDbEntity
  8
SK2
100
AcDbLine
 10
80.4130242675
 20
41.7554003841
 30
0.0
 11
81.479430525
 21
41.7554003841
 31
0.0
  0
LINE
  5
285
330
27C
100
AcDbEntity
  8
SK2
100
AcDbLine
 10
81.479430525
 20
41.7554003841
 30
0.0
 11
81.479430525
 21
36.199150393
 31
0.0
  0
LINE
  5
286
330
27C
100
AcDbEntity
  8
SK2
100
AcDbLine
 10
81.479430525
 20
36.199150393
 30
0.0
 11
80.4130242675
 21
36.199150393
 31
0.0
  0
LINE
  5
287
330
27C
100
AcDbEntity
  8
SK2
100
AcDbLine
 10
63.5
 20
23.225
 30
0.0
 11
63.5
 21
31.962518668
 31
0.0
  0
LINE
  5
288
330
27C
100
AcDbEntity
  8
SK2
100
AcDbLine
 10
88.9
 20
15.605
 30
0.0
 11
88.9
 21
31.962518668
 31
0.0
  0
LINE
  5
289
330
27C
100
AcDbEntity
  8
SK2
100
AcDbLine
 10
63.5
 20
30.962518668
 30
0.0
 11
88.9
 21
30.962518668
 31
0.0
  0
MTEXT
  5
28A
330
27C
100
AcDbEntity
  8
SK2
100
AcDbMText
 10
69.248267095
 20
35.5277279339
 30
0.0
 40
3.5
 41
0.0
 71
     1
 72
     1
  1

  7
SLDTEXTSTYLE0
 73
     1
 44
1.0
  0
MTEXT
  5
28B
330
27C
100
AcDbEntity
  8
SK2
100
AcDbMText
 10
71.3616352066
 20
40.7108873076
 30
0.0
 40
3.5
 41
0.0
 71
     1
 72
     1
  1
1,00
  7
SLDTEXTSTYLE0
 73
     1
 44
1.0
  0
MTEXT
  5
28C
330
27C
100
AcDbEntity
  8
SK2
100
AcDbMText
 10
71.3616352066
 20
35.4742557572
 30
0.0
 40
3.5
 41
0.0
 71
     1
 72
     1
  1
25,4
  7
SLDTEXTSTYLE0
 73
     1
 44
1.0
  0
MTEXT
  5
28D
330
27C
100
AcDbEntity
  8
SK2
100
AcDbMText
 10
83.8583368989
 20
35.5277279339
 30
0.0
 40
3.5
 41
0.0
 71
     1
 72
     1
  1

  7
SLDTEXTSTYLE0
 73
     1
 44
1.0
  0
ENDBLK
  5
27E
330
27C
100
AcDbEntity
  8
0
100
AcDbBlockEnd
  0
BLOCK
  5
290
330
28F
100
AcDbEntity
  8
0
100
AcDbBlockBegin
  2
_D_4
 70
     0
 10
0.0
 20
0.0
 30
0.0
  3
_D_4
  1

  0
SOLID
  5
292
330
28F
100
AcDbEntity
  8
SK2
100
AcDbTrace
 10
103.3151474791
 20
9.525
 30
0.0
 11
102.8071474791
 21
6.223
 31
0.0
 12
103.8231474791
 22
6.223
 32
0.0
 13
103.8231474791
 23
6.223
 33
0.0
  0
SOLID
  5
293
330
28F
100
AcDbEntity
  8
SK2
100
AcDbTrace
 10
103.3151474791
 20
-9.525
 30
0.0
 11
103.8231474791
 21
-6.223
 31
0.0
 12
102.8071474791
 22
-6.223
 32
0.0
 13
102.8071474791
 23
-6.223
 33
0.0
  0
LINE
  5
294
330
28F
100
AcDbEntity
  8
SK2
100
AcDbLine
 10
92.5222657631
 20
-4.3265535543
 30
0.0
 11
92.5222657631
 21
-5.3929598118
 31
0.0
  0
LINE
  5
295
330
28F
100
AcDbEntity
  8
SK2
100
AcDbLine
 10
92.5222657631
 20
-5.3929598118
 30
0.0
 11
98.0785157542
 21
-5.3929598118
 31
0.0
  0
LINE
  5
296
330
28F
100
AcDbEntity
  8
SK2
100
AcDbLine
 10
98.0785157542
 20
-5.3929598118
 30
0.0
 11
98.0785157542
 21
-4.3265535543
 31
0.0
  0
LINE
  5
297
330
28F
100
AcDbEntity
  8
SK2
100
AcDbLine
 10
92.5222657631
 20
4.7248355066
 30
0.0
 11
92.5222657631
 21
5.7912417641
 31
0.0
  0
LINE
  5
298
330
28F
100
AcDbEntity
  8
SK2
100
AcDbLine
 10
92.5222657631
 20
5.7912417641
 30
0.0
 11
98.0785157542
 21
5.7912417641
 31
0.0
  0
LINE
  5
299
330
28F
100
AcDbEntity
  8
SK2
100
AcDbLine
 10
98.0785157542
 20
5.7912417641
 30
0.0
 11
98.0785157542
 21
4.7248355066
 31
0.0
  0
LINE
  5
29A
330
28F
100
AcDbEntity
  8
SK2
100
AcDbLine
 10
88.9
 20
9.525
 30
0.0
 11
104.3151474791
 21
9.525
 31
0.0
  0
LINE
  5
29B
330
28F
100
AcDbEntity
  8
SK2
100
AcDbLine
 10
88.9
 20
-9.525
 30
0.0
 11
104.3151474791
 21
-9.525
 31
0.0
  0
LINE
  5
29C
330
28F
100
AcDbEntity
  8
SK2
100
AcDbLine
 10
103.3151474791
 20
9.525
 30
0.0
 11
103.3151474791
 21
-9.525
 31
0.0
  0
MTEXT
  5
29D
330
28F
100
AcDbEntity
  8
SK2
100
AcDbMText
 10
93.5667788396
 20
-4.3265535543
 30
0.0
 40
3.5
 41
0.0
 71
     1
 72
     1
  1
0,75
  7
SLDTEXTSTYLE0
 11
-7.044195017643634E-15
 21
1.0
 31
0.0
 73
     1
 44
1.0
  0
MTEXT
  5
29E
330
28F
100
AcDbEntity
  8
SK2
100
AcDbMText
 10
98.8034103899
 20
-8.2588279667
 30
0.0
 40
3.5
 41
0.0
 71
     1
 72
     1
  1
%%c
  7
SLDTEXTSTYLE0
 11
-7.044195017643634E-15
 21
1.0
 31
0.0
 73
     1
 44
1.0
  0
MTEXT
  5
29F
330
28F
100
AcDbEntity
  8
SK2
100
AcDbMText
 10
98.8034103899
 20
-2.9803905683
 30
0.0
 40
3.5
 41
0.0
 71
     1
 72
     1
  1
19,05
  7
SLDTEXTSTYLE0
 11
-7.044195017643634E-15
 21
1.0
 31
0.0
 73
     1
 44
1.0
  0
ENDBLK
  5
291
330
28F
100
AcDbEntity
  8
0
100
AcDbBlockEnd
  0
BLOCK
  5
2A2
330
2A1
100
AcDbEntity
  8
0
100
AcDbBlockBegin
  2
_D_5
 70
     0
 10
0.0
 20
0.0
 30
0.0
  3
_D_5
  1

  0
SOLID
  5
2A4
330
2A1
100
AcDbEntity
  8
SK2
100
AcDbTrace
 10
118.2724140016
 20
14.605
 30
0.0
 11
117.7644140016
 21
11.303
 31
0.0
 12
118.7804140016
 22
11.303
 32
0.0
 13
118.7804140016
 23
11.303
 33
0.0
  0
SOLID
  5
2A5
330
2A1
100
AcDbEntity
  8
SK2
100
AcDbTrace
 10
118.2724140016
 20
-14.605
 30
0.0
 11
118.7804140016
 21
-11.303
 31
0.0
 12
117.7644140016
 22
-11.303
 32
0.0
 13
117.7644140016
 23
-11.303
 33
0.0
  0
LINE
  5
2A6
330
2A1
100
AcDbEntity
  8
SK2
100
AcDbLine
 10
107.4795322856
 20
-4.3265535543
 30
0.0
 11
107.4795322856
 21
-5.3929598118
 31
0.0
  0
LINE
  5
2A7
330
2A1
100
AcDbEntity
  8
SK2
100
AcDbLine
 10
107.4795322856
 20
-5.3929598118
 30
0.0
 11
113.0357822767
 21
-5.3929598118
 31
0.0
  0
LINE
  5
2A8
330
2A1
100
AcDbEntity
  8
SK2
100
AcDbLine
 10
113.0357822767
 20
-5.3929598118
 30
0.0
 11
113.0357822767
 21
-4.3265535543
 31
0.0
  0
LINE
  5
2A9
330
2A1
100
AcDbEntity
  8
SK2
100
AcDbLine
 10
107.4795322856
 20
4.7248355066
 30
0.0
 11
107.4795322856
 21
5.7912417641
 31
0.0
  0
LINE
  5
2AA
330
2A1
100
AcDbEntity
  8
SK2
100
AcDbLine
 10
107.4795322856
 20
5.7912417641
 30
0.0
 11
113.0357822767
 21
5.7912417641
 31
0.0
  0
LINE
  5
2AB
330
2A1
100
AcDbEntity
  8
SK2
100
AcDbLine
 10
113.0357822767
 20
5.7912417641
 30
0.0
 11
113.0357822767
 21
4.7248355066
 31
0.0
  0
LINE
  5
2AC
330
2A1
100
AcDbEntity
  8
SK2
100
AcDbLine
 10
89.9
 20
14.605
 30
0.0
 11
119.2724140016
 21
14.605
 31
0.0
  0
LINE
  5
2AD
330
2A1
100
AcDbEntity
  8
SK2
100
AcDbLine
 10
89.9
 20
-14.605
 30
0.0
 11
119.2724140016
 21
-14.605
 31
0.0
  0
LINE
  5
2AE
330
2A1
100
AcDbEntity
  8
SK2
100
AcDbLine
 10
118.2724140016
 20
14.605
 30
0.0
 11
118.2724140016
 21
-14.605
 31
0.0
  0
MTEXT
  5
2AF
330
2A1
100
AcDbEntity
  8
SK2
100
AcDbMText
 10
108.5240453621
 20
-4.3265535543
 30
0.0
 40
3.5
 41
0.0
 71
     1
 72
     1
  1
1,15
  7
SLDTEXTSTYLE0
 11
-7.044195017643634E-15
 21
1.0
 31
0.0
 73
     1
 44
1.0
  0
MTEXT
  5
2B0
330
2A1
100
AcDbEntity
  8
SK2
100
AcDbMText
 10
113.7606769124
 20
-8.2588279667
 30
0.0
 40
3.5
 41
0.0
 71
     1
 72
     1
  1
%%c
  7
SLDTEXTSTYLE0
 11
-7.044195017643634E-15
 21
1.0
 31
0.0
 73
     1
 44
1.0
  0
MTEXT
  5
2B1
330
2A1
100
AcDbEntity
  8
SK2
100
AcDbMText
 10
113.7606769124
 20
-2.9803905683
 30
0.0
 40
3.5
 41
0.0
 71
     1
 72
     1
  1
29,21
  7
SLDTEXTSTYLE0
 11
-7.044195017643634E-15
 21
1.0
 31
0.0
 73
     1
 44
1.0
  0
ENDBLK
  5
2A3
330
2A1
100
AcDbEntity
  8
0
100
AcDbBlockEnd
  0
BLOCK
  5
2B4
330
2B3
100
AcDbEntity
  8
0
100
AcDbBlockBegin
  2
_D_6
 70
     0
 10
0.0
 20
0.0
 30
0.0
  3
_D_6
  1

  0
SOLID
  5
2B6
330
2B3
100
AcDbEntity
  8
SK2
100
AcDbTrace
 10
132.3893846521
 20
22.225
 30
0.0
 11
131.8813846521
 21
18.923
 31
0.0
 12
132.8973846521
 22
18.923
 32
0.0
 13
132.8973846521
 23
18.923
 33
0.0
  0
SOLID
  5
2B7
330
2B3
100
AcDbEntity
  8
SK2
100
AcDbTrace
 10
132.3893846521
 20
-22.225
 30
0.0
 11
132.8973846521
 21
-18.923
 31
0.0
 12
131.8813846521
 22
-18.923
 32
0.0
 13
131.8813846521
 23
-18.923
 33
0.0
  0
LINE
  5
2B8
330
2B3
100
AcDbEntity
  8
SK2
100
AcDbLine
 10
121.596502936
 20
-4.3265535543
 30
0.0
 11
121.596502936
 21
-5.3929598118
 31
0.0
  0
LINE
  5
2B9
330
2B3
100
AcDbEntity
  8
SK2
100
AcDbLine
 10
121.596502936
 20
-5.3929598118
 30
0.0
 11
127.1527529271
 21
-5.3929598118
 31
0.0
  0
LINE
  5
2BA
330
2B3
100
AcDbEntity
  8
SK2
100
AcDbLine
 10
127.1527529271
 20
-5.3929598118
 30
0.0
 11
127.1527529271
 21
-4.3265535543
 31
0.0
  0
LINE
  5
2BB
330
2B3
100
AcDbEntity
  8
SK2
100
AcDbLine
 10
121.596502936
 20
4.7248355066
 30
0.0
 11
121.596502936
 21
5.7912417641
 31
0.0
  0
LINE
  5
2BC
330
2B3
100
AcDbEntity
  8
SK2
100
AcDbLine
 10
121.596502936
 20
5.7912417641
 30
0.0
 11
127.1527529271
 21
5.7912417641
 31
0.0
  0
LINE
  5
2BD
330
2B3
100
AcDbEntity
  8
SK2
100
AcDbLine
 10
127.1527529271
 20
5.7912417641
 30
0.0
 11
127.1527529271
 21
4.7248355066
 31
0.0
  0
LINE
  5
2BE
330
2B3
100
AcDbEntity
  8
SK2
100
AcDbLine
 10
82.28
 20
22.225
 30
0.0
 11
133.3893846521
 21
22.225
 31
0.0
  0
LINE
  5
2BF
330
2B3
100
AcDbEntity
  8
SK2
100
AcDbLine
 10
82.28
 20
-22.225
 30
0.0
 11
133.3893846521
 21
-22.225
 31
0.0
  0
LINE
  5
2C0
330
2B3
100
AcDbEntity
  8
SK2
100
AcDbLine
 10
132.3893846521
 20
22.225
 30
0.0
 11
132.3893846521
 21
-22.225
 31
0.0
  0
MTEXT
  5
2C1
330
2B3
100
AcDbEntity
  8
SK2
100
AcDbMText
 10
122.6410160125
 20
-4.3265535543
 30
0.0
 40
3.5
 41
0.0
 71
     1
 72
     1
  1
1,75
  7
SLDTEXTSTYLE0
 11
-7.044195017643634E-15
 21
1.0
 31
0.0
 73
     1
 44
1.0
  0
MTEXT
  5
2C2
330
2B3
100
AcDbEntity
  8
SK2
100
AcDbMText
 10
127.8776475629
 20
-8.2588279667
 30
0.0
 40
3.5
 41
0.0
 71
     1
 72
     1
  1
%%c
  7
SLDTEXTSTYLE0
 11
-7.044195017643634E-15
 21
1.0
 31
0.0
 73
     1
 44
1.0
  0
MTEXT
  5
2C3
330
2B3
100
AcDbEntity
  8
SK2
100
AcDbMText
 10
127.8776475629
 20
-2.9803905683
 30
0.0
 40
3.5
 41
0.0
 71
     1
 72
     1
  1
44,45
  7
SLDTEXTSTYLE0
 11
-7.044195017643634E-15
 21
1.0
 31
0.0
 73
     1
 44
1.0
  0
ENDBLK
  5
2B5
330
2B3
100
AcDbEntity
  8
0
100
AcDbBlockEnd
  0
BLOCK
  5
2C7
330
2C6
100
AcDbEntity
  8
0
100
AcDbBlockBegin
  2
_D_7
 70
     0
 10
0.0
 20
0.0
 30
0.0
  3
_D_7
  1

  0
SOLID
  5
2C9
330
2C6
100
AcDbEntity
  8
SK2
100
AcDbTrace
 10
-68.25
 20
-52.7205393321
 30
0.0
 11
-64.948
 21
-53.2285393321
 31
0.0
 12
-64.948
 22
-52.2125393321
 32
0.0
 13
-64.948
 23
-52.2125393321
 33
0.0
  0
SOLID
  5
2CA
330
2C6
100
AcDbEntity
  8
SK2
100
AcDbTrace
 10
88.9
 20
-52.7205393321
 30
0.0
 11
85.598
 21
-52.2125393321
 31
0.0
 12
85.598
 22
-53.2285393321
 32
0.0
 13
85.598
 23
-53.2285393321
 33
0.0
  0
LINE
  5
2CB
330
2C6
100
AcDbEntity
  8
SK2
100
AcDbLine
 10
-14.6049620398
 20
-41.9276576161
 30
0.0
 11
-15.6713682972
 21
-41.9276576161
 31
0.0
  0
LINE
  5
2CC
330
2C6
100
AcDbEntity
  8
SK2
100
AcDbLine
 10
-15.6713682972
 20
-41.9276576161
 30
0.0
 11
-15.6713682972
 21
-47.4839076071
 31
0.0
  0
LINE
  5
2CD
330
2C6
100
AcDbEntity
  8
SK2
100
AcDbLine
 10
-15.6713682972
 20
-47.4839076071
 30
0.0
 11
-14.6049620398
 21
-47.4839076071
 31
0.0
  0
LINE
  5
2CE
330
2C6
100
AcDbEntity
  8
SK2
100
AcDbLine
 10
-2.9674615525
 20
-41.9276576161
 30
0.0
 11
-1.901055295
 21
-41.9276576161
 31
0.0
  0
LINE
  5
2CF
330
2C6
100
AcDbEntity
  8
SK2
100
AcDbLine
 10
-1.901055295
 20
-41.9276576161
 30
0.0
 11
-1.901055295
 21
-47.4839076071
 31
0.0
  0
LINE
  5
2D0
330
2C6
100
AcDbEntity
  8
SK2
100
AcDbLine
 10
-1.901055295
 20
-47.4839076071
 30
0.0
 11
-2.9674615525
 21
-47.4839076071
 31
0.0
  0
LINE
  5
2D1
330
2C6
100
AcDbEntity
  8
SK2
100
AcDbLine
 10
-68.25
 20
-12.1476148288
 30
0.0
 11
-68.25
 21
-53.7205393321
 31
0.0
  0
LINE
  5
2D2
330
2C6
100
AcDbEntity
  8
SK2
100
AcDbLine
 10
88.9
 20
-15.605
 30
0.0
 11
88.9
 21
-53.7205393321
 31
0.0
  0
LINE
  5
2D3
330
2C6
100
AcDbEntity
  8
SK2
100
AcDbLine
 10
-68.25
 20
-52.7205393321
 30
0.0
 11
88.9
 21
-52.7205393321
 31
0.0
  0
MTEXT
  5
2D4
330
2C6
100
AcDbEntity
  8
SK2
100
AcDbMText
 10
-16.7183301514
 20
-48.1553300663
 30
0.0
 40
3.5
 41
0.0
 71
     1
 72
     1
  1

  7
SLDTEXTSTYLE0
 73
     1
 44
1.0
  0
MTEXT
  5
2D5
330
2C6
100
AcDbEntity
  8
SK2
100
AcDbMText
 10
-14.6049620398
 20
-42.9721706926
 30
0.0
 40
3.5
 41
0.0
 71
     1
 72
     1
  1
6,187
  7
SLDTEXTSTYLE0
 73
     1
 44
1.0
  0
MTEXT
  5
2D6
330
2C6
100
AcDbEntity
  8
SK2
100
AcDbMText
 10
-15.8980182186
 20
-48.2088022429
 30
0.0
 40
3.5
 41
0.0
 71
     1
 72
     1
  1
157,15
  7
SLDTEXTSTYLE0
 73
     1
 44
1.0
  0
MTEXT
  5
2D7
330
2C6
100
AcDbEntity
  8
SK2
100
AcDbMText
 10
0.4778501475
 20
-48.1553300663
 30
0.0
 40
3.5
 41
0.0
 71
     1
 72
     1
  1

  7
SLDTEXTSTYLE0
 73
     1
 44
1.0
  0
ENDBLK
  5
2C8
330
2C6
100
AcDbEntity
  8
0
100
AcDbBlockEnd
  0
BLOCK
  5
2DA
330
2D9
100
AcDbEntity
  8
0
100
AcDbBlockBegin
  2
_D_8
 70
     0
 10
0.0
 20
0.0
 30
0.0
  3
_D_8
  1

  0
SOLID
  5
2DC
330
2D9
100
AcDbEntity
  8
SK2
100
AcDbTrace
 10
38.0997498436
 20
-43.1441172093
 30
0.0
 11
41.4017498436
 21
-43.6521172093
 31
0.0
 12
41.4017498436
 22
-42.6361172093
 32
0.0
 13
41.4017498436
 23
-42.6361172093
 33
0.0
  0
SOLID
  5
2DD
330
2D9
100
AcDbEntity
  8
SK2
100
AcDbTrace
 10
88.9
 20
-43.1441172093
 30
0.0
 11
85.598
 21
-42.6361172093
 31
0.0
 12
85.598
 22
-43.6521172093
 32
0.0
 13
85.598
 23
-43.6521172093
 33
0.0
  0
LINE
  5
2DE
330
2D9
100
AcDbEntity
  8
SK2
100
AcDbLine
 10
56.9321796807
 20
-32.3512354932
 30
0.0
 11
55.8657734232
 21
-32.3512354932
 31
0.0
  0
LINE
  5
2DF
330
2D9
100
AcDbEntity
  8
SK2
100
AcDbLine
 10
55.8657734232
 20
-32.3512354932
 30
0.0
 11
55.8657734232
 21
-37.9074854843
 31
0.0
  0
LINE
  5
2E0
330
2D9
100
AcDbEntity
  8
SK2
100
AcDbLine
 10
55.8657734232
 20
-37.9074854843
 30
0.0
 11
56.9321796807
 21
-37.9074854843
 31
0.0
  0
LINE
  5
2E1
330
2D9
100
AcDbEntity
  8
SK2
100
AcDbLine
 10
65.9835687416
 20
-32.3512354932
 30
0.0
 11
67.0499749991
 21
-32.3512354932
 31
0.0
  0
LINE
  5
2E2
330
2D9
100
AcDbEntity
  8
SK2
100
AcDbLine
 10
67.0499749991
 20
-32.3512354932
 30
0.0
 11
67.0499749991
 21
-37.9074854843
 31
0.0
  0
LINE
  5
2E3
330
2D9
100
AcDbEntity
  8
SK2
100
AcDbLine
 10
67.0499749991
 20
-37.9074854843
 30
0.0
 11
65.9835687416
 21
-37.9074854843
 31
0.0
  0
LINE
  5
2E4
330
2D9
100
AcDbEntity
  8
SK2
100
AcDbLine
 10
38.0997498436
 20
-10.525
 30
0.0
 11
38.0997498436
 21
-44.1441172093
 31
0.0
  0
LINE
  5
2E5
330
2D9
100
AcDbEntity
  8
SK2
100
AcDbLine
 10
88.9
 20
-15.605
 30
0.0
 11
88.9
 21
-44.1441172093
 31
0.0
  0
LINE
  5
2E6
330
2D9
100
AcDbEntity
  8
SK2
100
AcDbLine
 10
38.0997498436
 20
-43.1441172093
 30
0.0
 11
88.9
 21
-43.1441172093
 31
0.0
  0
MTEXT
  5
2E7
330
2D9
100
AcDbEntity
  8
SK2
100
AcDbMText
 10
54.818811569
 20
-38.5789079434
 30
0.0
 40
3.5
 41
0.0
 71
     1
 72
     1
  1

  7
SLDTEXTSTYLE0
 73
     1
 44
1.0
  0
MTEXT
  5
2E8
330
2D9
100
AcDbEntity
  8
SK2
100
AcDbMText
 10
56.9321796807
 20
-33.3957485697
 30
0.0
 40
3.5
 41
0.0
 71
     1
 72
     1
  1
2,00
  7
SLDTEXTSTYLE0
 73
     1
 44
1.0
  0
MTEXT
  5
2E9
330
2D9
100
AcDbEntity
  8
SK2
100
AcDbMText
 10
56.9321796807
 20
-38.6323801201
 30
0.0
 40
3.5
 41
0.0
 71
     1
 72
     1
  1
50,8
  7
SLDTEXTSTYLE0
 73
     1
 44
1.0
  0
MTEXT
  5
2EA
330
2D9
100
AcDbEntity
  8
SK2
100
AcDbMText
 10
69.4288813729
 20
-38.5789079434
 30
0.0
 40
3.5
 41
0.0
 71
     1
 72
     1
  1

  7
SLDTEXTSTYLE0
 73
     1
 44
1.0
  0
ENDBLK
  5
2DB
330
2D9
100
AcDbEntity
  8
0
100
AcDbBlockEnd
  0
BLOCK
  5
2EE
330
2ED
100
AcDbEntity
  8
0
100
AcDbBlockBegin
  2
_D_9
 70
     0
 10
0.0
 20
0.0
 30
0.0
  3
_D_9
  1

  0
SOLID
  5
2F0
330
2ED
100
AcDbEntity
  8
SK2
100
AcDbTrace
 10
81.28
 20
-30.7022804554
 30
0.0
 11
77.978
 21
-30.1942804554
 31
0.0
 12
77.978
 22
-31.2102804554
 32
0.0
 13
77.978
 23
-31.2102804554
 33
0.0
  0
SOLID
  5
2F1
330
2ED
100
AcDbEntity
  8
SK2
100
AcDbTrace
 10
88.9
 20
-30.7022804554
 30
0.0
 11
92.202
 21
-31.2102804554
 31
0.0
 12
92.202
 22
-30.1942804554
 32
0.0
 13
92.202
 23
-30.1942804554
 33
0.0
  0
LINE
  5
2F2
330
2ED
100
AcDbEntity
  8
SK2
100
AcDbLine
 10
81.28
 20
-23.225
 30
0.0
 11
81.28
 21
-31.7022804554
 31
0.0
  0
LINE
  5
2F3
330
2ED
100
AcDbEntity
  8
SK2
100
AcDbLine
 10
88.9
 20
-15.605
 30
0.0
 11
88.9
 21
-31.7022804554
 31
0.0
  0
LINE
  5
2F4
330
2ED
100
AcDbEntity
  8
SK2
100
AcDbLine
 10
81.28
 20
-30.7022804554
 30
0.0
 11
71.3616348574
 21
-30.7022804554
 31
0.0
  0
LINE
  5
2F5
330
2ED
100
AcDbEntity
  8
SK2
100
AcDbLine
 10
81.28
 20
-30.7022804554
 30
0.0
 11
88.9
 21
-30.7022804554
 31
0.0
  0
LINE
  5
2F6
330
2ED
100
AcDbEntity
  8
SK2
100
AcDbLine
 10
88.9
 20
-30.7022804554
 30
0.0
 11
95.25
 21
-30.7022804554
 31
0.0
  0
MTEXT
  5
2F7
330
2ED
100
AcDbEntity
  8
SK2
100
AcDbMText
 10
71.3616348574
 20
-26.1905435408
 30
0.0
 40
3.5
 41
0.0
 71
     1
 72
     1
  1
7,62
  7
SLDTEXTSTYLE0
 73
     1
 44
1.0
  0
ENDBLK
  5
2EF
330
2ED
100
AcDbEntity
  8
0
100
AcDbBlockEnd
  0
BLOCK
  5
2FA
330
2F9
100
AcDbEntity
  8
0
100
AcDbBlockBegin
  2
_D_10
 70
     0
 10
0.0
 20
0.0
 30
0.0
  3
_D_10
  1

  0
SOLID
  5
2FC
330
2F9
100
AcDbEntity
  8
SK2
100
AcDbTrace
 10
-85.7668975112
 20
30.5578899967
 30
0.0
 11
-86.2748975112
 21
27.2558899967
 31
0.0
 12
-85.2588975112
 22
27.2558899967
 32
0.0
 13
-85.2588975112
 23
27.2558899967
 33
0.0
  0
SOLID
  5
2FD
330
2F9
100
AcDbEntity
  8
SK2
100
AcDbTrace
 10
-85.7668975112
 20
-30.5579086614
 30
0.0
 11
-85.2588975112
 21
-27.2559086614
 31
0.0
 12
-86.2748975112
 22
-27.2559086614
 32
0.0
 13
-86.2748975112
 23
-27.2559086614
 33
0.0
  0
LINE
  5
2FE
330
2F9
100
AcDbEntity
  8
SK2
100
AcDbLine
 10
2.95
 20
30.5578899967
 30
0.0
 11
-86.7668975112
 21
30.5578899967
 31
0.0
  0
LINE
  5
2FF
330
2F9
100
AcDbEntity
  8
SK2
100
AcDbLine
 10
2.95
 20
-30.5579086614
 30
0.0
 11
-86.7668975112
 21
-30.5579086614
 31
0.0
  0
LINE
  5
300
330
2F9
100
AcDbEntity
  8
SK2
100
AcDbLine
 10
-85.7668975112
 20
30.5578899967
 30
0.0
 11
-85.7668975112
 21
-30.5579086614
 31
0.0
  0
MTEXT
  5
301
330
2F9
100
AcDbEntity
  8
SK2
100
AcDbMText
 10
-90.2786346004
 20
-6.9657727192
 30
0.0
 40
3.5
 41
0.0
 71
     1
 72
     1
  1
%%c
  7
SLDTEXTSTYLE0
 11
-3.491481338843133E-15
 21
1.0
 31
0.0
 73
     1
 44
1.0
  0
MTEXT
  5
302
330
2F9
100
AcDbEntity
  8
SK2
100
AcDbMText
 10
-90.3321067771
 20
-1.6873353208
 30
0.0
 40
3.5
 41
0.0
 71
     1
 72
     1
  1
63,5
  7
SLDTEXTSTYLE0
 11
-3.491481338843133E-15
 21
1.0
 31
0.0
 73
     1
 44
1.0
  0
ENDBLK
  5
2FB
330
2F9
100
AcDbEntity
  8
0
100
AcDbBlockEnd
  0
BLOCK
  5
306
330
305
100
AcDbEntity
  8
0
100
AcDbBlockBegin
  2
_D_11
 70
     0
 10
0.0
 20
0.0
 30
0.0
  3
_D_11
  1

  0
SOLID
  5
308
330
305
100
AcDbEntity
  8
SK2
100
AcDbTrace
 10
-75.3331480981
 20
7.9375002533
 30
0.0
 11
-74.8251480981
 21
11.2395002533
 31
0.0
 12
-75.8411480981
 22
11.2395002533
 32
0.0
 13
-75.8411480981
 23
11.2395002533
 33
0.0
  0
SOLID
  5
309
330
305
100
AcDbEntity
  8
SK2
100
AcDbTrace
 10
-75.3331480981
 20
-7.9375002533
 30
0.0
 11
-75.8411480981
 21
-11.2395002533
 31
0.0
 12
-74.8251480981
 22
-11.2395002533
 32
0.0
 13
-74.8251480981
 23
-11.2395002533
 33
0.0
  0
LINE
  5
30A
330
305
100
AcDbEntity
  8
SK2
100
AcDbLine
 10
-64.3082389832
 20
7.9375002533
 30
0.0
 11
-76.3331480981
 21
7.9375002533
 31
0.0
  0
LINE
  5
30B
330
305
100
AcDbEntity
  8
SK2
100
AcDbLine
 10
-64.3082389832
 20
-7.9375002533
 30
0.0
 11
-76.3331480981
 21
-7.9375002533
 31
0.0
  0
LINE
  5
30C
330
305
100
AcDbEntity
  8
SK2
100
AcDbLine
 10
-75.3331480981
 20
7.9375002533
 30
0.0
 11
-75.3331480981
 21
14.2875002533
 31
0.0
  0
LINE
  5
30D
330
305
100
AcDbEntity
  8
SK2
100
AcDbLine
 10
-75.3331480981
 20
7.9375002533
 30
0.0
 11
-75.3331480981
 21
-7.9375002533
 31
0.0
  0
LINE
  5
30E
330
305
100
AcDbEntity
  8
SK2
100
AcDbLine
 10
-75.3331480981
 20
-7.9375002533
 30
0.0
 11
-75.3331480981
 21
-14.2875002533
 31
0.0
  0
MTEXT
  5
310
330
305
100
AcDbEntity
  8
SK2
100
AcDbMText
 10
-79.8448850127
 20
-13.8591919141
 30
0.0
 40
3.5
 41
0.0
 71
     1
 72
     1
  1
5/8 - 11 UNC
  7
SLDTEXTSTYLE1
 11
-7.044195017643634E-15
 21
1.0
 31
0.0
 73
     1
 44
1.0
  0
ENDBLK
  5
307
330
305
100
AcDbEntity
  8
0
100
AcDbBlockEnd
  0
ENDSEC
  0
SECTION
  2
ENTITIES
  0
LINE
  5
82
330
1F
100
AcDbEntity
  8
1
  6
SLD-Solid
370
    25
100
AcDbLine
 10
1.8869952227
 20
22.225
 30
0.0
 11
0.0
 21
22.225
 31
0.0
  0
LINE
  5
83
330
1F
100
AcDbEntity
  8
1
  6
SLD-Solid
370
    25
100
AcDbLine
 10
0.0
 20
-22.225
 30
0.0
 11
1.8869952227
 21
-22.225
 31
0.0
  0
LINE
  5
84
330
1F
100
AcDbEntity
  8
1
  6
SLD-Solid
370
    25
100
AcDbLine
 10
1.8869952227
 20
-22.225
 30
0.0
 11
2.1330363037
 21
-22.1102691597
 31
0.0
  0
LINE
  5
85
330
1F
100
AcDbEntity
  8
1
  6
SLD-Solid
370
    25
100
AcDbLine
 10
2.1330363037
 20
22.1102691597
 30
0.0
 11
1.8869952227
 21
22.225
 31
0.0
  0
LINE
  5
86
330
1F
100
AcDbEntity
  8
SK1
  6
SLD-Solid
370
    25
100
AcDbLine
 10
0.0
 20
22.225
 30
0.0
 11
-67.1376006954
 21
12.4340074512
 31
0.0
  0
LINE
  5
87
330
1F
100
AcDbEntity
  8
SK1
  6
SLD-Solid
370
    25
100
AcDbLine
 10
-67.1376006954
 20
-12.4340074512
 30
0.0
 11
0.0
 21
-22.225
 31
0.0
  0
LINE
  5
88
330
1F
100
AcDbEntity
  8
1
  6
SLD-Solid
370
    25
100
AcDbLine
 10
55.0
 20
22.225
 30
0.0
 11
19.812
 21
22.225
 31
0.0
  0
LINE
  5
89
330
1F
100
AcDbEntity
  8
1
  6
SLD-Solid
370
    25
100
AcDbLine
 10
81.28
 20
22.225
 30
0.0
 11
71.9905368368
 21
22.225
 31
0.0
  0
LINE
  5
8A
330
1F
100
AcDbEntity
  8
1
  6
SLD-Solid
370
    25
100
AcDbLine
 10
74.3110324381
 20
-22.225
 30
0.0
 11
81.28
 21
-22.225
 31
0.0
  0
LINE
  5
8B
330
1F
100
AcDbEntity
  8
1
  6
SLD-Solid
370
    25
100
AcDbLine
 10
19.812
 20
-22.225
 30
0.0
 11
54.5006246975
 21
-22.225
 31
0.0
  0
LINE
  5
8C
330
1F
100
AcDbEntity
  8
1
  6
SLD-Solid
370
    25
100
AcDbLine
 10
81.28
 20
-22.225
 30
0.0
 11
88.9
 21
-14.605
 31
0.0
  0
LINE
  5
8D
330
1F
100
AcDbEntity
  8
1
  6
SLD-Solid
370
    25
100
AcDbLine
 10
88.9
 20
14.605
 30
0.0
 11
81.28
 21
22.225
 31
0.0
  0
LINE
  5
8E
330
1F
100
AcDbEntity
  8
1
  6
SLD-Solid
370
    25
100
AcDbLine
 10
3.2
 20
-29.8048664484
 30
0.0
 11
3.2
 21
29.8048552742
 31
0.0
  0
LINE
  5
8F
330
1F
100
AcDbEntity
  8
1
  6
SLD-Solid
370
    25
100
AcDbLine
 10
3.95
 20
30.5578899967
 30
0.0
 11
3.95
 21
-30.5579086614
 31
0.0
  0
LINE
  5
90
330
1F
100
AcDbEntity
  8
1
  6
SLD-Solid
370
    25
100
AcDbLine
 10
3.95
 20
-30.5579086614
 30
0.0
 11
7.5888736454
 21
-30.5579086614
 31
0.0
  0
LINE
  5
91
330
1F
100
AcDbEntity
  8
1
  6
SLD-Solid
370
    25
100
AcDbLine
 10
7.5888736454
 20
30.5578899967
 30
0.0
 11
3.95
 21
30.5578899967
 31
0.0
  0
LINE
  5
92
330
1F
100
AcDbEntity
  8
1
  6
SLD-Solid
370
    25
100
AcDbLine
 10
7.5888736454
 20
30.5578899967
 30
0.0
 11
7.5888736454
 21
-30.5579086614
 31
0.0
  0
LINE
  5
93
330
1F
100
AcDbEntity
  8
1
  6
SLD-Solid
370
    25
100
AcDbLine
 10
18.3
 20
30.5579086614
 30
0.0
 11
14.6411263546
 21
30.5579086614
 31
0.0
  0
LINE
  5
94
330
1F
100
AcDbEntity
  8
1
  6
SLD-Solid
370
    25
100
AcDbLine
 10
18.3
 20
-30.5578899967
 30
0.0
 11
18.3
 21
30.5579086614
 31
0.0
  0
LINE
  5
95
330
1F
100
AcDbEntity
  8
1
  6
SLD-Solid
370
    25
100
AcDbLine
 10
14.6411263546
 20
-30.5578899967
 30
0.0
 11
18.3
 21
-30.5578899967
 31
0.0
  0
LINE
  5
96
330
1F
100
AcDbEntity
  8
1
  6
SLD-Solid
370
    25
100
AcDbLine
 10
14.6411263546
 20
30.5579086614
 30
0.0
 11
14.6411263546
 21
-30.5578899967
 31
0.0
  0
LINE
  5
97
330
1F
100
AcDbEntity
  8
1
  6
SLD-Solid
370
    25
100
AcDbLine
 10
19.05
 20
29.8048664484
 30
0.0
 11
19.05
 21
-29.8048552742
 31
0.0
  0
LINE
  5
98
330
1F
100
AcDbEntity
  8
1
  6
SLD-Solid
370
    25
100
AcDbLine
 10
13.03
 20
25.319242438
 30
0.0
 11
13.03
 21
-27.8050456342
 31
0.0
  0
LINE
  5
99
330
1F
100
AcDbEntity
  8
1
  6
SLD-Solid
370
    25
100
AcDbLine
 10
13.03
 20
27.8050456342
 30
0.0
 11
13.03
 21
25.8117178836
 31
0.0
  0
LINE
  5
9A
330
1F
100
AcDbEntity
  8
1
  6
SLD-Solid
370
    25
100
AcDbLine
 10
9.2
 20
27.8050456342
 30
0.0
 11
9.2
 21
25.8569131114
 31
0.0
  0
LINE
  5
9B
330
1F
100
AcDbEntity
  8
1
  6
SLD-Solid
370
    25
100
AcDbLine
 10
9.2
 20
25.2705433174
 30
0.0
 11
9.2
 21
-27.8050456342
 31
0.0
  0
LINE
  5
9C
330
1F
100
AcDbEntity
  8
1
  6
SLD-Solid
370
    25
100
AcDbLine
 10
9.95
 20
24.066859753
 30
0.0
 11
9.95
 21
-26.9870635676
 31
0.0
  0
LINE
  5
9D
330
1F
100
AcDbEntity
  8
1
  6
SLD-Solid
370
    25
100
AcDbLine
 10
12.28
 20
24.0780506352
 30
0.0
 11
12.28
 21
-26.9870635676
 31
0.0
  0
LINE
  5
9E
330
1F
100
AcDbEntity
  8
1
  6
SLD-Solid
370
    25
100
AcDbLine
 10
9.95
 20
-26.9870635676
 30
0.0
 11
12.28
 21
-26.9870635676
 31
0.0
  0
LINE
  5
9F
330
1F
100
AcDbEntity
  8
1
  6
SLD-Solid
370
    25
100
AcDbLine
 10
0.0
 20
22.225
 30
0.0
 11
0.0
 21
-22.225
 31
0.0
  0
LINE
  5
A0
330
1F
100
AcDbEntity
  8
1
  6
SLD-Solid
370
    25
100
AcDbLine
 10
1.8869952227
 20
22.225
 30
0.0
 11
1.8869952227
 21
-22.225
 31
0.0
  0
LINE
  5
A1
330
1F
100
AcDbEntity
  8
1
  6
SLD-Solid
370
    25
100
AcDbLine
 10
81.28
 20
22.225
 30
0.0
 11
81.28
 21
-22.225
 31
0.0
  0
LINE
  5
A2
330
1F
100
AcDbEntity
  8
1
  6
SLD-Solid
370
    25
100
AcDbLine
 10
88.9
 20
14.605
 30
0.0
 11
88.9
 21
-14.605
 31
0.0
  0
LINE
  5
A3
330
1F
100
AcDbEntity
  8
1
  6
SLD-Solid
370
    25
100
AcDbLine
 10
9.2
 20
25.8569131114
 30
0.0
 11
9.2
 21
25.8264908709
 31
0.0
  0
LINE
  5
A4
330
1F
100
AcDbEntity
  8
1
  6
SLD-Solid
370
    25
100
AcDbLine
 10
13.03
 20
25.7812977304
 30
0.0
 11
13.03
 21
25.8117178836
 31
0.0
  0
LINE
  5
A5
330
1F
100
AcDbEntity
  8
1
  6
SLD-Solid
370
    25
100
AcDbLine
 10
9.95
 20
26.9870635676
 30
0.0
 11
9.95
 21
25.6032587904
 31
0.0
  0
LINE
  5
A6
330
1F
100
AcDbEntity
  8
1
  6
SLD-Solid
370
    25
100
AcDbLine
 10
12.28
 20
26.9870635676
 30
0.0
 11
12.28
 21
25.5942620881
 31
0.0
  0
LINE
  5
A7
330
1F
100
AcDbEntity
  8
SK1
  6
SLD-Solid
370
    25
100
AcDbLine
 10
-68.25
 20
-11.1476148288
 30
0.0
 11
-68.25
 21
11.1476148288
 31
0.0
  0
LINE
  5
A8
330
1F
100
AcDbEntity
  8
1
  6
SLD-Solid
370
    25
100
AcDbLine
 10
9.95
 20
26.9870635676
 30
0.0
 11
12.28
 21
26.9870635676
 31
0.0
  0
LINE
  5
A9
330
1F
100
AcDbEntity
  8
1
  6
SLD-Solid
370
    25
100
AcDbLine
 10
19.812
 20
0.0
 30
0.0
 11
19.812
 21
-22.225
 31
0.0
  0
LINE
  5
AA
330
1F
100
AcDbEntity
  8
1
  6
SLD-Solid
370
    25
100
AcDbLine
 10
19.812
 20
22.225
 30
0.0
 11
19.812
 21
0.0
 31
0.0
  0
LINE
  5
AB
330
1F
100
AcDbEntity
  8
1
  6
SLD-Solid
370
    25
100
AcDbLine
 10
2.1330363037
 20
22.1102691597
 30
0.0
 11
2.1330363037
 21
-22.1102691597
 31
0.0
  0
LINE
  5
AC
330
1F
100
AcDbEntity
  8
SK1
  6
SLD-Solid
370
    25
100
AcDbLine
 10
-67.1376006954
 20
0.0
 30
0.0
 11
-67.1376006954
 21
-12.4340074512
 31
0.0
  0
LINE
  5
AD
330
1F
100
AcDbEntity
  8
SK1
  6
SLD-Solid
370
    25
100
AcDbLine
 10
-67.1376006954
 20
12.4340074512
 30
0.0
 11
-67.1376006954
 21
0.0
 31
0.0
  0
LINE
  5
AE
330
1F
100
AcDbEntity
  8
SK3
  6
SLD-Dashed
370
    18
100
AcDbLine
 10
5.7322709434
 20
-8.8686354442
 30
0.0
 11
5.609026163
 21
-8.3829136913
 31
0.0
  0
LINE
  5
AF
330
1F
100
AcDbEntity
  8
SK3
  6
SLD-Dashed
370
    18
100
AcDbLine
 10
5.609026163
 20
-8.3829136913
 30
0.0
 11
5.4174260052
 21
-7.9277116224
 31
0.0
  0
LINE
  5
B0
330
1F
100
AcDbEntity
  8
SK3
  6
SLD-Dashed
370
    18
100
AcDbLine
 10
5.4174260052
 20
-7.9277116224
 30
0.0
 11
5.1695094124
 21
-7.5316312578
 31
0.0
  0
LINE
  5
B1
330
1F
100
AcDbEntity
  8
SK3
  6
SLD-Dashed
370
    18
100
AcDbLine
 10
5.1695094124
 20
-7.5316312578
 30
0.0
 11
4.8808538961
 21
-7.2195597834
 31
0.0
  0
LINE
  5
B2
330
1F
100
AcDbEntity
  8
SK3
  6
SLD-Dashed
370
    18
100
AcDbLine
 10
4.8808538961
 20
-7.2195597834
 30
0.0
 11
4.5695967438
 21
-7.0111057976
 31
0.0
  0
LINE
  5
B3
330
1F
100
AcDbEntity
  8
SK3
  6
SLD-Dashed
370
    18
100
AcDbLine
 10
4.5695967438
 20
-7.0111057976
 30
0.0
 11
4.2552953872
 21
-6.919367231
 31
0.0
  0
LINE
  5
B4
330
1F
100
AcDbEntity
  8
SK3
  6
SLD-Dashed
370
    18
100
AcDbLine
 10
4.2552953872
 20
-6.919367231
 30
0.0
 11
3.9576985365
 21
-6.9501083551
 31
0.0
  0
LINE
  5
B5
330
1F
100
AcDbEntity
  8
SK3
  6
SLD-Dashed
370
    18
100
AcDbLine
 10
3.9576985365
 20
-6.9501083551
 30
0.0
 11
3.6955052963
 21
-7.1013975921
 31
0.0
  0
LINE
  5
B6
330
1F
100
AcDbEntity
  8
SK3
  6
SLD-Dashed
370
    18
100
AcDbLine
 10
3.6955052963
 20
-7.1013975921
 30
0.0
 11
3.485190232
 21
-7.3637288828
 31
0.0
  0
LINE
  5
B7
330
1F
100
AcDbEntity
  8
SK3
  6
SLD-Dashed
370
    18
100
AcDbLine
 10
3.485190232
 20
-7.3637288828
 30
0.0
 11
3.3399682128
 21
-7.7206189875
 31
0.0
  0
LINE
  5
B8
330
1F
100
AcDbEntity
  8
SK3
  6
SLD-Dashed
370
    18
100
AcDbLine
 10
3.3399682128
 20
-7.7206189875
 30
0.0
 11
3.2689640721
 21
-8.1496431882
 31
0.0
  0
LINE
  5
B9
330
1F
100
AcDbEntity
  8
SK3
  6
SLD-Dashed
370
    18
100
AcDbLine
 10
3.2689640721
 20
-8.1496431882
 30
0.0
 11
3.2766392613
 21
-8.6238443166
 31
0.0
  0
LINE
  5
BA
330
1F
100
AcDbEntity
  8
SK3
  6
SLD-Dashed
370
    18
100
AcDbLine
 10
3.2766392613
 20
-8.6238443166
 30
0.0
 11
3.3625115199
 21
-9.1134265718
 31
0.0
  0
LINE
  5
BB
330
1F
100
AcDbEntity
  8
SK3
  6
SLD-Dashed
370
    18
100
AcDbLine
 10
3.3625115199
 20
-9.1134265718
 30
0.0
 11
3.5211851783
 21
-9.5876277002
 31
0.0
  0
LINE
  5
BC
330
1F
100
AcDbEntity
  8
SK3
  6
SLD-Dashed
370
    18
100
AcDbLine
 10
3.5211851783
 20
-9.5876277002
 30
0.0
 11
3.7426901867
 21
-10.016651901
 31
0.0
  0
LINE
  5
BD
330
1F
100
AcDbEntity
  8
SK3
  6
SLD-Dashed
370
    18
100
AcDbLine
 10
3.7426901867
 20
-10.016651901
 30
0.0
 11
4.013108571
 21
-10.3735420056
 31
0.0
  0
LINE
  5
BE
330
1F
100
AcDbEntity
  8
SK3
  6
SLD-Dashed
370
    18
100
AcDbLine
 10
4.013108571
 20
-10.3735420056
 30
0.0
 11
4.3154489495
 21
-10.6358732963
 31
0.0
  0
LINE
  5
BF
330
1F
100
AcDbEntity
  8
SK3
  6
SLD-Dashed
370
    18
100
AcDbLine
 10
4.3154489495
 20
-10.6358732963
 30
0.0
 11
4.6307141643
 21
-10.7871625333
 31
0.0
  0
LINE
  5
C0
330
1F
100
AcDbEntity
  8
SK3
  6
SLD-Dashed
370
    18
100
AcDbLine
 10
4.6307141643
 20
-10.7871625333
 30
0.0
 11
4.9390949425
 21
-10.8179036574
 31
0.0
  0
LINE
  5
C1
330
1F
100
AcDbEntity
  8
SK3
  6
SLD-Dashed
370
    18
100
AcDbLine
 10
4.9390949425
 20
-10.8179036574
 30
0.0
 11
5.2212145856
 21
-10.7261650909
 31
0.0
  0
LINE
  5
C2
330
1F
100
AcDbEntity
  8
SK3
  6
SLD-Dashed
370
    18
100
AcDbLine
 10
5.2212145856
 20
-10.7261650909
 30
0.0
 11
5.459346479
 21
-10.5177111051
 31
0.0
  0
LINE
  5
C3
330
1F
100
AcDbEntity
  8
SK3
  6
SLD-Dashed
370
    18
100
AcDbLine
 10
5.459346479
 20
-10.5177111051
 30
0.0
 11
5.6385279199
 21
-10.2056396306
 31
0.0
  0
LINE
  5
C4
330
1F
100
AcDbEntity
  8
SK3
  6
SLD-Dashed
370
    18
100
AcDbLine
 10
5.6385279199
 20
-10.2056396306
 30
0.0
 11
5.7475002794
 21
-9.809559266
 31
0.0
  0
LINE
  5
C5
330
1F
100
AcDbEntity
  8
SK3
  6
SLD-Dashed
370
    18
100
AcDbLine
 10
5.7475002794
 20
-9.809559266
 30
0.0
 11
5.7794164235
 21
-9.3543571971
 31
0.0
  0
LINE
  5
C6
330
1F
100
AcDbEntity
  8
SK3
  6
SLD-Dashed
370
    18
100
AcDbLine
 10
5.7794164235
 20
-9.3543571971
 30
0.0
 11
5.7322709434
 21
-8.8686354442
 31
0.0
  0
LINE
  5
C7
330
1F
100
AcDbEntity
  8
SK3
  6
SLD-Dashed
370
    18
100
AcDbLine
 10
3.2
 20
-7.1668508159
 30
0.0
 11
3.2
 21
-11.3022369236
 31
0.0
  0
LINE
  5
C8
330
1F
100
AcDbEntity
  8
SK3
  6
SLD-Dashed
370
    18
100
AcDbLine
 10
5.7253406934
 20
-8.8621689747
 30
0.0
 11
5.7715528906
 21
-9.3550365805
 31
0.0
  0
LINE
  5
C9
330
1F
100
AcDbEntity
  8
SK3
  6
SLD-Dashed
370
    18
100
AcDbLine
 10
5.7715528906
 20
-9.3550365805
 30
0.0
 11
5.7341431855
 21
-9.8143160735
 31
0.0
  0
LINE
  5
CA
330
1F
100
AcDbEntity
  8
SK3
  6
SLD-Dashed
370
    18
100
AcDbLine
 10
5.7341431855
 20
-9.8143160735
 30
0.0
 11
5.6156609875
 21
-10.2087083151
 31
0.0
  0
LINE
  5
CB
330
1F
100
AcDbEntity
  8
SK3
  6
SLD-Dashed
370
    18
100
AcDbLine
 10
5.6156609875
 20
-10.2087083151
 30
0.0
 11
5.4241806628
 21
-10.511336126
 31
0.0
  0
LINE
  5
CC
330
1F
100
AcDbEntity
  8
SK3
  6
SLD-Dashed
370
    18
100
AcDbLine
 10
5.4241806628
 20
-10.511336126
 30
0.0
 11
5.1727512789
 21
-10.7015759209
 31
0.0
  0
LINE
  5
CD
330
1F
100
AcDbEntity
  8
SK3
  6
SLD-Dashed
370
    18
100
AcDbLine
 10
5.1727512789
 20
-10.7015759209
 30
0.0
 11
4.878507333
 21
-10.7664631722
 31
0.0
  0
LINE
  5
CE
330
1F
100
AcDbEntity
  8
SK3
  6
SLD-Dashed
370
    18
100
AcDbLine
 10
4.878507333
 20
-10.7664631722
 30
0.0
 11
4.5615010636
 21
-10.7015759209
 31
0.0
  0
LINE
  5
CF
330
1F
100
AcDbEntity
  8
SK3
  6
SLD-Dashed
370
    18
100
AcDbLine
 10
4.5615010636
 20
-10.7015759209
 30
0.0
 11
4.2433359241
 21
-10.511336126
 31
0.0
  0
LINE
  5
D0
330
1F
100
AcDbEntity
  8
SK3
  6
SLD-Dashed
370
    18
100
AcDbLine
 10
4.2433359241
 20
-10.511336126
 30
0.0
 11
3.945694343
 21
-10.2087083151
 31
0.0
  0
LINE
  5
D1
330
1F
100
AcDbEntity
  8
SK3
  6
SLD-Dashed
370
    18
100
AcDbLine
 10
3.945694343
 20
-10.2087083151
 30
0.0
 11
3.6888601022
 21
-9.8143160735
 31
0.0
  0
LINE
  5
D2
330
1F
100
AcDbEntity
  8
SK3
  6
SLD-Dashed
370
    18
100
AcDbLine
 10
3.6888601022
 20
-9.8143160735
 30
0.0
 11
3.4903360307
 21
-9.3550365805
 31
0.0
  0
LINE
  5
D3
330
1F
100
AcDbEntity
  8
SK3
  6
SLD-Dashed
370
    18
100
AcDbLine
 10
3.4903360307
 20
-9.3550365805
 30
0.0
 11
3.3636512159
 21
-8.8621689747
 31
0.0
  0
LINE
  5
D4
330
1F
100
AcDbEntity
  8
SK3
  6
SLD-Dashed
370
    18
100
AcDbLine
 10
3.3636512159
 20
-8.8621689747
 30
0.0
 11
3.3174390187
 21
-8.3693013689
 31
0.0
  0
LINE
  5
D5
330
1F
100
AcDbEntity
  8
SK3
  6
SLD-Dashed
370
    18
100
AcDbLine
 10
3.3174390187
 20
-8.3693013689
 30
0.0
 11
3.3548487238
 21
-7.9100218759
 31
0.0
  0
LINE
  5
D6
330
1F
100
AcDbEntity
  8
SK3
  6
SLD-Dashed
370
    18
100
AcDbLine
 10
3.3548487238
 20
-7.9100218759
 30
0.0
 11
3.4733309218
 21
-7.5156296343
 31
0.0
  0
LINE
  5
D7
330
1F
100
AcDbEntity
  8
SK3
  6
SLD-Dashed
370
    18
100
AcDbLine
 10
3.4733309218
 20
-7.5156296343
 30
0.0
 11
3.6648112465
 21
-7.2130018234
 31
0.0
  0
LINE
  5
D8
330
1F
100
AcDbEntity
  8
SK3
  6
SLD-Dashed
370
    18
100
AcDbLine
 10
3.6648112465
 20
-7.2130018234
 30
0.0
 11
3.9162406304
 21
-7.0227620285
 31
0.0
  0
LINE
  5
D9
330
1F
100
AcDbEntity
  8
SK3
  6
SLD-Dashed
370
    18
100
AcDbLine
 10
3.9162406304
 20
-7.0227620285
 30
0.0
 11
4.2104845763
 21
-6.9578747772
 31
0.0
  0
LINE
  5
DA
330
1F
100
AcDbEntity
  8
SK3
  6
SLD-Dashed
370
    18
100
AcDbLine
 10
4.2104845763
 20
-6.9578747772
 30
0.0
 11
4.5274908457
 21
-7.0227620285
 31
0.0
  0
LINE
  5
DB
330
1F
100
AcDbEntity
  8
SK3
  6
SLD-Dashed
370
    18
100
AcDbLine
 10
4.5274908457
 20
-7.0227620285
 30
0.0
 11
4.8456559852
 21
-7.2130018234
 31
0.0
  0
LINE
  5
DC
330
1F
100
AcDbEntity
  8
SK3
  6
SLD-Dashed
370
    18
100
AcDbLine
 10
4.8456559852
 20
-7.2130018234
 30
0.0
 11
5.1432975663
 21
-7.5156296343
 31
0.0
  0
LINE
  5
DD
330
1F
100
AcDbEntity
  8
SK3
  6
SLD-Dashed
370
    18
100
AcDbLine
 10
5.1432975663
 20
-7.5156296343
 30
0.0
 11
5.4001318071
 21
-7.9100218759
 31
0.0
  0
LINE
  5
DE
330
1F
100
AcDbEntity
  8
SK3
  6
SLD-Dashed
370
    18
100
AcDbLine
 10
5.4001318071
 20
-7.9100218759
 30
0.0
 11
5.5986558786
 21
-8.3693013689
 31
0.0
  0
LINE
  5
DF
330
1F
100
AcDbEntity
  8
SK3
  6
SLD-Dashed
370
    18
100
AcDbLine
 10
5.5986558786
 20
-8.3693013689
 30
0.0
 11
5.7253406934
 21
-8.8621689747
 31
0.0
  0
LINE
  5
E0
330
1F
100
AcDbEntity
  8
SK3
  6
SLD-Dashed
370
    18
100
AcDbLine
 10
16.3488925452
 20
-5.9198440145
 30
0.0
 11
16.2222077304
 21
-5.4269764087
 31
0.0
  0
LINE
  5
E1
330
1F
100
AcDbEntity
  8
SK3
  6
SLD-Dashed
370
    18
100
AcDbLine
 10
16.2222077304
 20
-5.4269764087
 30
0.0
 11
16.0236836589
 21
-4.9676969157
 31
0.0
  0
LINE
  5
E2
330
1F
100
AcDbEntity
  8
SK3
  6
SLD-Dashed
370
    18
100
AcDbLine
 10
16.0236836589
 20
-4.9676969157
 30
0.0
 11
15.7668494181
 21
-4.573304674
 31
0.0
  0
LINE
  5
E3
330
1F
100
AcDbEntity
  8
SK3
  6
SLD-Dashed
370
    18
100
AcDbLine
 10
15.7668494181
 20
-4.573304674
 30
0.0
 11
15.469207837
 21
-4.2706768632
 31
0.0
  0
LINE
  5
E4
330
1F
100
AcDbEntity
  8
SK3
  6
SLD-Dashed
370
    18
100
AcDbLine
 10
15.469207837
 20
-4.2706768632
 30
0.0
 11
15.1510426975
 21
-4.0804370683
 31
0.0
  0
LINE
  5
E5
330
1F
100
AcDbEntity
  8
SK3
  6
SLD-Dashed
370
    18
100
AcDbLine
 10
15.1510426975
 20
-4.0804370683
 30
0.0
 11
14.8340364281
 21
-4.015549817
 31
0.0
  0
LINE
  5
E6
330
1F
100
AcDbEntity
  8
SK3
  6
SLD-Dashed
370
    18
100
AcDbLine
 10
14.8340364281
 20
-4.015549817
 30
0.0
 11
14.5397924821
 21
-4.0804370683
 31
0.0
  0
LINE
  5
E7
330
1F
100
AcDbEntity
  8
SK3
  6
SLD-Dashed
370
    18
100
AcDbLine
 10
14.5397924821
 20
-4.0804370683
 30
0.0
 11
14.2883630983
 21
-4.2706768632
 31
0.0
  0
LINE
  5
E8
330
1F
100
AcDbEntity
  8
SK3
  6
SLD-Dashed
370
    18
100
AcDbLine
 10
14.2883630983
 20
-4.2706768632
 30
0.0
 11
14.0968827735
 21
-4.573304674
 31
0.0
  0
LINE
  5
E9
330
1F
100
AcDbEntity
  8
SK3
  6
SLD-Dashed
370
    18
100
AcDbLine
 10
14.0968827735
 20
-4.573304674
 30
0.0
 11
13.9784005756
 21
-4.9676969157
 31
0.0
  0
LINE
  5
EA
330
1F
100
AcDbEntity
  8
SK3
  6
SLD-Dashed
370
    18
100
AcDbLine
 10
13.9784005756
 20
-4.9676969157
 30
0.0
 11
13.9409908705
 21
-5.4269764087
 31
0.0
  0
LINE
  5
EB
330
1F
100
AcDbEntity
  8
SK3
  6
SLD-Dashed
370
    18
100
AcDbLine
 10
13.9409908705
 20
-5.4269764087
 30
0.0
 11
13.9872030677
 21
-5.9198440145
 31
0.0
  0
LINE
  5
EC
330
1F
100
AcDbEntity
  8
SK3
  6
SLD-Dashed
370
    18
100
AcDbLine
 10
13.9872030677
 20
-5.9198440145
 30
0.0
 11
14.1138878825
 21
-6.4127116203
 31
0.0
  0
LINE
  5
ED
330
1F
100
AcDbEntity
  8
SK3
  6
SLD-Dashed
370
    18
100
AcDbLine
 10
14.1138878825
 20
-6.4127116203
 30
0.0
 11
14.3124119539
 21
-6.8719911132
 31
0.0
  0
LINE
  5
EE
330
1F
100
AcDbEntity
  8
SK3
  6
SLD-Dashed
370
    18
100
AcDbLine
 10
14.3124119539
 20
-6.8719911132
 30
0.0
 11
14.5692461948
 21
-7.2663833549
 31
0.0
  0
LINE
  5
EF
330
1F
100
AcDbEntity
  8
SK3
  6
SLD-Dashed
370
    18
100
AcDbLine
 10
14.5692461948
 20
-7.2663833549
 30
0.0
 11
14.8668877759
 21
-7.5690111658
 31
0.0
  0
LINE
  5
F0
330
1F
100
AcDbEntity
  8
SK3
  6
SLD-Dashed
370
    18
100
AcDbLine
 10
14.8668877759
 20
-7.5690111658
 30
0.0
 11
15.1850529154
 21
-7.7592509607
 31
0.0
  0
LINE
  5
F1
330
1F
100
AcDbEntity
  8
SK3
  6
SLD-Dashed
370
    18
100
AcDbLine
 10
15.1850529154
 20
-7.7592509607
 30
0.0
 11
15.5020591848
 21
-7.824138212
 31
0.0
  0
LINE
  5
F2
330
1F
100
AcDbEntity
  8
SK3
  6
SLD-Dashed
370
    18
100
AcDbLine
 10
15.5020591848
 20
-7.824138212
 30
0.0
 11
15.7963031307
 21
-7.7592509607
 31
0.0
  0
LINE
  5
F3
330
1F
100
AcDbEntity
  8
SK3
  6
SLD-Dashed
370
    18
100
AcDbLine
 10
15.7963031307
 20
-7.7592509607
 30
0.0
 11
16.0477325146
 21
-7.5690111658
 31
0.0
  0
LINE
  5
F4
330
1F
100
AcDbEntity
  8
SK3
  6
SLD-Dashed
370
    18
100
AcDbLine
 10
16.0477325146
 20
-7.5690111658
 30
0.0
 11
16.2392128393
 21
-7.2663833549
 31
0.0
  0
LINE
  5
F5
330
1F
100
AcDbEntity
  8
SK3
  6
SLD-Dashed
370
    18
100
AcDbLine
 10
16.2392128393
 20
-7.2663833549
 30
0.0
 11
16.3576950373
 21
-6.8719911132
 31
0.0
  0
LINE
  5
F6
330
1F
100
AcDbEntity
  8
SK3
  6
SLD-Dashed
370
    18
100
AcDbLine
 10
16.3576950373
 20
-6.8719911132
 30
0.0
 11
16.3951047424
 21
-6.4127116203
 31
0.0
  0
LINE
  5
F7
330
1F
100
AcDbEntity
  8
SK3
  6
SLD-Dashed
370
    18
100
AcDbLine
 10
16.3951047424
 20
-6.4127116203
 30
0.0
 11
16.3488925452
 21
-5.9198440145
 31
0.0
  0
LINE
  5
F8
330
1F
100
AcDbEntity
  8
SK3
  6
SLD-Dashed
370
    18
100
AcDbLine
 10
87.9
 20
-9.525
 30
0.0
 11
87.9
 21
9.525
 31
0.0
  0
LINE
  5
F9
330
1F
100
AcDbEntity
  8
SK3
  6
SLD-Dashed
370
    18
100
AcDbLine
 10
88.9
 20
-10.1023502692
 30
0.0
 11
88.9
 21
10.1023502692
 31
0.0
  0
LINE
  5
FA
330
1F
100
AcDbEntity
  8
SK3
  6
SLD-Dashed
370
    18
100
AcDbLine
 10
38.0997498436
 20
-9.525
 30
0.0
 11
38.0997498436
 21
9.525
 31
0.0
  0
LINE
  5
FB
330
1F
100
AcDbEntity
  8
SK3
  6
SLD-Dashed
370
    18
100
AcDbLine
 10
37.9
 20
-9.7110381533
 30
0.0
 11
37.9
 21
9.7110381533
 31
0.0
  0
LINE
  5
FC
330
1F
100
AcDbEntity
  8
SK3
  6
SLD-Dashed
370
    18
100
AcDbLine
 10
-11.0
 20
-9.7110381533
 30
0.0
 11
-11.0
 21
9.7110381533
 31
0.0
  0
LINE
  5
FD
330
1F
100
AcDbEntity
  8
SK3
  6
SLD-Dashed
370
    18
100
AcDbLine
 10
-11.1997498436
 20
-9.525
 30
0.0
 11
-11.1997498436
 21
9.525
 31
0.0
  0
LINE
  5
FE
330
1F
100
AcDbEntity
  8
SK3
  6
SLD-Dashed
370
    18
100
AcDbLine
 10
-14.2
 20
-9.525
 30
0.0
 11
-14.2
 21
9.525
 31
0.0
  0
LINE
  5
FF
330
1F
100
AcDbEntity
  8
SK3
  6
SLD-Dashed
370
    18
100
AcDbLine
 10
-15.8696474537
 20
-6.74624
 30
0.0
 11
-15.8696474537
 21
6.74624
 31
0.0
  0
LINE
  5
100
330
1F
100
AcDbEntity
  8
SK3
  6
SLD-Dashed
370
    18
100
AcDbLine
 10
-66.6824940192
 20
-8.235
 30
0.0
 11
-66.6824940192
 21
8.235
 31
0.0
  0
LINE
  5
101
330
1F
100
AcDbEntity
  8
SK3
  6
SLD-Dashed
370
    18
100
AcDbLine
 10
-68.25
 20
-9.1245365666
 30
0.0
 11
-68.25
 21
9.1245365666
 31
0.0
  0
LINE
  5
102
330
1F
100
AcDbEntity
  8
SK3
  6
SLD-Dashed
370
    18
100
AcDbLine
 10
72.0
 20
20.225
 30
0.0
 11
55.0
 21
20.225
 31
0.0
  0
LINE
  5
103
330
1F
100
AcDbEntity
  8
SK3
  6
SLD-Dashed
370
    18
100
AcDbLine
 10
-63.48
 20
-8.235
 30
0.0
 11
-63.48
 21
8.235
 31
0.0
  0
LINE
  5
104
330
1F
100
AcDbEntity
  8
SK3
  6
SLD-Dashed
370
    18
100
AcDbLine
 10
-62.6204640132
 20
-6.74624
 30
0.0
 11
-62.6204640132
 21
6.74624
 31
0.0
  0
LINE
  5
105
330
1F
100
AcDbEntity
  8
SK3
  6
SLD-Dashed
370
    18
100
AcDbLine
 10
3.5452916241
 20
-29.8048664484
 30
0.0
 11
3.5452916241
 21
-22.785
 31
0.0
  0
LINE
  5
106
330
1F
100
AcDbEntity
  8
SK3
  6
SLD-Dashed
370
    18
100
AcDbLine
 10
18.704611155
 20
-22.785
 30
0.0
 11
18.704611155
 21
-29.8048552742
 31
0.0
  0
LINE
  5
107
330
1F
100
AcDbEntity
  8
SK3
  6
SLD-Dashed
370
    18
100
AcDbLine
 10
7.8539870535
 20
-30.2255814201
 30
0.0
 11
3.95
 21
-30.2255814201
 31
0.0
  0
LINE
  5
108
330
1F
100
AcDbEntity
  8
SK3
  6
SLD-Dashed
370
    18
100
AcDbLine
 10
18.3
 20
-30.2254693878
 30
0.0
 11
14.3759504666
 21
-30.2254693878
 31
0.0
  0
LINE
  5
109
330
1F
100
AcDbEntity
  8
1
  6
SLD-Dashed
370
    18
100
AcDbLine
 10
9.2
 20
-27.8050456342
 30
0.0
 11
9.2
 21
-27.7691663541
 31
0.0
  0
LINE
  5
10A
330
1F
100
AcDbEntity
  8
1
  6
SLD-Dashed
370
    18
100
AcDbLine
 10
13.03
 20
-27.7691663541
 30
0.0
 11
13.03
 21
-27.8050456342
 31
0.0
  0
LINE
  5
10B
330
1F
100
AcDbEntity
  8
SK3
  6
SLD-Dashed
370
    18
100
AcDbLine
 10
18.7047083759
 20
29.8048664484
 30
0.0
 11
18.7047083759
 21
25.5791202528
 31
0.0
  0
LINE
  5
10C
330
1F
100
AcDbEntity
  8
SK3
  6
SLD-Dashed
370
    18
100
AcDbLine
 10
3.545388845
 20
25.5789825872
 30
0.0
 11
3.545388845
 21
29.8048552742
 31
0.0
  0
LINE
  5
10D
330
1F
100
AcDbEntity
  8
SK3
  6
SLD-Dashed
370
    18
100
AcDbLine
 10
14.3760129465
 20
30.2255814201
 30
0.0
 11
18.3
 21
30.2255814201
 31
0.0
  0
LINE
  5
10E
330
1F
100
AcDbEntity
  8
SK3
  6
SLD-Dashed
370
    18
100
AcDbLine
 10
3.95
 20
30.2254693878
 30
0.0
 11
7.8540495334
 21
30.2254693878
 31
0.0
  0
LINE
  5
10F
330
1F
100
AcDbEntity
  8
1
  6
SLD-Dashed
370
    18
100
AcDbLine
 10
9.2
 20
27.8050456342
 30
0.0
 11
9.2
 21
27.7691663541
 31
0.0
  0
LINE
  5
110
330
1F
100
AcDbEntity
  8
1
  6
SLD-Dashed
370
    18
100
AcDbLine
 10
13.03
 20
27.7691663541
 30
0.0
 11
13.03
 21
27.8050456342
 31
0.0
  0
LINE
  5
111
330
1F
100
AcDbEntity
  8
SK3
  6
SLD-Dashed
370
    18
100
AcDbLine
 10
18.704611155
 20
-22.41
 30
0.0
 11
3.5452916241
 21
-22.41
 31
0.0
  0
LINE
  5
112
330
1F
100
AcDbEntity
  8
SK3
  6
SLD-Dashed
370
    18
100
AcDbLine
 10
3.5452916241
 20
-22.785
 30
0.0
 11
18.704611155
 21
-22.785
 31
0.0
  0
LINE
  5
113
330
1F
100
AcDbEntity
  8
SK3
  6
SLD-Dashed
370
    18
100
AcDbLine
 10
3.7
 20
24.83
 30
0.0
 11
18.55
 21
24.83
 31
0.0
  0
LINE
  5
114
330
1F
100
AcDbEntity
  8
SK3
  6
SLD-Dashed
370
    18
100
AcDbLine
 10
18.55
 20
25.205
 30
0.0
 11
3.7
 21
25.205
 31
0.0
  0
LINE
  5
115
330
1F
100
AcDbEntity
  8
SK3
  6
SLD-Dashed
370
    18
100
AcDbLine
 10
70.6755
 20
20.225
 30
0.0
 11
56.3405237624
 21
20.225
 31
0.0
  0
LINE
  5
116
330
1F
100
AcDbEntity
  8
SK3
  6
SLD-Dashed
370
    18
100
AcDbLine
 10
16.1
 20
20.43
 30
0.0
 11
6.1
 21
20.43
 31
0.0
  0
LINE
  5
117
330
1F
100
AcDbEntity
  8
SK3
  6
SLD-Dashed
370
    18
100
AcDbLine
 10
6.1
 20
24.83
 30
0.0
 11
16.1
 21
24.83
 31
0.0
  0
LINE
  5
118
330
1F
100
AcDbEntity
  8
SK3
  6
SLD-Dashed
370
    18
100
AcDbLine
 10
6.4
 20
20.13
 30
0.0
 11
15.8
 21
20.13
 31
0.0
  0
LINE
  5
119
330
1F
100
AcDbEntity
  8
SK3
  6
SLD-Dashed
370
    18
100
AcDbLine
 10
18.7047083759
 20
-22.785
 30
0.0
 11
3.545388845
 21
-22.785
 31
0.0
  0
LINE
  5
11A
330
1F
100
AcDbEntity
  8
SK3
  6
SLD-Dashed
370
    18
100
AcDbLine
 10
3.545388845
 20
-22.41
 30
0.0
 11
18.7047083759
 21
-22.41
 31
0.0
  0
LINE
  5
11B
330
1F
100
AcDbEntity
  8
SK3
  6
SLD-Dashed
370
    18
100
AcDbLine
 10
3.95
 20
-30.2254693878
 30
0.0
 11
7.8540495334
 21
-30.2254693878
 31
0.0
  0
LINE
  5
11C
330
1F
100
AcDbEntity
  8
SK3
  6
SLD-Dashed
370
    18
100
AcDbLine
 10
14.3760129465
 20
-30.2255814201
 30
0.0
 11
18.3
 21
-30.2255814201
 31
0.0
  0
LINE
  5
11D
330
1F
100
AcDbEntity
  8
1
  6
SLD-Dashed
370
    18
100
AcDbLine
 10
12.28
 20
-26.9870635676
 30
0.0
 11
9.95
 21
-26.9870635676
 31
0.0
  0
LINE
  5
11E
330
1F
100
AcDbEntity
  8
SK3
  6
SLD-Dashed
370
    18
100
AcDbLine
 10
3.545388845
 20
-22.785
 30
0.0
 11
3.545388845
 21
-29.8048552742
 31
0.0
  0
LINE
  5
11F
330
1F
100
AcDbEntity
  8
SK3
  6
SLD-Dashed
370
    18
100
AcDbLine
 10
18.7047083759
 20
-29.8048664484
 30
0.0
 11
18.7047083759
 21
-22.785
 31
0.0
  0
LINE
  5
120
330
1F
100
AcDbEntity
  8
SK3
  6
SLD-Dashed
370
    18
100
AcDbLine
 10
18.3
 20
30.2254693878
 30
0.0
 11
14.3759504666
 21
30.2254693878
 31
0.0
  0
LINE
  5
121
330
1F
100
AcDbEntity
  8
SK3
  6
SLD-Dashed
370
    18
100
AcDbLine
 10
18.704611155
 20
25.5789825872
 30
0.0
 11
18.704611155
 21
29.8048552742
 31
0.0
  0
LINE
  5
122
330
1F
100
AcDbEntity
  8
SK3
  6
SLD-Dashed
370
    18
100
AcDbLine
 10
3.5452916241
 20
29.8048664484
 30
0.0
 11
3.5452916241
 21
25.5791202528
 31
0.0
  0
LINE
  5
123
330
1F
100
AcDbEntity
  8
SK3
  6
SLD-Dashed
370
    18
100
AcDbLine
 10
7.8539870535
 20
30.2255814201
 30
0.0
 11
3.95
 21
30.2255814201
 31
0.0
  0
LINE
  5
124
330
1F
100
AcDbEntity
  8
1
  6
SLD-Dashed
370
    18
100
AcDbLine
 10
12.28
 20
26.9870635676
 30
0.0
 11
9.95
 21
26.9870635676
 31
0.0
  0
LINE
  5
125
330
1F
100
AcDbEntity
  8
SK3
  6
SLD-Dashed
370
    18
100
AcDbLine
 10
3.3636512159
 20
8.8621689747
 30
0.0
 11
3.3174390187
 21
8.3693013689
 31
0.0
  0
LINE
  5
126
330
1F
100
AcDbEntity
  8
SK3
  6
SLD-Dashed
370
    18
100
AcDbLine
 10
3.3174390187
 20
8.3693013689
 30
0.0
 11
3.3548487238
 21
7.9100218759
 31
0.0
  0
LINE
  5
127
330
1F
100
AcDbEntity
  8
SK3
  6
SLD-Dashed
370
    18
100
AcDbLine
 10
3.3548487238
 20
7.9100218759
 30
0.0
 11
3.4733309218
 21
7.5156296343
 31
0.0
  0
LINE
  5
128
330
1F
100
AcDbEntity
  8
SK3
  6
SLD-Dashed
370
    18
100
AcDbLine
 10
3.4733309218
 20
7.5156296343
 30
0.0
 11
3.6648112465
 21
7.2130018234
 31
0.0
  0
LINE
  5
129
330
1F
100
AcDbEntity
  8
SK3
  6
SLD-Dashed
370
    18
100
AcDbLine
 10
3.6648112465
 20
7.2130018234
 30
0.0
 11
3.9162406304
 21
7.0227620285
 31
0.0
  0
LINE
  5
12A
330
1F
100
AcDbEntity
  8
SK3
  6
SLD-Dashed
370
    18
100
AcDbLine
 10
3.9162406304
 20
7.0227620285
 30
0.0
 11
4.2104845763
 21
6.9578747772
 31
0.0
  0
LINE
  5
12B
330
1F
100
AcDbEntity
  8
SK3
  6
SLD-Dashed
370
    18
100
AcDbLine
 10
4.2104845763
 20
6.9578747772
 30
0.0
 11
4.5274908457
 21
7.0227620285
 31
0.0
  0
LINE
  5
12C
330
1F
100
AcDbEntity
  8
SK3
  6
SLD-Dashed
370
    18
100
AcDbLine
 10
4.5274908457
 20
7.0227620285
 30
0.0
 11
4.8456559852
 21
7.2130018234
 31
0.0
  0
LINE
  5
12D
330
1F
100
AcDbEntity
  8
SK3
  6
SLD-Dashed
370
    18
100
AcDbLine
 10
4.8456559852
 20
7.2130018234
 30
0.0
 11
5.1432975663
 21
7.5156296343
 31
0.0
  0
LINE
  5
12E
330
1F
100
AcDbEntity
  8
SK3
  6
SLD-Dashed
370
    18
100
AcDbLine
 10
5.1432975663
 20
7.5156296343
 30
0.0
 11
5.4001318071
 21
7.9100218759
 31
0.0
  0
LINE
  5
12F
330
1F
100
AcDbEntity
  8
SK3
  6
SLD-Dashed
370
    18
100
AcDbLine
 10
5.4001318071
 20
7.9100218759
 30
0.0
 11
5.5986558786
 21
8.3693013689
 31
0.0
  0
LINE
  5
130
330
1F
100
AcDbEntity
  8
SK3
  6
SLD-Dashed
370
    18
100
AcDbLine
 10
5.5986558786
 20
8.3693013689
 30
0.0
 11
5.7253406934
 21
8.8621689747
 31
0.0
  0
LINE
  5
131
330
1F
100
AcDbEntity
  8
SK3
  6
SLD-Dashed
370
    18
100
AcDbLine
 10
5.7253406934
 20
8.8621689747
 30
0.0
 11
5.7715528906
 21
9.3550365805
 31
0.0
  0
LINE
  5
132
330
1F
100
AcDbEntity
  8
SK3
  6
SLD-Dashed
370
    18
100
AcDbLine
 10
5.7715528906
 20
9.3550365805
 30
0.0
 11
5.7341431855
 21
9.8143160735
 31
0.0
  0
LINE
  5
133
330
1F
100
AcDbEntity
  8
SK3
  6
SLD-Dashed
370
    18
100
AcDbLine
 10
5.7341431855
 20
9.8143160735
 30
0.0
 11
5.6156609875
 21
10.2087083151
 31
0.0
  0
LINE
  5
134
330
1F
100
AcDbEntity
  8
SK3
  6
SLD-Dashed
370
    18
100
AcDbLine
 10
5.6156609875
 20
10.2087083151
 30
0.0
 11
5.4241806628
 21
10.511336126
 31
0.0
  0
LINE
  5
135
330
1F
100
AcDbEntity
  8
SK3
  6
SLD-Dashed
370
    18
100
AcDbLine
 10
5.4241806628
 20
10.511336126
 30
0.0
 11
5.1727512789
 21
10.7015759209
 31
0.0
  0
LINE
  5
136
330
1F
100
AcDbEntity
  8
SK3
  6
SLD-Dashed
370
    18
100
AcDbLine
 10
5.1727512789
 20
10.7015759209
 30
0.0
 11
4.878507333
 21
10.7664631722
 31
0.0
  0
LINE
  5
137
330
1F
100
AcDbEntity
  8
SK3
  6
SLD-Dashed
370
    18
100
AcDbLine
 10
4.878507333
 20
10.7664631722
 30
0.0
 11
4.5615010636
 21
10.7015759209
 31
0.0
  0
LINE
  5
138
330
1F
100
AcDbEntity
  8
SK3
  6
SLD-Dashed
370
    18
100
AcDbLine
 10
4.5615010636
 20
10.7015759209
 30
0.0
 11
4.2433359241
 21
10.511336126
 31
0.0
  0
LINE
  5
139
330
1F
100
AcDbEntity
  8
SK3
  6
SLD-Dashed
370
    18
100
AcDbLine
 10
4.2433359241
 20
10.511336126
 30
0.0
 11
3.945694343
 21
10.2087083151
 31
0.0
  0
LINE
  5
13A
330
1F
100
AcDbEntity
  8
SK3
  6
SLD-Dashed
370
    18
100
AcDbLine
 10
3.945694343
 20
10.2087083151
 30
0.0
 11
3.6888601022
 21
9.8143160735
 31
0.0
  0
LINE
  5
13B
330
1F
100
AcDbEntity
  8
SK3
  6
SLD-Dashed
370
    18
100
AcDbLine
 10
3.6888601022
 20
9.8143160735
 30
0.0
 11
3.4903360307
 21
9.3550365805
 31
0.0
  0
LINE
  5
13C
330
1F
100
AcDbEntity
  8
SK3
  6
SLD-Dashed
370
    18
100
AcDbLine
 10
3.4903360307
 20
9.3550365805
 30
0.0
 11
3.3636512159
 21
8.8621689747
 31
0.0
  0
LINE
  5
13D
330
1F
100
AcDbEntity
  8
SK3
  6
SLD-Dashed
370
    18
100
AcDbLine
 10
13.9872030677
 20
5.9198440145
 30
0.0
 11
14.1138878825
 21
6.4127116203
 31
0.0
  0
LINE
  5
13E
330
1F
100
AcDbEntity
  8
SK3
  6
SLD-Dashed
370
    18
100
AcDbLine
 10
14.1138878825
 20
6.4127116203
 30
0.0
 11
14.3124119539
 21
6.8719911132
 31
0.0
  0
LINE
  5
13F
330
1F
100
AcDbEntity
  8
SK3
  6
SLD-Dashed
370
    18
100
AcDbLine
 10
14.3124119539
 20
6.8719911132
 30
0.0
 11
14.5692461948
 21
7.2663833549
 31
0.0
  0
LINE
  5
140
330
1F
100
AcDbEntity
  8
SK3
  6
SLD-Dashed
370
    18
100
AcDbLine
 10
14.5692461948
 20
7.2663833549
 30
0.0
 11
14.8668877759
 21
7.5690111658
 31
0.0
  0
LINE
  5
141
330
1F
100
AcDbEntity
  8
SK3
  6
SLD-Dashed
370
    18
100
AcDbLine
 10
14.8668877759
 20
7.5690111658
 30
0.0
 11
15.1850529154
 21
7.7592509607
 31
0.0
  0
LINE
  5
142
330
1F
100
AcDbEntity
  8
SK3
  6
SLD-Dashed
370
    18
100
AcDbLine
 10
15.1850529154
 20
7.7592509607
 30
0.0
 11
15.5020591848
 21
7.824138212
 31
0.0
  0
LINE
  5
143
330
1F
100
AcDbEntity
  8
SK3
  6
SLD-Dashed
370
    18
100
AcDbLine
 10
15.5020591848
 20
7.824138212
 30
0.0
 11
15.7963031307
 21
7.7592509607
 31
0.0
  0
LINE
  5
144
330
1F
100
AcDbEntity
  8
SK3
  6
SLD-Dashed
370
    18
100
AcDbLine
 10
15.7963031307
 20
7.7592509607
 30
0.0
 11
16.0477325146
 21
7.5690111658
 31
0.0
  0
LINE
  5
145
330
1F
100
AcDbEntity
  8
SK3
  6
SLD-Dashed
370
    18
100
AcDbLine
 10
16.0477325146
 20
7.5690111658
 30
0.0
 11
16.2392128393
 21
7.2663833549
 31
0.0
  0
LINE
  5
146
330
1F
100
AcDbEntity
  8
SK3
  6
SLD-Dashed
370
    18
100
AcDbLine
 10
16.2392128393
 20
7.2663833549
 30
0.0
 11
16.3576950373
 21
6.8719911132
 31
0.0
  0
LINE
  5
147
330
1F
100
AcDbEntity
  8
SK3
  6
SLD-Dashed
370
    18
100
AcDbLine
 10
16.3576950373
 20
6.8719911132
 30
0.0
 11
16.3951047424
 21
6.4127116203
 31
0.0
  0
LINE
  5
148
330
1F
100
AcDbEntity
  8
SK3
  6
SLD-Dashed
370
    18
100
AcDbLine
 10
16.3951047424
 20
6.4127116203
 30
0.0
 11
16.3488925452
 21
5.9198440145
 31
0.0
  0
LINE
  5
149
330
1F
100
AcDbEntity
  8
SK3
  6
SLD-Dashed
370
    18
100
AcDbLine
 10
16.3488925452
 20
5.9198440145
 30
0.0
 11
16.2222077304
 21
5.4269764087
 31
0.0
  0
LINE
  5
14A
330
1F
100
AcDbEntity
  8
SK3
  6
SLD-Dashed
370
    18
100
AcDbLine
 10
16.2222077304
 20
5.4269764087
 30
0.0
 11
16.0236836589
 21
4.9676969157
 31
0.0
  0
LINE
  5
14B
330
1F
100
AcDbEntity
  8
SK3
  6
SLD-Dashed
370
    18
100
AcDbLine
 10
16.0236836589
 20
4.9676969157
 30
0.0
 11
15.7668494181
 21
4.573304674
 31
0.0
  0
LINE
  5
14C
330
1F
100
AcDbEntity
  8
SK3
  6
SLD-Dashed
370
    18
100
AcDbLine
 10
15.7668494181
 20
4.573304674
 30
0.0
 11
15.469207837
 21
4.2706768632
 31
0.0
  0
LINE
  5
14D
330
1F
100
AcDbEntity
  8
SK3
  6
SLD-Dashed
370
    18
100
AcDbLine
 10
15.469207837
 20
4.2706768632
 30
0.0
 11
15.1510426975
 21
4.0804370683
 31
0.0
  0
LINE
  5
14E
330
1F
100
AcDbEntity
  8
SK3
  6
SLD-Dashed
370
    18
100
AcDbLine
 10
15.1510426975
 20
4.0804370683
 30
0.0
 11
14.8340364281
 21
4.015549817
 31
0.0
  0
LINE
  5
14F
330
1F
100
AcDbEntity
  8
SK3
  6
SLD-Dashed
370
    18
100
AcDbLine
 10
14.8340364281
 20
4.015549817
 30
0.0
 11
14.5397924821
 21
4.0804370683
 31
0.0
  0
LINE
  5
150
330
1F
100
AcDbEntity
  8
SK3
  6
SLD-Dashed
370
    18
100
AcDbLine
 10
14.5397924821
 20
4.0804370683
 30
0.0
 11
14.2883630983
 21
4.2706768632
 31
0.0
  0
LINE
  5
151
330
1F
100
AcDbEntity
  8
SK3
  6
SLD-Dashed
370
    18
100
AcDbLine
 10
14.2883630983
 20
4.2706768632
 30
0.0
 11
14.0968827735
 21
4.573304674
 31
0.0
  0
LINE
  5
152
330
1F
100
AcDbEntity
  8
SK3
  6
SLD-Dashed
370
    18
100
AcDbLine
 10
14.0968827735
 20
4.573304674
 30
0.0
 11
13.9784005756
 21
4.9676969157
 31
0.0
  0
LINE
  5
153
330
1F
100
AcDbEntity
  8
SK3
  6
SLD-Dashed
370
    18
100
AcDbLine
 10
13.9784005756
 20
4.9676969157
 30
0.0
 11
13.9409908705
 21
5.4269764087
 31
0.0
  0
LINE
  5
154
330
1F
100
AcDbEntity
  8
SK3
  6
SLD-Dashed
370
    18
100
AcDbLine
 10
13.9409908705
 20
5.4269764087
 30
0.0
 11
13.9872030677
 21
5.9198440145
 31
0.0
  0
LINE
  5
155
330
1F
100
AcDbEntity
  8
SK3
  6
SLD-Dashed
370
    18
100
AcDbLine
 10
3.3100253255
 20
8.8686354442
 30
0.0
 11
3.4332701059
 21
9.3543571971
 31
0.0
  0
LINE
  5
156
330
1F
100
AcDbEntity
  8
SK3
  6
SLD-Dashed
370
    18
100
AcDbLine
 10
3.4332701059
 20
9.3543571971
 30
0.0
 11
3.6248702638
 21
9.809559266
 31
0.0
  0
LINE
  5
157
330
1F
100
AcDbEntity
  8
SK3
  6
SLD-Dashed
370
    18
100
AcDbLine
 10
3.6248702638
 20
9.809559266
 30
0.0
 11
3.8727868565
 21
10.2056396306
 31
0.0
  0
LINE
  5
158
330
1F
100
AcDbEntity
  8
SK3
  6
SLD-Dashed
370
    18
100
AcDbLine
 10
3.8727868565
 20
10.2056396306
 30
0.0
 11
4.1614423729
 21
10.5177111051
 31
0.0
  0
LINE
  5
159
330
1F
100
AcDbEntity
  8
SK3
  6
SLD-Dashed
370
    18
100
AcDbLine
 10
4.1614423729
 20
10.5177111051
 30
0.0
 11
4.4726995251
 21
10.7261650909
 31
0.0
  0
LINE
  5
15A
330
1F
100
AcDbEntity
  8
SK3
  6
SLD-Dashed
370
    18
100
AcDbLine
 10
4.4726995251
 20
10.7261650909
 30
0.0
 11
4.7870008817
 21
10.8179036574
 31
0.0
  0
LINE
  5
15B
330
1F
100
AcDbEntity
  8
SK3
  6
SLD-Dashed
370
    18
100
AcDbLine
 10
4.7870008817
 20
10.8179036574
 30
0.0
 11
5.0845977324
 21
10.7871625333
 31
0.0
  0
LINE
  5
15C
330
1F
100
AcDbEntity
  8
SK3
  6
SLD-Dashed
370
    18
100
AcDbLine
 10
5.0845977324
 20
10.7871625333
 30
0.0
 11
5.3467909727
 21
10.6358732963
 31
0.0
  0
LINE
  5
15D
330
1F
100
AcDbEntity
  8
SK3
  6
SLD-Dashed
370
    18
100
AcDbLine
 10
5.3467909727
 20
10.6358732963
 30
0.0
 11
5.5571060369
 21
10.3735420056
 31
0.0
  0
LINE
  5
15E
330
1F
100
AcDbEntity
  8
SK3
  6
SLD-Dashed
370
    18
100
AcDbLine
 10
5.5571060369
 20
10.3735420056
 30
0.0
 11
5.7023280561
 21
10.016651901
 31
0.0
  0
LINE
  5
15F
330
1F
100
AcDbEntity
  8
SK3
  6
SLD-Dashed
370
    18
100
AcDbLine
 10
5.7023280561
 20
10.016651901
 30
0.0
 11
5.7733321968
 21
9.5876277002
 31
0.0
  0
LINE
  5
160
330
1F
100
AcDbEntity
  8
SK3
  6
SLD-Dashed
370
    18
100
AcDbLine
 10
5.7733321968
 20
9.5876277002
 30
0.0
 11
5.7656570077
 21
9.1134265718
 31
0.0
  0
LINE
  5
161
330
1F
100
AcDbEntity
  8
SK3
  6
SLD-Dashed
370
    18
100
AcDbLine
 10
5.7656570077
 20
9.1134265718
 30
0.0
 11
5.679784749
 21
8.6238443166
 31
0.0
  0
LINE
  5
162
330
1F
100
AcDbEntity
  8
SK3
  6
SLD-Dashed
370
    18
100
AcDbLine
 10
5.679784749
 20
8.6238443166
 30
0.0
 11
5.5211110907
 21
8.1496431882
 31
0.0
  0
LINE
  5
163
330
1F
100
AcDbEntity
  8
SK3
  6
SLD-Dashed
370
    18
100
AcDbLine
 10
5.5211110907
 20
8.1496431882
 30
0.0
 11
5.2996060822
 21
7.7206189875
 31
0.0
  0
LINE
  5
164
330
1F
100
AcDbEntity
  8
SK3
  6
SLD-Dashed
370
    18
100
AcDbLine
 10
5.2996060822
 20
7.7206189875
 30
0.0
 11
5.029187698
 21
7.3637288828
 31
0.0
  0
LINE
  5
165
330
1F
100
AcDbEntity
  8
SK3
  6
SLD-Dashed
370
    18
100
AcDbLine
 10
5.029187698
 20
7.3637288828
 30
0.0
 11
4.7268473195
 21
7.1013975921
 31
0.0
  0
LINE
  5
166
330
1F
100
AcDbEntity
  8
SK3
  6
SLD-Dashed
370
    18
100
AcDbLine
 10
4.7268473195
 20
7.1013975921
 30
0.0
 11
4.4115821047
 21
6.9501083551
 31
0.0
  0
LINE
  5
167
330
1F
100
AcDbEntity
  8
SK3
  6
SLD-Dashed
370
    18
100
AcDbLine
 10
4.4115821047
 20
6.9501083551
 30
0.0
 11
4.1032013265
 21
6.919367231
 31
0.0
  0
LINE
  5
168
330
1F
100
AcDbEntity
  8
SK3
  6
SLD-Dashed
370
    18
100
AcDbLine
 10
4.1032013265
 20
6.919367231
 30
0.0
 11
3.8210816833
 21
7.0111057976
 31
0.0
  0
LINE
  5
169
330
1F
100
AcDbEntity
  8
SK3
  6
SLD-Dashed
370
    18
100
AcDbLine
 10
3.8210816833
 20
7.0111057976
 30
0.0
 11
3.58294979
 21
7.2195597834
 31
0.0
  0
LINE
  5
16A
330
1F
100
AcDbEntity
  8
SK3
  6
SLD-Dashed
370
    18
100
AcDbLine
 10
3.58294979
 20
7.2195597834
 30
0.0
 11
3.4037683491
 21
7.5316312578
 31
0.0
  0
LINE
  5
16B
330
1F
100
AcDbEntity
  8
SK3
  6
SLD-Dashed
370
    18
100
AcDbLine
 10
3.4037683491
 20
7.5316312578
 30
0.0
 11
3.2947959895
 21
7.9277116224
 31
0.0
  0
LINE
  5
16C
330
1F
100
AcDbEntity
  8
SK3
  6
SLD-Dashed
370
    18
100
AcDbLine
 10
3.2947959895
 20
7.9277116224
 30
0.0
 11
3.2628798454
 21
8.3829136913
 31
0.0
  0
LINE
  5
16D
330
1F
100
AcDbEntity
  8
SK3
  6
SLD-Dashed
370
    18
100
AcDbLine
 10
3.2628798454
 20
8.3829136913
 30
0.0
 11
3.3100253255
 21
8.8686354442
 31
0.0
  0
LINE
  5
16E
330
1F
100
AcDbEntity
  8
SK3
  6
SLD-Dashed
370
    18
100
AcDbLine
 10
3.2
 20
7.1668508159
 30
0.0
 11
3.2
 21
11.3022369236
 31
0.0
  0
LINE
  5
16F
330
1F
100
AcDbEntity
  8
SK3
  6
SLD-Dashed
370
    18
100
AcDbLine
 10
3.2
 20
-11.3098348849
 30
0.0
 11
5.0549767861
 21
-10.7960759675
 31
0.0
  0
LINE
  5
170
330
1F
100
AcDbEntity
  8
SK3
  6
SLD-Dashed
370
    18
100
AcDbLine
 10
3.9873194828
 20
-6.941194921
 30
0.0
 11
3.2
 21
-7.1592528547
 31
0.0
  0
LINE
  5
171
330
1F
100
AcDbEntity
  8
SK3
  6
SLD-Dashed
370
    18
100
AcDbLine
 10
5.06497889
 20
-10.7414234849
 30
0.0
 11
15.6885307418
 21
-7.7990985247
 31
0.0
  0
LINE
  5
172
330
1F
100
AcDbEntity
  8
SK3
  6
SLD-Dashed
370
    18
100
AcDbLine
 10
14.6475648711
 20
-4.0405895043
 30
0.0
 11
4.0240130193
 21
-6.9829144645
 31
0.0
  0
LINE
  5
173
330
1F
100
AcDbEntity
  8
SK3
  6
SLD-Dashed
370
    18
100
AcDbLine
 10
88.9
 20
10.1023502692
 30
0.0
 11
87.9
 21
9.525
 31
0.0
  0
LINE
  5
174
330
1F
100
AcDbEntity
  8
SK3
  6
SLD-Dashed
370
    18
100
AcDbLine
 10
87.9
 20
-9.525
 30
0.0
 11
88.9
 21
-10.1023502692
 31
0.0
  0
LINE
  5
175
330
1F
100
AcDbEntity
  8
SK3
  6
SLD-Dashed
370
    18
100
AcDbLine
 10
37.9
 20
9.715
 30
0.0
 11
-11.0
 21
9.715
 31
0.0
  0
LINE
  5
176
330
1F
100
AcDbEntity
  8
SK3
  6
SLD-Dashed
370
    18
100
AcDbLine
 10
-11.0
 20
-9.715
 30
0.0
 11
37.9
 21
-9.715
 31
0.0
  0
LINE
  5
177
330
1F
100
AcDbEntity
  8
SK3
  6
SLD-Dashed
370
    18
100
AcDbLine
 10
56.3245
 20
9.525
 30
0.0
 11
38.0997498436
 21
9.525
 31
0.0
  0
LINE
  5
178
330
1F
100
AcDbEntity
  8
SK3
  6
SLD-Dashed
370
    18
100
AcDbLine
 10
87.9
 20
9.525
 30
0.0
 11
70.653993079
 21
9.525
 31
0.0
  0
LINE
  5
179
330
1F
100
AcDbEntity
  8
SK3
  6
SLD-Dashed
370
    18
100
AcDbLine
 10
38.0997498436
 20
-9.525
 30
0.0
 11
87.9
 21
-9.525
 31
0.0
  0
LINE
  5
17A
330
1F
100
AcDbEntity
  8
SK3
  6
SLD-Dashed
370
    18
100
AcDbLine
 10
-11.1997498436
 20
9.525
 30
0.0
 11
-14.2
 21
9.525
 31
0.0
  0
LINE
  5
17B
330
1F
100
AcDbEntity
  8
SK3
  6
SLD-Dashed
370
    18
100
AcDbLine
 10
-14.2
 20
-9.525
 30
0.0
 11
-11.1997498436
 21
-9.525
 31
0.0
  0
LINE
  5
17C
330
1F
100
AcDbEntity
  8
SK3
  6
SLD-Dashed
370
    18
100
AcDbLine
 10
-14.2
 20
9.525
 30
0.0
 11
-15.8696474537
 21
6.74624
 31
0.0
  0
LINE
  5
17D
330
1F
100
AcDbEntity
  8
SK3
  6
SLD-Dashed
370
    18
100
AcDbLine
 10
-15.8696474537
 20
-6.74624
 30
0.0
 11
-14.2
 21
-9.525
 31
0.0
  0
LINE
  5
17E
330
1F
100
AcDbEntity
  8
SK3
  6
SLD-Dashed
370
    18
100
AcDbLine
 10
-68.25
 20
-9.14
 30
0.0
 11
-66.6824940192
 21
-8.235
 31
0.0
  0
LINE
  5
17F
330
1F
100
AcDbEntity
  8
SK3
  6
SLD-Dashed
370
    18
100
AcDbLine
 10
-66.6824940192
 20
8.235
 30
0.0
 11
-68.25
 21
9.14
 31
0.0
  0
LINE
  5
180
330
1F
100
AcDbEntity
  8
SK3
  6
SLD-Dashed
370
    18
100
AcDbLine
 10
55.0
 20
22.225
 30
0.0
 11
55.0
 21
20.225
 31
0.0
  0
LINE
  5
181
330
1F
100
AcDbEntity
  8
SK3
  6
SLD-Dashed
370
    18
100
AcDbLine
 10
72.0
 20
20.225
 30
0.0
 11
72.0
 21
22.225
 31
0.0
  0
LINE
  5
182
330
1F
100
AcDbEntity
  8
SK3
  6
SLD-Dashed
370
    18
100
AcDbLine
 10
-63.48
 20
-8.235
 30
0.0
 11
-62.6204640132
 21
-6.74624
 31
0.0
  0
LINE
  5
183
330
1F
100
AcDbEntity
  8
SK3
  6
SLD-Dashed
370
    18
100
AcDbLine
 10
-62.6204640132
 20
6.74624
 30
0.0
 11
-63.48
 21
8.235
 31
0.0
  0
LINE
  5
184
330
1F
100
AcDbEntity
  8
SK3
  6
SLD-Dashed
370
    18
100
AcDbLine
 10
-66.6824940192
 20
-8.235
 30
0.0
 11
-63.48
 21
-8.235
 31
0.0
  0
LINE
  5
185
330
1F
100
AcDbEntity
  8
SK3
  6
SLD-Dashed
370
    18
100
AcDbLine
 10
-63.48
 20
8.235
 30
0.0
 11
-66.6824940192
 21
8.235
 31
0.0
  0
LINE
  5
186
330
1F
100
AcDbEntity
  8
SK3
  6
SLD-Dashed
370
    18
100
AcDbLine
 10
56.3245
 20
20.225
 30
0.0
 11
56.3245
 21
9.525
 31
0.0
  0
LINE
  5
187
330
1F
100
AcDbEntity
  8
SK3
  6
SLD-Dashed
370
    18
100
AcDbLine
 10
70.6755
 20
9.5088087984
 30
0.0
 11
70.6755
 21
20.225
 31
0.0
  0
LINE
  5
188
330
1F
100
AcDbEntity
  8
SK3
  6
SLD-Dashed
370
    18
100
AcDbLine
 10
-62.6204640132
 20
-6.74624
 30
0.0
 11
-15.8696474537
 21
-6.74624
 31
0.0
  0
LINE
  5
189
330
1F
100
AcDbEntity
  8
SK3
  6
SLD-Dashed
370
    18
100
AcDbLine
 10
-15.8696474537
 20
6.74624
 30
0.0
 11
-62.6204640132
 21
6.74624
 31
0.0
  0
LINE
  5
18A
330
1F
100
AcDbEntity
  8
SK3
  6
SLD-Dashed
370
    18
100
AcDbLine
 10
6.1
 20
24.83
 30
0.0
 11
6.1
 21
20.43
 31
0.0
  0
LINE
  5
18B
330
1F
100
AcDbEntity
  8
SK3
  6
SLD-Dashed
370
    18
100
AcDbLine
 10
16.1
 20
20.43
 30
0.0
 11
16.1
 21
24.83
 31
0.0
  0
LINE
  5
18C
330
1F
100
AcDbEntity
  8
SK3
  6
SLD-Dashed
370
    18
100
AcDbLine
 10
4.0240130193
 20
6.9829144645
 30
0.0
 11
14.6475648711
 21
4.0405895043
 31
0.0
  0
LINE
  5
18D
330
1F
100
AcDbEntity
  8
SK3
  6
SLD-Dashed
370
    18
100
AcDbLine
 10
15.6885307418
 20
7.7990985247
 30
0.0
 11
5.06497889
 21
10.7414234849
 31
0.0
  0
LINE
  5
18E
330
1F
100
AcDbEntity
  8
SK3
  6
SLD-Dashed
370
    18
100
AcDbLine
 10
3.2
 20
7.1592528547
 30
0.0
 11
3.9873194828
 21
6.941194921
 31
0.0
  0
LINE
  5
18F
330
1F
100
AcDbEntity
  8
SK3
  6
SLD-Dashed
370
    18
100
AcDbLine
 10
5.0549767861
 20
10.7960759675
 30
0.0
 11
3.2
 21
11.3098348849
 31
0.0
  0
LINE
  5
190
330
1F
100
AcDbEntity
  8
SK3
  6
SLD-Solid
370
    18
100
AcDbLine
 10
-38.2499992847
 20
7.9375002533
 30
0.0
 11
-63.3082389832
 21
7.9375002533
 31
0.0
  0
LINE
  5
191
330
1F
100
AcDbEntity
  8
SK3
  6
SLD-Solid
370
    18
100
AcDbLine
 10
-63.3082389832
 20
-7.9375002533
 30
0.0
 11
-38.2499992847
 21
-7.9375002533
 31
0.0
  0
LINE
  5
192
330
1F
100
AcDbEntity
  8
SK3
  6
SLD-Solid
370
    18
100
AcDbLine
 10
-38.2499992847
 20
0.0
 30
0.0
 11
-38.2499992847
 21
-1.2116536964
 31
0.0
  0
LINE
  5
193
330
1F
100
AcDbEntity
  8
SK3
  6
SLD-Solid
370
    18
100
AcDbLine
 10
-38.2499992847
 20
-1.2116536964
 30
0.0
 11
-38.2499992847
 21
-2.3949071765
 31
0.0
  0
LINE
  5
194
330
1F
100
AcDbEntity
  8
SK3
  6
SLD-Solid
370
    18
100
AcDbLine
 10
-38.2499992847
 20
-2.3949071765
 30
0.0
 11
-38.2499992847
 21
-3.5220261198
 31
0.0
  0
LINE
  5
195
330
1F
100
AcDbEntity
  8
SK3
  6
SLD-Solid
370
    18
100
AcDbLine
 10
-38.2499992847
 20
-3.5220261198
 30
0.0
 11
-38.2499992847
 21
-4.5665916987
 31
0.0
  0
LINE
  5
196
330
1F
100
AcDbEntity
  8
SK3
  6
SLD-Solid
370
    18
100
AcDbLine
 10
-38.2499992847
 20
-4.5665916987
 30
0.0
 11
-38.2499992847
 21
-5.5041206069
 31
0.0
  0
LINE
  5
197
330
1F
100
AcDbEntity
  8
SK3
  6
SLD-Solid
370
    18
100
AcDbLine
 10
-38.2499992847
 20
-5.5041206069
 30
0.0
 11
-38.2499992847
 21
-6.3126371242
 31
0.0
  0
LINE
  5
198
330
1F
100
AcDbEntity
  8
SK3
  6
SLD-Solid
370
    18
100
AcDbLine
 10
-38.2499992847
 20
-6.3126371242
 30
0.0
 11
-38.2499992847
 21
-6.9731911644
 31
0.0
  0
LINE
  5
199
330
1F
100
AcDbEntity
  8
SK3
  6
SLD-Solid
370
    18
100
AcDbLine
 10
-38.2499992847
 20
-6.9731911644
 30
0.0
 11
-38.2499992847
 21
-7.4702990241
 31
0.0
  0
LINE
  5
19A
330
1F
100
AcDbEntity
  8
SK3
  6
SLD-Solid
370
    18
100
AcDbLine
 10
-38.2499992847
 20
-7.4702990241
 30
0.0
 11
-38.2499992847
 21
-7.7923098579
 31
0.0
  0
LINE
  5
19B
330
1F
100
AcDbEntity
  8
SK3
  6
SLD-Solid
370
    18
100
AcDbLine
 10
-38.2499992847
 20
-7.7923098579
 30
0.0
 11
-38.2499992847
 21
-7.9316757619
 31
0.0
  0
LINE
  5
19C
330
1F
100
AcDbEntity
  8
SK3
  6
SLD-Solid
370
    18
100
AcDbLine
 10
-38.2499992847
 20
-7.9316757619
 30
0.0
 11
-38.2499992847
 21
-7.9375002533
 31
0.0
  0
LINE
  5
19D
330
1F
100
AcDbEntity
  8
SK3
  6
SLD-Solid
370
    18
100
AcDbLine
 10
-38.2499992847
 20
7.9375002533
 30
0.0
 11
-38.2499992847
 21
7.9316757619
 31
0.0
  0
LINE
  5
19E
330
1F
100
AcDbEntity
  8
SK3
  6
SLD-Solid
370
    18
100
AcDbLine
 10
-38.2499992847
 20
7.9316757619
 30
0.0
 11
-38.2499992847
 21
7.7923098579
 31
0.0
  0
LINE
  5
19F
330
1F
100
AcDbEntity
  8
SK3
  6
SLD-Solid
370
    18
100
AcDbLine
 10
-38.2499992847
 20
7.7923098579
 30
0.0
 11
-38.2499992847
 21
7.4702990241
 31
0.0
  0
LINE
  5
1A0
330
1F
100
AcDbEntity
  8
SK3
  6
SLD-Solid
370
    18
100
AcDbLine
 10
-38.2499992847
 20
7.4702990241
 30
0.0
 11
-38.2499992847
 21
6.9731911644
 31
0.0
  0
LINE
  5
1A1
330
1F
100
AcDbEntity
  8
SK3
  6
SLD-Solid
370
    18
100
AcDbLine
 10
-38.2499992847
 20
6.9731911644
 30
0.0
 11
-38.2499992847
 21
6.3126371242
 31
0.0
  0
LINE
  5
1A2
330
1F
100
AcDbEntity
  8
SK3
  6
SLD-Solid
370
    18
100
AcDbLine
 10
-38.2499992847
 20
6.3126371242
 30
0.0
 11
-38.2499992847
 21
5.5041206069
 31
0.0
  0
LINE
  5
1A3
330
1F
100
AcDbEntity
  8
SK3
  6
SLD-Solid
370
    18
100
AcDbLine
 10
-38.2499992847
 20
5.5041206069
 30
0.0
 11
-38.2499992847
 21
4.5665916987
 31
0.0
  0
LINE
  5
1A4
330
1F
100
AcDbEntity
  8
SK3
  6
SLD-Solid
370
    18
100
AcDbLine
 10
-38.2499992847
 20
4.5665916987
 30
0.0
 11
-38.2499992847
 21
3.5220261198
 31
0.0
  0
LINE
  5
1A5
330
1F
100
AcDbEntity
  8
SK3
  6
SLD-Solid
370
    18
100
AcDbLine
 10
-38.2499992847
 20
3.5220261198
 30
0.0
 11
-38.2499992847
 21
2.3949071765
 31
0.0
  0
LINE
  5
1A6
330
1F
100
AcDbEntity
  8
SK3
  6
SLD-Solid
370
    18
100
AcDbLine
 10
-38.2499992847
 20
2.3949071765
 30
0.0
 11
-38.2499992847
 21
1.2116536964
 31
0.0
  0
LINE
  5
1A7
330
1F
100
AcDbEntity
  8
SK3
  6
SLD-Solid
370
    18
100
AcDbLine
 10
-38.2499992847
 20
1.2116536964
 30
0.0
 11
-38.2499992847
 21
0.0
 31
0.0
  0
LINE
  5
1A8
330
1F
100
AcDbEntity
  8
SK3
  6
SLD-Solid
370
    18
100
AcDbLine
 10
71.4375004172
 20
9.5166089013
 30
0.0
 11
71.4375004172
 21
20.2249996364
 31
0.0
  0
LINE
  5
1A9
330
1F
100
AcDbEntity
  8
SK3
  6
SLD-Solid
370
    18
100
AcDbLine
 10
55.5624999106
 20
20.2249996364
 30
0.0
 11
55.5624999106
 21
9.5166089013
 31
0.0
  0
LINE
  5
1AA
330
1F
100
AcDbEntity
  8
SK3
  6
SLD-Solid
370
    18
100
AcDbLine
 10
71.4275240898
 20
9.5166089013
 30
0.0
 11
71.3773444295
 21
9.4749284908
 31
0.0
  0
LINE
  5
1AB
330
1F
100
AcDbEntity
  8
4
  6
SLD-Center
370
    18
100
AcDbLine
 10
90.9
 20
0.0
 30
0.0
 11
-0.2971196272
 21
0.0
 31
0.0
  0
LINE
  5
1AC
330
1F
100
AcDbEntity
  8
4
  6
SLD-Center
370
    18
100
AcDbLine
 10
63.5
 20
7.525
 30
0.0
 11
63.5
 21
22.225
 31
0.0
  0
LINE
  5
1AD
330
1F
100
AcDbEntity
  8
SK4
  6
SLD-Center
370
    18
100
AcDbLine
 10
-69.1376006954
 20
0.0
 30
0.0
 11
91.0945675395
 21
0.0
 31
0.0
  0
LINE
  5
1AE
330
1F
100
AcDbEntity
  8
81
370
    18
100
AcDbLine
 10
88.9
 20
0.0
 30
0.0
 11
92.4355339059
 21
3.5355339059
 31
0.0
  0
LINE
  5
1AF
330
1F
100
AcDbEntity
  8
81
370
    18
100
AcDbLine
 10
88.9
 20
0.0
 30
0.0
 11
85.3644660941
 21
-3.5355339059
 31
0.0
  0
LINE
  5
1B0
330
1F
100
AcDbEntity
  8
81
370
    18
100
AcDbLine
 10
88.9
 20
0.0
 30
0.0
 11
85.3644660941
 21
3.5355339059
 31
0.0
  0
LINE
  5
1B1
330
1F
100
AcDbEntity
  8
81
100
AcDbLine
 10
88.9
 20
0.0
 30
0.0
 11
98.9
 21
0.0
 31
0.0
  0
LINE
  5
1B2
330
1F
100
AcDbEntity
  8
81
370
    18
100
AcDbLine
 10
88.9
 20
0.0
 30
0.0
 11
92.4355339059
 21
-3.5355339059
 31
0.0
  0
LINE
  5
1B3
330
1F
100
AcDbEntity
  8
80
370
    18
100
AcDbLine
 10
0.0
 20
0.0
 30
0.0
 11
-3.5355339059
 21
-3.5355339059
 31
0.0
  0
LINE
  5
1B4
330
1F
100
AcDbEntity
  8
80
370
    18
100
AcDbLine
 10
0.0
 20
0.0
 30
0.0
 11
3.5355339059
 21
3.5355339059
 31
0.0
  0
LINE
  5
1B5
330
1F
100
AcDbEntity
  8
80
370
    18
100
AcDbLine
 10
0.0
 20
0.0
 30
0.0
 11
-3.5355339059
 21
3.5355339059
 31
0.0
  0
LINE
  5
1B6
330
1F
100
AcDbEntity
  8
80
370
    18
100
AcDbLine
 10
0.0
 20
0.0
 30
0.0
 11
-10.0
 21
0.0
 31
0.0
  0
LINE
  5
1B7
330
1F
100
AcDbEntity
  8
80
370
    18
100
AcDbLine
 10
0.0
 20
0.0
 30
0.0
 11
3.5355339059
 21
-3.5355339059
 31
0.0
  0
ARC
  5
1B8
330
1F
100
AcDbEntity
  8
1
  6
SLD-Solid
370
    25
100
AcDbCircle
 10
19.812
 20
-22.987
 30
0.0
 40
0.7620000000000005
100
AcDbArc
 50
90.0
 51
130.8146083763
  0
ARC
  5
1B9
330
1F
100
AcDbEntity
  8
1
  6
SLD-Solid
370
    25
100
AcDbCircle
 10
19.812
 20
22.987
 30
0.0
 40
0.7620000000000005
100
AcDbArc
 50
180.0
 51
270.0
  0
ARC
  5
1BA
330
1F
100
AcDbEntity
  8
1
  6
SLD-Solid
370
    25
100
AcDbCircle
 10
2.45
 20
22.79
 30
0.0
 40
0.7500000000000043
100
AcDbArc
 50
245.0
 51
0.0
  0
ARC
  5
1BB
330
1F
100
AcDbEntity
  8
1
  6
SLD-Solid
370
    25
100
AcDbCircle
 10
2.45
 20
-22.79
 30
0.0
 40
0.7500000000000117
100
AcDbArc
 50
30.4400371691
 51
115.0
  0
ARC
  5
1BC
330
1F
100
AcDbEntity
  8
SK1
  6
SLD-Solid
370
    25
100
AcDbCircle
 10
-66.95
 20
11.1476148288
 30
0.0
 40
1.299999999999997
100
AcDbArc
 50
98.2972222222
 51
180.0
  0
ARC
  5
1BD
330
1F
100
AcDbEntity
  8
SK1
  6
SLD-Solid
370
    25
100
AcDbCircle
 10
-66.95
 20
-11.1476148288
 30
0.0
 40
1.299999999999999
100
AcDbArc
 50
180.0
 51
261.7027777778
  0
ARC
  5
1BE
330
1F
100
AcDbEntity
  8
1
  6
SLD-Solid
370
    25
100
AcDbCircle
 10
63.499753524
 20
43.3746407884
 30
0.0
 40
22.79370780383257
100
AcDbArc
 50
248.1054751455
 51
291.8702260273
  0
ARC
  5
1BF
330
1F
100
AcDbEntity
  8
SK3
  6
SLD-Dashed
370
    18
100
AcDbCircle
 10
37.9
 20
9.515
 30
0.0
 40
0.1999999999999922
100
AcDbArc
 50
2.8659839826
 51
90.0
  0
ARC
  5
1C0
330
1F
100
AcDbEntity
  8
SK3
  6
SLD-Dashed
370
    18
100
AcDbCircle
 10
37.9
 20
-9.515
 30
0.0
 40
0.2000000000000064
100
AcDbArc
 50
270.0
 51
357.1340160174
  0
ARC
  5
1C1
330
1F
100
AcDbEntity
  8
SK3
  6
SLD-Dashed
370
    18
100
AcDbCircle
 10
-11.0
 20
9.515
 30
0.0
 40
0.2000000000000101
100
AcDbArc
 50
90.0
 51
177.1340160174
  0
ARC
  5
1C2
330
1F
100
AcDbEntity
  8
SK3
  6
SLD-Dashed
370
    18
100
AcDbCircle
 10
-11.0
 20
-9.515
 30
0.0
 40
0.2000000000000117
100
AcDbArc
 50
182.8659839826
 51
270.0
  0
ARC
  5
1C3
330
1F
100
AcDbEntity
  8
1
370
    18
100
AcDbCircle
 10
64.4058285678
 20
-51.7043054459
 30
0.0
 40
31.09891498568206
100
AcDbArc
 50
71.4273768808
 51
108.5726231192
  0
CIRCLE
  5
1C4
330
1F
100
AcDbEntity
  8
81
370
    18
100
AcDbCircle
 10
88.9
 20
0.0
 30
0.0
 40
2.499999999999984
  0
CIRCLE
  5
1C5
330
1F
100
AcDbEntity
  8
80
370
    18
100
AcDbCircle
 10
0.0
 20
0.0
 30
0.0
 40
2.500000000000009
  0
SPLINE
  5
1C6
330
1F
100
AcDbEntity
  8
1
  6
SLD-Solid
370
    25
100
AcDbSpline
210
0.0
220
0.0
230
1.0
 70
     8
 71
     3
 72
    16
 73
    12
 74
     0
 42
0.000000001
 43
0.00000001
 40
0.0
 40
0.0
 40
0.0
 40
0.0
 40
0.0695972585631702
 40
0.1233277320974721
 40
0.247039555460377
 40
0.370625409937532
 40
0.4955039070586293
 40
0.6236892810562452
 40
0.7463896350927952
 40
0.874029172385884
 40
1.0
 40
1.0
 40
1.0
 40
1.0
 10
3.200000000000008
 20
-29.8048664484163
 30
0.0
 10
3.200840331068336
 20
-29.8321187437415
 30
0.0
 10
3.202329414503629
 20
-29.88041035531205
 30
0.0
 10
3.217237155250588
 20
-29.97610817340506
 30
0.0
 10
3.250688715768016
 20
-30.08991350869657
 30
0.0
 10
3.318652551688006
 20
-30.22007249881832
 30
0.0
 10
3.411627067179679
 20
-30.33622596976963
 30
0.0
 10
3.525709306310174
 20
-30.43184457715032
 30
0.0
 10
3.657379123027604
 20
-30.50320141671876
 30
0.0
 10
3.800029806285368
 20
-30.5492134761922
 30
0.0
 10
3.900229701070762
 20
-30.55502300820851
 30
0.0
 10
3.949999999999926
 20
-30.55790866138917
 30
0.0
  0
SPLINE
  5
1C7
330
1F
100
AcDbEntity
  8
1
  6
SLD-Solid
370
    25
100
AcDbSpline
210
0.0
220
0.0
230
1.0
 70
     8
 71
     3
 72
    18
 73
    14
 74
     0
 42
0.000000001
 43
0.00000001
 40
0.0
 40
0.0
 40
0.0
 40
0.0
 40
0.0628280480421825
 40
0.1260701253970792
 40
0.1897406253785904
 40
0.2538535710757105
 40
0.3764737521324676
 40
0.5046580328934662
 40
0.6294958758641306
 40
0.7530413720168776
 40
0.8767127000651272
 40
0.9303985995609487
 40
1.0
 40
1.0
 40
1.0
 40
1.0
 10
3.949999999999926
 20
30.55788999666613
 30
0.0
 10
3.925199676033193
 20
30.55717534525744
 30
0.0
 10
3.875435596934694
 20
30.55574133297283
 30
0.0
 10
3.801295881396189
 20
30.54413094373269
 30
0.0
 10
3.728175768565517
 20
30.52555103963991
 30
0.0
 10
3.635356745735146
 20
30.49149389245028
 30
0.0
 10
3.525704227685305
 20
30.43173903699995
 30
0.0
 10
3.411641971522853
 20
30.33624779546198
 30
0.0
 10
3.318651270434191
 20
30.22005039304358
 30
0.0
 10
3.250689072054497
 20
30.08990134371376
 30
0.0
 10
3.217240115096228
 20
29.97610524198125
 30
0.0
 10
3.20233051299968
 20
29.88040905934514
 30
0.0
 10
3.200840935566487
 20
29.83211788338438
 30
0.0
 10
3.2
 20
29.80485527419838
 30
0.0
  0
SPLINE
  5
1C8
330
1F
100
AcDbEntity
  8
1
  6
SLD-Solid
370
    25
100
AcDbSpline
210
0.0
220
0.0
230
1.0
 70
     8
 71
     3
 72
    18
 73
    14
 74
     0
 42
0.000000001
 43
0.00000001
 40
0.0
 40
0.0
 40
0.0
 40
0.0
 40
0.0627054734815585
 40
0.1258180026435944
 40
0.1893518955758989
 40
0.2533210967871997
 40
0.3760223802380994
 40
0.5042027350874037
 40
0.6287442443905509
 40
0.7524970007335178
 40
0.8762904256225891
 40
0.9301814553533038
 40
1.0
 40
1.0
 40
1.0
 40
1.0
 10
18.30000000000002
 20
-30.55788999666613
 30
0.0
 10
18.32475189251029
 20
-30.55717815032795
 30
0.0
 10
18.37441635566444
 20
-30.55574983666591
 30
0.0
 10
18.44840700700194
 20
-30.54418621918457
 30
0.0
 10
18.52137928311721
 20
-30.52568315689514
 30
0.0
 10
18.61414871610722
 20
-30.49172081055996
 30
0.0
 10
18.72382631062688
 20
-30.43206331201419
 30
0.0
 10
18.83789060104976
 20
-30.33670781031283
 30
0.0
 10
18.9309656757062
 20
-30.22063090164697
 30
0.0
 10
18.99906840635738
 20
-30.09053486574008
 30
0.0
 10
19.03266226172084
 20
-29.97656054635133
 30
0.0
 10
19.04765434845165
 20
-29.88065972774422
 30
0.0
 10
19.04915376650082
 20
-29.83220301390153
 30
0.0
 10
19.05000000000003
 20
-29.8048552741984
 30
0.0
  0
SPLINE
  5
1C9
330
1F
100
AcDbEntity
  8
1
  6
SLD-Solid
370
    25
100
AcDbSpline
210
0.0
220
0.0
230
1.0
 70
     8
 71
     3
 72
    16
 73
    12
 74
     0
 42
0.000000001
 43
0.00000001
 40
0.0
 40
0.0
 40
0.0
 40
0.0
 40
0.069814031064149
 40
0.1237498965154266
 40
0.2475836018648968
 40
0.371376536255524
 40
0.4959583438678432
 40
0.62413948620796
 40
0.7469207609697971
 40
0.8742805094910139
 40
1.0
 40
1.0
 40
1.0
 40
1.0
 10
19.05000000000003
 20
29.80486644841629
 30
0.0
 10
19.04915437967804
 20
29.83220375694688
 30
0.0
 10
19.0476554628308
 20
29.88066090875586
 30
0.0
 10
19.03266526234906
 20
29.97656337346559
 30
0.0
 10
18.9990687612394
 20
30.09054703967058
 30
0.0
 10
18.93096439399842
 20
30.22065301278146
 30
0.0
 10
18.83790550330881
 20
30.3366860902548
 30
0.0
 10
18.72382127964481
 20
30.43216876423577
 30
0.0
 10
18.59216376019319
 20
30.50338604964251
 30
0.0
 10
18.44966044222826
 20
30.54924901227125
 30
0.0
 10
18.3496707963334
 20
30.55503461089692
 30
0.0
 10
18.30000000000001
 20
30.55790866138914
 30
0.0
  0
SPLINE
  5
1CA
330
1F
100
AcDbEntity
  8
1
  6
SLD-Solid
370
    25
100
AcDbSpline
210
0.0
220
0.0
230
1.0
 70
     8
 71
     3
 72
     8
 73
     4
 74
     0
 42
0.000000001
 43
0.00000001
 40
0.0
 40
0.0
 40
0.0
 40
0.0
 40
1.0
 40
1.0
 40
1.0
 40
1.0
 10
13.03
 20
27.8050456341729
 30
0.0
 10
13.47759651810106
 20
28.61249255653032
 30
0.0
 10
13.92634937951634
 20
29.41929290832668
 30
0.0
 10
14.37601294652262
 20
30.22558142012639
 30
0.0
  0
SPLINE
  5
1CB
330
1F
100
AcDbEntity
  8
1
  6
SLD-Solid
370
    25
100
AcDbSpline
210
0.0
220
0.0
230
1.0
 70
     8
 71
     3
 72
     8
 73
     4
 74
     0
 42
0.000000001
 43
0.00000001
 40
0.0
 40
0.0
 40
0.0
 40
0.0
 40
0.0006742907251946
 40
0.0006742907251946
 40
0.0006742907251946
 40
0.0006742907251946
 10
14.6411263545568
 20
30.55790866138914
 30
0.0
 10
14.5523112191522
 20
30.44723498609877
 30
0.0
 10
14.46393231327362
 20
30.33646040447047
 30
0.0
 10
14.37601294652262
 20
30.22558142012639
 30
0.0
  0
SPLINE
  5
1CC
330
1F
100
AcDbEntity
  8
1
  6
SLD-Solid
370
    25
100
AcDbSpline
210
0.0
220
0.0
230
1.0
 70
     8
 71
     3
 72
     8
 73
     4
 74
     0
 42
0.000000001
 43
0.00000001
 40
0.0
 40
0.0
 40
0.0
 40
0.0
 40
0.0006744126776058
 40
0.0006744126776058
 40
0.0006744126776058
 40
0.0006744126776058
 10
14.37595046659276
 20
-30.22546938779914
 30
0.0
 10
14.46389058426686
 20
-30.33637953005828
 30
0.0
 10
14.55229031970068
 20
-30.44718523342132
 30
0.0
 10
14.64112635455681
 20
-30.55788999666614
 30
0.0
  0
SPLINE
  5
1CD
330
1F
100
AcDbEntity
  8
1
  6
SLD-Solid
370
    25
100
AcDbSpline
210
0.0
220
0.0
230
1.0
 70
     8
 71
     3
 72
     8
 73
     4
 74
     0
 42
0.000000001
 43
0.00000001
 40
0.0
 40
0.0
 40
0.0
 40
0.0
 40
1.0
 40
1.0
 40
1.0
 40
1.0
 10
13.03000000000001
 20
-27.8050456341729
 30
0.0
 10
13.47756662864429
 20
-28.6124386370986
 30
0.0
 10
13.92629890859749
 20
-29.41920220926157
 30
0.0
 10
14.37595046659276
 20
-30.22546938779914
 30
0.0
  0
SPLINE
  5
1CE
330
1F
100
AcDbEntity
  8
1
  6
SLD-Solid
370
    25
100
AcDbSpline
210
0.0
220
0.0
230
1.0
 70
     8
 71
     3
 72
    14
 73
    10
 74
     0
 42
0.000000001
 43
0.00000001
 40
0.0
 40
0.0
 40
0.0
 40
0.0
 40
0.25
 40
0.25
 40
0.5
 40
0.5
 40
0.75
 40
0.75
 40
1.0
 40
1.0
 40
1.0
 40
1.0
 10
13.02999999999999
 20
25.81171788356633
 30
0.0
 10
13.05182784069895
 20
25.8086816676394
 30
0.0
 10
13.06930451588748
 20
25.79706282581695
 30
0.0
 10
13.09355241467167
 20
25.75265705035272
 30
0.0
 10
13.0999641373839
 20
25.71975400624288
 30
0.0
 10
13.10003555457991
 20
25.6344344577325
 30
0.0
 10
13.09360869858517
 20
25.58073121692832
 30
0.0
 10
13.06953031995429
 20
25.45976651603279
 30
0.0
 10
13.05190366619465
 20
25.39187340765438
 30
0.0
 10
13.03000000000001
 20
25.31924243797494
 30
0.0
  0
SPLINE
  5
1CF
330
1F
100
AcDbEntity
  8
1
  6
SLD-Solid
370
    25
100
AcDbSpline
210
0.0
220
0.0
230
1.0
 70
     8
 71
     3
 72
     8
 73
     4
 74
     0
 42
0.000000001
 43
0.00000001
 40
0.0
 40
0.0
 40
0.0
 40
0.0
 40
1.0
 40
1.0
 40
1.0
 40
1.0
 10
7.853987053479575
 20
-30.22558142012364
 30
0.0
 10
8.303659523846735
 20
-29.41927694377147
 30
0.0
 10
8.752412641282667
 20
-28.6124760333551
 30
0.0
 10
9.199999999998877
 20
-27.80504563417608
 30
0.0
  0
SPLINE
  5
1D0
330
1F
100
AcDbEntity
  8
1
  6
SLD-Solid
370
    25
100
AcDbSpline
210
0.0
220
0.0
230
1.0
 70
     8
 71
     3
 72
     8
 73
     4
 74
     0
 42
0.000000001
 43
0.00000001
 40
0.0
 40
0.0
 40
0.0
 40
0.0
 40
0.0006742907251988
 40
0.0006742907251988
 40
0.0006742907251988
 40
0.0006742907251988
 10
7.588873645443194
 20
-30.55790866138917
 30
0.0
 10
7.677688780848526
 20
-30.44723498609788
 30
0.0
 10
7.766067686727842
 20
-30.33646040446866
 30
0.0
 10
7.853987053479573
 20
-30.22558142012364
 30
0.0
  0
SPLINE
  5
1D1
330
1F
100
AcDbEntity
  8
1
  6
SLD-Solid
370
    25
100
AcDbSpline
210
0.0
220
0.0
230
1.0
 70
     8
 71
     3
 72
     8
 73
     4
 74
     0
 42
0.000000001
 43
0.00000001
 40
0.0
 40
0.0
 40
0.0
 40
0.0
 40
0.0006744126776058
 40
0.0006744126776058
 40
0.0006744126776058
 40
0.0006744126776058
 10
7.854049533407236
 20
30.22546938779911
 30
0.0
 10
7.766109415733136
 20
30.33637953005826
 30
0.0
 10
7.677709680299335
 20
30.44718523342129
 30
0.0
 10
7.588873645443195
 20
30.55788999666613
 30
0.0
  0
SPLINE
  5
1D2
330
1F
100
AcDbEntity
  8
1
  6
SLD-Solid
370
    25
100
AcDbSpline
210
0.0
220
0.0
230
1.0
 70
     8
 71
     3
 72
     8
 73
     4
 74
     0
 42
0.000000001
 43
0.00000001
 40
0.0
 40
0.0
 40
0.0
 40
0.0
 40
1.0
 40
1.0
 40
1.0
 40
1.0
 10
7.854049533407236
 20
30.22546938779912
 30
0.0
 10
8.303692188804723
 20
29.41921817244962
 30
0.0
 10
8.752424212806615
 20
28.61245515876933
 30
0.0
 10
9.2
 20
27.8050456341729
 30
0.0
  0
SPLINE
  5
1D3
330
1F
100
AcDbEntity
  8
1
  6
SLD-Solid
370
    25
100
AcDbSpline
210
0.0
220
0.0
230
1.0
 70
     8
 71
     3
 72
    14
 73
    10
 74
     0
 42
0.000000001
 43
0.00000001
 40
0.0
 40
0.0
 40
0.0
 40
0.0
 40
0.25
 40
0.25
 40
0.5
 40
0.5
 40
0.75
 40
0.75
 40
1.0
 40
1.0
 40
1.0
 40
1.0
 10
9.199999999998875
 20
25.27054331738514
 30
0.0
 10
9.169610391132133
 20
25.36219671402948
 30
0.0
 10
9.144652419509566
 20
25.44797517411548
 30
0.0
 10
9.10941111492952
 20
25.60359055831214
 30
0.0
 10
9.100075894724876
 20
25.66959440204701
 30
0.0
 10
9.099925023949767
 20
25.77434199055133
 30
0.0
 10
9.109375914768805
 20
25.81145009587543
 30
0.0
 10
9.144272722663843
 20
25.85500935243903
 30
0.0
 10
9.169555752624225
 20
25.86176202446132
 30
0.0
 10
9.200000000000001
 20
25.85691311136566
 30
0.0
  0
SPLINE
  5
1D4
330
1F
100
AcDbEntity
  8
1
  6
SLD-Solid
370
    25
100
AcDbSpline
210
0.0
220
0.0
230
1.0
 70
     8
 71
     3
 72
    14
 73
    10
 74
     0
 42
0.000000001
 43
0.00000001
 40
0.0
 40
0.0
 40
0.0
 40
0.0
 40
0.25
 40
0.25
 40
0.5
 40
0.5
 40
0.75
 40
0.75
 40
1.0
 40
1.0
 40
1.0
 40
1.0
 10
9.200000000000014
 20
-27.76916635406976
 30
0.0
 10
9.200000000000014
 20
-27.66854183645165
 30
0.0
 10
9.218753722673611
 20
-27.56842327754111
 30
0.0
 10
9.291517535812325
 20
-27.38167264562871
 30
0.0
 10
9.345885298656015
 20
-27.29482655372886
 30
0.0
 10
9.4827134536752
 20
-27.14914073715223
 30
0.0
 10
9.566479996683737
 20
-27.08925426891756
 30
0.0
 10
9.74908978763267
 20
-27.00861553825999
 30
0.0
 10
9.849941180320524
 20
-26.98706356756862
 30
0.0
 10
9.950000000001276
 20
-26.9870635675688
 30
0.0
  0
SPLINE
  5
1D5
330
1F
100
AcDbEntity
  8
1
  6
SLD-Solid
370
    25
100
AcDbSpline
210
0.0
220
0.0
230
1.0
 70
     8
 71
     3
 72
    16
 73
    12
 74
     0
 42
0.000000001
 43
0.00000001
 40
0.0
 40
0.0
 40
0.0
 40
0.0
 40
0.2500000000000015
 40
0.2500000000000015
 40
0.500000000000003
 40
0.500000000000003
 40
0.7500000000000044
 40
0.7500000000000044
 40
0.8750000000000022
 40
0.8750000000000022
 40
1.0
 40
1.0
 40
1.0
 40
1.0
 10
9.950000000001276
 20
24.06685975304419
 30
0.0
 10
9.84049335128237
 20
24.10694414130935
 30
0.0
 10
9.74278616077348
 20
24.17117631338135
 30
0.0
 10
9.567840382590717
 20
24.33096083631469
 30
0.0
 10
9.493988254028556
 20
24.42340952890755
 30
0.0
 10
9.367115049351032
 20
24.627933940745
 30
0.0
 10
9.314523965070112
 20
24.73961559875877
 30
0.0
 10
9.253446937619703
 20
24.91971397324645
 30
0.0
 10
9.235893303124632
 20
24.98231479864246
 30
0.0
 10
9.209102989073696
 20
25.11253703191867
 30
0.0
 10
9.200000000001305
 20
25.18114365477765
 30
0.0
 10
9.200000000001305
 20
25.24012107693848
 30
0.0
  0
SPLINE
  5
1D6
330
1F
100
AcDbEntity
  8
1
  6
SLD-Solid
370
    25
100
AcDbSpline
210
0.0
220
0.0
230
1.0
 70
     8
 71
     3
 72
    12
 73
     8
 74
     0
 42
0.000000001
 43
0.00000001
 40
0.0
 40
0.0
 40
0.0
 40
0.0
 40
0.2499999999999984
 40
0.2499999999999984
 40
0.4999999999999969
 40
0.4999999999999969
 40
1.0
 40
1.0
 40
1.0
 40
1.0
 10
12.28000000000003
 20
-26.98706356756882
 30
0.0
 10
12.37975762515878
 20
-26.98706356756883
 30
0.0
 10
12.48041217798164
 20
-27.0084362441483
 30
0.0
 10
12.66352022573501
 20
-27.0892138443703
 30
0.0
 10
12.74662210573629
 20
-27.14844080533418
 30
0.0
 10
12.95377706693951
 20
-27.3689835197036
 30
0.0
 10
13.03
 20
-27.56902785518148
 30
0.0
 10
13.03000000000001
 20
-27.7691663540697
 30
0.0
  0
SPLINE
  5
1D7
330
1F
100
AcDbEntity
  8
1
  6
SLD-Solid
370
    25
100
AcDbSpline
210
0.0
220
0.0
230
1.0
 70
     8
 71
     3
 72
    18
 73
    14
 74
     0
 42
0.000000001
 43
0.00000001
 40
0.0
 40
0.0
 40
0.0
 40
0.0
 40
0.0624999999999983
 40
0.0624999999999983
 40
0.1249999999999966
 40
0.1249999999999966
 40
0.2499999999999938
 40
0.2499999999999938
 40
0.4999999999999959
 40
0.4999999999999959
 40
0.7499999999999979
 40
0.7499999999999979
 40
1.0
 40
1.0
 40
1.0
 40
1.0
 10
13.03000000000129
 20
25.28882228478155
 30
0.0
 10
13.03000000000129
 20
25.258454228703
 30
0.0
 10
13.02749489038242
 20
25.22358442434114
 30
0.0
 10
13.01920268672327
 20
25.15482296737403
 30
0.0
 10
13.01359186101026
 20
25.12104898565182
 30
0.0
 10
12.99361738711204
 20
25.02074756626908
 30
0.0
 10
12.9766886516932
 20
24.95779435947977
 30
0.0
 10
12.91737158574277
 20
24.77496256517826
 30
0.0
 10
12.86564177104012
 20
24.66011878167448
 30
0.0
 10
12.7404954338475
 20
24.45045700081709
 30
0.0
 10
12.66639130892222
 20
24.35409856583111
 30
0.0
 10
12.490256847061
 20
24.18769951882028
 30
0.0
 10
12.39180028213165
 20
24.1205459534406
 30
0.0
 10
12.28000000000132
 20
24.07805063523434
 30
0.0
  0
SPLINE
  5
1D8
330
1F
100
AcDbEntity
  8
1
  6
SLD-Solid
370
    25
100
AcDbSpline
210
0.0
220
0.0
230
1.0
 70
     8
 71
     3
 72
    12
 73
     8
 74
     0
 42
0.000000001
 43
0.00000001
 40
0.0
 40
0.0
 40
0.0
 40
0.0
 40
0.25
 40
0.25
 40
0.5
 40
0.5
 40
1.0
 40
1.0
 40
1.0
 40
1.0
 10
12.28000000000132
 20
24.07805063523434
 30
0.0
 10
12.11125565653913
 20
24.01391086354245
 30
0.0
 10
11.92801760594739
 20
23.96418277266273
 30
0.0
 10
11.53284005751318
 20
23.89473625632987
 30
0.0
 10
11.32774190386633
 20
23.876521502723
 30
0.0
 10
10.70517895587217
 20
23.87317080568452
 30
0.0
 10
10.29199014189998
 20
23.94167588712291
 30
0.0
 10
9.950000000001276
 20
24.06685975304419
 30
0.0
  0
SPLINE
  5
1D9
330
1F
100
AcDbEntity
  8
1
  6
SLD-Solid
370
    25
100
AcDbSpline
210
0.0
220
0.0
230
1.0
 70
    24
 71
     2
 72
     6
 73
     3
 74
     0
 42
0.000000001
 43
0.00000001
 40
0.0
 40
0.0
 40
0.0
 40
0.4999999999999999
 40
0.4999999999999999
 40
0.4999999999999999
 10
19.05
 20
-22.40999999999999
 30
0.0
 10
19.11746348538482
 20
-22.40999999999999
 30
0.0
 10
19.18383445019961
 20
-22.40999999999999
 30
0.0
  0
SPLINE
  5
1DA
330
1F
100
AcDbEntity
  8
1
  6
SLD-Solid
370
    25
100
AcDbSpline
210
0.0
220
0.0
230
1.0
 70
    24
 71
     3
 72
     8
 73
     4
 74
     0
 42
0.000000001
 43
0.00000001
 40
0.4999999999999999
 40
0.4999999999999999
 40
0.4999999999999999
 40
0.4999999999999999
 40
0.7499999999999999
 40
0.7499999999999999
 40
0.7499999999999999
 40
0.7499999999999999
 10
19.18383445019961
 20
-22.40999999999999
 30
0.0
 10
19.21701993260703
 20
-22.40999999999999
 30
0.0
 10
19.25031302926242
 20
-22.40999999999999
 30
0.0
 10
19.27479295645855
 20
-22.40999999999999
 30
0.0
  0
SPLINE
  5
1DB
330
1F
100
AcDbEntity
  8
1
  6
SLD-Solid
370
    25
100
AcDbSpline
210
0.0
220
0.0
230
1.0
 70
    24
 71
     3
 72
     8
 73
     4
 74
     0
 42
0.000000001
 43
0.00000001
 40
0.7499999999999999
 40
0.7499999999999999
 40
0.7499999999999999
 40
0.7499999999999999
 40
0.875
 40
0.875
 40
0.875
 40
0.875
 10
19.27479295645855
 20
-22.40999999999999
 30
0.0
 10
19.2870329200566
 20
-22.40999999999999
 30
0.0
 10
19.29703933185603
 20
-22.40999999999999
 30
0.0
 10
19.30386020811893
 20
-22.40999999999999
 30
0.0
  0
SPLINE
  5
1DC
330
1F
100
AcDbEntity
  8
1
  6
SLD-Solid
370
    25
100
AcDbSpline
210
0.0
220
0.0
230
1.0
 70
    24
 71
     3
 72
     8
 73
     4
 74
     0
 42
0.000000001
 43
0.00000001
 40
0.875
 40
0.875
 40
0.875
 40
0.875
 40
0.9375
 40
0.9375
 40
0.9375
 40
0.9375
 10
19.30386020811893
 20
-22.40999999999999
 30
0.0
 10
19.30727064625037
 20
-22.40999999999999
 30
0.0
 10
19.30988964251002
 20
-22.40999999999999
 30
0.0
 10
19.31164482893752
 20
-22.40999999999999
 30
0.0
  0
SPLINE
  5
1DD
330
1F
100
AcDbEntity
  8
1
  6
SLD-Solid
370
    25
100
AcDbSpline
210
0.0
220
0.0
230
1.0
 70
    24
 71
     3
 72
     8
 73
     4
 74
     0
 42
0.000000001
 43
0.00000001
 40
0.9375
 40
0.9375
 40
0.9375
 40
0.9375
 40
1.0
 40
1.0
 40
1.0
 40
1.0
 10
19.31164482893752
 20
-22.40999999999999
 30
0.0
 10
19.31340001536502
 20
-22.40999999999999
 30
0.0
 10
19.31429087786885
 20
-22.40999999999999
 30
0.0
 10
19.31429024489283
 20
-22.40999999999999
 30
0.0
  0
SPLINE
  5
1DE
330
1F
100
AcDbEntity
  8
1
  6
SLD-Solid
370
    25
100
AcDbSpline
210
0.0
220
0.0
230
1.0
 70
     8
 71
     3
 72
    16
 73
    12
 74
     0
 42
0.000000001
 43
0.00000001
 40
0.0
 40
0.0
 40
0.0
 40
0.0
 40
0.125
 40
0.125
 40
0.25
 40
0.25
 40
0.5
 40
0.5
 40
0.75
 40
0.75
 40
1.0
 40
1.0
 40
1.0
 40
1.0
 10
9.200000000000003
 20
25.82649087091905
 30
0.0
 10
9.200000000000001
 20
25.76704453528221
 30
0.0
 10
9.209309779240186
 20
25.72460913603001
 30
0.0
 10
9.236285539089923
 20
25.66309575968363
 30
0.0
 10
9.253818395994058
 20
25.64221451078866
 30
0.0
 10
9.314732612350832
 20
25.59089236418541
 30
0.0
 10
9.367586350542442
 20
25.57162638804161
 30
0.0
 10
9.49392326964756
 20
25.54782523997986
 30
0.0
 10
9.568606186754748
 20
25.54380204926683
 30
0.0
 10
9.7431907189903
 20
25.55566084202214
 30
0.0
 10
9.840260492227266
 20
25.57101227172015
 30
0.0
 10
9.949999999999976
 20
25.60325879037602
 30
0.0
  0
SPLINE
  5
1DF
330
1F
100
AcDbEntity
  8
1
  6
SLD-Solid
370
    25
100
AcDbSpline
210
0.0
220
0.0
230
1.0
 70
     8
 71
     3
 72
    12
 73
     8
 74
     0
 42
0.000000001
 43
0.00000001
 40
0.0
 40
0.0
 40
0.0
 40
0.0
 40
0.2499999999999994
 40
0.2499999999999994
 40
0.4999999999999989
 40
0.4999999999999989
 40
1.0
 40
1.0
 40
1.0
 40
1.0
 10
9.949999999999969
 20
25.60325879037602
 30
0.0
 10
10.12099348269379
 20
25.65350454636334
 30
0.0
 10
10.30594493731544
 20
25.69087007490122
 30
0.0
 10
10.70348914958042
 20
25.74162454002533
 30
0.0
 10
10.90918343641379
 20
25.75391313067251
 30
0.0
 10
11.53176214943038
 20
25.75179790476194
 30
0.0
 10
11.94250893135798
 20
25.6975414000343
 30
0.0
 10
12.28000000000001
 20
25.59426208810603
 30
0.0
  0
SPLINE
  5
1E0
330
1F
100
AcDbEntity
  8
1
  6
SLD-Solid
370
    25
100
AcDbSpline
210
0.0
220
0.0
230
1.0
 70
     8
 71
     3
 72
    18
 73
    14
 74
     0
 42
0.000000001
 43
0.00000001
 40
0.0
 40
0.0
 40
0.0
 40
0.0
 40
0.2500000000000006
 40
0.2500000000000006
 40
0.5000000000000012
 40
0.5000000000000012
 40
0.7500000000000018
 40
0.7500000000000018
 40
0.8750000000000021
 40
0.8750000000000021
 40
0.9375000000000011
 40
0.9375000000000011
 40
1.0
 40
1.0
 40
1.0
 40
1.0
 10
12.28000000000001
 20
25.59426208810603
 30
0.0
 10
12.39154339480305
 20
25.56012748089477
 30
0.0
 10
12.49076613158666
 20
25.54318981789734
 30
0.0
 10
12.6665334624591
 20
25.52816909760165
 30
0.0
 10
12.74028542340612
 20
25.53041158029684
 30
0.0
 10
12.86605076853515
 20
25.54934151941308
 30
0.0
 10
12.91749996660361
 20
25.56531541934165
 30
0.0
 10
12.97688531868163
 20
25.60908469940352
 30
0.0
 10
12.99394905986488
 20
25.62703563897608
 30
0.0
 10
13.01360803438726
 20
25.66754728332326
 30
0.0
 10
13.01926149413283
 20
25.68358803034142
 30
0.0
 10
13.02752275857842
 20
25.72506394381626
 30
0.0
 10
13.02999999999999
 20
25.75103822857546
 30
0.0
 10
13.02999999999999
 20
25.78129773037291
 30
0.0
  0
SPLINE
  5
1E1
330
1F
100
AcDbEntity
  8
1
  6
SLD-Solid
370
    25
100
AcDbSpline
210
0.0
220
0.0
230
1.0
 70
     8
 71
     3
 72
    12
 73
     8
 74
     0
 42
0.000000001
 43
0.00000001
 40
0.0
 40
0.0
 40
0.0
 40
0.0
 40
0.2499999999999991
 40
0.2499999999999991
 40
0.4999999999999982
 40
0.4999999999999982
 40
1.0
 40
1.0
 40
1.0
 40
1.0
 10
9.200000000000014
 20
27.76916635406976
 30
0.0
 10
9.200000000000014
 20
27.66809333683725
 30
0.0
 10
9.218583298377242
 20
27.5689264133913
 30
0.0
 10
9.291549937975763
 20
27.38152387214675
 30
0.0
 10
9.34549688093282
 20
27.29531750692793
 30
0.0
 10
9.55107104167538
 20
27.07620366276166
 30
0.0
 10
9.748220416740102
 20
26.9870635675688
 30
0.0
 10
9.949999999999987
 20
26.98706356756882
 30
0.0
  0
SPLINE
  5
1E2
330
1F
100
AcDbEntity
  8
1
  6
SLD-Solid
370
    25
100
AcDbSpline
210
0.0
220
0.0
230
1.0
 70
     8
 71
     3
 72
    14
 73
    10
 74
     0
 42
0.000000001
 43
0.00000001
 40
0.0
 40
0.0
 40
0.0
 40
0.0
 40
0.25
 40
0.25
 40
0.5
 40
0.5
 40
0.75
 40
0.75
 40
1.0
 40
1.0
 40
1.0
 40
1.0
 10
12.28000000000003
 20
26.98706356756882
 30
0.0
 10
12.38041018140386
 20
26.9870635675688
 30
0.0
 10
12.48007417771603
 20
27.00821121867972
 30
0.0
 10
12.66478364882751
 20
27.08984749877595
 30
0.0
 10
12.74772062670421
 20
27.1494985263265
 30
0.0
 10
12.88443521562222
 20
27.29527278596966
 30
0.0
 10
12.93853405055465
 20
27.38169791130529
 30
0.0
 10
13.01142030969678
 20
27.56897740148014
 30
0.0
 10
13.03
 20
27.66812420510654
 30
0.0
 10
13.03
 20
27.76916635406976
 30
0.0
  0
SPLINE
  5
1E3
330
1F
100
AcDbEntity
  8
SK3
  6
SLD-Dashed
370
    18
100
AcDbSpline
210
0.0
220
0.0
230
1.0
 70
     8
 71
     3
 72
    30
 73
    26
 74
     0
 42
0.000000001
 43
0.00000001
 40
0.4999999999999971
 40
0.4999999999999971
 40
0.4999999999999971
 40
0.4999999999999971
 40
0.5624999999999977
 40
0.5624999999999977
 40
0.6249999999999981
 40
0.6249999999999981
 40
0.6562499999999984
 40
0.6562499999999984
 40
0.6874999999999987
 40
0.6874999999999987
 40
0.718749999999999
 40
0.718749999999999
 40
0.7499999999999992
 40
0.7499999999999992
 40
0.7812499999999994
 40
0.7812499999999994
 40
0.8124999999999998
 40
0.8124999999999998
 40
0.8749999999999998
 40
0.8749999999999998
 40
0.9374999999999999
 40
0.9374999999999999
 40
0.96875
 40
0.96875
 40
1.0
 40
1.0
 40
1.0
 40
1.0
 10
11.75479658556572
 20
-4.901433547105927
 30
0.0
 10
11.89746294966132
 20
-4.886411197664704
 30
0.0
 10
12.02884136644407
 20
-4.886974229786178
 30
0.0
 10
12.27243240561786
 20
-4.932317536304444
 30
0.0
 10
12.38574037094359
 20
-4.975421209748227
 30
0.0
 10
12.53947570845301
 20
-5.103559339222866
 30
0.0
 10
12.58638543677661
 20
-5.156028957061208
 30
0.0
 10
12.66795201157342
 20
-5.291134993494199
 30
0.0
 10
12.70317196931761
 20
-5.375974586482812
 30
0.0
 10
12.74713654526595
 20
-5.582861984914103
 30
0.0
 10
12.75526091463636
 20
-5.705696917838711
 30
0.0
 10
12.73739776164139
 20
-5.968523156861111
 30
0.0
 10
12.71224833739218
 20
-6.103419156624199
 30
0.0
 10
12.64408666407788
 20
-6.357264662683458
 30
0.0
 10
12.60068164729128
 20
-6.478993458595594
 30
0.0
 10
12.50600924552238
 20
-6.704610974826185
 30
0.0
 10
12.45441331137413
 20
-6.809727668320963
 30
0.0
 10
12.28990621332258
 20
-7.109437894498874
 30
0.0
 10
12.17017846713216
 20
-7.284103436407833
 30
0.0
 10
11.91483731616863
 20
-7.597298819669196
 30
0.0
 10
11.77767665531765
 20
-7.737818016165216
 30
0.0
 10
11.5495115897996
 20
-7.918374112026477
 30
0.0
 10
11.46985276967112
 20
-7.973291374430612
 30
0.0
 10
11.29758630900468
 20
-8.069225810891208
 30
0.0
 10
11.20406269051034
 20
-8.110848935776529
 30
0.0
 10
11.1
 20
-8.13967039360794
 30
0.0
  0
SPLINE
  5
1E4
330
1F
100
AcDbEntity
  8
SK3
  6
SLD-Dashed
370
    18
100
AcDbSpline
210
0.0
220
0.0
230
1.0
 70
     8
 71
     3
 72
    34
 73
    30
 74
     0
 42
0.000000001
 43
0.00000001
 40
0.0
 40
0.0
 40
0.0
 40
0.0
 40
0.0312499999999996
 40
0.0312499999999996
 40
0.0624999999999992
 40
0.0624999999999992
 40
0.0937499999999988
 40
0.0937499999999988
 40
0.1249999999999985
 40
0.1249999999999985
 40
0.1562499999999982
 40
0.1562499999999982
 40
0.1874999999999979
 40
0.1874999999999979
 40
0.2499999999999979
 40
0.2499999999999979
 40
0.3124999999999978
 40
0.3124999999999978
 40
0.3437499999999977
 40
0.3437499999999977
 40
0.3749999999999976
 40
0.3749999999999976
 40
0.4062499999999975
 40
0.4062499999999975
 40
0.4374999999999973
 40
0.4374999999999973
 40
0.4687499999999972
 40
0.4687499999999972
 40
0.4999999999999971
 40
0.4999999999999971
 40
0.4999999999999971
 40
0.4999999999999971
 10
11.1
 20
-8.13967039360794
 30
0.0
 10
10.99593730948965
 20
-8.168491851439356
 30
0.0
 10
10.88327240143054
 20
-8.183619230956744
 30
0.0
 10
10.64024603173767
 20
-8.169996197171638
 30
0.0
 10
10.51600003630448
 20
-8.140993061765093
 30
0.0
 10
10.27540472633831
 20
-8.041511803988627
 30
0.0
 10
10.16352991293558
 20
-7.973785811074545
 30
0.0
 10
9.956641719228346
 20
-7.808864907520287
 30
0.0
 10
9.86514021175608
 20
-7.714409980823921
 30
0.0
 10
9.705479632928796
 20
-7.505675203818743
 30
0.0
 10
9.638640231842258
 20
-7.392601974747754
 30
0.0
 10
9.53414598644943
 20
-7.157373188583886
 30
0.0
 10
9.495668589618186
 20
-7.032517635178801
 30
0.0
 10
9.429144226770033
 20
-6.659799668562679
 30
0.0
 10
9.448570934642742
 20
-6.405979053005106
 30
0.0
 10
9.610438460184723
 20
-5.94846664851921
 30
0.0
 10
9.752910053168169
 20
-5.744009981362479
 30
0.0
 10
10.03367356462019
 20
-5.497500536354734
 30
0.0
 10
10.1372293865233
 20
-5.425546956212897
 30
0.0
 10
10.36592358660668
 20
-5.29701855310407
 30
0.0
 10
10.48785945052917
 20
-5.24256285665807
 30
0.0
 10
10.73642302172964
 20
-5.147912691227136
 30
0.0
 10
10.85648365715394
 20
-5.109640819744167
 30
0.0
 10
11.0806118967542
 20
-5.043111325123105
 30
0.0
 10
11.18022385975341
 20
-5.016231192190856
 30
0.0
 10
11.36576798793607
 20
-4.969815472118944
 30
0.0
 10
11.45055694339849
 20
-4.950785033120367
 30
0.0
 10
11.60916091896928
 20
-4.92039439550021
 30
0.0
 10
11.68346340351792
 20
-4.908944721826527
 30
0.0
 10
11.75479658556572
 20
-4.901433547105927
 30
0.0
  0
SPLINE
  5
1E5
330
1F
100
AcDbEntity
  8
SK3
  6
SLD-Dashed
370
    18
100
AcDbSpline
210
0.0
220
0.0
230
1.0
 70
     8
 71
     3
 72
    30
 73
    26
 74
     0
 42
0.000000001
 43
0.00000001
 40
0.4999999999999977
 40
0.4999999999999977
 40
0.4999999999999977
 40
0.4999999999999977
 40
0.5312499999999977
 40
0.5312499999999977
 40
0.5624999999999976
 40
0.5624999999999976
 40
0.6249999999999976
 40
0.6249999999999976
 40
0.6874999999999974
 40
0.6874999999999974
 40
0.7187499999999977
 40
0.7187499999999977
 40
0.7499999999999978
 40
0.7499999999999978
 40
0.781249999999998
 40
0.781249999999998
 40
0.8124999999999982
 40
0.8124999999999982
 40
0.8437499999999984
 40
0.8437499999999984
 40
0.8749999999999986
 40
0.8749999999999986
 40
0.9374999999999993
 40
0.9374999999999993
 40
1.0
 40
1.0
 40
1.0
 40
1.0
 10
9.52842029993542
 20
-8.783318638987472
 30
0.0
 10
9.563561233735419
 20
-8.863935054853195
 30
0.0
 10
9.607627266507032
 20
-8.927948620428332
 30
0.0
 10
9.70302702424504
 20
-9.029913156802364
 30
0.0
 10
9.7551658595878
 20
-9.069013533844455
 30
0.0
 10
9.920727180931468
 20
-9.161365608196956
 30
0.0
 10
10.03962982796815
 20
-9.189146893658643
 30
0.0
 10
10.29581948707685
 20
-9.207761129461582
 30
0.0
 10
10.43340974433163
 20
-9.197532970852954
 30
0.0
 10
10.66277322328792
 20
-9.159887465694732
 30
0.0
 10
10.74371097916554
 20
-9.143480319022096
 30
0.0
 10
10.91864535127572
 20
-9.102894413631455
 30
0.0
 10
11.01198337642653
 20
-9.079005870686087
 30
0.0
 10
11.22104536410176
 20
-9.020599106716363
 30
0.0
 10
11.33557343779479
 20
-8.98660471216861
 30
0.0
 10
11.57980302461464
 20
-8.902979810871827
 30
0.0
 10
11.70445599477361
 20
-8.85460927501284
 30
0.0
 10
11.94450363931206
 20
-8.73830293709412
 30
0.0
 10
12.055317005879
 20
-8.672727087611985
 30
0.0
 10
12.25922745067754
 20
-8.520325596843563
 30
0.0
 10
12.35002701179844
 20
-8.435036721266151
 30
0.0
 10
12.58459907667486
 20
-8.152304640047154
 30
0.0
 10
12.6894417703268
 20
-7.926948099339547
 30
0.0
 10
12.77109851062197
 20
-7.442912699127654
 30
0.0
 10
12.74820534245738
 20
-7.186173862784487
 30
0.0
 10
12.66230763443389
 20
-6.940889607535645
 30
0.0
  0
SPLINE
  5
1E6
330
1F
100
AcDbEntity
  8
SK3
  6
SLD-Dashed
370
    18
100
AcDbSpline
210
0.0
220
0.0
230
1.0
 70
     8
 71
     3
 72
    34
 73
    30
 74
     0
 42
0.000000001
 43
0.00000001
 40
0.0
 40
0.0
 40
0.0
 40
0.0
 40
0.0312499999999997
 40
0.0312499999999997
 40
0.0624999999999995
 40
0.0624999999999995
 40
0.0937499999999992
 40
0.0937499999999992
 40
0.124999999999999
 40
0.124999999999999
 40
0.1562499999999987
 40
0.1562499999999987
 40
0.1874999999999984
 40
0.1874999999999984
 40
0.2499999999999982
 40
0.2499999999999982
 40
0.3124999999999979
 40
0.3124999999999979
 40
0.3437499999999978
 40
0.3437499999999978
 40
0.3749999999999978
 40
0.3749999999999978
 40
0.4062499999999978
 40
0.4062499999999978
 40
0.4374999999999977
 40
0.4374999999999977
 40
0.4687499999999977
 40
0.4687499999999977
 40
0.4999999999999977
 40
0.4999999999999977
 40
0.4999999999999977
 40
0.4999999999999977
 10
12.66230763443389
 20
-6.940889607535645
 30
0.0
 10
12.61935878042216
 20
-6.818247479911228
 30
0.0
 10
12.56229529856065
 20
-6.702062405426222
 30
0.0
 10
12.42103808962698
 20
-6.482980016463468
 30
0.0
 10
12.33595491427449
 20
-6.37975233744649
 30
0.0
 10
12.14618186397769
 20
-6.199831764960501
 30
0.0
 10
12.0392257963649
 20
-6.120673587225296
 30
0.0
 10
11.80824491388434
 20
-5.996443405511906
 30
0.0
 10
11.68389439480549
 20
-5.951950953011084
 30
0.0
 10
11.43804455248935
 20
-5.908952419297793
 30
0.0
 10
11.31731684279021
 20
-5.910654595408932
 30
0.0
 10
11.09745426351666
 20
-5.948127988753951
 30
0.0
 10
10.99815393168725
 20
-5.982607853079413
 30
0.0
 10
10.72267466537657
 20
-6.111713360853567
 30
0.0
 10
10.5718917600473
 20
-6.227019438453225
 30
0.0
 10
10.2885724862224
 20
-6.491284498769491
 30
0.0
 10
10.15786476490366
 20
-6.642104569644397
 30
0.0
 10
9.976005005593564
 20
-6.893749929925849
 30
0.0
 10
9.917635222666227
 20
-6.982205125338786
 30
0.0
 10
9.805404805610374
 20
-7.170924693447017
 30
0.0
 10
9.751060353100554
 20
-7.272111003090546
 30
0.0
 10
9.650448853514279
 20
-7.486812522722694
 30
0.0
 10
9.604326797725632
 20
-7.59953021433881
 30
0.0
 10
9.52438853672935
 20
-7.841923064473677
 30
0.0
 10
9.490665766297285
 20
-7.972450285447914
 30
0.0
 10
9.450224495380091
 20
-8.237810978297455
 30
0.0
 10
9.444739461343568
 20
-8.369898596775046
 30
0.0
 10
9.466585255233806
 20
-8.602871670374157
 30
0.0
 10
9.493279366135434
 20
-8.702702223121756
 30
0.0
 10
9.52842029993542
 20
-8.783318638987472
 30
0.0
  0
SPLINE
  5
1E7
330
1F
100
AcDbEntity
  8
1
  6
SLD-Dashed
370
    18
100
AcDbSpline
210
0.0
220
0.0
230
1.0
 70
    24
 71
     3
 72
     8
 73
     4
 74
     0
 42
0.000000001
 43
0.00000001
 40
0.0
 40
0.0
 40
0.0
 40
0.0
 40
0.5
 40
0.5
 40
0.5
 40
0.5
 10
19.31429024489283
 20
-22.40999999999999
 30
0.0
 10
19.31428524911562
 20
-22.40999999999999
 30
0.0
 10
19.2502412889024
 20
-22.40999999999999
 30
0.0
 10
19.18387372929521
 20
-22.40999999999999
 30
0.0
  0
SPLINE
  5
1E8
330
1F
100
AcDbEntity
  8
1
  6
SLD-Dashed
370
    18
100
AcDbSpline
210
0.0
220
0.0
230
1.0
 70
    24
 71
     2
 72
     6
 73
     3
 74
     0
 42
0.000000001
 43
0.00000001
 40
0.5
 40
0.5
 40
0.5
 40
1.0
 40
1.0
 40
1.0
 10
19.18387372929521
 20
-22.40999999999999
 30
0.0
 10
19.11750616968801
 20
-22.40999999999999
 30
0.0
 10
19.05
 20
-22.40999999999999
 30
0.0
  0
SPLINE
  5
1E9
330
1F
100
AcDbEntity
  8
1
  6
SLD-Dashed
370
    18
100
AcDbSpline
210
0.0
220
0.0
230
1.0
 70
    24
 71
     2
 72
     6
 73
     3
 74
     0
 42
0.000000001
 43
0.00000001
 40
0.0
 40
0.0
 40
0.0
 40
0.25
 40
0.25
 40
0.25
 10
3.200000000000008
 20
-22.4099999999996
 30
0.0
 10
3.17040699581661
 20
-22.40999999999981
 30
0.0
 10
3.14448132470381
 20
-22.40999999999999
 30
0.0
  0
SPLINE
  5
1EA
330
1F
100
AcDbEntity
  8
1
  6
SLD-Dashed
370
    18
100
AcDbSpline
210
0.0
220
0.0
230
1.0
 70
    24
 71
     3
 72
     8
 73
     4
 74
     0
 42
0.000000001
 43
0.00000001
 40
0.25
 40
0.25
 40
0.25
 40
0.25
 40
0.5
 40
0.5
 40
0.5
 40
0.5
 10
3.14448132470381
 20
-22.40999999999999
 30
0.0
 10
3.118555653590996
 20
-22.40999999999999
 30
0.0
 10
3.097084490555638
 20
-22.40999999999999
 30
0.0
 10
3.096615422637519
 20
-22.40999999999999
 30
0.0
  0
SPLINE
  5
1EB
330
1F
100
AcDbEntity
  8
1
  6
SLD-Dashed
370
    18
100
AcDbSpline
210
0.0
220
0.0
230
1.0
 70
    24
 71
     3
 72
     8
 73
     4
 74
     0
 42
0.000000001
 43
0.00000001
 40
0.5
 40
0.5
 40
0.5
 40
0.5
 40
0.5625
 40
0.5625
 40
0.5625
 40
0.5625
 10
3.096615422637519
 20
-22.40999999999999
 30
0.0
 10
3.096498155657976
 20
-22.40999999999999
 30
0.0
 10
3.097576707176336
 20
-22.40999999999999
 30
0.0
 10
3.099789717980514
 20
-22.40999999999999
 30
0.0
  0
SPLINE
  5
1EC
330
1F
100
AcDbEntity
  8
1
  6
SLD-Dashed
370
    18
100
AcDbSpline
210
0.0
220
0.0
230
1.0
 70
    24
 71
     3
 72
     8
 73
     4
 74
     0
 42
0.000000001
 43
0.00000001
 40
0.5625
 40
0.5625
 40
0.5625
 40
0.5625
 40
0.625
 40
0.625
 40
0.625
 40
0.625
 10
3.099789717980514
 20
-22.40999999999999
 30
0.0
 10
3.102002728784719
 20
-22.40999999999999
 30
0.0
 10
3.10534590857034
 20
-22.40999999999999
 30
0.0
 10
3.109607407038001
 20
-22.41
 30
0.0
  0
SPLINE
  5
1ED
330
1F
100
AcDbEntity
  8
1
  6
SLD-Dashed
370
    18
100
AcDbSpline
210
0.0
220
0.0
230
1.0
 70
    24
 71
     3
 72
     8
 73
     4
 74
     0
 42
0.000000001
 43
0.00000001
 40
0.625
 40
0.625
 40
0.625
 40
0.625
 40
0.75
 40
0.75
 40
0.75
 40
0.75
 10
3.109607407038001
 20
-22.41
 30
0.0
 10
3.118130403973393
 20
-22.40999999999999
 30
0.0
 10
3.130398007648125
 20
-22.40999999999999
 30
0.0
 10
3.143490990967584
 20
-22.41
 30
0.0
  0
SPLINE
  5
1EE
330
1F
100
AcDbEntity
  8
1
  6
SLD-Dashed
370
    18
100
AcDbSpline
210
0.0
220
0.0
230
1.0
 70
    24
 71
     2
 72
     6
 73
     3
 74
     0
 42
0.000000001
 43
0.00000001
 40
0.75
 40
0.75
 40
0.75
 40
1.0
 40
1.0
 40
1.0
 10
3.143490990967584
 20
-22.41
 30
0.0
 10
3.169676957606518
 20
-22.40999999999981
 30
0.0
 10
3.200000000000008
 20
-22.4099999999996
 30
0.0
  0
SPLINE
  5
1EF
330
1F
100
AcDbEntity
  8
SK3
  6
SLD-Dashed
370
    18
100
AcDbSpline
210
0.0
220
0.0
230
1.0
 70
     8
 71
     3
 72
    28
 73
    24
 74
     0
 42
0.000000001
 43
0.00000001
 40
0.5000000000000019
 40
0.5000000000000019
 40
0.5000000000000019
 40
0.5000000000000019
 40
0.5625000000000017
 40
0.5625000000000017
 40
0.6250000000000013
 40
0.6250000000000013
 40
0.6562500000000014
 40
0.6562500000000014
 40
0.6875000000000014
 40
0.6875000000000014
 40
0.7500000000000012
 40
0.7500000000000012
 40
0.781250000000001
 40
0.781250000000001
 40
0.8125000000000009
 40
0.8125000000000009
 40
0.8437500000000007
 40
0.8437500000000007
 40
0.8750000000000004
 40
0.8750000000000004
 40
0.9375000000000002
 40
0.9375000000000002
 40
1.0
 40
1.0
 40
1.0
 40
1.0
 10
11.09935108245513
 20
-1.723959016808774
 30
0.0
 10
11.3149085420958
 20
-1.723874357116281
 30
0.0
 10
11.53240568151345
 20
-1.76720737512371
 30
0.0
 10
11.9297062561072
 20
-1.930680790424508
 30
0.0
 10
12.11340184653432
 20
-2.052164489224948
 30
0.0
 10
12.34175790858497
 20
-2.275789161868762
 30
0.0
 10
12.41141294242586
 20
-2.358593402464533
 30
0.0
 10
12.5310772307777
 20
-2.532416258492313
 30
0.0
 10
12.58187115783237
 20
-2.623981606802543
 30
0.0
 10
12.7066392998902
 20
-2.912552727412185
 30
0.0
 10
12.74982652035883
 20
-3.116597143601983
 30
0.0
 10
12.75008596111153
 20
-3.423945008153253
 30
0.0
 10
12.73947237451449
 20
-3.524152161581327
 30
0.0
 10
12.69761250703022
 20
-3.720314846548916
 30
0.0
 10
12.66581503523483
 20
-3.81728004338603
 30
0.0
 10
12.58319290915229
 20
-4.00036067904138
 30
0.0
 10
12.53259814428312
 20
-4.086764564335724
 30
0.0
 10
12.41285937795093
 20
-4.24966689013749
 30
0.0
 10
12.3434538727958
 20
-4.326010047865286
 30
0.0
 10
12.11588997482492
 20
-4.530748273173894
 30
0.0
 10
11.93219659571984
 20
-4.640082683497707
 30
0.0
 10
11.53539037823417
 20
-4.786246745241765
 30
0.0
 10
11.31843852613353
 20
-4.824944537971838
 30
0.0
 10
11.10000000000001
 20
-4.824944537971831
 30
0.0
  0
SPLINE
  5
1F0
330
1F
100
AcDbEntity
  8
SK3
  6
SLD-Dashed
370
    18
100
AcDbSpline
210
0.0
220
0.0
230
1.0
 70
     8
 71
     3
 72
    32
 73
    28
 74
     0
 42
0.000000001
 43
0.00000001
 40
0.0
 40
0.0
 40
0.0
 40
0.0
 40
0.0312500000000002
 40
0.0312500000000002
 40
0.0625000000000003
 40
0.0625000000000003
 40
0.0937500000000005
 40
0.0937500000000005
 40
0.1250000000000006
 40
0.1250000000000006
 40
0.1875000000000009
 40
0.1875000000000009
 40
0.2500000000000012
 40
0.2500000000000012
 40
0.2812500000000012
 40
0.2812500000000012
 40
0.3125000000000012
 40
0.3125000000000012
 40
0.3750000000000014
 40
0.3750000000000014
 40
0.4062500000000016
 40
0.4062500000000016
 40
0.4375000000000017
 40
0.4375000000000017
 40
0.4687500000000018
 40
0.4687500000000018
 40
0.5000000000000019
 40
0.5000000000000019
 40
0.5000000000000019
 40
0.5000000000000019
 10
11.10000000000001
 20
-4.824944537971831
 30
0.0
 10
10.99078073693326
 20
-4.824944537971831
 30
0.0
 10
10.88342694342612
 20
-4.815493897180362
 30
0.0
 10
10.67228510762624
 20
-4.778425316603226
 30
0.0
 10
10.56738843669804
 20
-4.750343636339583
 30
0.0
 10
10.36767370857249
 20
-4.67696039195728
 30
0.0
 10
10.27298297991624
 20
-4.631990404161929
 30
0.0
 10
10.0937775089695
 20
-4.525324539495015
 30
0.0
 10
10.00908459764556
 20
-4.463159089622567
 30
0.0
 10
9.781253818928622
 20
-4.25844687730094
 30
0.0
 10
9.658380763508251
 20
-4.092042734158502
 30
0.0
 10
9.493665322585318
 20
-3.727930781737478
 30
0.0
 10
9.450124387811135
 20
-3.526253214262573
 30
0.0
 10
9.449938216016667
 20
-3.222300471639773
 30
0.0
 10
9.460696264903909
 20
-3.118727087989936
 30
0.0
 10
9.502874407805534
 20
-2.917328548916832
 30
0.0
 10
9.53407942214836
 20
-2.818826252271277
 30
0.0
 10
9.65828577345365
 20
-2.530220914926953
 30
0.0
 10
9.779378913157762
 20
-2.353376306847663
 30
0.0
 10
10.0097349234808
 20
-2.127258636971288
 30
0.0
 10
10.09283627575379
 20
-2.060109525404558
 30
0.0
 10
10.2713092865752
 20
-1.942004790856593
 30
0.0
 10
10.36786046814542
 20
-1.890635490117434
 30
0.0
 10
10.56741211056034
 20
-1.808330138996152
 30
0.0
 10
10.67025253681526
 20
-1.777131634083023
 30
0.0
 10
10.88208855281401
 20
-1.734839805819489
 30
0.0
 10
10.99157235263479
 20
-1.72400134665502
 30
0.0
 10
11.09935108245513
 20
-1.723959016808774
 30
0.0
  0
SPLINE
  5
1F1
330
1F
100
AcDbEntity
  8
SK3
  6
SLD-Dashed
370
    18
100
AcDbSpline
210
0.0
220
0.0
230
1.0
 70
     8
 71
     3
 72
    28
 73
    24
 74
     0
 42
0.000000001
 43
0.00000001
 40
0.5000000000000024
 40
0.5000000000000024
 40
0.5000000000000024
 40
0.5000000000000024
 40
0.5625000000000021
 40
0.5625000000000021
 40
0.6250000000000019
 40
0.6250000000000019
 40
0.6562500000000019
 40
0.6562500000000019
 40
0.6875000000000019
 40
0.6875000000000019
 40
0.7500000000000019
 40
0.7500000000000019
 40
0.7812500000000019
 40
0.7812500000000019
 40
0.8125000000000018
 40
0.8125000000000018
 40
0.8437500000000017
 40
0.8437500000000017
 40
0.8750000000000016
 40
0.8750000000000016
 40
0.9375000000000009
 40
0.9375000000000009
 40
1.0
 40
1.0
 40
1.0
 40
1.0
 10
11.10064891754489
 20
4.824944425584732
 30
0.0
 10
10.8850914579042
 20
4.825019091093091
 30
0.0
 10
10.66759431848656
 20
4.786969829267088
 30
0.0
 10
10.2702937438928
 20
4.641371183282714
 30
0.0
 10
10.08659815346569
 20
4.53251371072766
 30
0.0
 10
9.85824209141503
 20
4.327767916370434
 30
0.0
 10
9.788587057574155
 20
4.251339279910393
 30
0.0
 10
9.668922769222293
 20
4.089121951178915
 30
0.0
 10
9.618128842167645
 20
4.002846630020055
 30
0.0
 10
9.493360700109795
 20
3.72768769856785
 30
0.0
 10
9.45017347964118
 20
3.528834086754098
 30
0.0
 10
9.449914038888465
 20
3.221516363426699
 30
0.0
 10
9.46052762548552
 20
3.120064941403863
 30
0.0
 10
9.502387492969792
 20
2.919129189675948
 30
0.0
 10
9.534184964765227
 20
2.818574904310061
 30
0.0
 10
9.616807090847724
 20
2.626606713053106
 30
0.0
 10
9.667401855716879
 20
2.534927381919766
 30
0.0
 10
9.787140622049066
 20
2.360399993736863
 30
0.0
 10
9.856546127204213
 20
2.27769776551924
 30
0.0
 10
10.08411002517509
 20
2.054114981080331
 30
0.0
 10
10.26780340428017
 20
1.93212015142414
 30
0.0
 10
10.66460962176584
 20
1.768026454758945
 30
0.0
 10
10.88156147386649
 20
1.723958889378346
 30
0.0
 10
11.10000000000001
 20
1.723958889378346
 30
0.0
  0
SPLINE
  5
1F2
330
1F
100
AcDbEntity
  8
SK3
  6
SLD-Dashed
370
    18
100
AcDbSpline
210
0.0
220
0.0
230
1.0
 70
     8
 71
     3
 72
    32
 73
    28
 74
     0
 42
0.000000001
 43
0.00000001
 40
0.0
 40
0.0
 40
0.0
 40
0.0
 40
0.0312500000000002
 40
0.0312500000000002
 40
0.0625000000000005
 40
0.0625000000000005
 40
0.0937500000000007
 40
0.0937500000000007
 40
0.125000000000001
 40
0.125000000000001
 40
0.1875000000000011
 40
0.1875000000000011
 40
0.2500000000000012
 40
0.2500000000000012
 40
0.2812500000000013
 40
0.2812500000000013
 40
0.3125000000000015
 40
0.3125000000000015
 40
0.3750000000000021
 40
0.3750000000000021
 40
0.4062500000000022
 40
0.4062500000000022
 40
0.4375000000000023
 40
0.4375000000000023
 40
0.4687500000000024
 40
0.4687500000000024
 40
0.5000000000000024
 40
0.5000000000000024
 40
0.5000000000000024
 40
0.5000000000000024
 10
11.10000000000001
 20
1.723958889378346
 30
0.0
 10
11.20921926306677
 20
1.723958889378346
 30
0.0
 10
11.31657305657389
 20
1.734687312349652
 30
0.0
 10
11.52771489237378
 20
1.776612951752743
 30
0.0
 10
11.632611563302
 20
1.80833194060176
 30
0.0
 10
11.83232629142753
 20
1.890720490467845
 30
0.0
 10
11.92701702008377
 20
1.941018395593672
 30
0.0
 10
12.10622249103051
 20
2.059367245664773
 30
0.0
 10
12.19091540235445
 20
2.127920965744337
 30
0.0
 10
12.41874618107139
 20
2.351488051465296
 30
0.0
 10
12.54161923649177
 20
2.530455627979405
 30
0.0
 10
12.70633467741469
 20
2.912279834328207
 30
0.0
 10
12.74987561218889
 20
3.119183719466179
 30
0.0
 10
12.75006178398334
 20
3.423158091098638
 30
0.0
 10
12.73930373509609
 20
3.525470316130486
 30
0.0
 10
12.69712559219448
 20
3.722060444030104
 30
0.0
 10
12.66592057785165
 20
3.817040089794388
 30
0.0
 10
12.54171422654635
 20
4.092284586195246
 30
0.0
 10
12.42062108684222
 20
4.256715841463087
 30
0.0
 10
12.1902650765192
 20
4.463766572672112
 30
0.0
 10
12.10716372424622
 20
4.524651904731364
 30
0.0
 10
11.92869071342482
 20
4.631104959936266
 30
0.0
 10
11.83213953185458
 20
4.677036226361494
 30
0.0
 10
11.63258788943967
 20
4.750345116056195
 30
0.0
 10
11.52974746318473
 20
4.777966225872024
 30
0.0
 10
11.31791144718598
 20
4.815359559571728
 30
0.0
 10
11.20842764736524
 20
4.824907092830552
 30
0.0
 10
11.10064891754489
 20
4.824944425584732
 30
0.0
  0
SPLINE
  5
1F3
330
1F
100
AcDbEntity
  8
SK3
  6
SLD-Dashed
370
    18
100
AcDbSpline
210
0.0
220
0.0
230
1.0
 70
     8
 71
     2
 72
     6
 73
     3
 74
     0
 42
0.000000001
 43
0.00000001
 40
0.0
 40
0.0
 40
0.0
 40
0.0312499999999994
 40
0.0312499999999994
 40
0.0312499999999994
 10
56.32449999999997
 20
9.524999999999991
 30
0.0
 10
56.37565682781412
 20
9.486294570018316
 30
0.0
 10
56.47425850713616
 20
9.41269718383353
 30
0.0
  0
SPLINE
  5
1F4
330
1F
100
AcDbEntity
  8
SK3
  6
SLD-Dashed
370
    18
100
AcDbSpline
210
0.0
220
0.0
230
1.0
 70
     8
 71
     3
 72
     8
 73
     4
 74
     0
 42
0.000000001
 43
0.00000001
 40
0.0312499999999994
 40
0.0312499999999994
 40
0.0312499999999994
 40
0.0312499999999994
 40
0.0468749999999992
 40
0.0468749999999992
 40
0.0468749999999992
 40
0.0468749999999992
 10
56.47425850713616
 20
9.41269718383353
 30
0.0
 10
56.52355934679723
 20
9.375898490741136
 30
0.0
 10
56.58517626073562
 20
9.33006899988692
 30
0.0
 10
56.65809472047955
 20
9.27628657405155
 30
0.0
  0
SPLINE
  5
1F5
330
1F
100
AcDbEntity
  8
SK3
  6
SLD-Dashed
370
    18
100
AcDbSpline
210
0.0
220
0.0
230
1.0
 70
     8
 71
     3
 72
     8
 73
     4
 74
     0
 42
0.000000001
 43
0.00000001
 40
0.0468749999999992
 40
0.0468749999999992
 40
0.0468749999999992
 40
0.0468749999999992
 40
0.0624999999999989
 40
0.0624999999999989
 40
0.0624999999999989
 40
0.0624999999999989
 10
56.65809472047955
 20
9.27628657405155
 30
0.0
 10
56.73101318022347
 20
9.222504148216196
 30
0.0
 10
56.81443033856959
 20
9.161361501007145
 30
0.0
 10
56.9076357556742
 20
9.093794097067786
 30
0.0
  0
SPLINE
  5
1F6
330
1F
100
AcDbEntity
  8
SK3
  6
SLD-Dashed
370
    18
100
AcDbSpline
210
0.0
220
0.0
230
1.0
 70
     8
 71
     3
 72
     8
 73
     4
 74
     0
 42
0.000000001
 43
0.00000001
 40
0.0624999999999989
 40
0.0624999999999989
 40
0.0624999999999989
 40
0.0624999999999989
 40
0.0781249999999986
 40
0.0781249999999986
 40
0.0781249999999986
 40
0.0781249999999986
 10
56.9076357556742
 20
9.093794097067786
 30
0.0
 10
57.00084117277881
 20
9.026226693128415
 30
0.0
 10
57.10384013481137
 20
8.952227614798469
 30
0.0
 10
57.21632421266148
 20
8.87256480113749
 30
0.0
  0
SPLINE
  5
1F7
330
1F
100
AcDbEntity
  8
SK3
  6
SLD-Dashed
370
    18
100
AcDbSpline
210
0.0
220
0.0
230
1.0
 70
     8
 71
     3
 72
     8
 73
     4
 74
     0
 42
0.000000001
 43
0.00000001
 40
0.0781249999999986
 40
0.0781249999999986
 40
0.0781249999999986
 40
0.0781249999999986
 40
0.0937499999999983
 40
0.0937499999999983
 40
0.0937499999999983
 40
0.0937499999999983
 10
57.21632421266148
 20
8.87256480113749
 30
0.0
 10
57.3288082905116
 20
8.792901987476522
 30
0.0
 10
57.4514275967685
 20
8.707128391408622
 30
0.0
 10
57.58170991806133
 20
8.617655263699856
 30
0.0
  0
SPLINE
  5
1F8
330
1F
100
AcDbEntity
  8
SK3
  6
SLD-Dashed
370
    18
100
AcDbSpline
210
0.0
220
0.0
230
1.0
 70
     8
 71
     3
 72
     8
 73
     4
 74
     0
 42
0.000000001
 43
0.00000001
 40
0.0937499999999983
 40
0.0937499999999983
 40
0.0937499999999983
 40
0.0937499999999983
 40
0.1249999999999978
 40
0.1249999999999978
 40
0.1249999999999978
 40
0.1249999999999978
 10
57.58170991806133
 20
8.617655263699856
 30
0.0
 10
57.84227456064697
 20
8.438709008282267
 30
0.0
 10
58.13256757399193
 20
8.245314563493825
 30
0.0
 10
58.45220499224357
 20
8.04475351955114
 30
0.0
  0
SPLINE
  5
1F9
330
1F
100
AcDbEntity
  8
SK3
  6
SLD-Dashed
370
    18
100
AcDbSpline
210
0.0
220
0.0
230
1.0
 70
     8
 71
     3
 72
     8
 73
     4
 74
     0
 42
0.000000001
 43
0.00000001
 40
0.1249999999999978
 40
0.1249999999999978
 40
0.1249999999999978
 40
0.1249999999999978
 40
0.1562499999999972
 40
0.1562499999999972
 40
0.1562499999999972
 40
0.1562499999999972
 10
58.45220499224357
 20
8.04475351955114
 30
0.0
 10
58.77184241049521
 20
7.844192475608441
 30
0.0
 10
59.12228340458908
 20
7.63573558072482
 30
0.0
 10
59.4934538751555
 20
7.435740487705719
 30
0.0
  0
SPLINE
  5
1FA
330
1F
100
AcDbEntity
  8
SK3
  6
SLD-Dashed
370
    18
100
AcDbSpline
210
0.0
220
0.0
230
1.0
 70
     8
 71
     3
 72
     8
 73
     4
 74
     0
 42
0.000000001
 43
0.00000001
 40
0.1562499999999972
 40
0.1562499999999972
 40
0.1562499999999972
 40
0.1562499999999972
 40
0.1874999999999967
 40
0.1874999999999967
 40
0.1874999999999967
 40
0.1874999999999967
 10
59.4934538751555
 20
7.435740487705719
 30
0.0
 10
59.86462434572193
 20
7.235745394686618
 30
0.0
 10
60.25889934153408
 20
7.042219871342098
 30
0.0
 10
60.68312771310303
 20
6.868230793347585
 30
0.0
  0
SPLINE
  5
1FB
330
1F
100
AcDbEntity
  8
SK3
  6
SLD-Dashed
370
    18
100
AcDbSpline
210
0.0
220
0.0
230
1.0
 70
     8
 71
     3
 72
     8
 73
     4
 74
     0
 42
0.000000001
 43
0.00000001
 40
0.1874999999999967
 40
0.1874999999999967
 40
0.1874999999999967
 40
0.1874999999999967
 40
0.2031249999999964
 40
0.2031249999999964
 40
0.2031249999999964
 40
0.2031249999999964
 10
60.68312771310303
 20
6.868230793347585
 30
0.0
 10
60.89524189888748
 20
6.781236254350342
 30
0.0
 10
61.11617426303259
 20
6.698900448787986
 30
0.0
 10
61.34100783512481
 20
6.625637472575177
 30
0.0
  0
SPLINE
  5
1FC
330
1F
100
AcDbEntity
  8
SK3
  6
SLD-Dashed
370
    18
100
AcDbSpline
210
0.0
220
0.0
230
1.0
 70
     8
 71
     3
 72
     8
 73
     4
 74
     0
 42
0.000000001
 43
0.00000001
 40
0.2031249999999964
 40
0.2031249999999964
 40
0.2031249999999964
 40
0.2031249999999964
 40
0.2187499999999962
 40
0.2187499999999962
 40
0.2187499999999962
 40
0.2187499999999962
 10
61.34100783512481
 20
6.625637472575177
 30
0.0
 10
61.56584140721702
 20
6.552374496362353
 30
0.0
 10
61.79535505578914
 20
6.487784944442978
 30
0.0
 10
62.03022573137501
 20
6.434132509570492
 30
0.0
  0
SPLINE
  5
1FD
330
1F
100
AcDbEntity
  8
SK3
  6
SLD-Dashed
370
    18
100
AcDbSpline
210
0.0
220
0.0
230
1.0
 70
     8
 71
     3
 72
     8
 73
     4
 74
     0
 42
0.000000001
 43
0.00000001
 40
0.2187499999999962
 40
0.2187499999999962
 40
0.2187499999999962
 40
0.2187499999999962
 40
0.2343749999999959
 40
0.2343749999999959
 40
0.2343749999999959
 40
0.2343749999999959
 10
62.03022573137501
 20
6.434132509570492
 30
0.0
 10
62.26509640696082
 20
6.38048007469802
 30
0.0
 10
62.50593306395674
 20
6.3376983487574
 30
0.0
 10
62.75174502207526
 20
6.30854264168805
 30
0.0
  0
SPLINE
  5
1FE
330
1F
100
AcDbEntity
  8
SK3
  6
SLD-Dashed
370
    18
100
AcDbSpline
210
0.0
220
0.0
230
1.0
 70
     8
 71
     3
 72
     8
 73
     4
 74
     0
 42
0.000000001
 43
0.00000001
 40
0.2343749999999959
 40
0.2343749999999959
 40
0.2343749999999959
 40
0.2343749999999959
 40
0.2499999999999957
 40
0.2499999999999957
 40
0.2499999999999957
 40
0.2499999999999957
 10
62.75174502207526
 20
6.30854264168805
 30
0.0
 10
62.99755698019374
 20
6.279386934618686
 30
0.0
 10
63.24288822411405
 20
6.264501417651183
 30
0.0
 10
63.48774212571124
 20
6.26402227051294
 30
0.0
  0
SPLINE
  5
1FF
330
1F
100
AcDbEntity
  8
SK3
  6
SLD-Dashed
370
    18
100
AcDbSpline
210
0.0
220
0.0
230
1.0
 70
     8
 71
     3
 72
     8
 73
     4
 74
     0
 42
0.000000001
 43
0.00000001
 40
0.2499999999999957
 40
0.2499999999999957
 40
0.2499999999999957
 40
0.2499999999999957
 40
0.2656249999999954
 40
0.2656249999999954
 40
0.2656249999999954
 40
0.2656249999999954
 10
63.48774212571124
 20
6.26402227051294
 30
0.0
 10
63.73259602730844
 20
6.263543123374668
 30
0.0
 10
63.97697259920926
 20
6.277468811029766
 30
0.0
 10
64.2208794116178
 20
6.305354222888221
 30
0.0
  0
SPLINE
  5
200
330
1F
100
AcDbEntity
  8
SK3
  6
SLD-Dashed
370
    18
100
AcDbSpline
210
0.0
220
0.0
230
1.0
 70
     8
 71
     3
 72
     8
 73
     4
 74
     0
 42
0.000000001
 43
0.00000001
 40
0.2656249999999954
 40
0.2656249999999954
 40
0.2656249999999954
 40
0.2656249999999954
 40
0.2812499999999951
 40
0.2812499999999951
 40
0.2812499999999951
 40
0.2812499999999951
 10
64.2208794116178
 20
6.305354222888221
 30
0.0
 10
64.46478622402638
 20
6.33323963474669
 30
0.0
 10
64.70890186270273
 20
6.375442830892822
 30
0.0
 10
64.9451602432774
 20
6.428554493721705
 30
0.0
  0
SPLINE
  5
201
330
1F
100
AcDbEntity
  8
SK3
  6
SLD-Dashed
370
    18
100
AcDbSpline
210
0.0
220
0.0
230
1.0
 70
     8
 71
     3
 72
     8
 73
     4
 74
     0
 42
0.000000001
 43
0.00000001
 40
0.2812499999999951
 40
0.2812499999999951
 40
0.2812499999999951
 40
0.2812499999999951
 40
0.2968749999999948
 40
0.2968749999999948
 40
0.2968749999999948
 40
0.2968749999999948
 10
64.9451602432774
 20
6.428554493721705
 30
0.0
 10
65.1814186238521
 20
6.481666156550602
 30
0.0
 10
65.41182155461955
 20
6.545792657473404
 30
0.0
 10
65.63716474659981
 20
6.618557086262008
 30
0.0
  0
SPLINE
  5
202
330
1F
100
AcDbEntity
  8
SK3
  6
SLD-Dashed
370
    18
100
AcDbSpline
210
0.0
220
0.0
230
1.0
 70
     8
 71
     3
 72
     8
 73
     4
 74
     0
 42
0.000000001
 43
0.00000001
 40
0.2968749999999948
 40
0.2968749999999948
 40
0.2968749999999948
 40
0.2968749999999948
 40
0.3124999999999946
 40
0.3124999999999946
 40
0.3124999999999946
 40
0.3124999999999946
 10
65.63716474659981
 20
6.618557086262008
 30
0.0
 10
65.8625079385801
 20
6.6913215150506
 30
0.0
 10
66.08383198352783
 20
6.773196264177939
 30
0.0
 10
66.29682346794257
 20
6.860032526222748
 30
0.0
  0
SPLINE
  5
203
330
1F
100
AcDbEntity
  8
SK3
  6
SLD-Dashed
370
    18
100
AcDbSpline
210
0.0
220
0.0
230
1.0
 70
     8
 71
     3
 72
     8
 73
     4
 74
     0
 42
0.000000001
 43
0.00000001
 40
0.3124999999999946
 40
0.3124999999999946
 40
0.3124999999999946
 40
0.3124999999999946
 40
0.3437499999999941
 40
0.3437499999999941
 40
0.3437499999999941
 40
0.3437499999999941
 10
66.29682346794257
 20
6.860032526222748
 30
0.0
 10
66.72280643677203
 20
7.033705050312395
 30
0.0
 10
67.11854742098042
 20
7.227241255365002
 30
0.0
 10
67.49105055683651
 20
7.427402594260321
 30
0.0
  0
SPLINE
  5
204
330
1F
100
AcDbEntity
  8
SK3
  6
SLD-Dashed
370
    18
100
AcDbSpline
210
0.0
220
0.0
230
1.0
 70
     8
 71
     3
 72
     8
 73
     4
 74
     0
 42
0.000000001
 43
0.00000001
 40
0.3437499999999941
 40
0.3437499999999941
 40
0.3437499999999941
 40
0.3437499999999941
 40
0.3749999999999935
 40
0.3749999999999935
 40
0.3749999999999935
 40
0.3749999999999935
 10
67.49105055683651
 20
7.427402594260321
 30
0.0
 10
67.86355369269262
 20
7.627563933155668
 30
0.0
 10
68.2152295348781
 20
7.836392403580458
 30
0.0
 10
68.53513106412402
 20
8.03681339729291
 30
0.0
  0
SPLINE
  5
205
330
1F
100
AcDbEntity
  8
SK3
  6
SLD-Dashed
370
    18
100
AcDbSpline
210
0.0
220
0.0
230
1.0
 70
     8
 71
     3
 72
     8
 73
     4
 74
     0
 42
0.000000001
 43
0.00000001
 40
0.3749999999999935
 40
0.3749999999999935
 40
0.3749999999999935
 40
0.3749999999999935
 40
0.406249999999993
 40
0.406249999999993
 40
0.406249999999993
 40
0.406249999999993
 10
68.53513106412402
 20
8.03681339729291
 30
0.0
 10
68.85503259336994
 20
8.237234391005362
 30
0.0
 10
69.14510788339007
 20
8.43025623487402
 30
0.0
 10
69.40531399849259
 20
8.608748931801442
 30
0.0
  0
SPLINE
  5
206
330
1F
100
AcDbEntity
  8
SK3
  6
SLD-Dashed
370
    18
100
AcDbSpline
210
0.0
220
0.0
230
1.0
 70
     8
 71
     3
 72
     8
 73
     4
 74
     0
 42
0.000000001
 43
0.00000001
 40
0.406249999999993
 40
0.406249999999993
 40
0.406249999999993
 40
0.406249999999993
 40
0.4374999999999925
 40
0.4374999999999925
 40
0.4374999999999925
 40
0.4374999999999925
 10
69.40531399849259
 20
8.608748931801442
 30
0.0
 10
69.66552011359511
 20
8.787241628728863
 30
0.0
 10
69.89630093688746
 20
8.951746435561168
 30
0.0
 10
70.08392951843356
 20
9.087681368407512
 30
0.0
  0
SPLINE
  5
207
330
1F
100
AcDbEntity
  8
SK3
  6
SLD-Dashed
370
    18
100
AcDbSpline
210
0.0
220
0.0
230
1.0
 70
     8
 71
     3
 72
     8
 73
     4
 74
     0
 42
0.000000001
 43
0.00000001
 40
0.4374999999999925
 40
0.4374999999999925
 40
0.4374999999999925
 40
0.4374999999999925
 40
0.4531249999999922
 40
0.4531249999999922
 40
0.4531249999999922
 40
0.4531249999999922
 10
70.08392951843356
 20
9.087681368407512
 30
0.0
 10
70.17774380920663
 20
9.155648834830679
 30
0.0
 10
70.26146308561657
 20
9.216982516629765
 30
0.0
 10
70.3345873384077
 20
9.270890401483726
 30
0.0
  0
SPLINE
  5
208
330
1F
100
AcDbEntity
  8
SK3
  6
SLD-Dashed
370
    18
100
AcDbSpline
210
0.0
220
0.0
230
1.0
 70
     8
 71
     3
 72
     8
 73
     4
 74
     0
 42
0.000000001
 43
0.00000001
 40
0.4531249999999922
 40
0.4531249999999922
 40
0.4531249999999922
 40
0.4531249999999922
 40
0.468749999999992
 40
0.468749999999992
 40
0.468749999999992
 40
0.468749999999992
 10
70.3345873384077
 20
9.270890401483726
 30
0.0
 10
70.40771159119882
 20
9.324798286337671
 30
0.0
 10
70.47055278755113
 20
9.371515294523125
 30
0.0
 10
70.52109152830994
 20
9.409226907610742
 30
0.0
  0
SPLINE
  5
209
330
1F
100
AcDbEntity
  8
SK3
  6
SLD-Dashed
370
    18
100
AcDbSpline
210
0.0
220
0.0
230
1.0
 70
     8
 71
     3
 72
     8
 73
     4
 74
     0
 42
0.000000001
 43
0.00000001
 40
0.468749999999992
 40
0.468749999999992
 40
0.468749999999992
 40
0.468749999999992
 40
0.4999999999999912
 40
0.4999999999999912
 40
0.4999999999999912
 40
0.4999999999999912
 10
70.52109152830994
 20
9.409226907610742
 30
0.0
 10
70.62216900982763
 20
9.484650133785951
 30
0.0
 10
70.67377635180685
 20
9.52370152160957
 30
0.0
 10
70.67545798209984
 20
9.524968346555307
 30
0.0
  0
SPLINE
  5
20A
330
1F
100
AcDbEntity
  8
SK3
  6
SLD-Dashed
370
    18
100
AcDbSpline
210
0.0
220
0.0
230
1.0
 70
     8
 71
     3
 72
     8
 73
     4
 74
     0
 42
0.000000001
 43
0.00000001
 40
0.5156249999999908
 40
0.5156249999999908
 40
0.5156249999999908
 40
0.5156249999999908
 40
0.5312499999999905
 40
0.5312499999999905
 40
0.5312499999999905
 40
0.5312499999999905
 10
70.63967527502801
 20
9.498041260325538
 30
0.0
 10
70.61500343898506
 20
9.479495447251296
 30
0.0
 10
70.57794187873165
 20
9.451668134706228
 30
0.0
 10
70.52911054851097
 20
9.415212151257569
 30
0.0
  0
SPLINE
  5
20B
330
1F
100
AcDbEntity
  8
SK3
  6
SLD-Dashed
370
    18
100
AcDbSpline
210
0.0
220
0.0
230
1.0
 70
     8
 71
     3
 72
     8
 73
     4
 74
     0
 42
0.000000001
 43
0.00000001
 40
0.5312499999999905
 40
0.5312499999999905
 40
0.5312499999999905
 40
0.5312499999999905
 40
0.54687499999999
 40
0.54687499999999
 40
0.54687499999999
 40
0.54687499999999
 10
70.52911054851097
 20
9.415212151257569
 30
0.0
 10
70.4802792182903
 20
9.378756167808907
 30
0.0
 10
70.41967419841153
 20
9.333667164038564
 30
0.0
 10
70.34750250974295
 20
9.280415689554857
 30
0.0
  0
SPLINE
  5
20C
330
1F
100
AcDbEntity
  8
SK3
  6
SLD-Dashed
370
    18
100
AcDbSpline
210
0.0
220
0.0
230
1.0
 70
     8
 71
     3
 72
     8
 73
     4
 74
     0
 42
0.000000001
 43
0.00000001
 40
0.54687499999999
 40
0.54687499999999
 40
0.54687499999999
 40
0.54687499999999
 40
0.5624999999999897
 40
0.5624999999999897
 40
0.5624999999999897
 40
0.5624999999999897
 10
70.34750250974295
 20
9.280415689554857
 30
0.0
 10
70.27533082107438
 20
9.227164215071152
 30
0.0
 10
70.19126690346303
 20
9.165519475035424
 30
0.0
 10
70.09792541420818
 20
9.097826362458997
 30
0.0
  0
SPLINE
  5
20D
330
1F
100
AcDbEntity
  8
SK3
  6
SLD-Dashed
370
    18
100
AcDbSpline
210
0.0
220
0.0
230
1.0
 70
     8
 71
     3
 72
     8
 73
     4
 74
     0
 42
0.000000001
 43
0.00000001
 40
0.5624999999999897
 40
0.5624999999999897
 40
0.5624999999999897
 40
0.5624999999999897
 40
0.5937499999999886
 40
0.5937499999999886
 40
0.5937499999999886
 40
0.5937499999999886
 10
70.09792541420818
 20
9.097826362458997
 30
0.0
 10
69.91124243569844
 20
8.96244013730614
 30
0.0
 10
69.68633779043503
 20
8.801855417909552
 30
0.0
 10
69.425375217898
 20
8.622522613648487
 30
0.0
  0
SPLINE
  5
20E
330
1F
100
AcDbEntity
  8
SK3
  6
SLD-Dashed
370
    18
100
AcDbSpline
210
0.0
220
0.0
230
1.0
 70
     8
 71
     3
 72
     8
 73
     4
 74
     0
 42
0.000000001
 43
0.00000001
 40
0.5937499999999886
 40
0.5937499999999886
 40
0.5937499999999886
 40
0.5937499999999886
 40
0.6249999999999875
 40
0.6249999999999875
 40
0.6249999999999875
 40
0.6249999999999875
 10
69.425375217898
 20
8.622522613648487
 30
0.0
 10
69.16441264536094
 20
8.443189809387421
 30
0.0
 10
68.87259863144205
 20
8.248695193715502
 30
0.0
 10
68.55352869549833
 20
8.048352441725276
 30
0.0
  0
SPLINE
  5
20F
330
1F
100
AcDbEntity
  8
SK3
  6
SLD-Dashed
370
    18
100
AcDbSpline
210
0.0
220
0.0
230
1.0
 70
     8
 71
     3
 72
     8
 73
     4
 74
     0
 42
0.000000001
 43
0.00000001
 40
0.6249999999999875
 40
0.6249999999999875
 40
0.6249999999999875
 40
0.6249999999999875
 40
0.6406249999999871
 40
0.6406249999999871
 40
0.6406249999999871
 40
0.6406249999999871
 10
68.55352869549833
 20
8.048352441725276
 30
0.0
 10
68.39399372752646
 20
7.948181065730156
 30
0.0
 10
68.22735354937224
 20
7.846391246550718
 30
0.0
 10
68.05321616353658
 20
7.744004273106453
 30
0.0
  0
SPLINE
  5
210
330
1F
100
AcDbEntity
  8
SK3
  6
SLD-Dashed
370
    18
100
AcDbSpline
210
0.0
220
0.0
230
1.0
 70
     8
 71
     3
 72
     8
 73
     4
 74
     0
 42
0.000000001
 43
0.00000001
 40
0.6406249999999871
 40
0.6406249999999871
 40
0.6406249999999871
 40
0.6406249999999871
 40
0.656249999999987
 40
0.656249999999987
 40
0.656249999999987
 40
0.656249999999987
 10
68.05321616353658
 20
7.744004273106453
 30
0.0
 10
67.87907877770097
 20
7.641617299662201
 30
0.0
 10
67.69741442890756
 20
7.538664862757102
 30
0.0
 10
67.5110023608557
 20
7.438142556363755
 30
0.0
  0
SPLINE
  5
211
330
1F
100
AcDbEntity
  8
SK3
  6
SLD-Dashed
370
    18
100
AcDbSpline
210
0.0
220
0.0
230
1.0
 70
     8
 71
     3
 72
     8
 73
     4
 74
     0
 42
0.000000001
 43
0.00000001
 40
0.656249999999987
 40
0.656249999999987
 40
0.656249999999987
 40
0.656249999999987
 40
0.6874999999999872
 40
0.6874999999999872
 40
0.6874999999999872
 40
0.6874999999999872
 10
67.5110023608557
 20
7.438142556363755
 30
0.0
 10
67.13817822475191
 20
7.23709794357709
 30
0.0
 10
66.74370160361323
 20
7.043542481500506
 30
0.0
 10
66.32185368860213
 20
6.870275321257322
 30
0.0
  0
SPLINE
  5
212
330
1F
100
AcDbEntity
  8
SK3
  6
SLD-Dashed
370
    18
100
AcDbSpline
210
0.0
220
0.0
230
1.0
 70
     8
 71
     3
 72
     8
 73
     4
 74
     0
 42
0.000000001
 43
0.00000001
 40
0.6874999999999872
 40
0.6874999999999872
 40
0.6874999999999872
 40
0.6874999999999872
 40
0.7031249999999877
 40
0.7031249999999877
 40
0.7031249999999877
 40
0.7031249999999877
 10
66.32185368860213
 20
6.870275321257322
 30
0.0
 10
66.11092973109653
 20
6.783641741135716
 30
0.0
 10
65.89308047476524
 20
6.702160649266806
 30
0.0
 10
65.66687184492551
 20
6.628209286249992
 30
0.0
  0
SPLINE
  5
213
330
1F
100
AcDbEntity
  8
SK3
  6
SLD-Dashed
370
    18
100
AcDbSpline
210
0.0
220
0.0
230
1.0
 70
     8
 71
     3
 72
     8
 73
     4
 74
     0
 42
0.000000001
 43
0.00000001
 40
0.7031249999999877
 40
0.7031249999999877
 40
0.7031249999999877
 40
0.7031249999999877
 40
0.7187499999999882
 40
0.7187499999999882
 40
0.7187499999999882
 40
0.7187499999999882
 10
65.66687184492551
 20
6.628209286249992
 30
0.0
 10
65.44066321508576
 20
6.554257923233192
 30
0.0
 10
65.20825924244959
 20
6.488713741289981
 30
0.0
 10
64.97272968414217
 20
6.434808270069397
 30
0.0
  0
SPLINE
  5
214
330
1F
100
AcDbEntity
  8
SK3
  6
SLD-Dashed
370
    18
100
AcDbSpline
210
0.0
220
0.0
230
1.0
 70
     8
 71
     3
 72
     8
 73
     4
 74
     0
 42
0.000000001
 43
0.00000001
 40
0.7187499999999882
 40
0.7187499999999882
 40
0.7187499999999882
 40
0.7187499999999882
 40
0.7343749999999887
 40
0.7343749999999887
 40
0.7343749999999887
 40
0.7343749999999887
 10
64.97272968414217
 20
6.434808270069397
 30
0.0
 10
64.73720012583476
 20
6.3809027988488
 30
0.0
 10
64.49747635181127
 20
6.33828649180633
 30
0.0
 10
64.2530188512753
 20
6.309109456997544
 30
0.0
  0
SPLINE
  5
215
330
1F
100
AcDbEntity
  8
SK3
  6
SLD-Dashed
370
    18
100
AcDbSpline
210
0.0
220
0.0
230
1.0
 70
     8
 71
     3
 72
     8
 73
     4
 74
     0
 42
0.000000001
 43
0.00000001
 40
0.7343749999999887
 40
0.7343749999999887
 40
0.7343749999999887
 40
0.7343749999999887
 40
0.7499999999999891
 40
0.7499999999999891
 40
0.7499999999999891
 40
0.7499999999999891
 10
64.2530188512753
 20
6.309109456997544
 30
0.0
 10
64.00856135073931
 20
6.279932422188758
 30
0.0
 10
63.75784389786696
 20
6.264447424377622
 30
0.0
 10
63.51084819780481
 20
6.264019670578602
 30
0.0
  0
SPLINE
  5
216
330
1F
100
AcDbEntity
  8
SK3
  6
SLD-Dashed
370
    18
100
AcDbSpline
210
0.0
220
0.0
230
1.0
 70
     8
 71
     3
 72
     8
 73
     4
 74
     0
 42
0.000000001
 43
0.00000001
 40
0.7499999999999891
 40
0.7499999999999891
 40
0.7499999999999891
 40
0.7499999999999891
 40
0.7656249999999897
 40
0.7656249999999897
 40
0.7656249999999897
 40
0.7656249999999897
 10
63.51084819780481
 20
6.264019670578602
 30
0.0
 10
63.26385249774266
 20
6.263591916779568
 30
0.0
 10
63.01869247069411
 20
6.277819323205022
 30
0.0
 10
62.77528164323698
 20
6.305794275634838
 30
0.0
  0
SPLINE
  5
217
330
1F
100
AcDbEntity
  8
SK3
  6
SLD-Dashed
370
    18
100
AcDbSpline
210
0.0
220
0.0
230
1.0
 70
     8
 71
     3
 72
     8
 73
     4
 74
     0
 42
0.000000001
 43
0.00000001
 40
0.7656249999999897
 40
0.7656249999999897
 40
0.7656249999999897
 40
0.7656249999999897
 40
0.7812499999999901
 40
0.7812499999999901
 40
0.7812499999999901
 40
0.7812499999999901
 10
62.77528164323698
 20
6.305794275634837
 30
0.0
 10
62.53187081577988
 20
6.333769228064637
 30
0.0
 10
62.28859054331255
 20
6.375869795885762
 30
0.0
 10
62.05091090278906
 20
6.429438852781377
 30
0.0
  0
SPLINE
  5
218
330
1F
100
AcDbEntity
  8
SK3
  6
SLD-Dashed
370
    18
100
AcDbSpline
210
0.0
220
0.0
230
1.0
 70
     8
 71
     3
 72
     8
 73
     4
 74
     0
 42
0.000000001
 43
0.00000001
 40
0.7812499999999901
 40
0.7812499999999901
 40
0.7812499999999901
 40
0.7812499999999901
 40
0.8124999999999911
 40
0.8124999999999911
 40
0.8124999999999911
 40
0.8124999999999911
 10
62.05091090278906
 20
6.429438852781377
 30
0.0
 10
61.57555162174211
 20
6.53657696657264
 30
0.0
 10
61.12890997432653
 20
6.686457325455431
 30
0.0
 10
60.70309134773532
 20
6.860067256165392
 30
0.0
  0
SPLINE
  5
219
330
1F
100
AcDbEntity
  8
SK3
  6
SLD-Dashed
370
    18
100
AcDbSpline
210
0.0
220
0.0
230
1.0
 70
     8
 71
     3
 72
     8
 73
     4
 74
     0
 42
0.000000001
 43
0.00000001
 40
0.8124999999999911
 40
0.8124999999999911
 40
0.8124999999999911
 40
0.8124999999999911
 40
0.8281249999999917
 40
0.8281249999999917
 40
0.8281249999999917
 40
0.8281249999999917
 10
60.70309134773532
 20
6.860067256165392
 30
0.0
 10
60.49018203443971
 20
6.946872221520365
 30
0.0
 10
60.28161618483366
 20
7.040231584780566
 30
0.0
 10
60.0811655635462
 20
7.136263283671799
 30
0.0
  0
SPLINE
  5
21A
330
1F
100
AcDbEntity
  8
SK3
  6
SLD-Dashed
370
    18
100
AcDbSpline
210
0.0
220
0.0
230
1.0
 70
     8
 71
     3
 72
     8
 73
     4
 74
     0
 42
0.000000001
 43
0.00000001
 40
0.8281249999999917
 40
0.8281249999999917
 40
0.8281249999999917
 40
0.8281249999999917
 40
0.8437499999999921
 40
0.8437499999999921
 40
0.8437499999999921
 40
0.8437499999999921
 10
60.0811655635462
 20
7.136263283671799
 30
0.0
 10
59.88071494225869
 20
7.232294982563045
 30
0.0
 10
59.68789711525837
 20
7.331121877290375
 30
0.0
 10
59.5018074707358
 20
7.431242712431327
 30
0.0
  0
SPLINE
  5
21B
330
1F
100
AcDbEntity
  8
SK3
  6
SLD-Dashed
370
    18
100
AcDbSpline
210
0.0
220
0.0
230
1.0
 70
     8
 71
     3
 72
     8
 73
     4
 74
     0
 42
0.000000001
 43
0.00000001
 40
0.8437499999999921
 40
0.8437499999999921
 40
0.8437499999999921
 40
0.8437499999999921
 40
0.8749999999999936
 40
0.8749999999999936
 40
0.8749999999999936
 40
0.8749999999999936
 10
59.5018074707358
 20
7.431242712431327
 30
0.0
 10
59.12962818169063
 20
7.631484382713202
 30
0.0
 10
58.78406068238226
 20
7.836781660934086
 30
0.0
 10
58.4625792189079
 20
8.038248122307385
 30
0.0
  0
SPLINE
  5
21C
330
1F
100
AcDbEntity
  8
SK3
  6
SLD-Dashed
370
    18
100
AcDbSpline
210
0.0
220
0.0
230
1.0
 70
     8
 71
     3
 72
     8
 73
     4
 74
     0
 42
0.000000001
 43
0.00000001
 40
0.8749999999999936
 40
0.8749999999999936
 40
0.8749999999999936
 40
0.8749999999999936
 40
0.8906249999999943
 40
0.8906249999999943
 40
0.8906249999999943
 40
0.8906249999999943
 10
58.4625792189079
 20
8.038248122307385
 30
0.0
 10
58.30183848717071
 20
8.138981352994026
 30
0.0
 10
58.14680821485621
 20
8.239081736399214
 30
0.0
 10
58.00092425741671
 20
8.335325954794303
 30
0.0
  0
SPLINE
  5
21D
330
1F
100
AcDbEntity
  8
SK3
  6
SLD-Dashed
370
    18
100
AcDbSpline
210
0.0
220
0.0
230
1.0
 70
     8
 71
     3
 72
     8
 73
     4
 74
     0
 42
0.000000001
 43
0.00000001
 40
0.8906249999999943
 40
0.8906249999999943
 40
0.8906249999999943
 40
0.8906249999999943
 40
0.906249999999995
 40
0.906249999999995
 40
0.906249999999995
 40
0.906249999999995
 10
58.00092425741671
 20
8.335325954794303
 30
0.0
 10
57.8550402999772
 20
8.431570173189407
 30
0.0
 10
57.71752899563135
 20
8.524433433031039
 30
0.0
 10
57.58831904841264
 20
8.613117694735218
 30
0.0
  0
SPLINE
  5
21E
330
1F
100
AcDbEntity
  8
SK3
  6
SLD-Dashed
370
    18
100
AcDbSpline
210
0.0
220
0.0
230
1.0
 70
     8
 71
     3
 72
     8
 73
     4
 74
     0
 42
0.000000001
 43
0.00000001
 40
0.906249999999995
 40
0.906249999999995
 40
0.906249999999995
 40
0.906249999999995
 40
0.9374999999999967
 40
0.9374999999999967
 40
0.9374999999999967
 40
0.9374999999999967
 10
57.58831904841264
 20
8.613117694735218
 30
0.0
 10
57.3298991539751
 20
8.79048621814356
 30
0.0
 10
57.10430689297877
 20
8.951297372629064
 30
0.0
 10
56.91518876376206
 20
9.088320183999077
 30
0.0
  0
SPLINE
  5
21F
330
1F
100
AcDbEntity
  8
SK3
  6
SLD-Dashed
370
    18
100
AcDbSpline
210
0.0
220
0.0
230
1.0
 70
     8
 71
     3
 72
     8
 73
     4
 74
     0
 42
0.000000001
 43
0.00000001
 40
0.9374999999999967
 40
0.9374999999999967
 40
0.9374999999999967
 40
0.9374999999999967
 40
0.9531249999999976
 40
0.9531249999999976
 40
0.9531249999999976
 40
0.9531249999999976
 10
56.91518876376206
 20
9.088320183999077
 30
0.0
 10
56.82062969915369
 20
9.156831589684097
 30
0.0
 10
56.7354393972804
 20
9.219255215159968
 30
0.0
 10
56.66234105109844
 20
9.273155053782526
 30
0.0
  0
SPLINE
  5
220
330
1F
100
AcDbEntity
  8
SK3
  6
SLD-Dashed
370
    18
100
AcDbSpline
210
0.0
220
0.0
230
1.0
 70
     8
 71
     3
 72
     8
 73
     4
 74
     0
 42
0.000000001
 43
0.00000001
 40
0.9531249999999976
 40
0.9531249999999976
 40
0.9531249999999976
 40
0.9531249999999976
 40
0.9687499999999983
 40
0.9687499999999983
 40
0.9687499999999983
 40
0.9687499999999983
 10
56.66234105109844
 20
9.273155053782526
 30
0.0
 10
56.58924270491647
 20
9.327054892405096
 30
0.0
 10
56.52753278779346
 20
9.372940625911582
 30
0.0
 10
56.47753172105216
 20
9.410254272804105
 30
0.0
  0
SPLINE
  5
221
330
1F
100
AcDbEntity
  8
SK3
  6
SLD-Dashed
370
    18
100
AcDbSpline
210
0.0
220
0.0
230
1.0
 70
     8
 71
     3
 72
     8
 73
     4
 74
     0
 42
0.000000001
 43
0.00000001
 40
0.9687499999999983
 40
0.9687499999999983
 40
0.9687499999999983
 40
0.9687499999999983
 40
0.9843749999999992
 40
0.9843749999999992
 40
0.9843749999999992
 40
0.9843749999999992
 10
56.47753172105216
 20
9.410254272804105
 30
0.0
 10
56.42753065431086
 20
9.447567919696628
 30
0.0
 10
56.38923306513207
 20
9.476314713373068
 30
0.0
 10
56.36339096363696
 20
9.495736584799408
 30
0.0
  0
SPLINE
  5
222
330
1F
100
AcDbEntity
  8
SK3
  6
SLD-Dashed
370
    18
100
AcDbSpline
210
0.0
220
0.0
230
1.0
 70
     8
 71
     2
 72
     6
 73
     3
 74
     0
 42
0.000000001
 43
0.00000001
 40
0.9843749999999992
 40
0.9843749999999992
 40
0.9843749999999992
 40
1.0
 40
1.0
 40
1.0
 10
56.36339096363696
 20
9.495736584799408
 30
0.0
 10
56.33754886214187
 20
9.51515845622576
 30
0.0
 10
56.32449999999997
 20
9.524999999999991
 30
0.0
  0
SPLINE
  5
223
330
1F
100
AcDbEntity
  8
SK3
  6
SLD-Dashed
370
    18
100
AcDbSpline
210
0.0
220
0.0
230
1.0
 70
     8
 71
     3
 72
    10
 73
     6
 74
     0
 42
0.000000001
 43
0.00000001
 40
0.0
 40
0.0
 40
0.0
 40
0.0
 40
0.5
 40
0.5
 40
1.0
 40
1.0
 40
1.0
 40
1.0
 10
18.70470837592287
 20
25.57912025275693
 30
0.0
 10
18.66514338213327
 20
25.52310107590335
 30
0.0
 10
18.62842911249969
 20
25.46562249807948
 30
0.0
 10
18.57073957446638
 20
25.34260791126146
 30
0.0
 10
18.54999999999997
 20
25.27482658978055
 30
0.0
 10
18.54999999999997
 20
25.20500000000004
 30
0.0
  0
SPLINE
  5
224
330
1F
100
AcDbEntity
  8
SK3
  6
SLD-Dashed
370
    18
100
AcDbSpline
210
0.0
220
0.0
230
1.0
 70
     8
 71
     3
 72
    10
 73
     6
 74
     0
 42
0.000000001
 43
0.00000001
 40
0.0
 40
0.0
 40
0.0
 40
0.0
 40
0.5
 40
0.5
 40
1.0
 40
1.0
 40
1.0
 40
1.0
 10
3.699999999999992
 20
25.20500000000004
 30
0.0
 10
3.699999999999974
 20
25.27446188700642
 30
0.0
 10
3.679668344672986
 20
25.3415787689919
 30
0.0
 10
3.621774626393165
 20
25.46534569655893
 30
0.0
 10
3.584972825281718
 20
25.52292618711532
 30
0.0
 10
3.545388844997948
 20
25.57898258716479
 30
0.0
  0
SPLINE
  5
225
330
1F
100
AcDbEntity
  8
SK3
  6
SLD-Dashed
370
    18
100
AcDbSpline
210
0.0
220
0.0
230
1.0
 70
    24
 71
     3
 72
     8
 73
     4
 74
     0
 42
0.000000001
 43
0.00000001
 40
0.0
 40
0.0
 40
0.0
 40
0.0
 40
0.4999999999999987
 40
0.4999999999999987
 40
0.4999999999999987
 40
0.4999999999999987
 10
19.05
 20
-22.40999999999999
 30
0.0
 10
18.97247827222663
 20
-22.40999999999999
 30
0.0
 10
18.89661835205908
 20
-22.40999999999999
 30
0.0
 10
18.83038739399197
 20
-22.40999999999999
 30
0.0
  0
SPLINE
  5
226
330
1F
100
AcDbEntity
  8
SK3
  6
SLD-Dashed
370
    18
100
AcDbSpline
210
0.0
220
0.0
230
1.0
 70
    24
 71
     3
 72
     8
 73
     4
 74
     0
 42
0.000000001
 43
0.00000001
 40
0.4999999999999987
 40
0.4999999999999987
 40
0.4999999999999987
 40
0.4999999999999987
 40
0.7499999999999993
 40
0.7499999999999993
 40
0.7499999999999993
 40
0.7499999999999993
 10
18.83038739399197
 20
-22.40999999999999
 30
0.0
 10
18.79727191495842
 20
-22.40999999999999
 30
0.0
 10
18.76669863834141
 20
-22.40999999999999
 30
0.0
 10
18.74342192288901
 20
-22.40999999999999
 30
0.0
  0
SPLINE
  5
227
330
1F
100
AcDbEntity
  8
SK3
  6
SLD-Dashed
370
    18
100
AcDbSpline
210
0.0
220
0.0
230
1.0
 70
    24
 71
     2
 72
     6
 73
     3
 74
     0
 42
0.000000001
 43
0.00000001
 40
0.7499999999999993
 40
0.7499999999999993
 40
0.7499999999999993
 40
1.0
 40
1.0
 40
1.0
 10
18.74342192288901
 20
-22.40999999999999
 30
0.0
 10
18.72014520743662
 20
-22.40999999999999
 30
0.0
 10
18.70461115500192
 20
-22.40999999999999
 30
0.0
  0
SPLINE
  5
228
330
1F
100
AcDbEntity
  8
1
  6
SLD-Dashed
370
    18
100
AcDbSpline
210
0.0
220
0.0
230
1.0
 70
    24
 71
     2
 72
     6
 73
     3
 74
     0
 42
0.000000001
 43
0.00000001
 40
0.0
 40
0.0
 40
0.0
 40
0.2500000000000002
 40
0.2500000000000002
 40
0.2500000000000002
 10
3.545291624077157
 20
-22.40999999999999
 30
0.0
 10
3.529781518569377
 20
-22.40999999999999
 30
0.0
 10
3.506264354048633
 20
-22.40999999999999
 30
0.0
  0
SPLINE
  5
229
330
1F
100
AcDbEntity
  8
1
  6
SLD-Dashed
370
    18
100
AcDbSpline
210
0.0
220
0.0
230
1.0
 70
    24
 71
     3
 72
     8
 73
     4
 74
     0
 42
0.000000001
 43
0.00000001
 40
0.2500000000000002
 40
0.2500000000000002
 40
0.2500000000000002
 40
0.2500000000000002
 40
0.5000000000000004
 40
0.5000000000000004
 40
0.5000000000000004
 40
0.5000000000000004
 10
3.506264354048633
 20
-22.40999999999999
 30
0.0
 10
3.48274718952786
 20
-22.40999999999999
 30
0.0
 10
3.452323510010763
 20
-22.40999999999999
 30
0.0
 10
3.419371480420985
 20
-22.40999999999999
 30
0.0
  0
SPLINE
  5
22A
330
1F
100
AcDbEntity
  8
1
  6
SLD-Dashed
370
    18
100
AcDbSpline
210
0.0
220
0.0
230
1.0
 70
    24
 71
     3
 72
     8
 73
     4
 74
     0
 42
0.000000001
 43
0.00000001
 40
0.5000000000000004
 40
0.5000000000000004
 40
0.5000000000000004
 40
0.5000000000000004
 40
1.0
 40
1.0
 40
1.0
 40
1.0
 10
3.419371480420985
 20
-22.40999999999999
 30
0.0
 10
3.353467421241416
 20
-22.40999999999988
 30
0.0
 10
3.27748356546001
 20
-22.40999999999974
 30
0.0
 10
3.200000000000008
 20
-22.4099999999996
 30
0.0
  0
SPLINE
  5
22B
330
1F
100
AcDbEntity
  8
SK3
  6
SLD-Dashed
370
    18
100
AcDbSpline
210
0.0
220
0.0
230
1.0
 70
     8
 71
     3
 72
    40
 73
    36
 74
     0
 42
0.000000001
 43
0.00000001
 40
0.0
 40
0.0
 40
0.0
 40
0.0
 40
0.0126129321449816
 40
0.0314976481339604
 40
0.0629183966702564
 40
0.0880663439714168
 40
0.1258663548219043
 40
0.1545361786951687
 40
0.1972635113751465
 40
0.2185774264758751
 40
0.2505499734499138
 40
0.2790323571745755
 40
0.3220275475257124
 40
0.3436168159336463
 40
0.3758133620275749
 40
0.404289809506831
 40
0.4468993710431156
 40
0.468210972392158
 40
0.5002437124696447
 40
0.5288533887317777
 40
0.5719828275869667
 40
0.5934420637179458
 40
0.6254916984483699
 40
0.6539107272569499
 40
0.6965262692674994
 40
0.7178823906336999
 40
0.7500313093276819
 40
0.7787800102949101
 40
0.8217645159398103
 40
0.8431483194632992
 40
0.8751517844153629
 40
0.9000181010942334
 40
0.9373587731677226
 40
0.9685909586685477
 40
1.0
 40
1.0
 40
1.0
 40
1.0
 10
3.949999999998885
 20
-30.22558142012364
 30
0.0
 10
3.947274304054407
 20
-30.22556434752346
 30
0.0
 10
3.940467559136393
 20
-30.22552171296816
 30
0.0
 10
3.926878079312815
 20
-30.22500449703394
 30
0.0
 10
3.910614550228675
 20
-30.22373214657329
 30
0.0
 10
3.890377361763536
 20
-30.22117483723318
 30
0.0
 10
3.870876571852019
 20
-30.21766990056472
 30
0.0
 10
3.847909402640779
 20
-30.21222207486607
 30
0.0
 10
3.828703761990043
 20
-30.20644931168604
 30
0.0
 10
3.809172441364875
 20
-30.1994388579249
 30
0.0
 10
3.792810014292158
 20
-30.19274290251866
 30
0.0
 10
3.772556787560222
 20
-30.18326307338684
 30
0.0
 10
3.754852229733832
 20
-30.17368149207815
 30
0.0
 10
3.737001129755918
 20
-30.16277896347313
 30
0.0
 10
3.722237930658956
 20
-30.15285978974809
 30
0.0
 10
3.704336292931792
 20
-30.13951958199216
 30
0.0
 10
3.689010882644297
 20
-30.12669241146888
 30
0.0
 10
3.673804931859065
 20
-30.11259090121808
 30
0.0
 10
3.661328526176191
 20
-30.10000934793183
 30
0.0
 10
3.646311367638336
 20
-30.08334675455453
 30
0.0
 10
3.633674708738405
 20
-30.06764146706181
 30
0.0
 10
3.621410566074498
 20
-30.05073531891782
 30
0.0
 10
3.611611223628936
 20
-30.03598007668936
 30
0.0
 10
3.600156512781658
 20
-30.01686769647028
 30
0.0
 10
3.590829750079544
 20
-29.99919574996681
 30
0.0
 10
3.58203581287464
 20
-29.98037484052065
 30
0.0
 10
3.575165778815586
 20
-29.96397246361068
 30
0.0
 10
3.56744982965651
 20
-29.94288522109271
 30
0.0
 10
3.561558066370679
 20
-29.92362739013729
 30
0.0
 10
3.556428567390829
 20
-29.90344062128828
 30
0.0
 10
3.552918981595626
 20
-29.88689085311456
 30
0.0
 10
3.549536425733829
 20
-29.86681061568513
 30
0.0
 10
3.547124737183355
 20
-29.84675343612379
 30
0.0
 10
3.545564419127039
 20
-29.82519260420115
 30
0.0
 10
3.545382726751256
 20
-29.81165457437738
 30
0.0
 10
3.545291624076075
 20
-29.8048664484133
 30
0.0
  0
SPLINE
  5
22C
330
1F
100
AcDbEntity
  8
SK3
  6
SLD-Dashed
370
    18
100
AcDbSpline
210
0.0
220
0.0
230
1.0
 70
     8
 71
     3
 72
    40
 73
    36
 74
     0
 42
0.000000001
 43
0.00000001
 40
0.0
 40
0.0
 40
0.0
 40
0.0
 40
0.0314214559572227
 40
0.0627294389671943
 40
0.0877405066521885
 40
0.125275232669724
 40
0.1539551384600139
 40
0.1970430837597965
 40
0.2184753360378567
 40
0.2505176110611755
 40
0.2789492345937477
 40
0.3216198597593979
 40
0.3430128235413608
 40
0.3752634384750789
 40
0.4040010771804361
 40
0.4468656794915655
 40
0.4682159459362438
 40
0.5002096454815023
 40
0.5286754137344519
 40
0.5715400247765465
 40
0.5931009716299148
 40
0.6253883780511632
 40
0.6539191343952845
 40
0.696591424456682
 40
0.7179237821488482
 40
0.749974649427047
 40
0.7785976316863411
 40
0.795854339812784
 40
0.8217160693566484
 40
0.8431552865480455
 40
0.8751886732441913
 40
0.9000580147531466
 40
0.9373794059838183
 40
0.9685930788650419
 40
0.9999999999999999
 40
0.9999999999999999
 40
0.9999999999999999
 40
0.9999999999999999
 10
18.70461115500194
 20
-29.80485527419841
 30
0.0
 10
18.7045198028635
 20
-29.81164440520547
 30
0.0
 10
18.70433742848853
 20
-29.82519814949178
 30
0.0
 10
18.70296728595201
 20
-29.84411564286003
 30
0.0
 10
18.70072137877138
 20
-29.8642704379547
 30
0.0
 10
18.6976161849297
 20
-29.88374590039355
 30
0.0
 10
18.6927587858093
 20
-29.90686111791568
 30
0.0
 10
18.68756401153338
 20
-29.92633239392292
 30
0.0
 10
18.6812196607601
 20
-29.94620899181276
 30
0.0
 10
18.67516357609367
 20
-29.96284451017633
 30
0.0
 10
18.66659391017357
 20
-29.9834210419252
 30
0.0
 10
18.65792216957786
 20
-30.00144320562834
 30
0.0
 10
18.64799759935262
 20
-30.01973532130567
 30
0.0
 10
18.63887055578692
 20
-30.03502499592459
 30
0.0
 10
18.62647938435724
 20
-30.05373739732936
 30
0.0
 10
18.61447418288872
 20
-30.06985792745572
 30
0.0
 10
18.60124205632122
 20
-30.08589113399746
 30
0.0
 10
18.58942860682681
 20
-30.09904955418359
 30
0.0
 10
18.57374043191443
 20
-30.11493869793074
 30
0.0
 10
18.55884768057944
 20
-30.12841850147777
 30
0.0
 10
18.54265426161457
 20
-30.14162746302954
 30
0.0
 10
18.52838800292801
 20
-30.15228399886077
 30
0.0
 10
18.50983571493525
 20
-30.16477481501635
 30
0.0
 10
18.49262445031482
 20
-30.17498291257689
 30
0.0
 10
18.47424607318987
 20
-30.18462804605511
 30
0.0
 10
18.45820753870478
 20
-30.1921766794648
 30
0.0
 10
18.44263074348688
 20
-30.19858412922857
 30
0.0
 10
18.4280832437388
 20
-30.20393768674263
 30
0.0
 10
18.41482664955695
 20
-30.2082886119914
 30
0.0
 10
18.3983427498559
 20
-30.21299666641594
 30
0.0
 10
18.38186940102374
 20
-30.21692139734203
 30
0.0
 10
18.36186218647022
 20
-30.22070805123951
 30
0.0
 10
18.34185224742002
 20
-30.2234114028093
 30
0.0
 10
18.32031695323611
 20
-30.22516290854393
 30
0.0
 10
18.30678623642201
 20
-30.22536701808553
 30
0.0
 10
18.30000000000001
 20
-30.22546938779914
 30
0.0
  0
SPLINE
  5
22D
330
1F
100
AcDbEntity
  8
SK3
  6
SLD-Dashed
370
    18
100
AcDbSpline
210
0.0
220
0.0
230
1.0
 70
     8
 71
     3
 72
    40
 73
    36
 74
     0
 42
0.000000001
 43
0.00000001
 40
0.0
 40
0.0
 40
0.0
 40
0.0
 40
0.0125929119920853
 40
0.0314096195346373
 40
0.0626234169499198
 40
0.0875147363747587
 40
0.124814412830725
 40
0.1532834083387407
 40
0.1962265830891685
 40
0.2178107992109856
 40
0.2500224951329321
 40
0.2785169301552057
 40
0.3211718523043689
 40
0.3425182663517161
 40
0.3746092478105291
 40
0.4033018002026093
 40
0.4463503818994342
 40
0.4677602234265854
 40
0.4997883410590171
 40
0.5282270395863745
 40
0.5709521530205331
 40
0.5924138618617291
 40
0.6247350591047612
 40
0.6534144483970801
 40
0.6961683199419044
 40
0.7174969314503464
 40
0.7494813527194152
 40
0.7779588669976988
 40
0.8208766717687367
 40
0.8424514691504715
 40
0.874724282179473
 40
0.8997563983109313
 40
0.9372703102803501
 40
0.968578418532575
 40
0.9999999999999999
 40
0.9999999999999999
 40
0.9999999999999999
 40
0.9999999999999999
 10
18.30000000000001
 20
30.22558142012639
 30
0.0
 10
18.30272136951242
 20
30.22556441746849
 30
0.0
 10
18.30950909113324
 20
30.22552200892814
 30
0.0
 10
18.3230349115113
 20
30.22500878447086
 30
0.0
 10
18.33918410220825
 20
30.22374990827885
 30
0.0
 10
18.35921637335285
 20
30.22123374888839
 30
0.0
 10
18.3785174346528
 20
30.21779055348816
 30
0.0
 10
18.4013925941177
 20
30.21241015713828
 30
0.0
 10
18.42066868063112
 20
30.20665667098935
 30
0.0
 10
18.44035778154607
 20
30.19962160064929
 30
0.0
 10
18.45683219318452
 20
30.19290122073894
 30
0.0
 10
18.47707551770183
 20
30.18344563237708
 30
0.0
 10
18.49468238340836
 20
30.17394373601333
 30
0.0
 10
18.51242282863929
 20
30.16314575471339
 30
0.0
 10
18.52718102114117
 20
30.15327064640551
 30
0.0
 10
18.54520190007997
 20
30.13989144466212
 30
0.0
 10
18.56066753372129
 20
30.12697740010818
 30
0.0
 10
18.57597030022936
 20
30.11281096127925
 30
0.0
 10
18.58844277986746
 20
30.10024903998076
 30
0.0
 10
18.60339048841035
 20
30.08369276015745
 30
0.0
 10
18.61596948562732
 20
30.06810049270645
 30
0.0
 10
18.62824307125509
 20
30.05123600708182
 30
0.0
 10
18.63812738344199
 20
30.03639837328907
 30
0.0
 10
18.6496753555676
 20
30.01717281850425
 30
0.0
 10
18.65905060754961
 20
29.99943559548714
 30
0.0
 10
18.66785100498267
 20
29.98063051707891
 30
0.0
 10
18.67469312836915
 20
29.96432508828281
 30
0.0
 10
18.68239354934312
 20
29.94334796470476
 30
0.0
 10
18.68830098830935
 20
29.92412819400953
 30
0.0
 10
18.69347515991064
 20
29.90386495846921
 30
0.0
 10
18.69702701390046
 20
29.88718562683121
 30
0.0
 10
18.70044011360977
 20
29.86697716337641
 30
0.0
 10
18.70287111134992
 20
29.84683182165025
 30
0.0
 10
18.70443405316874
 20
29.82521437831678
 30
0.0
 10
18.70461682479818
 20
29.81165726630967
 30
0.0
 10
18.70470837592286
 20
29.8048664484163
 30
0.0
  0
SPLINE
  5
22E
330
1F
100
AcDbEntity
  8
SK3
  6
SLD-Dashed
370
    18
100
AcDbSpline
210
0.0
220
0.0
230
1.0
 70
     8
 71
     3
 72
    39
 73
    35
 74
     0
 42
0.000000001
 43
0.00000001
 40
0.0
 40
0.0
 40
0.0
 40
0.0
 40
0.0314091160307674
 40
0.0626413758641538
 40
0.0875470935131885
 40
0.1248485138287456
 40
0.1532930400450731
 40
0.1960941157944613
 40
0.2176225947738233
 40
0.2499693772004398
 40
0.2785546285585068
 40
0.3212364873026817
 40
0.3425405354923858
 40
0.3745092858974068
 40
0.4029918411019298
 40
0.4459785689856149
 40
0.4675618916159466
 40
0.4997576608210499
 40
0.5282368343000431
 40
0.5708480092884092
 40
0.5921584935845995
 40
0.6241883328452476
 40
0.6527986190299354
 40
0.6959401501309849
 40
0.7174023419155745
 40
0.7494519752642005
 40
0.7778741158300017
 40
0.8205144520917228
 40
0.8418962920619149
 40
0.8741359236783777
 40
0.8993502252909598
 40
0.9370840470446206
 40
0.9685048711195197
 40
1.0
 40
1.0
 40
1.0
 40
1.0
 10
3.545388844997949
 20
29.80485527419826
 30
0.0
 10
3.545479748550579
 20
29.81164171345384
 30
0.0
 10
3.545661043802585
 20
29.82517637936967
 30
0.0
 10
3.547029433803313
 20
29.84405190465713
 30
0.0
 10
3.549258968233806
 20
29.86411824570158
 30
0.0
 10
3.552336224857504
 20
29.8834722762258
 30
0.0
 10
3.557141779746734
 20
29.90643124843558
 30
0.0
 10
3.562288225622179
 20
29.92581971282425
 30
0.0
 10
3.568614089357709
 20
29.94572790966327
 30
0.0
 10
3.574692956926385
 20
29.96248267210258
 30
0.0
 10
3.583287776048101
 20
29.98315850998393
 30
0.0
 10
3.591955015312241
 20
30.00120090567663
 30
0.0
 10
3.601831018727626
 20
30.01943081107647
 30
0.0
 10
3.610874012133416
 20
30.03461278108223
 30
0.0
 10
3.623189627258741
 20
30.05326734966761
 30
0.0
 10
3.635184378154352
 20
30.06942261759878
 30
0.0
 10
3.648473969075886
 20
30.0855643889811
 30
0.0
 10
3.660340157340345
 20
30.09880574838228
 30
0.0
 10
3.676012531497212
 20
30.11469877887868
 30
0.0
 10
3.690813818886916
 20
30.1281209668681
 30
0.0
 10
3.706862089264391
 20
30.14124723286363
 30
0.0
 10
3.721035740664457
 20
30.15187245989083
 30
0.0
 10
3.73961592045556
 20
30.16443427377515
 30
0.0
 10
3.756939716856907
 20
30.17474090541245
 30
0.0
 10
3.77542231292624
 20
30.18446497823756
 30
0.0
 10
3.791441042936022
 20
30.19201976729602
 30
0.0
 10
3.812039955628066
 20
30.20051935318397
 30
0.0
 10
3.830933874073419
 20
30.20705284128372
 30
0.0
 10
3.850922478500718
 20
30.21280585013024
 30
0.0
 10
3.867492347984363
 20
30.21678677988686
 30
0.0
 10
3.887698638249892
 20
30.22064109222356
 30
0.0
 10
3.907913014965708
 20
30.22338985618057
 30
0.0
 10
3.929600305356981
 20
30.22516034748687
 30
0.0
 10
3.943194750029202
 20
30.22536629328653
 30
0.0
 10
3.949999999999967
 20
30.22546938779911
 30
0.0
  0
SPLINE
  5
22F
330
1F
100
AcDbEntity
  8
1
  6
SLD-Dashed
370
    18
100
AcDbSpline
210
0.0
220
0.0
230
1.0
 70
    24
 71
     3
 72
     8
 73
     4
 74
     0
 42
0.000000001
 43
0.00000001
 40
0.0
 40
0.0
 40
0.0
 40
0.0
 40
0.5000000000000013
 40
0.5000000000000013
 40
0.5000000000000013
 40
0.5000000000000013
 10
3.200000000000008
 20
-22.4099999999996
 30
0.0
 10
3.277521727773375
 20
-22.40999999999974
 30
0.0
 10
3.353381647940912
 20
-22.40999999999988
 30
0.0
 10
3.419612606008038
 20
-22.40999999999999
 30
0.0
  0
SPLINE
  5
230
330
1F
100
AcDbEntity
  8
1
  6
SLD-Dashed
370
    18
100
AcDbSpline
210
0.0
220
0.0
230
1.0
 70
    24
 71
     3
 72
     8
 73
     4
 74
     0
 42
0.000000001
 43
0.00000001
 40
0.5000000000000013
 40
0.5000000000000013
 40
0.5000000000000013
 40
0.5000000000000013
 40
0.7500000000000007
 40
0.7500000000000007
 40
0.7500000000000007
 40
0.7500000000000007
 10
3.419612606008038
 20
-22.40999999999999
 30
0.0
 10
3.452728085041601
 20
-22.40999999999999
 30
0.0
 10
3.483301361658614
 20
-22.41
 30
0.0
 10
3.506578077110994
 20
-22.41
 30
0.0
  0
SPLINE
  5
231
330
1F
100
AcDbEntity
  8
1
  6
SLD-Dashed
370
    18
100
AcDbSpline
210
0.0
220
0.0
230
1.0
 70
    24
 71
     2
 72
     6
 73
     3
 74
     0
 42
0.000000001
 43
0.00000001
 40
0.7500000000000007
 40
0.7500000000000007
 40
0.7500000000000007
 40
1.0
 40
1.0
 40
1.0
 10
3.506578077110994
 20
-22.41
 30
0.0
 10
3.529854792563375
 20
-22.40999999999999
 30
0.0
 10
3.545388844998096
 20
-22.40999999999999
 30
0.0
  0
SPLINE
  5
232
330
1F
100
AcDbEntity
  8
SK3
  6
SLD-Dashed
370
    18
100
AcDbSpline
210
0.0
220
0.0
230
1.0
 70
    24
 71
     2
 72
     6
 73
     3
 74
     0
 42
0.000000001
 43
0.00000001
 40
0.0
 40
0.0
 40
0.0
 40
0.2500000000000016
 40
0.2500000000000016
 40
0.2500000000000016
 10
18.70470837592286
 20
-22.40999999999999
 30
0.0
 10
18.72021848143063
 20
-22.40999999999999
 30
0.0
 10
18.74373564595137
 20
-22.40999999999999
 30
0.0
  0
SPLINE
  5
233
330
1F
100
AcDbEntity
  8
SK3
  6
SLD-Dashed
370
    18
100
AcDbSpline
210
0.0
220
0.0
230
1.0
 70
    24
 71
     3
 72
     8
 73
     4
 74
     0
 42
0.000000001
 43
0.00000001
 40
0.2500000000000016
 40
0.2500000000000016
 40
0.2500000000000016
 40
0.2500000000000016
 40
0.5000000000000032
 40
0.5000000000000032
 40
0.5000000000000032
 40
0.5000000000000032
 10
18.74373564595137
 20
-22.40999999999999
 30
0.0
 10
18.76725281047213
 20
-22.40999999999999
 30
0.0
 10
18.79767648998924
 20
-22.40999999999999
 30
0.0
 10
18.83062851957902
 20
-22.40999999999999
 30
0.0
  0
SPLINE
  5
234
330
1F
100
AcDbEntity
  8
SK3
  6
SLD-Dashed
370
    18
100
AcDbSpline
210
0.0
220
0.0
230
1.0
 70
    24
 71
     3
 72
     8
 73
     4
 74
     0
 42
0.000000001
 43
0.00000001
 40
0.5000000000000032
 40
0.5000000000000032
 40
0.5000000000000032
 40
0.5000000000000032
 40
1.0
 40
1.0
 40
1.0
 40
1.0
 10
18.83062851957902
 20
-22.40999999999999
 30
0.0
 10
18.8965325787586
 20
-22.40999999999999
 30
0.0
 10
18.97251643454
 20
-22.40999999999999
 30
0.0
 10
19.05
 20
-22.40999999999999
 30
0.0
  0
SPLINE
  5
235
330
1F
100
AcDbEntity
  8
SK3
  6
SLD-Dashed
370
    18
100
AcDbSpline
210
0.0
220
0.0
230
1.0
 70
     8
 71
     3
 72
    10
 73
     6
 74
     0
 42
0.000000001
 43
0.00000001
 40
0.0
 40
0.0
 40
0.0
 40
0.0
 40
0.5
 40
0.5
 40
1.0
 40
1.0
 40
1.0
 40
1.0
 10
3.545291624077138
 20
25.57912025275686
 30
0.0
 10
3.584856617866722
 20
25.52310107590331
 30
0.0
 10
3.621570887500282
 20
25.46562249807945
 30
0.0
 10
3.679260425533581
 20
25.34260791126144
 30
0.0
 10
3.699999999999992
 20
25.27482658978055
 30
0.0
 10
3.699999999999992
 20
25.20500000000004
 30
0.0
  0
SPLINE
  5
236
330
1F
100
AcDbEntity
  8
SK3
  6
SLD-Dashed
370
    18
100
AcDbSpline
210
0.0
220
0.0
230
1.0
 70
     8
 71
     3
 72
    10
 73
     6
 74
     0
 42
0.000000001
 43
0.00000001
 40
0.0
 40
0.0
 40
0.0
 40
0.0
 40
0.5
 40
0.5
 40
1.0
 40
1.0
 40
1.0
 40
1.0
 10
18.54999999999997
 20
25.20500000000004
 30
0.0
 10
18.54999999999997
 20
25.27446188700644
 30
0.0
 10
18.57033165532693
 20
25.34157876899194
 30
0.0
 10
18.62822537360673
 20
25.465345696559
 30
0.0
 10
18.6650271747182
 20
25.52292618711542
 30
0.0
 10
18.70461115500194
 20
25.57898258716488
 30
0.0
  0
SPLINE
  5
237
330
1F
100
AcDbEntity
  8
1
  6
SLD-Dashed
370
    18
100
AcDbSpline
210
0.0
220
0.0
230
1.0
 70
     8
 71
     3
 72
     8
 73
     4
 74
     0
 42
0.000000001
 43
0.00000001
 40
0.0
 40
0.0
 40
0.0
 40
0.0
 40
1.0
 40
1.0
 40
1.0
 40
1.0
 10
14.37601294652265
 20
-30.22558142012644
 30
0.0
 10
13.92634047615438
 20
-29.41927694377227
 30
0.0
 10
13.4775873587173
 20
-28.61247603335391
 30
0.0
 10
13.03000000000001
 20
-27.8050456341729
 30
0.0
  0
SPLINE
  5
238
330
1F
100
AcDbEntity
  8
1
  6
SLD-Dashed
370
    18
100
AcDbSpline
210
0.0
220
0.0
230
1.0
 70
     8
 71
     3
 72
    10
 73
     6
 74
     0
 42
0.000000001
 43
0.00000001
 40
0.0
 40
0.0
 40
0.0
 40
0.0
 40
0.5
 40
0.5
 40
1.0
 40
1.0
 40
1.0
 40
1.0
 10
13.03000000000004
 20
-27.76916635406972
 30
0.0
 10
13.03000000000002
 20
-27.56948960726649
 30
0.0
 10
12.95302573325511
 20
-27.36838646497957
 30
0.0
 10
12.6790505758147
 20
-27.07630005005161
 30
0.0
 10
12.48172757240075
 20
-26.98706356756883
 30
0.0
 10
12.28000000000003
 20
-26.98706356756882
 30
0.0
  0
SPLINE
  5
239
330
1F
100
AcDbEntity
  8
1
  6
SLD-Dashed
370
    18
100
AcDbSpline
210
0.0
220
0.0
230
1.0
 70
     8
 71
     3
 72
    10
 73
     6
 74
     0
 42
0.000000001
 43
0.00000001
 40
0.0
 40
0.0
 40
0.0
 40
0.0
 40
0.5
 40
0.5
 40
1.0
 40
1.0
 40
1.0
 40
1.0
 10
9.950000000000664
 20
-26.98706356756944
 30
0.0
 10
9.748441495091559
 20
-26.98706356756927
 30
0.0
 10
9.550692481024273
 20
-27.07656444408193
 30
0.0
 10
9.277196882747166
 20
-27.36815866851929
 30
0.0
 10
9.200000000000179
 20
-27.569274984251
 30
0.0
 10
9.200000000000014
 20
-27.76916635406976
 30
0.0
  0
SPLINE
  5
23A
330
1F
100
AcDbEntity
  8
1
  6
SLD-Dashed
370
    18
100
AcDbSpline
210
0.0
220
0.0
230
1.0
 70
     8
 71
     3
 72
     8
 73
     4
 74
     0
 42
0.000000001
 43
0.00000001
 40
0.0
 40
0.0
 40
0.0
 40
0.0
 40
1.0
 40
1.0
 40
1.0
 40
1.0
 10
9.199999999998877
 20
-27.80504563417608
 30
0.0
 10
8.752433371354604
 20
-28.61243863710178
 30
0.0
 10
8.303701091401383
 20
-29.41920220926473
 30
0.0
 10
7.854049533406126
 20
-30.22546938780229
 30
0.0
  0
SPLINE
  5
23B
330
1F
100
AcDbEntity
  8
SK3
  6
SLD-Dashed
370
    18
100
AcDbSpline
210
0.0
220
0.0
230
1.0
 70
     8
 71
     3
 72
    40
 73
    36
 74
     0
 42
0.000000001
 43
0.00000001
 40
0.0
 40
0.0
 40
0.0
 40
0.0
 40
0.0314214559572178
 40
0.0627294389672004
 40
0.0877405066521895
 40
0.1252752326697184
 40
0.1539551384600108
 40
0.1970430837597873
 40
0.2184753360378477
 40
0.2505176110611737
 40
0.2789492345937391
 40
0.3216198597594042
 40
0.3430128235413673
 40
0.3752634384750793
 40
0.4040010771804458
 40
0.4468656794915723
 40
0.468215945936246
 40
0.5002096454814972
 40
0.528675413734447
 40
0.5715400247765458
 40
0.5931009716299191
 40
0.6253883780511656
 40
0.6539191343952843
 40
0.6965914244566831
 40
0.7179237821488444
 40
0.7499746494270431
 40
0.7785976316863417
 40
0.7958543398127828
 40
0.8217160693566459
 40
0.8431552865480468
 40
0.8751886732441888
 40
0.9000580147531506
 40
0.9373794059838182
 40
0.9685930788650364
 40
1.0
 40
1.0
 40
1.0
 40
1.0
 10
3.54538884499697
 20
-29.80485527420157
 30
0.0
 10
3.545480197135393
 20
-29.81164440520863
 30
0.0
 10
3.545662571510384
 20
-29.82519814949495
 30
0.0
 10
3.547032714046895
 20
-29.84411564286316
 30
0.0
 10
3.549278621227515
 20
-29.86427043795789
 30
0.0
 10
3.552383815069212
 20
-29.8837459003967
 30
0.0
 10
3.557241214189612
 20
-29.90686111791882
 30
0.0
 10
3.562435988465519
 20
-29.92633239392609
 30
0.0
 10
3.568780339238796
 20
-29.94620899181593
 30
0.0
 10
3.574836423905227
 20
-29.96284451017947
 30
0.0
 10
3.583406089825324
 20
-29.98342104192838
 30
0.0
 10
3.592077830421036
 20
-30.0014432056315
 30
0.0
 10
3.602002400646272
 20
-30.01973532130884
 30
0.0
 10
3.61112944421199
 20
-30.03502499592774
 30
0.0
 10
3.623520615641667
 20
-30.05373739733254
 30
0.0
 10
3.635525817110171
 20
-30.06985792745888
 30
0.0
 10
3.648757943677694
 20
-30.08589113400061
 30
0.0
 10
3.660571393172065
 20
-30.09904955418674
 30
0.0
 10
3.676259568084483
 20
-30.11493869793388
 30
0.0
 10
3.691152319419466
 20
-30.12841850148094
 30
0.0
 10
3.707345738384355
 20
-30.14162746303268
 30
0.0
 10
3.721611997070884
 20
-30.15228399886392
 30
0.0
 10
3.740164285063657
 20
-30.16477481501948
 30
0.0
 10
3.757375549684055
 20
-30.17498291258005
 30
0.0
 10
3.775753926809053
 20
-30.18462804605824
 30
0.0
 10
3.79179246129413
 20
-30.19217667946795
 30
0.0
 10
3.807369256512025
 20
-30.19858412923173
 30
0.0
 10
3.821916756260091
 20
-30.20393768674579
 30
0.0
 10
3.83517335044195
 20
-30.20828861199455
 30
0.0
 10
3.851657250142998
 20
-30.21299666641908
 30
0.0
 10
3.868130598975159
 20
-30.21692139734516
 30
0.0
 10
3.888137813528675
 20
-30.22070805124266
 30
0.0
 10
3.908147752578875
 20
-30.22341140281245
 30
0.0
 10
3.929683046762777
 20
-30.22516290854709
 30
0.0
 10
3.943213763576883
 20
-30.22536701808868
 30
0.0
 10
3.949999999998885
 20
-30.22546938780229
 30
0.0
  0
SPLINE
  5
23C
330
1F
100
AcDbEntity
  8
SK3
  6
SLD-Dashed
370
    18
100
AcDbSpline
210
0.0
220
0.0
230
1.0
 70
     8
 71
     3
 72
    40
 73
    36
 74
     0
 42
0.000000001
 43
0.00000001
 40
0.0
 40
0.0
 40
0.0
 40
0.0
 40
0.0126129321449749
 40
0.0314976481339587
 40
0.0629183966702574
 40
0.0880663439714092
 40
0.1258663548219046
 40
0.1545361786951767
 40
0.1972635113751502
 40
0.2185774264758776
 40
0.250549973449914
 40
0.2790323571745715
 40
0.3220275475257097
 40
0.3436168159336435
 40
0.3758133620275704
 40
0.4042898095068478
 40
0.4468993710431288
 40
0.4682109723921613
 40
0.5002437124696372
 40
0.528853388731771
 40
0.5719828275869605
 40
0.593442063717947
 40
0.6254916984483689
 40
0.6539107272569482
 40
0.6965262692674938
 40
0.7178823906336926
 40
0.7500313093276828
 40
0.7787800102949213
 40
0.8217645159397994
 40
0.8431483194632984
 40
0.8751517844153632
 40
0.9000181010942335
 40
0.937358773167723
 40
0.9685909586685477
 40
1.0
 40
1.0
 40
1.0
 40
1.0
 10
18.30000000000001
 20
-30.22558142012644
 30
0.0
 10
18.30272569594446
 20
-30.22556434752625
 30
0.0
 10
18.30953244086248
 20
-30.22552171297096
 30
0.0
 10
18.32312192068605
 20
-30.22500449703673
 30
0.0
 10
18.33938544977019
 20
-30.22373214657611
 30
0.0
 10
18.35962263823533
 20
-30.221174837236
 30
0.0
 10
18.37912342814685
 20
-30.21766990056754
 30
0.0
 10
18.40209059735809
 20
-30.21222207486889
 30
0.0
 10
18.42129623800884
 20
-30.20644931168887
 30
0.0
 10
18.44082755863399
 20
-30.19943885792772
 30
0.0
 10
18.45718998570671
 20
-30.19274290252151
 30
0.0
 10
18.47744321243868
 20
-30.1832630733897
 30
0.0
 10
18.49514777026505
 20
-30.17368149208102
 30
0.0
 10
18.51299887024296
 20
-30.16277896347599
 30
0.0
 10
18.52776206933994
 20
-30.15285978975095
 30
0.0
 10
18.54566370706712
 20
-30.13951958199504
 30
0.0
 10
18.5609891173546
 20
-30.12669241147175
 30
0.0
 10
18.57619506813985
 20
-30.11259090122095
 30
0.0
 10
18.58867147382272
 20
-30.10000934793473
 30
0.0
 10
18.60368863236057
 20
-30.08334675455742
 30
0.0
 10
18.61632529126053
 20
-30.06764146706472
 30
0.0
 10
18.62858943392444
 20
-30.05073531892073
 30
0.0
 10
18.63838877637
 20
-30.03598007669226
 30
0.0
 10
18.64984348721728
 20
-30.0168676964732
 30
0.0
 10
18.65917024991941
 20
-29.99919574996972
 30
0.0
 10
18.66796418712431
 20
-29.98037484052357
 30
0.0
 10
18.67483422118336
 20
-29.96397246361361
 30
0.0
 10
18.68255017034244
 20
-29.9428852210956
 30
0.0
 10
18.68844193362829
 20
-29.92362739014023
 30
0.0
 10
18.69357143260813
 20
-29.9034406212912
 30
0.0
 10
18.69708101840335
 20
-29.88689085311749
 30
0.0
 10
18.70046357426515
 20
-29.86681061568806
 30
0.0
 10
18.70287526281565
 20
-29.84675343612671
 30
0.0
 10
18.70443558087195
 20
-29.82519260420409
 30
0.0
 10
18.70461727324775
 20
-29.81165457438031
 30
0.0
 10
18.70470837592293
 20
-29.80486644841623
 30
0.0
  0
SPLINE
  5
23D
330
1F
100
AcDbEntity
  8
SK3
  6
SLD-Dashed
370
    18
100
AcDbSpline
210
0.0
220
0.0
230
1.0
 70
     8
 71
     3
 72
    39
 73
    35
 74
     0
 42
0.000000001
 43
0.00000001
 40
0.0
 40
0.0
 40
0.0
 40
0.0
 40
0.0314091160307677
 40
0.062641375864154
 40
0.0875470935131889
 40
0.1248485138287462
 40
0.1532930400450872
 40
0.1960941157944515
 40
0.2176225947738144
 40
0.2499693772004302
 40
0.2785546285585205
 40
0.3212364873026964
 40
0.3425405354923894
 40
0.3745092858974103
 40
0.4029918411019262
 40
0.4459785689856202
 40
0.4675618916159423
 40
0.4997576608210476
 40
0.5282368343000382
 40
0.5708480092883969
 40
0.5921584935845849
 40
0.624188332845246
 40
0.6527986190299447
 40
0.6959401501309724
 40
0.7174023419155647
 40
0.7494519752642036
 40
0.7778741158300034
 40
0.8205144520917296
 40
0.8418962920619176
 40
0.8741359236783779
 40
0.8993502252909584
 40
0.9370840470446232
 40
0.9685048711195082
 40
1.0
 40
1.0
 40
1.0
 40
1.0
 10
18.70461115500986
 20
29.80485527419813
 30
0.0
 10
18.70452025145723
 20
29.81164171345371
 30
0.0
 10
18.70433895620521
 20
29.82517637936956
 30
0.0
 10
18.7029705662045
 20
29.84405190465699
 30
0.0
 10
18.70074103177403
 20
29.86411824570146
 30
0.0
 10
18.69766377515032
 20
29.88347227622567
 30
0.0
 10
18.69285822026114
 20
29.90643124843545
 30
0.0
 10
18.68771177438566
 20
29.92581971282411
 30
0.0
 10
18.68138591065015
 20
29.94572790966314
 30
0.0
 10
18.67530704308146
 20
29.96248267210246
 30
0.0
 10
18.66671222395978
 20
29.98315850998382
 30
0.0
 10
18.65804498469564
 20
30.00120090567651
 30
0.0
 10
18.64816898128023
 20
30.01943081107637
 30
0.0
 10
18.63912598787447
 20
30.03461278108212
 30
0.0
 10
18.62681037274913
 20
30.0532673496675
 30
0.0
 10
18.61481562185355
 20
30.06942261759868
 30
0.0
 10
18.60152603093201
 20
30.08556438898098
 30
0.0
 10
18.58965984266755
 20
30.09880574838217
 30
0.0
 10
18.5739874685107
 20
30.11469877887859
 30
0.0
 10
18.55918618112103
 20
30.128120966868
 30
0.0
 10
18.54313791074352
 20
30.14124723286353
 30
0.0
 10
18.52896425934347
 20
30.15187245989076
 30
0.0
 10
18.51038407955237
 20
30.16443427377506
 30
0.0
 10
18.49306028315101
 20
30.17474090541236
 30
0.0
 10
18.4745776870817
 20
30.1844649782375
 30
0.0
 10
18.45855895707194
 20
30.19201976729596
 30
0.0
 10
18.43796004437986
 20
30.20051935318391
 30
0.0
 10
18.41906612593451
 20
30.20705284128367
 30
0.0
 10
18.39907752150723
 20
30.21280585013023
 30
0.0
 10
18.38250765202358
 20
30.21678677988683
 30
0.0
 10
18.36230136175805
 20
30.22064109222353
 30
0.0
 10
18.34208698504225
 20
30.22338985618056
 30
0.0
 10
18.32039969465098
 20
30.22516034748685
 30
0.0
 10
18.30680524997875
 20
30.22536629328654
 30
0.0
 10
18.300000000008
 20
30.22546938779912
 30
0.0
  0
SPLINE
  5
23E
330
1F
100
AcDbEntity
  8
SK3
  6
SLD-Dashed
370
    18
100
AcDbSpline
210
0.0
220
0.0
230
1.0
 70
     8
 71
     3
 72
    40
 73
    36
 74
     0
 42
0.000000001
 43
0.00000001
 40
0.0
 40
0.0
 40
0.0
 40
0.0
 40
0.0125929119920799
 40
0.0314096195346371
 40
0.0626234169499144
 40
0.0875147363747578
 40
0.1248144128307291
 40
0.1532834083387329
 40
0.1962265830891804
 40
0.2178107992109905
 40
0.2500224951329297
 40
0.2785169301551935
 40
0.3211718523043735
 40
0.3425182663517212
 40
0.3746092478105252
 40
0.4033018002026009
 40
0.4463503818994297
 40
0.4677602234265738
 40
0.4997883410590129
 40
0.5282270395863776
 40
0.5709521530205359
 40
0.592413861861735
 40
0.6247350591047609
 40
0.6534144483970886
 40
0.696168319941901
 40
0.717496931450338
 40
0.7494813527194164
 40
0.7779588669976948
 40
0.8208766717687338
 40
0.8424514691504659
 40
0.8747242821794735
 40
0.8997563983109476
 40
0.9372703102803513
 40
0.9685784185325865
 40
1.0
 40
1.0
 40
1.0
 40
1.0
 10
3.949999999999994
 20
30.22558142012639
 30
0.0
 10
3.94727863048759
 20
30.22556441746848
 30
0.0
 10
3.940490908866763
 20
30.22552200892812
 30
0.0
 10
3.926965088488719
 20
30.22500878447087
 30
0.0
 10
3.910815897791754
 20
30.22374990827883
 30
0.0
 10
3.890783626647171
 20
30.22123374888841
 30
0.0
 10
3.871482565347206
 20
30.21779055348816
 30
0.0
 10
3.848607405882301
 20
30.21241015713828
 30
0.0
 10
3.829331319368881
 20
30.20665667098931
 30
0.0
 10
3.809642218453935
 20
30.19962160064929
 30
0.0
 10
3.793167806815487
 20
30.19290122073893
 30
0.0
 10
3.772924482298167
 20
30.18344563237708
 30
0.0
 10
3.755317616591658
 20
30.17394373601332
 30
0.0
 10
3.737577171360706
 20
30.16314575471339
 30
0.0
 10
3.722818978858841
 20
30.15327064640551
 30
0.0
 10
3.704798099920037
 20
30.13989144466212
 30
0.0
 10
3.68933246627871
 20
30.12697740010818
 30
0.0
 10
3.67402969977065
 20
30.11281096127925
 30
0.0
 10
3.661557220132557
 20
30.10024903998078
 30
0.0
 10
3.646609511589665
 20
30.08369276015743
 30
0.0
 10
3.634030514372676
 20
30.06810049270646
 30
0.0
 10
3.621756928744914
 20
30.0512360070818
 30
0.0
 10
3.611872616557997
 20
30.03639837328909
 30
0.0
 10
3.600324644432408
 20
30.01717281850423
 30
0.0
 10
3.590949392450397
 20
29.99943559548712
 30
0.0
 10
3.582148995017322
 20
29.98063051707893
 30
0.0
 10
3.575306871630833
 20
29.96432508828283
 30
0.0
 10
3.567606450656883
 20
29.94334796470473
 30
0.0
 10
3.561699011690645
 20
29.92412819400954
 30
0.0
 10
3.556524840089346
 20
29.90386495846921
 30
0.0
 10
3.552972986099546
 20
29.88718562683121
 30
0.0
 10
3.549559886390242
 20
29.86697716337638
 30
0.0
 10
3.547128888650075
 20
29.84683182165025
 30
0.0
 10
3.545565946831247
 20
29.82521437831678
 30
0.0
 10
3.545383175201819
 20
29.81165726630967
 30
0.0
 10
3.545291624077138
 20
29.8048664484163
 30
0.0
  0
SPLINE
  5
23F
330
1F
100
AcDbEntity
  8
1
  6
SLD-Dashed
370
    18
100
AcDbSpline
210
0.0
220
0.0
230
1.0
 70
     8
 71
     3
 72
     8
 73
     4
 74
     0
 42
0.000000001
 43
0.00000001
 40
0.0
 40
0.0
 40
0.0
 40
0.0
 40
1.0
 40
1.0
 40
1.0
 40
1.0
 10
9.2
 20
27.8050456341729
 30
0.0
 10
8.752403481898929
 20
28.61249255653032
 30
0.0
 10
8.30365062048366
 20
29.41929290832669
 30
0.0
 10
7.853987053477382
 20
30.22558142012641
 30
0.0
  0
SPLINE
  5
240
330
1F
100
AcDbEntity
  8
1
  6
SLD-Dashed
370
    18
100
AcDbSpline
210
0.0
220
0.0
230
1.0
 70
     8
 71
     3
 72
    12
 73
     8
 74
     0
 42
0.000000001
 43
0.00000001
 40
0.0
 40
0.0
 40
0.0
 40
0.0
 40
0.2499999999999984
 40
0.2499999999999984
 40
0.4999999999999969
 40
0.4999999999999969
 40
1.0
 40
1.0
 40
1.0
 40
1.0
 10
9.949999999999987
 20
26.98706356756882
 30
0.0
 10
9.850149452042919
 20
26.9870635675688
 30
0.0
 10
9.748134209428105
 20
27.00887348025308
 30
0.0
 10
9.565410104204544
 20
27.08989258317072
 30
0.0
 10
9.481984824368919
 20
27.14976438531447
 30
0.0
 10
9.27727456740339
 20
27.36818499553367
 30
0.0
 10
9.200000000000014
 20
27.56879736260814
 30
0.0
 10
9.200000000000014
 20
27.76916635406976
 30
0.0
  0
SPLINE
  5
241
330
1F
100
AcDbEntity
  8
1
  6
SLD-Dashed
370
    18
100
AcDbSpline
210
0.0
220
0.0
230
1.0
 70
     8
 71
     3
 72
    12
 73
     8
 74
     0
 42
0.000000001
 43
0.00000001
 40
0.0
 40
0.0
 40
0.0
 40
0.0
 40
0.2500000000000007
 40
0.2500000000000007
 40
0.5000000000000014
 40
0.5000000000000014
 40
1.0
 40
1.0
 40
1.0
 40
1.0
 10
13.03
 20
27.76916635406976
 30
0.0
 10
13.02999999999999
 20
27.66900663339826
 30
0.0
 10
13.01145353522914
 20
27.56910146598283
 30
0.0
 10
12.9385819920601
 20
27.38178244661979
 30
0.0
 10
12.8852303554246
 20
27.29613295246495
 30
0.0
 10
12.67790477657023
 20
27.07503152815012
 30
0.0
 10
12.47994383972983
 20
26.98706356756883
 30
0.0
 10
12.28000000000003
 20
26.98706356756882
 30
0.0
  0
SPLINE
  5
242
330
1F
100
AcDbEntity
  8
1
  6
SLD-Dashed
370
    18
100
AcDbSpline
210
0.0
220
0.0
230
1.0
 70
     8
 71
     3
 72
     8
 73
     4
 74
     0
 42
0.000000001
 43
0.00000001
 40
0.0
 40
0.0
 40
0.0
 40
0.0
 40
1.0
 40
1.0
 40
1.0
 40
1.0
 10
14.37595046659276
 20
30.22546938779912
 30
0.0
 10
13.92630781119528
 20
29.41921817244962
 30
0.0
 10
13.47757578719339
 20
28.61245515876933
 30
0.0
 10
13.03
 20
27.8050456341729
 30
0.0
  0
SPLINE
  5
243
330
1F
100
AcDbEntity
  8
SK3
  6
SLD-Dashed
370
    18
100
AcDbSpline
210
0.0
220
0.0
230
1.0
 70
     8
 71
     3
 72
    38
 73
    34
 74
     0
 42
0.000000001
 43
0.00000001
 40
0.499999999999998
 40
0.499999999999998
 40
0.499999999999998
 40
0.499999999999998
 40
0.5312499999999979
 40
0.5312499999999979
 40
0.5624999999999978
 40
0.5624999999999978
 40
0.5937499999999978
 40
0.5937499999999978
 40
0.6249999999999977
 40
0.6249999999999977
 40
0.6562499999999977
 40
0.6562499999999977
 40
0.6874999999999976
 40
0.6874999999999976
 40
0.7187499999999976
 40
0.7187499999999976
 40
0.7499999999999974
 40
0.7499999999999974
 40
0.8124999999999982
 40
0.8124999999999982
 40
0.8437499999999984
 40
0.8437499999999984
 40
0.8749999999999988
 40
0.8749999999999988
 40
0.906249999999999
 40
0.906249999999999
 40
0.9374999999999993
 40
0.9374999999999993
 40
0.9687499999999996
 40
0.9687499999999996
 40
0.9843749999999998
 40
0.9843749999999998
 40
1.0
 40
1.0
 40
1.0
 40
1.0
 10
9.547165917302175
 20
6.130078845462003
 30
0.0
 10
9.591669608828749
 20
6.01762212406462
 30
0.0
 10
9.651912210336928
 20
5.910039381771356
 30
0.0
 10
9.796812632231477
 20
5.715206444890278
 30
0.0
 10
9.882567425050462
 20
5.625950668749144
 30
0.0
 10
10.0770713882353
 20
5.46583513556137
 30
0.0
 10
10.18346038260026
 20
5.396630723958365
 30
0.0
 10
10.41491716747872
 20
5.273967848329606
 30
0.0
 10
10.54009168137383
 20
5.221079864175512
 30
0.0
 10
10.78642802631474
 20
5.131319199450729
 30
0.0
 10
10.90588750473029
 20
5.094347448465306
 30
0.0
 10
11.12471660654359
 20
5.030993621355173
 30
0.0
 10
11.22226506040228
 20
5.005212811238502
 30
0.0
 10
11.40290338683522
 20
4.961304046026238
 30
0.0
 10
11.48653843453272
 20
4.943230320262129
 30
0.0
 10
11.64292087602178
 20
4.91495840651697
 30
0.0
 10
11.71620965691779
 20
4.904637420561187
 30
0.0
 10
11.92719226675067
 20
4.885740181441764
 30
0.0
 10
12.05703185085183
 20
4.888799294419003
 30
0.0
 10
12.23947266366207
 20
4.928553216744847
 30
0.0
 10
12.29788111599017
 20
4.947672533286193
 30
0.0
 10
12.4097898608672
 20
5.00169134685663
 30
0.0
 10
12.46364510461582
 20
5.036838190440915
 30
0.0
 10
12.56271343290431
 20
5.12873739330609
 30
0.0
 10
12.60843468736297
 20
5.185584113645433
 30
0.0
 10
12.68612312343485
 20
5.33278642989507
 30
0.0
 10
12.71750492214963
 20
5.42323308451316
 30
0.0
 10
12.7522598594827
 20
5.640299190695294
 30
0.0
 10
12.7546372439699
 20
5.767683503121013
 30
0.0
 10
12.73422628849655
 20
5.964115740422257
 30
0.0
 10
12.72357436485568
 20
6.030799862754427
 30
0.0
 10
12.69687670664382
 20
6.160247296436619
 30
0.0
 10
12.68086259956383
 20
6.223527817320329
 30
0.0
 10
12.66230763443389
 20
6.286790301132342
 30
0.0
  0
SPLINE
  5
244
330
1F
100
AcDbEntity
  8
SK3
  6
SLD-Dashed
370
    18
100
AcDbSpline
210
0.0
220
0.0
230
1.0
 70
     8
 71
     3
 72
    32
 73
    28
 74
     0
 42
0.000000001
 43
0.00000001
 40
0.0
 40
0.0
 40
0.0
 40
0.0
 40
0.0312499999999997
 40
0.0312499999999997
 40
0.0624999999999995
 40
0.0624999999999995
 40
0.1249999999999989
 40
0.1249999999999989
 40
0.1874999999999984
 40
0.1874999999999984
 40
0.2187499999999984
 40
0.2187499999999984
 40
0.2499999999999984
 40
0.2499999999999984
 40
0.2812499999999984
 40
0.2812499999999984
 40
0.3124999999999984
 40
0.3124999999999984
 40
0.3437499999999984
 40
0.3437499999999984
 40
0.3749999999999984
 40
0.3749999999999984
 40
0.4374999999999982
 40
0.4374999999999982
 40
0.4687499999999981
 40
0.4687499999999981
 40
0.499999999999998
 40
0.499999999999998
 40
0.499999999999998
 40
0.499999999999998
 10
12.66230763443389
 20
6.286790301132342
 30
0.0
 10
12.62519770417402
 20
6.413315268756367
 30
0.0
 10
12.58120302127298
 20
6.529338209342137
 30
0.0
 10
12.48471880657841
 20
6.749261649681134
 30
0.0
 10
12.4316588224455
 20
6.853656412382142
 30
0.0
 10
12.26556941339615
 20
7.14682156782774
 30
0.0
 10
12.14616169070411
 20
7.317061421523455
 30
0.0
 10
11.88808945990533
 20
7.625840216913621
 30
0.0
 10
11.74985718622881
 20
7.763778523701692
 30
0.0
 10
11.5194414119259
 20
7.93957223353467
 30
0.0
 10
11.4384840088555
 20
7.993145929764537
 30
0.0
 10
11.26094996715929
 20
8.086113501836023
 30
0.0
 10
11.16541818036972
 20
8.1250258160986
 30
0.0
 10
10.95302844471292
 20
8.175251229353156
 30
0.0
 10
10.83703519791097
 20
8.185597853152482
 30
0.0
 10
10.59133681320582
 20
8.160487774000996
 30
0.0
 10
10.46687270231075
 20
8.12532137460939
 30
0.0
 10
10.22897755356157
 20
8.015351517179317
 30
0.0
 10
10.11959384449101
 20
7.94337461166493
 30
0.0
 10
9.919042005980996
 20
7.77195898146249
 30
0.0
 10
9.83002701568067
 20
7.673959535020855
 30
0.0
 10
9.601531880722977
 20
7.354720962768346
 30
0.0
 10
9.501243573240794
 20
7.107453544913906
 30
0.0
 10
9.44727008051531
 20
6.732043004033517
 30
0.0
 10
9.445111331805908
 20
6.607943683149972
 30
0.0
 10
9.472789440891722
 20
6.361880396588846
 30
0.0
 10
9.502662225775588
 20
6.242535566859386
 30
0.0
 10
9.547165917302175
 20
6.130078845462003
 30
0.0
  0
SPLINE
  5
245
330
1F
100
AcDbEntity
  8
SK3
  6
SLD-Dashed
370
    18
100
AcDbSpline
210
0.0
220
0.0
230
1.0
 70
     8
 71
     3
 72
    34
 73
    30
 74
     0
 42
0.000000001
 43
0.00000001
 40
0.4999999999999964
 40
0.4999999999999964
 40
0.4999999999999964
 40
0.4999999999999964
 40
0.5624999999999961
 40
0.5624999999999961
 40
0.5937499999999962
 40
0.5937499999999962
 40
0.6249999999999963
 40
0.6249999999999963
 40
0.6562499999999964
 40
0.6562499999999964
 40
0.6874999999999966
 40
0.6874999999999966
 40
0.7499999999999971
 40
0.7499999999999971
 40
0.7812499999999974
 40
0.7812499999999974
 40
0.8124999999999978
 40
0.8124999999999978
 40
0.8437499999999982
 40
0.8437499999999982
 40
0.8749999999999986
 40
0.8749999999999986
 40
0.9062499999999989
 40
0.9062499999999989
 40
0.9374999999999992
 40
0.9374999999999992
 40
0.9687499999999997
 40
0.9687499999999997
 40
1.0
 40
1.0
 40
1.0
 40
1.0
 10
10.43489457346453
 20
9.192707275454431
 30
0.0
 10
10.57763203931583
 20
9.178391047657621
 30
0.0
 10
10.73072898252596
 20
9.148788373493296
 30
0.0
 10
11.00846457422353
 20
9.079848161145557
 30
0.0
 10
11.108727204634
 20
9.052921739824749
 30
0.0
 10
11.33151412887495
 20
8.987194762961352
 30
0.0
 10
11.45288474947191
 20
8.948740399015179
 30
0.0
 10
11.69975803299396
 20
8.855687905200401
 30
0.0
 10
11.82369929941916
 20
8.801033903627436
 30
0.0
 10
12.05254486308013
 20
8.67406723807662
 30
0.0
 10
12.15835137945201
 20
8.601647149158662
 30
0.0
 10
12.44326053814744
 20
8.354209612853921
 30
0.0
 10
12.58579742123003
 20
8.15109493572383
 30
0.0
 10
12.70895241472733
 20
7.809142101035435
 30
0.0
 10
12.7353556030883
 20
7.687003589969627
 30
0.0
 10
12.75526974501039
 20
7.441164323332042
 30
0.0
 10
12.74937513382363
 20
7.315281863556497
 30
0.0
 10
12.70533810945412
 20
7.06394119363997
 30
0.0
 10
12.66802095968715
 20
6.941631000096427
 30
0.0
 10
12.56344952904385
 20
6.70417974939401
 30
0.0
 10
12.49625932456627
 20
6.590217548379684
 30
0.0
 10
12.33809446794182
 20
6.382378293731284
 30
0.0
 10
12.24493473983124
 20
6.28587399505122
 30
0.0
 10
12.0405491512664
 20
6.12215655334418
 30
0.0
 10
11.92932147845091
 20
6.054026580940147
 30
0.0
 10
11.68736550523705
 20
5.952992896783499
 30
0.0
 10
11.56181201416268
 20
5.923411177353261
 30
0.0
 10
11.31821027169287
 20
5.909336941584408
 30
0.0
 10
11.20410590689122
 20
5.92457719151207
 30
0.0
 10
11.1
 20
5.953410618658242
 30
0.0
  0
SPLINE
  5
246
330
1F
100
AcDbEntity
  8
SK3
  6
SLD-Dashed
370
    18
100
AcDbSpline
210
0.0
220
0.0
230
1.0
 70
     8
 71
     3
 72
    32
 73
    28
 74
     0
 42
0.000000001
 43
0.00000001
 40
0.0
 40
0.0
 40
0.0
 40
0.0
 40
0.0312499999999998
 40
0.0312499999999998
 40
0.0624999999999996
 40
0.0624999999999996
 40
0.1249999999999991
 40
0.1249999999999991
 40
0.1874999999999986
 40
0.1874999999999986
 40
0.2187499999999983
 40
0.2187499999999983
 40
0.2499999999999979
 40
0.2499999999999979
 40
0.2812499999999978
 40
0.2812499999999978
 40
0.3124999999999976
 40
0.3124999999999976
 40
0.3437499999999974
 40
0.3437499999999974
 40
0.3749999999999972
 40
0.3749999999999972
 40
0.406249999999997
 40
0.406249999999997
 40
0.4374999999999968
 40
0.4374999999999968
 40
0.4999999999999964
 40
0.4999999999999964
 40
0.4999999999999964
 40
0.4999999999999964
 10
11.1
 20
5.953410618658242
 30
0.0
 10
10.99589409310878
 20
5.982244045804441
 30
0.0
 10
10.90407857642199
 20
6.02310328637358
 30
0.0
 10
10.73262137377526
 20
6.118240725872817
 30
0.0
 10
10.65318813797005
 20
6.172784121821914
 30
0.0
 10
10.42547236553634
 20
6.352355611395091
 30
0.0
 10
10.29042057236913
 20
6.490344336420456
 30
0.0
 10
10.03758703563627
 20
6.798492095359348
 30
0.0
 10
9.919813607757956
 20
6.968691620995685
 30
0.0
 10
9.755188160048112
 20
7.264657280293574
 30
0.0
 10
9.702965925809076
 20
7.369529169307637
 30
0.0
 10
9.608196888300558
 20
7.590905988961227
 30
0.0
 10
9.564891013149571
 20
7.708630023759016
 30
0.0
 10
9.49358862725347
 20
7.96287734435687
 30
0.0
 10
9.46689227676846
 20
8.097433676092724
 30
0.0
 10
9.444811777617273
 20
8.357466636459767
 30
0.0
 10
9.450063840888228
 20
8.483405619809343
 30
0.0
 10
9.49012492631586
 20
8.69644691367029
 30
0.0
 10
9.523244242074153
 20
8.782864284801864
 30
0.0
 10
9.604247903804625
 20
8.925144266749466
 30
0.0
 10
9.65074356746913
 20
8.979230676614131
 30
0.0
 10
9.751569607309607
 20
9.067142795898944
 30
0.0
 10
9.806244160784559
 20
9.100654189155039
 30
0.0
 10
9.91929173158787
 20
9.151642126956085
 30
0.0
 10
9.978038231873294
 20
9.16939920542545
 30
0.0
 10
10.16095206270197
 20
9.205547608603663
 30
0.0
 10
10.29215710761321
 20
9.207023503251241
 30
0.0
 10
10.43489457346453
 20
9.192707275454431
 30
0.0
  0
DIMENSION
  5
247
330
1F
100
AcDbEntity
  8
2
100
AcDbDimension
  2
_D
 10
88.9
 20
59.7721467203
 30
0.0
 11
34.4802062681
 21
59.7721467203
 31
0.0
 70
   160
  1
<>
 71
     2
 42
-1.0
  3
SLDDIMSTYLE0
100
AcDbAlignedDimension
 13
0.0
 23
22.225
 33
0.0
 14
88.9
 24
14.605
 34
0.0
 50
0.0
100
AcDbRotatedDimension
  0
DIMENSION
  5
25C
330
1F
100
AcDbEntity
  8
SK2
100
AcDbDimension
  2
_D_1
 10
88.9
 20
44.9393167958
 30
0.0
 11
47.4551901523
 21
44.9393167958
 31
0.0
 70
   160
  1
<>
 71
     2
 42
-1.0
  3
SLDDIMSTYLE1
100
AcDbAlignedDimension
 13
19.05
 23
29.8048664484
 33
0.0
 14
88.9
 24
14.605
 34
0.0
100
AcDbRotatedDimension
  0
DIMENSION
  5
270
330
1F
100
AcDbEntity
  8
SK2
100
AcDbDimension
  2
_D_2
 10
19.05
 20
44.9393167958
 30
0.0
 11
9.8160637874
 21
44.9393167958
 31
0.0
 70
   160
  1
<>
 71
     2
 42
-1.0
  3
SLDDIMSTYLE2
100
AcDbAlignedDimension
 13
0.0
 23
22.225
 33
0.0
 14
19.05
 24
29.8048664484
 34
0.0
100
AcDbRotatedDimension
  0
DIMENSION
  5
27B
330
1F
100
AcDbEntity
  8
SK2
100
AcDbDimension
  2
_D_3
 10
88.9
 20
30.962518668
 30
0.0
 11
75.8873293878
 21
30.962518668
 31
0.0
 70
   160
  1
<>
 71
     2
 42
-1.0
  3
SLDDIMSTYLE1
100
AcDbAlignedDimension
 13
63.5
 23
22.225
 33
0.0
 14
88.9
 24
14.605
 34
0.0
100
AcDbRotatedDimension
  0
DIMENSION
  5
28E
330
1F
100
AcDbEntity
  8
SK2
100
AcDbDimension
  2
_D_4
 10
103.3151474791
 20
-9.525
 30
0.0
 11
103.3151474791
 21
0.1991409762
 31
0.0
 70
   160
  1
%%c<>
 71
     2
 42
-1.0
  3
SLDDIMSTYLE0
100
AcDbAlignedDimension
 13
87.9
 23
9.525
 33
0.0
 14
87.9
 24
-9.525
 34
0.0
 50
90.0
100
AcDbRotatedDimension
  0
DIMENSION
  5
2A0
330
1F
100
AcDbEntity
  8
SK2
100
AcDbDimension
  2
_D_5
 10
118.2724140016
 20
-14.605
 30
0.0
 11
118.2724140016
 21
0.1991409762
 31
0.0
 70
   160
  1
%%c<>
 71
     2
 42
-1.0
  3
SLDDIMSTYLE1
100
AcDbAlignedDimension
 13
88.9
 23
14.605
 33
0.0
 14
88.9
 24
-14.605
 34
0.0
 50
90.0
100
AcDbRotatedDimension
  0
DIMENSION
  5
2B2
330
1F
100
AcDbEntity
  8
SK2
100
AcDbDimension
  2
_D_6
 10
132.3893846521
 20
-22.225
 30
0.0
 11
132.3893846521
 21
0.1991409762
 31
0.0
 70
   160
  1
%%c<>
 71
     2
 42
-1.0
  3
SLDDIMSTYLE1
100
AcDbAlignedDimension
 13
81.28
 23
22.225
 33
0.0
 14
81.28
 24
-22.225
 34
0.0
 50
90.0
100
AcDbRotatedDimension
  0
DIMENSION
  5
2C4
330
1F
100
AcDbEntity
  8
SK2
100
AcDbDimension
  2
_D_7
 10
88.9
 20
-52.7205393321
 30
0.0
 11
-8.7862121454
 21
-52.7205393321
 31
0.0
 70
   160
  1
<>
 71
     2
 42
-1.0
  3
SLDDIMSTYLE3
100
AcDbAlignedDimension
 13
-68.25
 23
-11.1476148288
 33
0.0
 14
88.9
 24
-14.605
 34
0.0
 50
0.0
100
AcDbRotatedDimension
  0
DIMENSION
  5
2D8
330
1F
100
AcDbEntity
  8
SK2
100
AcDbDimension
  2
_D_8
 10
88.9
 20
-43.1441172093
 30
0.0
 11
61.4578738619
 21
-43.1441172093
 31
0.0
 70
   160
  1
<>
 71
     2
 42
-1.0
  3
SLDDIMSTYLE1
100
AcDbAlignedDimension
 13
38.0997498436
 23
-9.525
 33
0.0
 14
88.9
 24
-14.605
 34
0.0
100
AcDbRotatedDimension
  0
DIMENSION
  5
2EB
330
1F
100
AcDbEntity
  8
SK2
100
AcDbDimension
  2
_D_9
 10
88.9
 20
-30.7022804554
 30
0.0
 11
75.8873293878
 21
-30.7022804554
 31
0.0
 70
   160
  1
<>
 71
     2
 42
-1.0
  3
SLDDIMSTYLE4
100
AcDbAlignedDimension
 13
81.28
 23
-22.225
 33
0.0
 14
88.9
 24
-14.605
 34
0.0
100
AcDbRotatedDimension
  0
DIMENSION
  5
2F8
330
1F
100
AcDbEntity
  8
SK2
100
AcDbDimension
  2
_D_10
 10
-85.7668975112
 20
-30.5579086614
 30
0.0
 11
-85.7668975112
 21
0.1991409762
 31
0.0
 70
   160
  1
%%c<>
 71
     2
 42
-1.0
  3
SLDDIMSTYLE2
100
AcDbAlignedDimension
 13
3.95
 23
30.5578899967
 33
0.0
 14
3.95
 24
-30.5579086614
 34
0.0
 50
90.0
100
AcDbRotatedDimension
  0
DIMENSION
  5
303
330
1F
100
AcDbEntity
  8
SK2
100
AcDbDimension
  2
_D_11
 10
-75.3331480981
 20
-7.9375002533
 30
0.0
 11
-75.3331480981
 21
0.1991409762
 31
0.0
 70
   160
  1
<>
 71
     2
 42
-1.0
  3
SLDDIMSTYLE5
100
AcDbAlignedDimension
 13
-63.3082389832
 23
7.9375002533
 33
0.0
 14
-63.3082389832
 24
-7.9375002533
 34
0.0
 50
90.0
100
AcDbRotatedDimension
  0
MTEXT
  5
311
330
1F
100
AcDbEntity
  8
SK6
 62
     5
100
AcDbMText
 10
-52.2360324764
 20
-22.2755626226
 30
0.0
 40
3.5
 41
0.0
 71
     1
 72
     1
  1
AA3B20-40 19 089
  7
SLDTEXTSTYLE0
 73
     1
 44
1.0
  0
MTEXT
  5
312
330
1F
100
AcDbEntity
  8
SK6
 62
     5
100
AcDbMText
 10
-57.8214496279
 20
27.2311612591
 30
0.0
 40
3.5
 41
0.0
 71
     1
 72
     1
  1
ASME B5.50 CAT 40
  7
SLDTEXTSTYLE0
 73
     1
 44
1.0
  0
ENDSEC
  0
SECTION
  2
OBJECTS
  0
DICTIONARY
  5
C
330
0
100
AcDbDictionary
281
     1
  3
ACAD_GROUP
350
D
  3
ACAD_LAYOUT
350
1A
  3
ACAD_MLINESTYLE
350
17
  3
ACAD_PLOTSETTINGS
350
19
  3
ACAD_PLOTSTYLENAME
350
E
  3
ACAD_SCALELIST
350
47
  0
DICTIONARY
  5
D
102
{ACAD_REACTORS
330
C
102
}
330
C
100
AcDbDictionary
281
     1
  0
DICTIONARY
  5
1A
102
{ACAD_REACTORS
330
C
102
}
330
C
100
AcDbDictionary
281
     1
  3
Layout1
350
1E
  3
Layout2
350
26
  3
Model
350
22
  0
DICTIONARY
  5
17
102
{ACAD_REACTORS
330
C
102
}
330
C
100
AcDbDictionary
281
     1
  3
Standard
350
18
  0
DICTIONARY
  5
19
102
{ACAD_REACTORS
330
C
102
}
330
C
100
AcDbDictionary
281
     1
  0
ACDBDICTIONARYWDFLT
  5
E
102
{ACAD_REACTORS
330
C
102
}
330
C
100
AcDbDictionary
281
     1
  3
Normal
350
F
100
AcDbDictionaryWithDefault
340
F
  0
DICTIONARY
  5
47
102
{ACAD_REACTORS
330
C
102
}
330
C
100
AcDbDictionary
281
     1
  3
A0
350
48
  3
A1
350
49
  3
A2
350
4A
  3
A3
350
4B
  3
A4
350
4C
  3
A5
350
4D
  3
A6
350
4E
  3
A7
350
4F
  3
A8
350
50
  3
A9
350
51
  3
B0
350
52
  3
B1
350
53
  3
B2
350
54
  3
B3
350
55
  3
B4
350
56
  3
B5
350
57
  3
B6
350
58
  3
B7
350
59
  3
B8
350
5A
  3
B9
350
5B
  3
C0
350
5C
  3
C1
350
5D
  3
C2
350
5E
  3
C3
350
5F
  3
C4
350
60
  3
C5
350
61
  3
C6
350
62
  3
C7
350
63
  3
C8
350
64
  3
C9
350
65
  3
D0
350
66
  3
D1
350
67
  3
D2
350
68
  0
LAYOUT
  5
1E
102
{ACAD_REACTORS
330
1A
102
}
330
1A
100
AcDbPlotSettings
  1

  2
none_device
  4

  6

 40
0.0
 41
0.0
 42
0.0
 43
0.0
 44
0.0
 45
0.0
 46
0.0
 47
0.0
 48
0.0
 49
0.0
140
0.0
141
0.0
142
1.0
143
1.0
 70
   688
 72
     1
 73
     0
 74
     5
  7

 75
    16
147
1.0
148
0.0
149
0.0
100
AcDbLayout
  1
Layout1
 70
     1
 71
     1
 10
0.0
 20
0.0
 11
420.0
 21
297.0
 12
0.0
 22
0.0
 32
0.0
 14
1.0000000000E+20
 24
1.0000000000E+20
 34
1.0000000000E+20
 15
-1.0000000000E+20
 25
-1.0000000000E+20
 35
-1.0000000000E+20
146
0.0
 13
0.0
 23
0.0
 33
0.0
 16
1.0
 26
0.0
 36
0.0
 17
0.0
 27
1.0
 37
0.0
 76
     0
330
1B
  0
LAYOUT
  5
26
102
{ACAD_REACTORS
330
1A
102
}
330
1A
100
AcDbPlotSettings
  1

  2
none_device
  4

  6

 40
0.0
 41
0.0
 42
0.0
 43
0.0
 44
0.0
 45
0.0
 46
0.0
 47
0.0
 48
0.0
 49
0.0
140
0.0
141
0.0
142
1.0
143
1.0
 70
   688
 72
     1
 73
     0
 74
     5
  7

 75
    16
147
1.0
148
0.0
149
0.0
100
AcDbLayout
  1
Layout2
 70
     1
 71
     2
 10
0.0
 20
0.0
 11
0.0
 21
0.0
 12
0.0
 22
0.0
 32
0.0
 14
0.0
 24
0.0
 34
0.0
 15
0.0
 25
0.0
 35
0.0
146
0.0
 13
0.0
 23
0.0
 33
0.0
 16
1.0
 26
0.0
 36
0.0
 17
0.0
 27
1.0
 37
0.0
 76
     0
330
23
  0
LAYOUT
  5
22
102
{ACAD_REACTORS
330
1A
102
}
330
1A
100
AcDbPlotSettings
  1

  2
none_device
  4
Letter_(8.50_x_11.00_Inches)
  6

 40
6.35
 41
6.35
 42
6.35000508
 43
6.35000508
 44
215.9
 45
279.4
 46
0.0
 47
0.0
 48
0.0
 49
0.0
140
0.0
141
0.0
142
1.0
143
1.0
 70
  1712
 72
     1
 73
     0
 74
     0
  7

 75
     0
147
1.0
148
0.0
149
0.0
100
AcDbLayout
  1
Model
 70
     1
 71
     0
 10
0.0
 20
0.0
 11
297.0
 21
210.0
 12
0.0
 22
0.0
 32
0.0
 14
0.0
 24
0.0
 34
0.0
 15
297.0
 25
210.0
 35
0.0
146
0.0
 13
0.0
 23
0.0
 33
0.0
 16
1.0
 26
0.0
 36
0.0
 17
0.0
 27
1.0
 37
0.0
 76
     0
330
1F
331
29
  0
MLINESTYLE
  5
18
102
{ACAD_REACTORS
330
17
102
}
330
17
100
AcDbMlineStyle
  2
Standard
 70
     0
  3

 62
   256
 51
90.0
 52
90.0
 71
     2
 49
0.5
 62
   256
  6
BYLAYER
 49
-0.5
 62
   256
  6
BYLAYER
  0
ACDBPLACEHOLDER
  5
F
102
{ACAD_REACTORS
330
E
102
}
330
E
  0
SCALE
  5
48
102
{ACAD_REACTORS
330
47
102
}
330
47
100
AcDbScale
 70
     0
300
1:1
140
1.0
141
1.0
290
     1
  0
SCALE
  5
49
102
{ACAD_REACTORS
330
47
102
}
330
47
100
AcDbScale
 70
     0
300
1:2
140
1.0
141
2.0
290
     0
  0
SCALE
  5
4A
102
{ACAD_REACTORS
330
47
102
}
330
47
100
AcDbScale
 70
     0
300
1:4
140
1.0
141
4.0
290
     0
  0
SCALE
  5
4B
102
{ACAD_REACTORS
330
47
102
}
330
47
100
AcDbScale
 70
     0
300
1:5
140
1.0
141
5.0
290
     0
  0
SCALE
  5
4C
102
{ACAD_REACTORS
330
47
102
}
330
47
100
AcDbScale
 70
     0
300
1:8
140
1.0
141
8.0
290
     0
  0
SCALE
  5
4D
102
{ACAD_REACTORS
330
47
102
}
330
47
100
AcDbScale
 70
     0
300
1:10
140
1.0
141
10.0
290
     0
  0
SCALE
  5
4E
102
{ACAD_REACTORS
330
47
102
}
330
47
100
AcDbScale
 70
     0
300
1:16
140
1.0
141
16.0
290
     0
  0
SCALE
  5
4F
102
{ACAD_REACTORS
330
47
102
}
330
47
100
AcDbScale
 70
     0
300
1:20
140
1.0
141
20.0
290
     0
  0
SCALE
  5
50
102
{ACAD_REACTORS
330
47
102
}
330
47
100
AcDbScale
 70
     0
300
1:30
140
1.0
141
30.0
290
     0
  0
SCALE
  5
51
102
{ACAD_REACTORS
330
47
102
}
330
47
100
AcDbScale
 70
     0
300
1:40
140
1.0
141
40.0
290
     0
  0
SCALE
  5
52
102
{ACAD_REACTORS
330
47
102
}
330
47
100
AcDbScale
 70
     0
300
1:50
140
1.0
141
50.0
290
     0
  0
SCALE
  5
53
102
{ACAD_REACTORS
330
47
102
}
330
47
100
AcDbScale
 70
     0
300
1:100
140
1.0
141
100.0
290
     0
  0
SCALE
  5
54
102
{ACAD_REACTORS
330
47
102
}
330
47
100
AcDbScale
 70
     0
300
2:1
140
2.0
141
1.0
290
     0
  0
SCALE
  5
55
102
{ACAD_REACTORS
330
47
102
}
330
47
100
AcDbScale
 70
     0
300
4:1
140
4.0
141
1.0
290
     0
  0
SCALE
  5
56
102
{ACAD_REACTORS
330
47
102
}
330
47
100
AcDbScale
 70
     0
300
8:1
140
8.0
141
1.0
290
     0
  0
SCALE
  5
57
102
{ACAD_REACTORS
330
47
102
}
330
47
100
AcDbScale
 70
     0
300
10:1
140
10.0
141
1.0
290
     0
  0
SCALE
  5
58
102
{ACAD_REACTORS
330
47
102
}
330
47
100
AcDbScale
 70
     0
300
100:1
140
100.0
141
1.0
290
     0
  0
SCALE
  5
59
102
{ACAD_REACTORS
330
47
102
}
330
47
100
AcDbScale
 70
     0
300
1/128" = 1'-0"
140
0.0078125
141
12.0
290
     0
  0
SCALE
  5
5A
102
{ACAD_REACTORS
330
47
102
}
330
47
100
AcDbScale
 70
     0
300
1/64" = 1'-0"
140
0.015625
141
12.0
290
     0
  0
SCALE
  5
5B
102
{ACAD_REACTORS
330
47
102
}
330
47
100
AcDbScale
 70
     0
300
1/32" = 1'-0"
140
0.03125
141
12.0
290
     0
  0
SCALE
  5
5C
102
{ACAD_REACTORS
330
47
102
}
330
47
100
AcDbScale
 70
     0
300
1/16" = 1'-0"
140
0.0625
141
12.0
290
     0
  0
SCALE
  5
5D
102
{ACAD_REACTORS
330
47
102
}
330
47
100
AcDbScale
 70
     0
300
3/32" = 1'-0"
140
0.09375
141
12.0
290
     0
  0
SCALE
  5
5E
102
{ACAD_REACTORS
330
47
102
}
330
47
100
AcDbScale
 70
     0
300
1/8" = 1'-0"
140
0.125
141
12.0
290
     0
  0
SCALE
  5
5F
102
{ACAD_REACTORS
330
47
102
}
330
47
100
AcDbScale
 70
     0
300
3/16" = 1'-0"
140
0.1875
141
12.0
290
     0
  0
SCALE
  5
60
102
{ACAD_REACTORS
330
47
102
}
330
47
100
AcDbScale
 70
     0
300
1/4" = 1'-0"
140
0.25
141
12.0
290
     0
  0
SCALE
  5
61
102
{ACAD_REACTORS
330
47
102
}
330
47
100
AcDbScale
 70
     0
300
3/8" = 1'-0"
140
0.375
141
12.0
290
     0
  0
SCALE
  5
62
102
{ACAD_REACTORS
330
47
102
}
330
47
100
AcDbScale
 70
     0
300
1/2" = 1'-0"
140
0.5
141
12.0
290
     0
  0
SCALE
  5
63
102
{ACAD_REACTORS
330
47
102
}
330
47
100
AcDbScale
 70
     0
300
3/4" = 1'-0"
140
0.75
141
12.0
290
     0
  0
SCALE
  5
64
102
{ACAD_REACTORS
330
47
102
}
330
47
100
AcDbScale
 70
     0
300
1" = 1'-0"
140
1.0
141
12.0
290
     0
  0
SCALE
  5
65
102
{ACAD_REACTORS
330
47
102
}
330
47
100
AcDbScale
 70
     0
300
1-1/2" = 1'-0"
140
1.5
141
12.0
290
     0
  0
SCALE
  5
66
102
{ACAD_REACTORS
330
47
102
}
330
47
100
AcDbScale
 70
     0
300
3" = 1'-0"
140
3.0
141
12.0
290
     0
  0
SCALE
  5
67
102
{ACAD_REACTORS
330
47
102
}
330
47
100
AcDbScale
 70
     0
300
6" = 1'-0"
140
6.0
141
12.0
290
     0
  0
SCALE
  5
68
102
{ACAD_REACTORS
330
47
102
}
330
47
100
AcDbScale
 70
     0
300
1'-0" = 1'-0"
140
12.0
141
12.0
290
     0
  0
ENDSEC
  0
EOF
