  0
SECTION
  2
HEADER
  9
$ACADVER
  1
AC1015
  9
$ACADMAINTVER
 70
     6
  9
$DWGCODEPAGE
  3
ANSI_1250
  9
$INSBASE
 10
0.0
 20
0.0
 30
0.0
  9
$EXTMIN
 10
0.0
 20
0.0
 30
0.0
  9
$EXTMAX
 10
297.0
 20
210.0
 30
0.0
  9
$LIMMIN
 10
0.0
 20
0.0
  9
$LIMMAX
 10
297.0
 20
210.0
  9
$ORTHOMODE
 70
     0
  9
$REGENMODE
 70
     1
  9
$FILLMODE
 70
     1
  9
$QTEXTMODE
 70
     0
  9
$MIRRTEXT
 70
     1
  9
$LTSCALE
 40
1.0
  9
$ATTMODE
 70
     1
  9
$TEXTSIZE
 40
3.5
  9
$TRACEWID
 40
1.0
  9
$TEXTSTYLE
  7
Standard
  9
$CLAYER
  8
0
  9
$CELTYPE
  6
ByLayer
  9
$CECOLOR
 62
   256
  9
$CELTSCALE
 40
1.0
  9
$DISPSILH
 70
     0
  9
$DIMSCALE
 40
1.0
  9
$DIMASZ
 40
3.302
  9
$DIMEXO
 40
1.0
  9
$DIMDLI
 40
3.75
  9
$DIMRND
 40
0.0
  9
$DIMDLE
 40
0.0
  9
$DIMEXE
 40
1.0
  9
$DIMTP
 40
0.0
  9
$DIMTM
 40
0.0
  9
$DIMTXT
 40
3.5
  9
$DIMCEN
 40
2.5
  9
$DIMTSZ
 40
0.0
  9
$DIMTOL
 70
     0
  9
$DIMLIM
 70
     0
  9
$DIMTIH
 70
     1
  9
$DIMTOH
 70
     1
  9
$DIMSE1
 70
     0
  9
$DIMSE2
 70
     0
  9
$DIMTAD
 70
     1
  9
$DIMZIN
 70
     0
  9
$DIMBLK
  1

  9
$DIMASO
 70
     1
  9
$DIMSHO
 70
     1
  9
$DIMPOST
  1

  9
$DIMAPOST
  1

  9
$DIMALT
 70
     0
  9
$DIMALTD
 70
     3
  9
$DIMALTF
 40
0.0393700787
  9
$DIMLFAC
 40
1.0
  9
$DIMTOFL
 70
     1
  9
$DIMTVP
 40
0.0
  9
$DIMTIX
 70
     0
  9
$DIMSOXD
 70
     0
  9
$DIMSAH
 70
     0
  9
$DIMBLK1
  1

  9
$DIMBLK2
  1

  9
$DIMSTYLE
  2
ISO-25
  9
$DIMCLRD
 70
     0
  9
$DIMCLRE
 70
     0
  9
$DIMCLRT
 70
     0
  9
$DIMTFAC
 40
1.0
  9
$DIMGAP
 40
1.524
  9
$DIMJUST
 70
     0
  9
$DIMSD1
 70
     0
  9
$DIMSD2
 70
     0
  9
$DIMTOLJ
 70
     0
  9
$DIMTZIN
 70
     0
  9
$DIMALTZ
 70
     0
  9
$DIMALTTZ
 70
     0
  9
$DIMUPT
 70
     0
  9
$DIMDEC
 70
     2
  9
$DIMTDEC
 70
     2
  9
$DIMALTU
 70
     2
  9
$DIMALTTD
 70
     3
  9
$DIMTXSTY
  7
Standard
  9
$DIMAUNIT
 70
     0
  9
$DIMADEC
 70
     2
  9
$DIMALTRND
 40
0.0
  9
$DIMAZIN
 70
     0
  9
$DIMDSEP
 70
    44
  9
$DIMATFIT
 70
     3
  9
$DIMFRAC
 70
     0
  9
$DIMLDRBLK
  1

  9
$DIMLUNIT
 70
     2
  9
$DIMLWD
 70
    -2
  9
$DIMLWE
 70
    -2
  9
$DIMTMOVE
 70
     0
  9
$LUNITS
 70
     2
  9
$LUPREC
 70
     2
  9
$SKETCHINC
 40
1.0
  9
$FILLETRAD
 40
10.0
  9
$AUNITS
 70
     0
  9
$AUPREC
 70
     2
  9
$MENU
  1
.
  9
$ELEVATION
 40
0.0
  9
$PELEVATION
 40
0.0
  9
$THICKNESS
 40
0.0
  9
$LIMCHECK
 70
     0
  9
$CHAMFERA
 40
0.0
  9
$CHAMFERB
 40
0.0
  9
$CHAMFERC
 40
0.0
  9
$CHAMFERD
 40
0.0
  9
$SKPOLY
 70
     0
  9
$TDCREATE
 40
2459278.313234386
  9
$TDUCREATE
 40
2459278.27156772
  9
$TDUPDATE
 40
2459278.313236331
  9
$TDUUPDATE
 40
2459278.271569664
  9
$TDINDWG
 40
0.0000000116
  9
$TDUSRTIMER
 40
0.0000000116
  9
$USRTIMER
 70
     1
  9
$ANGBASE
 50
0.0
  9
$ANGDIR
 70
     0
  9
$PDMODE
 70
     0
  9
$PDSIZE
 40
-1.0
  9
$PLINEWID
 40
0.0
  9
$SPLFRAME
 70
     0
  9
$SPLINETYPE
 70
     6
  9
$SPLINESEGS
 70
     8
  9
$HANDSEED
  5
392
  9
$SURFTAB1
 70
     6
  9
$SURFTAB2
 70
     6
  9
$SURFTYPE
 70
     6
  9
$SURFU
 70
     6
  9
$SURFV
 70
     6
  9
$UCSBASE
  2

  9
$UCSNAME
  2

  9
$UCSORG
 10
0.0
 20
0.0
 30
0.0
  9
$UCSXDIR
 10
1.0
 20
0.0
 30
0.0
  9
$UCSYDIR
 10
0.0
 20
1.0
 30
0.0
  9
$UCSORTHOREF
  2

  9
$UCSORTHOVIEW
 70
     0
  9
$UCSORGTOP
 10
0.0
 20
0.0
 30
0.0
  9
$UCSORGBOTTOM
 10
0.0
 20
0.0
 30
0.0
  9
$UCSORGLEFT
 10
0.0
 20
0.0
 30
0.0
  9
$UCSORGRIGHT
 10
0.0
 20
0.0
 30
0.0
  9
$UCSORGFRONT
 10
0.0
 20
0.0
 30
0.0
  9
$UCSORGBACK
 10
0.0
 20
0.0
 30
0.0
  9
$PUCSBASE
  2

  9
$PUCSNAME
  2

  9
$PUCSORG
 10
0.0
 20
0.0
 30
0.0
  9
$PUCSXDIR
 10
1.0
 20
0.0
 30
0.0
  9
$PUCSYDIR
 10
0.0
 20
1.0
 30
0.0
  9
$PUCSORTHOREF
  2

  9
$PUCSORTHOVIEW
 70
     0
  9
$PUCSORGTOP
 10
0.0
 20
0.0
 30
0.0
  9
$PUCSORGBOTTOM
 10
0.0
 20
0.0
 30
0.0
  9
$PUCSORGLEFT
 10
0.0
 20
0.0
 30
0.0
  9
$PUCSORGRIGHT
 10
0.0
 20
0.0
 30
0.0
  9
$PUCSORGFRONT
 10
0.0
 20
0.0
 30
0.0
  9
$PUCSORGBACK
 10
0.0
 20
0.0
 30
0.0
  9
$USERI1
 70
     0
  9
$USERI2
 70
     0
  9
$USERI3
 70
     0
  9
$USERI4
 70
     0
  9
$USERI5
 70
     0
  9
$USERR1
 40
0.0
  9
$USERR2
 40
0.0
  9
$USERR3
 40
0.0
  9
$USERR4
 40
0.0
  9
$USERR5
 40
0.0
  9
$WORLDVIEW
 70
     1
  9
$SHADEDGE
 70
     3
  9
$SHADEDIF
 70
    70
  9
$TILEMODE
 70
     1
  9
$MAXACTVP
 70
    64
  9
$PINSBASE
 10
0.0
 20
0.0
 30
0.0
  9
$PLIMCHECK
 70
     0
  9
$PEXTMIN
 10
1.0000000000E+20
 20
1.0000000000E+20
 30
1.0000000000E+20
  9
$PEXTMAX
 10
-1.0000000000E+20
 20
-1.0000000000E+20
 30
-1.0000000000E+20
  9
$PLIMMIN
 10
0.0
 20
0.0
  9
$PLIMMAX
 10
420.0
 20
297.0
  9
$UNITMODE
 70
     0
  9
$VISRETAIN
 70
     1
  9
$PLINEGEN
 70
     0
  9
$PSLTSCALE
 70
     1
  9
$TREEDEPTH
 70
  3020
  9
$CMLSTYLE
  2
Standard
  9
$CMLJUST
 70
     0
  9
$CMLSCALE
 40
20.0
  9
$PROXYGRAPHICS
 70
     1
  9
$MEASUREMENT
 70
     1
  9
$CELWEIGHT
370
    -1
  9
$ENDCAPS
280
     0
  9
$JOINSTYLE
280
     0
  9
$LWDISPLAY
290
     1
  9
$INSUNITS
 70
     4
  9
$HYPERLINKBASE
  1

  9
$STYLESHEET
  1

  9
$XEDIT
290
     1
  9
$CEPSNTYPE
380
     0
  9
$PSTYLEMODE
290
     1
  9
$FINGERPRINTGUID
  2
{D3187B1B-2FA7-4EA3-ABB4-F3A28A5470AF}
  9
$VERSIONGUID
  2
{FAEB1C32-E019-11D5-929B-00C0DF256EC4}
  9
$EXTNAMES
290
     1
  9
$PSVPSCALE
 40
0.0
  9
$OLESTARTUP
290
     0
  0
ENDSEC
  0
SECTION
  2
CLASSES
  0
CLASS
  1
ACDBDICTIONARYWDFLT
  2
AcDbDictionaryWithDefault
  3
ObjectDBX Classes
 90
        0
280
     0
281
     0
  0
CLASS
  1
VISUALSTYLE
  2
AcDbVisualStyle
  3
ObjectDBX Classes
 90
     4095
280
     0
281
     0
  0
CLASS
  1
MATERIAL
  2
AcDbMaterial
  3
ObjectDBX Classes
 90
     1153
280
     0
281
     0
  0
CLASS
  1
SCALE
  2
AcDbScale
  3
ObjectDBX Classes
 90
     1153
280
     0
281
     0
  0
CLASS
  1
TABLESTYLE
  2
AcDbTableStyle
  3
ObjectDBX Classes
 90
     4095
280
     0
281
     0
  0
CLASS
  1
MLEADERSTYLE
  2
AcDbMLeaderStyle
  3
ACDB_MLEADERSTYLE_CLASS
 90
     4095
280
     0
281
     0
  0
CLASS
  1
SUN
  2
AcDbSun
  3
SCENEOE
 90
     1153
280
     0
281
     0
  0
CLASS
  1
ACDBPLACEHOLDER
  2
AcDbPlaceHolder
  3
ObjectDBX Classes
 90
        0
280
     0
281
     0
  0
CLASS
  1
LAYOUT
  2
AcDbLayout
  3
ObjectDBX Classes
 90
        0
280
     0
281
     0
  0
ENDSEC
  0
SECTION
  2
TABLES
  0
TABLE
  2
VPORT
  5
8
330
0
100
AcDbSymbolTable
 70
     1
  0
VPORT
  5
29
330
8
100
AcDbSymbolTableRecord
100
AcDbViewportTableRecord
  2
*Active
 70
     0
 10
0.0
 20
0.0
 11
1.0
 21
1.0
 12
148.5
 22
105.0
 13
0.0
 23
0.0
 14
10.0
 24
10.0
 15
10.0
 25
10.0
 16
0.0
 26
0.0
 36
1.0
 17
0.0
 27
0.0
 37
0.0
 40
210.0
 41
1.4142857143
 42
50.0
 43
0.0
 44
0.0
 50
0.0
 51
0.0
 71
     0
 72
  2000
 73
     1
 74
     3
 75
     0
 76
     0
 77
     0
 78
     0
281
     0
 65
     1
110
0.0
120
0.0
130
0.0
111
1.0
121
0.0
131
0.0
112
0.0
122
1.0
132
0.0
 79
     0
146
0.0
  0
ENDTAB
  0
TABLE
  2
LTYPE
  5
5
330
0
100
AcDbSymbolTable
 70
     8
  0
LTYPE
  5
14
330
5
100
AcDbSymbolTableRecord
100
AcDbLinetypeTableRecord
  2
ByBlock
 70
     0
  3

 72
    65
 73
     0
 40
0.0
  0
LTYPE
  5
15
330
5
100
AcDbSymbolTableRecord
100
AcDbLinetypeTableRecord
  2
ByLayer
 70
     0
  3

 72
    65
 73
     0
 40
0.0
  0
LTYPE
  5
16
330
5
100
AcDbSymbolTableRecord
100
AcDbLinetypeTableRecord
  2
Continuous
 70
     0
  3
Solid line
 72
    65
 73
     0
 40
0.0
  0
LTYPE
  5
6E
330
5
100
AcDbSymbolTableRecord
100
AcDbLinetypeTableRecord
  2
SLD-Solid
 70
     0
  3
SolidWorks Line Style
 72
    65
 73
     0
 40
0.0
  0
LTYPE
  5
6F
330
5
100
AcDbSymbolTableRecord
100
AcDbLinetypeTableRecord
  2
SLD-Dashed
 70
     0
  3
SolidWorks Line Style
 72
    65
 73
     2
 40
1.905
 49
1.27
 74
     0
 49
-0.635
 74
     0
  0
LTYPE
  5
70
330
5
100
AcDbSymbolTableRecord
100
AcDbLinetypeTableRecord
  2
SLD-Phantom
 70
     0
  3
SolidWorks Line Style
 72
    65
 73
     6
 40
12.7
 49
6.35
 74
     0
 49
-1.27
 74
     0
 49
1.27
 74
     0
 49
-1.27
 74
     0
 49
1.27
 74
     0
 49
-1.27
 74
     0
  0
LTYPE
  5
71
330
5
100
AcDbSymbolTableRecord
100
AcDbLinetypeTableRecord
  2
SLD-Chain
 70
     0
  3
SolidWorks Line Style
 72
    65
 73
     4
 40
10.16
 49
6.35
 74
     0
 49
-1.27
 74
     0
 49
1.27
 74
     0
 49
-1.27
 74
     0
  0
LTYPE
  5
72
330
5
100
AcDbSymbolTableRecord
100
AcDbLinetypeTableRecord
  2
SLD-Center
 70
     0
  3
SolidWorks Line Style
 72
    65
 73
     4
 40
19.05
 49
15.24
 74
     0
 49
-1.27
 74
     0
 49
1.27
 74
     0
 49
-1.27
 74
     0
  0
LTYPE
  5
73
330
5
100
AcDbSymbolTableRecord
100
AcDbLinetypeTableRecord
  2
SLD-Stitch
 70
     0
  3
SolidWorks Line Style
 72
    65
 73
     2
 40
0.635
 49
0.0
 74
     0
 49
-0.635
 74
     0
  0
LTYPE
  5
74
330
5
100
AcDbSymbolTableRecord
100
AcDbLinetypeTableRecord
  2
SLD-Thin-Thick-Chain
 70
     0
  3
SolidWorks Line Style
 72
    65
 73
     4
 40
10.16
 49
6.35
 74
     0
 49
-1.27
 74
     0
 49
1.27
 74
     0
 49
-1.27
 74
     0
  0
ENDTAB
  0
TABLE
  2
LAYER
  5
2
330
0
100
AcDbSymbolTable
 70
    14
  0
LAYER
  5
10
330
2
100
AcDbSymbolTableRecord
100
AcDbLayerTableRecord
  2
0
 70
     0
 62
     7
  6
Continuous
370
    -3
390
F
  0
LAYER
  5
75
330
2
100
AcDbSymbolTableRecord
100
AcDbLayerTableRecord
  2
SLD-0
 70
     0
 62
   179
  6
SLD-Solid
370
    -3
390
F
  0
LAYER
  5
76
330
2
100
AcDbSymbolTableRecord
100
AcDbLayerTableRecord
  2
80
 70
     0
 62
    -6
  6
SLD-Solid
290
     0
370
    -3
390
F
  0
LAYER
  5
77
330
2
100
AcDbSymbolTableRecord
100
AcDbLayerTableRecord
  2
81
 70
     0
 62
    -3
  6
SLD-Solid
290
     0
370
    -3
390
F
  0
LAYER
  5
78
330
2
100
AcDbSymbolTableRecord
100
AcDbLayerTableRecord
  2
1
 70
     0
 62
     4
  6
SLD-Solid
290
     0
370
    -3
390
F
  0
LAYER
  5
79
330
2
100
AcDbSymbolTableRecord
100
AcDbLayerTableRecord
  2
4
 70
     0
 62
    -2
  6
SLD-Chain
290
     0
370
    -3
390
F
  0
LAYER
  5
7A
330
2
100
AcDbSymbolTableRecord
100
AcDbLayerTableRecord
  2
2
 70
     0
 62
     7
  6
SLD-Solid
290
     0
370
    -3
390
F
  0
LAYER
  5
7B
330
2
100
AcDbSymbolTableRecord
100
AcDbLayerTableRecord
  2
SK3
 70
     0
 62
     1
  6
SLD-Dashed
290
     0
370
    -3
390
F
  0
LAYER
  5
7C
330
2
100
AcDbSymbolTableRecord
100
AcDbLayerTableRecord
  2
SK4
 70
     0
 62
     2
  6
SLD-Chain
290
     0
370
    -3
390
F
  0
LAYER
  5
7D
330
2
100
AcDbSymbolTableRecord
100
AcDbLayerTableRecord
  2
SK2
 70
     0
 62
     7
  6
SLD-Solid
290
     0
370
    -3
390
F
  0
LAYER
  5
7E
330
2
100
AcDbSymbolTableRecord
100
AcDbLayerTableRecord
  2
SK6
 70
     0
 62
     5
  6
SLD-Solid
290
     0
370
    -3
390
F
  0
LAYER
  5
7F
330
2
100
AcDbSymbolTableRecord
100
AcDbLayerTableRecord
  2
6
 70
     0
 62
     5
  6
SLD-Solid
370
    -3
390
F
  0
LAYER
  5
80
330
2
100
AcDbSymbolTableRecord
100
AcDbLayerTableRecord
  2
SK1
 70
     0
 62
     4
  6
SLD-Solid
370
    -3
390
F
  0
LAYER
  5
81
330
2
100
AcDbSymbolTableRecord
100
AcDbLayerTableRecord
  2
LAYER5
 70
     0
 62
   218
  6
SLD-Solid
370
    -3
390
F
  0
ENDTAB
  0
TABLE
  2
STYLE
  5
3
330
0
100
AcDbSymbolTable
 70
     3
  0
STYLE
  5
11
330
3
100
AcDbSymbolTableRecord
100
AcDbTextStyleTableRecord
  2
Standard
 70
     0
 40
0.0
 41
1.0
 50
0.0
 71
     0
 42
3.5
  3
txt
  4

  0
STYLE
  5
2C8
330
3
100
AcDbSymbolTableRecord
100
AcDbTextStyleTableRecord
  2
SLDTEXTSTYLE0
 70
     0
 40
0.0
 41
0.75
 50
0.0
 71
     0
 42
3.5
  3
TXT
  4

  0
STYLE
  5
38E
330
3
100
AcDbSymbolTableRecord
100
AcDbTextStyleTableRecord
  2
SLDTEXTSTYLE1
 70
     0
 40
0.0
 41
0.6875
 50
0.0
 71
     0
 42
3.5
  3
TXT
  4

  0
ENDTAB
  0
TABLE
  2
VIEW
  5
6
330
0
100
AcDbSymbolTable
 70
     0
  0
ENDTAB
  0
TABLE
  2
UCS
  5
7
330
0
100
AcDbSymbolTable
 70
     0
  0
ENDTAB
  0
TABLE
  2
APPID
  5
9
330
0
100
AcDbSymbolTable
 70
     1
  0
APPID
  5
12
330
9
100
AcDbSymbolTableRecord
100
AcDbRegAppTableRecord
  2
ACAD
 70
     0
  0
ENDTAB
  0
TABLE
  2
DIMSTYLE
  5
A
330
0
100
AcDbSymbolTable
 70
     6
100
AcDbDimStyleTable
  0
DIMSTYLE
105
27
330
A
100
AcDbSymbolTableRecord
100
AcDbDimStyleTableRecord
  2
ISO-25
 70
     0
 41
2.5
 42
0.625
 43
3.75
 44
1.25
 73
     0
 74
     0
 77
     1
 78
     8
140
2.5
141
2.5
143
0.0393700787
147
0.625
171
     3
172
     1
178
     0
271
     2
272
     2
274
     3
278
    44
283
     0
284
     8
340
11
  0
DIMSTYLE
105
2C9
102
{ACAD_REACTORS
330
2C7
330
2DC
330
31A
330
32C
330
33E
330
351
102
}
330
A
100
AcDbSymbolTableRecord
100
AcDbDimStyleTableRecord
  2
SLDDIMSTYLE0
 70
     0
 41
3.302
 44
0.0
 45
0.000000001
 73
     0
 74
     0
 77
     1
 78
    12
 79
     3
140
3.5
143
0.0393700787
147
0.875
148
0.000000001
170
     1
173
     1
178
     0
271
     2
272
     2
276
     2
284
    12
340
2C8
  0
DIMSTYLE
105
2F0
102
{ACAD_REACTORS
330
2EF
330
377
102
}
330
A
100
AcDbSymbolTableRecord
100
AcDbDimStyleTableRecord
  2
SLDDIMSTYLE1
 70
     0
 41
3.302
 44
0.0
 45
0.000000001
 73
     0
 74
     0
 77
     1
 78
    12
 79
     3
140
3.5
147
0.875
173
     1
178
     0
271
     2
272
     2
276
     2
284
    12
340
2C8
  0
DIMSTYLE
105
2FB
102
{ACAD_REACTORS
330
2FA
102
}
330
A
100
AcDbSymbolTableRecord
100
AcDbDimStyleTableRecord
  2
SLDDIMSTYLE2
 70
     0
 41
3.302
 44
0.0
 45
0.000000001
 73
     0
 74
     0
 77
     1
 78
    12
 79
     3
140
3.5
147
0.875
172
     1
173
     1
178
     0
271
     2
272
     2
276
     2
284
    12
289
     0
340
2C8
  0
DIMSTYLE
105
308
102
{ACAD_REACTORS
330
307
330
364
102
}
330
A
100
AcDbSymbolTableRecord
100
AcDbDimStyleTableRecord
  2
SLDDIMSTYLE3
 70
     0
 41
3.302
 44
0.0
 45
0.000000001
 73
     0
 74
     0
 77
     1
 78
    12
 79
     3
140
3.5
143
0.0393700787
147
0.875
148
0.000000001
170
     1
171
     3
173
     1
178
     0
271
     3
272
     2
274
     3
276
     2
284
    12
340
2C8
  0
DIMSTYLE
105
383
102
{ACAD_REACTORS
330
382
102
}
330
A
100
AcDbSymbolTableRecord
100
AcDbDimStyleTableRecord
  2
SLDDIMSTYLE4
 70
     0
 41
3.302
 44
0.0
 45
0.000000001
 73
     0
 74
     0
 77
     1
 78
    12
 79
     3
140
3.5
147
0.875
172
     1
173
     1
178
     0
271
     6
272
     2
276
     2
284
    12
289
     0
340
2C8
  0
ENDTAB
  0
TABLE
  2
BLOCK_RECORD
  5
1
330
0
100
AcDbSymbolTable
 70
    13
  0
BLOCK_RECORD
  5
1F
330
1
100
AcDbSymbolTableRecord
100
AcDbBlockTableRecord
  2
*Model_Space
340
22
  0
BLOCK_RECORD
  5
1B
330
1
100
AcDbSymbolTableRecord
100
AcDbBlockTableRecord
  2
*Paper_Space
340
1E
  0
BLOCK_RECORD
  5
23
330
1
100
AcDbSymbolTableRecord
100
AcDbBlockTableRecord
  2
*Paper_Space0
340
26
  0
BLOCK_RECORD
  5
2CA
330
1
100
AcDbSymbolTableRecord
100
AcDbBlockTableRecord
  2
_D
340
0
  0
BLOCK_RECORD
  5
2DD
330
1
100
AcDbSymbolTableRecord
100
AcDbBlockTableRecord
  2
_D_1
340
0
  0
BLOCK_RECORD
  5
2F1
330
1
100
AcDbSymbolTableRecord
100
AcDbBlockTableRecord
  2
_D_2
340
0
  0
BLOCK_RECORD
  5
2FC
330
1
100
AcDbSymbolTableRecord
100
AcDbBlockTableRecord
  2
_D_3
340
0
  0
BLOCK_RECORD
  5
309
330
1
100
AcDbSymbolTableRecord
100
AcDbBlockTableRecord
  2
_D_4
340
0
  0
BLOCK_RECORD
  5
31B
330
1
100
AcDbSymbolTableRecord
100
AcDbBlockTableRecord
  2
_D_5
340
0
  0
BLOCK_RECORD
  5
32D
330
1
100
AcDbSymbolTableRecord
100
AcDbBlockTableRecord
  2
_D_6
340
0
  0
BLOCK_RECORD
  5
33F
330
1
100
AcDbSymbolTableRecord
100
AcDbBlockTableRecord
  2
_D_7
340
0
  0
BLOCK_RECORD
  5
352
330
1
100
AcDbSymbolTableRecord
100
AcDbBlockTableRecord
  2
_D_8
340
0
  0
BLOCK_RECORD
  5
365
330
1
100
AcDbSymbolTableRecord
100
AcDbBlockTableRecord
  2
_D_9
340
0
  0
BLOCK_RECORD
  5
378
330
1
100
AcDbSymbolTableRecord
100
AcDbBlockTableRecord
  2
_D_10
340
0
  0
BLOCK_RECORD
  5
384
330
1
100
AcDbSymbolTableRecord
100
AcDbBlockTableRecord
  2
_D_11
340
0
  0
ENDTAB
  0
ENDSEC
  0
SECTION
  2
BLOCKS
  0
BLOCK
  5
20
330
1F
100
AcDbEntity
  8
0
100
AcDbBlockBegin
  2
*Model_Space
 70
     0
 10
0.0
 20
0.0
 30
0.0
  3
*Model_Space
  1

  0
ENDBLK
  5
21
330
1F
100
AcDbEntity
  8
0
100
AcDbBlockEnd
  0
BLOCK
  5
1C
330
1B
100
AcDbEntity
 67
     1
  8
0
100
AcDbBlockBegin
  2
*Paper_Space
 70
     0
 10
0.0
 20
0.0
 30
0.0
  3
*Paper_Space
  1

  0
ENDBLK
  5
1D
330
1B
100
AcDbEntity
 67
     1
  8
0
100
AcDbBlockEnd
  0
BLOCK
  5
24
330
23
100
AcDbEntity
  8
0
100
AcDbBlockBegin
  2
*Paper_Space0
 70
     0
 10
0.0
 20
0.0
 30
0.0
  3
*Paper_Space0
  1

  0
ENDBLK
  5
25
330
23
100
AcDbEntity
  8
0
100
AcDbBlockEnd
  0
BLOCK
  5
2CB
330
2CA
100
AcDbEntity
  8
0
100
AcDbBlockBegin
  2
_D
 70
     0
 10
0.0
 20
0.0
 30
0.0
  3
_D
  1

  0
SOLID
  5
2CD
330
2CA
100
AcDbEntity
  8
SK2
100
AcDbTrace
 10
19.05
 20
37.4285872243
 30
0.0
 11
22.352
 21
36.9205872243
 31
0.0
 12
22.352
 22
37.9365872243
 32
0.0
 13
22.352
 23
37.9365872243
 33
0.0
  0
SOLID
  5
2CE
330
2CA
100
AcDbEntity
  8
SK2
100
AcDbTrace
 10
44.45
 20
37.4285872243
 30
0.0
 11
41.148
 21
37.9365872243
 31
0.0
 12
41.148
 22
36.9205872243
 32
0.0
 13
41.148
 23
36.9205872243
 33
0.0
  0
LINE
  5
2CF
330
2CA
100
AcDbEntity
  8
SK2
100
AcDbLine
 10
28.8124273394
 20
48.2214689403
 30
0.0
 11
27.7460210819
 21
48.2214689403
 31
0.0
  0
LINE
  5
2D0
330
2CA
100
AcDbEntity
  8
SK2
100
AcDbLine
 10
27.7460210819
 20
48.2214689403
 30
0.0
 11
27.7460210819
 21
42.6652189493
 31
0.0
  0
LINE
  5
2D1
330
2CA
100
AcDbEntity
  8
SK2
100
AcDbLine
 10
27.7460210819
 20
42.6652189493
 30
0.0
 11
28.8124273394
 21
42.6652189493
 31
0.0
  0
LINE
  5
2D2
330
2CA
100
AcDbEntity
  8
SK2
100
AcDbLine
 10
37.8638164003
 20
48.2214689403
 30
0.0
 11
38.9302226578
 21
48.2214689403
 31
0.0
  0
LINE
  5
2D3
330
2CA
100
AcDbEntity
  8
SK2
100
AcDbLine
 10
38.9302226578
 20
48.2214689403
 30
0.0
 11
38.9302226578
 21
42.6652189493
 31
0.0
  0
LINE
  5
2D4
330
2CA
100
AcDbEntity
  8
SK2
100
AcDbLine
 10
38.9302226578
 20
42.6652189493
 30
0.0
 11
37.8638164003
 21
42.6652189493
 31
0.0
  0
LINE
  5
2D5
330
2CA
100
AcDbEntity
  8
SK2
100
AcDbLine
 10
19.05
 20
30.8048664484
 30
0.0
 11
19.05
 21
38.4285872243
 31
0.0
  0
LINE
  5
2D6
330
2CA
100
AcDbEntity
  8
SK2
100
AcDbLine
 10
44.45
 20
13.827
 30
0.0
 11
44.45
 21
38.4285872243
 31
0.0
  0
LINE
  5
2D7
330
2CA
100
AcDbEntity
  8
SK2
100
AcDbLine
 10
19.05
 20
37.4285872243
 30
0.0
 11
44.45
 21
37.4285872243
 31
0.0
  0
MTEXT
  5
2D8
330
2CA
100
AcDbEntity
  8
SK2
100
AcDbMText
 10
26.6990592277
 20
41.9937964902
 30
0.0
 40
3.5
 41
0.0
 71
     1
 72
     1
  1

  7
SLDTEXTSTYLE0
 73
     1
 44
1.0
  0
MTEXT
  5
2D9
330
2CA
100
AcDbEntity
  8
SK2
100
AcDbMText
 10
28.8124273394
 20
47.1769558639
 30
0.0
 40
3.5
 41
0.0
 71
     1
 72
     1
  1
1,00
  7
SLDTEXTSTYLE0
 73
     1
 44
1.0
  0
MTEXT
  5
2DA
330
2CA
100
AcDbEntity
  8
SK2
100
AcDbMText
 10
28.8124273394
 20
41.9403243135
 30
0.0
 40
3.5
 41
0.0
 71
     1
 72
     1
  1
25,4
  7
SLDTEXTSTYLE0
 73
     1
 44
1.0
  0
MTEXT
  5
2DB
330
2CA
100
AcDbEntity
  8
SK2
100
AcDbMText
 10
41.3091290316
 20
41.9937964902
 30
0.0
 40
3.5
 41
0.0
 71
     1
 72
     1
  1

  7
SLDTEXTSTYLE0
 73
     1
 44
1.0
  0
ENDBLK
  5
2CC
330
2CA
100
AcDbEntity
  8
0
100
AcDbBlockEnd
  0
BLOCK
  5
2DE
330
2DD
100
AcDbEntity
  8
0
100
AcDbBlockBegin
  2
_D_1
 70
     0
 10
0.0
 20
0.0
 30
0.0
  3
_D_1
  1

  0
SOLID
  5
2E0
330
2DD
100
AcDbEntity
  8
2
100
AcDbTrace
 10
0.0
 20
50.2048566668
 30
0.0
 11
3.302
 21
49.6968566668
 31
0.0
 12
3.302
 22
50.7128566668
 32
0.0
 13
3.302
 23
50.7128566668
 33
0.0
  0
SOLID
  5
2E1
330
2DD
100
AcDbEntity
  8
2
100
AcDbTrace
 10
44.45
 20
50.2048566668
 30
0.0
 11
41.148
 21
50.7128566668
 31
0.0
 12
41.148
 22
49.6968566668
 32
0.0
 13
41.148
 23
49.6968566668
 33
0.0
  0
LINE
  5
2E2
330
2DD
100
AcDbEntity
  8
2
100
AcDbLine
 10
16.5144860441
 20
60.9977383828
 30
0.0
 11
15.4480797867
 21
60.9977383828
 31
0.0
  0
LINE
  5
2E3
330
2DD
100
AcDbEntity
  8
2
100
AcDbLine
 10
15.4480797867
 20
60.9977383828
 30
0.0
 11
15.4480797867
 21
55.4414883918
 31
0.0
  0
LINE
  5
2E4
330
2DD
100
AcDbEntity
  8
2
100
AcDbLine
 10
15.4480797867
 20
55.4414883918
 30
0.0
 11
16.5144860441
 21
55.4414883918
 31
0.0
  0
LINE
  5
2E5
330
2DD
100
AcDbEntity
  8
2
100
AcDbLine
 10
25.565875105
 20
60.9977383828
 30
0.0
 11
26.6322813625
 21
60.9977383828
 31
0.0
  0
LINE
  5
2E6
330
2DD
100
AcDbEntity
  8
2
100
AcDbLine
 10
26.6322813625
 20
60.9977383828
 30
0.0
 11
26.6322813625
 21
55.4414883918
 31
0.0
  0
LINE
  5
2E7
330
2DD
100
AcDbEntity
  8
2
100
AcDbLine
 10
26.6322813625
 20
55.4414883918
 30
0.0
 11
25.565875105
 21
55.4414883918
 31
0.0
  0
LINE
  5
2E8
330
2DD
100
AcDbEntity
  8
2
100
AcDbLine
 10
0.0
 20
23.225
 30
0.0
 11
0.0
 21
51.2048566668
 31
0.0
  0
LINE
  5
2E9
330
2DD
100
AcDbEntity
  8
2
100
AcDbLine
 10
44.45
 20
13.827
 30
0.0
 11
44.45
 21
51.2048566668
 31
0.0
  0
LINE
  5
2EA
330
2DD
100
AcDbEntity
  8
2
100
AcDbLine
 10
0.0
 20
50.2048566668
 30
0.0
 11
44.45
 21
50.2048566668
 31
0.0
  0
MTEXT
  5
2EB
330
2DD
100
AcDbEntity
  8
2
100
AcDbMText
 10
14.4011179325
 20
54.7700659326
 30
0.0
 40
3.5
 41
0.0
 71
     1
 72
     1
  1

  7
SLDTEXTSTYLE0
 73
     1
 44
1.0
  0
MTEXT
  5
2EC
330
2DD
100
AcDbEntity
  8
2
100
AcDbMText
 10
16.5144860441
 20
59.9532253063
 30
0.0
 40
3.5
 41
0.0
 71
     1
 72
     1
  1
1,75
  7
SLDTEXTSTYLE0
 73
     1
 44
1.0
  0
MTEXT
  5
2ED
330
2DD
100
AcDbEntity
  8
2
100
AcDbMText
 10
15.2214303309
 20
54.716593756
 30
0.0
 40
3.5
 41
0.0
 71
     1
 72
     1
  1
44,45
  7
SLDTEXTSTYLE0
 73
     1
 44
1.0
  0
MTEXT
  5
2EE
330
2DD
100
AcDbEntity
  8
2
100
AcDbMText
 10
29.0111877364
 20
54.7700659326
 30
0.0
 40
3.5
 41
0.0
 71
     1
 72
     1
  1

  7
SLDTEXTSTYLE0
 73
     1
 44
1.0
  0
ENDBLK
  5
2DF
330
2DD
100
AcDbEntity
  8
0
100
AcDbBlockEnd
  0
BLOCK
  5
2F2
330
2F1
100
AcDbEntity
  8
0
100
AcDbBlockBegin
  2
_D_2
 70
     0
 10
0.0
 20
0.0
 30
0.0
  3
_D_2
  1

  0
SOLID
  5
2F4
330
2F1
100
AcDbEntity
  8
SK2
100
AcDbTrace
 10
0.0
 20
37.4285872243
 30
0.0
 11
3.302
 21
36.9205872243
 31
0.0
 12
3.302
 22
37.9365872243
 32
0.0
 13
3.302
 23
37.9365872243
 33
0.0
  0
SOLID
  5
2F5
330
2F1
100
AcDbEntity
  8
SK2
100
AcDbTrace
 10
19.05
 20
37.4285872243
 30
0.0
 11
15.748
 21
37.9365872243
 31
0.0
 12
15.748
 22
36.9205872243
 32
0.0
 13
15.748
 23
36.9205872243
 33
0.0
  0
LINE
  5
2F6
330
2F1
100
AcDbEntity
  8
SK2
100
AcDbLine
 10
0.0
 20
23.225
 30
0.0
 11
0.0
 21
38.4285872243
 31
0.0
  0
LINE
  5
2F7
330
2F1
100
AcDbEntity
  8
SK2
100
AcDbLine
 10
19.05
 20
30.8048664484
 30
0.0
 11
19.05
 21
38.4285872243
 31
0.0
  0
LINE
  5
2F8
330
2F1
100
AcDbEntity
  8
SK2
100
AcDbLine
 10
0.0
 20
37.4285872243
 30
0.0
 11
19.05
 21
37.4285872243
 31
0.0
  0
MTEXT
  5
2F9
330
2F1
100
AcDbEntity
  8
SK2
100
AcDbMText
 10
3.5372654663
 20
41.9403241389
 30
0.0
 40
3.5
 41
0.0
 71
     1
 72
     1
  1
19,05
  7
SLDTEXTSTYLE0
 73
     1
 44
1.0
  0
ENDBLK
  5
2F3
330
2F1
100
AcDbEntity
  8
0
100
AcDbBlockEnd
  0
BLOCK
  5
2FD
330
2FC
100
AcDbEntity
  8
0
100
AcDbBlockBegin
  2
_D_3
 70
     0
 10
0.0
 20
0.0
 30
0.0
  3
_D_3
  1

  0
SOLID
  5
2FF
330
2FC
100
AcDbEntity
  8
SK2
100
AcDbTrace
 10
35.052
 20
27.7051523313
 30
0.0
 11
31.75
 21
28.2131523313
 31
0.0
 12
31.75
 22
27.1971523313
 32
0.0
 13
31.75
 23
27.1971523313
 33
0.0
  0
SOLID
  5
300
330
2FC
100
AcDbEntity
  8
SK2
100
AcDbTrace
 10
44.45
 20
27.7051523313
 30
0.0
 11
47.752
 21
27.1971523313
 31
0.0
 12
47.752
 22
28.2131523313
 32
0.0
 13
47.752
 23
28.2131523313
 33
0.0
  0
LINE
  5
301
330
2FC
100
AcDbEntity
  8
SK2
100
AcDbLine
 10
35.052
 20
23.1319544857
 30
0.0
 11
35.052
 21
28.7051523313
 31
0.0
  0
LINE
  5
302
330
2FC
100
AcDbEntity
  8
SK2
100
AcDbLine
 10
44.45
 20
13.827
 30
0.0
 11
44.45
 21
28.7051523313
 31
0.0
  0
LINE
  5
303
330
2FC
100
AcDbEntity
  8
SK2
100
AcDbLine
 10
35.052
 20
27.7051523313
 30
0.0
 11
28.702
 21
27.7051523313
 31
0.0
  0
LINE
  5
304
330
2FC
100
AcDbEntity
  8
SK2
100
AcDbLine
 10
35.052
 20
27.7051523313
 30
0.0
 11
44.45
 21
27.7051523313
 31
0.0
  0
LINE
  5
305
330
2FC
100
AcDbEntity
  8
SK2
100
AcDbLine
 10
44.45
 20
27.7051523313
 30
0.0
 11
50.8
 21
27.7051523313
 31
0.0
  0
MTEXT
  5
306
330
2FC
100
AcDbEntity
  8
SK2
100
AcDbMText
 10
36.4382971104
 20
32.2168892459
 30
0.0
 40
3.5
 41
0.0
 71
     1
 72
     1
  1
9,4
  7
SLDTEXTSTYLE0
 73
     1
 44
1.0
  0
ENDBLK
  5
2FE
330
2FC
100
AcDbEntity
  8
0
100
AcDbBlockEnd
  0
BLOCK
  5
30A
330
309
100
AcDbEntity
  8
0
100
AcDbBlockBegin
  2
_D_4
 70
     0
 10
0.0
 20
0.0
 30
0.0
  3
_D_4
  1

  0
SOLID
  5
30C
330
309
100
AcDbEntity
  8
SK2
100
AcDbTrace
 10
61.5120866965
 20
-9.525
 30
0.0
 11
62.0200866965
 21
-6.223
 31
0.0
 12
61.0040866965
 22
-6.223
 32
0.0
 13
61.0040866965
 23
-6.223
 33
0.0
  0
SOLID
  5
30D
330
309
100
AcDbEntity
  8
SK2
100
AcDbTrace
 10
61.5120866965
 20
9.525
 30
0.0
 11
61.0040866965
 21
6.223
 31
0.0
 12
62.0200866965
 22
6.223
 32
0.0
 13
62.0200866965
 23
6.223
 33
0.0
  0
LINE
  5
30E
330
309
100
AcDbEntity
  8
SK2
100
AcDbLine
 10
50.7192049805
 20
-5.8989833089
 30
0.0
 11
50.7192049805
 21
-6.9653895664
 31
0.0
  0
LINE
  5
30F
330
309
100
AcDbEntity
  8
SK2
100
AcDbLine
 10
50.7192049805
 20
-6.9653895664
 30
0.0
 11
56.2754549716
 21
-6.9653895664
 31
0.0
  0
LINE
  5
310
330
309
100
AcDbEntity
  8
SK2
100
AcDbLine
 10
56.2754549716
 20
-6.9653895664
 30
0.0
 11
56.2754549716
 21
-5.8989833089
 31
0.0
  0
LINE
  5
311
330
309
100
AcDbEntity
  8
SK2
100
AcDbLine
 10
50.7192049805
 20
5.7385171784
 30
0.0
 11
50.7192049805
 21
6.8049234358
 31
0.0
  0
LINE
  5
312
330
309
100
AcDbEntity
  8
SK2
100
AcDbLine
 10
50.7192049805
 20
6.8049234358
 30
0.0
 11
56.2754549716
 21
6.8049234358
 31
0.0
  0
LINE
  5
313
330
309
100
AcDbEntity
  8
SK2
100
AcDbLine
 10
56.2754549716
 20
6.8049234358
 30
0.0
 11
56.2754549716
 21
5.7385171784
 31
0.0
  0
LINE
  5
314
330
309
100
AcDbEntity
  8
SK2
100
AcDbLine
 10
44.45
 20
-9.525
 30
0.0
 11
62.5120866965
 21
-9.525
 31
0.0
  0
LINE
  5
315
330
309
100
AcDbEntity
  8
SK2
100
AcDbLine
 10
44.45
 20
9.525
 30
0.0
 11
62.5120866965
 21
9.525
 31
0.0
  0
LINE
  5
316
330
309
100
AcDbEntity
  8
SK2
100
AcDbLine
 10
61.5120866965
 20
-9.525
 30
0.0
 11
61.5120866965
 21
9.525
 31
0.0
  0
MTEXT
  5
317
330
309
100
AcDbEntity
  8
SK2
100
AcDbMText
 10
51.763718057
 20
-5.8989833089
 30
0.0
 40
3.5
 41
0.0
 71
     1
 72
     1
  1
0,750
  7
SLDTEXTSTYLE0
 11
6.123233995736766E-17
 21
1.0
 31
0.0
 73
     1
 44
1.0
  0
MTEXT
  5
318
330
309
100
AcDbEntity
  8
SK2
100
AcDbMText
 10
57.0003496073
 20
-8.5382024738
 30
0.0
 40
3.5
 41
0.0
 71
     1
 72
     1
  1
%%c
  7
SLDTEXTSTYLE0
 11
6.123233995736766E-17
 21
1.0
 31
0.0
 73
     1
 44
1.0
  0
MTEXT
  5
319
330
309
100
AcDbEntity
  8
SK2
100
AcDbMText
 10
57.0003496073
 20
-3.2597650754
 30
0.0
 40
3.5
 41
0.0
 71
     1
 72
     1
  1
19,05
  7
SLDTEXTSTYLE0
 11
6.123233995736766E-17
 21
1.0
 31
0.0
 73
     1
 44
1.0
  0
ENDBLK
  5
30B
330
309
100
AcDbEntity
  8
0
100
AcDbBlockEnd
  0
BLOCK
  5
31C
330
31B
100
AcDbEntity
  8
0
100
AcDbBlockBegin
  2
_D_5
 70
     0
 10
0.0
 20
0.0
 30
0.0
  3
_D_5
  1

  0
SOLID
  5
31E
330
31B
100
AcDbEntity
  8
SK2
100
AcDbTrace
 10
76.3504032226
 20
12.827
 30
0.0
 11
75.8424032226
 21
9.525
 31
0.0
 12
76.8584032226
 22
9.525
 32
0.0
 13
76.8584032226
 23
9.525
 33
0.0
  0
SOLID
  5
31F
330
31B
100
AcDbEntity
  8
SK2
100
AcDbTrace
 10
76.3504032226
 20
-12.827
 30
0.0
 11
76.8584032226
 21
-9.525
 31
0.0
 12
75.8424032226
 22
-9.525
 32
0.0
 13
75.8424032226
 23
-9.525
 33
0.0
  0
LINE
  5
320
330
31B
100
AcDbEntity
  8
SK2
100
AcDbLine
 10
65.5575215066
 20
-4.6059280614
 30
0.0
 11
65.5575215066
 21
-5.6723343188
 31
0.0
  0
LINE
  5
321
330
31B
100
AcDbEntity
  8
SK2
100
AcDbLine
 10
65.5575215066
 20
-5.6723343188
 30
0.0
 11
71.1137714976
 21
-5.6723343188
 31
0.0
  0
LINE
  5
322
330
31B
100
AcDbEntity
  8
SK2
100
AcDbLine
 10
71.1137714976
 20
-5.6723343188
 30
0.0
 11
71.1137714976
 21
-4.6059280614
 31
0.0
  0
LINE
  5
323
330
31B
100
AcDbEntity
  8
SK2
100
AcDbLine
 10
65.5575215066
 20
4.4454609995
 30
0.0
 11
65.5575215066
 21
5.511867257
 31
0.0
  0
LINE
  5
324
330
31B
100
AcDbEntity
  8
SK2
100
AcDbLine
 10
65.5575215066
 20
5.511867257
 30
0.0
 11
71.1137714976
 21
5.511867257
 31
0.0
  0
LINE
  5
325
330
31B
100
AcDbEntity
  8
SK2
100
AcDbLine
 10
71.1137714976
 20
5.511867257
 30
0.0
 11
71.1137714976
 21
4.4454609995
 31
0.0
  0
LINE
  5
326
330
31B
100
AcDbEntity
  8
SK2
100
AcDbLine
 10
45.45
 20
12.827
 30
0.0
 11
77.3504032226
 21
12.827
 31
0.0
  0
LINE
  5
327
330
31B
100
AcDbEntity
  8
SK2
100
AcDbLine
 10
45.45
 20
-12.827
 30
0.0
 11
77.3504032226
 21
-12.827
 31
0.0
  0
LINE
  5
328
330
31B
100
AcDbEntity
  8
SK2
100
AcDbLine
 10
76.3504032226
 20
12.827
 30
0.0
 11
76.3504032226
 21
-12.827
 31
0.0
  0
MTEXT
  5
329
330
31B
100
AcDbEntity
  8
SK2
100
AcDbMText
 10
66.6020345831
 20
-4.6059280614
 30
0.0
 40
3.5
 41
0.0
 71
     1
 72
     1
  1
1,01
  7
SLDTEXTSTYLE0
 11
-7.044195017643634E-15
 21
1.0
 31
0.0
 73
     1
 44
1.0
  0
MTEXT
  5
32A
330
31B
100
AcDbEntity
  8
SK2
100
AcDbMText
 10
71.8386661334
 20
-8.5382024738
 30
0.0
 40
3.5
 41
0.0
 71
     1
 72
     1
  1
%%c
  7
SLDTEXTSTYLE0
 11
-7.044195017643634E-15
 21
1.0
 31
0.0
 73
     1
 44
1.0
  0
MTEXT
  5
32B
330
31B
100
AcDbEntity
  8
SK2
100
AcDbMText
 10
71.8386661334
 20
-3.2597650754
 30
0.0
 40
3.5
 41
0.0
 71
     1
 72
     1
  1
25,65
  7
SLDTEXTSTYLE0
 11
-7.044195017643634E-15
 21
1.0
 31
0.0
 73
     1
 44
1.0
  0
ENDBLK
  5
31D
330
31B
100
AcDbEntity
  8
0
100
AcDbBlockEnd
  0
BLOCK
  5
32E
330
32D
100
AcDbEntity
  8
0
100
AcDbBlockBegin
  2
_D_6
 70
     0
 10
0.0
 20
0.0
 30
0.0
  3
_D_6
  1

  0
SOLID
  5
330
330
32D
100
AcDbEntity
  8
SK2
100
AcDbTrace
 10
91.1887197487
 20
22.1319544857
 30
0.0
 11
90.6807197487
 21
18.8299544857
 31
0.0
 12
91.6967197487
 22
18.8299544857
 32
0.0
 13
91.6967197487
 23
18.8299544857
 33
0.0
  0
SOLID
  5
331
330
32D
100
AcDbEntity
  8
SK2
100
AcDbTrace
 10
91.1887197487
 20
-22.225
 30
0.0
 11
91.6967197487
 21
-18.923
 31
0.0
 12
90.6807197487
 22
-18.923
 32
0.0
 13
90.6807197487
 23
-18.923
 33
0.0
  0
LINE
  5
332
330
32D
100
AcDbEntity
  8
SK2
100
AcDbLine
 10
80.3958380327
 20
-4.6059280614
 30
0.0
 11
80.3958380327
 21
-5.6723343188
 31
0.0
  0
LINE
  5
333
330
32D
100
AcDbEntity
  8
SK2
100
AcDbLine
 10
80.3958380327
 20
-5.6723343188
 30
0.0
 11
85.9520880237
 21
-5.6723343188
 31
0.0
  0
LINE
  5
334
330
32D
100
AcDbEntity
  8
SK2
100
AcDbLine
 10
85.9520880237
 20
-5.6723343188
 30
0.0
 11
85.9520880237
 21
-4.6059280614
 31
0.0
  0
LINE
  5
335
330
32D
100
AcDbEntity
  8
SK2
100
AcDbLine
 10
80.3958380327
 20
4.4454609995
 30
0.0
 11
80.3958380327
 21
5.511867257
 31
0.0
  0
LINE
  5
336
330
32D
100
AcDbEntity
  8
SK2
100
AcDbLine
 10
80.3958380327
 20
5.511867257
 30
0.0
 11
85.9520880237
 21
5.511867257
 31
0.0
  0
LINE
  5
337
330
32D
100
AcDbEntity
  8
SK2
100
AcDbLine
 10
85.9520880237
 20
5.511867257
 30
0.0
 11
85.9520880237
 21
4.4454609995
 31
0.0
  0
LINE
  5
338
330
32D
100
AcDbEntity
  8
SK2
100
AcDbLine
 10
36.052
 20
22.1319544857
 30
0.0
 11
92.1887197487
 21
22.1319544857
 31
0.0
  0
LINE
  5
339
330
32D
100
AcDbEntity
  8
SK2
100
AcDbLine
 10
36.052
 20
-22.225
 30
0.0
 11
92.1887197487
 21
-22.225
 31
0.0
  0
LINE
  5
33A
330
32D
100
AcDbEntity
  8
SK2
100
AcDbLine
 10
91.1887197487
 20
22.1319544857
 30
0.0
 11
91.1887197487
 21
-22.225
 31
0.0
  0
MTEXT
  5
33B
330
32D
100
AcDbEntity
  8
SK2
100
AcDbMText
 10
81.4403511091
 20
-4.6059280614
 30
0.0
 40
3.5
 41
0.0
 71
     1
 72
     1
  1
1,75
  7
SLDTEXTSTYLE0
 11
-7.044195017643634E-15
 21
1.0
 31
0.0
 73
     1
 44
1.0
  0
MTEXT
  5
33C
330
32D
100
AcDbEntity
  8
SK2
100
AcDbMText
 10
86.6769826595
 20
-8.5382024738
 30
0.0
 40
3.5
 41
0.0
 71
     1
 72
     1
  1
%%c
  7
SLDTEXTSTYLE0
 11
-7.044195017643634E-15
 21
1.0
 31
0.0
 73
     1
 44
1.0
  0
MTEXT
  5
33D
330
32D
100
AcDbEntity
  8
SK2
100
AcDbMText
 10
86.6769826595
 20
-3.2597650754
 30
0.0
 40
3.5
 41
0.0
 71
     1
 72
     1
  1
44,45
  7
SLDTEXTSTYLE0
 11
-7.044195017643634E-15
 21
1.0
 31
0.0
 73
     1
 44
1.0
  0
ENDBLK
  5
32F
330
32D
100
AcDbEntity
  8
0
100
AcDbBlockEnd
  0
BLOCK
  5
340
330
33F
100
AcDbEntity
  8
0
100
AcDbBlockBegin
  2
_D_7
 70
     0
 10
0.0
 20
0.0
 30
0.0
  3
_D_7
  1

  0
SOLID
  5
342
330
33F
100
AcDbEntity
  8
SK2
100
AcDbTrace
 10
44.45
 20
-38.901857374
 30
0.0
 11
41.148
 21
-38.393857374
 31
0.0
 12
41.148
 22
-39.409857374
 32
0.0
 13
41.148
 23
-39.409857374
 33
0.0
  0
SOLID
  5
343
330
33F
100
AcDbEntity
  8
SK2
100
AcDbTrace
 10
19.05
 20
-38.901857374
 30
0.0
 11
22.352
 21
-39.409857374
 31
0.0
 12
22.352
 22
-38.393857374
 32
0.0
 13
22.352
 23
-38.393857374
 33
0.0
  0
LINE
  5
344
330
33F
100
AcDbEntity
  8
SK2
100
AcDbLine
 10
28.8124273394
 20
-28.108975658
 30
0.0
 11
27.7460210819
 21
-28.108975658
 31
0.0
  0
LINE
  5
345
330
33F
100
AcDbEntity
  8
SK2
100
AcDbLine
 10
27.7460210819
 20
-28.108975658
 30
0.0
 11
27.7460210819
 21
-33.665225649
 31
0.0
  0
LINE
  5
346
330
33F
100
AcDbEntity
  8
SK2
100
AcDbLine
 10
27.7460210819
 20
-33.665225649
 30
0.0
 11
28.8124273394
 21
-33.665225649
 31
0.0
  0
LINE
  5
347
330
33F
100
AcDbEntity
  8
SK2
100
AcDbLine
 10
37.8638164003
 20
-28.108975658
 30
0.0
 11
38.9302226578
 21
-28.108975658
 31
0.0
  0
LINE
  5
348
330
33F
100
AcDbEntity
  8
SK2
100
AcDbLine
 10
38.9302226578
 20
-28.108975658
 30
0.0
 11
38.9302226578
 21
-33.665225649
 31
0.0
  0
LINE
  5
349
330
33F
100
AcDbEntity
  8
SK2
100
AcDbLine
 10
38.9302226578
 20
-33.665225649
 30
0.0
 11
37.8638164003
 21
-33.665225649
 31
0.0
  0
LINE
  5
34A
330
33F
100
AcDbEntity
  8
SK2
100
AcDbLine
 10
44.45
 20
-13.827
 30
0.0
 11
44.45
 21
-39.901857374
 31
0.0
  0
LINE
  5
34B
330
33F
100
AcDbEntity
  8
SK2
100
AcDbLine
 10
19.05
 20
-30.8048552742
 30
0.0
 11
19.05
 21
-39.901857374
 31
0.0
  0
LINE
  5
34C
330
33F
100
AcDbEntity
  8
SK2
100
AcDbLine
 10
44.45
 20
-38.901857374
 30
0.0
 11
19.05
 21
-38.901857374
 31
0.0
  0
MTEXT
  5
34D
330
33F
100
AcDbEntity
  8
SK2
100
AcDbMText
 10
26.6990592277
 20
-34.3366481082
 30
0.0
 40
3.5
 41
0.0
 71
     1
 72
     1
  1

  7
SLDTEXTSTYLE0
 73
     1
 44
1.0
  0
MTEXT
  5
34E
330
33F
100
AcDbEntity
  8
SK2
100
AcDbMText
 10
28.8124273394
 20
-29.1534887345
 30
0.0
 40
3.5
 41
0.0
 71
     1
 72
     1
  1
1,00
  7
SLDTEXTSTYLE0
 73
     1
 44
1.0
  0
MTEXT
  5
34F
330
33F
100
AcDbEntity
  8
SK2
100
AcDbMText
 10
28.8124273394
 20
-34.3901202848
 30
0.0
 40
3.5
 41
0.0
 71
     1
 72
     1
  1
25,4
  7
SLDTEXTSTYLE0
 73
     1
 44
1.0
  0
MTEXT
  5
350
330
33F
100
AcDbEntity
  8
SK2
100
AcDbMText
 10
41.3091290316
 20
-34.3366481082
 30
0.0
 40
3.5
 41
0.0
 71
     1
 72
     1
  1

  7
SLDTEXTSTYLE0
 73
     1
 44
1.0
  0
ENDBLK
  5
341
330
33F
100
AcDbEntity
  8
0
100
AcDbBlockEnd
  0
BLOCK
  5
353
330
352
100
AcDbEntity
  8
0
100
AcDbBlockBegin
  2
_D_8
 70
     0
 10
0.0
 20
0.0
 30
0.0
  3
_D_8
  1

  0
SOLID
  5
355
330
352
100
AcDbEntity
  8
SK2
100
AcDbTrace
 10
-6.3499999999
 20
-52.4185533043
 30
0.0
 11
-3.0479999999
 21
-52.9265533043
 31
0.0
 12
-3.0479999999
 22
-51.9105533043
 32
0.0
 13
-3.0479999999
 23
-51.9105533043
 33
0.0
  0
SOLID
  5
356
330
352
100
AcDbEntity
  8
SK2
100
AcDbTrace
 10
44.45
 20
-52.4185533043
 30
0.0
 11
41.148
 21
-51.9105533043
 31
0.0
 12
41.148
 22
-52.9265533043
 32
0.0
 13
41.148
 23
-52.9265533043
 33
0.0
  0
LINE
  5
357
330
352
100
AcDbEntity
  8
SK2
100
AcDbLine
 10
7.3540510483
 20
-41.6256715882
 30
0.0
 11
6.2876447909
 21
-41.6256715882
 31
0.0
  0
LINE
  5
358
330
352
100
AcDbEntity
  8
SK2
100
AcDbLine
 10
6.2876447909
 20
-41.6256715882
 30
0.0
 11
6.2876447909
 21
-47.1819215793
 31
0.0
  0
LINE
  5
359
330
352
100
AcDbEntity
  8
SK2
100
AcDbLine
 10
6.2876447909
 20
-47.1819215793
 30
0.0
 11
7.3540510483
 21
-47.1819215793
 31
0.0
  0
LINE
  5
35A
330
352
100
AcDbEntity
  8
SK2
100
AcDbLine
 10
16.4054401092
 20
-41.6256715882
 30
0.0
 11
17.4718463667
 21
-41.6256715882
 31
0.0
  0
LINE
  5
35B
330
352
100
AcDbEntity
  8
SK2
100
AcDbLine
 10
17.4718463667
 20
-41.6256715882
 30
0.0
 11
17.4718463667
 21
-47.1819215793
 31
0.0
  0
LINE
  5
35C
330
352
100
AcDbEntity
  8
SK2
100
AcDbLine
 10
17.4718463667
 20
-47.1819215793
 30
0.0
 11
16.4054401092
 21
-47.1819215793
 31
0.0
  0
LINE
  5
35D
330
352
100
AcDbEntity
  8
SK2
100
AcDbLine
 10
-6.3499999999
 20
-10.5241706492
 30
0.0
 11
-6.3499999999
 21
-53.4185533043
 31
0.0
  0
LINE
  5
35E
330
352
100
AcDbEntity
  8
SK2
100
AcDbLine
 10
44.45
 20
-13.827
 30
0.0
 11
44.45
 21
-53.4185533043
 31
0.0
  0
LINE
  5
35F
330
352
100
AcDbEntity
  8
SK2
100
AcDbLine
 10
-6.3499999999
 20
-52.4185533043
 30
0.0
 11
44.45
 21
-52.4185533043
 31
0.0
  0
MTEXT
  5
360
330
352
100
AcDbEntity
  8
SK2
100
AcDbMText
 10
5.2406829367
 20
-47.8533440384
 30
0.0
 40
3.5
 41
0.0
 71
     1
 72
     1
  1

  7
SLDTEXTSTYLE0
 73
     1
 44
1.0
  0
MTEXT
  5
361
330
352
100
AcDbEntity
  8
SK2
100
AcDbMText
 10
7.3540510483
 20
-42.6701846647
 30
0.0
 40
3.5
 41
0.0
 71
     1
 72
     1
  1
2,00
  7
SLDTEXTSTYLE0
 73
     1
 44
1.0
  0
MTEXT
  5
362
330
352
100
AcDbEntity
  8
SK2
100
AcDbMText
 10
7.3540510483
 20
-47.9068162151
 30
0.0
 40
3.5
 41
0.0
 71
     1
 72
     1
  1
50,8
  7
SLDTEXTSTYLE0
 73
     1
 44
1.0
  0
MTEXT
  5
363
330
352
100
AcDbEntity
  8
SK2
100
AcDbMText
 10
19.8507527405
 20
-47.8533440384
 30
0.0
 40
3.5
 41
0.0
 71
     1
 72
     1
  1

  7
SLDTEXTSTYLE0
 73
     1
 44
1.0
  0
ENDBLK
  5
354
330
352
100
AcDbEntity
  8
0
100
AcDbBlockEnd
  0
BLOCK
  5
366
330
365
100
AcDbEntity
  8
0
100
AcDbBlockBegin
  2
_D_9
 70
     0
 10
0.0
 20
0.0
 30
0.0
  3
_D_9
  1

  0
SOLID
  5
368
330
365
100
AcDbEntity
  8
SK2
100
AcDbTrace
 10
-68.25
 20
-60.8975598029
 30
0.0
 11
-64.948
 21
-61.4055598029
 31
0.0
 12
-64.948
 22
-60.3895598029
 32
0.0
 13
-64.948
 23
-60.3895598029
 33
0.0
  0
SOLID
  5
369
330
365
100
AcDbEntity
  8
SK2
100
AcDbTrace
 10
44.45
 20
-60.8975598029
 30
0.0
 11
41.148
 21
-60.3895598029
 31
0.0
 12
41.148
 22
-61.4055598029
 32
0.0
 13
41.148
 23
-61.4055598029
 33
0.0
  0
LINE
  5
36A
330
365
100
AcDbEntity
  8
SK2
100
AcDbLine
 10
-26.7546898126
 20
-50.1046780868
 30
0.0
 11
-27.8210960701
 21
-50.1046780868
 31
0.0
  0
LINE
  5
36B
330
365
100
AcDbEntity
  8
SK2
100
AcDbLine
 10
-27.8210960701
 20
-50.1046780868
 30
0.0
 11
-27.8210960701
 21
-55.6609280779
 31
0.0
  0
LINE
  5
36C
330
365
100
AcDbEntity
  8
SK2
100
AcDbLine
 10
-27.8210960701
 20
-55.6609280779
 30
0.0
 11
-26.7546898126
 21
-55.6609280779
 31
0.0
  0
LINE
  5
36D
330
365
100
AcDbEntity
  8
SK2
100
AcDbLine
 10
-15.1171893254
 20
-50.1046780868
 30
0.0
 11
-14.0507830679
 21
-50.1046780868
 31
0.0
  0
LINE
  5
36E
330
365
100
AcDbEntity
  8
SK2
100
AcDbLine
 10
-14.0507830679
 20
-50.1046780868
 30
0.0
 11
-14.0507830679
 21
-55.6609280779
 31
0.0
  0
LINE
  5
36F
330
365
100
AcDbEntity
  8
SK2
100
AcDbLine
 10
-14.0507830679
 20
-55.6609280779
 30
0.0
 11
-15.1171893254
 21
-55.6609280779
 31
0.0
  0
LINE
  5
370
330
365
100
AcDbEntity
  8
SK2
100
AcDbLine
 10
-68.25
 20
-12.1476148288
 30
0.0
 11
-68.25
 21
-61.8975598029
 31
0.0
  0
LINE
  5
371
330
365
100
AcDbEntity
  8
SK2
100
AcDbLine
 10
44.45
 20
-13.827
 30
0.0
 11
44.45
 21
-61.8975598029
 31
0.0
  0
LINE
  5
372
330
365
100
AcDbEntity
  8
SK2
100
AcDbLine
 10
-68.25
 20
-60.8975598029
 30
0.0
 11
44.45
 21
-60.8975598029
 31
0.0
  0
MTEXT
  5
373
330
365
100
AcDbEntity
  8
SK2
100
AcDbMText
 10
-28.8680579243
 20
-56.332350537
 30
0.0
 40
3.5
 41
0.0
 71
     1
 72
     1
  1

  7
SLDTEXTSTYLE0
 73
     1
 44
1.0
  0
MTEXT
  5
374
330
365
100
AcDbEntity
  8
SK2
100
AcDbMText
 10
-26.7546898126
 20
-51.1491911633
 30
0.0
 40
3.5
 41
0.0
 71
     1
 72
     1
  1
4,437
  7
SLDTEXTSTYLE0
 73
     1
 44
1.0
  0
MTEXT
  5
375
330
365
100
AcDbEntity
  8
SK2
100
AcDbMText
 10
-26.7546902783
 20
-56.3858227137
 30
0.0
 40
3.5
 41
0.0
 71
     1
 72
     1
  1
112,7
  7
SLDTEXTSTYLE0
 73
     1
 44
1.0
  0
MTEXT
  5
376
330
365
100
AcDbEntity
  8
SK2
100
AcDbMText
 10
-11.6718776254
 20
-56.332350537
 30
0.0
 40
3.5
 41
0.0
 71
     1
 72
     1
  1

  7
SLDTEXTSTYLE0
 73
     1
 44
1.0
  0
ENDBLK
  5
367
330
365
100
AcDbEntity
  8
0
100
AcDbBlockEnd
  0
BLOCK
  5
379
330
378
100
AcDbEntity
  8
0
100
AcDbBlockBegin
  2
_D_10
 70
     0
 10
0.0
 20
0.0
 30
0.0
  3
_D_10
  1

  0
SOLID
  5
37B
330
378
100
AcDbEntity
  8
SK2
100
AcDbTrace
 10
-86.3958335006
 20
-30.5579086614
 30
0.0
 11
-85.8878335006
 21
-27.2559086614
 31
0.0
 12
-86.9038335006
 22
-27.2559086614
 32
0.0
 13
-86.9038335006
 23
-27.2559086614
 33
0.0
  0
SOLID
  5
37C
330
378
100
AcDbEntity
  8
SK2
100
AcDbTrace
 10
-86.3958335006
 20
30.5578899967
 30
0.0
 11
-86.9038335006
 21
27.2558899967
 31
0.0
 12
-85.8878335006
 22
27.2558899967
 32
0.0
 13
-85.8878335006
 23
27.2558899967
 33
0.0
  0
LINE
  5
37D
330
378
100
AcDbEntity
  8
SK2
100
AcDbLine
 10
2.95
 20
-30.5579086614
 30
0.0
 11
-87.3958335006
 21
-30.5579086614
 31
0.0
  0
LINE
  5
37E
330
378
100
AcDbEntity
  8
SK2
100
AcDbLine
 10
2.95
 20
30.5578899967
 30
0.0
 11
-87.3958335006
 21
30.5578899967
 31
0.0
  0
LINE
  5
37F
330
378
100
AcDbEntity
  8
SK2
100
AcDbLine
 10
-86.3958335006
 20
-30.5579086614
 30
0.0
 11
-86.3958335006
 21
30.5578899967
 31
0.0
  0
MTEXT
  5
380
330
378
100
AcDbEntity
  8
SK2
100
AcDbMText
 10
-90.9075705898
 20
-9.5952731539
 30
0.0
 40
3.5
 41
0.0
 71
     1
 72
     1
  1
%%c
  7
SLDTEXTSTYLE0
 11
-1.048990684667789E-15
 21
1.0
 31
0.0
 73
     1
 44
1.0
  0
MTEXT
  5
381
330
378
100
AcDbEntity
  8
SK2
100
AcDbMText
 10
-90.9610427665
 20
-4.3168357555
 30
0.0
 40
3.5
 41
0.0
 71
     1
 72
     1
  1
63,5
  7
SLDTEXTSTYLE0
 11
-1.048990684667789E-15
 21
1.0
 31
0.0
 73
     1
 44
1.0
  0
ENDBLK
  5
37A
330
378
100
AcDbEntity
  8
0
100
AcDbBlockEnd
  0
BLOCK
  5
385
330
384
100
AcDbEntity
  8
0
100
AcDbBlockBegin
  2
_D_11
 70
     0
 10
0.0
 20
0.0
 30
0.0
  3
_D_11
  1

  0
SOLID
  5
387
330
384
100
AcDbEntity
  8
SK2
100
AcDbTrace
 10
-76.1321638051
 20
7.9375002533
 30
0.0
 11
-75.6241638051
 21
11.2395002533
 31
0.0
 12
-76.6401638051
 22
11.2395002533
 32
0.0
 13
-76.6401638051
 23
11.2395002533
 33
0.0
  0
SOLID
  5
388
330
384
100
AcDbEntity
  8
SK2
100
AcDbTrace
 10
-76.1321638051
 20
-7.9375002533
 30
0.0
 11
-76.6401638051
 21
-11.2395002533
 31
0.0
 12
-75.6241638051
 22
-11.2395002533
 32
0.0
 13
-75.6241638051
 23
-11.2395002533
 33
0.0
  0
LINE
  5
389
330
384
100
AcDbEntity
  8
SK2
100
AcDbLine
 10
-64.3082389832
 20
7.9375002533
 30
0.0
 11
-77.1321638051
 21
7.9375002533
 31
0.0
  0
LINE
  5
38A
330
384
100
AcDbEntity
  8
SK2
100
AcDbLine
 10
-64.3082389832
 20
-7.9375002533
 30
0.0
 11
-77.1321638051
 21
-7.9375002533
 31
0.0
  0
LINE
  5
38B
330
384
100
AcDbEntity
  8
SK2
100
AcDbLine
 10
-76.1321638051
 20
7.9375002533
 30
0.0
 11
-76.1321638051
 21
14.2875002533
 31
0.0
  0
LINE
  5
38C
330
384
100
AcDbEntity
  8
SK2
100
AcDbLine
 10
-76.1321638051
 20
7.9375002533
 30
0.0
 11
-76.1321638051
 21
-7.9375002533
 31
0.0
  0
LINE
  5
38D
330
384
100
AcDbEntity
  8
SK2
100
AcDbLine
 10
-76.1321638051
 20
-7.9375002533
 30
0.0
 11
-76.1321638051
 21
-14.2875002533
 31
0.0
  0
MTEXT
  5
38F
330
384
100
AcDbEntity
  8
SK2
100
AcDbMText
 10
-80.6439007197
 20
-12.8149905098
 30
0.0
 40
3.5
 41
0.0
 71
     1
 72
     1
  1
5/8 - 11 UNC
  7
SLDTEXTSTYLE1
 11
-7.044195017643634E-15
 21
1.0
 31
0.0
 73
     1
 44
1.0
  0
ENDBLK
  5
386
330
384
100
AcDbEntity
  8
0
100
AcDbBlockEnd
  0
ENDSEC
  0
SECTION
  2
ENTITIES
  0
LINE
  5
82
330
1F
100
AcDbEntity
  8
1
  6
SLD-Solid
370
    25
100
AcDbLine
 10
1.8869952227
 20
-22.225
 30
0.0
 11
2.1330363037
 21
-22.1102691597
 31
0.0
  0
LINE
  5
83
330
1F
100
AcDbEntity
  8
1
  6
SLD-Solid
370
    25
100
AcDbLine
 10
2.1330363037
 20
22.1102691597
 30
0.0
 11
1.8869952227
 21
22.225
 31
0.0
  0
LINE
  5
84
330
1F
100
AcDbEntity
  8
1
  6
SLD-Solid
370
    25
100
AcDbLine
 10
1.8869952227
 20
22.225
 30
0.0
 11
0.0
 21
22.225
 31
0.0
  0
LINE
  5
85
330
1F
100
AcDbEntity
  8
1
  6
SLD-Solid
370
    25
100
AcDbLine
 10
0.0
 20
-22.225
 30
0.0
 11
1.8869952227
 21
-22.225
 31
0.0
  0
LINE
  5
86
330
1F
100
AcDbEntity
  8
1
  6
SLD-Solid
370
    25
100
AcDbLine
 10
27.163153123
 20
-22.225
 30
0.0
 11
35.052
 21
-22.225
 31
0.0
  0
LINE
  5
87
330
1F
100
AcDbEntity
  8
SK1
  6
SLD-Solid
370
    25
100
AcDbLine
 10
0.0
 20
22.225
 30
0.0
 11
-67.1376006954
 21
12.4340074512
 31
0.0
  0
LINE
  5
88
330
1F
100
AcDbEntity
  8
SK1
  6
SLD-Solid
370
    25
100
AcDbLine
 10
-67.1376006954
 20
-12.4340074512
 30
0.0
 11
0.0
 21
-22.225
 31
0.0
  0
LINE
  5
89
330
1F
100
AcDbEntity
  8
1
  6
SLD-Solid
370
    25
100
AcDbLine
 10
35.052
 20
-22.225
 30
0.0
 11
44.45
 21
-12.827
 31
0.0
  0
LINE
  5
8A
330
1F
100
AcDbEntity
  8
1
  6
SLD-Solid
370
    25
100
AcDbLine
 10
44.45
 20
12.827
 30
0.0
 11
35.2869909732
 21
21.9900090268
 31
0.0
  0
LINE
  5
8B
330
1F
100
AcDbEntity
  8
1
  6
SLD-Solid
370
    25
100
AcDbLine
 10
3.95
 20
-30.5579086614
 30
0.0
 11
7.5888736454
 21
-30.5579086614
 31
0.0
  0
LINE
  5
8C
330
1F
100
AcDbEntity
  8
1
  6
SLD-Solid
370
    25
100
AcDbLine
 10
3.95
 20
30.5578899967
 30
0.0
 11
3.95
 21
-30.5579086614
 31
0.0
  0
LINE
  5
8D
330
1F
100
AcDbEntity
  8
1
  6
SLD-Solid
370
    25
100
AcDbLine
 10
7.5888736454
 20
30.5578899967
 30
0.0
 11
3.95
 21
30.5578899967
 31
0.0
  0
LINE
  5
8E
330
1F
100
AcDbEntity
  8
1
  6
SLD-Solid
370
    25
100
AcDbLine
 10
7.5888736454
 20
30.5578899967
 30
0.0
 11
7.5888736454
 21
-30.5579086614
 31
0.0
  0
LINE
  5
8F
330
1F
100
AcDbEntity
  8
1
  6
SLD-Solid
370
    25
100
AcDbLine
 10
18.3
 20
-30.5578899967
 30
0.0
 11
18.3
 21
30.5579086614
 31
0.0
  0
LINE
  5
90
330
1F
100
AcDbEntity
  8
1
  6
SLD-Solid
370
    25
100
AcDbLine
 10
19.05
 20
29.8048664484
 30
0.0
 11
19.05
 21
-29.8048552742
 31
0.0
  0
LINE
  5
91
330
1F
100
AcDbEntity
  8
1
  6
SLD-Solid
370
    25
100
AcDbLine
 10
3.2
 20
-29.8048664484
 30
0.0
 11
3.2
 21
29.8048552742
 31
0.0
  0
LINE
  5
92
330
1F
100
AcDbEntity
  8
1
  6
SLD-Solid
370
    25
100
AcDbLine
 10
18.3
 20
30.5579086614
 30
0.0
 11
14.6411263546
 21
30.5579086614
 31
0.0
  0
LINE
  5
93
330
1F
100
AcDbEntity
  8
1
  6
SLD-Solid
370
    25
100
AcDbLine
 10
14.6411263546
 20
-30.5578899967
 30
0.0
 11
18.3
 21
-30.5578899967
 31
0.0
  0
LINE
  5
94
330
1F
100
AcDbEntity
  8
1
  6
SLD-Solid
370
    25
100
AcDbLine
 10
14.6411263546
 20
30.5579086614
 30
0.0
 11
14.6411263546
 21
-30.5578899967
 31
0.0
  0
LINE
  5
95
330
1F
100
AcDbEntity
  8
1
  6
SLD-Solid
370
    25
100
AcDbLine
 10
13.03
 20
25.319242438
 30
0.0
 11
13.03
 21
-27.8050456342
 31
0.0
  0
LINE
  5
96
330
1F
100
AcDbEntity
  8
1
  6
SLD-Solid
370
    25
100
AcDbLine
 10
13.03
 20
27.8050456342
 30
0.0
 11
13.03
 21
25.8117178836
 31
0.0
  0
LINE
  5
97
330
1F
100
AcDbEntity
  8
1
  6
SLD-Solid
370
    25
100
AcDbLine
 10
9.2
 20
27.8050456342
 30
0.0
 11
9.2
 21
25.8569131114
 31
0.0
  0
LINE
  5
98
330
1F
100
AcDbEntity
  8
1
  6
SLD-Solid
370
    25
100
AcDbLine
 10
9.2
 20
25.2705433174
 30
0.0
 11
9.2
 21
-27.8050456342
 31
0.0
  0
LINE
  5
99
330
1F
100
AcDbEntity
  8
1
  6
SLD-Solid
370
    25
100
AcDbLine
 10
9.95
 20
24.066859753
 30
0.0
 11
9.95
 21
-26.9870635676
 31
0.0
  0
LINE
  5
9A
330
1F
100
AcDbEntity
  8
1
  6
SLD-Solid
370
    25
100
AcDbLine
 10
12.28
 20
24.0780506352
 30
0.0
 11
12.28
 21
-26.9870635676
 31
0.0
  0
LINE
  5
9B
330
1F
100
AcDbEntity
  8
1
  6
SLD-Solid
370
    25
100
AcDbLine
 10
9.95
 20
-26.9870635676
 30
0.0
 11
12.28
 21
-26.9870635676
 31
0.0
  0
LINE
  5
9C
330
1F
100
AcDbEntity
  8
1
  6
SLD-Solid
370
    25
100
AcDbLine
 10
19.812
 20
22.1435905408
 30
0.0
 11
19.812
 21
-20.700619411
 31
0.0
  0
LINE
  5
9D
330
1F
100
AcDbEntity
  8
1
  6
SLD-Solid
370
    25
100
AcDbLine
 10
1.8869952227
 20
22.225
 30
0.0
 11
1.8869952227
 21
-22.225
 31
0.0
  0
LINE
  5
9E
330
1F
100
AcDbEntity
  8
1
  6
SLD-Solid
370
    25
100
AcDbLine
 10
0.0
 20
22.225
 30
0.0
 11
0.0
 21
-22.225
 31
0.0
  0
LINE
  5
9F
330
1F
100
AcDbEntity
  8
1
  6
SLD-Solid
370
    25
100
AcDbLine
 10
35.052
 20
22.1319544857
 30
0.0
 11
35.052
 21
-22.225
 31
0.0
  0
LINE
  5
A0
330
1F
100
AcDbEntity
  8
1
  6
SLD-Solid
370
    25
100
AcDbLine
 10
44.45
 20
12.827
 30
0.0
 11
44.45
 21
-12.827
 31
0.0
  0
LINE
  5
A1
330
1F
100
AcDbEntity
  8
1
  6
SLD-Solid
370
    25
100
AcDbLine
 10
9.2
 20
25.8569131114
 30
0.0
 11
9.2
 21
25.8264908709
 31
0.0
  0
LINE
  5
A2
330
1F
100
AcDbEntity
  8
1
  6
SLD-Solid
370
    25
100
AcDbLine
 10
13.03
 20
25.7812977304
 30
0.0
 11
13.03
 21
25.8117178836
 31
0.0
  0
LINE
  5
A3
330
1F
100
AcDbEntity
  8
1
  6
SLD-Solid
370
    25
100
AcDbLine
 10
9.95
 20
26.9870635676
 30
0.0
 11
9.95
 21
25.6032587904
 31
0.0
  0
LINE
  5
A4
330
1F
100
AcDbEntity
  8
1
  6
SLD-Solid
370
    25
100
AcDbLine
 10
12.28
 20
26.9870635676
 30
0.0
 11
12.28
 21
25.5942620881
 31
0.0
  0
LINE
  5
A5
330
1F
100
AcDbEntity
  8
SK1
  6
SLD-Solid
370
    25
100
AcDbLine
 10
-68.25
 20
-11.1476148288
 30
0.0
 11
-68.25
 21
11.1476148288
 31
0.0
  0
LINE
  5
A6
330
1F
100
AcDbEntity
  8
1
  6
SLD-Solid
370
    25
100
AcDbLine
 10
9.95
 20
26.9870635676
 30
0.0
 11
12.28
 21
26.9870635676
 31
0.0
  0
LINE
  5
A7
330
1F
100
AcDbEntity
  8
1
  6
SLD-Solid
370
    25
100
AcDbLine
 10
2.1330363037
 20
22.1102691597
 30
0.0
 11
2.1330363037
 21
-22.1102691597
 31
0.0
  0
LINE
  5
A8
330
1F
100
AcDbEntity
  8
SK1
  6
SLD-Solid
370
    25
100
AcDbLine
 10
-67.1376006954
 20
0.0
 30
0.0
 11
-67.1376006954
 21
-12.4340074512
 31
0.0
  0
LINE
  5
A9
330
1F
100
AcDbEntity
  8
SK1
  6
SLD-Solid
370
    25
100
AcDbLine
 10
-67.1376006954
 20
12.4340074512
 30
0.0
 11
-67.1376006954
 21
0.0
 31
0.0
  0
LINE
  5
AA
330
1F
100
AcDbEntity
  8
SK3
  6
SLD-Dashed
370
    18
100
AcDbLine
 10
19.05
 20
-6.6488143213
 30
0.0
 11
18.8161847139
 21
-6.4760896069
 31
0.0
  0
LINE
  5
AB
330
1F
100
AcDbEntity
  8
SK3
  6
SLD-Dashed
370
    18
100
AcDbLine
 10
18.8161847139
 20
-6.4760896069
 30
0.0
 11
18.5531822006
 21
-6.396203884
 31
0.0
  0
LINE
  5
AC
330
1F
100
AcDbEntity
  8
SK3
  6
SLD-Dashed
370
    18
100
AcDbLine
 10
18.5531822006
 20
-6.396203884
 30
0.0
 11
18.2707077792
 21
-6.4121081331
 31
0.0
  0
LINE
  5
AD
330
1F
100
AcDbEntity
  8
SK3
  6
SLD-Dashed
370
    18
100
AcDbLine
 10
18.2707077792
 20
-6.4121081331
 30
0.0
 11
17.9791960612
 21
-6.5232148508
 31
0.0
  0
LINE
  5
AE
330
1F
100
AcDbEntity
  8
SK3
  6
SLD-Dashed
370
    18
100
AcDbLine
 10
17.9791960612
 20
-6.5232148508
 30
0.0
 11
17.689415496
 21
-6.7254197524
 31
0.0
  0
LINE
  5
AF
330
1F
100
AcDbEntity
  8
SK3
  6
SLD-Dashed
370
    18
100
AcDbLine
 10
17.689415496
 20
-6.7254197524
 30
0.0
 11
17.4120705846
 21
-7.0112533843
 31
0.0
  0
LINE
  5
B0
330
1F
100
AcDbEntity
  8
SK3
  6
SLD-Dashed
370
    18
100
AcDbLine
 10
17.4120705846
 20
-7.0112533843
 30
0.0
 11
17.1574064541
 21
-7.3701570454
 31
0.0
  0
LINE
  5
B1
330
1F
100
AcDbEntity
  8
SK3
  6
SLD-Dashed
370
    18
100
AcDbLine
 10
17.1574064541
 20
-7.3701570454
 30
0.0
 11
16.9348304035
 21
-7.7888728264
 31
0.0
  0
LINE
  5
B2
330
1F
100
AcDbEntity
  8
SK3
  6
SLD-Dashed
370
    18
100
AcDbLine
 10
16.9348304035
 20
-7.7888728264
 30
0.0
 11
16.7525643972
 21
-8.2519333568
 31
0.0
  0
LINE
  5
B3
330
1F
100
AcDbEntity
  8
SK3
  6
SLD-Dashed
370
    18
100
AcDbLine
 10
16.7525643972
 20
-8.2519333568
 30
0.0
 11
16.6173413455
 21
-8.7422331698
 31
0.0
  0
LINE
  5
B4
330
1F
100
AcDbEntity
  8
SK3
  6
SLD-Dashed
370
    18
100
AcDbLine
 10
16.6173413455
 20
-8.7422331698
 30
0.0
 11
16.5341563912
 21
-9.2416605792
 31
0.0
  0
LINE
  5
B5
330
1F
100
AcDbEntity
  8
SK3
  6
SLD-Dashed
370
    18
100
AcDbLine
 10
16.5341563912
 20
-9.2416605792
 30
0.0
 11
16.5060823883
 21
-9.731766725
 31
0.0
  0
LINE
  5
B6
330
1F
100
AcDbEntity
  8
SK3
  6
SLD-Dashed
370
    18
100
AcDbLine
 10
16.5060823883
 20
-9.731766725
 30
0.0
 11
16.5341563912
 21
-10.194447075
 31
0.0
  0
LINE
  5
B7
330
1F
100
AcDbEntity
  8
SK3
  6
SLD-Dashed
370
    18
100
AcDbLine
 10
16.5341563912
 20
-10.194447075
 30
0.0
 11
16.6173413455
 21
-10.6126102065
 31
0.0
  0
LINE
  5
B8
330
1F
100
AcDbEntity
  8
SK3
  6
SLD-Dashed
370
    18
100
AcDbLine
 10
16.6173413455
 20
-10.6126102065
 30
0.0
 11
16.7525643972
 21
-10.9708091637
 31
0.0
  0
LINE
  5
B9
330
1F
100
AcDbEntity
  8
SK3
  6
SLD-Dashed
370
    18
100
AcDbLine
 10
16.7525643972
 20
-10.9708091637
 30
0.0
 11
16.9348304035
 21
-11.2558120691
 31
0.0
  0
LINE
  5
BA
330
1F
100
AcDbEntity
  8
SK3
  6
SLD-Dashed
370
    18
100
AcDbLine
 10
16.9348304035
 20
-11.2558120691
 30
0.0
 11
17.1574064541
 21
-11.4570909087
 31
0.0
  0
LINE
  5
BB
330
1F
100
AcDbEntity
  8
SK3
  6
SLD-Dashed
370
    18
100
AcDbLine
 10
17.1574064541
 20
-11.4570909087
 30
0.0
 11
17.4120705846
 21
-11.5672104376
 31
0.0
  0
LINE
  5
BC
330
1F
100
AcDbEntity
  8
SK3
  6
SLD-Dashed
370
    18
100
AcDbLine
 10
17.4120705846
 20
-11.5672104376
 30
0.0
 11
17.689415496
 21
-11.5821028379
 31
0.0
  0
LINE
  5
BD
330
1F
100
AcDbEntity
  8
SK3
  6
SLD-Dashed
370
    18
100
AcDbLine
 10
17.689415496
 20
-11.5821028379
 30
0.0
 11
17.9791960612
 21
-11.5012179839
 31
0.0
  0
LINE
  5
BE
330
1F
100
AcDbEntity
  8
SK3
  6
SLD-Dashed
370
    18
100
AcDbLine
 10
17.9791960612
 20
-11.5012179839
 30
0.0
 11
18.2707077792
 21
-11.3275437641
 31
0.0
  0
LINE
  5
BF
330
1F
100
AcDbEntity
  8
SK3
  6
SLD-Dashed
370
    18
100
AcDbLine
 10
18.2707077792
 20
-11.3275437641
 30
0.0
 11
18.5531822006
 21
-11.0674957081
 31
0.0
  0
LINE
  5
C0
330
1F
100
AcDbEntity
  8
SK3
  6
SLD-Dashed
370
    18
100
AcDbLine
 10
18.5531822006
 20
-11.0674957081
 30
0.0
 11
18.8161847139
 21
-10.730679997
 31
0.0
  0
LINE
  5
C1
330
1F
100
AcDbEntity
  8
SK3
  6
SLD-Dashed
370
    18
100
AcDbLine
 10
18.8161847139
 20
-10.730679997
 30
0.0
 11
19.05
 21
-10.329538611
 31
0.0
  0
LINE
  5
C2
330
1F
100
AcDbEntity
  8
SK3
  6
SLD-Dashed
370
    18
100
AcDbLine
 10
19.05
 20
-6.511218589
 30
0.0
 11
19.05
 21
-11.9492786353
 31
0.0
  0
LINE
  5
C3
330
1F
100
AcDbEntity
  8
SK3
  6
SLD-Dashed
370
    18
100
AcDbLine
 10
5.6259851119
 20
-8.943826748
 30
0.0
 11
5.5351771035
 21
-8.5053406669
 31
0.0
  0
LINE
  5
C4
330
1F
100
AcDbEntity
  8
SK3
  6
SLD-Dashed
370
    18
100
AcDbLine
 10
5.5351771035
 20
-8.5053406669
 30
0.0
 11
5.4010979853
 21
-8.0888421089
 31
0.0
  0
LINE
  5
C5
330
1F
100
AcDbEntity
  8
SK3
  6
SLD-Dashed
370
    18
100
AcDbLine
 10
5.4010979853
 20
-8.0888421089
 30
0.0
 11
5.230471044
 21
-7.7152160508
 31
0.0
  0
LINE
  5
C6
330
1F
100
AcDbEntity
  8
SK3
  6
SLD-Dashed
370
    18
100
AcDbLine
 10
5.230471044
 20
-7.7152160508
 30
0.0
 11
5.031852227
 21
-7.4031976633
 31
0.0
  0
LINE
  5
C7
330
1F
100
AcDbEntity
  8
SK3
  6
SLD-Dashed
370
    18
100
AcDbLine
 10
5.031852227
 20
-7.4031976633
 30
0.0
 11
4.8152011111
 21
-7.1684328512
 31
0.0
  0
LINE
  5
C8
330
1F
100
AcDbEntity
  8
SK3
  6
SLD-Dashed
370
    18
100
AcDbLine
 10
4.8152011111
 20
-7.1684328512
 30
0.0
 11
4.5913814879
 21
-7.0226937025
 31
0.0
  0
LINE
  5
C9
330
1F
100
AcDbEntity
  8
SK3
  6
SLD-Dashed
370
    18
100
AcDbLine
 10
4.5913814879
 20
-7.0226937025
 30
0.0
 11
4.371616608
 21
-6.9732881867
 31
0.0
  0
LINE
  5
CA
330
1F
100
AcDbEntity
  8
SK3
  6
SLD-Dashed
370
    18
100
AcDbLine
 10
4.371616608
 20
-6.9732881867
 30
0.0
 11
4.1669263999
 21
-7.0226937025
 31
0.0
  0
LINE
  5
CB
330
1F
100
AcDbEntity
  8
SK3
  6
SLD-Dashed
370
    18
100
AcDbLine
 10
4.1669263999
 20
-7.0226937025
 30
0.0
 11
3.9875748856
 21
-7.1684328512
 31
0.0
  0
LINE
  5
CC
330
1F
100
AcDbEntity
  8
SK3
  6
SLD-Dashed
370
    18
100
AcDbLine
 10
3.9875748856
 20
-7.1684328512
 30
0.0
 11
3.8425554988
 21
-7.4031976633
 31
0.0
  0
LINE
  5
CD
330
1F
100
AcDbEntity
  8
SK3
  6
SLD-Dashed
370
    18
100
AcDbLine
 10
3.8425554988
 20
-7.4031976633
 30
0.0
 11
3.7391401171
 21
-7.7152160508
 31
0.0
  0
LINE
  5
CE
330
1F
100
AcDbEntity
  8
SK3
  6
SLD-Dashed
370
    18
100
AcDbLine
 10
3.7391401171
 20
-7.7152160508
 30
0.0
 11
3.6825144197
 21
-8.0888421089
 31
0.0
  0
LINE
  5
CF
330
1F
100
AcDbEntity
  8
SK3
  6
SLD-Dashed
370
    18
100
AcDbLine
 10
3.6825144197
 20
-8.0888421089
 30
0.0
 11
3.6755178553
 21
-8.5053406669
 31
0.0
  0
LINE
  5
D0
330
1F
100
AcDbEntity
  8
SK3
  6
SLD-Dashed
370
    18
100
AcDbLine
 10
3.6755178553
 20
-8.5053406669
 30
0.0
 11
3.718501261
 21
-8.943826748
 31
0.0
  0
LINE
  5
D1
330
1F
100
AcDbEntity
  8
SK3
  6
SLD-Dashed
370
    18
100
AcDbLine
 10
3.718501261
 20
-8.943826748
 30
0.0
 11
3.8093092693
 21
-9.382312829
 31
0.0
  0
LINE
  5
D2
330
1F
100
AcDbEntity
  8
SK3
  6
SLD-Dashed
370
    18
100
AcDbLine
 10
3.8093092693
 20
-9.382312829
 30
0.0
 11
3.9433883876
 21
-9.798811387
 31
0.0
  0
LINE
  5
D3
330
1F
100
AcDbEntity
  8
SK3
  6
SLD-Dashed
370
    18
100
AcDbLine
 10
3.9433883876
 20
-9.798811387
 30
0.0
 11
4.1140153288
 21
-10.1724374451
 31
0.0
  0
LINE
  5
D4
330
1F
100
AcDbEntity
  8
SK3
  6
SLD-Dashed
370
    18
100
AcDbLine
 10
4.1140153288
 20
-10.1724374451
 30
0.0
 11
4.3126341459
 21
-10.4844558326
 31
0.0
  0
LINE
  5
D5
330
1F
100
AcDbEntity
  8
SK3
  6
SLD-Dashed
370
    18
100
AcDbLine
 10
4.3126341459
 20
-10.4844558326
 30
0.0
 11
4.5292852618
 21
-10.7192206447
 31
0.0
  0
LINE
  5
D6
330
1F
100
AcDbEntity
  8
SK3
  6
SLD-Dashed
370
    18
100
AcDbLine
 10
4.5292852618
 20
-10.7192206447
 30
0.0
 11
4.7531048849
 21
-10.8649597934
 31
0.0
  0
LINE
  5
D7
330
1F
100
AcDbEntity
  8
SK3
  6
SLD-Dashed
370
    18
100
AcDbLine
 10
4.7531048849
 20
-10.8649597934
 30
0.0
 11
4.9728697649
 21
-10.9143653093
 31
0.0
  0
LINE
  5
D8
330
1F
100
AcDbEntity
  8
SK3
  6
SLD-Dashed
370
    18
100
AcDbLine
 10
4.9728697649
 20
-10.9143653093
 30
0.0
 11
5.1775599729
 21
-10.8649597934
 31
0.0
  0
LINE
  5
D9
330
1F
100
AcDbEntity
  8
SK3
  6
SLD-Dashed
370
    18
100
AcDbLine
 10
5.1775599729
 20
-10.8649597934
 30
0.0
 11
5.3569114873
 21
-10.7192206447
 31
0.0
  0
LINE
  5
DA
330
1F
100
AcDbEntity
  8
SK3
  6
SLD-Dashed
370
    18
100
AcDbLine
 10
5.3569114873
 20
-10.7192206447
 30
0.0
 11
5.5019308741
 21
-10.4844558326
 31
0.0
  0
LINE
  5
DB
330
1F
100
AcDbEntity
  8
SK3
  6
SLD-Dashed
370
    18
100
AcDbLine
 10
5.5019308741
 20
-10.4844558326
 30
0.0
 11
5.6053462557
 21
-10.1724374451
 31
0.0
  0
LINE
  5
DC
330
1F
100
AcDbEntity
  8
SK3
  6
SLD-Dashed
370
    18
100
AcDbLine
 10
5.6053462557
 20
-10.1724374451
 30
0.0
 11
5.6619719532
 21
-9.798811387
 31
0.0
  0
LINE
  5
DD
330
1F
100
AcDbEntity
  8
SK3
  6
SLD-Dashed
370
    18
100
AcDbLine
 10
5.6619719532
 20
-9.798811387
 30
0.0
 11
5.6689685176
 21
-9.382312829
 31
0.0
  0
LINE
  5
DE
330
1F
100
AcDbEntity
  8
SK3
  6
SLD-Dashed
370
    18
100
AcDbLine
 10
5.6689685176
 20
-9.382312829
 30
0.0
 11
5.6259851119
 21
-8.943826748
 31
0.0
  0
LINE
  5
DF
330
1F
100
AcDbEntity
  8
SK3
  6
SLD-Dashed
370
    18
100
AcDbLine
 10
18.4408128517
 20
-8.8714518524
 30
0.0
 11
18.4795661481
 21
-8.469086838
 31
0.0
  0
LINE
  5
E0
330
1F
100
AcDbEntity
  8
SK3
  6
SLD-Dashed
370
    18
100
AcDbLine
 10
18.4795661481
 20
-8.469086838
 30
0.0
 11
18.4588974842
 21
-8.0920038972
 31
0.0
  0
LINE
  5
E1
330
1F
100
AcDbEntity
  8
SK3
  6
SLD-Dashed
370
    18
100
AcDbLine
 10
18.4588974842
 20
-8.0920038972
 30
0.0
 11
18.3801055482
 21
-7.7638965381
 31
0.0
  0
LINE
  5
E2
330
1F
100
AcDbEntity
  8
SK3
  6
SLD-Dashed
370
    18
100
AcDbLine
 10
18.3801055482
 20
-7.7638965381
 30
0.0
 11
18.248141127
 21
-7.5053809527
 31
0.0
  0
LINE
  5
E3
330
1F
100
AcDbEntity
  8
SK3
  6
SLD-Dashed
370
    18
100
AcDbLine
 10
18.248141127
 20
-7.5053809527
 30
0.0
 11
18.0712960308
 21
-7.3327006259
 31
0.0
  0
LINE
  5
E4
330
1F
100
AcDbEntity
  8
SK3
  6
SLD-Dashed
370
    18
100
AcDbLine
 10
18.0712960308
 20
-7.3327006259
 30
0.0
 11
17.8606820871
 21
-7.2567056979
 31
0.0
  0
LINE
  5
E5
330
1F
100
AcDbEntity
  8
SK3
  6
SLD-Dashed
370
    18
100
AcDbLine
 10
17.8606820871
 20
-7.2567056979
 30
0.0
 11
17.6295329448
 21
-7.2821712094
 31
0.0
  0
LINE
  5
E6
330
1F
100
AcDbEntity
  8
SK3
  6
SLD-Dashed
370
    18
100
AcDbLine
 10
17.6295329448
 20
-7.2821712094
 30
0.0
 11
17.3923725545
 21
-7.4074970686
 31
0.0
  0
LINE
  5
E7
330
1F
100
AcDbEntity
  8
SK3
  6
SLD-Dashed
370
    18
100
AcDbLine
 10
17.3923725545
 20
-7.4074970686
 30
0.0
 11
17.1641025758
 21
-7.6248085909
 31
0.0
  0
LINE
  5
E8
330
1F
100
AcDbEntity
  8
SK3
  6
SLD-Dashed
370
    18
100
AcDbLine
 10
17.1641025758
 20
-7.6248085909
 30
0.0
 11
16.959066051
 21
-7.9204512942
 31
0.0
  0
LINE
  5
E9
330
1F
100
AcDbEntity
  8
SK3
  6
SLD-Dashed
370
    18
100
AcDbLine
 10
16.959066051
 20
-7.9204512942
 30
0.0
 11
16.7901461789
 21
-8.2758488601
 31
0.0
  0
LINE
  5
EA
330
1F
100
AcDbEntity
  8
SK3
  6
SLD-Dashed
370
    18
100
AcDbLine
 10
16.7901461789
 20
-8.2758488601
 30
0.0
 11
16.6679568163
 21
-8.6686703525
 31
0.0
  0
LINE
  5
EB
330
1F
100
AcDbEntity
  8
SK3
  6
SLD-Dashed
370
    18
100
AcDbLine
 10
16.6679568163
 20
-8.6686703525
 30
0.0
 11
16.6001755704
 21
-9.0742333523
 31
0.0
  0
LINE
  5
EC
330
1F
100
AcDbEntity
  8
SK3
  6
SLD-Dashed
370
    18
100
AcDbLine
 10
16.6001755704
 20
-9.0742333523
 30
0.0
 11
16.5910613861
 21
-9.4670548447
 31
0.0
  0
LINE
  5
ED
330
1F
100
AcDbEntity
  8
SK3
  6
SLD-Dashed
370
    18
100
AcDbLine
 10
16.5910613861
 20
-9.4670548447
 30
0.0
 11
16.6411869411
 21
-9.8224524106
 31
0.0
  0
LINE
  5
EE
330
1F
100
AcDbEntity
  8
SK3
  6
SLD-Dashed
370
    18
100
AcDbLine
 10
16.6411869411
 20
-9.8224524106
 30
0.0
 11
16.7474026624
 21
-10.1180951139
 31
0.0
  0
LINE
  5
EF
330
1F
100
AcDbEntity
  8
SK3
  6
SLD-Dashed
370
    18
100
AcDbLine
 10
16.7474026624
 20
-10.1180951139
 30
0.0
 11
16.9030346256
 21
-10.3354066363
 31
0.0
  0
LINE
  5
F0
330
1F
100
AcDbEntity
  8
SK3
  6
SLD-Dashed
370
    18
100
AcDbLine
 10
16.9030346256
 20
-10.3354066363
 30
0.0
 11
17.0983039021
 21
-10.4607324955
 31
0.0
  0
LINE
  5
F1
330
1F
100
AcDbEntity
  8
SK3
  6
SLD-Dashed
370
    18
100
AcDbLine
 10
17.0983039021
 20
-10.4607324955
 30
0.0
 11
17.3209410051
 21
-10.486198007
 31
0.0
  0
LINE
  5
F2
330
1F
100
AcDbEntity
  8
SK3
  6
SLD-Dashed
370
    18
100
AcDbLine
 10
17.3209410051
 20
-10.486198007
 30
0.0
 11
17.5569568267
 21
-10.4102030789
 31
0.0
  0
LINE
  5
F3
330
1F
100
AcDbEntity
  8
SK3
  6
SLD-Dashed
370
    18
100
AcDbLine
 10
17.5569568267
 20
-10.4102030789
 30
0.0
 11
17.7915216246
 21
-10.2375227522
 31
0.0
  0
LINE
  5
F4
330
1F
100
AcDbEntity
  8
SK3
  6
SLD-Dashed
370
    18
100
AcDbLine
 10
17.7915216246
 20
-10.2375227522
 30
0.0
 11
18.0098968302
 21
-9.9790071667
 31
0.0
  0
LINE
  5
F5
330
1F
100
AcDbEntity
  8
SK3
  6
SLD-Dashed
370
    18
100
AcDbLine
 10
18.0098968302
 20
-9.9790071667
 30
0.0
 11
18.1983611259
 21
-9.6508998076
 31
0.0
  0
LINE
  5
F6
330
1F
100
AcDbEntity
  8
SK3
  6
SLD-Dashed
370
    18
100
AcDbLine
 10
18.1983611259
 20
-9.6508998076
 30
0.0
 11
18.3450726071
 21
-9.2738168668
 31
0.0
  0
LINE
  5
F7
330
1F
100
AcDbEntity
  8
SK3
  6
SLD-Dashed
370
    18
100
AcDbLine
 10
18.3450726071
 20
-9.2738168668
 30
0.0
 11
18.4408128517
 21
-8.8714518524
 31
0.0
  0
LINE
  5
F8
330
1F
100
AcDbEntity
  8
SK3
  6
SLD-Dashed
370
    18
100
AcDbLine
 10
5.641206471
 20
-8.9078631218
 30
0.0
 11
5.6781658386
 21
-9.3121568571
 31
0.0
  0
LINE
  5
F9
330
1F
100
AcDbEntity
  8
SK3
  6
SLD-Dashed
370
    18
100
AcDbLine
 10
5.6781658386
 20
-9.3121568571
 30
0.0
 11
5.6633630452
 21
-9.6910473301
 31
0.0
  0
LINE
  5
FA
330
1F
100
AcDbEntity
  8
SK3
  6
SLD-Dashed
370
    18
100
AcDbLine
 10
5.6633630452
 20
-9.6910473301
 30
0.0
 11
5.5977282047
 21
-10.020727459
 31
0.0
  0
LINE
  5
FB
330
1F
100
AcDbEntity
  8
SK3
  6
SLD-Dashed
370
    18
100
AcDbLine
 10
5.5977282047
 20
-10.020727459
 30
0.0
 11
5.4853853955
 21
-10.2804822287
 31
0.0
  0
LINE
  5
FC
330
1F
100
AcDbEntity
  8
SK3
  6
SLD-Dashed
370
    18
100
AcDbLine
 10
5.4853853955
 20
-10.2804822287
 30
0.0
 11
5.3333935295
 21
-10.4539902918
 31
0.0
  0
LINE
  5
FD
330
1F
100
AcDbEntity
  8
SK3
  6
SLD-Dashed
370
    18
100
AcDbLine
 10
5.3333935295
 20
-10.4539902918
 30
0.0
 11
5.1513028146
 21
-10.5303494985
 31
0.0
  0
LINE
  5
FE
330
1F
100
AcDbEntity
  8
SK3
  6
SLD-Dashed
370
    18
100
AcDbLine
 10
5.1513028146
 20
-10.5303494985
 30
0.0
 11
4.9505546801
 21
-10.5047619191
 31
0.0
  0
LINE
  5
FF
330
1F
100
AcDbEntity
  8
SK3
  6
SLD-Dashed
370
    18
100
AcDbLine
 10
4.9505546801
 20
-10.5047619191
 30
0.0
 11
4.7437628696
 21
-10.3788353153
 31
0.0
  0
LINE
  5
100
330
1F
100
AcDbEntity
  8
SK3
  6
SLD-Dashed
370
    18
100
AcDbLine
 10
4.7437628696
 20
-10.3788353153
 30
0.0
 11
4.5439208732
 21
-10.1604821188
 31
0.0
  0
LINE
  5
101
330
1F
100
AcDbEntity
  8
SK3
  6
SLD-Dashed
370
    18
100
AcDbLine
 10
4.5439208732
 20
-10.1604821188
 30
0.0
 11
4.3635854983
 21
-9.8634222638
 31
0.0
  0
LINE
  5
102
330
1F
100
AcDbEntity
  8
SK3
  6
SLD-Dashed
370
    18
100
AcDbLine
 10
4.3635854983
 20
-9.8634222638
 30
0.0
 11
4.2140878798
 21
-9.5063211136
 31
0.0
  0
LINE
  5
103
330
1F
100
AcDbEntity
  8
SK3
  6
SLD-Dashed
370
    18
100
AcDbLine
 10
4.2140878798
 20
-9.5063211136
 30
0.0
 11
4.104821503
 21
-9.1116166469
 31
0.0
  0
LINE
  5
104
330
1F
100
AcDbEntity
  8
SK3
  6
SLD-Dashed
370
    18
100
AcDbLine
 10
4.104821503
 20
-9.1116166469
 30
0.0
 11
4.042651976
 21
-8.7041095968
 31
0.0
  0
LINE
  5
105
330
1F
100
AcDbEntity
  8
SK3
  6
SLD-Dashed
370
    18
100
AcDbLine
 10
4.042651976
 20
-8.7041095968
 30
0.0
 11
4.031485639
 21
-8.30940513
 31
0.0
  0
LINE
  5
106
330
1F
100
AcDbEntity
  8
SK3
  6
SLD-Dashed
370
    18
100
AcDbLine
 10
4.031485639
 20
-8.30940513
 30
0.0
 11
4.072024114
 21
-7.9523039799
 31
0.0
  0
LINE
  5
107
330
1F
100
AcDbEntity
  8
SK3
  6
SLD-Dashed
370
    18
100
AcDbLine
 10
4.072024114
 20
-7.9523039799
 30
0.0
 11
4.1617202194
 21
-7.6552441249
 31
0.0
  0
LINE
  5
108
330
1F
100
AcDbEntity
  8
SK3
  6
SLD-Dashed
370
    18
100
AcDbLine
 10
4.1617202194
 20
-7.6552441249
 30
0.0
 11
4.2949380192
 21
-7.4368909283
 31
0.0
  0
LINE
  5
109
330
1F
100
AcDbEntity
  8
SK3
  6
SLD-Dashed
370
    18
100
AcDbLine
 10
4.2949380192
 20
-7.4368909283
 30
0.0
 11
4.4633069489
 21
-7.3109643245
 31
0.0
  0
LINE
  5
10A
330
1F
100
AcDbEntity
  8
SK3
  6
SLD-Dashed
370
    18
100
AcDbLine
 10
4.4633069489
 20
-7.3109643245
 30
0.0
 11
4.6562477696
 21
-7.2853767451
 31
0.0
  0
LINE
  5
10B
330
1F
100
AcDbEntity
  8
SK3
  6
SLD-Dashed
370
    18
100
AcDbLine
 10
4.6562477696
 20
-7.2853767451
 30
0.0
 11
4.8616372998
 21
-7.3617359519
 31
0.0
  0
LINE
  5
10C
330
1F
100
AcDbEntity
  8
SK3
  6
SLD-Dashed
370
    18
100
AcDbLine
 10
4.8616372998
 20
-7.3617359519
 30
0.0
 11
5.0665701601
 21
-7.535244015
 31
0.0
  0
LINE
  5
10D
330
1F
100
AcDbEntity
  8
SK3
  6
SLD-Dashed
370
    18
100
AcDbLine
 10
5.0665701601
 20
-7.535244015
 30
0.0
 11
5.2581696651
 21
-7.7949987847
 31
0.0
  0
LINE
  5
10E
330
1F
100
AcDbEntity
  8
SK3
  6
SLD-Dashed
370
    18
100
AcDbLine
 10
5.2581696651
 20
-7.7949987847
 30
0.0
 11
5.4243969133
 21
-8.1246789135
 31
0.0
  0
LINE
  5
10F
330
1F
100
AcDbEntity
  8
SK3
  6
SLD-Dashed
370
    18
100
AcDbLine
 10
5.4243969133
 20
-8.1246789135
 30
0.0
 11
5.5548072353
 21
-8.5035693866
 31
0.0
  0
LINE
  5
110
330
1F
100
AcDbEntity
  8
SK3
  6
SLD-Dashed
370
    18
100
AcDbLine
 10
5.5548072353
 20
-8.5035693866
 30
0.0
 11
5.641206471
 21
-8.9078631218
 31
0.0
  0
LINE
  5
111
330
1F
100
AcDbEntity
  8
SK3
  6
SLD-Dashed
370
    18
100
AcDbLine
 10
-6.35
 20
-4.8322193065
 30
0.0
 11
-6.35
 21
-4.7539700023
 31
0.0
  0
LINE
  5
112
330
1F
100
AcDbEntity
  8
SK3
  6
SLD-Dashed
370
    18
100
AcDbLine
 10
-6.3499999999
 20
-1.6636950701
 30
0.0
 11
-6.3499999999
 21
-1.8523642754
 31
0.0
  0
LINE
  5
113
330
1F
100
AcDbEntity
  8
SK3
  6
SLD-Dashed
370
    18
100
AcDbLine
 10
43.45
 20
-9.525
 30
0.0
 11
43.45
 21
9.525
 31
0.0
  0
LINE
  5
114
330
1F
100
AcDbEntity
  8
SK3
  6
SLD-Dashed
370
    18
100
AcDbLine
 10
44.45
 20
-10.0992102769
 30
0.0
 11
44.45
 21
10.0992102769
 31
0.0
  0
LINE
  5
115
330
1F
100
AcDbEntity
  8
SK3
  6
SLD-Dashed
370
    18
100
AcDbLine
 10
-6.55
 20
-2.0375595099
 30
0.0
 11
-6.55
 21
10.0903408104
 31
0.0
  0
LINE
  5
116
330
1F
100
AcDbEntity
  8
SK3
  6
SLD-Dashed
370
    18
100
AcDbLine
 10
-6.3499999999
 20
-1.8523642754
 30
0.0
 11
-6.3499999999
 21
9.9
 31
0.0
  0
LINE
  5
117
330
1F
100
AcDbEntity
  8
SK3
  6
SLD-Dashed
370
    18
100
AcDbLine
 10
-6.55
 20
2.0375595099
 30
0.0
 11
-6.55
 21
-10.0903408104
 31
0.0
  0
LINE
  5
118
330
1F
100
AcDbEntity
  8
SK3
  6
SLD-Dashed
370
    18
100
AcDbLine
 10
-15.55
 20
-10.0968607382
 30
0.0
 11
-15.55
 21
10.0968607382
 31
0.0
  0
LINE
  5
119
330
1F
100
AcDbEntity
  8
SK3
  6
SLD-Dashed
370
    18
100
AcDbLine
 10
-15.7499999999
 20
-9.9
 30
0.0
 11
-15.7499999999
 21
9.9
 31
0.0
  0
LINE
  5
11A
330
1F
100
AcDbEntity
  8
SK3
  6
SLD-Dashed
370
    18
100
AcDbLine
 10
-6.3499999999
 20
1.6636950701
 30
0.0
 11
-6.3499999999
 21
-9.5241706492
 31
0.0
  0
LINE
  5
11B
330
1F
100
AcDbEntity
  8
SK3
  6
SLD-Dashed
370
    18
100
AcDbLine
 10
-6.3499999999
 20
-1.6636950701
 30
0.0
 11
-6.3499999999
 21
9.5241706492
 31
0.0
  0
LINE
  5
11C
330
1F
100
AcDbEntity
  8
SK3
  6
SLD-Dashed
370
    18
100
AcDbLine
 10
-18.75
 20
-9.525
 30
0.0
 11
-18.75
 21
9.525
 31
0.0
  0
LINE
  5
11D
330
1F
100
AcDbEntity
  8
SK3
  6
SLD-Dashed
370
    18
100
AcDbLine
 10
-15.75
 20
9.5127747308
 30
0.0
 11
-15.75
 21
-9.5127747308
 31
0.0
  0
LINE
  5
11E
330
1F
100
AcDbEntity
  8
SK3
  6
SLD-Dashed
370
    18
100
AcDbLine
 10
-20.4196474537
 20
-6.74624
 30
0.0
 11
-20.4196474537
 21
6.74624
 31
0.0
  0
LINE
  5
11F
330
1F
100
AcDbEntity
  8
SK3
  6
SLD-Dashed
370
    18
100
AcDbLine
 10
-66.6824940192
 20
-8.235
 30
0.0
 11
-66.6824940192
 21
8.235
 31
0.0
  0
LINE
  5
120
330
1F
100
AcDbEntity
  8
SK3
  6
SLD-Dashed
370
    18
100
AcDbLine
 10
-68.25
 20
-9.14
 30
0.0
 11
-68.25
 21
9.14
 31
0.0
  0
LINE
  5
121
330
1F
100
AcDbEntity
  8
SK3
  6
SLD-Dashed
370
    18
100
AcDbLine
 10
-6.3499999999
 20
1.8523642755
 30
0.0
 11
-6.3499999999
 21
-9.9
 31
0.0
  0
LINE
  5
122
330
1F
100
AcDbEntity
  8
SK3
  6
SLD-Dashed
370
    18
100
AcDbLine
 10
-63.48
 20
-8.235
 30
0.0
 11
-63.48
 21
8.235
 31
0.0
  0
LINE
  5
123
330
1F
100
AcDbEntity
  8
SK3
  6
SLD-Dashed
370
    18
100
AcDbLine
 10
-62.6204640132
 20
-6.74624
 30
0.0
 11
-62.6204640132
 21
6.74624
 31
0.0
  0
LINE
  5
124
330
1F
100
AcDbEntity
  8
SK3
  6
SLD-Dashed
370
    18
100
AcDbLine
 10
10.925
 20
-20.225
 30
0.0
 11
27.175
 21
-20.225
 31
0.0
  0
LINE
  5
125
330
1F
100
AcDbEntity
  8
SK3
  6
SLD-Dashed
370
    18
100
AcDbLine
 10
18.7235432549
 20
-22.7849900794
 30
0.0
 11
18.7235432549
 21
-29.8048565278
 31
0.0
  0
LINE
  5
126
330
1F
100
AcDbEntity
  8
SK3
  6
SLD-Dashed
370
    18
100
AcDbLine
 10
18.3524327989
 20
-22.785
 30
0.0
 11
18.3524327989
 21
-30.2220273098
 31
0.0
  0
LINE
  5
127
330
1F
100
AcDbEntity
  8
SK3
  6
SLD-Dashed
370
    18
100
AcDbLine
 10
16.5167757699
 20
-22.41
 30
0.0
 11
10.925
 21
-22.41
 31
0.0
  0
LINE
  5
128
330
1F
100
AcDbEntity
  8
SK3
  6
SLD-Dashed
370
    18
100
AcDbLine
 10
18.352432055
 20
-30.2219192224
 30
0.0
 11
18.3524327989
 21
-22.785
 31
0.0
  0
LINE
  5
129
330
1F
100
AcDbEntity
  8
SK3
  6
SLD-Dashed
370
    18
100
AcDbLine
 10
18.7234470996
 20
-29.8048497004
 30
0.0
 11
18.7234470996
 21
-22.7849944262
 31
0.0
  0
LINE
  5
12A
330
1F
100
AcDbEntity
  8
SK3
  6
SLD-Dashed
370
    18
100
AcDbLine
 10
19.05
 20
-21.5031752074
 30
0.0
 11
19.049999256
 21
-22.0896342505
 31
0.0
  0
LINE
  5
12B
330
1F
100
AcDbEntity
  8
SK3
  6
SLD-Dashed
370
    18
100
AcDbLine
 10
19.0499986531
 20
-22.089675116
 30
0.0
 11
19.05
 21
-21.5031752074
 31
0.0
  0
LINE
  5
12C
330
1F
100
AcDbEntity
  8
SK3
  6
SLD-Dashed
370
    18
100
AcDbLine
 10
3.5452916241
 20
-29.8048664484
 30
0.0
 11
3.5452916241
 21
-22.785
 31
0.0
  0
LINE
  5
12D
330
1F
100
AcDbEntity
  8
SK3
  6
SLD-Dashed
370
    18
100
AcDbLine
 10
7.8539870535
 20
-30.2255814201
 30
0.0
 11
3.95
 21
-30.2255814201
 31
0.0
  0
LINE
  5
12E
330
1F
100
AcDbEntity
  8
SK3
  6
SLD-Dashed
370
    18
100
AcDbLine
 10
18.3
 20
-30.2254693878
 30
0.0
 11
14.3759504666
 21
-30.2254693878
 31
0.0
  0
LINE
  5
12F
330
1F
100
AcDbEntity
  8
1
  6
SLD-Dashed
370
    18
100
AcDbLine
 10
9.2
 20
-27.8050456342
 30
0.0
 11
9.2
 21
-27.7691663541
 31
0.0
  0
LINE
  5
130
330
1F
100
AcDbEntity
  8
1
  6
SLD-Dashed
370
    18
100
AcDbLine
 10
13.03
 20
-27.7691663541
 30
0.0
 11
13.03
 21
-27.8050456342
 31
0.0
  0
LINE
  5
131
330
1F
100
AcDbEntity
  8
SK3
  6
SLD-Dashed
370
    18
100
AcDbLine
 10
18.7047083759
 20
29.8048664484
 30
0.0
 11
18.7047083759
 21
25.5791202528
 31
0.0
  0
LINE
  5
132
330
1F
100
AcDbEntity
  8
SK3
  6
SLD-Dashed
370
    18
100
AcDbLine
 10
3.545388845
 20
25.5789825872
 30
0.0
 11
3.545388845
 21
29.8048552742
 31
0.0
  0
LINE
  5
133
330
1F
100
AcDbEntity
  8
SK3
  6
SLD-Dashed
370
    18
100
AcDbLine
 10
14.3760129465
 20
30.2255814201
 30
0.0
 11
18.3
 21
30.2255814201
 31
0.0
  0
LINE
  5
134
330
1F
100
AcDbEntity
  8
SK3
  6
SLD-Dashed
370
    18
100
AcDbLine
 10
3.95
 20
30.2254693878
 30
0.0
 11
7.8540495334
 21
30.2254693878
 31
0.0
  0
LINE
  5
135
330
1F
100
AcDbEntity
  8
1
  6
SLD-Dashed
370
    18
100
AcDbLine
 10
9.2
 20
27.8050456342
 30
0.0
 11
9.2
 21
27.7691663541
 31
0.0
  0
LINE
  5
136
330
1F
100
AcDbEntity
  8
1
  6
SLD-Dashed
370
    18
100
AcDbLine
 10
13.03
 20
27.7691663541
 30
0.0
 11
13.03
 21
27.8050456342
 31
0.0
  0
LINE
  5
137
330
1F
100
AcDbEntity
  8
SK3
  6
SLD-Dashed
370
    18
100
AcDbLine
 10
16.5167757699
 20
-22.41
 30
0.0
 11
3.5452916241
 21
-22.41
 31
0.0
  0
LINE
  5
138
330
1F
100
AcDbEntity
  8
SK3
  6
SLD-Dashed
370
    18
100
AcDbLine
 10
3.5452916241
 20
-22.785
 30
0.0
 11
18.3524327989
 21
-22.785
 31
0.0
  0
LINE
  5
139
330
1F
100
AcDbEntity
  8
SK3
  6
SLD-Dashed
370
    18
100
AcDbLine
 10
3.7
 20
24.83
 30
0.0
 11
18.55
 21
24.83
 31
0.0
  0
LINE
  5
13A
330
1F
100
AcDbEntity
  8
SK3
  6
SLD-Dashed
370
    18
100
AcDbLine
 10
18.55
 20
25.205
 30
0.0
 11
3.7
 21
25.205
 31
0.0
  0
LINE
  5
13B
330
1F
100
AcDbEntity
  8
SK3
  6
SLD-Dashed
370
    18
100
AcDbLine
 10
26.2255
 20
-20.225
 30
0.0
 11
11.8871021027
 21
-20.225
 31
0.0
  0
LINE
  5
13C
330
1F
100
AcDbEntity
  8
SK3
  6
SLD-Dashed
370
    18
100
AcDbLine
 10
16.1
 20
20.43
 30
0.0
 11
6.1
 21
20.43
 31
0.0
  0
LINE
  5
13D
330
1F
100
AcDbEntity
  8
SK3
  6
SLD-Dashed
370
    18
100
AcDbLine
 10
6.1
 20
24.83
 30
0.0
 11
16.1
 21
24.83
 31
0.0
  0
LINE
  5
13E
330
1F
100
AcDbEntity
  8
SK3
  6
SLD-Dashed
370
    18
100
AcDbLine
 10
6.400000056
 20
20.13
 30
0.0
 11
15.8
 21
20.13
 31
0.0
  0
LINE
  5
13F
330
1F
100
AcDbEntity
  8
SK3
  6
SLD-Dashed
370
    18
100
AcDbLine
 10
18.3524327989
 20
-22.785
 30
0.0
 11
3.545388845
 21
-22.785
 31
0.0
  0
LINE
  5
140
330
1F
100
AcDbEntity
  8
SK3
  6
SLD-Dashed
370
    18
100
AcDbLine
 10
3.545388845
 20
-22.41
 30
0.0
 11
16.5167757699
 21
-22.41
 31
0.0
  0
LINE
  5
141
330
1F
100
AcDbEntity
  8
SK3
  6
SLD-Dashed
370
    18
100
AcDbLine
 10
16.6269146287
 20
8.8714518524
 30
0.0
 11
16.5881613323
 21
9.2738168668
 31
0.0
  0
LINE
  5
142
330
1F
100
AcDbEntity
  8
SK3
  6
SLD-Dashed
370
    18
100
AcDbLine
 10
16.5881613323
 20
9.2738168668
 30
0.0
 11
16.6088299962
 21
9.6508998076
 31
0.0
  0
LINE
  5
143
330
1F
100
AcDbEntity
  8
SK3
  6
SLD-Dashed
370
    18
100
AcDbLine
 10
16.6088299962
 20
9.6508998076
 30
0.0
 11
16.6876219323
 21
9.9790071667
 31
0.0
  0
LINE
  5
144
330
1F
100
AcDbEntity
  8
SK3
  6
SLD-Dashed
370
    18
100
AcDbLine
 10
16.6876219323
 20
9.9790071667
 30
0.0
 11
16.8195863534
 21
10.2375227522
 31
0.0
  0
LINE
  5
145
330
1F
100
AcDbEntity
  8
SK3
  6
SLD-Dashed
370
    18
100
AcDbLine
 10
16.8195863534
 20
10.2375227522
 30
0.0
 11
16.9964314497
 21
10.4102030789
 31
0.0
  0
LINE
  5
146
330
1F
100
AcDbEntity
  8
SK3
  6
SLD-Dashed
370
    18
100
AcDbLine
 10
16.9964314497
 20
10.4102030789
 30
0.0
 11
17.2070453933
 21
10.486198007
 31
0.0
  0
LINE
  5
147
330
1F
100
AcDbEntity
  8
SK3
  6
SLD-Dashed
370
    18
100
AcDbLine
 10
17.2070453933
 20
10.486198007
 30
0.0
 11
17.4381945356
 21
10.4607324955
 31
0.0
  0
LINE
  5
148
330
1F
100
AcDbEntity
  8
SK3
  6
SLD-Dashed
370
    18
100
AcDbLine
 10
17.4381945356
 20
10.4607324955
 30
0.0
 11
17.6753549259
 21
10.3354066363
 31
0.0
  0
LINE
  5
149
330
1F
100
AcDbEntity
  8
SK3
  6
SLD-Dashed
370
    18
100
AcDbLine
 10
17.6753549259
 20
10.3354066363
 30
0.0
 11
17.9036249046
 21
10.1180951139
 31
0.0
  0
LINE
  5
14A
330
1F
100
AcDbEntity
  8
SK3
  6
SLD-Dashed
370
    18
100
AcDbLine
 10
17.9036249046
 20
10.1180951139
 30
0.0
 11
18.1086614295
 21
9.8224524106
 31
0.0
  0
LINE
  5
14B
330
1F
100
AcDbEntity
  8
SK3
  6
SLD-Dashed
370
    18
100
AcDbLine
 10
18.1086614295
 20
9.8224524106
 30
0.0
 11
18.2775813016
 21
9.4670548447
 31
0.0
  0
LINE
  5
14C
330
1F
100
AcDbEntity
  8
SK3
  6
SLD-Dashed
370
    18
100
AcDbLine
 10
18.2775813016
 20
9.4670548447
 30
0.0
 11
18.3997706641
 21
9.0742333523
 31
0.0
  0
LINE
  5
14D
330
1F
100
AcDbEntity
  8
SK3
  6
SLD-Dashed
370
    18
100
AcDbLine
 10
18.3997706641
 20
9.0742333523
 30
0.0
 11
18.46755191
 21
8.6686703525
 31
0.0
  0
LINE
  5
14E
330
1F
100
AcDbEntity
  8
SK3
  6
SLD-Dashed
370
    18
100
AcDbLine
 10
18.46755191
 20
8.6686703525
 30
0.0
 11
18.4766660944
 21
8.2758488601
 31
0.0
  0
LINE
  5
14F
330
1F
100
AcDbEntity
  8
SK3
  6
SLD-Dashed
370
    18
100
AcDbLine
 10
18.4766660944
 20
8.2758488601
 30
0.0
 11
18.4265405394
 21
7.9204512942
 31
0.0
  0
LINE
  5
150
330
1F
100
AcDbEntity
  8
SK3
  6
SLD-Dashed
370
    18
100
AcDbLine
 10
18.4265405394
 20
7.9204512942
 30
0.0
 11
18.3203248181
 21
7.6248085909
 31
0.0
  0
LINE
  5
151
330
1F
100
AcDbEntity
  8
SK3
  6
SLD-Dashed
370
    18
100
AcDbLine
 10
18.3203248181
 20
7.6248085909
 30
0.0
 11
18.1646928549
 21
7.4074970686
 31
0.0
  0
LINE
  5
152
330
1F
100
AcDbEntity
  8
SK3
  6
SLD-Dashed
370
    18
100
AcDbLine
 10
18.1646928549
 20
7.4074970686
 30
0.0
 11
17.9694235784
 21
7.2821712094
 31
0.0
  0
LINE
  5
153
330
1F
100
AcDbEntity
  8
SK3
  6
SLD-Dashed
370
    18
100
AcDbLine
 10
17.9694235784
 20
7.2821712094
 30
0.0
 11
17.7467864754
 21
7.2567056979
 31
0.0
  0
LINE
  5
154
330
1F
100
AcDbEntity
  8
SK3
  6
SLD-Dashed
370
    18
100
AcDbLine
 10
17.7467864754
 20
7.2567056979
 30
0.0
 11
17.5107706538
 21
7.3327006259
 31
0.0
  0
LINE
  5
155
330
1F
100
AcDbEntity
  8
SK3
  6
SLD-Dashed
370
    18
100
AcDbLine
 10
17.5107706538
 20
7.3327006259
 30
0.0
 11
17.2762058558
 21
7.5053809527
 31
0.0
  0
LINE
  5
156
330
1F
100
AcDbEntity
  8
SK3
  6
SLD-Dashed
370
    18
100
AcDbLine
 10
17.2762058558
 20
7.5053809527
 30
0.0
 11
17.0578306503
 21
7.7638965381
 31
0.0
  0
LINE
  5
157
330
1F
100
AcDbEntity
  8
SK3
  6
SLD-Dashed
370
    18
100
AcDbLine
 10
17.0578306503
 20
7.7638965381
 30
0.0
 11
16.8693663545
 21
8.0920038972
 31
0.0
  0
LINE
  5
158
330
1F
100
AcDbEntity
  8
SK3
  6
SLD-Dashed
370
    18
100
AcDbLine
 10
16.8693663545
 20
8.0920038972
 30
0.0
 11
16.7226548734
 21
8.469086838
 31
0.0
  0
LINE
  5
159
330
1F
100
AcDbEntity
  8
SK3
  6
SLD-Dashed
370
    18
100
AcDbLine
 10
16.7226548734
 20
8.469086838
 30
0.0
 11
16.6269146287
 21
8.8714518524
 31
0.0
  0
LINE
  5
15A
330
1F
100
AcDbEntity
  8
SK3
  6
SLD-Dashed
370
    18
100
AcDbLine
 10
-6.3499999999
 20
1.6636950701
 30
0.0
 11
-6.3499999999
 21
1.8523642755
 31
0.0
  0
LINE
  5
15B
330
1F
100
AcDbEntity
  8
SK3
  6
SLD-Dashed
370
    18
100
AcDbLine
 10
-6.35
 20
4.8322193065
 30
0.0
 11
-6.35
 21
4.7539700023
 31
0.0
  0
LINE
  5
15C
330
1F
100
AcDbEntity
  8
SK3
  6
SLD-Dashed
370
    18
100
AcDbLine
 10
14.3760129465
 20
-30.2255814201
 30
0.0
 11
18.3
 21
-30.2255814201
 31
0.0
  0
LINE
  5
15D
330
1F
100
AcDbEntity
  8
1
  6
SLD-Dashed
370
    18
100
AcDbLine
 10
12.28
 20
-26.9870635676
 30
0.0
 11
9.95
 21
-26.9870635676
 31
0.0
  0
LINE
  5
15E
330
1F
100
AcDbEntity
  8
SK3
  6
SLD-Dashed
370
    18
100
AcDbLine
 10
3.95
 20
-30.2254693878
 30
0.0
 11
7.8540495334
 21
-30.2254693878
 31
0.0
  0
LINE
  5
15F
330
1F
100
AcDbEntity
  8
SK3
  6
SLD-Dashed
370
    18
100
AcDbLine
 10
3.545388845
 20
-22.785
 30
0.0
 11
3.545388845
 21
-29.8048552742
 31
0.0
  0
LINE
  5
160
330
1F
100
AcDbEntity
  8
SK3
  6
SLD-Dashed
370
    18
100
AcDbLine
 10
18.3
 20
30.2254693878
 30
0.0
 11
14.3759504666
 21
30.2254693878
 31
0.0
  0
LINE
  5
161
330
1F
100
AcDbEntity
  8
SK3
  6
SLD-Dashed
370
    18
100
AcDbLine
 10
18.704611155
 20
25.5789825872
 30
0.0
 11
18.704611155
 21
29.8048552742
 31
0.0
  0
LINE
  5
162
330
1F
100
AcDbEntity
  8
SK3
  6
SLD-Dashed
370
    18
100
AcDbLine
 10
3.5452916241
 20
29.8048664484
 30
0.0
 11
3.5452916241
 21
25.5791202528
 31
0.0
  0
LINE
  5
163
330
1F
100
AcDbEntity
  8
SK3
  6
SLD-Dashed
370
    18
100
AcDbLine
 10
7.8539870535
 20
30.2255814201
 30
0.0
 11
3.95
 21
30.2255814201
 31
0.0
  0
LINE
  5
164
330
1F
100
AcDbEntity
  8
1
  6
SLD-Dashed
370
    18
100
AcDbLine
 10
12.28
 20
26.9870635676
 30
0.0
 11
9.95
 21
26.9870635676
 31
0.0
  0
LINE
  5
165
330
1F
100
AcDbEntity
  8
SK3
  6
SLD-Dashed
370
    18
100
AcDbLine
 10
4.067532294
 20
8.9078631218
 30
0.0
 11
4.0305729264
 21
8.5035693866
 31
0.0
  0
LINE
  5
166
330
1F
100
AcDbEntity
  8
SK3
  6
SLD-Dashed
370
    18
100
AcDbLine
 10
4.0305729264
 20
8.5035693866
 30
0.0
 11
4.0453757198
 21
8.1246789135
 31
0.0
  0
LINE
  5
167
330
1F
100
AcDbEntity
  8
SK3
  6
SLD-Dashed
370
    18
100
AcDbLine
 10
4.0453757198
 20
8.1246789135
 30
0.0
 11
4.1110105603
 21
7.7949987847
 31
0.0
  0
LINE
  5
168
330
1F
100
AcDbEntity
  8
SK3
  6
SLD-Dashed
370
    18
100
AcDbLine
 10
4.1110105603
 20
7.7949987847
 30
0.0
 11
4.2233533695
 21
7.535244015
 31
0.0
  0
LINE
  5
169
330
1F
100
AcDbEntity
  8
SK3
  6
SLD-Dashed
370
    18
100
AcDbLine
 10
4.2233533695
 20
7.535244015
 30
0.0
 11
4.3753452356
 21
7.3617359519
 31
0.0
  0
LINE
  5
16A
330
1F
100
AcDbEntity
  8
SK3
  6
SLD-Dashed
370
    18
100
AcDbLine
 10
4.3753452356
 20
7.3617359519
 30
0.0
 11
4.5574359504
 21
7.2853767451
 31
0.0
  0
LINE
  5
16B
330
1F
100
AcDbEntity
  8
SK3
  6
SLD-Dashed
370
    18
100
AcDbLine
 10
4.5574359504
 20
7.2853767451
 30
0.0
 11
4.7581840849
 21
7.3109643245
 31
0.0
  0
LINE
  5
16C
330
1F
100
AcDbEntity
  8
SK3
  6
SLD-Dashed
370
    18
100
AcDbLine
 10
4.7581840849
 20
7.3109643245
 30
0.0
 11
4.9649758954
 21
7.4368909283
 31
0.0
  0
LINE
  5
16D
330
1F
100
AcDbEntity
  8
SK3
  6
SLD-Dashed
370
    18
100
AcDbLine
 10
4.9649758954
 20
7.4368909283
 30
0.0
 11
5.1648178918
 21
7.6552441249
 31
0.0
  0
LINE
  5
16E
330
1F
100
AcDbEntity
  8
SK3
  6
SLD-Dashed
370
    18
100
AcDbLine
 10
5.1648178918
 20
7.6552441249
 30
0.0
 11
5.3451532667
 21
7.9523039799
 31
0.0
  0
LINE
  5
16F
330
1F
100
AcDbEntity
  8
SK3
  6
SLD-Dashed
370
    18
100
AcDbLine
 10
5.3451532667
 20
7.9523039799
 30
0.0
 11
5.4946508852
 21
8.30940513
 31
0.0
  0
LINE
  5
170
330
1F
100
AcDbEntity
  8
SK3
  6
SLD-Dashed
370
    18
100
AcDbLine
 10
5.4946508852
 20
8.30940513
 30
0.0
 11
5.6039172621
 21
8.7041095968
 31
0.0
  0
LINE
  5
171
330
1F
100
AcDbEntity
  8
SK3
  6
SLD-Dashed
370
    18
100
AcDbLine
 10
5.6039172621
 20
8.7041095968
 30
0.0
 11
5.666086789
 21
9.1116166469
 31
0.0
  0
LINE
  5
172
330
1F
100
AcDbEntity
  8
SK3
  6
SLD-Dashed
370
    18
100
AcDbLine
 10
5.666086789
 20
9.1116166469
 30
0.0
 11
5.677253126
 21
9.5063211136
 31
0.0
  0
LINE
  5
173
330
1F
100
AcDbEntity
  8
SK3
  6
SLD-Dashed
370
    18
100
AcDbLine
 10
5.677253126
 20
9.5063211136
 30
0.0
 11
5.636714651
 21
9.8634222638
 31
0.0
  0
LINE
  5
174
330
1F
100
AcDbEntity
  8
SK3
  6
SLD-Dashed
370
    18
100
AcDbLine
 10
5.636714651
 20
9.8634222638
 30
0.0
 11
5.5470185456
 21
10.1604821188
 31
0.0
  0
LINE
  5
175
330
1F
100
AcDbEntity
  8
SK3
  6
SLD-Dashed
370
    18
100
AcDbLine
 10
5.5470185456
 20
10.1604821188
 30
0.0
 11
5.4138007459
 21
10.3788353153
 31
0.0
  0
LINE
  5
176
330
1F
100
AcDbEntity
  8
SK3
  6
SLD-Dashed
370
    18
100
AcDbLine
 10
5.4138007459
 20
10.3788353153
 30
0.0
 11
5.2454318161
 21
10.5047619191
 31
0.0
  0
LINE
  5
177
330
1F
100
AcDbEntity
  8
SK3
  6
SLD-Dashed
370
    18
100
AcDbLine
 10
5.2454318161
 20
10.5047619191
 30
0.0
 11
5.0524909954
 21
10.5303494985
 31
0.0
  0
LINE
  5
178
330
1F
100
AcDbEntity
  8
SK3
  6
SLD-Dashed
370
    18
100
AcDbLine
 10
5.0524909954
 20
10.5303494985
 30
0.0
 11
4.8471014652
 21
10.4539902918
 31
0.0
  0
LINE
  5
179
330
1F
100
AcDbEntity
  8
SK3
  6
SLD-Dashed
370
    18
100
AcDbLine
 10
4.8471014652
 20
10.4539902918
 30
0.0
 11
4.6421686049
 21
10.2804822287
 31
0.0
  0
LINE
  5
17A
330
1F
100
AcDbEntity
  8
SK3
  6
SLD-Dashed
370
    18
100
AcDbLine
 10
4.6421686049
 20
10.2804822287
 30
0.0
 11
4.4505690999
 21
10.020727459
 31
0.0
  0
LINE
  5
17B
330
1F
100
AcDbEntity
  8
SK3
  6
SLD-Dashed
370
    18
100
AcDbLine
 10
4.4505690999
 20
10.020727459
 30
0.0
 11
4.2843418517
 21
9.6910473301
 31
0.0
  0
LINE
  5
17C
330
1F
100
AcDbEntity
  8
SK3
  6
SLD-Dashed
370
    18
100
AcDbLine
 10
4.2843418517
 20
9.6910473301
 30
0.0
 11
4.1539315297
 21
9.3121568571
 31
0.0
  0
LINE
  5
17D
330
1F
100
AcDbEntity
  8
SK3
  6
SLD-Dashed
370
    18
100
AcDbLine
 10
4.1539315297
 20
9.3121568571
 30
0.0
 11
4.067532294
 21
8.9078631218
 31
0.0
  0
LINE
  5
17E
330
1F
100
AcDbEntity
  8
SK3
  6
SLD-Dashed
370
    18
100
AcDbLine
 10
19.05
 20
6.6488143213
 30
0.0
 11
18.8161847139
 21
6.4760896069
 31
0.0
  0
LINE
  5
17F
330
1F
100
AcDbEntity
  8
SK3
  6
SLD-Dashed
370
    18
100
AcDbLine
 10
18.8161847139
 20
6.4760896069
 30
0.0
 11
18.5531822006
 21
6.396203884
 31
0.0
  0
LINE
  5
180
330
1F
100
AcDbEntity
  8
SK3
  6
SLD-Dashed
370
    18
100
AcDbLine
 10
18.5531822006
 20
6.396203884
 30
0.0
 11
18.2707077792
 21
6.4121081331
 31
0.0
  0
LINE
  5
181
330
1F
100
AcDbEntity
  8
SK3
  6
SLD-Dashed
370
    18
100
AcDbLine
 10
18.2707077792
 20
6.4121081331
 30
0.0
 11
17.9791960612
 21
6.5232148508
 31
0.0
  0
LINE
  5
182
330
1F
100
AcDbEntity
  8
SK3
  6
SLD-Dashed
370
    18
100
AcDbLine
 10
17.9791960612
 20
6.5232148508
 30
0.0
 11
17.689415496
 21
6.7254197524
 31
0.0
  0
LINE
  5
183
330
1F
100
AcDbEntity
  8
SK3
  6
SLD-Dashed
370
    18
100
AcDbLine
 10
17.689415496
 20
6.7254197524
 30
0.0
 11
17.4120705846
 21
7.0112533843
 31
0.0
  0
LINE
  5
184
330
1F
100
AcDbEntity
  8
SK3
  6
SLD-Dashed
370
    18
100
AcDbLine
 10
17.4120705846
 20
7.0112533843
 30
0.0
 11
17.1574064541
 21
7.3701570454
 31
0.0
  0
LINE
  5
185
330
1F
100
AcDbEntity
  8
SK3
  6
SLD-Dashed
370
    18
100
AcDbLine
 10
17.1574064541
 20
7.3701570454
 30
0.0
 11
16.9348304035
 21
7.7888728264
 31
0.0
  0
LINE
  5
186
330
1F
100
AcDbEntity
  8
SK3
  6
SLD-Dashed
370
    18
100
AcDbLine
 10
16.9348304035
 20
7.7888728264
 30
0.0
 11
16.7525643972
 21
8.2519333568
 31
0.0
  0
LINE
  5
187
330
1F
100
AcDbEntity
  8
SK3
  6
SLD-Dashed
370
    18
100
AcDbLine
 10
16.7525643972
 20
8.2519333568
 30
0.0
 11
16.6173413455
 21
8.7422331698
 31
0.0
  0
LINE
  5
188
330
1F
100
AcDbEntity
  8
SK3
  6
SLD-Dashed
370
    18
100
AcDbLine
 10
16.6173413455
 20
8.7422331698
 30
0.0
 11
16.5341563912
 21
9.2416605792
 31
0.0
  0
LINE
  5
189
330
1F
100
AcDbEntity
  8
SK3
  6
SLD-Dashed
370
    18
100
AcDbLine
 10
16.5341563912
 20
9.2416605792
 30
0.0
 11
16.5060823883
 21
9.731766725
 31
0.0
  0
LINE
  5
18A
330
1F
100
AcDbEntity
  8
SK3
  6
SLD-Dashed
370
    18
100
AcDbLine
 10
16.5060823883
 20
9.731766725
 30
0.0
 11
16.5341563912
 21
10.194447075
 31
0.0
  0
LINE
  5
18B
330
1F
100
AcDbEntity
  8
SK3
  6
SLD-Dashed
370
    18
100
AcDbLine
 10
16.5341563912
 20
10.194447075
 30
0.0
 11
16.6173413455
 21
10.6126102065
 31
0.0
  0
LINE
  5
18C
330
1F
100
AcDbEntity
  8
SK3
  6
SLD-Dashed
370
    18
100
AcDbLine
 10
16.6173413455
 20
10.6126102065
 30
0.0
 11
16.7525643972
 21
10.9708091637
 31
0.0
  0
LINE
  5
18D
330
1F
100
AcDbEntity
  8
SK3
  6
SLD-Dashed
370
    18
100
AcDbLine
 10
16.7525643972
 20
10.9708091637
 30
0.0
 11
16.9348304035
 21
11.2558120691
 31
0.0
  0
LINE
  5
18E
330
1F
100
AcDbEntity
  8
SK3
  6
SLD-Dashed
370
    18
100
AcDbLine
 10
16.9348304035
 20
11.2558120691
 30
0.0
 11
17.1574064541
 21
11.4570909087
 31
0.0
  0
LINE
  5
18F
330
1F
100
AcDbEntity
  8
SK3
  6
SLD-Dashed
370
    18
100
AcDbLine
 10
17.1574064541
 20
11.4570909087
 30
0.0
 11
17.4120705846
 21
11.5672104376
 31
0.0
  0
LINE
  5
190
330
1F
100
AcDbEntity
  8
SK3
  6
SLD-Dashed
370
    18
100
AcDbLine
 10
17.4120705846
 20
11.5672104376
 30
0.0
 11
17.689415496
 21
11.5821028379
 31
0.0
  0
LINE
  5
191
330
1F
100
AcDbEntity
  8
SK3
  6
SLD-Dashed
370
    18
100
AcDbLine
 10
17.689415496
 20
11.5821028379
 30
0.0
 11
17.9791960612
 21
11.5012179839
 31
0.0
  0
LINE
  5
192
330
1F
100
AcDbEntity
  8
SK3
  6
SLD-Dashed
370
    18
100
AcDbLine
 10
17.9791960612
 20
11.5012179839
 30
0.0
 11
18.2707077792
 21
11.3275437641
 31
0.0
  0
LINE
  5
193
330
1F
100
AcDbEntity
  8
SK3
  6
SLD-Dashed
370
    18
100
AcDbLine
 10
18.2707077792
 20
11.3275437641
 30
0.0
 11
18.5531822006
 21
11.0674957081
 31
0.0
  0
LINE
  5
194
330
1F
100
AcDbEntity
  8
SK3
  6
SLD-Dashed
370
    18
100
AcDbLine
 10
18.5531822006
 20
11.0674957081
 30
0.0
 11
18.8161847139
 21
10.730679997
 31
0.0
  0
LINE
  5
195
330
1F
100
AcDbEntity
  8
SK3
  6
SLD-Dashed
370
    18
100
AcDbLine
 10
18.8161847139
 20
10.730679997
 30
0.0
 11
19.05
 21
10.329538611
 31
0.0
  0
LINE
  5
196
330
1F
100
AcDbEntity
  8
SK3
  6
SLD-Dashed
370
    18
100
AcDbLine
 10
3.718501261
 20
8.943826748
 30
0.0
 11
3.8093092693
 21
9.382312829
 31
0.0
  0
LINE
  5
197
330
1F
100
AcDbEntity
  8
SK3
  6
SLD-Dashed
370
    18
100
AcDbLine
 10
3.8093092693
 20
9.382312829
 30
0.0
 11
3.9433883876
 21
9.798811387
 31
0.0
  0
LINE
  5
198
330
1F
100
AcDbEntity
  8
SK3
  6
SLD-Dashed
370
    18
100
AcDbLine
 10
3.9433883876
 20
9.798811387
 30
0.0
 11
4.1140153288
 21
10.1724374451
 31
0.0
  0
LINE
  5
199
330
1F
100
AcDbEntity
  8
SK3
  6
SLD-Dashed
370
    18
100
AcDbLine
 10
4.1140153288
 20
10.1724374451
 30
0.0
 11
4.3126341459
 21
10.4844558326
 31
0.0
  0
LINE
  5
19A
330
1F
100
AcDbEntity
  8
SK3
  6
SLD-Dashed
370
    18
100
AcDbLine
 10
4.3126341459
 20
10.4844558326
 30
0.0
 11
4.5292852618
 21
10.7192206447
 31
0.0
  0
LINE
  5
19B
330
1F
100
AcDbEntity
  8
SK3
  6
SLD-Dashed
370
    18
100
AcDbLine
 10
4.5292852618
 20
10.7192206447
 30
0.0
 11
4.7531048849
 21
10.8649597934
 31
0.0
  0
LINE
  5
19C
330
1F
100
AcDbEntity
  8
SK3
  6
SLD-Dashed
370
    18
100
AcDbLine
 10
4.7531048849
 20
10.8649597934
 30
0.0
 11
4.9728697649
 21
10.9143653093
 31
0.0
  0
LINE
  5
19D
330
1F
100
AcDbEntity
  8
SK3
  6
SLD-Dashed
370
    18
100
AcDbLine
 10
4.9728697649
 20
10.9143653093
 30
0.0
 11
5.1775599729
 21
10.8649597934
 31
0.0
  0
LINE
  5
19E
330
1F
100
AcDbEntity
  8
SK3
  6
SLD-Dashed
370
    18
100
AcDbLine
 10
5.1775599729
 20
10.8649597934
 30
0.0
 11
5.3569114873
 21
10.7192206447
 31
0.0
  0
LINE
  5
19F
330
1F
100
AcDbEntity
  8
SK3
  6
SLD-Dashed
370
    18
100
AcDbLine
 10
5.3569114873
 20
10.7192206447
 30
0.0
 11
5.5019308741
 21
10.4844558326
 31
0.0
  0
LINE
  5
1A0
330
1F
100
AcDbEntity
  8
SK3
  6
SLD-Dashed
370
    18
100
AcDbLine
 10
5.5019308741
 20
10.4844558326
 30
0.0
 11
5.6053462557
 21
10.1724374451
 31
0.0
  0
LINE
  5
1A1
330
1F
100
AcDbEntity
  8
SK3
  6
SLD-Dashed
370
    18
100
AcDbLine
 10
5.6053462557
 20
10.1724374451
 30
0.0
 11
5.6619719532
 21
9.798811387
 31
0.0
  0
LINE
  5
1A2
330
1F
100
AcDbEntity
  8
SK3
  6
SLD-Dashed
370
    18
100
AcDbLine
 10
5.6619719532
 20
9.798811387
 30
0.0
 11
5.6689685176
 21
9.382312829
 31
0.0
  0
LINE
  5
1A3
330
1F
100
AcDbEntity
  8
SK3
  6
SLD-Dashed
370
    18
100
AcDbLine
 10
5.6689685176
 20
9.382312829
 30
0.0
 11
5.6259851119
 21
8.943826748
 31
0.0
  0
LINE
  5
1A4
330
1F
100
AcDbEntity
  8
SK3
  6
SLD-Dashed
370
    18
100
AcDbLine
 10
5.6259851119
 20
8.943826748
 30
0.0
 11
5.5351771035
 21
8.5053406669
 31
0.0
  0
LINE
  5
1A5
330
1F
100
AcDbEntity
  8
SK3
  6
SLD-Dashed
370
    18
100
AcDbLine
 10
5.5351771035
 20
8.5053406669
 30
0.0
 11
5.4010979853
 21
8.0888421089
 31
0.0
  0
LINE
  5
1A6
330
1F
100
AcDbEntity
  8
SK3
  6
SLD-Dashed
370
    18
100
AcDbLine
 10
5.4010979853
 20
8.0888421089
 30
0.0
 11
5.230471044
 21
7.7152160508
 31
0.0
  0
LINE
  5
1A7
330
1F
100
AcDbEntity
  8
SK3
  6
SLD-Dashed
370
    18
100
AcDbLine
 10
5.230471044
 20
7.7152160508
 30
0.0
 11
5.031852227
 21
7.4031976633
 31
0.0
  0
LINE
  5
1A8
330
1F
100
AcDbEntity
  8
SK3
  6
SLD-Dashed
370
    18
100
AcDbLine
 10
5.031852227
 20
7.4031976633
 30
0.0
 11
4.8152011111
 21
7.1684328512
 31
0.0
  0
LINE
  5
1A9
330
1F
100
AcDbEntity
  8
SK3
  6
SLD-Dashed
370
    18
100
AcDbLine
 10
4.8152011111
 20
7.1684328512
 30
0.0
 11
4.5913814879
 21
7.0226937025
 31
0.0
  0
LINE
  5
1AA
330
1F
100
AcDbEntity
  8
SK3
  6
SLD-Dashed
370
    18
100
AcDbLine
 10
4.5913814879
 20
7.0226937025
 30
0.0
 11
4.371616608
 21
6.9732881867
 31
0.0
  0
LINE
  5
1AB
330
1F
100
AcDbEntity
  8
SK3
  6
SLD-Dashed
370
    18
100
AcDbLine
 10
4.371616608
 20
6.9732881867
 30
0.0
 11
4.1669263999
 21
7.0226937025
 31
0.0
  0
LINE
  5
1AC
330
1F
100
AcDbEntity
  8
SK3
  6
SLD-Dashed
370
    18
100
AcDbLine
 10
4.1669263999
 20
7.0226937025
 30
0.0
 11
3.9875748856
 21
7.1684328512
 31
0.0
  0
LINE
  5
1AD
330
1F
100
AcDbEntity
  8
SK3
  6
SLD-Dashed
370
    18
100
AcDbLine
 10
3.9875748856
 20
7.1684328512
 30
0.0
 11
3.8425554988
 21
7.4031976633
 31
0.0
  0
LINE
  5
1AE
330
1F
100
AcDbEntity
  8
SK3
  6
SLD-Dashed
370
    18
100
AcDbLine
 10
3.8425554988
 20
7.4031976633
 30
0.0
 11
3.7391401171
 21
7.7152160508
 31
0.0
  0
LINE
  5
1AF
330
1F
100
AcDbEntity
  8
SK3
  6
SLD-Dashed
370
    18
100
AcDbLine
 10
3.7391401171
 20
7.7152160508
 30
0.0
 11
3.6825144197
 21
8.0888421089
 31
0.0
  0
LINE
  5
1B0
330
1F
100
AcDbEntity
  8
SK3
  6
SLD-Dashed
370
    18
100
AcDbLine
 10
3.6825144197
 20
8.0888421089
 30
0.0
 11
3.6755178553
 21
8.5053406669
 31
0.0
  0
LINE
  5
1B1
330
1F
100
AcDbEntity
  8
SK3
  6
SLD-Dashed
370
    18
100
AcDbLine
 10
3.6755178553
 20
8.5053406669
 30
0.0
 11
3.718501261
 21
8.943826748
 31
0.0
  0
LINE
  5
1B2
330
1F
100
AcDbEntity
  8
SK3
  6
SLD-Dashed
370
    18
100
AcDbLine
 10
19.05
 20
-6.5096104434
 30
0.0
 11
18.6432434604
 21
-6.4121983199
 31
0.0
  0
LINE
  5
1B3
330
1F
100
AcDbEntity
  8
SK3
  6
SLD-Dashed
370
    18
100
AcDbLine
 10
5.6686603003
 20
-9.6930495818
 30
0.0
 11
5.6764135015
 21
-9.5259719598
 31
0.0
  0
LINE
  5
1B4
330
1F
100
AcDbEntity
  8
SK3
  6
SLD-Dashed
370
    18
100
AcDbLine
 10
5.3797631594
 20
-8.0236818914
 30
0.0
 11
5.3090841282
 21
-7.8720919232
 31
0.0
  0
LINE
  5
1B5
330
1F
100
AcDbEntity
  8
SK3
  6
SLD-Dashed
370
    18
100
AcDbLine
 10
5.1740150157
 20
-10.5266054328
 30
0.0
 11
11.8540498232
 21
-9.2075295417
 31
0.0
  0
LINE
  5
1B6
330
1F
100
AcDbEntity
  8
SK3
  6
SLD-Dashed
370
    18
100
AcDbLine
 10
10.6984231028
 20
-6.0720033181
 30
0.0
 11
4.5347237493
 21
-7.2891208109
 31
0.0
  0
LINE
  5
1B7
330
1F
100
AcDbEntity
  8
SK3
  6
SLD-Dashed
370
    18
100
AcDbLine
 10
17.9181478161
 20
-7.2668254943
 30
0.0
 11
-4.9142887221
 21
-1.7987975446
 31
0.0
  0
LINE
  5
1B8
330
1F
100
AcDbEntity
  8
SK3
  6
SLD-Dashed
370
    18
100
AcDbLine
 10
11.8524626917
 20
-9.2074977149
 30
0.0
 11
17.1495796644
 21
-10.4760782105
 31
0.0
  0
LINE
  5
1B9
330
1F
100
AcDbEntity
  8
SK3
  6
SLD-Dashed
370
    18
100
AcDbLine
 10
-6.4546850868
 20
-4.8232089174
 30
0.0
 11
10.6413630082
 21
-8.9174574072
 31
0.0
  0
LINE
  5
1BA
330
1F
100
AcDbEntity
  8
SK3
  6
SLD-Dashed
370
    18
100
AcDbLine
 10
44.45
 20
10.1023502692
 30
0.0
 11
43.45
 21
9.525
 31
0.0
  0
LINE
  5
1BB
330
1F
100
AcDbEntity
  8
SK3
  6
SLD-Dashed
370
    18
100
AcDbLine
 10
43.45
 20
-9.525
 30
0.0
 11
44.45
 21
-10.1023502692
 31
0.0
  0
LINE
  5
1BC
330
1F
100
AcDbEntity
  8
SK3
  6
SLD-Dashed
370
    18
100
AcDbLine
 10
-15.5499999999
 20
-10.1
 30
0.0
 11
-6.5499999999
 21
-10.1
 31
0.0
  0
LINE
  5
1BD
330
1F
100
AcDbEntity
  8
SK3
  6
SLD-Dashed
370
    18
100
AcDbLine
 10
-6.5499999999
 20
10.1
 30
0.0
 11
-15.5499999999
 21
10.1
 31
0.0
  0
LINE
  5
1BE
330
1F
100
AcDbEntity
  8
SK3
  6
SLD-Dashed
370
    18
100
AcDbLine
 10
43.45
 20
9.525
 30
0.0
 11
-6.35
 21
9.525
 31
0.0
  0
LINE
  5
1BF
330
1F
100
AcDbEntity
  8
SK3
  6
SLD-Dashed
370
    18
100
AcDbLine
 10
26.2255
 20
-9.525
 30
0.0
 11
43.45
 21
-9.525
 31
0.0
  0
LINE
  5
1C0
330
1F
100
AcDbEntity
  8
SK3
  6
SLD-Dashed
370
    18
100
AcDbLine
 10
-6.35
 20
-9.525
 30
0.0
 11
11.8754957331
 21
-9.525
 31
0.0
  0
LINE
  5
1C1
330
1F
100
AcDbEntity
  8
SK3
  6
SLD-Dashed
370
    18
100
AcDbLine
 10
-15.75
 20
9.525
 30
0.0
 11
-18.75
 21
9.525
 31
0.0
  0
LINE
  5
1C2
330
1F
100
AcDbEntity
  8
SK3
  6
SLD-Dashed
370
    18
100
AcDbLine
 10
-18.75
 20
-9.525
 30
0.0
 11
-15.75
 21
-9.525
 31
0.0
  0
LINE
  5
1C3
330
1F
100
AcDbEntity
  8
SK3
  6
SLD-Dashed
370
    18
100
AcDbLine
 10
-18.75
 20
9.525
 30
0.0
 11
-20.4196474537
 21
6.74624
 31
0.0
  0
LINE
  5
1C4
330
1F
100
AcDbEntity
  8
SK3
  6
SLD-Dashed
370
    18
100
AcDbLine
 10
-20.4196474537
 20
-6.74624
 30
0.0
 11
-18.75
 21
-9.525
 31
0.0
  0
LINE
  5
1C5
330
1F
100
AcDbEntity
  8
SK3
  6
SLD-Dashed
370
    18
100
AcDbLine
 10
-68.25
 20
-9.14
 30
0.0
 11
-66.6824940192
 21
-8.235
 31
0.0
  0
LINE
  5
1C6
330
1F
100
AcDbEntity
  8
SK3
  6
SLD-Dashed
370
    18
100
AcDbLine
 10
-66.6824940192
 20
8.235
 30
0.0
 11
-68.25
 21
9.14
 31
0.0
  0
LINE
  5
1C7
330
1F
100
AcDbEntity
  8
SK3
  6
SLD-Dashed
370
    18
100
AcDbLine
 10
-66.6824940192
 20
-8.235
 30
0.0
 11
-63.48
 21
-8.235
 31
0.0
  0
LINE
  5
1C8
330
1F
100
AcDbEntity
  8
SK3
  6
SLD-Dashed
370
    18
100
AcDbLine
 10
-63.48
 20
8.235
 30
0.0
 11
-66.6824940192
 21
8.235
 31
0.0
  0
LINE
  5
1C9
330
1F
100
AcDbEntity
  8
SK3
  6
SLD-Dashed
370
    18
100
AcDbLine
 10
-63.48
 20
-8.235
 30
0.0
 11
-62.6204640132
 21
-6.74624
 31
0.0
  0
LINE
  5
1CA
330
1F
100
AcDbEntity
  8
SK3
  6
SLD-Dashed
370
    18
100
AcDbLine
 10
-62.6204640132
 20
6.74624
 30
0.0
 11
-63.48
 21
8.235
 31
0.0
  0
LINE
  5
1CB
330
1F
100
AcDbEntity
  8
SK3
  6
SLD-Dashed
370
    18
100
AcDbLine
 10
27.175
 20
-22.2206990572
 30
0.0
 11
27.175
 21
-20.225
 31
0.0
  0
LINE
  5
1CC
330
1F
100
AcDbEntity
  8
SK3
  6
SLD-Dashed
370
    18
100
AcDbLine
 10
10.925
 20
-20.225
 30
0.0
 11
10.925
 21
-22.41
 31
0.0
  0
LINE
  5
1CD
330
1F
100
AcDbEntity
  8
SK3
  6
SLD-Dashed
370
    18
100
AcDbLine
 10
26.2255
 20
-20.225
 30
0.0
 11
26.2255
 21
-9.525
 31
0.0
  0
LINE
  5
1CE
330
1F
100
AcDbEntity
  8
SK3
  6
SLD-Dashed
370
    18
100
AcDbLine
 10
11.8745
 20
-9.5242507082
 30
0.0
 11
11.8745
 21
-20.225
 31
0.0
  0
LINE
  5
1CF
330
1F
100
AcDbEntity
  8
SK3
  6
SLD-Dashed
370
    18
100
AcDbLine
 10
-62.6204640132
 20
-6.74624
 30
0.0
 11
-20.4196474537
 21
-6.74624
 31
0.0
  0
LINE
  5
1D0
330
1F
100
AcDbEntity
  8
SK3
  6
SLD-Dashed
370
    18
100
AcDbLine
 10
-20.4196474537
 20
6.74624
 30
0.0
 11
-62.6204640132
 21
6.74624
 31
0.0
  0
LINE
  5
1D1
330
1F
100
AcDbEntity
  8
SK3
  6
SLD-Dashed
370
    18
100
AcDbLine
 10
6.1
 20
24.83
 30
0.0
 11
6.1
 21
20.43
 31
0.0
  0
LINE
  5
1D2
330
1F
100
AcDbEntity
  8
SK3
  6
SLD-Dashed
370
    18
100
AcDbLine
 10
16.1
 20
20.43
 30
0.0
 11
16.1
 21
24.83
 31
0.0
  0
LINE
  5
1D3
330
1F
100
AcDbEntity
  8
SK3
  6
SLD-Dashed
370
    18
100
AcDbLine
 10
10.6413630082
 20
8.9174574072
 30
0.0
 11
-6.4546850868
 21
4.8232089174
 31
0.0
  0
LINE
  5
1D4
330
1F
100
AcDbEntity
  8
SK3
  6
SLD-Dashed
370
    18
100
AcDbLine
 10
17.1495796644
 20
10.4760782105
 30
0.0
 11
11.8524626917
 21
9.2074977149
 31
0.0
  0
LINE
  5
1D5
330
1F
100
AcDbEntity
  8
SK3
  6
SLD-Dashed
370
    18
100
AcDbLine
 10
-4.9135211659
 20
1.7989813628
 30
0.0
 11
17.9181478161
 21
7.2668254943
 31
0.0
  0
LINE
  5
1D6
330
1F
100
AcDbEntity
  8
SK3
  6
SLD-Dashed
370
    18
100
AcDbLine
 10
4.5347237493
 20
7.2891208109
 30
0.0
 11
10.6984231028
 21
6.0720033181
 31
0.0
  0
LINE
  5
1D7
330
1F
100
AcDbEntity
  8
SK3
  6
SLD-Dashed
370
    18
100
AcDbLine
 10
11.8540498232
 20
9.2075295417
 30
0.0
 11
5.1740150157
 21
10.5266054328
 31
0.0
  0
LINE
  5
1D8
330
1F
100
AcDbEntity
  8
SK3
  6
SLD-Dashed
370
    18
100
AcDbLine
 10
18.6432434604
 20
6.4121983199
 30
0.0
 11
19.05
 21
6.5096104434
 31
0.0
  0
LINE
  5
1D9
330
1F
100
AcDbEntity
  8
SK3
  6
SLD-Dashed
370
    18
100
AcDbLine
 10
5.3090841282
 20
7.8720919232
 30
0.0
 11
5.3797631594
 21
8.0236818914
 31
0.0
  0
LINE
  5
1DA
330
1F
100
AcDbEntity
  8
SK3
  6
SLD-Dashed
370
    18
100
AcDbLine
 10
5.6764135015
 20
9.5259719598
 30
0.0
 11
5.6686603003
 21
9.6930495818
 31
0.0
  0
LINE
  5
1DB
330
1F
100
AcDbEntity
  8
SK3
  6
SLD-Solid
370
    18
100
AcDbLine
 10
-38.2499992847
 20
7.9375002533
 30
0.0
 11
-63.3082389832
 21
7.9375002533
 31
0.0
  0
LINE
  5
1DC
330
1F
100
AcDbEntity
  8
SK3
  6
SLD-Solid
370
    18
100
AcDbLine
 10
-63.3082389832
 20
-7.9375002533
 30
0.0
 11
-38.2499992847
 21
-7.9375002533
 31
0.0
  0
LINE
  5
1DD
330
1F
100
AcDbEntity
  8
SK3
  6
SLD-Solid
370
    18
100
AcDbLine
 10
-38.2499992847
 20
0.0
 30
0.0
 11
-38.2499992847
 21
-1.0808227817
 31
0.0
  0
LINE
  5
1DE
330
1F
100
AcDbEntity
  8
SK3
  6
SLD-Solid
370
    18
100
AcDbLine
 10
-38.250036304
 20
-1.0808227817
 30
0.0
 11
-38.2499992847
 21
-2.1415117662
 31
0.0
  0
LINE
  5
1DF
330
1F
100
AcDbEntity
  8
SK3
  6
SLD-Solid
370
    18
100
AcDbLine
 10
-38.2499992847
 20
-2.1415117662
 30
0.0
 11
-38.2499992847
 21
-3.1623085961
 31
0.0
  0
LINE
  5
1E0
330
1F
100
AcDbEntity
  8
SK3
  6
SLD-Solid
370
    18
100
AcDbLine
 10
-38.2499992847
 20
-3.1623085961
 30
0.0
 11
-38.2499992847
 21
-4.1241976433
 31
0.0
  0
LINE
  5
1E1
330
1F
100
AcDbEntity
  8
SK3
  6
SLD-Solid
370
    18
100
AcDbLine
 10
-38.2499992847
 20
-4.1241976433
 30
0.0
 11
-38.2499992847
 21
-5.0092604943
 31
0.0
  0
LINE
  5
1E2
330
1F
100
AcDbEntity
  8
SK3
  6
SLD-Solid
370
    18
100
AcDbLine
 10
-38.2499992847
 20
-5.0092604943
 30
0.0
 11
-38.2499992847
 21
-5.8010104112
 31
0.0
  0
LINE
  5
1E3
330
1F
100
AcDbEntity
  8
SK3
  6
SLD-Solid
370
    18
100
AcDbLine
 10
-38.2499992847
 20
-5.8010104112
 30
0.0
 11
-38.2499992847
 21
-6.4846985042
 31
0.0
  0
LINE
  5
1E4
330
1F
100
AcDbEntity
  8
SK3
  6
SLD-Solid
370
    18
100
AcDbLine
 10
-38.2499992847
 20
-6.4846985042
 30
0.0
 11
-38.2499992847
 21
-7.047588937
 31
0.0
  0
LINE
  5
1E5
330
1F
100
AcDbEntity
  8
SK3
  6
SLD-Solid
370
    18
100
AcDbLine
 10
-38.2499992847
 20
-7.047588937
 30
0.0
 11
-38.2499992847
 21
-7.4791959487
 31
0.0
  0
LINE
  5
1E6
330
1F
100
AcDbEntity
  8
SK3
  6
SLD-Solid
370
    18
100
AcDbLine
 10
-38.2499992847
 20
-7.4791959487
 30
0.0
 11
-38.2499992847
 21
-7.7714798972
 31
0.0
  0
LINE
  5
1E7
330
1F
100
AcDbEntity
  8
SK3
  6
SLD-Solid
370
    18
100
AcDbLine
 10
-38.2499992847
 20
-7.7714798972
 30
0.0
 11
-38.2499992847
 21
-7.9189958051
 31
0.0
  0
LINE
  5
1E8
330
1F
100
AcDbEntity
  8
SK3
  6
SLD-Solid
370
    18
100
AcDbLine
 10
-38.2499992847
 20
-7.9189958051
 30
0.0
 11
-38.2499992847
 21
-7.9375002533
 31
0.0
  0
LINE
  5
1E9
330
1F
100
AcDbEntity
  8
SK3
  6
SLD-Solid
370
    18
100
AcDbLine
 10
-38.250036304
 20
7.9375002533
 30
0.0
 11
-38.2499992847
 21
7.9189958051
 31
0.0
  0
LINE
  5
1EA
330
1F
100
AcDbEntity
  8
SK3
  6
SLD-Solid
370
    18
100
AcDbLine
 10
-38.2499992847
 20
7.9189958051
 30
0.0
 11
-38.2499992847
 21
7.7714798972
 31
0.0
  0
LINE
  5
1EB
330
1F
100
AcDbEntity
  8
SK3
  6
SLD-Solid
370
    18
100
AcDbLine
 10
-38.2499992847
 20
7.7714798972
 30
0.0
 11
-38.2499992847
 21
7.4791959487
 31
0.0
  0
LINE
  5
1EC
330
1F
100
AcDbEntity
  8
SK3
  6
SLD-Solid
370
    18
100
AcDbLine
 10
-38.2499992847
 20
7.4791959487
 30
0.0
 11
-38.2499992847
 21
7.047588937
 31
0.0
  0
LINE
  5
1ED
330
1F
100
AcDbEntity
  8
SK3
  6
SLD-Solid
370
    18
100
AcDbLine
 10
-38.2499992847
 20
7.047588937
 30
0.0
 11
-38.2499992847
 21
6.4846985042
 31
0.0
  0
LINE
  5
1EE
330
1F
100
AcDbEntity
  8
SK3
  6
SLD-Solid
370
    18
100
AcDbLine
 10
-38.2499992847
 20
6.4846985042
 30
0.0
 11
-38.2499992847
 21
5.8010104112
 31
0.0
  0
LINE
  5
1EF
330
1F
100
AcDbEntity
  8
SK3
  6
SLD-Solid
370
    18
100
AcDbLine
 10
-38.2499992847
 20
5.8010104112
 30
0.0
 11
-38.2499992847
 21
5.0092604943
 31
0.0
  0
LINE
  5
1F0
330
1F
100
AcDbEntity
  8
SK3
  6
SLD-Solid
370
    18
100
AcDbLine
 10
-38.2499992847
 20
5.0092604943
 30
0.0
 11
-38.2499992847
 21
4.1241976433
 31
0.0
  0
LINE
  5
1F1
330
1F
100
AcDbEntity
  8
SK3
  6
SLD-Solid
370
    18
100
AcDbLine
 10
-38.2499992847
 20
4.1241976433
 30
0.0
 11
-38.2499992847
 21
3.1623085961
 31
0.0
  0
LINE
  5
1F2
330
1F
100
AcDbEntity
  8
SK3
  6
SLD-Solid
370
    18
100
AcDbLine
 10
-38.2499992847
 20
3.1623085961
 30
0.0
 11
-38.2499992847
 21
2.1415117662
 31
0.0
  0
LINE
  5
1F3
330
1F
100
AcDbEntity
  8
SK3
  6
SLD-Solid
370
    18
100
AcDbLine
 10
-38.2499992847
 20
2.1415117662
 30
0.0
 11
-38.2499992847
 21
1.0808227817
 31
0.0
  0
LINE
  5
1F4
330
1F
100
AcDbEntity
  8
SK3
  6
SLD-Solid
370
    18
100
AcDbLine
 10
-38.2499992847
 20
1.0808227817
 30
0.0
 11
-38.2499992847
 21
0.0
 31
0.0
  0
LINE
  5
1F5
330
1F
100
AcDbEntity
  8
SK3
  6
SLD-Solid
370
    18
100
AcDbLine
 10
11.1124999821
 20
-9.5166089013
 30
0.0
 11
11.1124999821
 21
-20.2249996364
 31
0.0
  0
LINE
  5
1F6
330
1F
100
AcDbEntity
  8
SK3
  6
SLD-Solid
370
    18
100
AcDbLine
 10
26.9875004888
 20
-20.2249996364
 30
0.0
 11
26.9875004888
 21
-9.5166089013
 31
0.0
  0
LINE
  5
1F7
330
1F
100
AcDbEntity
  8
SK3
  6
SLD-Solid
370
    18
100
AcDbLine
 10
11.1224735156
 20
-9.5166089013
 30
0.0
 11
11.1726559699
 21
-9.4749284908
 31
0.0
  0
LINE
  5
1F8
330
1F
100
AcDbEntity
  8
4
  6
SLD-Center
370
    18
100
AcDbLine
 10
46.45
 20
0.0
 30
0.0
 11
0.0992755712
 21
0.0
 31
0.0
  0
LINE
  5
1F9
330
1F
100
AcDbEntity
  8
4
  6
SLD-Center
370
    18
100
AcDbLine
 10
19.05
 20
-22.225
 30
0.0
 11
19.05
 21
-7.525
 31
0.0
  0
LINE
  5
1FA
330
1F
100
AcDbEntity
  8
SK4
  6
SLD-Center
370
    18
100
AcDbLine
 10
44.6612519148
 20
0.0
 30
0.0
 11
-69.1376006954
 21
0.0
 31
0.0
  0
LINE
  5
1FB
330
1F
100
AcDbEntity
  8
81
370
    18
100
AcDbLine
 10
44.45
 20
0.0
 30
0.0
 11
47.9855339059
 21
3.5355339059
 31
0.0
  0
LINE
  5
1FC
330
1F
100
AcDbEntity
  8
81
370
    18
100
AcDbLine
 10
44.45
 20
0.0
 30
0.0
 11
40.9144660941
 21
-3.5355339059
 31
0.0
  0
LINE
  5
1FD
330
1F
100
AcDbEntity
  8
81
370
    18
100
AcDbLine
 10
44.45
 20
0.0
 30
0.0
 11
40.9144660941
 21
3.5355339059
 31
0.0
  0
LINE
  5
1FE
330
1F
100
AcDbEntity
  8
81
100
AcDbLine
 10
44.45
 20
0.0
 30
0.0
 11
54.45
 21
0.0
 31
0.0
  0
LINE
  5
1FF
330
1F
100
AcDbEntity
  8
81
370
    18
100
AcDbLine
 10
44.45
 20
0.0
 30
0.0
 11
47.9855339059
 21
-3.5355339059
 31
0.0
  0
LINE
  5
200
330
1F
100
AcDbEntity
  8
80
370
    18
100
AcDbLine
 10
0.0
 20
0.0
 30
0.0
 11
-3.5355339059
 21
-3.5355339059
 31
0.0
  0
LINE
  5
201
330
1F
100
AcDbEntity
  8
80
370
    18
100
AcDbLine
 10
0.0
 20
0.0
 30
0.0
 11
3.5355339059
 21
3.5355339059
 31
0.0
  0
LINE
  5
202
330
1F
100
AcDbEntity
  8
80
370
    18
100
AcDbLine
 10
0.0
 20
0.0
 30
0.0
 11
-3.5355339059
 21
3.5355339059
 31
0.0
  0
LINE
  5
203
330
1F
100
AcDbEntity
  8
80
370
    18
100
AcDbLine
 10
0.0
 20
0.0
 30
0.0
 11
-10.0
 21
0.0
 31
0.0
  0
LINE
  5
204
330
1F
100
AcDbEntity
  8
80
370
    18
100
AcDbLine
 10
0.0
 20
0.0
 30
0.0
 11
3.5355339059
 21
-3.5355339059
 31
0.0
  0
ARC
  5
205
330
1F
100
AcDbEntity
  8
1
  6
SLD-Solid
370
    25
100
AcDbCircle
 10
19.812
 20
22.987
 30
0.0
 40
0.7619999999999868
100
AcDbArc
 50
180.0
 51
250.8647578979
  0
ARC
  5
206
330
1F
100
AcDbEntity
  8
1
  6
SLD-Solid
370
    25
100
AcDbCircle
 10
2.45
 20
22.79
 30
0.0
 40
0.7500000000000004
100
AcDbArc
 50
245.0
 51
0.0
  0
ARC
  5
207
330
1F
100
AcDbEntity
  8
1
  6
SLD-Solid
370
    25
100
AcDbCircle
 10
2.45
 20
-22.79
 30
0.0
 40
0.7500000000000117
100
AcDbArc
 50
30.4400371691
 51
115.0
  0
ARC
  5
208
330
1F
100
AcDbEntity
  8
SK1
  6
SLD-Solid
370
    25
100
AcDbCircle
 10
-66.95
 20
11.1476148288
 30
0.0
 40
1.299999999999997
100
AcDbArc
 50
98.2972222222
 51
180.0
  0
ARC
  5
209
330
1F
100
AcDbEntity
  8
SK1
  6
SLD-Solid
370
    25
100
AcDbCircle
 10
-66.95
 20
-11.1476148288
 30
0.0
 40
1.299999999999999
100
AcDbArc
 50
180.0
 51
261.7027777778
  0
ARC
  5
20A
330
1F
100
AcDbEntity
  8
SK3
  6
SLD-Dashed
370
    18
100
AcDbCircle
 10
-6.5499999999
 20
9.9
 30
0.0
 40
0.2000000000000055
100
AcDbArc
 50
0.0
 51
90.0
  0
ARC
  5
20B
330
1F
100
AcDbEntity
  8
SK3
  6
SLD-Dashed
370
    18
100
AcDbCircle
 10
-15.5499999999
 20
-9.9
 30
0.0
 40
0.2000000000000028
100
AcDbArc
 50
180.0
 51
270.0
  0
ARC
  5
20C
330
1F
100
AcDbEntity
  8
SK3
  6
SLD-Dashed
370
    18
100
AcDbCircle
 10
-15.5499999999
 20
9.9
 30
0.0
 40
0.2000000000000064
100
AcDbArc
 50
90.0
 51
180.0
  0
ARC
  5
20D
330
1F
100
AcDbEntity
  8
SK3
  6
SLD-Dashed
370
    18
100
AcDbCircle
 10
-6.5499999999
 20
-9.9
 30
0.0
 40
0.1999999999999993
100
AcDbArc
 50
270.0
 51
0.0
  0
CIRCLE
  5
20E
330
1F
100
AcDbEntity
  8
81
370
    18
100
AcDbCircle
 10
44.45
 20
0.0
 30
0.0
 40
2.499999999999988
  0
CIRCLE
  5
20F
330
1F
100
AcDbEntity
  8
80
370
    18
100
AcDbCircle
 10
0.0
 20
0.0
 30
0.0
 40
2.500000000000009
  0
SPLINE
  5
210
330
1F
100
AcDbEntity
  8
1
  6
SLD-Solid
370
    25
100
AcDbSpline
210
0.0
220
0.0
230
1.0
 70
     8
 71
     3
 72
    18
 73
    14
 74
     0
 42
0.000000001
 43
0.00000001
 40
0.0
 40
0.0
 40
0.0
 40
0.0
 40
0.0627054734815585
 40
0.1258180026435944
 40
0.1893518955758989
 40
0.2533210967871997
 40
0.3760223802380994
 40
0.5042027350874037
 40
0.6287442443905509
 40
0.7524970007335178
 40
0.8762904256225891
 40
0.9301814553533038
 40
1.0
 40
1.0
 40
1.0
 40
1.0
 10
18.30000000000001
 20
-30.55788999666614
 30
0.0
 10
18.32475189251027
 20
-30.55717815032796
 30
0.0
 10
18.37441635566443
 20
-30.55574983666592
 30
0.0
 10
18.44840700700193
 20
-30.54418621918458
 30
0.0
 10
18.5213792831172
 20
-30.52568315689515
 30
0.0
 10
18.61414871610721
 20
-30.49172081055997
 30
0.0
 10
18.72382631062687
 20
-30.4320633120142
 30
0.0
 10
18.83789060104975
 20
-30.33670781031284
 30
0.0
 10
18.93096567570619
 20
-30.22063090164698
 30
0.0
 10
18.99906840635736
 20
-30.09053486574008
 30
0.0
 10
19.03266226172083
 20
-29.97656054635134
 30
0.0
 10
19.04765434845164
 20
-29.88065972774423
 30
0.0
 10
19.04915376650081
 20
-29.83220301390153
 30
0.0
 10
19.05000000000001
 20
-29.80485527419841
 30
0.0
  0
SPLINE
  5
211
330
1F
100
AcDbEntity
  8
1
  6
SLD-Solid
370
    25
100
AcDbSpline
210
0.0
220
0.0
230
1.0
 70
     8
 71
     3
 72
    16
 73
    12
 74
     0
 42
0.000000001
 43
0.00000001
 40
0.0
 40
0.0
 40
0.0
 40
0.0
 40
0.069814031064149
 40
0.1237498965154266
 40
0.2475836018648968
 40
0.371376536255524
 40
0.4959583438678432
 40
0.62413948620796
 40
0.7469207609697971
 40
0.8742805094910139
 40
1.0
 40
1.0
 40
1.0
 40
1.0
 10
19.05000000000001
 20
29.80486644841628
 30
0.0
 10
19.04915437967804
 20
29.83220375694687
 30
0.0
 10
19.0476554628308
 20
29.88066090875587
 30
0.0
 10
19.03266526234905
 20
29.97656337346559
 30
0.0
 10
18.99906876123939
 20
30.09054703967058
 30
0.0
 10
18.93096439399841
 20
30.22065301278144
 30
0.0
 10
18.8379055033088
 20
30.3366860902548
 30
0.0
 10
18.7238212796448
 20
30.43216876423576
 30
0.0
 10
18.59216376019319
 20
30.50338604964251
 30
0.0
 10
18.44966044222826
 20
30.54924901227124
 30
0.0
 10
18.34967079633338
 20
30.55503461089691
 30
0.0
 10
18.30000000000001
 20
30.55790866138913
 30
0.0
  0
SPLINE
  5
212
330
1F
100
AcDbEntity
  8
1
  6
SLD-Solid
370
    25
100
AcDbSpline
210
0.0
220
0.0
230
1.0
 70
     8
 71
     3
 72
    16
 73
    12
 74
     0
 42
0.000000001
 43
0.00000001
 40
0.0
 40
0.0
 40
0.0
 40
0.0
 40
0.0695972585631702
 40
0.1233277320974721
 40
0.247039555460377
 40
0.370625409937532
 40
0.4955039070586293
 40
0.6236892810562452
 40
0.7463896350927952
 40
0.874029172385884
 40
1.0
 40
1.0
 40
1.0
 40
1.0
 10
3.200000000000043
 20
-29.80486644841634
 30
0.0
 10
3.200840331068372
 20
-29.83211874374154
 30
0.0
 10
3.202329414503655
 20
-29.88041035531209
 30
0.0
 10
3.217237155250634
 20
-29.97610817340511
 30
0.0
 10
3.250688715768083
 20
-30.0899135086966
 30
0.0
 10
3.318652551688067
 20
-30.22007249881835
 30
0.0
 10
3.411627067179748
 20
-30.33622596976966
 30
0.0
 10
3.525709306310234
 20
-30.43184457715034
 30
0.0
 10
3.657379123027684
 20
-30.50320141671877
 30
0.0
 10
3.800029806285451
 20
-30.54921347619221
 30
0.0
 10
3.900229701070859
 20
-30.5550230082085
 30
0.0
 10
3.950000000000009
 20
-30.55790866138916
 30
0.0
  0
SPLINE
  5
213
330
1F
100
AcDbEntity
  8
1
  6
SLD-Solid
370
    25
100
AcDbSpline
210
0.0
220
0.0
230
1.0
 70
     8
 71
     3
 72
    18
 73
    14
 74
     0
 42
0.000000001
 43
0.00000001
 40
0.0
 40
0.0
 40
0.0
 40
0.0
 40
0.0628280480421825
 40
0.1260701253970792
 40
0.1897406253785904
 40
0.2538535710757105
 40
0.3764737521324676
 40
0.5046580328934662
 40
0.6294958758641306
 40
0.7530413720168776
 40
0.8767127000651272
 40
0.9303985995609487
 40
1.0
 40
1.0
 40
1.0
 40
1.0
 10
3.95000000000001
 20
30.55788999666614
 30
0.0
 10
3.925199676033276
 20
30.55717534525743
 30
0.0
 10
3.875435596934777
 20
30.55574133297282
 30
0.0
 10
3.801295881396272
 20
30.54413094373271
 30
0.0
 10
3.728175768565599
 20
30.52555103963992
 30
0.0
 10
3.63535674573524
 20
30.49149389245029
 30
0.0
 10
3.525704227685381
 20
30.43173903699995
 30
0.0
 10
3.411641971522925
 20
30.336247795462
 30
0.0
 10
3.318651270434256
 20
30.2200503930436
 30
0.0
 10
3.250689072054568
 20
30.08990134371379
 30
0.0
 10
3.217240115096279
 20
29.97610524198128
 30
0.0
 10
3.202330512999726
 20
29.88040905934518
 30
0.0
 10
3.200840935566544
 20
29.8321178833844
 30
0.0
 10
3.200000000000041
 20
29.80485527419842
 30
0.0
  0
SPLINE
  5
214
330
1F
100
AcDbEntity
  8
1
  6
SLD-Solid
370
    25
100
AcDbSpline
210
0.0
220
0.0
230
1.0
 70
     8
 71
     3
 72
     8
 73
     4
 74
     0
 42
0.000000001
 43
0.00000001
 40
0.0
 40
0.0
 40
0.0
 40
0.0
 40
1.0
 40
1.0
 40
1.0
 40
1.0
 10
13.03
 20
27.80504563417289
 30
0.0
 10
13.47759651810107
 20
28.61249255653033
 30
0.0
 10
13.92634937951633
 20
29.41929290832669
 30
0.0
 10
14.37601294652262
 20
30.2255814201264
 30
0.0
  0
SPLINE
  5
215
330
1F
100
AcDbEntity
  8
1
  6
SLD-Solid
370
    25
100
AcDbSpline
210
0.0
220
0.0
230
1.0
 70
     8
 71
     3
 72
     8
 73
     4
 74
     0
 42
0.000000001
 43
0.00000001
 40
0.0
 40
0.0
 40
0.0
 40
0.0
 40
0.0006742907251946
 40
0.0006742907251946
 40
0.0006742907251946
 40
0.0006742907251946
 10
14.6411263545568
 20
30.55790866138913
 30
0.0
 10
14.55231121915222
 20
30.44723498609876
 30
0.0
 10
14.46393231327361
 20
30.33646040447048
 30
0.0
 10
14.37601294652262
 20
30.2255814201264
 30
0.0
  0
SPLINE
  5
216
330
1F
100
AcDbEntity
  8
1
  6
SLD-Solid
370
    25
100
AcDbSpline
210
0.0
220
0.0
230
1.0
 70
     8
 71
     3
 72
     8
 73
     4
 74
     0
 42
0.000000001
 43
0.00000001
 40
0.0
 40
0.0
 40
0.0
 40
0.0
 40
0.0006744126776058
 40
0.0006744126776058
 40
0.0006744126776058
 40
0.0006744126776058
 10
14.37595046659276
 20
-30.22546938779915
 30
0.0
 10
14.46389058426685
 20
-30.33637953005828
 30
0.0
 10
14.55229031970065
 20
-30.44718523342132
 30
0.0
 10
14.64112635455682
 20
-30.55788999666614
 30
0.0
  0
SPLINE
  5
217
330
1F
100
AcDbEntity
  8
1
  6
SLD-Solid
370
    25
100
AcDbSpline
210
0.0
220
0.0
230
1.0
 70
     8
 71
     3
 72
     8
 73
     4
 74
     0
 42
0.000000001
 43
0.00000001
 40
0.0
 40
0.0
 40
0.0
 40
0.0
 40
1.0
 40
1.0
 40
1.0
 40
1.0
 10
13.03000000000001
 20
-27.8050456341729
 30
0.0
 10
13.47756662864427
 20
-28.61243863709861
 30
0.0
 10
13.92629890859751
 20
-29.41920220926157
 30
0.0
 10
14.37595046659276
 20
-30.22546938779915
 30
0.0
  0
SPLINE
  5
218
330
1F
100
AcDbEntity
  8
1
  6
SLD-Solid
370
    25
100
AcDbSpline
210
0.0
220
0.0
230
1.0
 70
     8
 71
     3
 72
    14
 73
    10
 74
     0
 42
0.000000001
 43
0.00000001
 40
0.0
 40
0.0
 40
0.0
 40
0.0
 40
0.25
 40
0.25
 40
0.5
 40
0.5
 40
0.75
 40
0.75
 40
1.0
 40
1.0
 40
1.0
 40
1.0
 10
13.02999999999999
 20
25.81171788356631
 30
0.0
 10
13.05182784069896
 20
25.80868166763938
 30
0.0
 10
13.06930451588748
 20
25.7970628258169
 30
0.0
 10
13.09355241467168
 20
25.75265705035269
 30
0.0
 10
13.09996413738391
 20
25.71975400624284
 30
0.0
 10
13.1000355545799
 20
25.63443445773249
 30
0.0
 10
13.09360869858517
 20
25.5807312169283
 30
0.0
 10
13.06953031995429
 20
25.45976651603279
 30
0.0
 10
13.05190366619464
 20
25.39187340765437
 30
0.0
 10
13.03000000000001
 20
25.31924243797495
 30
0.0
  0
SPLINE
  5
219
330
1F
100
AcDbEntity
  8
1
  6
SLD-Solid
370
    25
100
AcDbSpline
210
0.0
220
0.0
230
1.0
 70
     8
 71
     3
 72
     8
 73
     4
 74
     0
 42
0.000000001
 43
0.00000001
 40
0.0
 40
0.0
 40
0.0
 40
0.0
 40
1.0
 40
1.0
 40
1.0
 40
1.0
 10
7.853987053479589
 20
-30.22558142012364
 30
0.0
 10
8.303659523846749
 20
-29.41927694377147
 30
0.0
 10
8.752412641282682
 20
-28.6124760333551
 30
0.0
 10
9.199999999998877
 20
-27.80504563417608
 30
0.0
  0
SPLINE
  5
21A
330
1F
100
AcDbEntity
  8
1
  6
SLD-Solid
370
    25
100
AcDbSpline
210
0.0
220
0.0
230
1.0
 70
     8
 71
     3
 72
     8
 73
     4
 74
     0
 42
0.000000001
 43
0.00000001
 40
0.0
 40
0.0
 40
0.0
 40
0.0
 40
0.0006742907251988
 40
0.0006742907251988
 40
0.0006742907251988
 40
0.0006742907251988
 10
7.588873645443195
 20
-30.55790866138917
 30
0.0
 10
7.677688780848516
 20
-30.44723498609786
 30
0.0
 10
7.766067686727848
 20
-30.33646040446865
 30
0.0
 10
7.853987053479596
 20
-30.22558142012363
 30
0.0
  0
SPLINE
  5
21B
330
1F
100
AcDbEntity
  8
1
  6
SLD-Solid
370
    25
100
AcDbSpline
210
0.0
220
0.0
230
1.0
 70
     8
 71
     3
 72
     8
 73
     4
 74
     0
 42
0.000000001
 43
0.00000001
 40
0.0
 40
0.0
 40
0.0
 40
0.0
 40
0.0006744126776058
 40
0.0006744126776058
 40
0.0006744126776058
 40
0.0006744126776058
 10
7.854049533407232
 20
30.22546938779914
 30
0.0
 10
7.766109415733155
 20
30.33637953005826
 30
0.0
 10
7.677709680299325
 20
30.4471852334213
 30
0.0
 10
7.588873645443195
 20
30.55788999666613
 30
0.0
  0
SPLINE
  5
21C
330
1F
100
AcDbEntity
  8
1
  6
SLD-Solid
370
    25
100
AcDbSpline
210
0.0
220
0.0
230
1.0
 70
     8
 71
     3
 72
     8
 73
     4
 74
     0
 42
0.000000001
 43
0.00000001
 40
0.0
 40
0.0
 40
0.0
 40
0.0
 40
1.0
 40
1.0
 40
1.0
 40
1.0
 10
7.854049533407236
 20
30.22546938779912
 30
0.0
 10
8.303692188804737
 20
29.41921817244961
 30
0.0
 10
8.752424212806615
 20
28.61245515876932
 30
0.0
 10
9.199999999999985
 20
27.80504563417289
 30
0.0
  0
SPLINE
  5
21D
330
1F
100
AcDbEntity
  8
1
  6
SLD-Solid
370
    25
100
AcDbSpline
210
0.0
220
0.0
230
1.0
 70
     8
 71
     3
 72
    14
 73
    10
 74
     0
 42
0.000000001
 43
0.00000001
 40
0.0
 40
0.0
 40
0.0
 40
0.0
 40
0.25
 40
0.25
 40
0.5
 40
0.5
 40
0.75
 40
0.75
 40
1.0
 40
1.0
 40
1.0
 40
1.0
 10
9.199999999998884
 20
25.27054331738516
 30
0.0
 10
9.169610391132156
 20
25.36219671402948
 30
0.0
 10
9.144652419509576
 20
25.44797517411545
 30
0.0
 10
9.109411114929514
 20
25.60359055831212
 30
0.0
 10
9.100075894724881
 20
25.66959440204698
 30
0.0
 10
9.099925023949758
 20
25.77434199055128
 30
0.0
 10
9.10937591476881
 20
25.8114500958754
 30
0.0
 10
9.144272722663818
 20
25.855009352439
 30
0.0
 10
9.169555752624214
 20
25.86176202446131
 30
0.0
 10
9.199999999999978
 20
25.85691311136566
 30
0.0
  0
SPLINE
  5
21E
330
1F
100
AcDbEntity
  8
1
  6
SLD-Solid
370
    25
100
AcDbSpline
210
0.0
220
0.0
230
1.0
 70
     8
 71
     3
 72
    14
 73
    10
 74
     0
 42
0.000000001
 43
0.00000001
 40
0.0
 40
0.0
 40
0.0
 40
0.0
 40
0.25
 40
0.25
 40
0.5
 40
0.5
 40
0.75
 40
0.75
 40
1.0
 40
1.0
 40
1.0
 40
1.0
 10
9.200000000000014
 20
-27.76916635406977
 30
0.0
 10
9.200000000000014
 20
-27.66854183645166
 30
0.0
 10
9.218753722673597
 20
-27.56842327754112
 30
0.0
 10
9.291517535812325
 20
-27.38167264562872
 30
0.0
 10
9.345885298656015
 20
-27.29482655372887
 30
0.0
 10
9.482713453675212
 20
-27.14914073715223
 30
0.0
 10
9.566479996683737
 20
-27.08925426891757
 30
0.0
 10
9.74908978763267
 20
-27.00861553826
 30
0.0
 10
9.849941180320537
 20
-26.98706356756863
 30
0.0
 10
9.950000000001276
 20
-26.98706356756881
 30
0.0
  0
SPLINE
  5
21F
330
1F
100
AcDbEntity
  8
1
  6
SLD-Solid
370
    25
100
AcDbSpline
210
0.0
220
0.0
230
1.0
 70
     8
 71
     3
 72
    16
 73
    12
 74
     0
 42
0.000000001
 43
0.00000001
 40
0.0
 40
0.0
 40
0.0
 40
0.0
 40
0.2499999999999998
 40
0.2499999999999998
 40
0.4999999999999996
 40
0.4999999999999996
 40
0.7499999999999993
 40
0.7499999999999993
 40
0.8749999999999997
 40
0.8749999999999997
 40
1.0
 40
1.0
 40
1.0
 40
1.0
 10
9.950000000001276
 20
24.06685975304421
 30
0.0
 10
9.840493351282356
 20
24.10694414130927
 30
0.0
 10
9.742786160773399
 20
24.17117631338121
 30
0.0
 10
9.567840382590509
 20
24.33096083631444
 30
0.0
 10
9.49398825402828
 20
24.42340952890721
 30
0.0
 10
9.367115049350588
 20
24.62793394074456
 30
0.0
 10
9.314523965069599
 20
24.73961559875829
 30
0.0
 10
9.253446937619037
 20
24.9197139732459
 30
0.0
 10
9.235893303123923
 20
24.9823147986419
 30
0.0
 10
9.209102989072877
 20
25.11253703191811
 30
0.0
 10
9.20000000000043
 20
25.18114365477706
 30
0.0
 10
9.200000000000388
 20
25.24012107693791
 30
0.0
  0
SPLINE
  5
220
330
1F
100
AcDbEntity
  8
1
  6
SLD-Solid
370
    25
100
AcDbSpline
210
0.0
220
0.0
230
1.0
 70
     8
 71
     3
 72
    12
 73
     8
 74
     0
 42
0.000000001
 43
0.00000001
 40
0.0
 40
0.0
 40
0.0
 40
0.0
 40
0.2499999999999984
 40
0.2499999999999984
 40
0.4999999999999969
 40
0.4999999999999969
 40
1.0
 40
1.0
 40
1.0
 40
1.0
 10
12.28000000000001
 20
-26.98706356756882
 30
0.0
 10
12.37975762515879
 20
-26.98706356756884
 30
0.0
 10
12.48041217798164
 20
-27.00843624414832
 30
0.0
 10
12.66352022573501
 20
-27.0892138443703
 30
0.0
 10
12.74662210573628
 20
-27.14844080533419
 30
0.0
 10
12.95377706693951
 20
-27.3689835197036
 30
0.0
 10
13.03
 20
-27.5690278551815
 30
0.0
 10
13.03000000000001
 20
-27.76916635406971
 30
0.0
  0
SPLINE
  5
221
330
1F
100
AcDbEntity
  8
1
  6
SLD-Solid
370
    25
100
AcDbSpline
210
0.0
220
0.0
230
1.0
 70
     8
 71
     3
 72
    18
 73
    14
 74
     0
 42
0.000000001
 43
0.00000001
 40
0.0
 40
0.0
 40
0.0
 40
0.0
 40
0.0625000000000005
 40
0.0625000000000005
 40
0.1250000000000011
 40
0.1250000000000011
 40
0.250000000000001
 40
0.250000000000001
 40
0.5000000000000007
 40
0.5000000000000007
 40
0.7500000000000003
 40
0.7500000000000003
 40
1.0
 40
1.0
 40
1.0
 40
1.0
 10
13.03000000000035
 20
25.28882228478212
 30
0.0
 10
13.03000000000037
 20
25.25845422870358
 30
0.0
 10
13.02749489038155
 20
25.2235844243417
 30
0.0
 10
13.01920268672244
 20
25.1548229673746
 30
0.0
 10
13.01359186100945
 20
25.12104898565238
 30
0.0
 10
12.99361738711129
 20
25.02074756626962
 30
0.0
 10
12.97668865169252
 20
24.95779435948031
 30
0.0
 10
12.91737158574223
 20
24.77496256517873
 30
0.0
 10
12.86564177103966
 20
24.66011878167492
 30
0.0
 10
12.74049543384721
 20
24.45045700081743
 30
0.0
 10
12.666391308922
 20
24.35409856583139
 30
0.0
 10
12.4902568470609
 20
24.18769951882043
 30
0.0
 10
12.39180028213161
 20
24.12054595344066
 30
0.0
 10
12.2800000000013
 20
24.07805063523433
 30
0.0
  0
SPLINE
  5
222
330
1F
100
AcDbEntity
  8
1
  6
SLD-Solid
370
    25
100
AcDbSpline
210
0.0
220
0.0
230
1.0
 70
     8
 71
     3
 72
    12
 73
     8
 74
     0
 42
0.000000001
 43
0.00000001
 40
0.0
 40
0.0
 40
0.0
 40
0.0
 40
0.25
 40
0.25
 40
0.5
 40
0.5
 40
1.0
 40
1.0
 40
1.0
 40
1.0
 10
12.2800000000013
 20
24.07805063523433
 30
0.0
 10
12.11125565653914
 20
24.01391086354244
 30
0.0
 10
11.92801760594739
 20
23.96418277266271
 30
0.0
 10
11.53284005751319
 20
23.89473625632987
 30
0.0
 10
11.32774190386632
 20
23.87652150272299
 30
0.0
 10
10.70517895587217
 20
23.87317080568454
 30
0.0
 10
10.29199014189998
 20
23.9416758871229
 30
0.0
 10
9.950000000001276
 20
24.06685975304421
 30
0.0
  0
SPLINE
  5
223
330
1F
100
AcDbEntity
  8
1
  6
SLD-Solid
370
    25
100
AcDbSpline
210
0.0
220
0.0
230
1.0
 70
     8
 71
     3
 72
    14
 73
    10
 74
     0
 42
0.000000001
 43
0.00000001
 40
0.0
 40
0.0
 40
0.0
 40
0.0
 40
0.25
 40
0.25
 40
0.5
 40
0.5
 40
0.75
 40
0.75
 40
1.0
 40
1.0
 40
1.0
 40
1.0
 10
19.81199999999998
 20
-20.70061941102248
 30
0.0
 10
19.70850917860205
 20
-20.69680986289546
 30
0.0
 10
19.60561935033662
 20
-20.71680549849383
 30
0.0
 10
19.4176538045871
 20
-20.79918168928582
 30
0.0
 10
19.3325518888797
 20
-20.86175591107521
 30
0.0
 10
19.19443578081698
 20
-21.01396959698184
 30
0.0
 10
19.14054803840672
 20
-21.10393574242354
 30
0.0
 10
19.06826189157272
 20
-21.29747201520184
 30
0.0
 10
19.05000000000001
 20
-21.39940971964346
 30
0.0
 10
19.05
 20
-21.50317520739662
 30
0.0
  0
SPLINE
  5
224
330
1F
100
AcDbEntity
  8
1
  6
SLD-Solid
370
    25
100
AcDbSpline
210
0.0
220
0.0
230
1.0
 70
     8
 71
     3
 72
    11
 73
     7
 74
     0
 42
0.000000001
 43
0.00000001
 40
0.0
 40
0.0
 40
0.0
 40
0.0
 40
0.395638030985092
 40
0.5952295562019516
 40
0.7954844306562909
 40
1.0
 40
1.0
 40
1.0
 40
1.0
 10
19.81199999999998
 20
22.14359054082714
 30
0.0
 10
19.75318253972559
 20
22.16703487272859
 30
0.0
 10
19.66469283945867
 20
22.20230640423028
 30
0.0
 10
19.59783081785616
 20
22.24273261199051
 30
0.0
 10
19.56236356263866
 20
22.26532025195891
 30
0.0
 10
19.56228632739798
 20
22.26548090169717
 30
0.0
 10
19.56224730328083
 20
22.265562072082
 30
0.0
  0
SPLINE
  5
225
330
1F
100
AcDbEntity
  8
1
  6
SLD-Solid
370
    25
100
AcDbSpline
210
0.0
220
0.0
230
1.0
 70
     8
 71
     3
 72
    36
 73
    32
 74
     0
 42
0.000000001
 43
0.00000001
 40
0.0
 40
0.0
 40
0.0
 40
0.0
 40
0.1250000000000003
 40
0.1250000000000003
 40
0.1875000000000004
 40
0.1875000000000004
 40
0.2500000000000005
 40
0.2500000000000005
 40
0.3749999999999999
 40
0.3749999999999999
 40
0.4999999999999992
 40
0.4999999999999992
 40
0.5624999999999986
 40
0.5624999999999986
 40
0.624999999999998
 40
0.624999999999998
 40
0.6562499999999978
 40
0.6562499999999978
 40
0.6874999999999974
 40
0.6874999999999974
 40
0.7499999999999974
 40
0.7499999999999974
 40
0.7812499999999977
 40
0.7812499999999977
 40
0.8124999999999978
 40
0.8124999999999978
 40
0.8749999999999986
 40
0.8749999999999986
 40
0.9374999999999992
 40
0.9374999999999992
 40
1.0
 40
1.0
 40
1.0
 40
1.0
 10
35.05200000000001
 20
22.13195448568398
 30
0.0
 10
34.81701400062985
 20
22.05618084550533
 30
0.0
 10
34.44992406786966
 20
21.94031194962452
 30
0.0
 10
33.70825251315348
 20
21.73564909619524
 30
0.0
 10
33.43524539490738
 20
21.66417435222139
 30
0.0
 10
32.83995813644826
 20
21.52055794236784
 30
0.0
 10
32.5165642458496
 20
21.448168814401
 30
0.0
 10
31.47662534151387
 20
21.23996409348229
 30
0.0
 10
30.71852946726723
 20
21.1186504432458
 30
0.0
 10
29.08125553862438
 20
20.94850642954269
 30
0.0
 10
28.24226335532294
 20
20.90393498542912
 30
0.0
 10
26.95331320590656
 20
20.90760018252631
 30
0.0
 10
26.52741874649851
 20
20.92062362576013
 30
0.0
 10
25.69075342578221
 20
20.9682120104809
 30
0.0
 10
25.27865924249055
 20
21.00278693291225
 30
0.0
 10
24.67015673927413
 20
21.06930300858113
 30
0.0
 10
24.46890951660065
 20
21.09394996758273
 30
0.0
 10
24.07694268796366
 20
21.14677319473157
 30
0.0
 10
23.8852773820017
 20
21.17504498434904
 30
0.0
 10
23.32301678325512
 20
21.26453308900208
 30
0.0
 10
22.96507268347429
 20
21.33043045218858
 30
0.0
 10
22.45413116910093
 20
21.43501481595105
 30
0.0
 10
22.28749763040687
 20
21.47099164743555
 30
0.0
 10
21.96859614424886
 20
21.54298226278632
 30
0.0
 10
21.81585700774034
 20
21.57907645852496
 30
0.0
 10
21.37738221943007
 20
21.68658510620975
 30
0.0
 10
21.11125090695053
 20
21.75723649702655
 30
0.0
 10
20.63254753393705
 20
21.89080846017378
 30
0.0
 10
20.42013810529568
 20
21.95374050509034
 30
0.0
 10
20.06605651240677
 20
22.06198362639162
 30
0.0
 10
19.92193978446095
 20
22.10797144968344
 30
0.0
 10
19.81199999999998
 20
22.14359054082713
 30
0.0
  0
SPLINE
  5
226
330
1F
100
AcDbEntity
  8
1
  6
SLD-Solid
370
    25
100
AcDbSpline
210
0.0
220
0.0
230
1.0
 70
     8
 71
     3
 72
    10
 73
     6
 74
     0
 42
0.000000001
 43
0.00000001
 40
0.0
 40
0.0
 40
0.0
 40
0.0
 40
0.2297995204380169
 40
0.6127476772117743
 40
1.0
 40
1.0
 40
1.0
 40
1.0
 10
35.28607220148621
 20
21.98909025507396
 30
0.0
 10
35.28526540151127
 20
21.98957993070986
 30
0.0
 10
35.28311411412101
 20
21.99088562363697
 30
0.0
 10
35.21368574859336
 20
22.03243210954207
 30
0.0
 10
35.10609566729407
 20
22.09865699722303
 30
0.0
 10
35.05200000000001
 20
22.13195448568398
 30
0.0
  0
SPLINE
  5
227
330
1F
100
AcDbEntity
  8
1
  6
SLD-Solid
370
    25
100
AcDbSpline
210
0.0
220
0.0
230
1.0
 70
     8
 71
     3
 72
    16
 73
    12
 74
     0
 42
0.000000001
 43
0.00000001
 40
0.0
 40
0.0
 40
0.0
 40
0.0
 40
0.1250000000000011
 40
0.1250000000000011
 40
0.2500000000000023
 40
0.2500000000000023
 40
0.5000000000000016
 40
0.5000000000000016
 40
0.7500000000000008
 40
0.7500000000000008
 40
1.0
 40
1.0
 40
1.0
 40
1.0
 10
9.199999999999973
 20
25.82649087091903
 30
0.0
 10
9.199999999999985
 20
25.76704453528217
 30
0.0
 10
9.209309779240183
 20
25.72460913602998
 30
0.0
 10
9.236285539089907
 20
25.66309575968361
 30
0.0
 10
9.253818395994053
 20
25.64221451078865
 30
0.0
 10
9.314732612350813
 20
25.59089236418539
 30
0.0
 10
9.367586350542425
 20
25.57162638804159
 30
0.0
 10
9.49392326964754
 20
25.54782523997986
 30
0.0
 10
9.568606186754728
 20
25.5438020492668
 30
0.0
 10
9.74319071899028
 20
25.5556608420221
 30
0.0
 10
9.840260492227246
 20
25.57101227172014
 30
0.0
 10
9.949999999999957
 20
25.60325879037601
 30
0.0
  0
SPLINE
  5
228
330
1F
100
AcDbEntity
  8
1
  6
SLD-Solid
370
    25
100
AcDbSpline
210
0.0
220
0.0
230
1.0
 70
     8
 71
     3
 72
    12
 73
     8
 74
     0
 42
0.000000001
 43
0.00000001
 40
0.0
 40
0.0
 40
0.0
 40
0.0
 40
0.2500000000000006
 40
0.2500000000000006
 40
0.5000000000000011
 40
0.5000000000000011
 40
1.0
 40
1.0
 40
1.0
 40
1.0
 10
9.949999999999944
 20
25.60325879037601
 30
0.0
 10
10.12099348269377
 20
25.65350454636334
 30
0.0
 10
10.30594493731542
 20
25.69087007490122
 30
0.0
 10
10.70348914958041
 20
25.74162454002534
 30
0.0
 10
10.90918343641377
 20
25.75391313067251
 30
0.0
 10
11.53176214943037
 20
25.75179790476195
 30
0.0
 10
11.94250893135795
 20
25.69754140003431
 30
0.0
 10
12.27999999999997
 20
25.59426208810603
 30
0.0
  0
SPLINE
  5
229
330
1F
100
AcDbEntity
  8
1
  6
SLD-Solid
370
    25
100
AcDbSpline
210
0.0
220
0.0
230
1.0
 70
     8
 71
     3
 72
    18
 73
    14
 74
     0
 42
0.000000001
 43
0.00000001
 40
0.0
 40
0.0
 40
0.0
 40
0.0
 40
0.2500000000000006
 40
0.2500000000000006
 40
0.5000000000000011
 40
0.5000000000000011
 40
0.7500000000000017
 40
0.7500000000000017
 40
0.8750000000000009
 40
0.8750000000000009
 40
0.9375000000000006
 40
0.9375000000000006
 40
1.0
 40
1.0
 40
1.0
 40
1.0
 10
12.27999999999999
 20
25.59426208810603
 30
0.0
 10
12.39154339480304
 20
25.56012748089476
 30
0.0
 10
12.49076613158664
 20
25.54318981789732
 30
0.0
 10
12.66653346245909
 20
25.52816909760164
 30
0.0
 10
12.7402854234061
 20
25.53041158029682
 30
0.0
 10
12.86605076853517
 20
25.54934151941309
 30
0.0
 10
12.9174999666036
 20
25.56531541934162
 30
0.0
 10
12.97688531868162
 20
25.60908469940348
 30
0.0
 10
12.99394905986488
 20
25.62703563897607
 30
0.0
 10
13.01360803438727
 20
25.66754728332325
 30
0.0
 10
13.01926149413282
 20
25.68358803034139
 30
0.0
 10
13.02752275857842
 20
25.72506394381623
 30
0.0
 10
13.02999999999999
 20
25.75103822857544
 30
0.0
 10
13.02999999999999
 20
25.78129773037288
 30
0.0
  0
SPLINE
  5
22A
330
1F
100
AcDbEntity
  8
1
  6
SLD-Solid
370
    25
100
AcDbSpline
210
0.0
220
0.0
230
1.0
 70
     8
 71
     3
 72
    12
 73
     8
 74
     0
 42
0.000000001
 43
0.00000001
 40
0.0
 40
0.0
 40
0.0
 40
0.0
 40
0.2499999999999991
 40
0.2499999999999991
 40
0.4999999999999982
 40
0.4999999999999982
 40
1.0
 40
1.0
 40
1.0
 40
1.0
 10
9.200000000000014
 20
27.76916635406975
 30
0.0
 10
9.200000000000014
 20
27.66809333683724
 30
0.0
 10
9.218583298377256
 20
27.5689264133913
 30
0.0
 10
9.291549937975777
 20
27.38152387214674
 30
0.0
 10
9.34549688093282
 20
27.29531750692792
 30
0.0
 10
9.55107104167538
 20
27.07620366276164
 30
0.0
 10
9.748220416740102
 20
26.9870635675688
 30
0.0
 10
9.949999999999987
 20
26.98706356756881
 30
0.0
  0
SPLINE
  5
22B
330
1F
100
AcDbEntity
  8
1
  6
SLD-Solid
370
    25
100
AcDbSpline
210
0.0
220
0.0
230
1.0
 70
     8
 71
     3
 72
    14
 73
    10
 74
     0
 42
0.000000001
 43
0.00000001
 40
0.0
 40
0.0
 40
0.0
 40
0.0
 40
0.25
 40
0.25
 40
0.5
 40
0.5
 40
0.75
 40
0.75
 40
1.0
 40
1.0
 40
1.0
 40
1.0
 10
12.28000000000001
 20
26.98706356756881
 30
0.0
 10
12.38041018140386
 20
26.9870635675688
 30
0.0
 10
12.48007417771604
 20
27.00821121867971
 30
0.0
 10
12.66478364882752
 20
27.08984749877595
 30
0.0
 10
12.74772062670419
 20
27.14949852632651
 30
0.0
 10
12.88443521562224
 20
27.29527278596964
 30
0.0
 10
12.93853405055465
 20
27.38169791130528
 30
0.0
 10
13.01142030969678
 20
27.56897740148013
 30
0.0
 10
13.03
 20
27.66812420510655
 30
0.0
 10
13.03
 20
27.76916635406975
 30
0.0
  0
SPLINE
  5
22C
330
1F
100
AcDbEntity
  8
SK3
  6
SLD-Dashed
370
    18
100
AcDbSpline
210
0.0
220
0.0
230
1.0
 70
    24
 71
     3
 72
    16
 73
    12
 74
     0
 42
0.000000001
 43
0.00000001
 40
0.0
 40
0.0
 40
0.0
 40
0.0
 40
0.2500000000000001
 40
0.2500000000000001
 40
0.3749999999999997
 40
0.3749999999999997
 40
0.4999999999999993
 40
0.4999999999999993
 40
0.7499999999999997
 40
0.7499999999999997
 40
1.0
 40
1.0
 40
1.0
 40
1.0
 10
19.05
 20
-6.648814321294696
 30
0.0
 10
19.05000000000001
 20
-6.883696980958767
 30
0.0
 10
19.05000000000001
 20
-7.138039090382242
 30
0.0
 10
19.05
 20
-7.559342302183782
 30
0.0
 10
19.05
 20
-7.706203281714917
 30
0.0
 10
19.05
 20
-8.006602996866077
 30
0.0
 10
19.05
 20
-8.16101937868828
 30
0.0
 10
19.05
 20
-8.637259463910919
 30
0.0
 10
19.05
 20
-8.975182029350707
 30
0.0
 10
19.05
 20
-9.648952583665674
 30
0.0
 10
19.05
 20
-9.991071736925234
 30
0.0
 10
19.05
 20
-10.32953861099387
 30
0.0
  0
SPLINE
  5
22D
330
1F
100
AcDbEntity
  8
SK3
  6
SLD-Dashed
370
    18
100
AcDbSpline
210
0.0
220
0.0
230
1.0
 70
     8
 71
     3
 72
     8
 73
     4
 74
     0
 42
0.000000001
 43
0.00000001
 40
0.0
 40
0.0
 40
0.0
 40
0.0
 40
1.0
 40
1.0
 40
1.0
 40
1.0
 10
11.85037484302942
 20
-5.968209101515417
 30
0.0
 10
11.86178086872733
 20
-5.975075439535476
 30
0.0
 10
11.87318747515334
 20
-5.982020938079351
 30
0.0
 10
11.88459551241258
 20
-5.98904515301633
 30
0.0
  0
SPLINE
  5
22E
330
1F
100
AcDbEntity
  8
SK3
  6
SLD-Dashed
370
    18
100
AcDbSpline
210
0.0
220
0.0
230
1.0
 70
     8
 71
     3
 72
     8
 73
     4
 74
     0
 42
0.000000001
 43
0.00000001
 40
0.0
 40
0.0
 40
0.0
 40
0.0
 40
1.0
 40
1.0
 40
1.0
 40
1.0
 10
11.88459551241401
 20
-9.088680750586022
 30
0.0
 10
11.8731874642568
 20
-9.082191288504568
 30
0.0
 10
11.86178084690187
 20
-9.07562171217483
 30
0.0
 10
11.85037481024355
 20
-9.068972407943564
 30
0.0
  0
SPLINE
  5
22F
330
1F
100
AcDbEntity
  8
SK3
  6
SLD-Dashed
370
    18
100
AcDbSpline
210
0.0
220
0.0
230
1.0
 70
     8
 71
     3
 72
    10
 73
     6
 74
     0
 42
0.000000001
 43
0.00000001
 40
0.0
 40
0.0
 40
0.0
 40
0.0
 40
0.5000000000000006
 40
0.5000000000000006
 40
1.0
 40
1.0
 40
1.0
 40
1.0
 10
-6.349999999946871
 20
-1.852364275434483
 30
0.0
 10
-6.349999999946246
 20
-1.884502456349781
 30
0.0
 10
-6.372010279532548
 20
-1.920930484042516
 30
0.0
 10
-6.443985449793272
 20
-1.988536451535273
 30
0.0
 10
-6.494068671928491
 20
-2.020231457949835
 30
0.0
 10
-6.550000000000014
 20
-2.037559509899541
 30
0.0
  0
SPLINE
  5
230
330
1F
100
AcDbEntity
  8
SK3
  6
SLD-Dashed
370
    18
100
AcDbSpline
210
0.0
220
0.0
230
1.0
 70
     8
 71
     3
 72
    24
 73
    20
 74
     0
 42
0.000000001
 43
0.00000001
 40
0.0
 40
0.0
 40
0.0
 40
0.0
 40
0.1249999999999999
 40
0.1249999999999999
 40
0.2499999999999998
 40
0.2499999999999998
 40
0.3749999999999998
 40
0.3749999999999998
 40
0.4375000000000002
 40
0.4375000000000002
 40
0.5000000000000006
 40
0.5000000000000006
 40
0.6250000000000006
 40
0.6250000000000006
 40
0.7500000000000003
 40
0.7500000000000003
 40
0.8750000000000002
 40
0.8750000000000002
 40
1.0
 40
1.0
 40
1.0
 40
1.0
 10
-6.550000000000014
 20
-2.037559509899541
 30
0.0
 10
-6.723983741232176
 20
-2.091461310740714
 30
0.0
 10
-6.891641879068211
 20
-2.158156783912589
 30
0.0
 10
-7.210750911854302
 20
-2.323952510398609
 30
0.0
 10
-7.363949645042528
 20
-2.424539251046229
 30
0.0
 10
-7.631774800372665
 20
-2.661434328148547
 30
0.0
 10
-7.749111229659031
 20
-2.800711899435863
 30
0.0
 10
-7.873055649579658
 20
-3.032424114175584
 30
0.0
 10
-7.906351213072912
 20
-3.115029552338965
 30
0.0
 10
-7.950680152137942
 20
-3.281971347854712
 30
0.0
 10
-7.962194549439666
 20
-3.366536592697505
 30
0.0
 10
-7.96276925059701
 20
-3.623667181869308
 30
0.0
 10
-7.915417090840412
 20
-3.793086830335857
 30
0.0
 10
-7.749771859478241
 20
-4.092305421857838
 30
0.0
 10
-7.632343980454981
 20
-4.223796723378581
 30
0.0
 10
-7.365202632175272
 20
-4.444626945956008
 30
0.0
 10
-7.212217802920431
 20
-4.537168737328789
 30
0.0
 10
-6.892132151185851
 20
-4.689051201895188
 30
0.0
 10
-6.724143358778786
 20
-4.749339109406052
 30
0.0
 10
-6.550000000000014
 20
-4.797811161611744
 30
0.0
  0
SPLINE
  5
231
330
1F
100
AcDbEntity
  8
SK3
  6
SLD-Dashed
370
    18
100
AcDbSpline
210
0.0
220
0.0
230
1.0
 70
     8
 71
     3
 72
    10
 73
     6
 74
     0
 42
0.000000001
 43
0.00000001
 40
0.0
 40
0.0
 40
0.0
 40
0.0
 40
0.5
 40
0.5
 40
1.0
 40
1.0
 40
1.0
 40
1.0
 10
-6.550000000000014
 20
-4.797811161611744
 30
0.0
 10
-6.494042481158827
 20
-4.813386695433949
 30
0.0
 10
-6.443758666108746
 20
-4.826852243349395
 30
0.0
 10
-6.371900535733332
 20
-4.839663393388808
 30
0.0
 10
-6.350000000000078
 20
-4.838977205772442
 30
0.0
 10
-6.349999999999994
 20
-4.83221930649403
 30
0.0
  0
SPLINE
  5
232
330
1F
100
AcDbEntity
  8
SK3
  6
SLD-Dashed
370
    18
100
AcDbSpline
210
0.0
220
0.0
230
1.0
 70
     8
 71
     3
 72
    34
 73
    30
 74
     0
 42
0.000000001
 43
0.00000001
 40
0.0
 40
0.0
 40
0.0
 40
0.0
 40
0.1249999999999995
 40
0.1249999999999995
 40
0.2499999999999991
 40
0.2499999999999991
 40
0.3124999999999988
 40
0.3124999999999988
 40
0.3749999999999987
 40
0.3749999999999987
 40
0.4374999999999986
 40
0.4374999999999986
 40
0.4687499999999986
 40
0.4687499999999986
 40
0.4999999999999987
 40
0.4999999999999987
 40
0.5312499999999987
 40
0.5312499999999987
 40
0.5624999999999987
 40
0.5624999999999987
 40
0.6249999999999987
 40
0.6249999999999987
 40
0.6874999999999987
 40
0.6874999999999987
 40
0.7499999999999987
 40
0.7499999999999987
 40
0.8749999999999993
 40
0.8749999999999993
 40
1.0
 40
1.0
 40
1.0
 40
1.0
 10
-6.349999999946871
 20
-1.663695070130235
 30
0.0
 10
-6.016153438878721
 20
-1.647551168563542
 30
0.0
 10
-5.677588769941705
 20
-1.6659136478109
 30
0.0
 10
-5.017669713950984
 20
-1.764319778581179
 30
0.0
 10
-4.690043665492305
 20
-1.844637068505677
 30
0.0
 10
-4.21902794783878
 20
-2.019970231608284
 30
0.0
 10
-4.066104273068069
 20
-2.087357405981545
 30
0.0
 10
-3.771095173091974
 20
-2.245631184037519
 30
0.0
 10
-3.629991451925066
 20
-2.335979113223419
 30
0.0
 10
-3.374345353211488
 20
-2.545160362381296
 30
0.0
 10
-3.257257209183961
 20
-2.666280390062107
 30
0.0
 10
-3.127381008620187
 20
-2.87361072456397
 30
0.0
 10
-3.091544656720346
 20
-2.947900079122968
 30
0.0
 10
-3.043045730696164
 20
-3.100512181224952
 30
0.0
 10
-3.029958248001535
 20
-3.181055380472253
 30
0.0
 10
-3.030447177254536
 20
-3.338959828141586
 30
0.0
 10
-3.043759592269171
 20
-3.417704196333082
 30
0.0
 10
-3.093410716953668
 20
-3.568352735738863
 30
0.0
 10
-3.128905080333575
 20
-3.639078845137616
 30
0.0
 10
-3.261228091110429
 20
-3.840921525127605
 30
0.0
 10
-3.37571052941546
 20
-3.951995826610079
 30
0.0
 10
-3.633475804464506
 20
-4.14886287556955
 30
0.0
 10
-3.775354551298946
 20
-4.232247979709953
 30
0.0
 10
-4.068605794022656
 20
-4.375955318816446
 30
0.0
 10
-4.221486499734139
 20
-4.436987582830912
 30
0.0
 10
-4.694759440044119
 20
-4.595364297991456
 30
0.0
 10
-5.018772320142944
 20
-4.665313220753323
 30
0.0
 10
-5.677432505892102
 20
-4.752054993682947
 30
0.0
 10
-6.016234878347279
 20
-4.76817430829684
 30
0.0
 10
-6.349999999999994
 20
-4.753970002304785
 30
0.0
  0
SPLINE
  5
233
330
1F
100
AcDbEntity
  8
1
  6
SLD-Dashed
370
    18
100
AcDbSpline
210
0.0
220
0.0
230
1.0
 70
     8
 71
     3
 72
    12
 73
     8
 74
     0
 42
0.000000001
 43
0.00000001
 40
0.0
 40
0.0
 40
0.0
 40
0.0
 40
0.5
 40
0.5
 40
0.75
 40
0.75
 40
1.0
 40
1.0
 40
1.0
 40
1.0
 10
19.0499999999998
 20
-21.50317520739682
 30
0.0
 10
19.04999999999975
 20
-21.29773999868822
 30
0.0
 10
19.12486157369892
 20
-21.09089273506231
 30
0.0
 10
19.33217970162045
 20
-20.86204292177921
 30
0.0
 10
19.4162009640631
 20
-20.79992699686349
 30
0.0
 10
19.60584727947731
 20
-20.71659770926355
 30
0.0
 10
19.70831978886932
 20
-20.69680289136609
 30
0.0
 10
19.81199999999998
 20
-20.70061941102248
 30
0.0
  0
SPLINE
  5
234
330
1F
100
AcDbEntity
  8
1
  6
SLD-Dashed
370
    18
100
AcDbSpline
210
0.0
220
0.0
230
1.0
 70
    24
 71
     2
 72
     6
 73
     3
 74
     0
 42
0.000000001
 43
0.00000001
 40
0.0
 40
0.0
 40
0.0
 40
0.2500000000000002
 40
0.2500000000000002
 40
0.2500000000000002
 10
3.200000000000008
 20
-22.41000000000004
 30
0.0
 10
3.170406995816597
 20
-22.41000000000002
 30
0.0
 10
3.144481324703796
 20
-22.41
 30
0.0
  0
SPLINE
  5
235
330
1F
100
AcDbEntity
  8
1
  6
SLD-Dashed
370
    18
100
AcDbSpline
210
0.0
220
0.0
230
1.0
 70
    24
 71
     3
 72
     8
 73
     4
 74
     0
 42
0.000000001
 43
0.00000001
 40
0.2500000000000002
 40
0.2500000000000002
 40
0.2500000000000002
 40
0.2500000000000002
 40
0.5000000000000002
 40
0.5000000000000002
 40
0.5000000000000002
 40
0.5000000000000002
 10
3.144481324703796
 20
-22.41
 30
0.0
 10
3.118555653590996
 20
-22.41
 30
0.0
 10
3.097084490555638
 20
-22.41
 30
0.0
 10
3.096615422637519
 20
-22.41
 30
0.0
  0
SPLINE
  5
236
330
1F
100
AcDbEntity
  8
1
  6
SLD-Dashed
370
    18
100
AcDbSpline
210
0.0
220
0.0
230
1.0
 70
    24
 71
     3
 72
     8
 73
     4
 74
     0
 42
0.000000001
 43
0.00000001
 40
0.5000000000000002
 40
0.5000000000000002
 40
0.5000000000000002
 40
0.5000000000000002
 40
0.5625000000000002
 40
0.5625000000000002
 40
0.5625000000000002
 40
0.5625000000000002
 10
3.096615422637519
 20
-22.41
 30
0.0
 10
3.096498155657976
 20
-22.41
 30
0.0
 10
3.097576707176336
 20
-22.41
 30
0.0
 10
3.099789717980514
 20
-22.41
 30
0.0
  0
SPLINE
  5
237
330
1F
100
AcDbEntity
  8
1
  6
SLD-Dashed
370
    18
100
AcDbSpline
210
0.0
220
0.0
230
1.0
 70
    24
 71
     3
 72
     8
 73
     4
 74
     0
 42
0.000000001
 43
0.00000001
 40
0.5625000000000002
 40
0.5625000000000002
 40
0.5625000000000002
 40
0.5625000000000002
 40
0.6250000000000002
 40
0.6250000000000002
 40
0.6250000000000002
 40
0.6250000000000002
 10
3.099789717980514
 20
-22.41
 30
0.0
 10
3.102002728784719
 20
-22.41
 30
0.0
 10
3.105345908570325
 20
-22.41
 30
0.0
 10
3.109607407038029
 20
-22.41
 30
0.0
  0
SPLINE
  5
238
330
1F
100
AcDbEntity
  8
1
  6
SLD-Dashed
370
    18
100
AcDbSpline
210
0.0
220
0.0
230
1.0
 70
    24
 71
     3
 72
     8
 73
     4
 74
     0
 42
0.000000001
 43
0.00000001
 40
0.6250000000000002
 40
0.6250000000000002
 40
0.6250000000000002
 40
0.6250000000000002
 40
0.7500000000000001
 40
0.7500000000000001
 40
0.7500000000000001
 40
0.7500000000000001
 10
3.109607407038029
 20
-22.41
 30
0.0
 10
3.118130403973379
 20
-22.41
 30
0.0
 10
3.130398007648125
 20
-22.41
 30
0.0
 10
3.143490990967599
 20
-22.41
 30
0.0
  0
SPLINE
  5
239
330
1F
100
AcDbEntity
  8
1
  6
SLD-Dashed
370
    18
100
AcDbSpline
210
0.0
220
0.0
230
1.0
 70
    24
 71
     2
 72
     6
 73
     3
 74
     0
 42
0.000000001
 43
0.00000001
 40
0.7500000000000001
 40
0.7500000000000001
 40
0.7500000000000001
 40
1.0
 40
1.0
 40
1.0
 10
3.143490990967599
 20
-22.41
 30
0.0
 10
3.169676957606518
 20
-22.41000000000002
 30
0.0
 10
3.200000000000008
 20
-22.41000000000004
 30
0.0
  0
SPLINE
  5
23A
330
1F
100
AcDbEntity
  8
1
  6
SLD-Dashed
370
    18
100
AcDbSpline
210
0.0
220
0.0
230
1.0
 70
     8
 71
     3
 72
    23
 73
    19
 74
     0
 42
0.000000001
 43
0.00000001
 40
0.0
 40
0.0
 40
0.0
 40
0.0
 40
0.054312353396828
 40
0.109450017060711
 40
0.1650013439886374
 40
0.2213905659213885
 40
0.3306361484716331
 40
0.3860248320363298
 40
0.4421465816703617
 40
0.4988100366976549
 40
0.5562620524500069
 40
0.6141171085856456
 40
0.6728084414371717
 40
0.7297757903465805
 40
0.7871696574325007
 40
0.8459516570013466
 40
0.9052320940255666
 40
1.0
 40
1.0
 40
1.0
 40
1.0
 10
19.81199999999998
 20
-20.70061941102247
 30
0.0
 10
20.0295845906112
 20
-20.71062447742355
 30
0.0
 10
20.46806010612691
 20
-20.73078664348348
 30
0.0
 10
21.11678124753251
 20
-20.78652324784899
 30
0.0
 10
21.75839868611652
 20
-20.85989944104644
 30
0.0
 10
22.58047982776811
 20
-20.97906483756439
 30
0.0
 10
23.35556109354119
 20
-21.12472551276106
 30
0.0
 10
24.06749578414778
 20
-21.28436939109184
 30
0.0
 10
24.57583974542919
 20
-21.41014452390284
 30
0.0
 10
25.05235803496982
 20
-21.53830626597814
 30
0.0
 10
25.49200955762644
 20
-21.665202175028
 30
0.0
 10
25.89122940542122
 20
-21.78749147482634
 30
0.0
 10
26.24053383019816
 20
-21.89995142809227
 30
0.0
 10
26.53760680883126
 20
-21.99949992125922
 30
0.0
 10
26.7822760199495
 20
-22.0841474409342
 30
0.0
 10
26.97110914908631
 20
-22.15109248715874
 30
0.0
 10
27.13696654074314
 20
-22.21102319238564
 30
0.0
 10
27.15317930665647
 20
-22.21700532911393
 30
0.0
 10
27.16315312296473
 20
-22.22068543731866
 30
0.0
  0
SPLINE
  5
23B
330
1F
100
AcDbEntity
  8
1
  6
SLD-Dashed
370
    18
100
AcDbSpline
210
0.0
220
0.0
230
1.0
 70
     8
 71
     3
 72
    34
 73
    30
 74
     0
 42
0.000000001
 43
0.00000001
 40
0.0
 40
0.0
 40
0.0
 40
0.0
 40
0.1249999999999998
 40
0.1249999999999998
 40
0.1874999999999996
 40
0.1874999999999996
 40
0.2499999999999994
 40
0.2499999999999994
 40
0.3124999999999992
 40
0.3124999999999992
 40
0.3749999999999989
 40
0.3749999999999989
 40
0.4999999999999985
 40
0.4999999999999985
 40
0.6249999999999981
 40
0.6249999999999981
 40
0.6874999999999979
 40
0.6874999999999979
 40
0.7499999999999977
 40
0.7499999999999977
 40
0.781249999999998
 40
0.781249999999998
 40
0.8124999999999982
 40
0.8124999999999982
 40
0.8749999999999989
 40
0.8749999999999989
 40
0.9374999999999994
 40
0.9374999999999994
 40
1.0
 40
1.0
 40
1.0
 40
1.0
 10
19.81199999999998
 20
22.14359054082714
 30
0.0
 10
20.03188774746555
 20
22.07234970879566
 30
0.0
 10
20.38530417363187
 20
21.95989293839649
 30
0.0
 10
21.10815022629058
 20
21.75805413115315
 30
0.0
 10
21.37537492605644
 20
21.68710197131152
 30
0.0
 10
21.96005207336226
 20
21.54369706035098
 30
0.0
 10
22.27876216822315
 20
21.47096262107488
 30
0.0
 10
22.96305195801375
 20
21.33079299262703
 30
0.0
 10
23.32193588698243
 20
21.26471963328489
 30
0.0
 10
24.07195618484358
 20
21.14531913903107
 30
0.0
 10
24.46410874531545
 20
21.09186154242995
 30
0.0
 10
25.68465113827488
 20
20.95833737363084
 30
0.0
 10
26.52134481958428
 20
20.90889860219576
 30
0.0
 10
28.24074163309746
 20
20.90386937390732
 30
0.0
 10
29.08157122294584
 20
20.94861084278481
 30
0.0
 10
30.30595481930822
 20
21.07574039396329
 30
0.0
 10
30.70309201135381
 20
21.12769578411674
 30
0.0
 10
31.45940256457759
 20
21.24418997903735
 30
0.0
 10
31.82126225272804
 20
21.30901509490252
 30
0.0
 10
32.33897298693143
 20
21.41258804618404
 30
0.0
 10
32.50795644842362
 20
21.44831361561691
 30
0.0
 10
32.83160105482329
 20
21.51997228961745
 30
0.0
 10
32.98684580563908
 20
21.5560079049804
 30
0.0
 10
33.43321874431161
 20
21.66366068971138
 30
0.0
 10
33.70512103690816
 20
21.73483488687316
 30
0.0
 10
34.19634102958942
 20
21.87028723260274
 30
0.0
 10
34.41534095851197
 20
21.93453655844476
 30
0.0
 10
34.78317753990957
 20
22.04608519393807
 30
0.0
 10
34.93451346575515
 20
22.09406975044201
 30
0.0
 10
35.05199999999999
 20
22.13195448568398
 30
0.0
  0
SPLINE
  5
23C
330
1F
100
AcDbEntity
  8
SK3
  6
SLD-Dashed
370
    18
100
AcDbSpline
210
0.0
220
0.0
230
1.0
 70
     8
 71
     3
 72
    10
 73
     6
 74
     0
 42
0.000000001
 43
0.00000001
 40
0.0
 40
0.0
 40
0.0
 40
0.0
 40
0.5
 40
0.5
 40
1.0
 40
1.0
 40
1.0
 40
1.0
 10
-6.549999999999414
 20
4.797811161628954
 30
0.0
 10
-6.494042481158226
 20
4.81338669545116
 30
0.0
 10
-6.443758666108145
 20
4.826852243366614
 30
0.0
 10
-6.371900535732719
 20
4.839663393406028
 30
0.0
 10
-6.349999999999477
 20
4.838977205789661
 30
0.0
 10
-6.349999999999394
 20
4.832219306511242
 30
0.0
  0
SPLINE
  5
23D
330
1F
100
AcDbEntity
  8
SK3
  6
SLD-Dashed
370
    18
100
AcDbSpline
210
0.0
220
0.0
230
1.0
 70
     8
 71
     3
 72
    24
 73
    20
 74
     0
 42
0.000000001
 43
0.00000001
 40
0.0
 40
0.0
 40
0.0
 40
0.0
 40
0.1249999999999995
 40
0.1249999999999995
 40
0.249999999999999
 40
0.249999999999999
 40
0.3749999999999985
 40
0.3749999999999985
 40
0.4374999999999985
 40
0.4374999999999985
 40
0.4999999999999986
 40
0.4999999999999986
 40
0.6249999999999987
 40
0.6249999999999987
 40
0.7499999999999991
 40
0.7499999999999991
 40
0.8749999999999994
 40
0.8749999999999994
 40
1.0
 40
1.0
 40
1.0
 40
1.0
 10
-6.549999999999414
 20
2.037559509916739
 30
0.0
 10
-6.723983741231575
 20
2.091461310757905
 30
0.0
 10
-6.891641879067611
 20
2.15815678392978
 30
0.0
 10
-7.210750911853716
 20
2.323952510415808
 30
0.0
 10
-7.363949645041956
 20
2.424539251063434
 30
0.0
 10
-7.631774800372079
 20
2.661434328165752
 30
0.0
 10
-7.749111229658459
 20
2.800711899453062
 30
0.0
 10
-7.873055649579086
 20
3.032424114192775
 30
0.0
 10
-7.90635121307234
 20
3.115029552356177
 30
0.0
 10
-7.950680152137356
 20
3.281971347871924
 30
0.0
 10
-7.962194549439094
 20
3.366536592714711
 30
0.0
 10
-7.962769250596451
 20
3.623667181886513
 30
0.0
 10
-7.915417090839826
 20
3.793086830353069
 30
0.0
 10
-7.749771859477654
 20
4.09230542187505
 30
0.0
 10
-7.632343980454408
 20
4.223796723395807
 30
0.0
 10
-7.365202632174685
 20
4.44462694597322
 30
0.0
 10
-7.212217802919831
 20
4.537168737346001
 30
0.0
 10
-6.892132151185264
 20
4.6890512019124
 30
0.0
 10
-6.724143358778186
 20
4.749339109423264
 30
0.0
 10
-6.549999999999414
 20
4.797811161628956
 30
0.0
  0
SPLINE
  5
23E
330
1F
100
AcDbEntity
  8
SK3
  6
SLD-Dashed
370
    18
100
AcDbSpline
210
0.0
220
0.0
230
1.0
 70
     8
 71
     3
 72
    30
 73
    26
 74
     0
 42
0.000000001
 43
0.00000001
 40
0.0
 40
0.0
 40
0.0
 40
0.0
 40
0.125
 40
0.125
 40
0.2500000000000001
 40
0.2500000000000001
 40
0.3750000000000002
 40
0.3750000000000002
 40
0.4375000000000002
 40
0.4375000000000002
 40
0.4687500000000003
 40
0.4687500000000003
 40
0.5000000000000003
 40
0.5000000000000003
 40
0.5625000000000003
 40
0.5625000000000003
 40
0.6250000000000003
 40
0.6250000000000003
 40
0.6875000000000003
 40
0.6875000000000003
 40
0.7500000000000006
 40
0.7500000000000006
 40
0.8750000000000003
 40
0.8750000000000003
 40
1.0
 40
1.0
 40
1.0
 40
1.0
 10
-6.34999999994688
 20
1.663695070130509
 30
0.0
 10
-6.016756087501514
 20
1.647580310993759
 30
0.0
 10
-5.684415914027918
 20
1.665244836055596
 30
0.0
 10
-5.021421931621274
 20
1.763416541298443
 30
0.0
 10
-4.69390237209538
 20
1.843704447110195
 30
0.0
 10
-4.06923029850424
 20
2.075236720976287
 30
0.0
 10
-3.764528604751362
 20
2.226810251301442
 30
0.0
 10
-3.376052108737774
 20
2.543314951024503
 30
0.0
 10
-3.261738447836117
 20
2.660940146343656
 30
0.0
 10
-3.130375259875697
 20
2.867977515836101
 30
0.0
 10
-3.093995049302233
 20
2.942104107202245
 30
0.0
 10
-3.044198888823932
 20
3.095104063078264
 30
0.0
 10
-3.030512795226401
 20
3.175827944391395
 30
0.0
 10
-3.029588692138365
 20
3.413014200497567
 30
0.0
 10
-3.084035807158538
 20
3.569697369918361
 30
0.0
 10
-3.258325988035514
 20
3.837414099720011
 30
0.0
 10
-3.375103846025053
 20
3.951433243002175
 30
0.0
 10
-3.632579712644199
 20
4.14827714421224
 30
0.0
 10
-3.77275569652614
 20
4.230872550419152
 30
0.0
 10
-4.068083867608244
 20
4.375800343520406
 30
0.0
 10
-4.222497090127073
 20
4.437307216870564
 30
0.0
 10
-4.691422790505727
 20
4.594284741670061
 30
0.0
 10
-5.016183215868118
 20
4.665047598692541
 30
0.0
 10
-5.682593064122065
 20
4.752658970182018
 30
0.0
 10
-6.016123734345843
 20
4.768179038340097
 30
0.0
 10
-6.349999999999394
 20
4.753970002305052
 30
0.0
  0
SPLINE
  5
23F
330
1F
100
AcDbEntity
  8
SK3
  6
SLD-Dashed
370
    18
100
AcDbSpline
210
0.0
220
0.0
230
1.0
 70
     8
 71
     2
 72
     6
 73
     3
 74
     0
 42
0.000000001
 43
0.00000001
 40
0.0
 40
0.0
 40
0.0
 40
0.0312499999999997
 40
0.0312499999999997
 40
0.0312499999999997
 10
26.22550000000003
 20
-9.524999999999999
 30
0.0
 10
26.17434317218583
 20
-9.486294570018302
 30
0.0
 10
26.07574149286378
 20
-9.41269718383353
 30
0.0
  0
SPLINE
  5
240
330
1F
100
AcDbEntity
  8
SK3
  6
SLD-Dashed
370
    18
100
AcDbSpline
210
0.0
220
0.0
230
1.0
 70
     8
 71
     3
 72
     8
 73
     4
 74
     0
 42
0.000000001
 43
0.00000001
 40
0.0312499999999997
 40
0.0312499999999997
 40
0.0312499999999997
 40
0.0312499999999997
 40
0.0468749999999996
 40
0.0468749999999996
 40
0.0468749999999996
 40
0.0468749999999996
 10
26.07574149286378
 20
-9.41269718383353
 30
0.0
 10
26.02644065320274
 20
-9.375898490741143
 30
0.0
 10
25.96482373926433
 20
-9.3300689998869
 30
0.0
 10
25.89190527952039
 20
-9.276286574051545
 30
0.0
  0
SPLINE
  5
241
330
1F
100
AcDbEntity
  8
SK3
  6
SLD-Dashed
370
    18
100
AcDbSpline
210
0.0
220
0.0
230
1.0
 70
     8
 71
     3
 72
     8
 73
     4
 74
     0
 42
0.000000001
 43
0.00000001
 40
0.0468749999999996
 40
0.0468749999999996
 40
0.0468749999999996
 40
0.0468749999999996
 40
0.0624999999999995
 40
0.0624999999999995
 40
0.0624999999999995
 40
0.0624999999999995
 10
25.89190527952039
 20
-9.276286574051545
 30
0.0
 10
25.8189868197765
 20
-9.222504148216196
 30
0.0
 10
25.73556966143041
 20
-9.16136150100714
 30
0.0
 10
25.64236424432577
 20
-9.09379409706778
 30
0.0
  0
SPLINE
  5
242
330
1F
100
AcDbEntity
  8
SK3
  6
SLD-Dashed
370
    18
100
AcDbSpline
210
0.0
220
0.0
230
1.0
 70
     8
 71
     3
 72
     8
 73
     4
 74
     0
 42
0.000000001
 43
0.00000001
 40
0.0624999999999995
 40
0.0624999999999995
 40
0.0624999999999995
 40
0.0624999999999995
 40
0.0781249999999994
 40
0.0781249999999994
 40
0.0781249999999994
 40
0.0781249999999994
 10
25.64236424432577
 20
-9.09379409706778
 30
0.0
 10
25.54915882722113
 20
-9.026226693128422
 30
0.0
 10
25.44615986518863
 20
-8.952227614798469
 30
0.0
 10
25.33367578733851
 20
-8.872564801137496
 30
0.0
  0
SPLINE
  5
243
330
1F
100
AcDbEntity
  8
SK3
  6
SLD-Dashed
370
    18
100
AcDbSpline
210
0.0
220
0.0
230
1.0
 70
     8
 71
     3
 72
     8
 73
     4
 74
     0
 42
0.000000001
 43
0.00000001
 40
0.0781249999999994
 40
0.0781249999999994
 40
0.0781249999999994
 40
0.0781249999999994
 40
0.0937499999999993
 40
0.0937499999999993
 40
0.0937499999999993
 40
0.0937499999999993
 10
25.33367578733851
 20
-8.872564801137496
 30
0.0
 10
25.22119170948837
 20
-8.792901987476522
 30
0.0
 10
25.0985724032315
 20
-8.707128391408622
 30
0.0
 10
24.96829008193864
 20
-8.617655263699842
 30
0.0
  0
SPLINE
  5
244
330
1F
100
AcDbEntity
  8
SK3
  6
SLD-Dashed
370
    18
100
AcDbSpline
210
0.0
220
0.0
230
1.0
 70
     8
 71
     3
 72
     8
 73
     4
 74
     0
 42
0.000000001
 43
0.00000001
 40
0.0937499999999993
 40
0.0937499999999993
 40
0.0937499999999993
 40
0.0937499999999993
 40
0.124999999999999
 40
0.124999999999999
 40
0.124999999999999
 40
0.124999999999999
 10
24.96829008193864
 20
-8.617655263699842
 30
0.0
 10
24.707725439353
 20
-8.438709008282267
 30
0.0
 10
24.41743242600809
 20
-8.245314563493832
 30
0.0
 10
24.09779500775642
 20
-8.04475351955114
 30
0.0
  0
SPLINE
  5
245
330
1F
100
AcDbEntity
  8
SK3
  6
SLD-Dashed
370
    18
100
AcDbSpline
210
0.0
220
0.0
230
1.0
 70
     8
 71
     3
 72
     8
 73
     4
 74
     0
 42
0.000000001
 43
0.00000001
 40
0.124999999999999
 40
0.124999999999999
 40
0.124999999999999
 40
0.124999999999999
 40
0.1562499999999988
 40
0.1562499999999988
 40
0.1562499999999988
 40
0.1562499999999988
 10
24.09779500775642
 20
-8.04475351955114
 30
0.0
 10
23.77815758950476
 20
-7.844192475608441
 30
0.0
 10
23.42771659541086
 20
-7.635735580724814
 30
0.0
 10
23.05654612484444
 20
-7.435740487705705
 30
0.0
  0
SPLINE
  5
246
330
1F
100
AcDbEntity
  8
SK3
  6
SLD-Dashed
370
    18
100
AcDbSpline
210
0.0
220
0.0
230
1.0
 70
     8
 71
     3
 72
     8
 73
     4
 74
     0
 42
0.000000001
 43
0.00000001
 40
0.1562499999999988
 40
0.1562499999999988
 40
0.1562499999999988
 40
0.1562499999999988
 40
0.1874999999999984
 40
0.1874999999999984
 40
0.1874999999999984
 40
0.1874999999999984
 10
23.05654612484444
 20
-7.435740487705705
 30
0.0
 10
22.68537565427802
 20
-7.235745394686598
 30
0.0
 10
22.29110065846591
 20
-7.042219871342091
 30
0.0
 10
21.866872286897
 20
-6.868230793347592
 30
0.0
  0
SPLINE
  5
247
330
1F
100
AcDbEntity
  8
SK3
  6
SLD-Dashed
370
    18
100
AcDbSpline
210
0.0
220
0.0
230
1.0
 70
     8
 71
     3
 72
     8
 73
     4
 74
     0
 42
0.000000001
 43
0.00000001
 40
0.1874999999999984
 40
0.1874999999999984
 40
0.1874999999999984
 40
0.1874999999999984
 40
0.2031249999999984
 40
0.2031249999999984
 40
0.2031249999999984
 40
0.2031249999999984
 10
21.866872286897
 20
-6.868230793347592
 30
0.0
 10
21.65475810111255
 20
-6.781236254350342
 30
0.0
 10
21.43382573696744
 20
-6.698900448787979
 30
0.0
 10
21.20899216487519
 20
-6.625637472575163
 30
0.0
  0
SPLINE
  5
248
330
1F
100
AcDbEntity
  8
SK3
  6
SLD-Dashed
370
    18
100
AcDbSpline
210
0.0
220
0.0
230
1.0
 70
     8
 71
     3
 72
     8
 73
     4
 74
     0
 42
0.000000001
 43
0.00000001
 40
0.2031249999999984
 40
0.2031249999999984
 40
0.2031249999999984
 40
0.2031249999999984
 40
0.2187499999999983
 40
0.2187499999999983
 40
0.2187499999999983
 40
0.2187499999999983
 10
21.20899216487519
 20
-6.625637472575163
 30
0.0
 10
20.98415859278295
 20
-6.552374496362347
 30
0.0
 10
20.75464494421085
 20
-6.487784944442978
 30
0.0
 10
20.51977426862502
 20
-6.434132509570492
 30
0.0
  0
SPLINE
  5
249
330
1F
100
AcDbEntity
  8
SK3
  6
SLD-Dashed
370
    18
100
AcDbSpline
210
0.0
220
0.0
230
1.0
 70
     8
 71
     3
 72
     8
 73
     4
 74
     0
 42
0.000000001
 43
0.00000001
 40
0.2187499999999983
 40
0.2187499999999983
 40
0.2187499999999983
 40
0.2187499999999983
 40
0.2343749999999983
 40
0.2343749999999983
 40
0.2343749999999983
 40
0.2343749999999983
 10
20.51977426862502
 20
-6.434132509570492
 30
0.0
 10
20.28490359303918
 20
-6.380480074698013
 30
0.0
 10
20.04406693604323
 20
-6.337698348757373
 30
0.0
 10
19.79825497792474
 20
-6.308542641688016
 30
0.0
  0
SPLINE
  5
24A
330
1F
100
AcDbEntity
  8
SK3
  6
SLD-Dashed
370
    18
100
AcDbSpline
210
0.0
220
0.0
230
1.0
 70
     8
 71
     3
 72
     8
 73
     4
 74
     0
 42
0.000000001
 43
0.00000001
 40
0.2343749999999983
 40
0.2343749999999983
 40
0.2343749999999983
 40
0.2343749999999983
 40
0.2499999999999982
 40
0.2499999999999982
 40
0.2499999999999982
 40
0.2499999999999982
 10
19.79825497792474
 20
-6.308542641688016
 30
0.0
 10
19.55244301980624
 20
-6.279386934618665
 30
0.0
 10
19.30711177588595
 20
-6.264501417651176
 30
0.0
 10
19.06225787428875
 20
-6.264022270512918
 30
0.0
  0
SPLINE
  5
24B
330
1F
100
AcDbEntity
  8
SK3
  6
SLD-Dashed
370
    18
100
AcDbSpline
210
0.0
220
0.0
230
1.0
 70
     8
 71
     3
 72
     8
 73
     4
 74
     0
 42
0.000000001
 43
0.00000001
 40
0.2499999999999982
 40
0.2499999999999982
 40
0.2499999999999982
 40
0.2499999999999982
 40
0.2656249999999982
 40
0.2656249999999982
 40
0.2656249999999982
 40
0.2656249999999982
 10
19.06225787428875
 20
-6.264022270512918
 30
0.0
 10
18.81740397269153
 20
-6.263543123374661
 30
0.0
 10
18.57302740079071
 20
-6.277468811029759
 30
0.0
 10
18.32912058838215
 20
-6.305354222888214
 30
0.0
  0
SPLINE
  5
24C
330
1F
100
AcDbEntity
  8
SK3
  6
SLD-Dashed
370
    18
100
AcDbSpline
210
0.0
220
0.0
230
1.0
 70
     8
 71
     3
 72
     8
 73
     4
 74
     0
 42
0.000000001
 43
0.00000001
 40
0.2656249999999982
 40
0.2656249999999982
 40
0.2656249999999982
 40
0.2656249999999982
 40
0.2812499999999982
 40
0.2812499999999982
 40
0.2812499999999982
 40
0.2812499999999982
 10
18.32912058838215
 20
-6.305354222888214
 30
0.0
 10
18.08521377597361
 20
-6.333239634746662
 30
0.0
 10
17.8410981372973
 20
-6.375442830892808
 30
0.0
 10
17.6048397567226
 20
-6.428554493721685
 30
0.0
  0
SPLINE
  5
24D
330
1F
100
AcDbEntity
  8
SK3
  6
SLD-Dashed
370
    18
100
AcDbSpline
210
0.0
220
0.0
230
1.0
 70
     8
 71
     3
 72
     8
 73
     4
 74
     0
 42
0.000000001
 43
0.00000001
 40
0.2812499999999982
 40
0.2812499999999982
 40
0.2812499999999982
 40
0.2812499999999982
 40
0.2968749999999981
 40
0.2968749999999981
 40
0.2968749999999981
 40
0.2968749999999981
 10
17.6048397567226
 20
-6.428554493721685
 30
0.0
 10
17.3685813761479
 20
-6.481666156550568
 30
0.0
 10
17.13817844538049
 20
-6.54579265747339
 30
0.0
 10
16.91283525340018
 20
-6.618557086261988
 30
0.0
  0
SPLINE
  5
24E
330
1F
100
AcDbEntity
  8
SK3
  6
SLD-Dashed
370
    18
100
AcDbSpline
210
0.0
220
0.0
230
1.0
 70
     8
 71
     3
 72
     8
 73
     4
 74
     0
 42
0.000000001
 43
0.00000001
 40
0.2968749999999981
 40
0.2968749999999981
 40
0.2968749999999981
 40
0.2968749999999981
 40
0.3124999999999981
 40
0.3124999999999981
 40
0.3124999999999981
 40
0.3124999999999981
 10
16.91283525340018
 20
-6.618557086261988
 30
0.0
 10
16.6874920614199
 20
-6.691321515050578
 30
0.0
 10
16.46616801647216
 20
-6.773196264177918
 30
0.0
 10
16.25317653205742
 20
-6.860032526222734
 30
0.0
  0
SPLINE
  5
24F
330
1F
100
AcDbEntity
  8
SK3
  6
SLD-Dashed
370
    18
100
AcDbSpline
210
0.0
220
0.0
230
1.0
 70
     8
 71
     3
 72
     8
 73
     4
 74
     0
 42
0.000000001
 43
0.00000001
 40
0.3124999999999981
 40
0.3124999999999981
 40
0.3124999999999981
 40
0.3124999999999981
 40
0.3437499999999982
 40
0.3437499999999982
 40
0.3437499999999982
 40
0.3437499999999982
 10
16.25317653205742
 20
-6.860032526222734
 30
0.0
 10
15.82719356322797
 20
-7.033705050312367
 30
0.0
 10
15.43145257901958
 20
-7.227241255364968
 30
0.0
 10
15.05894944316348
 20
-7.427402594260307
 30
0.0
  0
SPLINE
  5
250
330
1F
100
AcDbEntity
  8
SK3
  6
SLD-Dashed
370
    18
100
AcDbSpline
210
0.0
220
0.0
230
1.0
 70
     8
 71
     3
 72
     8
 73
     4
 74
     0
 42
0.000000001
 43
0.00000001
 40
0.3437499999999982
 40
0.3437499999999982
 40
0.3437499999999982
 40
0.3437499999999982
 40
0.3749999999999983
 40
0.3749999999999983
 40
0.3749999999999983
 40
0.3749999999999983
 10
15.05894944316348
 20
-7.427402594260307
 30
0.0
 10
14.68644630730738
 20
-7.627563933155654
 30
0.0
 10
14.3347704651219
 20
-7.836392403580445
 30
0.0
 10
14.01486893587597
 20
-8.036813397292896
 30
0.0
  0
SPLINE
  5
251
330
1F
100
AcDbEntity
  8
SK3
  6
SLD-Dashed
370
    18
100
AcDbSpline
210
0.0
220
0.0
230
1.0
 70
     8
 71
     3
 72
     8
 73
     4
 74
     0
 42
0.000000001
 43
0.00000001
 40
0.3749999999999983
 40
0.3749999999999983
 40
0.3749999999999983
 40
0.3749999999999983
 40
0.4062499999999984
 40
0.4062499999999984
 40
0.4062499999999984
 40
0.4062499999999984
 10
14.01486893587597
 20
-8.036813397292896
 30
0.0
 10
13.69496740663004
 20
-8.237234391005343
 30
0.0
 10
13.40489211660993
 20
-8.430256234874
 30
0.0
 10
13.14468600150741
 20
-8.608748931801427
 30
0.0
  0
SPLINE
  5
252
330
1F
100
AcDbEntity
  8
SK3
  6
SLD-Dashed
370
    18
100
AcDbSpline
210
0.0
220
0.0
230
1.0
 70
     8
 71
     3
 72
     8
 73
     4
 74
     0
 42
0.000000001
 43
0.00000001
 40
0.4062499999999984
 40
0.4062499999999984
 40
0.4062499999999984
 40
0.4062499999999984
 40
0.4374999999999985
 40
0.4374999999999985
 40
0.4374999999999985
 40
0.4374999999999985
 10
13.14468600150741
 20
-8.608748931801427
 30
0.0
 10
12.88447988640488
 20
-8.787241628728856
 30
0.0
 10
12.65369906311255
 20
-8.95174643556116
 30
0.0
 10
12.46607048156641
 20
-9.087681368407505
 30
0.0
  0
SPLINE
  5
253
330
1F
100
AcDbEntity
  8
SK3
  6
SLD-Dashed
370
    18
100
AcDbSpline
210
0.0
220
0.0
230
1.0
 70
     8
 71
     3
 72
     8
 73
     4
 74
     0
 42
0.000000001
 43
0.00000001
 40
0.4374999999999985
 40
0.4374999999999985
 40
0.4374999999999985
 40
0.4374999999999985
 40
0.4531249999999986
 40
0.4531249999999986
 40
0.4531249999999986
 40
0.4531249999999986
 10
12.46607048156641
 20
-9.087681368407505
 30
0.0
 10
12.37225619079334
 20
-9.155648834830679
 30
0.0
 10
12.28853691438342
 20
-9.216982516629752
 30
0.0
 10
12.21541266159229
 20
-9.270890401483719
 30
0.0
  0
SPLINE
  5
254
330
1F
100
AcDbEntity
  8
SK3
  6
SLD-Dashed
370
    18
100
AcDbSpline
210
0.0
220
0.0
230
1.0
 70
     8
 71
     3
 72
     8
 73
     4
 74
     0
 42
0.000000001
 43
0.00000001
 40
0.4531249999999986
 40
0.4531249999999986
 40
0.4531249999999986
 40
0.4531249999999986
 40
0.4687499999999987
 40
0.4687499999999987
 40
0.4687499999999987
 40
0.4687499999999987
 10
12.21541266159229
 20
-9.270890401483719
 30
0.0
 10
12.14228840880116
 20
-9.324798286337664
 30
0.0
 10
12.07944721244887
 20
-9.371515294523125
 30
0.0
 10
12.02890847169003
 20
-9.409226907610737
 30
0.0
  0
SPLINE
  5
255
330
1F
100
AcDbEntity
  8
SK3
  6
SLD-Dashed
370
    18
100
AcDbSpline
210
0.0
220
0.0
230
1.0
 70
     8
 71
     3
 72
     8
 73
     4
 74
     0
 42
0.000000001
 43
0.00000001
 40
0.4687499999999987
 40
0.4687499999999987
 40
0.4687499999999987
 40
0.4687499999999987
 40
0.4999999999999988
 40
0.4999999999999988
 40
0.4999999999999988
 40
0.4999999999999988
 10
12.02890847169003
 20
-9.409226907610737
 30
0.0
 10
11.92783099017235
 20
-9.484650133785944
 30
0.0
 10
11.87622364819311
 20
-9.523701521609578
 30
0.0
 10
11.87454201790013
 20
-9.52496834655532
 30
0.0
  0
SPLINE
  5
256
330
1F
100
AcDbEntity
  8
SK3
  6
SLD-Dashed
370
    18
100
AcDbSpline
210
0.0
220
0.0
230
1.0
 70
     8
 71
     3
 72
     8
 73
     4
 74
     0
 42
0.000000001
 43
0.00000001
 40
0.5156249999999989
 40
0.5156249999999989
 40
0.5156249999999989
 40
0.5156249999999989
 40
0.5312499999999989
 40
0.5312499999999989
 40
0.5312499999999989
 40
0.5312499999999989
 10
11.91032472497196
 20
-9.498041260325552
 30
0.0
 10
11.93499656101492
 20
-9.479495447251317
 30
0.0
 10
11.97205812126835
 20
-9.451668134706242
 30
0.0
 10
12.02088945148902
 20
-9.415212151257583
 30
0.0
  0
SPLINE
  5
257
330
1F
100
AcDbEntity
  8
SK3
  6
SLD-Dashed
370
    18
100
AcDbSpline
210
0.0
220
0.0
230
1.0
 70
     8
 71
     3
 72
     8
 73
     4
 74
     0
 42
0.000000001
 43
0.00000001
 40
0.5312499999999989
 40
0.5312499999999989
 40
0.5312499999999989
 40
0.5312499999999989
 40
0.546874999999999
 40
0.546874999999999
 40
0.546874999999999
 40
0.546874999999999
 10
12.02088945148902
 20
-9.415212151257583
 30
0.0
 10
12.06972078170967
 20
-9.378756167808914
 30
0.0
 10
12.13032580158842
 20
-9.333667164038593
 30
0.0
 10
12.20249749025701
 20
-9.280415689554879
 30
0.0
  0
SPLINE
  5
258
330
1F
100
AcDbEntity
  8
SK3
  6
SLD-Dashed
370
    18
100
AcDbSpline
210
0.0
220
0.0
230
1.0
 70
     8
 71
     3
 72
     8
 73
     4
 74
     0
 42
0.000000001
 43
0.00000001
 40
0.546874999999999
 40
0.546874999999999
 40
0.546874999999999
 40
0.546874999999999
 40
0.5624999999999991
 40
0.5624999999999991
 40
0.5624999999999991
 40
0.5624999999999991
 10
12.20249749025701
 20
-9.280415689554879
 30
0.0
 10
12.2746691789256
 20
-9.227164215071165
 30
0.0
 10
12.35873309653697
 20
-9.165519475035431
 30
0.0
 10
12.45207458579183
 20
-9.09782636245901
 30
0.0
  0
SPLINE
  5
259
330
1F
100
AcDbEntity
  8
SK3
  6
SLD-Dashed
370
    18
100
AcDbSpline
210
0.0
220
0.0
230
1.0
 70
     8
 71
     3
 72
     8
 73
     4
 74
     0
 42
0.000000001
 43
0.00000001
 40
0.5624999999999991
 40
0.5624999999999991
 40
0.5624999999999991
 40
0.5624999999999991
 40
0.5937499999999992
 40
0.5937499999999992
 40
0.5937499999999992
 40
0.5937499999999992
 10
12.45207458579183
 20
-9.09782636245901
 30
0.0
 10
12.63875756430154
 20
-8.962440137306162
 30
0.0
 10
12.86366220956497
 20
-8.80185541790956
 30
0.0
 10
13.12462478210202
 20
-8.622522613648501
 30
0.0
  0
SPLINE
  5
25A
330
1F
100
AcDbEntity
  8
SK3
  6
SLD-Dashed
370
    18
100
AcDbSpline
210
0.0
220
0.0
230
1.0
 70
     8
 71
     3
 72
     8
 73
     4
 74
     0
 42
0.000000001
 43
0.00000001
 40
0.5937499999999992
 40
0.5937499999999992
 40
0.5937499999999992
 40
0.5937499999999992
 40
0.6249999999999994
 40
0.6249999999999994
 40
0.6249999999999994
 40
0.6249999999999994
 10
13.12462478210202
 20
-8.622522613648501
 30
0.0
 10
13.38558735463906
 20
-8.443189809387443
 30
0.0
 10
13.67740136855788
 20
-8.248695193715537
 30
0.0
 10
13.99647130450163
 20
-8.048352441725303
 30
0.0
  0
SPLINE
  5
25B
330
1F
100
AcDbEntity
  8
SK3
  6
SLD-Dashed
370
    18
100
AcDbSpline
210
0.0
220
0.0
230
1.0
 70
     8
 71
     3
 72
     8
 73
     4
 74
     0
 42
0.000000001
 43
0.00000001
 40
0.6249999999999994
 40
0.6249999999999994
 40
0.6249999999999994
 40
0.6249999999999994
 40
0.6406249999999994
 40
0.6406249999999994
 40
0.6406249999999994
 40
0.6406249999999994
 10
13.99647130450163
 20
-8.048352441725303
 30
0.0
 10
14.1560062724735
 20
-7.948181065730191
 30
0.0
 10
14.32264645062772
 20
-7.846391246550753
 30
0.0
 10
14.49678383646334
 20
-7.744004273106488
 30
0.0
  0
SPLINE
  5
25C
330
1F
100
AcDbEntity
  8
SK3
  6
SLD-Dashed
370
    18
100
AcDbSpline
210
0.0
220
0.0
230
1.0
 70
     8
 71
     3
 72
     8
 73
     4
 74
     0
 42
0.000000001
 43
0.00000001
 40
0.6406249999999994
 40
0.6406249999999994
 40
0.6406249999999994
 40
0.6406249999999994
 40
0.6562499999999996
 40
0.6562499999999996
 40
0.6562499999999996
 40
0.6562499999999996
 10
14.49678383646334
 20
-7.744004273106488
 30
0.0
 10
14.67092122229896
 20
-7.641617299662229
 30
0.0
 10
14.85258557109241
 20
-7.538664862757123
 30
0.0
 10
15.03899763914431
 20
-7.438142556363784
 30
0.0
  0
SPLINE
  5
25D
330
1F
100
AcDbEntity
  8
SK3
  6
SLD-Dashed
370
    18
100
AcDbSpline
210
0.0
220
0.0
230
1.0
 70
     8
 71
     3
 72
     8
 73
     4
 74
     0
 42
0.000000001
 43
0.00000001
 40
0.6562499999999996
 40
0.6562499999999996
 40
0.6562499999999996
 40
0.6562499999999996
 40
0.6874999999999996
 40
0.6874999999999996
 40
0.6874999999999996
 40
0.6874999999999996
 10
15.03899763914431
 20
-7.438142556363784
 30
0.0
 10
15.41182177524807
 20
-7.237097943577117
 30
0.0
 10
15.80629839638675
 20
-7.04354248150054
 30
0.0
 10
16.22814631139784
 20
-6.870275321257342
 30
0.0
  0
SPLINE
  5
25E
330
1F
100
AcDbEntity
  8
SK3
  6
SLD-Dashed
370
    18
100
AcDbSpline
210
0.0
220
0.0
230
1.0
 70
     8
 71
     3
 72
     8
 73
     4
 74
     0
 42
0.000000001
 43
0.00000001
 40
0.6874999999999996
 40
0.6874999999999996
 40
0.6874999999999996
 40
0.6874999999999996
 40
0.7031249999999996
 40
0.7031249999999996
 40
0.7031249999999996
 40
0.7031249999999996
 10
16.22814631139784
 20
-6.870275321257342
 30
0.0
 10
16.4390702689034
 20
-6.783641741135736
 30
0.0
 10
16.65691952523475
 20
-6.70216064926684
 30
0.0
 10
16.88312815507446
 20
-6.628209286250033
 30
0.0
  0
SPLINE
  5
25F
330
1F
100
AcDbEntity
  8
SK3
  6
SLD-Dashed
370
    18
100
AcDbSpline
210
0.0
220
0.0
230
1.0
 70
     8
 71
     3
 72
     8
 73
     4
 74
     0
 42
0.000000001
 43
0.00000001
 40
0.7031249999999996
 40
0.7031249999999996
 40
0.7031249999999996
 40
0.7031249999999996
 40
0.7187499999999997
 40
0.7187499999999997
 40
0.7187499999999997
 40
0.7187499999999997
 10
16.88312815507446
 20
-6.628209286250033
 30
0.0
 10
17.10933678491418
 20
-6.554257923233219
 30
0.0
 10
17.34174075755039
 20
-6.488713741290002
 30
0.0
 10
17.57727031585779
 20
-6.434808270069419
 30
0.0
  0
SPLINE
  5
260
330
1F
100
AcDbEntity
  8
SK3
  6
SLD-Dashed
370
    18
100
AcDbSpline
210
0.0
220
0.0
230
1.0
 70
     8
 71
     3
 72
     8
 73
     4
 74
     0
 42
0.000000001
 43
0.00000001
 40
0.7187499999999997
 40
0.7187499999999997
 40
0.7187499999999997
 40
0.7187499999999997
 40
0.7343749999999998
 40
0.7343749999999998
 40
0.7343749999999998
 40
0.7343749999999998
 10
17.57727031585779
 20
-6.434808270069419
 30
0.0
 10
17.81279987416519
 20
-6.380902798848835
 30
0.0
 10
18.05252364818871
 20
-6.338286491806344
 30
0.0
 10
18.29698114872469
 20
-6.309109456997558
 30
0.0
  0
SPLINE
  5
261
330
1F
100
AcDbEntity
  8
SK3
  6
SLD-Dashed
370
    18
100
AcDbSpline
210
0.0
220
0.0
230
1.0
 70
     8
 71
     3
 72
     8
 73
     4
 74
     0
 42
0.000000001
 43
0.00000001
 40
0.7343749999999998
 40
0.7343749999999998
 40
0.7343749999999998
 40
0.7343749999999998
 40
0.7499999999999998
 40
0.7499999999999998
 40
0.7499999999999998
 40
0.7499999999999998
 10
18.29698114872469
 20
-6.309109456997558
 30
0.0
 10
18.54143864926067
 20
-6.279932422188779
 30
0.0
 10
18.79215610213301
 20
-6.26444742437763
 30
0.0
 10
19.03915180219515
 20
-6.264019670578609
 30
0.0
  0
SPLINE
  5
262
330
1F
100
AcDbEntity
  8
SK3
  6
SLD-Dashed
370
    18
100
AcDbSpline
210
0.0
220
0.0
230
1.0
 70
     8
 71
     3
 72
     8
 73
     4
 74
     0
 42
0.000000001
 43
0.00000001
 40
0.7499999999999998
 40
0.7499999999999998
 40
0.7499999999999998
 40
0.7499999999999998
 40
0.7656249999999999
 40
0.7656249999999999
 40
0.7656249999999999
 40
0.7656249999999999
 10
19.03915180219515
 20
-6.264019670578609
 30
0.0
 10
19.28614750225729
 20
-6.263591916779589
 30
0.0
 10
19.53130752930583
 20
-6.27781932320505
 30
0.0
 10
19.77471835676296
 20
-6.305794275634859
 30
0.0
  0
SPLINE
  5
263
330
1F
100
AcDbEntity
  8
SK3
  6
SLD-Dashed
370
    18
100
AcDbSpline
210
0.0
220
0.0
230
1.0
 70
     8
 71
     3
 72
     8
 73
     4
 74
     0
 42
0.000000001
 43
0.00000001
 40
0.7656249999999999
 40
0.7656249999999999
 40
0.7656249999999999
 40
0.7656249999999999
 40
0.78125
 40
0.78125
 40
0.78125
 40
0.78125
 10
19.77471835676296
 20
-6.305794275634859
 30
0.0
 10
20.01812918422009
 20
-6.333769228064668
 30
0.0
 10
20.26140945668738
 20
-6.375869795885815
 30
0.0
 10
20.49908909721086
 20
-6.429438852781446
 30
0.0
  0
SPLINE
  5
264
330
1F
100
AcDbEntity
  8
SK3
  6
SLD-Dashed
370
    18
100
AcDbSpline
210
0.0
220
0.0
230
1.0
 70
     8
 71
     3
 72
     8
 73
     4
 74
     0
 42
0.000000001
 43
0.00000001
 40
0.78125
 40
0.78125
 40
0.78125
 40
0.78125
 40
0.8124999999999999
 40
0.8124999999999999
 40
0.8124999999999999
 40
0.8124999999999999
 10
20.49908909721086
 20
-6.429438852781446
 30
0.0
 10
20.97444837825781
 20
-6.536576966572685
 30
0.0
 10
21.4210900256734
 20
-6.686457325455468
 30
0.0
 10
21.84690865226462
 20
-6.860067256165406
 30
0.0
  0
SPLINE
  5
265
330
1F
100
AcDbEntity
  8
SK3
  6
SLD-Dashed
370
    18
100
AcDbSpline
210
0.0
220
0.0
230
1.0
 70
     8
 71
     3
 72
     8
 73
     4
 74
     0
 42
0.000000001
 43
0.00000001
 40
0.8124999999999999
 40
0.8124999999999999
 40
0.8124999999999999
 40
0.8124999999999999
 40
0.8281249999999999
 40
0.8281249999999999
 40
0.8281249999999999
 40
0.8281249999999999
 10
21.84690865226462
 20
-6.860067256165406
 30
0.0
 10
22.05981796556021
 20
-6.946872221520385
 30
0.0
 10
22.26838381516631
 20
-7.040231584780586
 30
0.0
 10
22.4688344364538
 20
-7.136263283671826
 30
0.0
  0
SPLINE
  5
266
330
1F
100
AcDbEntity
  8
SK3
  6
SLD-Dashed
370
    18
100
AcDbSpline
210
0.0
220
0.0
230
1.0
 70
     8
 71
     3
 72
     8
 73
     4
 74
     0
 42
0.000000001
 43
0.00000001
 40
0.8281249999999999
 40
0.8281249999999999
 40
0.8281249999999999
 40
0.8281249999999999
 40
0.8437499999999999
 40
0.8437499999999999
 40
0.8437499999999999
 40
0.8437499999999999
 10
22.4688344364538
 20
-7.136263283671826
 30
0.0
 10
22.66928505774131
 20
-7.232294982563066
 30
0.0
 10
22.86210288474154
 20
-7.331121877290396
 30
0.0
 10
23.04819252926417
 20
-7.431242712431334
 30
0.0
  0
SPLINE
  5
267
330
1F
100
AcDbEntity
  8
SK3
  6
SLD-Dashed
370
    18
100
AcDbSpline
210
0.0
220
0.0
230
1.0
 70
     8
 71
     3
 72
     8
 73
     4
 74
     0
 42
0.000000001
 43
0.00000001
 40
0.8437499999999999
 40
0.8437499999999999
 40
0.8437499999999999
 40
0.8437499999999999
 40
0.8749999999999998
 40
0.8749999999999998
 40
0.8749999999999998
 40
0.8749999999999998
 10
23.04819252926417
 20
-7.431242712431334
 30
0.0
 10
23.42037181830935
 20
-7.631484382713223
 30
0.0
 10
23.76593931761774
 20
-7.836781660934114
 30
0.0
 10
24.08742078109209
 20
-8.038248122307397
 30
0.0
  0
SPLINE
  5
268
330
1F
100
AcDbEntity
  8
SK3
  6
SLD-Dashed
370
    18
100
AcDbSpline
210
0.0
220
0.0
230
1.0
 70
     8
 71
     3
 72
     8
 73
     4
 74
     0
 42
0.000000001
 43
0.00000001
 40
0.8749999999999998
 40
0.8749999999999998
 40
0.8749999999999998
 40
0.8749999999999998
 40
0.8906249999999998
 40
0.8906249999999998
 40
0.8906249999999998
 40
0.8906249999999998
 10
24.08742078109209
 20
-8.038248122307397
 30
0.0
 10
24.24816151282926
 20
-8.13898135299404
 30
0.0
 10
24.40319178514376
 20
-8.239081736399221
 30
0.0
 10
24.54907574258326
 20
-8.335325954794317
 30
0.0
  0
SPLINE
  5
269
330
1F
100
AcDbEntity
  8
SK3
  6
SLD-Dashed
370
    18
100
AcDbSpline
210
0.0
220
0.0
230
1.0
 70
     8
 71
     3
 72
     8
 73
     4
 74
     0
 42
0.000000001
 43
0.00000001
 40
0.8906249999999998
 40
0.8906249999999998
 40
0.8906249999999998
 40
0.8906249999999998
 40
0.9062499999999998
 40
0.9062499999999998
 40
0.9062499999999998
 40
0.9062499999999998
 10
24.54907574258326
 20
-8.335325954794317
 30
0.0
 10
24.69495970002274
 20
-8.43157017318942
 30
0.0
 10
24.8324710043686
 20
-8.52443343303106
 30
0.0
 10
24.96168095158734
 20
-8.613117694735232
 30
0.0
  0
SPLINE
  5
26A
330
1F
100
AcDbEntity
  8
SK3
  6
SLD-Dashed
370
    18
100
AcDbSpline
210
0.0
220
0.0
230
1.0
 70
     8
 71
     3
 72
     8
 73
     4
 74
     0
 42
0.000000001
 43
0.00000001
 40
0.9062499999999998
 40
0.9062499999999998
 40
0.9062499999999998
 40
0.9062499999999998
 40
0.9374999999999998
 40
0.9374999999999998
 40
0.9374999999999998
 40
0.9374999999999998
 10
24.96168095158734
 20
-8.613117694735232
 30
0.0
 10
25.22010084602487
 20
-8.79048621814356
 30
0.0
 10
25.44569310702126
 20
-8.951297372629078
 30
0.0
 10
25.63481123623794
 20
-9.088320183999091
 30
0.0
  0
SPLINE
  5
26B
330
1F
100
AcDbEntity
  8
SK3
  6
SLD-Dashed
370
    18
100
AcDbSpline
210
0.0
220
0.0
230
1.0
 70
     8
 71
     3
 72
     8
 73
     4
 74
     0
 42
0.000000001
 43
0.00000001
 40
0.9374999999999998
 40
0.9374999999999998
 40
0.9374999999999998
 40
0.9374999999999998
 40
0.9531249999999999
 40
0.9531249999999999
 40
0.9531249999999999
 40
0.9531249999999999
 10
25.63481123623794
 20
-9.088320183999091
 30
0.0
 10
25.72937030084628
 20
-9.156831589684105
 30
0.0
 10
25.8145606027196
 20
-9.219255215159983
 30
0.0
 10
25.88765894890154
 20
-9.273155053782546
 30
0.0
  0
SPLINE
  5
26C
330
1F
100
AcDbEntity
  8
SK3
  6
SLD-Dashed
370
    18
100
AcDbSpline
210
0.0
220
0.0
230
1.0
 70
     8
 71
     3
 72
     8
 73
     4
 74
     0
 42
0.000000001
 43
0.00000001
 40
0.9531249999999999
 40
0.9531249999999999
 40
0.9531249999999999
 40
0.9531249999999999
 40
0.96875
 40
0.96875
 40
0.96875
 40
0.96875
 10
25.88765894890154
 20
-9.273155053782546
 30
0.0
 10
25.9607572950835
 20
-9.32705489240511
 30
0.0
 10
26.02246721220651
 20
-9.372940625911577
 30
0.0
 10
26.07246827894778
 20
-9.410254272804105
 30
0.0
  0
SPLINE
  5
26D
330
1F
100
AcDbEntity
  8
SK3
  6
SLD-Dashed
370
    18
100
AcDbSpline
210
0.0
220
0.0
230
1.0
 70
     8
 71
     3
 72
     8
 73
     4
 74
     0
 42
0.000000001
 43
0.00000001
 40
0.96875
 40
0.96875
 40
0.96875
 40
0.96875
 40
0.984375
 40
0.984375
 40
0.984375
 40
0.984375
 10
26.07246827894778
 20
-9.410254272804105
 30
0.0
 10
26.12246934568908
 20
-9.447567919696642
 30
0.0
 10
26.16076693486792
 20
-9.476314713373082
 30
0.0
 10
26.18660903636304
 20
-9.49573658479943
 30
0.0
  0
SPLINE
  5
26E
330
1F
100
AcDbEntity
  8
SK3
  6
SLD-Dashed
370
    18
100
AcDbSpline
210
0.0
220
0.0
230
1.0
 70
     8
 71
     2
 72
     6
 73
     3
 74
     0
 42
0.000000001
 43
0.00000001
 40
0.984375
 40
0.984375
 40
0.984375
 40
1.0
 40
1.0
 40
1.0
 10
26.18660903636304
 20
-9.49573658479943
 30
0.0
 10
26.2124511378581
 20
-9.515158456225782
 30
0.0
 10
26.22550000000003
 20
-9.524999999999999
 30
0.0
  0
SPLINE
  5
26F
330
1F
100
AcDbEntity
  8
SK3
  6
SLD-Dashed
370
    18
100
AcDbSpline
210
0.0
220
0.0
230
1.0
 70
     8
 71
     2
 72
     6
 73
     3
 74
     0
 42
0.000000001
 43
0.00000001
 40
0.0
 40
0.0
 40
0.0
 40
0.0312499999999997
 40
0.0312499999999997
 40
0.0312499999999997
 10
26.22550000000003
 20
-9.524999999999999
 30
0.0
 10
26.17434317218583
 20
-9.486294570018302
 30
0.0
 10
26.07574149286378
 20
-9.41269718383353
 30
0.0
  0
SPLINE
  5
270
330
1F
100
AcDbEntity
  8
SK3
  6
SLD-Dashed
370
    18
100
AcDbSpline
210
0.0
220
0.0
230
1.0
 70
     8
 71
     3
 72
     8
 73
     4
 74
     0
 42
0.000000001
 43
0.00000001
 40
0.0312499999999997
 40
0.0312499999999997
 40
0.0312499999999997
 40
0.0312499999999997
 40
0.0468749999999996
 40
0.0468749999999996
 40
0.0468749999999996
 40
0.0468749999999996
 10
26.07574149286378
 20
-9.41269718383353
 30
0.0
 10
26.02644065320274
 20
-9.375898490741143
 30
0.0
 10
25.96482373926433
 20
-9.3300689998869
 30
0.0
 10
25.89190527952039
 20
-9.276286574051545
 30
0.0
  0
SPLINE
  5
271
330
1F
100
AcDbEntity
  8
SK3
  6
SLD-Dashed
370
    18
100
AcDbSpline
210
0.0
220
0.0
230
1.0
 70
     8
 71
     3
 72
     8
 73
     4
 74
     0
 42
0.000000001
 43
0.00000001
 40
0.0468749999999996
 40
0.0468749999999996
 40
0.0468749999999996
 40
0.0468749999999996
 40
0.0624999999999995
 40
0.0624999999999995
 40
0.0624999999999995
 40
0.0624999999999995
 10
25.89190527952039
 20
-9.276286574051545
 30
0.0
 10
25.8189868197765
 20
-9.222504148216196
 30
0.0
 10
25.73556966143041
 20
-9.16136150100714
 30
0.0
 10
25.64236424432577
 20
-9.09379409706778
 30
0.0
  0
SPLINE
  5
272
330
1F
100
AcDbEntity
  8
SK3
  6
SLD-Dashed
370
    18
100
AcDbSpline
210
0.0
220
0.0
230
1.0
 70
     8
 71
     3
 72
     8
 73
     4
 74
     0
 42
0.000000001
 43
0.00000001
 40
0.0624999999999995
 40
0.0624999999999995
 40
0.0624999999999995
 40
0.0624999999999995
 40
0.0781249999999994
 40
0.0781249999999994
 40
0.0781249999999994
 40
0.0781249999999994
 10
25.64236424432577
 20
-9.09379409706778
 30
0.0
 10
25.54915882722113
 20
-9.026226693128422
 30
0.0
 10
25.44615986518863
 20
-8.952227614798469
 30
0.0
 10
25.33367578733851
 20
-8.872564801137496
 30
0.0
  0
SPLINE
  5
273
330
1F
100
AcDbEntity
  8
SK3
  6
SLD-Dashed
370
    18
100
AcDbSpline
210
0.0
220
0.0
230
1.0
 70
     8
 71
     3
 72
     8
 73
     4
 74
     0
 42
0.000000001
 43
0.00000001
 40
0.0781249999999994
 40
0.0781249999999994
 40
0.0781249999999994
 40
0.0781249999999994
 40
0.0937499999999993
 40
0.0937499999999993
 40
0.0937499999999993
 40
0.0937499999999993
 10
25.33367578733851
 20
-8.872564801137496
 30
0.0
 10
25.22119170948837
 20
-8.792901987476522
 30
0.0
 10
25.0985724032315
 20
-8.707128391408622
 30
0.0
 10
24.96829008193864
 20
-8.617655263699842
 30
0.0
  0
SPLINE
  5
274
330
1F
100
AcDbEntity
  8
SK3
  6
SLD-Dashed
370
    18
100
AcDbSpline
210
0.0
220
0.0
230
1.0
 70
     8
 71
     3
 72
     8
 73
     4
 74
     0
 42
0.000000001
 43
0.00000001
 40
0.0937499999999993
 40
0.0937499999999993
 40
0.0937499999999993
 40
0.0937499999999993
 40
0.124999999999999
 40
0.124999999999999
 40
0.124999999999999
 40
0.124999999999999
 10
24.96829008193864
 20
-8.617655263699842
 30
0.0
 10
24.707725439353
 20
-8.438709008282267
 30
0.0
 10
24.41743242600809
 20
-8.245314563493832
 30
0.0
 10
24.09779500775642
 20
-8.04475351955114
 30
0.0
  0
SPLINE
  5
275
330
1F
100
AcDbEntity
  8
SK3
  6
SLD-Dashed
370
    18
100
AcDbSpline
210
0.0
220
0.0
230
1.0
 70
     8
 71
     3
 72
     8
 73
     4
 74
     0
 42
0.000000001
 43
0.00000001
 40
0.124999999999999
 40
0.124999999999999
 40
0.124999999999999
 40
0.124999999999999
 40
0.1562499999999988
 40
0.1562499999999988
 40
0.1562499999999988
 40
0.1562499999999988
 10
24.09779500775642
 20
-8.04475351955114
 30
0.0
 10
23.77815758950476
 20
-7.844192475608441
 30
0.0
 10
23.42771659541086
 20
-7.635735580724814
 30
0.0
 10
23.05654612484444
 20
-7.435740487705705
 30
0.0
  0
SPLINE
  5
276
330
1F
100
AcDbEntity
  8
SK3
  6
SLD-Dashed
370
    18
100
AcDbSpline
210
0.0
220
0.0
230
1.0
 70
     8
 71
     3
 72
     8
 73
     4
 74
     0
 42
0.000000001
 43
0.00000001
 40
0.1562499999999988
 40
0.1562499999999988
 40
0.1562499999999988
 40
0.1562499999999988
 40
0.1874999999999984
 40
0.1874999999999984
 40
0.1874999999999984
 40
0.1874999999999984
 10
23.05654612484444
 20
-7.435740487705705
 30
0.0
 10
22.68537565427802
 20
-7.235745394686598
 30
0.0
 10
22.29110065846591
 20
-7.042219871342091
 30
0.0
 10
21.866872286897
 20
-6.868230793347592
 30
0.0
  0
SPLINE
  5
277
330
1F
100
AcDbEntity
  8
SK3
  6
SLD-Dashed
370
    18
100
AcDbSpline
210
0.0
220
0.0
230
1.0
 70
     8
 71
     3
 72
     8
 73
     4
 74
     0
 42
0.000000001
 43
0.00000001
 40
0.1874999999999984
 40
0.1874999999999984
 40
0.1874999999999984
 40
0.1874999999999984
 40
0.2031249999999984
 40
0.2031249999999984
 40
0.2031249999999984
 40
0.2031249999999984
 10
21.866872286897
 20
-6.868230793347592
 30
0.0
 10
21.65475810111255
 20
-6.781236254350342
 30
0.0
 10
21.43382573696744
 20
-6.698900448787979
 30
0.0
 10
21.20899216487519
 20
-6.625637472575163
 30
0.0
  0
SPLINE
  5
278
330
1F
100
AcDbEntity
  8
SK3
  6
SLD-Dashed
370
    18
100
AcDbSpline
210
0.0
220
0.0
230
1.0
 70
     8
 71
     3
 72
     8
 73
     4
 74
     0
 42
0.000000001
 43
0.00000001
 40
0.2031249999999984
 40
0.2031249999999984
 40
0.2031249999999984
 40
0.2031249999999984
 40
0.2187499999999983
 40
0.2187499999999983
 40
0.2187499999999983
 40
0.2187499999999983
 10
21.20899216487519
 20
-6.625637472575163
 30
0.0
 10
20.98415859278295
 20
-6.552374496362347
 30
0.0
 10
20.75464494421085
 20
-6.487784944442978
 30
0.0
 10
20.51977426862502
 20
-6.434132509570492
 30
0.0
  0
SPLINE
  5
279
330
1F
100
AcDbEntity
  8
SK3
  6
SLD-Dashed
370
    18
100
AcDbSpline
210
0.0
220
0.0
230
1.0
 70
     8
 71
     3
 72
     8
 73
     4
 74
     0
 42
0.000000001
 43
0.00000001
 40
0.2187499999999983
 40
0.2187499999999983
 40
0.2187499999999983
 40
0.2187499999999983
 40
0.2343749999999983
 40
0.2343749999999983
 40
0.2343749999999983
 40
0.2343749999999983
 10
20.51977426862502
 20
-6.434132509570492
 30
0.0
 10
20.28490359303918
 20
-6.380480074698013
 30
0.0
 10
20.04406693604323
 20
-6.337698348757373
 30
0.0
 10
19.79825497792474
 20
-6.308542641688016
 30
0.0
  0
SPLINE
  5
27A
330
1F
100
AcDbEntity
  8
SK3
  6
SLD-Dashed
370
    18
100
AcDbSpline
210
0.0
220
0.0
230
1.0
 70
     8
 71
     3
 72
     8
 73
     4
 74
     0
 42
0.000000001
 43
0.00000001
 40
0.2343749999999983
 40
0.2343749999999983
 40
0.2343749999999983
 40
0.2343749999999983
 40
0.2499999999999982
 40
0.2499999999999982
 40
0.2499999999999982
 40
0.2499999999999982
 10
19.79825497792474
 20
-6.308542641688016
 30
0.0
 10
19.55244301980624
 20
-6.279386934618665
 30
0.0
 10
19.30711177588595
 20
-6.264501417651176
 30
0.0
 10
19.06225787428875
 20
-6.264022270512918
 30
0.0
  0
SPLINE
  5
27B
330
1F
100
AcDbEntity
  8
SK3
  6
SLD-Dashed
370
    18
100
AcDbSpline
210
0.0
220
0.0
230
1.0
 70
     8
 71
     3
 72
     8
 73
     4
 74
     0
 42
0.000000001
 43
0.00000001
 40
0.2499999999999982
 40
0.2499999999999982
 40
0.2499999999999982
 40
0.2499999999999982
 40
0.2656249999999982
 40
0.2656249999999982
 40
0.2656249999999982
 40
0.2656249999999982
 10
19.06225787428875
 20
-6.264022270512918
 30
0.0
 10
18.81740397269153
 20
-6.263543123374661
 30
0.0
 10
18.57302740079071
 20
-6.277468811029759
 30
0.0
 10
18.32912058838215
 20
-6.305354222888214
 30
0.0
  0
SPLINE
  5
27C
330
1F
100
AcDbEntity
  8
SK3
  6
SLD-Dashed
370
    18
100
AcDbSpline
210
0.0
220
0.0
230
1.0
 70
     8
 71
     3
 72
     8
 73
     4
 74
     0
 42
0.000000001
 43
0.00000001
 40
0.2656249999999982
 40
0.2656249999999982
 40
0.2656249999999982
 40
0.2656249999999982
 40
0.2812499999999982
 40
0.2812499999999982
 40
0.2812499999999982
 40
0.2812499999999982
 10
18.32912058838215
 20
-6.305354222888214
 30
0.0
 10
18.08521377597361
 20
-6.333239634746662
 30
0.0
 10
17.8410981372973
 20
-6.375442830892808
 30
0.0
 10
17.6048397567226
 20
-6.428554493721685
 30
0.0
  0
SPLINE
  5
27D
330
1F
100
AcDbEntity
  8
SK3
  6
SLD-Dashed
370
    18
100
AcDbSpline
210
0.0
220
0.0
230
1.0
 70
     8
 71
     3
 72
     8
 73
     4
 74
     0
 42
0.000000001
 43
0.00000001
 40
0.2812499999999982
 40
0.2812499999999982
 40
0.2812499999999982
 40
0.2812499999999982
 40
0.2968749999999981
 40
0.2968749999999981
 40
0.2968749999999981
 40
0.2968749999999981
 10
17.6048397567226
 20
-6.428554493721685
 30
0.0
 10
17.3685813761479
 20
-6.481666156550568
 30
0.0
 10
17.13817844538049
 20
-6.54579265747339
 30
0.0
 10
16.91283525340018
 20
-6.618557086261988
 30
0.0
  0
SPLINE
  5
27E
330
1F
100
AcDbEntity
  8
SK3
  6
SLD-Dashed
370
    18
100
AcDbSpline
210
0.0
220
0.0
230
1.0
 70
     8
 71
     3
 72
     8
 73
     4
 74
     0
 42
0.000000001
 43
0.00000001
 40
0.2968749999999981
 40
0.2968749999999981
 40
0.2968749999999981
 40
0.2968749999999981
 40
0.3124999999999981
 40
0.3124999999999981
 40
0.3124999999999981
 40
0.3124999999999981
 10
16.91283525340018
 20
-6.618557086261988
 30
0.0
 10
16.6874920614199
 20
-6.691321515050578
 30
0.0
 10
16.46616801647216
 20
-6.773196264177918
 30
0.0
 10
16.25317653205742
 20
-6.860032526222734
 30
0.0
  0
SPLINE
  5
27F
330
1F
100
AcDbEntity
  8
SK3
  6
SLD-Dashed
370
    18
100
AcDbSpline
210
0.0
220
0.0
230
1.0
 70
     8
 71
     3
 72
     8
 73
     4
 74
     0
 42
0.000000001
 43
0.00000001
 40
0.3124999999999981
 40
0.3124999999999981
 40
0.3124999999999981
 40
0.3124999999999981
 40
0.3437499999999982
 40
0.3437499999999982
 40
0.3437499999999982
 40
0.3437499999999982
 10
16.25317653205742
 20
-6.860032526222734
 30
0.0
 10
15.82719356322797
 20
-7.033705050312367
 30
0.0
 10
15.43145257901958
 20
-7.227241255364968
 30
0.0
 10
15.05894944316348
 20
-7.427402594260307
 30
0.0
  0
SPLINE
  5
280
330
1F
100
AcDbEntity
  8
SK3
  6
SLD-Dashed
370
    18
100
AcDbSpline
210
0.0
220
0.0
230
1.0
 70
     8
 71
     3
 72
     8
 73
     4
 74
     0
 42
0.000000001
 43
0.00000001
 40
0.3437499999999982
 40
0.3437499999999982
 40
0.3437499999999982
 40
0.3437499999999982
 40
0.3749999999999983
 40
0.3749999999999983
 40
0.3749999999999983
 40
0.3749999999999983
 10
15.05894944316348
 20
-7.427402594260307
 30
0.0
 10
14.68644630730738
 20
-7.627563933155654
 30
0.0
 10
14.3347704651219
 20
-7.836392403580445
 30
0.0
 10
14.01486893587597
 20
-8.036813397292896
 30
0.0
  0
SPLINE
  5
281
330
1F
100
AcDbEntity
  8
SK3
  6
SLD-Dashed
370
    18
100
AcDbSpline
210
0.0
220
0.0
230
1.0
 70
     8
 71
     3
 72
     8
 73
     4
 74
     0
 42
0.000000001
 43
0.00000001
 40
0.3749999999999983
 40
0.3749999999999983
 40
0.3749999999999983
 40
0.3749999999999983
 40
0.4062499999999984
 40
0.4062499999999984
 40
0.4062499999999984
 40
0.4062499999999984
 10
14.01486893587597
 20
-8.036813397292896
 30
0.0
 10
13.69496740663004
 20
-8.237234391005343
 30
0.0
 10
13.40489211660993
 20
-8.430256234874
 30
0.0
 10
13.14468600150741
 20
-8.608748931801427
 30
0.0
  0
SPLINE
  5
282
330
1F
100
AcDbEntity
  8
SK3
  6
SLD-Dashed
370
    18
100
AcDbSpline
210
0.0
220
0.0
230
1.0
 70
     8
 71
     3
 72
     8
 73
     4
 74
     0
 42
0.000000001
 43
0.00000001
 40
0.4062499999999984
 40
0.4062499999999984
 40
0.4062499999999984
 40
0.4062499999999984
 40
0.4374999999999985
 40
0.4374999999999985
 40
0.4374999999999985
 40
0.4374999999999985
 10
13.14468600150741
 20
-8.608748931801427
 30
0.0
 10
12.88447988640488
 20
-8.787241628728856
 30
0.0
 10
12.65369906311255
 20
-8.95174643556116
 30
0.0
 10
12.46607048156641
 20
-9.087681368407505
 30
0.0
  0
SPLINE
  5
283
330
1F
100
AcDbEntity
  8
SK3
  6
SLD-Dashed
370
    18
100
AcDbSpline
210
0.0
220
0.0
230
1.0
 70
     8
 71
     3
 72
     8
 73
     4
 74
     0
 42
0.000000001
 43
0.00000001
 40
0.4374999999999985
 40
0.4374999999999985
 40
0.4374999999999985
 40
0.4374999999999985
 40
0.4531249999999986
 40
0.4531249999999986
 40
0.4531249999999986
 40
0.4531249999999986
 10
12.46607048156641
 20
-9.087681368407505
 30
0.0
 10
12.37225619079334
 20
-9.155648834830679
 30
0.0
 10
12.28853691438342
 20
-9.216982516629752
 30
0.0
 10
12.21541266159229
 20
-9.270890401483719
 30
0.0
  0
SPLINE
  5
284
330
1F
100
AcDbEntity
  8
SK3
  6
SLD-Dashed
370
    18
100
AcDbSpline
210
0.0
220
0.0
230
1.0
 70
     8
 71
     3
 72
     8
 73
     4
 74
     0
 42
0.000000001
 43
0.00000001
 40
0.4531249999999986
 40
0.4531249999999986
 40
0.4531249999999986
 40
0.4531249999999986
 40
0.4687499999999987
 40
0.4687499999999987
 40
0.4687499999999987
 40
0.4687499999999987
 10
12.21541266159229
 20
-9.270890401483719
 30
0.0
 10
12.14228840880116
 20
-9.324798286337664
 30
0.0
 10
12.07944721244887
 20
-9.371515294523125
 30
0.0
 10
12.02890847169003
 20
-9.409226907610737
 30
0.0
  0
SPLINE
  5
285
330
1F
100
AcDbEntity
  8
SK3
  6
SLD-Dashed
370
    18
100
AcDbSpline
210
0.0
220
0.0
230
1.0
 70
     8
 71
     3
 72
     8
 73
     4
 74
     0
 42
0.000000001
 43
0.00000001
 40
0.4687499999999987
 40
0.4687499999999987
 40
0.4687499999999987
 40
0.4687499999999987
 40
0.4999999999999988
 40
0.4999999999999988
 40
0.4999999999999988
 40
0.4999999999999988
 10
12.02890847169003
 20
-9.409226907610737
 30
0.0
 10
11.92783099017235
 20
-9.484650133785944
 30
0.0
 10
11.87622364819311
 20
-9.523701521609578
 30
0.0
 10
11.87454201790013
 20
-9.52496834655532
 30
0.0
  0
SPLINE
  5
286
330
1F
100
AcDbEntity
  8
SK3
  6
SLD-Dashed
370
    18
100
AcDbSpline
210
0.0
220
0.0
230
1.0
 70
     8
 71
     3
 72
     8
 73
     4
 74
     0
 42
0.000000001
 43
0.00000001
 40
0.5156249999999989
 40
0.5156249999999989
 40
0.5156249999999989
 40
0.5156249999999989
 40
0.5312499999999989
 40
0.5312499999999989
 40
0.5312499999999989
 40
0.5312499999999989
 10
11.91032472497196
 20
-9.498041260325552
 30
0.0
 10
11.93499656101492
 20
-9.479495447251317
 30
0.0
 10
11.97205812126835
 20
-9.451668134706242
 30
0.0
 10
12.02088945148902
 20
-9.415212151257583
 30
0.0
  0
SPLINE
  5
287
330
1F
100
AcDbEntity
  8
SK3
  6
SLD-Dashed
370
    18
100
AcDbSpline
210
0.0
220
0.0
230
1.0
 70
     8
 71
     3
 72
     8
 73
     4
 74
     0
 42
0.000000001
 43
0.00000001
 40
0.5312499999999989
 40
0.5312499999999989
 40
0.5312499999999989
 40
0.5312499999999989
 40
0.546874999999999
 40
0.546874999999999
 40
0.546874999999999
 40
0.546874999999999
 10
12.02088945148902
 20
-9.415212151257583
 30
0.0
 10
12.06972078170967
 20
-9.378756167808914
 30
0.0
 10
12.13032580158842
 20
-9.333667164038593
 30
0.0
 10
12.20249749025701
 20
-9.280415689554879
 30
0.0
  0
SPLINE
  5
288
330
1F
100
AcDbEntity
  8
SK3
  6
SLD-Dashed
370
    18
100
AcDbSpline
210
0.0
220
0.0
230
1.0
 70
     8
 71
     3
 72
     8
 73
     4
 74
     0
 42
0.000000001
 43
0.00000001
 40
0.546874999999999
 40
0.546874999999999
 40
0.546874999999999
 40
0.546874999999999
 40
0.5624999999999991
 40
0.5624999999999991
 40
0.5624999999999991
 40
0.5624999999999991
 10
12.20249749025701
 20
-9.280415689554879
 30
0.0
 10
12.2746691789256
 20
-9.227164215071165
 30
0.0
 10
12.35873309653697
 20
-9.165519475035431
 30
0.0
 10
12.45207458579183
 20
-9.09782636245901
 30
0.0
  0
SPLINE
  5
289
330
1F
100
AcDbEntity
  8
SK3
  6
SLD-Dashed
370
    18
100
AcDbSpline
210
0.0
220
0.0
230
1.0
 70
     8
 71
     3
 72
     8
 73
     4
 74
     0
 42
0.000000001
 43
0.00000001
 40
0.5624999999999991
 40
0.5624999999999991
 40
0.5624999999999991
 40
0.5624999999999991
 40
0.5937499999999992
 40
0.5937499999999992
 40
0.5937499999999992
 40
0.5937499999999992
 10
12.45207458579183
 20
-9.09782636245901
 30
0.0
 10
12.63875756430154
 20
-8.962440137306162
 30
0.0
 10
12.86366220956497
 20
-8.80185541790956
 30
0.0
 10
13.12462478210202
 20
-8.622522613648501
 30
0.0
  0
SPLINE
  5
28A
330
1F
100
AcDbEntity
  8
SK3
  6
SLD-Dashed
370
    18
100
AcDbSpline
210
0.0
220
0.0
230
1.0
 70
     8
 71
     3
 72
     8
 73
     4
 74
     0
 42
0.000000001
 43
0.00000001
 40
0.5937499999999992
 40
0.5937499999999992
 40
0.5937499999999992
 40
0.5937499999999992
 40
0.6249999999999994
 40
0.6249999999999994
 40
0.6249999999999994
 40
0.6249999999999994
 10
13.12462478210202
 20
-8.622522613648501
 30
0.0
 10
13.38558735463906
 20
-8.443189809387443
 30
0.0
 10
13.67740136855788
 20
-8.248695193715537
 30
0.0
 10
13.99647130450163
 20
-8.048352441725303
 30
0.0
  0
SPLINE
  5
28B
330
1F
100
AcDbEntity
  8
SK3
  6
SLD-Dashed
370
    18
100
AcDbSpline
210
0.0
220
0.0
230
1.0
 70
     8
 71
     3
 72
     8
 73
     4
 74
     0
 42
0.000000001
 43
0.00000001
 40
0.6249999999999994
 40
0.6249999999999994
 40
0.6249999999999994
 40
0.6249999999999994
 40
0.6406249999999994
 40
0.6406249999999994
 40
0.6406249999999994
 40
0.6406249999999994
 10
13.99647130450163
 20
-8.048352441725303
 30
0.0
 10
14.1560062724735
 20
-7.948181065730191
 30
0.0
 10
14.32264645062772
 20
-7.846391246550753
 30
0.0
 10
14.49678383646334
 20
-7.744004273106488
 30
0.0
  0
SPLINE
  5
28C
330
1F
100
AcDbEntity
  8
SK3
  6
SLD-Dashed
370
    18
100
AcDbSpline
210
0.0
220
0.0
230
1.0
 70
     8
 71
     3
 72
     8
 73
     4
 74
     0
 42
0.000000001
 43
0.00000001
 40
0.6406249999999994
 40
0.6406249999999994
 40
0.6406249999999994
 40
0.6406249999999994
 40
0.6562499999999996
 40
0.6562499999999996
 40
0.6562499999999996
 40
0.6562499999999996
 10
14.49678383646334
 20
-7.744004273106488
 30
0.0
 10
14.67092122229896
 20
-7.641617299662229
 30
0.0
 10
14.85258557109241
 20
-7.538664862757123
 30
0.0
 10
15.03899763914431
 20
-7.438142556363784
 30
0.0
  0
SPLINE
  5
28D
330
1F
100
AcDbEntity
  8
SK3
  6
SLD-Dashed
370
    18
100
AcDbSpline
210
0.0
220
0.0
230
1.0
 70
     8
 71
     3
 72
     8
 73
     4
 74
     0
 42
0.000000001
 43
0.00000001
 40
0.6562499999999996
 40
0.6562499999999996
 40
0.6562499999999996
 40
0.6562499999999996
 40
0.6874999999999996
 40
0.6874999999999996
 40
0.6874999999999996
 40
0.6874999999999996
 10
15.03899763914431
 20
-7.438142556363784
 30
0.0
 10
15.41182177524807
 20
-7.237097943577117
 30
0.0
 10
15.80629839638675
 20
-7.04354248150054
 30
0.0
 10
16.22814631139784
 20
-6.870275321257342
 30
0.0
  0
SPLINE
  5
28E
330
1F
100
AcDbEntity
  8
SK3
  6
SLD-Dashed
370
    18
100
AcDbSpline
210
0.0
220
0.0
230
1.0
 70
     8
 71
     3
 72
     8
 73
     4
 74
     0
 42
0.000000001
 43
0.00000001
 40
0.6874999999999996
 40
0.6874999999999996
 40
0.6874999999999996
 40
0.6874999999999996
 40
0.7031249999999996
 40
0.7031249999999996
 40
0.7031249999999996
 40
0.7031249999999996
 10
16.22814631139784
 20
-6.870275321257342
 30
0.0
 10
16.4390702689034
 20
-6.783641741135736
 30
0.0
 10
16.65691952523475
 20
-6.70216064926684
 30
0.0
 10
16.88312815507446
 20
-6.628209286250033
 30
0.0
  0
SPLINE
  5
28F
330
1F
100
AcDbEntity
  8
SK3
  6
SLD-Dashed
370
    18
100
AcDbSpline
210
0.0
220
0.0
230
1.0
 70
     8
 71
     3
 72
     8
 73
     4
 74
     0
 42
0.000000001
 43
0.00000001
 40
0.7031249999999996
 40
0.7031249999999996
 40
0.7031249999999996
 40
0.7031249999999996
 40
0.7187499999999997
 40
0.7187499999999997
 40
0.7187499999999997
 40
0.7187499999999997
 10
16.88312815507446
 20
-6.628209286250033
 30
0.0
 10
17.10933678491418
 20
-6.554257923233219
 30
0.0
 10
17.34174075755039
 20
-6.488713741290002
 30
0.0
 10
17.57727031585779
 20
-6.434808270069419
 30
0.0
  0
SPLINE
  5
290
330
1F
100
AcDbEntity
  8
SK3
  6
SLD-Dashed
370
    18
100
AcDbSpline
210
0.0
220
0.0
230
1.0
 70
     8
 71
     3
 72
     8
 73
     4
 74
     0
 42
0.000000001
 43
0.00000001
 40
0.7187499999999997
 40
0.7187499999999997
 40
0.7187499999999997
 40
0.7187499999999997
 40
0.7343749999999998
 40
0.7343749999999998
 40
0.7343749999999998
 40
0.7343749999999998
 10
17.57727031585779
 20
-6.434808270069419
 30
0.0
 10
17.81279987416519
 20
-6.380902798848835
 30
0.0
 10
18.05252364818871
 20
-6.338286491806344
 30
0.0
 10
18.29698114872469
 20
-6.309109456997558
 30
0.0
  0
SPLINE
  5
291
330
1F
100
AcDbEntity
  8
SK3
  6
SLD-Dashed
370
    18
100
AcDbSpline
210
0.0
220
0.0
230
1.0
 70
     8
 71
     3
 72
     8
 73
     4
 74
     0
 42
0.000000001
 43
0.00000001
 40
0.7343749999999998
 40
0.7343749999999998
 40
0.7343749999999998
 40
0.7343749999999998
 40
0.7499999999999998
 40
0.7499999999999998
 40
0.7499999999999998
 40
0.7499999999999998
 10
18.29698114872469
 20
-6.309109456997558
 30
0.0
 10
18.54143864926067
 20
-6.279932422188779
 30
0.0
 10
18.79215610213301
 20
-6.26444742437763
 30
0.0
 10
19.03915180219515
 20
-6.264019670578609
 30
0.0
  0
SPLINE
  5
292
330
1F
100
AcDbEntity
  8
SK3
  6
SLD-Dashed
370
    18
100
AcDbSpline
210
0.0
220
0.0
230
1.0
 70
     8
 71
     3
 72
     8
 73
     4
 74
     0
 42
0.000000001
 43
0.00000001
 40
0.7499999999999998
 40
0.7499999999999998
 40
0.7499999999999998
 40
0.7499999999999998
 40
0.7656249999999999
 40
0.7656249999999999
 40
0.7656249999999999
 40
0.7656249999999999
 10
19.03915180219515
 20
-6.264019670578609
 30
0.0
 10
19.28614750225729
 20
-6.263591916779589
 30
0.0
 10
19.53130752930583
 20
-6.27781932320505
 30
0.0
 10
19.77471835676296
 20
-6.305794275634859
 30
0.0
  0
SPLINE
  5
293
330
1F
100
AcDbEntity
  8
SK3
  6
SLD-Dashed
370
    18
100
AcDbSpline
210
0.0
220
0.0
230
1.0
 70
     8
 71
     3
 72
     8
 73
     4
 74
     0
 42
0.000000001
 43
0.00000001
 40
0.7656249999999999
 40
0.7656249999999999
 40
0.7656249999999999
 40
0.7656249999999999
 40
0.78125
 40
0.78125
 40
0.78125
 40
0.78125
 10
19.77471835676296
 20
-6.305794275634859
 30
0.0
 10
20.01812918422009
 20
-6.333769228064668
 30
0.0
 10
20.26140945668738
 20
-6.375869795885815
 30
0.0
 10
20.49908909721086
 20
-6.429438852781446
 30
0.0
  0
SPLINE
  5
294
330
1F
100
AcDbEntity
  8
SK3
  6
SLD-Dashed
370
    18
100
AcDbSpline
210
0.0
220
0.0
230
1.0
 70
     8
 71
     3
 72
     8
 73
     4
 74
     0
 42
0.000000001
 43
0.00000001
 40
0.78125
 40
0.78125
 40
0.78125
 40
0.78125
 40
0.8124999999999999
 40
0.8124999999999999
 40
0.8124999999999999
 40
0.8124999999999999
 10
20.49908909721086
 20
-6.429438852781446
 30
0.0
 10
20.97444837825781
 20
-6.536576966572685
 30
0.0
 10
21.4210900256734
 20
-6.686457325455468
 30
0.0
 10
21.84690865226462
 20
-6.860067256165406
 30
0.0
  0
SPLINE
  5
295
330
1F
100
AcDbEntity
  8
SK3
  6
SLD-Dashed
370
    18
100
AcDbSpline
210
0.0
220
0.0
230
1.0
 70
     8
 71
     3
 72
     8
 73
     4
 74
     0
 42
0.000000001
 43
0.00000001
 40
0.8124999999999999
 40
0.8124999999999999
 40
0.8124999999999999
 40
0.8124999999999999
 40
0.8281249999999999
 40
0.8281249999999999
 40
0.8281249999999999
 40
0.8281249999999999
 10
21.84690865226462
 20
-6.860067256165406
 30
0.0
 10
22.05981796556021
 20
-6.946872221520385
 30
0.0
 10
22.26838381516631
 20
-7.040231584780586
 30
0.0
 10
22.4688344364538
 20
-7.136263283671826
 30
0.0
  0
SPLINE
  5
296
330
1F
100
AcDbEntity
  8
SK3
  6
SLD-Dashed
370
    18
100
AcDbSpline
210
0.0
220
0.0
230
1.0
 70
     8
 71
     3
 72
     8
 73
     4
 74
     0
 42
0.000000001
 43
0.00000001
 40
0.8281249999999999
 40
0.8281249999999999
 40
0.8281249999999999
 40
0.8281249999999999
 40
0.8437499999999999
 40
0.8437499999999999
 40
0.8437499999999999
 40
0.8437499999999999
 10
22.4688344364538
 20
-7.136263283671826
 30
0.0
 10
22.66928505774131
 20
-7.232294982563066
 30
0.0
 10
22.86210288474154
 20
-7.331121877290396
 30
0.0
 10
23.04819252926417
 20
-7.431242712431334
 30
0.0
  0
SPLINE
  5
297
330
1F
100
AcDbEntity
  8
SK3
  6
SLD-Dashed
370
    18
100
AcDbSpline
210
0.0
220
0.0
230
1.0
 70
     8
 71
     3
 72
     8
 73
     4
 74
     0
 42
0.000000001
 43
0.00000001
 40
0.8437499999999999
 40
0.8437499999999999
 40
0.8437499999999999
 40
0.8437499999999999
 40
0.8749999999999998
 40
0.8749999999999998
 40
0.8749999999999998
 40
0.8749999999999998
 10
23.04819252926417
 20
-7.431242712431334
 30
0.0
 10
23.42037181830935
 20
-7.631484382713223
 30
0.0
 10
23.76593931761774
 20
-7.836781660934114
 30
0.0
 10
24.08742078109209
 20
-8.038248122307397
 30
0.0
  0
SPLINE
  5
298
330
1F
100
AcDbEntity
  8
SK3
  6
SLD-Dashed
370
    18
100
AcDbSpline
210
0.0
220
0.0
230
1.0
 70
     8
 71
     3
 72
     8
 73
     4
 74
     0
 42
0.000000001
 43
0.00000001
 40
0.8749999999999998
 40
0.8749999999999998
 40
0.8749999999999998
 40
0.8749999999999998
 40
0.8906249999999998
 40
0.8906249999999998
 40
0.8906249999999998
 40
0.8906249999999998
 10
24.08742078109209
 20
-8.038248122307397
 30
0.0
 10
24.24816151282926
 20
-8.13898135299404
 30
0.0
 10
24.40319178514376
 20
-8.239081736399221
 30
0.0
 10
24.54907574258326
 20
-8.335325954794317
 30
0.0
  0
SPLINE
  5
299
330
1F
100
AcDbEntity
  8
SK3
  6
SLD-Dashed
370
    18
100
AcDbSpline
210
0.0
220
0.0
230
1.0
 70
     8
 71
     3
 72
     8
 73
     4
 74
     0
 42
0.000000001
 43
0.00000001
 40
0.8906249999999998
 40
0.8906249999999998
 40
0.8906249999999998
 40
0.8906249999999998
 40
0.9062499999999998
 40
0.9062499999999998
 40
0.9062499999999998
 40
0.9062499999999998
 10
24.54907574258326
 20
-8.335325954794317
 30
0.0
 10
24.69495970002274
 20
-8.43157017318942
 30
0.0
 10
24.8324710043686
 20
-8.52443343303106
 30
0.0
 10
24.96168095158734
 20
-8.613117694735232
 30
0.0
  0
SPLINE
  5
29A
330
1F
100
AcDbEntity
  8
SK3
  6
SLD-Dashed
370
    18
100
AcDbSpline
210
0.0
220
0.0
230
1.0
 70
     8
 71
     3
 72
     8
 73
     4
 74
     0
 42
0.000000001
 43
0.00000001
 40
0.9062499999999998
 40
0.9062499999999998
 40
0.9062499999999998
 40
0.9062499999999998
 40
0.9374999999999998
 40
0.9374999999999998
 40
0.9374999999999998
 40
0.9374999999999998
 10
24.96168095158734
 20
-8.613117694735232
 30
0.0
 10
25.22010084602487
 20
-8.79048621814356
 30
0.0
 10
25.44569310702126
 20
-8.951297372629078
 30
0.0
 10
25.63481123623794
 20
-9.088320183999091
 30
0.0
  0
SPLINE
  5
29B
330
1F
100
AcDbEntity
  8
SK3
  6
SLD-Dashed
370
    18
100
AcDbSpline
210
0.0
220
0.0
230
1.0
 70
     8
 71
     3
 72
     8
 73
     4
 74
     0
 42
0.000000001
 43
0.00000001
 40
0.9374999999999998
 40
0.9374999999999998
 40
0.9374999999999998
 40
0.9374999999999998
 40
0.9531249999999999
 40
0.9531249999999999
 40
0.9531249999999999
 40
0.9531249999999999
 10
25.63481123623794
 20
-9.088320183999091
 30
0.0
 10
25.72937030084628
 20
-9.156831589684105
 30
0.0
 10
25.8145606027196
 20
-9.219255215159983
 30
0.0
 10
25.88765894890154
 20
-9.273155053782546
 30
0.0
  0
SPLINE
  5
29C
330
1F
100
AcDbEntity
  8
SK3
  6
SLD-Dashed
370
    18
100
AcDbSpline
210
0.0
220
0.0
230
1.0
 70
     8
 71
     3
 72
     8
 73
     4
 74
     0
 42
0.000000001
 43
0.00000001
 40
0.9531249999999999
 40
0.9531249999999999
 40
0.9531249999999999
 40
0.9531249999999999
 40
0.96875
 40
0.96875
 40
0.96875
 40
0.96875
 10
25.88765894890154
 20
-9.273155053782546
 30
0.0
 10
25.9607572950835
 20
-9.32705489240511
 30
0.0
 10
26.02246721220651
 20
-9.372940625911577
 30
0.0
 10
26.07246827894778
 20
-9.410254272804105
 30
0.0
  0
SPLINE
  5
29D
330
1F
100
AcDbEntity
  8
SK3
  6
SLD-Dashed
370
    18
100
AcDbSpline
210
0.0
220
0.0
230
1.0
 70
     8
 71
     3
 72
     8
 73
     4
 74
     0
 42
0.000000001
 43
0.00000001
 40
0.96875
 40
0.96875
 40
0.96875
 40
0.96875
 40
0.984375
 40
0.984375
 40
0.984375
 40
0.984375
 10
26.07246827894778
 20
-9.410254272804105
 30
0.0
 10
26.12246934568908
 20
-9.447567919696642
 30
0.0
 10
26.16076693486792
 20
-9.476314713373082
 30
0.0
 10
26.18660903636304
 20
-9.49573658479943
 30
0.0
  0
SPLINE
  5
29E
330
1F
100
AcDbEntity
  8
SK3
  6
SLD-Dashed
370
    18
100
AcDbSpline
210
0.0
220
0.0
230
1.0
 70
     8
 71
     2
 72
     6
 73
     3
 74
     0
 42
0.000000001
 43
0.00000001
 40
0.984375
 40
0.984375
 40
0.984375
 40
1.0
 40
1.0
 40
1.0
 10
26.18660903636304
 20
-9.49573658479943
 30
0.0
 10
26.2124511378581
 20
-9.515158456225782
 30
0.0
 10
26.22550000000003
 20
-9.524999999999999
 30
0.0
  0
SPLINE
  5
29F
330
1F
100
AcDbEntity
  8
SK3
  6
SLD-Dashed
370
    18
100
AcDbSpline
210
0.0
220
0.0
230
1.0
 70
     8
 71
     3
 72
    10
 73
     6
 74
     0
 42
0.000000001
 43
0.00000001
 40
0.0
 40
0.0
 40
0.0
 40
0.0
 40
0.5000000000000006
 40
0.5000000000000006
 40
1.0
 40
1.0
 40
1.0
 40
1.0
 10
-6.349999999946878
 20
1.852364275451036
 30
0.0
 10
-6.349999999946156
 20
1.884502456366333
 30
0.0
 10
-6.372010279532333
 20
1.920930484059131
 30
0.0
 10
-6.443985449792835
 20
1.988536451552124
 30
0.0
 10
-6.494068671927944
 20
2.020231457966851
 30
0.0
 10
-6.549999999999412
 20
2.037559509916737
 30
0.0
  0
SPLINE
  5
2A0
330
1F
100
AcDbEntity
  8
SK3
  6
SLD-Dashed
370
    18
100
AcDbSpline
210
0.0
220
0.0
230
1.0
 70
     8
 71
     3
 72
    10
 73
     6
 74
     0
 42
0.000000001
 43
0.00000001
 40
0.0
 40
0.0
 40
0.0
 40
0.0
 40
0.5
 40
0.5
 40
1.0
 40
1.0
 40
1.0
 40
1.0
 10
18.70470837592286
 20
25.57912025275683
 30
0.0
 10
18.66514338213328
 20
25.52310107590328
 30
0.0
 10
18.62842911249972
 20
25.46562249807943
 30
0.0
 10
18.57073957446641
 20
25.34260791126141
 30
0.0
 10
18.55000000000001
 20
25.27482658978054
 30
0.0
 10
18.55
 20
25.20500000000003
 30
0.0
  0
SPLINE
  5
2A1
330
1F
100
AcDbEntity
  8
SK3
  6
SLD-Dashed
370
    18
100
AcDbSpline
210
0.0
220
0.0
230
1.0
 70
     8
 71
     3
 72
    10
 73
     6
 74
     0
 42
0.000000001
 43
0.00000001
 40
0.0
 40
0.0
 40
0.0
 40
0.0
 40
0.5
 40
0.5
 40
1.0
 40
1.0
 40
1.0
 40
1.0
 10
3.699999999999994
 20
25.20500000000003
 30
0.0
 10
3.699999999999978
 20
25.27446188700639
 30
0.0
 10
3.679668344673005
 20
25.34157876899191
 30
0.0
 10
3.621774626393173
 20
25.46534569655893
 30
0.0
 10
3.584972825281714
 20
25.52292618711533
 30
0.0
 10
3.545388844997987
 20
25.57898258716477
 30
0.0
  0
SPLINE
  5
2A2
330
1F
100
AcDbEntity
  8
1
  6
SLD-Dashed
370
    18
100
AcDbSpline
210
0.0
220
0.0
230
1.0
 70
    24
 71
     2
 72
     6
 73
     3
 74
     0
 42
0.000000001
 43
0.00000001
 40
0.0
 40
0.0
 40
0.0
 40
0.2500000000000002
 40
0.2500000000000002
 40
0.2500000000000002
 10
3.545291624077157
 20
-22.41
 30
0.0
 10
3.529781518569377
 20
-22.41
 30
0.0
 10
3.506264354048633
 20
-22.41
 30
0.0
  0
SPLINE
  5
2A3
330
1F
100
AcDbEntity
  8
1
  6
SLD-Dashed
370
    18
100
AcDbSpline
210
0.0
220
0.0
230
1.0
 70
    24
 71
     3
 72
     8
 73
     4
 74
     0
 42
0.000000001
 43
0.00000001
 40
0.2500000000000002
 40
0.2500000000000002
 40
0.2500000000000002
 40
0.2500000000000002
 40
0.5000000000000004
 40
0.5000000000000004
 40
0.5000000000000004
 40
0.5000000000000004
 10
3.506264354048633
 20
-22.41
 30
0.0
 10
3.48274718952786
 20
-22.41
 30
0.0
 10
3.452323510010763
 20
-22.41
 30
0.0
 10
3.419371480420985
 20
-22.41
 30
0.0
  0
SPLINE
  5
2A4
330
1F
100
AcDbEntity
  8
1
  6
SLD-Dashed
370
    18
100
AcDbSpline
210
0.0
220
0.0
230
1.0
 70
    24
 71
     3
 72
     8
 73
     4
 74
     0
 42
0.000000001
 43
0.00000001
 40
0.5000000000000004
 40
0.5000000000000004
 40
0.5000000000000004
 40
0.5000000000000004
 40
1.0
 40
1.0
 40
1.0
 40
1.0
 10
3.419371480420985
 20
-22.41
 30
0.0
 10
3.353467421241402
 20
-22.41000000000001
 30
0.0
 10
3.27748356546001
 20
-22.41000000000003
 30
0.0
 10
3.200000000000008
 20
-22.41000000000004
 30
0.0
  0
SPLINE
  5
2A5
330
1F
100
AcDbEntity
  8
SK3
  6
SLD-Dashed
370
    18
100
AcDbSpline
210
0.0
220
0.0
230
1.0
 70
     8
 71
     3
 72
    10
 73
     6
 74
     0
 42
0.000000001
 43
0.00000001
 40
0.0
 40
0.0
 40
0.0
 40
0.0
 40
0.5
 40
0.5
 40
1.0
 40
1.0
 40
1.0
 40
1.0
 10
19.04999865305833
 20
-22.08967511601088
 30
0.0
 10
18.97594950440477
 20
-22.19631007299589
 30
0.0
 10
18.90336472265805
 20
-22.30453233155698
 30
0.0
 10
18.77850489247286
 20
-22.53156890874669
 30
0.0
 10
18.72354325487162
 20
-22.65381010295072
 30
0.0
 10
18.72354325487162
 20
-22.78499007940213
 30
0.0
  0
SPLINE
  5
2A6
330
1F
100
AcDbEntity
  8
SK3
  6
SLD-Dashed
370
    18
100
AcDbSpline
210
0.0
220
0.0
230
1.0
 70
     8
 71
     3
 72
    10
 73
     6
 74
     0
 42
0.000000001
 43
0.00000001
 40
0.0
 40
0.0
 40
0.0
 40
0.0
 40
0.5
 40
0.5
 40
1.0
 40
1.0
 40
1.0
 40
1.0
 10
18.72354325487162
 20
-29.80485652781844
 30
0.0
 10
18.72253047189911
 20
-29.90795834145374
 30
0.0
 10
18.68539651308618
 20
-30.00840184947416
 30
0.0
 10
18.55063812355041
 20
-30.16324409009206
 30
0.0
 10
18.45498086564815
 20
-30.21377929697788
 30
0.0
 10
18.35243145199461
 20
-30.22202749266363
 30
0.0
  0
SPLINE
  5
2A7
330
1F
100
AcDbEntity
  8
SK3
  6
SLD-Dashed
370
    18
100
AcDbSpline
210
0.0
220
0.0
230
1.0
 70
     8
 71
     3
 72
    18
 73
    14
 74
     0
 42
0.000000001
 43
0.00000001
 40
0.0
 40
0.0
 40
0.0
 40
0.0
 40
0.4999999999999976
 40
0.4999999999999976
 40
0.749999999999993
 40
0.749999999999993
 40
0.874999999999994
 40
0.874999999999994
 40
0.9374999999999934
 40
0.9374999999999934
 40
0.9687499999999967
 40
0.9687499999999967
 40
1.0
 40
1.0
 40
1.0
 40
1.0
 10
16.51677576989321
 20
-22.41
 30
0.0
 10
16.82525223291367
 20
-22.41
 30
0.0
 10
17.13708076725444
 20
-22.44727764950755
 30
0.0
 10
17.60693076566652
 20
-22.52926513876097
 30
0.0
 10
17.76385036865594
 20
-22.56114554888188
 30
0.0
 10
17.99778497490989
 20
-22.61895322476445
 30
0.0
 10
18.07561191908329
 20
-22.6397056525745
 30
0.0
 10
18.19052414083583
 20
-22.67749425457794
 30
0.0
 10
18.22859982640926
 20
-22.69106409354328
 30
0.0
 10
18.28357867360065
 20
-22.71650020215785
 30
0.0
 10
18.30169115359265
 20
-22.72580377858511
 30
0.0
 10
18.33459026242273
 20
-22.74907505222775
 30
0.0
 10
18.35243279893613
 20
-22.7644436188349
 30
0.0
 10
18.35243279893613
 20
-22.785
 30
0.0
  0
SPLINE
  5
2A8
330
1F
100
AcDbEntity
  8
SK3
  6
SLD-Dashed
370
    18
100
AcDbSpline
210
0.0
220
0.0
230
1.0
 70
     8
 71
     3
 72
    18
 73
    14
 74
     0
 42
0.000000001
 43
0.00000001
 40
0.0
 40
0.0
 40
0.0
 40
0.0
 40
0.0312500000000034
 40
0.0312500000000034
 40
0.0625000000000068
 40
0.0625000000000068
 40
0.1250000000000068
 40
0.1250000000000068
 40
0.2500000000000037
 40
0.2500000000000037
 40
0.5000000000000022
 40
0.5000000000000022
 40
1.0
 40
1.0
 40
1.0
 40
1.0
 10
18.35243279893621
 20
-22.78500000000002
 30
0.0
 10
18.35243279893621
 20
-22.7641072065397
 30
0.0
 10
18.33429549335581
 20
-22.7487877319643
 30
0.0
 10
18.30098608816369
 20
-22.72538627399017
 30
0.0
 10
18.28274814223369
 20
-22.7160811818676
 30
0.0
 10
18.22771917747777
 20
-22.69072867696512
 30
0.0
 10
18.1896583280277
 20
-22.67718608430406
 30
0.0
 10
18.07440001290326
 20
-22.63935493100615
 30
0.0
 10
17.9966759019589
 20
-22.6186623661075
 30
0.0
 10
17.76300758072892
 20
-22.56097120993226
 30
0.0
 10
17.6061728431104
 20
-22.52911528360951
 30
0.0
 10
17.13612247328435
 20
-22.44714576889384
 30
0.0
 10
16.82576414142138
 20
-22.41
 30
0.0
 10
16.51677576989321
 20
-22.41
 30
0.0
  0
SPLINE
  5
2A9
330
1F
100
AcDbEntity
  8
SK3
  6
SLD-Dashed
370
    18
100
AcDbSpline
210
0.0
220
0.0
230
1.0
 70
     8
 71
     3
 72
    12
 73
     8
 74
     0
 42
0.000000001
 43
0.00000001
 40
0.0
 40
0.0
 40
0.0
 40
0.0
 40
0.25
 40
0.25
 40
0.5
 40
0.5
 40
1.0
 40
1.0
 40
1.0
 40
1.0
 10
18.72344709960257
 20
-22.78499442618578
 30
0.0
 10
18.72344709960257
 20
-22.72025065328168
 30
0.0
 10
18.73757565273465
 20
-22.65522609019745
 30
0.0
 10
18.78089307285527
 20
-22.53331313014414
 30
0.0
 10
18.80973313329208
 20
-22.47462015255485
 30
0.0
 10
18.90370003321661
 20
-22.30387561926989
 30
0.0
 10
18.97598081232156
 20
-22.19620292117121
 30
0.0
 10
19.0499992560187
 20
-22.08963425050187
 30
0.0
  0
SPLINE
  5
2AA
330
1F
100
AcDbEntity
  8
SK3
  6
SLD-Dashed
370
    18
100
AcDbSpline
210
0.0
220
0.0
230
1.0
 70
     8
 71
     3
 72
    10
 73
     6
 74
     0
 42
0.000000001
 43
0.00000001
 40
0.0
 40
0.0
 40
0.0
 40
0.0
 40
0.5
 40
0.5
 40
1.0
 40
1.0
 40
1.0
 40
1.0
 10
18.35243205495608
 20
-30.22191922238024
 30
0.0
 10
18.4548230721218
 20
-30.21368465055318
 30
0.0
 10
18.55094523569693
 20
-30.16265919981339
 30
0.0
 10
18.6846785939481
 20
-30.0091437990513
 30
0.0
 10
18.72241817331635
 20
-29.90780197313876
 30
0.0
 10
18.72344709960257
 20
-29.80484970038418
 30
0.0
  0
SPLINE
  5
2AB
330
1F
100
AcDbEntity
  8
SK3
  6
SLD-Dashed
370
    18
100
AcDbSpline
210
0.0
220
0.0
230
1.0
 70
     8
 71
     3
 72
    40
 73
    36
 74
     0
 42
0.000000001
 43
0.00000001
 40
0.0
 40
0.0
 40
0.0
 40
0.0
 40
0.0126129321449816
 40
0.0314976481339604
 40
0.0629183966702564
 40
0.0880663439714168
 40
0.1258663548219043
 40
0.1545361786951687
 40
0.1972635113751465
 40
0.2185774264758751
 40
0.2505499734499138
 40
0.2790323571745755
 40
0.3220275475257124
 40
0.3436168159336463
 40
0.3758133620275749
 40
0.404289809506831
 40
0.4468993710431156
 40
0.468210972392158
 40
0.5002437124696447
 40
0.5288533887317777
 40
0.5719828275869667
 40
0.5934420637179458
 40
0.6254916984483699
 40
0.6539107272569499
 40
0.6965262692674994
 40
0.7178823906336999
 40
0.7500313093276819
 40
0.7787800102949101
 40
0.8217645159398103
 40
0.8431483194632992
 40
0.8751517844153629
 40
0.9000181010942334
 40
0.9373587731677226
 40
0.9685909586685477
 40
1.0
 40
1.0
 40
1.0
 40
1.0
 10
3.949999999998898
 20
-30.22558142012363
 30
0.0
 10
3.94727430405442
 20
-30.22556434752345
 30
0.0
 10
3.940467559136406
 20
-30.22552171296815
 30
0.0
 10
3.926878079312828
 20
-30.22500449703393
 30
0.0
 10
3.910614550228688
 20
-30.22373214657328
 30
0.0
 10
3.890377361763549
 20
-30.22117483723317
 30
0.0
 10
3.870876571852032
 20
-30.21766990056472
 30
0.0
 10
3.847909402640791
 20
-30.21222207486607
 30
0.0
 10
3.828703761990056
 20
-30.20644931168604
 30
0.0
 10
3.809172441364888
 20
-30.19943885792489
 30
0.0
 10
3.792810014292171
 20
-30.19274290251865
 30
0.0
 10
3.77255678756022
 20
-30.18326307338683
 30
0.0
 10
3.754852229733845
 20
-30.17368149207815
 30
0.0
 10
3.73700112975593
 20
-30.16277896347313
 30
0.0
 10
3.722237930658996
 20
-30.15285978974808
 30
0.0
 10
3.704336292931805
 20
-30.13951958199216
 30
0.0
 10
3.68901088264431
 20
-30.12669241146887
 30
0.0
 10
3.673804931859077
 20
-30.11259090121807
 30
0.0
 10
3.661328526176203
 20
-30.10000934793183
 30
0.0
 10
3.646311367638347
 20
-30.08334675455453
 30
0.0
 10
3.633674708738416
 20
-30.0676414670618
 30
0.0
 10
3.62141056607451
 20
-30.05073531891782
 30
0.0
 10
3.611611223628933
 20
-30.03598007668936
 30
0.0
 10
3.600156512781668
 20
-30.01686769647028
 30
0.0
 10
3.590829750079554
 20
-29.99919574996681
 30
0.0
 10
3.58203581287465
 20
-29.98037484052064
 30
0.0
 10
3.575165778815597
 20
-29.96397246361067
 30
0.0
 10
3.56744982965652
 20
-29.9428852210927
 30
0.0
 10
3.561558066370689
 20
-29.92362739013729
 30
0.0
 10
3.556428567390839
 20
-29.90344062128828
 30
0.0
 10
3.552918981595636
 20
-29.88689085311455
 30
0.0
 10
3.549536425733838
 20
-29.86681061568513
 30
0.0
 10
3.547124737183364
 20
-29.84675343612379
 30
0.0
 10
3.545564419127062
 20
-29.82519260420115
 30
0.0
 10
3.545382726751265
 20
-29.81165457437737
 30
0.0
 10
3.545291624076083
 20
-29.8048664484133
 30
0.0
  0
SPLINE
  5
2AC
330
1F
100
AcDbEntity
  8
SK3
  6
SLD-Dashed
370
    18
100
AcDbSpline
210
0.0
220
0.0
230
1.0
 70
     8
 71
     3
 72
    10
 73
     6
 74
     0
 42
0.000000001
 43
0.00000001
 40
0.0
 40
0.0
 40
0.0
 40
0.0
 40
0.2281918409865225
 40
0.6129050137213706
 40
1.0
 40
1.0
 40
1.0
 40
1.0
 10
18.35243205495608
 20
-30.22191922238024
 30
0.0
 10
18.34846363469471
 20
-30.22242129953702
 30
0.0
 10
18.3378047756214
 20
-30.22376983857916
 30
0.0
 10
18.32031542652088
 20
-30.2251541658493
 30
0.0
 10
18.30678572647101
 20
-30.22536409786458
 30
0.0
 10
18.30000000000001
 20
-30.22546938779916
 30
0.0
  0
SPLINE
  5
2AD
330
1F
100
AcDbEntity
  8
SK3
  6
SLD-Dashed
370
    18
100
AcDbSpline
210
0.0
220
0.0
230
1.0
 70
     8
 71
     3
 72
    40
 73
    36
 74
     0
 42
0.000000001
 43
0.00000001
 40
0.0
 40
0.0
 40
0.0
 40
0.0
 40
0.0125929119920853
 40
0.0314096195346373
 40
0.0626234169499198
 40
0.0875147363747587
 40
0.124814412830725
 40
0.1532834083387407
 40
0.1962265830891685
 40
0.2178107992109856
 40
0.2500224951329321
 40
0.2785169301552057
 40
0.3211718523043689
 40
0.3425182663517161
 40
0.3746092478105291
 40
0.4033018002026093
 40
0.4463503818994342
 40
0.4677602234265854
 40
0.4997883410590171
 40
0.5282270395863745
 40
0.5709521530205331
 40
0.5924138618617291
 40
0.6247350591047612
 40
0.6534144483970801
 40
0.6961683199419044
 40
0.7174969314503464
 40
0.7494813527194152
 40
0.7779588669976988
 40
0.8208766717687367
 40
0.8424514691504715
 40
0.874724282179473
 40
0.8997563983109313
 40
0.9372703102803501
 40
0.968578418532575
 40
0.9999999999999999
 40
0.9999999999999999
 40
0.9999999999999999
 40
0.9999999999999999
 10
18.30000000000001
 20
30.2255814201264
 30
0.0
 10
18.30272136951242
 20
30.22556441746849
 30
0.0
 10
18.30950909113324
 20
30.22552200892815
 30
0.0
 10
18.32303491151129
 20
30.22500878447085
 30
0.0
 10
18.33918410220826
 20
30.22374990827884
 30
0.0
 10
18.35921637335285
 20
30.22123374888838
 30
0.0
 10
18.3785174346528
 20
30.21779055348818
 30
0.0
 10
18.4013925941177
 20
30.21241015713829
 30
0.0
 10
18.42066868063112
 20
30.20665667098935
 30
0.0
 10
18.44035778154607
 20
30.19962160064929
 30
0.0
 10
18.45683219318452
 20
30.19290122073894
 30
0.0
 10
18.47707551770183
 20
30.18344563237709
 30
0.0
 10
18.49468238340836
 20
30.17394373601333
 30
0.0
 10
18.51242282863931
 20
30.1631457547134
 30
0.0
 10
18.52718102114116
 20
30.15327064640551
 30
0.0
 10
18.54520190007997
 20
30.13989144466212
 30
0.0
 10
18.56066753372129
 20
30.1269774001082
 30
0.0
 10
18.57597030022936
 20
30.11281096127925
 30
0.0
 10
18.58844277986747
 20
30.10024903998076
 30
0.0
 10
18.60339048841035
 20
30.08369276015745
 30
0.0
 10
18.61596948562732
 20
30.06810049270645
 30
0.0
 10
18.62824307125509
 20
30.05123600708182
 30
0.0
 10
18.63812738344199
 20
30.03639837328907
 30
0.0
 10
18.64967535556759
 20
30.01717281850425
 30
0.0
 10
18.6590506075496
 20
29.99943559548715
 30
0.0
 10
18.66785100498266
 20
29.98063051707893
 30
0.0
 10
18.67469312836915
 20
29.96432508828281
 30
0.0
 10
18.68239354934313
 20
29.94334796470476
 30
0.0
 10
18.68830098830935
 20
29.92412819400953
 30
0.0
 10
18.69347515991063
 20
29.90386495846921
 30
0.0
 10
18.69702701390045
 20
29.88718562683121
 30
0.0
 10
18.70044011360975
 20
29.86697716337643
 30
0.0
 10
18.70287111134992
 20
29.84683182165025
 30
0.0
 10
18.70443405316873
 20
29.82521437831678
 30
0.0
 10
18.70461682479818
 20
29.81165726630969
 30
0.0
 10
18.70470837592286
 20
29.8048664484163
 30
0.0
  0
SPLINE
  5
2AE
330
1F
100
AcDbEntity
  8
SK3
  6
SLD-Dashed
370
    18
100
AcDbSpline
210
0.0
220
0.0
230
1.0
 70
     8
 71
     3
 72
    39
 73
    35
 74
     0
 42
0.000000001
 43
0.00000001
 40
0.0
 40
0.0
 40
0.0
 40
0.0
 40
0.0314091160307674
 40
0.0626413758641538
 40
0.0875470935131885
 40
0.1248485138287456
 40
0.1532930400450731
 40
0.1960941157944613
 40
0.2176225947738233
 40
0.2499693772004398
 40
0.2785546285585068
 40
0.3212364873026817
 40
0.3425405354923858
 40
0.3745092858974068
 40
0.4029918411019298
 40
0.4459785689856149
 40
0.4675618916159466
 40
0.4997576608210499
 40
0.5282368343000431
 40
0.5708480092884092
 40
0.5921584935845995
 40
0.6241883328452476
 40
0.6527986190299354
 40
0.6959401501309849
 40
0.7174023419155745
 40
0.7494519752642005
 40
0.7778741158300017
 40
0.8205144520917228
 40
0.8418962920619149
 40
0.8741359236783777
 40
0.8993502252909598
 40
0.9370840470446206
 40
0.9685048711195197
 40
1.0
 40
1.0
 40
1.0
 40
1.0
 10
3.545388844997988
 20
29.80485527419827
 30
0.0
 10
3.545479748550589
 20
29.81164171345386
 30
0.0
 10
3.545661043802609
 20
29.82517637936968
 30
0.0
 10
3.547029433803336
 20
29.84405190465715
 30
0.0
 10
3.549258968233828
 20
29.8641182457016
 30
0.0
 10
3.552336224857541
 20
29.88347227622583
 30
0.0
 10
3.557141779746755
 20
29.9064312484356
 30
0.0
 10
3.5622882256222
 20
29.92581971282427
 30
0.0
 10
3.568614089357715
 20
29.94572790966327
 30
0.0
 10
3.574692956926405
 20
29.96248267210262
 30
0.0
 10
3.58328777604812
 20
29.98315850998396
 30
0.0
 10
3.591955015312247
 20
30.00120090567664
 30
0.0
 10
3.601831018727645
 20
30.01943081107649
 30
0.0
 10
3.610874012133435
 20
30.03461278108226
 30
0.0
 10
3.623189627258744
 20
30.05326734966765
 30
0.0
 10
3.635184378154356
 20
30.06942261759881
 30
0.0
 10
3.648473969075889
 20
30.08556438898112
 30
0.0
 10
3.660340157340348
 20
30.0988057483823
 30
0.0
 10
3.676012531497214
 20
30.11469877887872
 30
0.0
 10
3.690813818886918
 20
30.12812096686813
 30
0.0
 10
3.706862089264393
 20
30.14124723286365
 30
0.0
 10
3.721035740664472
 20
30.15187245989085
 30
0.0
 10
3.739615920455547
 20
30.16443427377517
 30
0.0
 10
3.756939716856909
 20
30.17474090541247
 30
0.0
 10
3.775422312926241
 20
30.18446497823759
 30
0.0
 10
3.791441042936023
 20
30.19201976729604
 30
0.0
 10
3.812039955628066
 20
30.20051935318401
 30
0.0
 10
3.830933874073433
 20
30.20705284128376
 30
0.0
 10
3.850922478500718
 20
30.21280585013028
 30
0.0
 10
3.867492347984378
 20
30.21678677988691
 30
0.0
 10
3.887698638249892
 20
30.22064109222359
 30
0.0
 10
3.907913014965708
 20
30.22338985618063
 30
0.0
 10
3.929600305356981
 20
30.22516034748691
 30
0.0
 10
3.943194750029217
 20
30.22536629328659
 30
0.0
 10
3.949999999999967
 20
30.22546938779914
 30
0.0
  0
SPLINE
  5
2AF
330
1F
100
AcDbEntity
  8
1
  6
SLD-Dashed
370
    18
100
AcDbSpline
210
0.0
220
0.0
230
1.0
 70
    24
 71
     3
 72
     8
 73
     4
 74
     0
 42
0.000000001
 43
0.00000001
 40
0.0
 40
0.0
 40
0.0
 40
0.0
 40
0.5000000000000013
 40
0.5000000000000013
 40
0.5000000000000013
 40
0.5000000000000013
 10
3.200000000000008
 20
-22.41000000000004
 30
0.0
 10
3.277521727773375
 20
-22.41000000000003
 30
0.0
 10
3.353381647940926
 20
-22.41000000000001
 30
0.0
 10
3.419612606008038
 20
-22.41
 30
0.0
  0
SPLINE
  5
2B0
330
1F
100
AcDbEntity
  8
1
  6
SLD-Dashed
370
    18
100
AcDbSpline
210
0.0
220
0.0
230
1.0
 70
    24
 71
     3
 72
     8
 73
     4
 74
     0
 42
0.000000001
 43
0.00000001
 40
0.5000000000000013
 40
0.5000000000000013
 40
0.5000000000000013
 40
0.5000000000000013
 40
0.7500000000000007
 40
0.7500000000000007
 40
0.7500000000000007
 40
0.7500000000000007
 10
3.419612606008038
 20
-22.41
 30
0.0
 10
3.452728085041587
 20
-22.41
 30
0.0
 10
3.483301361658628
 20
-22.41000000000001
 30
0.0
 10
3.506578077111008
 20
-22.41
 30
0.0
  0
SPLINE
  5
2B1
330
1F
100
AcDbEntity
  8
1
  6
SLD-Dashed
370
    18
100
AcDbSpline
210
0.0
220
0.0
230
1.0
 70
    24
 71
     2
 72
     6
 73
     3
 74
     0
 42
0.000000001
 43
0.00000001
 40
0.7500000000000007
 40
0.7500000000000007
 40
0.7500000000000007
 40
1.0
 40
1.0
 40
1.0
 10
3.506578077111008
 20
-22.41
 30
0.0
 10
3.529854792563389
 20
-22.41
 30
0.0
 10
3.54538884499811
 20
-22.41
 30
0.0
  0
SPLINE
  5
2B2
330
1F
100
AcDbEntity
  8
SK3
  6
SLD-Dashed
370
    18
100
AcDbSpline
210
0.0
220
0.0
230
1.0
 70
     8
 71
     3
 72
    10
 73
     6
 74
     0
 42
0.000000001
 43
0.00000001
 40
0.0
 40
0.0
 40
0.0
 40
0.0
 40
0.5
 40
0.5
 40
1.0
 40
1.0
 40
1.0
 40
1.0
 10
18.55
 20
25.20500000000003
 30
0.0
 10
18.55
 20
25.27446188700639
 30
0.0
 10
18.57033165532695
 20
25.34157876899191
 30
0.0
 10
18.62822537360674
 20
25.46534569655894
 30
0.0
 10
18.6650271747182
 20
25.52292618711536
 30
0.0
 10
18.70461115500194
 20
25.57898258716481
 30
0.0
  0
SPLINE
  5
2B3
330
1F
100
AcDbEntity
  8
SK3
  6
SLD-Dashed
370
    18
100
AcDbSpline
210
0.0
220
0.0
230
1.0
 70
     8
 71
     3
 72
    10
 73
     6
 74
     0
 42
0.000000001
 43
0.00000001
 40
0.0
 40
0.0
 40
0.0
 40
0.0
 40
0.5
 40
0.5
 40
1.0
 40
1.0
 40
1.0
 40
1.0
 10
3.545291624077139
 20
25.57912025275685
 30
0.0
 10
3.584856617866724
 20
25.5231010759033
 30
0.0
 10
3.621570887500283
 20
25.46562249807944
 30
0.0
 10
3.679260425533596
 20
25.34260791126143
 30
0.0
 10
3.699999999999994
 20
25.27482658978054
 30
0.0
 10
3.699999999999994
 20
25.20500000000003
 30
0.0
  0
SPLINE
  5
2B4
330
1F
100
AcDbEntity
  8
SK3
  6
SLD-Dashed
370
    18
100
AcDbSpline
210
0.0
220
0.0
230
1.0
 70
     8
 71
     3
 72
     8
 73
     4
 74
     0
 42
0.000000001
 43
0.00000001
 40
0.0
 40
0.0
 40
0.0
 40
0.0
 40
1.0
 40
1.0
 40
1.0
 40
1.0
 10
11.88459551241398
 20
9.088680750586176
 30
0.0
 10
11.87318746426013
 20
9.08219128849892
 30
0.0
 10
11.86178084690855
 20
9.075621712163349
 30
0.0
 10
11.85037481025365
 20
9.06897240792622
 30
0.0
  0
SPLINE
  5
2B5
330
1F
100
AcDbEntity
  8
SK3
  6
SLD-Dashed
370
    18
100
AcDbSpline
210
0.0
220
0.0
230
1.0
 70
     8
 71
     3
 72
     8
 73
     4
 74
     0
 42
0.000000001
 43
0.00000001
 40
0.0
 40
0.0
 40
0.0
 40
0.0
 40
1.0
 40
1.0
 40
1.0
 40
1.0
 10
11.85037484308793
 20
5.968209101533485
 30
0.0
 10
11.86178086876699
 20
5.975075439542334
 30
0.0
 10
11.87318747517414
 20
5.982020938074744
 30
0.0
 10
11.88459551241454
 20
5.989045153000002
 30
0.0
  0
SPLINE
  5
2B6
330
1F
100
AcDbEntity
  8
SK3
  6
SLD-Dashed
370
    18
100
AcDbSpline
210
0.0
220
0.0
230
1.0
 70
     8
 71
     3
 72
    11
 73
     7
 74
     0
 42
0.000000001
 43
0.00000001
 40
0.0
 40
0.0
 40
0.0
 40
0.0
 40
0.1554884741403875
 40
0.3882936331589843
 40
0.775639270961716
 40
1.0
 40
1.0
 40
1.0
 40
1.0
 10
18.30000000000005
 20
-30.22558142012645
 30
0.0
 10
18.3027257264871
 20
-30.22556457274407
 30
0.0
 10
18.30953254767756
 20
-30.22552250061398
 30
0.0
 10
18.32312103842669
 20
-30.22499799134553
 30
0.0
 10
18.33789246306476
 20
-30.22388368943423
 30
0.0
 10
18.34852987738193
 20
-30.22252560778231
 30
0.0
 10
18.35243145199461
 20
-30.22202749266363
 30
0.0
  0
SPLINE
  5
2B7
330
1F
100
AcDbEntity
  8
1
  6
SLD-Dashed
370
    18
100
AcDbSpline
210
0.0
220
0.0
230
1.0
 70
     8
 71
     3
 72
     8
 73
     4
 74
     0
 42
0.000000001
 43
0.00000001
 40
0.0
 40
0.0
 40
0.0
 40
0.0
 40
1.0
 40
1.0
 40
1.0
 40
1.0
 10
14.37601294652263
 20
-30.22558142012645
 30
0.0
 10
13.92634047615438
 20
-29.41927694377228
 30
0.0
 10
13.47758735871732
 20
-28.61247603335392
 30
0.0
 10
13.03000000000001
 20
-27.8050456341729
 30
0.0
  0
SPLINE
  5
2B8
330
1F
100
AcDbEntity
  8
1
  6
SLD-Dashed
370
    18
100
AcDbSpline
210
0.0
220
0.0
230
1.0
 70
     8
 71
     3
 72
    10
 73
     6
 74
     0
 42
0.000000001
 43
0.00000001
 40
0.0
 40
0.0
 40
0.0
 40
0.0
 40
0.5
 40
0.5
 40
1.0
 40
1.0
 40
1.0
 40
1.0
 10
13.03000000000004
 20
-27.76916635406973
 30
0.0
 10
13.03000000000002
 20
-27.56948960726649
 30
0.0
 10
12.9530257332551
 20
-27.36838646497956
 30
0.0
 10
12.67905057581468
 20
-27.07630005005161
 30
0.0
 10
12.48172757240075
 20
-26.98706356756882
 30
0.0
 10
12.28000000000001
 20
-26.98706356756882
 30
0.0
  0
SPLINE
  5
2B9
330
1F
100
AcDbEntity
  8
1
  6
SLD-Dashed
370
    18
100
AcDbSpline
210
0.0
220
0.0
230
1.0
 70
     8
 71
     3
 72
    10
 73
     6
 74
     0
 42
0.000000001
 43
0.00000001
 40
0.0
 40
0.0
 40
0.0
 40
0.0
 40
0.5
 40
0.5
 40
1.0
 40
1.0
 40
1.0
 40
1.0
 10
9.950000000000667
 20
-26.98706356756945
 30
0.0
 10
9.748441495091562
 20
-26.98706356756928
 30
0.0
 10
9.550692481024289
 20
-27.07656444408195
 30
0.0
 10
9.277196882747182
 20
-27.3681586685193
 30
0.0
 10
9.20000000000018
 20
-27.56927498425101
 30
0.0
 10
9.200000000000014
 20
-27.76916635406977
 30
0.0
  0
SPLINE
  5
2BA
330
1F
100
AcDbEntity
  8
1
  6
SLD-Dashed
370
    18
100
AcDbSpline
210
0.0
220
0.0
230
1.0
 70
     8
 71
     3
 72
     8
 73
     4
 74
     0
 42
0.000000001
 43
0.00000001
 40
0.0
 40
0.0
 40
0.0
 40
0.0
 40
1.0
 40
1.0
 40
1.0
 40
1.0
 10
9.199999999998877
 20
-27.80504563417608
 30
0.0
 10
8.752433371354604
 20
-28.61243863710178
 30
0.0
 10
8.303701091401397
 20
-29.41920220926473
 30
0.0
 10
7.85404953340614
 20
-30.2254693878023
 30
0.0
  0
SPLINE
  5
2BB
330
1F
100
AcDbEntity
  8
SK3
  6
SLD-Dashed
370
    18
100
AcDbSpline
210
0.0
220
0.0
230
1.0
 70
     8
 71
     3
 72
    40
 73
    36
 74
     0
 42
0.000000001
 43
0.00000001
 40
0.0
 40
0.0
 40
0.0
 40
0.0
 40
0.0314214559572178
 40
0.0627294389672004
 40
0.0877405066521895
 40
0.1252752326697184
 40
0.1539551384600108
 40
0.1970430837597873
 40
0.2184753360378477
 40
0.2505176110611737
 40
0.2789492345937391
 40
0.3216198597594042
 40
0.3430128235413673
 40
0.3752634384750793
 40
0.4040010771804458
 40
0.4468656794915723
 40
0.468215945936246
 40
0.5002096454814972
 40
0.528675413734447
 40
0.5715400247765458
 40
0.5931009716299191
 40
0.6253883780511656
 40
0.6539191343952843
 40
0.6965914244566831
 40
0.7179237821488444
 40
0.7499746494270431
 40
0.7785976316863417
 40
0.7958543398127828
 40
0.8217160693566459
 40
0.8431552865480468
 40
0.8751886732441888
 40
0.9000580147531506
 40
0.9373794059838182
 40
0.9685930788650364
 40
1.0
 40
1.0
 40
1.0
 40
1.0
 10
3.545388844996995
 20
-29.80485527420156
 30
0.0
 10
3.545480197135404
 20
-29.81164440520863
 30
0.0
 10
3.545662571510395
 20
-29.82519814949494
 30
0.0
 10
3.547032714046907
 20
-29.84411564286316
 30
0.0
 10
3.549278621227513
 20
-29.86427043795788
 30
0.0
 10
3.552383815069223
 20
-29.8837459003967
 30
0.0
 10
3.557241214189624
 20
-29.90686111791882
 30
0.0
 10
3.562435988465531
 20
-29.92633239392608
 30
0.0
 10
3.568780339238808
 20
-29.94620899181593
 30
0.0
 10
3.57483642390524
 20
-29.96284451017947
 30
0.0
 10
3.58340608982535
 20
-29.98342104192837
 30
0.0
 10
3.592077830421048
 20
-30.00144320563149
 30
0.0
 10
3.602002400646285
 20
-30.01973532130884
 30
0.0
 10
3.611129444212003
 20
-30.03502499592774
 30
0.0
 10
3.62352061564168
 20
-30.05373739733254
 30
0.0
 10
3.635525817110198
 20
-30.06985792745888
 30
0.0
 10
3.648757943677706
 20
-30.08589113400061
 30
0.0
 10
3.660571393172078
 20
-30.09904955418674
 30
0.0
 10
3.67625956808451
 20
-30.11493869793388
 30
0.0
 10
3.691152319419493
 20
-30.12841850148094
 30
0.0
 10
3.707345738384368
 20
-30.14162746303268
 30
0.0
 10
3.721611997070897
 20
-30.15228399886392
 30
0.0
 10
3.74016428506367
 20
-30.16477481501948
 30
0.0
 10
3.757375549684069
 20
-30.17498291258005
 30
0.0
 10
3.77575392680908
 20
-30.18462804605823
 30
0.0
 10
3.791792461294158
 20
-30.19217667946794
 30
0.0
 10
3.807369256512038
 20
-30.19858412923172
 30
0.0
 10
3.821916756260104
 20
-30.20393768674578
 30
0.0
 10
3.835173350441965
 20
-30.20828861199454
 30
0.0
 10
3.851657250143012
 20
-30.21299666641908
 30
0.0
 10
3.868130598975172
 20
-30.21692139734516
 30
0.0
 10
3.888137813528689
 20
-30.22070805124266
 30
0.0
 10
3.908147752578903
 20
-30.22341140281245
 30
0.0
 10
3.929683046762791
 20
-30.22516290854708
 30
0.0
 10
3.943213763576897
 20
-30.22536701808867
 30
0.0
 10
3.949999999998899
 20
-30.22546938780228
 30
0.0
  0
SPLINE
  5
2BC
330
1F
100
AcDbEntity
  8
SK3
  6
SLD-Dashed
370
    18
100
AcDbSpline
210
0.0
220
0.0
230
1.0
 70
     8
 71
     3
 72
    39
 73
    35
 74
     0
 42
0.000000001
 43
0.00000001
 40
0.0
 40
0.0
 40
0.0
 40
0.0
 40
0.0314091160307677
 40
0.062641375864154
 40
0.0875470935131889
 40
0.1248485138287462
 40
0.1532930400450872
 40
0.1960941157944515
 40
0.2176225947738144
 40
0.2499693772004302
 40
0.2785546285585205
 40
0.3212364873026964
 40
0.3425405354923894
 40
0.3745092858974103
 40
0.4029918411019262
 40
0.4459785689856202
 40
0.4675618916159423
 40
0.4997576608210476
 40
0.5282368343000382
 40
0.5708480092883969
 40
0.5921584935845849
 40
0.624188332845246
 40
0.6527986190299447
 40
0.6959401501309724
 40
0.7174023419155647
 40
0.7494519752642036
 40
0.7778741158300034
 40
0.8205144520917296
 40
0.8418962920619176
 40
0.8741359236783779
 40
0.8993502252909584
 40
0.9370840470446232
 40
0.9685048711195082
 40
1.0
 40
1.0
 40
1.0
 40
1.0
 10
18.70461115500985
 20
29.80485527419815
 30
0.0
 10
18.70452025145723
 20
29.81164171345374
 30
0.0
 10
18.70433895620521
 20
29.82517637936957
 30
0.0
 10
18.70297056620451
 20
29.84405190465701
 30
0.0
 10
18.70074103177403
 20
29.86411824570148
 30
0.0
 10
18.69766377515031
 20
29.88347227622572
 30
0.0
 10
18.69285822026112
 20
29.90643124843548
 30
0.0
 10
18.68771177438565
 20
29.92581971282414
 30
0.0
 10
18.68138591065015
 20
29.94572790966316
 30
0.0
 10
18.67530704308145
 20
29.96248267210248
 30
0.0
 10
18.66671222395976
 20
29.98315850998384
 30
0.0
 10
18.65804498469564
 20
30.00120090567654
 30
0.0
 10
18.64816898128024
 20
30.0194308110764
 30
0.0
 10
18.63912598787449
 20
30.03461278108216
 30
0.0
 10
18.62681037274913
 20
30.05326734966753
 30
0.0
 10
18.61481562185354
 20
30.06942261759871
 30
0.0
 10
18.60152603093201
 20
30.08556438898101
 30
0.0
 10
18.58965984266755
 20
30.0988057483822
 30
0.0
 10
18.5739874685107
 20
30.11469877887863
 30
0.0
 10
18.55918618112102
 20
30.12812096686804
 30
0.0
 10
18.54313791074352
 20
30.14124723286356
 30
0.0
 10
18.52896425934347
 20
30.15187245989078
 30
0.0
 10
18.51038407955237
 20
30.16443427377509
 30
0.0
 10
18.49306028315101
 20
30.17474090541239
 30
0.0
 10
18.4745776870817
 20
30.18446497823753
 30
0.0
 10
18.4585589570719
 20
30.192019767296
 30
0.0
 10
18.43796004437986
 20
30.20051935318395
 30
0.0
 10
18.41906612593452
 20
30.2070528412837
 30
0.0
 10
18.39907752150723
 20
30.21280585013026
 30
0.0
 10
18.38250765202358
 20
30.21678677988688
 30
0.0
 10
18.36230136175805
 20
30.22064109222356
 30
0.0
 10
18.34208698504224
 20
30.22338985618061
 30
0.0
 10
18.32039969465099
 20
30.22516034748688
 30
0.0
 10
18.30680524997877
 20
30.22536629328657
 30
0.0
 10
18.30000000000798
 20
30.22546938779914
 30
0.0
  0
SPLINE
  5
2BD
330
1F
100
AcDbEntity
  8
SK3
  6
SLD-Dashed
370
    18
100
AcDbSpline
210
0.0
220
0.0
230
1.0
 70
     8
 71
     3
 72
    40
 73
    36
 74
     0
 42
0.000000001
 43
0.00000001
 40
0.0
 40
0.0
 40
0.0
 40
0.0
 40
0.0125929119920799
 40
0.0314096195346371
 40
0.0626234169499144
 40
0.0875147363747578
 40
0.1248144128307291
 40
0.1532834083387329
 40
0.1962265830891804
 40
0.2178107992109905
 40
0.2500224951329297
 40
0.2785169301551935
 40
0.3211718523043735
 40
0.3425182663517212
 40
0.3746092478105252
 40
0.4033018002026009
 40
0.4463503818994297
 40
0.4677602234265738
 40
0.4997883410590129
 40
0.5282270395863776
 40
0.5709521530205359
 40
0.592413861861735
 40
0.6247350591047609
 40
0.6534144483970886
 40
0.696168319941901
 40
0.717496931450338
 40
0.7494813527194164
 40
0.7779588669976948
 40
0.8208766717687338
 40
0.8424514691504659
 40
0.8747242821794735
 40
0.8997563983109476
 40
0.9372703102803513
 40
0.9685784185325865
 40
1.0
 40
1.0
 40
1.0
 40
1.0
 10
3.949999999999994
 20
30.22558142012637
 30
0.0
 10
3.94727863048759
 20
30.22556441746846
 30
0.0
 10
3.940490908866749
 20
30.2255220089281
 30
0.0
 10
3.926965088488719
 20
30.22500878447084
 30
0.0
 10
3.910815897791754
 20
30.2237499082788
 30
0.0
 10
3.890783626647186
 20
30.22123374888837
 30
0.0
 10
3.871482565347208
 20
30.21779055348816
 30
0.0
 10
3.848607405882302
 20
30.21241015713826
 30
0.0
 10
3.829331319368882
 20
30.20665667098929
 30
0.0
 10
3.809642218453922
 20
30.19962160064928
 30
0.0
 10
3.793167806815488
 20
30.19290122073892
 30
0.0
 10
3.772924482298169
 20
30.18344563237707
 30
0.0
 10
3.755317616591645
 20
30.1739437360133
 30
0.0
 10
3.737577171360694
 20
30.16314575471339
 30
0.0
 10
3.722818978858842
 20
30.1532706464055
 30
0.0
 10
3.704798099920037
 20
30.1398914446621
 30
0.0
 10
3.689332466278711
 20
30.12697740010818
 30
0.0
 10
3.674029699770651
 20
30.11281096127924
 30
0.0
 10
3.661557220132559
 20
30.10024903998077
 30
0.0
 10
3.64660951158968
 20
30.08369276015742
 30
0.0
 10
3.634030514372663
 20
30.06810049270645
 30
0.0
 10
3.621756928744916
 20
30.05123600708179
 30
0.0
 10
3.611872616558012
 20
30.03639837328907
 30
0.0
 10
3.600324644432409
 20
30.01717281850422
 30
0.0
 10
3.590949392450399
 20
29.99943559548712
 30
0.0
 10
3.582148995017323
 20
29.98063051707893
 30
0.0
 10
3.575306871630834
 20
29.96432508828282
 30
0.0
 10
3.567606450656871
 20
29.94334796470472
 30
0.0
 10
3.561699011690647
 20
29.92412819400953
 30
0.0
 10
3.556524840089361
 20
29.9038649584692
 30
0.0
 10
3.552972986099547
 20
29.8871856268312
 30
0.0
 10
3.549559886390243
 20
29.86697716337639
 30
0.0
 10
3.547128888650076
 20
29.84683182165024
 30
0.0
 10
3.545565946831248
 20
29.82521437831678
 30
0.0
 10
3.54538317520182
 20
29.81165726630968
 30
0.0
 10
3.545291624077139
 20
29.80486644841629
 30
0.0
  0
SPLINE
  5
2BE
330
1F
100
AcDbEntity
  8
1
  6
SLD-Dashed
370
    18
100
AcDbSpline
210
0.0
220
0.0
230
1.0
 70
     8
 71
     3
 72
     8
 73
     4
 74
     0
 42
0.000000001
 43
0.00000001
 40
0.0
 40
0.0
 40
0.0
 40
0.0
 40
1.0
 40
1.0
 40
1.0
 40
1.0
 10
9.199999999999985
 20
27.80504563417289
 30
0.0
 10
8.752403481898929
 20
28.61249255653032
 30
0.0
 10
8.303650620483674
 20
29.41929290832669
 30
0.0
 10
7.853987053477382
 20
30.2255814201264
 30
0.0
  0
SPLINE
  5
2BF
330
1F
100
AcDbEntity
  8
1
  6
SLD-Dashed
370
    18
100
AcDbSpline
210
0.0
220
0.0
230
1.0
 70
     8
 71
     3
 72
    12
 73
     8
 74
     0
 42
0.000000001
 43
0.00000001
 40
0.0
 40
0.0
 40
0.0
 40
0.0
 40
0.2499999999999984
 40
0.2499999999999984
 40
0.4999999999999969
 40
0.4999999999999969
 40
1.0
 40
1.0
 40
1.0
 40
1.0
 10
9.949999999999987
 20
26.98706356756881
 30
0.0
 10
9.850149452042919
 20
26.9870635675688
 30
0.0
 10
9.748134209428091
 20
27.00887348025307
 30
0.0
 10
9.565410104204544
 20
27.0898925831707
 30
0.0
 10
9.481984824368904
 20
27.14976438531446
 30
0.0
 10
9.277274567403405
 20
27.36818499553367
 30
0.0
 10
9.200000000000014
 20
27.56879736260814
 30
0.0
 10
9.200000000000014
 20
27.76916635406975
 30
0.0
  0
SPLINE
  5
2C0
330
1F
100
AcDbEntity
  8
1
  6
SLD-Dashed
370
    18
100
AcDbSpline
210
0.0
220
0.0
230
1.0
 70
     8
 71
     3
 72
    12
 73
     8
 74
     0
 42
0.000000001
 43
0.00000001
 40
0.0
 40
0.0
 40
0.0
 40
0.0
 40
0.2500000000000007
 40
0.2500000000000007
 40
0.5000000000000014
 40
0.5000000000000014
 40
1.0
 40
1.0
 40
1.0
 40
1.0
 10
13.02999999999999
 20
27.76916635406974
 30
0.0
 10
13.02999999999999
 20
27.66900663339825
 30
0.0
 10
13.01145353522915
 20
27.56910146598282
 30
0.0
 10
12.93858199206009
 20
27.38178244661977
 30
0.0
 10
12.88523035542459
 20
27.29613295246495
 30
0.0
 10
12.67790477657023
 20
27.0750315281501
 30
0.0
 10
12.47994383972985
 20
26.98706356756882
 30
0.0
 10
12.28000000000001
 20
26.98706356756881
 30
0.0
  0
SPLINE
  5
2C1
330
1F
100
AcDbEntity
  8
1
  6
SLD-Dashed
370
    18
100
AcDbSpline
210
0.0
220
0.0
230
1.0
 70
     8
 71
     3
 72
     8
 73
     4
 74
     0
 42
0.000000001
 43
0.00000001
 40
0.0
 40
0.0
 40
0.0
 40
0.0
 40
1.0
 40
1.0
 40
1.0
 40
1.0
 10
14.37595046659276
 20
30.22546938779914
 30
0.0
 10
13.92630781119526
 20
29.41921817244963
 30
0.0
 10
13.47757578719339
 20
28.61245515876933
 30
0.0
 10
13.03
 20
27.80504563417289
 30
0.0
  0
SPLINE
  5
2C2
330
1F
100
AcDbEntity
  8
SK3
  6
SLD-Dashed
370
    18
100
AcDbSpline
210
0.0
220
0.0
230
1.0
 70
    24
 71
     3
 72
    16
 73
    12
 74
     0
 42
0.000000001
 43
0.00000001
 40
0.0
 40
0.0
 40
0.0
 40
0.0
 40
0.2499999999999992
 40
0.2499999999999992
 40
0.3749999999999996
 40
0.3749999999999996
 40
0.5000000000000006
 40
0.5000000000000006
 40
0.7500000000000003
 40
0.7500000000000003
 40
1.0
 40
1.0
 40
1.0
 40
1.0
 10
19.05
 20
6.648814321294667
 30
0.0
 10
19.05
 20
6.88369698095874
 30
0.0
 10
19.05
 20
7.138039090382215
 30
0.0
 10
19.05
 20
7.559342302183768
 30
0.0
 10
19.05
 20
7.706203281714889
 30
0.0
 10
19.05
 20
8.006602996866057
 30
0.0
 10
19.05
 20
8.161019378688259
 30
0.0
 10
19.05
 20
8.637259463910897
 30
0.0
 10
19.05
 20
8.97518202935068
 30
0.0
 10
19.05
 20
9.64895258366564
 30
0.0
 10
19.05
 20
9.991071736925198
 30
0.0
 10
19.05
 20
10.32953861099383
 30
0.0
  0
ELLIPSE
  5
2C3
330
1F
100
AcDbEntity
  8
SK3
  6
SLD-Dashed
370
    18
100
AcDbEllipse
 10
11.8871133473
 20
-7.5191393683
 30
0.0
 11
0.03385882744889912
 21
1.688460908529122
 31
0.0
210
0.0
220
0.0
230
1.0
 40
0.046392465
 41
0.4375032046390298
 42
3.520077657885276
  0
ELLIPSE
  5
2C4
330
1F
100
AcDbEntity
  8
SK3
  6
SLD-Dashed
370
    18
100
AcDbEllipse
 10
11.8871133473
 20
-7.5191393683
 30
0.0
 11
3.067832073266914
 21
-0.06151945614270284
 31
0.0
210
0.0
220
0.0
230
1.0
 40
0.505226194
 41
1.592902384971339
 42
4.710544892343307
  0
ELLIPSE
  5
2C5
330
1F
100
AcDbEntity
  8
SK3
  6
SLD-Dashed
370
    18
100
AcDbEllipse
 10
11.8871133473
 20
7.5191393683
 30
0.0
 11
3.067832073232177
 21
0.06151945614199584
 31
0.0
210
0.0
220
0.0
230
1.0
 40
0.505226194
 41
1.572640414833129
 42
4.690282922227183
  0
ELLIPSE
  5
2C6
330
1F
100
AcDbEntity
  8
SK3
  6
SLD-Dashed
370
    18
100
AcDbEllipse
 10
11.8871133473
 20
7.5191393683
 30
0.0
 11
-0.03385882744889912
 21
1.688460908529116
 31
0.0
210
0.0
220
0.0
230
1.0
 40
0.046392465
 41
5.904700302884895
 42
8.987274756153212
  0
DIMENSION
  5
2C7
330
1F
100
AcDbEntity
  8
SK2
100
AcDbDimension
  2
_D
 10
44.45
 20
37.4285872243
 30
0.0
 11
33.3381215206
 21
37.4285872243
 31
0.0
 70
   160
  1
<>
 71
     2
 42
-1.0
  3
SLDDIMSTYLE0
100
AcDbAlignedDimension
 13
19.05
 23
29.8048664484
 33
0.0
 14
44.45
 24
12.827
 34
0.0
100
AcDbRotatedDimension
  0
DIMENSION
  5
2DC
330
1F
100
AcDbEntity
  8
2
100
AcDbDimension
  2
_D_1
 10
44.45
 20
50.2048566668
 30
0.0
 11
21.0401802253
 21
50.2048566668
 31
0.0
 70
   160
  1
<>
 71
     2
 42
-1.0
  3
SLDDIMSTYLE0
100
AcDbAlignedDimension
 13
0.0
 23
22.225
 33
0.0
 14
44.45
 24
12.827
 34
0.0
100
AcDbRotatedDimension
  0
DIMENSION
  5
2EF
330
1F
100
AcDbEntity
  8
SK2
100
AcDbDimension
  2
_D_2
 10
19.05
 20
37.4285872243
 30
0.0
 11
9.3560157099
 21
37.4285872243
 31
0.0
 70
   160
  1
<>
 71
     2
 42
-1.0
  3
SLDDIMSTYLE1
100
AcDbAlignedDimension
 13
0.0
 23
22.225
 33
0.0
 14
19.05
 24
29.8048664484
 34
0.0
100
AcDbRotatedDimension
  0
DIMENSION
  5
2FA
330
1F
100
AcDbEntity
  8
SK2
100
AcDbDimension
  2
_D_3
 10
44.45
 20
27.7051523313
 30
0.0
 11
39.6709359277
 21
27.7051523313
 31
0.0
 70
   160
  1
<>
 71
     2
 42
-1.0
  3
SLDDIMSTYLE2
100
AcDbAlignedDimension
 13
35.052
 23
22.1319544857
 33
0.0
 14
44.45
 24
12.827
 34
0.0
100
AcDbRotatedDimension
  0
DIMENSION
  5
307
330
1F
100
AcDbEntity
  8
SK2
100
AcDbDimension
  2
_D_4
 10
61.5120866965
 20
9.525
 30
0.0
 11
61.5120866965
 21
-0.0802335309
 31
0.0
 70
   160
  1
%%c<>
 71
     2
 42
-1.0
  3
SLDDIMSTYLE3
100
AcDbAlignedDimension
 13
43.45
 23
-9.525
 33
0.0
 14
43.45
 24
9.525
 34
0.0
 50
90.0
100
AcDbRotatedDimension
  0
DIMENSION
  5
31A
330
1F
100
AcDbEntity
  8
SK2
100
AcDbDimension
  2
_D_5
 10
76.3504032226
 20
-12.827
 30
0.0
 11
76.3504032226
 21
-0.0802335309
 31
0.0
 70
   160
  1
%%c<>
 71
     2
 42
-1.0
  3
SLDDIMSTYLE0
100
AcDbAlignedDimension
 13
44.45
 23
12.827
 33
0.0
 14
44.45
 24
-12.827
 34
0.0
 50
90.0
100
AcDbRotatedDimension
  0
DIMENSION
  5
32C
330
1F
100
AcDbEntity
  8
SK2
100
AcDbDimension
  2
_D_6
 10
91.1887197487
 20
-22.225
 30
0.0
 11
91.1887197487
 21
-0.0802335309
 31
0.0
 70
   160
  1
%%c<>
 71
     2
 42
-1.0
  3
SLDDIMSTYLE0
100
AcDbAlignedDimension
 13
35.052
 23
22.1319544857
 33
0.0
 14
35.052
 24
-22.225
 34
0.0
 50
90.0
100
AcDbRotatedDimension
  0
DIMENSION
  5
33E
330
1F
100
AcDbEntity
  8
SK2
100
AcDbDimension
  2
_D_7
 10
19.05
 20
-38.901857374
 30
0.0
 11
33.3381215206
 21
-38.901857374
 31
0.0
 70
   160
  1
<>
 71
     2
 42
-1.0
  3
SLDDIMSTYLE0
100
AcDbAlignedDimension
 13
44.45
 23
-12.827
 33
0.0
 14
19.05
 24
-29.8048552742
 34
0.0
100
AcDbRotatedDimension
  0
DIMENSION
  5
351
330
1F
100
AcDbEntity
  8
SK2
100
AcDbDimension
  2
_D_8
 10
44.45
 20
-52.4185533043
 30
0.0
 11
11.8797452295
 21
-52.4185533043
 31
0.0
 70
   160
  1
<>
 71
     2
 42
-1.0
  3
SLDDIMSTYLE0
100
AcDbAlignedDimension
 13
-6.3499999999
 23
-9.5241706492
 33
0.0
 14
44.45
 24
-12.827
 34
0.0
100
AcDbRotatedDimension
  0
DIMENSION
  5
364
330
1F
100
AcDbEntity
  8
SK2
100
AcDbDimension
  2
_D_9
 10
44.45
 20
-60.8975598029
 30
0.0
 11
-20.9359399183
 21
-60.8975598029
 31
0.0
 70
   160
  1
<>
 71
     2
 42
-1.0
  3
SLDDIMSTYLE3
100
AcDbAlignedDimension
 13
-68.25
 23
-11.1476148288
 33
0.0
 14
44.45
 24
-12.827
 34
0.0
 50
0.0
100
AcDbRotatedDimension
  0
DIMENSION
  5
377
330
1F
100
AcDbEntity
  8
SK2
100
AcDbDimension
  2
_D_10
 10
-86.3958335006
 20
30.5578899967
 30
0.0
 11
-86.3958335006
 21
-2.4303594586
 31
0.0
 70
   160
  1
%%c<>
 71
     2
 42
-1.0
  3
SLDDIMSTYLE1
100
AcDbAlignedDimension
 13
3.95
 23
-30.5579086614
 33
0.0
 14
3.95
 24
30.5578899967
 34
0.0
 50
90.0
100
AcDbRotatedDimension
  0
DIMENSION
  5
382
330
1F
100
AcDbEntity
  8
SK2
100
AcDbDimension
  2
_D_11
 10
-76.1321638051
 20
-7.9375002533
 30
0.0
 11
-76.1321638051
 21
1.2433423805
 31
0.0
 70
   160
  1
<>
 71
     2
 42
-1.0
  3
SLDDIMSTYLE4
100
AcDbAlignedDimension
 13
-63.3082389832
 23
7.9375002533
 33
0.0
 14
-63.3082389832
 24
-7.9375002533
 34
0.0
 50
90.0
100
AcDbRotatedDimension
  0
MTEXT
  5
390
330
1F
100
AcDbEntity
  8
SK6
 62
     5
100
AcDbMText
 10
-50.9546131178
 20
-22.8212517756
 30
0.0
 40
3.5
 41
0.0
 71
     1
 72
     1
  1
AA3B20-40 19 044
  7
SLDTEXTSTYLE0
 73
     1
 44
1.0
  0
MTEXT
  5
391
330
1F
100
AcDbEntity
  8
SK6
 62
     5
100
AcDbMText
 10
-56.4443816487
 20
26.3115702501
 30
0.0
 40
3.5
 41
0.0
 71
     1
 72
     1
  1
ASME B5.50 CAT 40
  7
SLDTEXTSTYLE0
 73
     1
 44
1.0
  0
ENDSEC
  0
SECTION
  2
OBJECTS
  0
DICTIONARY
  5
C
330
0
100
AcDbDictionary
281
     1
  3
ACAD_GROUP
350
D
  3
ACAD_LAYOUT
350
1A
  3
ACAD_MLINESTYLE
350
17
  3
ACAD_PLOTSETTINGS
350
19
  3
ACAD_PLOTSTYLENAME
350
E
  3
ACAD_SCALELIST
350
47
  0
DICTIONARY
  5
D
102
{ACAD_REACTORS
330
C
102
}
330
C
100
AcDbDictionary
281
     1
  0
DICTIONARY
  5
1A
102
{ACAD_REACTORS
330
C
102
}
330
C
100
AcDbDictionary
281
     1
  3
Layout1
350
1E
  3
Layout2
350
26
  3
Model
350
22
  0
DICTIONARY
  5
17
102
{ACAD_REACTORS
330
C
102
}
330
C
100
AcDbDictionary
281
     1
  3
Standard
350
18
  0
DICTIONARY
  5
19
102
{ACAD_REACTORS
330
C
102
}
330
C
100
AcDbDictionary
281
     1
  0
ACDBDICTIONARYWDFLT
  5
E
102
{ACAD_REACTORS
330
C
102
}
330
C
100
AcDbDictionary
281
     1
  3
Normal
350
F
100
AcDbDictionaryWithDefault
340
F
  0
DICTIONARY
  5
47
102
{ACAD_REACTORS
330
C
102
}
330
C
100
AcDbDictionary
281
     1
  3
A0
350
48
  3
A1
350
49
  3
A2
350
4A
  3
A3
350
4B
  3
A4
350
4C
  3
A5
350
4D
  3
A6
350
4E
  3
A7
350
4F
  3
A8
350
50
  3
A9
350
51
  3
B0
350
52
  3
B1
350
53
  3
B2
350
54
  3
B3
350
55
  3
B4
350
56
  3
B5
350
57
  3
B6
350
58
  3
B7
350
59
  3
B8
350
5A
  3
B9
350
5B
  3
C0
350
5C
  3
C1
350
5D
  3
C2
350
5E
  3
C3
350
5F
  3
C4
350
60
  3
C5
350
61
  3
C6
350
62
  3
C7
350
63
  3
C8
350
64
  3
C9
350
65
  3
D0
350
66
  3
D1
350
67
  3
D2
350
68
  0
LAYOUT
  5
1E
102
{ACAD_REACTORS
330
1A
102
}
330
1A
100
AcDbPlotSettings
  1

  2
none_device
  4

  6

 40
0.0
 41
0.0
 42
0.0
 43
0.0
 44
0.0
 45
0.0
 46
0.0
 47
0.0
 48
0.0
 49
0.0
140
0.0
141
0.0
142
1.0
143
1.0
 70
   688
 72
     1
 73
     0
 74
     5
  7

 75
    16
147
1.0
148
0.0
149
0.0
100
AcDbLayout
  1
Layout1
 70
     1
 71
     1
 10
0.0
 20
0.0
 11
420.0
 21
297.0
 12
0.0
 22
0.0
 32
0.0
 14
1.0000000000E+20
 24
1.0000000000E+20
 34
1.0000000000E+20
 15
-1.0000000000E+20
 25
-1.0000000000E+20
 35
-1.0000000000E+20
146
0.0
 13
0.0
 23
0.0
 33
0.0
 16
1.0
 26
0.0
 36
0.0
 17
0.0
 27
1.0
 37
0.0
 76
     0
330
1B
  0
LAYOUT
  5
26
102
{ACAD_REACTORS
330
1A
102
}
330
1A
100
AcDbPlotSettings
  1

  2
none_device
  4

  6

 40
0.0
 41
0.0
 42
0.0
 43
0.0
 44
0.0
 45
0.0
 46
0.0
 47
0.0
 48
0.0
 49
0.0
140
0.0
141
0.0
142
1.0
143
1.0
 70
   688
 72
     1
 73
     0
 74
     5
  7

 75
    16
147
1.0
148
0.0
149
0.0
100
AcDbLayout
  1
Layout2
 70
     1
 71
     2
 10
0.0
 20
0.0
 11
0.0
 21
0.0
 12
0.0
 22
0.0
 32
0.0
 14
0.0
 24
0.0
 34
0.0
 15
0.0
 25
0.0
 35
0.0
146
0.0
 13
0.0
 23
0.0
 33
0.0
 16
1.0
 26
0.0
 36
0.0
 17
0.0
 27
1.0
 37
0.0
 76
     0
330
23
  0
LAYOUT
  5
22
102
{ACAD_REACTORS
330
1A
102
}
330
1A
100
AcDbPlotSettings
  1

  2
none_device
  4
Letter_(8.50_x_11.00_Inches)
  6

 40
6.35
 41
6.35
 42
6.35000508
 43
6.35000508
 44
215.9
 45
279.4
 46
0.0
 47
0.0
 48
0.0
 49
0.0
140
0.0
141
0.0
142
1.0
143
1.0
 70
  1712
 72
     1
 73
     0
 74
     0
  7

 75
     0
147
1.0
148
0.0
149
0.0
100
AcDbLayout
  1
Model
 70
     1
 71
     0
 10
0.0
 20
0.0
 11
297.0
 21
210.0
 12
0.0
 22
0.0
 32
0.0
 14
0.0
 24
0.0
 34
0.0
 15
297.0
 25
210.0
 35
0.0
146
0.0
 13
0.0
 23
0.0
 33
0.0
 16
1.0
 26
0.0
 36
0.0
 17
0.0
 27
1.0
 37
0.0
 76
     0
330
1F
331
29
  0
MLINESTYLE
  5
18
102
{ACAD_REACTORS
330
17
102
}
330
17
100
AcDbMlineStyle
  2
Standard
 70
     0
  3

 62
   256
 51
90.0
 52
90.0
 71
     2
 49
0.5
 62
   256
  6
BYLAYER
 49
-0.5
 62
   256
  6
BYLAYER
  0
ACDBPLACEHOLDER
  5
F
102
{ACAD_REACTORS
330
E
102
}
330
E
  0
SCALE
  5
48
102
{ACAD_REACTORS
330
47
102
}
330
47
100
AcDbScale
 70
     0
300
1:1
140
1.0
141
1.0
290
     1
  0
SCALE
  5
49
102
{ACAD_REACTORS
330
47
102
}
330
47
100
AcDbScale
 70
     0
300
1:2
140
1.0
141
2.0
290
     0
  0
SCALE
  5
4A
102
{ACAD_REACTORS
330
47
102
}
330
47
100
AcDbScale
 70
     0
300
1:4
140
1.0
141
4.0
290
     0
  0
SCALE
  5
4B
102
{ACAD_REACTORS
330
47
102
}
330
47
100
AcDbScale
 70
     0
300
1:5
140
1.0
141
5.0
290
     0
  0
SCALE
  5
4C
102
{ACAD_REACTORS
330
47
102
}
330
47
100
AcDbScale
 70
     0
300
1:8
140
1.0
141
8.0
290
     0
  0
SCALE
  5
4D
102
{ACAD_REACTORS
330
47
102
}
330
47
100
AcDbScale
 70
     0
300
1:10
140
1.0
141
10.0
290
     0
  0
SCALE
  5
4E
102
{ACAD_REACTORS
330
47
102
}
330
47
100
AcDbScale
 70
     0
300
1:16
140
1.0
141
16.0
290
     0
  0
SCALE
  5
4F
102
{ACAD_REACTORS
330
47
102
}
330
47
100
AcDbScale
 70
     0
300
1:20
140
1.0
141
20.0
290
     0
  0
SCALE
  5
50
102
{ACAD_REACTORS
330
47
102
}
330
47
100
AcDbScale
 70
     0
300
1:30
140
1.0
141
30.0
290
     0
  0
SCALE
  5
51
102
{ACAD_REACTORS
330
47
102
}
330
47
100
AcDbScale
 70
     0
300
1:40
140
1.0
141
40.0
290
     0
  0
SCALE
  5
52
102
{ACAD_REACTORS
330
47
102
}
330
47
100
AcDbScale
 70
     0
300
1:50
140
1.0
141
50.0
290
     0
  0
SCALE
  5
53
102
{ACAD_REACTORS
330
47
102
}
330
47
100
AcDbScale
 70
     0
300
1:100
140
1.0
141
100.0
290
     0
  0
SCALE
  5
54
102
{ACAD_REACTORS
330
47
102
}
330
47
100
AcDbScale
 70
     0
300
2:1
140
2.0
141
1.0
290
     0
  0
SCALE
  5
55
102
{ACAD_REACTORS
330
47
102
}
330
47
100
AcDbScale
 70
     0
300
4:1
140
4.0
141
1.0
290
     0
  0
SCALE
  5
56
102
{ACAD_REACTORS
330
47
102
}
330
47
100
AcDbScale
 70
     0
300
8:1
140
8.0
141
1.0
290
     0
  0
SCALE
  5
57
102
{ACAD_REACTORS
330
47
102
}
330
47
100
AcDbScale
 70
     0
300
10:1
140
10.0
141
1.0
290
     0
  0
SCALE
  5
58
102
{ACAD_REACTORS
330
47
102
}
330
47
100
AcDbScale
 70
     0
300
100:1
140
100.0
141
1.0
290
     0
  0
SCALE
  5
59
102
{ACAD_REACTORS
330
47
102
}
330
47
100
AcDbScale
 70
     0
300
1/128" = 1'-0"
140
0.0078125
141
12.0
290
     0
  0
SCALE
  5
5A
102
{ACAD_REACTORS
330
47
102
}
330
47
100
AcDbScale
 70
     0
300
1/64" = 1'-0"
140
0.015625
141
12.0
290
     0
  0
SCALE
  5
5B
102
{ACAD_REACTORS
330
47
102
}
330
47
100
AcDbScale
 70
     0
300
1/32" = 1'-0"
140
0.03125
141
12.0
290
     0
  0
SCALE
  5
5C
102
{ACAD_REACTORS
330
47
102
}
330
47
100
AcDbScale
 70
     0
300
1/16" = 1'-0"
140
0.0625
141
12.0
290
     0
  0
SCALE
  5
5D
102
{ACAD_REACTORS
330
47
102
}
330
47
100
AcDbScale
 70
     0
300
3/32" = 1'-0"
140
0.09375
141
12.0
290
     0
  0
SCALE
  5
5E
102
{ACAD_REACTORS
330
47
102
}
330
47
100
AcDbScale
 70
     0
300
1/8" = 1'-0"
140
0.125
141
12.0
290
     0
  0
SCALE
  5
5F
102
{ACAD_REACTORS
330
47
102
}
330
47
100
AcDbScale
 70
     0
300
3/16" = 1'-0"
140
0.1875
141
12.0
290
     0
  0
SCALE
  5
60
102
{ACAD_REACTORS
330
47
102
}
330
47
100
AcDbScale
 70
     0
300
1/4" = 1'-0"
140
0.25
141
12.0
290
     0
  0
SCALE
  5
61
102
{ACAD_REACTORS
330
47
102
}
330
47
100
AcDbScale
 70
     0
300
3/8" = 1'-0"
140
0.375
141
12.0
290
     0
  0
SCALE
  5
62
102
{ACAD_REACTORS
330
47
102
}
330
47
100
AcDbScale
 70
     0
300
1/2" = 1'-0"
140
0.5
141
12.0
290
     0
  0
SCALE
  5
63
102
{ACAD_REACTORS
330
47
102
}
330
47
100
AcDbScale
 70
     0
300
3/4" = 1'-0"
140
0.75
141
12.0
290
     0
  0
SCALE
  5
64
102
{ACAD_REACTORS
330
47
102
}
330
47
100
AcDbScale
 70
     0
300
1" = 1'-0"
140
1.0
141
12.0
290
     0
  0
SCALE
  5
65
102
{ACAD_REACTORS
330
47
102
}
330
47
100
AcDbScale
 70
     0
300
1-1/2" = 1'-0"
140
1.5
141
12.0
290
     0
  0
SCALE
  5
66
102
{ACAD_REACTORS
330
47
102
}
330
47
100
AcDbScale
 70
     0
300
3" = 1'-0"
140
3.0
141
12.0
290
     0
  0
SCALE
  5
67
102
{ACAD_REACTORS
330
47
102
}
330
47
100
AcDbScale
 70
     0
300
6" = 1'-0"
140
6.0
141
12.0
290
     0
  0
SCALE
  5
68
102
{ACAD_REACTORS
330
47
102
}
330
47
100
AcDbScale
 70
     0
300
1'-0" = 1'-0"
140
12.0
141
12.0
290
     0
  0
ENDSEC
  0
EOF
