  0
SECTION
  2
HEADER
  9
$ACADVER
  1
AC1015
  9
$ACADMAINTVER
 70
     6
  9
$DWGCODEPAGE
  3
ANSI_1250
  9
$INSBASE
 10
0.0
 20
0.0
 30
0.0
  9
$EXTMIN
 10
0.0
 20
0.0
 30
0.0
  9
$EXTMAX
 10
297.0
 20
210.0
 30
0.0
  9
$LIMMIN
 10
0.0
 20
0.0
  9
$LIMMAX
 10
297.0
 20
210.0
  9
$ORTHOMODE
 70
     0
  9
$REGENMODE
 70
     1
  9
$FILLMODE
 70
     1
  9
$QTEXTMODE
 70
     0
  9
$MIRRTEXT
 70
     1
  9
$LTSCALE
 40
1.0
  9
$ATTMODE
 70
     1
  9
$TEXTSIZE
 40
3.5
  9
$TRACEWID
 40
1.0
  9
$TEXTSTYLE
  7
Standard
  9
$CLAYER
  8
0
  9
$CELTYPE
  6
ByLayer
  9
$CECOLOR
 62
   256
  9
$CELTSCALE
 40
1.0
  9
$DISPSILH
 70
     0
  9
$DIMSCALE
 40
1.0
  9
$DIMASZ
 40
3.302
  9
$DIMEXO
 40
1.0
  9
$DIMDLI
 40
3.75
  9
$DIMRND
 40
0.0
  9
$DIMDLE
 40
0.0
  9
$DIMEXE
 40
1.0
  9
$DIMTP
 40
0.0
  9
$DIMTM
 40
0.0
  9
$DIMTXT
 40
3.5
  9
$DIMCEN
 40
2.5
  9
$DIMTSZ
 40
0.0
  9
$DIMTOL
 70
     0
  9
$DIMLIM
 70
     0
  9
$DIMTIH
 70
     1
  9
$DIMTOH
 70
     1
  9
$DIMSE1
 70
     0
  9
$DIMSE2
 70
     0
  9
$DIMTAD
 70
     1
  9
$DIMZIN
 70
     0
  9
$DIMBLK
  1

  9
$DIMASO
 70
     1
  9
$DIMSHO
 70
     1
  9
$DIMPOST
  1

  9
$DIMAPOST
  1

  9
$DIMALT
 70
     0
  9
$DIMALTD
 70
     3
  9
$DIMALTF
 40
0.0393700787
  9
$DIMLFAC
 40
1.0
  9
$DIMTOFL
 70
     1
  9
$DIMTVP
 40
0.0
  9
$DIMTIX
 70
     0
  9
$DIMSOXD
 70
     0
  9
$DIMSAH
 70
     0
  9
$DIMBLK1
  1

  9
$DIMBLK2
  1

  9
$DIMSTYLE
  2
ISO-25
  9
$DIMCLRD
 70
     0
  9
$DIMCLRE
 70
     0
  9
$DIMCLRT
 70
     0
  9
$DIMTFAC
 40
1.0
  9
$DIMGAP
 40
1.524
  9
$DIMJUST
 70
     0
  9
$DIMSD1
 70
     0
  9
$DIMSD2
 70
     0
  9
$DIMTOLJ
 70
     0
  9
$DIMTZIN
 70
     0
  9
$DIMALTZ
 70
     0
  9
$DIMALTTZ
 70
     0
  9
$DIMUPT
 70
     0
  9
$DIMDEC
 70
     2
  9
$DIMTDEC
 70
     2
  9
$DIMALTU
 70
     2
  9
$DIMALTTD
 70
     3
  9
$DIMTXSTY
  7
Standard
  9
$DIMAUNIT
 70
     0
  9
$DIMADEC
 70
     2
  9
$DIMALTRND
 40
0.0
  9
$DIMAZIN
 70
     0
  9
$DIMDSEP
 70
    44
  9
$DIMATFIT
 70
     3
  9
$DIMFRAC
 70
     0
  9
$DIMLDRBLK
  1

  9
$DIMLUNIT
 70
     2
  9
$DIMLWD
 70
    -2
  9
$DIMLWE
 70
    -2
  9
$DIMTMOVE
 70
     0
  9
$LUNITS
 70
     2
  9
$LUPREC
 70
     2
  9
$SKETCHINC
 40
1.0
  9
$FILLETRAD
 40
10.0
  9
$AUNITS
 70
     0
  9
$AUPREC
 70
     2
  9
$MENU
  1
.
  9
$ELEVATION
 40
0.0
  9
$PELEVATION
 40
0.0
  9
$THICKNESS
 40
0.0
  9
$LIMCHECK
 70
     0
  9
$CHAMFERA
 40
0.0
  9
$CHAMFERB
 40
0.0
  9
$CHAMFERC
 40
0.0
  9
$CHAMFERD
 40
0.0
  9
$SKPOLY
 70
     0
  9
$TDCREATE
 40
2459278.313020162
  9
$TDUCREATE
 40
2459278.271353495
  9
$TDUPDATE
 40
2459278.313021898
  9
$TDUUPDATE
 40
2459278.271355231
  9
$TDINDWG
 40
0.0000000116
  9
$TDUSRTIMER
 40
0.0000000116
  9
$USRTIMER
 70
     1
  9
$ANGBASE
 50
0.0
  9
$ANGDIR
 70
     0
  9
$PDMODE
 70
     0
  9
$PDSIZE
 40
-1.0
  9
$PLINEWID
 40
0.0
  9
$SPLFRAME
 70
     0
  9
$SPLINETYPE
 70
     6
  9
$SPLINESEGS
 70
     8
  9
$HANDSEED
  5
339
  9
$SURFTAB1
 70
     6
  9
$SURFTAB2
 70
     6
  9
$SURFTYPE
 70
     6
  9
$SURFU
 70
     6
  9
$SURFV
 70
     6
  9
$UCSBASE
  2

  9
$UCSNAME
  2

  9
$UCSORG
 10
0.0
 20
0.0
 30
0.0
  9
$UCSXDIR
 10
1.0
 20
0.0
 30
0.0
  9
$UCSYDIR
 10
0.0
 20
1.0
 30
0.0
  9
$UCSORTHOREF
  2

  9
$UCSORTHOVIEW
 70
     0
  9
$UCSORGTOP
 10
0.0
 20
0.0
 30
0.0
  9
$UCSORGBOTTOM
 10
0.0
 20
0.0
 30
0.0
  9
$UCSORGLEFT
 10
0.0
 20
0.0
 30
0.0
  9
$UCSORGRIGHT
 10
0.0
 20
0.0
 30
0.0
  9
$UCSORGFRONT
 10
0.0
 20
0.0
 30
0.0
  9
$UCSORGBACK
 10
0.0
 20
0.0
 30
0.0
  9
$PUCSBASE
  2

  9
$PUCSNAME
  2

  9
$PUCSORG
 10
0.0
 20
0.0
 30
0.0
  9
$PUCSXDIR
 10
1.0
 20
0.0
 30
0.0
  9
$PUCSYDIR
 10
0.0
 20
1.0
 30
0.0
  9
$PUCSORTHOREF
  2

  9
$PUCSORTHOVIEW
 70
     0
  9
$PUCSORGTOP
 10
0.0
 20
0.0
 30
0.0
  9
$PUCSORGBOTTOM
 10
0.0
 20
0.0
 30
0.0
  9
$PUCSORGLEFT
 10
0.0
 20
0.0
 30
0.0
  9
$PUCSORGRIGHT
 10
0.0
 20
0.0
 30
0.0
  9
$PUCSORGFRONT
 10
0.0
 20
0.0
 30
0.0
  9
$PUCSORGBACK
 10
0.0
 20
0.0
 30
0.0
  9
$USERI1
 70
     0
  9
$USERI2
 70
     0
  9
$USERI3
 70
     0
  9
$USERI4
 70
     0
  9
$USERI5
 70
     0
  9
$USERR1
 40
0.0
  9
$USERR2
 40
0.0
  9
$USERR3
 40
0.0
  9
$USERR4
 40
0.0
  9
$USERR5
 40
0.0
  9
$WORLDVIEW
 70
     1
  9
$SHADEDGE
 70
     3
  9
$SHADEDIF
 70
    70
  9
$TILEMODE
 70
     1
  9
$MAXACTVP
 70
    64
  9
$PINSBASE
 10
0.0
 20
0.0
 30
0.0
  9
$PLIMCHECK
 70
     0
  9
$PEXTMIN
 10
1.0000000000E+20
 20
1.0000000000E+20
 30
1.0000000000E+20
  9
$PEXTMAX
 10
-1.0000000000E+20
 20
-1.0000000000E+20
 30
-1.0000000000E+20
  9
$PLIMMIN
 10
0.0
 20
0.0
  9
$PLIMMAX
 10
420.0
 20
297.0
  9
$UNITMODE
 70
     0
  9
$VISRETAIN
 70
     1
  9
$PLINEGEN
 70
     0
  9
$PSLTSCALE
 70
     1
  9
$TREEDEPTH
 70
  3020
  9
$CMLSTYLE
  2
Standard
  9
$CMLJUST
 70
     0
  9
$CMLSCALE
 40
20.0
  9
$PROXYGRAPHICS
 70
     1
  9
$MEASUREMENT
 70
     1
  9
$CELWEIGHT
370
    -1
  9
$ENDCAPS
280
     0
  9
$JOINSTYLE
280
     0
  9
$LWDISPLAY
290
     1
  9
$INSUNITS
 70
     4
  9
$HYPERLINKBASE
  1

  9
$STYLESHEET
  1

  9
$XEDIT
290
     1
  9
$CEPSNTYPE
380
     0
  9
$PSTYLEMODE
290
     1
  9
$FINGERPRINTGUID
  2
{1BE5D144-F331-4B00-9D39-AC2A26EBE027}
  9
$VERSIONGUID
  2
{FAEB1C32-E019-11D5-929B-00C0DF256EC4}
  9
$EXTNAMES
290
     1
  9
$PSVPSCALE
 40
0.0
  9
$OLESTARTUP
290
     0
  0
ENDSEC
  0
SECTION
  2
CLASSES
  0
CLASS
  1
ACDBDICTIONARYWDFLT
  2
AcDbDictionaryWithDefault
  3
ObjectDBX Classes
 90
        0
280
     0
281
     0
  0
CLASS
  1
VISUALSTYLE
  2
AcDbVisualStyle
  3
ObjectDBX Classes
 90
     4095
280
     0
281
     0
  0
CLASS
  1
MATERIAL
  2
AcDbMaterial
  3
ObjectDBX Classes
 90
     1153
280
     0
281
     0
  0
CLASS
  1
SCALE
  2
AcDbScale
  3
ObjectDBX Classes
 90
     1153
280
     0
281
     0
  0
CLASS
  1
TABLESTYLE
  2
AcDbTableStyle
  3
ObjectDBX Classes
 90
     4095
280
     0
281
     0
  0
CLASS
  1
MLEADERSTYLE
  2
AcDbMLeaderStyle
  3
ACDB_MLEADERSTYLE_CLASS
 90
     4095
280
     0
281
     0
  0
CLASS
  1
SUN
  2
AcDbSun
  3
SCENEOE
 90
     1153
280
     0
281
     0
  0
CLASS
  1
ACDBPLACEHOLDER
  2
AcDbPlaceHolder
  3
ObjectDBX Classes
 90
        0
280
     0
281
     0
  0
CLASS
  1
LAYOUT
  2
AcDbLayout
  3
ObjectDBX Classes
 90
        0
280
     0
281
     0
  0
ENDSEC
  0
SECTION
  2
TABLES
  0
TABLE
  2
VPORT
  5
8
330
0
100
AcDbSymbolTable
 70
     1
  0
VPORT
  5
29
330
8
100
AcDbSymbolTableRecord
100
AcDbViewportTableRecord
  2
*Active
 70
     0
 10
0.0
 20
0.0
 11
1.0
 21
1.0
 12
148.5
 22
105.0
 13
0.0
 23
0.0
 14
10.0
 24
10.0
 15
10.0
 25
10.0
 16
0.0
 26
0.0
 36
1.0
 17
0.0
 27
0.0
 37
0.0
 40
210.0
 41
1.4142857143
 42
50.0
 43
0.0
 44
0.0
 50
0.0
 51
0.0
 71
     0
 72
  2000
 73
     1
 74
     3
 75
     0
 76
     0
 77
     0
 78
     0
281
     0
 65
     1
110
0.0
120
0.0
130
0.0
111
1.0
121
0.0
131
0.0
112
0.0
122
1.0
132
0.0
 79
     0
146
0.0
  0
ENDTAB
  0
TABLE
  2
LTYPE
  5
5
330
0
100
AcDbSymbolTable
 70
     8
  0
LTYPE
  5
14
330
5
100
AcDbSymbolTableRecord
100
AcDbLinetypeTableRecord
  2
ByBlock
 70
     0
  3

 72
    65
 73
     0
 40
0.0
  0
LTYPE
  5
15
330
5
100
AcDbSymbolTableRecord
100
AcDbLinetypeTableRecord
  2
ByLayer
 70
     0
  3

 72
    65
 73
     0
 40
0.0
  0
LTYPE
  5
16
330
5
100
AcDbSymbolTableRecord
100
AcDbLinetypeTableRecord
  2
Continuous
 70
     0
  3
Solid line
 72
    65
 73
     0
 40
0.0
  0
LTYPE
  5
6E
330
5
100
AcDbSymbolTableRecord
100
AcDbLinetypeTableRecord
  2
SLD-Solid
 70
     0
  3
SolidWorks Line Style
 72
    65
 73
     0
 40
0.0
  0
LTYPE
  5
6F
330
5
100
AcDbSymbolTableRecord
100
AcDbLinetypeTableRecord
  2
SLD-Dashed
 70
     0
  3
SolidWorks Line Style
 72
    65
 73
     2
 40
1.905
 49
1.27
 74
     0
 49
-0.635
 74
     0
  0
LTYPE
  5
70
330
5
100
AcDbSymbolTableRecord
100
AcDbLinetypeTableRecord
  2
SLD-Phantom
 70
     0
  3
SolidWorks Line Style
 72
    65
 73
     6
 40
12.7
 49
6.35
 74
     0
 49
-1.27
 74
     0
 49
1.27
 74
     0
 49
-1.27
 74
     0
 49
1.27
 74
     0
 49
-1.27
 74
     0
  0
LTYPE
  5
71
330
5
100
AcDbSymbolTableRecord
100
AcDbLinetypeTableRecord
  2
SLD-Chain
 70
     0
  3
SolidWorks Line Style
 72
    65
 73
     4
 40
10.16
 49
6.35
 74
     0
 49
-1.27
 74
     0
 49
1.27
 74
     0
 49
-1.27
 74
     0
  0
LTYPE
  5
72
330
5
100
AcDbSymbolTableRecord
100
AcDbLinetypeTableRecord
  2
SLD-Center
 70
     0
  3
SolidWorks Line Style
 72
    65
 73
     4
 40
19.05
 49
15.24
 74
     0
 49
-1.27
 74
     0
 49
1.27
 74
     0
 49
-1.27
 74
     0
  0
LTYPE
  5
73
330
5
100
AcDbSymbolTableRecord
100
AcDbLinetypeTableRecord
  2
SLD-Stitch
 70
     0
  3
SolidWorks Line Style
 72
    65
 73
     2
 40
0.635
 49
0.0
 74
     0
 49
-0.635
 74
     0
  0
LTYPE
  5
74
330
5
100
AcDbSymbolTableRecord
100
AcDbLinetypeTableRecord
  2
SLD-Thin-Thick-Chain
 70
     0
  3
SolidWorks Line Style
 72
    65
 73
     4
 40
10.16
 49
6.35
 74
     0
 49
-1.27
 74
     0
 49
1.27
 74
     0
 49
-1.27
 74
     0
  0
ENDTAB
  0
TABLE
  2
LAYER
  5
2
330
0
100
AcDbSymbolTable
 70
    14
  0
LAYER
  5
10
330
2
100
AcDbSymbolTableRecord
100
AcDbLayerTableRecord
  2
0
 70
     0
 62
     7
  6
Continuous
370
    -3
390
F
  0
LAYER
  5
75
330
2
100
AcDbSymbolTableRecord
100
AcDbLayerTableRecord
  2
SLD-0
 70
     0
 62
   179
  6
SLD-Solid
370
    -3
390
F
  0
LAYER
  5
76
330
2
100
AcDbSymbolTableRecord
100
AcDbLayerTableRecord
  2
80
 70
     0
 62
    -6
  6
SLD-Solid
290
     0
370
    -3
390
F
  0
LAYER
  5
77
330
2
100
AcDbSymbolTableRecord
100
AcDbLayerTableRecord
  2
81
 70
     0
 62
    -3
  6
SLD-Solid
290
     0
370
    -3
390
F
  0
LAYER
  5
78
330
2
100
AcDbSymbolTableRecord
100
AcDbLayerTableRecord
  2
1
 70
     0
 62
     4
  6
SLD-Solid
290
     0
370
    -3
390
F
  0
LAYER
  5
79
330
2
100
AcDbSymbolTableRecord
100
AcDbLayerTableRecord
  2
4
 70
     0
 62
    -2
  6
SLD-Chain
290
     0
370
    -3
390
F
  0
LAYER
  5
7A
330
2
100
AcDbSymbolTableRecord
100
AcDbLayerTableRecord
  2
2
 70
     0
 62
     7
  6
SLD-Solid
290
     0
370
    -3
390
F
  0
LAYER
  5
7B
330
2
100
AcDbSymbolTableRecord
100
AcDbLayerTableRecord
  2
SK3
 70
     0
 62
     1
  6
SLD-Dashed
290
     0
370
    -3
390
F
  0
LAYER
  5
7C
330
2
100
AcDbSymbolTableRecord
100
AcDbLayerTableRecord
  2
SK4
 70
     0
 62
     2
  6
SLD-Chain
290
     0
370
    -3
390
F
  0
LAYER
  5
7D
330
2
100
AcDbSymbolTableRecord
100
AcDbLayerTableRecord
  2
SK2
 70
     0
 62
     7
  6
SLD-Solid
290
     0
370
    -3
390
F
  0
LAYER
  5
7E
330
2
100
AcDbSymbolTableRecord
100
AcDbLayerTableRecord
  2
SK6
 70
     0
 62
     5
  6
SLD-Solid
290
     0
370
    -3
390
F
  0
LAYER
  5
7F
330
2
100
AcDbSymbolTableRecord
100
AcDbLayerTableRecord
  2
6
 70
     0
 62
     5
  6
SLD-Solid
370
    -3
390
F
  0
LAYER
  5
80
330
2
100
AcDbSymbolTableRecord
100
AcDbLayerTableRecord
  2
SK1
 70
     0
 62
     4
  6
SLD-Solid
370
    -3
390
F
  0
LAYER
  5
81
330
2
100
AcDbSymbolTableRecord
100
AcDbLayerTableRecord
  2
LAYER5
 70
     0
 62
   218
  6
SLD-Solid
370
    -3
390
F
  0
ENDTAB
  0
TABLE
  2
STYLE
  5
3
330
0
100
AcDbSymbolTable
 70
     3
  0
STYLE
  5
11
330
3
100
AcDbSymbolTableRecord
100
AcDbTextStyleTableRecord
  2
Standard
 70
     0
 40
0.0
 41
1.0
 50
0.0
 71
     0
 42
3.5
  3
txt
  4

  0
STYLE
  5
259
330
3
100
AcDbSymbolTableRecord
100
AcDbTextStyleTableRecord
  2
SLDTEXTSTYLE0
 70
     0
 40
0.0
 41
0.75
 50
0.0
 71
     0
 42
3.5
  3
TXT
  4

  0
STYLE
  5
335
330
3
100
AcDbSymbolTableRecord
100
AcDbTextStyleTableRecord
  2
SLDTEXTSTYLE1
 70
     0
 40
0.0
 41
0.6875
 50
0.0
 71
     0
 42
3.5
  3
TXT
  4

  0
ENDTAB
  0
TABLE
  2
VIEW
  5
6
330
0
100
AcDbSymbolTable
 70
     0
  0
ENDTAB
  0
TABLE
  2
UCS
  5
7
330
0
100
AcDbSymbolTable
 70
     0
  0
ENDTAB
  0
TABLE
  2
APPID
  5
9
330
0
100
AcDbSymbolTable
 70
     1
  0
APPID
  5
12
330
9
100
AcDbSymbolTableRecord
100
AcDbRegAppTableRecord
  2
ACAD
 70
     0
  0
ENDTAB
  0
TABLE
  2
DIMSTYLE
  5
A
330
0
100
AcDbSymbolTable
 70
     7
100
AcDbDimStyleTable
  0
DIMSTYLE
105
27
330
A
100
AcDbSymbolTableRecord
100
AcDbDimStyleTableRecord
  2
ISO-25
 70
     0
 41
2.5
 42
0.625
 43
3.75
 44
1.25
 73
     0
 74
     0
 77
     1
 78
     8
140
2.5
141
2.5
143
0.0393700787
147
0.625
171
     3
172
     1
178
     0
271
     2
272
     2
274
     3
278
    44
283
     0
284
     8
340
11
  0
DIMSTYLE
105
25A
102
{ACAD_REACTORS
330
258
330
26D
330
28B
330
29E
330
2C6
330
2D8
330
2FE
102
}
330
A
100
AcDbSymbolTableRecord
100
AcDbDimStyleTableRecord
  2
SLDDIMSTYLE0
 70
     0
 41
3.302
 44
0.0
 45
0.000000001
 73
     0
 74
     0
 77
     1
 78
    12
 79
     3
140
3.5
143
0.0393700787
147
0.875
148
0.000000001
170
     1
173
     1
178
     0
271
     2
272
     2
276
     2
284
    12
340
259
  0
DIMSTYLE
105
281
102
{ACAD_REACTORS
330
280
330
31E
102
}
330
A
100
AcDbSymbolTableRecord
100
AcDbDimStyleTableRecord
  2
SLDDIMSTYLE1
 70
     0
 41
3.302
 44
0.0
 45
0.000000001
 73
     0
 74
     0
 77
     1
 78
    12
 79
     3
140
3.5
147
0.875
173
     1
178
     0
271
     2
272
     2
276
     2
284
    12
340
259
  0
DIMSTYLE
105
2B2
102
{ACAD_REACTORS
330
2B1
102
}
330
A
100
AcDbSymbolTableRecord
100
AcDbDimStyleTableRecord
  2
SLDDIMSTYLE2
 70
     0
 41
3.302
 44
0.0
 45
0.000000001
 73
     0
 74
     0
 77
     1
 78
    12
 79
     3
140
3.5
143
0.0393700787
147
0.875
148
0.000000001
170
     1
171
     3
172
     1
173
     1
178
     0
271
     3
272
     2
274
     3
276
     2
284
    12
289
     0
340
259
  0
DIMSTYLE
105
2EB
102
{ACAD_REACTORS
330
2EA
102
}
330
A
100
AcDbSymbolTableRecord
100
AcDbDimStyleTableRecord
  2
SLDDIMSTYLE3
 70
     0
 41
3.302
 44
0.0
 45
0.000000001
 73
     0
 74
     0
 77
     1
 78
    12
 79
     3
140
3.5
143
0.0393700787
147
0.875
148
0.000000001
170
     1
171
     3
173
     1
178
     0
271
     3
272
     2
274
     3
276
     2
284
    12
340
259
  0
DIMSTYLE
105
312
102
{ACAD_REACTORS
330
311
102
}
330
A
100
AcDbSymbolTableRecord
100
AcDbDimStyleTableRecord
  2
SLDDIMSTYLE4
 70
     0
 41
3.302
 44
0.0
 45
0.000000001
 73
     0
 74
     0
 77
     1
 78
    12
 79
     3
140
3.5
147
0.875
172
     1
173
     1
178
     0
271
     2
272
     2
276
     2
284
    12
289
     0
340
259
  0
DIMSTYLE
105
32A
102
{ACAD_REACTORS
330
329
102
}
330
A
100
AcDbSymbolTableRecord
100
AcDbDimStyleTableRecord
  2
SLDDIMSTYLE5
 70
     0
 41
3.302
 44
0.0
 45
0.000000001
 73
     0
 74
     0
 77
     1
 78
    12
 79
     3
140
3.5
147
0.875
172
     1
173
     1
178
     0
271
     6
272
     2
276
     2
284
    12
289
     0
340
259
  0
ENDTAB
  0
TABLE
  2
BLOCK_RECORD
  5
1
330
0
100
AcDbSymbolTable
 70
    14
  0
BLOCK_RECORD
  5
1F
330
1
100
AcDbSymbolTableRecord
100
AcDbBlockTableRecord
  2
*Model_Space
340
22
  0
BLOCK_RECORD
  5
1B
330
1
100
AcDbSymbolTableRecord
100
AcDbBlockTableRecord
  2
*Paper_Space
340
1E
  0
BLOCK_RECORD
  5
23
330
1
100
AcDbSymbolTableRecord
100
AcDbBlockTableRecord
  2
*Paper_Space0
340
26
  0
BLOCK_RECORD
  5
25B
330
1
100
AcDbSymbolTableRecord
100
AcDbBlockTableRecord
  2
_D
340
0
  0
BLOCK_RECORD
  5
26E
330
1
100
AcDbSymbolTableRecord
100
AcDbBlockTableRecord
  2
_D_1
340
0
  0
BLOCK_RECORD
  5
282
330
1
100
AcDbSymbolTableRecord
100
AcDbBlockTableRecord
  2
_D_2
340
0
  0
BLOCK_RECORD
  5
28C
330
1
100
AcDbSymbolTableRecord
100
AcDbBlockTableRecord
  2
_D_3
340
0
  0
BLOCK_RECORD
  5
29F
330
1
100
AcDbSymbolTableRecord
100
AcDbBlockTableRecord
  2
_D_4
340
0
  0
BLOCK_RECORD
  5
2B3
330
1
100
AcDbSymbolTableRecord
100
AcDbBlockTableRecord
  2
_D_5
340
0
  0
BLOCK_RECORD
  5
2C7
330
1
100
AcDbSymbolTableRecord
100
AcDbBlockTableRecord
  2
_D_6
340
0
  0
BLOCK_RECORD
  5
2D9
330
1
100
AcDbSymbolTableRecord
100
AcDbBlockTableRecord
  2
_D_7
340
0
  0
BLOCK_RECORD
  5
2EC
330
1
100
AcDbSymbolTableRecord
100
AcDbBlockTableRecord
  2
_D_8
340
0
  0
BLOCK_RECORD
  5
2FF
330
1
100
AcDbSymbolTableRecord
100
AcDbBlockTableRecord
  2
_D_9
340
0
  0
BLOCK_RECORD
  5
313
330
1
100
AcDbSymbolTableRecord
100
AcDbBlockTableRecord
  2
_D_10
340
0
  0
BLOCK_RECORD
  5
31F
330
1
100
AcDbSymbolTableRecord
100
AcDbBlockTableRecord
  2
_D_11
340
0
  0
BLOCK_RECORD
  5
32B
330
1
100
AcDbSymbolTableRecord
100
AcDbBlockTableRecord
  2
_D_12
340
0
  0
ENDTAB
  0
ENDSEC
  0
SECTION
  2
BLOCKS
  0
BLOCK
  5
20
330
1F
100
AcDbEntity
  8
0
100
AcDbBlockBegin
  2
*Model_Space
 70
     0
 10
0.0
 20
0.0
 30
0.0
  3
*Model_Space
  1

  0
ENDBLK
  5
21
330
1F
100
AcDbEntity
  8
0
100
AcDbBlockEnd
  0
BLOCK
  5
1C
330
1B
100
AcDbEntity
 67
     1
  8
0
100
AcDbBlockBegin
  2
*Paper_Space
 70
     0
 10
0.0
 20
0.0
 30
0.0
  3
*Paper_Space
  1

  0
ENDBLK
  5
1D
330
1B
100
AcDbEntity
 67
     1
  8
0
100
AcDbBlockEnd
  0
BLOCK
  5
24
330
23
100
AcDbEntity
  8
0
100
AcDbBlockBegin
  2
*Paper_Space0
 70
     0
 10
0.0
 20
0.0
 30
0.0
  3
*Paper_Space0
  1

  0
ENDBLK
  5
25
330
23
100
AcDbEntity
  8
0
100
AcDbBlockEnd
  0
BLOCK
  5
25C
330
25B
100
AcDbEntity
  8
0
100
AcDbBlockBegin
  2
_D
 70
     0
 10
0.0
 20
0.0
 30
0.0
  3
_D
  1

  0
SOLID
  5
25E
330
25B
100
AcDbEntity
  8
2
100
AcDbTrace
 10
0.0
 20
69.6999154306
 30
0.0
 11
3.302
 21
69.1919154306
 31
0.0
 12
3.302
 22
70.2079154306
 32
0.0
 13
3.302
 23
70.2079154306
 33
0.0
  0
SOLID
  5
25F
330
25B
100
AcDbEntity
  8
2
100
AcDbTrace
 10
69.85
 20
69.6999154306
 30
0.0
 11
66.548
 21
70.2079154306
 31
0.0
 12
66.548
 22
69.1919154306
 32
0.0
 13
66.548
 23
69.1919154306
 33
0.0
  0
LINE
  5
260
330
25B
100
AcDbEntity
  8
2
100
AcDbLine
 10
26.8492333087
 20
80.4927971466
 30
0.0
 11
25.7828270512
 21
80.4927971466
 31
0.0
  0
LINE
  5
261
330
25B
100
AcDbEntity
  8
2
100
AcDbLine
 10
25.7828270512
 20
80.4927971466
 30
0.0
 11
25.7828270512
 21
74.9365471556
 31
0.0
  0
LINE
  5
262
330
25B
100
AcDbEntity
  8
2
100
AcDbLine
 10
25.7828270512
 20
74.9365471556
 30
0.0
 11
26.8492333087
 21
74.9365471556
 31
0.0
  0
LINE
  5
263
330
25B
100
AcDbEntity
  8
2
100
AcDbLine
 10
35.9006223696
 20
80.4927971466
 30
0.0
 11
36.967028627
 21
80.4927971466
 31
0.0
  0
LINE
  5
264
330
25B
100
AcDbEntity
  8
2
100
AcDbLine
 10
36.967028627
 20
80.4927971466
 30
0.0
 11
36.967028627
 21
74.9365471556
 31
0.0
  0
LINE
  5
265
330
25B
100
AcDbEntity
  8
2
100
AcDbLine
 10
36.967028627
 20
74.9365471556
 30
0.0
 11
35.9006223696
 21
74.9365471556
 31
0.0
  0
LINE
  5
266
330
25B
100
AcDbEntity
  8
2
100
AcDbLine
 10
0.0
 20
23.225
 30
0.0
 11
0.0
 21
70.6999154306
 31
0.0
  0
LINE
  5
267
330
25B
100
AcDbEntity
  8
2
100
AcDbLine
 10
69.85
 20
14.208
 30
0.0
 11
69.85
 21
70.6999154306
 31
0.0
  0
LINE
  5
268
330
25B
100
AcDbEntity
  8
2
100
AcDbLine
 10
0.0
 20
69.6999154306
 30
0.0
 11
69.85
 21
69.6999154306
 31
0.0
  0
MTEXT
  5
269
330
25B
100
AcDbEntity
  8
2
100
AcDbMText
 10
24.735865197
 20
74.2651246965
 30
0.0
 40
3.5
 41
0.0
 71
     1
 72
     1
  1

  7
SLDTEXTSTYLE0
 73
     1
 44
1.0
  0
MTEXT
  5
26A
330
25B
100
AcDbEntity
  8
2
100
AcDbMText
 10
26.8492333087
 20
79.4482840702
 30
0.0
 40
3.5
 41
0.0
 71
     1
 72
     1
  1
2,75
  7
SLDTEXTSTYLE0
 73
     1
 44
1.0
  0
MTEXT
  5
26B
330
25B
100
AcDbEntity
  8
2
100
AcDbMText
 10
25.5561775955
 20
74.2116525198
 30
0.0
 40
3.5
 41
0.0
 71
     1
 72
     1
  1
69,85
  7
SLDTEXTSTYLE0
 73
     1
 44
1.0
  0
MTEXT
  5
26C
330
25B
100
AcDbEntity
  8
2
100
AcDbMText
 10
39.3459350009
 20
74.2651246965
 30
0.0
 40
3.5
 41
0.0
 71
     1
 72
     1
  1

  7
SLDTEXTSTYLE0
 73
     1
 44
1.0
  0
ENDBLK
  5
25D
330
25B
100
AcDbEntity
  8
0
100
AcDbBlockEnd
  0
BLOCK
  5
26F
330
26E
100
AcDbEntity
  8
0
100
AcDbBlockBegin
  2
_D_1
 70
     0
 10
0.0
 20
0.0
 30
0.0
  3
_D_1
  1

  0
SOLID
  5
271
330
26E
100
AcDbEntity
  8
SK2
100
AcDbTrace
 10
19.05
 20
56.8263622469
 30
0.0
 11
22.352
 21
56.3183622469
 31
0.0
 12
22.352
 22
57.3343622469
 32
0.0
 13
22.352
 23
57.3343622469
 33
0.0
  0
SOLID
  5
272
330
26E
100
AcDbEntity
  8
SK2
100
AcDbTrace
 10
69.85
 20
56.8263622469
 30
0.0
 11
66.548
 21
57.3343622469
 31
0.0
 12
66.548
 22
56.3183622469
 32
0.0
 13
66.548
 23
56.3183622469
 33
0.0
  0
LINE
  5
273
330
26E
100
AcDbEntity
  8
SK2
100
AcDbLine
 10
40.545003908
 20
67.6192439629
 30
0.0
 11
39.4785976506
 21
67.6192439629
 31
0.0
  0
LINE
  5
274
330
26E
100
AcDbEntity
  8
SK2
100
AcDbLine
 10
39.4785976506
 20
67.6192439629
 30
0.0
 11
39.4785976506
 21
62.0629939719
 31
0.0
  0
LINE
  5
275
330
26E
100
AcDbEntity
  8
SK2
100
AcDbLine
 10
39.4785976506
 20
62.0629939719
 30
0.0
 11
40.545003908
 21
62.0629939719
 31
0.0
  0
LINE
  5
276
330
26E
100
AcDbEntity
  8
SK2
100
AcDbLine
 10
49.596392969
 20
67.6192439629
 30
0.0
 11
50.6627992264
 21
67.6192439629
 31
0.0
  0
LINE
  5
277
330
26E
100
AcDbEntity
  8
SK2
100
AcDbLine
 10
50.6627992264
 20
67.6192439629
 30
0.0
 11
50.6627992264
 21
62.0629939719
 31
0.0
  0
LINE
  5
278
330
26E
100
AcDbEntity
  8
SK2
100
AcDbLine
 10
50.6627992264
 20
62.0629939719
 30
0.0
 11
49.596392969
 21
62.0629939719
 31
0.0
  0
LINE
  5
279
330
26E
100
AcDbEntity
  8
SK2
100
AcDbLine
 10
19.05
 20
30.8048664484
 30
0.0
 11
19.05
 21
57.8263622469
 31
0.0
  0
LINE
  5
27A
330
26E
100
AcDbEntity
  8
SK2
100
AcDbLine
 10
69.85
 20
14.208
 30
0.0
 11
69.85
 21
57.8263622469
 31
0.0
  0
LINE
  5
27B
330
26E
100
AcDbEntity
  8
SK2
100
AcDbLine
 10
19.05
 20
56.8263622469
 30
0.0
 11
69.85
 21
56.8263622469
 31
0.0
  0
MTEXT
  5
27C
330
26E
100
AcDbEntity
  8
SK2
100
AcDbMText
 10
38.4316357964
 20
61.3915715127
 30
0.0
 40
3.5
 41
0.0
 71
     1
 72
     1
  1

  7
SLDTEXTSTYLE0
 73
     1
 44
1.0
  0
MTEXT
  5
27D
330
26E
100
AcDbEntity
  8
SK2
100
AcDbMText
 10
40.545003908
 20
66.5747308864
 30
0.0
 40
3.5
 41
0.0
 71
     1
 72
     1
  1
2,00
  7
SLDTEXTSTYLE0
 73
     1
 44
1.0
  0
MTEXT
  5
27E
330
26E
100
AcDbEntity
  8
SK2
100
AcDbMText
 10
40.545003908
 20
61.3380993361
 30
0.0
 40
3.5
 41
0.0
 71
     1
 72
     1
  1
50,8
  7
SLDTEXTSTYLE0
 73
     1
 44
1.0
  0
MTEXT
  5
27F
330
26E
100
AcDbEntity
  8
SK2
100
AcDbMText
 10
53.0417056003
 20
61.3915715127
 30
0.0
 40
3.5
 41
0.0
 71
     1
 72
     1
  1

  7
SLDTEXTSTYLE0
 73
     1
 44
1.0
  0
ENDBLK
  5
270
330
26E
100
AcDbEntity
  8
0
100
AcDbBlockEnd
  0
BLOCK
  5
283
330
282
100
AcDbEntity
  8
0
100
AcDbBlockBegin
  2
_D_2
 70
     0
 10
0.0
 20
0.0
 30
0.0
  3
_D_2
  1

  0
SOLID
  5
285
330
282
100
AcDbEntity
  8
SK2
100
AcDbTrace
 10
0.0
 20
56.8263622469
 30
0.0
 11
3.302
 21
56.3183622469
 31
0.0
 12
3.302
 22
57.3343622469
 32
0.0
 13
3.302
 23
57.3343622469
 33
0.0
  0
SOLID
  5
286
330
282
100
AcDbEntity
  8
SK2
100
AcDbTrace
 10
19.05
 20
56.8263622469
 30
0.0
 11
15.748
 21
57.3343622469
 31
0.0
 12
15.748
 22
56.3183622469
 32
0.0
 13
15.748
 23
56.3183622469
 33
0.0
  0
LINE
  5
287
330
282
100
AcDbEntity
  8
SK2
100
AcDbLine
 10
0.0
 20
23.225
 30
0.0
 11
0.0
 21
57.8263622469
 31
0.0
  0
LINE
  5
288
330
282
100
AcDbEntity
  8
SK2
100
AcDbLine
 10
19.05
 20
30.8048664484
 30
0.0
 11
19.05
 21
57.8263622469
 31
0.0
  0
LINE
  5
289
330
282
100
AcDbEntity
  8
SK2
100
AcDbLine
 10
0.0
 20
56.8263622469
 30
0.0
 11
19.05
 21
56.8263622469
 31
0.0
  0
MTEXT
  5
28A
330
282
100
AcDbEntity
  8
SK2
100
AcDbMText
 10
3.2638185214
 20
61.3380991614
 30
0.0
 40
3.5
 41
0.0
 71
     1
 72
     1
  1
19,05
  7
SLDTEXTSTYLE0
 73
     1
 44
1.0
  0
ENDBLK
  5
284
330
282
100
AcDbEntity
  8
0
100
AcDbBlockEnd
  0
BLOCK
  5
28D
330
28C
100
AcDbEntity
  8
0
100
AcDbBlockBegin
  2
_D_3
 70
     0
 10
0.0
 20
0.0
 30
0.0
  3
_D_3
  1

  0
SOLID
  5
28F
330
28C
100
AcDbEntity
  8
SK2
100
AcDbTrace
 10
35.05
 20
44.1884837206
 30
0.0
 11
38.352
 21
43.6804837206
 31
0.0
 12
38.352
 22
44.6964837206
 32
0.0
 13
38.352
 23
44.6964837206
 33
0.0
  0
SOLID
  5
290
330
28C
100
AcDbEntity
  8
SK2
100
AcDbTrace
 10
69.85
 20
44.1884837206
 30
0.0
 11
66.548
 21
44.6964837206
 31
0.0
 12
66.548
 22
43.6804837206
 32
0.0
 13
66.548
 23
43.6804837206
 33
0.0
  0
LINE
  5
291
330
28C
100
AcDbEntity
  8
SK2
100
AcDbLine
 10
47.3394375172
 20
54.9813654367
 30
0.0
 11
46.2730312598
 21
54.9813654367
 31
0.0
  0
LINE
  5
292
330
28C
100
AcDbEntity
  8
SK2
100
AcDbLine
 10
46.2730312598
 20
54.9813654367
 30
0.0
 11
46.2730312598
 21
49.4251154456
 31
0.0
  0
LINE
  5
293
330
28C
100
AcDbEntity
  8
SK2
100
AcDbLine
 10
46.2730312598
 20
49.4251154456
 30
0.0
 11
47.3394375172
 21
49.4251154456
 31
0.0
  0
LINE
  5
294
330
28C
100
AcDbEntity
  8
SK2
100
AcDbLine
 10
56.3908265782
 20
54.9813654367
 30
0.0
 11
57.4572328356
 21
54.9813654367
 31
0.0
  0
LINE
  5
295
330
28C
100
AcDbEntity
  8
SK2
100
AcDbLine
 10
57.4572328356
 20
54.9813654367
 30
0.0
 11
57.4572328356
 21
49.4251154456
 31
0.0
  0
LINE
  5
296
330
28C
100
AcDbEntity
  8
SK2
100
AcDbLine
 10
57.4572328356
 20
49.4251154456
 30
0.0
 11
56.3908265782
 21
49.4251154456
 31
0.0
  0
LINE
  5
297
330
28C
100
AcDbEntity
  8
SK2
100
AcDbLine
 10
35.05
 20
22.463
 30
0.0
 11
35.05
 21
45.1884837206
 31
0.0
  0
LINE
  5
298
330
28C
100
AcDbEntity
  8
SK2
100
AcDbLine
 10
69.85
 20
14.208
 30
0.0
 11
69.85
 21
45.1884837206
 31
0.0
  0
LINE
  5
299
330
28C
100
AcDbEntity
  8
SK2
100
AcDbLine
 10
35.05
 20
44.1884837206
 30
0.0
 11
69.85
 21
44.1884837206
 31
0.0
  0
MTEXT
  5
29A
330
28C
100
AcDbEntity
  8
SK2
100
AcDbMText
 10
45.2260694056
 20
48.7536929865
 30
0.0
 40
3.5
 41
0.0
 71
     1
 72
     1
  1

  7
SLDTEXTSTYLE0
 73
     1
 44
1.0
  0
MTEXT
  5
29B
330
28C
100
AcDbEntity
  8
SK2
100
AcDbMText
 10
47.3394375172
 20
53.9368523602
 30
0.0
 40
3.5
 41
0.0
 71
     1
 72
     1
  1
1,37
  7
SLDTEXTSTYLE0
 73
     1
 44
1.0
  0
MTEXT
  5
29C
330
28C
100
AcDbEntity
  8
SK2
100
AcDbMText
 10
47.3394375172
 20
48.7002208098
 30
0.0
 40
3.5
 41
0.0
 71
     1
 72
     1
  1
34,8
  7
SLDTEXTSTYLE0
 73
     1
 44
1.0
  0
MTEXT
  5
29D
330
28C
100
AcDbEntity
  8
SK2
100
AcDbMText
 10
59.8361392095
 20
48.7536929865
 30
0.0
 40
3.5
 41
0.0
 71
     1
 72
     1
  1

  7
SLDTEXTSTYLE0
 73
     1
 44
1.0
  0
ENDBLK
  5
28E
330
28C
100
AcDbEntity
  8
0
100
AcDbBlockEnd
  0
BLOCK
  5
2A0
330
29F
100
AcDbEntity
  8
0
100
AcDbBlockBegin
  2
_D_4
 70
     0
 10
0.0
 20
0.0
 30
0.0
  3
_D_4
  1

  0
SOLID
  5
2A2
330
29F
100
AcDbEntity
  8
SK2
100
AcDbTrace
 10
46.025
 20
31.6127228413
 30
0.0
 11
49.327
 21
31.1047228413
 31
0.0
 12
49.327
 22
32.1207228413
 32
0.0
 13
49.327
 23
32.1207228413
 33
0.0
  0
SOLID
  5
2A3
330
29F
100
AcDbEntity
  8
SK2
100
AcDbTrace
 10
69.85
 20
31.6127228413
 30
0.0
 11
66.548
 21
32.1207228413
 31
0.0
 12
66.548
 22
31.1047228413
 32
0.0
 13
66.548
 23
31.1047228413
 33
0.0
  0
LINE
  5
2A4
330
29F
100
AcDbEntity
  8
SK2
100
AcDbLine
 10
53.9886903959
 20
42.4056045574
 30
0.0
 11
52.9222841385
 21
42.4056045574
 31
0.0
  0
LINE
  5
2A5
330
29F
100
AcDbEntity
  8
SK2
100
AcDbLine
 10
52.9222841385
 20
42.4056045574
 30
0.0
 11
52.9222841385
 21
36.8493545663
 31
0.0
  0
LINE
  5
2A6
330
29F
100
AcDbEntity
  8
SK2
100
AcDbLine
 10
52.9222841385
 20
36.8493545663
 30
0.0
 11
53.9886903959
 21
36.8493545663
 31
0.0
  0
LINE
  5
2A7
330
29F
100
AcDbEntity
  8
SK2
100
AcDbLine
 10
63.0400794568
 20
42.4056045574
 30
0.0
 11
64.1064857143
 21
42.4056045574
 31
0.0
  0
LINE
  5
2A8
330
29F
100
AcDbEntity
  8
SK2
100
AcDbLine
 10
64.1064857143
 20
42.4056045574
 30
0.0
 11
64.1064857143
 21
36.8493545663
 31
0.0
  0
LINE
  5
2A9
330
29F
100
AcDbEntity
  8
SK2
100
AcDbLine
 10
64.1064857143
 20
36.8493545663
 30
0.0
 11
63.0400794568
 21
36.8493545663
 31
0.0
  0
LINE
  5
2AA
330
29F
100
AcDbEntity
  8
SK2
100
AcDbLine
 10
46.025
 20
20.3
 30
0.0
 11
46.025
 21
32.6127228413
 31
0.0
  0
LINE
  5
2AB
330
29F
100
AcDbEntity
  8
SK2
100
AcDbLine
 10
69.85
 20
14.208
 30
0.0
 11
69.85
 21
32.6127228413
 31
0.0
  0
LINE
  5
2AC
330
29F
100
AcDbEntity
  8
SK2
100
AcDbLine
 10
46.025
 20
31.6127228413
 30
0.0
 11
69.85
 21
31.6127228413
 31
0.0
  0
MTEXT
  5
2AD
330
29F
100
AcDbEntity
  8
SK2
100
AcDbMText
 10
51.8753222843
 20
36.1779321072
 30
0.0
 40
3.5
 41
0.0
 71
     1
 72
     1
  1

  7
SLDTEXTSTYLE0
 73
     1
 44
1.0
  0
MTEXT
  5
2AE
330
29F
100
AcDbEntity
  8
SK2
100
AcDbMText
 10
53.9886903959
 20
41.3610914809
 30
0.0
 40
3.5
 41
0.0
 71
     1
 72
     1
  1
0,94
  7
SLDTEXTSTYLE0
 73
     1
 44
1.0
  0
MTEXT
  5
2AF
330
29F
100
AcDbEntity
  8
SK2
100
AcDbMText
 10
52.6956346828
 20
36.1244599305
 30
0.0
 40
3.5
 41
0.0
 71
     1
 72
     1
  1
23,83
  7
SLDTEXTSTYLE0
 73
     1
 44
1.0
  0
MTEXT
  5
2B0
330
29F
100
AcDbEntity
  8
SK2
100
AcDbMText
 10
66.4853920882
 20
36.1779321072
 30
0.0
 40
3.5
 41
0.0
 71
     1
 72
     1
  1

  7
SLDTEXTSTYLE0
 73
     1
 44
1.0
  0
ENDBLK
  5
2A1
330
29F
100
AcDbEntity
  8
0
100
AcDbBlockEnd
  0
BLOCK
  5
2B4
330
2B3
100
AcDbEntity
  8
0
100
AcDbBlockBegin
  2
_D_5
 70
     0
 10
0.0
 20
0.0
 30
0.0
  3
_D_5
  1

  0
SOLID
  5
2B6
330
2B3
100
AcDbEntity
  8
SK2
100
AcDbTrace
 10
87.8933110635
 20
-7.9375
 30
0.0
 11
87.3853110635
 21
-11.2395
 31
0.0
 12
88.4013110635
 22
-11.2395
 32
0.0
 13
88.4013110635
 23
-11.2395
 33
0.0
  0
SOLID
  5
2B7
330
2B3
100
AcDbEntity
  8
SK2
100
AcDbTrace
 10
87.8933110635
 20
7.9375
 30
0.0
 11
88.4013110635
 21
11.2395
 31
0.0
 12
87.3853110635
 22
11.2395
 32
0.0
 13
87.3853110635
 23
11.2395
 33
0.0
  0
LINE
  5
2B8
330
2B3
100
AcDbEntity
  8
SK2
100
AcDbLine
 10
77.1004293474
 20
23.862515181
 30
0.0
 11
77.1004293474
 21
22.7961089235
 31
0.0
  0
LINE
  5
2B9
330
2B3
100
AcDbEntity
  8
SK2
100
AcDbLine
 10
77.1004293474
 20
22.7961089235
 30
0.0
 11
82.6566793385
 21
22.7961089235
 31
0.0
  0
LINE
  5
2BA
330
2B3
100
AcDbEntity
  8
SK2
100
AcDbLine
 10
82.6566793385
 20
22.7961089235
 30
0.0
 11
82.6566793385
 21
23.862515181
 31
0.0
  0
LINE
  5
2BB
330
2B3
100
AcDbEntity
  8
SK2
100
AcDbLine
 10
77.1004293474
 20
35.5000156682
 30
0.0
 11
77.1004293474
 21
36.5664219257
 31
0.0
  0
LINE
  5
2BC
330
2B3
100
AcDbEntity
  8
SK2
100
AcDbLine
 10
77.1004293474
 20
36.5664219257
 30
0.0
 11
82.6566793385
 21
36.5664219257
 31
0.0
  0
LINE
  5
2BD
330
2B3
100
AcDbEntity
  8
SK2
100
AcDbLine
 10
82.6566793385
 20
36.5664219257
 30
0.0
 11
82.6566793385
 21
35.5000156682
 31
0.0
  0
LINE
  5
2BE
330
2B3
100
AcDbEntity
  8
SK2
100
AcDbLine
 10
69.85
 20
-7.9375
 30
0.0
 11
88.8933110635
 21
-7.9375
 31
0.0
  0
LINE
  5
2BF
330
2B3
100
AcDbEntity
  8
SK2
100
AcDbLine
 10
69.85
 20
7.9375
 30
0.0
 11
88.8933110635
 21
7.9375
 31
0.0
  0
LINE
  5
2C0
330
2B3
100
AcDbEntity
  8
SK2
100
AcDbLine
 10
87.8933110635
 20
-7.9375
 30
0.0
 11
87.8933110635
 21
-14.2875
 31
0.0
  0
LINE
  5
2C1
330
2B3
100
AcDbEntity
  8
SK2
100
AcDbLine
 10
87.8933110635
 20
-7.9375
 30
0.0
 11
87.8933110635
 21
7.9375
 31
0.0
  0
LINE
  5
2C2
330
2B3
100
AcDbEntity
  8
SK2
100
AcDbLine
 10
87.8933110635
 20
7.9375
 30
0.0
 11
87.8933110635
 21
39.4322896149
 31
0.0
  0
MTEXT
  5
2C3
330
2B3
100
AcDbEntity
  8
SK2
100
AcDbMText
 10
78.1449424239
 20
23.862515181
 30
0.0
 40
3.5
 41
0.0
 71
     1
 72
     1
  1
0,625
  7
SLDTEXTSTYLE0
 11
6.123233995736766E-17
 21
1.0
 31
0.0
 73
     1
 44
1.0
  0
MTEXT
  5
2C4
330
2B3
100
AcDbEntity
  8
SK2
100
AcDbMText
 10
83.3815739743
 20
19.9302403029
 30
0.0
 40
3.5
 41
0.0
 71
     1
 72
     1
  1
%%c
  7
SLDTEXTSTYLE0
 11
6.123233995736766E-17
 21
1.0
 31
0.0
 73
     1
 44
1.0
  0
MTEXT
  5
2C5
330
2B3
100
AcDbEntity
  8
SK2
100
AcDbMText
 10
83.3815739743
 20
25.2086777013
 30
0.0
 40
3.5
 41
0.0
 71
     1
 72
     1
  1
15,875
  7
SLDTEXTSTYLE0
 11
6.123233995736766E-17
 21
1.0
 31
0.0
 73
     1
 44
1.0
  0
ENDBLK
  5
2B5
330
2B3
100
AcDbEntity
  8
0
100
AcDbBlockEnd
  0
BLOCK
  5
2C8
330
2C7
100
AcDbEntity
  8
0
100
AcDbBlockBegin
  2
_D_6
 70
     0
 10
0.0
 20
0.0
 30
0.0
  3
_D_6
  1

  0
SOLID
  5
2CA
330
2C7
100
AcDbEntity
  8
SK2
100
AcDbTrace
 10
102.8866506849
 20
13.208
 30
0.0
 11
102.3786506849
 21
9.906
 31
0.0
 12
103.3946506849
 22
9.906
 32
0.0
 13
103.3946506849
 23
9.906
 33
0.0
  0
SOLID
  5
2CB
330
2C7
100
AcDbEntity
  8
SK2
100
AcDbTrace
 10
102.8866506849
 20
-13.208
 30
0.0
 11
103.3946506849
 21
-9.906
 31
0.0
 12
102.3786506849
 22
-9.906
 32
0.0
 13
102.3786506849
 23
-9.906
 33
0.0
  0
LINE
  5
2CC
330
2C7
100
AcDbEntity
  8
SK2
100
AcDbLine
 10
92.0937689689
 20
-5.1384711468
 30
0.0
 11
92.0937689689
 21
-6.2048774043
 31
0.0
  0
LINE
  5
2CD
330
2C7
100
AcDbEntity
  8
SK2
100
AcDbLine
 10
92.0937689689
 20
-6.2048774043
 30
0.0
 11
97.6500189599
 21
-6.2048774043
 31
0.0
  0
LINE
  5
2CE
330
2C7
100
AcDbEntity
  8
SK2
100
AcDbLine
 10
97.6500189599
 20
-6.2048774043
 30
0.0
 11
97.6500189599
 21
-5.1384711468
 31
0.0
  0
LINE
  5
2CF
330
2C7
100
AcDbEntity
  8
SK2
100
AcDbLine
 10
92.0937689689
 20
3.9129179141
 30
0.0
 11
92.0937689689
 21
4.9793241715
 31
0.0
  0
LINE
  5
2D0
330
2C7
100
AcDbEntity
  8
SK2
100
AcDbLine
 10
92.0937689689
 20
4.9793241715
 30
0.0
 11
97.6500189599
 21
4.9793241715
 31
0.0
  0
LINE
  5
2D1
330
2C7
100
AcDbEntity
  8
SK2
100
AcDbLine
 10
97.6500189599
 20
4.9793241715
 30
0.0
 11
97.6500189599
 21
3.9129179141
 31
0.0
  0
LINE
  5
2D2
330
2C7
100
AcDbEntity
  8
SK2
100
AcDbLine
 10
70.85
 20
13.208
 30
0.0
 11
103.8866506849
 21
13.208
 31
0.0
  0
LINE
  5
2D3
330
2C7
100
AcDbEntity
  8
SK2
100
AcDbLine
 10
70.85
 20
-13.208
 30
0.0
 11
103.8866506849
 21
-13.208
 31
0.0
  0
LINE
  5
2D4
330
2C7
100
AcDbEntity
  8
SK2
100
AcDbLine
 10
102.8866506849
 20
13.208
 30
0.0
 11
102.8866506849
 21
-13.208
 31
0.0
  0
MTEXT
  5
2D5
330
2C7
100
AcDbEntity
  8
SK2
100
AcDbMText
 10
93.1382820453
 20
-5.1384711468
 30
0.0
 40
3.5
 41
0.0
 71
     1
 72
     1
  1
1,04
  7
SLDTEXTSTYLE0
 11
-7.044195017643634E-15
 21
1.0
 31
0.0
 73
     1
 44
1.0
  0
MTEXT
  5
2D6
330
2C7
100
AcDbEntity
  8
SK2
100
AcDbMText
 10
98.3749135957
 20
-9.0707455592
 30
0.0
 40
3.5
 41
0.0
 71
     1
 72
     1
  1
%%c
  7
SLDTEXTSTYLE0
 11
-7.044195017643634E-15
 21
1.0
 31
0.0
 73
     1
 44
1.0
  0
MTEXT
  5
2D7
330
2C7
100
AcDbEntity
  8
SK2
100
AcDbMText
 10
98.3749135957
 20
-3.7923081608
 30
0.0
 40
3.5
 41
0.0
 71
     1
 72
     1
  1
26,42
  7
SLDTEXTSTYLE0
 11
-7.044195017643634E-15
 21
1.0
 31
0.0
 73
     1
 44
1.0
  0
ENDBLK
  5
2C9
330
2C7
100
AcDbEntity
  8
0
100
AcDbBlockEnd
  0
BLOCK
  5
2DA
330
2D9
100
AcDbEntity
  8
0
100
AcDbBlockBegin
  2
_D_7
 70
     0
 10
0.0
 20
0.0
 30
0.0
  3
_D_7
  1

  0
SOLID
  5
2DC
330
2D9
100
AcDbEntity
  8
SK2
100
AcDbTrace
 10
115.9561635023
 20
19.05
 30
0.0
 11
115.4481635023
 21
15.748
 31
0.0
 12
116.4641635023
 22
15.748
 32
0.0
 13
116.4641635023
 23
15.748
 33
0.0
  0
SOLID
  5
2DD
330
2D9
100
AcDbEntity
  8
SK2
100
AcDbTrace
 10
115.9561635023
 20
-19.05
 30
0.0
 11
116.4641635023
 21
-15.748
 31
0.0
 12
115.4481635023
 22
-15.748
 32
0.0
 13
115.4481635023
 23
-15.748
 33
0.0
  0
LINE
  5
2DE
330
2D9
100
AcDbEntity
  8
SK2
100
AcDbLine
 10
105.1632817863
 20
-4.3294448721
 30
0.0
 11
105.1632817863
 21
-5.3958511295
 31
0.0
  0
LINE
  5
2DF
330
2D9
100
AcDbEntity
  8
SK2
100
AcDbLine
 10
105.1632817863
 20
-5.3958511295
 30
0.0
 11
110.7195317773
 21
-5.3958511295
 31
0.0
  0
LINE
  5
2E0
330
2D9
100
AcDbEntity
  8
SK2
100
AcDbLine
 10
110.7195317773
 20
-5.3958511295
 30
0.0
 11
110.7195317773
 21
-4.3294448721
 31
0.0
  0
LINE
  5
2E1
330
2D9
100
AcDbEntity
  8
SK2
100
AcDbLine
 10
105.1632817863
 20
4.7219441888
 30
0.0
 11
105.1632817863
 21
5.7883504463
 31
0.0
  0
LINE
  5
2E2
330
2D9
100
AcDbEntity
  8
SK2
100
AcDbLine
 10
105.1632817863
 20
5.7883504463
 30
0.0
 11
110.7195317773
 21
5.7883504463
 31
0.0
  0
LINE
  5
2E3
330
2D9
100
AcDbEntity
  8
SK2
100
AcDbLine
 10
110.7195317773
 20
5.7883504463
 30
0.0
 11
110.7195317773
 21
4.7219441888
 31
0.0
  0
LINE
  5
2E4
330
2D9
100
AcDbEntity
  8
SK2
100
AcDbLine
 10
65.008
 20
19.05
 30
0.0
 11
116.9561635023
 21
19.05
 31
0.0
  0
LINE
  5
2E5
330
2D9
100
AcDbEntity
  8
SK2
100
AcDbLine
 10
65.008
 20
-19.05
 30
0.0
 11
116.9561635023
 21
-19.05
 31
0.0
  0
LINE
  5
2E6
330
2D9
100
AcDbEntity
  8
SK2
100
AcDbLine
 10
115.9561635023
 20
19.05
 30
0.0
 11
115.9561635023
 21
-19.05
 31
0.0
  0
MTEXT
  5
2E7
330
2D9
100
AcDbEntity
  8
SK2
100
AcDbMText
 10
106.2077948628
 20
-4.3294448721
 30
0.0
 40
3.5
 41
0.0
 71
     1
 72
     1
  1
1,50
  7
SLDTEXTSTYLE0
 11
-7.044195017643634E-15
 21
1.0
 31
0.0
 73
     1
 44
1.0
  0
MTEXT
  5
2E8
330
2D9
100
AcDbEntity
  8
SK2
100
AcDbMText
 10
111.4444264131
 20
-6.9686640369
 30
0.0
 40
3.5
 41
0.0
 71
     1
 72
     1
  1
%%c
  7
SLDTEXTSTYLE0
 11
-7.044195017643634E-15
 21
1.0
 31
0.0
 73
     1
 44
1.0
  0
MTEXT
  5
2E9
330
2D9
100
AcDbEntity
  8
SK2
100
AcDbMText
 10
111.4444264131
 20
-1.6902266386
 30
0.0
 40
3.5
 41
0.0
 71
     1
 72
     1
  1
38,1
  7
SLDTEXTSTYLE0
 11
-7.044195017643634E-15
 21
1.0
 31
0.0
 73
     1
 44
1.0
  0
ENDBLK
  5
2DB
330
2D9
100
AcDbEntity
  8
0
100
AcDbBlockEnd
  0
BLOCK
  5
2ED
330
2EC
100
AcDbEntity
  8
0
100
AcDbBlockBegin
  2
_D_8
 70
     0
 10
0.0
 20
0.0
 30
0.0
  3
_D_8
  1

  0
SOLID
  5
2EF
330
2EC
100
AcDbEntity
  8
SK2
100
AcDbTrace
 10
-68.25
 20
-51.0129624357
 30
0.0
 11
-64.948
 21
-51.5209624357
 31
0.0
 12
-64.948
 22
-50.5049624357
 32
0.0
 13
-64.948
 23
-50.5049624357
 33
0.0
  0
SOLID
  5
2F0
330
2EC
100
AcDbEntity
  8
SK2
100
AcDbTrace
 10
69.85
 20
-51.0129624357
 30
0.0
 11
66.548
 21
-50.5049624357
 31
0.0
 12
66.548
 22
-51.5209624357
 32
0.0
 13
66.548
 23
-51.5209624357
 33
0.0
  0
LINE
  5
2F1
330
2EC
100
AcDbEntity
  8
SK2
100
AcDbLine
 10
-13.3526403373
 20
-40.2200807197
 30
0.0
 11
-14.4190465948
 21
-40.2200807197
 31
0.0
  0
LINE
  5
2F2
330
2EC
100
AcDbEntity
  8
SK2
100
AcDbLine
 10
-14.4190465948
 20
-40.2200807197
 30
0.0
 11
-14.4190465948
 21
-45.7763307108
 31
0.0
  0
LINE
  5
2F3
330
2EC
100
AcDbEntity
  8
SK2
100
AcDbLine
 10
-14.4190465948
 20
-45.7763307108
 30
0.0
 11
-13.3526403373
 21
-45.7763307108
 31
0.0
  0
LINE
  5
2F4
330
2EC
100
AcDbEntity
  8
SK2
100
AcDbLine
 10
-1.7151398501
 20
-40.2200807197
 30
0.0
 11
-0.6487335926
 21
-40.2200807197
 31
0.0
  0
LINE
  5
2F5
330
2EC
100
AcDbEntity
  8
SK2
100
AcDbLine
 10
-0.6487335926
 20
-40.2200807197
 30
0.0
 11
-0.6487335926
 21
-45.7763307108
 31
0.0
  0
LINE
  5
2F6
330
2EC
100
AcDbEntity
  8
SK2
100
AcDbLine
 10
-0.6487335926
 20
-45.7763307108
 30
0.0
 11
-1.7151398501
 21
-45.7763307108
 31
0.0
  0
LINE
  5
2F7
330
2EC
100
AcDbEntity
  8
SK2
100
AcDbLine
 10
-68.25
 20
-12.1476148288
 30
0.0
 11
-68.25
 21
-52.0129624357
 31
0.0
  0
LINE
  5
2F8
330
2EC
100
AcDbEntity
  8
SK2
100
AcDbLine
 10
69.85
 20
-14.208
 30
0.0
 11
69.85
 21
-52.0129624357
 31
0.0
  0
LINE
  5
2F9
330
2EC
100
AcDbEntity
  8
SK2
100
AcDbLine
 10
-68.25
 20
-51.0129624357
 30
0.0
 11
69.85
 21
-51.0129624357
 31
0.0
  0
MTEXT
  5
2FA
330
2EC
100
AcDbEntity
  8
SK2
100
AcDbMText
 10
-15.466008449
 20
-46.4477531699
 30
0.0
 40
3.5
 41
0.0
 71
     1
 72
     1
  1

  7
SLDTEXTSTYLE0
 73
     1
 44
1.0
  0
MTEXT
  5
2FB
330
2EC
100
AcDbEntity
  8
SK2
100
AcDbMText
 10
-13.3526403373
 20
-41.2645937962
 30
0.0
 40
3.5
 41
0.0
 71
     1
 72
     1
  1
5,437
  7
SLDTEXTSTYLE0
 73
     1
 44
1.0
  0
MTEXT
  5
2FC
330
2EC
100
AcDbEntity
  8
SK2
100
AcDbMText
 10
-13.352640803
 20
-46.5012253465
 30
0.0
 40
3.5
 41
0.0
 71
     1
 72
     1
  1
138,1
  7
SLDTEXTSTYLE0
 73
     1
 44
1.0
  0
MTEXT
  5
2FD
330
2EC
100
AcDbEntity
  8
SK2
100
AcDbMText
 10
1.7301718499
 20
-46.4477531699
 30
0.0
 40
3.5
 41
0.0
 71
     1
 72
     1
  1

  7
SLDTEXTSTYLE0
 73
     1
 44
1.0
  0
ENDBLK
  5
2EE
330
2EC
100
AcDbEntity
  8
0
100
AcDbBlockEnd
  0
BLOCK
  5
300
330
2FF
100
AcDbEntity
  8
0
100
AcDbBlockBegin
  2
_D_9
 70
     0
 10
0.0
 20
0.0
 30
0.0
  3
_D_9
  1

  0
SOLID
  5
302
330
2FF
100
AcDbEntity
  8
SK2
100
AcDbTrace
 10
21.8398593255
 20
-42.4046657056
 30
0.0
 11
25.1418593255
 21
-42.9126657056
 31
0.0
 12
25.1418593255
 22
-41.8966657056
 32
0.0
 13
25.1418593255
 23
-41.8966657056
 33
0.0
  0
SOLID
  5
303
330
2FF
100
AcDbEntity
  8
SK2
100
AcDbTrace
 10
69.85
 20
-42.4046657056
 30
0.0
 11
66.548
 21
-41.8966657056
 31
0.0
 12
66.548
 22
-42.9126657056
 32
0.0
 13
66.548
 23
-42.9126657056
 33
0.0
  0
LINE
  5
304
330
2FF
100
AcDbEntity
  8
SK2
100
AcDbLine
 10
34.1735663333
 20
-31.6117839896
 30
0.0
 11
33.1071600758
 21
-31.6117839896
 31
0.0
  0
LINE
  5
305
330
2FF
100
AcDbEntity
  8
SK2
100
AcDbLine
 10
33.1071600758
 20
-31.6117839896
 30
0.0
 11
33.1071600758
 21
-37.1680339806
 31
0.0
  0
LINE
  5
306
330
2FF
100
AcDbEntity
  8
SK2
100
AcDbLine
 10
33.1071600758
 20
-37.1680339806
 30
0.0
 11
34.1735663333
 21
-37.1680339806
 31
0.0
  0
LINE
  5
307
330
2FF
100
AcDbEntity
  8
SK2
100
AcDbLine
 10
43.2249553942
 20
-31.6117839896
 30
0.0
 11
44.2913616517
 21
-31.6117839896
 31
0.0
  0
LINE
  5
308
330
2FF
100
AcDbEntity
  8
SK2
100
AcDbLine
 10
44.2913616517
 20
-31.6117839896
 30
0.0
 11
44.2913616517
 21
-37.1680339806
 31
0.0
  0
LINE
  5
309
330
2FF
100
AcDbEntity
  8
SK2
100
AcDbLine
 10
44.2913616517
 20
-37.1680339806
 30
0.0
 11
43.2249553942
 21
-37.1680339806
 31
0.0
  0
LINE
  5
30A
330
2FF
100
AcDbEntity
  8
SK2
100
AcDbLine
 10
21.8398593255
 20
-8.9375
 30
0.0
 11
21.8398593255
 21
-43.4046657056
 31
0.0
  0
LINE
  5
30B
330
2FF
100
AcDbEntity
  8
SK2
100
AcDbLine
 10
69.85
 20
-14.208
 30
0.0
 11
69.85
 21
-43.4046657056
 31
0.0
  0
LINE
  5
30C
330
2FF
100
AcDbEntity
  8
SK2
100
AcDbLine
 10
21.8398593255
 20
-42.4046657056
 30
0.0
 11
69.85
 21
-42.4046657056
 31
0.0
  0
MTEXT
  5
30D
330
2FF
100
AcDbEntity
  8
SK2
100
AcDbMText
 10
32.0601982216
 20
-37.8394564398
 30
0.0
 40
3.5
 41
0.0
 71
     1
 72
     1
  1

  7
SLDTEXTSTYLE0
 73
     1
 44
1.0
  0
MTEXT
  5
30E
330
2FF
100
AcDbEntity
  8
SK2
100
AcDbMText
 10
34.1735663333
 20
-32.6562970661
 30
0.0
 40
3.5
 41
0.0
 71
     1
 72
     1
  1
1,89
  7
SLDTEXTSTYLE0
 73
     1
 44
1.0
  0
MTEXT
  5
30F
330
2FF
100
AcDbEntity
  8
SK2
100
AcDbMText
 10
32.8805106201
 20
-37.8929286164
 30
0.0
 40
3.5
 41
0.0
 71
     1
 72
     1
  1
48,01
  7
SLDTEXTSTYLE0
 73
     1
 44
1.0
  0
MTEXT
  5
310
330
2FF
100
AcDbEntity
  8
SK2
100
AcDbMText
 10
46.6702680255
 20
-37.8394564398
 30
0.0
 40
3.5
 41
0.0
 71
     1
 72
     1
  1

  7
SLDTEXTSTYLE0
 73
     1
 44
1.0
  0
ENDBLK
  5
301
330
2FF
100
AcDbEntity
  8
0
100
AcDbBlockEnd
  0
BLOCK
  5
314
330
313
100
AcDbEntity
  8
0
100
AcDbBlockBegin
  2
_D_10
 70
     0
 10
0.0
 20
0.0
 30
0.0
  3
_D_10
  1

  0
SOLID
  5
316
330
313
100
AcDbEntity
  8
SK2
100
AcDbTrace
 10
64.008
 20
-31.6647698771
 30
0.0
 11
60.706
 21
-31.1567698771
 31
0.0
 12
60.706
 22
-32.1727698771
 32
0.0
 13
60.706
 23
-32.1727698771
 33
0.0
  0
SOLID
  5
317
330
313
100
AcDbEntity
  8
SK2
100
AcDbTrace
 10
69.85
 20
-31.6647698771
 30
0.0
 11
73.152
 21
-32.1727698771
 31
0.0
 12
73.152
 22
-31.1567698771
 32
0.0
 13
73.152
 23
-31.1567698771
 33
0.0
  0
LINE
  5
318
330
313
100
AcDbEntity
  8
SK2
100
AcDbLine
 10
64.008
 20
-20.05
 30
0.0
 11
64.008
 21
-32.6647698771
 31
0.0
  0
LINE
  5
319
330
313
100
AcDbEntity
  8
SK2
100
AcDbLine
 10
69.85
 20
-14.208
 30
0.0
 11
69.85
 21
-32.6647698771
 31
0.0
  0
LINE
  5
31A
330
313
100
AcDbEntity
  8
SK2
100
AcDbLine
 10
64.008
 20
-31.6647698771
 30
0.0
 11
50.0568076015
 21
-31.6647698771
 31
0.0
  0
LINE
  5
31B
330
313
100
AcDbEntity
  8
SK2
100
AcDbLine
 10
64.008
 20
-31.6647698771
 30
0.0
 11
69.85
 21
-31.6647698771
 31
0.0
  0
LINE
  5
31C
330
313
100
AcDbEntity
  8
SK2
100
AcDbLine
 10
69.85
 20
-31.6647698771
 30
0.0
 11
76.2
 21
-31.6647698771
 31
0.0
  0
MTEXT
  5
31D
330
313
100
AcDbEntity
  8
SK2
100
AcDbMText
 10
50.0568076015
 20
-27.1530329625
 30
0.0
 40
3.5
 41
0.0
 71
     1
 72
     1
  1
5,84
  7
SLDTEXTSTYLE0
 73
     1
 44
1.0
  0
ENDBLK
  5
315
330
313
100
AcDbEntity
  8
0
100
AcDbBlockEnd
  0
BLOCK
  5
320
330
31F
100
AcDbEntity
  8
0
100
AcDbBlockBegin
  2
_D_11
 70
     0
 10
0.0
 20
0.0
 30
0.0
  3
_D_11
  1

  0
SOLID
  5
322
330
31F
100
AcDbEntity
  8
SK2
100
AcDbTrace
 10
-89.5748793795
 20
30.5578899967
 30
0.0
 11
-90.0828793795
 21
27.2558899967
 31
0.0
 12
-89.0668793795
 22
27.2558899967
 32
0.0
 13
-89.0668793795
 23
27.2558899967
 33
0.0
  0
SOLID
  5
323
330
31F
100
AcDbEntity
  8
SK2
100
AcDbTrace
 10
-89.5748793795
 20
-30.5579086614
 30
0.0
 11
-89.0668793795
 21
-27.2559086614
 31
0.0
 12
-90.0828793795
 22
-27.2559086614
 32
0.0
 13
-90.0828793795
 23
-27.2559086614
 33
0.0
  0
LINE
  5
324
330
31F
100
AcDbEntity
  8
SK2
100
AcDbLine
 10
2.95
 20
30.5578899967
 30
0.0
 11
-90.5748793795
 21
30.5578899967
 31
0.0
  0
LINE
  5
325
330
31F
100
AcDbEntity
  8
SK2
100
AcDbLine
 10
2.95
 20
-30.5579086614
 30
0.0
 11
-90.5748793795
 21
-30.5579086614
 31
0.0
  0
LINE
  5
326
330
31F
100
AcDbEntity
  8
SK2
100
AcDbLine
 10
-89.5748793795
 20
30.5578899967
 30
0.0
 11
-89.5748793795
 21
-30.5579086614
 31
0.0
  0
MTEXT
  5
327
330
31F
100
AcDbEntity
  8
SK2
100
AcDbMText
 10
-94.0866164687
 20
-9.2456328115
 30
0.0
 40
3.5
 41
0.0
 71
     1
 72
     1
  1
%%c
  7
SLDTEXTSTYLE0
 11
-3.491481338843133E-15
 21
1.0
 31
0.0
 73
     1
 44
1.0
  0
MTEXT
  5
328
330
31F
100
AcDbEntity
  8
SK2
100
AcDbMText
 10
-94.1400886453
 20
-3.9671954131
 30
0.0
 40
3.5
 41
0.0
 71
     1
 72
     1
  1
63,5
  7
SLDTEXTSTYLE0
 11
-3.491481338843133E-15
 21
1.0
 31
0.0
 73
     1
 44
1.0
  0
ENDBLK
  5
321
330
31F
100
AcDbEntity
  8
0
100
AcDbBlockEnd
  0
BLOCK
  5
32C
330
32B
100
AcDbEntity
  8
0
100
AcDbBlockBegin
  2
_D_12
 70
     0
 10
0.0
 20
0.0
 30
0.0
  3
_D_12
  1

  0
SOLID
  5
32E
330
32B
100
AcDbEntity
  8
SK2
100
AcDbTrace
 10
-77.1618316054
 20
7.9375002533
 30
0.0
 11
-76.6538316054
 21
11.2395002533
 31
0.0
 12
-77.6698316054
 22
11.2395002533
 32
0.0
 13
-77.6698316054
 23
11.2395002533
 33
0.0
  0
SOLID
  5
32F
330
32B
100
AcDbEntity
  8
SK2
100
AcDbTrace
 10
-77.1618316054
 20
-7.9375002533
 30
0.0
 11
-77.6698316054
 21
-11.2395002533
 31
0.0
 12
-76.6538316054
 22
-11.2395002533
 32
0.0
 13
-76.6538316054
 23
-11.2395002533
 33
0.0
  0
LINE
  5
330
330
32B
100
AcDbEntity
  8
SK2
100
AcDbLine
 10
-64.3082389832
 20
7.9375002533
 30
0.0
 11
-78.1618316054
 21
7.9375002533
 31
0.0
  0
LINE
  5
331
330
32B
100
AcDbEntity
  8
SK2
100
AcDbLine
 10
-64.3082389832
 20
-7.9375002533
 30
0.0
 11
-78.1618316054
 21
-7.9375002533
 31
0.0
  0
LINE
  5
332
330
32B
100
AcDbEntity
  8
SK2
100
AcDbLine
 10
-77.1618316054
 20
7.9375002533
 30
0.0
 11
-77.1618316054
 21
14.2875002533
 31
0.0
  0
LINE
  5
333
330
32B
100
AcDbEntity
  8
SK2
100
AcDbLine
 10
-77.1618316054
 20
7.9375002533
 30
0.0
 11
-77.1618316054
 21
-7.9375002533
 31
0.0
  0
LINE
  5
334
330
32B
100
AcDbEntity
  8
SK2
100
AcDbLine
 10
-77.1618316054
 20
-7.9375002533
 30
0.0
 11
-77.1618316054
 21
-14.2875002533
 31
0.0
  0
MTEXT
  5
336
330
32B
100
AcDbEntity
  8
SK2
100
AcDbMText
 10
-81.67356852
 20
-16.141132145
 30
0.0
 40
3.5
 41
0.0
 71
     1
 72
     1
  1
5/8 - 11 UNC
  7
SLDTEXTSTYLE1
 11
-7.044195017643634E-15
 21
1.0
 31
0.0
 73
     1
 44
1.0
  0
ENDBLK
  5
32D
330
32B
100
AcDbEntity
  8
0
100
AcDbBlockEnd
  0
ENDSEC
  0
SECTION
  2
ENTITIES
  0
LINE
  5
82
330
1F
100
AcDbEntity
  8
1
  6
SLD-Solid
370
    25
100
AcDbLine
 10
1.8869952227
 20
22.225
 30
0.0
 11
0.0
 21
22.225
 31
0.0
  0
LINE
  5
83
330
1F
100
AcDbEntity
  8
1
  6
SLD-Solid
370
    25
100
AcDbLine
 10
0.0
 20
-22.225
 30
0.0
 11
1.8869952227
 21
-22.225
 31
0.0
  0
LINE
  5
84
330
1F
100
AcDbEntity
  8
SK1
  6
SLD-Solid
370
    25
100
AcDbLine
 10
0.0
 20
22.225
 30
0.0
 11
-67.1376006954
 21
12.4340074512
 31
0.0
  0
LINE
  5
85
330
1F
100
AcDbEntity
  8
SK1
  6
SLD-Solid
370
    25
100
AcDbLine
 10
-67.1376006954
 20
-12.4340074512
 30
0.0
 11
0.0
 21
-22.225
 31
0.0
  0
LINE
  5
86
330
1F
100
AcDbEntity
  8
1
  6
SLD-Solid
370
    25
100
AcDbLine
 10
1.8869952227
 20
-22.225
 30
0.0
 11
2.1330363037
 21
-22.1102691597
 31
0.0
  0
LINE
  5
87
330
1F
100
AcDbEntity
  8
1
  6
SLD-Solid
370
    25
100
AcDbLine
 10
2.1330363037
 20
22.1102691597
 30
0.0
 11
1.8869952227
 21
22.225
 31
0.0
  0
LINE
  5
88
330
1F
100
AcDbEntity
  8
1
  6
SLD-Solid
370
    25
100
AcDbLine
 10
34.288
 20
22.225
 30
0.0
 11
19.812
 21
22.225
 31
0.0
  0
LINE
  5
89
330
1F
100
AcDbEntity
  8
1
  6
SLD-Solid
370
    25
100
AcDbLine
 10
19.812
 20
-22.225
 30
0.0
 11
34.288
 21
-22.225
 31
0.0
  0
LINE
  5
8A
330
1F
100
AcDbEntity
  8
1
  6
SLD-Solid
370
    25
100
AcDbLine
 10
38.275
 20
19.05
 30
0.0
 11
35.812
 21
19.05
 31
0.0
  0
LINE
  5
8B
330
1F
100
AcDbEntity
  8
1
  6
SLD-Solid
370
    25
100
AcDbLine
 10
64.008
 20
19.05
 30
0.0
 11
53.761576911
 21
19.05
 31
0.0
  0
LINE
  5
8C
330
1F
100
AcDbEntity
  8
1
  6
SLD-Solid
370
    25
100
AcDbLine
 10
53.4739174167
 20
-19.05
 30
0.0
 11
64.008
 21
-19.05
 31
0.0
  0
LINE
  5
8D
330
1F
100
AcDbEntity
  8
1
  6
SLD-Solid
370
    25
100
AcDbLine
 10
35.812
 20
-19.05
 30
0.0
 11
38.5735775335
 21
-19.05
 31
0.0
  0
LINE
  5
8E
330
1F
100
AcDbEntity
  8
1
  6
SLD-Solid
370
    25
100
AcDbLine
 10
64.008
 20
-19.05
 30
0.0
 11
69.85
 21
-13.208
 31
0.0
  0
LINE
  5
8F
330
1F
100
AcDbEntity
  8
1
  6
SLD-Solid
370
    25
100
AcDbLine
 10
69.85
 20
13.208
 30
0.0
 11
64.008
 21
19.05
 31
0.0
  0
LINE
  5
90
330
1F
100
AcDbEntity
  8
1
  6
SLD-Solid
370
    25
100
AcDbLine
 10
18.3
 20
30.5579086614
 30
0.0
 11
14.6411263546
 21
30.5579086614
 31
0.0
  0
LINE
  5
91
330
1F
100
AcDbEntity
  8
1
  6
SLD-Solid
370
    25
100
AcDbLine
 10
18.3
 20
-30.5578899967
 30
0.0
 11
18.3
 21
30.5579086614
 31
0.0
  0
LINE
  5
92
330
1F
100
AcDbEntity
  8
1
  6
SLD-Solid
370
    25
100
AcDbLine
 10
14.6411263546
 20
-30.5578899967
 30
0.0
 11
18.3
 21
-30.5578899967
 31
0.0
  0
LINE
  5
93
330
1F
100
AcDbEntity
  8
1
  6
SLD-Solid
370
    25
100
AcDbLine
 10
14.6411263546
 20
30.5579086614
 30
0.0
 11
14.6411263546
 21
-30.5578899967
 31
0.0
  0
LINE
  5
94
330
1F
100
AcDbEntity
  8
1
  6
SLD-Solid
370
    25
100
AcDbLine
 10
3.2
 20
-29.8048664484
 30
0.0
 11
3.2
 21
29.8048552742
 31
0.0
  0
LINE
  5
95
330
1F
100
AcDbEntity
  8
1
  6
SLD-Solid
370
    25
100
AcDbLine
 10
3.95
 20
30.5578899967
 30
0.0
 11
3.95
 21
-30.5579086614
 31
0.0
  0
LINE
  5
96
330
1F
100
AcDbEntity
  8
1
  6
SLD-Solid
370
    25
100
AcDbLine
 10
3.95
 20
-30.5579086614
 30
0.0
 11
7.5888736454
 21
-30.5579086614
 31
0.0
  0
LINE
  5
97
330
1F
100
AcDbEntity
  8
1
  6
SLD-Solid
370
    25
100
AcDbLine
 10
7.5888736454
 20
30.5578899967
 30
0.0
 11
3.95
 21
30.5578899967
 31
0.0
  0
LINE
  5
98
330
1F
100
AcDbEntity
  8
1
  6
SLD-Solid
370
    25
100
AcDbLine
 10
7.5888736454
 20
30.5578899967
 30
0.0
 11
7.5888736454
 21
-30.5579086614
 31
0.0
  0
LINE
  5
99
330
1F
100
AcDbEntity
  8
1
  6
SLD-Solid
370
    25
100
AcDbLine
 10
19.05
 20
29.8048664484
 30
0.0
 11
19.05
 21
-29.8048552742
 31
0.0
  0
LINE
  5
9A
330
1F
100
AcDbEntity
  8
1
  6
SLD-Solid
370
    25
100
AcDbLine
 10
9.2
 20
27.8050456342
 30
0.0
 11
9.2
 21
25.8569131114
 31
0.0
  0
LINE
  5
9B
330
1F
100
AcDbEntity
  8
1
  6
SLD-Solid
370
    25
100
AcDbLine
 10
9.2
 20
25.2705433174
 30
0.0
 11
9.2
 21
-27.8050456342
 31
0.0
  0
LINE
  5
9C
330
1F
100
AcDbEntity
  8
1
  6
SLD-Solid
370
    25
100
AcDbLine
 10
13.03
 20
25.319242438
 30
0.0
 11
13.03
 21
-27.8050456342
 31
0.0
  0
LINE
  5
9D
330
1F
100
AcDbEntity
  8
1
  6
SLD-Solid
370
    25
100
AcDbLine
 10
13.03
 20
27.8050456342
 30
0.0
 11
13.03
 21
25.8117178836
 31
0.0
  0
LINE
  5
9E
330
1F
100
AcDbEntity
  8
1
  6
SLD-Solid
370
    25
100
AcDbLine
 10
12.28
 20
24.0780506352
 30
0.0
 11
12.28
 21
-26.9870635676
 31
0.0
  0
LINE
  5
9F
330
1F
100
AcDbEntity
  8
1
  6
SLD-Solid
370
    25
100
AcDbLine
 10
9.95
 20
24.066859753
 30
0.0
 11
9.95
 21
-26.9870635676
 31
0.0
  0
LINE
  5
A0
330
1F
100
AcDbEntity
  8
1
  6
SLD-Solid
370
    25
100
AcDbLine
 10
9.95
 20
-26.9870635676
 30
0.0
 11
12.28
 21
-26.9870635676
 31
0.0
  0
LINE
  5
A1
330
1F
100
AcDbEntity
  8
1
  6
SLD-Solid
370
    25
100
AcDbLine
 10
0.0
 20
22.225
 30
0.0
 11
0.0
 21
-22.225
 31
0.0
  0
LINE
  5
A2
330
1F
100
AcDbEntity
  8
1
  6
SLD-Solid
370
    25
100
AcDbLine
 10
1.8869952227
 20
22.225
 30
0.0
 11
1.8869952227
 21
-22.225
 31
0.0
  0
LINE
  5
A3
330
1F
100
AcDbEntity
  8
1
  6
SLD-Solid
370
    25
100
AcDbLine
 10
35.05
 20
0.0
 30
0.0
 11
35.05
 21
-21.463
 31
0.0
  0
LINE
  5
A4
330
1F
100
AcDbEntity
  8
1
  6
SLD-Solid
370
    25
100
AcDbLine
 10
35.05
 20
21.463
 30
0.0
 11
35.05
 21
0.0
 31
0.0
  0
LINE
  5
A5
330
1F
100
AcDbEntity
  8
1
  6
SLD-Solid
370
    25
100
AcDbLine
 10
64.008
 20
19.05
 30
0.0
 11
64.008
 21
-19.05
 31
0.0
  0
LINE
  5
A6
330
1F
100
AcDbEntity
  8
1
  6
SLD-Solid
370
    25
100
AcDbLine
 10
69.85
 20
13.208
 30
0.0
 11
69.85
 21
-13.208
 31
0.0
  0
LINE
  5
A7
330
1F
100
AcDbEntity
  8
1
  6
SLD-Solid
370
    25
100
AcDbLine
 10
9.2
 20
25.8569131114
 30
0.0
 11
9.2
 21
25.8264908709
 31
0.0
  0
LINE
  5
A8
330
1F
100
AcDbEntity
  8
1
  6
SLD-Solid
370
    25
100
AcDbLine
 10
13.03
 20
25.7812977304
 30
0.0
 11
13.03
 21
25.8117178836
 31
0.0
  0
LINE
  5
A9
330
1F
100
AcDbEntity
  8
1
  6
SLD-Solid
370
    25
100
AcDbLine
 10
9.95
 20
26.9870635676
 30
0.0
 11
9.95
 21
25.6032587904
 31
0.0
  0
LINE
  5
AA
330
1F
100
AcDbEntity
  8
1
  6
SLD-Solid
370
    25
100
AcDbLine
 10
12.28
 20
26.9870635676
 30
0.0
 11
12.28
 21
25.5942620881
 31
0.0
  0
LINE
  5
AB
330
1F
100
AcDbEntity
  8
SK1
  6
SLD-Solid
370
    25
100
AcDbLine
 10
-68.25
 20
-11.1476148288
 30
0.0
 11
-68.25
 21
11.1476148288
 31
0.0
  0
LINE
  5
AC
330
1F
100
AcDbEntity
  8
1
  6
SLD-Solid
370
    25
100
AcDbLine
 10
9.95
 20
26.9870635676
 30
0.0
 11
12.28
 21
26.9870635676
 31
0.0
  0
LINE
  5
AD
330
1F
100
AcDbEntity
  8
1
  6
SLD-Solid
370
    25
100
AcDbLine
 10
19.812
 20
0.0
 30
0.0
 11
19.812
 21
-22.225
 31
0.0
  0
LINE
  5
AE
330
1F
100
AcDbEntity
  8
1
  6
SLD-Solid
370
    25
100
AcDbLine
 10
19.812
 20
22.225
 30
0.0
 11
19.812
 21
0.0
 31
0.0
  0
LINE
  5
AF
330
1F
100
AcDbEntity
  8
1
  6
SLD-Solid
370
    25
100
AcDbLine
 10
2.1330363037
 20
22.1102691597
 30
0.0
 11
2.1330363037
 21
-22.1102691597
 31
0.0
  0
LINE
  5
B0
330
1F
100
AcDbEntity
  8
SK1
  6
SLD-Solid
370
    25
100
AcDbLine
 10
-67.1376006954
 20
0.0
 30
0.0
 11
-67.1376006954
 21
-12.4340074512
 31
0.0
  0
LINE
  5
B1
330
1F
100
AcDbEntity
  8
SK1
  6
SLD-Solid
370
    25
100
AcDbLine
 10
-67.1376006954
 20
12.4340074512
 30
0.0
 11
-67.1376006954
 21
0.0
 31
0.0
  0
LINE
  5
B2
330
1F
100
AcDbEntity
  8
1
  6
SLD-Solid
370
    25
100
AcDbLine
 10
34.288
 20
0.0
 30
0.0
 11
34.288
 21
22.225
 31
0.0
  0
LINE
  5
B3
330
1F
100
AcDbEntity
  8
1
  6
SLD-Solid
370
    25
100
AcDbLine
 10
34.288
 20
-22.225
 30
0.0
 11
34.288
 21
0.0
 31
0.0
  0
LINE
  5
B4
330
1F
100
AcDbEntity
  8
1
  6
SLD-Solid
370
    25
100
AcDbLine
 10
35.812
 20
0.0
 30
0.0
 11
35.812
 21
-19.05
 31
0.0
  0
LINE
  5
B5
330
1F
100
AcDbEntity
  8
1
  6
SLD-Solid
370
    25
100
AcDbLine
 10
35.812
 20
19.05
 30
0.0
 11
35.812
 21
0.0
 31
0.0
  0
LINE
  5
B6
330
1F
100
AcDbEntity
  8
SK3
  6
SLD-Dashed
370
    18
100
AcDbLine
 10
5.7322709434
 20
-8.8686354442
 30
0.0
 11
5.6150941671
 21
-8.4012226946
 31
0.0
  0
LINE
  5
B7
330
1F
100
AcDbEntity
  8
SK3
  6
SLD-Dashed
370
    18
100
AcDbLine
 10
5.6150941671
 20
-8.4012226946
 30
0.0
 11
5.4343412237
 21
-7.960974275
 31
0.0
  0
LINE
  5
B8
330
1F
100
AcDbEntity
  8
SK3
  6
SLD-Dashed
370
    18
100
AcDbLine
 10
5.4343412237
 20
-7.960974275
 30
0.0
 11
5.2005168173
 21
-7.5734758234
 31
0.0
  0
LINE
  5
B9
330
1F
100
AcDbEntity
  8
SK3
  6
SLD-Dashed
370
    18
100
AcDbLine
 10
5.2005168173
 20
-7.5734758234
 30
0.0
 11
4.9272099725
 21
-7.2612473412
 31
0.0
  0
LINE
  5
BA
330
1F
100
AcDbEntity
  8
SK3
  6
SLD-Dashed
370
    18
100
AcDbLine
 10
4.9272099725
 20
-7.2612473412
 30
0.0
 11
4.6303042896
 21
-7.0424344129
 31
0.0
  0
LINE
  5
BB
330
1F
100
AcDbEntity
  8
SK3
  6
SLD-Dashed
370
    18
100
AcDbLine
 10
4.6303042896
 20
-7.0424344129
 30
0.0
 11
4.3270548477
 21
-6.9297536506
 31
0.0
  0
LINE
  5
BC
330
1F
100
AcDbEntity
  8
SK3
  6
SLD-Dashed
370
    18
100
AcDbLine
 10
4.3270548477
 20
-6.9297536506
 30
0.0
 11
4.0350854021
 21
-6.9297536506
 31
0.0
  0
LINE
  5
BD
330
1F
100
AcDbEntity
  8
SK3
  6
SLD-Dashed
370
    18
100
AcDbLine
 10
4.0350854021
 20
-6.9297536506
 30
0.0
 11
3.7713641558
 21
-7.0424344129
 31
0.0
  0
LINE
  5
BE
330
1F
100
AcDbEntity
  8
SK3
  6
SLD-Dashed
370
    18
100
AcDbLine
 10
3.7713641558
 20
-7.0424344129
 30
0.0
 11
3.551217629
 21
-7.2612473412
 31
0.0
  0
LINE
  5
BF
330
1F
100
AcDbEntity
  8
SK3
  6
SLD-Dashed
370
    18
100
AcDbLine
 10
3.551217629
 20
-7.2612473412
 30
0.0
 11
3.3874399376
 21
-7.5734758234
 31
0.0
  0
LINE
  5
C0
330
1F
100
AcDbEntity
  8
SK3
  6
SLD-Dashed
370
    18
100
AcDbLine
 10
3.3874399376
 20
-7.5734758234
 30
0.0
 11
3.2895492458
 21
-7.960974275
 31
0.0
  0
LINE
  5
C1
330
1F
100
AcDbEntity
  8
SK3
  6
SLD-Dashed
370
    18
100
AcDbLine
 10
3.2895492458
 20
-7.960974275
 30
0.0
 11
3.2632346046
 21
-8.4012226946
 31
0.0
  0
LINE
  5
C2
330
1F
100
AcDbEntity
  8
SK3
  6
SLD-Dashed
370
    18
100
AcDbLine
 10
3.2632346046
 20
-8.4012226946
 30
0.0
 11
3.3100253255
 21
-8.8686354442
 31
0.0
  0
LINE
  5
C3
330
1F
100
AcDbEntity
  8
SK3
  6
SLD-Dashed
370
    18
100
AcDbLine
 10
3.3100253255
 20
-8.8686354442
 30
0.0
 11
3.4272021018
 21
-9.3360481938
 31
0.0
  0
LINE
  5
C4
330
1F
100
AcDbEntity
  8
SK3
  6
SLD-Dashed
370
    18
100
AcDbLine
 10
3.4272021018
 20
-9.3360481938
 30
0.0
 11
3.6079550452
 21
-9.7762966134
 31
0.0
  0
LINE
  5
C5
330
1F
100
AcDbEntity
  8
SK3
  6
SLD-Dashed
370
    18
100
AcDbLine
 10
3.6079550452
 20
-9.7762966134
 30
0.0
 11
3.8417794516
 21
-10.1637950651
 31
0.0
  0
LINE
  5
C6
330
1F
100
AcDbEntity
  8
SK3
  6
SLD-Dashed
370
    18
100
AcDbLine
 10
3.8417794516
 20
-10.1637950651
 30
0.0
 11
4.1150862965
 21
-10.4760235473
 31
0.0
  0
LINE
  5
C7
330
1F
100
AcDbEntity
  8
SK3
  6
SLD-Dashed
370
    18
100
AcDbLine
 10
4.1150862965
 20
-10.4760235473
 30
0.0
 11
4.4119919794
 21
-10.6948364755
 31
0.0
  0
LINE
  5
C8
330
1F
100
AcDbEntity
  8
SK3
  6
SLD-Dashed
370
    18
100
AcDbLine
 10
4.4119919794
 20
-10.6948364755
 30
0.0
 11
4.7152414213
 21
-10.8075172378
 31
0.0
  0
LINE
  5
C9
330
1F
100
AcDbEntity
  8
SK3
  6
SLD-Dashed
370
    18
100
AcDbLine
 10
4.7152414213
 20
-10.8075172378
 30
0.0
 11
5.0072108668
 21
-10.8075172378
 31
0.0
  0
LINE
  5
CA
330
1F
100
AcDbEntity
  8
SK3
  6
SLD-Dashed
370
    18
100
AcDbLine
 10
5.0072108668
 20
-10.8075172378
 30
0.0
 11
5.2709321131
 21
-10.6948364755
 31
0.0
  0
LINE
  5
CB
330
1F
100
AcDbEntity
  8
SK3
  6
SLD-Dashed
370
    18
100
AcDbLine
 10
5.2709321131
 20
-10.6948364755
 30
0.0
 11
5.4910786399
 21
-10.4760235473
 31
0.0
  0
LINE
  5
CC
330
1F
100
AcDbEntity
  8
SK3
  6
SLD-Dashed
370
    18
100
AcDbLine
 10
5.4910786399
 20
-10.4760235473
 30
0.0
 11
5.6548563313
 21
-10.1637950651
 31
0.0
  0
LINE
  5
CD
330
1F
100
AcDbEntity
  8
SK3
  6
SLD-Dashed
370
    18
100
AcDbLine
 10
5.6548563313
 20
-10.1637950651
 30
0.0
 11
5.7527470232
 21
-9.7762966134
 31
0.0
  0
LINE
  5
CE
330
1F
100
AcDbEntity
  8
SK3
  6
SLD-Dashed
370
    18
100
AcDbLine
 10
5.7527470232
 20
-9.7762966134
 30
0.0
 11
5.7790616643
 21
-9.3360481938
 31
0.0
  0
LINE
  5
CF
330
1F
100
AcDbEntity
  8
SK3
  6
SLD-Dashed
370
    18
100
AcDbLine
 10
5.7790616643
 20
-9.3360481938
 30
0.0
 11
5.7322709434
 21
-8.8686354442
 31
0.0
  0
LINE
  5
D0
330
1F
100
AcDbEntity
  8
SK3
  6
SLD-Dashed
370
    18
100
AcDbLine
 10
5.7253406934
 20
-8.8621689747
 30
0.0
 11
5.7709616463
 21
-9.3178964056
 31
0.0
  0
LINE
  5
D1
330
1F
100
AcDbEntity
  8
SK3
  6
SLD-Dashed
370
    18
100
AcDbLine
 10
5.7709616463
 20
-9.3178964056
 30
0.0
 11
5.7453048712
 21
-9.7471386147
 31
0.0
  0
LINE
  5
D2
330
1F
100
AcDbEntity
  8
SK3
  6
SLD-Dashed
370
    18
100
AcDbLine
 10
5.7453048712
 20
-9.7471386147
 30
0.0
 11
5.6498614466
 21
-10.124949605
 31
0.0
  0
LINE
  5
D3
330
1F
100
AcDbEntity
  8
SK3
  6
SLD-Dashed
370
    18
100
AcDbLine
 10
5.6498614466
 20
-10.124949605
 30
0.0
 11
5.4901781975
 21
-10.4293723752
 31
0.0
  0
LINE
  5
D4
330
1F
100
AcDbEntity
  8
SK3
  6
SLD-Dashed
370
    18
100
AcDbLine
 10
5.4901781975
 20
-10.4293723752
 30
0.0
 11
5.2755353338
 21
-10.6427149802
 31
0.0
  0
LINE
  5
D5
330
1F
100
AcDbEntity
  8
SK3
  6
SLD-Dashed
370
    18
100
AcDbLine
 10
5.2755353338
 20
-10.6427149802
 30
0.0
 11
5.0184071187
 21
-10.7525787235
 31
0.0
  0
LINE
  5
D6
330
1F
100
AcDbEntity
  8
SK3
  6
SLD-Dashed
370
    18
100
AcDbLine
 10
5.0184071187
 20
-10.7525787235
 30
0.0
 11
4.7337369093
 21
-10.7525787235
 31
0.0
  0
LINE
  5
D7
330
1F
100
AcDbEntity
  8
SK3
  6
SLD-Dashed
370
    18
100
AcDbLine
 10
4.7337369093
 20
-10.7525787235
 30
0.0
 11
4.4380687034
 21
-10.6427149802
 31
0.0
  0
LINE
  5
D8
330
1F
100
AcDbEntity
  8
SK3
  6
SLD-Dashed
370
    18
100
AcDbLine
 10
4.4380687034
 20
-10.6427149802
 30
0.0
 11
4.1485856626
 21
-10.4293723752
 31
0.0
  0
LINE
  5
D9
330
1F
100
AcDbEntity
  8
SK3
  6
SLD-Dashed
370
    18
100
AcDbLine
 10
4.1485856626
 20
-10.4293723752
 30
0.0
 11
3.8821114889
 21
-10.124949605
 31
0.0
  0
LINE
  5
DA
330
1F
100
AcDbEntity
  8
SK3
  6
SLD-Dashed
370
    18
100
AcDbLine
 10
3.8821114889
 20
-10.124949605
 30
0.0
 11
3.6541326926
 21
-9.7471386147
 31
0.0
  0
LINE
  5
DB
330
1F
100
AcDbEntity
  8
SK3
  6
SLD-Dashed
370
    18
100
AcDbLine
 10
3.6541326926
 20
-9.7471386147
 30
0.0
 11
3.4778985728
 21
-9.3178964056
 31
0.0
  0
LINE
  5
DC
330
1F
100
AcDbEntity
  8
SK3
  6
SLD-Dashed
370
    18
100
AcDbLine
 10
3.4778985728
 20
-9.3178964056
 30
0.0
 11
3.3636512159
 21
-8.8621689747
 31
0.0
  0
LINE
  5
DD
330
1F
100
AcDbEntity
  8
SK3
  6
SLD-Dashed
370
    18
100
AcDbLine
 10
3.3636512159
 20
-8.8621689747
 30
0.0
 11
3.318030263
 21
-8.4064415438
 31
0.0
  0
LINE
  5
DE
330
1F
100
AcDbEntity
  8
SK3
  6
SLD-Dashed
370
    18
100
AcDbLine
 10
3.318030263
 20
-8.4064415438
 30
0.0
 11
3.3436870381
 21
-7.9771993347
 31
0.0
  0
LINE
  5
DF
330
1F
100
AcDbEntity
  8
SK3
  6
SLD-Dashed
370
    18
100
AcDbLine
 10
3.3436870381
 20
-7.9771993347
 30
0.0
 11
3.4391304627
 21
-7.5993883444
 31
0.0
  0
LINE
  5
E0
330
1F
100
AcDbEntity
  8
SK3
  6
SLD-Dashed
370
    18
100
AcDbLine
 10
3.4391304627
 20
-7.5993883444
 30
0.0
 11
3.5988137118
 21
-7.2949655742
 31
0.0
  0
LINE
  5
E1
330
1F
100
AcDbEntity
  8
SK3
  6
SLD-Dashed
370
    18
100
AcDbLine
 10
3.5988137118
 20
-7.2949655742
 30
0.0
 11
3.8134565755
 21
-7.0816229692
 31
0.0
  0
LINE
  5
E2
330
1F
100
AcDbEntity
  8
SK3
  6
SLD-Dashed
370
    18
100
AcDbLine
 10
3.8134565755
 20
-7.0816229692
 30
0.0
 11
4.0705847906
 21
-6.9717592259
 31
0.0
  0
LINE
  5
E3
330
1F
100
AcDbEntity
  8
SK3
  6
SLD-Dashed
370
    18
100
AcDbLine
 10
4.0705847906
 20
-6.9717592259
 30
0.0
 11
4.355255
 21
-6.9717592259
 31
0.0
  0
LINE
  5
E4
330
1F
100
AcDbEntity
  8
SK3
  6
SLD-Dashed
370
    18
100
AcDbLine
 10
4.355255
 20
-6.9717592259
 30
0.0
 11
4.6509232059
 21
-7.0816229692
 31
0.0
  0
LINE
  5
E5
330
1F
100
AcDbEntity
  8
SK3
  6
SLD-Dashed
370
    18
100
AcDbLine
 10
4.6509232059
 20
-7.0816229692
 30
0.0
 11
4.9404062467
 21
-7.2949655742
 31
0.0
  0
LINE
  5
E6
330
1F
100
AcDbEntity
  8
SK3
  6
SLD-Dashed
370
    18
100
AcDbLine
 10
4.9404062467
 20
-7.2949655742
 30
0.0
 11
5.2068804204
 21
-7.5993883444
 31
0.0
  0
LINE
  5
E7
330
1F
100
AcDbEntity
  8
SK3
  6
SLD-Dashed
370
    18
100
AcDbLine
 10
5.2068804204
 20
-7.5993883444
 30
0.0
 11
5.4348592167
 21
-7.9771993347
 31
0.0
  0
LINE
  5
E8
330
1F
100
AcDbEntity
  8
SK3
  6
SLD-Dashed
370
    18
100
AcDbLine
 10
5.4348592167
 20
-7.9771993347
 30
0.0
 11
5.6110933365
 21
-8.4064415438
 31
0.0
  0
LINE
  5
E9
330
1F
100
AcDbEntity
  8
SK3
  6
SLD-Dashed
370
    18
100
AcDbLine
 10
5.6110933365
 20
-8.4064415438
 30
0.0
 11
5.7253406934
 21
-8.8621689747
 31
0.0
  0
LINE
  5
EA
330
1F
100
AcDbEntity
  8
SK3
  6
SLD-Dashed
370
    18
100
AcDbLine
 10
16.3488925452
 20
-5.9198440145
 30
0.0
 11
16.2346451883
 21
-5.4641165836
 31
0.0
  0
LINE
  5
EB
330
1F
100
AcDbEntity
  8
SK3
  6
SLD-Dashed
370
    18
100
AcDbLine
 10
16.2346451883
 20
-5.4641165836
 30
0.0
 11
16.0584110685
 21
-5.0348743745
 31
0.0
  0
LINE
  5
EC
330
1F
100
AcDbEntity
  8
SK3
  6
SLD-Dashed
370
    18
100
AcDbLine
 10
16.0584110685
 20
-5.0348743745
 30
0.0
 11
15.8304322722
 21
-4.6570633842
 31
0.0
  0
LINE
  5
ED
330
1F
100
AcDbEntity
  8
SK3
  6
SLD-Dashed
370
    18
100
AcDbLine
 10
15.8304322722
 20
-4.6570633842
 30
0.0
 11
15.5639580985
 21
-4.352640614
 31
0.0
  0
LINE
  5
EE
330
1F
100
AcDbEntity
  8
SK3
  6
SLD-Dashed
370
    18
100
AcDbLine
 10
15.5639580985
 20
-4.352640614
 30
0.0
 11
15.2744750576
 21
-4.139298009
 31
0.0
  0
LINE
  5
EF
330
1F
100
AcDbEntity
  8
SK3
  6
SLD-Dashed
370
    18
100
AcDbLine
 10
15.2744750576
 20
-4.139298009
 30
0.0
 11
14.9788068518
 21
-4.0294342657
 31
0.0
  0
LINE
  5
F0
330
1F
100
AcDbEntity
  8
SK3
  6
SLD-Dashed
370
    18
100
AcDbLine
 10
14.9788068518
 20
-4.0294342657
 30
0.0
 11
14.6941366424
 21
-4.0294342657
 31
0.0
  0
LINE
  5
F1
330
1F
100
AcDbEntity
  8
SK3
  6
SLD-Dashed
370
    18
100
AcDbLine
 10
14.6941366424
 20
-4.0294342657
 30
0.0
 11
14.4370084273
 21
-4.139298009
 31
0.0
  0
LINE
  5
F2
330
1F
100
AcDbEntity
  8
SK3
  6
SLD-Dashed
370
    18
100
AcDbLine
 10
14.4370084273
 20
-4.139298009
 30
0.0
 11
14.2223655636
 21
-4.352640614
 31
0.0
  0
LINE
  5
F3
330
1F
100
AcDbEntity
  8
SK3
  6
SLD-Dashed
370
    18
100
AcDbLine
 10
14.2223655636
 20
-4.352640614
 30
0.0
 11
14.0626823145
 21
-4.6570633842
 31
0.0
  0
LINE
  5
F4
330
1F
100
AcDbEntity
  8
SK3
  6
SLD-Dashed
370
    18
100
AcDbLine
 10
14.0626823145
 20
-4.6570633842
 30
0.0
 11
13.9672388899
 21
-5.0348743745
 31
0.0
  0
LINE
  5
F5
330
1F
100
AcDbEntity
  8
SK3
  6
SLD-Dashed
370
    18
100
AcDbLine
 10
13.9672388899
 20
-5.0348743745
 30
0.0
 11
13.9415821148
 21
-5.4641165836
 31
0.0
  0
LINE
  5
F6
330
1F
100
AcDbEntity
  8
SK3
  6
SLD-Dashed
370
    18
100
AcDbLine
 10
13.9415821148
 20
-5.4641165836
 30
0.0
 11
13.9872030677
 21
-5.9198440145
 31
0.0
  0
LINE
  5
F7
330
1F
100
AcDbEntity
  8
SK3
  6
SLD-Dashed
370
    18
100
AcDbLine
 10
13.9872030677
 20
-5.9198440145
 30
0.0
 11
14.1014504246
 21
-6.3755714454
 31
0.0
  0
LINE
  5
F8
330
1F
100
AcDbEntity
  8
SK3
  6
SLD-Dashed
370
    18
100
AcDbLine
 10
14.1014504246
 20
-6.3755714454
 30
0.0
 11
14.2776845444
 21
-6.8048136545
 31
0.0
  0
LINE
  5
F9
330
1F
100
AcDbEntity
  8
SK3
  6
SLD-Dashed
370
    18
100
AcDbLine
 10
14.2776845444
 20
-6.8048136545
 30
0.0
 11
14.5056633407
 21
-7.1826246448
 31
0.0
  0
LINE
  5
FA
330
1F
100
AcDbEntity
  8
SK3
  6
SLD-Dashed
370
    18
100
AcDbLine
 10
14.5056633407
 20
-7.1826246448
 30
0.0
 11
14.7721375144
 21
-7.487047415
 31
0.0
  0
LINE
  5
FB
330
1F
100
AcDbEntity
  8
SK3
  6
SLD-Dashed
370
    18
100
AcDbLine
 10
14.7721375144
 20
-7.487047415
 30
0.0
 11
15.0616205552
 21
-7.70039002
 31
0.0
  0
LINE
  5
FC
330
1F
100
AcDbEntity
  8
SK3
  6
SLD-Dashed
370
    18
100
AcDbLine
 10
15.0616205552
 20
-7.70039002
 30
0.0
 11
15.3572887611
 21
-7.8102537633
 31
0.0
  0
LINE
  5
FD
330
1F
100
AcDbEntity
  8
SK3
  6
SLD-Dashed
370
    18
100
AcDbLine
 10
15.3572887611
 20
-7.8102537633
 30
0.0
 11
15.6419589705
 21
-7.8102537633
 31
0.0
  0
LINE
  5
FE
330
1F
100
AcDbEntity
  8
SK3
  6
SLD-Dashed
370
    18
100
AcDbLine
 10
15.6419589705
 20
-7.8102537633
 30
0.0
 11
15.8990871856
 21
-7.70039002
 31
0.0
  0
LINE
  5
FF
330
1F
100
AcDbEntity
  8
SK3
  6
SLD-Dashed
370
    18
100
AcDbLine
 10
15.8990871856
 20
-7.70039002
 30
0.0
 11
16.1137300493
 21
-7.487047415
 31
0.0
  0
LINE
  5
100
330
1F
100
AcDbEntity
  8
SK3
  6
SLD-Dashed
370
    18
100
AcDbLine
 10
16.1137300493
 20
-7.487047415
 30
0.0
 11
16.2734132984
 21
-7.1826246448
 31
0.0
  0
LINE
  5
101
330
1F
100
AcDbEntity
  8
SK3
  6
SLD-Dashed
370
    18
100
AcDbLine
 10
16.2734132984
 20
-7.1826246448
 30
0.0
 11
16.3688567229
 21
-6.8048136545
 31
0.0
  0
LINE
  5
102
330
1F
100
AcDbEntity
  8
SK3
  6
SLD-Dashed
370
    18
100
AcDbLine
 10
16.3688567229
 20
-6.8048136545
 30
0.0
 11
16.394513498
 21
-6.3755714454
 31
0.0
  0
LINE
  5
103
330
1F
100
AcDbEntity
  8
SK3
  6
SLD-Dashed
370
    18
100
AcDbLine
 10
16.394513498
 20
-6.3755714454
 30
0.0
 11
16.3488925452
 21
-5.9198440145
 31
0.0
  0
LINE
  5
104
330
1F
100
AcDbEntity
  8
SK3
  6
SLD-Dashed
370
    18
100
AcDbLine
 10
-66.6824940192
 20
-8.235
 30
0.0
 11
-66.6824940192
 21
8.235
 31
0.0
  0
LINE
  5
105
330
1F
100
AcDbEntity
  8
SK3
  6
SLD-Dashed
370
    18
100
AcDbLine
 10
-68.25
 20
-9.14
 30
0.0
 11
-68.25
 21
9.14
 31
0.0
  0
LINE
  5
106
330
1F
100
AcDbEntity
  8
SK3
  6
SLD-Dashed
370
    18
100
AcDbLine
 10
68.85
 20
-7.9375
 30
0.0
 11
68.85
 21
7.9375
 31
0.0
  0
LINE
  5
107
330
1F
100
AcDbEntity
  8
SK3
  6
SLD-Dashed
370
    18
100
AcDbLine
 10
69.85
 20
-8.5004444902
 30
0.0
 11
69.85
 21
8.5004444902
 31
0.0
  0
LINE
  5
108
330
1F
100
AcDbEntity
  8
SK3
  6
SLD-Dashed
370
    18
100
AcDbLine
 10
-63.48
 20
-8.235
 30
0.0
 11
-63.48
 21
8.235
 31
0.0
  0
LINE
  5
109
330
1F
100
AcDbEntity
  8
SK3
  6
SLD-Dashed
370
    18
100
AcDbLine
 10
-62.6204640132
 20
-6.74624
 30
0.0
 11
-62.6204640132
 21
6.74624
 31
0.0
  0
LINE
  5
10A
330
1F
100
AcDbEntity
  8
SK3
  6
SLD-Dashed
370
    18
100
AcDbLine
 10
21.64
 20
-8.1264296008
 30
0.0
 11
21.64
 21
8.1264296008
 31
0.0
  0
LINE
  5
10B
330
1F
100
AcDbEntity
  8
SK3
  6
SLD-Dashed
370
    18
100
AcDbLine
 10
-21.85
 20
-8.1264296008
 30
0.0
 11
-21.85
 21
8.1264296008
 31
0.0
  0
LINE
  5
10C
330
1F
100
AcDbEntity
  8
SK3
  6
SLD-Dashed
370
    18
100
AcDbLine
 10
21.8398593255
 20
-7.9375
 30
0.0
 11
21.8398593255
 21
7.9375
 31
0.0
  0
LINE
  5
10D
330
1F
100
AcDbEntity
  8
SK3
  6
SLD-Dashed
370
    18
100
AcDbLine
 10
-22.0498593255
 20
-7.9375
 30
0.0
 11
-22.0498593255
 21
7.9375
 31
0.0
  0
LINE
  5
10E
330
1F
100
AcDbEntity
  8
SK3
  6
SLD-Dashed
370
    18
100
AcDbLine
 10
3.5452916241
 20
-29.8048664484
 30
0.0
 11
3.5452916241
 21
-22.785
 31
0.0
  0
LINE
  5
10F
330
1F
100
AcDbEntity
  8
SK3
  6
SLD-Dashed
370
    18
100
AcDbLine
 10
18.704611155
 20
-22.785
 30
0.0
 11
18.704611155
 21
-29.8048552742
 31
0.0
  0
LINE
  5
110
330
1F
100
AcDbEntity
  8
SK3
  6
SLD-Dashed
370
    18
100
AcDbLine
 10
7.8539870535
 20
-30.2255814201
 30
0.0
 11
3.95
 21
-30.2255814201
 31
0.0
  0
LINE
  5
111
330
1F
100
AcDbEntity
  8
SK3
  6
SLD-Dashed
370
    18
100
AcDbLine
 10
18.3
 20
-30.2254693878
 30
0.0
 11
14.3759504666
 21
-30.2254693878
 31
0.0
  0
LINE
  5
112
330
1F
100
AcDbEntity
  8
1
  6
SLD-Dashed
370
    18
100
AcDbLine
 10
9.2
 20
-27.8050456342
 30
0.0
 11
9.2
 21
-27.7691663541
 31
0.0
  0
LINE
  5
113
330
1F
100
AcDbEntity
  8
1
  6
SLD-Dashed
370
    18
100
AcDbLine
 10
13.03
 20
-27.7691663541
 30
0.0
 11
13.03
 21
-27.8050456342
 31
0.0
  0
LINE
  5
114
330
1F
100
AcDbEntity
  8
SK3
  6
SLD-Dashed
370
    18
100
AcDbLine
 10
18.7047083759
 20
29.8048664484
 30
0.0
 11
18.7047083759
 21
25.5791202528
 31
0.0
  0
LINE
  5
115
330
1F
100
AcDbEntity
  8
SK3
  6
SLD-Dashed
370
    18
100
AcDbLine
 10
3.545388845
 20
25.5789825872
 30
0.0
 11
3.545388845
 21
29.8048552742
 31
0.0
  0
LINE
  5
116
330
1F
100
AcDbEntity
  8
SK3
  6
SLD-Dashed
370
    18
100
AcDbLine
 10
14.3760129465
 20
30.2255814201
 30
0.0
 11
18.3
 21
30.2255814201
 31
0.0
  0
LINE
  5
117
330
1F
100
AcDbEntity
  8
SK3
  6
SLD-Dashed
370
    18
100
AcDbLine
 10
3.95
 20
30.2254693878
 30
0.0
 11
7.8540495334
 21
30.2254693878
 31
0.0
  0
LINE
  5
118
330
1F
100
AcDbEntity
  8
1
  6
SLD-Dashed
370
    18
100
AcDbLine
 10
9.2
 20
27.8050456342
 30
0.0
 11
9.2
 21
27.7691663541
 31
0.0
  0
LINE
  5
119
330
1F
100
AcDbEntity
  8
1
  6
SLD-Dashed
370
    18
100
AcDbLine
 10
13.03
 20
27.7691663541
 30
0.0
 11
13.03
 21
27.8050456342
 31
0.0
  0
LINE
  5
11A
330
1F
100
AcDbEntity
  8
SK3
  6
SLD-Dashed
370
    18
100
AcDbLine
 10
18.704611155
 20
-22.41
 30
0.0
 11
3.5452916241
 21
-22.41
 31
0.0
  0
LINE
  5
11B
330
1F
100
AcDbEntity
  8
SK3
  6
SLD-Dashed
370
    18
100
AcDbLine
 10
3.5452916241
 20
-22.785
 30
0.0
 11
18.704611155
 21
-22.785
 31
0.0
  0
LINE
  5
11C
330
1F
100
AcDbEntity
  8
SK3
  6
SLD-Dashed
370
    18
100
AcDbLine
 10
3.7
 20
24.83
 30
0.0
 11
18.55
 21
24.83
 31
0.0
  0
LINE
  5
11D
330
1F
100
AcDbEntity
  8
SK3
  6
SLD-Dashed
370
    18
100
AcDbLine
 10
18.55
 20
25.205
 30
0.0
 11
3.7
 21
25.205
 31
0.0
  0
LINE
  5
11E
330
1F
100
AcDbEntity
  8
SK3
  6
SLD-Dashed
370
    18
100
AcDbLine
 10
-23.85
 20
-7.9375
 30
0.0
 11
-23.85
 21
7.9375
 31
0.0
  0
LINE
  5
11F
330
1F
100
AcDbEntity
  8
SK3
  6
SLD-Dashed
370
    18
100
AcDbLine
 10
-24.565781221
 20
-6.74624
 30
0.0
 11
-24.565781221
 21
6.74624
 31
0.0
  0
LINE
  5
120
330
1F
100
AcDbEntity
  8
SK3
  6
SLD-Dashed
370
    18
100
AcDbLine
 10
53.775
 20
17.3
 30
0.0
 11
38.275
 21
17.3
 31
0.0
  0
LINE
  5
121
330
1F
100
AcDbEntity
  8
SK3
  6
SLD-Dashed
370
    18
100
AcDbLine
 10
52.4004
 20
17.3
 30
0.0
 11
39.663837042
 21
17.3
 31
0.0
  0
LINE
  5
122
330
1F
100
AcDbEntity
  8
SK3
  6
SLD-Dashed
370
    18
100
AcDbLine
 10
6.4
 20
20.13
 30
0.0
 11
15.8
 21
20.13
 31
0.0
  0
LINE
  5
123
330
1F
100
AcDbEntity
  8
SK3
  6
SLD-Dashed
370
    18
100
AcDbLine
 10
16.1
 20
20.43
 30
0.0
 11
6.1146709941
 21
20.43
 31
0.0
  0
LINE
  5
124
330
1F
100
AcDbEntity
  8
SK3
  6
SLD-Dashed
370
    18
100
AcDbLine
 10
6.1
 20
24.83
 30
0.0
 11
16.0853290059
 21
24.83
 31
0.0
  0
LINE
  5
125
330
1F
100
AcDbEntity
  8
SK3
  6
SLD-Dashed
370
    18
100
AcDbLine
 10
18.7047083759
 20
-22.785
 30
0.0
 11
3.545388845
 21
-22.785
 31
0.0
  0
LINE
  5
126
330
1F
100
AcDbEntity
  8
SK3
  6
SLD-Dashed
370
    18
100
AcDbLine
 10
3.545388845
 20
-22.41
 30
0.0
 11
18.7047083759
 21
-22.41
 31
0.0
  0
LINE
  5
127
330
1F
100
AcDbEntity
  8
SK3
  6
SLD-Dashed
370
    18
100
AcDbLine
 10
14.3760129465
 20
-30.2255814201
 30
0.0
 11
18.3
 21
-30.2255814201
 31
0.0
  0
LINE
  5
128
330
1F
100
AcDbEntity
  8
1
  6
SLD-Dashed
370
    18
100
AcDbLine
 10
12.28
 20
-26.9870635676
 30
0.0
 11
9.95
 21
-26.9870635676
 31
0.0
  0
LINE
  5
129
330
1F
100
AcDbEntity
  8
SK3
  6
SLD-Dashed
370
    18
100
AcDbLine
 10
3.95
 20
-30.2254693878
 30
0.0
 11
7.8540495334
 21
-30.2254693878
 31
0.0
  0
LINE
  5
12A
330
1F
100
AcDbEntity
  8
SK3
  6
SLD-Dashed
370
    18
100
AcDbLine
 10
3.545388845
 20
-22.785
 30
0.0
 11
3.545388845
 21
-29.8048552742
 31
0.0
  0
LINE
  5
12B
330
1F
100
AcDbEntity
  8
SK3
  6
SLD-Dashed
370
    18
100
AcDbLine
 10
18.7047083759
 20
-29.8048664484
 30
0.0
 11
18.7047083759
 21
-22.785
 31
0.0
  0
LINE
  5
12C
330
1F
100
AcDbEntity
  8
SK3
  6
SLD-Dashed
370
    18
100
AcDbLine
 10
3.5452916241
 20
29.8048664484
 30
0.0
 11
3.5452916241
 21
25.5791202528
 31
0.0
  0
LINE
  5
12D
330
1F
100
AcDbEntity
  8
SK3
  6
SLD-Dashed
370
    18
100
AcDbLine
 10
7.8539870535
 20
30.2255814201
 30
0.0
 11
3.95
 21
30.2255814201
 31
0.0
  0
LINE
  5
12E
330
1F
100
AcDbEntity
  8
1
  6
SLD-Dashed
370
    18
100
AcDbLine
 10
12.28
 20
26.9870635676
 30
0.0
 11
9.95
 21
26.9870635676
 31
0.0
  0
LINE
  5
12F
330
1F
100
AcDbEntity
  8
SK3
  6
SLD-Dashed
370
    18
100
AcDbLine
 10
18.3
 20
30.2254693878
 30
0.0
 11
14.3759504666
 21
30.2254693878
 31
0.0
  0
LINE
  5
130
330
1F
100
AcDbEntity
  8
SK3
  6
SLD-Dashed
370
    18
100
AcDbLine
 10
18.704611155
 20
25.5789825872
 30
0.0
 11
18.704611155
 21
29.8048552742
 31
0.0
  0
LINE
  5
131
330
1F
100
AcDbEntity
  8
SK3
  6
SLD-Dashed
370
    18
100
AcDbLine
 10
3.3636512159
 20
8.8621689747
 30
0.0
 11
3.318030263
 21
8.4064415438
 31
0.0
  0
LINE
  5
132
330
1F
100
AcDbEntity
  8
SK3
  6
SLD-Dashed
370
    18
100
AcDbLine
 10
3.318030263
 20
8.4064415438
 30
0.0
 11
3.3436870381
 21
7.9771993347
 31
0.0
  0
LINE
  5
133
330
1F
100
AcDbEntity
  8
SK3
  6
SLD-Dashed
370
    18
100
AcDbLine
 10
3.3436870381
 20
7.9771993347
 30
0.0
 11
3.4391304627
 21
7.5993883444
 31
0.0
  0
LINE
  5
134
330
1F
100
AcDbEntity
  8
SK3
  6
SLD-Dashed
370
    18
100
AcDbLine
 10
3.4391304627
 20
7.5993883444
 30
0.0
 11
3.5988137118
 21
7.2949655742
 31
0.0
  0
LINE
  5
135
330
1F
100
AcDbEntity
  8
SK3
  6
SLD-Dashed
370
    18
100
AcDbLine
 10
3.5988137118
 20
7.2949655742
 30
0.0
 11
3.8134565755
 21
7.0816229692
 31
0.0
  0
LINE
  5
136
330
1F
100
AcDbEntity
  8
SK3
  6
SLD-Dashed
370
    18
100
AcDbLine
 10
3.8134565755
 20
7.0816229692
 30
0.0
 11
4.0705847906
 21
6.9717592259
 31
0.0
  0
LINE
  5
137
330
1F
100
AcDbEntity
  8
SK3
  6
SLD-Dashed
370
    18
100
AcDbLine
 10
4.0705847906
 20
6.9717592259
 30
0.0
 11
4.355255
 21
6.9717592259
 31
0.0
  0
LINE
  5
138
330
1F
100
AcDbEntity
  8
SK3
  6
SLD-Dashed
370
    18
100
AcDbLine
 10
4.355255
 20
6.9717592259
 30
0.0
 11
4.6509232059
 21
7.0816229692
 31
0.0
  0
LINE
  5
139
330
1F
100
AcDbEntity
  8
SK3
  6
SLD-Dashed
370
    18
100
AcDbLine
 10
4.6509232059
 20
7.0816229692
 30
0.0
 11
4.9404062467
 21
7.2949655742
 31
0.0
  0
LINE
  5
13A
330
1F
100
AcDbEntity
  8
SK3
  6
SLD-Dashed
370
    18
100
AcDbLine
 10
4.9404062467
 20
7.2949655742
 30
0.0
 11
5.2068804204
 21
7.5993883444
 31
0.0
  0
LINE
  5
13B
330
1F
100
AcDbEntity
  8
SK3
  6
SLD-Dashed
370
    18
100
AcDbLine
 10
5.2068804204
 20
7.5993883444
 30
0.0
 11
5.4348592167
 21
7.9771993347
 31
0.0
  0
LINE
  5
13C
330
1F
100
AcDbEntity
  8
SK3
  6
SLD-Dashed
370
    18
100
AcDbLine
 10
5.4348592167
 20
7.9771993347
 30
0.0
 11
5.6110933365
 21
8.4064415438
 31
0.0
  0
LINE
  5
13D
330
1F
100
AcDbEntity
  8
SK3
  6
SLD-Dashed
370
    18
100
AcDbLine
 10
5.6110933365
 20
8.4064415438
 30
0.0
 11
5.7253406934
 21
8.8621689747
 31
0.0
  0
LINE
  5
13E
330
1F
100
AcDbEntity
  8
SK3
  6
SLD-Dashed
370
    18
100
AcDbLine
 10
5.7253406934
 20
8.8621689747
 30
0.0
 11
5.7709616463
 21
9.3178964056
 31
0.0
  0
LINE
  5
13F
330
1F
100
AcDbEntity
  8
SK3
  6
SLD-Dashed
370
    18
100
AcDbLine
 10
5.7709616463
 20
9.3178964056
 30
0.0
 11
5.7453048712
 21
9.7471386147
 31
0.0
  0
LINE
  5
140
330
1F
100
AcDbEntity
  8
SK3
  6
SLD-Dashed
370
    18
100
AcDbLine
 10
5.7453048712
 20
9.7471386147
 30
0.0
 11
5.6498614466
 21
10.124949605
 31
0.0
  0
LINE
  5
141
330
1F
100
AcDbEntity
  8
SK3
  6
SLD-Dashed
370
    18
100
AcDbLine
 10
5.6498614466
 20
10.124949605
 30
0.0
 11
5.4901781975
 21
10.4293723752
 31
0.0
  0
LINE
  5
142
330
1F
100
AcDbEntity
  8
SK3
  6
SLD-Dashed
370
    18
100
AcDbLine
 10
5.4901781975
 20
10.4293723752
 30
0.0
 11
5.2755353338
 21
10.6427149802
 31
0.0
  0
LINE
  5
143
330
1F
100
AcDbEntity
  8
SK3
  6
SLD-Dashed
370
    18
100
AcDbLine
 10
5.2755353338
 20
10.6427149802
 30
0.0
 11
5.0184071187
 21
10.7525787235
 31
0.0
  0
LINE
  5
144
330
1F
100
AcDbEntity
  8
SK3
  6
SLD-Dashed
370
    18
100
AcDbLine
 10
5.0184071187
 20
10.7525787235
 30
0.0
 11
4.7337369093
 21
10.7525787235
 31
0.0
  0
LINE
  5
145
330
1F
100
AcDbEntity
  8
SK3
  6
SLD-Dashed
370
    18
100
AcDbLine
 10
4.7337369093
 20
10.7525787235
 30
0.0
 11
4.4380687034
 21
10.6427149802
 31
0.0
  0
LINE
  5
146
330
1F
100
AcDbEntity
  8
SK3
  6
SLD-Dashed
370
    18
100
AcDbLine
 10
4.4380687034
 20
10.6427149802
 30
0.0
 11
4.1485856626
 21
10.4293723752
 31
0.0
  0
LINE
  5
147
330
1F
100
AcDbEntity
  8
SK3
  6
SLD-Dashed
370
    18
100
AcDbLine
 10
4.1485856626
 20
10.4293723752
 30
0.0
 11
3.8821114889
 21
10.124949605
 31
0.0
  0
LINE
  5
148
330
1F
100
AcDbEntity
  8
SK3
  6
SLD-Dashed
370
    18
100
AcDbLine
 10
3.8821114889
 20
10.124949605
 30
0.0
 11
3.6541326926
 21
9.7471386147
 31
0.0
  0
LINE
  5
149
330
1F
100
AcDbEntity
  8
SK3
  6
SLD-Dashed
370
    18
100
AcDbLine
 10
3.6541326926
 20
9.7471386147
 30
0.0
 11
3.4778985728
 21
9.3178964056
 31
0.0
  0
LINE
  5
14A
330
1F
100
AcDbEntity
  8
SK3
  6
SLD-Dashed
370
    18
100
AcDbLine
 10
3.4778985728
 20
9.3178964056
 30
0.0
 11
3.3636512159
 21
8.8621689747
 31
0.0
  0
LINE
  5
14B
330
1F
100
AcDbEntity
  8
SK3
  6
SLD-Dashed
370
    18
100
AcDbLine
 10
13.9872030677
 20
5.9198440145
 30
0.0
 11
14.1014504246
 21
6.3755714454
 31
0.0
  0
LINE
  5
14C
330
1F
100
AcDbEntity
  8
SK3
  6
SLD-Dashed
370
    18
100
AcDbLine
 10
14.1014504246
 20
6.3755714454
 30
0.0
 11
14.2776845444
 21
6.8048136545
 31
0.0
  0
LINE
  5
14D
330
1F
100
AcDbEntity
  8
SK3
  6
SLD-Dashed
370
    18
100
AcDbLine
 10
14.2776845444
 20
6.8048136545
 30
0.0
 11
14.5056633407
 21
7.1826246448
 31
0.0
  0
LINE
  5
14E
330
1F
100
AcDbEntity
  8
SK3
  6
SLD-Dashed
370
    18
100
AcDbLine
 10
14.5056633407
 20
7.1826246448
 30
0.0
 11
14.7721375144
 21
7.487047415
 31
0.0
  0
LINE
  5
14F
330
1F
100
AcDbEntity
  8
SK3
  6
SLD-Dashed
370
    18
100
AcDbLine
 10
14.7721375144
 20
7.487047415
 30
0.0
 11
15.0616205552
 21
7.70039002
 31
0.0
  0
LINE
  5
150
330
1F
100
AcDbEntity
  8
SK3
  6
SLD-Dashed
370
    18
100
AcDbLine
 10
15.0616205552
 20
7.70039002
 30
0.0
 11
15.3572887611
 21
7.8102537633
 31
0.0
  0
LINE
  5
151
330
1F
100
AcDbEntity
  8
SK3
  6
SLD-Dashed
370
    18
100
AcDbLine
 10
15.3572887611
 20
7.8102537633
 30
0.0
 11
15.6419589705
 21
7.8102537633
 31
0.0
  0
LINE
  5
152
330
1F
100
AcDbEntity
  8
SK3
  6
SLD-Dashed
370
    18
100
AcDbLine
 10
15.6419589705
 20
7.8102537633
 30
0.0
 11
15.8990871856
 21
7.70039002
 31
0.0
  0
LINE
  5
153
330
1F
100
AcDbEntity
  8
SK3
  6
SLD-Dashed
370
    18
100
AcDbLine
 10
15.8990871856
 20
7.70039002
 30
0.0
 11
16.1137300493
 21
7.487047415
 31
0.0
  0
LINE
  5
154
330
1F
100
AcDbEntity
  8
SK3
  6
SLD-Dashed
370
    18
100
AcDbLine
 10
16.1137300493
 20
7.487047415
 30
0.0
 11
16.2734132984
 21
7.1826246448
 31
0.0
  0
LINE
  5
155
330
1F
100
AcDbEntity
  8
SK3
  6
SLD-Dashed
370
    18
100
AcDbLine
 10
16.2734132984
 20
7.1826246448
 30
0.0
 11
16.3688567229
 21
6.8048136545
 31
0.0
  0
LINE
  5
156
330
1F
100
AcDbEntity
  8
SK3
  6
SLD-Dashed
370
    18
100
AcDbLine
 10
16.3688567229
 20
6.8048136545
 30
0.0
 11
16.394513498
 21
6.3755714454
 31
0.0
  0
LINE
  5
157
330
1F
100
AcDbEntity
  8
SK3
  6
SLD-Dashed
370
    18
100
AcDbLine
 10
16.394513498
 20
6.3755714454
 30
0.0
 11
16.3488925452
 21
5.9198440145
 31
0.0
  0
LINE
  5
158
330
1F
100
AcDbEntity
  8
SK3
  6
SLD-Dashed
370
    18
100
AcDbLine
 10
16.3488925452
 20
5.9198440145
 30
0.0
 11
16.2346451883
 21
5.4641165836
 31
0.0
  0
LINE
  5
159
330
1F
100
AcDbEntity
  8
SK3
  6
SLD-Dashed
370
    18
100
AcDbLine
 10
16.2346451883
 20
5.4641165836
 30
0.0
 11
16.0584110685
 21
5.0348743745
 31
0.0
  0
LINE
  5
15A
330
1F
100
AcDbEntity
  8
SK3
  6
SLD-Dashed
370
    18
100
AcDbLine
 10
16.0584110685
 20
5.0348743745
 30
0.0
 11
15.8304322722
 21
4.6570633842
 31
0.0
  0
LINE
  5
15B
330
1F
100
AcDbEntity
  8
SK3
  6
SLD-Dashed
370
    18
100
AcDbLine
 10
15.8304322722
 20
4.6570633842
 30
0.0
 11
15.5639580985
 21
4.352640614
 31
0.0
  0
LINE
  5
15C
330
1F
100
AcDbEntity
  8
SK3
  6
SLD-Dashed
370
    18
100
AcDbLine
 10
15.5639580985
 20
4.352640614
 30
0.0
 11
15.2744750576
 21
4.139298009
 31
0.0
  0
LINE
  5
15D
330
1F
100
AcDbEntity
  8
SK3
  6
SLD-Dashed
370
    18
100
AcDbLine
 10
15.2744750576
 20
4.139298009
 30
0.0
 11
14.9788068518
 21
4.0294342657
 31
0.0
  0
LINE
  5
15E
330
1F
100
AcDbEntity
  8
SK3
  6
SLD-Dashed
370
    18
100
AcDbLine
 10
14.9788068518
 20
4.0294342657
 30
0.0
 11
14.6941366424
 21
4.0294342657
 31
0.0
  0
LINE
  5
15F
330
1F
100
AcDbEntity
  8
SK3
  6
SLD-Dashed
370
    18
100
AcDbLine
 10
14.6941366424
 20
4.0294342657
 30
0.0
 11
14.4370084273
 21
4.139298009
 31
0.0
  0
LINE
  5
160
330
1F
100
AcDbEntity
  8
SK3
  6
SLD-Dashed
370
    18
100
AcDbLine
 10
14.4370084273
 20
4.139298009
 30
0.0
 11
14.2223655636
 21
4.352640614
 31
0.0
  0
LINE
  5
161
330
1F
100
AcDbEntity
  8
SK3
  6
SLD-Dashed
370
    18
100
AcDbLine
 10
14.2223655636
 20
4.352640614
 30
0.0
 11
14.0626823145
 21
4.6570633842
 31
0.0
  0
LINE
  5
162
330
1F
100
AcDbEntity
  8
SK3
  6
SLD-Dashed
370
    18
100
AcDbLine
 10
14.0626823145
 20
4.6570633842
 30
0.0
 11
13.9672388899
 21
5.0348743745
 31
0.0
  0
LINE
  5
163
330
1F
100
AcDbEntity
  8
SK3
  6
SLD-Dashed
370
    18
100
AcDbLine
 10
13.9672388899
 20
5.0348743745
 30
0.0
 11
13.9415821148
 21
5.4641165836
 31
0.0
  0
LINE
  5
164
330
1F
100
AcDbEntity
  8
SK3
  6
SLD-Dashed
370
    18
100
AcDbLine
 10
13.9415821148
 20
5.4641165836
 30
0.0
 11
13.9872030677
 21
5.9198440145
 31
0.0
  0
LINE
  5
165
330
1F
100
AcDbEntity
  8
SK3
  6
SLD-Dashed
370
    18
100
AcDbLine
 10
3.3100253255
 20
8.8686354442
 30
0.0
 11
3.4272021018
 21
9.3360481938
 31
0.0
  0
LINE
  5
166
330
1F
100
AcDbEntity
  8
SK3
  6
SLD-Dashed
370
    18
100
AcDbLine
 10
3.4272021018
 20
9.3360481938
 30
0.0
 11
3.6079550452
 21
9.7762966134
 31
0.0
  0
LINE
  5
167
330
1F
100
AcDbEntity
  8
SK3
  6
SLD-Dashed
370
    18
100
AcDbLine
 10
3.6079550452
 20
9.7762966134
 30
0.0
 11
3.8417794516
 21
10.1637950651
 31
0.0
  0
LINE
  5
168
330
1F
100
AcDbEntity
  8
SK3
  6
SLD-Dashed
370
    18
100
AcDbLine
 10
3.8417794516
 20
10.1637950651
 30
0.0
 11
4.1150862965
 21
10.4760235473
 31
0.0
  0
LINE
  5
169
330
1F
100
AcDbEntity
  8
SK3
  6
SLD-Dashed
370
    18
100
AcDbLine
 10
4.1150862965
 20
10.4760235473
 30
0.0
 11
4.4119919794
 21
10.6948364755
 31
0.0
  0
LINE
  5
16A
330
1F
100
AcDbEntity
  8
SK3
  6
SLD-Dashed
370
    18
100
AcDbLine
 10
4.4119919794
 20
10.6948364755
 30
0.0
 11
4.7152414213
 21
10.8075172378
 31
0.0
  0
LINE
  5
16B
330
1F
100
AcDbEntity
  8
SK3
  6
SLD-Dashed
370
    18
100
AcDbLine
 10
4.7152414213
 20
10.8075172378
 30
0.0
 11
5.0072108668
 21
10.8075172378
 31
0.0
  0
LINE
  5
16C
330
1F
100
AcDbEntity
  8
SK3
  6
SLD-Dashed
370
    18
100
AcDbLine
 10
5.0072108668
 20
10.8075172378
 30
0.0
 11
5.2709321131
 21
10.6948364755
 31
0.0
  0
LINE
  5
16D
330
1F
100
AcDbEntity
  8
SK3
  6
SLD-Dashed
370
    18
100
AcDbLine
 10
5.2709321131
 20
10.6948364755
 30
0.0
 11
5.4910786399
 21
10.4760235473
 31
0.0
  0
LINE
  5
16E
330
1F
100
AcDbEntity
  8
SK3
  6
SLD-Dashed
370
    18
100
AcDbLine
 10
5.4910786399
 20
10.4760235473
 30
0.0
 11
5.6548563313
 21
10.1637950651
 31
0.0
  0
LINE
  5
16F
330
1F
100
AcDbEntity
  8
SK3
  6
SLD-Dashed
370
    18
100
AcDbLine
 10
5.6548563313
 20
10.1637950651
 30
0.0
 11
5.7527470232
 21
9.7762966134
 31
0.0
  0
LINE
  5
170
330
1F
100
AcDbEntity
  8
SK3
  6
SLD-Dashed
370
    18
100
AcDbLine
 10
5.7527470232
 20
9.7762966134
 30
0.0
 11
5.7790616643
 21
9.3360481938
 31
0.0
  0
LINE
  5
171
330
1F
100
AcDbEntity
  8
SK3
  6
SLD-Dashed
370
    18
100
AcDbLine
 10
5.7790616643
 20
9.3360481938
 30
0.0
 11
5.7322709434
 21
8.8686354442
 31
0.0
  0
LINE
  5
172
330
1F
100
AcDbEntity
  8
SK3
  6
SLD-Dashed
370
    18
100
AcDbLine
 10
5.7322709434
 20
8.8686354442
 30
0.0
 11
5.6150941671
 21
8.4012226946
 31
0.0
  0
LINE
  5
173
330
1F
100
AcDbEntity
  8
SK3
  6
SLD-Dashed
370
    18
100
AcDbLine
 10
5.6150941671
 20
8.4012226946
 30
0.0
 11
5.4343412237
 21
7.960974275
 31
0.0
  0
LINE
  5
174
330
1F
100
AcDbEntity
  8
SK3
  6
SLD-Dashed
370
    18
100
AcDbLine
 10
5.4343412237
 20
7.960974275
 30
0.0
 11
5.2005168173
 21
7.5734758234
 31
0.0
  0
LINE
  5
175
330
1F
100
AcDbEntity
  8
SK3
  6
SLD-Dashed
370
    18
100
AcDbLine
 10
5.2005168173
 20
7.5734758234
 30
0.0
 11
4.9272099725
 21
7.2612473412
 31
0.0
  0
LINE
  5
176
330
1F
100
AcDbEntity
  8
SK3
  6
SLD-Dashed
370
    18
100
AcDbLine
 10
4.9272099725
 20
7.2612473412
 30
0.0
 11
4.6303042896
 21
7.0424344129
 31
0.0
  0
LINE
  5
177
330
1F
100
AcDbEntity
  8
SK3
  6
SLD-Dashed
370
    18
100
AcDbLine
 10
4.6303042896
 20
7.0424344129
 30
0.0
 11
4.3270548477
 21
6.9297536506
 31
0.0
  0
LINE
  5
178
330
1F
100
AcDbEntity
  8
SK3
  6
SLD-Dashed
370
    18
100
AcDbLine
 10
4.3270548477
 20
6.9297536506
 30
0.0
 11
4.0350854021
 21
6.9297536506
 31
0.0
  0
LINE
  5
179
330
1F
100
AcDbEntity
  8
SK3
  6
SLD-Dashed
370
    18
100
AcDbLine
 10
4.0350854021
 20
6.9297536506
 30
0.0
 11
3.7713641558
 21
7.0424344129
 31
0.0
  0
LINE
  5
17A
330
1F
100
AcDbEntity
  8
SK3
  6
SLD-Dashed
370
    18
100
AcDbLine
 10
3.7713641558
 20
7.0424344129
 30
0.0
 11
3.551217629
 21
7.2612473412
 31
0.0
  0
LINE
  5
17B
330
1F
100
AcDbEntity
  8
SK3
  6
SLD-Dashed
370
    18
100
AcDbLine
 10
3.551217629
 20
7.2612473412
 30
0.0
 11
3.3874399376
 21
7.5734758234
 31
0.0
  0
LINE
  5
17C
330
1F
100
AcDbEntity
  8
SK3
  6
SLD-Dashed
370
    18
100
AcDbLine
 10
3.3874399376
 20
7.5734758234
 30
0.0
 11
3.2895492458
 21
7.960974275
 31
0.0
  0
LINE
  5
17D
330
1F
100
AcDbEntity
  8
SK3
  6
SLD-Dashed
370
    18
100
AcDbLine
 10
3.2895492458
 20
7.960974275
 30
0.0
 11
3.2632346046
 21
8.4012226946
 31
0.0
  0
LINE
  5
17E
330
1F
100
AcDbEntity
  8
SK3
  6
SLD-Dashed
370
    18
100
AcDbLine
 10
3.2632346046
 20
8.4012226946
 30
0.0
 11
3.3100253255
 21
8.8686354442
 31
0.0
  0
LINE
  5
17F
330
1F
100
AcDbEntity
  8
SK3
  6
SLD-Dashed
370
    18
100
AcDbLine
 10
3.9873194828
 20
-6.941194921
 30
0.0
 11
3.95
 21
-6.9515310164
 31
0.0
  0
LINE
  5
180
330
1F
100
AcDbEntity
  8
SK3
  6
SLD-Dashed
370
    18
100
AcDbLine
 10
5.06497889
 20
-10.7414234849
 30
0.0
 11
15.6885307418
 21
-7.7990985247
 31
0.0
  0
LINE
  5
181
330
1F
100
AcDbEntity
  8
SK3
  6
SLD-Dashed
370
    18
100
AcDbLine
 10
14.6475648711
 20
-4.0405895043
 30
0.0
 11
4.0240130193
 21
-6.9829144645
 31
0.0
  0
LINE
  5
182
330
1F
100
AcDbEntity
  8
SK3
  6
SLD-Dashed
370
    18
100
AcDbLine
 10
-68.25
 20
-9.14
 30
0.0
 11
-66.6824940192
 21
-8.235
 31
0.0
  0
LINE
  5
183
330
1F
100
AcDbEntity
  8
SK3
  6
SLD-Dashed
370
    18
100
AcDbLine
 10
-66.6824940192
 20
8.235
 30
0.0
 11
-68.25
 21
9.14
 31
0.0
  0
LINE
  5
184
330
1F
100
AcDbEntity
  8
SK3
  6
SLD-Dashed
370
    18
100
AcDbLine
 10
69.85
 20
8.5148502692
 30
0.0
 11
68.85
 21
7.9375
 31
0.0
  0
LINE
  5
185
330
1F
100
AcDbEntity
  8
SK3
  6
SLD-Dashed
370
    18
100
AcDbLine
 10
68.85
 20
-7.9375
 30
0.0
 11
69.85
 21
-8.5148502692
 31
0.0
  0
LINE
  5
186
330
1F
100
AcDbEntity
  8
SK3
  6
SLD-Dashed
370
    18
100
AcDbLine
 10
-66.6824940192
 20
-8.235
 30
0.0
 11
-63.48
 21
-8.235
 31
0.0
  0
LINE
  5
187
330
1F
100
AcDbEntity
  8
SK3
  6
SLD-Dashed
370
    18
100
AcDbLine
 10
-63.48
 20
8.235
 30
0.0
 11
-66.6824940192
 21
8.235
 31
0.0
  0
LINE
  5
188
330
1F
100
AcDbEntity
  8
SK3
  6
SLD-Dashed
370
    18
100
AcDbLine
 10
-63.48
 20
-8.235
 30
0.0
 11
-62.6204640132
 21
-6.74624
 31
0.0
  0
LINE
  5
189
330
1F
100
AcDbEntity
  8
SK3
  6
SLD-Dashed
370
    18
100
AcDbLine
 10
-62.6204640132
 20
6.74624
 30
0.0
 11
-63.48
 21
8.235
 31
0.0
  0
LINE
  5
18A
330
1F
100
AcDbEntity
  8
SK3
  6
SLD-Dashed
370
    18
100
AcDbLine
 10
21.64
 20
8.13
 30
0.0
 11
-21.85
 21
8.13
 31
0.0
  0
LINE
  5
18B
330
1F
100
AcDbEntity
  8
SK3
  6
SLD-Dashed
370
    18
100
AcDbLine
 10
-21.85
 20
-8.13
 30
0.0
 11
21.64
 21
-8.13
 31
0.0
  0
LINE
  5
18C
330
1F
100
AcDbEntity
  8
SK3
  6
SLD-Dashed
370
    18
100
AcDbLine
 10
39.6496
 20
7.9375
 30
0.0
 11
21.8398593255
 21
7.9375
 31
0.0
  0
LINE
  5
18D
330
1F
100
AcDbEntity
  8
SK3
  6
SLD-Dashed
370
    18
100
AcDbLine
 10
68.85
 20
7.9375
 30
0.0
 11
52.3876802748
 21
7.9375
 31
0.0
  0
LINE
  5
18E
330
1F
100
AcDbEntity
  8
SK3
  6
SLD-Dashed
370
    18
100
AcDbLine
 10
21.8398593255
 20
-7.9375
 30
0.0
 11
68.85
 21
-7.9375
 31
0.0
  0
LINE
  5
18F
330
1F
100
AcDbEntity
  8
SK3
  6
SLD-Dashed
370
    18
100
AcDbLine
 10
-22.0498593255
 20
7.9375
 30
0.0
 11
-23.85
 21
7.9375
 31
0.0
  0
LINE
  5
190
330
1F
100
AcDbEntity
  8
SK3
  6
SLD-Dashed
370
    18
100
AcDbLine
 10
-23.85
 20
-7.9375
 30
0.0
 11
-22.0498593255
 21
-7.9375
 31
0.0
  0
LINE
  5
191
330
1F
100
AcDbEntity
  8
SK3
  6
SLD-Dashed
370
    18
100
AcDbLine
 10
-23.85
 20
7.9375
 30
0.0
 11
-24.565781221
 21
6.74624
 31
0.0
  0
LINE
  5
192
330
1F
100
AcDbEntity
  8
SK3
  6
SLD-Dashed
370
    18
100
AcDbLine
 10
-24.565781221
 20
-6.74624
 30
0.0
 11
-23.85
 21
-7.9375
 31
0.0
  0
LINE
  5
193
330
1F
100
AcDbEntity
  8
SK3
  6
SLD-Dashed
370
    18
100
AcDbLine
 10
38.275
 20
19.05
 30
0.0
 11
38.275
 21
17.3
 31
0.0
  0
LINE
  5
194
330
1F
100
AcDbEntity
  8
SK3
  6
SLD-Dashed
370
    18
100
AcDbLine
 10
53.775
 20
17.3
 30
0.0
 11
53.775
 21
19.05
 31
0.0
  0
LINE
  5
195
330
1F
100
AcDbEntity
  8
SK3
  6
SLD-Dashed
370
    18
100
AcDbLine
 10
-62.6204640132
 20
-6.74624
 30
0.0
 11
-24.565781221
 21
-6.74624
 31
0.0
  0
LINE
  5
196
330
1F
100
AcDbEntity
  8
SK3
  6
SLD-Dashed
370
    18
100
AcDbLine
 10
-24.565781221
 20
6.74624
 30
0.0
 11
-62.6204640132
 21
6.74624
 31
0.0
  0
LINE
  5
197
330
1F
100
AcDbEntity
  8
SK3
  6
SLD-Dashed
370
    18
100
AcDbLine
 10
39.6496
 20
17.3
 30
0.0
 11
39.6496
 21
7.9375
 31
0.0
  0
LINE
  5
198
330
1F
100
AcDbEntity
  8
SK3
  6
SLD-Dashed
370
    18
100
AcDbLine
 10
52.4004
 20
7.9272961207
 30
0.0
 11
52.4004
 21
17.3
 31
0.0
  0
LINE
  5
199
330
1F
100
AcDbEntity
  8
SK3
  6
SLD-Dashed
370
    18
100
AcDbLine
 10
6.1
 20
24.83
 30
0.0
 11
6.1
 21
20.43
 31
0.0
  0
LINE
  5
19A
330
1F
100
AcDbEntity
  8
SK3
  6
SLD-Dashed
370
    18
100
AcDbLine
 10
16.1
 20
20.43
 30
0.0
 11
16.1
 21
24.83
 31
0.0
  0
LINE
  5
19B
330
1F
100
AcDbEntity
  8
SK3
  6
SLD-Dashed
370
    18
100
AcDbLine
 10
4.0240130193
 20
6.9829144645
 30
0.0
 11
14.6475648711
 21
4.0405895043
 31
0.0
  0
LINE
  5
19C
330
1F
100
AcDbEntity
  8
SK3
  6
SLD-Dashed
370
    18
100
AcDbLine
 10
15.6885307418
 20
7.7990985247
 30
0.0
 11
5.06497889
 21
10.7414234849
 31
0.0
  0
LINE
  5
19D
330
1F
100
AcDbEntity
  8
SK3
  6
SLD-Dashed
370
    18
100
AcDbLine
 10
3.95
 20
6.9515310164
 30
0.0
 11
3.9873194828
 21
6.941194921
 31
0.0
  0
LINE
  5
19E
330
1F
100
AcDbEntity
  8
SK3
  6
SLD-Solid
370
    18
100
AcDbLine
 10
-38.2499992847
 20
7.9375002533
 30
0.0
 11
-63.3082389832
 21
7.9375002533
 31
0.0
  0
LINE
  5
19F
330
1F
100
AcDbEntity
  8
SK3
  6
SLD-Solid
370
    18
100
AcDbLine
 10
-63.3082389832
 20
-7.9375002533
 30
0.0
 11
-38.2499992847
 21
-7.9375002533
 31
0.0
  0
LINE
  5
1A0
330
1F
100
AcDbEntity
  8
SK3
  6
SLD-Solid
370
    18
100
AcDbLine
 10
-38.2499992847
 20
0.0
 30
0.0
 11
-38.2499992847
 21
-1.1557092657
 31
0.0
  0
LINE
  5
1A1
330
1F
100
AcDbEntity
  8
SK3
  6
SLD-Solid
370
    18
100
AcDbLine
 10
-38.2500322123
 20
-1.1557092657
 30
0.0
 11
-38.2499992847
 21
-2.2867866792
 31
0.0
  0
LINE
  5
1A2
330
1F
100
AcDbEntity
  8
SK3
  6
SLD-Solid
370
    18
100
AcDbLine
 10
-38.2499992847
 20
-2.2867866792
 30
0.0
 11
-38.2499992847
 21
-3.3691250719
 31
0.0
  0
LINE
  5
1A3
330
1F
100
AcDbEntity
  8
SK3
  6
SLD-Solid
370
    18
100
AcDbLine
 10
-38.2499992847
 20
-3.3691250719
 30
0.0
 11
-38.2499992847
 21
-4.3796566315
 31
0.0
  0
LINE
  5
1A4
330
1F
100
AcDbEntity
  8
SK3
  6
SLD-Solid
370
    18
100
AcDbLine
 10
-38.2499992847
 20
-4.3796566315
 30
0.0
 11
-38.2499992847
 21
-5.2968431264
 31
0.0
  0
LINE
  5
1A5
330
1F
100
AcDbEntity
  8
SK3
  6
SLD-Solid
370
    18
100
AcDbLine
 10
-38.2499992847
 20
-5.2968431264
 30
0.0
 11
-38.2499992847
 21
-6.1011365615
 31
0.0
  0
LINE
  5
1A6
330
1F
100
AcDbEntity
  8
SK3
  6
SLD-Solid
370
    18
100
AcDbLine
 10
-38.2499992847
 20
-6.1011365615
 30
0.0
 11
-38.2499992847
 21
-6.7753950134
 31
0.0
  0
LINE
  5
1A7
330
1F
100
AcDbEntity
  8
SK3
  6
SLD-Solid
370
    18
100
AcDbLine
 10
-38.2499992847
 20
-6.7753950134
 30
0.0
 11
-38.2499992847
 21
-7.3052477092
 31
0.0
  0
LINE
  5
1A8
330
1F
100
AcDbEntity
  8
SK3
  6
SLD-Solid
370
    18
100
AcDbLine
 10
-38.2499992847
 20
-7.3052477092
 30
0.0
 11
-38.2499992847
 21
-7.6794018969
 31
0.0
  0
LINE
  5
1A9
330
1F
100
AcDbEntity
  8
SK3
  6
SLD-Solid
370
    18
100
AcDbLine
 10
-38.2499992847
 20
-7.6794018969
 30
0.0
 11
-38.2499992847
 21
-7.8898826614
 31
0.0
  0
LINE
  5
1AA
330
1F
100
AcDbEntity
  8
SK3
  6
SLD-Solid
370
    18
100
AcDbLine
 10
-38.2499992847
 20
-7.8898826614
 30
0.0
 11
-38.2499992847
 21
-7.9375002533
 31
0.0
  0
LINE
  5
1AB
330
1F
100
AcDbEntity
  8
SK3
  6
SLD-Solid
370
    18
100
AcDbLine
 10
-38.2500322123
 20
7.9375002533
 30
0.0
 11
-38.2499992847
 21
7.8898826614
 31
0.0
  0
LINE
  5
1AC
330
1F
100
AcDbEntity
  8
SK3
  6
SLD-Solid
370
    18
100
AcDbLine
 10
-38.2499992847
 20
7.8898826614
 30
0.0
 11
-38.2499992847
 21
7.6794018969
 31
0.0
  0
LINE
  5
1AD
330
1F
100
AcDbEntity
  8
SK3
  6
SLD-Solid
370
    18
100
AcDbLine
 10
-38.2499992847
 20
7.6794018969
 30
0.0
 11
-38.2499992847
 21
7.3052477092
 31
0.0
  0
LINE
  5
1AE
330
1F
100
AcDbEntity
  8
SK3
  6
SLD-Solid
370
    18
100
AcDbLine
 10
-38.2499992847
 20
7.3052477092
 30
0.0
 11
-38.2499992847
 21
6.7753950134
 31
0.0
  0
LINE
  5
1AF
330
1F
100
AcDbEntity
  8
SK3
  6
SLD-Solid
370
    18
100
AcDbLine
 10
-38.2499992847
 20
6.7753950134
 30
0.0
 11
-38.2499992847
 21
6.1011365615
 31
0.0
  0
LINE
  5
1B0
330
1F
100
AcDbEntity
  8
SK3
  6
SLD-Solid
370
    18
100
AcDbLine
 10
-38.2499992847
 20
6.1011365615
 30
0.0
 11
-38.2499992847
 21
5.2968431264
 31
0.0
  0
LINE
  5
1B1
330
1F
100
AcDbEntity
  8
SK3
  6
SLD-Solid
370
    18
100
AcDbLine
 10
-38.2499992847
 20
5.2968431264
 30
0.0
 11
-38.2499992847
 21
4.3796566315
 31
0.0
  0
LINE
  5
1B2
330
1F
100
AcDbEntity
  8
SK3
  6
SLD-Solid
370
    18
100
AcDbLine
 10
-38.2499992847
 20
4.3796566315
 30
0.0
 11
-38.2499992847
 21
3.3691250719
 31
0.0
  0
LINE
  5
1B3
330
1F
100
AcDbEntity
  8
SK3
  6
SLD-Solid
370
    18
100
AcDbLine
 10
-38.2499992847
 20
3.3691250719
 30
0.0
 11
-38.2499992847
 21
2.2867866792
 31
0.0
  0
LINE
  5
1B4
330
1F
100
AcDbEntity
  8
SK3
  6
SLD-Solid
370
    18
100
AcDbLine
 10
-38.2499992847
 20
2.2867866792
 30
0.0
 11
-38.2499992847
 21
1.1557092657
 31
0.0
  0
LINE
  5
1B5
330
1F
100
AcDbEntity
  8
SK3
  6
SLD-Solid
370
    18
100
AcDbLine
 10
-38.2499992847
 20
1.1557092657
 30
0.0
 11
-38.2499992847
 21
0.0
 31
0.0
  0
LINE
  5
1B6
330
1F
100
AcDbEntity
  8
SK3
  6
SLD-Solid
370
    18
100
AcDbLine
 10
53.1687512994
 20
7.9294200987
 30
0.0
 11
53.1687512994
 21
17.3000004143
 31
0.0
  0
LINE
  5
1B7
330
1F
100
AcDbEntity
  8
SK3
  6
SLD-Solid
370
    18
100
AcDbLine
 10
38.8812497258
 20
17.3000004143
 30
0.0
 11
38.8812497258
 21
7.9294200987
 31
0.0
  0
LINE
  5
1B8
330
1F
100
AcDbEntity
  8
SK3
  6
SLD-Solid
370
    18
100
AcDbLine
 10
52.6394471526
 20
7.4649658054
 30
0.0
 11
52.6825785637
 21
7.5029400177
 31
0.0
  0
LINE
  5
1B9
330
1F
100
AcDbEntity
  8
4
  6
SLD-Center
370
    18
100
AcDbLine
 10
69.0080906633
 20
0.0
 30
0.0
 11
0.2923314823
 21
0.0
 31
0.0
  0
LINE
  5
1BA
330
1F
100
AcDbEntity
  8
4
  6
SLD-Center
370
    18
100
AcDbLine
 10
46.025
 20
5.9375
 30
0.0
 11
46.025
 21
19.3
 31
0.0
  0
LINE
  5
1BB
330
1F
100
AcDbEntity
  8
SK4
  6
SLD-Center
370
    18
100
AcDbLine
 10
-68.9677109398
 20
0.0
 30
0.0
 11
69.85
 21
0.0
 31
0.0
  0
LINE
  5
1BC
330
1F
100
AcDbEntity
  8
81
370
    18
100
AcDbLine
 10
69.85
 20
0.0
 30
0.0
 11
73.3855339059
 21
3.5355339059
 31
0.0
  0
LINE
  5
1BD
330
1F
100
AcDbEntity
  8
81
370
    18
100
AcDbLine
 10
69.85
 20
0.0
 30
0.0
 11
66.3144660941
 21
-3.5355339059
 31
0.0
  0
LINE
  5
1BE
330
1F
100
AcDbEntity
  8
81
370
    18
100
AcDbLine
 10
69.85
 20
0.0
 30
0.0
 11
66.3144660941
 21
3.5355339059
 31
0.0
  0
LINE
  5
1BF
330
1F
100
AcDbEntity
  8
81
100
AcDbLine
 10
69.85
 20
0.0
 30
0.0
 11
79.85
 21
0.0
 31
0.0
  0
LINE
  5
1C0
330
1F
100
AcDbEntity
  8
81
370
    18
100
AcDbLine
 10
69.85
 20
0.0
 30
0.0
 11
73.3855339059
 21
-3.5355339059
 31
0.0
  0
LINE
  5
1C1
330
1F
100
AcDbEntity
  8
80
370
    18
100
AcDbLine
 10
0.0
 20
0.0
 30
0.0
 11
-3.5355339059
 21
-3.5355339059
 31
0.0
  0
LINE
  5
1C2
330
1F
100
AcDbEntity
  8
80
370
    18
100
AcDbLine
 10
0.0
 20
0.0
 30
0.0
 11
3.5355339059
 21
3.5355339059
 31
0.0
  0
LINE
  5
1C3
330
1F
100
AcDbEntity
  8
80
370
    18
100
AcDbLine
 10
0.0
 20
0.0
 30
0.0
 11
-3.5355339059
 21
3.5355339059
 31
0.0
  0
LINE
  5
1C4
330
1F
100
AcDbEntity
  8
80
370
    18
100
AcDbLine
 10
0.0
 20
0.0
 30
0.0
 11
-10.0
 21
0.0
 31
0.0
  0
LINE
  5
1C5
330
1F
100
AcDbEntity
  8
80
370
    18
100
AcDbLine
 10
0.0
 20
0.0
 30
0.0
 11
3.5355339059
 21
-3.5355339059
 31
0.0
  0
ARC
  5
1C6
330
1F
100
AcDbEntity
  8
1
  6
SLD-Solid
370
    25
100
AcDbCircle
 10
19.812
 20
-22.987
 30
0.0
 40
0.7620000000000218
100
AcDbArc
 50
90.0
 51
130.8138510538
  0
ARC
  5
1C7
330
1F
100
AcDbEntity
  8
1
  6
SLD-Solid
370
    25
100
AcDbCircle
 10
19.812
 20
22.987
 30
0.0
 40
0.7620000000000005
100
AcDbArc
 50
180.0
 51
270.0
  0
ARC
  5
1C8
330
1F
100
AcDbEntity
  8
1
  6
SLD-Solid
370
    25
100
AcDbCircle
 10
2.45
 20
22.79
 30
0.0
 40
0.7500000000000004
100
AcDbArc
 50
245.0
 51
0.0
  0
ARC
  5
1C9
330
1F
100
AcDbEntity
  8
1
  6
SLD-Solid
370
    25
100
AcDbCircle
 10
2.45
 20
-22.79
 30
0.0
 40
0.7500000000000012
100
AcDbArc
 50
30.4400371691
 51
115.0
  0
ARC
  5
1CA
330
1F
100
AcDbEntity
  8
1
  6
SLD-Solid
370
    25
100
AcDbCircle
 10
34.288
 20
-21.463
 30
0.0
 40
0.7619999999999933
100
AcDbArc
 50
270.0
 51
0.0
  0
ARC
  5
1CB
330
1F
100
AcDbEntity
  8
1
  6
SLD-Solid
370
    25
100
AcDbCircle
 10
34.288
 20
21.463
 30
0.0
 40
0.7620000000000147
100
AcDbArc
 50
0.0
 51
90.0
  0
ARC
  5
1CC
330
1F
100
AcDbEntity
  8
1
  6
SLD-Solid
370
    25
100
AcDbCircle
 10
35.812
 20
-19.812
 30
0.0
 40
0.7620000000000147
100
AcDbArc
 50
90.0
 51
180.0
  0
ARC
  5
1CD
330
1F
100
AcDbEntity
  8
1
  6
SLD-Solid
370
    25
100
AcDbCircle
 10
35.812
 20
19.812
 30
0.0
 40
0.7620000000000147
100
AcDbArc
 50
180.0
 51
270.0
  0
ARC
  5
1CE
330
1F
100
AcDbEntity
  8
SK1
  6
SLD-Solid
370
    25
100
AcDbCircle
 10
-66.95
 20
11.1476148288
 30
0.0
 40
1.299999999999997
100
AcDbArc
 50
98.2972222222
 51
180.0
  0
ARC
  5
1CF
330
1F
100
AcDbEntity
  8
SK1
  6
SLD-Solid
370
    25
100
AcDbCircle
 10
-66.95
 20
-11.1476148288
 30
0.0
 40
1.300000000000006
100
AcDbArc
 50
180.0
 51
261.7027777778
  0
ARC
  5
1D0
330
1F
100
AcDbEntity
  8
1
  6
SLD-Solid
370
    25
100
AcDbCircle
 10
46.0246341692
 20
37.1092370936
 30
0.0
 40
19.6517906095144
100
AcDbArc
 50
246.7747155186
 51
293.1850249916
  0
ARC
  5
1D1
330
1F
100
AcDbEntity
  8
SK3
  6
SLD-Dashed
370
    18
100
AcDbCircle
 10
21.64
 20
7.93
 30
0.0
 40
0.2000000000000348
100
AcDbArc
 50
2.1490956269
 51
90.0
  0
CIRCLE
  5
1D2
330
1F
100
AcDbEntity
  8
81
370
    18
100
AcDbCircle
 10
69.85
 20
0.0
 30
0.0
 40
2.499999999999984
  0
CIRCLE
  5
1D3
330
1F
100
AcDbEntity
  8
80
370
    18
100
AcDbCircle
 10
0.0
 20
0.0
 30
0.0
 40
2.500000000000009
  0
ARC
  5
1D4
330
1F
100
AcDbEntity
  8
SK3
  6
SLD-Dashed
370
    18
100
AcDbCircle
 10
21.64
 20
-7.93
 30
0.0
 40
0.2000000000000353
100
AcDbArc
 50
270.0
 51
357.8509043731
  0
ARC
  5
1D5
330
1F
100
AcDbEntity
  8
SK3
  6
SLD-Dashed
370
    18
100
AcDbCircle
 10
-21.85
 20
7.93
 30
0.0
 40
0.2000000000000104
100
AcDbArc
 50
90.0
 51
177.8509043731
  0
ARC
  5
1D6
330
1F
100
AcDbEntity
  8
SK3
  6
SLD-Dashed
370
    18
100
AcDbCircle
 10
-21.85
 20
-7.93
 30
0.0
 40
0.2000000000000109
100
AcDbArc
 50
182.1490956269
 51
270.0
  0
ARC
  5
1D7
330
1F
100
AcDbEntity
  8
1
370
    18
100
AcDbCircle
 10
46.02496519
 20
-40.4828437655
 30
0.0
 40
22.69260745165514
100
AcDbArc
 50
70.8371304747
 51
109.1693795018
  0
SPLINE
  5
1D8
330
1F
100
AcDbEntity
  8
1
  6
SLD-Solid
370
    25
100
AcDbSpline
210
0.0
220
0.0
230
1.0
 70
     8
 71
     3
 72
    16
 73
    12
 74
     0
 42
0.000000001
 43
0.00000001
 40
0.0
 40
0.0
 40
0.0
 40
0.0
 40
0.0695972585631702
 40
0.1233277320974721
 40
0.247039555460377
 40
0.370625409937532
 40
0.4955039070586293
 40
0.6236892810562452
 40
0.7463896350927952
 40
0.874029172385884
 40
1.0
 40
1.0
 40
1.0
 40
1.0
 10
3.200000000000008
 20
-29.80486644841631
 30
0.0
 10
3.200840331068336
 20
-29.8321187437415
 30
0.0
 10
3.202329414503616
 20
-29.88041035531206
 30
0.0
 10
3.217237155250588
 20
-29.97610817340507
 30
0.0
 10
3.250688715768016
 20
-30.08991350869657
 30
0.0
 10
3.318652551688006
 20
-30.22007249881833
 30
0.0
 10
3.411627067179679
 20
-30.33622596976964
 30
0.0
 10
3.525709306310174
 20
-30.43184457715033
 30
0.0
 10
3.657379123027604
 20
-30.50320141671877
 30
0.0
 10
3.800029806285368
 20
-30.54921347619221
 30
0.0
 10
3.900229701070762
 20
-30.55502300820851
 30
0.0
 10
3.949999999999926
 20
-30.55790866138918
 30
0.0
  0
SPLINE
  5
1D9
330
1F
100
AcDbEntity
  8
1
  6
SLD-Solid
370
    25
100
AcDbSpline
210
0.0
220
0.0
230
1.0
 70
     8
 71
     3
 72
    18
 73
    14
 74
     0
 42
0.000000001
 43
0.00000001
 40
0.0
 40
0.0
 40
0.0
 40
0.0
 40
0.0628280480421825
 40
0.1260701253970792
 40
0.1897406253785904
 40
0.2538535710757105
 40
0.3764737521324676
 40
0.5046580328934662
 40
0.6294958758641306
 40
0.7530413720168776
 40
0.8767127000651272
 40
0.9303985995609487
 40
1.0
 40
1.0
 40
1.0
 40
1.0
 10
3.949999999999926
 20
30.55788999666612
 30
0.0
 10
3.925199676033192
 20
30.55717534525743
 30
0.0
 10
3.875435596934693
 20
30.55574133297283
 30
0.0
 10
3.801295881396189
 20
30.54413094373268
 30
0.0
 10
3.728175768565517
 20
30.5255510396399
 30
0.0
 10
3.635356745735146
 20
30.49149389245027
 30
0.0
 10
3.525704227685304
 20
30.43173903699992
 30
0.0
 10
3.411641971522852
 20
30.33624779546196
 30
0.0
 10
3.31865127043419
 20
30.22005039304356
 30
0.0
 10
3.250689072054496
 20
30.08990134371375
 30
0.0
 10
3.217240115096226
 20
29.97610524198124
 30
0.0
 10
3.202330512999678
 20
29.88040905934513
 30
0.0
 10
3.2008409355665
 20
29.83211788338435
 30
0.0
 10
3.199999999999998
 20
29.80485527419837
 30
0.0
  0
SPLINE
  5
1DA
330
1F
100
AcDbEntity
  8
1
  6
SLD-Solid
370
    25
100
AcDbSpline
210
0.0
220
0.0
230
1.0
 70
     8
 71
     3
 72
    18
 73
    14
 74
     0
 42
0.000000001
 43
0.00000001
 40
0.0
 40
0.0
 40
0.0
 40
0.0
 40
0.0627054734815585
 40
0.1258180026435944
 40
0.1893518955758989
 40
0.2533210967871997
 40
0.3760223802380994
 40
0.5042027350874037
 40
0.6287442443905509
 40
0.7524970007335178
 40
0.8762904256225891
 40
0.9301814553533038
 40
1.0
 40
1.0
 40
1.0
 40
1.0
 10
18.30000000000001
 20
-30.55788999666614
 30
0.0
 10
18.32475189251026
 20
-30.55717815032797
 30
0.0
 10
18.37441635566442
 20
-30.55574983666592
 30
0.0
 10
18.44840700700193
 20
-30.54418621918458
 30
0.0
 10
18.52137928311723
 20
-30.52568315689517
 30
0.0
 10
18.61414871610723
 20
-30.49172081055997
 30
0.0
 10
18.72382631062688
 20
-30.43206331201421
 30
0.0
 10
18.83789060104973
 20
-30.33670781031285
 30
0.0
 10
18.93096567570624
 20
-30.22063090164698
 30
0.0
 10
18.99906840635737
 20
-30.09053486574009
 30
0.0
 10
19.03266226172082
 20
-29.97656054635133
 30
0.0
 10
19.04765434845163
 20
-29.88065972774423
 30
0.0
 10
19.04915376650079
 20
-29.83220301390153
 30
0.0
 10
19.05000000000001
 20
-29.80485527419841
 30
0.0
  0
SPLINE
  5
1DB
330
1F
100
AcDbEntity
  8
1
  6
SLD-Solid
370
    25
100
AcDbSpline
210
0.0
220
0.0
230
1.0
 70
     8
 71
     3
 72
    16
 73
    12
 74
     0
 42
0.000000001
 43
0.00000001
 40
0.0
 40
0.0
 40
0.0
 40
0.0
 40
0.069814031064149
 40
0.1237498965154266
 40
0.2475836018648968
 40
0.371376536255524
 40
0.4959583438678432
 40
0.62413948620796
 40
0.7469207609697971
 40
0.8742805094910139
 40
1.0
 40
1.0
 40
1.0
 40
1.0
 10
19.05000000000001
 20
29.80486644841628
 30
0.0
 10
19.04915437967802
 20
29.83220375694687
 30
0.0
 10
19.04765546283077
 20
29.88066090875586
 30
0.0
 10
19.03266526234903
 20
29.97656337346558
 30
0.0
 10
18.99906876123939
 20
30.09054703967058
 30
0.0
 10
18.93096439399844
 20
30.22065301278144
 30
0.0
 10
18.8379055033088
 20
30.33668609025479
 30
0.0
 10
18.72382127964481
 20
30.43216876423576
 30
0.0
 10
18.59216376019318
 20
30.50338604964251
 30
0.0
 10
18.44966044222823
 20
30.54924901227124
 30
0.0
 10
18.3496707963334
 20
30.55503461089691
 30
0.0
 10
18.30000000000001
 20
30.55790866138915
 30
0.0
  0
SPLINE
  5
1DC
330
1F
100
AcDbEntity
  8
1
  6
SLD-Solid
370
    25
100
AcDbSpline
210
0.0
220
0.0
230
1.0
 70
     8
 71
     3
 72
     8
 73
     4
 74
     0
 42
0.000000001
 43
0.00000001
 40
0.0
 40
0.0
 40
0.0
 40
0.0
 40
1.0
 40
1.0
 40
1.0
 40
1.0
 10
7.853987053479575
 20
-30.22558142012364
 30
0.0
 10
8.303659523846735
 20
-29.41927694377146
 30
0.0
 10
8.752412641282667
 20
-28.6124760333551
 30
0.0
 10
9.199999999998877
 20
-27.80504563417608
 30
0.0
  0
SPLINE
  5
1DD
330
1F
100
AcDbEntity
  8
1
  6
SLD-Solid
370
    25
100
AcDbSpline
210
0.0
220
0.0
230
1.0
 70
     8
 71
     3
 72
     8
 73
     4
 74
     0
 42
0.000000001
 43
0.00000001
 40
0.0
 40
0.0
 40
0.0
 40
0.0
 40
0.0006742907251988
 40
0.0006742907251988
 40
0.0006742907251988
 40
0.0006742907251988
 10
7.588873645443194
 20
-30.55790866138918
 30
0.0
 10
7.677688780848514
 20
-30.44723498609788
 30
0.0
 10
7.766067686727845
 20
-30.33646040446866
 30
0.0
 10
7.853987053479578
 20
-30.22558142012364
 30
0.0
  0
SPLINE
  5
1DE
330
1F
100
AcDbEntity
  8
1
  6
SLD-Solid
370
    25
100
AcDbSpline
210
0.0
220
0.0
230
1.0
 70
     8
 71
     3
 72
     8
 73
     4
 74
     0
 42
0.000000001
 43
0.00000001
 40
0.0
 40
0.0
 40
0.0
 40
0.0
 40
0.0006744126776058
 40
0.0006744126776058
 40
0.0006744126776058
 40
0.0006744126776058
 10
7.854049533407236
 20
30.2254693877991
 30
0.0
 10
7.766109415733151
 20
30.33637953005825
 30
0.0
 10
7.677709680299336
 20
30.44718523342128
 30
0.0
 10
7.588873645443195
 20
30.55788999666612
 30
0.0
  0
SPLINE
  5
1DF
330
1F
100
AcDbEntity
  8
1
  6
SLD-Solid
370
    25
100
AcDbSpline
210
0.0
220
0.0
230
1.0
 70
     8
 71
     3
 72
     8
 73
     4
 74
     0
 42
0.000000001
 43
0.00000001
 40
0.0
 40
0.0
 40
0.0
 40
0.0
 40
1.0
 40
1.0
 40
1.0
 40
1.0
 10
7.854049533407236
 20
30.22546938779911
 30
0.0
 10
8.303692188804723
 20
29.41921817244961
 30
0.0
 10
8.752424212806615
 20
28.61245515876932
 30
0.0
 10
9.2
 20
27.8050456341729
 30
0.0
  0
SPLINE
  5
1E0
330
1F
100
AcDbEntity
  8
1
  6
SLD-Solid
370
    25
100
AcDbSpline
210
0.0
220
0.0
230
1.0
 70
     8
 71
     3
 72
    14
 73
    10
 74
     0
 42
0.000000001
 43
0.00000001
 40
0.0
 40
0.0
 40
0.0
 40
0.0
 40
0.25
 40
0.25
 40
0.5
 40
0.5
 40
0.75
 40
0.75
 40
1.0
 40
1.0
 40
1.0
 40
1.0
 10
9.199999999998877
 20
25.27054331738513
 30
0.0
 10
9.169610391132137
 20
25.36219671402947
 30
0.0
 10
9.144652419509585
 20
25.44797517411546
 30
0.0
 10
9.109411114929523
 20
25.60359055831213
 30
0.0
 10
9.10007589472488
 20
25.669594402047
 30
0.0
 10
9.09992502394977
 20
25.77434199055133
 30
0.0
 10
9.109375914768808
 20
25.81145009587541
 30
0.0
 10
9.144272722663844
 20
25.85500935243904
 30
0.0
 10
9.169555752624229
 20
25.86176202446131
 30
0.0
 10
9.200000000000003
 20
25.85691311136566
 30
0.0
  0
SPLINE
  5
1E1
330
1F
100
AcDbEntity
  8
1
  6
SLD-Solid
370
    25
100
AcDbSpline
210
0.0
220
0.0
230
1.0
 70
     8
 71
     3
 72
     8
 73
     4
 74
     0
 42
0.000000001
 43
0.00000001
 40
0.0
 40
0.0
 40
0.0
 40
0.0
 40
1.0
 40
1.0
 40
1.0
 40
1.0
 10
13.02999999999999
 20
27.8050456341729
 30
0.0
 10
13.47759651810104
 20
28.61249255653033
 30
0.0
 10
13.92634937951631
 20
29.41929290832667
 30
0.0
 10
14.3760129465226
 20
30.22558142012639
 30
0.0
  0
SPLINE
  5
1E2
330
1F
100
AcDbEntity
  8
1
  6
SLD-Solid
370
    25
100
AcDbSpline
210
0.0
220
0.0
230
1.0
 70
     8
 71
     3
 72
     8
 73
     4
 74
     0
 42
0.000000001
 43
0.00000001
 40
0.0
 40
0.0
 40
0.0
 40
0.0
 40
0.0006742907251946
 40
0.0006742907251946
 40
0.0006742907251946
 40
0.0006742907251946
 10
14.6411263545568
 20
30.55790866138915
 30
0.0
 10
14.5523112191522
 20
30.44723498609877
 30
0.0
 10
14.46393231327361
 20
30.33646040447046
 30
0.0
 10
14.3760129465226
 20
30.22558142012639
 30
0.0
  0
SPLINE
  5
1E3
330
1F
100
AcDbEntity
  8
1
  6
SLD-Solid
370
    25
100
AcDbSpline
210
0.0
220
0.0
230
1.0
 70
     8
 71
     3
 72
     8
 73
     4
 74
     0
 42
0.000000001
 43
0.00000001
 40
0.0
 40
0.0
 40
0.0
 40
0.0
 40
0.0006744126776058
 40
0.0006744126776058
 40
0.0006744126776058
 40
0.0006744126776058
 10
14.37595046659277
 20
-30.22546938779917
 30
0.0
 10
14.46389058426687
 20
-30.3363795300583
 30
0.0
 10
14.55229031970068
 20
-30.44718523342133
 30
0.0
 10
14.64112635455681
 20
-30.55788999666614
 30
0.0
  0
SPLINE
  5
1E4
330
1F
100
AcDbEntity
  8
1
  6
SLD-Solid
370
    25
100
AcDbSpline
210
0.0
220
0.0
230
1.0
 70
     8
 71
     3
 72
     8
 73
     4
 74
     0
 42
0.000000001
 43
0.00000001
 40
0.0
 40
0.0
 40
0.0
 40
0.0
 40
1.0
 40
1.0
 40
1.0
 40
1.0
 10
13.03000000000001
 20
-27.8050456341729
 30
0.0
 10
13.47756662864433
 20
-28.61243863709861
 30
0.0
 10
13.92629890859753
 20
-29.41920220926157
 30
0.0
 10
14.37595046659276
 20
-30.22546938779916
 30
0.0
  0
SPLINE
  5
1E5
330
1F
100
AcDbEntity
  8
1
  6
SLD-Solid
370
    25
100
AcDbSpline
210
0.0
220
0.0
230
1.0
 70
     8
 71
     3
 72
    14
 73
    10
 74
     0
 42
0.000000001
 43
0.00000001
 40
0.0
 40
0.0
 40
0.0
 40
0.0
 40
0.25
 40
0.25
 40
0.5
 40
0.5
 40
0.75
 40
0.75
 40
1.0
 40
1.0
 40
1.0
 40
1.0
 10
13.02999999999998
 20
25.81171788356632
 30
0.0
 10
13.05182784069896
 20
25.80868166763941
 30
0.0
 10
13.06930451588747
 20
25.79706282581693
 30
0.0
 10
13.09355241467169
 20
25.75265705035273
 30
0.0
 10
13.0999641373839
 20
25.71975400624288
 30
0.0
 10
13.10003555457989
 20
25.6344344577325
 30
0.0
 10
13.09360869858518
 20
25.58073121692831
 30
0.0
 10
13.0695303199543
 20
25.45976651603279
 30
0.0
 10
13.05190366619465
 20
25.39187340765437
 30
0.0
 10
13.03000000000001
 20
25.31924243797493
 30
0.0
  0
SPLINE
  5
1E6
330
1F
100
AcDbEntity
  8
1
  6
SLD-Solid
370
    25
100
AcDbSpline
210
0.0
220
0.0
230
1.0
 70
     8
 71
     3
 72
    12
 73
     8
 74
     0
 42
0.000000001
 43
0.00000001
 40
0.0
 40
0.0
 40
0.0
 40
0.0
 40
0.2499999999999984
 40
0.2499999999999984
 40
0.4999999999999969
 40
0.4999999999999969
 40
1.0
 40
1.0
 40
1.0
 40
1.0
 10
12.28000000000001
 20
-26.98706356756882
 30
0.0
 10
12.37975762515878
 20
-26.98706356756884
 30
0.0
 10
12.48041217798163
 20
-27.00843624414832
 30
0.0
 10
12.663520225735
 20
-27.0892138443703
 30
0.0
 10
12.74662210573629
 20
-27.14844080533419
 30
0.0
 10
12.95377706693951
 20
-27.3689835197036
 30
0.0
 10
13.02999999999999
 20
-27.5690278551815
 30
0.0
 10
13.03000000000001
 20
-27.76916635406971
 30
0.0
  0
SPLINE
  5
1E7
330
1F
100
AcDbEntity
  8
1
  6
SLD-Solid
370
    25
100
AcDbSpline
210
0.0
220
0.0
230
1.0
 70
     8
 71
     3
 72
    18
 73
    14
 74
     0
 42
0.000000001
 43
0.00000001
 40
0.0
 40
0.0
 40
0.0
 40
0.0
 40
0.0625000000000008
 40
0.0625000000000008
 40
0.1250000000000017
 40
0.1250000000000017
 40
0.2500000000000039
 40
0.2500000000000039
 40
0.5000000000000026
 40
0.5000000000000026
 40
0.7500000000000013
 40
0.7500000000000013
 40
1.0
 40
1.0
 40
1.0
 40
1.0
 10
13.03000000000035
 20
25.28882228478212
 30
0.0
 10
13.03000000000038
 20
25.25845422870357
 30
0.0
 10
13.02749489038155
 20
25.22358442434169
 30
0.0
 10
13.01920268672244
 20
25.15482296737459
 30
0.0
 10
13.01359186100948
 20
25.12104898565237
 30
0.0
 10
12.99361738711133
 20
25.02074756626962
 30
0.0
 10
12.97668865169253
 20
24.9577943594803
 30
0.0
 10
12.91737158574222
 20
24.77496256517872
 30
0.0
 10
12.86564177103967
 20
24.66011878167493
 30
0.0
 10
12.74049543384724
 20
24.45045700081745
 30
0.0
 10
12.66639130892204
 20
24.35409856583138
 30
0.0
 10
12.49025684706091
 20
24.18769951882043
 30
0.0
 10
12.39180028213162
 20
24.12054595344067
 30
0.0
 10
12.2800000000013
 20
24.07805063523433
 30
0.0
  0
SPLINE
  5
1E8
330
1F
100
AcDbEntity
  8
1
  6
SLD-Solid
370
    25
100
AcDbSpline
210
0.0
220
0.0
230
1.0
 70
     8
 71
     3
 72
    14
 73
    10
 74
     0
 42
0.000000001
 43
0.00000001
 40
0.0
 40
0.0
 40
0.0
 40
0.0
 40
0.25
 40
0.25
 40
0.5
 40
0.5
 40
0.75
 40
0.75
 40
1.0
 40
1.0
 40
1.0
 40
1.0
 10
9.200000000000014
 20
-27.76916635406976
 30
0.0
 10
9.200000000000014
 20
-27.66854183645166
 30
0.0
 10
9.218753722673611
 20
-27.56842327754112
 30
0.0
 10
9.291517535812325
 20
-27.38167264562872
 30
0.0
 10
9.345885298656015
 20
-27.29482655372887
 30
0.0
 10
9.482713453675212
 20
-27.14914073715223
 30
0.0
 10
9.566479996683737
 20
-27.08925426891757
 30
0.0
 10
9.74908978763267
 20
-27.00861553826
 30
0.0
 10
9.849941180320537
 20
-26.98706356756863
 30
0.0
 10
9.950000000001276
 20
-26.98706356756881
 30
0.0
  0
SPLINE
  5
1E9
330
1F
100
AcDbEntity
  8
1
  6
SLD-Solid
370
    25
100
AcDbSpline
210
0.0
220
0.0
230
1.0
 70
     8
 71
     3
 72
    16
 73
    12
 74
     0
 42
0.000000001
 43
0.00000001
 40
0.0
 40
0.0
 40
0.0
 40
0.0
 40
0.2500000000000015
 40
0.2500000000000015
 40
0.500000000000003
 40
0.500000000000003
 40
0.7500000000000044
 40
0.7500000000000044
 40
0.8750000000000022
 40
0.8750000000000022
 40
1.0
 40
1.0
 40
1.0
 40
1.0
 10
9.950000000001276
 20
24.06685975304418
 30
0.0
 10
9.840493351282342
 20
24.10694414130925
 30
0.0
 10
9.742786160773399
 20
24.17117631338118
 30
0.0
 10
9.567840382590509
 20
24.3309608363144
 30
0.0
 10
9.49398825402828
 20
24.42340952890718
 30
0.0
 10
9.367115049350602
 20
24.62793394074454
 30
0.0
 10
9.314523965069585
 20
24.73961559875828
 30
0.0
 10
9.253446937619037
 20
24.9197139732459
 30
0.0
 10
9.235893303123923
 20
24.98231479864189
 30
0.0
 10
9.209102989072877
 20
25.11253703191808
 30
0.0
 10
9.200000000000443
 20
25.18114365477706
 30
0.0
 10
9.200000000000388
 20
25.24012107693789
 30
0.0
  0
SPLINE
  5
1EA
330
1F
100
AcDbEntity
  8
1
  6
SLD-Solid
370
    25
100
AcDbSpline
210
0.0
220
0.0
230
1.0
 70
     8
 71
     3
 72
    12
 73
     8
 74
     0
 42
0.000000001
 43
0.00000001
 40
0.0
 40
0.0
 40
0.0
 40
0.0
 40
0.25
 40
0.25
 40
0.5
 40
0.5
 40
1.0
 40
1.0
 40
1.0
 40
1.0
 10
12.2800000000013
 20
24.07805063523433
 30
0.0
 10
12.11125565653913
 20
24.01391086354245
 30
0.0
 10
11.9280176059474
 20
23.96418277266271
 30
0.0
 10
11.53284005751316
 20
23.89473625632987
 30
0.0
 10
11.32774190386633
 20
23.87652150272299
 30
0.0
 10
10.70517895587215
 20
23.87317080568451
 30
0.0
 10
10.29199014189998
 20
23.94167588712289
 30
0.0
 10
9.950000000001276
 20
24.06685975304418
 30
0.0
  0
SPLINE
  5
1EB
330
1F
100
AcDbEntity
  8
1
  6
SLD-Solid
370
    25
100
AcDbSpline
210
0.0
220
0.0
230
1.0
 70
    24
 71
     2
 72
     6
 73
     3
 74
     0
 42
0.000000001
 43
0.00000001
 40
0.0
 40
0.0
 40
0.0
 40
0.5000000000000002
 40
0.5000000000000002
 40
0.5000000000000002
 10
19.05000000000001
 20
-22.41000000000002
 30
0.0
 10
19.1174633063394
 20
-22.41000000000001
 30
0.0
 10
19.18383418116057
 20
-22.41
 30
0.0
  0
SPLINE
  5
1EC
330
1F
100
AcDbEntity
  8
1
  6
SLD-Solid
370
    25
100
AcDbSpline
210
0.0
220
0.0
230
1.0
 70
    24
 71
     3
 72
     8
 73
     4
 74
     0
 42
0.000000001
 43
0.00000001
 40
0.5000000000000002
 40
0.5000000000000002
 40
0.5000000000000002
 40
0.5000000000000002
 40
0.7500000000000003
 40
0.7500000000000003
 40
0.7500000000000003
 40
0.7500000000000003
 10
19.18383418116057
 20
-22.41
 30
0.0
 10
19.21701961857114
 20
-22.41000000000001
 30
0.0
 10
19.25031269306704
 20
-22.41000000000001
 30
0.0
 10
19.27479265876505
 20
-22.41000000000001
 30
0.0
  0
SPLINE
  5
1ED
330
1F
100
AcDbEntity
  8
1
  6
SLD-Solid
370
    25
100
AcDbSpline
210
0.0
220
0.0
230
1.0
 70
    24
 71
     3
 72
     8
 73
     4
 74
     0
 42
0.000000001
 43
0.00000001
 40
0.7500000000000003
 40
0.7500000000000003
 40
0.7500000000000003
 40
0.7500000000000003
 40
0.8750000000000002
 40
0.8750000000000002
 40
0.8750000000000002
 40
0.8750000000000002
 10
19.27479265876505
 20
-22.41000000000001
 30
0.0
 10
19.28703264161402
 20
-22.41000000000001
 30
0.0
 10
19.29703908789421
 20
-22.41000000000001
 30
0.0
 10
19.3038600145759
 20
-22.41
 30
0.0
  0
SPLINE
  5
1EE
330
1F
100
AcDbEntity
  8
1
  6
SLD-Solid
370
    25
100
AcDbSpline
210
0.0
220
0.0
230
1.0
 70
    24
 71
     3
 72
     8
 73
     4
 74
     0
 42
0.000000001
 43
0.00000001
 40
0.8750000000000002
 40
0.8750000000000002
 40
0.8750000000000002
 40
0.8750000000000002
 40
0.9375000000000002
 40
0.9375000000000002
 40
0.9375000000000002
 40
0.9375000000000002
 10
19.3038600145759
 20
-22.41
 30
0.0
 10
19.30727047791675
 20
-22.41000000000001
 30
0.0
 10
19.30988950328535
 20
-22.41000000000001
 30
0.0
 10
19.31164472221491
 20
-22.41000000000001
 30
0.0
  0
SPLINE
  5
1EF
330
1F
100
AcDbEntity
  8
1
  6
SLD-Solid
370
    25
100
AcDbSpline
210
0.0
220
0.0
230
1.0
 70
    24
 71
     3
 72
     8
 73
     4
 74
     0
 42
0.000000001
 43
0.00000001
 40
0.9375000000000002
 40
0.9375000000000002
 40
0.9375000000000002
 40
0.9375000000000002
 40
1.0
 40
1.0
 40
1.0
 40
1.0
 10
19.31164472221491
 20
-22.41000000000001
 30
0.0
 10
19.3133999411445
 20
-22.41000000000001
 30
0.0
 10
19.31429083857766
 20
-22.41000000000001
 30
0.0
 10
19.31429024493261
 20
-22.41000000000001
 30
0.0
  0
SPLINE
  5
1F0
330
1F
100
AcDbEntity
  8
1
  6
SLD-Solid
370
    25
100
AcDbSpline
210
0.0
220
0.0
230
1.0
 70
     8
 71
     3
 72
    16
 73
    12
 74
     0
 42
0.000000001
 43
0.00000001
 40
0.0
 40
0.0
 40
0.0
 40
0.0
 40
0.125
 40
0.125
 40
0.25
 40
0.25
 40
0.5
 40
0.5
 40
0.75
 40
0.75
 40
1.0
 40
1.0
 40
1.0
 40
1.0
 10
9.200000000000005
 20
25.82649087091905
 30
0.0
 10
9.200000000000005
 20
25.76704453528219
 30
0.0
 10
9.20930977924019
 20
25.72460913603001
 30
0.0
 10
9.236285539089925
 20
25.66309575968362
 30
0.0
 10
9.25381839599406
 20
25.64221451078865
 30
0.0
 10
9.314732612350834
 20
25.59089236418539
 30
0.0
 10
9.367586350542444
 20
25.57162638804161
 30
0.0
 10
9.49392326964756
 20
25.54782523997986
 30
0.0
 10
9.56860618675475
 20
25.54380204926681
 30
0.0
 10
9.743190718990302
 20
25.55566084202214
 30
0.0
 10
9.840260492227268
 20
25.57101227172015
 30
0.0
 10
9.949999999999978
 20
25.603258790376
 30
0.0
  0
SPLINE
  5
1F1
330
1F
100
AcDbEntity
  8
1
  6
SLD-Solid
370
    25
100
AcDbSpline
210
0.0
220
0.0
230
1.0
 70
     8
 71
     3
 72
    12
 73
     8
 74
     0
 42
0.000000001
 43
0.00000001
 40
0.0
 40
0.0
 40
0.0
 40
0.0
 40
0.2499999999999994
 40
0.2499999999999994
 40
0.4999999999999989
 40
0.4999999999999989
 40
1.0
 40
1.0
 40
1.0
 40
1.0
 10
9.949999999999969
 20
25.603258790376
 30
0.0
 10
10.12099348269379
 20
25.65350454636332
 30
0.0
 10
10.30594493731544
 20
25.6908700749012
 30
0.0
 10
10.70348914958042
 20
25.74162454002532
 30
0.0
 10
10.90918343641379
 20
25.7539131306725
 30
0.0
 10
11.53176214943037
 20
25.75179790476194
 30
0.0
 10
11.94250893135799
 20
25.6975414000343
 30
0.0
 10
12.28
 20
25.59426208810602
 30
0.0
  0
SPLINE
  5
1F2
330
1F
100
AcDbEntity
  8
1
  6
SLD-Solid
370
    25
100
AcDbSpline
210
0.0
220
0.0
230
1.0
 70
     8
 71
     3
 72
    18
 73
    14
 74
     0
 42
0.000000001
 43
0.00000001
 40
0.0
 40
0.0
 40
0.0
 40
0.0
 40
0.2500000000000003
 40
0.2500000000000003
 40
0.5000000000000006
 40
0.5000000000000006
 40
0.7500000000000009
 40
0.7500000000000009
 40
0.8750000000000017
 40
0.8750000000000017
 40
0.9375000000000008
 40
0.9375000000000008
 40
1.0
 40
1.0
 40
1.0
 40
1.0
 10
12.28
 20
25.59426208810602
 30
0.0
 10
12.39154339480308
 20
25.56012748089476
 30
0.0
 10
12.49076613158666
 20
25.54318981789732
 30
0.0
 10
12.66653346245912
 20
25.52816909760166
 30
0.0
 10
12.74028542340612
 20
25.53041158029682
 30
0.0
 10
12.86605076853516
 20
25.54934151941308
 30
0.0
 10
12.91749996660362
 20
25.56531541934166
 30
0.0
 10
12.97688531868162
 20
25.6090846994035
 30
0.0
 10
12.99394905986489
 20
25.62703563897608
 30
0.0
 10
13.01360803438727
 20
25.66754728332324
 30
0.0
 10
13.01926149413284
 20
25.68358803034143
 30
0.0
 10
13.02752275857843
 20
25.72506394381625
 30
0.0
 10
13.02999999999998
 20
25.75103822857545
 30
0.0
 10
13.02999999999998
 20
25.78129773037292
 30
0.0
  0
SPLINE
  5
1F3
330
1F
100
AcDbEntity
  8
1
  6
SLD-Solid
370
    25
100
AcDbSpline
210
0.0
220
0.0
230
1.0
 70
     8
 71
     3
 72
    12
 73
     8
 74
     0
 42
0.000000001
 43
0.00000001
 40
0.0
 40
0.0
 40
0.0
 40
0.0
 40
0.2499999999999991
 40
0.2499999999999991
 40
0.4999999999999982
 40
0.4999999999999982
 40
1.0
 40
1.0
 40
1.0
 40
1.0
 10
9.200000000000014
 20
27.76916635406975
 30
0.0
 10
9.200000000000014
 20
27.66809333683724
 30
0.0
 10
9.218583298377242
 20
27.5689264133913
 30
0.0
 10
9.291549937975763
 20
27.38152387214674
 30
0.0
 10
9.34549688093282
 20
27.29531750692792
 30
0.0
 10
9.55107104167538
 20
27.07620366276164
 30
0.0
 10
9.748220416740102
 20
26.9870635675688
 30
0.0
 10
9.949999999999987
 20
26.98706356756881
 30
0.0
  0
SPLINE
  5
1F4
330
1F
100
AcDbEntity
  8
1
  6
SLD-Solid
370
    25
100
AcDbSpline
210
0.0
220
0.0
230
1.0
 70
     8
 71
     3
 72
    14
 73
    10
 74
     0
 42
0.000000001
 43
0.00000001
 40
0.0
 40
0.0
 40
0.0
 40
0.0
 40
0.25
 40
0.25
 40
0.5
 40
0.5
 40
0.75
 40
0.75
 40
1.0
 40
1.0
 40
1.0
 40
1.0
 10
12.28000000000001
 20
26.98706356756881
 30
0.0
 10
12.38041018140384
 20
26.9870635675688
 30
0.0
 10
12.48007417771602
 20
27.00821121867971
 30
0.0
 10
12.66478364882751
 20
27.08984749877595
 30
0.0
 10
12.74772062670421
 20
27.1494985263265
 30
0.0
 10
12.88443521562222
 20
27.29527278596964
 30
0.0
 10
12.93853405055465
 20
27.3816979113053
 30
0.0
 10
13.01142030969679
 20
27.56897740148013
 30
0.0
 10
13.02999999999999
 20
27.66812420510654
 30
0.0
 10
13.02999999999999
 20
27.76916635406975
 30
0.0
  0
SPLINE
  5
1F5
330
1F
100
AcDbEntity
  8
SK3
  6
SLD-Dashed
370
    18
100
AcDbSpline
210
0.0
220
0.0
230
1.0
 70
     8
 71
     3
 72
    30
 73
    26
 74
     0
 42
0.000000001
 43
0.00000001
 40
0.4999999999999971
 40
0.4999999999999971
 40
0.4999999999999971
 40
0.4999999999999971
 40
0.5624999999999977
 40
0.5624999999999977
 40
0.6249999999999981
 40
0.6249999999999981
 40
0.6562499999999984
 40
0.6562499999999984
 40
0.6874999999999987
 40
0.6874999999999987
 40
0.718749999999999
 40
0.718749999999999
 40
0.7499999999999992
 40
0.7499999999999992
 40
0.7812499999999994
 40
0.7812499999999994
 40
0.8124999999999998
 40
0.8124999999999998
 40
0.8749999999999998
 40
0.8749999999999998
 40
0.9374999999999999
 40
0.9374999999999999
 40
0.96875
 40
0.96875
 40
1.0
 40
1.0
 40
1.0
 40
1.0
 10
11.75479658556572
 20
-4.90143354710592
 30
0.0
 10
11.89746294966132
 20
-4.886411197664704
 30
0.0
 10
12.02884136644405
 20
-4.886974229786199
 30
0.0
 10
12.27243240561785
 20
-4.932317536304458
 30
0.0
 10
12.38574037094359
 20
-4.975421209748234
 30
0.0
 10
12.53947570845301
 20
-5.103559339222873
 30
0.0
 10
12.58638543677659
 20
-5.156028957061208
 30
0.0
 10
12.66795201157342
 20
-5.291134993494214
 30
0.0
 10
12.70317196931761
 20
-5.375974586482819
 30
0.0
 10
12.74713654526596
 20
-5.58286198491411
 30
0.0
 10
12.75526091463636
 20
-5.705696917838725
 30
0.0
 10
12.73739776164137
 20
-5.968523156861118
 30
0.0
 10
12.71224833739215
 20
-6.103419156624206
 30
0.0
 10
12.64408666407788
 20
-6.357264662683472
 30
0.0
 10
12.60068164729128
 20
-6.478993458595601
 30
0.0
 10
12.50600924552236
 20
-6.704610974826185
 30
0.0
 10
12.45441331137415
 20
-6.809727668320977
 30
0.0
 10
12.2899062133226
 20
-7.109437894498881
 30
0.0
 10
12.17017846713214
 20
-7.284103436407848
 30
0.0
 10
11.91483731616863
 20
-7.597298819669203
 30
0.0
 10
11.77767665531765
 20
-7.737818016165223
 30
0.0
 10
11.54951158979958
 20
-7.918374112026484
 30
0.0
 10
11.46985276967114
 20
-7.973291374430626
 30
0.0
 10
11.29758630900468
 20
-8.069225810891222
 30
0.0
 10
11.20406269051036
 20
-8.110848935776536
 30
0.0
 10
11.10000000000003
 20
-8.139670393607947
 30
0.0
  0
SPLINE
  5
1F6
330
1F
100
AcDbEntity
  8
SK3
  6
SLD-Dashed
370
    18
100
AcDbSpline
210
0.0
220
0.0
230
1.0
 70
     8
 71
     3
 72
    34
 73
    30
 74
     0
 42
0.000000001
 43
0.00000001
 40
0.0
 40
0.0
 40
0.0
 40
0.0
 40
0.0312499999999996
 40
0.0312499999999996
 40
0.0624999999999992
 40
0.0624999999999992
 40
0.0937499999999988
 40
0.0937499999999988
 40
0.1249999999999985
 40
0.1249999999999985
 40
0.1562499999999982
 40
0.1562499999999982
 40
0.1874999999999979
 40
0.1874999999999979
 40
0.2499999999999979
 40
0.2499999999999979
 40
0.3124999999999978
 40
0.3124999999999978
 40
0.3437499999999977
 40
0.3437499999999977
 40
0.3749999999999976
 40
0.3749999999999976
 40
0.4062499999999975
 40
0.4062499999999975
 40
0.4374999999999973
 40
0.4374999999999973
 40
0.4687499999999972
 40
0.4687499999999972
 40
0.4999999999999971
 40
0.4999999999999971
 40
0.4999999999999971
 40
0.4999999999999971
 10
11.10000000000003
 20
-8.139670393607947
 30
0.0
 10
10.99593730948967
 20
-8.16849185143937
 30
0.0
 10
10.88327240143053
 20
-8.183619230956749
 30
0.0
 10
10.64024603173769
 20
-8.169996197171645
 30
0.0
 10
10.51600003630448
 20
-8.1409930617651
 30
0.0
 10
10.27540472633831
 20
-8.041511803988634
 30
0.0
 10
10.16352991293558
 20
-7.973785811074559
 30
0.0
 10
9.956641719228346
 20
-7.808864907520287
 30
0.0
 10
9.86514021175608
 20
-7.714409980823921
 30
0.0
 10
9.705479632928796
 20
-7.50567520381875
 30
0.0
 10
9.638640231842258
 20
-7.392601974747761
 30
0.0
 10
9.53414598644943
 20
-7.157373188583886
 30
0.0
 10
9.4956685896182
 20
-7.032517635178808
 30
0.0
 10
9.429144226770033
 20
-6.659799668562692
 30
0.0
 10
9.448570934642742
 20
-6.405979053005113
 30
0.0
 10
9.610438460184723
 20
-5.948466648519231
 30
0.0
 10
9.752910053168169
 20
-5.744009981362493
 30
0.0
 10
10.03367356462019
 20
-5.497500536354748
 30
0.0
 10
10.13722938652331
 20
-5.425546956212897
 30
0.0
 10
10.36592358660668
 20
-5.297018553104084
 30
0.0
 10
10.48785945052916
 20
-5.242562856658077
 30
0.0
 10
10.73642302172964
 20
-5.147912691227143
 30
0.0
 10
10.85648365715394
 20
-5.109640819744181
 30
0.0
 10
11.08061189675419
 20
-5.043111325123119
 30
0.0
 10
11.1802238597534
 20
-5.016231192190864
 30
0.0
 10
11.36576798793607
 20
-4.969815472118951
 30
0.0
 10
11.4505569433985
 20
-4.950785033120374
 30
0.0
 10
11.6091609189693
 20
-4.920394395500217
 30
0.0
 10
11.68346340351792
 20
-4.908944721826535
 30
0.0
 10
11.75479658556572
 20
-4.90143354710592
 30
0.0
  0
SPLINE
  5
1F7
330
1F
100
AcDbEntity
  8
SK3
  6
SLD-Dashed
370
    18
100
AcDbSpline
210
0.0
220
0.0
230
1.0
 70
     8
 71
     3
 72
    30
 73
    26
 74
     0
 42
0.000000001
 43
0.00000001
 40
0.4999999999999977
 40
0.4999999999999977
 40
0.4999999999999977
 40
0.4999999999999977
 40
0.5312499999999977
 40
0.5312499999999977
 40
0.5624999999999976
 40
0.5624999999999976
 40
0.6249999999999976
 40
0.6249999999999976
 40
0.6874999999999974
 40
0.6874999999999974
 40
0.7187499999999977
 40
0.7187499999999977
 40
0.7499999999999978
 40
0.7499999999999978
 40
0.781249999999998
 40
0.781249999999998
 40
0.8124999999999982
 40
0.8124999999999982
 40
0.8437499999999984
 40
0.8437499999999984
 40
0.8749999999999986
 40
0.8749999999999986
 40
0.9374999999999993
 40
0.9374999999999993
 40
1.0
 40
1.0
 40
1.0
 40
1.0
 10
9.528420299935433
 20
-8.783318638987486
 30
0.0
 10
9.563561233735419
 20
-8.863935054853203
 30
0.0
 10
9.607627266507032
 20
-8.927948620428332
 30
0.0
 10
9.70302702424504
 20
-9.02991315680237
 30
0.0
 10
9.7551658595878
 20
-9.069013533844462
 30
0.0
 10
9.920727180931468
 20
-9.161365608196963
 30
0.0
 10
10.03962982796815
 20
-9.189146893658648
 30
0.0
 10
10.29581948707686
 20
-9.20776112946159
 30
0.0
 10
10.43340974433163
 20
-9.197532970852961
 30
0.0
 10
10.66277322328793
 20
-9.159887465694737
 30
0.0
 10
10.74371097916554
 20
-9.143480319022096
 30
0.0
 10
10.91864535127574
 20
-9.10289441363147
 30
0.0
 10
11.01198337642653
 20
-9.079005870686094
 30
0.0
 10
11.22104536410176
 20
-9.02059910671637
 30
0.0
 10
11.33557343779476
 20
-8.986604712168617
 30
0.0
 10
11.57980302461464
 20
-8.902979810871827
 30
0.0
 10
11.7044559947736
 20
-8.854609275012844
 30
0.0
 10
11.94450363931204
 20
-8.738302937094135
 30
0.0
 10
12.05531700587897
 20
-8.672727087611992
 30
0.0
 10
12.25922745067754
 20
-8.520325596843563
 30
0.0
 10
12.35002701179844
 20
-8.435036721266151
 30
0.0
 10
12.58459907667486
 20
-8.152304640047161
 30
0.0
 10
12.6894417703268
 20
-7.926948099339547
 30
0.0
 10
12.77109851062197
 20
-7.442912699127661
 30
0.0
 10
12.74820534245738
 20
-7.186173862784494
 30
0.0
 10
12.66230763443391
 20
-6.940889607535659
 30
0.0
  0
SPLINE
  5
1F8
330
1F
100
AcDbEntity
  8
SK3
  6
SLD-Dashed
370
    18
100
AcDbSpline
210
0.0
220
0.0
230
1.0
 70
     8
 71
     3
 72
    34
 73
    30
 74
     0
 42
0.000000001
 43
0.00000001
 40
0.0
 40
0.0
 40
0.0
 40
0.0
 40
0.0312499999999997
 40
0.0312499999999997
 40
0.0624999999999995
 40
0.0624999999999995
 40
0.0937499999999992
 40
0.0937499999999992
 40
0.124999999999999
 40
0.124999999999999
 40
0.1562499999999987
 40
0.1562499999999987
 40
0.1874999999999984
 40
0.1874999999999984
 40
0.2499999999999982
 40
0.2499999999999982
 40
0.3124999999999979
 40
0.3124999999999979
 40
0.3437499999999978
 40
0.3437499999999978
 40
0.3749999999999978
 40
0.3749999999999978
 40
0.4062499999999978
 40
0.4062499999999978
 40
0.4374999999999977
 40
0.4374999999999977
 40
0.4687499999999977
 40
0.4687499999999977
 40
0.4999999999999977
 40
0.4999999999999977
 40
0.4999999999999977
 40
0.4999999999999977
 10
12.66230763443391
 20
-6.940889607535659
 30
0.0
 10
12.61935878042217
 20
-6.818247479911242
 30
0.0
 10
12.56229529856065
 20
-6.702062405426236
 30
0.0
 10
12.42103808962697
 20
-6.482980016463475
 30
0.0
 10
12.33595491427447
 20
-6.379752337446496
 30
0.0
 10
12.14618186397767
 20
-6.199831764960508
 30
0.0
 10
12.0392257963649
 20
-6.12067358722531
 30
0.0
 10
11.80824491388432
 20
-5.996443405511913
 30
0.0
 10
11.68389439480549
 20
-5.951950953011091
 30
0.0
 10
11.43804455248934
 20
-5.908952419297806
 30
0.0
 10
11.31731684279019
 20
-5.910654595408925
 30
0.0
 10
11.09745426351666
 20
-5.948127988753958
 30
0.0
 10
10.99815393168724
 20
-5.98260785307942
 30
0.0
 10
10.72267466537657
 20
-6.111713360853553
 30
0.0
 10
10.5718917600473
 20
-6.227019438453225
 30
0.0
 10
10.28857248622242
 20
-6.491284498769505
 30
0.0
 10
10.15786476490366
 20
-6.642104569644404
 30
0.0
 10
9.976005005593564
 20
-6.89374992992587
 30
0.0
 10
9.917635222666227
 20
-6.982205125338793
 30
0.0
 10
9.805404805610374
 20
-7.170924693447025
 30
0.0
 10
9.751060353100554
 20
-7.27211100309056
 30
0.0
 10
9.650448853514279
 20
-7.486812522722701
 30
0.0
 10
9.604326797725632
 20
-7.59953021433881
 30
0.0
 10
9.52438853672935
 20
-7.841923064473684
 30
0.0
 10
9.490665766297285
 20
-7.972450285447928
 30
0.0
 10
9.450224495380091
 20
-8.237810978297462
 30
0.0
 10
9.444739461343568
 20
-8.36989859677506
 30
0.0
 10
9.466585255233806
 20
-8.602871670374157
 30
0.0
 10
9.493279366135448
 20
-8.70270222312177
 30
0.0
 10
9.528420299935433
 20
-8.783318638987486
 30
0.0
  0
SPLINE
  5
1F9
330
1F
100
AcDbEntity
  8
1
  6
SLD-Dashed
370
    18
100
AcDbSpline
210
0.0
220
0.0
230
1.0
 70
    24
 71
     3
 72
     8
 73
     4
 74
     0
 42
0.000000001
 43
0.00000001
 40
0.0
 40
0.0
 40
0.0
 40
0.0
 40
0.4999999999999999
 40
0.4999999999999999
 40
0.4999999999999999
 40
0.4999999999999999
 10
19.31429024493261
 20
-22.41000000000001
 30
0.0
 10
19.31428555956327
 20
-22.41000000000001
 30
0.0
 10
19.25024165276923
 20
-22.41000000000001
 30
0.0
 10
19.18387400198421
 20
-22.41000000000001
 30
0.0
  0
SPLINE
  5
1FA
330
1F
100
AcDbEntity
  8
SK3
  6
SLD-Dashed
370
    18
100
AcDbSpline
210
0.0
220
0.0
230
1.0
 70
    24
 71
     2
 72
     6
 73
     3
 74
     0
 42
0.000000001
 43
0.00000001
 40
0.4999999999999999
 40
0.4999999999999999
 40
0.4999999999999999
 40
1.0
 40
1.0
 40
1.0
 10
19.18387400198424
 20
-22.41000000000001
 30
0.0
 10
19.11750635119916
 20
-22.41000000000001
 30
0.0
 10
19.05000000000001
 20
-22.41000000000002
 30
0.0
  0
SPLINE
  5
1FB
330
1F
100
AcDbEntity
  8
1
  6
SLD-Dashed
370
    18
100
AcDbSpline
210
0.0
220
0.0
230
1.0
 70
    24
 71
     2
 72
     6
 73
     3
 74
     0
 42
0.000000001
 43
0.00000001
 40
0.0
 40
0.0
 40
0.0
 40
0.25
 40
0.25
 40
0.25
 10
3.200000000000008
 20
-22.41000000000004
 30
0.0
 10
3.17040699581661
 20
-22.41000000000002
 30
0.0
 10
3.144481324703796
 20
-22.41000000000001
 30
0.0
  0
SPLINE
  5
1FC
330
1F
100
AcDbEntity
  8
1
  6
SLD-Dashed
370
    18
100
AcDbSpline
210
0.0
220
0.0
230
1.0
 70
    24
 71
     3
 72
     8
 73
     4
 74
     0
 42
0.000000001
 43
0.00000001
 40
0.25
 40
0.25
 40
0.25
 40
0.25
 40
0.5
 40
0.5
 40
0.5
 40
0.5
 10
3.144481324703796
 20
-22.41000000000001
 30
0.0
 10
3.118555653590996
 20
-22.41000000000001
 30
0.0
 10
3.097084490555638
 20
-22.41000000000001
 30
0.0
 10
3.096615422637519
 20
-22.41
 30
0.0
  0
SPLINE
  5
1FD
330
1F
100
AcDbEntity
  8
1
  6
SLD-Dashed
370
    18
100
AcDbSpline
210
0.0
220
0.0
230
1.0
 70
    24
 71
     3
 72
     8
 73
     4
 74
     0
 42
0.000000001
 43
0.00000001
 40
0.5
 40
0.5
 40
0.5
 40
0.5
 40
0.5625
 40
0.5625
 40
0.5625
 40
0.5625
 10
3.096615422637519
 20
-22.41
 30
0.0
 10
3.096498155657976
 20
-22.41000000000001
 30
0.0
 10
3.097576707176336
 20
-22.41000000000001
 30
0.0
 10
3.099789717980528
 20
-22.41000000000001
 30
0.0
  0
SPLINE
  5
1FE
330
1F
100
AcDbEntity
  8
1
  6
SLD-Dashed
370
    18
100
AcDbSpline
210
0.0
220
0.0
230
1.0
 70
    24
 71
     3
 72
     8
 73
     4
 74
     0
 42
0.000000001
 43
0.00000001
 40
0.5625
 40
0.5625
 40
0.5625
 40
0.5625
 40
0.625
 40
0.625
 40
0.625
 40
0.625
 10
3.099789717980528
 20
-22.41000000000001
 30
0.0
 10
3.102002728784719
 20
-22.41000000000001
 30
0.0
 10
3.10534590857034
 20
-22.41000000000001
 30
0.0
 10
3.109607407038015
 20
-22.41000000000001
 30
0.0
  0
SPLINE
  5
1FF
330
1F
100
AcDbEntity
  8
1
  6
SLD-Dashed
370
    18
100
AcDbSpline
210
0.0
220
0.0
230
1.0
 70
    24
 71
     3
 72
     8
 73
     4
 74
     0
 42
0.000000001
 43
0.00000001
 40
0.625
 40
0.625
 40
0.625
 40
0.625
 40
0.75
 40
0.75
 40
0.75
 40
0.75
 10
3.109607407038015
 20
-22.41000000000001
 30
0.0
 10
3.118130403973393
 20
-22.41000000000001
 30
0.0
 10
3.130398007648125
 20
-22.41000000000001
 30
0.0
 10
3.143490990967584
 20
-22.41000000000001
 30
0.0
  0
SPLINE
  5
200
330
1F
100
AcDbEntity
  8
1
  6
SLD-Dashed
370
    18
100
AcDbSpline
210
0.0
220
0.0
230
1.0
 70
    24
 71
     2
 72
     6
 73
     3
 74
     0
 42
0.000000001
 43
0.00000001
 40
0.75
 40
0.75
 40
0.75
 40
1.0
 40
1.0
 40
1.0
 10
3.143490990967584
 20
-22.41000000000001
 30
0.0
 10
3.169676957606518
 20
-22.41000000000002
 30
0.0
 10
3.200000000000008
 20
-22.41000000000004
 30
0.0
  0
SPLINE
  5
201
330
1F
100
AcDbEntity
  8
SK3
  6
SLD-Dashed
370
    18
100
AcDbSpline
210
0.0
220
0.0
230
1.0
 70
     8
 71
     3
 72
    30
 73
    26
 74
     0
 42
0.000000001
 43
0.00000001
 40
0.5000000000000014
 40
0.5000000000000014
 40
0.5000000000000014
 40
0.5000000000000014
 40
0.5625000000000014
 40
0.5625000000000014
 40
0.5937500000000013
 40
0.5937500000000013
 40
0.6250000000000013
 40
0.6250000000000013
 40
0.6562500000000013
 40
0.6562500000000013
 40
0.6875000000000013
 40
0.6875000000000013
 40
0.750000000000001
 40
0.750000000000001
 40
0.7812500000000009
 40
0.7812500000000009
 40
0.8125000000000008
 40
0.8125000000000008
 40
0.8437500000000007
 40
0.8437500000000007
 40
0.8750000000000006
 40
0.8750000000000006
 40
0.9375000000000002
 40
0.9375000000000002
 40
1.0
 40
1.0
 40
1.0
 40
1.0
 10
11.09932654210971
 20
-1.172262632651265
 30
0.0
 10
11.31498496335825
 20
-1.172173678884857
 30
0.0
 10
11.53265605765916
 20
-1.216107559900724
 30
0.0
 10
11.8306800802554
 20
-1.340147699641143
 30
0.0
 10
11.92704994906857
 20
-1.39175293088583
 30
0.0
 10
12.10666539317193
 20
-1.511588778951751
 30
0.0
 10
12.18956091982995
 20
-1.57927114631614
 30
0.0
 10
12.34180074298855
 20
-1.729617676609001
 30
0.0
 10
12.41137421373054
 20
-1.812969487208445
 30
0.0
 10
12.53090896644057
 20
-1.987706178943706
 30
0.0
 10
12.58173411800972
 20
-2.079769702530841
 30
0.0
 10
12.70669881075071
 20
-2.370022040955176
 30
0.0
 10
12.74984884330846
 20
-2.574790573815468
 30
0.0
 10
12.750074985896
 20
-2.88193110451563
 30
0.0
 10
12.73946458806408
 20
-2.982041129251024
 30
0.0
 10
12.69752818601169
 20
-3.1779460588112
 30
0.0
 10
12.66564554546953
 20
-3.27467998700106
 30
0.0
 10
12.58305123302603
 20
-3.456698016345912
 30
0.0
 10
12.5324532381132
 20
-3.542576035926955
 30
0.0
 10
12.41255813972286
 20
-3.704454977926659
 30
0.0
 10
12.34332496771579
 20
-3.779926585016032
 30
0.0
 10
12.11600446435218
 20
-3.982558447158495
 30
0.0
 10
11.93248261353036
 20
-4.090598234400216
 30
0.0
 10
11.53562306425299
 20
-4.235045795355129
 30
0.0
 10
11.31862385080573
 20
-4.273248142352408
 30
0.0
 10
11.10000000000003
 20
-4.273248142352394
 30
0.0
  0
SPLINE
  5
202
330
1F
100
AcDbEntity
  8
SK3
  6
SLD-Dashed
370
    18
100
AcDbSpline
210
0.0
220
0.0
230
1.0
 70
     8
 71
     3
 72
    32
 73
    28
 74
     0
 42
0.000000001
 43
0.00000001
 40
0.0
 40
0.0
 40
0.0
 40
0.0
 40
0.03125
 40
0.03125
 40
0.0625
 40
0.0625
 40
0.0937499999999999
 40
0.0937499999999999
 40
0.1249999999999999
 40
0.1249999999999999
 40
0.1875
 40
0.1875
 40
0.2500000000000002
 40
0.2500000000000002
 40
0.2812500000000002
 40
0.2812500000000002
 40
0.3125000000000002
 40
0.3125000000000002
 40
0.3750000000000006
 40
0.3750000000000006
 40
0.4062500000000008
 40
0.4062500000000008
 40
0.4375000000000011
 40
0.4375000000000011
 40
0.4687500000000012
 40
0.4687500000000012
 40
0.5000000000000014
 40
0.5000000000000014
 40
0.5000000000000014
 40
0.5000000000000014
 10
11.10000000000003
 20
-4.273248142352394
 30
0.0
 10
10.99068807459713
 20
-4.273248142352394
 30
0.0
 10
10.88326119819616
 20
-4.26391152522166
 30
0.0
 10
10.67200494379927
 20
-4.22728804855304
 30
0.0
 10
10.56706148568909
 20
-4.199537676458358
 30
0.0
 10
10.36739348274404
 20
-4.127037252205152
 30
0.0
 10
10.27273864277767
 20
-4.0825990351138
 30
0.0
 10
10.09360110070671
 20
-3.977106840031754
 30
0.0
 10
10.00901147786661
 20
-3.91563583003323
 30
0.0
 10
9.781386025029898
 20
-3.712978124459594
 30
0.0
 10
9.658539850675856
 20
-3.547939415447225
 30
0.0
 10
9.493760007537599
 20
-3.185632428826947
 30
0.0
 10
9.450128468773217
 20
-2.984359995793461
 30
0.0
 10
9.449936202030953
 20
-2.680136765387163
 30
0.0
 10
9.460716382586734
 20
-2.576340454678798
 30
0.0
 10
9.502936570434246
 20
-2.374403952996464
 30
0.0
 10
9.534171573466546
 20
-2.275513578676468
 30
0.0
 10
9.65852709079798
 20
-1.985430523736835
 30
0.0
 10
9.779760933896862
 20
-1.807400152895607
 30
0.0
 10
10.00971138396411
 20
-1.579831934769495
 30
0.0
 10
10.09270664343155
 20
-1.512122416363872
 30
0.0
 10
10.27110854585569
 20
-1.392868449626793
 30
0.0
 10
10.36770009102272
 20
-1.340919181424143
 30
0.0
 10
10.56708732136066
 20
-1.257739154329036
 30
0.0
 10
10.66992862936889
 20
-1.226142424059363
 30
0.0
 10
10.8819798310047
 20
-1.183281930040976
 30
0.0
 10
10.99149733148547
 20
-1.172307109534469
 30
0.0
 10
11.09932654210971
 20
-1.172262632651265
 30
0.0
  0
SPLINE
  5
203
330
1F
100
AcDbEntity
  8
SK3
  6
SLD-Dashed
370
    18
100
AcDbSpline
210
0.0
220
0.0
230
1.0
 70
     8
 71
     3
 72
    10
 73
     6
 74
     0
 42
0.000000001
 43
0.00000001
 40
0.0
 40
0.0
 40
0.0
 40
0.0
 40
0.5
 40
0.5
 40
1.0
 40
1.0
 40
1.0
 40
1.0
 10
3.699999999999993
 20
25.20500000000003
 30
0.0
 10
3.699999999999978
 20
25.27446188700639
 30
0.0
 10
3.679668344673005
 20
25.34157876899188
 30
0.0
 10
3.621774626393174
 20
25.46534569655892
 30
0.0
 10
3.584972825281728
 20
25.52292618711532
 30
0.0
 10
3.545388844997974
 20
25.57898258716477
 30
0.0
  0
SPLINE
  5
204
330
1F
100
AcDbEntity
  8
SK3
  6
SLD-Dashed
370
    18
100
AcDbSpline
210
0.0
220
0.0
230
1.0
 70
     8
 71
     3
 72
    10
 73
     6
 74
     0
 42
0.000000001
 43
0.00000001
 40
0.0
 40
0.0
 40
0.0
 40
0.0
 40
0.5
 40
0.5
 40
1.0
 40
1.0
 40
1.0
 40
1.0
 10
18.70470837592289
 20
25.57912025275681
 30
0.0
 10
18.66514338213329
 20
25.52310107590326
 30
0.0
 10
18.62842911249976
 20
25.4656224980794
 30
0.0
 10
18.57073957446642
 20
25.34260791126141
 30
0.0
 10
18.55000000000001
 20
25.27482658978052
 30
0.0
 10
18.55000000000001
 20
25.20500000000003
 30
0.0
  0
SPLINE
  5
205
330
1F
100
AcDbEntity
  8
1
  6
SLD-Dashed
370
    18
100
AcDbSpline
210
0.0
220
0.0
230
1.0
 70
    24
 71
     3
 72
     8
 73
     4
 74
     0
 42
0.000000001
 43
0.00000001
 40
0.0
 40
0.0
 40
0.0
 40
0.0
 40
0.4999999999999987
 40
0.4999999999999987
 40
0.4999999999999987
 40
0.4999999999999987
 10
19.05000000000001
 20
-22.41000000000002
 30
0.0
 10
18.97247827222665
 20
-22.41000000000001
 30
0.0
 10
18.89661835205908
 20
-22.41000000000001
 30
0.0
 10
18.83038739399196
 20
-22.41
 30
0.0
  0
SPLINE
  5
206
330
1F
100
AcDbEntity
  8
SK3
  6
SLD-Dashed
370
    18
100
AcDbSpline
210
0.0
220
0.0
230
1.0
 70
    24
 71
     3
 72
     8
 73
     4
 74
     0
 42
0.000000001
 43
0.00000001
 40
0.4999999999999987
 40
0.4999999999999987
 40
0.4999999999999987
 40
0.4999999999999987
 40
0.7499999999999993
 40
0.7499999999999993
 40
0.7499999999999993
 40
0.7499999999999993
 10
18.83038739399196
 20
-22.41
 30
0.0
 10
18.79727191495842
 20
-22.41
 30
0.0
 10
18.76669863834141
 20
-22.41000000000001
 30
0.0
 10
18.743421922889
 20
-22.41000000000001
 30
0.0
  0
SPLINE
  5
207
330
1F
100
AcDbEntity
  8
SK3
  6
SLD-Dashed
370
    18
100
AcDbSpline
210
0.0
220
0.0
230
1.0
 70
    24
 71
     2
 72
     6
 73
     3
 74
     0
 42
0.000000001
 43
0.00000001
 40
0.7499999999999993
 40
0.7499999999999993
 40
0.7499999999999993
 40
1.0
 40
1.0
 40
1.0
 10
18.743421922889
 20
-22.41000000000001
 30
0.0
 10
18.72014520743662
 20
-22.41000000000001
 30
0.0
 10
18.70461115500191
 20
-22.41000000000001
 30
0.0
  0
SPLINE
  5
208
330
1F
100
AcDbEntity
  8
SK3
  6
SLD-Dashed
370
    18
100
AcDbSpline
210
0.0
220
0.0
230
1.0
 70
    24
 71
     2
 72
     6
 73
     3
 74
     0
 42
0.000000001
 43
0.00000001
 40
0.0
 40
0.0
 40
0.0
 40
0.2500000000000002
 40
0.2500000000000002
 40
0.2500000000000002
 10
3.545291624077157
 20
-22.41000000000001
 30
0.0
 10
3.529781518569377
 20
-22.41000000000001
 30
0.0
 10
3.506264354048619
 20
-22.41000000000001
 30
0.0
  0
SPLINE
  5
209
330
1F
100
AcDbEntity
  8
1
  6
SLD-Dashed
370
    18
100
AcDbSpline
210
0.0
220
0.0
230
1.0
 70
    24
 71
     3
 72
     8
 73
     4
 74
     0
 42
0.000000001
 43
0.00000001
 40
0.2500000000000002
 40
0.2500000000000002
 40
0.2500000000000002
 40
0.2500000000000002
 40
0.5000000000000004
 40
0.5000000000000004
 40
0.5000000000000004
 40
0.5000000000000004
 10
3.506264354048619
 20
-22.41000000000001
 30
0.0
 10
3.48274718952786
 20
-22.41000000000001
 30
0.0
 10
3.452323510010763
 20
-22.41000000000001
 30
0.0
 10
3.419371480420971
 20
-22.41000000000001
 30
0.0
  0
SPLINE
  5
20A
330
1F
100
AcDbEntity
  8
1
  6
SLD-Dashed
370
    18
100
AcDbSpline
210
0.0
220
0.0
230
1.0
 70
    24
 71
     3
 72
     8
 73
     4
 74
     0
 42
0.000000001
 43
0.00000001
 40
0.5000000000000004
 40
0.5000000000000004
 40
0.5000000000000004
 40
0.5000000000000004
 40
1.0
 40
1.0
 40
1.0
 40
1.0
 10
3.419371480420971
 20
-22.41000000000001
 30
0.0
 10
3.353467421241416
 20
-22.41000000000002
 30
0.0
 10
3.27748356546001
 20
-22.41000000000003
 30
0.0
 10
3.200000000000008
 20
-22.41000000000004
 30
0.0
  0
SPLINE
  5
20B
330
1F
100
AcDbEntity
  8
SK3
  6
SLD-Dashed
370
    18
100
AcDbSpline
210
0.0
220
0.0
230
1.0
 70
     8
 71
     3
 72
    30
 73
    26
 74
     0
 42
0.000000001
 43
0.00000001
 40
0.5000000000000016
 40
0.5000000000000016
 40
0.5000000000000016
 40
0.5000000000000016
 40
0.5625000000000013
 40
0.5625000000000013
 40
0.5937500000000012
 40
0.5937500000000012
 40
0.6250000000000011
 40
0.6250000000000011
 40
0.6562500000000009
 40
0.6562500000000009
 40
0.6875000000000008
 40
0.6875000000000008
 40
0.7500000000000006
 40
0.7500000000000006
 40
0.7812500000000004
 40
0.7812500000000004
 40
0.8125000000000003
 40
0.8125000000000003
 40
0.8437500000000002
 40
0.8437500000000002
 40
0.875
 40
0.875
 40
0.9375000000000001
 40
0.9375000000000001
 40
1.0
 40
1.0
 40
1.0
 40
1.0
 10
11.10067345789026
 20
4.273248022945715
 30
0.0
 10
10.88501503664174
 20
4.27332449708482
 30
0.0
 10
10.66734394234087
 20
4.235756314370308
 30
0.0
 10
10.3693199197446
 20
4.127832907455089
 30
0.0
 10
10.27295005093144
 20
4.082725877799266
 30
0.0
 10
10.09333460682807
 20
3.976947557228529
 30
0.0
 10
10.01043908017006
 20
3.916764626049694
 30
0.0
 10
9.858199257011451
 20
3.781505899570429
 30
0.0
 10
9.788625786269447
 20
3.70578314646914
 30
0.0
 10
9.669091033559424
 20
3.544925294897951
 30
0.0
 10
9.618265881990274
 20
3.459193970838041
 30
0.0
 10
9.493301189249292
 20
3.185007836897825
 30
0.0
 10
9.450151156691552
 20
2.986435971979597
 30
0.0
 10
9.449925014104021
 20
2.679326836051675
 30
0.0
 10
9.460535411935922
 20
2.577730509282179
 30
0.0
 10
9.502471813988306
 20
2.376110364571464
 30
0.0
 10
9.534354454530463
 20
2.275075101694092
 30
0.0
 10
9.616948766973998
 20
2.082431805189265
 30
0.0
 10
9.667546761886816
 20
1.990241540214925
 30
0.0
 10
9.787441860277134
 20
1.814428469746297
 30
0.0
 10
9.85667503228424
 20
1.73135999332464
 30
0.0
 10
10.08399553564783
 20
1.506164026562291
 30
0.0
 10
10.26751738646965
 20
1.38293386955584
 30
0.0
 10
10.66437693574704
 20
1.216933002950942
 30
0.0
 10
10.88137614919427
 20
1.172262493758895
 30
0.0
 10
11.1
 20
1.172262493758895
 30
0.0
  0
SPLINE
  5
20C
330
1F
100
AcDbEntity
  8
SK3
  6
SLD-Dashed
370
    18
100
AcDbSpline
210
0.0
220
0.0
230
1.0
 70
     8
 71
     3
 72
    32
 73
    28
 74
     0
 42
0.000000001
 43
0.00000001
 40
0.0
 40
0.0
 40
0.0
 40
0.0
 40
0.03125
 40
0.03125
 40
0.0624999999999999
 40
0.0624999999999999
 40
0.0937499999999999
 40
0.0937499999999999
 40
0.1249999999999999
 40
0.1249999999999999
 40
0.1875000000000001
 40
0.1875000000000001
 40
0.2500000000000004
 40
0.2500000000000004
 40
0.2812500000000004
 40
0.2812500000000004
 40
0.3125000000000006
 40
0.3125000000000006
 40
0.3750000000000009
 40
0.3750000000000009
 40
0.4062500000000011
 40
0.4062500000000011
 40
0.4375000000000012
 40
0.4375000000000012
 40
0.4687500000000014
 40
0.4687500000000014
 40
0.5000000000000016
 40
0.5000000000000016
 40
0.5000000000000016
 40
0.5000000000000016
 10
11.1
 20
1.172262493758881
 30
0.0
 10
11.20931192540289
 20
1.172262493758895
 30
0.0
 10
11.31673880180387
 20
1.183138544805541
 30
0.0
 10
11.52799505620075
 20
1.22560896668223
 30
0.0
 10
11.63293851431094
 20
1.257737239805955
 30
0.0
 10
11.83260651725598
 20
1.341059805501539
 30
0.0
 10
11.92726135722236
 20
1.391896527203014
 30
0.0
 10
12.10639889929332
 20
1.511408431319562
 30
0.0
 10
12.19098852213343
 20
1.580534013859165
 30
0.0
 10
12.41861397497015
 20
1.805773063598047
 30
0.0
 10
12.54146014932417
 20
1.985843312970352
 30
0.0
 10
12.7062399924624
 20
2.369341561815168
 30
0.0
 10
12.74987153122678
 20
2.576869699703742
 30
0.0
 10
12.75006379796906
 20
2.88111962199062
 30
0.0
 10
12.73928361741328
 20
2.983405973731194
 30
0.0
 10
12.69706342956575
 20
3.179589687366945
 30
0.0
 10
12.66582842653347
 20
3.274265131767408
 30
0.0
 10
12.54147290920202
 20
3.548350303400762
 30
0.0
 10
12.42023906610312
 20
3.71151320897397
 30
0.0
 10
12.19028861603588
 20
3.916267996849236
 30
0.0
 10
12.10729335656846
 20
3.976472409702551
 30
0.0
 10
11.9288914541443
 20
4.081745269521715
 30
0.0
 10
11.83229990897727
 20
4.127159848563093
 30
0.0
 10
11.63291267863933
 20
4.199535773318532
 30
0.0
 10
11.53007137063111
 20
4.226827435284859
 30
0.0
 10
11.31802016899533
 20
4.263788468111131
 30
0.0
 10
11.2085026685145
 20
4.273209785876163
 30
0.0
 10
11.10067345789026
 20
4.273248022945715
 30
0.0
  0
SPLINE
  5
20D
330
1F
100
AcDbEntity
  8
SK3
  6
SLD-Dashed
370
    18
100
AcDbSpline
210
0.0
220
0.0
230
1.0
 70
     8
 71
     3
 72
    40
 73
    36
 74
     0
 42
0.000000001
 43
0.00000001
 40
0.0
 40
0.0
 40
0.0
 40
0.0
 40
0.0126129321449816
 40
0.0314976481339604
 40
0.0629183966702564
 40
0.0880663439714168
 40
0.1258663548219043
 40
0.1545361786951687
 40
0.1972635113751465
 40
0.2185774264758751
 40
0.2505499734499138
 40
0.2790323571745755
 40
0.3220275475257124
 40
0.3436168159336463
 40
0.3758133620275749
 40
0.404289809506831
 40
0.4468993710431156
 40
0.468210972392158
 40
0.5002437124696447
 40
0.5288533887317777
 40
0.5719828275869667
 40
0.5934420637179458
 40
0.6254916984483699
 40
0.6539107272569499
 40
0.6965262692674994
 40
0.7178823906336999
 40
0.7500313093276819
 40
0.7787800102949101
 40
0.8217645159398103
 40
0.8431483194632992
 40
0.8751517844153629
 40
0.9000181010942334
 40
0.9373587731677226
 40
0.9685909586685477
 40
1.0
 40
1.0
 40
1.0
 40
1.0
 10
3.949999999998885
 20
-30.22558142012364
 30
0.0
 10
3.947274304054407
 20
-30.22556434752346
 30
0.0
 10
3.940467559136393
 20
-30.22552171296816
 30
0.0
 10
3.926878079312815
 20
-30.22500449703394
 30
0.0
 10
3.910614550228675
 20
-30.22373214657328
 30
0.0
 10
3.890377361763536
 20
-30.22117483723317
 30
0.0
 10
3.870876571852019
 20
-30.21766990056472
 30
0.0
 10
3.847909402640779
 20
-30.21222207486607
 30
0.0
 10
3.828703761990043
 20
-30.20644931168604
 30
0.0
 10
3.809172441364875
 20
-30.19943885792489
 30
0.0
 10
3.792810014292158
 20
-30.19274290251866
 30
0.0
 10
3.772556787560208
 20
-30.18326307338683
 30
0.0
 10
3.754852229733832
 20
-30.17368149207815
 30
0.0
 10
3.737001129755918
 20
-30.16277896347313
 30
0.0
 10
3.72223793065897
 20
-30.15285978974809
 30
0.0
 10
3.704336292931792
 20
-30.13951958199216
 30
0.0
 10
3.689010882644297
 20
-30.12669241146888
 30
0.0
 10
3.673804931859065
 20
-30.11259090121807
 30
0.0
 10
3.661328526176191
 20
-30.10000934793183
 30
0.0
 10
3.646311367638336
 20
-30.08334675455452
 30
0.0
 10
3.633674708738405
 20
-30.0676414670618
 30
0.0
 10
3.621410566074498
 20
-30.05073531891782
 30
0.0
 10
3.611611223628936
 20
-30.03598007668936
 30
0.0
 10
3.600156512781658
 20
-30.01686769647027
 30
0.0
 10
3.590829750079544
 20
-29.9991957499668
 30
0.0
 10
3.58203581287464
 20
-29.98037484052064
 30
0.0
 10
3.575165778815586
 20
-29.96397246361068
 30
0.0
 10
3.56744982965651
 20
-29.9428852210927
 30
0.0
 10
3.561558066370679
 20
-29.92362739013728
 30
0.0
 10
3.556428567390829
 20
-29.90344062128828
 30
0.0
 10
3.552918981595626
 20
-29.88689085311456
 30
0.0
 10
3.549536425733829
 20
-29.86681061568513
 30
0.0
 10
3.547124737183355
 20
-29.84675343612379
 30
0.0
 10
3.545564419127054
 20
-29.82519260420116
 30
0.0
 10
3.545382726751256
 20
-29.81165457437738
 30
0.0
 10
3.545291624076075
 20
-29.8048664484133
 30
0.0
  0
SPLINE
  5
20E
330
1F
100
AcDbEntity
  8
SK3
  6
SLD-Dashed
370
    18
100
AcDbSpline
210
0.0
220
0.0
230
1.0
 70
     8
 71
     3
 72
    40
 73
    36
 74
     0
 42
0.000000001
 43
0.00000001
 40
0.0
 40
0.0
 40
0.0
 40
0.0
 40
0.0314214559572227
 40
0.0627294389671943
 40
0.0877405066521885
 40
0.125275232669724
 40
0.1539551384600139
 40
0.1970430837597965
 40
0.2184753360378567
 40
0.2505176110611755
 40
0.2789492345937477
 40
0.3216198597593979
 40
0.3430128235413608
 40
0.3752634384750789
 40
0.4040010771804361
 40
0.4468656794915655
 40
0.4682159459362438
 40
0.5002096454815023
 40
0.5286754137344519
 40
0.5715400247765465
 40
0.5931009716299148
 40
0.6253883780511632
 40
0.6539191343952845
 40
0.696591424456682
 40
0.7179237821488482
 40
0.749974649427047
 40
0.7785976316863411
 40
0.795854339812784
 40
0.8217160693566484
 40
0.8431552865480455
 40
0.8751886732441913
 40
0.9000580147531466
 40
0.9373794059838183
 40
0.9685930788650419
 40
0.9999999999999999
 40
0.9999999999999999
 40
0.9999999999999999
 40
0.9999999999999999
 10
18.70461115500193
 20
-29.80485527419842
 30
0.0
 10
18.7045198028635
 20
-29.81164440520549
 30
0.0
 10
18.70433742848854
 20
-29.8251981494918
 30
0.0
 10
18.702967285952
 20
-29.84411564286004
 30
0.0
 10
18.70072137877138
 20
-29.86427043795472
 30
0.0
 10
18.69761618492968
 20
-29.88374590039356
 30
0.0
 10
18.69275878580928
 20
-29.9068611179157
 30
0.0
 10
18.68756401153337
 20
-29.92633239392293
 30
0.0
 10
18.68121966076011
 20
-29.94620899181277
 30
0.0
 10
18.67516357609366
 20
-29.96284451017635
 30
0.0
 10
18.66659391017355
 20
-29.98342104192522
 30
0.0
 10
18.65792216957784
 20
-30.00144320562836
 30
0.0
 10
18.64799759935262
 20
-30.01973532130569
 30
0.0
 10
18.63887055578692
 20
-30.0350249959246
 30
0.0
 10
18.62647938435724
 20
-30.05373739732938
 30
0.0
 10
18.61447418288872
 20
-30.06985792745573
 30
0.0
 10
18.60124205632124
 20
-30.08589113399747
 30
0.0
 10
18.58942860682683
 20
-30.0990495541836
 30
0.0
 10
18.57374043191443
 20
-30.11493869793075
 30
0.0
 10
18.55884768057942
 20
-30.12841850147779
 30
0.0
 10
18.54265426161455
 20
-30.14162746302956
 30
0.0
 10
18.528388002928
 20
-30.15228399886077
 30
0.0
 10
18.50983571493525
 20
-30.16477481501637
 30
0.0
 10
18.49262445031485
 20
-30.1749829125769
 30
0.0
 10
18.47424607318984
 20
-30.18462804605511
 30
0.0
 10
18.45820753870475
 20
-30.19217667946482
 30
0.0
 10
18.44263074348687
 20
-30.19858412922859
 30
0.0
 10
18.42808324373879
 20
-30.20393768674265
 30
0.0
 10
18.41482664955696
 20
-30.2082886119914
 30
0.0
 10
18.39834274985591
 20
-30.21299666641594
 30
0.0
 10
18.38186940102374
 20
-30.21692139734204
 30
0.0
 10
18.36186218647023
 20
-30.22070805123951
 30
0.0
 10
18.34185224742002
 20
-30.22341140280932
 30
0.0
 10
18.32031695323613
 20
-30.22516290854394
 30
0.0
 10
18.30678623642201
 20
-30.22536701808554
 30
0.0
 10
18.30000000000001
 20
-30.22546938779917
 30
0.0
  0
SPLINE
  5
20F
330
1F
100
AcDbEntity
  8
SK3
  6
SLD-Dashed
370
    18
100
AcDbSpline
210
0.0
220
0.0
230
1.0
 70
     8
 71
     3
 72
    40
 73
    36
 74
     0
 42
0.000000001
 43
0.00000001
 40
0.0
 40
0.0
 40
0.0
 40
0.0
 40
0.0125929119920853
 40
0.0314096195346373
 40
0.0626234169499198
 40
0.0875147363747587
 40
0.124814412830725
 40
0.1532834083387407
 40
0.1962265830891685
 40
0.2178107992109856
 40
0.2500224951329321
 40
0.2785169301552057
 40
0.3211718523043689
 40
0.3425182663517161
 40
0.3746092478105291
 40
0.4033018002026093
 40
0.4463503818994342
 40
0.4677602234265854
 40
0.4997883410590171
 40
0.5282270395863745
 40
0.5709521530205331
 40
0.5924138618617291
 40
0.6247350591047612
 40
0.6534144483970801
 40
0.6961683199419044
 40
0.7174969314503464
 40
0.7494813527194152
 40
0.7779588669976988
 40
0.8208766717687367
 40
0.8424514691504715
 40
0.874724282179473
 40
0.8997563983109313
 40
0.9372703102803501
 40
0.968578418532575
 40
0.9999999999999999
 40
0.9999999999999999
 40
0.9999999999999999
 40
0.9999999999999999
 10
18.30000000000001
 20
30.22558142012639
 30
0.0
 10
18.30272136951242
 20
30.22556441746849
 30
0.0
 10
18.30950909113327
 20
30.22552200892813
 30
0.0
 10
18.3230349115113
 20
30.22500878447084
 30
0.0
 10
18.33918410220825
 20
30.22374990827883
 30
0.0
 10
18.35921637335283
 20
30.22123374888837
 30
0.0
 10
18.37851743465282
 20
30.21779055348816
 30
0.0
 10
18.40139259411772
 20
30.21241015713828
 30
0.0
 10
18.42066868063113
 20
30.20665667098934
 30
0.0
 10
18.44035778154607
 20
30.19962160064928
 30
0.0
 10
18.4568321931845
 20
30.19290122073893
 30
0.0
 10
18.47707551770183
 20
30.18344563237709
 30
0.0
 10
18.49468238340835
 20
30.17394373601332
 30
0.0
 10
18.51242282863929
 20
30.16314575471338
 30
0.0
 10
18.52718102114117
 20
30.1532706464055
 30
0.0
 10
18.54520190007997
 20
30.13989144466211
 30
0.0
 10
18.56066753372129
 20
30.12697740010817
 30
0.0
 10
18.57597030022936
 20
30.11281096127925
 30
0.0
 10
18.58844277986746
 20
30.10024903998077
 30
0.0
 10
18.60339048841034
 20
30.08369276015744
 30
0.0
 10
18.61596948562732
 20
30.06810049270645
 30
0.0
 10
18.6282430712551
 20
30.05123600708181
 30
0.0
 10
18.638127383442
 20
30.03639837328908
 30
0.0
 10
18.64967535556761
 20
30.01717281850424
 30
0.0
 10
18.65905060754961
 20
29.99943559548713
 30
0.0
 10
18.66785100498267
 20
29.98063051707891
 30
0.0
 10
18.67469312836917
 20
29.96432508828281
 30
0.0
 10
18.68239354934312
 20
29.94334796470475
 30
0.0
 10
18.68830098830934
 20
29.92412819400952
 30
0.0
 10
18.69347515991065
 20
29.9038649584692
 30
0.0
 10
18.69702701390044
 20
29.88718562683122
 30
0.0
 10
18.70044011360977
 20
29.8669771633764
 30
0.0
 10
18.70287111134994
 20
29.84683182165026
 30
0.0
 10
18.70443405316874
 20
29.82521437831679
 30
0.0
 10
18.70461682479818
 20
29.81165726630967
 30
0.0
 10
18.70470837592286
 20
29.80486644841631
 30
0.0
  0
SPLINE
  5
210
330
1F
100
AcDbEntity
  8
SK3
  6
SLD-Dashed
370
    18
100
AcDbSpline
210
0.0
220
0.0
230
1.0
 70
     8
 71
     3
 72
    39
 73
    35
 74
     0
 42
0.000000001
 43
0.00000001
 40
0.0
 40
0.0
 40
0.0
 40
0.0
 40
0.0314091160307674
 40
0.0626413758641538
 40
0.0875470935131885
 40
0.1248485138287456
 40
0.1532930400450731
 40
0.1960941157944613
 40
0.2176225947738233
 40
0.2499693772004398
 40
0.2785546285585068
 40
0.3212364873026817
 40
0.3425405354923858
 40
0.3745092858974068
 40
0.4029918411019298
 40
0.4459785689856149
 40
0.4675618916159466
 40
0.4997576608210499
 40
0.5282368343000431
 40
0.5708480092884092
 40
0.5921584935845995
 40
0.6241883328452476
 40
0.6527986190299354
 40
0.6959401501309849
 40
0.7174023419155745
 40
0.7494519752642005
 40
0.7778741158300017
 40
0.8205144520917228
 40
0.8418962920619149
 40
0.8741359236783777
 40
0.8993502252909598
 40
0.9370840470446206
 40
0.9685048711195197
 40
1.0
 40
1.0
 40
1.0
 40
1.0
 10
3.545388844997974
 20
29.80485527419825
 30
0.0
 10
3.545479748550576
 20
29.81164171345385
 30
0.0
 10
3.54566104380261
 20
29.82517637936965
 30
0.0
 10
3.547029433803338
 20
29.84405190465711
 30
0.0
 10
3.549258968233817
 20
29.86411824570156
 30
0.0
 10
3.552336224857544
 20
29.88347227622578
 30
0.0
 10
3.557141779746745
 20
29.90643124843556
 30
0.0
 10
3.562288225622205
 20
29.92581971282425
 30
0.0
 10
3.568614089357721
 20
29.94572790966324
 30
0.0
 10
3.574692956926397
 20
29.96248267210258
 30
0.0
 10
3.583287776048127
 20
29.98315850998392
 30
0.0
 10
3.591955015312254
 20
30.00120090567662
 30
0.0
 10
3.601831018727639
 20
30.01943081107645
 30
0.0
 10
3.610874012133442
 20
30.03461278108221
 30
0.0
 10
3.623189627258754
 20
30.05326734966762
 30
0.0
 10
3.635184378154364
 20
30.06942261759878
 30
0.0
 10
3.648473969075899
 20
30.08556438898109
 30
0.0
 10
3.660340157340358
 20
30.09880574838226
 30
0.0
 10
3.676012531497225
 20
30.11469877887867
 30
0.0
 10
3.690813818886916
 20
30.12812096686809
 30
0.0
 10
3.706862089264404
 20
30.14124723286361
 30
0.0
 10
3.721035740664485
 20
30.15187245989081
 30
0.0
 10
3.739615920455573
 20
30.16443427377515
 30
0.0
 10
3.756939716856907
 20
30.17474090541242
 30
0.0
 10
3.775422312926254
 20
30.18446497823755
 30
0.0
 10
3.791441042936035
 20
30.19201976729602
 30
0.0
 10
3.812039955628079
 20
30.20051935318396
 30
0.0
 10
3.830933874073447
 20
30.20705284128371
 30
0.0
 10
3.850922478500745
 20
30.21280585013026
 30
0.0
 10
3.867492347984391
 20
30.21678677988685
 30
0.0
 10
3.887698638249892
 20
30.22064109222354
 30
0.0
 10
3.907913014965708
 20
30.22338985618056
 30
0.0
 10
3.929600305356981
 20
30.22516034748686
 30
0.0
 10
3.943194750029202
 20
30.22536629328654
 30
0.0
 10
3.949999999999967
 20
30.2254693877991
 30
0.0
  0
SPLINE
  5
211
330
1F
100
AcDbEntity
  8
SK3
  6
SLD-Dashed
370
    18
100
AcDbSpline
210
0.0
220
0.0
230
1.0
 70
     8
 71
     2
 72
     6
 73
     3
 74
     0
 42
0.000000001
 43
0.00000001
 40
0.0
 40
0.0
 40
0.0
 40
0.0312500000000001
 40
0.0312500000000001
 40
0.0312500000000001
 10
39.64960000000001
 20
7.93749999999998
 30
0.0
 10
39.696030989153
 20
7.90007093153066
 30
0.0
 10
39.7853331930462
 20
7.82889666248069
 30
0.0
  0
SPLINE
  5
212
330
1F
100
AcDbEntity
  8
SK3
  6
SLD-Dashed
370
    18
100
AcDbSpline
210
0.0
220
0.0
230
1.0
 70
     8
 71
     3
 72
     8
 73
     4
 74
     0
 42
0.000000001
 43
0.00000001
 40
0.0312500000000001
 40
0.0312500000000001
 40
0.0312500000000001
 40
0.0312500000000001
 40
0.0468750000000002
 40
0.0468750000000002
 40
0.0468750000000002
 40
0.0468750000000002
 10
39.7853331930462
 20
7.82889666248069
 30
0.0
 10
39.82998429499274
 20
7.793309527955684
 30
0.0
 10
39.88588132298726
 20
7.748892046740889
 30
0.0
 10
39.9516269415203
 20
7.697015096611547
 30
0.0
  0
SPLINE
  5
213
330
1F
100
AcDbEntity
  8
SK3
  6
SLD-Dashed
370
    18
100
AcDbSpline
210
0.0
220
0.0
230
1.0
 70
     8
 71
     3
 72
     8
 73
     4
 74
     0
 42
0.000000001
 43
0.00000001
 40
0.0468750000000002
 40
0.0468750000000002
 40
0.0468750000000002
 40
0.0468750000000002
 40
0.0625000000000003
 40
0.0625000000000003
 40
0.0625000000000003
 40
0.0625000000000003
 10
39.9516269415203
 20
7.697015096611547
 30
0.0
 10
40.01737256005336
 20
7.645138146482204
 30
0.0
 10
40.09248735027249
 20
7.586178935087708
 30
0.0
 10
40.17630078368231
 20
7.521001503320892
 30
0.0
  0
SPLINE
  5
214
330
1F
100
AcDbEntity
  8
SK3
  6
SLD-Dashed
370
    18
100
AcDbSpline
210
0.0
220
0.0
230
1.0
 70
     8
 71
     3
 72
     8
 73
     4
 74
     0
 42
0.000000001
 43
0.00000001
 40
0.0625000000000003
 40
0.0625000000000003
 40
0.0625000000000003
 40
0.0625000000000003
 40
0.0781250000000004
 40
0.0781250000000004
 40
0.0781250000000004
 40
0.0781250000000004
 10
40.17630078368231
 20
7.521001503320892
 30
0.0
 10
40.26011421709211
 20
7.455824071554061
 30
0.0
 10
40.3526314310409
 20
7.384421594897376
 30
0.0
 10
40.45354674187124
 20
7.307480584819468
 30
0.0
  0
SPLINE
  5
215
330
1F
100
AcDbEntity
  8
SK3
  6
SLD-Dashed
370
    18
100
AcDbSpline
210
0.0
220
0.0
230
1.0
 70
     8
 71
     3
 72
     8
 73
     4
 74
     0
 42
0.000000001
 43
0.00000001
 40
0.0781250000000004
 40
0.0781250000000004
 40
0.0781250000000004
 40
0.0781250000000004
 40
0.0937500000000005
 40
0.0937500000000005
 40
0.0937500000000005
 40
0.0937500000000005
 10
40.45354674187124
 20
7.307480584819468
 30
0.0
 10
40.55446205270155
 20
7.230539574741547
 30
0.0
 10
40.66433073112757
 20
7.147652226655067
 30
0.0
 10
40.7802394387447
 20
7.06156458831176
 30
0.0
  0
SPLINE
  5
216
330
1F
100
AcDbEntity
  8
SK3
  6
SLD-Dashed
370
    18
100
AcDbSpline
210
0.0
220
0.0
230
1.0
 70
     8
 71
     3
 72
     8
 73
     4
 74
     0
 42
0.000000001
 43
0.00000001
 40
0.0937500000000005
 40
0.0937500000000005
 40
0.0937500000000005
 40
0.0937500000000005
 40
0.1250000000000007
 40
0.1250000000000007
 40
0.1250000000000007
 40
0.1250000000000007
 10
40.7802394387447
 20
7.06156458831176
 30
0.0
 10
41.01205685397893
 20
6.889389311625173
 30
0.0
 10
41.26902915130886
 20
6.703407058178963
 30
0.0
 10
41.55042223328911
 20
6.509994414770494
 30
0.0
  0
SPLINE
  5
217
330
1F
100
AcDbEntity
  8
SK3
  6
SLD-Dashed
370
    18
100
AcDbSpline
210
0.0
220
0.0
230
1.0
 70
     8
 71
     3
 72
     8
 73
     4
 74
     0
 42
0.000000001
 43
0.00000001
 40
0.1250000000000007
 40
0.1250000000000007
 40
0.1250000000000007
 40
0.1250000000000007
 40
0.1562500000000009
 40
0.1562500000000009
 40
0.1562500000000009
 40
0.1562500000000009
 10
41.55042223328911
 20
6.509994414770494
 30
0.0
 10
41.83181531526933
 20
6.316581771362038
 30
0.0
 10
42.14066819432957
 20
6.113726039656451
 30
0.0
 10
42.46833195739472
 20
5.916761669637303
 30
0.0
  0
SPLINE
  5
218
330
1F
100
AcDbEntity
  8
SK3
  6
SLD-Dashed
370
    18
100
AcDbSpline
210
0.0
220
0.0
230
1.0
 70
     8
 71
     3
 72
     8
 73
     4
 74
     0
 42
0.000000001
 43
0.00000001
 40
0.1562500000000009
 40
0.1562500000000009
 40
0.1562500000000009
 40
0.1562500000000009
 40
0.1875000000000011
 40
0.1875000000000011
 40
0.1875000000000011
 40
0.1875000000000011
 10
42.46833195739472
 20
5.916761669637303
 30
0.0
 10
42.79599572045989
 20
5.719797299618169
 30
0.0
 10
43.1424538594031
 20
5.52807938123636
 30
0.0
 10
43.5138521333934
 20
5.353881274175097
 30
0.0
  0
SPLINE
  5
219
330
1F
100
AcDbEntity
  8
SK3
  6
SLD-Dashed
370
    18
100
AcDbSpline
210
0.0
220
0.0
230
1.0
 70
     8
 71
     3
 72
     8
 73
     4
 74
     0
 42
0.000000001
 43
0.00000001
 40
0.1875000000000011
 40
0.1875000000000011
 40
0.1875000000000011
 40
0.1875000000000011
 40
0.2187500000000014
 40
0.2187500000000014
 40
0.2187500000000014
 40
0.2187500000000014
 10
43.5138521333934
 20
5.353881274175097
 30
0.0
 10
43.88525040738372
 20
5.17968316711382
 30
0.0
 10
44.28716220105064
 20
5.021557437384673
 30
0.0
 10
44.70532269690442
 20
4.90914750993545
 30
0.0
  0
SPLINE
  5
21A
330
1F
100
AcDbEntity
  8
SK3
  6
SLD-Dashed
370
    18
100
AcDbSpline
210
0.0
220
0.0
230
1.0
 70
     8
 71
     3
 72
     8
 73
     4
 74
     0
 42
0.000000001
 43
0.00000001
 40
0.2187500000000014
 40
0.2187500000000014
 40
0.2187500000000014
 40
0.2187500000000014
 40
0.2343750000000014
 40
0.2343750000000014
 40
0.2343750000000014
 40
0.2343750000000014
 10
44.70532269690442
 20
4.90914750993545
 30
0.0
 10
44.91440294483129
 20
4.852942546210833
 30
0.0
 10
45.12818381396938
 20
4.807837395982721
 30
0.0
 10
45.34756459927935
 20
4.7767247997084
 30
0.0
  0
SPLINE
  5
21B
330
1F
100
AcDbEntity
  8
SK3
  6
SLD-Dashed
370
    18
100
AcDbSpline
210
0.0
220
0.0
230
1.0
 70
     8
 71
     3
 72
     8
 73
     4
 74
     0
 42
0.000000001
 43
0.00000001
 40
0.2343750000000014
 40
0.2343750000000014
 40
0.2343750000000014
 40
0.2343750000000014
 40
0.2500000000000015
 40
0.2500000000000015
 40
0.2500000000000015
 40
0.2500000000000015
 10
45.34756459927935
 20
4.7767247997084
 30
0.0
 10
45.56694538458933
 20
4.745612203434078
 30
0.0
 10
45.79003656210118
 20
4.729148623066511
 30
0.0
 10
46.01036058120675
 20
4.728466495871824
 30
0.0
  0
SPLINE
  5
21C
330
1F
100
AcDbEntity
  8
SK3
  6
SLD-Dashed
370
    18
100
AcDbSpline
210
0.0
220
0.0
230
1.0
 70
     8
 71
     3
 72
     8
 73
     4
 74
     0
 42
0.000000001
 43
0.00000001
 40
0.2500000000000015
 40
0.2500000000000015
 40
0.2500000000000015
 40
0.2500000000000015
 40
0.2656250000000016
 40
0.2656250000000016
 40
0.2656250000000016
 40
0.2656250000000016
 10
46.01036058120675
 20
4.728466495871824
 30
0.0
 10
46.23068460031227
 20
4.727784368677164
 30
0.0
 10
46.45012137412388
 20
4.742573252469608
 30
0.0
 10
46.66870212132051
 20
4.772057576244472
 30
0.0
  0
SPLINE
  5
21D
330
1F
100
AcDbEntity
  8
SK3
  6
SLD-Dashed
370
    18
100
AcDbSpline
210
0.0
220
0.0
230
1.0
 70
     8
 71
     3
 72
     8
 73
     4
 74
     0
 42
0.000000001
 43
0.00000001
 40
0.2656250000000016
 40
0.2656250000000016
 40
0.2656250000000016
 40
0.2656250000000016
 40
0.2812500000000017
 40
0.2812500000000017
 40
0.2812500000000017
 40
0.2812500000000017
 10
46.66870212132051
 20
4.772057576244472
 30
0.0
 10
46.88728286851715
 20
4.801541900019337
 30
0.0
 10
47.10536623500528
 20
4.846074115867911
 30
0.0
 10
47.3150931328594
 20
4.901277525446883
 30
0.0
  0
SPLINE
  5
21E
330
1F
100
AcDbEntity
  8
SK3
  6
SLD-Dashed
370
    18
100
AcDbSpline
210
0.0
220
0.0
230
1.0
 70
     8
 71
     3
 72
     8
 73
     4
 74
     0
 42
0.000000001
 43
0.00000001
 40
0.2812500000000017
 40
0.2812500000000017
 40
0.2812500000000017
 40
0.2812500000000017
 40
0.3125000000000019
 40
0.3125000000000019
 40
0.3125000000000019
 40
0.3125000000000019
 10
47.3150931328594
 20
4.901277525446883
 30
0.0
 10
47.7345469285676
 20
5.011684344604826
 30
0.0
 10
48.13089797071795
 20
5.165431581693962
 30
0.0
 10
48.50771221438704
 20
5.340603058594261
 30
0.0
  0
SPLINE
  5
21F
330
1F
100
AcDbEntity
  8
SK3
  6
SLD-Dashed
370
    18
100
AcDbSpline
210
0.0
220
0.0
230
1.0
 70
     8
 71
     3
 72
     8
 73
     4
 74
     0
 42
0.000000001
 43
0.00000001
 40
0.3125000000000019
 40
0.3125000000000019
 40
0.3125000000000019
 40
0.3125000000000019
 40
0.343750000000002
 40
0.343750000000002
 40
0.343750000000002
 40
0.343750000000002
 10
48.50771221438704
 20
5.340603058594261
 30
0.0
 10
48.88452645805613
 20
5.515774535494559
 30
0.0
 10
49.23271343269492
 20
5.707787869733909
 30
0.0
 10
49.56012754443221
 20
5.903838399329973
 30
0.0
  0
SPLINE
  5
220
330
1F
100
AcDbEntity
  8
SK3
  6
SLD-Dashed
370
    18
100
AcDbSpline
210
0.0
220
0.0
230
1.0
 70
     8
 71
     3
 72
     8
 73
     4
 74
     0
 42
0.000000001
 43
0.00000001
 40
0.343750000000002
 40
0.343750000000002
 40
0.343750000000002
 40
0.343750000000002
 40
0.3593750000000019
 40
0.3593750000000019
 40
0.3593750000000019
 40
0.3593750000000019
 10
49.56012754443221
 20
5.903838399329973
 30
0.0
 10
49.72383460030086
 20
6.001863664128019
 30
0.0
 10
49.88221431348872
 20
6.101032172799857
 30
0.0
 10
50.03563743203149
 20
6.200273679541255
 30
0.0
  0
SPLINE
  5
221
330
1F
100
AcDbEntity
  8
SK3
  6
SLD-Dashed
370
    18
100
AcDbSpline
210
0.0
220
0.0
230
1.0
 70
     8
 71
     3
 72
     8
 73
     4
 74
     0
 42
0.000000001
 43
0.00000001
 40
0.3593750000000019
 40
0.3593750000000019
 40
0.3593750000000019
 40
0.3593750000000019
 40
0.3750000000000018
 40
0.3750000000000018
 40
0.3750000000000018
 40
0.3750000000000018
 10
50.03563743203149
 20
6.200273679541255
 30
0.0
 10
50.18906055057426
 20
6.29951518628264
 30
0.0
 10
50.33818746356155
 20
6.399300471535703
 30
0.0
 10
50.48045187488209
 20
6.496863281568268
 30
0.0
  0
SPLINE
  5
222
330
1F
100
AcDbEntity
  8
SK3
  6
SLD-Dashed
370
    18
100
AcDbSpline
210
0.0
220
0.0
230
1.0
 70
     8
 71
     3
 72
     8
 73
     4
 74
     0
 42
0.000000001
 43
0.00000001
 40
0.3750000000000018
 40
0.3750000000000018
 40
0.3750000000000018
 40
0.3750000000000018
 40
0.4062500000000018
 40
0.4062500000000018
 40
0.4062500000000018
 40
0.4062500000000018
 10
50.48045187488209
 20
6.496863281568268
 30
0.0
 10
50.76498069752316
 20
6.691988901633382
 30
0.0
 10
51.02254513525303
 20
6.878200182161113
 30
0.0
 10
51.25351356060981
 20
7.049506021238681
 30
0.0
  0
SPLINE
  5
223
330
1F
100
AcDbEntity
  8
SK3
  6
SLD-Dashed
370
    18
100
AcDbSpline
210
0.0
220
0.0
230
1.0
 70
     8
 71
     3
 72
     8
 73
     4
 74
     0
 42
0.000000001
 43
0.00000001
 40
0.4062500000000018
 40
0.4062500000000018
 40
0.4062500000000018
 40
0.4062500000000018
 40
0.4218750000000018
 40
0.4218750000000018
 40
0.4218750000000018
 40
0.4218750000000018
 10
51.25351356060981
 20
7.049506021238681
 30
0.0
 10
51.36899777328819
 20
7.135158940777465
 30
0.0
 10
51.47776119243092
 20
7.217093981895386
 30
0.0
 10
51.5793929600267
 20
7.294481629587797
 30
0.0
  0
SPLINE
  5
224
330
1F
100
AcDbEntity
  8
SK3
  6
SLD-Dashed
370
    18
100
AcDbSpline
210
0.0
220
0.0
230
1.0
 70
     8
 71
     3
 72
     8
 73
     4
 74
     0
 42
0.000000001
 43
0.00000001
 40
0.4218750000000018
 40
0.4218750000000018
 40
0.4218750000000018
 40
0.4218750000000018
 40
0.4375000000000018
 40
0.4375000000000018
 40
0.4375000000000018
 40
0.4375000000000018
 10
51.5793929600267
 20
7.294481629587797
 30
0.0
 10
51.68102472762249
 20
7.371869277280195
 30
0.0
 10
51.77599029909766
 20
7.445078577464397
 30
0.0
 10
51.86117280763011
 20
7.511264482796494
 30
0.0
  0
SPLINE
  5
225
330
1F
100
AcDbEntity
  8
SK3
  6
SLD-Dashed
370
    18
100
AcDbSpline
210
0.0
220
0.0
230
1.0
 70
     8
 71
     3
 72
     8
 73
     4
 74
     0
 42
0.000000001
 43
0.00000001
 40
0.4375000000000018
 40
0.4375000000000018
 40
0.4375000000000018
 40
0.4375000000000018
 40
0.4687500000000016
 40
0.4687500000000016
 40
0.4687500000000016
 40
0.4687500000000016
 10
51.86117280763011
 20
7.511264482796494
 30
0.0
 10
52.03153782469496
 20
7.643636293460674
 30
0.0
 10
52.16482130155683
 20
7.749352939758571
 30
0.0
 10
52.25716984103423
 20
7.822922856419869
 30
0.0
  0
SPLINE
  5
226
330
1F
100
AcDbEntity
  8
SK3
  6
SLD-Dashed
370
    18
100
AcDbSpline
210
0.0
220
0.0
230
1.0
 70
     8
 71
     3
 72
     8
 73
     4
 74
     0
 42
0.000000001
 43
0.00000001
 40
0.4687500000000016
 40
0.4687500000000016
 40
0.4687500000000016
 40
0.4687500000000016
 40
0.4843750000000014
 40
0.4843750000000014
 40
0.4843750000000014
 40
0.4843750000000014
 10
52.25716984103423
 20
7.822922856419869
 30
0.0
 10
52.30334411077292
 20
7.859707814750518
 30
0.0
 10
52.33896577994665
 20
7.88822803379529
 30
0.0
 10
52.3628185247473
 20
7.907346251596039
 30
0.0
  0
SPLINE
  5
227
330
1F
100
AcDbEntity
  8
SK3
  6
SLD-Dashed
370
    18
100
AcDbSpline
210
0.0
220
0.0
230
1.0
 70
     8
 71
     3
 72
     8
 73
     4
 74
     0
 42
0.000000001
 43
0.00000001
 40
0.4843750000000014
 40
0.4843750000000014
 40
0.4843750000000014
 40
0.4843750000000014
 40
0.5000000000000013
 40
0.5000000000000013
 40
0.5000000000000013
 40
0.5000000000000013
 10
52.3628185247473
 20
7.907346251596039
 30
0.0
 10
52.38667126954802
 20
7.926464469396787
 30
0.0
 10
52.39916709637585
 20
7.936509736413903
 30
0.0
 10
52.40031341967361
 20
7.937430458849391
 30
0.0
  0
SPLINE
  5
228
330
1F
100
AcDbEntity
  8
SK3
  6
SLD-Dashed
370
    18
100
AcDbSpline
210
0.0
220
0.0
230
1.0
 70
     8
 71
     3
 72
     8
 73
     4
 74
     0
 42
0.000000001
 43
0.00000001
 40
0.5312500000000011
 40
0.5312500000000011
 40
0.5312500000000011
 40
0.5312500000000011
 40
0.5468750000000009
 40
0.5468750000000009
 40
0.5468750000000009
 40
0.5468750000000009
 10
52.27010871878218
 20
7.833234580900079
 30
0.0
 10
52.22623176930341
 20
7.798253333126455
 30
0.0
 10
52.1718208226471
 20
7.754999489359933
 30
0.0
 10
52.10725807011973
 20
7.704027798595741
 30
0.0
  0
SPLINE
  5
229
330
1F
100
AcDbEntity
  8
SK3
  6
SLD-Dashed
370
    18
100
AcDbSpline
210
0.0
220
0.0
230
1.0
 70
     8
 71
     3
 72
     8
 73
     4
 74
     0
 42
0.000000001
 43
0.00000001
 40
0.5468750000000009
 40
0.5468750000000009
 40
0.5468750000000009
 40
0.5468750000000009
 40
0.5625000000000008
 40
0.5625000000000008
 40
0.5625000000000008
 40
0.5625000000000008
 10
52.10725807011973
 20
7.704027798595741
 30
0.0
 10
52.04269531759237
 20
7.653056107831562
 30
0.0
 10
51.96745257074475
 20
7.593955081707342
 30
0.0
 10
51.88365459747851
 20
7.528745897063836
 30
0.0
  0
SPLINE
  5
22A
330
1F
100
AcDbEntity
  8
SK3
  6
SLD-Dashed
370
    18
100
AcDbSpline
210
0.0
220
0.0
230
1.0
 70
     8
 71
     3
 72
     8
 73
     4
 74
     0
 42
0.000000001
 43
0.00000001
 40
0.5625000000000008
 40
0.5625000000000008
 40
0.5625000000000008
 40
0.5625000000000008
 40
0.5937500000000006
 40
0.5937500000000006
 40
0.5937500000000006
 40
0.5937500000000006
 10
51.88365459747851
 20
7.528745897063836
 30
0.0
 10
51.71605865094605
 20
7.398327527776839
 30
0.0
 10
51.51503035483989
 20
7.243937605810109
 30
0.0
 10
51.28342288838822
 20
7.071717780223051
 30
0.0
  0
SPLINE
  5
22B
330
1F
100
AcDbEntity
  8
SK3
  6
SLD-Dashed
370
    18
100
AcDbSpline
210
0.0
220
0.0
230
1.0
 70
     8
 71
     3
 72
     8
 73
     4
 74
     0
 42
0.000000001
 43
0.00000001
 40
0.5937500000000006
 40
0.5937500000000006
 40
0.5937500000000006
 40
0.5937500000000006
 40
0.6093750000000003
 40
0.6093750000000003
 40
0.6093750000000003
 40
0.6093750000000003
 10
51.28342288838822
 20
7.071717780223051
 30
0.0
 10
51.16761915516241
 20
6.985607867429529
 30
0.0
 10
51.04397923901671
 20
6.894946052800603
 30
0.0
 10
50.91488813350947
 20
6.802145767935038
 30
0.0
  0
SPLINE
  5
22C
330
1F
100
AcDbEntity
  8
SK3
  6
SLD-Dashed
370
    18
100
AcDbSpline
210
0.0
220
0.0
230
1.0
 70
     8
 71
     3
 72
     8
 73
     4
 74
     0
 42
0.000000001
 43
0.00000001
 40
0.6093750000000003
 40
0.6093750000000003
 40
0.6093750000000003
 40
0.6093750000000003
 40
0.6250000000000001
 40
0.6250000000000001
 40
0.6250000000000001
 40
0.6250000000000001
 10
50.91488813350947
 20
6.802145767935038
 30
0.0
 10
50.78579702800226
 20
6.709345483069486
 30
0.0
 10
50.65075093171845
 20
6.614022099829649
 30
0.0
 10
50.5097612727328
 20
6.516998140509441
 30
0.0
  0
SPLINE
  5
22D
330
1F
100
AcDbEntity
  8
SK3
  6
SLD-Dashed
370
    18
100
AcDbSpline
210
0.0
220
0.0
230
1.0
 70
     8
 71
     3
 72
     8
 73
     4
 74
     0
 42
0.000000001
 43
0.00000001
 40
0.6250000000000001
 40
0.6250000000000001
 40
0.6250000000000001
 40
0.6250000000000001
 40
0.640625
 40
0.640625
 40
0.640625
 40
0.640625
 10
50.5097612727328
 20
6.516998140509441
 30
0.0
 10
50.36877161374717
 20
6.419974181189232
 30
0.0
 10
50.22184071738137
 20
6.321242174592477
 30
0.0
 10
50.06867290064085
 20
6.221693629340559
 30
0.0
  0
SPLINE
  5
22E
330
1F
100
AcDbEntity
  8
SK3
  6
SLD-Dashed
370
    18
100
AcDbSpline
210
0.0
220
0.0
230
1.0
 70
     8
 71
     3
 72
     8
 73
     4
 74
     0
 42
0.000000001
 43
0.00000001
 40
0.640625
 40
0.640625
 40
0.640625
 40
0.640625
 40
0.6562499999999998
 40
0.6562499999999998
 40
0.6562499999999998
 40
0.6562499999999998
 10
50.06867290064085
 20
6.221693629340559
 30
0.0
 10
49.9155050839003
 20
6.122145084088627
 30
0.0
 10
49.75545154597799
 20
6.021398222991463
 30
0.0
 10
49.59112232601956
 20
5.922449622760374
 30
0.0
  0
SPLINE
  5
22F
330
1F
100
AcDbEntity
  8
SK3
  6
SLD-Dashed
370
    18
100
AcDbSpline
210
0.0
220
0.0
230
1.0
 70
     8
 71
     3
 72
     8
 73
     4
 74
     0
 42
0.000000001
 43
0.00000001
 40
0.6562499999999998
 40
0.6562499999999998
 40
0.6562499999999998
 40
0.6562499999999998
 40
0.6874999999999998
 40
0.6874999999999998
 40
0.6874999999999998
 40
0.6874999999999998
 10
49.59112232601956
 20
5.922449622760374
 30
0.0
 10
49.26246388610264
 20
5.724552422298211
 30
0.0
 10
48.91569429868667
 20
5.532397188757289
 30
0.0
 10
48.54523821278503
 20
5.358150962709217
 30
0.0
  0
SPLINE
  5
230
330
1F
100
AcDbEntity
  8
SK3
  6
SLD-Dashed
370
    18
100
AcDbSpline
210
0.0
220
0.0
230
1.0
 70
     8
 71
     3
 72
     8
 73
     4
 74
     0
 42
0.000000001
 43
0.00000001
 40
0.6874999999999998
 40
0.6874999999999998
 40
0.6874999999999998
 40
0.6874999999999998
 40
0.7031249999999999
 40
0.7031249999999999
 40
0.7031249999999999
 40
0.7031249999999999
 10
48.54523821278503
 20
5.358150962709217
 30
0.0
 10
48.36001016983421
 20
5.271027849685174
 30
0.0
 10
48.16877923755558
 20
5.188468916617235
 30
0.0
 10
47.97009920851811
 20
5.112884901988059
 30
0.0
  0
SPLINE
  5
231
330
1F
100
AcDbEntity
  8
SK3
  6
SLD-Dashed
370
    18
100
AcDbSpline
210
0.0
220
0.0
230
1.0
 70
     8
 71
     3
 72
     8
 73
     4
 74
     0
 42
0.000000001
 43
0.00000001
 40
0.7031249999999999
 40
0.7031249999999999
 40
0.7031249999999999
 40
0.7031249999999999
 40
0.7187499999999999
 40
0.7187499999999999
 40
0.7187499999999999
 40
0.7187499999999999
 10
47.97009920851811
 20
5.112884901988059
 30
0.0
 10
47.77141917948069
 20
5.037300887358896
 30
0.0
 10
47.56409619382951
 20
4.968510294405544
 30
0.0
 10
47.35401290736343
 20
4.911665338552536
 30
0.0
  0
SPLINE
  5
232
330
1F
100
AcDbEntity
  8
SK3
  6
SLD-Dashed
370
    18
100
AcDbSpline
210
0.0
220
0.0
230
1.0
 70
     8
 71
     3
 72
     8
 73
     4
 74
     0
 42
0.000000001
 43
0.00000001
 40
0.7187499999999999
 40
0.7187499999999999
 40
0.7187499999999999
 40
0.7187499999999999
 40
0.734375
 40
0.734375
 40
0.734375
 40
0.734375
 10
47.35401290736343
 20
4.911665338552536
 30
0.0
 10
47.14392962089739
 20
4.854820382699527
 30
0.0
 10
46.92988822413346
 20
4.809384993842738
 30
0.0
 10
46.71124255011227
 20
4.77798178393183
 30
0.0
  0
SPLINE
  5
233
330
1F
100
AcDbEntity
  8
SK3
  6
SLD-Dashed
370
    18
100
AcDbSpline
210
0.0
220
0.0
230
1.0
 70
     8
 71
     3
 72
     8
 73
     4
 74
     0
 42
0.000000001
 43
0.00000001
 40
0.734375
 40
0.734375
 40
0.734375
 40
0.734375
 40
0.75
 40
0.75
 40
0.75
 40
0.75
 10
46.71124255011227
 20
4.77798178393183
 30
0.0
 10
46.49259687609108
 20
4.746578574020909
 30
0.0
 10
46.26727662233518
 20
4.729432927675852
 30
0.0
 10
46.04514123651241
 20
4.728486730383001
 30
0.0
  0
SPLINE
  5
234
330
1F
100
AcDbEntity
  8
SK3
  6
SLD-Dashed
370
    18
100
AcDbSpline
210
0.0
220
0.0
230
1.0
 70
     8
 71
     3
 72
     8
 73
     4
 74
     0
 42
0.000000001
 43
0.00000001
 40
0.75
 40
0.75
 40
0.75
 40
0.75
 40
0.765625
 40
0.765625
 40
0.765625
 40
0.765625
 10
46.04514123651241
 20
4.728486730383001
 30
0.0
 10
45.82300585068965
 20
4.727540533090123
 30
0.0
 10
45.60275377435782
 20
4.742320059482739
 30
0.0
 10
45.38427245005205
 20
4.771657247043433
 30
0.0
  0
SPLINE
  5
235
330
1F
100
AcDbEntity
  8
SK3
  6
SLD-Dashed
370
    18
100
AcDbSpline
210
0.0
220
0.0
230
1.0
 70
     8
 71
     3
 72
     8
 73
     4
 74
     0
 42
0.000000001
 43
0.00000001
 40
0.765625
 40
0.765625
 40
0.765625
 40
0.765625
 40
0.7812500000000001
 40
0.7812500000000001
 40
0.7812500000000001
 40
0.7812500000000001
 10
45.38427245005205
 20
4.771657247043433
 30
0.0
 10
45.16579112574626
 20
4.800994434604114
 30
0.0
 10
44.94727479224586
 20
4.845427292099934
 30
0.0
 10
44.73610875013662
 20
4.900961308149066
 30
0.0
  0
SPLINE
  5
236
330
1F
100
AcDbEntity
  8
SK3
  6
SLD-Dashed
370
    18
100
AcDbSpline
210
0.0
220
0.0
230
1.0
 70
     8
 71
     3
 72
     8
 73
     4
 74
     0
 42
0.000000001
 43
0.00000001
 40
0.7812500000000001
 40
0.7812500000000001
 40
0.7812500000000001
 40
0.7812500000000001
 40
0.8125000000000001
 40
0.8125000000000001
 40
0.8125000000000001
 40
0.8125000000000001
 10
44.73610875013662
 20
4.900961308149064
 30
0.0
 10
44.31377666591813
 20
5.01202934024731
 30
0.0
 10
43.91845639198408
 20
5.165682206463858
 30
0.0
 10
43.54139194733686
 20
5.341019570199397
 30
0.0
  0
SPLINE
  5
237
330
1F
100
AcDbEntity
  8
SK3
  6
SLD-Dashed
370
    18
100
AcDbSpline
210
0.0
220
0.0
230
1.0
 70
     8
 71
     3
 72
     8
 73
     4
 74
     0
 42
0.000000001
 43
0.00000001
 40
0.8125000000000001
 40
0.8125000000000001
 40
0.8125000000000001
 40
0.8125000000000001
 40
0.8281250000000001
 40
0.8281250000000001
 40
0.8281250000000001
 40
0.8281250000000001
 10
43.54139194733686
 20
5.341019570199397
 30
0.0
 10
43.35285972501327
 20
5.428688252067153
 30
0.0
 10
43.16951667660457
 20
5.521776818736051
 30
0.0
 10
42.99354068734257
 20
5.616754103064982
 30
0.0
  0
SPLINE
  5
238
330
1F
100
AcDbEntity
  8
SK3
  6
SLD-Dashed
370
    18
100
AcDbSpline
210
0.0
220
0.0
230
1.0
 70
     8
 71
     3
 72
     8
 73
     4
 74
     0
 42
0.000000001
 43
0.00000001
 40
0.8281250000000001
 40
0.8281250000000001
 40
0.8281250000000001
 40
0.8281250000000001
 40
0.8437500000000002
 40
0.8437500000000002
 40
0.8437500000000002
 40
0.8437500000000002
 10
42.99354068734257
 20
5.616754103064982
 30
0.0
 10
42.81756469808054
 20
5.7117313873939
 30
0.0
 10
42.64799702173549
 20
5.809053641443983
 30
0.0
 10
42.48402643128582
 20
5.90734076419603
 30
0.0
  0
SPLINE
  5
239
330
1F
100
AcDbEntity
  8
SK3
  6
SLD-Dashed
370
    18
100
AcDbSpline
210
0.0
220
0.0
230
1.0
 70
     8
 71
     3
 72
     8
 73
     4
 74
     0
 42
0.000000001
 43
0.00000001
 40
0.8437500000000002
 40
0.8437500000000002
 40
0.8437500000000002
 40
0.8437500000000002
 40
0.8750000000000001
 40
0.8750000000000001
 40
0.8750000000000001
 40
0.8750000000000001
 10
42.48402643128582
 20
5.90734076419603
 30
0.0
 10
42.15608525038647
 20
6.103915009700152
 30
0.0
 10
41.85025989327426
 20
6.30423711843791
 30
0.0
 10
41.56442516494527
 20
6.500377600503183
 30
0.0
  0
SPLINE
  5
23A
330
1F
100
AcDbEntity
  8
SK3
  6
SLD-Dashed
370
    18
100
AcDbSpline
210
0.0
220
0.0
230
1.0
 70
     8
 71
     3
 72
     8
 73
     4
 74
     0
 42
0.000000001
 43
0.00000001
 40
0.8750000000000001
 40
0.8750000000000001
 40
0.8750000000000001
 40
0.8750000000000001
 40
0.9062500000000001
 40
0.9062500000000001
 40
0.9062500000000001
 40
0.9062500000000001
 10
41.56442516494527
 20
6.500377600503183
 30
0.0
 10
41.27859043661628
 20
6.696518082568444
 30
0.0
 10
41.01895574334563
 20
6.884386753605622
 30
0.0
 10
40.78837605849623
 20
7.055523467095141
 30
0.0
  0
SPLINE
  5
23B
330
1F
100
AcDbEntity
  8
SK3
  6
SLD-Dashed
370
    18
100
AcDbSpline
210
0.0
220
0.0
230
1.0
 70
     8
 71
     3
 72
     8
 73
     4
 74
     0
 42
0.000000001
 43
0.00000001
 40
0.9062500000000001
 40
0.9062500000000001
 40
0.9062500000000001
 40
0.9062500000000001
 40
0.9375000000000001
 40
0.9375000000000001
 40
0.9375000000000001
 40
0.9375000000000001
 10
40.78837605849623
 20
7.055523467095141
 30
0.0
 10
40.55779637364682
 20
7.226660180584661
 30
0.0
 10
40.35498729456288
 20
7.382116970214812
 30
0.0
 10
40.18400262110563
 20
7.515013737196312
 30
0.0
  0
SPLINE
  5
23C
330
1F
100
AcDbEntity
  8
SK3
  6
SLD-Dashed
370
    18
100
AcDbSpline
210
0.0
220
0.0
230
1.0
 70
     8
 71
     3
 72
     8
 73
     4
 74
     0
 42
0.000000001
 43
0.00000001
 40
0.9375000000000001
 40
0.9375000000000001
 40
0.9375000000000001
 40
0.9375000000000001
 40
0.9687500000000001
 40
0.9687500000000001
 40
0.9687500000000001
 40
0.9687500000000001
 10
40.18400262110563
 20
7.515013737196312
 30
0.0
 10
40.01301794764839
 20
7.647910504177811
 30
0.0
 10
39.87967222749145
 20
7.753722902492495
 30
0.0
 10
39.78878099396066
 20
7.826149026263558
 30
0.0
  0
SPLINE
  5
23D
330
1F
100
AcDbEntity
  8
SK3
  6
SLD-Dashed
370
    18
100
AcDbSpline
210
0.0
220
0.0
230
1.0
 70
     8
 71
     2
 72
     6
 73
     3
 74
     0
 42
0.000000001
 43
0.00000001
 40
0.9687500000000001
 40
0.9687500000000001
 40
0.9687500000000001
 40
1.0
 40
1.0
 40
1.0
 10
39.78878099396066
 20
7.826149026263558
 30
0.0
 10
39.69788976042987
 20
7.898575150034636
 30
0.0
 10
39.64960000000001
 20
7.93749999999998
 30
0.0
  0
SPLINE
  5
23E
330
1F
100
AcDbEntity
  8
SK3
  6
SLD-Dashed
370
    18
100
AcDbSpline
210
0.0
220
0.0
230
1.0
 70
     8
 71
     3
 72
    38
 73
    34
 74
     0
 42
0.000000001
 43
0.00000001
 40
0.499999999999998
 40
0.499999999999998
 40
0.499999999999998
 40
0.499999999999998
 40
0.5312499999999979
 40
0.5312499999999979
 40
0.5624999999999978
 40
0.5624999999999978
 40
0.5937499999999978
 40
0.5937499999999978
 40
0.6249999999999977
 40
0.6249999999999977
 40
0.6562499999999977
 40
0.6562499999999977
 40
0.6874999999999976
 40
0.6874999999999976
 40
0.7187499999999976
 40
0.7187499999999976
 40
0.7499999999999974
 40
0.7499999999999974
 40
0.8124999999999982
 40
0.8124999999999982
 40
0.8437499999999984
 40
0.8437499999999984
 40
0.8749999999999988
 40
0.8749999999999988
 40
0.906249999999999
 40
0.906249999999999
 40
0.9374999999999993
 40
0.9374999999999993
 40
0.9687499999999996
 40
0.9687499999999996
 40
0.9843749999999998
 40
0.9843749999999998
 40
1.0
 40
1.0
 40
1.0
 40
1.0
 10
9.547165917302175
 20
6.130078845461997
 30
0.0
 10
9.591669608828749
 20
6.017622124064613
 30
0.0
 10
9.651912210336928
 20
5.910039381771336
 30
0.0
 10
9.796812632231477
 20
5.715206444890271
 30
0.0
 10
9.882567425050462
 20
5.625950668749137
 30
0.0
 10
10.0770713882353
 20
5.465835135561363
 30
0.0
 10
10.18346038260026
 20
5.396630723958358
 30
0.0
 10
10.41491716747872
 20
5.273967848329584
 30
0.0
 10
10.54009168137382
 20
5.221079864175506
 30
0.0
 10
10.78642802631474
 20
5.131319199450722
 30
0.0
 10
10.90588750473029
 20
5.094347448465299
 30
0.0
 10
11.12471660654357
 20
5.030993621355166
 30
0.0
 10
11.22226506040228
 20
5.005212811238495
 30
0.0
 10
11.40290338683522
 20
4.961304046026231
 30
0.0
 10
11.48653843453273
 20
4.943230320262122
 30
0.0
 10
11.64292087602178
 20
4.914958406516977
 30
0.0
 10
11.7162096569178
 20
4.90463742056118
 30
0.0
 10
11.92719226675065
 20
4.885740181441757
 30
0.0
 10
12.05703185085183
 20
4.888799294418996
 30
0.0
 10
12.23947266366207
 20
4.928553216744826
 30
0.0
 10
12.29788111599017
 20
4.947672533286187
 30
0.0
 10
12.40978986086719
 20
5.001691346856623
 30
0.0
 10
12.46364510461584
 20
5.036838190440922
 30
0.0
 10
12.5627134329043
 20
5.128737393306084
 30
0.0
 10
12.60843468736297
 20
5.185584113645413
 30
0.0
 10
12.68612312343484
 20
5.332786429895063
 30
0.0
 10
12.7175049221496
 20
5.423233084513153
 30
0.0
 10
12.7522598594827
 20
5.640299190695288
 30
0.0
 10
12.75463724396988
 20
5.767683503121006
 30
0.0
 10
12.73422628849655
 20
5.96411574042225
 30
0.0
 10
12.72357436485566
 20
6.03079986275442
 30
0.0
 10
12.69687670664382
 20
6.160247296436625
 30
0.0
 10
12.68086259956383
 20
6.223527817320322
 30
0.0
 10
12.66230763443388
 20
6.286790301132335
 30
0.0
  0
SPLINE
  5
23F
330
1F
100
AcDbEntity
  8
SK3
  6
SLD-Dashed
370
    18
100
AcDbSpline
210
0.0
220
0.0
230
1.0
 70
     8
 71
     3
 72
    32
 73
    28
 74
     0
 42
0.000000001
 43
0.00000001
 40
0.0
 40
0.0
 40
0.0
 40
0.0
 40
0.0312499999999997
 40
0.0312499999999997
 40
0.0624999999999995
 40
0.0624999999999995
 40
0.1249999999999989
 40
0.1249999999999989
 40
0.1874999999999984
 40
0.1874999999999984
 40
0.2187499999999984
 40
0.2187499999999984
 40
0.2499999999999984
 40
0.2499999999999984
 40
0.2812499999999984
 40
0.2812499999999984
 40
0.3124999999999984
 40
0.3124999999999984
 40
0.3437499999999984
 40
0.3437499999999984
 40
0.3749999999999984
 40
0.3749999999999984
 40
0.4374999999999982
 40
0.4374999999999982
 40
0.4687499999999981
 40
0.4687499999999981
 40
0.499999999999998
 40
0.499999999999998
 40
0.499999999999998
 40
0.499999999999998
 10
12.66230763443391
 20
6.286790301132335
 30
0.0
 10
12.62519770417403
 20
6.41331526875636
 30
0.0
 10
12.58120302127297
 20
6.529338209342129
 30
0.0
 10
12.48471880657839
 20
6.749261649681128
 30
0.0
 10
12.43165882244551
 20
6.853656412382135
 30
0.0
 10
12.26556941339615
 20
7.146821567827748
 30
0.0
 10
12.14616169070409
 20
7.317061421523461
 30
0.0
 10
11.8880894599053
 20
7.625840216913628
 30
0.0
 10
11.74985718622878
 20
7.763778523701699
 30
0.0
 10
11.5194414119259
 20
7.939572233534677
 30
0.0
 10
11.4384840088555
 20
7.993145929764543
 30
0.0
 10
11.26094996715926
 20
8.08611350183603
 30
0.0
 10
11.1654181803697
 20
8.125025816098606
 30
0.0
 10
10.95302844471291
 20
8.175251229353163
 30
0.0
 10
10.83703519791096
 20
8.185597853152489
 30
0.0
 10
10.59133681320579
 20
8.160487774001018
 30
0.0
 10
10.46687270231075
 20
8.125321374609383
 30
0.0
 10
10.22897755356157
 20
8.01535151717931
 30
0.0
 10
10.11959384449101
 20
7.943374611664924
 30
0.0
 10
9.919042005980996
 20
7.771958981462483
 30
0.0
 10
9.83002701568067
 20
7.673959535020848
 30
0.0
 10
9.601531880722963
 20
7.354720962768339
 30
0.0
 10
9.501243573240794
 20
7.107453544913913
 30
0.0
 10
9.44727008051531
 20
6.73204300403351
 30
0.0
 10
9.445111331805908
 20
6.607943683149966
 30
0.0
 10
9.472789440891722
 20
6.361880396588824
 30
0.0
 10
9.502662225775588
 20
6.242535566859379
 30
0.0
 10
9.547165917302175
 20
6.130078845461997
 30
0.0
  0
SPLINE
  5
240
330
1F
100
AcDbEntity
  8
SK3
  6
SLD-Dashed
370
    18
100
AcDbSpline
210
0.0
220
0.0
230
1.0
 70
     8
 71
     3
 72
    38
 73
    34
 74
     0
 42
0.000000001
 43
0.00000001
 40
0.499999999999998
 40
0.499999999999998
 40
0.499999999999998
 40
0.499999999999998
 40
0.5312499999999979
 40
0.5312499999999979
 40
0.5624999999999978
 40
0.5624999999999978
 40
0.5937499999999978
 40
0.5937499999999978
 40
0.6249999999999977
 40
0.6249999999999977
 40
0.6562499999999977
 40
0.6562499999999977
 40
0.6874999999999976
 40
0.6874999999999976
 40
0.7187499999999976
 40
0.7187499999999976
 40
0.7499999999999974
 40
0.7499999999999974
 40
0.8124999999999982
 40
0.8124999999999982
 40
0.8437499999999984
 40
0.8437499999999984
 40
0.8749999999999988
 40
0.8749999999999988
 40
0.906249999999999
 40
0.906249999999999
 40
0.9374999999999993
 40
0.9374999999999993
 40
0.9687499999999996
 40
0.9687499999999996
 40
0.9843749999999998
 40
0.9843749999999998
 40
1.0
 40
1.0
 40
1.0
 40
1.0
 10
9.547165917302175
 20
6.130078845461997
 30
0.0
 10
9.591669608828749
 20
6.017622124064613
 30
0.0
 10
9.651912210336928
 20
5.910039381771336
 30
0.0
 10
9.796812632231477
 20
5.715206444890271
 30
0.0
 10
9.882567425050462
 20
5.625950668749137
 30
0.0
 10
10.0770713882353
 20
5.465835135561363
 30
0.0
 10
10.18346038260026
 20
5.396630723958358
 30
0.0
 10
10.41491716747872
 20
5.273967848329584
 30
0.0
 10
10.54009168137382
 20
5.221079864175506
 30
0.0
 10
10.78642802631474
 20
5.131319199450722
 30
0.0
 10
10.90588750473029
 20
5.094347448465299
 30
0.0
 10
11.12471660654357
 20
5.030993621355166
 30
0.0
 10
11.22226506040228
 20
5.005212811238495
 30
0.0
 10
11.40290338683522
 20
4.961304046026231
 30
0.0
 10
11.48653843453273
 20
4.943230320262122
 30
0.0
 10
11.64292087602178
 20
4.914958406516977
 30
0.0
 10
11.7162096569178
 20
4.90463742056118
 30
0.0
 10
11.92719226675065
 20
4.885740181441757
 30
0.0
 10
12.05703185085183
 20
4.888799294418996
 30
0.0
 10
12.23947266366207
 20
4.928553216744826
 30
0.0
 10
12.29788111599017
 20
4.947672533286187
 30
0.0
 10
12.40978986086719
 20
5.001691346856623
 30
0.0
 10
12.46364510461584
 20
5.036838190440922
 30
0.0
 10
12.5627134329043
 20
5.128737393306084
 30
0.0
 10
12.60843468736297
 20
5.185584113645413
 30
0.0
 10
12.68612312343484
 20
5.332786429895063
 30
0.0
 10
12.7175049221496
 20
5.423233084513153
 30
0.0
 10
12.7522598594827
 20
5.640299190695288
 30
0.0
 10
12.75463724396988
 20
5.767683503121006
 30
0.0
 10
12.73422628849655
 20
5.96411574042225
 30
0.0
 10
12.72357436485566
 20
6.03079986275442
 30
0.0
 10
12.69687670664382
 20
6.160247296436625
 30
0.0
 10
12.68086259956383
 20
6.223527817320322
 30
0.0
 10
12.66230763443388
 20
6.286790301132335
 30
0.0
  0
SPLINE
  5
241
330
1F
100
AcDbEntity
  8
SK3
  6
SLD-Dashed
370
    18
100
AcDbSpline
210
0.0
220
0.0
230
1.0
 70
     8
 71
     3
 72
    32
 73
    28
 74
     0
 42
0.000000001
 43
0.00000001
 40
0.0
 40
0.0
 40
0.0
 40
0.0
 40
0.0312499999999997
 40
0.0312499999999997
 40
0.0624999999999995
 40
0.0624999999999995
 40
0.1249999999999989
 40
0.1249999999999989
 40
0.1874999999999984
 40
0.1874999999999984
 40
0.2187499999999984
 40
0.2187499999999984
 40
0.2499999999999984
 40
0.2499999999999984
 40
0.2812499999999984
 40
0.2812499999999984
 40
0.3124999999999984
 40
0.3124999999999984
 40
0.3437499999999984
 40
0.3437499999999984
 40
0.3749999999999984
 40
0.3749999999999984
 40
0.4374999999999982
 40
0.4374999999999982
 40
0.4687499999999981
 40
0.4687499999999981
 40
0.499999999999998
 40
0.499999999999998
 40
0.499999999999998
 40
0.499999999999998
 10
12.66230763443391
 20
6.286790301132335
 30
0.0
 10
12.62519770417403
 20
6.41331526875636
 30
0.0
 10
12.58120302127297
 20
6.529338209342129
 30
0.0
 10
12.48471880657839
 20
6.749261649681128
 30
0.0
 10
12.43165882244551
 20
6.853656412382135
 30
0.0
 10
12.26556941339615
 20
7.146821567827748
 30
0.0
 10
12.14616169070409
 20
7.317061421523461
 30
0.0
 10
11.8880894599053
 20
7.625840216913628
 30
0.0
 10
11.74985718622878
 20
7.763778523701699
 30
0.0
 10
11.5194414119259
 20
7.939572233534677
 30
0.0
 10
11.4384840088555
 20
7.993145929764543
 30
0.0
 10
11.26094996715926
 20
8.08611350183603
 30
0.0
 10
11.1654181803697
 20
8.125025816098606
 30
0.0
 10
10.95302844471291
 20
8.175251229353163
 30
0.0
 10
10.83703519791096
 20
8.185597853152489
 30
0.0
 10
10.59133681320579
 20
8.160487774001018
 30
0.0
 10
10.46687270231075
 20
8.125321374609383
 30
0.0
 10
10.22897755356157
 20
8.01535151717931
 30
0.0
 10
10.11959384449101
 20
7.943374611664924
 30
0.0
 10
9.919042005980996
 20
7.771958981462483
 30
0.0
 10
9.83002701568067
 20
7.673959535020848
 30
0.0
 10
9.601531880722963
 20
7.354720962768339
 30
0.0
 10
9.501243573240794
 20
7.107453544913913
 30
0.0
 10
9.44727008051531
 20
6.73204300403351
 30
0.0
 10
9.445111331805908
 20
6.607943683149966
 30
0.0
 10
9.472789440891722
 20
6.361880396588824
 30
0.0
 10
9.502662225775588
 20
6.242535566859379
 30
0.0
 10
9.547165917302175
 20
6.130078845461997
 30
0.0
  0
SPLINE
  5
242
330
1F
100
AcDbEntity
  8
1
  6
SLD-Dashed
370
    18
100
AcDbSpline
210
0.0
220
0.0
230
1.0
 70
    24
 71
     3
 72
     8
 73
     4
 74
     0
 42
0.000000001
 43
0.00000001
 40
0.0
 40
0.0
 40
0.0
 40
0.0
 40
0.5000000000000013
 40
0.5000000000000013
 40
0.5000000000000013
 40
0.5000000000000013
 10
3.200000000000008
 20
-22.41000000000004
 30
0.0
 10
3.277521727773375
 20
-22.41000000000003
 30
0.0
 10
3.353381647940912
 20
-22.41000000000001
 30
0.0
 10
3.419612606008052
 20
-22.41000000000001
 30
0.0
  0
SPLINE
  5
243
330
1F
100
AcDbEntity
  8
1
  6
SLD-Dashed
370
    18
100
AcDbSpline
210
0.0
220
0.0
230
1.0
 70
    24
 71
     3
 72
     8
 73
     4
 74
     0
 42
0.000000001
 43
0.00000001
 40
0.5000000000000013
 40
0.5000000000000013
 40
0.5000000000000013
 40
0.5000000000000013
 40
0.7500000000000007
 40
0.7500000000000007
 40
0.7500000000000007
 40
0.7500000000000007
 10
3.419612606008052
 20
-22.41000000000001
 30
0.0
 10
3.452728085041601
 20
-22.41000000000001
 30
0.0
 10
3.483301361658628
 20
-22.41000000000001
 30
0.0
 10
3.506578077111008
 20
-22.41000000000001
 30
0.0
  0
SPLINE
  5
244
330
1F
100
AcDbEntity
  8
SK3
  6
SLD-Dashed
370
    18
100
AcDbSpline
210
0.0
220
0.0
230
1.0
 70
    24
 71
     2
 72
     6
 73
     3
 74
     0
 42
0.000000001
 43
0.00000001
 40
0.7500000000000007
 40
0.7500000000000007
 40
0.7500000000000007
 40
1.0
 40
1.0
 40
1.0
 10
3.506578077111008
 20
-22.41000000000001
 30
0.0
 10
3.529854792563375
 20
-22.41000000000001
 30
0.0
 10
3.545388844998096
 20
-22.41000000000001
 30
0.0
  0
SPLINE
  5
245
330
1F
100
AcDbEntity
  8
SK3
  6
SLD-Dashed
370
    18
100
AcDbSpline
210
0.0
220
0.0
230
1.0
 70
    24
 71
     2
 72
     6
 73
     3
 74
     0
 42
0.000000001
 43
0.00000001
 40
0.0
 40
0.0
 40
0.0
 40
0.2500000000000016
 40
0.2500000000000016
 40
0.2500000000000016
 10
18.70470837592286
 20
-22.41000000000001
 30
0.0
 10
18.72021848143063
 20
-22.41
 30
0.0
 10
18.74373564595139
 20
-22.41000000000001
 30
0.0
  0
SPLINE
  5
246
330
1F
100
AcDbEntity
  8
SK3
  6
SLD-Dashed
370
    18
100
AcDbSpline
210
0.0
220
0.0
230
1.0
 70
    24
 71
     3
 72
     8
 73
     4
 74
     0
 42
0.000000001
 43
0.00000001
 40
0.2500000000000016
 40
0.2500000000000016
 40
0.2500000000000016
 40
0.2500000000000016
 40
0.5000000000000032
 40
0.5000000000000032
 40
0.5000000000000032
 40
0.5000000000000032
 10
18.74373564595139
 20
-22.41000000000001
 30
0.0
 10
18.76725281047217
 20
-22.41000000000001
 30
0.0
 10
18.79767648998926
 20
-22.41000000000001
 30
0.0
 10
18.83062851957903
 20
-22.41000000000001
 30
0.0
  0
SPLINE
  5
247
330
1F
100
AcDbEntity
  8
1
  6
SLD-Dashed
370
    18
100
AcDbSpline
210
0.0
220
0.0
230
1.0
 70
    24
 71
     3
 72
     8
 73
     4
 74
     0
 42
0.000000001
 43
0.00000001
 40
0.5000000000000032
 40
0.5000000000000032
 40
0.5000000000000032
 40
0.5000000000000032
 40
1.0
 40
1.0
 40
1.0
 40
1.0
 10
18.83062851957903
 20
-22.41000000000001
 30
0.0
 10
18.89653257875862
 20
-22.41000000000001
 30
0.0
 10
18.97251643453998
 20
-22.41000000000001
 30
0.0
 10
19.05000000000001
 20
-22.41000000000002
 30
0.0
  0
SPLINE
  5
248
330
1F
100
AcDbEntity
  8
SK3
  6
SLD-Dashed
370
    18
100
AcDbSpline
210
0.0
220
0.0
230
1.0
 70
     8
 71
     3
 72
    10
 73
     6
 74
     0
 42
0.000000001
 43
0.00000001
 40
0.0
 40
0.0
 40
0.0
 40
0.0
 40
0.5
 40
0.5
 40
1.0
 40
1.0
 40
1.0
 40
1.0
 10
18.55000000000001
 20
25.20500000000003
 30
0.0
 10
18.55000000000001
 20
25.27446188700637
 30
0.0
 10
18.57033165532698
 20
25.34157876899189
 30
0.0
 10
18.62822537360678
 20
25.46534569655893
 30
0.0
 10
18.66502717471821
 20
25.52292618711533
 30
0.0
 10
18.70461115500194
 20
25.57898258716478
 30
0.0
  0
SPLINE
  5
249
330
1F
100
AcDbEntity
  8
SK3
  6
SLD-Dashed
370
    18
100
AcDbSpline
210
0.0
220
0.0
230
1.0
 70
     8
 71
     3
 72
    10
 73
     6
 74
     0
 42
0.000000001
 43
0.00000001
 40
0.0
 40
0.0
 40
0.0
 40
0.0
 40
0.5
 40
0.5
 40
1.0
 40
1.0
 40
1.0
 40
1.0
 10
3.54529162407714
 20
25.57912025275685
 30
0.0
 10
3.584856617866725
 20
25.5231010759033
 30
0.0
 10
3.621570887500284
 20
25.46562249807944
 30
0.0
 10
3.679260425533583
 20
25.34260791126142
 30
0.0
 10
3.699999999999994
 20
25.27482658978054
 30
0.0
 10
3.699999999999994
 20
25.20500000000003
 30
0.0
  0
SPLINE
  5
24A
330
1F
100
AcDbEntity
  8
1
  6
SLD-Dashed
370
    18
100
AcDbSpline
210
0.0
220
0.0
230
1.0
 70
     8
 71
     3
 72
     8
 73
     4
 74
     0
 42
0.000000001
 43
0.00000001
 40
0.0
 40
0.0
 40
0.0
 40
0.0
 40
1.0
 40
1.0
 40
1.0
 40
1.0
 10
14.37601294652263
 20
-30.22558142012646
 30
0.0
 10
13.92634047615438
 20
-29.41927694377229
 30
0.0
 10
13.47758735871732
 20
-28.61247603335391
 30
0.0
 10
13.03000000000001
 20
-27.8050456341729
 30
0.0
  0
SPLINE
  5
24B
330
1F
100
AcDbEntity
  8
1
  6
SLD-Dashed
370
    18
100
AcDbSpline
210
0.0
220
0.0
230
1.0
 70
     8
 71
     3
 72
    10
 73
     6
 74
     0
 42
0.000000001
 43
0.00000001
 40
0.0
 40
0.0
 40
0.0
 40
0.0
 40
0.5
 40
0.5
 40
1.0
 40
1.0
 40
1.0
 40
1.0
 10
13.03000000000004
 20
-27.76916635406973
 30
0.0
 10
13.03000000000001
 20
-27.56948960726649
 30
0.0
 10
12.9530257332551
 20
-27.36838646497957
 30
0.0
 10
12.6790505758147
 20
-27.07630005005161
 30
0.0
 10
12.48172757240074
 20
-26.98706356756883
 30
0.0
 10
12.28000000000001
 20
-26.98706356756882
 30
0.0
  0
SPLINE
  5
24C
330
1F
100
AcDbEntity
  8
1
  6
SLD-Dashed
370
    18
100
AcDbSpline
210
0.0
220
0.0
230
1.0
 70
     8
 71
     3
 72
    10
 73
     6
 74
     0
 42
0.000000001
 43
0.00000001
 40
0.0
 40
0.0
 40
0.0
 40
0.0
 40
0.5
 40
0.5
 40
1.0
 40
1.0
 40
1.0
 40
1.0
 10
9.950000000000655
 20
-26.98706356756946
 30
0.0
 10
9.74844149509155
 20
-26.98706356756929
 30
0.0
 10
9.550692481024278
 20
-27.07656444408195
 30
0.0
 10
9.277196882747168
 20
-27.36815866851931
 30
0.0
 10
9.20000000000018
 20
-27.56927498425101
 30
0.0
 10
9.200000000000014
 20
-27.76916635406976
 30
0.0
  0
SPLINE
  5
24D
330
1F
100
AcDbEntity
  8
1
  6
SLD-Dashed
370
    18
100
AcDbSpline
210
0.0
220
0.0
230
1.0
 70
     8
 71
     3
 72
     8
 73
     4
 74
     0
 42
0.000000001
 43
0.00000001
 40
0.0
 40
0.0
 40
0.0
 40
0.0
 40
1.0
 40
1.0
 40
1.0
 40
1.0
 10
9.199999999998877
 20
-27.80504563417608
 30
0.0
 10
8.752433371354604
 20
-28.61243863710178
 30
0.0
 10
8.303701091401383
 20
-29.41920220926473
 30
0.0
 10
7.854049533406126
 20
-30.22546938780229
 30
0.0
  0
SPLINE
  5
24E
330
1F
100
AcDbEntity
  8
SK3
  6
SLD-Dashed
370
    18
100
AcDbSpline
210
0.0
220
0.0
230
1.0
 70
     8
 71
     3
 72
    40
 73
    36
 74
     0
 42
0.000000001
 43
0.00000001
 40
0.0
 40
0.0
 40
0.0
 40
0.0
 40
0.0314214559572178
 40
0.0627294389672004
 40
0.0877405066521895
 40
0.1252752326697184
 40
0.1539551384600108
 40
0.1970430837597873
 40
0.2184753360378477
 40
0.2505176110611737
 40
0.2789492345937391
 40
0.3216198597594042
 40
0.3430128235413673
 40
0.3752634384750793
 40
0.4040010771804458
 40
0.4468656794915723
 40
0.468215945936246
 40
0.5002096454814972
 40
0.528675413734447
 40
0.5715400247765458
 40
0.5931009716299191
 40
0.6253883780511656
 40
0.6539191343952843
 40
0.6965914244566831
 40
0.7179237821488444
 40
0.7499746494270431
 40
0.7785976316863417
 40
0.7958543398127828
 40
0.8217160693566459
 40
0.8431552865480468
 40
0.8751886732441888
 40
0.9000580147531506
 40
0.9373794059838182
 40
0.9685930788650364
 40
1.0
 40
1.0
 40
1.0
 40
1.0
 10
3.545388844996972
 20
-29.80485527420156
 30
0.0
 10
3.545480197135395
 20
-29.81164440520862
 30
0.0
 10
3.545662571510386
 20
-29.82519814949495
 30
0.0
 10
3.547032714046896
 20
-29.84411564286316
 30
0.0
 10
3.549278621227517
 20
-29.86427043795788
 30
0.0
 10
3.552383815069213
 20
-29.8837459003967
 30
0.0
 10
3.557241214189613
 20
-29.90686111791881
 30
0.0
 10
3.56243598846552
 20
-29.92633239392608
 30
0.0
 10
3.568780339238797
 20
-29.94620899181592
 30
0.0
 10
3.574836423905228
 20
-29.96284451017946
 30
0.0
 10
3.583406089825339
 20
-29.98342104192837
 30
0.0
 10
3.592077830421037
 20
-30.00144320563149
 30
0.0
 10
3.602002400646273
 20
-30.01973532130884
 30
0.0
 10
3.611129444211991
 20
-30.03502499592773
 30
0.0
 10
3.623520615641667
 20
-30.05373739733253
 30
0.0
 10
3.635525817110172
 20
-30.06985792745887
 30
0.0
 10
3.648757943677694
 20
-30.08589113400061
 30
0.0
 10
3.660571393172066
 20
-30.09904955418673
 30
0.0
 10
3.676259568084497
 20
-30.11493869793388
 30
0.0
 10
3.691152319419466
 20
-30.12841850148094
 30
0.0
 10
3.707345738384355
 20
-30.14162746303267
 30
0.0
 10
3.721611997070884
 20
-30.15228399886391
 30
0.0
 10
3.740164285063657
 20
-30.16477481501948
 30
0.0
 10
3.757375549684055
 20
-30.17498291258005
 30
0.0
 10
3.775753926809053
 20
-30.18462804605823
 30
0.0
 10
3.791792461294144
 20
-30.19217667946795
 30
0.0
 10
3.807369256512025
 20
-30.19858412923172
 30
0.0
 10
3.821916756260091
 20
-30.20393768674579
 30
0.0
 10
3.83517335044195
 20
-30.20828861199454
 30
0.0
 10
3.851657250142998
 20
-30.21299666641907
 30
0.0
 10
3.868130598975159
 20
-30.21692139734516
 30
0.0
 10
3.888137813528675
 20
-30.22070805124266
 30
0.0
 10
3.908147752578875
 20
-30.22341140281245
 30
0.0
 10
3.929683046762777
 20
-30.22516290854708
 30
0.0
 10
3.943213763576883
 20
-30.22536701808867
 30
0.0
 10
3.949999999998885
 20
-30.22546938780229
 30
0.0
  0
SPLINE
  5
24F
330
1F
100
AcDbEntity
  8
SK3
  6
SLD-Dashed
370
    18
100
AcDbSpline
210
0.0
220
0.0
230
1.0
 70
     8
 71
     3
 72
    40
 73
    36
 74
     0
 42
0.000000001
 43
0.00000001
 40
0.0
 40
0.0
 40
0.0
 40
0.0
 40
0.0126129321449749
 40
0.0314976481339587
 40
0.0629183966702574
 40
0.0880663439714092
 40
0.1258663548219046
 40
0.1545361786951767
 40
0.1972635113751502
 40
0.2185774264758776
 40
0.250549973449914
 40
0.2790323571745715
 40
0.3220275475257097
 40
0.3436168159336435
 40
0.3758133620275704
 40
0.4042898095068478
 40
0.4468993710431288
 40
0.4682109723921613
 40
0.5002437124696372
 40
0.528853388731771
 40
0.5719828275869605
 40
0.593442063717947
 40
0.6254916984483689
 40
0.6539107272569482
 40
0.6965262692674938
 40
0.7178823906336926
 40
0.7500313093276828
 40
0.7787800102949213
 40
0.8217645159397994
 40
0.8431483194632984
 40
0.8751517844153632
 40
0.9000181010942335
 40
0.937358773167723
 40
0.9685909586685477
 40
1.0
 40
1.0
 40
1.0
 40
1.0
 10
18.30000000000001
 20
-30.22558142012646
 30
0.0
 10
18.30272569594449
 20
-30.22556434752628
 30
0.0
 10
18.30953244086248
 20
-30.22552171297097
 30
0.0
 10
18.32312192068608
 20
-30.22500449703676
 30
0.0
 10
18.33938544977021
 20
-30.22373214657611
 30
0.0
 10
18.35962263823535
 20
-30.22117483723601
 30
0.0
 10
18.37912342814685
 20
-30.21766990056756
 30
0.0
 10
18.40209059735812
 20
-30.2122220748689
 30
0.0
 10
18.42129623800884
 20
-30.20644931168889
 30
0.0
 10
18.44082755863402
 20
-30.19943885792773
 30
0.0
 10
18.45718998570675
 20
-30.19274290252153
 30
0.0
 10
18.47744321243869
 20
-30.18326307338972
 30
0.0
 10
18.49514777026506
 20
-30.17368149208103
 30
0.0
 10
18.51299887024299
 20
-30.162778963476
 30
0.0
 10
18.52776206933995
 20
-30.15285978975097
 30
0.0
 10
18.54566370706715
 20
-30.13951958199506
 30
0.0
 10
18.56098911735463
 20
-30.12669241147177
 30
0.0
 10
18.57619506813987
 20
-30.11259090122097
 30
0.0
 10
18.58867147382273
 20
-30.10000934793474
 30
0.0
 10
18.60368863236059
 20
-30.08334675455743
 30
0.0
 10
18.61632529126056
 20
-30.06764146706473
 30
0.0
 10
18.62858943392445
 20
-30.05073531892074
 30
0.0
 10
18.63838877637003
 20
-30.03598007669227
 30
0.0
 10
18.64984348721726
 20
-30.01686769647321
 30
0.0
 10
18.65917024991939
 20
-29.99919574996972
 30
0.0
 10
18.66796418712432
 20
-29.98037484052359
 30
0.0
 10
18.6748342211834
 20
-29.96397246361362
 30
0.0
 10
18.68255017034245
 20
-29.9428852210956
 30
0.0
 10
18.68844193362828
 20
-29.92362739014025
 30
0.0
 10
18.69357143260816
 20
-29.90344062129121
 30
0.0
 10
18.69708101840336
 20
-29.8868908531175
 30
0.0
 10
18.70046357426516
 20
-29.86681061568807
 30
0.0
 10
18.70287526281563
 20
-29.84675343612672
 30
0.0
 10
18.70443558087195
 20
-29.82519260420409
 30
0.0
 10
18.70461727324776
 20
-29.81165457438032
 30
0.0
 10
18.70470837592294
 20
-29.80486644841624
 30
0.0
  0
SPLINE
  5
250
330
1F
100
AcDbEntity
  8
SK3
  6
SLD-Dashed
370
    18
100
AcDbSpline
210
0.0
220
0.0
230
1.0
 70
     8
 71
     3
 72
    40
 73
    36
 74
     0
 42
0.000000001
 43
0.00000001
 40
0.0
 40
0.0
 40
0.0
 40
0.0
 40
0.0125929119920799
 40
0.0314096195346371
 40
0.0626234169499144
 40
0.0875147363747578
 40
0.1248144128307291
 40
0.1532834083387329
 40
0.1962265830891804
 40
0.2178107992109905
 40
0.2500224951329297
 40
0.2785169301551935
 40
0.3211718523043735
 40
0.3425182663517212
 40
0.3746092478105252
 40
0.4033018002026009
 40
0.4463503818994297
 40
0.4677602234265738
 40
0.4997883410590129
 40
0.5282270395863776
 40
0.5709521530205359
 40
0.592413861861735
 40
0.6247350591047609
 40
0.6534144483970886
 40
0.696168319941901
 40
0.717496931450338
 40
0.7494813527194164
 40
0.7779588669976948
 40
0.8208766717687338
 40
0.8424514691504659
 40
0.8747242821794735
 40
0.8997563983109476
 40
0.9372703102803513
 40
0.9685784185325865
 40
1.0
 40
1.0
 40
1.0
 40
1.0
 10
3.950000000000008
 20
30.22558142012637
 30
0.0
 10
3.947278630487604
 20
30.22556441746848
 30
0.0
 10
3.940490908866777
 20
30.2255220089281
 30
0.0
 10
3.926965088488734
 20
30.22500878447084
 30
0.0
 10
3.910815897791769
 20
30.2237499082788
 30
0.0
 10
3.8907836266472
 20
30.22123374888837
 30
0.0
 10
3.871482565347222
 20
30.21779055348815
 30
0.0
 10
3.848607405882317
 20
30.21241015713826
 30
0.0
 10
3.829331319368896
 20
30.2066566709893
 30
0.0
 10
3.809642218453936
 20
30.19962160064927
 30
0.0
 10
3.793167806815502
 20
30.19290122073893
 30
0.0
 10
3.772924482298183
 20
30.18344563237709
 30
0.0
 10
3.755317616591673
 20
30.17394373601331
 30
0.0
 10
3.737577171360722
 20
30.16314575471338
 30
0.0
 10
3.722818978858856
 20
30.1532706464055
 30
0.0
 10
3.704798099920052
 20
30.13989144466211
 30
0.0
 10
3.689332466278726
 20
30.12697740010817
 30
0.0
 10
3.674029699770665
 20
30.11281096127925
 30
0.0
 10
3.661557220132572
 20
30.10024903998078
 30
0.0
 10
3.64660951158968
 20
30.08369276015743
 30
0.0
 10
3.634030514372692
 20
30.06810049270647
 30
0.0
 10
3.621756928744929
 20
30.05123600708179
 30
0.0
 10
3.611872616558013
 20
30.03639837328909
 30
0.0
 10
3.600324644432424
 20
30.01717281850424
 30
0.0
 10
3.590949392450413
 20
29.99943559548712
 30
0.0
 10
3.582148995017337
 20
29.98063051707892
 30
0.0
 10
3.575306871630834
 20
29.96432508828282
 30
0.0
 10
3.567606450656885
 20
29.94334796470472
 30
0.0
 10
3.561699011690647
 20
29.92412819400953
 30
0.0
 10
3.556524840089347
 20
29.9038649584692
 30
0.0
 10
3.552972986099547
 20
29.88718562683122
 30
0.0
 10
3.549559886390243
 20
29.86697716337638
 30
0.0
 10
3.547128888650077
 20
29.84683182165026
 30
0.0
 10
3.545565946831249
 20
29.82521437831679
 30
0.0
 10
3.54538317520182
 20
29.81165726630967
 30
0.0
 10
3.545291624077139
 20
29.80486644841631
 30
0.0
  0
SPLINE
  5
251
330
1F
100
AcDbEntity
  8
1
  6
SLD-Dashed
370
    18
100
AcDbSpline
210
0.0
220
0.0
230
1.0
 70
     8
 71
     3
 72
     8
 73
     4
 74
     0
 42
0.000000001
 43
0.00000001
 40
0.0
 40
0.0
 40
0.0
 40
0.0
 40
1.0
 40
1.0
 40
1.0
 40
1.0
 10
9.2
 20
27.8050456341729
 30
0.0
 10
8.752403481898929
 20
28.61249255653033
 30
0.0
 10
8.30365062048366
 20
29.41929290832669
 30
0.0
 10
7.853987053477382
 20
30.2255814201264
 30
0.0
  0
SPLINE
  5
252
330
1F
100
AcDbEntity
  8
1
  6
SLD-Dashed
370
    18
100
AcDbSpline
210
0.0
220
0.0
230
1.0
 70
     8
 71
     3
 72
    12
 73
     8
 74
     0
 42
0.000000001
 43
0.00000001
 40
0.0
 40
0.0
 40
0.0
 40
0.0
 40
0.2499999999999984
 40
0.2499999999999984
 40
0.4999999999999969
 40
0.4999999999999969
 40
1.0
 40
1.0
 40
1.0
 40
1.0
 10
9.949999999999987
 20
26.98706356756881
 30
0.0
 10
9.850149452042919
 20
26.9870635675688
 30
0.0
 10
9.748134209428105
 20
27.00887348025307
 30
0.0
 10
9.565410104204544
 20
27.0898925831707
 30
0.0
 10
9.481984824368919
 20
27.14976438531446
 30
0.0
 10
9.27727456740339
 20
27.36818499553367
 30
0.0
 10
9.200000000000014
 20
27.56879736260814
 30
0.0
 10
9.200000000000014
 20
27.76916635406975
 30
0.0
  0
SPLINE
  5
253
330
1F
100
AcDbEntity
  8
1
  6
SLD-Dashed
370
    18
100
AcDbSpline
210
0.0
220
0.0
230
1.0
 70
     8
 71
     3
 72
    12
 73
     8
 74
     0
 42
0.000000001
 43
0.00000001
 40
0.0
 40
0.0
 40
0.0
 40
0.0
 40
0.2500000000000007
 40
0.2500000000000007
 40
0.5000000000000014
 40
0.5000000000000014
 40
1.0
 40
1.0
 40
1.0
 40
1.0
 10
13.02999999999999
 20
27.76916635406975
 30
0.0
 10
13.02999999999999
 20
27.66900663339825
 30
0.0
 10
13.01145353522914
 20
27.56910146598283
 30
0.0
 10
12.93858199206005
 20
27.3817824466198
 30
0.0
 10
12.8852303554246
 20
27.29613295246498
 30
0.0
 10
12.67790477657024
 20
27.07503152815011
 30
0.0
 10
12.47994383972983
 20
26.98706356756882
 30
0.0
 10
12.28000000000001
 20
26.98706356756881
 30
0.0
  0
SPLINE
  5
254
330
1F
100
AcDbEntity
  8
1
  6
SLD-Dashed
370
    18
100
AcDbSpline
210
0.0
220
0.0
230
1.0
 70
     8
 71
     3
 72
     8
 73
     4
 74
     0
 42
0.000000001
 43
0.00000001
 40
0.0
 40
0.0
 40
0.0
 40
0.0
 40
1.0
 40
1.0
 40
1.0
 40
1.0
 10
14.37595046659276
 20
30.22546938779911
 30
0.0
 10
13.92630781119528
 20
29.41921817244961
 30
0.0
 10
13.47757578719336
 20
28.61245515876932
 30
0.0
 10
13.02999999999999
 20
27.8050456341729
 30
0.0
  0
SPLINE
  5
255
330
1F
100
AcDbEntity
  8
SK3
  6
SLD-Dashed
370
    18
100
AcDbSpline
210
0.0
220
0.0
230
1.0
 70
     8
 71
     3
 72
    39
 73
    35
 74
     0
 42
0.000000001
 43
0.00000001
 40
0.0
 40
0.0
 40
0.0
 40
0.0
 40
0.0314091160307677
 40
0.062641375864154
 40
0.0875470935131889
 40
0.1248485138287462
 40
0.1532930400450872
 40
0.1960941157944515
 40
0.2176225947738144
 40
0.2499693772004302
 40
0.2785546285585205
 40
0.3212364873026964
 40
0.3425405354923894
 40
0.3745092858974103
 40
0.4029918411019262
 40
0.4459785689856202
 40
0.4675618916159423
 40
0.4997576608210476
 40
0.5282368343000382
 40
0.5708480092883969
 40
0.5921584935845849
 40
0.624188332845246
 40
0.6527986190299447
 40
0.6959401501309724
 40
0.7174023419155647
 40
0.7494519752642036
 40
0.7778741158300034
 40
0.8205144520917296
 40
0.8418962920619176
 40
0.8741359236783779
 40
0.8993502252909584
 40
0.9370840470446232
 40
0.9685048711195082
 40
1.0
 40
1.0
 40
1.0
 40
1.0
 10
18.70461115500208
 20
29.80485527419825
 30
0.0
 10
18.70452025144945
 20
29.81164171345385
 30
0.0
 10
18.70433895619741
 20
29.82517637936966
 30
0.0
 10
18.70297056619669
 20
29.8440519046571
 30
0.0
 10
18.70074103176619
 20
29.86411824570157
 30
0.0
 10
18.69766377514251
 20
29.88347227622579
 30
0.0
 10
18.69285822025332
 20
29.90643124843557
 30
0.0
 10
18.68771177437781
 20
29.92581971282423
 30
0.0
 10
18.68138591064231
 20
29.94572790966323
 30
0.0
 10
18.6753070430736
 20
29.96248267210257
 30
0.0
 10
18.66671222395192
 20
29.98315850998392
 30
0.0
 10
18.65804498468779
 20
30.00120090567662
 30
0.0
 10
18.64816898127236
 20
30.01943081107648
 30
0.0
 10
18.6391259878666
 20
30.03461278108221
 30
0.0
 10
18.62681037274128
 20
30.05326734966759
 30
0.0
 10
18.61481562184569
 20
30.06942261759878
 30
0.0
 10
18.60152603092413
 20
30.08556438898107
 30
0.0
 10
18.5896598426597
 20
30.09880574838224
 30
0.0
 10
18.57398746850281
 20
30.11469877887867
 30
0.0
 10
18.5591861811131
 20
30.12812096686807
 30
0.0
 10
18.54313791073564
 20
30.14124723286361
 30
0.0
 10
18.52896425933556
 20
30.15187245989081
 30
0.0
 10
18.51038407954447
 20
30.16443427377514
 30
0.0
 10
18.49306028314313
 20
30.17474090541241
 30
0.0
 10
18.47457768707383
 20
30.18446497823755
 30
0.0
 10
18.45855895706402
 20
30.19201976729602
 30
0.0
 10
18.43796004437196
 20
30.20051935318394
 30
0.0
 10
18.41906612592662
 20
30.2070528412837
 30
0.0
 10
18.3990775214993
 20
30.21280585013026
 30
0.0
 10
18.38250765201565
 20
30.21678677988685
 30
0.0
 10
18.36230136175013
 20
30.22064109222355
 30
0.0
 10
18.34208698503431
 20
30.22338985618057
 30
0.0
 10
18.32039969464305
 20
30.22516034748685
 30
0.0
 10
18.30680524997083
 20
30.22536629328654
 30
0.0
 10
18.30000000000006
 20
30.22546938779911
 30
0.0
  0
SPLINE
  5
256
330
1F
100
AcDbEntity
  8
SK3
  6
SLD-Dashed
370
    18
100
AcDbSpline
210
0.0
220
0.0
230
1.0
 70
     8
 71
     3
 72
    34
 73
    30
 74
     0
 42
0.000000001
 43
0.00000001
 40
0.4999999999999964
 40
0.4999999999999964
 40
0.4999999999999964
 40
0.4999999999999964
 40
0.5624999999999961
 40
0.5624999999999961
 40
0.5937499999999962
 40
0.5937499999999962
 40
0.6249999999999963
 40
0.6249999999999963
 40
0.6562499999999964
 40
0.6562499999999964
 40
0.6874999999999966
 40
0.6874999999999966
 40
0.7499999999999971
 40
0.7499999999999971
 40
0.7812499999999974
 40
0.7812499999999974
 40
0.8124999999999978
 40
0.8124999999999978
 40
0.8437499999999982
 40
0.8437499999999982
 40
0.8749999999999986
 40
0.8749999999999986
 40
0.9062499999999989
 40
0.9062499999999989
 40
0.9374999999999992
 40
0.9374999999999992
 40
0.9687499999999997
 40
0.9687499999999997
 40
1.0
 40
1.0
 40
1.0
 40
1.0
 10
10.43489457346453
 20
9.192707275454424
 30
0.0
 10
10.57763203931583
 20
9.178391047657614
 30
0.0
 10
10.73072898252597
 20
9.14878837349329
 30
0.0
 10
11.00846457422353
 20
9.07984816114555
 30
0.0
 10
11.10872720463399
 20
9.052921739824741
 30
0.0
 10
11.33151412887495
 20
8.987194762961344
 30
0.0
 10
11.4528847494719
 20
8.948740399015172
 30
0.0
 10
11.69975803299397
 20
8.855687905200394
 30
0.0
 10
11.82369929941915
 20
8.80103390362743
 30
0.0
 10
12.05254486308013
 20
8.674067238076615
 30
0.0
 10
12.15835137945201
 20
8.601647149158655
 30
0.0
 10
12.44326053814743
 20
8.3542096128539
 30
0.0
 10
12.58579742123003
 20
8.151094935723837
 30
0.0
 10
12.7089524147273
 20
7.809142101035414
 30
0.0
 10
12.73535560308828
 20
7.68700358996962
 30
0.0
 10
12.7552697450104
 20
7.441164323332035
 30
0.0
 10
12.74937513382363
 20
7.31528186355649
 30
0.0
 10
12.70533810945412
 20
7.063941193639963
 30
0.0
 10
12.66802095968714
 20
6.94163100009642
 30
0.0
 10
12.56344952904387
 20
6.704179749394003
 30
0.0
 10
12.49625932456627
 20
6.590217548379678
 30
0.0
 10
12.33809446794182
 20
6.382378293731277
 30
0.0
 10
12.24493473983124
 20
6.285873995051198
 30
0.0
 10
12.0405491512664
 20
6.122156553344187
 30
0.0
 10
11.92932147845091
 20
6.054026580940127
 30
0.0
 10
11.68736550523705
 20
5.952992896783492
 30
0.0
 10
11.56181201416268
 20
5.923411177353239
 30
0.0
 10
11.31821027169289
 20
5.909336941584402
 30
0.0
 10
11.20410590689122
 20
5.924577191512063
 30
0.0
 10
11.1
 20
5.953410618658249
 30
0.0
  0
SPLINE
  5
257
330
1F
100
AcDbEntity
  8
SK3
  6
SLD-Dashed
370
    18
100
AcDbSpline
210
0.0
220
0.0
230
1.0
 70
     8
 71
     3
 72
    32
 73
    28
 74
     0
 42
0.000000001
 43
0.00000001
 40
0.0
 40
0.0
 40
0.0
 40
0.0
 40
0.0312499999999998
 40
0.0312499999999998
 40
0.0624999999999996
 40
0.0624999999999996
 40
0.1249999999999991
 40
0.1249999999999991
 40
0.1874999999999986
 40
0.1874999999999986
 40
0.2187499999999983
 40
0.2187499999999983
 40
0.2499999999999979
 40
0.2499999999999979
 40
0.2812499999999978
 40
0.2812499999999978
 40
0.3124999999999976
 40
0.3124999999999976
 40
0.3437499999999974
 40
0.3437499999999974
 40
0.3749999999999972
 40
0.3749999999999972
 40
0.406249999999997
 40
0.406249999999997
 40
0.4374999999999968
 40
0.4374999999999968
 40
0.4999999999999964
 40
0.4999999999999964
 40
0.4999999999999964
 40
0.4999999999999964
 10
11.1
 20
5.953410618658249
 30
0.0
 10
10.99589409310878
 20
5.982244045804435
 30
0.0
 10
10.90407857642198
 20
6.023103286373586
 30
0.0
 10
10.73262137377526
 20
6.11824072587281
 30
0.0
 10
10.65318813797003
 20
6.172784121821907
 30
0.0
 10
10.42547236553634
 20
6.352355611395084
 30
0.0
 10
10.29042057236915
 20
6.490344336420449
 30
0.0
 10
10.03758703563627
 20
6.798492095359341
 30
0.0
 10
9.919813607757968
 20
6.968691620995678
 30
0.0
 10
9.755188160048112
 20
7.264657280293581
 30
0.0
 10
9.702965925809076
 20
7.369529169307644
 30
0.0
 10
9.608196888300558
 20
7.590905988961221
 30
0.0
 10
9.564891013149571
 20
7.708630023759009
 30
0.0
 10
9.493588627253482
 20
7.962877344356849
 30
0.0
 10
9.46689227676846
 20
8.097433676092718
 30
0.0
 10
9.444811777617273
 20
8.35746663645976
 30
0.0
 10
9.450063840888228
 20
8.483405619809336
 30
0.0
 10
9.49012492631586
 20
8.696446913670282
 30
0.0
 10
9.523244242074153
 20
8.782864284801857
 30
0.0
 10
9.604247903804625
 20
8.92514426674946
 30
0.0
 10
9.650743567469144
 20
8.979230676614124
 30
0.0
 10
9.751569607309607
 20
9.067142795898937
 30
0.0
 10
9.806244160784559
 20
9.100654189155017
 30
0.0
 10
9.91929173158787
 20
9.151642126956078
 30
0.0
 10
9.978038231873294
 20
9.169399205425442
 30
0.0
 10
10.16095206270197
 20
9.205547608603656
 30
0.0
 10
10.29215710761322
 20
9.207023503251234
 30
0.0
 10
10.43489457346453
 20
9.192707275454424
 30
0.0
  0
DIMENSION
  5
258
330
1F
100
AcDbEntity
  8
2
100
AcDbDimension
  2
_D
 10
69.85
 20
69.6999154306
 30
0.0
 11
31.3749274899
 21
69.6999154306
 31
0.0
 70
   160
  1
<>
 71
     2
 42
-1.0
  3
SLDDIMSTYLE0
100
AcDbAlignedDimension
 13
0.0
 23
22.225
 33
0.0
 14
69.85
 24
13.208
 34
0.0
100
AcDbRotatedDimension
  0
DIMENSION
  5
26D
330
1F
100
AcDbEntity
  8
SK2
100
AcDbDimension
  2
_D_1
 10
69.85
 20
56.8263622469
 30
0.0
 11
45.0706980893
 21
56.8263622469
 31
0.0
 70
   160
  1
<>
 71
     2
 42
-1.0
  3
SLDDIMSTYLE0
100
AcDbAlignedDimension
 13
19.05
 23
29.8048664484
 33
0.0
 14
69.85
 24
13.208
 34
0.0
100
AcDbRotatedDimension
  0
DIMENSION
  5
280
330
1F
100
AcDbEntity
  8
SK2
100
AcDbDimension
  2
_D_2
 10
19.05
 20
56.8263622469
 30
0.0
 11
9.0825687651
 21
56.8263622469
 31
0.0
 70
   160
  1
<>
 71
     2
 42
-1.0
  3
SLDDIMSTYLE1
100
AcDbAlignedDimension
 13
0.0
 23
22.225
 33
0.0
 14
19.05
 24
29.8048664484
 34
0.0
100
AcDbRotatedDimension
  0
DIMENSION
  5
28B
330
1F
100
AcDbEntity
  8
SK2
100
AcDbDimension
  2
_D_3
 10
69.85
 20
44.1884837206
 30
0.0
 11
51.8651316984
 21
44.1884837206
 31
0.0
 70
   160
  1
<>
 71
     2
 42
-1.0
  3
SLDDIMSTYLE0
100
AcDbAlignedDimension
 13
35.05
 23
21.463
 33
0.0
 14
69.85
 24
13.208
 34
0.0
 50
0.0
100
AcDbRotatedDimension
  0
DIMENSION
  5
29E
330
1F
100
AcDbEntity
  8
SK2
100
AcDbDimension
  2
_D_4
 10
69.85
 20
31.6127228413
 30
0.0
 11
58.5143845771
 21
31.6127228413
 31
0.0
 70
   160
  1
<>
 71
     2
 42
-1.0
  3
SLDDIMSTYLE0
100
AcDbAlignedDimension
 13
46.025
 23
19.3
 33
0.0
 14
69.85
 24
13.208
 34
0.0
100
AcDbRotatedDimension
  0
DIMENSION
  5
2B1
330
1F
100
AcDbEntity
  8
SK2
100
AcDbDimension
  2
_D_5
 10
87.8933110635
 20
7.9375
 30
0.0
 11
87.8933110635
 21
29.6812649589
 31
0.0
 70
   160
  1
%%c<>
 71
     2
 42
-1.0
  3
SLDDIMSTYLE2
100
AcDbAlignedDimension
 13
68.85
 23
-7.9375
 33
0.0
 14
68.85
 24
7.9375
 34
0.0
 50
90.0
100
AcDbRotatedDimension
  0
DIMENSION
  5
2C6
330
1F
100
AcDbEntity
  8
SK2
100
AcDbDimension
  2
_D_6
 10
102.8866506849
 20
-13.208
 30
0.0
 11
102.8866506849
 21
-0.6127766164
 31
0.0
 70
   160
  1
%%c<>
 71
     2
 42
-1.0
  3
SLDDIMSTYLE0
100
AcDbAlignedDimension
 13
69.85
 23
13.208
 33
0.0
 14
69.85
 24
-13.208
 34
0.0
 50
90.0
100
AcDbRotatedDimension
  0
DIMENSION
  5
2D8
330
1F
100
AcDbEntity
  8
SK2
100
AcDbDimension
  2
_D_7
 10
115.9561635023
 20
-19.05
 30
0.0
 11
115.9561635023
 21
0.1962496584
 31
0.0
 70
   160
  1
%%c<>
 71
     2
 42
-1.0
  3
SLDDIMSTYLE0
100
AcDbAlignedDimension
 13
64.008
 23
19.05
 33
0.0
 14
64.008
 24
-19.05
 34
0.0
 50
90.0
100
AcDbRotatedDimension
  0
DIMENSION
  5
2EA
330
1F
100
AcDbEntity
  8
SK2
100
AcDbDimension
  2
_D_8
 10
69.85
 20
-51.0129624357
 30
0.0
 11
-7.5338904429
 21
-51.0129624357
 31
0.0
 70
   160
  1
<>
 71
     2
 42
-1.0
  3
SLDDIMSTYLE3
100
AcDbAlignedDimension
 13
-68.25
 23
-11.1476148288
 33
0.0
 14
69.85
 24
-13.208
 34
0.0
 50
0.0
100
AcDbRotatedDimension
  0
DIMENSION
  5
2FE
330
1F
100
AcDbEntity
  8
SK2
100
AcDbDimension
  2
_D_9
 10
69.85
 20
-42.4046657056
 30
0.0
 11
38.6992605145
 21
-42.4046657056
 31
0.0
 70
   160
  1
<>
 71
     2
 42
-1.0
  3
SLDDIMSTYLE0
100
AcDbAlignedDimension
 13
21.8398593255
 23
-7.9375
 33
0.0
 14
69.85
 24
-13.208
 34
0.0
100
AcDbRotatedDimension
  0
DIMENSION
  5
311
330
1F
100
AcDbEntity
  8
SK2
100
AcDbDimension
  2
_D_10
 10
69.85
 20
-31.6647698771
 30
0.0
 11
54.5825021319
 21
-31.6647698771
 31
0.0
 70
   160
  1
<>
 71
     2
 42
-1.0
  3
SLDDIMSTYLE4
100
AcDbAlignedDimension
 13
64.008
 23
-19.05
 33
0.0
 14
69.85
 24
-13.208
 34
0.0
100
AcDbRotatedDimension
  0
DIMENSION
  5
31E
330
1F
100
AcDbEntity
  8
SK2
100
AcDbDimension
  2
_D_11
 10
-89.5748793795
 20
-30.5579086614
 30
0.0
 11
-89.5748793795
 21
-2.0807191161
 31
0.0
 70
   160
  1
%%c<>
 71
     2
 42
-1.0
  3
SLDDIMSTYLE1
100
AcDbAlignedDimension
 13
3.95
 23
30.5578899967
 33
0.0
 14
3.95
 24
-30.5579086614
 34
0.0
 50
90.0
100
AcDbRotatedDimension
  0
DIMENSION
  5
329
330
1F
100
AcDbEntity
  8
SK2
100
AcDbDimension
  2
_D_12
 10
-77.1618316054
 20
-7.9375002533
 30
0.0
 11
-77.1618316054
 21
-2.0827992547
 31
0.0
 70
   160
  1
<>
 71
     2
 42
-1.0
  3
SLDDIMSTYLE5
100
AcDbAlignedDimension
 13
-63.3082389832
 23
7.9375002533
 33
0.0
 14
-63.3082389832
 24
-7.9375002533
 34
0.0
 50
90.0
100
AcDbRotatedDimension
  0
MTEXT
  5
337
330
1F
100
AcDbEntity
  8
SK6
 62
     5
100
AcDbMText
 10
-49.5867990399
 20
-23.9088812857
 30
0.0
 40
3.5
 41
0.0
 71
     1
 72
     1
  1
AA3B20-40 16 070
  7
SLDTEXTSTYLE0
 73
     1
 44
1.0
  0
MTEXT
  5
338
330
1F
100
AcDbEntity
  8
SK6
 62
     5
100
AcDbMText
 10
-52.586104765
 20
27.8103732467
 30
0.0
 40
3.5
 41
0.0
 71
     1
 72
     1
  1
ASME B5.50 CAT 40
  7
SLDTEXTSTYLE0
 73
     1
 44
1.0
  0
ENDSEC
  0
SECTION
  2
OBJECTS
  0
DICTIONARY
  5
C
330
0
100
AcDbDictionary
281
     1
  3
ACAD_GROUP
350
D
  3
ACAD_LAYOUT
350
1A
  3
ACAD_MLINESTYLE
350
17
  3
ACAD_PLOTSETTINGS
350
19
  3
ACAD_PLOTSTYLENAME
350
E
  3
ACAD_SCALELIST
350
47
  0
DICTIONARY
  5
D
102
{ACAD_REACTORS
330
C
102
}
330
C
100
AcDbDictionary
281
     1
  0
DICTIONARY
  5
1A
102
{ACAD_REACTORS
330
C
102
}
330
C
100
AcDbDictionary
281
     1
  3
Layout1
350
1E
  3
Layout2
350
26
  3
Model
350
22
  0
DICTIONARY
  5
17
102
{ACAD_REACTORS
330
C
102
}
330
C
100
AcDbDictionary
281
     1
  3
Standard
350
18
  0
DICTIONARY
  5
19
102
{ACAD_REACTORS
330
C
102
}
330
C
100
AcDbDictionary
281
     1
  0
ACDBDICTIONARYWDFLT
  5
E
102
{ACAD_REACTORS
330
C
102
}
330
C
100
AcDbDictionary
281
     1
  3
Normal
350
F
100
AcDbDictionaryWithDefault
340
F
  0
DICTIONARY
  5
47
102
{ACAD_REACTORS
330
C
102
}
330
C
100
AcDbDictionary
281
     1
  3
A0
350
48
  3
A1
350
49
  3
A2
350
4A
  3
A3
350
4B
  3
A4
350
4C
  3
A5
350
4D
  3
A6
350
4E
  3
A7
350
4F
  3
A8
350
50
  3
A9
350
51
  3
B0
350
52
  3
B1
350
53
  3
B2
350
54
  3
B3
350
55
  3
B4
350
56
  3
B5
350
57
  3
B6
350
58
  3
B7
350
59
  3
B8
350
5A
  3
B9
350
5B
  3
C0
350
5C
  3
C1
350
5D
  3
C2
350
5E
  3
C3
350
5F
  3
C4
350
60
  3
C5
350
61
  3
C6
350
62
  3
C7
350
63
  3
C8
350
64
  3
C9
350
65
  3
D0
350
66
  3
D1
350
67
  3
D2
350
68
  0
LAYOUT
  5
1E
102
{ACAD_REACTORS
330
1A
102
}
330
1A
100
AcDbPlotSettings
  1

  2
none_device
  4

  6

 40
0.0
 41
0.0
 42
0.0
 43
0.0
 44
0.0
 45
0.0
 46
0.0
 47
0.0
 48
0.0
 49
0.0
140
0.0
141
0.0
142
1.0
143
1.0
 70
   688
 72
     1
 73
     0
 74
     5
  7

 75
    16
147
1.0
148
0.0
149
0.0
100
AcDbLayout
  1
Layout1
 70
     1
 71
     1
 10
0.0
 20
0.0
 11
420.0
 21
297.0
 12
0.0
 22
0.0
 32
0.0
 14
1.0000000000E+20
 24
1.0000000000E+20
 34
1.0000000000E+20
 15
-1.0000000000E+20
 25
-1.0000000000E+20
 35
-1.0000000000E+20
146
0.0
 13
0.0
 23
0.0
 33
0.0
 16
1.0
 26
0.0
 36
0.0
 17
0.0
 27
1.0
 37
0.0
 76
     0
330
1B
  0
LAYOUT
  5
26
102
{ACAD_REACTORS
330
1A
102
}
330
1A
100
AcDbPlotSettings
  1

  2
none_device
  4

  6

 40
0.0
 41
0.0
 42
0.0
 43
0.0
 44
0.0
 45
0.0
 46
0.0
 47
0.0
 48
0.0
 49
0.0
140
0.0
141
0.0
142
1.0
143
1.0
 70
   688
 72
     1
 73
     0
 74
     5
  7

 75
    16
147
1.0
148
0.0
149
0.0
100
AcDbLayout
  1
Layout2
 70
     1
 71
     2
 10
0.0
 20
0.0
 11
0.0
 21
0.0
 12
0.0
 22
0.0
 32
0.0
 14
0.0
 24
0.0
 34
0.0
 15
0.0
 25
0.0
 35
0.0
146
0.0
 13
0.0
 23
0.0
 33
0.0
 16
1.0
 26
0.0
 36
0.0
 17
0.0
 27
1.0
 37
0.0
 76
     0
330
23
  0
LAYOUT
  5
22
102
{ACAD_REACTORS
330
1A
102
}
330
1A
100
AcDbPlotSettings
  1

  2
none_device
  4
Letter_(8.50_x_11.00_Inches)
  6

 40
6.35
 41
6.35
 42
6.35000508
 43
6.35000508
 44
215.9
 45
279.4
 46
0.0
 47
0.0
 48
0.0
 49
0.0
140
0.0
141
0.0
142
1.0
143
1.0
 70
  1712
 72
     1
 73
     0
 74
     0
  7

 75
     0
147
1.0
148
0.0
149
0.0
100
AcDbLayout
  1
Model
 70
     1
 71
     0
 10
0.0
 20
0.0
 11
297.0
 21
210.0
 12
0.0
 22
0.0
 32
0.0
 14
0.0
 24
0.0
 34
0.0
 15
297.0
 25
210.0
 35
0.0
146
0.0
 13
0.0
 23
0.0
 33
0.0
 16
1.0
 26
0.0
 36
0.0
 17
0.0
 27
1.0
 37
0.0
 76
     0
330
1F
331
29
  0
MLINESTYLE
  5
18
102
{ACAD_REACTORS
330
17
102
}
330
17
100
AcDbMlineStyle
  2
Standard
 70
     0
  3

 62
   256
 51
90.0
 52
90.0
 71
     2
 49
0.5
 62
   256
  6
BYLAYER
 49
-0.5
 62
   256
  6
BYLAYER
  0
ACDBPLACEHOLDER
  5
F
102
{ACAD_REACTORS
330
E
102
}
330
E
  0
SCALE
  5
48
102
{ACAD_REACTORS
330
47
102
}
330
47
100
AcDbScale
 70
     0
300
1:1
140
1.0
141
1.0
290
     1
  0
SCALE
  5
49
102
{ACAD_REACTORS
330
47
102
}
330
47
100
AcDbScale
 70
     0
300
1:2
140
1.0
141
2.0
290
     0
  0
SCALE
  5
4A
102
{ACAD_REACTORS
330
47
102
}
330
47
100
AcDbScale
 70
     0
300
1:4
140
1.0
141
4.0
290
     0
  0
SCALE
  5
4B
102
{ACAD_REACTORS
330
47
102
}
330
47
100
AcDbScale
 70
     0
300
1:5
140
1.0
141
5.0
290
     0
  0
SCALE
  5
4C
102
{ACAD_REACTORS
330
47
102
}
330
47
100
AcDbScale
 70
     0
300
1:8
140
1.0
141
8.0
290
     0
  0
SCALE
  5
4D
102
{ACAD_REACTORS
330
47
102
}
330
47
100
AcDbScale
 70
     0
300
1:10
140
1.0
141
10.0
290
     0
  0
SCALE
  5
4E
102
{ACAD_REACTORS
330
47
102
}
330
47
100
AcDbScale
 70
     0
300
1:16
140
1.0
141
16.0
290
     0
  0
SCALE
  5
4F
102
{ACAD_REACTORS
330
47
102
}
330
47
100
AcDbScale
 70
     0
300
1:20
140
1.0
141
20.0
290
     0
  0
SCALE
  5
50
102
{ACAD_REACTORS
330
47
102
}
330
47
100
AcDbScale
 70
     0
300
1:30
140
1.0
141
30.0
290
     0
  0
SCALE
  5
51
102
{ACAD_REACTORS
330
47
102
}
330
47
100
AcDbScale
 70
     0
300
1:40
140
1.0
141
40.0
290
     0
  0
SCALE
  5
52
102
{ACAD_REACTORS
330
47
102
}
330
47
100
AcDbScale
 70
     0
300
1:50
140
1.0
141
50.0
290
     0
  0
SCALE
  5
53
102
{ACAD_REACTORS
330
47
102
}
330
47
100
AcDbScale
 70
     0
300
1:100
140
1.0
141
100.0
290
     0
  0
SCALE
  5
54
102
{ACAD_REACTORS
330
47
102
}
330
47
100
AcDbScale
 70
     0
300
2:1
140
2.0
141
1.0
290
     0
  0
SCALE
  5
55
102
{ACAD_REACTORS
330
47
102
}
330
47
100
AcDbScale
 70
     0
300
4:1
140
4.0
141
1.0
290
     0
  0
SCALE
  5
56
102
{ACAD_REACTORS
330
47
102
}
330
47
100
AcDbScale
 70
     0
300
8:1
140
8.0
141
1.0
290
     0
  0
SCALE
  5
57
102
{ACAD_REACTORS
330
47
102
}
330
47
100
AcDbScale
 70
     0
300
10:1
140
10.0
141
1.0
290
     0
  0
SCALE
  5
58
102
{ACAD_REACTORS
330
47
102
}
330
47
100
AcDbScale
 70
     0
300
100:1
140
100.0
141
1.0
290
     0
  0
SCALE
  5
59
102
{ACAD_REACTORS
330
47
102
}
330
47
100
AcDbScale
 70
     0
300
1/128" = 1'-0"
140
0.0078125
141
12.0
290
     0
  0
SCALE
  5
5A
102
{ACAD_REACTORS
330
47
102
}
330
47
100
AcDbScale
 70
     0
300
1/64" = 1'-0"
140
0.015625
141
12.0
290
     0
  0
SCALE
  5
5B
102
{ACAD_REACTORS
330
47
102
}
330
47
100
AcDbScale
 70
     0
300
1/32" = 1'-0"
140
0.03125
141
12.0
290
     0
  0
SCALE
  5
5C
102
{ACAD_REACTORS
330
47
102
}
330
47
100
AcDbScale
 70
     0
300
1/16" = 1'-0"
140
0.0625
141
12.0
290
     0
  0
SCALE
  5
5D
102
{ACAD_REACTORS
330
47
102
}
330
47
100
AcDbScale
 70
     0
300
3/32" = 1'-0"
140
0.09375
141
12.0
290
     0
  0
SCALE
  5
5E
102
{ACAD_REACTORS
330
47
102
}
330
47
100
AcDbScale
 70
     0
300
1/8" = 1'-0"
140
0.125
141
12.0
290
     0
  0
SCALE
  5
5F
102
{ACAD_REACTORS
330
47
102
}
330
47
100
AcDbScale
 70
     0
300
3/16" = 1'-0"
140
0.1875
141
12.0
290
     0
  0
SCALE
  5
60
102
{ACAD_REACTORS
330
47
102
}
330
47
100
AcDbScale
 70
     0
300
1/4" = 1'-0"
140
0.25
141
12.0
290
     0
  0
SCALE
  5
61
102
{ACAD_REACTORS
330
47
102
}
330
47
100
AcDbScale
 70
     0
300
3/8" = 1'-0"
140
0.375
141
12.0
290
     0
  0
SCALE
  5
62
102
{ACAD_REACTORS
330
47
102
}
330
47
100
AcDbScale
 70
     0
300
1/2" = 1'-0"
140
0.5
141
12.0
290
     0
  0
SCALE
  5
63
102
{ACAD_REACTORS
330
47
102
}
330
47
100
AcDbScale
 70
     0
300
3/4" = 1'-0"
140
0.75
141
12.0
290
     0
  0
SCALE
  5
64
102
{ACAD_REACTORS
330
47
102
}
330
47
100
AcDbScale
 70
     0
300
1" = 1'-0"
140
1.0
141
12.0
290
     0
  0
SCALE
  5
65
102
{ACAD_REACTORS
330
47
102
}
330
47
100
AcDbScale
 70
     0
300
1-1/2" = 1'-0"
140
1.5
141
12.0
290
     0
  0
SCALE
  5
66
102
{ACAD_REACTORS
330
47
102
}
330
47
100
AcDbScale
 70
     0
300
3" = 1'-0"
140
3.0
141
12.0
290
     0
  0
SCALE
  5
67
102
{ACAD_REACTORS
330
47
102
}
330
47
100
AcDbScale
 70
     0
300
6" = 1'-0"
140
6.0
141
12.0
290
     0
  0
SCALE
  5
68
102
{ACAD_REACTORS
330
47
102
}
330
47
100
AcDbScale
 70
     0
300
1'-0" = 1'-0"
140
12.0
141
12.0
290
     0
  0
ENDSEC
  0
EOF
