  0
SECTION
  2
HEADER
  9
$ACADVER
  1
AC1015
  9
$ACADMAINTVER
 70
     6
  9
$DWGCODEPAGE
  3
ANSI_1250
  9
$INSBASE
 10
0.0
 20
0.0
 30
0.0
  9
$EXTMIN
 10
0.0
 20
0.0
 30
0.0
  9
$EXTMAX
 10
297.0
 20
210.0
 30
0.0
  9
$LIMMIN
 10
0.0
 20
0.0
  9
$LIMMAX
 10
297.0
 20
210.0
  9
$ORTHOMODE
 70
     0
  9
$REGENMODE
 70
     1
  9
$FILLMODE
 70
     1
  9
$QTEXTMODE
 70
     0
  9
$MIRRTEXT
 70
     1
  9
$LTSCALE
 40
1.0
  9
$ATTMODE
 70
     1
  9
$TEXTSIZE
 40
3.5
  9
$TRACEWID
 40
1.0
  9
$TEXTSTYLE
  7
Standard
  9
$CLAYER
  8
0
  9
$CELTYPE
  6
ByLayer
  9
$CECOLOR
 62
   256
  9
$CELTSCALE
 40
1.0
  9
$DISPSILH
 70
     0
  9
$DIMSCALE
 40
1.0
  9
$DIMASZ
 40
3.302
  9
$DIMEXO
 40
1.0
  9
$DIMDLI
 40
3.75
  9
$DIMRND
 40
0.0
  9
$DIMDLE
 40
0.0
  9
$DIMEXE
 40
1.0
  9
$DIMTP
 40
0.0
  9
$DIMTM
 40
0.0
  9
$DIMTXT
 40
3.5
  9
$DIMCEN
 40
2.5
  9
$DIMTSZ
 40
0.0
  9
$DIMTOL
 70
     0
  9
$DIMLIM
 70
     0
  9
$DIMTIH
 70
     1
  9
$DIMTOH
 70
     1
  9
$DIMSE1
 70
     0
  9
$DIMSE2
 70
     0
  9
$DIMTAD
 70
     1
  9
$DIMZIN
 70
     0
  9
$DIMBLK
  1

  9
$DIMASO
 70
     1
  9
$DIMSHO
 70
     1
  9
$DIMPOST
  1

  9
$DIMAPOST
  1

  9
$DIMALT
 70
     0
  9
$DIMALTD
 70
     3
  9
$DIMALTF
 40
0.0393700787
  9
$DIMLFAC
 40
1.0
  9
$DIMTOFL
 70
     1
  9
$DIMTVP
 40
0.0
  9
$DIMTIX
 70
     0
  9
$DIMSOXD
 70
     0
  9
$DIMSAH
 70
     0
  9
$DIMBLK1
  1

  9
$DIMBLK2
  1

  9
$DIMSTYLE
  2
ISO-25
  9
$DIMCLRD
 70
     0
  9
$DIMCLRE
 70
     0
  9
$DIMCLRT
 70
     0
  9
$DIMTFAC
 40
1.0
  9
$DIMGAP
 40
1.524
  9
$DIMJUST
 70
     0
  9
$DIMSD1
 70
     0
  9
$DIMSD2
 70
     0
  9
$DIMTOLJ
 70
     0
  9
$DIMTZIN
 70
     0
  9
$DIMALTZ
 70
     0
  9
$DIMALTTZ
 70
     0
  9
$DIMUPT
 70
     0
  9
$DIMDEC
 70
     2
  9
$DIMTDEC
 70
     2
  9
$DIMALTU
 70
     2
  9
$DIMALTTD
 70
     3
  9
$DIMTXSTY
  7
Standard
  9
$DIMAUNIT
 70
     0
  9
$DIMADEC
 70
     2
  9
$DIMALTRND
 40
0.0
  9
$DIMAZIN
 70
     0
  9
$DIMDSEP
 70
    44
  9
$DIMATFIT
 70
     3
  9
$DIMFRAC
 70
     0
  9
$DIMLDRBLK
  1

  9
$DIMLUNIT
 70
     2
  9
$DIMLWD
 70
    -2
  9
$DIMLWE
 70
    -2
  9
$DIMTMOVE
 70
     0
  9
$LUNITS
 70
     2
  9
$LUPREC
 70
     2
  9
$SKETCHINC
 40
1.0
  9
$FILLETRAD
 40
10.0
  9
$AUNITS
 70
     0
  9
$AUPREC
 70
     2
  9
$MENU
  1
.
  9
$ELEVATION
 40
0.0
  9
$PELEVATION
 40
0.0
  9
$THICKNESS
 40
0.0
  9
$LIMCHECK
 70
     0
  9
$CHAMFERA
 40
0.0
  9
$CHAMFERB
 40
0.0
  9
$CHAMFERC
 40
0.0
  9
$CHAMFERD
 40
0.0
  9
$SKPOLY
 70
     0
  9
$TDCREATE
 40
2459278.312826852
  9
$TDUCREATE
 40
2459278.271160185
  9
$TDUPDATE
 40
2459278.312828495
  9
$TDUUPDATE
 40
2459278.271161829
  9
$TDINDWG
 40
0.0000000116
  9
$TDUSRTIMER
 40
0.0000000116
  9
$USRTIMER
 70
     1
  9
$ANGBASE
 50
0.0
  9
$ANGDIR
 70
     0
  9
$PDMODE
 70
     0
  9
$PDSIZE
 40
-1.0
  9
$PLINEWID
 40
0.0
  9
$SPLFRAME
 70
     0
  9
$SPLINETYPE
 70
     6
  9
$SPLINESEGS
 70
     8
  9
$HANDSEED
  5
370
  9
$SURFTAB1
 70
     6
  9
$SURFTAB2
 70
     6
  9
$SURFTYPE
 70
     6
  9
$SURFU
 70
     6
  9
$SURFV
 70
     6
  9
$UCSBASE
  2

  9
$UCSNAME
  2

  9
$UCSORG
 10
0.0
 20
0.0
 30
0.0
  9
$UCSXDIR
 10
1.0
 20
0.0
 30
0.0
  9
$UCSYDIR
 10
0.0
 20
1.0
 30
0.0
  9
$UCSORTHOREF
  2

  9
$UCSORTHOVIEW
 70
     0
  9
$UCSORGTOP
 10
0.0
 20
0.0
 30
0.0
  9
$UCSORGBOTTOM
 10
0.0
 20
0.0
 30
0.0
  9
$UCSORGLEFT
 10
0.0
 20
0.0
 30
0.0
  9
$UCSORGRIGHT
 10
0.0
 20
0.0
 30
0.0
  9
$UCSORGFRONT
 10
0.0
 20
0.0
 30
0.0
  9
$UCSORGBACK
 10
0.0
 20
0.0
 30
0.0
  9
$PUCSBASE
  2

  9
$PUCSNAME
  2

  9
$PUCSORG
 10
0.0
 20
0.0
 30
0.0
  9
$PUCSXDIR
 10
1.0
 20
0.0
 30
0.0
  9
$PUCSYDIR
 10
0.0
 20
1.0
 30
0.0
  9
$PUCSORTHOREF
  2

  9
$PUCSORTHOVIEW
 70
     0
  9
$PUCSORGTOP
 10
0.0
 20
0.0
 30
0.0
  9
$PUCSORGBOTTOM
 10
0.0
 20
0.0
 30
0.0
  9
$PUCSORGLEFT
 10
0.0
 20
0.0
 30
0.0
  9
$PUCSORGRIGHT
 10
0.0
 20
0.0
 30
0.0
  9
$PUCSORGFRONT
 10
0.0
 20
0.0
 30
0.0
  9
$PUCSORGBACK
 10
0.0
 20
0.0
 30
0.0
  9
$USERI1
 70
     0
  9
$USERI2
 70
     0
  9
$USERI3
 70
     0
  9
$USERI4
 70
     0
  9
$USERI5
 70
     0
  9
$USERR1
 40
0.0
  9
$USERR2
 40
0.0
  9
$USERR3
 40
0.0
  9
$USERR4
 40
0.0
  9
$USERR5
 40
0.0
  9
$WORLDVIEW
 70
     1
  9
$SHADEDGE
 70
     3
  9
$SHADEDIF
 70
    70
  9
$TILEMODE
 70
     1
  9
$MAXACTVP
 70
    64
  9
$PINSBASE
 10
0.0
 20
0.0
 30
0.0
  9
$PLIMCHECK
 70
     0
  9
$PEXTMIN
 10
1.0000000000E+20
 20
1.0000000000E+20
 30
1.0000000000E+20
  9
$PEXTMAX
 10
-1.0000000000E+20
 20
-1.0000000000E+20
 30
-1.0000000000E+20
  9
$PLIMMIN
 10
0.0
 20
0.0
  9
$PLIMMAX
 10
420.0
 20
297.0
  9
$UNITMODE
 70
     0
  9
$VISRETAIN
 70
     1
  9
$PLINEGEN
 70
     0
  9
$PSLTSCALE
 70
     1
  9
$TREEDEPTH
 70
  3020
  9
$CMLSTYLE
  2
Standard
  9
$CMLJUST
 70
     0
  9
$CMLSCALE
 40
20.0
  9
$PROXYGRAPHICS
 70
     1
  9
$MEASUREMENT
 70
     1
  9
$CELWEIGHT
370
    -1
  9
$ENDCAPS
280
     0
  9
$JOINSTYLE
280
     0
  9
$LWDISPLAY
290
     1
  9
$INSUNITS
 70
     4
  9
$HYPERLINKBASE
  1

  9
$STYLESHEET
  1

  9
$XEDIT
290
     1
  9
$CEPSNTYPE
380
     0
  9
$PSTYLEMODE
290
     1
  9
$FINGERPRINTGUID
  2
{192F8266-DE80-4223-8DA4-7709BB027AF7}
  9
$VERSIONGUID
  2
{FAEB1C32-E019-11D5-929B-00C0DF256EC4}
  9
$EXTNAMES
290
     1
  9
$PSVPSCALE
 40
0.0
  9
$OLESTARTUP
290
     0
  0
ENDSEC
  0
SECTION
  2
CLASSES
  0
CLASS
  1
ACDBDICTIONARYWDFLT
  2
AcDbDictionaryWithDefault
  3
ObjectDBX Classes
 90
        0
280
     0
281
     0
  0
CLASS
  1
VISUALSTYLE
  2
AcDbVisualStyle
  3
ObjectDBX Classes
 90
     4095
280
     0
281
     0
  0
CLASS
  1
MATERIAL
  2
AcDbMaterial
  3
ObjectDBX Classes
 90
     1153
280
     0
281
     0
  0
CLASS
  1
SCALE
  2
AcDbScale
  3
ObjectDBX Classes
 90
     1153
280
     0
281
     0
  0
CLASS
  1
TABLESTYLE
  2
AcDbTableStyle
  3
ObjectDBX Classes
 90
     4095
280
     0
281
     0
  0
CLASS
  1
MLEADERSTYLE
  2
AcDbMLeaderStyle
  3
ACDB_MLEADERSTYLE_CLASS
 90
     4095
280
     0
281
     0
  0
CLASS
  1
SUN
  2
AcDbSun
  3
SCENEOE
 90
     1153
280
     0
281
     0
  0
CLASS
  1
ACDBPLACEHOLDER
  2
AcDbPlaceHolder
  3
ObjectDBX Classes
 90
        0
280
     0
281
     0
  0
CLASS
  1
LAYOUT
  2
AcDbLayout
  3
ObjectDBX Classes
 90
        0
280
     0
281
     0
  0
ENDSEC
  0
SECTION
  2
TABLES
  0
TABLE
  2
VPORT
  5
8
330
0
100
AcDbSymbolTable
 70
     1
  0
VPORT
  5
29
330
8
100
AcDbSymbolTableRecord
100
AcDbViewportTableRecord
  2
*Active
 70
     0
 10
0.0
 20
0.0
 11
1.0
 21
1.0
 12
148.5
 22
105.0
 13
0.0
 23
0.0
 14
10.0
 24
10.0
 15
10.0
 25
10.0
 16
0.0
 26
0.0
 36
1.0
 17
0.0
 27
0.0
 37
0.0
 40
210.0
 41
1.4142857143
 42
50.0
 43
0.0
 44
0.0
 50
0.0
 51
0.0
 71
     0
 72
  2000
 73
     1
 74
     3
 75
     0
 76
     0
 77
     0
 78
     0
281
     0
 65
     1
110
0.0
120
0.0
130
0.0
111
1.0
121
0.0
131
0.0
112
0.0
122
1.0
132
0.0
 79
     0
146
0.0
  0
ENDTAB
  0
TABLE
  2
LTYPE
  5
5
330
0
100
AcDbSymbolTable
 70
     8
  0
LTYPE
  5
14
330
5
100
AcDbSymbolTableRecord
100
AcDbLinetypeTableRecord
  2
ByBlock
 70
     0
  3

 72
    65
 73
     0
 40
0.0
  0
LTYPE
  5
15
330
5
100
AcDbSymbolTableRecord
100
AcDbLinetypeTableRecord
  2
ByLayer
 70
     0
  3

 72
    65
 73
     0
 40
0.0
  0
LTYPE
  5
16
330
5
100
AcDbSymbolTableRecord
100
AcDbLinetypeTableRecord
  2
Continuous
 70
     0
  3
Solid line
 72
    65
 73
     0
 40
0.0
  0
LTYPE
  5
6E
330
5
100
AcDbSymbolTableRecord
100
AcDbLinetypeTableRecord
  2
SLD-Solid
 70
     0
  3
SolidWorks Line Style
 72
    65
 73
     0
 40
0.0
  0
LTYPE
  5
6F
330
5
100
AcDbSymbolTableRecord
100
AcDbLinetypeTableRecord
  2
SLD-Dashed
 70
     0
  3
SolidWorks Line Style
 72
    65
 73
     2
 40
1.905
 49
1.27
 74
     0
 49
-0.635
 74
     0
  0
LTYPE
  5
70
330
5
100
AcDbSymbolTableRecord
100
AcDbLinetypeTableRecord
  2
SLD-Phantom
 70
     0
  3
SolidWorks Line Style
 72
    65
 73
     6
 40
12.7
 49
6.35
 74
     0
 49
-1.27
 74
     0
 49
1.27
 74
     0
 49
-1.27
 74
     0
 49
1.27
 74
     0
 49
-1.27
 74
     0
  0
LTYPE
  5
71
330
5
100
AcDbSymbolTableRecord
100
AcDbLinetypeTableRecord
  2
SLD-Chain
 70
     0
  3
SolidWorks Line Style
 72
    65
 73
     4
 40
10.16
 49
6.35
 74
     0
 49
-1.27
 74
     0
 49
1.27
 74
     0
 49
-1.27
 74
     0
  0
LTYPE
  5
72
330
5
100
AcDbSymbolTableRecord
100
AcDbLinetypeTableRecord
  2
SLD-Center
 70
     0
  3
SolidWorks Line Style
 72
    65
 73
     4
 40
19.05
 49
15.24
 74
     0
 49
-1.27
 74
     0
 49
1.27
 74
     0
 49
-1.27
 74
     0
  0
LTYPE
  5
73
330
5
100
AcDbSymbolTableRecord
100
AcDbLinetypeTableRecord
  2
SLD-Stitch
 70
     0
  3
SolidWorks Line Style
 72
    65
 73
     2
 40
0.635
 49
0.0
 74
     0
 49
-0.635
 74
     0
  0
LTYPE
  5
74
330
5
100
AcDbSymbolTableRecord
100
AcDbLinetypeTableRecord
  2
SLD-Thin-Thick-Chain
 70
     0
  3
SolidWorks Line Style
 72
    65
 73
     4
 40
10.16
 49
6.35
 74
     0
 49
-1.27
 74
     0
 49
1.27
 74
     0
 49
-1.27
 74
     0
  0
ENDTAB
  0
TABLE
  2
LAYER
  5
2
330
0
100
AcDbSymbolTable
 70
    14
  0
LAYER
  5
10
330
2
100
AcDbSymbolTableRecord
100
AcDbLayerTableRecord
  2
0
 70
     0
 62
     7
  6
Continuous
370
    -3
390
F
  0
LAYER
  5
75
330
2
100
AcDbSymbolTableRecord
100
AcDbLayerTableRecord
  2
SLD-0
 70
     0
 62
   179
  6
SLD-Solid
370
    -3
390
F
  0
LAYER
  5
76
330
2
100
AcDbSymbolTableRecord
100
AcDbLayerTableRecord
  2
80
 70
     0
 62
    -6
  6
SLD-Solid
290
     0
370
    -3
390
F
  0
LAYER
  5
77
330
2
100
AcDbSymbolTableRecord
100
AcDbLayerTableRecord
  2
81
 70
     0
 62
    -3
  6
SLD-Solid
290
     0
370
    -3
390
F
  0
LAYER
  5
78
330
2
100
AcDbSymbolTableRecord
100
AcDbLayerTableRecord
  2
1
 70
     0
 62
     4
  6
SLD-Solid
290
     0
370
    -3
390
F
  0
LAYER
  5
79
330
2
100
AcDbSymbolTableRecord
100
AcDbLayerTableRecord
  2
4
 70
     0
 62
    -2
  6
SLD-Chain
290
     0
370
    -3
390
F
  0
LAYER
  5
7A
330
2
100
AcDbSymbolTableRecord
100
AcDbLayerTableRecord
  2
2
 70
     0
 62
     7
  6
SLD-Solid
290
     0
370
    -3
390
F
  0
LAYER
  5
7B
330
2
100
AcDbSymbolTableRecord
100
AcDbLayerTableRecord
  2
SK3
 70
     0
 62
     1
  6
SLD-Dashed
290
     0
370
    -3
390
F
  0
LAYER
  5
7C
330
2
100
AcDbSymbolTableRecord
100
AcDbLayerTableRecord
  2
SK4
 70
     0
 62
     2
  6
SLD-Chain
290
     0
370
    -3
390
F
  0
LAYER
  5
7D
330
2
100
AcDbSymbolTableRecord
100
AcDbLayerTableRecord
  2
SK2
 70
     0
 62
     7
  6
SLD-Solid
290
     0
370
    -3
390
F
  0
LAYER
  5
7E
330
2
100
AcDbSymbolTableRecord
100
AcDbLayerTableRecord
  2
SK6
 70
     0
 62
     5
  6
SLD-Solid
290
     0
370
    -3
390
F
  0
LAYER
  5
7F
330
2
100
AcDbSymbolTableRecord
100
AcDbLayerTableRecord
  2
6
 70
     0
 62
     5
  6
SLD-Solid
370
    -3
390
F
  0
LAYER
  5
80
330
2
100
AcDbSymbolTableRecord
100
AcDbLayerTableRecord
  2
SK1
 70
     0
 62
     4
  6
SLD-Solid
370
    -3
390
F
  0
LAYER
  5
81
330
2
100
AcDbSymbolTableRecord
100
AcDbLayerTableRecord
  2
LAYER5
 70
     0
 62
   218
  6
SLD-Solid
370
    -3
390
F
  0
ENDTAB
  0
TABLE
  2
STYLE
  5
3
330
0
100
AcDbSymbolTable
 70
     3
  0
STYLE
  5
11
330
3
100
AcDbSymbolTableRecord
100
AcDbTextStyleTableRecord
  2
Standard
 70
     0
 40
0.0
 41
1.0
 50
0.0
 71
     0
 42
3.5
  3
txt
  4

  0
STYLE
  5
2A3
330
3
100
AcDbSymbolTableRecord
100
AcDbTextStyleTableRecord
  2
SLDTEXTSTYLE0
 70
     0
 40
0.0
 41
0.75
 50
0.0
 71
     0
 42
3.5
  3
TXT
  4

  0
STYLE
  5
359
330
3
100
AcDbSymbolTableRecord
100
AcDbTextStyleTableRecord
  2
SLDTEXTSTYLE1
 70
     0
 40
0.0
 41
0.6875
 50
0.0
 71
     0
 42
3.5
  3
TXT
  4

  0
ENDTAB
  0
TABLE
  2
VIEW
  5
6
330
0
100
AcDbSymbolTable
 70
     0
  0
ENDTAB
  0
TABLE
  2
UCS
  5
7
330
0
100
AcDbSymbolTable
 70
     0
  0
ENDTAB
  0
TABLE
  2
APPID
  5
9
330
0
100
AcDbSymbolTable
 70
     1
  0
APPID
  5
12
330
9
100
AcDbSymbolTableRecord
100
AcDbRegAppTableRecord
  2
ACAD
 70
     0
  0
ENDTAB
  0
TABLE
  2
DIMSTYLE
  5
A
330
0
100
AcDbSymbolTable
 70
     7
100
AcDbDimStyleTable
  0
DIMSTYLE
105
27
330
A
100
AcDbSymbolTableRecord
100
AcDbDimStyleTableRecord
  2
ISO-25
 70
     0
 41
2.5
 42
0.625
 43
3.75
 44
1.25
 73
     0
 74
     0
 77
     1
 78
     8
140
2.5
141
2.5
143
0.0393700787
147
0.625
171
     3
172
     1
178
     0
271
     2
272
     2
274
     3
278
    44
283
     0
284
     8
340
11
  0
DIMSTYLE
105
2A4
102
{ACAD_REACTORS
330
2A2
330
2B7
330
2D5
330
31E
330
330
330
35B
102
}
330
A
100
AcDbSymbolTableRecord
100
AcDbDimStyleTableRecord
  2
SLDDIMSTYLE0
 70
     0
 41
3.302
 44
0.0
 45
0.000000001
 73
     0
 74
     0
 77
     1
 78
    12
 79
     3
140
3.5
143
0.0393700787
147
0.875
148
0.000000001
170
     1
173
     1
178
     0
271
     2
272
     2
276
     2
284
    12
340
2A3
  0
DIMSTYLE
105
2CB
102
{ACAD_REACTORS
330
2CA
330
342
102
}
330
A
100
AcDbSymbolTableRecord
100
AcDbDimStyleTableRecord
  2
SLDDIMSTYLE1
 70
     0
 41
3.302
 44
0.0
 45
0.000000001
 73
     0
 74
     0
 77
     1
 78
    12
 79
     3
140
3.5
147
0.875
173
     1
178
     0
271
     2
272
     2
276
     2
284
    12
340
2A3
  0
DIMSTYLE
105
2E9
102
{ACAD_REACTORS
330
2E8
102
}
330
A
100
AcDbSymbolTableRecord
100
AcDbDimStyleTableRecord
  2
SLDDIMSTYLE2
 70
     0
 41
3.302
 44
0.0
 45
0.000000001
 73
     0
 74
     0
 77
     1
 78
    12
 79
     3
140
3.5
143
0.0393700787
147
0.875
148
0.000000001
170
     1
171
     3
173
     1
178
     0
271
     3
272
     2
274
     3
276
     2
284
    12
340
2A3
  0
DIMSTYLE
105
2FD
102
{ACAD_REACTORS
330
2FC
102
}
330
A
100
AcDbSymbolTableRecord
100
AcDbDimStyleTableRecord
  2
SLDDIMSTYLE3
 70
     0
 41
3.302
 44
0.0
 45
0.000000001
 73
     0
 74
     0
 77
     1
 78
    12
 79
     3
140
3.5
147
0.875
172
     1
173
     1
178
     0
271
     2
272
     2
276
     2
284
    12
289
     0
340
2A3
  0
DIMSTYLE
105
30A
102
{ACAD_REACTORS
330
309
102
}
330
A
100
AcDbSymbolTableRecord
100
AcDbDimStyleTableRecord
  2
SLDDIMSTYLE4
 70
     0
 41
3.302
 44
0.0
 45
0.000000001
 73
     0
 74
     0
 77
     1
 78
    12
 79
     3
140
3.5
143
0.0393700787
147
0.875
148
0.000000001
170
     1
171
     3
172
     1
173
     1
178
     0
271
     3
272
     2
274
     3
276
     2
284
    12
289
     0
340
2A3
  0
DIMSTYLE
105
34E
102
{ACAD_REACTORS
330
34D
102
}
330
A
100
AcDbSymbolTableRecord
100
AcDbDimStyleTableRecord
  2
SLDDIMSTYLE5
 70
     0
 41
3.302
 44
0.0
 45
0.000000001
 73
     0
 74
     0
 77
     1
 78
    12
 79
     3
140
3.5
147
0.875
172
     1
173
     1
178
     0
271
     6
272
     2
276
     2
284
    12
289
     0
340
2A3
  0
ENDTAB
  0
TABLE
  2
BLOCK_RECORD
  5
1
330
0
100
AcDbSymbolTable
 70
    13
  0
BLOCK_RECORD
  5
1F
330
1
100
AcDbSymbolTableRecord
100
AcDbBlockTableRecord
  2
*Model_Space
340
22
  0
BLOCK_RECORD
  5
1B
330
1
100
AcDbSymbolTableRecord
100
AcDbBlockTableRecord
  2
*Paper_Space
340
1E
  0
BLOCK_RECORD
  5
23
330
1
100
AcDbSymbolTableRecord
100
AcDbBlockTableRecord
  2
*Paper_Space0
340
26
  0
BLOCK_RECORD
  5
2A5
330
1
100
AcDbSymbolTableRecord
100
AcDbBlockTableRecord
  2
_D
340
0
  0
BLOCK_RECORD
  5
2B8
330
1
100
AcDbSymbolTableRecord
100
AcDbBlockTableRecord
  2
_D_1
340
0
  0
BLOCK_RECORD
  5
2CC
330
1
100
AcDbSymbolTableRecord
100
AcDbBlockTableRecord
  2
_D_2
340
0
  0
BLOCK_RECORD
  5
2D6
330
1
100
AcDbSymbolTableRecord
100
AcDbBlockTableRecord
  2
_D_3
340
0
  0
BLOCK_RECORD
  5
2EA
330
1
100
AcDbSymbolTableRecord
100
AcDbBlockTableRecord
  2
_D_4
340
0
  0
BLOCK_RECORD
  5
2FE
330
1
100
AcDbSymbolTableRecord
100
AcDbBlockTableRecord
  2
_D_5
340
0
  0
BLOCK_RECORD
  5
30B
330
1
100
AcDbSymbolTableRecord
100
AcDbBlockTableRecord
  2
_D_6
340
0
  0
BLOCK_RECORD
  5
31F
330
1
100
AcDbSymbolTableRecord
100
AcDbBlockTableRecord
  2
_D_7
340
0
  0
BLOCK_RECORD
  5
331
330
1
100
AcDbSymbolTableRecord
100
AcDbBlockTableRecord
  2
_D_8
340
0
  0
BLOCK_RECORD
  5
343
330
1
100
AcDbSymbolTableRecord
100
AcDbBlockTableRecord
  2
_D_9
340
0
  0
BLOCK_RECORD
  5
34F
330
1
100
AcDbSymbolTableRecord
100
AcDbBlockTableRecord
  2
_D_10
340
0
  0
BLOCK_RECORD
  5
35C
330
1
100
AcDbSymbolTableRecord
100
AcDbBlockTableRecord
  2
_D_11
340
0
  0
ENDTAB
  0
ENDSEC
  0
SECTION
  2
BLOCKS
  0
BLOCK
  5
20
330
1F
100
AcDbEntity
  8
0
100
AcDbBlockBegin
  2
*Model_Space
 70
     0
 10
0.0
 20
0.0
 30
0.0
  3
*Model_Space
  1

  0
ENDBLK
  5
21
330
1F
100
AcDbEntity
  8
0
100
AcDbBlockEnd
  0
BLOCK
  5
1C
330
1B
100
AcDbEntity
 67
     1
  8
0
100
AcDbBlockBegin
  2
*Paper_Space
 70
     0
 10
0.0
 20
0.0
 30
0.0
  3
*Paper_Space
  1

  0
ENDBLK
  5
1D
330
1B
100
AcDbEntity
 67
     1
  8
0
100
AcDbBlockEnd
  0
BLOCK
  5
24
330
23
100
AcDbEntity
  8
0
100
AcDbBlockBegin
  2
*Paper_Space0
 70
     0
 10
0.0
 20
0.0
 30
0.0
  3
*Paper_Space0
  1

  0
ENDBLK
  5
25
330
23
100
AcDbEntity
  8
0
100
AcDbBlockEnd
  0
BLOCK
  5
2A6
330
2A5
100
AcDbEntity
  8
0
100
AcDbBlockBegin
  2
_D
 70
     0
 10
0.0
 20
0.0
 30
0.0
  3
_D
  1

  0
SOLID
  5
2A8
330
2A5
100
AcDbEntity
  8
2
100
AcDbTrace
 10
0.0
 20
50.9333494754
 30
0.0
 11
3.302
 21
50.4253494754
 31
0.0
 12
3.302
 22
51.4413494754
 32
0.0
 13
3.302
 23
51.4413494754
 33
0.0
  0
SOLID
  5
2A9
330
2A5
100
AcDbEntity
  8
2
100
AcDbTrace
 10
44.45
 20
50.9333494754
 30
0.0
 11
41.148
 21
51.4413494754
 31
0.0
 12
41.148
 22
50.4253494754
 32
0.0
 13
41.148
 23
50.4253494754
 33
0.0
  0
LINE
  5
2AA
330
2A5
100
AcDbEntity
  8
2
100
AcDbLine
 10
15.9248889981
 20
61.7262311915
 30
0.0
 11
14.8584827407
 21
61.7262311915
 31
0.0
  0
LINE
  5
2AB
330
2A5
100
AcDbEntity
  8
2
100
AcDbLine
 10
14.8584827407
 20
61.7262311915
 30
0.0
 11
14.8584827407
 21
56.1699812004
 31
0.0
  0
LINE
  5
2AC
330
2A5
100
AcDbEntity
  8
2
100
AcDbLine
 10
14.8584827407
 20
56.1699812004
 30
0.0
 11
15.9248889981
 21
56.1699812004
 31
0.0
  0
LINE
  5
2AD
330
2A5
100
AcDbEntity
  8
2
100
AcDbLine
 10
24.9762780591
 20
61.7262311915
 30
0.0
 11
26.0426843165
 21
61.7262311915
 31
0.0
  0
LINE
  5
2AE
330
2A5
100
AcDbEntity
  8
2
100
AcDbLine
 10
26.0426843165
 20
61.7262311915
 30
0.0
 11
26.0426843165
 21
56.1699812004
 31
0.0
  0
LINE
  5
2AF
330
2A5
100
AcDbEntity
  8
2
100
AcDbLine
 10
26.0426843165
 20
56.1699812004
 30
0.0
 11
24.9762780591
 21
56.1699812004
 31
0.0
  0
LINE
  5
2B0
330
2A5
100
AcDbEntity
  8
2
100
AcDbLine
 10
0.0
 20
23.225
 30
0.0
 11
0.0
 21
51.9333494754
 31
0.0
  0
LINE
  5
2B1
330
2A5
100
AcDbEntity
  8
2
100
AcDbLine
 10
44.45
 20
13.827
 30
0.0
 11
44.45
 21
51.9333494754
 31
0.0
  0
LINE
  5
2B2
330
2A5
100
AcDbEntity
  8
2
100
AcDbLine
 10
0.0
 20
50.9333494754
 30
0.0
 11
44.45
 21
50.9333494754
 31
0.0
  0
MTEXT
  5
2B3
330
2A5
100
AcDbEntity
  8
2
100
AcDbMText
 10
13.8115208865
 20
55.4985587413
 30
0.0
 40
3.5
 41
0.0
 71
     1
 72
     1
  1

  7
SLDTEXTSTYLE0
 73
     1
 44
1.0
  0
MTEXT
  5
2B4
330
2A5
100
AcDbEntity
  8
2
100
AcDbMText
 10
15.9248889981
 20
60.681718115
 30
0.0
 40
3.5
 41
0.0
 71
     1
 72
     1
  1
1,75
  7
SLDTEXTSTYLE0
 73
     1
 44
1.0
  0
MTEXT
  5
2B5
330
2A5
100
AcDbEntity
  8
2
100
AcDbMText
 10
14.631833285
 20
55.4450865647
 30
0.0
 40
3.5
 41
0.0
 71
     1
 72
     1
  1
44,45
  7
SLDTEXTSTYLE0
 73
     1
 44
1.0
  0
MTEXT
  5
2B6
330
2A5
100
AcDbEntity
  8
2
100
AcDbMText
 10
28.4215906904
 20
55.4985587413
 30
0.0
 40
3.5
 41
0.0
 71
     1
 72
     1
  1

  7
SLDTEXTSTYLE0
 73
     1
 44
1.0
  0
ENDBLK
  5
2A7
330
2A5
100
AcDbEntity
  8
0
100
AcDbBlockEnd
  0
BLOCK
  5
2B9
330
2B8
100
AcDbEntity
  8
0
100
AcDbBlockBegin
  2
_D_1
 70
     0
 10
0.0
 20
0.0
 30
0.0
  3
_D_1
  1

  0
SOLID
  5
2BB
330
2B8
100
AcDbEntity
  8
SK2
100
AcDbTrace
 10
19.05
 20
37.5275792013
 30
0.0
 11
22.352
 21
37.0195792013
 31
0.0
 12
22.352
 22
38.0355792013
 32
0.0
 13
22.352
 23
38.0355792013
 33
0.0
  0
SOLID
  5
2BC
330
2B8
100
AcDbEntity
  8
SK2
100
AcDbTrace
 10
44.45
 20
37.5275792013
 30
0.0
 11
41.148
 21
38.0355792013
 31
0.0
 12
41.148
 22
37.0195792013
 32
0.0
 13
41.148
 23
37.0195792013
 33
0.0
  0
LINE
  5
2BD
330
2B8
100
AcDbEntity
  8
SK2
100
AcDbLine
 10
27.6524525572
 20
48.3204609173
 30
0.0
 11
26.5860462997
 21
48.3204609173
 31
0.0
  0
LINE
  5
2BE
330
2B8
100
AcDbEntity
  8
SK2
100
AcDbLine
 10
26.5860462997
 20
48.3204609173
 30
0.0
 11
26.5860462997
 21
42.7642109263
 31
0.0
  0
LINE
  5
2BF
330
2B8
100
AcDbEntity
  8
SK2
100
AcDbLine
 10
26.5860462997
 20
42.7642109263
 30
0.0
 11
27.6524525572
 21
42.7642109263
 31
0.0
  0
LINE
  5
2C0
330
2B8
100
AcDbEntity
  8
SK2
100
AcDbLine
 10
36.7038416181
 20
48.3204609173
 30
0.0
 11
37.7702478755
 21
48.3204609173
 31
0.0
  0
LINE
  5
2C1
330
2B8
100
AcDbEntity
  8
SK2
100
AcDbLine
 10
37.7702478755
 20
48.3204609173
 30
0.0
 11
37.7702478755
 21
42.7642109263
 31
0.0
  0
LINE
  5
2C2
330
2B8
100
AcDbEntity
  8
SK2
100
AcDbLine
 10
37.7702478755
 20
42.7642109263
 30
0.0
 11
36.7038416181
 21
42.7642109263
 31
0.0
  0
LINE
  5
2C3
330
2B8
100
AcDbEntity
  8
SK2
100
AcDbLine
 10
19.05
 20
30.8048664484
 30
0.0
 11
19.05
 21
38.5275792013
 31
0.0
  0
LINE
  5
2C4
330
2B8
100
AcDbEntity
  8
SK2
100
AcDbLine
 10
44.45
 20
13.827
 30
0.0
 11
44.45
 21
38.5275792013
 31
0.0
  0
LINE
  5
2C5
330
2B8
100
AcDbEntity
  8
SK2
100
AcDbLine
 10
19.05
 20
37.5275792013
 30
0.0
 11
44.45
 21
37.5275792013
 31
0.0
  0
MTEXT
  5
2C6
330
2B8
100
AcDbEntity
  8
SK2
100
AcDbMText
 10
25.5390844455
 20
42.0927884671
 30
0.0
 40
3.5
 41
0.0
 71
     1
 72
     1
  1

  7
SLDTEXTSTYLE0
 73
     1
 44
1.0
  0
MTEXT
  5
2C7
330
2B8
100
AcDbEntity
  8
SK2
100
AcDbMText
 10
27.6524525572
 20
47.2759478408
 30
0.0
 40
3.5
 41
0.0
 71
     1
 72
     1
  1
1,00
  7
SLDTEXTSTYLE0
 73
     1
 44
1.0
  0
MTEXT
  5
2C8
330
2B8
100
AcDbEntity
  8
SK2
100
AcDbMText
 10
27.6524525572
 20
42.0393162905
 30
0.0
 40
3.5
 41
0.0
 71
     1
 72
     1
  1
25,4
  7
SLDTEXTSTYLE0
 73
     1
 44
1.0
  0
MTEXT
  5
2C9
330
2B8
100
AcDbEntity
  8
SK2
100
AcDbMText
 10
40.1491542494
 20
42.0927884671
 30
0.0
 40
3.5
 41
0.0
 71
     1
 72
     1
  1

  7
SLDTEXTSTYLE0
 73
     1
 44
1.0
  0
ENDBLK
  5
2BA
330
2B8
100
AcDbEntity
  8
0
100
AcDbBlockEnd
  0
BLOCK
  5
2CD
330
2CC
100
AcDbEntity
  8
0
100
AcDbBlockBegin
  2
_D_2
 70
     0
 10
0.0
 20
0.0
 30
0.0
  3
_D_2
  1

  0
SOLID
  5
2CF
330
2CC
100
AcDbEntity
  8
SK2
100
AcDbTrace
 10
19.05
 20
37.5275792013
 30
0.0
 11
15.748
 21
38.0355792013
 31
0.0
 12
15.748
 22
37.0195792013
 32
0.0
 13
15.748
 23
37.0195792013
 33
0.0
  0
SOLID
  5
2D0
330
2CC
100
AcDbEntity
  8
SK2
100
AcDbTrace
 10
0.0
 20
37.5275792013
 30
0.0
 11
3.302
 21
37.0195792013
 31
0.0
 12
3.302
 22
38.0355792013
 32
0.0
 13
3.302
 23
38.0355792013
 33
0.0
  0
LINE
  5
2D1
330
2CC
100
AcDbEntity
  8
SK2
100
AcDbLine
 10
19.05
 20
30.8048664484
 30
0.0
 11
19.05
 21
38.5275792013
 31
0.0
  0
LINE
  5
2D2
330
2CC
100
AcDbEntity
  8
SK2
100
AcDbLine
 10
0.0
 20
23.225
 30
0.0
 11
0.0
 21
38.5275792013
 31
0.0
  0
LINE
  5
2D3
330
2CC
100
AcDbEntity
  8
SK2
100
AcDbLine
 10
19.05
 20
37.5275792013
 30
0.0
 11
0.0
 21
37.5275792013
 31
0.0
  0
MTEXT
  5
2D4
330
2CC
100
AcDbEntity
  8
SK2
100
AcDbMText
 10
4.7890710931
 20
42.0393161159
 30
0.0
 40
3.5
 41
0.0
 71
     1
 72
     1
  1
19,05
  7
SLDTEXTSTYLE0
 73
     1
 44
1.0
  0
ENDBLK
  5
2CE
330
2CC
100
AcDbEntity
  8
0
100
AcDbBlockEnd
  0
BLOCK
  5
2D7
330
2D6
100
AcDbEntity
  8
0
100
AcDbBlockBegin
  2
_D_3
 70
     0
 10
0.0
 20
0.0
 30
0.0
  3
_D_3
  1

  0
SOLID
  5
2D9
330
2D6
100
AcDbEntity
  8
SK2
100
AcDbTrace
 10
-3.3001406745
 20
-61.9900421188
 30
0.0
 11
0.0018593255
 21
-62.4980421188
 31
0.0
 12
0.0018593255
 22
-61.4820421188
 32
0.0
 13
0.0018593255
 23
-61.4820421188
 33
0.0
  0
SOLID
  5
2DA
330
2D6
100
AcDbEntity
  8
SK2
100
AcDbTrace
 10
44.45
 20
-61.9900421188
 30
0.0
 11
41.148
 21
-61.4820421188
 31
0.0
 12
41.148
 22
-62.4980421188
 32
0.0
 13
41.148
 23
-62.4980421188
 33
0.0
  0
LINE
  5
2DB
330
2D6
100
AcDbEntity
  8
SK2
100
AcDbLine
 10
15.9248889981
 20
-51.1971604028
 30
0.0
 11
14.8584827407
 21
-51.1971604028
 31
0.0
  0
LINE
  5
2DC
330
2D6
100
AcDbEntity
  8
SK2
100
AcDbLine
 10
14.8584827407
 20
-51.1971604028
 30
0.0
 11
14.8584827407
 21
-56.7534103939
 31
0.0
  0
LINE
  5
2DD
330
2D6
100
AcDbEntity
  8
SK2
100
AcDbLine
 10
14.8584827407
 20
-56.7534103939
 30
0.0
 11
15.9248889981
 21
-56.7534103939
 31
0.0
  0
LINE
  5
2DE
330
2D6
100
AcDbEntity
  8
SK2
100
AcDbLine
 10
24.9762780591
 20
-51.1971604028
 30
0.0
 11
26.0426843165
 21
-51.1971604028
 31
0.0
  0
LINE
  5
2DF
330
2D6
100
AcDbEntity
  8
SK2
100
AcDbLine
 10
26.0426843165
 20
-51.1971604028
 30
0.0
 11
26.0426843165
 21
-56.7534103939
 31
0.0
  0
LINE
  5
2E0
330
2D6
100
AcDbEntity
  8
SK2
100
AcDbLine
 10
26.0426843165
 20
-56.7534103939
 30
0.0
 11
24.9762780591
 21
-56.7534103939
 31
0.0
  0
LINE
  5
2E1
330
2D6
100
AcDbEntity
  8
SK2
100
AcDbLine
 10
-3.3001406745
 20
-8.9375
 30
0.0
 11
-3.3001406745
 21
-62.9900421188
 31
0.0
  0
LINE
  5
2E2
330
2D6
100
AcDbEntity
  8
SK2
100
AcDbLine
 10
44.45
 20
-13.827
 30
0.0
 11
44.45
 21
-62.9900421188
 31
0.0
  0
LINE
  5
2E3
330
2D6
100
AcDbEntity
  8
SK2
100
AcDbLine
 10
-3.3001406745
 20
-61.9900421188
 30
0.0
 11
44.45
 21
-61.9900421188
 31
0.0
  0
MTEXT
  5
2E4
330
2D6
100
AcDbEntity
  8
SK2
100
AcDbMText
 10
13.8115208865
 20
-57.424832853
 30
0.0
 40
3.5
 41
0.0
 71
     1
 72
     1
  1

  7
SLDTEXTSTYLE0
 73
     1
 44
1.0
  0
MTEXT
  5
2E5
330
2D6
100
AcDbEntity
  8
SK2
100
AcDbMText
 10
15.9248889981
 20
-52.2416734793
 30
0.0
 40
3.5
 41
0.0
 71
     1
 72
     1
  1
1,88
  7
SLDTEXTSTYLE0
 73
     1
 44
1.0
  0
MTEXT
  5
2E6
330
2D6
100
AcDbEntity
  8
SK2
100
AcDbMText
 10
14.631833285
 20
-57.4783050296
 30
0.0
 40
3.5
 41
0.0
 71
     1
 72
     1
  1
47,75
  7
SLDTEXTSTYLE0
 73
     1
 44
1.0
  0
MTEXT
  5
2E7
330
2D6
100
AcDbEntity
  8
SK2
100
AcDbMText
 10
28.4215906904
 20
-57.424832853
 30
0.0
 40
3.5
 41
0.0
 71
     1
 72
     1
  1

  7
SLDTEXTSTYLE0
 73
     1
 44
1.0
  0
ENDBLK
  5
2D8
330
2D6
100
AcDbEntity
  8
0
100
AcDbBlockEnd
  0
BLOCK
  5
2EB
330
2EA
100
AcDbEntity
  8
0
100
AcDbBlockBegin
  2
_D_4
 70
     0
 10
0.0
 20
0.0
 30
0.0
  3
_D_4
  1

  0
SOLID
  5
2ED
330
2EA
100
AcDbEntity
  8
SK2
100
AcDbTrace
 10
-68.25
 20
-72.2787719597
 30
0.0
 11
-64.948
 21
-72.7867719597
 31
0.0
 12
-64.948
 22
-71.7707719597
 32
0.0
 13
-64.948
 23
-71.7707719597
 33
0.0
  0
SOLID
  5
2EE
330
2EA
100
AcDbEntity
  8
SK2
100
AcDbTrace
 10
44.45
 20
-72.2787719597
 30
0.0
 11
41.148
 21
-71.7707719597
 31
0.0
 12
41.148
 22
-72.7867719597
 32
0.0
 13
41.148
 23
-72.7867719597
 33
0.0
  0
LINE
  5
2EF
330
2EA
100
AcDbEntity
  8
SK2
100
AcDbLine
 10
-25.5206069154
 20
-61.4858902436
 30
0.0
 11
-26.5870131729
 21
-61.4858902436
 31
0.0
  0
LINE
  5
2F0
330
2EA
100
AcDbEntity
  8
SK2
100
AcDbLine
 10
-26.5870131729
 20
-61.4858902436
 30
0.0
 11
-26.5870131729
 21
-67.0421402347
 31
0.0
  0
LINE
  5
2F1
330
2EA
100
AcDbEntity
  8
SK2
100
AcDbLine
 10
-26.5870131729
 20
-67.0421402347
 30
0.0
 11
-25.5206069154
 21
-67.0421402347
 31
0.0
  0
LINE
  5
2F2
330
2EA
100
AcDbEntity
  8
SK2
100
AcDbLine
 10
-13.8831064281
 20
-61.4858902436
 30
0.0
 11
-12.8167001707
 21
-61.4858902436
 31
0.0
  0
LINE
  5
2F3
330
2EA
100
AcDbEntity
  8
SK2
100
AcDbLine
 10
-12.8167001707
 20
-61.4858902436
 30
0.0
 11
-12.8167001707
 21
-67.0421402347
 31
0.0
  0
LINE
  5
2F4
330
2EA
100
AcDbEntity
  8
SK2
100
AcDbLine
 10
-12.8167001707
 20
-67.0421402347
 30
0.0
 11
-13.8831064281
 21
-67.0421402347
 31
0.0
  0
LINE
  5
2F5
330
2EA
100
AcDbEntity
  8
SK2
100
AcDbLine
 10
-68.25
 20
-12.1476148288
 30
0.0
 11
-68.25
 21
-73.2787719597
 31
0.0
  0
LINE
  5
2F6
330
2EA
100
AcDbEntity
  8
SK2
100
AcDbLine
 10
44.45
 20
-13.827
 30
0.0
 11
44.45
 21
-73.2787719597
 31
0.0
  0
LINE
  5
2F7
330
2EA
100
AcDbEntity
  8
SK2
100
AcDbLine
 10
-68.25
 20
-72.2787719597
 30
0.0
 11
44.45
 21
-72.2787719597
 31
0.0
  0
MTEXT
  5
2F8
330
2EA
100
AcDbEntity
  8
SK2
100
AcDbMText
 10
-27.6339750271
 20
-67.7135626938
 30
0.0
 40
3.5
 41
0.0
 71
     1
 72
     1
  1

  7
SLDTEXTSTYLE0
 73
     1
 44
1.0
  0
MTEXT
  5
2F9
330
2EA
100
AcDbEntity
  8
SK2
100
AcDbMText
 10
-25.5206069154
 20
-62.5304033201
 30
0.0
 40
3.5
 41
0.0
 71
     1
 72
     1
  1
4,437
  7
SLDTEXTSTYLE0
 73
     1
 44
1.0
  0
MTEXT
  5
2FA
330
2EA
100
AcDbEntity
  8
SK2
100
AcDbMText
 10
-25.5206073811
 20
-67.7670348704
 30
0.0
 40
3.5
 41
0.0
 71
     1
 72
     1
  1
112,7
  7
SLDTEXTSTYLE0
 73
     1
 44
1.0
  0
MTEXT
  5
2FB
330
2EA
100
AcDbEntity
  8
SK2
100
AcDbMText
 10
-10.4377947281
 20
-67.7135626938
 30
0.0
 40
3.5
 41
0.0
 71
     1
 72
     1
  1

  7
SLDTEXTSTYLE0
 73
     1
 44
1.0
  0
ENDBLK
  5
2EC
330
2EA
100
AcDbEntity
  8
0
100
AcDbBlockEnd
  0
BLOCK
  5
2FF
330
2FE
100
AcDbEntity
  8
0
100
AcDbBlockBegin
  2
_D_5
 70
     0
 10
0.0
 20
0.0
 30
0.0
  3
_D_5
  1

  0
SOLID
  5
301
330
2FE
100
AcDbEntity
  8
SK2
100
AcDbTrace
 10
35.052
 20
-32.062800878
 30
0.0
 11
31.75
 21
-31.554800878
 31
0.0
 12
31.75
 22
-32.570800878
 32
0.0
 13
31.75
 23
-32.570800878
 33
0.0
  0
SOLID
  5
302
330
2FE
100
AcDbEntity
  8
SK2
100
AcDbTrace
 10
44.45
 20
-32.062800878
 30
0.0
 11
47.752
 21
-32.570800878
 31
0.0
 12
47.752
 22
-31.554800878
 32
0.0
 13
47.752
 23
-31.554800878
 33
0.0
  0
LINE
  5
303
330
2FE
100
AcDbEntity
  8
SK2
100
AcDbLine
 10
35.052
 20
-23.225
 30
0.0
 11
35.052
 21
-33.062800878
 31
0.0
  0
LINE
  5
304
330
2FE
100
AcDbEntity
  8
SK2
100
AcDbLine
 10
44.45
 20
-13.827
 30
0.0
 11
44.45
 21
-33.062800878
 31
0.0
  0
LINE
  5
305
330
2FE
100
AcDbEntity
  8
SK2
100
AcDbLine
 10
35.052
 20
-32.062800878
 30
0.0
 11
28.702
 21
-32.062800878
 31
0.0
  0
LINE
  5
306
330
2FE
100
AcDbEntity
  8
SK2
100
AcDbLine
 10
35.052
 20
-32.062800878
 30
0.0
 11
44.45
 21
-32.062800878
 31
0.0
  0
LINE
  5
307
330
2FE
100
AcDbEntity
  8
SK2
100
AcDbLine
 10
44.45
 20
-32.062800878
 30
0.0
 11
50.8
 21
-32.062800878
 31
0.0
  0
MTEXT
  5
308
330
2FE
100
AcDbEntity
  8
SK2
100
AcDbMText
 10
37.09265699
 20
-27.5510639634
 30
0.0
 40
3.5
 41
0.0
 71
     1
 72
     1
  1
9,4
  7
SLDTEXTSTYLE0
 73
     1
 44
1.0
  0
ENDBLK
  5
300
330
2FE
100
AcDbEntity
  8
0
100
AcDbBlockEnd
  0
BLOCK
  5
30C
330
30B
100
AcDbEntity
  8
0
100
AcDbBlockBegin
  2
_D_6
 70
     0
 10
0.0
 20
0.0
 30
0.0
  3
_D_6
  1

  0
SOLID
  5
30E
330
30B
100
AcDbEntity
  8
SK2
100
AcDbTrace
 10
61.2975678505
 20
-7.9375
 30
0.0
 11
60.7895678505
 21
-11.2395
 31
0.0
 12
61.8055678505
 22
-11.2395
 32
0.0
 13
61.8055678505
 23
-11.2395
 33
0.0
  0
SOLID
  5
30F
330
30B
100
AcDbEntity
  8
SK2
100
AcDbTrace
 10
61.2975678505
 20
7.9375
 30
0.0
 11
61.8055678505
 21
11.2395
 31
0.0
 12
60.7895678505
 22
11.2395
 32
0.0
 13
60.7895678505
 23
11.2395
 33
0.0
  0
LINE
  5
310
330
30B
100
AcDbEntity
  8
SK2
100
AcDbLine
 10
50.5046861345
 20
27.3242430073
 30
0.0
 11
50.5046861345
 21
26.2578367498
 31
0.0
  0
LINE
  5
311
330
30B
100
AcDbEntity
  8
SK2
100
AcDbLine
 10
50.5046861345
 20
26.2578367498
 30
0.0
 11
56.0609361255
 21
26.2578367498
 31
0.0
  0
LINE
  5
312
330
30B
100
AcDbEntity
  8
SK2
100
AcDbLine
 10
56.0609361255
 20
26.2578367498
 30
0.0
 11
56.0609361255
 21
27.3242430073
 31
0.0
  0
LINE
  5
313
330
30B
100
AcDbEntity
  8
SK2
100
AcDbLine
 10
50.5046861345
 20
38.9617434945
 30
0.0
 11
50.5046861345
 21
40.028149752
 31
0.0
  0
LINE
  5
314
330
30B
100
AcDbEntity
  8
SK2
100
AcDbLine
 10
50.5046861345
 20
40.028149752
 30
0.0
 11
56.0609361255
 21
40.028149752
 31
0.0
  0
LINE
  5
315
330
30B
100
AcDbEntity
  8
SK2
100
AcDbLine
 10
56.0609361255
 20
40.028149752
 30
0.0
 11
56.0609361255
 21
38.9617434945
 31
0.0
  0
LINE
  5
316
330
30B
100
AcDbEntity
  8
SK2
100
AcDbLine
 10
44.45
 20
-7.9375
 30
0.0
 11
62.2975678505
 21
-7.9375
 31
0.0
  0
LINE
  5
317
330
30B
100
AcDbEntity
  8
SK2
100
AcDbLine
 10
44.45
 20
7.9375
 30
0.0
 11
62.2975678505
 21
7.9375
 31
0.0
  0
LINE
  5
318
330
30B
100
AcDbEntity
  8
SK2
100
AcDbLine
 10
61.2975678505
 20
-7.9375
 30
0.0
 11
61.2975678505
 21
-14.2875
 31
0.0
  0
LINE
  5
319
330
30B
100
AcDbEntity
  8
SK2
100
AcDbLine
 10
61.2975678505
 20
-7.9375
 30
0.0
 11
61.2975678505
 21
7.9375
 31
0.0
  0
LINE
  5
31A
330
30B
100
AcDbEntity
  8
SK2
100
AcDbLine
 10
61.2975678505
 20
7.9375
 30
0.0
 11
61.2975678505
 21
42.8940174412
 31
0.0
  0
MTEXT
  5
31B
330
30B
100
AcDbEntity
  8
SK2
100
AcDbMText
 10
51.5491992109
 20
27.3242430073
 30
0.0
 40
3.5
 41
0.0
 71
     1
 72
     1
  1
0,625
  7
SLDTEXTSTYLE0
 11
1.393499969507555E-15
 21
1.0
 31
0.0
 73
     1
 44
1.0
  0
MTEXT
  5
31C
330
30B
100
AcDbEntity
  8
SK2
100
AcDbMText
 10
56.7858307613
 20
23.3919681293
 30
0.0
 40
3.5
 41
0.0
 71
     1
 72
     1
  1
%%c
  7
SLDTEXTSTYLE0
 11
1.393499969507555E-15
 21
1.0
 31
0.0
 73
     1
 44
1.0
  0
MTEXT
  5
31D
330
30B
100
AcDbEntity
  8
SK2
100
AcDbMText
 10
56.7858307613
 20
28.6704055276
 30
0.0
 40
3.5
 41
0.0
 71
     1
 72
     1
  1
15,875
  7
SLDTEXTSTYLE0
 11
1.393499969507555E-15
 21
1.0
 31
0.0
 73
     1
 44
1.0
  0
ENDBLK
  5
30D
330
30B
100
AcDbEntity
  8
0
100
AcDbBlockEnd
  0
BLOCK
  5
320
330
31F
100
AcDbEntity
  8
0
100
AcDbBlockBegin
  2
_D_7
 70
     0
 10
0.0
 20
0.0
 30
0.0
  3
_D_7
  1

  0
SOLID
  5
322
330
31F
100
AcDbEntity
  8
SK2
100
AcDbTrace
 10
75.8933760429
 20
12.827
 30
0.0
 11
75.3853760429
 21
9.525
 31
0.0
 12
76.4013760429
 22
9.525
 32
0.0
 13
76.4013760429
 23
9.525
 33
0.0
  0
SOLID
  5
323
330
31F
100
AcDbEntity
  8
SK2
100
AcDbTrace
 10
75.8933760429
 20
-12.827
 30
0.0
 11
76.4013760429
 21
-9.525
 31
0.0
 12
75.3853760429
 22
-9.525
 32
0.0
 13
75.3853760429
 23
-9.525
 33
0.0
  0
LINE
  5
324
330
31F
100
AcDbEntity
  8
SK2
100
AcDbLine
 10
65.1004943269
 20
-4.7502118291
 30
0.0
 11
65.1004943269
 21
-5.8166180866
 31
0.0
  0
LINE
  5
325
330
31F
100
AcDbEntity
  8
SK2
100
AcDbLine
 10
65.1004943269
 20
-5.8166180866
 30
0.0
 11
70.6567443179
 21
-5.8166180866
 31
0.0
  0
LINE
  5
326
330
31F
100
AcDbEntity
  8
SK2
100
AcDbLine
 10
70.6567443179
 20
-5.8166180866
 30
0.0
 11
70.6567443179
 21
-4.7502118291
 31
0.0
  0
LINE
  5
327
330
31F
100
AcDbEntity
  8
SK2
100
AcDbLine
 10
65.1004943269
 20
4.3011772318
 30
0.0
 11
65.1004943269
 21
5.3675834892
 31
0.0
  0
LINE
  5
328
330
31F
100
AcDbEntity
  8
SK2
100
AcDbLine
 10
65.1004943269
 20
5.3675834892
 30
0.0
 11
70.6567443179
 21
5.3675834892
 31
0.0
  0
LINE
  5
329
330
31F
100
AcDbEntity
  8
SK2
100
AcDbLine
 10
70.6567443179
 20
5.3675834892
 30
0.0
 11
70.6567443179
 21
4.3011772318
 31
0.0
  0
LINE
  5
32A
330
31F
100
AcDbEntity
  8
SK2
100
AcDbLine
 10
45.45
 20
12.827
 30
0.0
 11
76.8933760429
 21
12.827
 31
0.0
  0
LINE
  5
32B
330
31F
100
AcDbEntity
  8
SK2
100
AcDbLine
 10
45.45
 20
-12.827
 30
0.0
 11
76.8933760429
 21
-12.827
 31
0.0
  0
LINE
  5
32C
330
31F
100
AcDbEntity
  8
SK2
100
AcDbLine
 10
75.8933760429
 20
12.827
 30
0.0
 11
75.8933760429
 21
-12.827
 31
0.0
  0
MTEXT
  5
32D
330
31F
100
AcDbEntity
  8
SK2
100
AcDbMText
 10
66.1450074034
 20
-4.7502118291
 30
0.0
 40
3.5
 41
0.0
 71
     1
 72
     1
  1
1,01
  7
SLDTEXTSTYLE0
 11
-7.044195017643634E-15
 21
1.0
 31
0.0
 73
     1
 44
1.0
  0
MTEXT
  5
32E
330
31F
100
AcDbEntity
  8
SK2
100
AcDbMText
 10
71.3816389537
 20
-8.6824862415
 30
0.0
 40
3.5
 41
0.0
 71
     1
 72
     1
  1
%%c
  7
SLDTEXTSTYLE0
 11
-7.044195017643634E-15
 21
1.0
 31
0.0
 73
     1
 44
1.0
  0
MTEXT
  5
32F
330
31F
100
AcDbEntity
  8
SK2
100
AcDbMText
 10
71.3816389537
 20
-3.4040488431
 30
0.0
 40
3.5
 41
0.0
 71
     1
 72
     1
  1
25,65
  7
SLDTEXTSTYLE0
 11
-7.044195017643634E-15
 21
1.0
 31
0.0
 73
     1
 44
1.0
  0
ENDBLK
  5
321
330
31F
100
AcDbEntity
  8
0
100
AcDbBlockEnd
  0
BLOCK
  5
332
330
331
100
AcDbEntity
  8
0
100
AcDbBlockBegin
  2
_D_8
 70
     0
 10
0.0
 20
0.0
 30
0.0
  3
_D_8
  1

  0
SOLID
  5
334
330
331
100
AcDbEntity
  8
SK2
100
AcDbTrace
 10
91.101152287
 20
22.1002541767
 30
0.0
 11
90.593152287
 21
18.7982541767
 31
0.0
 12
91.609152287
 22
18.7982541767
 32
0.0
 13
91.609152287
 23
18.7982541767
 33
0.0
  0
SOLID
  5
335
330
331
100
AcDbEntity
  8
SK2
100
AcDbTrace
 10
91.101152287
 20
-22.225
 30
0.0
 11
91.609152287
 21
-18.923
 31
0.0
 12
90.593152287
 22
-18.923
 32
0.0
 13
90.593152287
 23
-18.923
 33
0.0
  0
LINE
  5
336
330
331
100
AcDbEntity
  8
SK2
100
AcDbLine
 10
80.308270571
 20
-4.7502118291
 30
0.0
 11
80.308270571
 21
-5.8166180866
 31
0.0
  0
LINE
  5
337
330
331
100
AcDbEntity
  8
SK2
100
AcDbLine
 10
80.308270571
 20
-5.8166180866
 30
0.0
 11
85.864520562
 21
-5.8166180866
 31
0.0
  0
LINE
  5
338
330
331
100
AcDbEntity
  8
SK2
100
AcDbLine
 10
85.864520562
 20
-5.8166180866
 30
0.0
 11
85.864520562
 21
-4.7502118291
 31
0.0
  0
LINE
  5
339
330
331
100
AcDbEntity
  8
SK2
100
AcDbLine
 10
80.308270571
 20
4.3011772318
 30
0.0
 11
80.308270571
 21
5.3675834892
 31
0.0
  0
LINE
  5
33A
330
331
100
AcDbEntity
  8
SK2
100
AcDbLine
 10
80.308270571
 20
5.3675834892
 30
0.0
 11
85.864520562
 21
5.3675834892
 31
0.0
  0
LINE
  5
33B
330
331
100
AcDbEntity
  8
SK2
100
AcDbLine
 10
85.864520562
 20
5.3675834892
 30
0.0
 11
85.864520562
 21
4.3011772318
 31
0.0
  0
LINE
  5
33C
330
331
100
AcDbEntity
  8
SK2
100
AcDbLine
 10
36.052
 20
22.1002541767
 30
0.0
 11
92.101152287
 21
22.1002541767
 31
0.0
  0
LINE
  5
33D
330
331
100
AcDbEntity
  8
SK2
100
AcDbLine
 10
36.052
 20
-22.225
 30
0.0
 11
92.101152287
 21
-22.225
 31
0.0
  0
LINE
  5
33E
330
331
100
AcDbEntity
  8
SK2
100
AcDbLine
 10
91.101152287
 20
22.1002541767
 30
0.0
 11
91.101152287
 21
-22.225
 31
0.0
  0
MTEXT
  5
33F
330
331
100
AcDbEntity
  8
SK2
100
AcDbMText
 10
81.3527836475
 20
-4.7502118291
 30
0.0
 40
3.5
 41
0.0
 71
     1
 72
     1
  1
1,75
  7
SLDTEXTSTYLE0
 11
-7.044195017643634E-15
 21
1.0
 31
0.0
 73
     1
 44
1.0
  0
MTEXT
  5
340
330
331
100
AcDbEntity
  8
SK2
100
AcDbMText
 10
86.5894151978
 20
-8.6824862415
 30
0.0
 40
3.5
 41
0.0
 71
     1
 72
     1
  1
%%c
  7
SLDTEXTSTYLE0
 11
-7.044195017643634E-15
 21
1.0
 31
0.0
 73
     1
 44
1.0
  0
MTEXT
  5
341
330
331
100
AcDbEntity
  8
SK2
100
AcDbMText
 10
86.5894151978
 20
-3.4040488431
 30
0.0
 40
3.5
 41
0.0
 71
     1
 72
     1
  1
44,45
  7
SLDTEXTSTYLE0
 11
-7.044195017643634E-15
 21
1.0
 31
0.0
 73
     1
 44
1.0
  0
ENDBLK
  5
333
330
331
100
AcDbEntity
  8
0
100
AcDbBlockEnd
  0
BLOCK
  5
344
330
343
100
AcDbEntity
  8
0
100
AcDbBlockBegin
  2
_D_9
 70
     0
 10
0.0
 20
0.0
 30
0.0
  3
_D_9
  1

  0
SOLID
  5
346
330
343
100
AcDbEntity
  8
SK2
100
AcDbTrace
 10
-87.4562486246
 20
30.5578899967
 30
0.0
 11
-87.9642486246
 21
27.2558899967
 31
0.0
 12
-86.9482486246
 22
27.2558899967
 32
0.0
 13
-86.9482486246
 23
27.2558899967
 33
0.0
  0
SOLID
  5
347
330
343
100
AcDbEntity
  8
SK2
100
AcDbTrace
 10
-87.4562486246
 20
-30.5579086614
 30
0.0
 11
-86.9482486246
 21
-27.2559086614
 31
0.0
 12
-87.9642486246
 22
-27.2559086614
 32
0.0
 13
-87.9642486246
 23
-27.2559086614
 33
0.0
  0
LINE
  5
348
330
343
100
AcDbEntity
  8
SK2
100
AcDbLine
 10
2.95
 20
30.5578899967
 30
0.0
 11
-88.4562486246
 21
30.5578899967
 31
0.0
  0
LINE
  5
349
330
343
100
AcDbEntity
  8
SK2
100
AcDbLine
 10
2.95
 20
-30.5579086614
 30
0.0
 11
-88.4562486246
 21
-30.5579086614
 31
0.0
  0
LINE
  5
34A
330
343
100
AcDbEntity
  8
SK2
100
AcDbLine
 10
-87.4562486246
 20
30.5578899967
 30
0.0
 11
-87.4562486246
 21
-30.5579086614
 31
0.0
  0
MTEXT
  5
34B
330
343
100
AcDbEntity
  8
SK2
100
AcDbMText
 10
-91.9679857138
 20
-5.8520561712
 30
0.0
 40
3.5
 41
0.0
 71
     1
 72
     1
  1
%%c
  7
SLDTEXTSTYLE0
 11
-3.491481338843133E-15
 21
1.0
 31
0.0
 73
     1
 44
1.0
  0
MTEXT
  5
34C
330
343
100
AcDbEntity
  8
SK2
100
AcDbMText
 10
-92.0214578904
 20
-0.5736187728
 30
0.0
 40
3.5
 41
0.0
 71
     1
 72
     1
  1
63,5
  7
SLDTEXTSTYLE0
 11
-3.491481338843133E-15
 21
1.0
 31
0.0
 73
     1
 44
1.0
  0
ENDBLK
  5
345
330
343
100
AcDbEntity
  8
0
100
AcDbBlockEnd
  0
BLOCK
  5
350
330
34F
100
AcDbEntity
  8
0
100
AcDbBlockBegin
  2
_D_10
 70
     0
 10
0.0
 20
0.0
 30
0.0
  3
_D_10
  1

  0
SOLID
  5
352
330
34F
100
AcDbEntity
  8
SK2
100
AcDbTrace
 10
-77.582039917
 20
7.9375002533
 30
0.0
 11
-77.074039917
 21
11.2395002533
 31
0.0
 12
-78.090039917
 22
11.2395002533
 32
0.0
 13
-78.090039917
 23
11.2395002533
 33
0.0
  0
SOLID
  5
353
330
34F
100
AcDbEntity
  8
SK2
100
AcDbTrace
 10
-77.582039917
 20
-7.9375002533
 30
0.0
 11
-78.090039917
 21
-11.2395002533
 31
0.0
 12
-77.074039917
 22
-11.2395002533
 32
0.0
 13
-77.074039917
 23
-11.2395002533
 33
0.0
  0
LINE
  5
354
330
34F
100
AcDbEntity
  8
SK2
100
AcDbLine
 10
-64.3082389832
 20
7.9375002533
 30
0.0
 11
-78.582039917
 21
7.9375002533
 31
0.0
  0
LINE
  5
355
330
34F
100
AcDbEntity
  8
SK2
100
AcDbLine
 10
-64.3082389832
 20
-7.9375002533
 30
0.0
 11
-78.582039917
 21
-7.9375002533
 31
0.0
  0
LINE
  5
356
330
34F
100
AcDbEntity
  8
SK2
100
AcDbLine
 10
-77.582039917
 20
7.9375002533
 30
0.0
 11
-77.582039917
 21
14.2875002533
 31
0.0
  0
LINE
  5
357
330
34F
100
AcDbEntity
  8
SK2
100
AcDbLine
 10
-77.582039917
 20
7.9375002533
 30
0.0
 11
-77.582039917
 21
-7.9375002533
 31
0.0
  0
LINE
  5
358
330
34F
100
AcDbEntity
  8
SK2
100
AcDbLine
 10
-77.582039917
 20
-7.9375002533
 30
0.0
 11
-77.582039917
 21
-14.2875002533
 31
0.0
  0
MTEXT
  5
35A
330
34F
100
AcDbEntity
  8
SK2
100
AcDbMText
 10
-82.0937768316
 20
-12.7454753661
 30
0.0
 40
3.5
 41
0.0
 71
     1
 72
     1
  1
5/8 - 11 UNC
  7
SLDTEXTSTYLE1
 11
-7.044195017643634E-15
 21
1.0
 31
0.0
 73
     1
 44
1.0
  0
ENDBLK
  5
351
330
34F
100
AcDbEntity
  8
0
100
AcDbBlockEnd
  0
BLOCK
  5
35D
330
35C
100
AcDbEntity
  8
0
100
AcDbBlockBegin
  2
_D_11
 70
     0
 10
0.0
 20
0.0
 30
0.0
  3
_D_11
  1

  0
SOLID
  5
35F
330
35C
100
AcDbEntity
  8
SK2
100
AcDbTrace
 10
22.225
 20
-47.1872499446
 30
0.0
 11
25.527
 21
-47.6952499446
 31
0.0
 12
25.527
 22
-46.6792499446
 32
0.0
 13
25.527
 23
-46.6792499446
 33
0.0
  0
SOLID
  5
360
330
35C
100
AcDbEntity
  8
SK2
100
AcDbTrace
 10
44.45
 20
-47.1872499446
 30
0.0
 11
41.148
 21
-46.6792499446
 31
0.0
 12
41.148
 22
-47.6952499446
 32
0.0
 13
41.148
 23
-47.6952499446
 33
0.0
  0
LINE
  5
361
330
35C
100
AcDbEntity
  8
SK2
100
AcDbLine
 10
29.6531184726
 20
-36.3943682285
 30
0.0
 11
28.5867122152
 21
-36.3943682285
 31
0.0
  0
LINE
  5
362
330
35C
100
AcDbEntity
  8
SK2
100
AcDbLine
 10
28.5867122152
 20
-36.3943682285
 30
0.0
 11
28.5867122152
 21
-41.9506182196
 31
0.0
  0
LINE
  5
363
330
35C
100
AcDbEntity
  8
SK2
100
AcDbLine
 10
28.5867122152
 20
-41.9506182196
 30
0.0
 11
29.6531184726
 21
-41.9506182196
 31
0.0
  0
LINE
  5
364
330
35C
100
AcDbEntity
  8
SK2
100
AcDbLine
 10
38.7045075335
 20
-36.3943682285
 30
0.0
 11
39.770913791
 21
-36.3943682285
 31
0.0
  0
LINE
  5
365
330
35C
100
AcDbEntity
  8
SK2
100
AcDbLine
 10
39.770913791
 20
-36.3943682285
 30
0.0
 11
39.770913791
 21
-41.9506182196
 31
0.0
  0
LINE
  5
366
330
35C
100
AcDbEntity
  8
SK2
100
AcDbLine
 10
39.770913791
 20
-41.9506182196
 30
0.0
 11
38.7045075335
 21
-41.9506182196
 31
0.0
  0
LINE
  5
367
330
35C
100
AcDbEntity
  8
SK2
100
AcDbLine
 10
22.225
 20
-23.725
 30
0.0
 11
22.225
 21
-48.1872499446
 31
0.0
  0
LINE
  5
368
330
35C
100
AcDbEntity
  8
SK2
100
AcDbLine
 10
44.45
 20
-13.827
 30
0.0
 11
44.45
 21
-48.1872499446
 31
0.0
  0
LINE
  5
369
330
35C
100
AcDbEntity
  8
SK2
100
AcDbLine
 10
22.225
 20
-47.1872499446
 30
0.0
 11
44.45
 21
-47.1872499446
 31
0.0
  0
MTEXT
  5
36A
330
35C
100
AcDbEntity
  8
SK2
100
AcDbMText
 10
27.5397503609
 20
-42.6220406787
 30
0.0
 40
3.5
 41
0.0
 71
     1
 72
     1
  1

  7
SLDTEXTSTYLE0
 73
     1
 44
1.0
  0
MTEXT
  5
36B
330
35C
100
AcDbEntity
  8
SK2
100
AcDbMText
 10
29.6531184726
 20
-37.438881305
 30
0.0
 40
3.5
 41
0.0
 71
     1
 72
     1
  1
0,88
  7
SLDTEXTSTYLE0
 73
     1
 44
1.0
  0
MTEXT
  5
36C
330
35C
100
AcDbEntity
  8
SK2
100
AcDbMText
 10
28.3600627594
 20
-42.6755128554
 30
0.0
 40
3.5
 41
0.0
 71
     1
 72
     1
  1
22,23
  7
SLDTEXTSTYLE0
 73
     1
 44
1.0
  0
MTEXT
  5
36D
330
35C
100
AcDbEntity
  8
SK2
100
AcDbMText
 10
42.1498201648
 20
-42.6220406787
 30
0.0
 40
3.5
 41
0.0
 71
     1
 72
     1
  1

  7
SLDTEXTSTYLE0
 73
     1
 44
1.0
  0
ENDBLK
  5
35E
330
35C
100
AcDbEntity
  8
0
100
AcDbBlockEnd
  0
ENDSEC
  0
SECTION
  2
ENTITIES
  0
LINE
  5
82
330
1F
100
AcDbEntity
  8
SK1
  6
SLD-Solid
370
    25
100
AcDbLine
 10
0.0
 20
22.225
 30
0.0
 11
-67.1376006954
 21
12.4340074512
 31
0.0
  0
LINE
  5
83
330
1F
100
AcDbEntity
  8
SK1
  6
SLD-Solid
370
    25
100
AcDbLine
 10
-67.1376006954
 20
-12.4340074512
 30
0.0
 11
0.0
 21
-22.225
 31
0.0
  0
LINE
  5
84
330
1F
100
AcDbEntity
  8
1
  6
SLD-Solid
370
    25
100
AcDbLine
 10
1.8869952227
 20
22.225
 30
0.0
 11
0.0
 21
22.225
 31
0.0
  0
LINE
  5
85
330
1F
100
AcDbEntity
  8
1
  6
SLD-Solid
370
    25
100
AcDbLine
 10
0.0
 20
-22.225
 30
0.0
 11
1.8869952227
 21
-22.225
 31
0.0
  0
LINE
  5
86
330
1F
100
AcDbEntity
  8
1
  6
SLD-Solid
370
    25
100
AcDbLine
 10
29.9599599992
 20
-22.225
 30
0.0
 11
35.052
 21
-22.225
 31
0.0
  0
LINE
  5
87
330
1F
100
AcDbEntity
  8
1
  6
SLD-Solid
370
    25
100
AcDbLine
 10
1.8869952227
 20
-22.225
 30
0.0
 11
2.1330363037
 21
-22.1102691597
 31
0.0
  0
LINE
  5
88
330
1F
100
AcDbEntity
  8
1
  6
SLD-Solid
370
    25
100
AcDbLine
 10
2.1330363037
 20
22.1102691597
 30
0.0
 11
1.8869952227
 21
22.225
 31
0.0
  0
LINE
  5
89
330
1F
100
AcDbEntity
  8
1
  6
SLD-Solid
370
    25
100
AcDbLine
 10
35.052
 20
-22.225
 30
0.0
 11
44.45
 21
-12.827
 31
0.0
  0
LINE
  5
8A
330
1F
100
AcDbEntity
  8
1
  6
SLD-Solid
370
    25
100
AcDbLine
 10
44.45
 20
12.827
 30
0.0
 11
35.3826102067
 21
21.8943897933
 31
0.0
  0
LINE
  5
8B
330
1F
100
AcDbEntity
  8
1
  6
SLD-Solid
370
    25
100
AcDbLine
 10
18.3
 20
30.5579086614
 30
0.0
 11
14.6411263546
 21
30.5579086614
 31
0.0
  0
LINE
  5
8C
330
1F
100
AcDbEntity
  8
1
  6
SLD-Solid
370
    25
100
AcDbLine
 10
18.3
 20
-30.5578899967
 30
0.0
 11
18.3
 21
30.5579086614
 31
0.0
  0
LINE
  5
8D
330
1F
100
AcDbEntity
  8
1
  6
SLD-Solid
370
    25
100
AcDbLine
 10
14.6411263546
 20
-30.5578899967
 30
0.0
 11
18.3
 21
-30.5578899967
 31
0.0
  0
LINE
  5
8E
330
1F
100
AcDbEntity
  8
1
  6
SLD-Solid
370
    25
100
AcDbLine
 10
14.6411263546
 20
30.5579086614
 30
0.0
 11
14.6411263546
 21
-30.5578899967
 31
0.0
  0
LINE
  5
8F
330
1F
100
AcDbEntity
  8
1
  6
SLD-Solid
370
    25
100
AcDbLine
 10
3.2
 20
-29.8048664484
 30
0.0
 11
3.2
 21
29.8048552742
 31
0.0
  0
LINE
  5
90
330
1F
100
AcDbEntity
  8
1
  6
SLD-Solid
370
    25
100
AcDbLine
 10
3.95
 20
30.5578899967
 30
0.0
 11
3.95
 21
-30.5579086614
 31
0.0
  0
LINE
  5
91
330
1F
100
AcDbEntity
  8
1
  6
SLD-Solid
370
    25
100
AcDbLine
 10
19.05
 20
29.8048664484
 30
0.0
 11
19.05
 21
-29.8048552742
 31
0.0
  0
LINE
  5
92
330
1F
100
AcDbEntity
  8
1
  6
SLD-Solid
370
    25
100
AcDbLine
 10
3.95
 20
-30.5579086614
 30
0.0
 11
7.5888736454
 21
-30.5579086614
 31
0.0
  0
LINE
  5
93
330
1F
100
AcDbEntity
  8
1
  6
SLD-Solid
370
    25
100
AcDbLine
 10
7.5888736454
 20
30.5578899967
 30
0.0
 11
3.95
 21
30.5578899967
 31
0.0
  0
LINE
  5
94
330
1F
100
AcDbEntity
  8
1
  6
SLD-Solid
370
    25
100
AcDbLine
 10
7.5888736454
 20
30.5578899967
 30
0.0
 11
7.5888736454
 21
-30.5579086614
 31
0.0
  0
LINE
  5
95
330
1F
100
AcDbEntity
  8
1
  6
SLD-Solid
370
    25
100
AcDbLine
 10
13.03
 20
25.319242438
 30
0.0
 11
13.03
 21
-27.8050456342
 31
0.0
  0
LINE
  5
96
330
1F
100
AcDbEntity
  8
1
  6
SLD-Solid
370
    25
100
AcDbLine
 10
13.03
 20
27.8050456342
 30
0.0
 11
13.03
 21
25.8117178836
 31
0.0
  0
LINE
  5
97
330
1F
100
AcDbEntity
  8
1
  6
SLD-Solid
370
    25
100
AcDbLine
 10
9.2
 20
27.8050456342
 30
0.0
 11
9.2
 21
25.8569131114
 31
0.0
  0
LINE
  5
98
330
1F
100
AcDbEntity
  8
1
  6
SLD-Solid
370
    25
100
AcDbLine
 10
9.2
 20
25.2705433174
 30
0.0
 11
9.2
 21
-27.8050456342
 31
0.0
  0
LINE
  5
99
330
1F
100
AcDbEntity
  8
1
  6
SLD-Solid
370
    25
100
AcDbLine
 10
9.95
 20
24.066859753
 30
0.0
 11
9.95
 21
-26.9870635676
 31
0.0
  0
LINE
  5
9A
330
1F
100
AcDbEntity
  8
1
  6
SLD-Solid
370
    25
100
AcDbLine
 10
12.28
 20
24.0780506352
 30
0.0
 11
12.28
 21
-26.9870635676
 31
0.0
  0
LINE
  5
9B
330
1F
100
AcDbEntity
  8
1
  6
SLD-Solid
370
    25
100
AcDbLine
 10
9.95
 20
-26.9870635676
 30
0.0
 11
12.28
 21
-26.9870635676
 31
0.0
  0
LINE
  5
9C
330
1F
100
AcDbEntity
  8
1
  6
SLD-Solid
370
    25
100
AcDbLine
 10
19.812
 20
22.1122201527
 30
0.0
 11
19.812
 21
-20.9692797683
 31
0.0
  0
LINE
  5
9D
330
1F
100
AcDbEntity
  8
1
  6
SLD-Solid
370
    25
100
AcDbLine
 10
3.0966065264
 20
-22.41
 30
0.0
 11
3.0993693857
 21
-22.41
 31
0.0
  0
LINE
  5
9E
330
1F
100
AcDbEntity
  8
1
  6
SLD-Solid
370
    25
100
AcDbLine
 10
0.0
 20
22.225
 30
0.0
 11
0.0
 21
-22.225
 31
0.0
  0
LINE
  5
9F
330
1F
100
AcDbEntity
  8
1
  6
SLD-Solid
370
    25
100
AcDbLine
 10
1.8869952227
 20
22.225
 30
0.0
 11
1.8869952227
 21
-22.225
 31
0.0
  0
LINE
  5
A0
330
1F
100
AcDbEntity
  8
1
  6
SLD-Solid
370
    25
100
AcDbLine
 10
35.052
 20
22.1002541767
 30
0.0
 11
35.052
 21
-22.225
 31
0.0
  0
LINE
  5
A1
330
1F
100
AcDbEntity
  8
1
  6
SLD-Solid
370
    25
100
AcDbLine
 10
44.45
 20
12.827
 30
0.0
 11
44.45
 21
-12.827
 31
0.0
  0
LINE
  5
A2
330
1F
100
AcDbEntity
  8
1
  6
SLD-Solid
370
    25
100
AcDbLine
 10
9.2
 20
25.8569131114
 30
0.0
 11
9.2
 21
25.8264908709
 31
0.0
  0
LINE
  5
A3
330
1F
100
AcDbEntity
  8
1
  6
SLD-Solid
370
    25
100
AcDbLine
 10
13.03
 20
25.7812977304
 30
0.0
 11
13.03
 21
25.8117178836
 31
0.0
  0
LINE
  5
A4
330
1F
100
AcDbEntity
  8
1
  6
SLD-Solid
370
    25
100
AcDbLine
 10
9.95
 20
26.9870635676
 30
0.0
 11
9.95
 21
25.6032587904
 31
0.0
  0
LINE
  5
A5
330
1F
100
AcDbEntity
  8
1
  6
SLD-Solid
370
    25
100
AcDbLine
 10
12.28
 20
26.9870635676
 30
0.0
 11
12.28
 21
25.5942620881
 31
0.0
  0
LINE
  5
A6
330
1F
100
AcDbEntity
  8
SK1
  6
SLD-Solid
370
    25
100
AcDbLine
 10
-68.25
 20
-11.1476148288
 30
0.0
 11
-68.25
 21
11.1476148288
 31
0.0
  0
LINE
  5
A7
330
1F
100
AcDbEntity
  8
1
  6
SLD-Solid
370
    25
100
AcDbLine
 10
9.95
 20
26.9870635676
 30
0.0
 11
12.28
 21
26.9870635676
 31
0.0
  0
LINE
  5
A8
330
1F
100
AcDbEntity
  8
1
  6
SLD-Solid
370
    25
100
AcDbLine
 10
2.1330363037
 20
22.1102691597
 30
0.0
 11
2.1330363037
 21
-22.1102691597
 31
0.0
  0
LINE
  5
A9
330
1F
100
AcDbEntity
  8
SK1
  6
SLD-Solid
370
    25
100
AcDbLine
 10
-67.1376006954
 20
0.0
 30
0.0
 11
-67.1376006954
 21
-12.4340074512
 31
0.0
  0
LINE
  5
AA
330
1F
100
AcDbEntity
  8
SK1
  6
SLD-Solid
370
    25
100
AcDbLine
 10
-67.1376006954
 20
12.4340074512
 30
0.0
 11
-67.1376006954
 21
0.0
 31
0.0
  0
LINE
  5
AB
330
1F
100
AcDbEntity
  8
SK3
  6
SLD-Dashed
370
    18
100
AcDbLine
 10
19.05
 20
-6.6488143213
 30
0.0
 11
18.8161847139
 21
-6.4760896069
 31
0.0
  0
LINE
  5
AC
330
1F
100
AcDbEntity
  8
SK3
  6
SLD-Dashed
370
    18
100
AcDbLine
 10
18.8161847139
 20
-6.4760896069
 30
0.0
 11
18.5531822006
 21
-6.396203884
 31
0.0
  0
LINE
  5
AD
330
1F
100
AcDbEntity
  8
SK3
  6
SLD-Dashed
370
    18
100
AcDbLine
 10
18.5531822006
 20
-6.396203884
 30
0.0
 11
18.2707077792
 21
-6.4121081331
 31
0.0
  0
LINE
  5
AE
330
1F
100
AcDbEntity
  8
SK3
  6
SLD-Dashed
370
    18
100
AcDbLine
 10
18.2707077792
 20
-6.4121081331
 30
0.0
 11
17.9791960612
 21
-6.5232148508
 31
0.0
  0
LINE
  5
AF
330
1F
100
AcDbEntity
  8
SK3
  6
SLD-Dashed
370
    18
100
AcDbLine
 10
17.9791960612
 20
-6.5232148508
 30
0.0
 11
17.689415496
 21
-6.7254197524
 31
0.0
  0
LINE
  5
B0
330
1F
100
AcDbEntity
  8
SK3
  6
SLD-Dashed
370
    18
100
AcDbLine
 10
17.689415496
 20
-6.7254197524
 30
0.0
 11
17.4120705846
 21
-7.0112533843
 31
0.0
  0
LINE
  5
B1
330
1F
100
AcDbEntity
  8
SK3
  6
SLD-Dashed
370
    18
100
AcDbLine
 10
17.4120705846
 20
-7.0112533843
 30
0.0
 11
17.1574064541
 21
-7.3701570454
 31
0.0
  0
LINE
  5
B2
330
1F
100
AcDbEntity
  8
SK3
  6
SLD-Dashed
370
    18
100
AcDbLine
 10
17.1574064541
 20
-7.3701570454
 30
0.0
 11
16.9348304035
 21
-7.7888728264
 31
0.0
  0
LINE
  5
B3
330
1F
100
AcDbEntity
  8
SK3
  6
SLD-Dashed
370
    18
100
AcDbLine
 10
16.9348304035
 20
-7.7888728264
 30
0.0
 11
16.7525643972
 21
-8.2519333568
 31
0.0
  0
LINE
  5
B4
330
1F
100
AcDbEntity
  8
SK3
  6
SLD-Dashed
370
    18
100
AcDbLine
 10
16.7525643972
 20
-8.2519333568
 30
0.0
 11
16.6173413455
 21
-8.7422331698
 31
0.0
  0
LINE
  5
B5
330
1F
100
AcDbEntity
  8
SK3
  6
SLD-Dashed
370
    18
100
AcDbLine
 10
16.6173413455
 20
-8.7422331698
 30
0.0
 11
16.5341563912
 21
-9.2416605792
 31
0.0
  0
LINE
  5
B6
330
1F
100
AcDbEntity
  8
SK3
  6
SLD-Dashed
370
    18
100
AcDbLine
 10
16.5341563912
 20
-9.2416605792
 30
0.0
 11
16.5060823883
 21
-9.731766725
 31
0.0
  0
LINE
  5
B7
330
1F
100
AcDbEntity
  8
SK3
  6
SLD-Dashed
370
    18
100
AcDbLine
 10
16.5060823883
 20
-9.731766725
 30
0.0
 11
16.5341563912
 21
-10.194447075
 31
0.0
  0
LINE
  5
B8
330
1F
100
AcDbEntity
  8
SK3
  6
SLD-Dashed
370
    18
100
AcDbLine
 10
16.5341563912
 20
-10.194447075
 30
0.0
 11
16.6173413455
 21
-10.6126102065
 31
0.0
  0
LINE
  5
B9
330
1F
100
AcDbEntity
  8
SK3
  6
SLD-Dashed
370
    18
100
AcDbLine
 10
16.6173413455
 20
-10.6126102065
 30
0.0
 11
16.7525643972
 21
-10.9708091637
 31
0.0
  0
LINE
  5
BA
330
1F
100
AcDbEntity
  8
SK3
  6
SLD-Dashed
370
    18
100
AcDbLine
 10
16.7525643972
 20
-10.9708091637
 30
0.0
 11
16.9348304035
 21
-11.2558120691
 31
0.0
  0
LINE
  5
BB
330
1F
100
AcDbEntity
  8
SK3
  6
SLD-Dashed
370
    18
100
AcDbLine
 10
16.9348304035
 20
-11.2558120691
 30
0.0
 11
17.1574064541
 21
-11.4570909087
 31
0.0
  0
LINE
  5
BC
330
1F
100
AcDbEntity
  8
SK3
  6
SLD-Dashed
370
    18
100
AcDbLine
 10
17.1574064541
 20
-11.4570909087
 30
0.0
 11
17.4120705846
 21
-11.5672104376
 31
0.0
  0
LINE
  5
BD
330
1F
100
AcDbEntity
  8
SK3
  6
SLD-Dashed
370
    18
100
AcDbLine
 10
17.4120705846
 20
-11.5672104376
 30
0.0
 11
17.689415496
 21
-11.5821028379
 31
0.0
  0
LINE
  5
BE
330
1F
100
AcDbEntity
  8
SK3
  6
SLD-Dashed
370
    18
100
AcDbLine
 10
17.689415496
 20
-11.5821028379
 30
0.0
 11
17.9791960612
 21
-11.5012179839
 31
0.0
  0
LINE
  5
BF
330
1F
100
AcDbEntity
  8
SK3
  6
SLD-Dashed
370
    18
100
AcDbLine
 10
17.9791960612
 20
-11.5012179839
 30
0.0
 11
18.2707077792
 21
-11.3275437641
 31
0.0
  0
LINE
  5
C0
330
1F
100
AcDbEntity
  8
SK3
  6
SLD-Dashed
370
    18
100
AcDbLine
 10
18.2707077792
 20
-11.3275437641
 30
0.0
 11
18.5531822006
 21
-11.0674957081
 31
0.0
  0
LINE
  5
C1
330
1F
100
AcDbEntity
  8
SK3
  6
SLD-Dashed
370
    18
100
AcDbLine
 10
18.5531822006
 20
-11.0674957081
 30
0.0
 11
18.8161847139
 21
-10.730679997
 31
0.0
  0
LINE
  5
C2
330
1F
100
AcDbEntity
  8
SK3
  6
SLD-Dashed
370
    18
100
AcDbLine
 10
18.8161847139
 20
-10.730679997
 30
0.0
 11
19.05
 21
-10.329538611
 31
0.0
  0
LINE
  5
C3
330
1F
100
AcDbEntity
  8
SK3
  6
SLD-Dashed
370
    18
100
AcDbLine
 10
19.05
 20
-6.511218589
 30
0.0
 11
19.05
 21
-10.329538611
 31
0.0
  0
LINE
  5
C4
330
1F
100
AcDbEntity
  8
SK3
  6
SLD-Dashed
370
    18
100
AcDbLine
 10
5.6259851119
 20
-8.943826748
 30
0.0
 11
5.5351771035
 21
-8.5053406669
 31
0.0
  0
LINE
  5
C5
330
1F
100
AcDbEntity
  8
SK3
  6
SLD-Dashed
370
    18
100
AcDbLine
 10
5.5351771035
 20
-8.5053406669
 30
0.0
 11
5.4010979853
 21
-8.0888421089
 31
0.0
  0
LINE
  5
C6
330
1F
100
AcDbEntity
  8
SK3
  6
SLD-Dashed
370
    18
100
AcDbLine
 10
5.4010979853
 20
-8.0888421089
 30
0.0
 11
5.230471044
 21
-7.7152160508
 31
0.0
  0
LINE
  5
C7
330
1F
100
AcDbEntity
  8
SK3
  6
SLD-Dashed
370
    18
100
AcDbLine
 10
5.230471044
 20
-7.7152160508
 30
0.0
 11
5.031852227
 21
-7.4031976633
 31
0.0
  0
LINE
  5
C8
330
1F
100
AcDbEntity
  8
SK3
  6
SLD-Dashed
370
    18
100
AcDbLine
 10
5.031852227
 20
-7.4031976633
 30
0.0
 11
4.8152011111
 21
-7.1684328512
 31
0.0
  0
LINE
  5
C9
330
1F
100
AcDbEntity
  8
SK3
  6
SLD-Dashed
370
    18
100
AcDbLine
 10
4.8152011111
 20
-7.1684328512
 30
0.0
 11
4.5913814879
 21
-7.0226937025
 31
0.0
  0
LINE
  5
CA
330
1F
100
AcDbEntity
  8
SK3
  6
SLD-Dashed
370
    18
100
AcDbLine
 10
4.5913814879
 20
-7.0226937025
 30
0.0
 11
4.371616608
 21
-6.9732881867
 31
0.0
  0
LINE
  5
CB
330
1F
100
AcDbEntity
  8
SK3
  6
SLD-Dashed
370
    18
100
AcDbLine
 10
4.371616608
 20
-6.9732881867
 30
0.0
 11
4.1669263999
 21
-7.0226937025
 31
0.0
  0
LINE
  5
CC
330
1F
100
AcDbEntity
  8
SK3
  6
SLD-Dashed
370
    18
100
AcDbLine
 10
4.1669263999
 20
-7.0226937025
 30
0.0
 11
3.9875748856
 21
-7.1684328512
 31
0.0
  0
LINE
  5
CD
330
1F
100
AcDbEntity
  8
SK3
  6
SLD-Dashed
370
    18
100
AcDbLine
 10
3.9875748856
 20
-7.1684328512
 30
0.0
 11
3.8425554988
 21
-7.4031976633
 31
0.0
  0
LINE
  5
CE
330
1F
100
AcDbEntity
  8
SK3
  6
SLD-Dashed
370
    18
100
AcDbLine
 10
3.8425554988
 20
-7.4031976633
 30
0.0
 11
3.7391401171
 21
-7.7152160508
 31
0.0
  0
LINE
  5
CF
330
1F
100
AcDbEntity
  8
SK3
  6
SLD-Dashed
370
    18
100
AcDbLine
 10
3.7391401171
 20
-7.7152160508
 30
0.0
 11
3.6825144197
 21
-8.0888421089
 31
0.0
  0
LINE
  5
D0
330
1F
100
AcDbEntity
  8
SK3
  6
SLD-Dashed
370
    18
100
AcDbLine
 10
3.6825144197
 20
-8.0888421089
 30
0.0
 11
3.6755178553
 21
-8.5053406669
 31
0.0
  0
LINE
  5
D1
330
1F
100
AcDbEntity
  8
SK3
  6
SLD-Dashed
370
    18
100
AcDbLine
 10
3.6755178553
 20
-8.5053406669
 30
0.0
 11
3.718501261
 21
-8.943826748
 31
0.0
  0
LINE
  5
D2
330
1F
100
AcDbEntity
  8
SK3
  6
SLD-Dashed
370
    18
100
AcDbLine
 10
3.718501261
 20
-8.943826748
 30
0.0
 11
3.8093092693
 21
-9.382312829
 31
0.0
  0
LINE
  5
D3
330
1F
100
AcDbEntity
  8
SK3
  6
SLD-Dashed
370
    18
100
AcDbLine
 10
3.8093092693
 20
-9.382312829
 30
0.0
 11
3.9433883876
 21
-9.798811387
 31
0.0
  0
LINE
  5
D4
330
1F
100
AcDbEntity
  8
SK3
  6
SLD-Dashed
370
    18
100
AcDbLine
 10
3.9433883876
 20
-9.798811387
 30
0.0
 11
4.1140153288
 21
-10.1724374451
 31
0.0
  0
LINE
  5
D5
330
1F
100
AcDbEntity
  8
SK3
  6
SLD-Dashed
370
    18
100
AcDbLine
 10
4.1140153288
 20
-10.1724374451
 30
0.0
 11
4.3126341459
 21
-10.4844558326
 31
0.0
  0
LINE
  5
D6
330
1F
100
AcDbEntity
  8
SK3
  6
SLD-Dashed
370
    18
100
AcDbLine
 10
4.3126341459
 20
-10.4844558326
 30
0.0
 11
4.5292852618
 21
-10.7192206447
 31
0.0
  0
LINE
  5
D7
330
1F
100
AcDbEntity
  8
SK3
  6
SLD-Dashed
370
    18
100
AcDbLine
 10
4.5292852618
 20
-10.7192206447
 30
0.0
 11
4.7531048849
 21
-10.8649597934
 31
0.0
  0
LINE
  5
D8
330
1F
100
AcDbEntity
  8
SK3
  6
SLD-Dashed
370
    18
100
AcDbLine
 10
4.7531048849
 20
-10.8649597934
 30
0.0
 11
4.9728697649
 21
-10.9143653093
 31
0.0
  0
LINE
  5
D9
330
1F
100
AcDbEntity
  8
SK3
  6
SLD-Dashed
370
    18
100
AcDbLine
 10
4.9728697649
 20
-10.9143653093
 30
0.0
 11
5.1775599729
 21
-10.8649597934
 31
0.0
  0
LINE
  5
DA
330
1F
100
AcDbEntity
  8
SK3
  6
SLD-Dashed
370
    18
100
AcDbLine
 10
5.1775599729
 20
-10.8649597934
 30
0.0
 11
5.3569114873
 21
-10.7192206447
 31
0.0
  0
LINE
  5
DB
330
1F
100
AcDbEntity
  8
SK3
  6
SLD-Dashed
370
    18
100
AcDbLine
 10
5.3569114873
 20
-10.7192206447
 30
0.0
 11
5.5019308741
 21
-10.4844558326
 31
0.0
  0
LINE
  5
DC
330
1F
100
AcDbEntity
  8
SK3
  6
SLD-Dashed
370
    18
100
AcDbLine
 10
5.5019308741
 20
-10.4844558326
 30
0.0
 11
5.6053462557
 21
-10.1724374451
 31
0.0
  0
LINE
  5
DD
330
1F
100
AcDbEntity
  8
SK3
  6
SLD-Dashed
370
    18
100
AcDbLine
 10
5.6053462557
 20
-10.1724374451
 30
0.0
 11
5.6619719532
 21
-9.798811387
 31
0.0
  0
LINE
  5
DE
330
1F
100
AcDbEntity
  8
SK3
  6
SLD-Dashed
370
    18
100
AcDbLine
 10
5.6619719532
 20
-9.798811387
 30
0.0
 11
5.6689685176
 21
-9.382312829
 31
0.0
  0
LINE
  5
DF
330
1F
100
AcDbEntity
  8
SK3
  6
SLD-Dashed
370
    18
100
AcDbLine
 10
5.6689685176
 20
-9.382312829
 30
0.0
 11
5.6259851119
 21
-8.943826748
 31
0.0
  0
LINE
  5
E0
330
1F
100
AcDbEntity
  8
SK3
  6
SLD-Dashed
370
    18
100
AcDbLine
 10
18.4408128517
 20
-8.8714518524
 30
0.0
 11
18.4795661481
 21
-8.469086838
 31
0.0
  0
LINE
  5
E1
330
1F
100
AcDbEntity
  8
SK3
  6
SLD-Dashed
370
    18
100
AcDbLine
 10
18.4795661481
 20
-8.469086838
 30
0.0
 11
18.4588974842
 21
-8.0920038972
 31
0.0
  0
LINE
  5
E2
330
1F
100
AcDbEntity
  8
SK3
  6
SLD-Dashed
370
    18
100
AcDbLine
 10
18.4588974842
 20
-8.0920038972
 30
0.0
 11
18.3801055482
 21
-7.7638965381
 31
0.0
  0
LINE
  5
E3
330
1F
100
AcDbEntity
  8
SK3
  6
SLD-Dashed
370
    18
100
AcDbLine
 10
18.3801055482
 20
-7.7638965381
 30
0.0
 11
18.248141127
 21
-7.5053809527
 31
0.0
  0
LINE
  5
E4
330
1F
100
AcDbEntity
  8
SK3
  6
SLD-Dashed
370
    18
100
AcDbLine
 10
18.248141127
 20
-7.5053809527
 30
0.0
 11
18.0712960308
 21
-7.3327006259
 31
0.0
  0
LINE
  5
E5
330
1F
100
AcDbEntity
  8
SK3
  6
SLD-Dashed
370
    18
100
AcDbLine
 10
18.0712960308
 20
-7.3327006259
 30
0.0
 11
17.8606820871
 21
-7.2567056979
 31
0.0
  0
LINE
  5
E6
330
1F
100
AcDbEntity
  8
SK3
  6
SLD-Dashed
370
    18
100
AcDbLine
 10
17.8606820871
 20
-7.2567056979
 30
0.0
 11
17.6295329448
 21
-7.2821712094
 31
0.0
  0
LINE
  5
E7
330
1F
100
AcDbEntity
  8
SK3
  6
SLD-Dashed
370
    18
100
AcDbLine
 10
17.6295329448
 20
-7.2821712094
 30
0.0
 11
17.3923725545
 21
-7.4074970686
 31
0.0
  0
LINE
  5
E8
330
1F
100
AcDbEntity
  8
SK3
  6
SLD-Dashed
370
    18
100
AcDbLine
 10
17.3923725545
 20
-7.4074970686
 30
0.0
 11
17.1641025758
 21
-7.6248085909
 31
0.0
  0
LINE
  5
E9
330
1F
100
AcDbEntity
  8
SK3
  6
SLD-Dashed
370
    18
100
AcDbLine
 10
17.1641025758
 20
-7.6248085909
 30
0.0
 11
16.959066051
 21
-7.9204512942
 31
0.0
  0
LINE
  5
EA
330
1F
100
AcDbEntity
  8
SK3
  6
SLD-Dashed
370
    18
100
AcDbLine
 10
16.959066051
 20
-7.9204512942
 30
0.0
 11
16.7901461789
 21
-8.2758488601
 31
0.0
  0
LINE
  5
EB
330
1F
100
AcDbEntity
  8
SK3
  6
SLD-Dashed
370
    18
100
AcDbLine
 10
16.7901461789
 20
-8.2758488601
 30
0.0
 11
16.6679568163
 21
-8.6686703525
 31
0.0
  0
LINE
  5
EC
330
1F
100
AcDbEntity
  8
SK3
  6
SLD-Dashed
370
    18
100
AcDbLine
 10
16.6679568163
 20
-8.6686703525
 30
0.0
 11
16.6001755704
 21
-9.0742333523
 31
0.0
  0
LINE
  5
ED
330
1F
100
AcDbEntity
  8
SK3
  6
SLD-Dashed
370
    18
100
AcDbLine
 10
16.6001755704
 20
-9.0742333523
 30
0.0
 11
16.5910613861
 21
-9.4670548447
 31
0.0
  0
LINE
  5
EE
330
1F
100
AcDbEntity
  8
SK3
  6
SLD-Dashed
370
    18
100
AcDbLine
 10
16.5910613861
 20
-9.4670548447
 30
0.0
 11
16.6411869411
 21
-9.8224524106
 31
0.0
  0
LINE
  5
EF
330
1F
100
AcDbEntity
  8
SK3
  6
SLD-Dashed
370
    18
100
AcDbLine
 10
16.6411869411
 20
-9.8224524106
 30
0.0
 11
16.7474026624
 21
-10.1180951139
 31
0.0
  0
LINE
  5
F0
330
1F
100
AcDbEntity
  8
SK3
  6
SLD-Dashed
370
    18
100
AcDbLine
 10
16.7474026624
 20
-10.1180951139
 30
0.0
 11
16.9030346256
 21
-10.3354066363
 31
0.0
  0
LINE
  5
F1
330
1F
100
AcDbEntity
  8
SK3
  6
SLD-Dashed
370
    18
100
AcDbLine
 10
16.9030346256
 20
-10.3354066363
 30
0.0
 11
17.0983039021
 21
-10.4607324955
 31
0.0
  0
LINE
  5
F2
330
1F
100
AcDbEntity
  8
SK3
  6
SLD-Dashed
370
    18
100
AcDbLine
 10
17.0983039021
 20
-10.4607324955
 30
0.0
 11
17.3209410051
 21
-10.486198007
 31
0.0
  0
LINE
  5
F3
330
1F
100
AcDbEntity
  8
SK3
  6
SLD-Dashed
370
    18
100
AcDbLine
 10
17.3209410051
 20
-10.486198007
 30
0.0
 11
17.5569568267
 21
-10.4102030789
 31
0.0
  0
LINE
  5
F4
330
1F
100
AcDbEntity
  8
SK3
  6
SLD-Dashed
370
    18
100
AcDbLine
 10
17.5569568267
 20
-10.4102030789
 30
0.0
 11
17.7915216246
 21
-10.2375227522
 31
0.0
  0
LINE
  5
F5
330
1F
100
AcDbEntity
  8
SK3
  6
SLD-Dashed
370
    18
100
AcDbLine
 10
17.7915216246
 20
-10.2375227522
 30
0.0
 11
18.0098968302
 21
-9.9790071667
 31
0.0
  0
LINE
  5
F6
330
1F
100
AcDbEntity
  8
SK3
  6
SLD-Dashed
370
    18
100
AcDbLine
 10
18.0098968302
 20
-9.9790071667
 30
0.0
 11
18.1983611259
 21
-9.6508998076
 31
0.0
  0
LINE
  5
F7
330
1F
100
AcDbEntity
  8
SK3
  6
SLD-Dashed
370
    18
100
AcDbLine
 10
18.1983611259
 20
-9.6508998076
 30
0.0
 11
18.3450726071
 21
-9.2738168668
 31
0.0
  0
LINE
  5
F8
330
1F
100
AcDbEntity
  8
SK3
  6
SLD-Dashed
370
    18
100
AcDbLine
 10
18.3450726071
 20
-9.2738168668
 30
0.0
 11
18.4408128517
 21
-8.8714518524
 31
0.0
  0
LINE
  5
F9
330
1F
100
AcDbEntity
  8
SK3
  6
SLD-Dashed
370
    18
100
AcDbLine
 10
5.641206471
 20
-8.9078631218
 30
0.0
 11
5.6781658386
 21
-9.3121568571
 31
0.0
  0
LINE
  5
FA
330
1F
100
AcDbEntity
  8
SK3
  6
SLD-Dashed
370
    18
100
AcDbLine
 10
5.6781658386
 20
-9.3121568571
 30
0.0
 11
5.6633630452
 21
-9.6910473301
 31
0.0
  0
LINE
  5
FB
330
1F
100
AcDbEntity
  8
SK3
  6
SLD-Dashed
370
    18
100
AcDbLine
 10
5.6633630452
 20
-9.6910473301
 30
0.0
 11
5.5977282047
 21
-10.020727459
 31
0.0
  0
LINE
  5
FC
330
1F
100
AcDbEntity
  8
SK3
  6
SLD-Dashed
370
    18
100
AcDbLine
 10
5.5977282047
 20
-10.020727459
 30
0.0
 11
5.4853853955
 21
-10.2804822287
 31
0.0
  0
LINE
  5
FD
330
1F
100
AcDbEntity
  8
SK3
  6
SLD-Dashed
370
    18
100
AcDbLine
 10
5.4853853955
 20
-10.2804822287
 30
0.0
 11
5.3333935295
 21
-10.4539902918
 31
0.0
  0
LINE
  5
FE
330
1F
100
AcDbEntity
  8
SK3
  6
SLD-Dashed
370
    18
100
AcDbLine
 10
5.3333935295
 20
-10.4539902918
 30
0.0
 11
5.1513028146
 21
-10.5303494985
 31
0.0
  0
LINE
  5
FF
330
1F
100
AcDbEntity
  8
SK3
  6
SLD-Dashed
370
    18
100
AcDbLine
 10
5.1513028146
 20
-10.5303494985
 30
0.0
 11
4.9505546801
 21
-10.5047619191
 31
0.0
  0
LINE
  5
100
330
1F
100
AcDbEntity
  8
SK3
  6
SLD-Dashed
370
    18
100
AcDbLine
 10
4.9505546801
 20
-10.5047619191
 30
0.0
 11
4.7437628696
 21
-10.3788353153
 31
0.0
  0
LINE
  5
101
330
1F
100
AcDbEntity
  8
SK3
  6
SLD-Dashed
370
    18
100
AcDbLine
 10
4.7437628696
 20
-10.3788353153
 30
0.0
 11
4.5439208732
 21
-10.1604821188
 31
0.0
  0
LINE
  5
102
330
1F
100
AcDbEntity
  8
SK3
  6
SLD-Dashed
370
    18
100
AcDbLine
 10
4.5439208732
 20
-10.1604821188
 30
0.0
 11
4.3635854983
 21
-9.8634222638
 31
0.0
  0
LINE
  5
103
330
1F
100
AcDbEntity
  8
SK3
  6
SLD-Dashed
370
    18
100
AcDbLine
 10
4.3635854983
 20
-9.8634222638
 30
0.0
 11
4.2140878798
 21
-9.5063211136
 31
0.0
  0
LINE
  5
104
330
1F
100
AcDbEntity
  8
SK3
  6
SLD-Dashed
370
    18
100
AcDbLine
 10
4.2140878798
 20
-9.5063211136
 30
0.0
 11
4.104821503
 21
-9.1116166469
 31
0.0
  0
LINE
  5
105
330
1F
100
AcDbEntity
  8
SK3
  6
SLD-Dashed
370
    18
100
AcDbLine
 10
4.104821503
 20
-9.1116166469
 30
0.0
 11
4.042651976
 21
-8.7041095968
 31
0.0
  0
LINE
  5
106
330
1F
100
AcDbEntity
  8
SK3
  6
SLD-Dashed
370
    18
100
AcDbLine
 10
4.042651976
 20
-8.7041095968
 30
0.0
 11
4.031485639
 21
-8.30940513
 31
0.0
  0
LINE
  5
107
330
1F
100
AcDbEntity
  8
SK3
  6
SLD-Dashed
370
    18
100
AcDbLine
 10
4.031485639
 20
-8.30940513
 30
0.0
 11
4.072024114
 21
-7.9523039799
 31
0.0
  0
LINE
  5
108
330
1F
100
AcDbEntity
  8
SK3
  6
SLD-Dashed
370
    18
100
AcDbLine
 10
4.072024114
 20
-7.9523039799
 30
0.0
 11
4.1617202194
 21
-7.6552441249
 31
0.0
  0
LINE
  5
109
330
1F
100
AcDbEntity
  8
SK3
  6
SLD-Dashed
370
    18
100
AcDbLine
 10
4.1617202194
 20
-7.6552441249
 30
0.0
 11
4.2949380192
 21
-7.4368909283
 31
0.0
  0
LINE
  5
10A
330
1F
100
AcDbEntity
  8
SK3
  6
SLD-Dashed
370
    18
100
AcDbLine
 10
4.2949380192
 20
-7.4368909283
 30
0.0
 11
4.4633069489
 21
-7.3109643245
 31
0.0
  0
LINE
  5
10B
330
1F
100
AcDbEntity
  8
SK3
  6
SLD-Dashed
370
    18
100
AcDbLine
 10
4.4633069489
 20
-7.3109643245
 30
0.0
 11
4.6562477696
 21
-7.2853767451
 31
0.0
  0
LINE
  5
10C
330
1F
100
AcDbEntity
  8
SK3
  6
SLD-Dashed
370
    18
100
AcDbLine
 10
4.6562477696
 20
-7.2853767451
 30
0.0
 11
4.8616372998
 21
-7.3617359519
 31
0.0
  0
LINE
  5
10D
330
1F
100
AcDbEntity
  8
SK3
  6
SLD-Dashed
370
    18
100
AcDbLine
 10
4.8616372998
 20
-7.3617359519
 30
0.0
 11
5.0665701601
 21
-7.535244015
 31
0.0
  0
LINE
  5
10E
330
1F
100
AcDbEntity
  8
SK3
  6
SLD-Dashed
370
    18
100
AcDbLine
 10
5.0665701601
 20
-7.535244015
 30
0.0
 11
5.2581696651
 21
-7.7949987847
 31
0.0
  0
LINE
  5
10F
330
1F
100
AcDbEntity
  8
SK3
  6
SLD-Dashed
370
    18
100
AcDbLine
 10
5.2581696651
 20
-7.7949987847
 30
0.0
 11
5.4243969133
 21
-8.1246789135
 31
0.0
  0
LINE
  5
110
330
1F
100
AcDbEntity
  8
SK3
  6
SLD-Dashed
370
    18
100
AcDbLine
 10
5.4243969133
 20
-8.1246789135
 30
0.0
 11
5.5548072353
 21
-8.5035693866
 31
0.0
  0
LINE
  5
111
330
1F
100
AcDbEntity
  8
SK3
  6
SLD-Dashed
370
    18
100
AcDbLine
 10
5.5548072353
 20
-8.5035693866
 30
0.0
 11
5.641206471
 21
-8.9078631218
 31
0.0
  0
LINE
  5
112
330
1F
100
AcDbEntity
  8
SK3
  6
SLD-Dashed
370
    18
100
AcDbLine
 10
-66.6824940192
 20
-8.235
 30
0.0
 11
-66.6824940192
 21
8.235
 31
0.0
  0
LINE
  5
113
330
1F
100
AcDbEntity
  8
SK3
  6
SLD-Dashed
370
    18
100
AcDbLine
 10
-68.25
 20
-9.14
 30
0.0
 11
-68.25
 21
9.14
 31
0.0
  0
LINE
  5
114
330
1F
100
AcDbEntity
  8
SK3
  6
SLD-Dashed
370
    18
100
AcDbLine
 10
43.45
 20
-7.9375
 30
0.0
 11
43.45
 21
7.9375
 31
0.0
  0
LINE
  5
115
330
1F
100
AcDbEntity
  8
SK3
  6
SLD-Dashed
370
    18
100
AcDbLine
 10
44.45
 20
-8.5023625077
 30
0.0
 11
44.45
 21
8.5023625077
 31
0.0
  0
LINE
  5
116
330
1F
100
AcDbEntity
  8
SK3
  6
SLD-Dashed
370
    18
100
AcDbLine
 10
-63.48
 20
-8.235
 30
0.0
 11
-63.48
 21
8.235
 31
0.0
  0
LINE
  5
117
330
1F
100
AcDbEntity
  8
SK3
  6
SLD-Dashed
370
    18
100
AcDbLine
 10
-62.6204640132
 20
-6.74624
 30
0.0
 11
-62.6204640132
 21
6.74624
 31
0.0
  0
LINE
  5
118
330
1F
100
AcDbEntity
  8
SK3
  6
SLD-Dashed
370
    18
100
AcDbLine
 10
-12.4498593255
 20
7.9375
 30
0.0
 11
-12.4498593255
 21
-7.9375
 31
0.0
  0
LINE
  5
119
330
1F
100
AcDbEntity
  8
SK3
  6
SLD-Dashed
370
    18
100
AcDbLine
 10
-12.25
 20
-8.1269130961
 30
0.0
 11
-12.25
 21
8.1269130961
 31
0.0
  0
LINE
  5
11A
330
1F
100
AcDbEntity
  8
SK3
  6
SLD-Dashed
370
    18
100
AcDbLine
 10
-3.5
 20
-8.1269130961
 30
0.0
 11
-3.5
 21
8.1269130961
 31
0.0
  0
LINE
  5
11B
330
1F
100
AcDbEntity
  8
SK3
  6
SLD-Dashed
370
    18
100
AcDbLine
 10
-3.3001406745
 20
7.9375
 30
0.0
 11
-3.3001406745
 21
-7.9375
 31
0.0
  0
LINE
  5
11C
330
1F
100
AcDbEntity
  8
SK3
  6
SLD-Dashed
370
    18
100
AcDbLine
 10
3.5452916241
 20
-29.8048664484
 30
0.0
 11
3.5452916241
 21
-22.785
 31
0.0
  0
LINE
  5
11D
330
1F
100
AcDbEntity
  8
SK3
  6
SLD-Dashed
370
    18
100
AcDbLine
 10
18.704611155
 20
-22.785
 30
0.0
 11
18.704611155
 21
-29.8048552742
 31
0.0
  0
LINE
  5
11E
330
1F
100
AcDbEntity
  8
SK3
  6
SLD-Dashed
370
    18
100
AcDbLine
 10
7.8539870535
 20
-30.2255814201
 30
0.0
 11
3.95
 21
-30.2255814201
 31
0.0
  0
LINE
  5
11F
330
1F
100
AcDbEntity
  8
SK3
  6
SLD-Dashed
370
    18
100
AcDbLine
 10
18.3
 20
-30.2254693878
 30
0.0
 11
14.3759504666
 21
-30.2254693878
 31
0.0
  0
LINE
  5
120
330
1F
100
AcDbEntity
  8
1
  6
SLD-Dashed
370
    18
100
AcDbLine
 10
9.2
 20
-27.8050456342
 30
0.0
 11
9.2
 21
-27.7691663541
 31
0.0
  0
LINE
  5
121
330
1F
100
AcDbEntity
  8
1
  6
SLD-Dashed
370
    18
100
AcDbLine
 10
13.03
 20
-27.7691663541
 30
0.0
 11
13.03
 21
-27.8050456342
 31
0.0
  0
LINE
  5
122
330
1F
100
AcDbEntity
  8
SK3
  6
SLD-Dashed
370
    18
100
AcDbLine
 10
18.7047083759
 20
29.8048664484
 30
0.0
 11
18.7047083759
 21
25.5791202528
 31
0.0
  0
LINE
  5
123
330
1F
100
AcDbEntity
  8
SK3
  6
SLD-Dashed
370
    18
100
AcDbLine
 10
3.545388845
 20
25.5789825872
 30
0.0
 11
3.545388845
 21
29.8048552742
 31
0.0
  0
LINE
  5
124
330
1F
100
AcDbEntity
  8
SK3
  6
SLD-Dashed
370
    18
100
AcDbLine
 10
14.3760129465
 20
30.2255814201
 30
0.0
 11
18.3
 21
30.2255814201
 31
0.0
  0
LINE
  5
125
330
1F
100
AcDbEntity
  8
SK3
  6
SLD-Dashed
370
    18
100
AcDbLine
 10
3.95
 20
30.2254693878
 30
0.0
 11
7.8540495334
 21
30.2254693878
 31
0.0
  0
LINE
  5
126
330
1F
100
AcDbEntity
  8
1
  6
SLD-Dashed
370
    18
100
AcDbLine
 10
9.2
 20
27.8050456342
 30
0.0
 11
9.2
 21
27.7691663541
 31
0.0
  0
LINE
  5
127
330
1F
100
AcDbEntity
  8
1
  6
SLD-Dashed
370
    18
100
AcDbLine
 10
13.03
 20
27.7691663541
 30
0.0
 11
13.03
 21
27.8050456342
 31
0.0
  0
LINE
  5
128
330
1F
100
AcDbEntity
  8
SK3
  6
SLD-Dashed
370
    18
100
AcDbLine
 10
18.704611155
 20
-22.41
 30
0.0
 11
3.5452916241
 21
-22.41
 31
0.0
  0
LINE
  5
129
330
1F
100
AcDbEntity
  8
SK3
  6
SLD-Dashed
370
    18
100
AcDbLine
 10
3.5452916241
 20
-22.785
 30
0.0
 11
18.704611155
 21
-22.785
 31
0.0
  0
LINE
  5
12A
330
1F
100
AcDbEntity
  8
SK3
  6
SLD-Dashed
370
    18
100
AcDbLine
 10
3.7
 20
24.83
 30
0.0
 11
18.55
 21
24.83
 31
0.0
  0
LINE
  5
12B
330
1F
100
AcDbEntity
  8
SK3
  6
SLD-Dashed
370
    18
100
AcDbLine
 10
18.55
 20
25.205
 30
0.0
 11
3.7
 21
25.205
 31
0.0
  0
LINE
  5
12C
330
1F
100
AcDbEntity
  8
SK3
  6
SLD-Dashed
370
    18
100
AcDbLine
 10
-15.45
 20
-7.9375
 30
0.0
 11
-15.45
 21
7.9375
 31
0.0
  0
LINE
  5
12D
330
1F
100
AcDbEntity
  8
SK3
  6
SLD-Dashed
370
    18
100
AcDbLine
 10
-16.165781221
 20
-6.74624
 30
0.0
 11
-16.165781221
 21
6.74624
 31
0.0
  0
LINE
  5
12E
330
1F
100
AcDbEntity
  8
SK3
  6
SLD-Dashed
370
    18
100
AcDbLine
 10
19.0169719946
 20
-22.41
 30
0.0
 11
14.475
 21
-22.41
 31
0.0
  0
LINE
  5
12F
330
1F
100
AcDbEntity
  8
SK3
  6
SLD-Dashed
370
    18
100
AcDbLine
 10
14.475
 20
-20.725
 30
0.0
 11
29.975
 21
-20.725
 31
0.0
  0
LINE
  5
130
330
1F
100
AcDbEntity
  8
SK3
  6
SLD-Dashed
370
    18
100
AcDbLine
 10
19.05
 20
-21.8728208972
 30
0.0
 11
19.05
 21
-22.3108980993
 31
0.0
  0
LINE
  5
131
330
1F
100
AcDbEntity
  8
SK3
  6
SLD-Dashed
370
    18
100
AcDbLine
 10
19.05
 20
-22.3109644142
 30
0.0
 11
19.05
 21
-21.8728208972
 31
0.0
  0
LINE
  5
132
330
1F
100
AcDbEntity
  8
SK3
  6
SLD-Dashed
370
    18
100
AcDbLine
 10
28.6004
 20
-20.725
 30
0.0
 11
15.8496
 21
-20.725
 31
0.0
  0
LINE
  5
133
330
1F
100
AcDbEntity
  8
SK3
  6
SLD-Dashed
370
    18
100
AcDbLine
 10
16.1
 20
20.43
 30
0.0
 11
6.1
 21
20.43
 31
0.0
  0
LINE
  5
134
330
1F
100
AcDbEntity
  8
SK3
  6
SLD-Dashed
370
    18
100
AcDbLine
 10
6.1
 20
24.83
 30
0.0
 11
16.1
 21
24.83
 31
0.0
  0
LINE
  5
135
330
1F
100
AcDbEntity
  8
SK3
  6
SLD-Dashed
370
    18
100
AcDbLine
 10
6.400000056
 20
20.13
 30
0.0
 11
15.8
 21
20.13
 31
0.0
  0
LINE
  5
136
330
1F
100
AcDbEntity
  8
SK3
  6
SLD-Dashed
370
    18
100
AcDbLine
 10
16.6269146287
 20
8.8714518524
 30
0.0
 11
16.5881613323
 21
9.2738168668
 31
0.0
  0
LINE
  5
137
330
1F
100
AcDbEntity
  8
SK3
  6
SLD-Dashed
370
    18
100
AcDbLine
 10
16.5881613323
 20
9.2738168668
 30
0.0
 11
16.6088299962
 21
9.6508998076
 31
0.0
  0
LINE
  5
138
330
1F
100
AcDbEntity
  8
SK3
  6
SLD-Dashed
370
    18
100
AcDbLine
 10
16.6088299962
 20
9.6508998076
 30
0.0
 11
16.6876219323
 21
9.9790071667
 31
0.0
  0
LINE
  5
139
330
1F
100
AcDbEntity
  8
SK3
  6
SLD-Dashed
370
    18
100
AcDbLine
 10
16.6876219323
 20
9.9790071667
 30
0.0
 11
16.8195863534
 21
10.2375227522
 31
0.0
  0
LINE
  5
13A
330
1F
100
AcDbEntity
  8
SK3
  6
SLD-Dashed
370
    18
100
AcDbLine
 10
16.8195863534
 20
10.2375227522
 30
0.0
 11
16.9964314497
 21
10.4102030789
 31
0.0
  0
LINE
  5
13B
330
1F
100
AcDbEntity
  8
SK3
  6
SLD-Dashed
370
    18
100
AcDbLine
 10
16.9964314497
 20
10.4102030789
 30
0.0
 11
17.2070453933
 21
10.486198007
 31
0.0
  0
LINE
  5
13C
330
1F
100
AcDbEntity
  8
SK3
  6
SLD-Dashed
370
    18
100
AcDbLine
 10
17.2070453933
 20
10.486198007
 30
0.0
 11
17.4381945356
 21
10.4607324955
 31
0.0
  0
LINE
  5
13D
330
1F
100
AcDbEntity
  8
SK3
  6
SLD-Dashed
370
    18
100
AcDbLine
 10
17.4381945356
 20
10.4607324955
 30
0.0
 11
17.6753549259
 21
10.3354066363
 31
0.0
  0
LINE
  5
13E
330
1F
100
AcDbEntity
  8
SK3
  6
SLD-Dashed
370
    18
100
AcDbLine
 10
17.6753549259
 20
10.3354066363
 30
0.0
 11
17.9036249046
 21
10.1180951139
 31
0.0
  0
LINE
  5
13F
330
1F
100
AcDbEntity
  8
SK3
  6
SLD-Dashed
370
    18
100
AcDbLine
 10
17.9036249046
 20
10.1180951139
 30
0.0
 11
18.1086614295
 21
9.8224524106
 31
0.0
  0
LINE
  5
140
330
1F
100
AcDbEntity
  8
SK3
  6
SLD-Dashed
370
    18
100
AcDbLine
 10
18.1086614295
 20
9.8224524106
 30
0.0
 11
18.2775813016
 21
9.4670548447
 31
0.0
  0
LINE
  5
141
330
1F
100
AcDbEntity
  8
SK3
  6
SLD-Dashed
370
    18
100
AcDbLine
 10
18.2775813016
 20
9.4670548447
 30
0.0
 11
18.3997706641
 21
9.0742333523
 31
0.0
  0
LINE
  5
142
330
1F
100
AcDbEntity
  8
SK3
  6
SLD-Dashed
370
    18
100
AcDbLine
 10
18.3997706641
 20
9.0742333523
 30
0.0
 11
18.46755191
 21
8.6686703525
 31
0.0
  0
LINE
  5
143
330
1F
100
AcDbEntity
  8
SK3
  6
SLD-Dashed
370
    18
100
AcDbLine
 10
18.46755191
 20
8.6686703525
 30
0.0
 11
18.4766660944
 21
8.2758488601
 31
0.0
  0
LINE
  5
144
330
1F
100
AcDbEntity
  8
SK3
  6
SLD-Dashed
370
    18
100
AcDbLine
 10
18.4766660944
 20
8.2758488601
 30
0.0
 11
18.4265405394
 21
7.9204512942
 31
0.0
  0
LINE
  5
145
330
1F
100
AcDbEntity
  8
SK3
  6
SLD-Dashed
370
    18
100
AcDbLine
 10
18.4265405394
 20
7.9204512942
 30
0.0
 11
18.3203248181
 21
7.6248085909
 31
0.0
  0
LINE
  5
146
330
1F
100
AcDbEntity
  8
SK3
  6
SLD-Dashed
370
    18
100
AcDbLine
 10
18.3203248181
 20
7.6248085909
 30
0.0
 11
18.1646928549
 21
7.4074970686
 31
0.0
  0
LINE
  5
147
330
1F
100
AcDbEntity
  8
SK3
  6
SLD-Dashed
370
    18
100
AcDbLine
 10
18.1646928549
 20
7.4074970686
 30
0.0
 11
17.9694235784
 21
7.2821712094
 31
0.0
  0
LINE
  5
148
330
1F
100
AcDbEntity
  8
SK3
  6
SLD-Dashed
370
    18
100
AcDbLine
 10
17.9694235784
 20
7.2821712094
 30
0.0
 11
17.7467864754
 21
7.2567056979
 31
0.0
  0
LINE
  5
149
330
1F
100
AcDbEntity
  8
SK3
  6
SLD-Dashed
370
    18
100
AcDbLine
 10
17.7467864754
 20
7.2567056979
 30
0.0
 11
17.5107706538
 21
7.3327006259
 31
0.0
  0
LINE
  5
14A
330
1F
100
AcDbEntity
  8
SK3
  6
SLD-Dashed
370
    18
100
AcDbLine
 10
17.5107706538
 20
7.3327006259
 30
0.0
 11
17.2762058558
 21
7.5053809527
 31
0.0
  0
LINE
  5
14B
330
1F
100
AcDbEntity
  8
SK3
  6
SLD-Dashed
370
    18
100
AcDbLine
 10
17.2762058558
 20
7.5053809527
 30
0.0
 11
17.0578306503
 21
7.7638965381
 31
0.0
  0
LINE
  5
14C
330
1F
100
AcDbEntity
  8
SK3
  6
SLD-Dashed
370
    18
100
AcDbLine
 10
17.0578306503
 20
7.7638965381
 30
0.0
 11
16.8693663545
 21
8.0920038972
 31
0.0
  0
LINE
  5
14D
330
1F
100
AcDbEntity
  8
SK3
  6
SLD-Dashed
370
    18
100
AcDbLine
 10
16.8693663545
 20
8.0920038972
 30
0.0
 11
16.7226548734
 21
8.469086838
 31
0.0
  0
LINE
  5
14E
330
1F
100
AcDbEntity
  8
SK3
  6
SLD-Dashed
370
    18
100
AcDbLine
 10
16.7226548734
 20
8.469086838
 30
0.0
 11
16.6269146287
 21
8.8714518524
 31
0.0
  0
LINE
  5
14F
330
1F
100
AcDbEntity
  8
SK3
  6
SLD-Dashed
370
    18
100
AcDbLine
 10
18.7047083759
 20
-22.785
 30
0.0
 11
3.545388845
 21
-22.785
 31
0.0
  0
LINE
  5
150
330
1F
100
AcDbEntity
  8
SK3
  6
SLD-Dashed
370
    18
100
AcDbLine
 10
3.545388845
 20
-22.41
 30
0.0
 11
18.7047083759
 21
-22.41
 31
0.0
  0
LINE
  5
151
330
1F
100
AcDbEntity
  8
SK3
  6
SLD-Dashed
370
    18
100
AcDbLine
 10
14.3760129465
 20
-30.2255814201
 30
0.0
 11
18.3
 21
-30.2255814201
 31
0.0
  0
LINE
  5
152
330
1F
100
AcDbEntity
  8
1
  6
SLD-Dashed
370
    18
100
AcDbLine
 10
12.28
 20
-26.9870635676
 30
0.0
 11
9.95
 21
-26.9870635676
 31
0.0
  0
LINE
  5
153
330
1F
100
AcDbEntity
  8
SK3
  6
SLD-Dashed
370
    18
100
AcDbLine
 10
3.95
 20
-30.2254693878
 30
0.0
 11
7.8540495334
 21
-30.2254693878
 31
0.0
  0
LINE
  5
154
330
1F
100
AcDbEntity
  8
SK3
  6
SLD-Dashed
370
    18
100
AcDbLine
 10
3.545388845
 20
-22.785
 30
0.0
 11
3.545388845
 21
-29.8048552742
 31
0.0
  0
LINE
  5
155
330
1F
100
AcDbEntity
  8
SK3
  6
SLD-Dashed
370
    18
100
AcDbLine
 10
18.7047083759
 20
-29.8048664484
 30
0.0
 11
18.7047083759
 21
-22.785
 31
0.0
  0
LINE
  5
156
330
1F
100
AcDbEntity
  8
SK3
  6
SLD-Dashed
370
    18
100
AcDbLine
 10
18.704611155
 20
25.5789825872
 30
0.0
 11
18.704611155
 21
29.8048552742
 31
0.0
  0
LINE
  5
157
330
1F
100
AcDbEntity
  8
SK3
  6
SLD-Dashed
370
    18
100
AcDbLine
 10
18.3
 20
30.2254693878
 30
0.0
 11
14.3759504666
 21
30.2254693878
 31
0.0
  0
LINE
  5
158
330
1F
100
AcDbEntity
  8
SK3
  6
SLD-Dashed
370
    18
100
AcDbLine
 10
3.5452916241
 20
29.8048664484
 30
0.0
 11
3.5452916241
 21
25.5791202528
 31
0.0
  0
LINE
  5
159
330
1F
100
AcDbEntity
  8
SK3
  6
SLD-Dashed
370
    18
100
AcDbLine
 10
7.8539870535
 20
30.2255814201
 30
0.0
 11
3.95
 21
30.2255814201
 31
0.0
  0
LINE
  5
15A
330
1F
100
AcDbEntity
  8
1
  6
SLD-Dashed
370
    18
100
AcDbLine
 10
12.28
 20
26.9870635676
 30
0.0
 11
9.95
 21
26.9870635676
 31
0.0
  0
LINE
  5
15B
330
1F
100
AcDbEntity
  8
SK3
  6
SLD-Dashed
370
    18
100
AcDbLine
 10
4.067532294
 20
8.9078631218
 30
0.0
 11
4.0305729264
 21
8.5035693866
 31
0.0
  0
LINE
  5
15C
330
1F
100
AcDbEntity
  8
SK3
  6
SLD-Dashed
370
    18
100
AcDbLine
 10
4.0305729264
 20
8.5035693866
 30
0.0
 11
4.0453757198
 21
8.1246789135
 31
0.0
  0
LINE
  5
15D
330
1F
100
AcDbEntity
  8
SK3
  6
SLD-Dashed
370
    18
100
AcDbLine
 10
4.0453757198
 20
8.1246789135
 30
0.0
 11
4.1110105603
 21
7.7949987847
 31
0.0
  0
LINE
  5
15E
330
1F
100
AcDbEntity
  8
SK3
  6
SLD-Dashed
370
    18
100
AcDbLine
 10
4.1110105603
 20
7.7949987847
 30
0.0
 11
4.2233533695
 21
7.535244015
 31
0.0
  0
LINE
  5
15F
330
1F
100
AcDbEntity
  8
SK3
  6
SLD-Dashed
370
    18
100
AcDbLine
 10
4.2233533695
 20
7.535244015
 30
0.0
 11
4.3753452356
 21
7.3617359519
 31
0.0
  0
LINE
  5
160
330
1F
100
AcDbEntity
  8
SK3
  6
SLD-Dashed
370
    18
100
AcDbLine
 10
4.3753452356
 20
7.3617359519
 30
0.0
 11
4.5574359504
 21
7.2853767451
 31
0.0
  0
LINE
  5
161
330
1F
100
AcDbEntity
  8
SK3
  6
SLD-Dashed
370
    18
100
AcDbLine
 10
4.5574359504
 20
7.2853767451
 30
0.0
 11
4.7581840849
 21
7.3109643245
 31
0.0
  0
LINE
  5
162
330
1F
100
AcDbEntity
  8
SK3
  6
SLD-Dashed
370
    18
100
AcDbLine
 10
4.7581840849
 20
7.3109643245
 30
0.0
 11
4.9649758954
 21
7.4368909283
 31
0.0
  0
LINE
  5
163
330
1F
100
AcDbEntity
  8
SK3
  6
SLD-Dashed
370
    18
100
AcDbLine
 10
4.9649758954
 20
7.4368909283
 30
0.0
 11
5.1648178918
 21
7.6552441249
 31
0.0
  0
LINE
  5
164
330
1F
100
AcDbEntity
  8
SK3
  6
SLD-Dashed
370
    18
100
AcDbLine
 10
5.1648178918
 20
7.6552441249
 30
0.0
 11
5.3451532667
 21
7.9523039799
 31
0.0
  0
LINE
  5
165
330
1F
100
AcDbEntity
  8
SK3
  6
SLD-Dashed
370
    18
100
AcDbLine
 10
5.3451532667
 20
7.9523039799
 30
0.0
 11
5.4946508852
 21
8.30940513
 31
0.0
  0
LINE
  5
166
330
1F
100
AcDbEntity
  8
SK3
  6
SLD-Dashed
370
    18
100
AcDbLine
 10
5.4946508852
 20
8.30940513
 30
0.0
 11
5.6039172621
 21
8.7041095968
 31
0.0
  0
LINE
  5
167
330
1F
100
AcDbEntity
  8
SK3
  6
SLD-Dashed
370
    18
100
AcDbLine
 10
5.6039172621
 20
8.7041095968
 30
0.0
 11
5.666086789
 21
9.1116166469
 31
0.0
  0
LINE
  5
168
330
1F
100
AcDbEntity
  8
SK3
  6
SLD-Dashed
370
    18
100
AcDbLine
 10
5.666086789
 20
9.1116166469
 30
0.0
 11
5.677253126
 21
9.5063211136
 31
0.0
  0
LINE
  5
169
330
1F
100
AcDbEntity
  8
SK3
  6
SLD-Dashed
370
    18
100
AcDbLine
 10
5.677253126
 20
9.5063211136
 30
0.0
 11
5.636714651
 21
9.8634222638
 31
0.0
  0
LINE
  5
16A
330
1F
100
AcDbEntity
  8
SK3
  6
SLD-Dashed
370
    18
100
AcDbLine
 10
5.636714651
 20
9.8634222638
 30
0.0
 11
5.5470185456
 21
10.1604821188
 31
0.0
  0
LINE
  5
16B
330
1F
100
AcDbEntity
  8
SK3
  6
SLD-Dashed
370
    18
100
AcDbLine
 10
5.5470185456
 20
10.1604821188
 30
0.0
 11
5.4138007459
 21
10.3788353153
 31
0.0
  0
LINE
  5
16C
330
1F
100
AcDbEntity
  8
SK3
  6
SLD-Dashed
370
    18
100
AcDbLine
 10
5.4138007459
 20
10.3788353153
 30
0.0
 11
5.2454318161
 21
10.5047619191
 31
0.0
  0
LINE
  5
16D
330
1F
100
AcDbEntity
  8
SK3
  6
SLD-Dashed
370
    18
100
AcDbLine
 10
5.2454318161
 20
10.5047619191
 30
0.0
 11
5.0524909954
 21
10.5303494985
 31
0.0
  0
LINE
  5
16E
330
1F
100
AcDbEntity
  8
SK3
  6
SLD-Dashed
370
    18
100
AcDbLine
 10
5.0524909954
 20
10.5303494985
 30
0.0
 11
4.8471014652
 21
10.4539902918
 31
0.0
  0
LINE
  5
16F
330
1F
100
AcDbEntity
  8
SK3
  6
SLD-Dashed
370
    18
100
AcDbLine
 10
4.8471014652
 20
10.4539902918
 30
0.0
 11
4.6421686049
 21
10.2804822287
 31
0.0
  0
LINE
  5
170
330
1F
100
AcDbEntity
  8
SK3
  6
SLD-Dashed
370
    18
100
AcDbLine
 10
4.6421686049
 20
10.2804822287
 30
0.0
 11
4.4505690999
 21
10.020727459
 31
0.0
  0
LINE
  5
171
330
1F
100
AcDbEntity
  8
SK3
  6
SLD-Dashed
370
    18
100
AcDbLine
 10
4.4505690999
 20
10.020727459
 30
0.0
 11
4.2843418517
 21
9.6910473301
 31
0.0
  0
LINE
  5
172
330
1F
100
AcDbEntity
  8
SK3
  6
SLD-Dashed
370
    18
100
AcDbLine
 10
4.2843418517
 20
9.6910473301
 30
0.0
 11
4.1539315297
 21
9.3121568571
 31
0.0
  0
LINE
  5
173
330
1F
100
AcDbEntity
  8
SK3
  6
SLD-Dashed
370
    18
100
AcDbLine
 10
4.1539315297
 20
9.3121568571
 30
0.0
 11
4.067532294
 21
8.9078631218
 31
0.0
  0
LINE
  5
174
330
1F
100
AcDbEntity
  8
SK3
  6
SLD-Dashed
370
    18
100
AcDbLine
 10
19.05
 20
6.6488143213
 30
0.0
 11
18.8161847139
 21
6.4760896069
 31
0.0
  0
LINE
  5
175
330
1F
100
AcDbEntity
  8
SK3
  6
SLD-Dashed
370
    18
100
AcDbLine
 10
18.8161847139
 20
6.4760896069
 30
0.0
 11
18.5531822006
 21
6.396203884
 31
0.0
  0
LINE
  5
176
330
1F
100
AcDbEntity
  8
SK3
  6
SLD-Dashed
370
    18
100
AcDbLine
 10
18.5531822006
 20
6.396203884
 30
0.0
 11
18.2707077792
 21
6.4121081331
 31
0.0
  0
LINE
  5
177
330
1F
100
AcDbEntity
  8
SK3
  6
SLD-Dashed
370
    18
100
AcDbLine
 10
18.2707077792
 20
6.4121081331
 30
0.0
 11
17.9791960612
 21
6.5232148508
 31
0.0
  0
LINE
  5
178
330
1F
100
AcDbEntity
  8
SK3
  6
SLD-Dashed
370
    18
100
AcDbLine
 10
17.9791960612
 20
6.5232148508
 30
0.0
 11
17.689415496
 21
6.7254197524
 31
0.0
  0
LINE
  5
179
330
1F
100
AcDbEntity
  8
SK3
  6
SLD-Dashed
370
    18
100
AcDbLine
 10
17.689415496
 20
6.7254197524
 30
0.0
 11
17.4120705846
 21
7.0112533843
 31
0.0
  0
LINE
  5
17A
330
1F
100
AcDbEntity
  8
SK3
  6
SLD-Dashed
370
    18
100
AcDbLine
 10
17.4120705846
 20
7.0112533843
 30
0.0
 11
17.1574064541
 21
7.3701570454
 31
0.0
  0
LINE
  5
17B
330
1F
100
AcDbEntity
  8
SK3
  6
SLD-Dashed
370
    18
100
AcDbLine
 10
17.1574064541
 20
7.3701570454
 30
0.0
 11
16.9348304035
 21
7.7888728264
 31
0.0
  0
LINE
  5
17C
330
1F
100
AcDbEntity
  8
SK3
  6
SLD-Dashed
370
    18
100
AcDbLine
 10
16.9348304035
 20
7.7888728264
 30
0.0
 11
16.7525643972
 21
8.2519333568
 31
0.0
  0
LINE
  5
17D
330
1F
100
AcDbEntity
  8
SK3
  6
SLD-Dashed
370
    18
100
AcDbLine
 10
16.7525643972
 20
8.2519333568
 30
0.0
 11
16.6173413455
 21
8.7422331698
 31
0.0
  0
LINE
  5
17E
330
1F
100
AcDbEntity
  8
SK3
  6
SLD-Dashed
370
    18
100
AcDbLine
 10
16.6173413455
 20
8.7422331698
 30
0.0
 11
16.5341563912
 21
9.2416605792
 31
0.0
  0
LINE
  5
17F
330
1F
100
AcDbEntity
  8
SK3
  6
SLD-Dashed
370
    18
100
AcDbLine
 10
16.5341563912
 20
9.2416605792
 30
0.0
 11
16.5060823883
 21
9.731766725
 31
0.0
  0
LINE
  5
180
330
1F
100
AcDbEntity
  8
SK3
  6
SLD-Dashed
370
    18
100
AcDbLine
 10
16.5060823883
 20
9.731766725
 30
0.0
 11
16.5341563912
 21
10.194447075
 31
0.0
  0
LINE
  5
181
330
1F
100
AcDbEntity
  8
SK3
  6
SLD-Dashed
370
    18
100
AcDbLine
 10
16.5341563912
 20
10.194447075
 30
0.0
 11
16.6173413455
 21
10.6126102065
 31
0.0
  0
LINE
  5
182
330
1F
100
AcDbEntity
  8
SK3
  6
SLD-Dashed
370
    18
100
AcDbLine
 10
16.6173413455
 20
10.6126102065
 30
0.0
 11
16.7525643972
 21
10.9708091637
 31
0.0
  0
LINE
  5
183
330
1F
100
AcDbEntity
  8
SK3
  6
SLD-Dashed
370
    18
100
AcDbLine
 10
16.7525643972
 20
10.9708091637
 30
0.0
 11
16.9348304035
 21
11.2558120691
 31
0.0
  0
LINE
  5
184
330
1F
100
AcDbEntity
  8
SK3
  6
SLD-Dashed
370
    18
100
AcDbLine
 10
16.9348304035
 20
11.2558120691
 30
0.0
 11
17.1574064541
 21
11.4570909087
 31
0.0
  0
LINE
  5
185
330
1F
100
AcDbEntity
  8
SK3
  6
SLD-Dashed
370
    18
100
AcDbLine
 10
17.1574064541
 20
11.4570909087
 30
0.0
 11
17.4120705846
 21
11.5672104376
 31
0.0
  0
LINE
  5
186
330
1F
100
AcDbEntity
  8
SK3
  6
SLD-Dashed
370
    18
100
AcDbLine
 10
17.4120705846
 20
11.5672104376
 30
0.0
 11
17.689415496
 21
11.5821028379
 31
0.0
  0
LINE
  5
187
330
1F
100
AcDbEntity
  8
SK3
  6
SLD-Dashed
370
    18
100
AcDbLine
 10
17.689415496
 20
11.5821028379
 30
0.0
 11
17.9791960612
 21
11.5012179839
 31
0.0
  0
LINE
  5
188
330
1F
100
AcDbEntity
  8
SK3
  6
SLD-Dashed
370
    18
100
AcDbLine
 10
17.9791960612
 20
11.5012179839
 30
0.0
 11
18.2707077792
 21
11.3275437641
 31
0.0
  0
LINE
  5
189
330
1F
100
AcDbEntity
  8
SK3
  6
SLD-Dashed
370
    18
100
AcDbLine
 10
18.2707077792
 20
11.3275437641
 30
0.0
 11
18.5531822006
 21
11.0674957081
 31
0.0
  0
LINE
  5
18A
330
1F
100
AcDbEntity
  8
SK3
  6
SLD-Dashed
370
    18
100
AcDbLine
 10
18.5531822006
 20
11.0674957081
 30
0.0
 11
18.8161847139
 21
10.730679997
 31
0.0
  0
LINE
  5
18B
330
1F
100
AcDbEntity
  8
SK3
  6
SLD-Dashed
370
    18
100
AcDbLine
 10
18.8161847139
 20
10.730679997
 30
0.0
 11
19.05
 21
10.329538611
 31
0.0
  0
LINE
  5
18C
330
1F
100
AcDbEntity
  8
SK3
  6
SLD-Dashed
370
    18
100
AcDbLine
 10
19.05
 20
6.511218589
 30
0.0
 11
19.05
 21
10.329538611
 31
0.0
  0
LINE
  5
18D
330
1F
100
AcDbEntity
  8
SK3
  6
SLD-Dashed
370
    18
100
AcDbLine
 10
3.718501261
 20
8.943826748
 30
0.0
 11
3.8093092693
 21
9.382312829
 31
0.0
  0
LINE
  5
18E
330
1F
100
AcDbEntity
  8
SK3
  6
SLD-Dashed
370
    18
100
AcDbLine
 10
3.8093092693
 20
9.382312829
 30
0.0
 11
3.9433883876
 21
9.798811387
 31
0.0
  0
LINE
  5
18F
330
1F
100
AcDbEntity
  8
SK3
  6
SLD-Dashed
370
    18
100
AcDbLine
 10
3.9433883876
 20
9.798811387
 30
0.0
 11
4.1140153288
 21
10.1724374451
 31
0.0
  0
LINE
  5
190
330
1F
100
AcDbEntity
  8
SK3
  6
SLD-Dashed
370
    18
100
AcDbLine
 10
4.1140153288
 20
10.1724374451
 30
0.0
 11
4.3126341459
 21
10.4844558326
 31
0.0
  0
LINE
  5
191
330
1F
100
AcDbEntity
  8
SK3
  6
SLD-Dashed
370
    18
100
AcDbLine
 10
4.3126341459
 20
10.4844558326
 30
0.0
 11
4.5292852618
 21
10.7192206447
 31
0.0
  0
LINE
  5
192
330
1F
100
AcDbEntity
  8
SK3
  6
SLD-Dashed
370
    18
100
AcDbLine
 10
4.5292852618
 20
10.7192206447
 30
0.0
 11
4.7531048849
 21
10.8649597934
 31
0.0
  0
LINE
  5
193
330
1F
100
AcDbEntity
  8
SK3
  6
SLD-Dashed
370
    18
100
AcDbLine
 10
4.7531048849
 20
10.8649597934
 30
0.0
 11
4.9728697649
 21
10.9143653093
 31
0.0
  0
LINE
  5
194
330
1F
100
AcDbEntity
  8
SK3
  6
SLD-Dashed
370
    18
100
AcDbLine
 10
4.9728697649
 20
10.9143653093
 30
0.0
 11
5.1775599729
 21
10.8649597934
 31
0.0
  0
LINE
  5
195
330
1F
100
AcDbEntity
  8
SK3
  6
SLD-Dashed
370
    18
100
AcDbLine
 10
5.1775599729
 20
10.8649597934
 30
0.0
 11
5.3569114873
 21
10.7192206447
 31
0.0
  0
LINE
  5
196
330
1F
100
AcDbEntity
  8
SK3
  6
SLD-Dashed
370
    18
100
AcDbLine
 10
5.3569114873
 20
10.7192206447
 30
0.0
 11
5.5019308741
 21
10.4844558326
 31
0.0
  0
LINE
  5
197
330
1F
100
AcDbEntity
  8
SK3
  6
SLD-Dashed
370
    18
100
AcDbLine
 10
5.5019308741
 20
10.4844558326
 30
0.0
 11
5.6053462557
 21
10.1724374451
 31
0.0
  0
LINE
  5
198
330
1F
100
AcDbEntity
  8
SK3
  6
SLD-Dashed
370
    18
100
AcDbLine
 10
5.6053462557
 20
10.1724374451
 30
0.0
 11
5.6619719532
 21
9.798811387
 31
0.0
  0
LINE
  5
199
330
1F
100
AcDbEntity
  8
SK3
  6
SLD-Dashed
370
    18
100
AcDbLine
 10
5.6619719532
 20
9.798811387
 30
0.0
 11
5.6689685176
 21
9.382312829
 31
0.0
  0
LINE
  5
19A
330
1F
100
AcDbEntity
  8
SK3
  6
SLD-Dashed
370
    18
100
AcDbLine
 10
5.6689685176
 20
9.382312829
 30
0.0
 11
5.6259851119
 21
8.943826748
 31
0.0
  0
LINE
  5
19B
330
1F
100
AcDbEntity
  8
SK3
  6
SLD-Dashed
370
    18
100
AcDbLine
 10
5.6259851119
 20
8.943826748
 30
0.0
 11
5.5351771035
 21
8.5053406669
 31
0.0
  0
LINE
  5
19C
330
1F
100
AcDbEntity
  8
SK3
  6
SLD-Dashed
370
    18
100
AcDbLine
 10
5.5351771035
 20
8.5053406669
 30
0.0
 11
5.4010979853
 21
8.0888421089
 31
0.0
  0
LINE
  5
19D
330
1F
100
AcDbEntity
  8
SK3
  6
SLD-Dashed
370
    18
100
AcDbLine
 10
5.4010979853
 20
8.0888421089
 30
0.0
 11
5.230471044
 21
7.7152160508
 31
0.0
  0
LINE
  5
19E
330
1F
100
AcDbEntity
  8
SK3
  6
SLD-Dashed
370
    18
100
AcDbLine
 10
5.230471044
 20
7.7152160508
 30
0.0
 11
5.031852227
 21
7.4031976633
 31
0.0
  0
LINE
  5
19F
330
1F
100
AcDbEntity
  8
SK3
  6
SLD-Dashed
370
    18
100
AcDbLine
 10
5.031852227
 20
7.4031976633
 30
0.0
 11
4.8152011111
 21
7.1684328512
 31
0.0
  0
LINE
  5
1A0
330
1F
100
AcDbEntity
  8
SK3
  6
SLD-Dashed
370
    18
100
AcDbLine
 10
4.8152011111
 20
7.1684328512
 30
0.0
 11
4.5913814879
 21
7.0226937025
 31
0.0
  0
LINE
  5
1A1
330
1F
100
AcDbEntity
  8
SK3
  6
SLD-Dashed
370
    18
100
AcDbLine
 10
4.5913814879
 20
7.0226937025
 30
0.0
 11
4.371616608
 21
6.9732881867
 31
0.0
  0
LINE
  5
1A2
330
1F
100
AcDbEntity
  8
SK3
  6
SLD-Dashed
370
    18
100
AcDbLine
 10
4.371616608
 20
6.9732881867
 30
0.0
 11
4.1669263999
 21
7.0226937025
 31
0.0
  0
LINE
  5
1A3
330
1F
100
AcDbEntity
  8
SK3
  6
SLD-Dashed
370
    18
100
AcDbLine
 10
4.1669263999
 20
7.0226937025
 30
0.0
 11
3.9875748856
 21
7.1684328512
 31
0.0
  0
LINE
  5
1A4
330
1F
100
AcDbEntity
  8
SK3
  6
SLD-Dashed
370
    18
100
AcDbLine
 10
3.9875748856
 20
7.1684328512
 30
0.0
 11
3.8425554988
 21
7.4031976633
 31
0.0
  0
LINE
  5
1A5
330
1F
100
AcDbEntity
  8
SK3
  6
SLD-Dashed
370
    18
100
AcDbLine
 10
3.8425554988
 20
7.4031976633
 30
0.0
 11
3.7391401171
 21
7.7152160508
 31
0.0
  0
LINE
  5
1A6
330
1F
100
AcDbEntity
  8
SK3
  6
SLD-Dashed
370
    18
100
AcDbLine
 10
3.7391401171
 20
7.7152160508
 30
0.0
 11
3.6825144197
 21
8.0888421089
 31
0.0
  0
LINE
  5
1A7
330
1F
100
AcDbEntity
  8
SK3
  6
SLD-Dashed
370
    18
100
AcDbLine
 10
3.6825144197
 20
8.0888421089
 30
0.0
 11
3.6755178553
 21
8.5053406669
 31
0.0
  0
LINE
  5
1A8
330
1F
100
AcDbEntity
  8
SK3
  6
SLD-Dashed
370
    18
100
AcDbLine
 10
3.6755178553
 20
8.5053406669
 30
0.0
 11
3.718501261
 21
8.943826748
 31
0.0
  0
LINE
  5
1A9
330
1F
100
AcDbEntity
  8
SK3
  6
SLD-Dashed
370
    18
100
AcDbLine
 10
19.05
 20
-6.5096104434
 30
0.0
 11
18.6432434604
 21
-6.4121983199
 31
0.0
  0
LINE
  5
1AA
330
1F
100
AcDbEntity
  8
SK3
  6
SLD-Dashed
370
    18
100
AcDbLine
 10
17.4088764289
 20
-11.5664526822
 30
0.0
 11
17.4120705846
 21
-11.5672104376
 31
0.0
  0
LINE
  5
1AB
330
1F
100
AcDbEntity
  8
SK3
  6
SLD-Dashed
370
    18
100
AcDbLine
 10
5.6686603003
 20
-9.6930495818
 30
0.0
 11
5.6764135015
 21
-9.5259719598
 31
0.0
  0
LINE
  5
1AC
330
1F
100
AcDbEntity
  8
SK3
  6
SLD-Dashed
370
    18
100
AcDbLine
 10
5.3797631594
 20
-8.0236818914
 30
0.0
 11
5.3090841282
 21
-7.8720919232
 31
0.0
  0
LINE
  5
1AD
330
1F
100
AcDbEntity
  8
SK3
  6
SLD-Dashed
370
    18
100
AcDbLine
 10
5.1740150157
 20
-10.5266054328
 30
0.0
 11
11.8540498232
 21
-9.2075295417
 31
0.0
  0
LINE
  5
1AE
330
1F
100
AcDbEntity
  8
SK3
  6
SLD-Dashed
370
    18
100
AcDbLine
 10
10.6984231028
 20
-6.0720033181
 30
0.0
 11
4.5347237493
 21
-7.2891208109
 31
0.0
  0
LINE
  5
1AF
330
1F
100
AcDbEntity
  8
SK3
  6
SLD-Dashed
370
    18
100
AcDbLine
 10
17.9181478161
 20
-7.2668254943
 30
0.0
 11
-6.9356645386
 21
-1.3147081902
 31
0.0
  0
LINE
  5
1B0
330
1F
100
AcDbEntity
  8
SK3
  6
SLD-Dashed
370
    18
100
AcDbLine
 10
11.8524626917
 20
-9.2074977149
 30
0.0
 11
17.1495796644
 21
-10.4760782105
 31
0.0
  0
LINE
  5
1B1
330
1F
100
AcDbEntity
  8
SK3
  6
SLD-Dashed
370
    18
100
AcDbLine
 10
-9.2558632992
 20
-4.1523685219
 30
0.0
 11
3.235163249
 21
-7.1437830463
 31
0.0
  0
LINE
  5
1B2
330
1F
100
AcDbEntity
  8
SK3
  6
SLD-Dashed
370
    18
100
AcDbLine
 10
-68.25
 20
-9.14
 30
0.0
 11
-66.6824940192
 21
-8.235
 31
0.0
  0
LINE
  5
1B3
330
1F
100
AcDbEntity
  8
SK3
  6
SLD-Dashed
370
    18
100
AcDbLine
 10
-66.6824940192
 20
8.235
 30
0.0
 11
-68.25
 21
9.14
 31
0.0
  0
LINE
  5
1B4
330
1F
100
AcDbEntity
  8
SK3
  6
SLD-Dashed
370
    18
100
AcDbLine
 10
44.45
 20
8.5148502692
 30
0.0
 11
43.45
 21
7.9375
 31
0.0
  0
LINE
  5
1B5
330
1F
100
AcDbEntity
  8
SK3
  6
SLD-Dashed
370
    18
100
AcDbLine
 10
43.45
 20
-7.9375
 30
0.0
 11
44.45
 21
-8.5148502692
 31
0.0
  0
LINE
  5
1B6
330
1F
100
AcDbEntity
  8
SK3
  6
SLD-Dashed
370
    18
100
AcDbLine
 10
-66.6824940192
 20
-8.235
 30
0.0
 11
-63.48
 21
-8.235
 31
0.0
  0
LINE
  5
1B7
330
1F
100
AcDbEntity
  8
SK3
  6
SLD-Dashed
370
    18
100
AcDbLine
 10
-63.48
 20
8.235
 30
0.0
 11
-66.6824940192
 21
8.235
 31
0.0
  0
LINE
  5
1B8
330
1F
100
AcDbEntity
  8
SK3
  6
SLD-Dashed
370
    18
100
AcDbLine
 10
-63.48
 20
-8.235
 30
0.0
 11
-62.6204640132
 21
-6.74624
 31
0.0
  0
LINE
  5
1B9
330
1F
100
AcDbEntity
  8
SK3
  6
SLD-Dashed
370
    18
100
AcDbLine
 10
-62.6204640132
 20
6.74624
 30
0.0
 11
-63.48
 21
8.235
 31
0.0
  0
LINE
  5
1BA
330
1F
100
AcDbEntity
  8
SK3
  6
SLD-Dashed
370
    18
100
AcDbLine
 10
-12.25
 20
-8.13
 30
0.0
 11
-3.5
 21
-8.13
 31
0.0
  0
LINE
  5
1BB
330
1F
100
AcDbEntity
  8
SK3
  6
SLD-Dashed
370
    18
100
AcDbLine
 10
-3.5
 20
8.13
 30
0.0
 11
-12.25
 21
8.13
 31
0.0
  0
LINE
  5
1BC
330
1F
100
AcDbEntity
  8
SK3
  6
SLD-Dashed
370
    18
100
AcDbLine
 10
43.45
 20
7.9375
 30
0.0
 11
-3.3001406745
 21
7.9375
 31
0.0
  0
LINE
  5
1BD
330
1F
100
AcDbEntity
  8
SK3
  6
SLD-Dashed
370
    18
100
AcDbLine
 10
28.6004
 20
-7.9375
 30
0.0
 11
43.45
 21
-7.9375
 31
0.0
  0
LINE
  5
1BE
330
1F
100
AcDbEntity
  8
SK3
  6
SLD-Dashed
370
    18
100
AcDbLine
 10
-3.3001406745
 20
-7.9375
 30
0.0
 11
15.8623197252
 21
-7.9375
 31
0.0
  0
LINE
  5
1BF
330
1F
100
AcDbEntity
  8
SK3
  6
SLD-Dashed
370
    18
100
AcDbLine
 10
-12.4498593255
 20
7.9375
 30
0.0
 11
-15.45
 21
7.9375
 31
0.0
  0
LINE
  5
1C0
330
1F
100
AcDbEntity
  8
SK3
  6
SLD-Dashed
370
    18
100
AcDbLine
 10
-15.45
 20
-7.9375
 30
0.0
 11
-12.4498593255
 21
-7.9375
 31
0.0
  0
LINE
  5
1C1
330
1F
100
AcDbEntity
  8
SK3
  6
SLD-Dashed
370
    18
100
AcDbLine
 10
-15.45
 20
7.9375
 30
0.0
 11
-16.165781221
 21
6.74624
 31
0.0
  0
LINE
  5
1C2
330
1F
100
AcDbEntity
  8
SK3
  6
SLD-Dashed
370
    18
100
AcDbLine
 10
-16.165781221
 20
-6.74624
 30
0.0
 11
-15.45
 21
-7.9375
 31
0.0
  0
LINE
  5
1C3
330
1F
100
AcDbEntity
  8
SK3
  6
SLD-Dashed
370
    18
100
AcDbLine
 10
29.975
 20
-22.2197617719
 30
0.0
 11
29.975
 21
-20.725
 31
0.0
  0
LINE
  5
1C4
330
1F
100
AcDbEntity
  8
SK3
  6
SLD-Dashed
370
    18
100
AcDbLine
 10
14.475
 20
-20.725
 30
0.0
 11
14.475
 21
-22.41
 31
0.0
  0
LINE
  5
1C5
330
1F
100
AcDbEntity
  8
SK3
  6
SLD-Dashed
370
    18
100
AcDbLine
 10
-62.6204640132
 20
-6.74624
 30
0.0
 11
-16.165781221
 21
-6.74624
 31
0.0
  0
LINE
  5
1C6
330
1F
100
AcDbEntity
  8
SK3
  6
SLD-Dashed
370
    18
100
AcDbLine
 10
-16.165781221
 20
6.74624
 30
0.0
 11
-62.6204640132
 21
6.74624
 31
0.0
  0
LINE
  5
1C7
330
1F
100
AcDbEntity
  8
SK3
  6
SLD-Dashed
370
    18
100
AcDbLine
 10
28.6004
 20
-20.725
 30
0.0
 11
28.6004
 21
-7.9375
 31
0.0
  0
LINE
  5
1C8
330
1F
100
AcDbEntity
  8
SK3
  6
SLD-Dashed
370
    18
100
AcDbLine
 10
15.8496
 20
-7.9272961207
 30
0.0
 11
15.8496
 21
-20.725
 31
0.0
  0
LINE
  5
1C9
330
1F
100
AcDbEntity
  8
SK3
  6
SLD-Dashed
370
    18
100
AcDbLine
 10
6.1
 20
24.83
 30
0.0
 11
6.1
 21
20.43
 31
0.0
  0
LINE
  5
1CA
330
1F
100
AcDbEntity
  8
SK3
  6
SLD-Dashed
370
    18
100
AcDbLine
 10
16.1
 20
20.43
 30
0.0
 11
16.1
 21
24.83
 31
0.0
  0
LINE
  5
1CB
330
1F
100
AcDbEntity
  8
SK3
  6
SLD-Dashed
370
    18
100
AcDbLine
 10
10.6413630082
 20
8.9174574072
 30
0.0
 11
-9.2611386931
 21
4.1511051438
 31
0.0
  0
LINE
  5
1CC
330
1F
100
AcDbEntity
  8
SK3
  6
SLD-Dashed
370
    18
100
AcDbLine
 10
17.1495796644
 20
10.4760782105
 30
0.0
 11
11.8524626917
 21
9.2074977149
 31
0.0
  0
LINE
  5
1CD
330
1F
100
AcDbEntity
  8
SK3
  6
SLD-Dashed
370
    18
100
AcDbLine
 10
-6.9350351937
 20
1.314858909
 30
0.0
 11
17.9181478161
 21
7.2668254943
 31
0.0
  0
LINE
  5
1CE
330
1F
100
AcDbEntity
  8
SK3
  6
SLD-Dashed
370
    18
100
AcDbLine
 10
4.5347237493
 20
7.2891208109
 30
0.0
 11
10.6984231028
 21
6.0720033181
 31
0.0
  0
LINE
  5
1CF
330
1F
100
AcDbEntity
  8
SK3
  6
SLD-Dashed
370
    18
100
AcDbLine
 10
11.8540498232
 20
9.2075295417
 30
0.0
 11
5.1740150157
 21
10.5266054328
 31
0.0
  0
LINE
  5
1D0
330
1F
100
AcDbEntity
  8
SK3
  6
SLD-Dashed
370
    18
100
AcDbLine
 10
17.612493348
 20
11.6152158969
 30
0.0
 11
17.4088764289
 21
11.5664526822
 31
0.0
  0
LINE
  5
1D1
330
1F
100
AcDbEntity
  8
SK3
  6
SLD-Dashed
370
    18
100
AcDbLine
 10
18.6432434604
 20
6.4121983199
 30
0.0
 11
19.05
 21
6.5096104434
 31
0.0
  0
LINE
  5
1D2
330
1F
100
AcDbEntity
  8
SK3
  6
SLD-Dashed
370
    18
100
AcDbLine
 10
5.3090841282
 20
7.8720919232
 30
0.0
 11
5.3797631594
 21
8.0236818914
 31
0.0
  0
LINE
  5
1D3
330
1F
100
AcDbEntity
  8
SK3
  6
SLD-Dashed
370
    18
100
AcDbLine
 10
5.6764135015
 20
9.5259719598
 30
0.0
 11
5.6686603003
 21
9.6930495818
 31
0.0
  0
LINE
  5
1D4
330
1F
100
AcDbEntity
  8
SK3
  6
SLD-Solid
370
    18
100
AcDbLine
 10
-38.2499992847
 20
7.9375002533
 30
0.0
 11
-63.3082389832
 21
7.9375002533
 31
0.0
  0
LINE
  5
1D5
330
1F
100
AcDbEntity
  8
SK3
  6
SLD-Solid
370
    18
100
AcDbLine
 10
-63.3082389832
 20
-7.9375002533
 30
0.0
 11
-38.2499992847
 21
-7.9375002533
 31
0.0
  0
LINE
  5
1D6
330
1F
100
AcDbEntity
  8
SK3
  6
SLD-Solid
370
    18
100
AcDbLine
 10
-38.2499992847
 20
0.0
 30
0.0
 11
-38.2499992847
 21
-1.0808227817
 31
0.0
  0
LINE
  5
1D7
330
1F
100
AcDbEntity
  8
SK3
  6
SLD-Solid
370
    18
100
AcDbLine
 10
-38.2499992847
 20
0.0
 30
0.0
 11
-38.2499992847
 21
-1.0808227817
 31
0.0
  0
LINE
  5
1D8
330
1F
100
AcDbEntity
  8
SK3
  6
SLD-Solid
370
    18
100
AcDbLine
 10
-38.2500130882
 20
-1.0808227817
 30
0.0
 11
-38.2499992847
 21
-2.1415117662
 31
0.0
  0
LINE
  5
1D9
330
1F
100
AcDbEntity
  8
SK3
  6
SLD-Solid
370
    18
100
AcDbLine
 10
-38.2499992847
 20
-2.1415117662
 30
0.0
 11
-38.2499992847
 21
-3.1623085961
 31
0.0
  0
LINE
  5
1DA
330
1F
100
AcDbEntity
  8
SK3
  6
SLD-Solid
370
    18
100
AcDbLine
 10
-38.2499992847
 20
-3.1623085961
 30
0.0
 11
-38.2499992847
 21
-4.1241976433
 31
0.0
  0
LINE
  5
1DB
330
1F
100
AcDbEntity
  8
SK3
  6
SLD-Solid
370
    18
100
AcDbLine
 10
-38.2499992847
 20
-4.1241976433
 30
0.0
 11
-38.2499992847
 21
-5.0092604943
 31
0.0
  0
LINE
  5
1DC
330
1F
100
AcDbEntity
  8
SK3
  6
SLD-Solid
370
    18
100
AcDbLine
 10
-38.2499992847
 20
-5.0092604943
 30
0.0
 11
-38.2499992847
 21
-5.8010104112
 31
0.0
  0
LINE
  5
1DD
330
1F
100
AcDbEntity
  8
SK3
  6
SLD-Solid
370
    18
100
AcDbLine
 10
-38.2499992847
 20
-5.8010104112
 30
0.0
 11
-38.2499992847
 21
-6.4846985042
 31
0.0
  0
LINE
  5
1DE
330
1F
100
AcDbEntity
  8
SK3
  6
SLD-Solid
370
    18
100
AcDbLine
 10
-38.2499992847
 20
-6.4846985042
 30
0.0
 11
-38.2499992847
 21
-7.047588937
 31
0.0
  0
LINE
  5
1DF
330
1F
100
AcDbEntity
  8
SK3
  6
SLD-Solid
370
    18
100
AcDbLine
 10
-38.2499992847
 20
-7.047588937
 30
0.0
 11
-38.2499992847
 21
-7.4791959487
 31
0.0
  0
LINE
  5
1E0
330
1F
100
AcDbEntity
  8
SK3
  6
SLD-Solid
370
    18
100
AcDbLine
 10
-38.2499992847
 20
-7.4791959487
 30
0.0
 11
-38.2499992847
 21
-7.7714798972
 31
0.0
  0
LINE
  5
1E1
330
1F
100
AcDbEntity
  8
SK3
  6
SLD-Solid
370
    18
100
AcDbLine
 10
-38.2499992847
 20
-7.7714798972
 30
0.0
 11
-38.2499992847
 21
-7.9189958051
 31
0.0
  0
LINE
  5
1E2
330
1F
100
AcDbEntity
  8
SK3
  6
SLD-Solid
370
    18
100
AcDbLine
 10
-38.2499992847
 20
-7.9189958051
 30
0.0
 11
-38.2499992847
 21
-7.9375002533
 31
0.0
  0
LINE
  5
1E3
330
1F
100
AcDbEntity
  8
SK3
  6
SLD-Solid
370
    18
100
AcDbLine
 10
-38.2500130882
 20
7.9375002533
 30
0.0
 11
-38.2499992847
 21
7.9189958051
 31
0.0
  0
LINE
  5
1E4
330
1F
100
AcDbEntity
  8
SK3
  6
SLD-Solid
370
    18
100
AcDbLine
 10
-38.2499992847
 20
7.9189958051
 30
0.0
 11
-38.2499992847
 21
7.7714798972
 31
0.0
  0
LINE
  5
1E5
330
1F
100
AcDbEntity
  8
SK3
  6
SLD-Solid
370
    18
100
AcDbLine
 10
-38.2499992847
 20
7.7714798972
 30
0.0
 11
-38.2499992847
 21
7.4791959487
 31
0.0
  0
LINE
  5
1E6
330
1F
100
AcDbEntity
  8
SK3
  6
SLD-Solid
370
    18
100
AcDbLine
 10
-38.2499992847
 20
7.4791959487
 30
0.0
 11
-38.2499992847
 21
7.047588937
 31
0.0
  0
LINE
  5
1E7
330
1F
100
AcDbEntity
  8
SK3
  6
SLD-Solid
370
    18
100
AcDbLine
 10
-38.2499992847
 20
7.047588937
 30
0.0
 11
-38.2499992847
 21
6.4846985042
 31
0.0
  0
LINE
  5
1E8
330
1F
100
AcDbEntity
  8
SK3
  6
SLD-Solid
370
    18
100
AcDbLine
 10
-38.2499992847
 20
6.4846985042
 30
0.0
 11
-38.2499992847
 21
5.8010104112
 31
0.0
  0
LINE
  5
1E9
330
1F
100
AcDbEntity
  8
SK3
  6
SLD-Solid
370
    18
100
AcDbLine
 10
-38.2499992847
 20
5.8010104112
 30
0.0
 11
-38.2499992847
 21
5.0092604943
 31
0.0
  0
LINE
  5
1EA
330
1F
100
AcDbEntity
  8
SK3
  6
SLD-Solid
370
    18
100
AcDbLine
 10
-38.2499992847
 20
5.0092604943
 30
0.0
 11
-38.2499992847
 21
4.1241976433
 31
0.0
  0
LINE
  5
1EB
330
1F
100
AcDbEntity
  8
SK3
  6
SLD-Solid
370
    18
100
AcDbLine
 10
-38.2499992847
 20
4.1241976433
 30
0.0
 11
-38.2499992847
 21
3.1623085961
 31
0.0
  0
LINE
  5
1EC
330
1F
100
AcDbEntity
  8
SK3
  6
SLD-Solid
370
    18
100
AcDbLine
 10
-38.2499992847
 20
3.1623085961
 30
0.0
 11
-38.2499992847
 21
2.1415117662
 31
0.0
  0
LINE
  5
1ED
330
1F
100
AcDbEntity
  8
SK3
  6
SLD-Solid
370
    18
100
AcDbLine
 10
-38.2499992847
 20
2.1415117662
 30
0.0
 11
-38.2499992847
 21
1.0808227817
 31
0.0
  0
LINE
  5
1EE
330
1F
100
AcDbEntity
  8
SK3
  6
SLD-Solid
370
    18
100
AcDbLine
 10
-38.2499992847
 20
1.0808227817
 30
0.0
 11
-38.2499992847
 21
0.0
 31
0.0
  0
LINE
  5
1EF
330
1F
100
AcDbEntity
  8
SK3
  6
SLD-Solid
370
    18
100
AcDbLine
 10
-38.2500130882
 20
-1.0808227817
 30
0.0
 11
-38.2499992847
 21
-2.1415117662
 31
0.0
  0
LINE
  5
1F0
330
1F
100
AcDbEntity
  8
SK3
  6
SLD-Solid
370
    18
100
AcDbLine
 10
-38.2499992847
 20
-2.1415117662
 30
0.0
 11
-38.2499992847
 21
-3.1623085961
 31
0.0
  0
LINE
  5
1F1
330
1F
100
AcDbEntity
  8
SK3
  6
SLD-Solid
370
    18
100
AcDbLine
 10
-38.2499992847
 20
-3.1623085961
 30
0.0
 11
-38.2499992847
 21
-4.1241976433
 31
0.0
  0
LINE
  5
1F2
330
1F
100
AcDbEntity
  8
SK3
  6
SLD-Solid
370
    18
100
AcDbLine
 10
-38.2499992847
 20
-4.1241976433
 30
0.0
 11
-38.2499992847
 21
-5.0092604943
 31
0.0
  0
LINE
  5
1F3
330
1F
100
AcDbEntity
  8
SK3
  6
SLD-Solid
370
    18
100
AcDbLine
 10
-38.2499992847
 20
-5.0092604943
 30
0.0
 11
-38.2499992847
 21
-5.8010104112
 31
0.0
  0
LINE
  5
1F4
330
1F
100
AcDbEntity
  8
SK3
  6
SLD-Solid
370
    18
100
AcDbLine
 10
-38.2499992847
 20
-5.8010104112
 30
0.0
 11
-38.2499992847
 21
-6.4846985042
 31
0.0
  0
LINE
  5
1F5
330
1F
100
AcDbEntity
  8
SK3
  6
SLD-Solid
370
    18
100
AcDbLine
 10
-38.2499992847
 20
-6.4846985042
 30
0.0
 11
-38.2499992847
 21
-7.047588937
 31
0.0
  0
LINE
  5
1F6
330
1F
100
AcDbEntity
  8
SK3
  6
SLD-Solid
370
    18
100
AcDbLine
 10
-38.2499992847
 20
-7.047588937
 30
0.0
 11
-38.2499992847
 21
-7.4791959487
 31
0.0
  0
LINE
  5
1F7
330
1F
100
AcDbEntity
  8
SK3
  6
SLD-Solid
370
    18
100
AcDbLine
 10
-38.2499992847
 20
-7.4791959487
 30
0.0
 11
-38.2499992847
 21
-7.7714798972
 31
0.0
  0
LINE
  5
1F8
330
1F
100
AcDbEntity
  8
SK3
  6
SLD-Solid
370
    18
100
AcDbLine
 10
-38.2499992847
 20
-7.7714798972
 30
0.0
 11
-38.2499992847
 21
-7.9189958051
 31
0.0
  0
LINE
  5
1F9
330
1F
100
AcDbEntity
  8
SK3
  6
SLD-Solid
370
    18
100
AcDbLine
 10
-38.2499992847
 20
-7.9189958051
 30
0.0
 11
-38.2499992847
 21
-7.9375002533
 31
0.0
  0
LINE
  5
1FA
330
1F
100
AcDbEntity
  8
SK3
  6
SLD-Solid
370
    18
100
AcDbLine
 10
-38.2500130882
 20
7.9375002533
 30
0.0
 11
-38.2499992847
 21
7.9189958051
 31
0.0
  0
LINE
  5
1FB
330
1F
100
AcDbEntity
  8
SK3
  6
SLD-Solid
370
    18
100
AcDbLine
 10
-38.2499992847
 20
7.9189958051
 30
0.0
 11
-38.2499992847
 21
7.7714798972
 31
0.0
  0
LINE
  5
1FC
330
1F
100
AcDbEntity
  8
SK3
  6
SLD-Solid
370
    18
100
AcDbLine
 10
-38.2499992847
 20
7.7714798972
 30
0.0
 11
-38.2499992847
 21
7.4791959487
 31
0.0
  0
LINE
  5
1FD
330
1F
100
AcDbEntity
  8
SK3
  6
SLD-Solid
370
    18
100
AcDbLine
 10
-38.2499992847
 20
7.4791959487
 30
0.0
 11
-38.2499992847
 21
7.047588937
 31
0.0
  0
LINE
  5
1FE
330
1F
100
AcDbEntity
  8
SK3
  6
SLD-Solid
370
    18
100
AcDbLine
 10
-38.2499992847
 20
7.047588937
 30
0.0
 11
-38.2499992847
 21
6.4846985042
 31
0.0
  0
LINE
  5
1FF
330
1F
100
AcDbEntity
  8
SK3
  6
SLD-Solid
370
    18
100
AcDbLine
 10
-38.2499992847
 20
6.4846985042
 30
0.0
 11
-38.2499992847
 21
5.8010104112
 31
0.0
  0
LINE
  5
200
330
1F
100
AcDbEntity
  8
SK3
  6
SLD-Solid
370
    18
100
AcDbLine
 10
-38.2499992847
 20
5.8010104112
 30
0.0
 11
-38.2499992847
 21
5.0092604943
 31
0.0
  0
LINE
  5
201
330
1F
100
AcDbEntity
  8
SK3
  6
SLD-Solid
370
    18
100
AcDbLine
 10
-38.2499992847
 20
5.0092604943
 30
0.0
 11
-38.2499992847
 21
4.1241976433
 31
0.0
  0
LINE
  5
202
330
1F
100
AcDbEntity
  8
SK3
  6
SLD-Solid
370
    18
100
AcDbLine
 10
-38.2499992847
 20
4.1241976433
 30
0.0
 11
-38.2499992847
 21
3.1623085961
 31
0.0
  0
LINE
  5
203
330
1F
100
AcDbEntity
  8
81
370
    18
100
AcDbLine
 10
44.45
 20
0.0
 30
0.0
 11
47.9855339059
 21
3.5355339059
 31
0.0
  0
LINE
  5
204
330
1F
100
AcDbEntity
  8
81
370
    18
100
AcDbLine
 10
44.45
 20
0.0
 30
0.0
 11
40.9144660941
 21
-3.5355339059
 31
0.0
  0
LINE
  5
205
330
1F
100
AcDbEntity
  8
81
370
    18
100
AcDbLine
 10
44.45
 20
0.0
 30
0.0
 11
40.9144660941
 21
3.5355339059
 31
0.0
  0
LINE
  5
206
330
1F
100
AcDbEntity
  8
81
100
AcDbLine
 10
44.45
 20
0.0
 30
0.0
 11
54.45
 21
0.0
 31
0.0
  0
LINE
  5
207
330
1F
100
AcDbEntity
  8
81
370
    18
100
AcDbLine
 10
44.45
 20
0.0
 30
0.0
 11
47.9855339059
 21
-3.5355339059
 31
0.0
  0
LINE
  5
208
330
1F
100
AcDbEntity
  8
80
370
    18
100
AcDbLine
 10
0.0
 20
0.0
 30
0.0
 11
-3.5355339059
 21
-3.5355339059
 31
0.0
  0
LINE
  5
209
330
1F
100
AcDbEntity
  8
80
370
    18
100
AcDbLine
 10
0.0
 20
0.0
 30
0.0
 11
3.5355339059
 21
3.5355339059
 31
0.0
  0
LINE
  5
20A
330
1F
100
AcDbEntity
  8
80
370
    18
100
AcDbLine
 10
0.0
 20
0.0
 30
0.0
 11
-3.5355339059
 21
3.5355339059
 31
0.0
  0
LINE
  5
20B
330
1F
100
AcDbEntity
  8
80
370
    18
100
AcDbLine
 10
0.0
 20
0.0
 30
0.0
 11
-10.0
 21
0.0
 31
0.0
  0
LINE
  5
20C
330
1F
100
AcDbEntity
  8
80
370
    18
100
AcDbLine
 10
0.0
 20
0.0
 30
0.0
 11
3.5355339059
 21
-3.5355339059
 31
0.0
  0
LINE
  5
20D
330
1F
100
AcDbEntity
  8
SK3
  6
SLD-Solid
370
    18
100
AcDbLine
 10
-38.2499992847
 20
3.1623085961
 30
0.0
 11
-38.2499992847
 21
2.1415117662
 31
0.0
  0
LINE
  5
20E
330
1F
100
AcDbEntity
  8
SK3
  6
SLD-Solid
370
    18
100
AcDbLine
 10
-38.2499992847
 20
2.1415117662
 30
0.0
 11
-38.2499992847
 21
1.0808227817
 31
0.0
  0
LINE
  5
20F
330
1F
100
AcDbEntity
  8
SK3
  6
SLD-Solid
370
    18
100
AcDbLine
 10
-38.2499992847
 20
1.0808227817
 30
0.0
 11
-38.2499992847
 21
0.0
 31
0.0
  0
LINE
  5
210
330
1F
100
AcDbEntity
  8
SK3
  6
SLD-Solid
370
    18
100
AcDbLine
 10
15.0812501088
 20
-7.9294200987
 30
0.0
 11
15.0812501088
 21
-20.7250006497
 31
0.0
  0
LINE
  5
211
330
1F
100
AcDbEntity
  8
SK3
  6
SLD-Solid
370
    18
100
AcDbLine
 10
29.368750751
 20
-20.7250006497
 30
0.0
 11
29.368750751
 21
-7.9294200987
 31
0.0
  0
LINE
  5
212
330
1F
100
AcDbEntity
  8
SK3
  6
SLD-Solid
370
    18
100
AcDbLine
 10
15.0902317837
 20
-7.9294200987
 30
0.0
 11
15.0831500068
 21
-7.9357894138
 31
0.0
  0
LINE
  5
213
330
1F
100
AcDbEntity
  8
4
  6
SLD-Center
370
    18
100
AcDbLine
 10
22.225
 20
-22.725
 30
0.0
 11
22.225
 21
-5.9375
 31
0.0
  0
LINE
  5
214
330
1F
100
AcDbEntity
  8
4
  6
SLD-Center
370
    18
100
AcDbLine
 10
46.45
 20
0.0
 30
0.0
 11
0.2230746229
 21
0.0
 31
0.0
  0
LINE
  5
215
330
1F
100
AcDbEntity
  8
SK4
  6
SLD-Center
370
    18
100
AcDbLine
 10
-69.1376006954
 20
0.0
 30
0.0
 11
45.0794765457
 21
0.0
 31
0.0
  0
ARC
  5
216
330
1F
100
AcDbEntity
  8
1
  6
SLD-Solid
370
    25
100
AcDbCircle
 10
19.812
 20
22.987
 30
0.0
 40
0.7620000000000147
100
AcDbArc
 50
180.0
 51
243.9420460606
  0
ARC
  5
217
330
1F
100
AcDbEntity
  8
1
  6
SLD-Solid
370
    25
100
AcDbCircle
 10
2.45
 20
22.79
 30
0.0
 40
0.7500000000000102
100
AcDbArc
 50
245.0
 51
0.0
  0
ARC
  5
218
330
1F
100
AcDbEntity
  8
1
  6
SLD-Solid
370
    25
100
AcDbCircle
 10
2.45
 20
-22.79
 30
0.0
 40
0.7500000000000066
100
AcDbArc
 50
30.4398191868
 51
115.0
  0
ARC
  5
219
330
1F
100
AcDbEntity
  8
SK1
  6
SLD-Solid
370
    25
100
AcDbCircle
 10
-66.95
 20
11.1476148288
 30
0.0
 40
1.299999999999997
100
AcDbArc
 50
98.2972222222
 51
180.0
  0
ARC
  5
21A
330
1F
100
AcDbEntity
  8
SK1
  6
SLD-Solid
370
    25
100
AcDbCircle
 10
-66.95
 20
-11.1476148288
 30
0.0
 40
1.299999999999997
100
AcDbArc
 50
180.0
 51
261.7027777778
  0
ARC
  5
21B
330
1F
100
AcDbEntity
  8
SK3
  6
SLD-Dashed
370
    18
100
AcDbCircle
 10
-12.25
 20
-7.93
 30
0.0
 40
0.1999999999999993
100
AcDbArc
 50
182.1490956269
 51
270.0
  0
ARC
  5
21C
330
1F
100
AcDbEntity
  8
SK3
  6
SLD-Dashed
370
    18
100
AcDbCircle
 10
-12.25
 20
7.93
 30
0.0
 40
0.2000000000000064
100
AcDbArc
 50
90.0
 51
177.8509043731
  0
ARC
  5
21D
330
1F
100
AcDbEntity
  8
SK3
  6
SLD-Dashed
370
    18
100
AcDbCircle
 10
-3.5
 20
-7.93
 30
0.0
 40
0.1999999999999993
100
AcDbArc
 50
270.0
 51
357.8509043731
  0
ARC
  5
21E
330
1F
100
AcDbEntity
  8
SK3
  6
SLD-Dashed
370
    18
100
AcDbCircle
 10
-3.5
 20
7.93
 30
0.0
 40
0.2000000000000064
100
AcDbArc
 50
2.1490956269
 51
90.0
  0
ARC
  5
21F
330
1F
100
AcDbEntity
  8
1
370
    18
100
AcDbCircle
 10
22.2989862526
 20
-42.6808244015
 30
0.0
 40
21.85351850349964
100
AcDbArc
 50
69.4363071957
 51
96.5345631113
  0
CIRCLE
  5
220
330
1F
100
AcDbEntity
  8
81
370
    18
100
AcDbCircle
 10
44.45
 20
0.0
 30
0.0
 40
2.499999999999992
  0
CIRCLE
  5
221
330
1F
100
AcDbEntity
  8
80
370
    18
100
AcDbCircle
 10
0.0
 20
0.0
 30
0.0
 40
2.500000000000009
  0
SPLINE
  5
222
330
1F
100
AcDbEntity
  8
1
  6
SLD-Solid
370
    25
100
AcDbSpline
210
0.0
220
0.0
230
1.0
 70
     8
 71
     3
 72
    16
 73
    12
 74
     0
 42
0.000000001
 43
0.00000001
 40
0.0
 40
0.0
 40
0.0
 40
0.0
 40
0.0695972585631702
 40
0.1233277320974721
 40
0.247039555460377
 40
0.370625409937532
 40
0.4955039070586293
 40
0.6236892810562452
 40
0.7463896350927952
 40
0.874029172385884
 40
1.0
 40
1.0
 40
1.0
 40
1.0
 10
3.200000000000022
 20
-29.8048664484163
 30
0.0
 10
3.200840331068336
 20
-29.8321187437415
 30
0.0
 10
3.202329414503629
 20
-29.88041035531205
 30
0.0
 10
3.217237155250588
 20
-29.97610817340506
 30
0.0
 10
3.250688715768016
 20
-30.08991350869657
 30
0.0
 10
3.318652551688006
 20
-30.22007249881832
 30
0.0
 10
3.411627067179679
 20
-30.33622596976963
 30
0.0
 10
3.525709306310159
 20
-30.43184457715032
 30
0.0
 10
3.65737912302759
 20
-30.50320141671876
 30
0.0
 10
3.800029806285368
 20
-30.5492134761922
 30
0.0
 10
3.90022970107079
 20
-30.55502300820851
 30
0.0
 10
3.949999999999926
 20
-30.55790866138917
 30
0.0
  0
SPLINE
  5
223
330
1F
100
AcDbEntity
  8
1
  6
SLD-Solid
370
    25
100
AcDbSpline
210
0.0
220
0.0
230
1.0
 70
     8
 71
     3
 72
    18
 73
    14
 74
     0
 42
0.000000001
 43
0.00000001
 40
0.0
 40
0.0
 40
0.0
 40
0.0
 40
0.0628280480421825
 40
0.1260701253970792
 40
0.1897406253785904
 40
0.2538535710757105
 40
0.3764737521324676
 40
0.5046580328934662
 40
0.6294958758641306
 40
0.7530413720168776
 40
0.8767127000651272
 40
0.9303985995609487
 40
1.0
 40
1.0
 40
1.0
 40
1.0
 10
3.949999999999926
 20
30.55788999666613
 30
0.0
 10
3.925199676033192
 20
30.55717534525745
 30
0.0
 10
3.875435596934693
 20
30.55574133297283
 30
0.0
 10
3.801295881396189
 20
30.54413094373269
 30
0.0
 10
3.728175768565503
 20
30.52555103963991
 30
0.0
 10
3.635356745735146
 20
30.49149389245028
 30
0.0
 10
3.525704227685291
 20
30.43173903699993
 30
0.0
 10
3.411641971522854
 20
30.33624779546198
 30
0.0
 10
3.318651270434206
 20
30.22005039304357
 30
0.0
 10
3.250689072054512
 20
30.08990134371377
 30
0.0
 10
3.217240115096229
 20
29.97610524198125
 30
0.0
 10
3.202330512999682
 20
29.88040905934514
 30
0.0
 10
3.200840935566517
 20
29.83211788338436
 30
0.0
 10
3.200000000000015
 20
29.80485527419838
 30
0.0
  0
SPLINE
  5
224
330
1F
100
AcDbEntity
  8
1
  6
SLD-Solid
370
    25
100
AcDbSpline
210
0.0
220
0.0
230
1.0
 70
     8
 71
     3
 72
    18
 73
    14
 74
     0
 42
0.000000001
 43
0.00000001
 40
0.0
 40
0.0
 40
0.0
 40
0.0
 40
0.0627054734815585
 40
0.1258180026435944
 40
0.1893518955758989
 40
0.2533210967871997
 40
0.3760223802380994
 40
0.5042027350874037
 40
0.6287442443905509
 40
0.7524970007335178
 40
0.8762904256225891
 40
0.9301814553533038
 40
1.0
 40
1.0
 40
1.0
 40
1.0
 10
18.30000000000006
 20
-30.55788999666614
 30
0.0
 10
18.32475189251028
 20
-30.55717815032796
 30
0.0
 10
18.37441635566444
 20
-30.55574983666592
 30
0.0
 10
18.44840700700195
 20
-30.54418621918458
 30
0.0
 10
18.5213792831172
 20
-30.52568315689515
 30
0.0
 10
18.61414871610722
 20
-30.49172081055997
 30
0.0
 10
18.72382631062688
 20
-30.4320633120142
 30
0.0
 10
18.83789060104978
 20
-30.33670781031284
 30
0.0
 10
18.9309656757062
 20
-30.22063090164698
 30
0.0
 10
18.99906840635736
 20
-30.09053486574007
 30
0.0
 10
19.03266226172083
 20
-29.97656054635133
 30
0.0
 10
19.04765434845162
 20
-29.88065972774422
 30
0.0
 10
19.04915376650081
 20
-29.83220301390152
 30
0.0
 10
19.05000000000003
 20
-29.8048552741984
 30
0.0
  0
SPLINE
  5
225
330
1F
100
AcDbEntity
  8
1
  6
SLD-Solid
370
    25
100
AcDbSpline
210
0.0
220
0.0
230
1.0
 70
     8
 71
     3
 72
    16
 73
    12
 74
     0
 42
0.000000001
 43
0.00000001
 40
0.0
 40
0.0
 40
0.0
 40
0.0
 40
0.069814031064149
 40
0.1237498965154266
 40
0.2475836018648968
 40
0.371376536255524
 40
0.4959583438678432
 40
0.62413948620796
 40
0.7469207609697971
 40
0.8742805094910139
 40
1.0
 40
1.0
 40
1.0
 40
1.0
 10
19.05000000000003
 20
29.80486644841629
 30
0.0
 10
19.04915437967804
 20
29.83220375694688
 30
0.0
 10
19.04765546283079
 20
29.88066090875586
 30
0.0
 10
19.03266526234905
 20
29.97656337346559
 30
0.0
 10
18.99906876123943
 20
30.09054703967058
 30
0.0
 10
18.9309643939984
 20
30.22065301278145
 30
0.0
 10
18.83790550330879
 20
30.33668609025481
 30
0.0
 10
18.7238212796448
 20
30.43216876423577
 30
0.0
 10
18.5921637601932
 20
30.50338604964254
 30
0.0
 10
18.44966044222825
 20
30.54924901227126
 30
0.0
 10
18.34967079633339
 20
30.55503461089693
 30
0.0
 10
18.30000000000006
 20
30.55790866138915
 30
0.0
  0
SPLINE
  5
226
330
1F
100
AcDbEntity
  8
1
  6
SLD-Solid
370
    25
100
AcDbSpline
210
0.0
220
0.0
230
1.0
 70
     8
 71
     3
 72
     8
 73
     4
 74
     0
 42
0.000000001
 43
0.00000001
 40
0.0
 40
0.0
 40
0.0
 40
0.0
 40
1.0
 40
1.0
 40
1.0
 40
1.0
 10
13.03
 20
27.8050456341729
 30
0.0
 10
13.47759651810108
 20
28.61249255653032
 30
0.0
 10
13.92634937951633
 20
29.41929290832669
 30
0.0
 10
14.37601294652262
 20
30.22558142012642
 30
0.0
  0
SPLINE
  5
227
330
1F
100
AcDbEntity
  8
1
  6
SLD-Solid
370
    25
100
AcDbSpline
210
0.0
220
0.0
230
1.0
 70
     8
 71
     3
 72
     8
 73
     4
 74
     0
 42
0.000000001
 43
0.00000001
 40
0.0
 40
0.0
 40
0.0
 40
0.0
 40
0.0006742907251946
 40
0.0006742907251946
 40
0.0006742907251946
 40
0.0006742907251946
 10
14.64112635455683
 20
30.55790866138915
 30
0.0
 10
14.55231121915223
 20
30.44723498609878
 30
0.0
 10
14.46393231327363
 20
30.33646040447049
 30
0.0
 10
14.37601294652262
 20
30.22558142012642
 30
0.0
  0
SPLINE
  5
228
330
1F
100
AcDbEntity
  8
1
  6
SLD-Solid
370
    25
100
AcDbSpline
210
0.0
220
0.0
230
1.0
 70
     8
 71
     3
 72
     8
 73
     4
 74
     0
 42
0.000000001
 43
0.00000001
 40
0.0
 40
0.0
 40
0.0
 40
0.0
 40
0.0006744126776058
 40
0.0006744126776058
 40
0.0006744126776058
 40
0.0006744126776058
 10
14.37595046659278
 20
-30.22546938779914
 30
0.0
 10
14.46389058426688
 20
-30.33637953005828
 30
0.0
 10
14.55229031970066
 20
-30.44718523342132
 30
0.0
 10
14.64112635455682
 20
-30.55788999666614
 30
0.0
  0
SPLINE
  5
229
330
1F
100
AcDbEntity
  8
1
  6
SLD-Solid
370
    25
100
AcDbSpline
210
0.0
220
0.0
230
1.0
 70
     8
 71
     3
 72
     8
 73
     4
 74
     0
 42
0.000000001
 43
0.00000001
 40
0.0
 40
0.0
 40
0.0
 40
0.0
 40
1.0
 40
1.0
 40
1.0
 40
1.0
 10
13.03
 20
-27.80504563417289
 30
0.0
 10
13.47756662864429
 20
-28.61243863709861
 30
0.0
 10
13.92629890859749
 20
-29.41920220926157
 30
0.0
 10
14.37595046659278
 20
-30.22546938779914
 30
0.0
  0
SPLINE
  5
22A
330
1F
100
AcDbEntity
  8
1
  6
SLD-Solid
370
    25
100
AcDbSpline
210
0.0
220
0.0
230
1.0
 70
     8
 71
     3
 72
    14
 73
    10
 74
     0
 42
0.000000001
 43
0.00000001
 40
0.0
 40
0.0
 40
0.0
 40
0.0
 40
0.25
 40
0.25
 40
0.5
 40
0.5
 40
0.75
 40
0.75
 40
1.0
 40
1.0
 40
1.0
 40
1.0
 10
13.02999999999999
 20
25.81171788356632
 30
0.0
 10
13.05182784069895
 20
25.80868166763939
 30
0.0
 10
13.06930451588748
 20
25.79706282581692
 30
0.0
 10
13.09355241467168
 20
25.75265705035271
 30
0.0
 10
13.09996413738389
 20
25.71975400624284
 30
0.0
 10
13.10003555457988
 20
25.6344344577325
 30
0.0
 10
13.09360869858519
 20
25.58073121692832
 30
0.0
 10
13.06953031995431
 20
25.4597665160328
 30
0.0
 10
13.05190366619464
 20
25.39187340765439
 30
0.0
 10
13.03
 20
25.31924243797495
 30
0.0
  0
SPLINE
  5
22B
330
1F
100
AcDbEntity
  8
1
  6
SLD-Solid
370
    25
100
AcDbSpline
210
0.0
220
0.0
230
1.0
 70
     8
 71
     3
 72
     8
 73
     4
 74
     0
 42
0.000000001
 43
0.00000001
 40
0.0
 40
0.0
 40
0.0
 40
0.0
 40
1.0
 40
1.0
 40
1.0
 40
1.0
 10
7.853987053479589
 20
-30.22558142012364
 30
0.0
 10
8.303659523846735
 20
-29.41927694377146
 30
0.0
 10
8.752412641282667
 20
-28.61247603335509
 30
0.0
 10
9.199999999998862
 20
-27.80504563417607
 30
0.0
  0
SPLINE
  5
22C
330
1F
100
AcDbEntity
  8
1
  6
SLD-Solid
370
    25
100
AcDbSpline
210
0.0
220
0.0
230
1.0
 70
     8
 71
     3
 72
     8
 73
     4
 74
     0
 42
0.000000001
 43
0.00000001
 40
0.0
 40
0.0
 40
0.0
 40
0.0
 40
0.0006742907251988
 40
0.0006742907251988
 40
0.0006742907251988
 40
0.0006742907251988
 10
7.588873645443195
 20
-30.55790866138917
 30
0.0
 10
7.677688780848514
 20
-30.44723498609787
 30
0.0
 10
7.766067686727857
 20
-30.33646040446865
 30
0.0
 10
7.853987053479591
 20
-30.22558142012363
 30
0.0
  0
SPLINE
  5
22D
330
1F
100
AcDbEntity
  8
1
  6
SLD-Solid
370
    25
100
AcDbSpline
210
0.0
220
0.0
230
1.0
 70
     8
 71
     3
 72
     8
 73
     4
 74
     0
 42
0.000000001
 43
0.00000001
 40
0.0
 40
0.0
 40
0.0
 40
0.0
 40
0.0006744126776058
 40
0.0006744126776058
 40
0.0006744126776058
 40
0.0006744126776058
 10
7.854049533407245
 20
30.22546938779911
 30
0.0
 10
7.766109415733169
 20
30.33637953005826
 30
0.0
 10
7.677709680299366
 20
30.4471852334213
 30
0.0
 10
7.588873645443195
 20
30.55788999666613
 30
0.0
  0
SPLINE
  5
22E
330
1F
100
AcDbEntity
  8
1
  6
SLD-Solid
370
    25
100
AcDbSpline
210
0.0
220
0.0
230
1.0
 70
     8
 71
     3
 72
     8
 73
     4
 74
     0
 42
0.000000001
 43
0.00000001
 40
0.0
 40
0.0
 40
0.0
 40
0.0
 40
1.0
 40
1.0
 40
1.0
 40
1.0
 10
7.854049533407236
 20
30.22546938779912
 30
0.0
 10
8.303692188804751
 20
29.41921817244962
 30
0.0
 10
8.752424212806615
 20
28.61245515876933
 30
0.0
 10
9.199999999999985
 20
27.8050456341729
 30
0.0
  0
SPLINE
  5
22F
330
1F
100
AcDbEntity
  8
1
  6
SLD-Solid
370
    25
100
AcDbSpline
210
0.0
220
0.0
230
1.0
 70
     8
 71
     3
 72
    14
 73
    10
 74
     0
 42
0.000000001
 43
0.00000001
 40
0.0
 40
0.0
 40
0.0
 40
0.0
 40
0.25
 40
0.25
 40
0.5
 40
0.5
 40
0.75
 40
0.75
 40
1.0
 40
1.0
 40
1.0
 40
1.0
 10
9.199999999998864
 20
25.27054331738518
 30
0.0
 10
9.169610391132139
 20
25.36219671402949
 30
0.0
 10
9.144652419509558
 20
25.44797517411546
 30
0.0
 10
9.109411114929499
 20
25.60359055831213
 30
0.0
 10
9.10007589472488
 20
25.669594402047
 30
0.0
 10
9.099925023949773
 20
25.77434199055129
 30
0.0
 10
9.109375914768824
 20
25.81145009587539
 30
0.0
 10
9.144272722663846
 20
25.85500935243901
 30
0.0
 10
9.169555752624241
 20
25.86176202446133
 30
0.0
 10
9.19999999999999
 20
25.85691311136567
 30
0.0
  0
SPLINE
  5
230
330
1F
100
AcDbEntity
  8
1
  6
SLD-Solid
370
    25
100
AcDbSpline
210
0.0
220
0.0
230
1.0
 70
     8
 71
     3
 72
    14
 73
    10
 74
     0
 42
0.000000001
 43
0.00000001
 40
0.0
 40
0.0
 40
0.0
 40
0.0
 40
0.25
 40
0.25
 40
0.5
 40
0.5
 40
0.75
 40
0.75
 40
1.0
 40
1.0
 40
1.0
 40
1.0
 10
9.2
 20
-27.76916635406976
 30
0.0
 10
9.2
 20
-27.66854183645165
 30
0.0
 10
9.218753722673597
 20
-27.56842327754111
 30
0.0
 10
9.291517535812337
 20
-27.38167264562871
 30
0.0
 10
9.345885298656015
 20
-27.29482655372887
 30
0.0
 10
9.4827134536752
 20
-27.14914073715222
 30
0.0
 10
9.566479996683737
 20
-27.08925426891756
 30
0.0
 10
9.749089787632656
 20
-27.00861553825999
 30
0.0
 10
9.849941180320524
 20
-26.98706356756863
 30
0.0
 10
9.950000000001276
 20
-26.9870635675688
 30
0.0
  0
SPLINE
  5
231
330
1F
100
AcDbEntity
  8
1
  6
SLD-Solid
370
    25
100
AcDbSpline
210
0.0
220
0.0
230
1.0
 70
     8
 71
     3
 72
    16
 73
    12
 74
     0
 42
0.000000001
 43
0.00000001
 40
0.0
 40
0.0
 40
0.0
 40
0.0
 40
0.2499999999999998
 40
0.2499999999999998
 40
0.4999999999999996
 40
0.4999999999999996
 40
0.7499999999999993
 40
0.7499999999999993
 40
0.8749999999999997
 40
0.8749999999999997
 40
1.0
 40
1.0
 40
1.0
 40
1.0
 10
9.950000000001276
 20
24.06685975304421
 30
0.0
 10
9.840493351282328
 20
24.10694414130927
 30
0.0
 10
9.742786160773385
 20
24.17117631338121
 30
0.0
 10
9.567840382590466
 20
24.33096083631443
 30
0.0
 10
9.493988254028263
 20
24.4234095289072
 30
0.0
 10
9.367115049350572
 20
24.62793394074458
 30
0.0
 10
9.31452396506961
 20
24.7396155987583
 30
0.0
 10
9.253446937619046
 20
24.91971397324592
 30
0.0
 10
9.235893303123918
 20
24.98231479864192
 30
0.0
 10
9.209102989072871
 20
25.11253703191811
 30
0.0
 10
9.20000000000041
 20
25.18114365477708
 30
0.0
 10
9.200000000000367
 20
25.24012107693791
 30
0.0
  0
SPLINE
  5
232
330
1F
100
AcDbEntity
  8
1
  6
SLD-Solid
370
    25
100
AcDbSpline
210
0.0
220
0.0
230
1.0
 70
     8
 71
     3
 72
    12
 73
     8
 74
     0
 42
0.000000001
 43
0.00000001
 40
0.0
 40
0.0
 40
0.0
 40
0.0
 40
0.2499999999999984
 40
0.2499999999999984
 40
0.4999999999999969
 40
0.4999999999999969
 40
1.0
 40
1.0
 40
1.0
 40
1.0
 10
12.28
 20
-26.98706356756881
 30
0.0
 10
12.37975762515879
 20
-26.98706356756883
 30
0.0
 10
12.48041217798164
 20
-27.00843624414831
 30
0.0
 10
12.66352022573504
 20
-27.0892138443703
 30
0.0
 10
12.74662210573628
 20
-27.14844080533418
 30
0.0
 10
12.95377706693949
 20
-27.3689835197036
 30
0.0
 10
13.03
 20
-27.56902785518149
 30
0.0
 10
13.03
 20
-27.7691663540697
 30
0.0
  0
SPLINE
  5
233
330
1F
100
AcDbEntity
  8
1
  6
SLD-Solid
370
    25
100
AcDbSpline
210
0.0
220
0.0
230
1.0
 70
     8
 71
     3
 72
    18
 73
    14
 74
     0
 42
0.000000001
 43
0.00000001
 40
0.0
 40
0.0
 40
0.0
 40
0.0
 40
0.0625000000000005
 40
0.0625000000000005
 40
0.1250000000000011
 40
0.1250000000000011
 40
0.250000000000001
 40
0.250000000000001
 40
0.5000000000000007
 40
0.5000000000000007
 40
0.7500000000000003
 40
0.7500000000000003
 40
1.0
 40
1.0
 40
1.0
 40
1.0
 10
13.03000000000036
 20
25.28882228478213
 30
0.0
 10
13.03000000000039
 20
25.25845422870358
 30
0.0
 10
13.02749489038153
 20
25.22358442434171
 30
0.0
 10
13.01920268672242
 20
25.1548229673746
 30
0.0
 10
13.01359186100946
 20
25.1210489856524
 30
0.0
 10
12.99361738711131
 20
25.02074756626962
 30
0.0
 10
12.97668865169253
 20
24.95779435948031
 30
0.0
 10
12.91737158574223
 20
24.77496256517874
 30
0.0
 10
12.86564177103967
 20
24.66011878167493
 30
0.0
 10
12.74049543384721
 20
24.45045700081744
 30
0.0
 10
12.66639130892201
 20
24.3540985658314
 30
0.0
 10
12.49025684706088
 20
24.18769951882044
 30
0.0
 10
12.39180028213162
 20
24.12054595344067
 30
0.0
 10
12.28000000000128
 20
24.07805063523434
 30
0.0
  0
SPLINE
  5
234
330
1F
100
AcDbEntity
  8
1
  6
SLD-Solid
370
    25
100
AcDbSpline
210
0.0
220
0.0
230
1.0
 70
     8
 71
     3
 72
    12
 73
     8
 74
     0
 42
0.000000001
 43
0.00000001
 40
0.0
 40
0.0
 40
0.0
 40
0.0
 40
0.25
 40
0.25
 40
0.5
 40
0.5
 40
1.0
 40
1.0
 40
1.0
 40
1.0
 10
12.28000000000128
 20
24.07805063523434
 30
0.0
 10
12.11125565653913
 20
24.01391086354245
 30
0.0
 10
11.92801760594737
 20
23.96418277266271
 30
0.0
 10
11.53284005751316
 20
23.89473625632987
 30
0.0
 10
11.3277419038663
 20
23.87652150272302
 30
0.0
 10
10.70517895587215
 20
23.87317080568453
 30
0.0
 10
10.29199014189995
 20
23.94167588712291
 30
0.0
 10
9.950000000001276
 20
24.06685975304421
 30
0.0
  0
SPLINE
  5
235
330
1F
100
AcDbEntity
  8
1
  6
SLD-Solid
370
    25
100
AcDbSpline
210
0.0
220
0.0
230
1.0
 70
     8
 71
     3
 72
    12
 73
     8
 74
     0
 42
0.000000001
 43
0.00000001
 40
0.0
 40
0.0
 40
0.0
 40
0.0
 40
0.4999999999999973
 40
0.4999999999999973
 40
0.7499999999999987
 40
0.7499999999999987
 40
1.0
 40
1.0
 40
1.0
 40
1.0
 10
19.81199999999998
 20
-20.96927976827053
 30
0.0
 10
19.60101747232039
 20
-20.99355818149774
 30
0.0
 10
19.41095478456094
 20
-21.10958485627434
 30
0.0
 10
19.20525365343882
 20
-21.35466881409653
 30
0.0
 10
19.14931835477775
 20
-21.44919444829411
 30
0.0
 10
19.07188243043752
 20
-21.65240426565645
 30
0.0
 10
19.04999999999994
 20
-21.76243015135776
 30
0.0
 10
19.05000000000003
 20
-21.87282089717737
 30
0.0
  0
SPLINE
  5
236
330
1F
100
AcDbEntity
  8
1
  6
SLD-Solid
370
    25
100
AcDbSpline
210
0.0
220
0.0
230
1.0
 70
     8
 71
     3
 72
    10
 73
     6
 74
     0
 42
0.000000001
 43
0.00000001
 40
0.0
 40
0.0
 40
0.0
 40
0.0
 40
0.2886549571657669
 40
0.5792663805933213
 40
1.0
 40
1.0
 40
1.0
 40
1.0
 10
19.81199999999998
 20
22.11222015267175
 30
0.0
 10
19.75373676911328
 20
22.13597386489889
 30
0.0
 10
19.63681540663671
 20
22.1836422889667
 30
0.0
 10
19.50593166323015
 20
22.27711470664462
 30
0.0
 10
19.4875645394036
 20
22.29275411377224
 30
0.0
 10
19.4767010821215
 20
22.30200423005893
 30
0.0
  0
SPLINE
  5
237
330
1F
100
AcDbEntity
  8
1
  6
SLD-Solid
370
    25
100
AcDbSpline
210
0.0
220
0.0
230
1.0
 70
     8
 71
     3
 72
    40
 73
    36
 74
     0
 42
0.000000001
 43
0.00000001
 40
0.0
 40
0.0
 40
0.0
 40
0.0
 40
0.125
 40
0.125
 40
0.1875000000000003
 40
0.1875000000000003
 40
0.2500000000000007
 40
0.2500000000000007
 40
0.312500000000001
 40
0.312500000000001
 40
0.3750000000000009
 40
0.3750000000000009
 40
0.4062500000000008
 40
0.4062500000000008
 40
0.4375000000000008
 40
0.4375000000000008
 40
0.5000000000000007
 40
0.5000000000000007
 40
0.5625000000000006
 40
0.5625000000000006
 40
0.6250000000000004
 40
0.6250000000000004
 40
0.6875000000000003
 40
0.6875000000000003
 40
0.7500000000000002
 40
0.7500000000000002
 40
0.8125000000000001
 40
0.8125000000000001
 40
0.875
 40
0.875
 40
0.90625
 40
0.90625
 40
0.9375
 40
0.9375
 40
1.0
 40
1.0
 40
1.0
 40
1.0
 10
35.05200000000001
 20
22.10025417666305
 30
0.0
 10
34.79320335503737
 20
22.01443641897467
 30
0.0
 10
34.41274284406791
 20
21.89172007466345
 30
0.0
 10
33.66173478756949
 20
21.68002684730157
 30
0.0
 10
33.38613381990006
 20
21.60643961278827
 30
0.0
 10
32.79055517213132
 20
21.45995858375484
 30
0.0
 10
32.46991187506202
 20
21.38685390750961
 30
0.0
 10
31.78139586491853
 20
21.24642806029575
 30
0.0
 10
31.41910908908905
 20
21.18036234808623
 30
0.0
 10
30.66954040955254
 20
21.06284028674822
 30
0.0
 10
30.28071640106981
 20
21.01104837072042
 30
0.0
 10
29.67579121730927
 20
20.94699535783233
 30
0.0
 10
29.47015175144806
 20
20.92791619088337
 30
0.0
 10
29.05878453410494
 20
20.89535729400872
 30
0.0
 10
28.85219120715952
 20
20.88177403405409
 30
0.0
 10
28.22973118394544
 20
20.84933539452552
 30
0.0
 10
27.81120067084818
 20
20.8387895726438
 30
0.0
 10
26.96689262539874
 20
20.84103443220266
 30
0.0
 10
26.54107730491294
 20
20.85410407212617
 30
0.0
 10
25.71229806130242
 20
20.90194414981665
 30
0.0
 10
25.30543879333928
 20
20.93666207370375
 30
0.0
 10
24.50684831055909
 20
21.02527710310278
 30
0.0
 10
24.11314334813093
 20
21.07964971372247
 30
0.0
 10
23.36769598997092
 20
21.20027334982231
 30
0.0
 10
23.01270026709766
 20
21.26678452119438
 30
0.0
 10
22.33798959472776
 20
21.40730843534917
 30
0.0
 10
22.0158210881178
 20
21.48200555940484
 30
0.0
 10
21.42727865928733
 20
21.62906928681008
 30
0.0
 10
21.15923930211226
 20
21.70166436064859
 30
0.0
 10
20.79609917724366
 20
21.80514708513609
 30
0.0
 10
20.68156984994686
 20
21.83874078549103
 30
0.0
 10
20.46586930395687
 20
21.90343947432993
 30
0.0
 10
20.36448850527918
 20
21.93461558790302
 30
0.0
 10
20.08630524157236
 20
22.02171988548367
 30
0.0
 10
19.93325363897656
 20
22.07182166654294
 30
0.0
 10
19.81199999999998
 20
22.11222015267175
 30
0.0
  0
SPLINE
  5
238
330
1F
100
AcDbEntity
  8
1
  6
SLD-Solid
370
    25
100
AcDbSpline
210
0.0
220
0.0
230
1.0
 70
     8
 71
     3
 72
    16
 73
    12
 74
     0
 42
0.000000001
 43
0.00000001
 40
0.0
 40
0.0
 40
0.0
 40
0.0
 40
0.1250000000000011
 40
0.1250000000000011
 40
0.2500000000000023
 40
0.2500000000000023
 40
0.5000000000000016
 40
0.5000000000000016
 40
0.7500000000000008
 40
0.7500000000000008
 40
1.0
 40
1.0
 40
1.0
 40
1.0
 10
9.199999999999985
 20
25.82649087091902
 30
0.0
 10
9.199999999999985
 20
25.76704453528218
 30
0.0
 10
9.209309779240199
 20
25.72460913603
 30
0.0
 10
9.236285539089923
 20
25.66309575968363
 30
0.0
 10
9.25381839599407
 20
25.64221451078866
 30
0.0
 10
9.314732612350845
 20
25.59089236418539
 30
0.0
 10
9.36758635054244
 20
25.57162638804161
 30
0.0
 10
9.493923269647544
 20
25.54782523997985
 30
0.0
 10
9.568606186754732
 20
25.5438020492668
 30
0.0
 10
9.743190718990299
 20
25.55566084202213
 30
0.0
 10
9.840260492227278
 20
25.57101227172015
 30
0.0
 10
9.949999999999989
 20
25.60325879037601
 30
0.0
  0
SPLINE
  5
239
330
1F
100
AcDbEntity
  8
1
  6
SLD-Solid
370
    25
100
AcDbSpline
210
0.0
220
0.0
230
1.0
 70
     8
 71
     3
 72
    12
 73
     8
 74
     0
 42
0.000000001
 43
0.00000001
 40
0.0
 40
0.0
 40
0.0
 40
0.0
 40
0.2500000000000006
 40
0.2500000000000006
 40
0.5000000000000011
 40
0.5000000000000011
 40
1.0
 40
1.0
 40
1.0
 40
1.0
 10
9.950000000000001
 20
25.603258790376
 30
0.0
 10
10.12099348269381
 20
25.65350454636334
 30
0.0
 10
10.30594493731545
 20
25.69087007490122
 30
0.0
 10
10.70348914958046
 20
25.74162454002533
 30
0.0
 10
10.9091834364138
 20
25.75391313067252
 30
0.0
 10
11.5317621494304
 20
25.75179790476194
 30
0.0
 10
11.942508931358
 20
25.69754140003433
 30
0.0
 10
12.28
 20
25.59426208810603
 30
0.0
  0
SPLINE
  5
23A
330
1F
100
AcDbEntity
  8
1
  6
SLD-Solid
370
    25
100
AcDbSpline
210
0.0
220
0.0
230
1.0
 70
     8
 71
     3
 72
    18
 73
    14
 74
     0
 42
0.000000001
 43
0.00000001
 40
0.0
 40
0.0
 40
0.0
 40
0.0
 40
0.2500000000000006
 40
0.2500000000000006
 40
0.5000000000000011
 40
0.5000000000000011
 40
0.7500000000000017
 40
0.7500000000000017
 40
0.8750000000000009
 40
0.8750000000000009
 40
0.9375000000000006
 40
0.9375000000000006
 40
1.0
 40
1.0
 40
1.0
 40
1.0
 10
12.27999999999999
 20
25.59426208810603
 30
0.0
 10
12.39154339480306
 20
25.56012748089477
 30
0.0
 10
12.49076613158664
 20
25.54318981789732
 30
0.0
 10
12.66653346245911
 20
25.52816909760166
 30
0.0
 10
12.74028542340616
 20
25.53041158029682
 30
0.0
 10
12.86605076853517
 20
25.54934151941308
 30
0.0
 10
12.9174999666036
 20
25.56531541934165
 30
0.0
 10
12.97688531868163
 20
25.60908469940349
 30
0.0
 10
12.9939490598649
 20
25.6270356389761
 30
0.0
 10
13.01360803438728
 20
25.66754728332325
 30
0.0
 10
13.01926149413282
 20
25.68358803034142
 30
0.0
 10
13.02752275857841
 20
25.72506394381624
 30
0.0
 10
13.02999999999999
 20
25.75103822857545
 30
0.0
 10
13.02999999999999
 20
25.78129773037289
 30
0.0
  0
SPLINE
  5
23B
330
1F
100
AcDbEntity
  8
1
  6
SLD-Solid
370
    25
100
AcDbSpline
210
0.0
220
0.0
230
1.0
 70
     8
 71
     3
 72
    12
 73
     8
 74
     0
 42
0.000000001
 43
0.00000001
 40
0.0
 40
0.0
 40
0.0
 40
0.0
 40
0.2499999999999991
 40
0.2499999999999991
 40
0.4999999999999982
 40
0.4999999999999982
 40
1.0
 40
1.0
 40
1.0
 40
1.0
 10
9.2
 20
27.76916635406976
 30
0.0
 10
9.2
 20
27.66809333683725
 30
0.0
 10
9.218583298377256
 20
27.56892641339131
 30
0.0
 10
9.291549937975777
 20
27.38152387214676
 30
0.0
 10
9.34549688093282
 20
27.29531750692793
 30
0.0
 10
9.551071041675394
 20
27.07620366276164
 30
0.0
 10
9.748220416740102
 20
26.9870635675688
 30
0.0
 10
9.950000000000001
 20
26.98706356756882
 30
0.0
  0
SPLINE
  5
23C
330
1F
100
AcDbEntity
  8
1
  6
SLD-Solid
370
    25
100
AcDbSpline
210
0.0
220
0.0
230
1.0
 70
     8
 71
     3
 72
    14
 73
    10
 74
     0
 42
0.000000001
 43
0.00000001
 40
0.0
 40
0.0
 40
0.0
 40
0.0
 40
0.25
 40
0.25
 40
0.5
 40
0.5
 40
0.75
 40
0.75
 40
1.0
 40
1.0
 40
1.0
 40
1.0
 10
12.28
 20
26.98706356756882
 30
0.0
 10
12.38041018140389
 20
26.9870635675688
 30
0.0
 10
12.48007417771603
 20
27.00821121867972
 30
0.0
 10
12.66478364882749
 20
27.08984749877595
 30
0.0
 10
12.74772062670419
 20
27.1494985263265
 30
0.0
 10
12.88443521562223
 20
27.29527278596965
 30
0.0
 10
12.93853405055463
 20
27.38169791130529
 30
0.0
 10
13.01142030969678
 20
27.56897740148014
 30
0.0
 10
13.03
 20
27.66812420510654
 30
0.0
 10
13.03
 20
27.76916635406976
 30
0.0
  0
SPLINE
  5
23D
330
1F
100
AcDbEntity
  8
SK3
  6
SLD-Dashed
370
    18
100
AcDbSpline
210
0.0
220
0.0
230
1.0
 70
    24
 71
     3
 72
    16
 73
    12
 74
     0
 42
0.000000001
 43
0.00000001
 40
0.0
 40
0.0
 40
0.0
 40
0.0
 40
0.2500000000000001
 40
0.2500000000000001
 40
0.3749999999999997
 40
0.3749999999999997
 40
0.4999999999999993
 40
0.4999999999999993
 40
0.7499999999999997
 40
0.7499999999999997
 40
1.0
 40
1.0
 40
1.0
 40
1.0
 10
19.05000000000003
 20
-6.648814321294688
 30
0.0
 10
19.05000000000003
 20
-6.88369698095876
 30
0.0
 10
19.05000000000003
 20
-7.138039090382235
 30
0.0
 10
19.05000000000003
 20
-7.559342302183782
 30
0.0
 10
19.05000000000003
 20
-7.70620328171491
 30
0.0
 10
19.05000000000003
 20
-8.006602996866064
 30
0.0
 10
19.05000000000003
 20
-8.161019378688273
 30
0.0
 10
19.05000000000003
 20
-8.637259463910919
 30
0.0
 10
19.05000000000003
 20
-8.975182029350707
 30
0.0
 10
19.05000000000003
 20
-9.64895258366566
 30
0.0
 10
19.05000000000003
 20
-9.99107173692522
 30
0.0
 10
19.05000000000003
 20
-10.32953861099387
 30
0.0
  0
SPLINE
  5
23E
330
1F
100
AcDbEntity
  8
SK3
  6
SLD-Dashed
370
    18
100
AcDbSpline
210
0.0
220
0.0
230
1.0
 70
     8
 71
     3
 72
     8
 73
     4
 74
     0
 42
0.000000001
 43
0.00000001
 40
0.0
 40
0.0
 40
0.0
 40
0.0
 40
1.0
 40
1.0
 40
1.0
 40
1.0
 10
11.85037484302944
 20
-5.968209101515236
 30
0.0
 10
11.86178086872734
 20
-5.975075439535293
 30
0.0
 10
11.87318747515335
 20
-5.982020938079167
 30
0.0
 10
11.8845955124126
 20
-5.989045153016145
 30
0.0
  0
SPLINE
  5
23F
330
1F
100
AcDbEntity
  8
SK3
  6
SLD-Dashed
370
    18
100
AcDbSpline
210
0.0
220
0.0
230
1.0
 70
     8
 71
     3
 72
     8
 73
     4
 74
     0
 42
0.000000001
 43
0.00000001
 40
0.0
 40
0.0
 40
0.0
 40
0.0
 40
1.0
 40
1.0
 40
1.0
 40
1.0
 10
11.88459551241401
 20
-9.088680750586066
 30
0.0
 10
11.87318745919222
 20
-9.082191288425356
 30
0.0
 10
11.86178083675824
 20
-9.075621711988973
 30
0.0
 10
11.85037479500632
 20
-9.068972407623962
 30
0.0
  0
SPLINE
  5
240
330
1F
100
AcDbEntity
  8
SK3
  6
SLD-Dashed
370
    18
100
AcDbSpline
210
0.0
220
0.0
230
1.0
 70
     8
 71
     3
 72
    32
 73
    28
 74
     0
 42
0.000000001
 43
0.00000001
 40
0.4999999999999999
 40
0.4999999999999999
 40
0.4999999999999999
 40
0.4999999999999999
 40
0.5312499999999998
 40
0.5312499999999998
 40
0.5624999999999998
 40
0.5624999999999998
 40
0.5937499999999997
 40
0.5937499999999997
 40
0.6249999999999996
 40
0.6249999999999996
 40
0.6562499999999996
 40
0.6562499999999996
 40
0.6874999999999994
 40
0.6874999999999994
 40
0.7187499999999994
 40
0.7187499999999994
 40
0.7499999999999993
 40
0.7499999999999993
 40
0.8124999999999996
 40
0.8124999999999996
 40
0.8749999999999997
 40
0.8749999999999997
 40
0.9374999999999999
 40
0.9374999999999999
 40
0.96875
 40
0.96875
 40
1.0
 40
1.0
 40
1.0
 40
1.0
 10
-10.67270834197319
 20
-2.326942598334381
 30
0.0
 10
-10.73391604471577
 20
-2.45947910259349
 30
0.0
 10
-10.77026656261133
 20
-2.603519350191506
 30
0.0
 10
-10.7801873201961
 20
-2.887555832398102
 30
0.0
 10
-10.75389397223296
 20
-3.03056833762546
 30
0.0
 10
-10.64736802549222
 20
-3.292959785281928
 30
0.0
 10
-10.56790599597111
 20
-3.413132728386233
 30
0.0
 10
-10.37386256866024
 20
-3.625868964973793
 30
0.0
 10
-10.26146520263793
 20
-3.716872411575284
 30
0.0
 10
-10.01723304737777
 20
-3.874504891674915
 30
0.0
 10
-9.883955505296985
 20
-3.941596878390685
 30
0.0
 10
-9.61090779020013
 20
-4.053066976216845
 30
0.0
 10
-9.469848393172567
 20
-4.098300918635362
 30
0.0
 10
-9.180437779273076
 20
-4.172337449710198
 30
0.0
 10
-9.031408021121553
 20
-4.201109006548465
 30
0.0
 10
-8.734008515107874
 20
-4.2436674225418
 30
0.0
 10
-8.584834878680503
 20
-4.257701643207136
 30
0.0
 10
-8.136093402520626
 20
-4.281343356475579
 30
0.0
 10
-7.833556985512816
 20
-4.272717814677411
 30
0.0
 10
-7.233558095674858
 20
-4.211358260239169
 30
0.0
 10
-6.939834745763179
 20
-4.159397745735947
 30
0.0
 10
-6.366173200301042
 20
-4.006922064537371
 30
0.0
 10
-6.082751816365639
 20
-3.905656515061487
 30
0.0
 10
-5.693364216995081
 20
-3.700240852933467
 30
0.0
 10
-5.567955156023318
 20
-3.62169762354772
 30
0.0
 10
-5.341962373729165
 20
-3.440978095007007
 30
0.0
 10
-5.241074891590467
 20
-3.339739715408331
 30
0.0
 10
-5.161921460765787
 20
-3.218949076577313
 30
0.0
  0
SPLINE
  5
241
330
1F
100
AcDbEntity
  8
SK3
  6
SLD-Dashed
370
    18
100
AcDbSpline
210
0.0
220
0.0
230
1.0
 70
     8
 71
     3
 72
    34
 73
    30
 74
     0
 42
0.000000001
 43
0.00000001
 40
0.0
 40
0.0
 40
0.0
 40
0.0
 40
0.015625
 40
0.015625
 40
0.03125
 40
0.03125
 40
0.0468750000000001
 40
0.0468750000000001
 40
0.0625000000000001
 40
0.0625000000000001
 40
0.09375
 40
0.09375
 40
0.1249999999999999
 40
0.1249999999999999
 40
0.1562499999999998
 40
0.1562499999999998
 40
0.1874999999999998
 40
0.1874999999999998
 40
0.2499999999999998
 40
0.2499999999999998
 40
0.3124999999999998
 40
0.3124999999999998
 40
0.3749999999999998
 40
0.3749999999999998
 40
0.4374999999999998
 40
0.4374999999999998
 40
0.4687499999999998
 40
0.4687499999999998
 40
0.4999999999999999
 40
0.4999999999999999
 40
0.4999999999999999
 40
0.4999999999999999
 10
-5.161921460765758
 20
-3.218949076577306
 30
0.0
 10
-5.122344745353419
 20
-3.1585537571618
 30
0.0
 10
-5.089805289970522
 20
-3.095174780361185
 30
0.0
 10
-5.042096296069151
 20
-2.960997392131195
 30
0.0
 10
-5.027318517775853
 20
-2.889942219362347
 30
0.0
 10
-5.019685501280971
 20
-2.748306097838514
 30
0.0
 10
-5.026708641849911
 20
-2.675573422105955
 30
0.0
 10
-5.06093926137488
 20
-2.534791464384456
 30
0.0
 10
-5.087843934810266
 20
-2.466563615995523
 30
0.0
 10
-5.191531160970333
 20
-2.270622237230825
 30
0.0
 10
-5.287865662870983
 20
-2.155922577170608
 30
0.0
 10
-5.506835013111735
 20
-1.95130209673762
 30
0.0
 10
-5.627558947504788
 20
-1.863141121508746
 30
0.0
 10
-5.88329229629897
 20
-1.705014992421032
 30
0.0
 10
-6.018719438558792
 20
-1.635332608638004
 30
0.0
 10
-6.293503545682186
 20
-1.513523781511338
 30
0.0
 10
-6.433897960430119
 20
-1.460824773943908
 30
0.0
 10
-6.862443506492649
 20
-1.323024745054545
 30
0.0
 10
-7.160266498174625
 20
-1.257612712001047
 30
0.0
 10
-7.757663293573469
 20
-1.178156910028323
 30
0.0
 10
-8.05791330923633
 20
-1.163535013940425
 30
0.0
 10
-8.66189781240441
 20
-1.190804768752246
 30
0.0
 10
-8.963111433337042
 20
-1.232877539641311
 30
0.0
 10
-9.54473751987997
 20
-1.390006647318386
 30
0.0
 10
-9.828840542961695
 20
-1.506118159282012
 30
0.0
 10
-10.20472249095222
 20
-1.755622612789394
 30
0.0
 10
-10.32232273521429
 20
-1.852365758984426
 30
0.0
 10
-10.52462907246969
 20
-2.070287981401818
 30
0.0
 10
-10.61150063923061
 20
-2.194406094075271
 30
0.0
 10
-10.67270834197319
 20
-2.326942598334381
 30
0.0
  0
SPLINE
  5
242
330
1F
100
AcDbEntity
  8
1
  6
SLD-Dashed
370
    18
100
AcDbSpline
210
0.0
220
0.0
230
1.0
 70
     8
 71
     3
 72
    12
 73
     8
 74
     0
 42
0.000000001
 43
0.00000001
 40
0.0
 40
0.0
 40
0.0
 40
0.0
 40
0.2499999999999973
 40
0.2499999999999973
 40
0.4999999999999947
 40
0.4999999999999947
 40
1.0
 40
1.0
 40
1.0
 40
1.0
 10
19.05
 20
-21.87282089717739
 30
0.0
 10
19.04999999999995
 20
-21.76247195720634
 30
0.0
 10
19.07172602367742
 20
-21.65245645352094
 30
0.0
 10
19.15027124855702
 20
-21.44705575103693
 30
0.0
 10
19.20592559793959
 20
-21.35358308909066
 30
0.0
 10
19.41280103224634
 20
-21.10796205014945
 30
0.0
 10
19.60111307963643
 20
-20.99354717966762
 30
0.0
 10
19.81199999999998
 20
-20.96927976827053
 30
0.0
  0
SPLINE
  5
243
330
1F
100
AcDbEntity
  8
1
  6
SLD-Dashed
370
    18
100
AcDbSpline
210
0.0
220
0.0
230
1.0
 70
     8
 71
     3
 72
    11
 73
     7
 74
     0
 42
0.000000001
 43
0.00000001
 40
0.0
 40
0.0
 40
0.0
 40
0.0
 40
0.0175830147370138
 40
0.4685058445150727
 40
0.7334744172343542
 40
1.0
 40
1.0
 40
1.0
 40
1.0
 10
19.4767010821215
 20
22.30200423005893
 30
0.0
 10
19.47585110662563
 20
22.30266423752369
 30
0.0
 10
19.45320319934267
 20
22.32025037728937
 30
0.0
 10
19.52336050059199
 20
22.26259960081449
 30
0.0
 10
19.64798574966341
 20
22.17882624667789
 30
0.0
 10
19.75722191424904
 20
22.13446550221618
 30
0.0
 10
19.81199999999998
 20
22.11222015267175
 30
0.0
  0
SPLINE
  5
244
330
1F
100
AcDbEntity
  8
1
  6
SLD-Dashed
370
    18
100
AcDbSpline
210
0.0
220
0.0
230
1.0
 70
    24
 71
     2
 72
     6
 73
     3
 74
     0
 42
0.000000001
 43
0.00000001
 40
0.0
 40
0.0
 40
0.0
 40
0.5
 40
0.5
 40
0.5
 10
3.200000000000022
 20
-22.41
 30
0.0
 10
3.170046594816997
 20
-22.41
 30
0.0
 10
3.143989948468387
 20
-22.41
 30
0.0
  0
SPLINE
  5
245
330
1F
100
AcDbEntity
  8
1
  6
SLD-Dashed
370
    18
100
AcDbSpline
210
0.0
220
0.0
230
1.0
 70
    24
 71
     3
 72
     8
 73
     4
 74
     0
 42
0.000000001
 43
0.00000001
 40
0.5
 40
0.5
 40
0.5
 40
0.5
 40
0.75
 40
0.75
 40
0.75
 40
0.75
 10
3.143989948468387
 20
-22.41
 30
0.0
 10
3.13096162529411
 20
-22.41
 30
0.0
 10
3.118702915400076
 20
-22.41
 30
0.0
 10
3.110097290600009
 20
-22.41
 30
0.0
  0
SPLINE
  5
246
330
1F
100
AcDbEntity
  8
1
  6
SLD-Dashed
370
    18
100
AcDbSpline
210
0.0
220
0.0
230
1.0
 70
    24
 71
     3
 72
     8
 73
     4
 74
     0
 42
0.000000001
 43
0.00000001
 40
0.75
 40
0.75
 40
0.75
 40
0.75
 40
0.875
 40
0.875
 40
0.875
 40
0.875
 10
3.110097290600009
 20
-22.41
 30
0.0
 10
3.105794478199988
 20
-22.41
 30
0.0
 10
3.102387817649571
 20
-22.41
 30
0.0
 10
3.100090445590162
 20
-22.41
 30
0.0
  0
SPLINE
  5
247
330
1F
100
AcDbEntity
  8
1
  6
SLD-Dashed
370
    18
100
AcDbSpline
210
0.0
220
0.0
230
1.0
 70
    24
 71
     2
 72
     6
 73
     3
 74
     0
 42
0.000000001
 43
0.00000001
 40
0.875
 40
0.875
 40
0.875
 40
1.0
 40
1.0
 40
1.0
 10
3.100090445590162
 20
-22.41
 30
0.0
 10
3.097793073530766
 20
-22.41
 30
0.0
 10
3.096606526413095
 20
-22.41
 30
0.0
  0
SPLINE
  5
248
330
1F
100
AcDbEntity
  8
1
  6
SLD-Dashed
370
    18
100
AcDbSpline
210
0.0
220
0.0
230
1.0
 70
    24
 71
     3
 72
    13
 73
     9
 74
     0
 42
0.000000001
 43
0.00000001
 40
0.0
 40
0.0
 40
0.0
 40
0.0
 40
0.1199107209095415
 40
0.3143505651579035
 40
0.4857542309468967
 40
0.6571587800657017
 40
0.8285585995311987
 40
1.0
 40
1.0
 40
1.0
 40
1.0
 10
3.099369385696771
 20
-22.41
 30
0.0
 10
3.100396286747256
 20
-22.41
 30
0.0
 10
3.10308834733311
 20
-22.41
 30
0.0
 10
3.121775884855404
 20
-22.41
 30
0.0
 10
3.147160229884455
 20
-22.41
 30
0.0
 10
3.172583784536401
 20
-22.40999999999999
 30
0.0
 10
3.194475805462504
 20
-22.41
 30
0.0
 10
3.198158452939304
 20
-22.41
 30
0.0
 10
3.200000000000022
 20
-22.41
 30
0.0
  0
SPLINE
  5
249
330
1F
100
AcDbEntity
  8
1
  6
SLD-Dashed
370
    18
100
AcDbSpline
210
0.0
220
0.0
230
1.0
 70
     8
 71
     3
 72
    40
 73
    36
 74
     0
 42
0.000000001
 43
0.00000001
 40
0.0
 40
0.0
 40
0.0
 40
0.0
 40
0.0625000000000006
 40
0.0625000000000006
 40
0.1250000000000011
 40
0.1250000000000011
 40
0.1875000000000017
 40
0.1875000000000017
 40
0.2500000000000022
 40
0.2500000000000022
 40
0.3125000000000028
 40
0.3125000000000028
 40
0.3437500000000028
 40
0.3437500000000028
 40
0.3750000000000028
 40
0.3750000000000028
 40
0.4375000000000028
 40
0.4375000000000028
 40
0.5000000000000028
 40
0.5000000000000028
 40
0.5625000000000028
 40
0.5625000000000028
 40
0.6250000000000028
 40
0.6250000000000028
 40
0.6875000000000028
 40
0.6875000000000028
 40
0.7500000000000023
 40
0.7500000000000023
 40
0.8125000000000019
 40
0.8125000000000019
 40
0.8437500000000012
 40
0.8437500000000012
 40
0.8750000000000007
 40
0.8750000000000007
 40
1.0
 40
1.0
 40
1.0
 40
1.0
 10
19.81199999999998
 20
22.11222015267175
 30
0.0
 10
19.93344156324535
 20
22.07175905517697
 30
0.0
 10
20.08687124964174
 20
22.02153220420736
 30
0.0
 10
20.45923360780784
 20
21.90495967979846
 30
0.0
 10
20.6762374597922
 20
21.83928801069887
 30
0.0
 10
21.1610205476994
 20
21.70117249489375
 30
0.0
 10
21.4300071786692
 20
21.62832671286652
 30
0.0
 10
22.02257374520537
 20
21.48037997747634
 30
0.0
 10
22.34244477022641
 20
21.40632043672626
 30
0.0
 10
23.01647266664723
 20
21.26605967752013
 30
0.0
 10
23.37232544275207
 20
21.19940886009641
 30
0.0
 10
23.93514247222507
 20
21.10851205126946
 30
0.0
 10
24.12795921698448
 20
21.07970397135239
 30
0.0
 10
24.51668985643494
 20
21.02666914985452
 30
0.0
 10
24.7133942587184
 20
21.00230443827482
 30
0.0
 10
25.31040547707035
 20
20.93622038755265
 30
0.0
 10
25.71756828474701
 20
20.90150685555868
 30
0.0
 10
26.55058766183056
 20
20.85369056125196
 30
0.0
 10
26.9763850100027
 20
20.84087275046177
 30
0.0
 10
27.81673148635179
 20
20.8389137717122
 30
0.0
 10
28.23508103281962
 20
20.84949006121099
 30
0.0
 10
29.06810665444075
 20
20.89315237128848
 30
0.0
 10
29.48493001295134
 20
20.926642845209
 30
0.0
 10
30.28646779690884
 20
21.01180335568427
 30
0.0
 10
30.67456953264482
 20
21.06353540296975
 30
0.0
 10
31.42557005114961
 20
21.1814701589291
 30
0.0
 10
31.79127449775447
 20
21.24833444999503
 30
0.0
 10
32.47473549175957
 20
21.38794846302218
 30
0.0
 10
32.79432788517685
 20
21.46083858682385
 30
0.0
 10
33.24091831433111
 20
21.57074862788778
 30
0.0
 10
33.384290056074
 20
21.6074824945507
 30
0.0
 10
33.6597975475832
 20
21.68045495065433
 30
0.0
 10
33.79220836996726
 20
21.71678127193592
 30
0.0
 10
34.41341062811083
 20
21.89200363224759
 30
0.0
 10
34.79314888145036
 20
22.01441835536688
 30
0.0
 10
35.05200000000001
 20
22.10025417666303
 30
0.0
  0
SPLINE
  5
24A
330
1F
100
AcDbEntity
  8
1
  6
SLD-Dashed
370
    18
100
AcDbSpline
210
0.0
220
0.0
230
1.0
 70
     8
 71
     3
 72
    12
 73
     8
 74
     0
 42
0.000000001
 43
0.00000001
 40
0.0
 40
0.0
 40
0.0
 40
0.0
 40
0.1253893255154888
 40
0.3772238710094444
 40
0.6327052855145574
 40
0.8918939844855758
 40
1.0
 40
1.0
 40
1.0
 40
1.0
 10
35.05200000000001
 20
22.10025417666305
 30
0.0
 10
35.07838369949416
 20
22.08348436120012
 30
0.0
 10
35.15775697320643
 20
22.03303369740528
 30
0.0
 10
35.26123663166185
 20
21.96857035023073
 30
0.0
 10
35.34535243677166
 20
21.91682670104152
 30
0.0
 10
35.38029777956795
 20
21.895547425181
 30
0.0
 10
35.38196357149039
 20
21.89453224871136
 30
0.0
 10
35.38245386476256
 20
21.89423345137275
 30
0.0
  0
SPLINE
  5
24B
330
1F
100
AcDbEntity
  8
SK3
  6
SLD-Dashed
370
    18
100
AcDbSpline
210
0.0
220
0.0
230
1.0
 70
     8
 71
     3
 72
    10
 73
     6
 74
     0
 42
0.000000001
 43
0.00000001
 40
0.0
 40
0.0
 40
0.0
 40
0.0
 40
0.5
 40
0.5
 40
1.0
 40
1.0
 40
1.0
 40
1.0
 10
18.70470837592288
 20
25.57912025275686
 30
0.0
 10
18.66514338213333
 20
25.52310107590331
 30
0.0
 10
18.62842911249975
 20
25.46562249807945
 30
0.0
 10
18.57073957446644
 20
25.34260791126143
 30
0.0
 10
18.55000000000005
 20
25.27482658978055
 30
0.0
 10
18.55000000000003
 20
25.20500000000003
 30
0.0
  0
SPLINE
  5
24C
330
1F
100
AcDbEntity
  8
SK3
  6
SLD-Dashed
370
    18
100
AcDbSpline
210
0.0
220
0.0
230
1.0
 70
     8
 71
     3
 72
    10
 73
     6
 74
     0
 42
0.000000001
 43
0.00000001
 40
0.0
 40
0.0
 40
0.0
 40
0.0
 40
0.5
 40
0.5
 40
1.0
 40
1.0
 40
1.0
 40
1.0
 10
3.700000000000008
 20
25.20500000000003
 30
0.0
 10
3.699999999999994
 20
25.2744618870064
 30
0.0
 10
3.679668344672994
 20
25.3415787689919
 30
0.0
 10
3.621774626393179
 20
25.46534569655892
 30
0.0
 10
3.584972825281707
 20
25.52292618711532
 30
0.0
 10
3.545388844997968
 20
25.57898258716477
 30
0.0
  0
SPLINE
  5
24D
330
1F
100
AcDbEntity
  8
SK3
  6
SLD-Dashed
370
    18
100
AcDbSpline
210
0.0
220
0.0
230
1.0
 70
     8
 71
     3
 72
     8
 73
     4
 74
     0
 42
0.000000001
 43
0.00000001
 40
0.0
 40
0.0
 40
0.0
 40
0.0
 40
1.0
 40
1.0
 40
1.0
 40
1.0
 10
19.01694340045716
 20
-22.4099999999989
 30
0.0
 10
19.02696214530773
 20
-22.3765387344842
 30
0.0
 10
19.03803652644022
 20
-22.34352960859711
 30
0.0
 10
19.05000000000003
 20
-22.31089809933879
 30
0.0
  0
SPLINE
  5
24E
330
1F
100
AcDbEntity
  8
SK3
  6
SLD-Dashed
370
    18
100
AcDbSpline
210
0.0
220
0.0
230
1.0
 70
    24
 71
     3
 72
     8
 73
     4
 74
     0
 42
0.000000001
 43
0.00000001
 40
0.0
 40
0.0
 40
0.0
 40
0.0
 40
0.5000000000000033
 40
0.5000000000000033
 40
0.5000000000000033
 40
0.5000000000000033
 10
19.01694340045716
 20
-22.4099999999989
 30
0.0
 10
18.9457268809136
 20
-22.4099999999989
 30
0.0
 10
18.87629014056512
 20
-22.4099999999989
 30
0.0
 10
18.81637144509497
 20
-22.4099999999989
 30
0.0
  0
SPLINE
  5
24F
330
1F
100
AcDbEntity
  8
SK3
  6
SLD-Dashed
370
    18
100
AcDbSpline
210
0.0
220
0.0
230
1.0
 70
    24
 71
     3
 72
     8
 73
     4
 74
     0
 42
0.000000001
 43
0.00000001
 40
0.5000000000000033
 40
0.5000000000000033
 40
0.5000000000000033
 40
0.5000000000000033
 40
0.7500000000000017
 40
0.7500000000000017
 40
0.7500000000000017
 40
0.7500000000000017
 10
18.81637144509497
 20
-22.4099999999989
 30
0.0
 10
18.78641209735989
 20
-22.4099999999989
 30
0.0
 10
18.75912698202901
 20
-22.40999999999891
 30
0.0
 10
18.73855188787833
 20
-22.4099999999989
 30
0.0
  0
SPLINE
  5
250
330
1F
100
AcDbEntity
  8
SK3
  6
SLD-Dashed
370
    18
100
AcDbSpline
210
0.0
220
0.0
230
1.0
 70
    24
 71
     2
 72
     6
 73
     3
 74
     0
 42
0.000000001
 43
0.00000001
 40
0.7500000000000017
 40
0.7500000000000017
 40
0.7500000000000017
 40
1.0
 40
1.0
 40
1.0
 10
18.73855188787833
 20
-22.4099999999989
 30
0.0
 10
18.71797679372762
 20
-22.40999999999957
 30
0.0
 10
18.70461115500018
 20
-22.41
 30
0.0
  0
SPLINE
  5
251
330
1F
100
AcDbEntity
  8
SK3
  6
SLD-Dashed
370
    18
100
AcDbSpline
210
0.0
220
0.0
230
1.0
 70
    24
 71
     2
 72
     6
 73
     3
 74
     0
 42
0.000000001
 43
0.00000001
 40
0.0
 40
0.0
 40
0.0
 40
0.2500000000000002
 40
0.2500000000000002
 40
0.2500000000000002
 10
3.545291624077171
 20
-22.41
 30
0.0
 10
3.529781518569377
 20
-22.41
 30
0.0
 10
3.506264354048619
 20
-22.41
 30
0.0
  0
SPLINE
  5
252
330
1F
100
AcDbEntity
  8
SK3
  6
SLD-Dashed
370
    18
100
AcDbSpline
210
0.0
220
0.0
230
1.0
 70
    24
 71
     3
 72
     8
 73
     4
 74
     0
 42
0.000000001
 43
0.00000001
 40
0.2500000000000002
 40
0.2500000000000002
 40
0.2500000000000002
 40
0.2500000000000002
 40
0.5000000000000004
 40
0.5000000000000004
 40
0.5000000000000004
 40
0.5000000000000004
 10
3.506264354048619
 20
-22.41
 30
0.0
 10
3.48274718952786
 20
-22.41
 30
0.0
 10
3.452323510010777
 20
-22.41
 30
0.0
 10
3.419371480420985
 20
-22.41
 30
0.0
  0
SPLINE
  5
253
330
1F
100
AcDbEntity
  8
SK3
  6
SLD-Dashed
370
    18
100
AcDbSpline
210
0.0
220
0.0
230
1.0
 70
    24
 71
     3
 72
     8
 73
     4
 74
     0
 42
0.000000001
 43
0.00000001
 40
0.5000000000000004
 40
0.5000000000000004
 40
0.5000000000000004
 40
0.5000000000000004
 40
1.0
 40
1.0
 40
1.0
 40
1.0
 10
3.419371480420985
 20
-22.41
 30
0.0
 10
3.353467421241402
 20
-22.41
 30
0.0
 10
3.27748356546001
 20
-22.41
 30
0.0
 10
3.200000000000022
 20
-22.41
 30
0.0
  0
SPLINE
  5
254
330
1F
100
AcDbEntity
  8
SK3
  6
SLD-Dashed
370
    18
100
AcDbSpline
210
0.0
220
0.0
230
1.0
 70
     8
 71
     3
 72
    32
 73
    28
 74
     0
 42
0.000000001
 43
0.00000001
 40
0.5000000000000009
 40
0.5000000000000009
 40
0.5000000000000009
 40
0.5000000000000009
 40
0.5156250000000009
 40
0.5156250000000009
 40
0.5312500000000008
 40
0.5312500000000008
 40
0.5625000000000009
 40
0.5625000000000009
 40
0.5937500000000009
 40
0.5937500000000009
 40
0.625000000000001
 40
0.625000000000001
 40
0.656250000000001
 40
0.656250000000001
 40
0.6875000000000011
 40
0.6875000000000011
 40
0.7500000000000012
 40
0.7500000000000012
 40
0.8125000000000011
 40
0.8125000000000011
 40
0.875000000000001
 40
0.875000000000001
 40
0.9062500000000008
 40
0.9062500000000008
 40
0.9375000000000007
 40
0.9375000000000007
 40
1.0
 40
1.0
 40
1.0
 40
1.0
 10
-5.15198106685795
 20
3.203477502846851
 30
0.0
 10
-5.113787747057522
 20
3.142827929020188
 30
0.0
 10
-5.082258485681418
 20
3.078179910381798
 30
0.0
 10
-5.03785663970617
 20
2.943602971670969
 30
0.0
 10
-5.024785959096182
 20
2.872038386738218
 30
0.0
 10
-5.018701257533037
 20
2.659138716706352
 30
0.0
 10
-5.059347800110165
 20
2.515337875612762
 30
0.0
 10
-5.202056464303037
 20
2.256447716335486
 30
0.0
 10
-5.298972638314803
 20
2.14373666189395
 30
0.0
 10
-5.520617459391114
 20
1.940446269658801
 30
0.0
 10
-5.641998976020385
 20
1.853230377255668
 30
0.0
 10
-5.897543184031198
 20
1.697302781718355
 30
0.0
 10
-6.032846493617142
 20
1.628418148693876
 30
0.0
 10
-6.308821777321255
 20
1.507459141346035
 30
0.0
 10
-6.449386170857482
 20
1.455329902929542
 30
0.0
 10
-6.877327218934498
 20
1.31935556228209
 30
0.0
 10
-7.171841427627779
 20
1.255352796580227
 30
0.0
 10
-7.771372487361719
 20
1.177084992538831
 30
0.0
 10
-8.070918916113918
 20
1.163479858669624
 30
0.0
 10
-8.669536116449535
 20
1.191814522377627
 30
0.0
 10
-8.972167389492816
 20
1.234533394240088
 30
0.0
 10
-9.407942146967718
 20
1.353464176753361
 30
0.0
 10
-9.55032187961792
 20
1.402200320738137
 30
0.0
 10
-9.82780455726899
 20
1.522477961444162
 30
0.0
 10
-9.961656181655677
 20
1.593656000735848
 30
0.0
 10
-10.33457952588937
 20
1.843116135361575
 30
0.0
 10
-10.5525959055448
 20
2.063067335491803
 30
0.0
 10
-10.67545870530323
 20
2.33294071999382
 30
0.0
  0
SPLINE
  5
255
330
1F
100
AcDbEntity
  8
SK3
  6
SLD-Dashed
370
    18
100
AcDbSpline
210
0.0
220
0.0
230
1.0
 70
     8
 71
     3
 72
    30
 73
    26
 74
     0
 42
0.000000001
 43
0.00000001
 40
0.0
 40
0.0
 40
0.0
 40
0.0
 40
0.0312500000000002
 40
0.0312500000000002
 40
0.0625000000000003
 40
0.0625000000000003
 40
0.0937500000000005
 40
0.0937500000000005
 40
0.1250000000000007
 40
0.1250000000000007
 40
0.1562500000000008
 40
0.1562500000000008
 40
0.187500000000001
 40
0.187500000000001
 40
0.2500000000000009
 40
0.2500000000000009
 40
0.3125000000000009
 40
0.3125000000000009
 40
0.3750000000000008
 40
0.3750000000000008
 40
0.4375000000000008
 40
0.4375000000000008
 40
0.4687500000000008
 40
0.4687500000000008
 40
0.5000000000000009
 40
0.5000000000000009
 40
0.5000000000000009
 40
0.5000000000000009
 10
-10.67545870530325
 20
2.332940719993813
 30
0.0
 10
-10.73689010518246
 20
2.467877412244829
 30
0.0
 10
-10.77167745705342
 20
2.610485037785486
 30
0.0
 10
-10.77929490750559
 20
2.897458754669735
 30
0.0
 10
-10.75154545529722
 20
3.03949949779396
 30
0.0
 10
-10.64269969440694
 20
3.301100293797876
 30
0.0
 10
-10.56140965673204
 20
3.421615147863904
 30
0.0
 10
-10.36762962043596
 20
3.63124923064289
 30
0.0
 10
-10.25328163701038
 20
3.723054816023655
 30
0.0
 10
-10.00709479173886
 20
3.880077925880951
 30
0.0
 10
-9.875944970503841
 20
3.945388658331467
 30
0.0
 10
-9.601300639949391
 20
4.056432883957482
 30
0.0
 10
-9.457318074769628
 20
4.102021817415598
 30
0.0
 10
-9.02283364873148
 20
4.211553889853274
 30
0.0
 10
-8.725387326438405
 20
4.251018359580069
 30
0.0
 10
-8.118893220674634
 20
4.281495970398272
 30
0.0
 10
-7.818224351661004
 20
4.271770609039834
 30
0.0
 10
-7.223507490664346
 20
4.209682551062071
 30
0.0
 10
-6.927832579246229
 20
4.157128842571987
 30
0.0
 10
-6.348467709560476
 20
4.001246447787523
 30
0.0
 10
-6.068269480145188
 20
3.899919204085382
 30
0.0
 10
-5.678072168321877
 20
3.691137947637583
 30
0.0
 10
-5.554990549522423
 20
3.612885240055625
 30
0.0
 10
-5.329926098240942
 20
3.429616475777261
 30
0.0
 10
-5.228367706458806
 20
3.324776650500183
 30
0.0
 10
-5.15198106685795
 20
3.203477502846851
 30
0.0
  0
SPLINE
  5
256
330
1F
100
AcDbEntity
  8
SK3
  6
SLD-Dashed
370
    18
100
AcDbSpline
210
0.0
220
0.0
230
1.0
 70
     8
 71
     3
 72
    40
 73
    36
 74
     0
 42
0.000000001
 43
0.00000001
 40
0.0
 40
0.0
 40
0.0
 40
0.0
 40
0.0126129321449816
 40
0.0314976481339604
 40
0.0629183966702564
 40
0.0880663439714168
 40
0.1258663548219043
 40
0.1545361786951687
 40
0.1972635113751465
 40
0.2185774264758751
 40
0.2505499734499138
 40
0.2790323571745755
 40
0.3220275475257124
 40
0.3436168159336463
 40
0.3758133620275749
 40
0.404289809506831
 40
0.4468993710431156
 40
0.468210972392158
 40
0.5002437124696447
 40
0.5288533887317777
 40
0.5719828275869667
 40
0.5934420637179458
 40
0.6254916984483699
 40
0.6539107272569499
 40
0.6965262692674994
 40
0.7178823906336999
 40
0.7500313093276819
 40
0.7787800102949101
 40
0.8217645159398103
 40
0.8431483194632992
 40
0.8751517844153629
 40
0.9000181010942334
 40
0.9373587731677226
 40
0.9685909586685477
 40
1.0
 40
1.0
 40
1.0
 40
1.0
 10
3.949999999998899
 20
-30.22558142012364
 30
0.0
 10
3.947274304054435
 20
-30.22556434752346
 30
0.0
 10
3.940467559136407
 20
-30.22552171296815
 30
0.0
 10
3.926878079312829
 20
-30.22500449703394
 30
0.0
 10
3.910614550228702
 20
-30.22373214657328
 30
0.0
 10
3.89037736176355
 20
-30.22117483723317
 30
0.0
 10
3.870876571852033
 20
-30.21766990056472
 30
0.0
 10
3.847909402640792
 20
-30.21222207486607
 30
0.0
 10
3.828703761990057
 20
-30.20644931168604
 30
0.0
 10
3.809172441364889
 20
-30.19943885792489
 30
0.0
 10
3.792810014292172
 20
-30.19274290251866
 30
0.0
 10
3.772556787560235
 20
-30.18326307338683
 30
0.0
 10
3.75485222973386
 20
-30.17368149207815
 30
0.0
 10
3.737001129755918
 20
-30.16277896347313
 30
0.0
 10
3.722237930658983
 20
-30.15285978974808
 30
0.0
 10
3.704336292931792
 20
-30.13951958199216
 30
0.0
 10
3.689010882644311
 20
-30.12669241146887
 30
0.0
 10
3.673804931859079
 20
-30.11259090121807
 30
0.0
 10
3.661328526176205
 20
-30.10000934793183
 30
0.0
 10
3.646311367638364
 20
-30.08334675455453
 30
0.0
 10
3.633674708738405
 20
-30.0676414670618
 30
0.0
 10
3.621410566074512
 20
-30.05073531891782
 30
0.0
 10
3.611611223628936
 20
-30.03598007668936
 30
0.0
 10
3.600156512781671
 20
-30.01686769647027
 30
0.0
 10
3.590829750079544
 20
-29.99919574996681
 30
0.0
 10
3.582035812874667
 20
-29.98037484052064
 30
0.0
 10
3.575165778815601
 20
-29.96397246361067
 30
0.0
 10
3.567449829656524
 20
-29.9428852210927
 30
0.0
 10
3.561558066370693
 20
-29.92362739013729
 30
0.0
 10
3.556428567390843
 20
-29.90344062128828
 30
0.0
 10
3.552918981595654
 20
-29.88689085311455
 30
0.0
 10
3.549536425733843
 20
-29.86681061568513
 30
0.0
 10
3.547124737183383
 20
-29.84675343612379
 30
0.0
 10
3.545564419127054
 20
-29.82519260420115
 30
0.0
 10
3.54538272675127
 20
-29.81165457437737
 30
0.0
 10
3.545291624076103
 20
-29.8048664484133
 30
0.0
  0
SPLINE
  5
257
330
1F
100
AcDbEntity
  8
SK3
  6
SLD-Dashed
370
    18
100
AcDbSpline
210
0.0
220
0.0
230
1.0
 70
     8
 71
     3
 72
    40
 73
    36
 74
     0
 42
0.000000001
 43
0.00000001
 40
0.0
 40
0.0
 40
0.0
 40
0.0
 40
0.0314214559572227
 40
0.0627294389671943
 40
0.0877405066521885
 40
0.125275232669724
 40
0.1539551384600139
 40
0.1970430837597965
 40
0.2184753360378567
 40
0.2505176110611755
 40
0.2789492345937477
 40
0.3216198597593979
 40
0.3430128235413608
 40
0.3752634384750789
 40
0.4040010771804361
 40
0.4468656794915655
 40
0.4682159459362438
 40
0.5002096454815023
 40
0.5286754137344519
 40
0.5715400247765465
 40
0.5931009716299148
 40
0.6253883780511632
 40
0.6539191343952845
 40
0.696591424456682
 40
0.7179237821488482
 40
0.749974649427047
 40
0.7785976316863411
 40
0.795854339812784
 40
0.8217160693566484
 40
0.8431552865480455
 40
0.8751886732441913
 40
0.9000580147531466
 40
0.9373794059838183
 40
0.9685930788650419
 40
0.9999999999999999
 40
0.9999999999999999
 40
0.9999999999999999
 40
0.9999999999999999
 10
18.70461115500192
 20
-29.80485527419841
 30
0.0
 10
18.70451980286354
 20
-29.81164440520548
 30
0.0
 10
18.70433742848853
 20
-29.82519814949179
 30
0.0
 10
18.70296728595201
 20
-29.84411564286004
 30
0.0
 10
18.70072137877139
 20
-29.86427043795471
 30
0.0
 10
18.69761618492967
 20
-29.88374590039356
 30
0.0
 10
18.6927587858093
 20
-29.90686111791569
 30
0.0
 10
18.68756401153336
 20
-29.92633239392293
 30
0.0
 10
18.6812196607601
 20
-29.94620899181277
 30
0.0
 10
18.67516357609368
 20
-29.96284451017634
 30
0.0
 10
18.66659391017357
 20
-29.98342104192521
 30
0.0
 10
18.65792216957786
 20
-30.00144320562835
 30
0.0
 10
18.64799759935261
 20
-30.01973532130568
 30
0.0
 10
18.63887055578693
 20
-30.03502499592459
 30
0.0
 10
18.62647938435723
 20
-30.05373739732937
 30
0.0
 10
18.61447418288871
 20
-30.06985792745573
 30
0.0
 10
18.60124205632123
 20
-30.08589113399747
 30
0.0
 10
18.58942860682681
 20
-30.09904955418359
 30
0.0
 10
18.57374043191444
 20
-30.11493869793074
 30
0.0
 10
18.55884768057943
 20
-30.12841850147778
 30
0.0
 10
18.54265426161454
 20
-30.14162746302955
 30
0.0
 10
18.52838800292801
 20
-30.15228399886077
 30
0.0
 10
18.50983571493524
 20
-30.16477481501635
 30
0.0
 10
18.49262445031484
 20
-30.17498291257689
 30
0.0
 10
18.47424607318986
 20
-30.18462804605511
 30
0.0
 10
18.45820753870477
 20
-30.1921766794648
 30
0.0
 10
18.44263074348686
 20
-30.19858412922857
 30
0.0
 10
18.4280832437388
 20
-30.20393768674263
 30
0.0
 10
18.41482664955695
 20
-30.2082886119914
 30
0.0
 10
18.39834274985592
 20
-30.21299666641594
 30
0.0
 10
18.38186940102375
 20
-30.21692139734203
 30
0.0
 10
18.36186218647022
 20
-30.22070805123951
 30
0.0
 10
18.34185224742001
 20
-30.2234114028093
 30
0.0
 10
18.32031695323612
 20
-30.22516290854393
 30
0.0
 10
18.306786236422
 20
-30.22536701808553
 30
0.0
 10
18.30000000000005
 20
-30.22546938779914
 30
0.0
  0
SPLINE
  5
258
330
1F
100
AcDbEntity
  8
SK3
  6
SLD-Dashed
370
    18
100
AcDbSpline
210
0.0
220
0.0
230
1.0
 70
     8
 71
     3
 72
    40
 73
    36
 74
     0
 42
0.000000001
 43
0.00000001
 40
0.0
 40
0.0
 40
0.0
 40
0.0
 40
0.0125929119920853
 40
0.0314096195346373
 40
0.0626234169499198
 40
0.0875147363747587
 40
0.124814412830725
 40
0.1532834083387407
 40
0.1962265830891685
 40
0.2178107992109856
 40
0.2500224951329321
 40
0.2785169301552057
 40
0.3211718523043689
 40
0.3425182663517161
 40
0.3746092478105291
 40
0.4033018002026093
 40
0.4463503818994342
 40
0.4677602234265854
 40
0.4997883410590171
 40
0.5282270395863745
 40
0.5709521530205331
 40
0.5924138618617291
 40
0.6247350591047612
 40
0.6534144483970801
 40
0.6961683199419044
 40
0.7174969314503464
 40
0.7494813527194152
 40
0.7779588669976988
 40
0.8208766717687367
 40
0.8424514691504715
 40
0.874724282179473
 40
0.8997563983109313
 40
0.9372703102803501
 40
0.968578418532575
 40
0.9999999999999999
 40
0.9999999999999999
 40
0.9999999999999999
 40
0.9999999999999999
 10
18.30000000000006
 20
30.22558142012642
 30
0.0
 10
18.30272136951243
 20
30.2255644174685
 30
0.0
 10
18.30950909113326
 20
30.22552200892816
 30
0.0
 10
18.32303491151129
 20
30.22500878447086
 30
0.0
 10
18.33918410220827
 20
30.22374990827885
 30
0.0
 10
18.35921637335285
 20
30.22123374888839
 30
0.0
 10
18.37851743465278
 20
30.21779055348818
 30
0.0
 10
18.4013925941177
 20
30.2124101571383
 30
0.0
 10
18.42066868063115
 20
30.20665667098936
 30
0.0
 10
18.44035778154608
 20
30.19962160064931
 30
0.0
 10
18.45683219318452
 20
30.19290122073895
 30
0.0
 10
18.47707551770182
 20
30.18344563237709
 30
0.0
 10
18.49468238340836
 20
30.17394373601334
 30
0.0
 10
18.51242282863928
 20
30.1631457547134
 30
0.0
 10
18.52718102114116
 20
30.15327064640553
 30
0.0
 10
18.54520190007995
 20
30.13989144466213
 30
0.0
 10
18.56066753372131
 20
30.12697740010819
 30
0.0
 10
18.57597030022935
 20
30.11281096127927
 30
0.0
 10
18.58844277986745
 20
30.10024903998077
 30
0.0
 10
18.60339048841035
 20
30.08369276015746
 30
0.0
 10
18.61596948562734
 20
30.06810049270646
 30
0.0
 10
18.62824307125509
 20
30.05123600708184
 30
0.0
 10
18.63812738344199
 20
30.03639837328908
 30
0.0
 10
18.64967535556762
 20
30.01717281850426
 30
0.0
 10
18.65905060754961
 20
29.99943559548715
 30
0.0
 10
18.66785100498268
 20
29.98063051707892
 30
0.0
 10
18.67469312836918
 20
29.96432508828283
 30
0.0
 10
18.68239354934316
 20
29.94334796470476
 30
0.0
 10
18.68830098830935
 20
29.92412819400953
 30
0.0
 10
18.69347515991064
 20
29.90386495846922
 30
0.0
 10
18.69702701390045
 20
29.88718562683122
 30
0.0
 10
18.70044011360975
 20
29.86697716337642
 30
0.0
 10
18.70287111134992
 20
29.84683182165026
 30
0.0
 10
18.70443405316875
 20
29.82521437831679
 30
0.0
 10
18.70461682479817
 20
29.81165726630968
 30
0.0
 10
18.70470837592284
 20
29.80486644841631
 30
0.0
  0
SPLINE
  5
259
330
1F
100
AcDbEntity
  8
SK3
  6
SLD-Dashed
370
    18
100
AcDbSpline
210
0.0
220
0.0
230
1.0
 70
     8
 71
     3
 72
    39
 73
    35
 74
     0
 42
0.000000001
 43
0.00000001
 40
0.0
 40
0.0
 40
0.0
 40
0.0
 40
0.0314091160307674
 40
0.0626413758641538
 40
0.0875470935131885
 40
0.1248485138287456
 40
0.1532930400450731
 40
0.1960941157944613
 40
0.2176225947738233
 40
0.2499693772004398
 40
0.2785546285585068
 40
0.3212364873026817
 40
0.3425405354923858
 40
0.3745092858974068
 40
0.4029918411019298
 40
0.4459785689856149
 40
0.4675618916159466
 40
0.4997576608210499
 40
0.5282368343000431
 40
0.5708480092884092
 40
0.5921584935845995
 40
0.6241883328452476
 40
0.6527986190299354
 40
0.6959401501309849
 40
0.7174023419155745
 40
0.7494519752642005
 40
0.7778741158300017
 40
0.8205144520917228
 40
0.8418962920619149
 40
0.8741359236783777
 40
0.8993502252909598
 40
0.9370840470446206
 40
0.9685048711195197
 40
1.0
 40
1.0
 40
1.0
 40
1.0
 10
3.545388844997968
 20
29.80485527419826
 30
0.0
 10
3.545479748550569
 20
29.81164171345385
 30
0.0
 10
3.545661043802589
 20
29.82517637936967
 30
0.0
 10
3.547029433803331
 20
29.84405190465714
 30
0.0
 10
3.549258968233809
 20
29.86411824570159
 30
0.0
 10
3.552336224857521
 20
29.88347227622581
 30
0.0
 10
3.55714177974675
 20
29.9064312484356
 30
0.0
 10
3.562288225622182
 20
29.92581971282426
 30
0.0
 10
3.568614089357711
 20
29.94572790966326
 30
0.0
 10
3.574692956926401
 20
29.96248267210261
 30
0.0
 10
3.583287776048117
 20
29.98315850998394
 30
0.0
 10
3.591955015312258
 20
30.00120090567663
 30
0.0
 10
3.601831018727642
 20
30.01943081107649
 30
0.0
 10
3.610874012133418
 20
30.03461278108224
 30
0.0
 10
3.623189627258743
 20
30.05326734966763
 30
0.0
 10
3.635184378154367
 20
30.06942261759879
 30
0.0
 10
3.648473969075887
 20
30.08556438898112
 30
0.0
 10
3.660340157340346
 20
30.09880574838229
 30
0.0
 10
3.67601253149724
 20
30.11469877887869
 30
0.0
 10
3.690813818886917
 20
30.1281209668681
 30
0.0
 10
3.706862089264392
 20
30.14124723286364
 30
0.0
 10
3.721035740664457
 20
30.15187245989082
 30
0.0
 10
3.73961592045556
 20
30.16443427377516
 30
0.0
 10
3.756939716856908
 20
30.17474090541247
 30
0.0
 10
3.775422312926241
 20
30.18446497823756
 30
0.0
 10
3.791441042936022
 20
30.19201976729603
 30
0.0
 10
3.812039955628066
 20
30.20051935318397
 30
0.0
 10
3.830933874073433
 20
30.20705284128373
 30
0.0
 10
3.850922478500732
 20
30.21280585013026
 30
0.0
 10
3.867492347984378
 20
30.21678677988687
 30
0.0
 10
3.88769863824992
 20
30.22064109222357
 30
0.0
 10
3.907913014965722
 20
30.22338985618058
 30
0.0
 10
3.929600305356967
 20
30.2251603474869
 30
0.0
 10
3.943194750029202
 20
30.22536629328657
 30
0.0
 10
3.949999999999967
 20
30.22546938779911
 30
0.0
  0
SPLINE
  5
25A
330
1F
100
AcDbEntity
  8
SK3
  6
SLD-Dashed
370
    18
100
AcDbSpline
210
0.0
220
0.0
230
1.0
 70
     8
 71
     2
 72
     6
 73
     3
 74
     0
 42
0.000000001
 43
0.00000001
 40
0.0
 40
0.0
 40
0.0
 40
0.0312500000000006
 40
0.0312500000000006
 40
0.0312500000000006
 10
28.60039999999998
 20
-7.937499999999986
 30
0.0
 10
28.55396901084696
 20
-7.900070931530667
 30
0.0
 10
28.46466680695379
 20
-7.82889666248069
 30
0.0
  0
SPLINE
  5
25B
330
1F
100
AcDbEntity
  8
SK3
  6
SLD-Dashed
370
    18
100
AcDbSpline
210
0.0
220
0.0
230
1.0
 70
     8
 71
     3
 72
     8
 73
     4
 74
     0
 42
0.000000001
 43
0.00000001
 40
0.0312500000000006
 40
0.0312500000000006
 40
0.0312500000000006
 40
0.0312500000000006
 40
0.0468750000000009
 40
0.0468750000000009
 40
0.0468750000000009
 40
0.0468750000000009
 10
28.46466680695379
 20
-7.82889666248069
 30
0.0
 10
28.42001570500726
 20
-7.793309527955691
 30
0.0
 10
28.3641186770127
 20
-7.748892046740889
 30
0.0
 10
28.29837305847967
 20
-7.69701509661154
 30
0.0
  0
SPLINE
  5
25C
330
1F
100
AcDbEntity
  8
SK3
  6
SLD-Dashed
370
    18
100
AcDbSpline
210
0.0
220
0.0
230
1.0
 70
     8
 71
     3
 72
     8
 73
     4
 74
     0
 42
0.000000001
 43
0.00000001
 40
0.0468750000000009
 40
0.0468750000000009
 40
0.0468750000000009
 40
0.0468750000000009
 40
0.0625000000000011
 40
0.0625000000000011
 40
0.0625000000000011
 40
0.0625000000000011
 10
28.29837305847967
 20
-7.69701509661154
 30
0.0
 10
28.2326274399466
 20
-7.645138146482197
 30
0.0
 10
28.1575126497275
 20
-7.586178935087694
 30
0.0
 10
28.07369921631768
 20
-7.521001503320877
 30
0.0
  0
SPLINE
  5
25D
330
1F
100
AcDbEntity
  8
SK3
  6
SLD-Dashed
370
    18
100
AcDbSpline
210
0.0
220
0.0
230
1.0
 70
     8
 71
     3
 72
     8
 73
     4
 74
     0
 42
0.000000001
 43
0.00000001
 40
0.0625000000000011
 40
0.0625000000000011
 40
0.0625000000000011
 40
0.0625000000000011
 40
0.0781250000000014
 40
0.0781250000000014
 40
0.0781250000000014
 40
0.0781250000000014
 10
28.07369921631768
 20
-7.521001503320877
 30
0.0
 10
27.98988578290788
 20
-7.455824071554061
 30
0.0
 10
27.89736856895915
 20
-7.384421594897391
 30
0.0
 10
27.79645325812878
 20
-7.307480584819475
 30
0.0
  0
SPLINE
  5
25E
330
1F
100
AcDbEntity
  8
SK3
  6
SLD-Dashed
370
    18
100
AcDbSpline
210
0.0
220
0.0
230
1.0
 70
     8
 71
     3
 72
     8
 73
     4
 74
     0
 42
0.000000001
 43
0.00000001
 40
0.0781250000000014
 40
0.0781250000000014
 40
0.0781250000000014
 40
0.0781250000000014
 40
0.0937500000000017
 40
0.0937500000000017
 40
0.0937500000000017
 40
0.0937500000000017
 10
27.79645325812878
 20
-7.307480584819475
 30
0.0
 10
27.69553794729841
 20
-7.230539574741547
 30
0.0
 10
27.58566926887244
 20
-7.147652226655067
 30
0.0
 10
27.46976056125529
 20
-7.061564588311767
 30
0.0
  0
SPLINE
  5
25F
330
1F
100
AcDbEntity
  8
SK3
  6
SLD-Dashed
370
    18
100
AcDbSpline
210
0.0
220
0.0
230
1.0
 70
     8
 71
     3
 72
     8
 73
     4
 74
     0
 42
0.000000001
 43
0.00000001
 40
0.0937500000000017
 40
0.0937500000000017
 40
0.0937500000000017
 40
0.0937500000000017
 40
0.1250000000000021
 40
0.1250000000000021
 40
0.1250000000000021
 40
0.1250000000000021
 10
27.46976056125529
 20
-7.061564588311767
 30
0.0
 10
27.23794314602103
 20
-6.889389311625179
 30
0.0
 10
26.98097084869113
 20
-6.703407058178963
 30
0.0
 10
26.69957776671088
 20
-6.509994414770508
 30
0.0
  0
SPLINE
  5
260
330
1F
100
AcDbEntity
  8
SK3
  6
SLD-Dashed
370
    18
100
AcDbSpline
210
0.0
220
0.0
230
1.0
 70
     8
 71
     3
 72
     8
 73
     4
 74
     0
 42
0.000000001
 43
0.00000001
 40
0.1250000000000021
 40
0.1250000000000021
 40
0.1250000000000021
 40
0.1250000000000021
 40
0.1562500000000025
 40
0.1562500000000025
 40
0.1562500000000025
 40
0.1562500000000025
 10
26.69957776671088
 20
-6.509994414770508
 30
0.0
 10
26.41818468473066
 20
-6.316581771362046
 30
0.0
 10
26.10933180567039
 20
-6.113726039656451
 30
0.0
 10
25.78166804260525
 20
-5.916761669637297
 30
0.0
  0
SPLINE
  5
261
330
1F
100
AcDbEntity
  8
SK3
  6
SLD-Dashed
370
    18
100
AcDbSpline
210
0.0
220
0.0
230
1.0
 70
     8
 71
     3
 72
     8
 73
     4
 74
     0
 42
0.000000001
 43
0.00000001
 40
0.1562500000000025
 40
0.1562500000000025
 40
0.1562500000000025
 40
0.1562500000000025
 40
0.1875000000000029
 40
0.1875000000000029
 40
0.1875000000000029
 40
0.1875000000000029
 10
25.78166804260525
 20
-5.916761669637297
 30
0.0
 10
25.4540042795401
 20
-5.719797299618155
 30
0.0
 10
25.10754614059689
 20
-5.52807938123636
 30
0.0
 10
24.73614786660662
 20
-5.353881274175083
 30
0.0
  0
SPLINE
  5
262
330
1F
100
AcDbEntity
  8
SK3
  6
SLD-Dashed
370
    18
100
AcDbSpline
210
0.0
220
0.0
230
1.0
 70
     8
 71
     3
 72
     8
 73
     4
 74
     0
 42
0.000000001
 43
0.00000001
 40
0.1875000000000029
 40
0.1875000000000029
 40
0.1875000000000029
 40
0.1875000000000029
 40
0.2187500000000033
 40
0.2187500000000033
 40
0.2187500000000033
 40
0.2187500000000033
 10
24.73614786660662
 20
-5.353881274175083
 30
0.0
 10
24.36474959261632
 20
-5.179683167113806
 30
0.0
 10
23.96283779894935
 20
-5.021557437384666
 30
0.0
 10
23.54467730309563
 20
-4.909147509935437
 30
0.0
  0
SPLINE
  5
263
330
1F
100
AcDbEntity
  8
SK3
  6
SLD-Dashed
370
    18
100
AcDbSpline
210
0.0
220
0.0
230
1.0
 70
     8
 71
     3
 72
     8
 73
     4
 74
     0
 42
0.000000001
 43
0.00000001
 40
0.2187500000000033
 40
0.2187500000000033
 40
0.2187500000000033
 40
0.2187500000000033
 40
0.2343750000000034
 40
0.2343750000000034
 40
0.2343750000000034
 40
0.2343750000000034
 10
23.54467730309563
 20
-4.909147509935437
 30
0.0
 10
23.33559705516873
 20
-4.852942546210818
 30
0.0
 10
23.12181618603061
 20
-4.807837395982707
 30
0.0
 10
22.90243540072064
 20
-4.776724799708393
 30
0.0
  0
SPLINE
  5
264
330
1F
100
AcDbEntity
  8
SK3
  6
SLD-Dashed
370
    18
100
AcDbSpline
210
0.0
220
0.0
230
1.0
 70
     8
 71
     3
 72
     8
 73
     4
 74
     0
 42
0.000000001
 43
0.00000001
 40
0.2343750000000034
 40
0.2343750000000034
 40
0.2343750000000034
 40
0.2343750000000034
 40
0.2500000000000034
 40
0.2500000000000034
 40
0.2500000000000034
 40
0.2500000000000034
 10
22.90243540072064
 20
-4.776724799708393
 30
0.0
 10
22.68305461541066
 20
-4.745612203434072
 30
0.0
 10
22.45996343789884
 20
-4.729148623066483
 30
0.0
 10
22.23963941879327
 20
-4.728466495871817
 30
0.0
  0
SPLINE
  5
265
330
1F
100
AcDbEntity
  8
SK3
  6
SLD-Dashed
370
    18
100
AcDbSpline
210
0.0
220
0.0
230
1.0
 70
     8
 71
     3
 72
     8
 73
     4
 74
     0
 42
0.000000001
 43
0.00000001
 40
0.2500000000000034
 40
0.2500000000000034
 40
0.2500000000000034
 40
0.2500000000000034
 40
0.2656250000000035
 40
0.2656250000000035
 40
0.2656250000000035
 40
0.2656250000000035
 10
22.23963941879327
 20
-4.728466495871817
 30
0.0
 10
22.01931539968775
 20
-4.727784368677143
 30
0.0
 10
21.79987862587614
 20
-4.742573252469594
 30
0.0
 10
21.5812978786795
 20
-4.772057576244458
 30
0.0
  0
SPLINE
  5
266
330
1F
100
AcDbEntity
  8
SK3
  6
SLD-Dashed
370
    18
100
AcDbSpline
210
0.0
220
0.0
230
1.0
 70
     8
 71
     3
 72
     8
 73
     4
 74
     0
 42
0.000000001
 43
0.00000001
 40
0.2656250000000035
 40
0.2656250000000035
 40
0.2656250000000035
 40
0.2656250000000035
 40
0.2812500000000036
 40
0.2812500000000036
 40
0.2812500000000036
 40
0.2812500000000036
 10
21.5812978786795
 20
-4.772057576244458
 30
0.0
 10
21.36271713148284
 20
-4.801541900019322
 30
0.0
 10
21.14463376499472
 20
-4.84607411586789
 30
0.0
 10
20.93490686714065
 20
-4.901277525446862
 30
0.0
  0
SPLINE
  5
267
330
1F
100
AcDbEntity
  8
SK3
  6
SLD-Dashed
370
    18
100
AcDbSpline
210
0.0
220
0.0
230
1.0
 70
     8
 71
     3
 72
     8
 73
     4
 74
     0
 42
0.000000001
 43
0.00000001
 40
0.2812500000000036
 40
0.2812500000000036
 40
0.2812500000000036
 40
0.2812500000000036
 40
0.3125000000000038
 40
0.3125000000000038
 40
0.3125000000000038
 40
0.3125000000000038
 10
20.93490686714065
 20
-4.901277525446862
 30
0.0
 10
20.51545307143247
 20
-5.011684344604812
 30
0.0
 10
20.11910202928204
 20
-5.165431581693941
 30
0.0
 10
19.74228778561297
 20
-5.34060305859424
 30
0.0
  0
SPLINE
  5
268
330
1F
100
AcDbEntity
  8
SK3
  6
SLD-Dashed
370
    18
100
AcDbSpline
210
0.0
220
0.0
230
1.0
 70
     8
 71
     3
 72
     8
 73
     4
 74
     0
 42
0.000000001
 43
0.00000001
 40
0.3125000000000038
 40
0.3125000000000038
 40
0.3125000000000038
 40
0.3125000000000038
 40
0.3437500000000041
 40
0.3437500000000041
 40
0.3437500000000041
 40
0.3437500000000041
 10
19.74228778561297
 20
-5.34060305859424
 30
0.0
 10
19.36547354194389
 20
-5.515774535494552
 30
0.0
 10
19.01728656730507
 20
-5.707787869733902
 30
0.0
 10
18.68987245556779
 20
-5.90383839932996
 30
0.0
  0
SPLINE
  5
269
330
1F
100
AcDbEntity
  8
SK3
  6
SLD-Dashed
370
    18
100
AcDbSpline
210
0.0
220
0.0
230
1.0
 70
     8
 71
     3
 72
     8
 73
     4
 74
     0
 42
0.000000001
 43
0.00000001
 40
0.3437500000000041
 40
0.3437500000000041
 40
0.3437500000000041
 40
0.3437500000000041
 40
0.3593750000000042
 40
0.3593750000000042
 40
0.3593750000000042
 40
0.3593750000000042
 10
18.68987245556779
 20
-5.90383839932996
 30
0.0
 10
18.52616539969913
 20
-6.001863664127999
 30
0.0
 10
18.36778568651128
 20
-6.10103217279985
 30
0.0
 10
18.2143625679685
 20
-6.200273679541242
 30
0.0
  0
SPLINE
  5
26A
330
1F
100
AcDbEntity
  8
SK3
  6
SLD-Dashed
370
    18
100
AcDbSpline
210
0.0
220
0.0
230
1.0
 70
     8
 71
     3
 72
     8
 73
     4
 74
     0
 42
0.000000001
 43
0.00000001
 40
0.3593750000000042
 40
0.3593750000000042
 40
0.3593750000000042
 40
0.3593750000000042
 40
0.3750000000000043
 40
0.3750000000000043
 40
0.3750000000000043
 40
0.3750000000000043
 10
18.2143625679685
 20
-6.200273679541242
 30
0.0
 10
18.06093944942573
 20
-6.299515186282633
 30
0.0
 10
17.91181253643849
 20
-6.399300471535682
 30
0.0
 10
17.76954812511795
 20
-6.496863281568239
 30
0.0
  0
SPLINE
  5
26B
330
1F
100
AcDbEntity
  8
SK3
  6
SLD-Dashed
370
    18
100
AcDbSpline
210
0.0
220
0.0
230
1.0
 70
     8
 71
     3
 72
     8
 73
     4
 74
     0
 42
0.000000001
 43
0.00000001
 40
0.3750000000000043
 40
0.3750000000000043
 40
0.3750000000000043
 40
0.3750000000000043
 40
0.4062500000000046
 40
0.4062500000000046
 40
0.4062500000000046
 40
0.4062500000000046
 10
17.76954812511795
 20
-6.496863281568239
 30
0.0
 10
17.48501930247683
 20
-6.691988901633368
 30
0.0
 10
17.22745486474698
 20
-6.878200182161093
 30
0.0
 10
16.99648643939021
 20
-7.049506021238675
 30
0.0
  0
SPLINE
  5
26C
330
1F
100
AcDbEntity
  8
SK3
  6
SLD-Dashed
370
    18
100
AcDbSpline
210
0.0
220
0.0
230
1.0
 70
     8
 71
     3
 72
     8
 73
     4
 74
     0
 42
0.000000001
 43
0.00000001
 40
0.4062500000000046
 40
0.4062500000000046
 40
0.4062500000000046
 40
0.4062500000000046
 40
0.4218750000000046
 40
0.4218750000000046
 40
0.4218750000000046
 40
0.4218750000000046
 10
16.99648643939021
 20
-7.049506021238675
 30
0.0
 10
16.88100222671178
 20
-7.135158940777458
 30
0.0
 10
16.7722388075691
 20
-7.217093981895386
 30
0.0
 10
16.67060703997327
 20
-7.294481629587797
 30
0.0
  0
SPLINE
  5
26D
330
1F
100
AcDbEntity
  8
SK3
  6
SLD-Dashed
370
    18
100
AcDbSpline
210
0.0
220
0.0
230
1.0
 70
     8
 71
     3
 72
     8
 73
     4
 74
     0
 42
0.000000001
 43
0.00000001
 40
0.4218750000000046
 40
0.4218750000000046
 40
0.4218750000000046
 40
0.4218750000000046
 40
0.4375000000000046
 40
0.4375000000000046
 40
0.4375000000000046
 40
0.4375000000000046
 10
16.67060703997327
 20
-7.294481629587797
 30
0.0
 10
16.56897527237748
 20
-7.371869277280202
 30
0.0
 10
16.47400970090236
 20
-7.44507857746439
 30
0.0
 10
16.38882719236993
 20
-7.511264482796487
 30
0.0
  0
SPLINE
  5
26E
330
1F
100
AcDbEntity
  8
SK3
  6
SLD-Dashed
370
    18
100
AcDbSpline
210
0.0
220
0.0
230
1.0
 70
     8
 71
     3
 72
     8
 73
     4
 74
     0
 42
0.000000001
 43
0.00000001
 40
0.4375000000000046
 40
0.4375000000000046
 40
0.4375000000000046
 40
0.4375000000000046
 40
0.4687500000000046
 40
0.4687500000000046
 40
0.4687500000000046
 40
0.4687500000000046
 10
16.38882719236993
 20
-7.511264482796487
 30
0.0
 10
16.21846217530505
 20
-7.643636293460668
 30
0.0
 10
16.08517869844318
 20
-7.749352939758556
 30
0.0
 10
15.99283015896576
 20
-7.822922856419876
 30
0.0
  0
SPLINE
  5
26F
330
1F
100
AcDbEntity
  8
SK3
  6
SLD-Dashed
370
    18
100
AcDbSpline
210
0.0
220
0.0
230
1.0
 70
     8
 71
     3
 72
     8
 73
     4
 74
     0
 42
0.000000001
 43
0.00000001
 40
0.4687500000000046
 40
0.4687500000000046
 40
0.4687500000000046
 40
0.4687500000000046
 40
0.4843750000000046
 40
0.4843750000000046
 40
0.4843750000000046
 40
0.4843750000000046
 10
15.99283015896576
 20
-7.822922856419876
 30
0.0
 10
15.94665588922707
 20
-7.859707814750524
 30
0.0
 10
15.9110342200534
 20
-7.888228033795283
 30
0.0
 10
15.88718147525271
 20
-7.907346251596039
 30
0.0
  0
SPLINE
  5
270
330
1F
100
AcDbEntity
  8
SK3
  6
SLD-Dashed
370
    18
100
AcDbSpline
210
0.0
220
0.0
230
1.0
 70
     8
 71
     3
 72
     8
 73
     4
 74
     0
 42
0.000000001
 43
0.00000001
 40
0.4843750000000046
 40
0.4843750000000046
 40
0.4843750000000046
 40
0.4843750000000046
 40
0.5000000000000046
 40
0.5000000000000046
 40
0.5000000000000046
 40
0.5000000000000046
 10
15.88718147525271
 20
-7.907346251596039
 30
0.0
 10
15.86332873045197
 20
-7.926464469396801
 30
0.0
 10
15.85083290362417
 20
-7.936509736413903
 30
0.0
 10
15.84968658032639
 20
-7.937430458849391
 30
0.0
  0
SPLINE
  5
271
330
1F
100
AcDbEntity
  8
SK3
  6
SLD-Dashed
370
    18
100
AcDbSpline
210
0.0
220
0.0
230
1.0
 70
     8
 71
     3
 72
     8
 73
     4
 74
     0
 42
0.000000001
 43
0.00000001
 40
0.5312500000000044
 40
0.5312500000000044
 40
0.5312500000000044
 40
0.5312500000000044
 40
0.5468750000000044
 40
0.5468750000000044
 40
0.5468750000000044
 40
0.5468750000000044
 10
15.97989128121781
 20
-7.833234580900086
 30
0.0
 10
16.02376823069658
 20
-7.798253333126462
 30
0.0
 10
16.07817917735287
 20
-7.754999489359947
 30
0.0
 10
16.14274192988023
 20
-7.704027798595761
 30
0.0
  0
SPLINE
  5
272
330
1F
100
AcDbEntity
  8
SK3
  6
SLD-Dashed
370
    18
100
AcDbSpline
210
0.0
220
0.0
230
1.0
 70
     8
 71
     3
 72
     8
 73
     4
 74
     0
 42
0.000000001
 43
0.00000001
 40
0.5468750000000044
 40
0.5468750000000044
 40
0.5468750000000044
 40
0.5468750000000044
 40
0.5625000000000044
 40
0.5625000000000044
 40
0.5625000000000044
 40
0.5625000000000044
 10
16.14274192988023
 20
-7.704027798595761
 30
0.0
 10
16.2073046824076
 20
-7.653056107831582
 30
0.0
 10
16.28254742925524
 20
-7.593955081707356
 30
0.0
 10
16.36634540252145
 20
-7.528745897063857
 30
0.0
  0
SPLINE
  5
273
330
1F
100
AcDbEntity
  8
SK3
  6
SLD-Dashed
370
    18
100
AcDbSpline
210
0.0
220
0.0
230
1.0
 70
     8
 71
     3
 72
     8
 73
     4
 74
     0
 42
0.000000001
 43
0.00000001
 40
0.5625000000000044
 40
0.5625000000000044
 40
0.5625000000000044
 40
0.5625000000000044
 40
0.5937500000000044
 40
0.5937500000000044
 40
0.5937500000000044
 40
0.5937500000000044
 10
16.36634540252145
 20
-7.528745897063857
 30
0.0
 10
16.53394134905396
 20
-7.398327527776861
 30
0.0
 10
16.73496964516012
 20
-7.243937605810117
 30
0.0
 10
16.96657711161174
 20
-7.071717780223072
 30
0.0
  0
SPLINE
  5
274
330
1F
100
AcDbEntity
  8
SK3
  6
SLD-Dashed
370
    18
100
AcDbSpline
210
0.0
220
0.0
230
1.0
 70
     8
 71
     3
 72
     8
 73
     4
 74
     0
 42
0.000000001
 43
0.00000001
 40
0.5937500000000044
 40
0.5937500000000044
 40
0.5937500000000044
 40
0.5937500000000044
 40
0.6093750000000044
 40
0.6093750000000044
 40
0.6093750000000044
 40
0.6093750000000044
 10
16.96657711161174
 20
-7.071717780223072
 30
0.0
 10
17.08238084483758
 20
-6.985607867429542
 30
0.0
 10
17.20602076098325
 20
-6.894946052800624
 30
0.0
 10
17.33511186649049
 20
-6.802145767935058
 30
0.0
  0
SPLINE
  5
275
330
1F
100
AcDbEntity
  8
SK3
  6
SLD-Dashed
370
    18
100
AcDbSpline
210
0.0
220
0.0
230
1.0
 70
     8
 71
     3
 72
     8
 73
     4
 74
     0
 42
0.000000001
 43
0.00000001
 40
0.6093750000000044
 40
0.6093750000000044
 40
0.6093750000000044
 40
0.6093750000000044
 40
0.6250000000000044
 40
0.6250000000000044
 40
0.6250000000000044
 40
0.6250000000000044
 10
17.33511186649049
 20
-6.802145767935058
 30
0.0
 10
17.46420297199773
 20
-6.7093454830695
 30
0.0
 10
17.59924906828152
 20
-6.614022099829683
 30
0.0
 10
17.7402387272672
 20
-6.516998140509475
 30
0.0
  0
SPLINE
  5
276
330
1F
100
AcDbEntity
  8
SK3
  6
SLD-Dashed
370
    18
100
AcDbSpline
210
0.0
220
0.0
230
1.0
 70
     8
 71
     3
 72
     8
 73
     4
 74
     0
 42
0.000000001
 43
0.00000001
 40
0.6250000000000044
 40
0.6250000000000044
 40
0.6250000000000044
 40
0.6250000000000044
 40
0.6406250000000044
 40
0.6406250000000044
 40
0.6406250000000044
 40
0.6406250000000044
 10
17.7402387272672
 20
-6.516998140509475
 30
0.0
 10
17.88122838625285
 20
-6.41997418118926
 30
0.0
 10
18.02815928261862
 20
-6.321242174592491
 30
0.0
 10
18.18132709935912
 20
-6.221693629340566
 30
0.0
  0
SPLINE
  5
277
330
1F
100
AcDbEntity
  8
SK3
  6
SLD-Dashed
370
    18
100
AcDbSpline
210
0.0
220
0.0
230
1.0
 70
     8
 71
     3
 72
     8
 73
     4
 74
     0
 42
0.000000001
 43
0.00000001
 40
0.6406250000000044
 40
0.6406250000000044
 40
0.6406250000000044
 40
0.6406250000000044
 40
0.6562500000000043
 40
0.6562500000000043
 40
0.6562500000000043
 40
0.6562500000000043
 10
18.18132709935912
 20
-6.221693629340566
 30
0.0
 10
18.33449491609966
 20
-6.122145084088649
 30
0.0
 10
18.494548454022
 20
-6.021398222991491
 30
0.0
 10
18.65887767398049
 20
-5.922449622760409
 30
0.0
  0
SPLINE
  5
278
330
1F
100
AcDbEntity
  8
SK3
  6
SLD-Dashed
370
    18
100
AcDbSpline
210
0.0
220
0.0
230
1.0
 70
     8
 71
     3
 72
     8
 73
     4
 74
     0
 42
0.000000001
 43
0.00000001
 40
0.6562500000000043
 40
0.6562500000000043
 40
0.6562500000000043
 40
0.6562500000000043
 40
0.6875000000000043
 40
0.6875000000000043
 40
0.6875000000000043
 40
0.6875000000000043
 10
18.65887767398049
 20
-5.922449622760409
 30
0.0
 10
18.98753611389741
 20
-5.724552422298245
 30
0.0
 10
19.33430570131338
 20
-5.53239718875731
 30
0.0
 10
19.70476178721499
 20
-5.358150962709231
 30
0.0
  0
SPLINE
  5
279
330
1F
100
AcDbEntity
  8
SK3
  6
SLD-Dashed
370
    18
100
AcDbSpline
210
0.0
220
0.0
230
1.0
 70
     8
 71
     3
 72
     8
 73
     4
 74
     0
 42
0.000000001
 43
0.00000001
 40
0.6875000000000043
 40
0.6875000000000043
 40
0.6875000000000043
 40
0.6875000000000043
 40
0.7031250000000042
 40
0.7031250000000042
 40
0.7031250000000042
 40
0.7031250000000042
 10
19.70476178721499
 20
-5.358150962709231
 30
0.0
 10
19.88998983016575
 20
-5.271027849685195
 30
0.0
 10
20.08122076244441
 20
-5.188468916617269
 30
0.0
 10
20.27990079148188
 20
-5.1128849019881
 30
0.0
  0
SPLINE
  5
27A
330
1F
100
AcDbEntity
  8
SK3
  6
SLD-Dashed
370
    18
100
AcDbSpline
210
0.0
220
0.0
230
1.0
 70
     8
 71
     3
 72
     8
 73
     4
 74
     0
 42
0.000000001
 43
0.00000001
 40
0.7031250000000042
 40
0.7031250000000042
 40
0.7031250000000042
 40
0.7031250000000042
 40
0.718750000000004
 40
0.718750000000004
 40
0.718750000000004
 40
0.718750000000004
 10
20.27990079148188
 20
-5.1128849019881
 30
0.0
 10
20.47858082051933
 20
-5.037300887358931
 30
0.0
 10
20.68590380617048
 20
-4.968510294405565
 30
0.0
 10
20.89598709263653
 20
-4.911665338552564
 30
0.0
  0
SPLINE
  5
27B
330
1F
100
AcDbEntity
  8
SK3
  6
SLD-Dashed
370
    18
100
AcDbSpline
210
0.0
220
0.0
230
1.0
 70
     8
 71
     3
 72
     8
 73
     4
 74
     0
 42
0.000000001
 43
0.00000001
 40
0.718750000000004
 40
0.718750000000004
 40
0.718750000000004
 40
0.718750000000004
 40
0.7343750000000039
 40
0.7343750000000039
 40
0.7343750000000039
 40
0.7343750000000039
 10
20.89598709263653
 20
-4.911665338552564
 30
0.0
 10
21.1060703791026
 20
-4.854820382699562
 30
0.0
 10
21.3201117758665
 20
-4.809384993842772
 30
0.0
 10
21.53875744988772
 20
-4.777981783931851
 30
0.0
  0
SPLINE
  5
27C
330
1F
100
AcDbEntity
  8
SK3
  6
SLD-Dashed
370
    18
100
AcDbSpline
210
0.0
220
0.0
230
1.0
 70
     8
 71
     3
 72
     8
 73
     4
 74
     0
 42
0.000000001
 43
0.00000001
 40
0.7343750000000039
 40
0.7343750000000039
 40
0.7343750000000039
 40
0.7343750000000039
 40
0.7500000000000038
 40
0.7500000000000038
 40
0.7500000000000038
 40
0.7500000000000038
 10
21.53875744988772
 20
-4.777981783931851
 30
0.0
 10
21.7574031239089
 20
-4.746578574020936
 30
0.0
 10
21.9827233776649
 20
-4.729432927675872
 30
0.0
 10
22.20485876348761
 20
-4.728486730383015
 30
0.0
  0
SPLINE
  5
27D
330
1F
100
AcDbEntity
  8
SK3
  6
SLD-Dashed
370
    18
100
AcDbSpline
210
0.0
220
0.0
230
1.0
 70
     8
 71
     3
 72
     8
 73
     4
 74
     0
 42
0.000000001
 43
0.00000001
 40
0.7500000000000038
 40
0.7500000000000038
 40
0.7500000000000038
 40
0.7500000000000038
 40
0.7656250000000037
 40
0.7656250000000037
 40
0.7656250000000037
 40
0.7656250000000037
 10
22.20485876348761
 20
-4.728486730383015
 30
0.0
 10
22.42699414931034
 20
-4.727540533090151
 30
0.0
 10
22.64724622564217
 20
-4.742320059482767
 30
0.0
 10
22.86572754994797
 20
-4.771657247043454
 30
0.0
  0
SPLINE
  5
27E
330
1F
100
AcDbEntity
  8
SK3
  6
SLD-Dashed
370
    18
100
AcDbSpline
210
0.0
220
0.0
230
1.0
 70
     8
 71
     3
 72
     8
 73
     4
 74
     0
 42
0.000000001
 43
0.00000001
 40
0.7656250000000037
 40
0.7656250000000037
 40
0.7656250000000037
 40
0.7656250000000037
 40
0.7812500000000034
 40
0.7812500000000034
 40
0.7812500000000034
 40
0.7812500000000034
 10
22.86572754994797
 20
-4.771657247043454
 30
0.0
 10
23.08420887425373
 20
-4.800994434604148
 30
0.0
 10
23.3027252077541
 20
-4.845427292099948
 30
0.0
 10
23.51389124986337
 20
-4.900961308149064
 30
0.0
  0
SPLINE
  5
27F
330
1F
100
AcDbEntity
  8
SK3
  6
SLD-Dashed
370
    18
100
AcDbSpline
210
0.0
220
0.0
230
1.0
 70
     8
 71
     3
 72
     8
 73
     4
 74
     0
 42
0.000000001
 43
0.00000001
 40
0.7812500000000034
 40
0.7812500000000034
 40
0.7812500000000034
 40
0.7812500000000034
 40
0.812500000000003
 40
0.812500000000003
 40
0.812500000000003
 40
0.812500000000003
 10
23.51389124986337
 20
-4.900961308149064
 30
0.0
 10
23.93622333408187
 20
-5.012029340247332
 30
0.0
 10
24.33154360801594
 20
-5.165682206463885
 30
0.0
 10
24.70860805266313
 20
-5.341019570199411
 30
0.0
  0
SPLINE
  5
280
330
1F
100
AcDbEntity
  8
SK3
  6
SLD-Dashed
370
    18
100
AcDbSpline
210
0.0
220
0.0
230
1.0
 70
     8
 71
     3
 72
     8
 73
     4
 74
     0
 42
0.000000001
 43
0.00000001
 40
0.812500000000003
 40
0.812500000000003
 40
0.812500000000003
 40
0.812500000000003
 40
0.8281250000000028
 40
0.8281250000000028
 40
0.8281250000000028
 40
0.8281250000000028
 10
24.70860805266313
 20
-5.341019570199411
 30
0.0
 10
24.8971402749867
 20
-5.428688252067174
 30
0.0
 10
25.08048332339539
 20
-5.521776818736071
 30
0.0
 10
25.25645931265739
 20
-5.616754103064996
 30
0.0
  0
SPLINE
  5
281
330
1F
100
AcDbEntity
  8
SK3
  6
SLD-Dashed
370
    18
100
AcDbSpline
210
0.0
220
0.0
230
1.0
 70
     8
 71
     3
 72
     8
 73
     4
 74
     0
 42
0.000000001
 43
0.00000001
 40
0.8281250000000028
 40
0.8281250000000028
 40
0.8281250000000028
 40
0.8281250000000028
 40
0.8437500000000024
 40
0.8437500000000024
 40
0.8437500000000024
 40
0.8437500000000024
 10
25.25645931265739
 20
-5.616754103064996
 30
0.0
 10
25.43243530191942
 20
-5.711731387393913
 30
0.0
 10
25.60200297826452
 20
-5.80905364144401
 30
0.0
 10
25.7659735687142
 20
-5.907340764196058
 30
0.0
  0
SPLINE
  5
282
330
1F
100
AcDbEntity
  8
SK3
  6
SLD-Dashed
370
    18
100
AcDbSpline
210
0.0
220
0.0
230
1.0
 70
     8
 71
     3
 72
     8
 73
     4
 74
     0
 42
0.000000001
 43
0.00000001
 40
0.8437500000000024
 40
0.8437500000000024
 40
0.8437500000000024
 40
0.8437500000000024
 40
0.875000000000002
 40
0.875000000000002
 40
0.875000000000002
 40
0.875000000000002
 10
25.7659735687142
 20
-5.907340764196058
 30
0.0
 10
26.09391474961352
 20
-6.103915009700159
 30
0.0
 10
26.39974010672576
 20
-6.30423711843791
 30
0.0
 10
26.68557483505475
 20
-6.500377600503183
 30
0.0
  0
SPLINE
  5
283
330
1F
100
AcDbEntity
  8
SK3
  6
SLD-Dashed
370
    18
100
AcDbSpline
210
0.0
220
0.0
230
1.0
 70
     8
 71
     3
 72
     8
 73
     4
 74
     0
 42
0.000000001
 43
0.00000001
 40
0.875000000000002
 40
0.875000000000002
 40
0.875000000000002
 40
0.875000000000002
 40
0.9062500000000014
 40
0.9062500000000014
 40
0.9062500000000014
 40
0.9062500000000014
 10
26.68557483505475
 20
-6.500377600503183
 30
0.0
 10
26.97140956338374
 20
-6.696518082568457
 30
0.0
 10
27.23104425665436
 20
-6.884386753605636
 30
0.0
 10
27.46162394150377
 20
-7.055523467095155
 30
0.0
  0
SPLINE
  5
284
330
1F
100
AcDbEntity
  8
SK3
  6
SLD-Dashed
370
    18
100
AcDbSpline
210
0.0
220
0.0
230
1.0
 70
     8
 71
     3
 72
     8
 73
     4
 74
     0
 42
0.000000001
 43
0.00000001
 40
0.9062500000000014
 40
0.9062500000000014
 40
0.9062500000000014
 40
0.9062500000000014
 40
0.937500000000001
 40
0.937500000000001
 40
0.937500000000001
 40
0.937500000000001
 10
27.46162394150377
 20
-7.055523467095155
 30
0.0
 10
27.69220362635318
 20
-7.226660180584682
 30
0.0
 10
27.89501270543711
 20
-7.382116970214819
 30
0.0
 10
28.06599737889433
 20
-7.515013737196312
 30
0.0
  0
SPLINE
  5
285
330
1F
100
AcDbEntity
  8
SK3
  6
SLD-Dashed
370
    18
100
AcDbSpline
210
0.0
220
0.0
230
1.0
 70
     8
 71
     3
 72
     8
 73
     4
 74
     0
 42
0.000000001
 43
0.00000001
 40
0.937500000000001
 40
0.937500000000001
 40
0.937500000000001
 40
0.937500000000001
 40
0.9687500000000004
 40
0.9687500000000004
 40
0.9687500000000004
 40
0.9687500000000004
 10
28.06599737889433
 20
-7.515013737196312
 30
0.0
 10
28.2369820523516
 20
-7.647910504177818
 30
0.0
 10
28.37032777250857
 20
-7.753722902492509
 30
0.0
 10
28.46121900603936
 20
-7.826149026263566
 30
0.0
  0
SPLINE
  5
286
330
1F
100
AcDbEntity
  8
SK3
  6
SLD-Dashed
370
    18
100
AcDbSpline
210
0.0
220
0.0
230
1.0
 70
     8
 71
     2
 72
     6
 73
     3
 74
     0
 42
0.000000001
 43
0.00000001
 40
0.9687500000000004
 40
0.9687500000000004
 40
0.9687500000000004
 40
1.0
 40
1.0
 40
1.0
 10
28.46121900603936
 20
-7.826149026263566
 30
0.0
 10
28.55211023957012
 20
-7.898575150034636
 30
0.0
 10
28.60039999999998
 20
-7.937499999999986
 30
0.0
  0
SPLINE
  5
287
330
1F
100
AcDbEntity
  8
SK3
  6
SLD-Dashed
370
    18
100
AcDbSpline
210
0.0
220
0.0
230
1.0
 70
     8
 71
     3
 72
     8
 73
     4
 74
     0
 42
0.000000001
 43
0.00000001
 40
0.0
 40
0.0
 40
0.0
 40
0.0
 40
1.0
 40
1.0
 40
1.0
 40
1.0
 10
19.05000000000003
 20
-22.31096441420527
 30
0.0
 10
19.03805449565744
 20
-22.34355505274305
 30
0.0
 10
19.02698898066239
 20
-22.3765403928005
 30
0.0
 10
19.01697199458864
 20
-22.41
 30
0.0
  0
SPLINE
  5
288
330
1F
100
AcDbEntity
  8
SK3
  6
SLD-Dashed
370
    18
100
AcDbSpline
210
0.0
220
0.0
230
1.0
 70
     8
 71
     3
 72
     8
 73
     4
 74
     0
 42
0.000000001
 43
0.00000001
 40
0.0
 40
0.0
 40
0.0
 40
0.0
 40
1.0
 40
1.0
 40
1.0
 40
1.0
 10
11.88459551241398
 20
9.088680750586086
 30
0.0
 10
11.87318745919546
 20
9.082191288419583
 30
0.0
 10
11.86178083676483
 20
9.075621711977343
 30
0.0
 10
11.85037479501631
 20
9.06897240760651
 30
0.0
  0
SPLINE
  5
289
330
1F
100
AcDbEntity
  8
SK3
  6
SLD-Dashed
370
    18
100
AcDbSpline
210
0.0
220
0.0
230
1.0
 70
     8
 71
     3
 72
     8
 73
     4
 74
     0
 42
0.000000001
 43
0.00000001
 40
0.0
 40
0.0
 40
0.0
 40
0.0
 40
1.0
 40
1.0
 40
1.0
 40
1.0
 10
11.85037484308792
 20
5.968209101533451
 30
0.0
 10
11.86178086876699
 20
5.975075439542277
 30
0.0
 10
11.87318747517416
 20
5.982020938074669
 30
0.0
 10
11.88459551241457
 20
5.989045152999909
 30
0.0
  0
SPLINE
  5
28A
330
1F
100
AcDbEntity
  8
SK3
  6
SLD-Dashed
370
    18
100
AcDbSpline
210
0.0
220
0.0
230
1.0
 70
    24
 71
     3
 72
     8
 73
     4
 74
     0
 42
0.000000001
 43
0.00000001
 40
0.0
 40
0.0
 40
0.0
 40
0.0
 40
0.5000000000000013
 40
0.5000000000000013
 40
0.5000000000000013
 40
0.5000000000000013
 10
3.200000000000022
 20
-22.41
 30
0.0
 10
3.277521727773375
 20
-22.41
 30
0.0
 10
3.35338164794094
 20
-22.41
 30
0.0
 10
3.419612606008024
 20
-22.41
 30
0.0
  0
SPLINE
  5
28B
330
1F
100
AcDbEntity
  8
SK3
  6
SLD-Dashed
370
    18
100
AcDbSpline
210
0.0
220
0.0
230
1.0
 70
    24
 71
     3
 72
     8
 73
     4
 74
     0
 42
0.000000001
 43
0.00000001
 40
0.5000000000000013
 40
0.5000000000000013
 40
0.5000000000000013
 40
0.5000000000000013
 40
0.7500000000000007
 40
0.7500000000000007
 40
0.7500000000000007
 40
0.7500000000000007
 10
3.419612606008024
 20
-22.41
 30
0.0
 10
3.452728085041587
 20
-22.41
 30
0.0
 10
3.483301361658614
 20
-22.41000000000001
 30
0.0
 10
3.506578077111008
 20
-22.41
 30
0.0
  0
SPLINE
  5
28C
330
1F
100
AcDbEntity
  8
SK3
  6
SLD-Dashed
370
    18
100
AcDbSpline
210
0.0
220
0.0
230
1.0
 70
    24
 71
     2
 72
     6
 73
     3
 74
     0
 42
0.000000001
 43
0.00000001
 40
0.7500000000000007
 40
0.7500000000000007
 40
0.7500000000000007
 40
1.0
 40
1.0
 40
1.0
 10
3.506578077111008
 20
-22.41
 30
0.0
 10
3.529854792563403
 20
-22.41
 30
0.0
 10
3.545388844998096
 20
-22.41
 30
0.0
  0
SPLINE
  5
28D
330
1F
100
AcDbEntity
  8
SK3
  6
SLD-Dashed
370
    18
100
AcDbSpline
210
0.0
220
0.0
230
1.0
 70
    24
 71
     2
 72
     6
 73
     3
 74
     0
 42
0.000000001
 43
0.00000001
 40
0.0
 40
0.0
 40
0.0
 40
0.5
 40
0.5
 40
0.5
 10
18.70470837592285
 20
-22.41
 30
0.0
 10
18.75712539805831
 20
-22.41
 30
0.0
 10
18.81669506526805
 20
-22.41
 30
0.0
  0
SPLINE
  5
28E
330
1F
100
AcDbEntity
  8
SK3
  6
SLD-Dashed
370
    18
100
AcDbSpline
210
0.0
220
0.0
230
1.0
 70
    24
 71
     3
 72
     8
 73
     4
 74
     0
 42
0.000000001
 43
0.00000001
 40
0.5
 40
0.5
 40
0.5
 40
0.5
 40
1.0
 40
1.0
 40
1.0
 40
1.0
 10
18.81669506526805
 20
-22.41
 30
0.0
 10
18.87626473247782
 20
-22.41
 30
0.0
 10
18.9457698312588
 20
-22.41
 30
0.0
 10
19.01697199458864
 20
-22.41
 30
0.0
  0
SPLINE
  5
28F
330
1F
100
AcDbEntity
  8
SK3
  6
SLD-Dashed
370
    18
100
AcDbSpline
210
0.0
220
0.0
230
1.0
 70
     8
 71
     3
 72
    10
 73
     6
 74
     0
 42
0.000000001
 43
0.00000001
 40
0.0
 40
0.0
 40
0.0
 40
0.0
 40
0.5
 40
0.5
 40
1.0
 40
1.0
 40
1.0
 40
1.0
 10
18.55000000000003
 20
25.20500000000003
 30
0.0
 10
18.55000000000005
 20
25.2744618870064
 30
0.0
 10
18.570331655327
 20
25.3415787689919
 30
0.0
 10
18.62822537360677
 20
25.46534569655895
 30
0.0
 10
18.6650271747182
 20
25.52292618711535
 30
0.0
 10
18.70461115500195
 20
25.57898258716482
 30
0.0
  0
SPLINE
  5
290
330
1F
100
AcDbEntity
  8
SK3
  6
SLD-Dashed
370
    18
100
AcDbSpline
210
0.0
220
0.0
230
1.0
 70
     8
 71
     3
 72
    10
 73
     6
 74
     0
 42
0.000000001
 43
0.00000001
 40
0.0
 40
0.0
 40
0.0
 40
0.0
 40
0.5
 40
0.5
 40
1.0
 40
1.0
 40
1.0
 40
1.0
 10
3.545291624077155
 20
25.57912025275686
 30
0.0
 10
3.584856617866725
 20
25.52310107590331
 30
0.0
 10
3.621570887500285
 20
25.46562249807945
 30
0.0
 10
3.679260425533597
 20
25.34260791126143
 30
0.0
 10
3.700000000000009
 20
25.27482658978055
 30
0.0
 10
3.700000000000009
 20
25.20500000000003
 30
0.0
  0
SPLINE
  5
291
330
1F
100
AcDbEntity
  8
1
  6
SLD-Dashed
370
    18
100
AcDbSpline
210
0.0
220
0.0
230
1.0
 70
     8
 71
     3
 72
     8
 73
     4
 74
     0
 42
0.000000001
 43
0.00000001
 40
0.0
 40
0.0
 40
0.0
 40
0.0
 40
1.0
 40
1.0
 40
1.0
 40
1.0
 10
14.37601294652262
 20
-30.22558142012644
 30
0.0
 10
13.92634047615436
 20
-29.41927694377227
 30
0.0
 10
13.47758735871728
 20
-28.61247603335391
 30
0.0
 10
13.03
 20
-27.8050456341729
 30
0.0
  0
SPLINE
  5
292
330
1F
100
AcDbEntity
  8
1
  6
SLD-Dashed
370
    18
100
AcDbSpline
210
0.0
220
0.0
230
1.0
 70
     8
 71
     3
 72
    10
 73
     6
 74
     0
 42
0.000000001
 43
0.00000001
 40
0.0
 40
0.0
 40
0.0
 40
0.0
 40
0.5
 40
0.5
 40
1.0
 40
1.0
 40
1.0
 40
1.0
 10
13.03000000000003
 20
-27.76916635406972
 30
0.0
 10
13.03000000000003
 20
-27.56948960726649
 30
0.0
 10
12.95302573325512
 20
-27.36838646497956
 30
0.0
 10
12.67905057581474
 20
-27.07630005005161
 30
0.0
 10
12.48172757240075
 20
-26.98706356756881
 30
0.0
 10
12.28
 20
-26.98706356756881
 30
0.0
  0
SPLINE
  5
293
330
1F
100
AcDbEntity
  8
1
  6
SLD-Dashed
370
    18
100
AcDbSpline
210
0.0
220
0.0
230
1.0
 70
     8
 71
     3
 72
    10
 73
     6
 74
     0
 42
0.000000001
 43
0.00000001
 40
0.0
 40
0.0
 40
0.0
 40
0.0
 40
0.5
 40
0.5
 40
1.0
 40
1.0
 40
1.0
 40
1.0
 10
9.950000000000667
 20
-26.98706356756944
 30
0.0
 10
9.748441495091562
 20
-26.98706356756927
 30
0.0
 10
9.550692481024289
 20
-27.07656444408194
 30
0.0
 10
9.277196882747168
 20
-27.36815866851929
 30
0.0
 10
9.200000000000166
 20
-27.569274984251
 30
0.0
 10
9.2
 20
-27.76916635406976
 30
0.0
  0
SPLINE
  5
294
330
1F
100
AcDbEntity
  8
1
  6
SLD-Dashed
370
    18
100
AcDbSpline
210
0.0
220
0.0
230
1.0
 70
     8
 71
     3
 72
     8
 73
     4
 74
     0
 42
0.000000001
 43
0.00000001
 40
0.0
 40
0.0
 40
0.0
 40
0.0
 40
1.0
 40
1.0
 40
1.0
 40
1.0
 10
9.199999999998862
 20
-27.80504563417607
 30
0.0
 10
8.752433371354604
 20
-28.61243863710177
 30
0.0
 10
8.303701091401397
 20
-29.41920220926472
 30
0.0
 10
7.854049533406126
 20
-30.22546938780228
 30
0.0
  0
SPLINE
  5
295
330
1F
100
AcDbEntity
  8
SK3
  6
SLD-Dashed
370
    18
100
AcDbSpline
210
0.0
220
0.0
230
1.0
 70
     8
 71
     3
 72
    40
 73
    36
 74
     0
 42
0.000000001
 43
0.00000001
 40
0.0
 40
0.0
 40
0.0
 40
0.0
 40
0.0314214559572178
 40
0.0627294389672004
 40
0.0877405066521895
 40
0.1252752326697184
 40
0.1539551384600108
 40
0.1970430837597873
 40
0.2184753360378477
 40
0.2505176110611737
 40
0.2789492345937391
 40
0.3216198597594042
 40
0.3430128235413673
 40
0.3752634384750793
 40
0.4040010771804458
 40
0.4468656794915723
 40
0.468215945936246
 40
0.5002096454814972
 40
0.528675413734447
 40
0.5715400247765458
 40
0.5931009716299191
 40
0.6253883780511656
 40
0.6539191343952843
 40
0.6965914244566831
 40
0.7179237821488444
 40
0.7499746494270431
 40
0.7785976316863417
 40
0.7958543398127828
 40
0.8217160693566459
 40
0.8431552865480468
 40
0.8751886732441888
 40
0.9000580147531506
 40
0.9373794059838182
 40
0.9685930788650364
 40
1.0
 40
1.0
 40
1.0
 40
1.0
 10
3.545388844996969
 20
-29.80485527420156
 30
0.0
 10
3.545480197135406
 20
-29.81164440520863
 30
0.0
 10
3.545662571510369
 20
-29.82519814949494
 30
0.0
 10
3.547032714046908
 20
-29.84411564286316
 30
0.0
 10
3.549278621227501
 20
-29.86427043795788
 30
0.0
 10
3.552383815069211
 20
-29.8837459003967
 30
0.0
 10
3.557241214189611
 20
-29.90686111791882
 30
0.0
 10
3.562435988465519
 20
-29.92633239392608
 30
0.0
 10
3.568780339238796
 20
-29.94620899181592
 30
0.0
 10
3.574836423905241
 20
-29.96284451017947
 30
0.0
 10
3.583406089825324
 20
-29.98342104192837
 30
0.0
 10
3.592077830421049
 20
-30.00144320563149
 30
0.0
 10
3.602002400646272
 20
-30.01973532130883
 30
0.0
 10
3.611129444211976
 20
-30.03502499592773
 30
0.0
 10
3.623520615641667
 20
-30.05373739733253
 30
0.0
 10
3.635525817110171
 20
-30.06985792745887
 30
0.0
 10
3.648757943677693
 20
-30.0858911340006
 30
0.0
 10
3.660571393172065
 20
-30.09904955418673
 30
0.0
 10
3.676259568084483
 20
-30.11493869793387
 30
0.0
 10
3.691152319419466
 20
-30.12841850148093
 30
0.0
 10
3.707345738384354
 20
-30.14162746303267
 30
0.0
 10
3.721611997070897
 20
-30.15228399886391
 30
0.0
 10
3.740164285063657
 20
-30.16477481501947
 30
0.0
 10
3.757375549684055
 20
-30.17498291258005
 30
0.0
 10
3.775753926809053
 20
-30.18462804605823
 30
0.0
 10
3.79179246129413
 20
-30.19217667946794
 30
0.0
 10
3.807369256512025
 20
-30.19858412923172
 30
0.0
 10
3.821916756260091
 20
-30.20393768674578
 30
0.0
 10
3.83517335044195
 20
-30.20828861199454
 30
0.0
 10
3.851657250142998
 20
-30.21299666641907
 30
0.0
 10
3.868130598975159
 20
-30.21692139734516
 30
0.0
 10
3.888137813528675
 20
-30.22070805124265
 30
0.0
 10
3.908147752578903
 20
-30.22341140281245
 30
0.0
 10
3.929683046762777
 20
-30.22516290854708
 30
0.0
 10
3.943213763576897
 20
-30.22536701808867
 30
0.0
 10
3.949999999998899
 20
-30.22546938780228
 30
0.0
  0
SPLINE
  5
296
330
1F
100
AcDbEntity
  8
SK3
  6
SLD-Dashed
370
    18
100
AcDbSpline
210
0.0
220
0.0
230
1.0
 70
     8
 71
     3
 72
    40
 73
    36
 74
     0
 42
0.000000001
 43
0.00000001
 40
0.0
 40
0.0
 40
0.0
 40
0.0
 40
0.0126129321449749
 40
0.0314976481339587
 40
0.0629183966702574
 40
0.0880663439714092
 40
0.1258663548219046
 40
0.1545361786951767
 40
0.1972635113751502
 40
0.2185774264758776
 40
0.250549973449914
 40
0.2790323571745715
 40
0.3220275475257097
 40
0.3436168159336435
 40
0.3758133620275704
 40
0.4042898095068478
 40
0.4468993710431288
 40
0.4682109723921613
 40
0.5002437124696372
 40
0.528853388731771
 40
0.5719828275869605
 40
0.593442063717947
 40
0.6254916984483689
 40
0.6539107272569482
 40
0.6965262692674938
 40
0.7178823906336926
 40
0.7500313093276828
 40
0.7787800102949213
 40
0.8217645159397994
 40
0.8431483194632984
 40
0.8751517844153632
 40
0.9000181010942335
 40
0.937358773167723
 40
0.9685909586685477
 40
1.0
 40
1.0
 40
1.0
 40
1.0
 10
18.30000000000005
 20
-30.22558142012644
 30
0.0
 10
18.3027256959445
 20
-30.22556434752626
 30
0.0
 10
18.30953244086252
 20
-30.22552171297095
 30
0.0
 10
18.32312192068609
 20
-30.22500449703673
 30
0.0
 10
18.33938544977025
 20
-30.2237321465761
 30
0.0
 10
18.35962263823539
 20
-30.22117483723599
 30
0.0
 10
18.37912342814689
 20
-30.21766990056754
 30
0.0
 10
18.40209059735813
 20
-30.21222207486888
 30
0.0
 10
18.42129623800888
 20
-30.20644931168886
 30
0.0
 10
18.44082755863403
 20
-30.19943885792772
 30
0.0
 10
18.45718998570677
 20
-30.19274290252151
 30
0.0
 10
18.47744321243873
 20
-30.18326307338969
 30
0.0
 10
18.49514777026511
 20
-30.17368149208101
 30
0.0
 10
18.51299887024303
 20
-30.16277896347598
 30
0.0
 10
18.52776206933997
 20
-30.15285978975094
 30
0.0
 10
18.54566370706716
 20
-30.13951958199503
 30
0.0
 10
18.56098911735464
 20
-30.12669241147174
 30
0.0
 10
18.57619506813989
 20
-30.11259090122094
 30
0.0
 10
18.58867147382275
 20
-30.10000934793471
 30
0.0
 10
18.60368863236066
 20
-30.0833467545574
 30
0.0
 10
18.61632529126057
 20
-30.0676414670647
 30
0.0
 10
18.62858943392447
 20
-30.0507353189207
 30
0.0
 10
18.63838877637004
 20
-30.03598007669224
 30
0.0
 10
18.64984348721731
 20
-30.01686769647318
 30
0.0
 10
18.65917024991944
 20
-29.99919574996969
 30
0.0
 10
18.66796418712437
 20
-29.98037484052355
 30
0.0
 10
18.6748342211834
 20
-29.96397246361359
 30
0.0
 10
18.68255017034247
 20
-29.94288522109558
 30
0.0
 10
18.68844193362833
 20
-29.92362739014021
 30
0.0
 10
18.69357143260818
 20
-29.90344062129117
 30
0.0
 10
18.69708101840338
 20
-29.88689085311746
 30
0.0
 10
18.70046357426521
 20
-29.86681061568803
 30
0.0
 10
18.70287526281568
 20
-29.84675343612669
 30
0.0
 10
18.704435580872
 20
-29.82519260420407
 30
0.0
 10
18.70461727324778
 20
-29.81165457438028
 30
0.0
 10
18.70470837592294
 20
-29.8048664484162
 30
0.0
  0
SPLINE
  5
297
330
1F
100
AcDbEntity
  8
SK3
  6
SLD-Dashed
370
    18
100
AcDbSpline
210
0.0
220
0.0
230
1.0
 70
     8
 71
     3
 72
    39
 73
    35
 74
     0
 42
0.000000001
 43
0.00000001
 40
0.0
 40
0.0
 40
0.0
 40
0.0
 40
0.0314091160307677
 40
0.062641375864154
 40
0.0875470935131889
 40
0.1248485138287462
 40
0.1532930400450872
 40
0.1960941157944515
 40
0.2176225947738144
 40
0.2499693772004302
 40
0.2785546285585205
 40
0.3212364873026964
 40
0.3425405354923894
 40
0.3745092858974103
 40
0.4029918411019262
 40
0.4459785689856202
 40
0.4675618916159423
 40
0.4997576608210476
 40
0.5282368343000382
 40
0.5708480092883969
 40
0.5921584935845849
 40
0.624188332845246
 40
0.6527986190299447
 40
0.6959401501309724
 40
0.7174023419155647
 40
0.7494519752642036
 40
0.7778741158300034
 40
0.8205144520917296
 40
0.8418962920619176
 40
0.8741359236783779
 40
0.8993502252909584
 40
0.9370840470446232
 40
0.9685048711195082
 40
1.0
 40
1.0
 40
1.0
 40
1.0
 10
18.70461115500983
 20
29.80485527419816
 30
0.0
 10
18.70452025145725
 20
29.81164171345375
 30
0.0
 10
18.70433895620519
 20
29.82517637936958
 30
0.0
 10
18.70297056620449
 20
29.84405190465702
 30
0.0
 10
18.700741031774
 20
29.86411824570149
 30
0.0
 10
18.69766377515029
 20
29.88347227622571
 30
0.0
 10
18.69285822026113
 20
29.9064312484355
 30
0.0
 10
18.68771177438564
 20
29.92581971282415
 30
0.0
 10
18.68138591065014
 20
29.94572790966316
 30
0.0
 10
18.67530704308144
 20
29.96248267210249
 30
0.0
 10
18.66671222395978
 20
29.98315850998385
 30
0.0
 10
18.65804498469565
 20
30.00120090567655
 30
0.0
 10
18.64816898128025
 20
30.01943081107643
 30
0.0
 10
18.63912598787446
 20
30.03461278108216
 30
0.0
 10
18.62681037274911
 20
30.05326734966754
 30
0.0
 10
18.61481562185353
 20
30.06942261759872
 30
0.0
 10
18.60152603093202
 20
30.08556438898103
 30
0.0
 10
18.58965984266754
 20
30.0988057483822
 30
0.0
 10
18.57398746851067
 20
30.11469877887863
 30
0.0
 10
18.559186181121
 20
30.12812096686804
 30
0.0
 10
18.54313791074351
 20
30.14124723286357
 30
0.0
 10
18.52896425934345
 20
30.15187245989079
 30
0.0
 10
18.51038407955234
 20
30.1644342737751
 30
0.0
 10
18.49306028315099
 20
30.17474090541241
 30
0.0
 10
18.47457768708167
 20
30.18446497823754
 30
0.0
 10
18.45855895707189
 20
30.19201976729601
 30
0.0
 10
18.43796004437985
 20
30.20051935318395
 30
0.0
 10
18.41906612593448
 20
30.20705284128372
 30
0.0
 10
18.39907752150719
 20
30.21280585013027
 30
0.0
 10
18.38250765202355
 20
30.21678677988687
 30
0.0
 10
18.36230136175808
 20
30.22064109222357
 30
0.0
 10
18.34208698504226
 20
30.2233898561806
 30
0.0
 10
18.32039969465098
 20
30.2251603474869
 30
0.0
 10
18.30680524997873
 20
30.22536629328659
 30
0.0
 10
18.30000000000799
 20
30.22546938779914
 30
0.0
  0
SPLINE
  5
298
330
1F
100
AcDbEntity
  8
SK3
  6
SLD-Dashed
370
    18
100
AcDbSpline
210
0.0
220
0.0
230
1.0
 70
     8
 71
     3
 72
    40
 73
    36
 74
     0
 42
0.000000001
 43
0.00000001
 40
0.0
 40
0.0
 40
0.0
 40
0.0
 40
0.0125929119920799
 40
0.0314096195346371
 40
0.0626234169499144
 40
0.0875147363747578
 40
0.1248144128307291
 40
0.1532834083387329
 40
0.1962265830891804
 40
0.2178107992109905
 40
0.2500224951329297
 40
0.2785169301551935
 40
0.3211718523043735
 40
0.3425182663517212
 40
0.3746092478105252
 40
0.4033018002026009
 40
0.4463503818994297
 40
0.4677602234265738
 40
0.4997883410590129
 40
0.5282270395863776
 40
0.5709521530205359
 40
0.592413861861735
 40
0.6247350591047609
 40
0.6534144483970886
 40
0.696168319941901
 40
0.717496931450338
 40
0.7494813527194164
 40
0.7779588669976948
 40
0.8208766717687338
 40
0.8424514691504659
 40
0.8747242821794735
 40
0.8997563983109476
 40
0.9372703102803513
 40
0.9685784185325865
 40
1.0
 40
1.0
 40
1.0
 40
1.0
 10
3.950000000000021
 20
30.22558142012639
 30
0.0
 10
3.947278630487603
 20
30.22556441746847
 30
0.0
 10
3.940490908866763
 20
30.22552200892811
 30
0.0
 10
3.926965088488747
 20
30.22500878447084
 30
0.0
 10
3.910815897791782
 20
30.2237499082788
 30
0.0
 10
3.890783626647186
 20
30.22123374888838
 30
0.0
 10
3.871482565347221
 20
30.21779055348815
 30
0.0
 10
3.848607405882316
 20
30.21241015713827
 30
0.0
 10
3.829331319368896
 20
30.2066566709893
 30
0.0
 10
3.80964221845395
 20
30.19962160064928
 30
0.0
 10
3.793167806815501
 20
30.19290122073892
 30
0.0
 10
3.772924482298197
 20
30.18344563237707
 30
0.0
 10
3.755317616591673
 20
30.17394373601331
 30
0.0
 10
3.737577171360707
 20
30.16314575471339
 30
0.0
 10
3.722818978858855
 20
30.15327064640552
 30
0.0
 10
3.704798099920052
 20
30.13989144466212
 30
0.0
 10
3.689332466278725
 20
30.12697740010818
 30
0.0
 10
3.674029699770651
 20
30.11281096127925
 30
0.0
 10
3.661557220132559
 20
30.10024903998078
 30
0.0
 10
3.64660951158968
 20
30.08369276015743
 30
0.0
 10
3.634030514372677
 20
30.06810049270646
 30
0.0
 10
3.62175692874493
 20
30.05123600708182
 30
0.0
 10
3.611872616558027
 20
30.03639837328909
 30
0.0
 10
3.600324644432424
 20
30.01717281850423
 30
0.0
 10
3.590949392450413
 20
29.99943559548712
 30
0.0
 10
3.582148995017351
 20
29.98063051707893
 30
0.0
 10
3.575306871630849
 20
29.96432508828284
 30
0.0
 10
3.567606450656899
 20
29.94334796470473
 30
0.0
 10
3.561699011690648
 20
29.92412819400954
 30
0.0
 10
3.556524840089362
 20
29.90386495846921
 30
0.0
 10
3.552972986099548
 20
29.88718562683121
 30
0.0
 10
3.549559886390258
 20
29.86697716337638
 30
0.0
 10
3.547128888650078
 20
29.84683182165025
 30
0.0
 10
3.545565946831264
 20
29.82521437831678
 30
0.0
 10
3.545383175201822
 20
29.81165726630967
 30
0.0
 10
3.545291624077155
 20
29.8048664484163
 30
0.0
  0
SPLINE
  5
299
330
1F
100
AcDbEntity
  8
1
  6
SLD-Dashed
370
    18
100
AcDbSpline
210
0.0
220
0.0
230
1.0
 70
     8
 71
     3
 72
     8
 73
     4
 74
     0
 42
0.000000001
 43
0.00000001
 40
0.0
 40
0.0
 40
0.0
 40
0.0
 40
1.0
 40
1.0
 40
1.0
 40
1.0
 10
9.199999999999985
 20
27.8050456341729
 30
0.0
 10
8.752403481898943
 20
28.61249255653032
 30
0.0
 10
8.30365062048366
 20
29.41929290832669
 30
0.0
 10
7.853987053477382
 20
30.22558142012641
 30
0.0
  0
SPLINE
  5
29A
330
1F
100
AcDbEntity
  8
1
  6
SLD-Dashed
370
    18
100
AcDbSpline
210
0.0
220
0.0
230
1.0
 70
     8
 71
     3
 72
    12
 73
     8
 74
     0
 42
0.000000001
 43
0.00000001
 40
0.0
 40
0.0
 40
0.0
 40
0.0
 40
0.2499999999999984
 40
0.2499999999999984
 40
0.4999999999999969
 40
0.4999999999999969
 40
1.0
 40
1.0
 40
1.0
 40
1.0
 10
9.950000000000001
 20
26.98706356756882
 30
0.0
 10
9.850149452042919
 20
26.9870635675688
 30
0.0
 10
9.748134209428091
 20
27.00887348025308
 30
0.0
 10
9.565410104204544
 20
27.08989258317071
 30
0.0
 10
9.481984824368892
 20
27.14976438531447
 30
0.0
 10
9.27727456740339
 20
27.36818499553369
 30
0.0
 10
9.2
 20
27.56879736260814
 30
0.0
 10
9.2
 20
27.76916635406976
 30
0.0
  0
SPLINE
  5
29B
330
1F
100
AcDbEntity
  8
1
  6
SLD-Dashed
370
    18
100
AcDbSpline
210
0.0
220
0.0
230
1.0
 70
     8
 71
     3
 72
    12
 73
     8
 74
     0
 42
0.000000001
 43
0.00000001
 40
0.0
 40
0.0
 40
0.0
 40
0.0
 40
0.2500000000000007
 40
0.2500000000000007
 40
0.5000000000000014
 40
0.5000000000000014
 40
1.0
 40
1.0
 40
1.0
 40
1.0
 10
13.03
 20
27.76916635406974
 30
0.0
 10
13.03
 20
27.66900663339823
 30
0.0
 10
13.01145353522916
 20
27.56910146598281
 30
0.0
 10
12.93858199206012
 20
27.38178244661976
 30
0.0
 10
12.88523035542459
 20
27.29613295246494
 30
0.0
 10
12.67790477657026
 20
27.07503152815009
 30
0.0
 10
12.47994383972985
 20
26.98706356756882
 30
0.0
 10
12.28
 20
26.9870635675688
 30
0.0
  0
SPLINE
  5
29C
330
1F
100
AcDbEntity
  8
1
  6
SLD-Dashed
370
    18
100
AcDbSpline
210
0.0
220
0.0
230
1.0
 70
     8
 71
     3
 72
     8
 73
     4
 74
     0
 42
0.000000001
 43
0.00000001
 40
0.0
 40
0.0
 40
0.0
 40
0.0
 40
1.0
 40
1.0
 40
1.0
 40
1.0
 10
14.37595046659275
 20
30.22546938779914
 30
0.0
 10
13.92630781119526
 20
29.41921817244964
 30
0.0
 10
13.4775757871934
 20
28.61245515876934
 30
0.0
 10
13.03
 20
27.8050456341729
 30
0.0
  0
SPLINE
  5
29D
330
1F
100
AcDbEntity
  8
SK3
  6
SLD-Dashed
370
    18
100
AcDbSpline
210
0.0
220
0.0
230
1.0
 70
    24
 71
     3
 72
    16
 73
    12
 74
     0
 42
0.000000001
 43
0.00000001
 40
0.0
 40
0.0
 40
0.0
 40
0.0
 40
0.2499999999999992
 40
0.2499999999999992
 40
0.3749999999999996
 40
0.3749999999999996
 40
0.5000000000000006
 40
0.5000000000000006
 40
0.7500000000000003
 40
0.7500000000000003
 40
1.0
 40
1.0
 40
1.0
 40
1.0
 10
19.05000000000003
 20
6.648814321294674
 30
0.0
 10
19.05000000000003
 20
6.883696980958753
 30
0.0
 10
19.05000000000003
 20
7.138039090382228
 30
0.0
 10
19.05000000000003
 20
7.559342302183775
 30
0.0
 10
19.05000000000003
 20
7.70620328171491
 30
0.0
 10
19.05000000000003
 20
8.006602996866064
 30
0.0
 10
19.05000000000003
 20
8.161019378688266
 30
0.0
 10
19.05000000000003
 20
8.637259463910905
 30
0.0
 10
19.05000000000003
 20
8.975182029350687
 30
0.0
 10
19.05000000000003
 20
9.648952583665645
 30
0.0
 10
19.05000000000003
 20
9.991071736925205
 30
0.0
 10
19.05000000000003
 20
10.32953861099384
 30
0.0
  0
ELLIPSE
  5
29E
330
1F
100
AcDbEntity
  8
SK3
  6
SLD-Dashed
370
    18
100
AcDbEllipse
 10
11.8871133473
 20
-7.5191393683
 30
0.0
 11
0.03385882744888491
 21
1.688460908529122
 31
0.0
210
0.0
220
0.0
230
1.0
 40
0.046392465
 41
0.4375032046387837
 42
3.520077657885182
  0
ELLIPSE
  5
29F
330
1F
100
AcDbEntity
  8
SK3
  6
SLD-Dashed
370
    18
100
AcDbEllipse
 10
11.8871133473
 20
-7.5191393683
 30
0.0
 11
3.067832073267274
 21
-0.06151945614271703
 31
0.0
210
0.0
220
0.0
230
1.0
 40
0.505226194
 41
1.592902384971334
 42
4.710544887376437
  0
ELLIPSE
  5
2A0
330
1F
100
AcDbEntity
  8
SK3
  6
SLD-Dashed
370
    18
100
AcDbEllipse
 10
11.8871133473
 20
7.5191393683
 30
0.0
 11
3.067832073232275
 21
0.06151945614199494
 31
0.0
210
0.0
220
0.0
230
1.0
 40
0.505226194
 41
1.572640419800042
 42
4.690282922227198
  0
ELLIPSE
  5
2A1
330
1F
100
AcDbEntity
  8
SK3
  6
SLD-Dashed
370
    18
100
AcDbEllipse
 10
11.8871133473
 20
7.5191393683
 30
0.0
 11
-0.03385882744891155
 21
1.688460908529102
 31
0.0
210
0.0
220
0.0
230
1.0
 40
0.046392465
 41
5.904700302884766
 42
8.987274756153404
  0
DIMENSION
  5
2A2
330
1F
100
AcDbEntity
  8
2
100
AcDbDimension
  2
_D
 10
44.45
 20
50.9333494754
 30
0.0
 11
20.4505831793
 21
50.9333494754
 31
0.0
 70
   160
  1
<>
 71
     2
 42
-1.0
  3
SLDDIMSTYLE0
100
AcDbAlignedDimension
 13
0.0
 23
22.225
 33
0.0
 14
44.45
 24
12.827
 34
0.0
100
AcDbRotatedDimension
  0
DIMENSION
  5
2B7
330
1F
100
AcDbEntity
  8
SK2
100
AcDbDimension
  2
_D_1
 10
44.45
 20
37.5275792013
 30
0.0
 11
32.1781467384
 21
37.5275792013
 31
0.0
 70
   160
  1
<>
 71
     2
 42
-1.0
  3
SLDDIMSTYLE0
100
AcDbAlignedDimension
 13
19.05
 23
29.8048664484
 33
0.0
 14
44.45
 24
12.827
 34
0.0
100
AcDbRotatedDimension
  0
DIMENSION
  5
2CA
330
1F
100
AcDbEntity
  8
SK2
100
AcDbDimension
  2
_D_2
 10
0.0
 20
37.5275792013
 30
0.0
 11
10.6078213367
 21
37.5275792013
 31
0.0
 70
   160
  1
<>
 71
     2
 42
-1.0
  3
SLDDIMSTYLE1
100
AcDbAlignedDimension
 13
19.05
 23
29.8048664484
 33
0.0
 14
0.0
 24
22.225
 34
0.0
100
AcDbRotatedDimension
  0
DIMENSION
  5
2D5
330
1F
100
AcDbEntity
  8
SK2
100
AcDbDimension
  2
_D_3
 10
44.45
 20
-61.9900421188
 30
0.0
 11
20.4505831793
 21
-61.9900421188
 31
0.0
 70
   160
  1
<>
 71
     2
 42
-1.0
  3
SLDDIMSTYLE0
100
AcDbAlignedDimension
 13
-3.3001406745
 23
-7.9375
 33
0.0
 14
44.45
 24
-12.827
 34
0.0
100
AcDbRotatedDimension
  0
DIMENSION
  5
2E8
330
1F
100
AcDbEntity
  8
SK2
100
AcDbDimension
  2
_D_4
 10
44.45
 20
-72.2787719597
 30
0.0
 11
-19.701857021
 21
-72.2787719597
 31
0.0
 70
   160
  1
<>
 71
     2
 42
-1.0
  3
SLDDIMSTYLE2
100
AcDbAlignedDimension
 13
-68.25
 23
-11.1476148288
 33
0.0
 14
44.45
 24
-12.827
 34
0.0
100
AcDbRotatedDimension
  0
DIMENSION
  5
2FC
330
1F
100
AcDbEntity
  8
SK2
100
AcDbDimension
  2
_D_5
 10
44.45
 20
-32.062800878
 30
0.0
 11
40.3252958073
 21
-32.062800878
 31
0.0
 70
   160
  1
<>
 71
     2
 42
-1.0
  3
SLDDIMSTYLE3
100
AcDbAlignedDimension
 13
35.052
 23
-22.225
 33
0.0
 14
44.45
 24
-12.827
 34
0.0
100
AcDbRotatedDimension
  0
DIMENSION
  5
309
330
1F
100
AcDbEntity
  8
SK2
100
AcDbDimension
  2
_D_6
 10
61.2975678505
 20
7.9375
 30
0.0
 11
61.2975678505
 21
33.1429927852
 31
0.0
 70
   160
  1
%%c<>
 71
     2
 42
-1.0
  3
SLDDIMSTYLE4
100
AcDbAlignedDimension
 13
43.45
 23
-7.9375
 33
0.0
 14
43.45
 24
7.9375
 34
0.0
 50
90.0
100
AcDbRotatedDimension
  0
DIMENSION
  5
31E
330
1F
100
AcDbEntity
  8
SK2
100
AcDbDimension
  2
_D_7
 10
75.8933760429
 20
-12.827
 30
0.0
 11
75.8933760429
 21
-0.2245172987
 31
0.0
 70
   160
  1
%%c<>
 71
     2
 42
-1.0
  3
SLDDIMSTYLE0
100
AcDbAlignedDimension
 13
44.45
 23
12.827
 33
0.0
 14
44.45
 24
-12.827
 34
0.0
 50
90.0
100
AcDbRotatedDimension
  0
DIMENSION
  5
330
330
1F
100
AcDbEntity
  8
SK2
100
AcDbDimension
  2
_D_8
 10
91.101152287
 20
-22.225
 30
0.0
 11
91.101152287
 21
-0.2245172987
 31
0.0
 70
   160
  1
%%c<>
 71
     2
 42
-1.0
  3
SLDDIMSTYLE0
100
AcDbAlignedDimension
 13
35.052
 23
22.1002541767
 33
0.0
 14
35.052
 24
-22.225
 34
0.0
 50
90.0
100
AcDbRotatedDimension
  0
DIMENSION
  5
342
330
1F
100
AcDbEntity
  8
SK2
100
AcDbDimension
  2
_D_9
 10
-87.4562486246
 20
-30.5579086614
 30
0.0
 11
-87.4562486246
 21
1.3128575241
 31
0.0
 70
   160
  1
%%c<>
 71
     2
 42
-1.0
  3
SLDDIMSTYLE1
100
AcDbAlignedDimension
 13
3.95
 23
30.5578899967
 33
0.0
 14
3.95
 24
-30.5579086614
 34
0.0
 50
90.0
100
AcDbRotatedDimension
  0
DIMENSION
  5
34D
330
1F
100
AcDbEntity
  8
SK2
100
AcDbDimension
  2
_D_10
 10
-77.582039917
 20
-7.9375002533
 30
0.0
 11
-77.582039917
 21
1.3128575241
 31
0.0
 70
   160
  1
<>
 71
     2
 42
-1.0
  3
SLDDIMSTYLE5
100
AcDbAlignedDimension
 13
-63.3082389832
 23
7.9375002533
 33
0.0
 14
-63.3082389832
 24
-7.9375002533
 34
0.0
 50
90.0
100
AcDbRotatedDimension
  0
DIMENSION
  5
35B
330
1F
100
AcDbEntity
  8
SK2
100
AcDbDimension
  2
_D_11
 10
44.45
 20
-47.1872499446
 30
0.0
 11
34.1788126538
 21
-47.1872499446
 31
0.0
 70
   160
  1
<>
 71
     2
 42
-1.0
  3
SLDDIMSTYLE0
100
AcDbAlignedDimension
 13
22.225
 23
-22.725
 33
0.0
 14
44.45
 24
-12.827
 34
0.0
100
AcDbRotatedDimension
  0
MTEXT
  5
36E
330
1F
100
AcDbEntity
  8
SK6
 62
     5
100
AcDbMText
 10
-50.7998823375
 20
-23.5708878213
 30
0.0
 40
3.5
 41
0.0
 71
     1
 72
     1
  1
AA3B20-40 16 044
  7
SLDTEXTSTYLE0
 73
     1
 44
1.0
  0
MTEXT
  5
36F
330
1F
100
AcDbEntity
  8
SK6
 62
     5
100
AcDbMText
 10
-53.850148807
 20
27.70916982
 30
0.0
 40
3.5
 41
0.0
 71
     1
 72
     1
  1
ASME B5.50 CAT 40
  7
SLDTEXTSTYLE0
 73
     1
 44
1.0
  0
ENDSEC
  0
SECTION
  2
OBJECTS
  0
DICTIONARY
  5
C
330
0
100
AcDbDictionary
281
     1
  3
ACAD_GROUP
350
D
  3
ACAD_LAYOUT
350
1A
  3
ACAD_MLINESTYLE
350
17
  3
ACAD_PLOTSETTINGS
350
19
  3
ACAD_PLOTSTYLENAME
350
E
  3
ACAD_SCALELIST
350
47
  0
DICTIONARY
  5
D
102
{ACAD_REACTORS
330
C
102
}
330
C
100
AcDbDictionary
281
     1
  0
DICTIONARY
  5
1A
102
{ACAD_REACTORS
330
C
102
}
330
C
100
AcDbDictionary
281
     1
  3
Layout1
350
1E
  3
Layout2
350
26
  3
Model
350
22
  0
DICTIONARY
  5
17
102
{ACAD_REACTORS
330
C
102
}
330
C
100
AcDbDictionary
281
     1
  3
Standard
350
18
  0
DICTIONARY
  5
19
102
{ACAD_REACTORS
330
C
102
}
330
C
100
AcDbDictionary
281
     1
  0
ACDBDICTIONARYWDFLT
  5
E
102
{ACAD_REACTORS
330
C
102
}
330
C
100
AcDbDictionary
281
     1
  3
Normal
350
F
100
AcDbDictionaryWithDefault
340
F
  0
DICTIONARY
  5
47
102
{ACAD_REACTORS
330
C
102
}
330
C
100
AcDbDictionary
281
     1
  3
A0
350
48
  3
A1
350
49
  3
A2
350
4A
  3
A3
350
4B
  3
A4
350
4C
  3
A5
350
4D
  3
A6
350
4E
  3
A7
350
4F
  3
A8
350
50
  3
A9
350
51
  3
B0
350
52
  3
B1
350
53
  3
B2
350
54
  3
B3
350
55
  3
B4
350
56
  3
B5
350
57
  3
B6
350
58
  3
B7
350
59
  3
B8
350
5A
  3
B9
350
5B
  3
C0
350
5C
  3
C1
350
5D
  3
C2
350
5E
  3
C3
350
5F
  3
C4
350
60
  3
C5
350
61
  3
C6
350
62
  3
C7
350
63
  3
C8
350
64
  3
C9
350
65
  3
D0
350
66
  3
D1
350
67
  3
D2
350
68
  0
LAYOUT
  5
1E
102
{ACAD_REACTORS
330
1A
102
}
330
1A
100
AcDbPlotSettings
  1

  2
none_device
  4

  6

 40
0.0
 41
0.0
 42
0.0
 43
0.0
 44
0.0
 45
0.0
 46
0.0
 47
0.0
 48
0.0
 49
0.0
140
0.0
141
0.0
142
1.0
143
1.0
 70
   688
 72
     1
 73
     0
 74
     5
  7

 75
    16
147
1.0
148
0.0
149
0.0
100
AcDbLayout
  1
Layout1
 70
     1
 71
     1
 10
0.0
 20
0.0
 11
420.0
 21
297.0
 12
0.0
 22
0.0
 32
0.0
 14
1.0000000000E+20
 24
1.0000000000E+20
 34
1.0000000000E+20
 15
-1.0000000000E+20
 25
-1.0000000000E+20
 35
-1.0000000000E+20
146
0.0
 13
0.0
 23
0.0
 33
0.0
 16
1.0
 26
0.0
 36
0.0
 17
0.0
 27
1.0
 37
0.0
 76
     0
330
1B
  0
LAYOUT
  5
26
102
{ACAD_REACTORS
330
1A
102
}
330
1A
100
AcDbPlotSettings
  1

  2
none_device
  4

  6

 40
0.0
 41
0.0
 42
0.0
 43
0.0
 44
0.0
 45
0.0
 46
0.0
 47
0.0
 48
0.0
 49
0.0
140
0.0
141
0.0
142
1.0
143
1.0
 70
   688
 72
     1
 73
     0
 74
     5
  7

 75
    16
147
1.0
148
0.0
149
0.0
100
AcDbLayout
  1
Layout2
 70
     1
 71
     2
 10
0.0
 20
0.0
 11
0.0
 21
0.0
 12
0.0
 22
0.0
 32
0.0
 14
0.0
 24
0.0
 34
0.0
 15
0.0
 25
0.0
 35
0.0
146
0.0
 13
0.0
 23
0.0
 33
0.0
 16
1.0
 26
0.0
 36
0.0
 17
0.0
 27
1.0
 37
0.0
 76
     0
330
23
  0
LAYOUT
  5
22
102
{ACAD_REACTORS
330
1A
102
}
330
1A
100
AcDbPlotSettings
  1

  2
none_device
  4
Letter_(8.50_x_11.00_Inches)
  6

 40
6.35
 41
6.35
 42
6.35000508
 43
6.35000508
 44
215.9
 45
279.4
 46
0.0
 47
0.0
 48
0.0
 49
0.0
140
0.0
141
0.0
142
1.0
143
1.0
 70
  1712
 72
     1
 73
     0
 74
     0
  7

 75
     0
147
1.0
148
0.0
149
0.0
100
AcDbLayout
  1
Model
 70
     1
 71
     0
 10
0.0
 20
0.0
 11
297.0
 21
210.0
 12
0.0
 22
0.0
 32
0.0
 14
0.0
 24
0.0
 34
0.0
 15
297.0
 25
210.0
 35
0.0
146
0.0
 13
0.0
 23
0.0
 33
0.0
 16
1.0
 26
0.0
 36
0.0
 17
0.0
 27
1.0
 37
0.0
 76
     0
330
1F
331
29
  0
MLINESTYLE
  5
18
102
{ACAD_REACTORS
330
17
102
}
330
17
100
AcDbMlineStyle
  2
Standard
 70
     0
  3

 62
   256
 51
90.0
 52
90.0
 71
     2
 49
0.5
 62
   256
  6
BYLAYER
 49
-0.5
 62
   256
  6
BYLAYER
  0
ACDBPLACEHOLDER
  5
F
102
{ACAD_REACTORS
330
E
102
}
330
E
  0
SCALE
  5
48
102
{ACAD_REACTORS
330
47
102
}
330
47
100
AcDbScale
 70
     0
300
1:1
140
1.0
141
1.0
290
     1
  0
SCALE
  5
49
102
{ACAD_REACTORS
330
47
102
}
330
47
100
AcDbScale
 70
     0
300
1:2
140
1.0
141
2.0
290
     0
  0
SCALE
  5
4A
102
{ACAD_REACTORS
330
47
102
}
330
47
100
AcDbScale
 70
     0
300
1:4
140
1.0
141
4.0
290
     0
  0
SCALE
  5
4B
102
{ACAD_REACTORS
330
47
102
}
330
47
100
AcDbScale
 70
     0
300
1:5
140
1.0
141
5.0
290
     0
  0
SCALE
  5
4C
102
{ACAD_REACTORS
330
47
102
}
330
47
100
AcDbScale
 70
     0
300
1:8
140
1.0
141
8.0
290
     0
  0
SCALE
  5
4D
102
{ACAD_REACTORS
330
47
102
}
330
47
100
AcDbScale
 70
     0
300
1:10
140
1.0
141
10.0
290
     0
  0
SCALE
  5
4E
102
{ACAD_REACTORS
330
47
102
}
330
47
100
AcDbScale
 70
     0
300
1:16
140
1.0
141
16.0
290
     0
  0
SCALE
  5
4F
102
{ACAD_REACTORS
330
47
102
}
330
47
100
AcDbScale
 70
     0
300
1:20
140
1.0
141
20.0
290
     0
  0
SCALE
  5
50
102
{ACAD_REACTORS
330
47
102
}
330
47
100
AcDbScale
 70
     0
300
1:30
140
1.0
141
30.0
290
     0
  0
SCALE
  5
51
102
{ACAD_REACTORS
330
47
102
}
330
47
100
AcDbScale
 70
     0
300
1:40
140
1.0
141
40.0
290
     0
  0
SCALE
  5
52
102
{ACAD_REACTORS
330
47
102
}
330
47
100
AcDbScale
 70
     0
300
1:50
140
1.0
141
50.0
290
     0
  0
SCALE
  5
53
102
{ACAD_REACTORS
330
47
102
}
330
47
100
AcDbScale
 70
     0
300
1:100
140
1.0
141
100.0
290
     0
  0
SCALE
  5
54
102
{ACAD_REACTORS
330
47
102
}
330
47
100
AcDbScale
 70
     0
300
2:1
140
2.0
141
1.0
290
     0
  0
SCALE
  5
55
102
{ACAD_REACTORS
330
47
102
}
330
47
100
AcDbScale
 70
     0
300
4:1
140
4.0
141
1.0
290
     0
  0
SCALE
  5
56
102
{ACAD_REACTORS
330
47
102
}
330
47
100
AcDbScale
 70
     0
300
8:1
140
8.0
141
1.0
290
     0
  0
SCALE
  5
57
102
{ACAD_REACTORS
330
47
102
}
330
47
100
AcDbScale
 70
     0
300
10:1
140
10.0
141
1.0
290
     0
  0
SCALE
  5
58
102
{ACAD_REACTORS
330
47
102
}
330
47
100
AcDbScale
 70
     0
300
100:1
140
100.0
141
1.0
290
     0
  0
SCALE
  5
59
102
{ACAD_REACTORS
330
47
102
}
330
47
100
AcDbScale
 70
     0
300
1/128" = 1'-0"
140
0.0078125
141
12.0
290
     0
  0
SCALE
  5
5A
102
{ACAD_REACTORS
330
47
102
}
330
47
100
AcDbScale
 70
     0
300
1/64" = 1'-0"
140
0.015625
141
12.0
290
     0
  0
SCALE
  5
5B
102
{ACAD_REACTORS
330
47
102
}
330
47
100
AcDbScale
 70
     0
300
1/32" = 1'-0"
140
0.03125
141
12.0
290
     0
  0
SCALE
  5
5C
102
{ACAD_REACTORS
330
47
102
}
330
47
100
AcDbScale
 70
     0
300
1/16" = 1'-0"
140
0.0625
141
12.0
290
     0
  0
SCALE
  5
5D
102
{ACAD_REACTORS
330
47
102
}
330
47
100
AcDbScale
 70
     0
300
3/32" = 1'-0"
140
0.09375
141
12.0
290
     0
  0
SCALE
  5
5E
102
{ACAD_REACTORS
330
47
102
}
330
47
100
AcDbScale
 70
     0
300
1/8" = 1'-0"
140
0.125
141
12.0
290
     0
  0
SCALE
  5
5F
102
{ACAD_REACTORS
330
47
102
}
330
47
100
AcDbScale
 70
     0
300
3/16" = 1'-0"
140
0.1875
141
12.0
290
     0
  0
SCALE
  5
60
102
{ACAD_REACTORS
330
47
102
}
330
47
100
AcDbScale
 70
     0
300
1/4" = 1'-0"
140
0.25
141
12.0
290
     0
  0
SCALE
  5
61
102
{ACAD_REACTORS
330
47
102
}
330
47
100
AcDbScale
 70
     0
300
3/8" = 1'-0"
140
0.375
141
12.0
290
     0
  0
SCALE
  5
62
102
{ACAD_REACTORS
330
47
102
}
330
47
100
AcDbScale
 70
     0
300
1/2" = 1'-0"
140
0.5
141
12.0
290
     0
  0
SCALE
  5
63
102
{ACAD_REACTORS
330
47
102
}
330
47
100
AcDbScale
 70
     0
300
3/4" = 1'-0"
140
0.75
141
12.0
290
     0
  0
SCALE
  5
64
102
{ACAD_REACTORS
330
47
102
}
330
47
100
AcDbScale
 70
     0
300
1" = 1'-0"
140
1.0
141
12.0
290
     0
  0
SCALE
  5
65
102
{ACAD_REACTORS
330
47
102
}
330
47
100
AcDbScale
 70
     0
300
1-1/2" = 1'-0"
140
1.5
141
12.0
290
     0
  0
SCALE
  5
66
102
{ACAD_REACTORS
330
47
102
}
330
47
100
AcDbScale
 70
     0
300
3" = 1'-0"
140
3.0
141
12.0
290
     0
  0
SCALE
  5
67
102
{ACAD_REACTORS
330
47
102
}
330
47
100
AcDbScale
 70
     0
300
6" = 1'-0"
140
6.0
141
12.0
290
     0
  0
SCALE
  5
68
102
{ACAD_REACTORS
330
47
102
}
330
47
100
AcDbScale
 70
     0
300
1'-0" = 1'-0"
140
12.0
141
12.0
290
     0
  0
ENDSEC
  0
EOF
