  0
SECTION
  2
HEADER
  9
$ACADVER
  1
AC1015
  9
$ACADMAINTVER
 70
     6
  9
$DWGCODEPAGE
  3
ANSI_1250
  9
$INSBASE
 10
0.0
 20
0.0
 30
0.0
  9
$EXTMIN
 10
0.0
 20
0.0
 30
0.0
  9
$EXTMAX
 10
297.0
 20
210.0
 30
0.0
  9
$LIMMIN
 10
0.0
 20
0.0
  9
$LIMMAX
 10
297.0
 20
210.0
  9
$ORTHOMODE
 70
     0
  9
$REGENMODE
 70
     1
  9
$FILLMODE
 70
     1
  9
$QTEXTMODE
 70
     0
  9
$MIRRTEXT
 70
     1
  9
$LTSCALE
 40
1.0
  9
$ATTMODE
 70
     1
  9
$TEXTSIZE
 40
3.5
  9
$TRACEWID
 40
1.0
  9
$TEXTSTYLE
  7
Standard
  9
$CLAYER
  8
0
  9
$CELTYPE
  6
ByLayer
  9
$CECOLOR
 62
   256
  9
$CELTSCALE
 40
1.0
  9
$DISPSILH
 70
     0
  9
$DIMSCALE
 40
1.0
  9
$DIMASZ
 40
3.302
  9
$DIMEXO
 40
1.0
  9
$DIMDLI
 40
3.75
  9
$DIMRND
 40
0.0
  9
$DIMDLE
 40
0.0
  9
$DIMEXE
 40
1.0
  9
$DIMTP
 40
0.0
  9
$DIMTM
 40
0.0
  9
$DIMTXT
 40
3.5
  9
$DIMCEN
 40
2.5
  9
$DIMTSZ
 40
0.0
  9
$DIMTOL
 70
     0
  9
$DIMLIM
 70
     0
  9
$DIMTIH
 70
     1
  9
$DIMTOH
 70
     1
  9
$DIMSE1
 70
     0
  9
$DIMSE2
 70
     0
  9
$DIMTAD
 70
     1
  9
$DIMZIN
 70
     0
  9
$DIMBLK
  1

  9
$DIMASO
 70
     1
  9
$DIMSHO
 70
     1
  9
$DIMPOST
  1

  9
$DIMAPOST
  1

  9
$DIMALT
 70
     0
  9
$DIMALTD
 70
     3
  9
$DIMALTF
 40
0.0393700787
  9
$DIMLFAC
 40
1.0
  9
$DIMTOFL
 70
     1
  9
$DIMTVP
 40
0.0
  9
$DIMTIX
 70
     0
  9
$DIMSOXD
 70
     0
  9
$DIMSAH
 70
     0
  9
$DIMBLK1
  1

  9
$DIMBLK2
  1

  9
$DIMSTYLE
  2
ISO-25
  9
$DIMCLRD
 70
     0
  9
$DIMCLRE
 70
     0
  9
$DIMCLRT
 70
     0
  9
$DIMTFAC
 40
1.0
  9
$DIMGAP
 40
1.524
  9
$DIMJUST
 70
     0
  9
$DIMSD1
 70
     0
  9
$DIMSD2
 70
     0
  9
$DIMTOLJ
 70
     0
  9
$DIMTZIN
 70
     0
  9
$DIMALTZ
 70
     0
  9
$DIMALTTZ
 70
     0
  9
$DIMUPT
 70
     0
  9
$DIMDEC
 70
     2
  9
$DIMTDEC
 70
     2
  9
$DIMALTU
 70
     2
  9
$DIMALTTD
 70
     3
  9
$DIMTXSTY
  7
Standard
  9
$DIMAUNIT
 70
     0
  9
$DIMADEC
 70
     2
  9
$DIMALTRND
 40
0.0
  9
$DIMAZIN
 70
     0
  9
$DIMDSEP
 70
    44
  9
$DIMATFIT
 70
     3
  9
$DIMFRAC
 70
     0
  9
$DIMLDRBLK
  1

  9
$DIMLUNIT
 70
     2
  9
$DIMLWD
 70
    -2
  9
$DIMLWE
 70
    -2
  9
$DIMTMOVE
 70
     0
  9
$LUNITS
 70
     2
  9
$LUPREC
 70
     2
  9
$SKETCHINC
 40
1.0
  9
$FILLETRAD
 40
10.0
  9
$AUNITS
 70
     0
  9
$AUPREC
 70
     2
  9
$MENU
  1
.
  9
$ELEVATION
 40
0.0
  9
$PELEVATION
 40
0.0
  9
$THICKNESS
 40
0.0
  9
$LIMCHECK
 70
     0
  9
$CHAMFERA
 40
0.0
  9
$CHAMFERB
 40
0.0
  9
$CHAMFERC
 40
0.0
  9
$CHAMFERD
 40
0.0
  9
$SKPOLY
 70
     0
  9
$TDCREATE
 40
2459278.312604144
  9
$TDUCREATE
 40
2459278.270937477
  9
$TDUPDATE
 40
2459278.31260588
  9
$TDUUPDATE
 40
2459278.270939213
  9
$TDINDWG
 40
0.0000000116
  9
$TDUSRTIMER
 40
0.0000000116
  9
$USRTIMER
 70
     1
  9
$ANGBASE
 50
0.0
  9
$ANGDIR
 70
     0
  9
$PDMODE
 70
     0
  9
$PDSIZE
 40
-1.0
  9
$PLINEWID
 40
0.0
  9
$SPLFRAME
 70
     0
  9
$SPLINETYPE
 70
     6
  9
$SPLINESEGS
 70
     8
  9
$HANDSEED
  5
34D
  9
$SURFTAB1
 70
     6
  9
$SURFTAB2
 70
     6
  9
$SURFTYPE
 70
     6
  9
$SURFU
 70
     6
  9
$SURFV
 70
     6
  9
$UCSBASE
  2

  9
$UCSNAME
  2

  9
$UCSORG
 10
0.0
 20
0.0
 30
0.0
  9
$UCSXDIR
 10
1.0
 20
0.0
 30
0.0
  9
$UCSYDIR
 10
0.0
 20
1.0
 30
0.0
  9
$UCSORTHOREF
  2

  9
$UCSORTHOVIEW
 70
     0
  9
$UCSORGTOP
 10
0.0
 20
0.0
 30
0.0
  9
$UCSORGBOTTOM
 10
0.0
 20
0.0
 30
0.0
  9
$UCSORGLEFT
 10
0.0
 20
0.0
 30
0.0
  9
$UCSORGRIGHT
 10
0.0
 20
0.0
 30
0.0
  9
$UCSORGFRONT
 10
0.0
 20
0.0
 30
0.0
  9
$UCSORGBACK
 10
0.0
 20
0.0
 30
0.0
  9
$PUCSBASE
  2

  9
$PUCSNAME
  2

  9
$PUCSORG
 10
0.0
 20
0.0
 30
0.0
  9
$PUCSXDIR
 10
1.0
 20
0.0
 30
0.0
  9
$PUCSYDIR
 10
0.0
 20
1.0
 30
0.0
  9
$PUCSORTHOREF
  2

  9
$PUCSORTHOVIEW
 70
     0
  9
$PUCSORGTOP
 10
0.0
 20
0.0
 30
0.0
  9
$PUCSORGBOTTOM
 10
0.0
 20
0.0
 30
0.0
  9
$PUCSORGLEFT
 10
0.0
 20
0.0
 30
0.0
  9
$PUCSORGRIGHT
 10
0.0
 20
0.0
 30
0.0
  9
$PUCSORGFRONT
 10
0.0
 20
0.0
 30
0.0
  9
$PUCSORGBACK
 10
0.0
 20
0.0
 30
0.0
  9
$USERI1
 70
     0
  9
$USERI2
 70
     0
  9
$USERI3
 70
     0
  9
$USERI4
 70
     0
  9
$USERI5
 70
     0
  9
$USERR1
 40
0.0
  9
$USERR2
 40
0.0
  9
$USERR3
 40
0.0
  9
$USERR4
 40
0.0
  9
$USERR5
 40
0.0
  9
$WORLDVIEW
 70
     1
  9
$SHADEDGE
 70
     3
  9
$SHADEDIF
 70
    70
  9
$TILEMODE
 70
     1
  9
$MAXACTVP
 70
    64
  9
$PINSBASE
 10
0.0
 20
0.0
 30
0.0
  9
$PLIMCHECK
 70
     0
  9
$PEXTMIN
 10
1.0000000000E+20
 20
1.0000000000E+20
 30
1.0000000000E+20
  9
$PEXTMAX
 10
-1.0000000000E+20
 20
-1.0000000000E+20
 30
-1.0000000000E+20
  9
$PLIMMIN
 10
0.0
 20
0.0
  9
$PLIMMAX
 10
420.0
 20
297.0
  9
$UNITMODE
 70
     0
  9
$VISRETAIN
 70
     1
  9
$PLINEGEN
 70
     0
  9
$PSLTSCALE
 70
     1
  9
$TREEDEPTH
 70
  3020
  9
$CMLSTYLE
  2
Standard
  9
$CMLJUST
 70
     0
  9
$CMLSCALE
 40
20.0
  9
$PROXYGRAPHICS
 70
     1
  9
$MEASUREMENT
 70
     1
  9
$CELWEIGHT
370
    -1
  9
$ENDCAPS
280
     0
  9
$JOINSTYLE
280
     0
  9
$LWDISPLAY
290
     1
  9
$INSUNITS
 70
     4
  9
$HYPERLINKBASE
  1

  9
$STYLESHEET
  1

  9
$XEDIT
290
     1
  9
$CEPSNTYPE
380
     0
  9
$PSTYLEMODE
290
     1
  9
$FINGERPRINTGUID
  2
{47820CAC-972E-4911-8403-112887FE3228}
  9
$VERSIONGUID
  2
{FAEB1C32-E019-11D5-929B-00C0DF256EC4}
  9
$EXTNAMES
290
     1
  9
$PSVPSCALE
 40
0.0
  9
$OLESTARTUP
290
     0
  0
ENDSEC
  0
SECTION
  2
CLASSES
  0
CLASS
  1
ACDBDICTIONARYWDFLT
  2
AcDbDictionaryWithDefault
  3
ObjectDBX Classes
 90
        0
280
     0
281
     0
  0
CLASS
  1
VISUALSTYLE
  2
AcDbVisualStyle
  3
ObjectDBX Classes
 90
     4095
280
     0
281
     0
  0
CLASS
  1
MATERIAL
  2
AcDbMaterial
  3
ObjectDBX Classes
 90
     1153
280
     0
281
     0
  0
CLASS
  1
SCALE
  2
AcDbScale
  3
ObjectDBX Classes
 90
     1153
280
     0
281
     0
  0
CLASS
  1
TABLESTYLE
  2
AcDbTableStyle
  3
ObjectDBX Classes
 90
     4095
280
     0
281
     0
  0
CLASS
  1
MLEADERSTYLE
  2
AcDbMLeaderStyle
  3
ACDB_MLEADERSTYLE_CLASS
 90
     4095
280
     0
281
     0
  0
CLASS
  1
SUN
  2
AcDbSun
  3
SCENEOE
 90
     1153
280
     0
281
     0
  0
CLASS
  1
ACDBPLACEHOLDER
  2
AcDbPlaceHolder
  3
ObjectDBX Classes
 90
        0
280
     0
281
     0
  0
CLASS
  1
LAYOUT
  2
AcDbLayout
  3
ObjectDBX Classes
 90
        0
280
     0
281
     0
  0
ENDSEC
  0
SECTION
  2
TABLES
  0
TABLE
  2
VPORT
  5
8
330
0
100
AcDbSymbolTable
 70
     1
  0
VPORT
  5
29
330
8
100
AcDbSymbolTableRecord
100
AcDbViewportTableRecord
  2
*Active
 70
     0
 10
0.0
 20
0.0
 11
1.0
 21
1.0
 12
148.5
 22
105.0
 13
0.0
 23
0.0
 14
10.0
 24
10.0
 15
10.0
 25
10.0
 16
0.0
 26
0.0
 36
1.0
 17
0.0
 27
0.0
 37
0.0
 40
210.0
 41
1.4142857143
 42
50.0
 43
0.0
 44
0.0
 50
0.0
 51
0.0
 71
     0
 72
  2000
 73
     1
 74
     3
 75
     0
 76
     0
 77
     0
 78
     0
281
     0
 65
     1
110
0.0
120
0.0
130
0.0
111
1.0
121
0.0
131
0.0
112
0.0
122
1.0
132
0.0
 79
     0
146
0.0
  0
ENDTAB
  0
TABLE
  2
LTYPE
  5
5
330
0
100
AcDbSymbolTable
 70
     8
  0
LTYPE
  5
14
330
5
100
AcDbSymbolTableRecord
100
AcDbLinetypeTableRecord
  2
ByBlock
 70
     0
  3

 72
    65
 73
     0
 40
0.0
  0
LTYPE
  5
15
330
5
100
AcDbSymbolTableRecord
100
AcDbLinetypeTableRecord
  2
ByLayer
 70
     0
  3

 72
    65
 73
     0
 40
0.0
  0
LTYPE
  5
16
330
5
100
AcDbSymbolTableRecord
100
AcDbLinetypeTableRecord
  2
Continuous
 70
     0
  3
Solid line
 72
    65
 73
     0
 40
0.0
  0
LTYPE
  5
6E
330
5
100
AcDbSymbolTableRecord
100
AcDbLinetypeTableRecord
  2
SLD-Solid
 70
     0
  3
SolidWorks Line Style
 72
    65
 73
     0
 40
0.0
  0
LTYPE
  5
6F
330
5
100
AcDbSymbolTableRecord
100
AcDbLinetypeTableRecord
  2
SLD-Dashed
 70
     0
  3
SolidWorks Line Style
 72
    65
 73
     2
 40
1.905
 49
1.27
 74
     0
 49
-0.635
 74
     0
  0
LTYPE
  5
70
330
5
100
AcDbSymbolTableRecord
100
AcDbLinetypeTableRecord
  2
SLD-Phantom
 70
     0
  3
SolidWorks Line Style
 72
    65
 73
     6
 40
12.7
 49
6.35
 74
     0
 49
-1.27
 74
     0
 49
1.27
 74
     0
 49
-1.27
 74
     0
 49
1.27
 74
     0
 49
-1.27
 74
     0
  0
LTYPE
  5
71
330
5
100
AcDbSymbolTableRecord
100
AcDbLinetypeTableRecord
  2
SLD-Chain
 70
     0
  3
SolidWorks Line Style
 72
    65
 73
     4
 40
10.16
 49
6.35
 74
     0
 49
-1.27
 74
     0
 49
1.27
 74
     0
 49
-1.27
 74
     0
  0
LTYPE
  5
72
330
5
100
AcDbSymbolTableRecord
100
AcDbLinetypeTableRecord
  2
SLD-Center
 70
     0
  3
SolidWorks Line Style
 72
    65
 73
     4
 40
19.05
 49
15.24
 74
     0
 49
-1.27
 74
     0
 49
1.27
 74
     0
 49
-1.27
 74
     0
  0
LTYPE
  5
73
330
5
100
AcDbSymbolTableRecord
100
AcDbLinetypeTableRecord
  2
SLD-Stitch
 70
     0
  3
SolidWorks Line Style
 72
    65
 73
     2
 40
0.635
 49
0.0
 74
     0
 49
-0.635
 74
     0
  0
LTYPE
  5
74
330
5
100
AcDbSymbolTableRecord
100
AcDbLinetypeTableRecord
  2
SLD-Thin-Thick-Chain
 70
     0
  3
SolidWorks Line Style
 72
    65
 73
     4
 40
10.16
 49
6.35
 74
     0
 49
-1.27
 74
     0
 49
1.27
 74
     0
 49
-1.27
 74
     0
  0
ENDTAB
  0
TABLE
  2
LAYER
  5
2
330
0
100
AcDbSymbolTable
 70
    14
  0
LAYER
  5
10
330
2
100
AcDbSymbolTableRecord
100
AcDbLayerTableRecord
  2
0
 70
     0
 62
     7
  6
Continuous
370
    -3
390
F
  0
LAYER
  5
75
330
2
100
AcDbSymbolTableRecord
100
AcDbLayerTableRecord
  2
SLD-0
 70
     0
 62
   179
  6
SLD-Solid
370
    -3
390
F
  0
LAYER
  5
76
330
2
100
AcDbSymbolTableRecord
100
AcDbLayerTableRecord
  2
80
 70
     0
 62
    -6
  6
SLD-Solid
290
     0
370
    -3
390
F
  0
LAYER
  5
77
330
2
100
AcDbSymbolTableRecord
100
AcDbLayerTableRecord
  2
81
 70
     0
 62
    -3
  6
SLD-Solid
290
     0
370
    -3
390
F
  0
LAYER
  5
78
330
2
100
AcDbSymbolTableRecord
100
AcDbLayerTableRecord
  2
1
 70
     0
 62
     4
  6
SLD-Solid
290
     0
370
    -3
390
F
  0
LAYER
  5
79
330
2
100
AcDbSymbolTableRecord
100
AcDbLayerTableRecord
  2
4
 70
     0
 62
    -2
  6
SLD-Chain
290
     0
370
    -3
390
F
  0
LAYER
  5
7A
330
2
100
AcDbSymbolTableRecord
100
AcDbLayerTableRecord
  2
2
 70
     0
 62
     7
  6
SLD-Solid
290
     0
370
    -3
390
F
  0
LAYER
  5
7B
330
2
100
AcDbSymbolTableRecord
100
AcDbLayerTableRecord
  2
SK3
 70
     0
 62
     1
  6
SLD-Dashed
290
     0
370
    -3
390
F
  0
LAYER
  5
7C
330
2
100
AcDbSymbolTableRecord
100
AcDbLayerTableRecord
  2
SK4
 70
     0
 62
     2
  6
SLD-Chain
290
     0
370
    -3
390
F
  0
LAYER
  5
7D
330
2
100
AcDbSymbolTableRecord
100
AcDbLayerTableRecord
  2
SK2
 70
     0
 62
     7
  6
SLD-Solid
290
     0
370
    -3
390
F
  0
LAYER
  5
7E
330
2
100
AcDbSymbolTableRecord
100
AcDbLayerTableRecord
  2
SK6
 70
     0
 62
     5
  6
SLD-Solid
290
     0
370
    -3
390
F
  0
LAYER
  5
7F
330
2
100
AcDbSymbolTableRecord
100
AcDbLayerTableRecord
  2
6
 70
     0
 62
     5
  6
SLD-Solid
370
    -3
390
F
  0
LAYER
  5
80
330
2
100
AcDbSymbolTableRecord
100
AcDbLayerTableRecord
  2
SK1
 70
     0
 62
     4
  6
SLD-Solid
370
    -3
390
F
  0
LAYER
  5
81
330
2
100
AcDbSymbolTableRecord
100
AcDbLayerTableRecord
  2
LAYER5
 70
     0
 62
   218
  6
SLD-Solid
370
    -3
390
F
  0
ENDTAB
  0
TABLE
  2
STYLE
  5
3
330
0
100
AcDbSymbolTable
 70
     3
  0
STYLE
  5
11
330
3
100
AcDbSymbolTableRecord
100
AcDbTextStyleTableRecord
  2
Standard
 70
     0
 40
0.0
 41
1.0
 50
0.0
 71
     0
 42
3.5
  3
txt
  4

  0
STYLE
  5
266
330
3
100
AcDbSymbolTableRecord
100
AcDbTextStyleTableRecord
  2
SLDTEXTSTYLE0
 70
     0
 40
0.0
 41
0.75
 50
0.0
 71
     0
 42
3.5
  3
TXT
  4

  0
STYLE
  5
349
330
3
100
AcDbSymbolTableRecord
100
AcDbTextStyleTableRecord
  2
SLDTEXTSTYLE1
 70
     0
 40
0.0
 41
0.6875
 50
0.0
 71
     0
 42
3.5
  3
TXT
  4

  0
ENDTAB
  0
TABLE
  2
VIEW
  5
6
330
0
100
AcDbSymbolTable
 70
     0
  0
ENDTAB
  0
TABLE
  2
UCS
  5
7
330
0
100
AcDbSymbolTable
 70
     0
  0
ENDTAB
  0
TABLE
  2
APPID
  5
9
330
0
100
AcDbSymbolTable
 70
     1
  0
APPID
  5
12
330
9
100
AcDbSymbolTableRecord
100
AcDbRegAppTableRecord
  2
ACAD
 70
     0
  0
ENDTAB
  0
TABLE
  2
DIMSTYLE
  5
A
330
0
100
AcDbSymbolTable
 70
     7
100
AcDbDimStyleTable
  0
DIMSTYLE
105
27
330
A
100
AcDbSymbolTableRecord
100
AcDbDimStyleTableRecord
  2
ISO-25
 70
     0
 41
2.5
 42
0.625
 43
3.75
 44
1.25
 73
     0
 74
     0
 77
     1
 78
     8
140
2.5
141
2.5
143
0.0393700787
147
0.625
171
     3
172
     1
178
     0
271
     2
272
     2
274
     3
278
    44
283
     0
284
     8
340
11
  0
DIMSTYLE
105
267
102
{ACAD_REACTORS
330
265
330
27A
330
28D
330
2A0
330
2C8
330
2DA
330
300
330
32B
102
}
330
A
100
AcDbSymbolTableRecord
100
AcDbDimStyleTableRecord
  2
SLDDIMSTYLE0
 70
     0
 41
3.302
 44
0.0
 45
0.000000001
 73
     0
 74
     0
 77
     1
 78
    12
 79
     3
140
3.5
143
0.0393700787
147
0.875
148
0.000000001
170
     1
173
     1
178
     0
271
     2
272
     2
276
     2
284
    12
340
266
  0
DIMSTYLE
105
2B4
102
{ACAD_REACTORS
330
2B3
102
}
330
A
100
AcDbSymbolTableRecord
100
AcDbDimStyleTableRecord
  2
SLDDIMSTYLE1
 70
     0
 41
3.302
 44
0.0
 45
0.000000001
 73
     0
 74
     0
 77
     1
 78
    12
 79
     3
140
3.5
143
0.0393700787
147
0.875
148
0.000000001
170
     1
172
     1
173
     1
178
     0
271
     3
272
     2
276
     2
284
    12
289
     0
340
266
  0
DIMSTYLE
105
2ED
102
{ACAD_REACTORS
330
2EC
102
}
330
A
100
AcDbSymbolTableRecord
100
AcDbDimStyleTableRecord
  2
SLDDIMSTYLE2
 70
     0
 41
3.302
 44
0.0
 45
0.000000001
 73
     0
 74
     0
 77
     1
 78
    12
 79
     3
140
3.5
143
0.0393700787
147
0.875
148
0.000000001
170
     1
171
     3
173
     1
178
     0
271
     3
272
     2
274
     3
276
     2
284
    12
340
266
  0
DIMSTYLE
105
314
102
{ACAD_REACTORS
330
313
102
}
330
A
100
AcDbSymbolTableRecord
100
AcDbDimStyleTableRecord
  2
SLDDIMSTYLE3
 70
     0
 41
3.302
 44
0.0
 45
0.000000001
 73
     0
 74
     0
 77
     1
 78
    12
 79
     3
140
3.5
147
0.875
172
     1
173
     1
178
     0
271
     2
272
     2
276
     2
284
    12
289
     0
340
266
  0
DIMSTYLE
105
321
102
{ACAD_REACTORS
330
320
102
}
330
A
100
AcDbSymbolTableRecord
100
AcDbDimStyleTableRecord
  2
SLDDIMSTYLE4
 70
     0
 41
3.302
 44
0.0
 45
0.000000001
 73
     0
 74
     0
 77
     1
 78
    12
 79
     3
140
3.5
147
0.875
173
     1
178
     0
271
     2
272
     2
276
     2
284
    12
340
266
  0
DIMSTYLE
105
33E
102
{ACAD_REACTORS
330
33D
102
}
330
A
100
AcDbSymbolTableRecord
100
AcDbDimStyleTableRecord
  2
SLDDIMSTYLE5
 70
     0
 41
3.302
 44
0.0
 45
0.000000001
 73
     0
 74
     0
 77
     1
 78
    12
 79
     3
140
3.5
147
0.875
172
     1
173
     1
178
     0
271
     6
272
     2
276
     2
284
    12
289
     0
340
266
  0
ENDTAB
  0
TABLE
  2
BLOCK_RECORD
  5
1
330
0
100
AcDbSymbolTable
 70
    14
  0
BLOCK_RECORD
  5
1F
330
1
100
AcDbSymbolTableRecord
100
AcDbBlockTableRecord
  2
*Model_Space
340
22
  0
BLOCK_RECORD
  5
1B
330
1
100
AcDbSymbolTableRecord
100
AcDbBlockTableRecord
  2
*Paper_Space
340
1E
  0
BLOCK_RECORD
  5
23
330
1
100
AcDbSymbolTableRecord
100
AcDbBlockTableRecord
  2
*Paper_Space0
340
26
  0
BLOCK_RECORD
  5
268
330
1
100
AcDbSymbolTableRecord
100
AcDbBlockTableRecord
  2
_D
340
0
  0
BLOCK_RECORD
  5
27B
330
1
100
AcDbSymbolTableRecord
100
AcDbBlockTableRecord
  2
_D_1
340
0
  0
BLOCK_RECORD
  5
28E
330
1
100
AcDbSymbolTableRecord
100
AcDbBlockTableRecord
  2
_D_2
340
0
  0
BLOCK_RECORD
  5
2A1
330
1
100
AcDbSymbolTableRecord
100
AcDbBlockTableRecord
  2
_D_3
340
0
  0
BLOCK_RECORD
  5
2B5
330
1
100
AcDbSymbolTableRecord
100
AcDbBlockTableRecord
  2
_D_4
340
0
  0
BLOCK_RECORD
  5
2C9
330
1
100
AcDbSymbolTableRecord
100
AcDbBlockTableRecord
  2
_D_5
340
0
  0
BLOCK_RECORD
  5
2DB
330
1
100
AcDbSymbolTableRecord
100
AcDbBlockTableRecord
  2
_D_6
340
0
  0
BLOCK_RECORD
  5
2EE
330
1
100
AcDbSymbolTableRecord
100
AcDbBlockTableRecord
  2
_D_7
340
0
  0
BLOCK_RECORD
  5
301
330
1
100
AcDbSymbolTableRecord
100
AcDbBlockTableRecord
  2
_D_8
340
0
  0
BLOCK_RECORD
  5
315
330
1
100
AcDbSymbolTableRecord
100
AcDbBlockTableRecord
  2
_D_9
340
0
  0
BLOCK_RECORD
  5
322
330
1
100
AcDbSymbolTableRecord
100
AcDbBlockTableRecord
  2
_D_10
340
0
  0
BLOCK_RECORD
  5
32C
330
1
100
AcDbSymbolTableRecord
100
AcDbBlockTableRecord
  2
_D_11
340
0
  0
BLOCK_RECORD
  5
33F
330
1
100
AcDbSymbolTableRecord
100
AcDbBlockTableRecord
  2
_D_12
340
0
  0
ENDTAB
  0
ENDSEC
  0
SECTION
  2
BLOCKS
  0
BLOCK
  5
20
330
1F
100
AcDbEntity
  8
0
100
AcDbBlockBegin
  2
*Model_Space
 70
     0
 10
0.0
 20
0.0
 30
0.0
  3
*Model_Space
  1

  0
ENDBLK
  5
21
330
1F
100
AcDbEntity
  8
0
100
AcDbBlockEnd
  0
BLOCK
  5
1C
330
1B
100
AcDbEntity
 67
     1
  8
0
100
AcDbBlockBegin
  2
*Paper_Space
 70
     0
 10
0.0
 20
0.0
 30
0.0
  3
*Paper_Space
  1

  0
ENDBLK
  5
1D
330
1B
100
AcDbEntity
 67
     1
  8
0
100
AcDbBlockEnd
  0
BLOCK
  5
24
330
23
100
AcDbEntity
  8
0
100
AcDbBlockBegin
  2
*Paper_Space0
 70
     0
 10
0.0
 20
0.0
 30
0.0
  3
*Paper_Space0
  1

  0
ENDBLK
  5
25
330
23
100
AcDbEntity
  8
0
100
AcDbBlockEnd
  0
BLOCK
  5
269
330
268
100
AcDbEntity
  8
0
100
AcDbBlockBegin
  2
_D
 70
     0
 10
0.0
 20
0.0
 30
0.0
  3
_D
  1

  0
SOLID
  5
26B
330
268
100
AcDbEntity
  8
2
100
AcDbTrace
 10
0.0
 20
63.6976937193
 30
0.0
 11
3.302
 21
63.1896937193
 31
0.0
 12
3.302
 22
64.2056937193
 32
0.0
 13
3.302
 23
64.2056937193
 33
0.0
  0
SOLID
  5
26C
330
268
100
AcDbEntity
  8
2
100
AcDbTrace
 10
66.548
 20
63.6976937193
 30
0.0
 11
63.246
 21
64.2056937193
 31
0.0
 12
63.246
 22
63.1896937193
 32
0.0
 13
63.246
 23
63.1896937193
 33
0.0
  0
LINE
  5
26D
330
268
100
AcDbEntity
  8
2
100
AcDbLine
 10
25.022121152
 20
74.4905754354
 30
0.0
 11
23.9557148945
 21
74.4905754354
 31
0.0
  0
LINE
  5
26E
330
268
100
AcDbEntity
  8
2
100
AcDbLine
 10
23.9557148945
 20
74.4905754354
 30
0.0
 11
23.9557148945
 21
68.9343254443
 31
0.0
  0
LINE
  5
26F
330
268
100
AcDbEntity
  8
2
100
AcDbLine
 10
23.9557148945
 20
68.9343254443
 30
0.0
 11
25.022121152
 21
68.9343254443
 31
0.0
  0
LINE
  5
270
330
268
100
AcDbEntity
  8
2
100
AcDbLine
 10
34.0735102129
 20
74.4905754354
 30
0.0
 11
35.1399164704
 21
74.4905754354
 31
0.0
  0
LINE
  5
271
330
268
100
AcDbEntity
  8
2
100
AcDbLine
 10
35.1399164704
 20
74.4905754354
 30
0.0
 11
35.1399164704
 21
68.9343254443
 31
0.0
  0
LINE
  5
272
330
268
100
AcDbEntity
  8
2
100
AcDbLine
 10
35.1399164704
 20
68.9343254443
 30
0.0
 11
34.0735102129
 21
68.9343254443
 31
0.0
  0
LINE
  5
273
330
268
100
AcDbEntity
  8
2
100
AcDbLine
 10
0.0
 20
23.225
 30
0.0
 11
0.0
 21
64.6976937193
 31
0.0
  0
LINE
  5
274
330
268
100
AcDbEntity
  8
2
100
AcDbLine
 10
66.548
 20
12.303
 30
0.0
 11
66.548
 21
64.6976937193
 31
0.0
  0
LINE
  5
275
330
268
100
AcDbEntity
  8
2
100
AcDbLine
 10
0.0
 20
63.6976937193
 30
0.0
 11
66.548
 21
63.6976937193
 31
0.0
  0
MTEXT
  5
276
330
268
100
AcDbEntity
  8
2
100
AcDbMText
 10
22.9087530403
 20
68.2629029852
 30
0.0
 40
3.5
 41
0.0
 71
     1
 72
     1
  1

  7
SLDTEXTSTYLE0
 73
     1
 44
1.0
  0
MTEXT
  5
277
330
268
100
AcDbEntity
  8
2
100
AcDbMText
 10
25.022121152
 20
73.4460623589
 30
0.0
 40
3.5
 41
0.0
 71
     1
 72
     1
  1
2,62
  7
SLDTEXTSTYLE0
 73
     1
 44
1.0
  0
MTEXT
  5
278
330
268
100
AcDbEntity
  8
2
100
AcDbMText
 10
23.7290654388
 20
68.2094308085
 30
0.0
 40
3.5
 41
0.0
 71
     1
 72
     1
  1
66,55
  7
SLDTEXTSTYLE0
 73
     1
 44
1.0
  0
MTEXT
  5
279
330
268
100
AcDbEntity
  8
2
100
AcDbMText
 10
37.5188228442
 20
68.2629029852
 30
0.0
 40
3.5
 41
0.0
 71
     1
 72
     1
  1

  7
SLDTEXTSTYLE0
 73
     1
 44
1.0
  0
ENDBLK
  5
26A
330
268
100
AcDbEntity
  8
0
100
AcDbBlockEnd
  0
BLOCK
  5
27C
330
27B
100
AcDbEntity
  8
0
100
AcDbBlockBegin
  2
_D_1
 70
     0
 10
0.0
 20
0.0
 30
0.0
  3
_D_1
  1

  0
SOLID
  5
27E
330
27B
100
AcDbEntity
  8
SK2
100
AcDbTrace
 10
19.05
 20
51.3840636056
 30
0.0
 11
22.352
 21
50.8760636056
 31
0.0
 12
22.352
 22
51.8920636056
 32
0.0
 13
22.352
 23
51.8920636056
 33
0.0
  0
SOLID
  5
27F
330
27B
100
AcDbEntity
  8
SK2
100
AcDbTrace
 10
66.548
 20
51.3840636056
 30
0.0
 11
63.246
 21
51.8920636056
 31
0.0
 12
63.246
 22
50.8760636056
 32
0.0
 13
63.246
 23
50.8760636056
 33
0.0
  0
LINE
  5
280
330
27B
100
AcDbEntity
  8
SK2
100
AcDbLine
 10
37.2421428144
 20
62.1769453217
 30
0.0
 11
36.175736557
 21
62.1769453217
 31
0.0
  0
LINE
  5
281
330
27B
100
AcDbEntity
  8
SK2
100
AcDbLine
 10
36.175736557
 20
62.1769453217
 30
0.0
 11
36.175736557
 21
56.6206953306
 31
0.0
  0
LINE
  5
282
330
27B
100
AcDbEntity
  8
SK2
100
AcDbLine
 10
36.175736557
 20
56.6206953306
 30
0.0
 11
37.2421428144
 21
56.6206953306
 31
0.0
  0
LINE
  5
283
330
27B
100
AcDbEntity
  8
SK2
100
AcDbLine
 10
46.2935318753
 20
62.1769453217
 30
0.0
 11
47.3599381328
 21
62.1769453217
 31
0.0
  0
LINE
  5
284
330
27B
100
AcDbEntity
  8
SK2
100
AcDbLine
 10
47.3599381328
 20
62.1769453217
 30
0.0
 11
47.3599381328
 21
56.6206953306
 31
0.0
  0
LINE
  5
285
330
27B
100
AcDbEntity
  8
SK2
100
AcDbLine
 10
47.3599381328
 20
56.6206953306
 30
0.0
 11
46.2935318753
 21
56.6206953306
 31
0.0
  0
LINE
  5
286
330
27B
100
AcDbEntity
  8
SK2
100
AcDbLine
 10
19.05
 20
30.8048664484
 30
0.0
 11
19.05
 21
52.3840636056
 31
0.0
  0
LINE
  5
287
330
27B
100
AcDbEntity
  8
SK2
100
AcDbLine
 10
66.548
 20
12.303
 30
0.0
 11
66.548
 21
52.3840636056
 31
0.0
  0
LINE
  5
288
330
27B
100
AcDbEntity
  8
SK2
100
AcDbLine
 10
19.05
 20
51.3840636056
 30
0.0
 11
66.548
 21
51.3840636056
 31
0.0
  0
MTEXT
  5
289
330
27B
100
AcDbEntity
  8
SK2
100
AcDbMText
 10
35.1287747027
 20
55.9492728715
 30
0.0
 40
3.5
 41
0.0
 71
     1
 72
     1
  1

  7
SLDTEXTSTYLE0
 73
     1
 44
1.0
  0
MTEXT
  5
28A
330
27B
100
AcDbEntity
  8
SK2
100
AcDbMText
 10
37.2421428144
 20
61.1324322452
 30
0.0
 40
3.5
 41
0.0
 71
     1
 72
     1
  1
1,87
  7
SLDTEXTSTYLE0
 73
     1
 44
1.0
  0
MTEXT
  5
28B
330
27B
100
AcDbEntity
  8
SK2
100
AcDbMText
 10
37.2421428144
 20
55.8958006948
 30
0.0
 40
3.5
 41
0.0
 71
     1
 72
     1
  1
47,5
  7
SLDTEXTSTYLE0
 73
     1
 44
1.0
  0
MTEXT
  5
28C
330
27B
100
AcDbEntity
  8
SK2
100
AcDbMText
 10
49.7388445066
 20
55.9492728715
 30
0.0
 40
3.5
 41
0.0
 71
     1
 72
     1
  1

  7
SLDTEXTSTYLE0
 73
     1
 44
1.0
  0
ENDBLK
  5
27D
330
27B
100
AcDbEntity
  8
0
100
AcDbBlockEnd
  0
BLOCK
  5
28F
330
28E
100
AcDbEntity
  8
0
100
AcDbBlockBegin
  2
_D_2
 70
     0
 10
0.0
 20
0.0
 30
0.0
  3
_D_2
  1

  0
SOLID
  5
291
330
28E
100
AcDbEntity
  8
SK2
100
AcDbTrace
 10
35.05
 20
38.1253625679
 30
0.0
 11
38.352
 21
37.6173625679
 31
0.0
 12
38.352
 22
38.6333625679
 32
0.0
 13
38.352
 23
38.6333625679
 33
0.0
  0
SOLID
  5
292
330
28E
100
AcDbEntity
  8
SK2
100
AcDbTrace
 10
66.548
 20
38.1253625679
 30
0.0
 11
63.246
 21
38.6333625679
 31
0.0
 12
63.246
 22
37.6173625679
 32
0.0
 13
63.246
 23
37.6173625679
 33
0.0
  0
LINE
  5
293
330
28E
100
AcDbEntity
  8
SK2
100
AcDbLine
 10
46.4666940362
 20
48.918244284
 30
0.0
 11
45.4002877788
 21
48.918244284
 31
0.0
  0
LINE
  5
294
330
28E
100
AcDbEntity
  8
SK2
100
AcDbLine
 10
45.4002877788
 20
48.918244284
 30
0.0
 11
45.4002877788
 21
43.3619942929
 31
0.0
  0
LINE
  5
295
330
28E
100
AcDbEntity
  8
SK2
100
AcDbLine
 10
45.4002877788
 20
43.3619942929
 30
0.0
 11
46.4666940362
 21
43.3619942929
 31
0.0
  0
LINE
  5
296
330
28E
100
AcDbEntity
  8
SK2
100
AcDbLine
 10
55.5180830971
 20
48.918244284
 30
0.0
 11
56.5844893546
 21
48.918244284
 31
0.0
  0
LINE
  5
297
330
28E
100
AcDbEntity
  8
SK2
100
AcDbLine
 10
56.5844893546
 20
48.918244284
 30
0.0
 11
56.5844893546
 21
43.3619942929
 31
0.0
  0
LINE
  5
298
330
28E
100
AcDbEntity
  8
SK2
100
AcDbLine
 10
56.5844893546
 20
43.3619942929
 30
0.0
 11
55.5180830971
 21
43.3619942929
 31
0.0
  0
LINE
  5
299
330
28E
100
AcDbEntity
  8
SK2
100
AcDbLine
 10
35.05
 20
22.463
 30
0.0
 11
35.05
 21
39.1253625679
 31
0.0
  0
LINE
  5
29A
330
28E
100
AcDbEntity
  8
SK2
100
AcDbLine
 10
66.548
 20
12.303
 30
0.0
 11
66.548
 21
39.1253625679
 31
0.0
  0
LINE
  5
29B
330
28E
100
AcDbEntity
  8
SK2
100
AcDbLine
 10
35.05
 20
38.1253625679
 30
0.0
 11
66.548
 21
38.1253625679
 31
0.0
  0
MTEXT
  5
29C
330
28E
100
AcDbEntity
  8
SK2
100
AcDbMText
 10
44.3533259246
 20
42.6905718338
 30
0.0
 40
3.5
 41
0.0
 71
     1
 72
     1
  1

  7
SLDTEXTSTYLE0
 73
     1
 44
1.0
  0
MTEXT
  5
29D
330
28E
100
AcDbEntity
  8
SK2
100
AcDbMText
 10
46.4666940362
 20
47.8737312075
 30
0.0
 40
3.5
 41
0.0
 71
     1
 72
     1
  1
1,24
  7
SLDTEXTSTYLE0
 73
     1
 44
1.0
  0
MTEXT
  5
29E
330
28E
100
AcDbEntity
  8
SK2
100
AcDbMText
 10
46.4666940362
 20
42.6370996571
 30
0.0
 40
3.5
 41
0.0
 71
     1
 72
     1
  1
31,5
  7
SLDTEXTSTYLE0
 73
     1
 44
1.0
  0
MTEXT
  5
29F
330
28E
100
AcDbEntity
  8
SK2
100
AcDbMText
 10
58.9633957285
 20
42.6905718338
 30
0.0
 40
3.5
 41
0.0
 71
     1
 72
     1
  1

  7
SLDTEXTSTYLE0
 73
     1
 44
1.0
  0
ENDBLK
  5
290
330
28E
100
AcDbEntity
  8
0
100
AcDbBlockEnd
  0
BLOCK
  5
2A2
330
2A1
100
AcDbEntity
  8
0
100
AcDbBlockBegin
  2
_D_3
 70
     0
 10
0.0
 20
0.0
 30
0.0
  3
_D_3
  1

  0
SOLID
  5
2A4
330
2A1
100
AcDbEntity
  8
SK2
100
AcDbTrace
 10
44.323
 20
24.755829124
 30
0.0
 11
47.625
 21
24.247829124
 31
0.0
 12
47.625
 22
25.263829124
 32
0.0
 13
47.625
 23
25.263829124
 33
0.0
  0
SOLID
  5
2A5
330
2A1
100
AcDbEntity
  8
SK2
100
AcDbTrace
 10
66.548
 20
24.755829124
 30
0.0
 11
63.246
 21
25.263829124
 31
0.0
 12
63.246
 22
24.247829124
 32
0.0
 13
63.246
 23
24.247829124
 33
0.0
  0
LINE
  5
2A6
330
2A1
100
AcDbEntity
  8
SK2
100
AcDbLine
 10
51.9386696636
 20
35.54871084
 30
0.0
 11
50.8722634061
 21
35.54871084
 31
0.0
  0
LINE
  5
2A7
330
2A1
100
AcDbEntity
  8
SK2
100
AcDbLine
 10
50.8722634061
 20
35.54871084
 30
0.0
 11
50.8722634061
 21
29.9924608489
 31
0.0
  0
LINE
  5
2A8
330
2A1
100
AcDbEntity
  8
SK2
100
AcDbLine
 10
50.8722634061
 20
29.9924608489
 30
0.0
 11
51.9386696636
 21
29.9924608489
 31
0.0
  0
LINE
  5
2A9
330
2A1
100
AcDbEntity
  8
SK2
100
AcDbLine
 10
60.9900587245
 20
35.54871084
 30
0.0
 11
62.0564649819
 21
35.54871084
 31
0.0
  0
LINE
  5
2AA
330
2A1
100
AcDbEntity
  8
SK2
100
AcDbLine
 10
62.0564649819
 20
35.54871084
 30
0.0
 11
62.0564649819
 21
29.9924608489
 31
0.0
  0
LINE
  5
2AB
330
2A1
100
AcDbEntity
  8
SK2
100
AcDbLine
 10
62.0564649819
 20
29.9924608489
 30
0.0
 11
60.9900587245
 21
29.9924608489
 31
0.0
  0
LINE
  5
2AC
330
2A1
100
AcDbEntity
  8
SK2
100
AcDbLine
 10
44.323
 20
17.375
 30
0.0
 11
44.323
 21
25.755829124
 31
0.0
  0
LINE
  5
2AD
330
2A1
100
AcDbEntity
  8
SK2
100
AcDbLine
 10
66.548
 20
12.303
 30
0.0
 11
66.548
 21
25.755829124
 31
0.0
  0
LINE
  5
2AE
330
2A1
100
AcDbEntity
  8
SK2
100
AcDbLine
 10
44.323
 20
24.755829124
 30
0.0
 11
66.548
 21
24.755829124
 31
0.0
  0
MTEXT
  5
2AF
330
2A1
100
AcDbEntity
  8
SK2
100
AcDbMText
 10
49.8253015519
 20
29.3210383898
 30
0.0
 40
3.5
 41
0.0
 71
     1
 72
     1
  1

  7
SLDTEXTSTYLE0
 73
     1
 44
1.0
  0
MTEXT
  5
2B0
330
2A1
100
AcDbEntity
  8
SK2
100
AcDbMText
 10
51.9386696636
 20
34.5041977635
 30
0.0
 40
3.5
 41
0.0
 71
     1
 72
     1
  1
0,88
  7
SLDTEXTSTYLE0
 73
     1
 44
1.0
  0
MTEXT
  5
2B1
330
2A1
100
AcDbEntity
  8
SK2
100
AcDbMText
 10
50.6456139504
 20
29.2675662132
 30
0.0
 40
3.5
 41
0.0
 71
     1
 72
     1
  1
22,23
  7
SLDTEXTSTYLE0
 73
     1
 44
1.0
  0
MTEXT
  5
2B2
330
2A1
100
AcDbEntity
  8
SK2
100
AcDbMText
 10
64.4353713558
 20
29.3210383898
 30
0.0
 40
3.5
 41
0.0
 71
     1
 72
     1
  1

  7
SLDTEXTSTYLE0
 73
     1
 44
1.0
  0
ENDBLK
  5
2A3
330
2A1
100
AcDbEntity
  8
0
100
AcDbBlockEnd
  0
BLOCK
  5
2B6
330
2B5
100
AcDbEntity
  8
0
100
AcDbBlockBegin
  2
_D_4
 70
     0
 10
0.0
 20
0.0
 30
0.0
  3
_D_4
  1

  0
SOLID
  5
2B8
330
2B5
100
AcDbEntity
  8
SK2
100
AcDbTrace
 10
82.137407449
 20
6.35
 30
0.0
 11
82.645407449
 21
9.652
 31
0.0
 12
81.629407449
 22
9.652
 32
0.0
 13
81.629407449
 23
9.652
 33
0.0
  0
SOLID
  5
2B9
330
2B5
100
AcDbEntity
  8
SK2
100
AcDbTrace
 10
82.137407449
 20
-6.35
 30
0.0
 11
81.629407449
 21
-9.652
 31
0.0
 12
82.645407449
 22
-9.652
 32
0.0
 13
82.645407449
 23
-9.652
 33
0.0
  0
LINE
  5
2BA
330
2B5
100
AcDbEntity
  8
SK2
100
AcDbLine
 10
71.344525733
 20
-4.400562536
 30
0.0
 11
71.344525733
 21
-5.4669687935
 31
0.0
  0
LINE
  5
2BB
330
2B5
100
AcDbEntity
  8
SK2
100
AcDbLine
 10
71.344525733
 20
-5.4669687935
 30
0.0
 11
76.900775724
 21
-5.4669687935
 31
0.0
  0
LINE
  5
2BC
330
2B5
100
AcDbEntity
  8
SK2
100
AcDbLine
 10
76.900775724
 20
-5.4669687935
 30
0.0
 11
76.900775724
 21
-4.400562536
 31
0.0
  0
LINE
  5
2BD
330
2B5
100
AcDbEntity
  8
SK2
100
AcDbLine
 10
71.344525733
 20
4.6508265249
 30
0.0
 11
71.344525733
 21
5.7172327823
 31
0.0
  0
LINE
  5
2BE
330
2B5
100
AcDbEntity
  8
SK2
100
AcDbLine
 10
71.344525733
 20
5.7172327823
 30
0.0
 11
76.900775724
 21
5.7172327823
 31
0.0
  0
LINE
  5
2BF
330
2B5
100
AcDbEntity
  8
SK2
100
AcDbLine
 10
76.900775724
 20
5.7172327823
 30
0.0
 11
76.900775724
 21
4.6508265249
 31
0.0
  0
LINE
  5
2C0
330
2B5
100
AcDbEntity
  8
SK2
100
AcDbLine
 10
66.548
 20
6.35
 30
0.0
 11
83.137407449
 21
6.35
 31
0.0
  0
LINE
  5
2C1
330
2B5
100
AcDbEntity
  8
SK2
100
AcDbLine
 10
66.548
 20
-6.35
 30
0.0
 11
83.137407449
 21
-6.35
 31
0.0
  0
LINE
  5
2C2
330
2B5
100
AcDbEntity
  8
SK2
100
AcDbLine
 10
82.137407449
 20
6.35
 30
0.0
 11
82.137407449
 21
12.7
 31
0.0
  0
LINE
  5
2C3
330
2B5
100
AcDbEntity
  8
SK2
100
AcDbLine
 10
82.137407449
 20
6.35
 30
0.0
 11
82.137407449
 21
-6.35
 31
0.0
  0
LINE
  5
2C4
330
2B5
100
AcDbEntity
  8
SK2
100
AcDbLine
 10
82.137407449
 20
-6.35
 30
0.0
 11
82.137407449
 21
-12.7
 31
0.0
  0
MTEXT
  5
2C5
330
2B5
100
AcDbEntity
  8
SK2
100
AcDbMText
 10
72.3890388094
 20
-4.400562536
 30
0.0
 40
3.5
 41
0.0
 71
     1
 72
     1
  1
0,50
  7
SLDTEXTSTYLE0
 11
-7.044195017643634E-15
 21
1.0
 31
0.0
 73
     1
 44
1.0
  0
MTEXT
  5
2C6
330
2B5
100
AcDbEntity
  8
SK2
100
AcDbMText
 10
77.6256703598
 20
-7.0397817009
 30
0.0
 40
3.5
 41
0.0
 71
     1
 72
     1
  1
%%c
  7
SLDTEXTSTYLE0
 11
-7.044195017643634E-15
 21
1.0
 31
0.0
 73
     1
 44
1.0
  0
MTEXT
  5
2C7
330
2B5
100
AcDbEntity
  8
SK2
100
AcDbMText
 10
77.6256703598
 20
-1.7613443025
 30
0.0
 40
3.5
 41
0.0
 71
     1
 72
     1
  1
12,7
  7
SLDTEXTSTYLE0
 11
-7.044195017643634E-15
 21
1.0
 31
0.0
 73
     1
 44
1.0
  0
ENDBLK
  5
2B7
330
2B5
100
AcDbEntity
  8
0
100
AcDbBlockEnd
  0
BLOCK
  5
2CA
330
2C9
100
AcDbEntity
  8
0
100
AcDbBlockBegin
  2
_D_5
 70
     0
 10
0.0
 20
0.0
 30
0.0
  3
_D_5
  1

  0
SOLID
  5
2CC
330
2C9
100
AcDbEntity
  8
SK2
100
AcDbTrace
 10
96.5633707469
 20
11.303
 30
0.0
 11
96.0553707469
 21
8.001
 31
0.0
 12
97.0713707469
 22
8.001
 32
0.0
 13
97.0713707469
 23
8.001
 33
0.0
  0
SOLID
  5
2CD
330
2C9
100
AcDbEntity
  8
SK2
100
AcDbTrace
 10
96.5633707469
 20
-11.303
 30
0.0
 11
97.0713707469
 21
-8.001
 31
0.0
 12
96.0553707469
 22
-8.001
 32
0.0
 13
96.0553707469
 23
-8.001
 33
0.0
  0
LINE
  5
2CE
330
2C9
100
AcDbEntity
  8
SK2
100
AcDbLine
 10
85.7704890309
 20
-4.400562536
 30
0.0
 11
85.7704890309
 21
-5.4669687935
 31
0.0
  0
LINE
  5
2CF
330
2C9
100
AcDbEntity
  8
SK2
100
AcDbLine
 10
85.7704890309
 20
-5.4669687935
 30
0.0
 11
91.3267390219
 21
-5.4669687935
 31
0.0
  0
LINE
  5
2D0
330
2C9
100
AcDbEntity
  8
SK2
100
AcDbLine
 10
91.3267390219
 20
-5.4669687935
 30
0.0
 11
91.3267390219
 21
-4.400562536
 31
0.0
  0
LINE
  5
2D1
330
2C9
100
AcDbEntity
  8
SK2
100
AcDbLine
 10
85.7704890309
 20
4.6508265249
 30
0.0
 11
85.7704890309
 21
5.7172327823
 31
0.0
  0
LINE
  5
2D2
330
2C9
100
AcDbEntity
  8
SK2
100
AcDbLine
 10
85.7704890309
 20
5.7172327823
 30
0.0
 11
91.3267390219
 21
5.7172327823
 31
0.0
  0
LINE
  5
2D3
330
2C9
100
AcDbEntity
  8
SK2
100
AcDbLine
 10
91.3267390219
 20
5.7172327823
 30
0.0
 11
91.3267390219
 21
4.6508265249
 31
0.0
  0
LINE
  5
2D4
330
2C9
100
AcDbEntity
  8
SK2
100
AcDbLine
 10
67.548
 20
11.303
 30
0.0
 11
97.5633707469
 21
11.303
 31
0.0
  0
LINE
  5
2D5
330
2C9
100
AcDbEntity
  8
SK2
100
AcDbLine
 10
67.548
 20
-11.303
 30
0.0
 11
97.5633707469
 21
-11.303
 31
0.0
  0
LINE
  5
2D6
330
2C9
100
AcDbEntity
  8
SK2
100
AcDbLine
 10
96.5633707469
 20
11.303
 30
0.0
 11
96.5633707469
 21
-11.303
 31
0.0
  0
MTEXT
  5
2D7
330
2C9
100
AcDbEntity
  8
SK2
100
AcDbMText
 10
86.8150021073
 20
-4.400562536
 30
0.0
 40
3.5
 41
0.0
 71
     1
 72
     1
  1
0,89
  7
SLDTEXTSTYLE0
 11
-7.044195017643634E-15
 21
1.0
 31
0.0
 73
     1
 44
1.0
  0
MTEXT
  5
2D8
330
2C9
100
AcDbEntity
  8
SK2
100
AcDbMText
 10
92.0516336577
 20
-8.3328369484
 30
0.0
 40
3.5
 41
0.0
 71
     1
 72
     1
  1
%%c
  7
SLDTEXTSTYLE0
 11
-7.044195017643634E-15
 21
1.0
 31
0.0
 73
     1
 44
1.0
  0
MTEXT
  5
2D9
330
2C9
100
AcDbEntity
  8
SK2
100
AcDbMText
 10
92.0516336577
 20
-3.05439955
 30
0.0
 40
3.5
 41
0.0
 71
     1
 72
     1
  1
22,61
  7
SLDTEXTSTYLE0
 11
-7.044195017643634E-15
 21
1.0
 31
0.0
 73
     1
 44
1.0
  0
ENDBLK
  5
2CB
330
2C9
100
AcDbEntity
  8
0
100
AcDbBlockEnd
  0
BLOCK
  5
2DC
330
2DB
100
AcDbEntity
  8
0
100
AcDbBlockBegin
  2
_D_6
 70
     0
 10
0.0
 20
0.0
 30
0.0
  3
_D_6
  1

  0
SOLID
  5
2DE
330
2DB
100
AcDbEntity
  8
SK2
100
AcDbTrace
 10
109.6877433713
 20
15.875
 30
0.0
 11
109.1797433713
 21
12.573
 31
0.0
 12
110.1957433713
 22
12.573
 32
0.0
 13
110.1957433713
 23
12.573
 33
0.0
  0
SOLID
  5
2DF
330
2DB
100
AcDbEntity
  8
SK2
100
AcDbTrace
 10
109.6877433713
 20
-15.875
 30
0.0
 11
110.1957433713
 21
-12.573
 31
0.0
 12
109.1797433713
 22
-12.573
 32
0.0
 13
109.1797433713
 23
-12.573
 33
0.0
  0
LINE
  5
2E0
330
2DB
100
AcDbEntity
  8
SK2
100
AcDbLine
 10
98.8948616553
 20
-4.400562536
 30
0.0
 11
98.8948616553
 21
-5.4669687935
 31
0.0
  0
LINE
  5
2E1
330
2DB
100
AcDbEntity
  8
SK2
100
AcDbLine
 10
98.8948616553
 20
-5.4669687935
 30
0.0
 11
104.4511116463
 21
-5.4669687935
 31
0.0
  0
LINE
  5
2E2
330
2DB
100
AcDbEntity
  8
SK2
100
AcDbLine
 10
104.4511116463
 20
-5.4669687935
 30
0.0
 11
104.4511116463
 21
-4.400562536
 31
0.0
  0
LINE
  5
2E3
330
2DB
100
AcDbEntity
  8
SK2
100
AcDbLine
 10
98.8948616553
 20
4.6508265249
 30
0.0
 11
98.8948616553
 21
5.7172327823
 31
0.0
  0
LINE
  5
2E4
330
2DB
100
AcDbEntity
  8
SK2
100
AcDbLine
 10
98.8948616553
 20
5.7172327823
 30
0.0
 11
104.4511116463
 21
5.7172327823
 31
0.0
  0
LINE
  5
2E5
330
2DB
100
AcDbEntity
  8
SK2
100
AcDbLine
 10
104.4511116463
 20
5.7172327823
 30
0.0
 11
104.4511116463
 21
4.6508265249
 31
0.0
  0
LINE
  5
2E6
330
2DB
100
AcDbEntity
  8
SK2
100
AcDbLine
 10
62.976
 20
15.875
 30
0.0
 11
110.6877433713
 21
15.875
 31
0.0
  0
LINE
  5
2E7
330
2DB
100
AcDbEntity
  8
SK2
100
AcDbLine
 10
62.976
 20
-15.875
 30
0.0
 11
110.6877433713
 21
-15.875
 31
0.0
  0
LINE
  5
2E8
330
2DB
100
AcDbEntity
  8
SK2
100
AcDbLine
 10
109.6877433713
 20
15.875
 30
0.0
 11
109.6877433713
 21
-15.875
 31
0.0
  0
MTEXT
  5
2E9
330
2DB
100
AcDbEntity
  8
SK2
100
AcDbMText
 10
99.9393747317
 20
-4.400562536
 30
0.0
 40
3.5
 41
0.0
 71
     1
 72
     1
  1
1,25
  7
SLDTEXTSTYLE0
 11
-7.044195017643634E-15
 21
1.0
 31
0.0
 73
     1
 44
1.0
  0
MTEXT
  5
2EA
330
2DB
100
AcDbEntity
  8
SK2
100
AcDbMText
 10
105.1760062821
 20
-8.3328369484
 30
0.0
 40
3.5
 41
0.0
 71
     1
 72
     1
  1
%%c
  7
SLDTEXTSTYLE0
 11
-7.044195017643634E-15
 21
1.0
 31
0.0
 73
     1
 44
1.0
  0
MTEXT
  5
2EB
330
2DB
100
AcDbEntity
  8
SK2
100
AcDbMText
 10
105.1760062821
 20
-3.05439955
 30
0.0
 40
3.5
 41
0.0
 71
     1
 72
     1
  1
31,75
  7
SLDTEXTSTYLE0
 11
-7.044195017643634E-15
 21
1.0
 31
0.0
 73
     1
 44
1.0
  0
ENDBLK
  5
2DD
330
2DB
100
AcDbEntity
  8
0
100
AcDbBlockEnd
  0
BLOCK
  5
2EF
330
2EE
100
AcDbEntity
  8
0
100
AcDbBlockBegin
  2
_D_7
 70
     0
 10
0.0
 20
0.0
 30
0.0
  3
_D_7
  1

  0
SOLID
  5
2F1
330
2EE
100
AcDbEntity
  8
SK2
100
AcDbTrace
 10
-68.25
 20
-54.8118309826
 30
0.0
 11
-64.948
 21
-55.3198309826
 31
0.0
 12
-64.948
 22
-54.3038309826
 32
0.0
 13
-64.948
 23
-54.3038309826
 33
0.0
  0
SOLID
  5
2F2
330
2EE
100
AcDbEntity
  8
SK2
100
AcDbTrace
 10
66.548
 20
-54.8118309826
 30
0.0
 11
63.246
 21
-54.3038309826
 31
0.0
 12
63.246
 22
-55.3198309826
 32
0.0
 13
63.246
 23
-55.3198309826
 33
0.0
  0
LINE
  5
2F3
330
2EE
100
AcDbEntity
  8
SK2
100
AcDbLine
 10
-25.3142187915
 20
-44.0189492665
 30
0.0
 11
-26.380625049
 21
-44.0189492665
 31
0.0
  0
LINE
  5
2F4
330
2EE
100
AcDbEntity
  8
SK2
100
AcDbLine
 10
-26.380625049
 20
-44.0189492665
 30
0.0
 11
-26.380625049
 21
-49.5751992576
 31
0.0
  0
LINE
  5
2F5
330
2EE
100
AcDbEntity
  8
SK2
100
AcDbLine
 10
-26.380625049
 20
-49.5751992576
 30
0.0
 11
-25.3142187915
 21
-49.5751992576
 31
0.0
  0
LINE
  5
2F6
330
2EE
100
AcDbEntity
  8
SK2
100
AcDbLine
 10
-13.6767183043
 20
-44.0189492665
 30
0.0
 11
-12.6103120468
 21
-44.0189492665
 31
0.0
  0
LINE
  5
2F7
330
2EE
100
AcDbEntity
  8
SK2
100
AcDbLine
 10
-12.6103120468
 20
-44.0189492665
 30
0.0
 11
-12.6103120468
 21
-49.5751992576
 31
0.0
  0
LINE
  5
2F8
330
2EE
100
AcDbEntity
  8
SK2
100
AcDbLine
 10
-12.6103120468
 20
-49.5751992576
 30
0.0
 11
-13.6767183043
 21
-49.5751992576
 31
0.0
  0
LINE
  5
2F9
330
2EE
100
AcDbEntity
  8
SK2
100
AcDbLine
 10
-68.25
 20
-12.1476148288
 30
0.0
 11
-68.25
 21
-55.8118309826
 31
0.0
  0
LINE
  5
2FA
330
2EE
100
AcDbEntity
  8
SK2
100
AcDbLine
 10
66.548
 20
-12.303
 30
0.0
 11
66.548
 21
-55.8118309826
 31
0.0
  0
LINE
  5
2FB
330
2EE
100
AcDbEntity
  8
SK2
100
AcDbLine
 10
-68.25
 20
-54.8118309826
 30
0.0
 11
66.548
 21
-54.8118309826
 31
0.0
  0
MTEXT
  5
2FC
330
2EE
100
AcDbEntity
  8
SK2
100
AcDbMText
 10
-27.8808858146
 20
-50.2466217167
 30
0.0
 40
3.5
 41
0.0
 71
     1
 72
     1
  1

  7
SLDTEXTSTYLE0
 73
     1
 44
1.0
  0
MTEXT
  5
2FD
330
2EE
100
AcDbEntity
  8
SK2
100
AcDbMText
 10
-25.3142187915
 20
-45.063462343
 30
0.0
 40
3.5
 41
0.0
 71
     1
 72
     1
  1
5,307
  7
SLDTEXTSTYLE0
 73
     1
 44
1.0
  0
MTEXT
  5
2FE
330
2EE
100
AcDbEntity
  8
SK2
100
AcDbMText
 10
-27.9003302179
 20
-50.3000938934
 30
0.0
 40
3.5
 41
0.0
 71
     1
 72
     1
  1
134,798
  7
SLDTEXTSTYLE0
 73
     1
 44
1.0
  0
MTEXT
  5
2FF
330
2EE
100
AcDbEntity
  8
SK2
100
AcDbMText
 10
-9.7781076928
 20
-50.2466217167
 30
0.0
 40
3.5
 41
0.0
 71
     1
 72
     1
  1

  7
SLDTEXTSTYLE0
 73
     1
 44
1.0
  0
ENDBLK
  5
2F0
330
2EE
100
AcDbEntity
  8
0
100
AcDbBlockEnd
  0
BLOCK
  5
302
330
301
100
AcDbEntity
  8
0
100
AcDbBlockBegin
  2
_D_8
 70
     0
 10
0.0
 20
0.0
 30
0.0
  3
_D_8
  1

  0
SOLID
  5
304
330
301
100
AcDbEntity
  8
SK2
100
AcDbTrace
 10
22.0980850117
 20
-43.6133552172
 30
0.0
 11
25.4000850117
 21
-44.1213552172
 31
0.0
 12
25.4000850117
 22
-43.1053552172
 32
0.0
 13
25.4000850117
 23
-43.1053552172
 33
0.0
  0
SOLID
  5
305
330
301
100
AcDbEntity
  8
SK2
100
AcDbTrace
 10
66.548
 20
-43.6133552172
 30
0.0
 11
63.246
 21
-43.1053552172
 31
0.0
 12
63.246
 22
-44.1213552172
 32
0.0
 13
63.246
 23
-44.1213552172
 33
0.0
  0
LINE
  5
306
330
301
100
AcDbEntity
  8
SK2
100
AcDbLine
 10
35.4081010742
 20
-32.8204735011
 30
0.0
 11
34.3416948168
 21
-32.8204735011
 31
0.0
  0
LINE
  5
307
330
301
100
AcDbEntity
  8
SK2
100
AcDbLine
 10
34.3416948168
 20
-32.8204735011
 30
0.0
 11
34.3416948168
 21
-38.3767234922
 31
0.0
  0
LINE
  5
308
330
301
100
AcDbEntity
  8
SK2
100
AcDbLine
 10
34.3416948168
 20
-38.3767234922
 30
0.0
 11
35.4081010742
 21
-38.3767234922
 31
0.0
  0
LINE
  5
309
330
301
100
AcDbEntity
  8
SK2
100
AcDbLine
 10
44.4594901351
 20
-32.8204735011
 30
0.0
 11
45.5258963926
 21
-32.8204735011
 31
0.0
  0
LINE
  5
30A
330
301
100
AcDbEntity
  8
SK2
100
AcDbLine
 10
45.5258963926
 20
-32.8204735011
 30
0.0
 11
45.5258963926
 21
-38.3767234922
 31
0.0
  0
LINE
  5
30B
330
301
100
AcDbEntity
  8
SK2
100
AcDbLine
 10
45.5258963926
 20
-38.3767234922
 30
0.0
 11
44.4594901351
 21
-38.3767234922
 31
0.0
  0
LINE
  5
30C
330
301
100
AcDbEntity
  8
SK2
100
AcDbLine
 10
22.0980850117
 20
-7.35
 30
0.0
 11
22.0980850117
 21
-44.6133552172
 31
0.0
  0
LINE
  5
30D
330
301
100
AcDbEntity
  8
SK2
100
AcDbLine
 10
66.548
 20
-12.303
 30
0.0
 11
66.548
 21
-44.6133552172
 31
0.0
  0
LINE
  5
30E
330
301
100
AcDbEntity
  8
SK2
100
AcDbLine
 10
22.0980850117
 20
-43.6133552172
 30
0.0
 11
66.548
 21
-43.6133552172
 31
0.0
  0
MTEXT
  5
30F
330
301
100
AcDbEntity
  8
SK2
100
AcDbMText
 10
33.2947329626
 20
-39.0481459513
 30
0.0
 40
3.5
 41
0.0
 71
     1
 72
     1
  1

  7
SLDTEXTSTYLE0
 73
     1
 44
1.0
  0
MTEXT
  5
310
330
301
100
AcDbEntity
  8
SK2
100
AcDbMText
 10
35.4081010742
 20
-33.8649865776
 30
0.0
 40
3.5
 41
0.0
 71
     1
 72
     1
  1
1,75
  7
SLDTEXTSTYLE0
 73
     1
 44
1.0
  0
MTEXT
  5
311
330
301
100
AcDbEntity
  8
SK2
100
AcDbMText
 10
34.115045361
 20
-39.101618128
 30
0.0
 40
3.5
 41
0.0
 71
     1
 72
     1
  1
44,45
  7
SLDTEXTSTYLE0
 73
     1
 44
1.0
  0
MTEXT
  5
312
330
301
100
AcDbEntity
  8
SK2
100
AcDbMText
 10
47.9048027665
 20
-39.0481459513
 30
0.0
 40
3.5
 41
0.0
 71
     1
 72
     1
  1

  7
SLDTEXTSTYLE0
 73
     1
 44
1.0
  0
ENDBLK
  5
303
330
301
100
AcDbEntity
  8
0
100
AcDbBlockEnd
  0
BLOCK
  5
316
330
315
100
AcDbEntity
  8
0
100
AcDbBlockBegin
  2
_D_9
 70
     0
 10
0.0
 20
0.0
 30
0.0
  3
_D_9
  1

  0
SOLID
  5
318
330
315
100
AcDbEntity
  8
SK2
100
AcDbTrace
 10
61.976
 20
-30.2505536378
 30
0.0
 11
58.674
 21
-29.7425536378
 31
0.0
 12
58.674
 22
-30.7585536378
 32
0.0
 13
58.674
 23
-30.7585536378
 33
0.0
  0
SOLID
  5
319
330
315
100
AcDbEntity
  8
SK2
100
AcDbTrace
 10
66.548
 20
-30.2505536378
 30
0.0
 11
69.85
 21
-30.7585536378
 31
0.0
 12
69.85
 22
-29.7425536378
 32
0.0
 13
69.85
 23
-29.7425536378
 33
0.0
  0
LINE
  5
31A
330
315
100
AcDbEntity
  8
SK2
100
AcDbLine
 10
61.976
 20
-16.875
 30
0.0
 11
61.976
 21
-31.2505536378
 31
0.0
  0
LINE
  5
31B
330
315
100
AcDbEntity
  8
SK2
100
AcDbLine
 10
66.548
 20
-12.303
 30
0.0
 11
66.548
 21
-31.2505536378
 31
0.0
  0
LINE
  5
31C
330
315
100
AcDbEntity
  8
SK2
100
AcDbLine
 10
61.976
 20
-30.2505536378
 30
0.0
 11
50.1355911688
 21
-30.2505536378
 31
0.0
  0
LINE
  5
31D
330
315
100
AcDbEntity
  8
SK2
100
AcDbLine
 10
61.976
 20
-30.2505536378
 30
0.0
 11
66.548
 21
-30.2505536378
 31
0.0
  0
LINE
  5
31E
330
315
100
AcDbEntity
  8
SK2
100
AcDbLine
 10
66.548
 20
-30.2505536378
 30
0.0
 11
72.898
 21
-30.2505536378
 31
0.0
  0
MTEXT
  5
31F
330
315
100
AcDbEntity
  8
SK2
100
AcDbMText
 10
50.1355911688
 20
-25.7388167232
 30
0.0
 40
3.5
 41
0.0
 71
     1
 72
     1
  1
4,57
  7
SLDTEXTSTYLE0
 73
     1
 44
1.0
  0
ENDBLK
  5
317
330
315
100
AcDbEntity
  8
0
100
AcDbBlockEnd
  0
BLOCK
  5
323
330
322
100
AcDbEntity
  8
0
100
AcDbBlockBegin
  2
_D_10
 70
     0
 10
0.0
 20
0.0
 30
0.0
  3
_D_10
  1

  0
SOLID
  5
325
330
322
100
AcDbEntity
  8
SK2
100
AcDbTrace
 10
0.0
 20
51.3840636056
 30
0.0
 11
3.302
 21
50.8760636056
 31
0.0
 12
3.302
 22
51.8920636056
 32
0.0
 13
3.302
 23
51.8920636056
 33
0.0
  0
SOLID
  5
326
330
322
100
AcDbEntity
  8
SK2
100
AcDbTrace
 10
19.05
 20
51.3840636056
 30
0.0
 11
15.748
 21
51.8920636056
 31
0.0
 12
15.748
 22
50.8760636056
 32
0.0
 13
15.748
 23
50.8760636056
 33
0.0
  0
LINE
  5
327
330
322
100
AcDbEntity
  8
SK2
100
AcDbLine
 10
0.0
 20
23.225
 30
0.0
 11
0.0
 21
52.3840636056
 31
0.0
  0
LINE
  5
328
330
322
100
AcDbEntity
  8
SK2
100
AcDbLine
 10
19.05
 20
30.8048664484
 30
0.0
 11
19.05
 21
52.3840636056
 31
0.0
  0
LINE
  5
329
330
322
100
AcDbEntity
  8
SK2
100
AcDbLine
 10
0.0
 20
51.3840636056
 30
0.0
 11
19.05
 21
51.3840636056
 31
0.0
  0
MTEXT
  5
32A
330
322
100
AcDbEntity
  8
SK2
100
AcDbMText
 10
2.9481842771
 20
55.8958005202
 30
0.0
 40
3.5
 41
0.0
 71
     1
 72
     1
  1
19,05
  7
SLDTEXTSTYLE0
 73
     1
 44
1.0
  0
ENDBLK
  5
324
330
322
100
AcDbEntity
  8
0
100
AcDbBlockEnd
  0
BLOCK
  5
32D
330
32C
100
AcDbEntity
  8
0
100
AcDbBlockBegin
  2
_D_11
 70
     0
 10
0.0
 20
0.0
 30
0.0
  3
_D_11
  1

  0
SOLID
  5
32F
330
32C
100
AcDbEntity
  8
SK2
100
AcDbTrace
 10
-91.8047467014
 20
30.5578899967
 30
0.0
 11
-92.3127467014
 21
27.2558899967
 31
0.0
 12
-91.2967467014
 22
27.2558899967
 32
0.0
 13
-91.2967467014
 23
27.2558899967
 33
0.0
  0
SOLID
  5
330
330
32C
100
AcDbEntity
  8
SK2
100
AcDbTrace
 10
-91.8047467014
 20
-30.5579086614
 30
0.0
 11
-91.2967467014
 21
-27.2559086614
 31
0.0
 12
-92.3127467014
 22
-27.2559086614
 32
0.0
 13
-92.3127467014
 23
-27.2559086614
 33
0.0
  0
LINE
  5
331
330
32C
100
AcDbEntity
  8
SK2
100
AcDbLine
 10
-102.5976284174
 20
-1.3862202674
 30
0.0
 11
-102.5976284174
 21
-2.4526265249
 31
0.0
  0
LINE
  5
332
330
32C
100
AcDbEntity
  8
SK2
100
AcDbLine
 10
-102.5976284174
 20
-2.4526265249
 30
0.0
 11
-97.0413784264
 21
-2.4526265249
 31
0.0
  0
LINE
  5
333
330
32C
100
AcDbEntity
  8
SK2
100
AcDbLine
 10
-97.0413784264
 20
-2.4526265249
 30
0.0
 11
-97.0413784264
 21
-1.3862202674
 31
0.0
  0
LINE
  5
334
330
32C
100
AcDbEntity
  8
SK2
100
AcDbLine
 10
-102.5976284174
 20
7.6651687935
 30
0.0
 11
-102.5976284174
 21
8.7315750509
 31
0.0
  0
LINE
  5
335
330
32C
100
AcDbEntity
  8
SK2
100
AcDbLine
 10
-102.5976284174
 20
8.7315750509
 30
0.0
 11
-97.0413784264
 21
8.7315750509
 31
0.0
  0
LINE
  5
336
330
32C
100
AcDbEntity
  8
SK2
100
AcDbLine
 10
-97.0413784264
 20
8.7315750509
 30
0.0
 11
-97.0413784264
 21
7.6651687935
 31
0.0
  0
LINE
  5
337
330
32C
100
AcDbEntity
  8
SK2
100
AcDbLine
 10
4.7694368227
 20
30.5578899967
 30
0.0
 11
-92.8047467014
 21
30.5578899967
 31
0.0
  0
LINE
  5
338
330
32C
100
AcDbEntity
  8
SK2
100
AcDbLine
 10
4.7694368227
 20
-30.5579086614
 30
0.0
 11
-92.8047467014
 21
-30.5579086614
 31
0.0
  0
LINE
  5
339
330
32C
100
AcDbEntity
  8
SK2
100
AcDbLine
 10
-91.8047467014
 20
30.5578899967
 30
0.0
 11
-91.8047467014
 21
-30.5579086614
 31
0.0
  0
MTEXT
  5
33A
330
32C
100
AcDbEntity
  8
SK2
100
AcDbMText
 10
-101.5531153409
 20
-1.3862202674
 30
0.0
 40
3.5
 41
0.0
 71
     1
 72
     1
  1
2,50
  7
SLDTEXTSTYLE0
 11
-7.044195017643634E-15
 21
1.0
 31
0.0
 73
     1
 44
1.0
  0
MTEXT
  5
33B
330
32C
100
AcDbEntity
  8
SK2
100
AcDbMText
 10
-96.3164837906
 20
-4.0254394323
 30
0.0
 40
3.5
 41
0.0
 71
     1
 72
     1
  1
%%c
  7
SLDTEXTSTYLE0
 11
-7.044195017643634E-15
 21
1.0
 31
0.0
 73
     1
 44
1.0
  0
MTEXT
  5
33C
330
32C
100
AcDbEntity
  8
SK2
100
AcDbMText
 10
-96.3164837906
 20
1.2529979661
 30
0.0
 40
3.5
 41
0.0
 71
     1
 72
     1
  1
63,5
  7
SLDTEXTSTYLE0
 11
-7.044195017643634E-15
 21
1.0
 31
0.0
 73
     1
 44
1.0
  0
ENDBLK
  5
32E
330
32C
100
AcDbEntity
  8
0
100
AcDbBlockEnd
  0
BLOCK
  5
340
330
33F
100
AcDbEntity
  8
0
100
AcDbBlockBegin
  2
_D_12
 70
     0
 10
0.0
 20
0.0
 30
0.0
  3
_D_12
  1

  0
SOLID
  5
342
330
33F
100
AcDbEntity
  8
SK2
100
AcDbTrace
 10
-81.5648514598
 20
7.9375002533
 30
0.0
 11
-81.0568514598
 21
11.2395002533
 31
0.0
 12
-82.0728514598
 22
11.2395002533
 32
0.0
 13
-82.0728514598
 23
11.2395002533
 33
0.0
  0
SOLID
  5
343
330
33F
100
AcDbEntity
  8
SK2
100
AcDbTrace
 10
-81.5648514598
 20
-7.9375002533
 30
0.0
 11
-82.0728514598
 21
-11.2395002533
 31
0.0
 12
-81.0568514598
 22
-11.2395002533
 32
0.0
 13
-81.0568514598
 23
-11.2395002533
 33
0.0
  0
LINE
  5
344
330
33F
100
AcDbEntity
  8
SK2
100
AcDbLine
 10
-64.3082389832
 20
7.9375002533
 30
0.0
 11
-82.5648514598
 21
7.9375002533
 31
0.0
  0
LINE
  5
345
330
33F
100
AcDbEntity
  8
SK2
100
AcDbLine
 10
-64.3082389832
 20
-7.9375002533
 30
0.0
 11
-82.5648514598
 21
-7.9375002533
 31
0.0
  0
LINE
  5
346
330
33F
100
AcDbEntity
  8
SK2
100
AcDbLine
 10
-81.5648514598
 20
7.9375002533
 30
0.0
 11
-81.5648514598
 21
14.2875002533
 31
0.0
  0
LINE
  5
347
330
33F
100
AcDbEntity
  8
SK2
100
AcDbLine
 10
-81.5648514598
 20
7.9375002533
 30
0.0
 11
-81.5648514598
 21
-7.9375002533
 31
0.0
  0
LINE
  5
348
330
33F
100
AcDbEntity
  8
SK2
100
AcDbLine
 10
-81.5648514598
 20
-7.9375002533
 30
0.0
 11
-81.5648514598
 21
-14.2875002533
 31
0.0
  0
MTEXT
  5
34A
330
33F
100
AcDbEntity
  8
SK2
100
AcDbMText
 10
-86.0765883744
 20
-10.9188586272
 30
0.0
 40
3.5
 41
0.0
 71
     1
 72
     1
  1
5/8 - 11 UNC
  7
SLDTEXTSTYLE1
 11
-7.044195017643634E-15
 21
1.0
 31
0.0
 73
     1
 44
1.0
  0
ENDBLK
  5
341
330
33F
100
AcDbEntity
  8
0
100
AcDbBlockEnd
  0
ENDSEC
  0
SECTION
  2
ENTITIES
  0
LINE
  5
82
330
1F
100
AcDbEntity
  8
SK1
  6
SLD-Solid
370
    25
100
AcDbLine
 10
0.0
 20
22.225
 30
0.0
 11
-67.1376006954
 21
12.4340074512
 31
0.0
  0
LINE
  5
83
330
1F
100
AcDbEntity
  8
SK1
  6
SLD-Solid
370
    25
100
AcDbLine
 10
-67.1376006954
 20
-12.4340074512
 30
0.0
 11
0.0
 21
-22.225
 31
0.0
  0
LINE
  5
84
330
1F
100
AcDbEntity
  8
1
  6
SLD-Solid
370
    25
100
AcDbLine
 10
34.288
 20
22.225
 30
0.0
 11
19.812
 21
22.225
 31
0.0
  0
LINE
  5
85
330
1F
100
AcDbEntity
  8
1
  6
SLD-Solid
370
    25
100
AcDbLine
 10
19.812
 20
-22.225
 30
0.0
 11
34.288
 21
-22.225
 31
0.0
  0
LINE
  5
86
330
1F
100
AcDbEntity
  8
1
  6
SLD-Solid
370
    25
100
AcDbLine
 10
1.8869952227
 20
22.225
 30
0.0
 11
0.0
 21
22.225
 31
0.0
  0
LINE
  5
87
330
1F
100
AcDbEntity
  8
1
  6
SLD-Solid
370
    25
100
AcDbLine
 10
0.0
 20
-22.225
 30
0.0
 11
1.8869952227
 21
-22.225
 31
0.0
  0
LINE
  5
88
330
1F
100
AcDbEntity
  8
1
  6
SLD-Solid
370
    25
100
AcDbLine
 10
1.8869952227
 20
-22.225
 30
0.0
 11
2.1330363037
 21
-22.1102691597
 31
0.0
  0
LINE
  5
89
330
1F
100
AcDbEntity
  8
1
  6
SLD-Solid
370
    25
100
AcDbLine
 10
2.1330363037
 20
22.1102691597
 30
0.0
 11
1.8869952227
 21
22.225
 31
0.0
  0
LINE
  5
8A
330
1F
100
AcDbEntity
  8
1
  6
SLD-Solid
370
    25
100
AcDbLine
 10
61.976
 20
15.875
 30
0.0
 11
50.5516157557
 21
15.875
 31
0.0
  0
LINE
  5
8B
330
1F
100
AcDbEntity
  8
1
  6
SLD-Solid
370
    25
100
AcDbLine
 10
51.2879055405
 20
-15.875
 30
0.0
 11
61.976
 21
-15.875
 31
0.0
  0
LINE
  5
8C
330
1F
100
AcDbEntity
  8
1
  6
SLD-Solid
370
    25
100
AcDbLine
 10
61.976
 20
-15.875
 30
0.0
 11
66.548
 21
-11.303
 31
0.0
  0
LINE
  5
8D
330
1F
100
AcDbEntity
  8
1
  6
SLD-Solid
370
    25
100
AcDbLine
 10
66.548
 20
11.303
 30
0.0
 11
61.976
 21
15.875
 31
0.0
  0
LINE
  5
8E
330
1F
100
AcDbEntity
  8
1
  6
SLD-Solid
370
    25
100
AcDbLine
 10
3.95
 20
-30.5579086614
 30
0.0
 11
7.5888736454
 21
-30.5579086614
 31
0.0
  0
LINE
  5
8F
330
1F
100
AcDbEntity
  8
1
  6
SLD-Solid
370
    25
100
AcDbLine
 10
3.95
 20
30.5578899967
 30
0.0
 11
3.95
 21
-30.5579086614
 31
0.0
  0
LINE
  5
90
330
1F
100
AcDbEntity
  8
1
  6
SLD-Solid
370
    25
100
AcDbLine
 10
7.5888736454
 20
30.5578899967
 30
0.0
 11
3.95
 21
30.5578899967
 31
0.0
  0
LINE
  5
91
330
1F
100
AcDbEntity
  8
1
  6
SLD-Solid
370
    25
100
AcDbLine
 10
7.5888736454
 20
30.5578899967
 30
0.0
 11
7.5888736454
 21
-30.5579086614
 31
0.0
  0
LINE
  5
92
330
1F
100
AcDbEntity
  8
1
  6
SLD-Solid
370
    25
100
AcDbLine
 10
3.2
 20
-29.8048664484
 30
0.0
 11
3.2
 21
29.8048552742
 31
0.0
  0
LINE
  5
93
330
1F
100
AcDbEntity
  8
1
  6
SLD-Solid
370
    25
100
AcDbLine
 10
18.3
 20
30.5579086614
 30
0.0
 11
14.6411263546
 21
30.5579086614
 31
0.0
  0
LINE
  5
94
330
1F
100
AcDbEntity
  8
1
  6
SLD-Solid
370
    25
100
AcDbLine
 10
18.3
 20
-30.5578899967
 30
0.0
 11
18.3
 21
30.5579086614
 31
0.0
  0
LINE
  5
95
330
1F
100
AcDbEntity
  8
1
  6
SLD-Solid
370
    25
100
AcDbLine
 10
14.6411263546
 20
-30.5578899967
 30
0.0
 11
18.3
 21
-30.5578899967
 31
0.0
  0
LINE
  5
96
330
1F
100
AcDbEntity
  8
1
  6
SLD-Solid
370
    25
100
AcDbLine
 10
14.6411263546
 20
30.5579086614
 30
0.0
 11
14.6411263546
 21
-30.5578899967
 31
0.0
  0
LINE
  5
97
330
1F
100
AcDbEntity
  8
1
  6
SLD-Solid
370
    25
100
AcDbLine
 10
19.05
 20
29.8048664484
 30
0.0
 11
19.05
 21
-29.8048552742
 31
0.0
  0
LINE
  5
98
330
1F
100
AcDbEntity
  8
1
  6
SLD-Solid
370
    25
100
AcDbLine
 10
13.03
 20
25.319242438
 30
0.0
 11
13.03
 21
-27.8050456342
 31
0.0
  0
LINE
  5
99
330
1F
100
AcDbEntity
  8
1
  6
SLD-Solid
370
    25
100
AcDbLine
 10
13.03
 20
27.8050456342
 30
0.0
 11
13.03
 21
25.8117178836
 31
0.0
  0
LINE
  5
9A
330
1F
100
AcDbEntity
  8
1
  6
SLD-Solid
370
    25
100
AcDbLine
 10
9.2
 20
27.8050456342
 30
0.0
 11
9.2
 21
25.8569131114
 31
0.0
  0
LINE
  5
9B
330
1F
100
AcDbEntity
  8
1
  6
SLD-Solid
370
    25
100
AcDbLine
 10
9.2
 20
25.2705433174
 30
0.0
 11
9.2
 21
-27.8050456342
 31
0.0
  0
LINE
  5
9C
330
1F
100
AcDbEntity
  8
1
  6
SLD-Solid
370
    25
100
AcDbLine
 10
12.28
 20
24.0780506352
 30
0.0
 11
12.28
 21
-26.9870635676
 31
0.0
  0
LINE
  5
9D
330
1F
100
AcDbEntity
  8
1
  6
SLD-Solid
370
    25
100
AcDbLine
 10
9.95
 20
24.066859753
 30
0.0
 11
9.95
 21
-26.9870635676
 31
0.0
  0
LINE
  5
9E
330
1F
100
AcDbEntity
  8
1
  6
SLD-Solid
370
    25
100
AcDbLine
 10
9.95
 20
-26.9870635676
 30
0.0
 11
12.28
 21
-26.9870635676
 31
0.0
  0
LINE
  5
9F
330
1F
100
AcDbEntity
  8
1
  6
SLD-Solid
370
    25
100
AcDbLine
 10
35.05
 20
0.0
 30
0.0
 11
35.05
 21
-21.463
 31
0.0
  0
LINE
  5
A0
330
1F
100
AcDbEntity
  8
1
  6
SLD-Solid
370
    25
100
AcDbLine
 10
35.05
 20
21.463
 30
0.0
 11
35.05
 21
0.0
 31
0.0
  0
LINE
  5
A1
330
1F
100
AcDbEntity
  8
1
  6
SLD-Solid
370
    25
100
AcDbLine
 10
0.0
 20
22.225
 30
0.0
 11
0.0
 21
-22.225
 31
0.0
  0
LINE
  5
A2
330
1F
100
AcDbEntity
  8
1
  6
SLD-Solid
370
    25
100
AcDbLine
 10
1.8869952227
 20
22.225
 30
0.0
 11
1.8869952227
 21
-22.225
 31
0.0
  0
LINE
  5
A3
330
1F
100
AcDbEntity
  8
1
  6
SLD-Solid
370
    25
100
AcDbLine
 10
38.225
 20
15.875
 30
0.0
 11
38.225
 21
-15.5815892288
 31
0.0
  0
LINE
  5
A4
330
1F
100
AcDbEntity
  8
1
  6
SLD-Solid
370
    25
100
AcDbLine
 10
61.976
 20
15.875
 30
0.0
 11
61.976
 21
-15.875
 31
0.0
  0
LINE
  5
A5
330
1F
100
AcDbEntity
  8
1
  6
SLD-Solid
370
    25
100
AcDbLine
 10
66.548
 20
11.303
 30
0.0
 11
66.548
 21
-11.303
 31
0.0
  0
LINE
  5
A6
330
1F
100
AcDbEntity
  8
1
  6
SLD-Solid
370
    25
100
AcDbLine
 10
9.2
 20
25.8569131114
 30
0.0
 11
9.2
 21
25.8264908709
 31
0.0
  0
LINE
  5
A7
330
1F
100
AcDbEntity
  8
1
  6
SLD-Solid
370
    25
100
AcDbLine
 10
13.03
 20
25.7812977304
 30
0.0
 11
13.03
 21
25.8117178836
 31
0.0
  0
LINE
  5
A8
330
1F
100
AcDbEntity
  8
1
  6
SLD-Solid
370
    25
100
AcDbLine
 10
9.95
 20
26.9870635676
 30
0.0
 11
9.95
 21
25.6032587904
 31
0.0
  0
LINE
  5
A9
330
1F
100
AcDbEntity
  8
1
  6
SLD-Solid
370
    25
100
AcDbLine
 10
12.28
 20
26.9870635676
 30
0.0
 11
12.28
 21
25.5942620881
 31
0.0
  0
LINE
  5
AA
330
1F
100
AcDbEntity
  8
SK1
  6
SLD-Solid
370
    25
100
AcDbLine
 10
-68.25
 20
-11.1476148288
 30
0.0
 11
-68.25
 21
11.1476148288
 31
0.0
  0
LINE
  5
AB
330
1F
100
AcDbEntity
  8
1
  6
SLD-Solid
370
    25
100
AcDbLine
 10
9.95
 20
26.9870635676
 30
0.0
 11
12.28
 21
26.9870635676
 31
0.0
  0
LINE
  5
AC
330
1F
100
AcDbEntity
  8
1
  6
SLD-Solid
370
    25
100
AcDbLine
 10
19.812
 20
0.0
 30
0.0
 11
19.812
 21
-22.225
 31
0.0
  0
LINE
  5
AD
330
1F
100
AcDbEntity
  8
1
  6
SLD-Solid
370
    25
100
AcDbLine
 10
19.812
 20
22.225
 30
0.0
 11
19.812
 21
0.0
 31
0.0
  0
LINE
  5
AE
330
1F
100
AcDbEntity
  8
1
  6
SLD-Solid
370
    25
100
AcDbLine
 10
2.1330363037
 20
22.1102691597
 30
0.0
 11
2.1330363037
 21
-22.1102691597
 31
0.0
  0
LINE
  5
AF
330
1F
100
AcDbEntity
  8
1
  6
SLD-Solid
370
    25
100
AcDbLine
 10
34.288
 20
0.0
 30
0.0
 11
34.288
 21
22.225
 31
0.0
  0
LINE
  5
B0
330
1F
100
AcDbEntity
  8
1
  6
SLD-Solid
370
    25
100
AcDbLine
 10
34.288
 20
-22.225
 30
0.0
 11
34.288
 21
0.0
 31
0.0
  0
LINE
  5
B1
330
1F
100
AcDbEntity
  8
SK1
  6
SLD-Solid
370
    25
100
AcDbLine
 10
-67.1376006954
 20
0.0
 30
0.0
 11
-67.1376006954
 21
-12.4340074512
 31
0.0
  0
LINE
  5
B2
330
1F
100
AcDbEntity
  8
SK1
  6
SLD-Solid
370
    25
100
AcDbLine
 10
-67.1376006954
 20
12.4340074512
 30
0.0
 11
-67.1376006954
 21
0.0
 31
0.0
  0
LINE
  5
B3
330
1F
100
AcDbEntity
  8
SK3
  6
SLD-Dashed
370
    18
100
AcDbLine
 10
5.7322709434
 20
-8.8686354442
 30
0.0
 11
5.6150941671
 21
-8.4012226946
 31
0.0
  0
LINE
  5
B4
330
1F
100
AcDbEntity
  8
SK3
  6
SLD-Dashed
370
    18
100
AcDbLine
 10
5.6150941671
 20
-8.4012226946
 30
0.0
 11
5.4343412237
 21
-7.960974275
 31
0.0
  0
LINE
  5
B5
330
1F
100
AcDbEntity
  8
SK3
  6
SLD-Dashed
370
    18
100
AcDbLine
 10
5.4343412237
 20
-7.960974275
 30
0.0
 11
5.2005168173
 21
-7.5734758234
 31
0.0
  0
LINE
  5
B6
330
1F
100
AcDbEntity
  8
SK3
  6
SLD-Dashed
370
    18
100
AcDbLine
 10
5.2005168173
 20
-7.5734758234
 30
0.0
 11
4.9272099725
 21
-7.2612473412
 31
0.0
  0
LINE
  5
B7
330
1F
100
AcDbEntity
  8
SK3
  6
SLD-Dashed
370
    18
100
AcDbLine
 10
4.9272099725
 20
-7.2612473412
 30
0.0
 11
4.6303042896
 21
-7.0424344129
 31
0.0
  0
LINE
  5
B8
330
1F
100
AcDbEntity
  8
SK3
  6
SLD-Dashed
370
    18
100
AcDbLine
 10
4.6303042896
 20
-7.0424344129
 30
0.0
 11
4.3270548477
 21
-6.9297536506
 31
0.0
  0
LINE
  5
B9
330
1F
100
AcDbEntity
  8
SK3
  6
SLD-Dashed
370
    18
100
AcDbLine
 10
4.3270548477
 20
-6.9297536506
 30
0.0
 11
4.0350854021
 21
-6.9297536506
 31
0.0
  0
LINE
  5
BA
330
1F
100
AcDbEntity
  8
SK3
  6
SLD-Dashed
370
    18
100
AcDbLine
 10
4.0350854021
 20
-6.9297536506
 30
0.0
 11
3.7206891435
 21
-7.0640864379
 31
0.0
  0
LINE
  5
BB
330
1F
100
AcDbEntity
  8
SK3
  6
SLD-Dashed
370
    18
100
AcDbLine
 10
3.7713641558
 20
-7.0424344129
 30
0.0
 11
3.551217629
 21
-7.2612473412
 31
0.0
  0
LINE
  5
BC
330
1F
100
AcDbEntity
  8
SK3
  6
SLD-Dashed
370
    18
100
AcDbLine
 10
3.551217629
 20
-7.2612473412
 30
0.0
 11
3.3874399376
 21
-7.5734758234
 31
0.0
  0
LINE
  5
BD
330
1F
100
AcDbEntity
  8
SK3
  6
SLD-Dashed
370
    18
100
AcDbLine
 10
3.3874399376
 20
-7.5734758234
 30
0.0
 11
3.2895492458
 21
-7.960974275
 31
0.0
  0
LINE
  5
BE
330
1F
100
AcDbEntity
  8
SK3
  6
SLD-Dashed
370
    18
100
AcDbLine
 10
3.2895492458
 20
-7.960974275
 30
0.0
 11
3.2632346046
 21
-8.4012226946
 31
0.0
  0
LINE
  5
BF
330
1F
100
AcDbEntity
  8
SK3
  6
SLD-Dashed
370
    18
100
AcDbLine
 10
3.2632346046
 20
-8.4012226946
 30
0.0
 11
3.3100253255
 21
-8.8686354442
 31
0.0
  0
LINE
  5
C0
330
1F
100
AcDbEntity
  8
SK3
  6
SLD-Dashed
370
    18
100
AcDbLine
 10
3.3100253255
 20
-8.8686354442
 30
0.0
 11
3.4272021018
 21
-9.3360481938
 31
0.0
  0
LINE
  5
C1
330
1F
100
AcDbEntity
  8
SK3
  6
SLD-Dashed
370
    18
100
AcDbLine
 10
3.4272021018
 20
-9.3360481938
 30
0.0
 11
3.6079550452
 21
-9.7762966134
 31
0.0
  0
LINE
  5
C2
330
1F
100
AcDbEntity
  8
SK3
  6
SLD-Dashed
370
    18
100
AcDbLine
 10
3.6079550452
 20
-9.7762966134
 30
0.0
 11
3.8417794516
 21
-10.1637950651
 31
0.0
  0
LINE
  5
C3
330
1F
100
AcDbEntity
  8
SK3
  6
SLD-Dashed
370
    18
100
AcDbLine
 10
3.8417794516
 20
-10.1637950651
 30
0.0
 11
4.1150862965
 21
-10.4760235473
 31
0.0
  0
LINE
  5
C4
330
1F
100
AcDbEntity
  8
SK3
  6
SLD-Dashed
370
    18
100
AcDbLine
 10
4.1150862965
 20
-10.4760235473
 30
0.0
 11
4.4119919794
 21
-10.6948364755
 31
0.0
  0
LINE
  5
C5
330
1F
100
AcDbEntity
  8
SK3
  6
SLD-Dashed
370
    18
100
AcDbLine
 10
4.4119919794
 20
-10.6948364755
 30
0.0
 11
4.7152414213
 21
-10.8075172378
 31
0.0
  0
LINE
  5
C6
330
1F
100
AcDbEntity
  8
SK3
  6
SLD-Dashed
370
    18
100
AcDbLine
 10
4.7152414213
 20
-10.8075172378
 30
0.0
 11
5.0072108668
 21
-10.8075172378
 31
0.0
  0
LINE
  5
C7
330
1F
100
AcDbEntity
  8
SK3
  6
SLD-Dashed
370
    18
100
AcDbLine
 10
5.0072108668
 20
-10.8075172378
 30
0.0
 11
5.2709321131
 21
-10.6948364755
 31
0.0
  0
LINE
  5
C8
330
1F
100
AcDbEntity
  8
SK3
  6
SLD-Dashed
370
    18
100
AcDbLine
 10
5.2709321131
 20
-10.6948364755
 30
0.0
 11
5.4910786399
 21
-10.4760235473
 31
0.0
  0
LINE
  5
C9
330
1F
100
AcDbEntity
  8
SK3
  6
SLD-Dashed
370
    18
100
AcDbLine
 10
5.4910786399
 20
-10.4760235473
 30
0.0
 11
5.6548563313
 21
-10.1637950651
 31
0.0
  0
LINE
  5
CA
330
1F
100
AcDbEntity
  8
SK3
  6
SLD-Dashed
370
    18
100
AcDbLine
 10
5.6548563313
 20
-10.1637950651
 30
0.0
 11
5.7527470232
 21
-9.7762966134
 31
0.0
  0
LINE
  5
CB
330
1F
100
AcDbEntity
  8
SK3
  6
SLD-Dashed
370
    18
100
AcDbLine
 10
5.7527470232
 20
-9.7762966134
 30
0.0
 11
5.7790616643
 21
-9.3360481938
 31
0.0
  0
LINE
  5
CC
330
1F
100
AcDbEntity
  8
SK3
  6
SLD-Dashed
370
    18
100
AcDbLine
 10
5.7790616643
 20
-9.3360481938
 30
0.0
 11
5.7322709434
 21
-8.8686354442
 31
0.0
  0
LINE
  5
CD
330
1F
100
AcDbEntity
  8
SK3
  6
SLD-Dashed
370
    18
100
AcDbLine
 10
5.7253406934
 20
-8.8621689747
 30
0.0
 11
5.7709616463
 21
-9.3178964056
 31
0.0
  0
LINE
  5
CE
330
1F
100
AcDbEntity
  8
SK3
  6
SLD-Dashed
370
    18
100
AcDbLine
 10
5.7709616463
 20
-9.3178964056
 30
0.0
 11
5.7453048712
 21
-9.7471386147
 31
0.0
  0
LINE
  5
CF
330
1F
100
AcDbEntity
  8
SK3
  6
SLD-Dashed
370
    18
100
AcDbLine
 10
5.7453048712
 20
-9.7471386147
 30
0.0
 11
5.6498614466
 21
-10.124949605
 31
0.0
  0
LINE
  5
D0
330
1F
100
AcDbEntity
  8
SK3
  6
SLD-Dashed
370
    18
100
AcDbLine
 10
5.6498614466
 20
-10.124949605
 30
0.0
 11
5.4901781975
 21
-10.4293723752
 31
0.0
  0
LINE
  5
D1
330
1F
100
AcDbEntity
  8
SK3
  6
SLD-Dashed
370
    18
100
AcDbLine
 10
5.4901781975
 20
-10.4293723752
 30
0.0
 11
5.2755353338
 21
-10.6427149802
 31
0.0
  0
LINE
  5
D2
330
1F
100
AcDbEntity
  8
SK3
  6
SLD-Dashed
370
    18
100
AcDbLine
 10
5.2755353338
 20
-10.6427149802
 30
0.0
 11
5.0184071187
 21
-10.7525787235
 31
0.0
  0
LINE
  5
D3
330
1F
100
AcDbEntity
  8
SK3
  6
SLD-Dashed
370
    18
100
AcDbLine
 10
5.0184071187
 20
-10.7525787235
 30
0.0
 11
4.7337369093
 21
-10.7525787235
 31
0.0
  0
LINE
  5
D4
330
1F
100
AcDbEntity
  8
SK3
  6
SLD-Dashed
370
    18
100
AcDbLine
 10
4.7337369093
 20
-10.7525787235
 30
0.0
 11
4.4380687034
 21
-10.6427149802
 31
0.0
  0
LINE
  5
D5
330
1F
100
AcDbEntity
  8
SK3
  6
SLD-Dashed
370
    18
100
AcDbLine
 10
4.4380687034
 20
-10.6427149802
 30
0.0
 11
4.1485856626
 21
-10.4293723752
 31
0.0
  0
LINE
  5
D6
330
1F
100
AcDbEntity
  8
SK3
  6
SLD-Dashed
370
    18
100
AcDbLine
 10
4.1485856626
 20
-10.4293723752
 30
0.0
 11
3.8821114889
 21
-10.124949605
 31
0.0
  0
LINE
  5
D7
330
1F
100
AcDbEntity
  8
SK3
  6
SLD-Dashed
370
    18
100
AcDbLine
 10
3.8821114889
 20
-10.124949605
 30
0.0
 11
3.6541326926
 21
-9.7471386147
 31
0.0
  0
LINE
  5
D8
330
1F
100
AcDbEntity
  8
SK3
  6
SLD-Dashed
370
    18
100
AcDbLine
 10
3.6541326926
 20
-9.7471386147
 30
0.0
 11
3.4778985728
 21
-9.3178964056
 31
0.0
  0
LINE
  5
D9
330
1F
100
AcDbEntity
  8
SK3
  6
SLD-Dashed
370
    18
100
AcDbLine
 10
3.4778985728
 20
-9.3178964056
 30
0.0
 11
3.3636512159
 21
-8.8621689747
 31
0.0
  0
LINE
  5
DA
330
1F
100
AcDbEntity
  8
SK3
  6
SLD-Dashed
370
    18
100
AcDbLine
 10
3.3636512159
 20
-8.8621689747
 30
0.0
 11
3.318030263
 21
-8.4064415438
 31
0.0
  0
LINE
  5
DB
330
1F
100
AcDbEntity
  8
SK3
  6
SLD-Dashed
370
    18
100
AcDbLine
 10
3.318030263
 20
-8.4064415438
 30
0.0
 11
3.3436870381
 21
-7.9771993347
 31
0.0
  0
LINE
  5
DC
330
1F
100
AcDbEntity
  8
SK3
  6
SLD-Dashed
370
    18
100
AcDbLine
 10
3.3436870381
 20
-7.9771993347
 30
0.0
 11
3.4391304627
 21
-7.5993883444
 31
0.0
  0
LINE
  5
DD
330
1F
100
AcDbEntity
  8
SK3
  6
SLD-Dashed
370
    18
100
AcDbLine
 10
3.4391304627
 20
-7.5993883444
 30
0.0
 11
3.5988137118
 21
-7.2949655742
 31
0.0
  0
LINE
  5
DE
330
1F
100
AcDbEntity
  8
SK3
  6
SLD-Dashed
370
    18
100
AcDbLine
 10
3.5988137118
 20
-7.2949655742
 30
0.0
 11
3.8134565755
 21
-7.0816229692
 31
0.0
  0
LINE
  5
DF
330
1F
100
AcDbEntity
  8
SK3
  6
SLD-Dashed
370
    18
100
AcDbLine
 10
3.8134565755
 20
-7.0816229692
 30
0.0
 11
4.0705847906
 21
-6.9717592259
 31
0.0
  0
LINE
  5
E0
330
1F
100
AcDbEntity
  8
SK3
  6
SLD-Dashed
370
    18
100
AcDbLine
 10
4.0705847906
 20
-6.9717592259
 30
0.0
 11
4.355255
 21
-6.9717592259
 31
0.0
  0
LINE
  5
E1
330
1F
100
AcDbEntity
  8
SK3
  6
SLD-Dashed
370
    18
100
AcDbLine
 10
4.355255
 20
-6.9717592259
 30
0.0
 11
4.6509232059
 21
-7.0816229692
 31
0.0
  0
LINE
  5
E2
330
1F
100
AcDbEntity
  8
SK3
  6
SLD-Dashed
370
    18
100
AcDbLine
 10
4.6509232059
 20
-7.0816229692
 30
0.0
 11
4.9404062467
 21
-7.2949655742
 31
0.0
  0
LINE
  5
E3
330
1F
100
AcDbEntity
  8
SK3
  6
SLD-Dashed
370
    18
100
AcDbLine
 10
4.9404062467
 20
-7.2949655742
 30
0.0
 11
5.2068804204
 21
-7.5993883444
 31
0.0
  0
LINE
  5
E4
330
1F
100
AcDbEntity
  8
SK3
  6
SLD-Dashed
370
    18
100
AcDbLine
 10
5.2068804204
 20
-7.5993883444
 30
0.0
 11
5.4348592167
 21
-7.9771993347
 31
0.0
  0
LINE
  5
E5
330
1F
100
AcDbEntity
  8
SK3
  6
SLD-Dashed
370
    18
100
AcDbLine
 10
5.4348592167
 20
-7.9771993347
 30
0.0
 11
5.6110933365
 21
-8.4064415438
 31
0.0
  0
LINE
  5
E6
330
1F
100
AcDbEntity
  8
SK3
  6
SLD-Dashed
370
    18
100
AcDbLine
 10
5.6110933365
 20
-8.4064415438
 30
0.0
 11
5.7253406934
 21
-8.8621689747
 31
0.0
  0
LINE
  5
E7
330
1F
100
AcDbEntity
  8
SK3
  6
SLD-Dashed
370
    18
100
AcDbLine
 10
16.3488925452
 20
-5.9198440145
 30
0.0
 11
16.2346451883
 21
-5.4641165836
 31
0.0
  0
LINE
  5
E8
330
1F
100
AcDbEntity
  8
SK3
  6
SLD-Dashed
370
    18
100
AcDbLine
 10
16.2346451883
 20
-5.4641165836
 30
0.0
 11
16.0584110685
 21
-5.0348743745
 31
0.0
  0
LINE
  5
E9
330
1F
100
AcDbEntity
  8
SK3
  6
SLD-Dashed
370
    18
100
AcDbLine
 10
16.0584110685
 20
-5.0348743745
 30
0.0
 11
15.8304322722
 21
-4.6570633842
 31
0.0
  0
LINE
  5
EA
330
1F
100
AcDbEntity
  8
SK3
  6
SLD-Dashed
370
    18
100
AcDbLine
 10
15.8304322722
 20
-4.6570633842
 30
0.0
 11
15.5639580985
 21
-4.352640614
 31
0.0
  0
LINE
  5
EB
330
1F
100
AcDbEntity
  8
SK3
  6
SLD-Dashed
370
    18
100
AcDbLine
 10
15.5639580985
 20
-4.352640614
 30
0.0
 11
15.2744750576
 21
-4.139298009
 31
0.0
  0
LINE
  5
EC
330
1F
100
AcDbEntity
  8
SK3
  6
SLD-Dashed
370
    18
100
AcDbLine
 10
15.2744750576
 20
-4.139298009
 30
0.0
 11
14.9788068518
 21
-4.0294342657
 31
0.0
  0
LINE
  5
ED
330
1F
100
AcDbEntity
  8
SK3
  6
SLD-Dashed
370
    18
100
AcDbLine
 10
14.9788068518
 20
-4.0294342657
 30
0.0
 11
14.6941366424
 21
-4.0294342657
 31
0.0
  0
LINE
  5
EE
330
1F
100
AcDbEntity
  8
SK3
  6
SLD-Dashed
370
    18
100
AcDbLine
 10
14.6941366424
 20
-4.0294342657
 30
0.0
 11
14.4370084273
 21
-4.139298009
 31
0.0
  0
LINE
  5
EF
330
1F
100
AcDbEntity
  8
SK3
  6
SLD-Dashed
370
    18
100
AcDbLine
 10
14.4370084273
 20
-4.139298009
 30
0.0
 11
14.2223655636
 21
-4.352640614
 31
0.0
  0
LINE
  5
F0
330
1F
100
AcDbEntity
  8
SK3
  6
SLD-Dashed
370
    18
100
AcDbLine
 10
14.2223655636
 20
-4.352640614
 30
0.0
 11
14.0626823145
 21
-4.6570633842
 31
0.0
  0
LINE
  5
F1
330
1F
100
AcDbEntity
  8
SK3
  6
SLD-Dashed
370
    18
100
AcDbLine
 10
14.0626823145
 20
-4.6570633842
 30
0.0
 11
13.9672388899
 21
-5.0348743745
 31
0.0
  0
LINE
  5
F2
330
1F
100
AcDbEntity
  8
SK3
  6
SLD-Dashed
370
    18
100
AcDbLine
 10
13.9672388899
 20
-5.0348743745
 30
0.0
 11
13.9415821148
 21
-5.4641165836
 31
0.0
  0
LINE
  5
F3
330
1F
100
AcDbEntity
  8
SK3
  6
SLD-Dashed
370
    18
100
AcDbLine
 10
13.9415821148
 20
-5.4641165836
 30
0.0
 11
13.9872030677
 21
-5.9198440145
 31
0.0
  0
LINE
  5
F4
330
1F
100
AcDbEntity
  8
SK3
  6
SLD-Dashed
370
    18
100
AcDbLine
 10
13.9872030677
 20
-5.9198440145
 30
0.0
 11
14.1014504246
 21
-6.3755714454
 31
0.0
  0
LINE
  5
F5
330
1F
100
AcDbEntity
  8
SK3
  6
SLD-Dashed
370
    18
100
AcDbLine
 10
14.1014504246
 20
-6.3755714454
 30
0.0
 11
14.2776845444
 21
-6.8048136545
 31
0.0
  0
LINE
  5
F6
330
1F
100
AcDbEntity
  8
SK3
  6
SLD-Dashed
370
    18
100
AcDbLine
 10
14.2776845444
 20
-6.8048136545
 30
0.0
 11
14.5056633407
 21
-7.1826246448
 31
0.0
  0
LINE
  5
F7
330
1F
100
AcDbEntity
  8
SK3
  6
SLD-Dashed
370
    18
100
AcDbLine
 10
14.5056633407
 20
-7.1826246448
 30
0.0
 11
14.7721375144
 21
-7.487047415
 31
0.0
  0
LINE
  5
F8
330
1F
100
AcDbEntity
  8
SK3
  6
SLD-Dashed
370
    18
100
AcDbLine
 10
14.7721375144
 20
-7.487047415
 30
0.0
 11
15.0616205552
 21
-7.70039002
 31
0.0
  0
LINE
  5
F9
330
1F
100
AcDbEntity
  8
SK3
  6
SLD-Dashed
370
    18
100
AcDbLine
 10
15.0616205552
 20
-7.70039002
 30
0.0
 11
15.3572887611
 21
-7.8102537633
 31
0.0
  0
LINE
  5
FA
330
1F
100
AcDbEntity
  8
SK3
  6
SLD-Dashed
370
    18
100
AcDbLine
 10
15.3572887611
 20
-7.8102537633
 30
0.0
 11
15.6419589705
 21
-7.8102537633
 31
0.0
  0
LINE
  5
FB
330
1F
100
AcDbEntity
  8
SK3
  6
SLD-Dashed
370
    18
100
AcDbLine
 10
15.6419589705
 20
-7.8102537633
 30
0.0
 11
15.8990871856
 21
-7.70039002
 31
0.0
  0
LINE
  5
FC
330
1F
100
AcDbEntity
  8
SK3
  6
SLD-Dashed
370
    18
100
AcDbLine
 10
15.8990871856
 20
-7.70039002
 30
0.0
 11
16.1137300493
 21
-7.487047415
 31
0.0
  0
LINE
  5
FD
330
1F
100
AcDbEntity
  8
SK3
  6
SLD-Dashed
370
    18
100
AcDbLine
 10
16.1137300493
 20
-7.487047415
 30
0.0
 11
16.2734132984
 21
-7.1826246448
 31
0.0
  0
LINE
  5
FE
330
1F
100
AcDbEntity
  8
SK3
  6
SLD-Dashed
370
    18
100
AcDbLine
 10
16.2734132984
 20
-7.1826246448
 30
0.0
 11
16.3688567229
 21
-6.8048136545
 31
0.0
  0
LINE
  5
FF
330
1F
100
AcDbEntity
  8
SK3
  6
SLD-Dashed
370
    18
100
AcDbLine
 10
16.3688567229
 20
-6.8048136545
 30
0.0
 11
16.394513498
 21
-6.3755714454
 31
0.0
  0
LINE
  5
100
330
1F
100
AcDbEntity
  8
SK3
  6
SLD-Dashed
370
    18
100
AcDbLine
 10
16.394513498
 20
-6.3755714454
 30
0.0
 11
16.3488925452
 21
-5.9198440145
 31
0.0
  0
LINE
  5
101
330
1F
100
AcDbEntity
  8
SK3
  6
SLD-Dashed
370
    18
100
AcDbLine
 10
-66.6824940192
 20
-8.235
 30
0.0
 11
-66.6824940192
 21
8.235
 31
0.0
  0
LINE
  5
102
330
1F
100
AcDbEntity
  8
SK3
  6
SLD-Dashed
370
    18
100
AcDbLine
 10
-68.25
 20
-9.1365296062
 30
0.0
 11
-68.25
 21
9.1365296062
 31
0.0
  0
LINE
  5
103
330
1F
100
AcDbEntity
  8
SK3
  6
SLD-Dashed
370
    18
100
AcDbLine
 10
-63.48
 20
-8.235
 30
0.0
 11
-63.48
 21
8.235
 31
0.0
  0
LINE
  5
104
330
1F
100
AcDbEntity
  8
SK3
  6
SLD-Dashed
370
    18
100
AcDbLine
 10
-62.6204640132
 20
-6.74624
 30
0.0
 11
-62.6204640132
 21
6.74624
 31
0.0
  0
LINE
  5
105
330
1F
100
AcDbEntity
  8
SK3
  6
SLD-Dashed
370
    18
100
AcDbLine
 10
3.5452916241
 20
-29.8048664484
 30
0.0
 11
3.5452916241
 21
-22.785
 31
0.0
  0
LINE
  5
106
330
1F
100
AcDbEntity
  8
SK3
  6
SLD-Dashed
370
    18
100
AcDbLine
 10
18.704611155
 20
-22.785
 30
0.0
 11
18.704611155
 21
-29.8048552742
 31
0.0
  0
LINE
  5
107
330
1F
100
AcDbEntity
  8
SK3
  6
SLD-Dashed
370
    18
100
AcDbLine
 10
7.8539870535
 20
-30.2255814201
 30
0.0
 11
3.95
 21
-30.2255814201
 31
0.0
  0
LINE
  5
108
330
1F
100
AcDbEntity
  8
SK3
  6
SLD-Dashed
370
    18
100
AcDbLine
 10
18.3
 20
-30.2254693878
 30
0.0
 11
14.3759504666
 21
-30.2254693878
 31
0.0
  0
LINE
  5
109
330
1F
100
AcDbEntity
  8
1
  6
SLD-Dashed
370
    18
100
AcDbLine
 10
9.2
 20
-27.8050456342
 30
0.0
 11
9.2
 21
-27.7691663541
 31
0.0
  0
LINE
  5
10A
330
1F
100
AcDbEntity
  8
1
  6
SLD-Dashed
370
    18
100
AcDbLine
 10
13.03
 20
-27.7691663541
 30
0.0
 11
13.03
 21
-27.8050456342
 31
0.0
  0
LINE
  5
10B
330
1F
100
AcDbEntity
  8
SK3
  6
SLD-Dashed
370
    18
100
AcDbLine
 10
18.7047083759
 20
29.8048664484
 30
0.0
 11
18.7047083759
 21
25.5791202528
 31
0.0
  0
LINE
  5
10C
330
1F
100
AcDbEntity
  8
SK3
  6
SLD-Dashed
370
    18
100
AcDbLine
 10
3.545388845
 20
25.5789825872
 30
0.0
 11
3.545388845
 21
29.8048552742
 31
0.0
  0
LINE
  5
10D
330
1F
100
AcDbEntity
  8
SK3
  6
SLD-Dashed
370
    18
100
AcDbLine
 10
14.3760129465
 20
30.2255814201
 30
0.0
 11
18.3
 21
30.2255814201
 31
0.0
  0
LINE
  5
10E
330
1F
100
AcDbEntity
  8
SK3
  6
SLD-Dashed
370
    18
100
AcDbLine
 10
3.95
 20
30.2254693878
 30
0.0
 11
7.8540495334
 21
30.2254693878
 31
0.0
  0
LINE
  5
10F
330
1F
100
AcDbEntity
  8
1
  6
SLD-Dashed
370
    18
100
AcDbLine
 10
9.2
 20
27.8050456342
 30
0.0
 11
9.2
 21
27.7691663541
 31
0.0
  0
LINE
  5
110
330
1F
100
AcDbEntity
  8
1
  6
SLD-Dashed
370
    18
100
AcDbLine
 10
13.03
 20
27.7691663541
 30
0.0
 11
13.03
 21
27.8050456342
 31
0.0
  0
LINE
  5
111
330
1F
100
AcDbEntity
  8
SK3
  6
SLD-Dashed
370
    18
100
AcDbLine
 10
18.704611155
 20
-22.41
 30
0.0
 11
3.5452916241
 21
-22.41
 31
0.0
  0
LINE
  5
112
330
1F
100
AcDbEntity
  8
SK3
  6
SLD-Dashed
370
    18
100
AcDbLine
 10
3.5452916241
 20
-22.785
 30
0.0
 11
18.704611155
 21
-22.785
 31
0.0
  0
LINE
  5
113
330
1F
100
AcDbEntity
  8
SK3
  6
SLD-Dashed
370
    18
100
AcDbLine
 10
3.7
 20
24.83
 30
0.0
 11
18.55
 21
24.83
 31
0.0
  0
LINE
  5
114
330
1F
100
AcDbEntity
  8
SK3
  6
SLD-Dashed
370
    18
100
AcDbLine
 10
18.55
 20
25.205
 30
0.0
 11
3.7
 21
25.205
 31
0.0
  0
LINE
  5
115
330
1F
100
AcDbEntity
  8
SK3
  6
SLD-Dashed
370
    18
100
AcDbLine
 10
65.548
 20
-6.35
 30
0.0
 11
65.548
 21
6.35
 31
0.0
  0
LINE
  5
116
330
1F
100
AcDbEntity
  8
SK3
  6
SLD-Dashed
370
    18
100
AcDbLine
 10
66.548
 20
-6.9237911088
 30
0.0
 11
66.548
 21
6.9237911088
 31
0.0
  0
LINE
  5
117
330
1F
100
AcDbEntity
  8
SK3
  6
SLD-Dashed
370
    18
100
AcDbLine
 10
21.86
 20
-6.74624
 30
0.0
 11
21.86
 21
6.74624
 31
0.0
  0
LINE
  5
118
330
1F
100
AcDbEntity
  8
SK3
  6
SLD-Dashed
370
    18
100
AcDbLine
 10
22.0980850117
 20
6.35
 30
0.0
 11
22.0980850117
 21
-6.35
 31
0.0
  0
LINE
  5
119
330
1F
100
AcDbEntity
  8
SK3
  6
SLD-Dashed
370
    18
100
AcDbLine
 10
37.9850202269
 20
15.9182506395
 30
0.0
 11
37.9767467415
 21
15.9182506395
 31
0.0
  0
LINE
  5
11A
330
1F
100
AcDbEntity
  8
SK3
  6
SLD-Dashed
370
    18
100
AcDbLine
 10
50.4767467415
 20
14.4182506395
 30
0.0
 11
37.9767467415
 21
14.4182506395
 31
0.0
  0
LINE
  5
11B
330
1F
100
AcDbEntity
  8
SK3
  6
SLD-Dashed
370
    18
100
AcDbLine
 10
6.4000001146
 20
20.13
 30
0.0
 11
15.8
 21
20.13
 31
0.0
  0
LINE
  5
11C
330
1F
100
AcDbEntity
  8
SK3
  6
SLD-Dashed
370
    18
100
AcDbLine
 10
16.1
 20
20.43
 30
0.0
 11
6.1
 21
20.43
 31
0.0
  0
LINE
  5
11D
330
1F
100
AcDbEntity
  8
SK3
  6
SLD-Dashed
370
    18
100
AcDbLine
 10
6.1
 20
24.83
 30
0.0
 11
16.1
 21
24.83
 31
0.0
  0
LINE
  5
11E
330
1F
100
AcDbEntity
  8
SK3
  6
SLD-Dashed
370
    18
100
AcDbLine
 10
49.1871
 20
14.375
 30
0.0
 11
39.4731722365
 21
14.375
 31
0.0
  0
LINE
  5
11F
330
1F
100
AcDbEntity
  8
SK3
  6
SLD-Dashed
370
    18
100
AcDbLine
 10
18.7047083759
 20
-22.785
 30
0.0
 11
3.545388845
 21
-22.785
 31
0.0
  0
LINE
  5
120
330
1F
100
AcDbEntity
  8
SK3
  6
SLD-Dashed
370
    18
100
AcDbLine
 10
3.545388845
 20
-22.41
 30
0.0
 11
18.7047083759
 21
-22.41
 31
0.0
  0
LINE
  5
121
330
1F
100
AcDbEntity
  8
SK3
  6
SLD-Dashed
370
    18
100
AcDbLine
 10
14.3760129465
 20
-30.2255814201
 30
0.0
 11
18.3
 21
-30.2255814201
 31
0.0
  0
LINE
  5
122
330
1F
100
AcDbEntity
  8
1
  6
SLD-Dashed
370
    18
100
AcDbLine
 10
12.28
 20
-26.9870635676
 30
0.0
 11
9.95
 21
-26.9870635676
 31
0.0
  0
LINE
  5
123
330
1F
100
AcDbEntity
  8
SK3
  6
SLD-Dashed
370
    18
100
AcDbLine
 10
3.95
 20
-30.2254693878
 30
0.0
 11
7.8540495334
 21
-30.2254693878
 31
0.0
  0
LINE
  5
124
330
1F
100
AcDbEntity
  8
SK3
  6
SLD-Dashed
370
    18
100
AcDbLine
 10
3.545388845
 20
-22.785
 30
0.0
 11
3.545388845
 21
-29.8048552742
 31
0.0
  0
LINE
  5
125
330
1F
100
AcDbEntity
  8
SK3
  6
SLD-Dashed
370
    18
100
AcDbLine
 10
18.7047083759
 20
-29.8048664484
 30
0.0
 11
18.7047083759
 21
-22.785
 31
0.0
  0
LINE
  5
126
330
1F
100
AcDbEntity
  8
SK3
  6
SLD-Dashed
370
    18
100
AcDbLine
 10
18.704611155
 20
25.5789825872
 30
0.0
 11
18.704611155
 21
29.8048552742
 31
0.0
  0
LINE
  5
127
330
1F
100
AcDbEntity
  8
SK3
  6
SLD-Dashed
370
    18
100
AcDbLine
 10
3.5452916241
 20
29.8048664484
 30
0.0
 11
3.5452916241
 21
25.5791202528
 31
0.0
  0
LINE
  5
128
330
1F
100
AcDbEntity
  8
SK3
  6
SLD-Dashed
370
    18
100
AcDbLine
 10
7.8539870535
 20
30.2255814201
 30
0.0
 11
3.95
 21
30.2255814201
 31
0.0
  0
LINE
  5
129
330
1F
100
AcDbEntity
  8
1
  6
SLD-Dashed
370
    18
100
AcDbLine
 10
12.28
 20
26.9870635676
 30
0.0
 11
9.95
 21
26.9870635676
 31
0.0
  0
LINE
  5
12A
330
1F
100
AcDbEntity
  8
SK3
  6
SLD-Dashed
370
    18
100
AcDbLine
 10
18.3
 20
30.2254693878
 30
0.0
 11
14.3759504666
 21
30.2254693878
 31
0.0
  0
LINE
  5
12B
330
1F
100
AcDbEntity
  8
SK3
  6
SLD-Dashed
370
    18
100
AcDbLine
 10
3.3636512159
 20
8.8621689747
 30
0.0
 11
3.318030263
 21
8.4064415438
 31
0.0
  0
LINE
  5
12C
330
1F
100
AcDbEntity
  8
SK3
  6
SLD-Dashed
370
    18
100
AcDbLine
 10
3.318030263
 20
8.4064415438
 30
0.0
 11
3.3436870381
 21
7.9771993347
 31
0.0
  0
LINE
  5
12D
330
1F
100
AcDbEntity
  8
SK3
  6
SLD-Dashed
370
    18
100
AcDbLine
 10
3.3436870381
 20
7.9771993347
 30
0.0
 11
3.4391304627
 21
7.5993883444
 31
0.0
  0
LINE
  5
12E
330
1F
100
AcDbEntity
  8
SK3
  6
SLD-Dashed
370
    18
100
AcDbLine
 10
3.4391304627
 20
7.5993883444
 30
0.0
 11
3.5988137118
 21
7.2949655742
 31
0.0
  0
LINE
  5
12F
330
1F
100
AcDbEntity
  8
SK3
  6
SLD-Dashed
370
    18
100
AcDbLine
 10
3.5988137118
 20
7.2949655742
 30
0.0
 11
3.8134565755
 21
7.0816229692
 31
0.0
  0
LINE
  5
130
330
1F
100
AcDbEntity
  8
SK3
  6
SLD-Dashed
370
    18
100
AcDbLine
 10
3.8134565755
 20
7.0816229692
 30
0.0
 11
4.0705847906
 21
6.9717592259
 31
0.0
  0
LINE
  5
131
330
1F
100
AcDbEntity
  8
SK3
  6
SLD-Dashed
370
    18
100
AcDbLine
 10
4.0705847906
 20
6.9717592259
 30
0.0
 11
4.355255
 21
6.9717592259
 31
0.0
  0
LINE
  5
132
330
1F
100
AcDbEntity
  8
SK3
  6
SLD-Dashed
370
    18
100
AcDbLine
 10
4.355255
 20
6.9717592259
 30
0.0
 11
4.6509232059
 21
7.0816229692
 31
0.0
  0
LINE
  5
133
330
1F
100
AcDbEntity
  8
SK3
  6
SLD-Dashed
370
    18
100
AcDbLine
 10
4.6509232059
 20
7.0816229692
 30
0.0
 11
4.9404062467
 21
7.2949655742
 31
0.0
  0
LINE
  5
134
330
1F
100
AcDbEntity
  8
SK3
  6
SLD-Dashed
370
    18
100
AcDbLine
 10
4.9404062467
 20
7.2949655742
 30
0.0
 11
5.2068804204
 21
7.5993883444
 31
0.0
  0
LINE
  5
135
330
1F
100
AcDbEntity
  8
SK3
  6
SLD-Dashed
370
    18
100
AcDbLine
 10
5.2068804204
 20
7.5993883444
 30
0.0
 11
5.4348592167
 21
7.9771993347
 31
0.0
  0
LINE
  5
136
330
1F
100
AcDbEntity
  8
SK3
  6
SLD-Dashed
370
    18
100
AcDbLine
 10
5.4348592167
 20
7.9771993347
 30
0.0
 11
5.6110933365
 21
8.4064415438
 31
0.0
  0
LINE
  5
137
330
1F
100
AcDbEntity
  8
SK3
  6
SLD-Dashed
370
    18
100
AcDbLine
 10
5.6110933365
 20
8.4064415438
 30
0.0
 11
5.7253406934
 21
8.8621689747
 31
0.0
  0
LINE
  5
138
330
1F
100
AcDbEntity
  8
SK3
  6
SLD-Dashed
370
    18
100
AcDbLine
 10
5.7253406934
 20
8.8621689747
 30
0.0
 11
5.7709616463
 21
9.3178964056
 31
0.0
  0
LINE
  5
139
330
1F
100
AcDbEntity
  8
SK3
  6
SLD-Dashed
370
    18
100
AcDbLine
 10
5.7709616463
 20
9.3178964056
 30
0.0
 11
5.7453048712
 21
9.7471386147
 31
0.0
  0
LINE
  5
13A
330
1F
100
AcDbEntity
  8
SK3
  6
SLD-Dashed
370
    18
100
AcDbLine
 10
5.7453048712
 20
9.7471386147
 30
0.0
 11
5.6498614466
 21
10.124949605
 31
0.0
  0
LINE
  5
13B
330
1F
100
AcDbEntity
  8
SK3
  6
SLD-Dashed
370
    18
100
AcDbLine
 10
5.6498614466
 20
10.124949605
 30
0.0
 11
5.4901781975
 21
10.4293723752
 31
0.0
  0
LINE
  5
13C
330
1F
100
AcDbEntity
  8
SK3
  6
SLD-Dashed
370
    18
100
AcDbLine
 10
5.4901781975
 20
10.4293723752
 30
0.0
 11
5.2755353338
 21
10.6427149802
 31
0.0
  0
LINE
  5
13D
330
1F
100
AcDbEntity
  8
SK3
  6
SLD-Dashed
370
    18
100
AcDbLine
 10
5.2755353338
 20
10.6427149802
 30
0.0
 11
5.0184071187
 21
10.7525787235
 31
0.0
  0
LINE
  5
13E
330
1F
100
AcDbEntity
  8
SK3
  6
SLD-Dashed
370
    18
100
AcDbLine
 10
5.0184071187
 20
10.7525787235
 30
0.0
 11
4.7337369093
 21
10.7525787235
 31
0.0
  0
LINE
  5
13F
330
1F
100
AcDbEntity
  8
SK3
  6
SLD-Dashed
370
    18
100
AcDbLine
 10
4.7337369093
 20
10.7525787235
 30
0.0
 11
4.4380687034
 21
10.6427149802
 31
0.0
  0
LINE
  5
140
330
1F
100
AcDbEntity
  8
SK3
  6
SLD-Dashed
370
    18
100
AcDbLine
 10
4.4380687034
 20
10.6427149802
 30
0.0
 11
4.1485856626
 21
10.4293723752
 31
0.0
  0
LINE
  5
141
330
1F
100
AcDbEntity
  8
SK3
  6
SLD-Dashed
370
    18
100
AcDbLine
 10
4.1485856626
 20
10.4293723752
 30
0.0
 11
3.8821114889
 21
10.124949605
 31
0.0
  0
LINE
  5
142
330
1F
100
AcDbEntity
  8
SK3
  6
SLD-Dashed
370
    18
100
AcDbLine
 10
3.8821114889
 20
10.124949605
 30
0.0
 11
3.6541326926
 21
9.7471386147
 31
0.0
  0
LINE
  5
143
330
1F
100
AcDbEntity
  8
SK3
  6
SLD-Dashed
370
    18
100
AcDbLine
 10
3.6541326926
 20
9.7471386147
 30
0.0
 11
3.4778985728
 21
9.3178964056
 31
0.0
  0
LINE
  5
144
330
1F
100
AcDbEntity
  8
SK3
  6
SLD-Dashed
370
    18
100
AcDbLine
 10
3.4778985728
 20
9.3178964056
 30
0.0
 11
3.3636512159
 21
8.8621689747
 31
0.0
  0
LINE
  5
145
330
1F
100
AcDbEntity
  8
SK3
  6
SLD-Dashed
370
    18
100
AcDbLine
 10
13.9872030677
 20
5.9198440145
 30
0.0
 11
14.1014504246
 21
6.3755714454
 31
0.0
  0
LINE
  5
146
330
1F
100
AcDbEntity
  8
SK3
  6
SLD-Dashed
370
    18
100
AcDbLine
 10
14.1014504246
 20
6.3755714454
 30
0.0
 11
14.2776845444
 21
6.8048136545
 31
0.0
  0
LINE
  5
147
330
1F
100
AcDbEntity
  8
SK3
  6
SLD-Dashed
370
    18
100
AcDbLine
 10
14.2776845444
 20
6.8048136545
 30
0.0
 11
14.5056633407
 21
7.1826246448
 31
0.0
  0
LINE
  5
148
330
1F
100
AcDbEntity
  8
SK3
  6
SLD-Dashed
370
    18
100
AcDbLine
 10
14.5056633407
 20
7.1826246448
 30
0.0
 11
14.7721375144
 21
7.487047415
 31
0.0
  0
LINE
  5
149
330
1F
100
AcDbEntity
  8
SK3
  6
SLD-Dashed
370
    18
100
AcDbLine
 10
14.7721375144
 20
7.487047415
 30
0.0
 11
15.0616205552
 21
7.70039002
 31
0.0
  0
LINE
  5
14A
330
1F
100
AcDbEntity
  8
SK3
  6
SLD-Dashed
370
    18
100
AcDbLine
 10
15.0616205552
 20
7.70039002
 30
0.0
 11
15.3572887611
 21
7.8102537633
 31
0.0
  0
LINE
  5
14B
330
1F
100
AcDbEntity
  8
SK3
  6
SLD-Dashed
370
    18
100
AcDbLine
 10
15.3572887611
 20
7.8102537633
 30
0.0
 11
15.6419589705
 21
7.8102537633
 31
0.0
  0
LINE
  5
14C
330
1F
100
AcDbEntity
  8
SK3
  6
SLD-Dashed
370
    18
100
AcDbLine
 10
15.6419589705
 20
7.8102537633
 30
0.0
 11
15.8990871856
 21
7.70039002
 31
0.0
  0
LINE
  5
14D
330
1F
100
AcDbEntity
  8
SK3
  6
SLD-Dashed
370
    18
100
AcDbLine
 10
15.8990871856
 20
7.70039002
 30
0.0
 11
16.1137300493
 21
7.487047415
 31
0.0
  0
LINE
  5
14E
330
1F
100
AcDbEntity
  8
SK3
  6
SLD-Dashed
370
    18
100
AcDbLine
 10
16.1137300493
 20
7.487047415
 30
0.0
 11
16.2734132984
 21
7.1826246448
 31
0.0
  0
LINE
  5
14F
330
1F
100
AcDbEntity
  8
SK3
  6
SLD-Dashed
370
    18
100
AcDbLine
 10
16.2734132984
 20
7.1826246448
 30
0.0
 11
16.3688567229
 21
6.8048136545
 31
0.0
  0
LINE
  5
150
330
1F
100
AcDbEntity
  8
SK3
  6
SLD-Dashed
370
    18
100
AcDbLine
 10
16.3688567229
 20
6.8048136545
 30
0.0
 11
16.394513498
 21
6.3755714454
 31
0.0
  0
LINE
  5
151
330
1F
100
AcDbEntity
  8
SK3
  6
SLD-Dashed
370
    18
100
AcDbLine
 10
16.394513498
 20
6.3755714454
 30
0.0
 11
16.3488925452
 21
5.9198440145
 31
0.0
  0
LINE
  5
152
330
1F
100
AcDbEntity
  8
SK3
  6
SLD-Dashed
370
    18
100
AcDbLine
 10
16.3488925452
 20
5.9198440145
 30
0.0
 11
16.2346451883
 21
5.4641165836
 31
0.0
  0
LINE
  5
153
330
1F
100
AcDbEntity
  8
SK3
  6
SLD-Dashed
370
    18
100
AcDbLine
 10
16.2346451883
 20
5.4641165836
 30
0.0
 11
16.0584110685
 21
5.0348743745
 31
0.0
  0
LINE
  5
154
330
1F
100
AcDbEntity
  8
SK3
  6
SLD-Dashed
370
    18
100
AcDbLine
 10
16.0584110685
 20
5.0348743745
 30
0.0
 11
15.8304322722
 21
4.6570633842
 31
0.0
  0
LINE
  5
155
330
1F
100
AcDbEntity
  8
SK3
  6
SLD-Dashed
370
    18
100
AcDbLine
 10
15.8304322722
 20
4.6570633842
 30
0.0
 11
15.5639580985
 21
4.352640614
 31
0.0
  0
LINE
  5
156
330
1F
100
AcDbEntity
  8
SK3
  6
SLD-Dashed
370
    18
100
AcDbLine
 10
15.5639580985
 20
4.352640614
 30
0.0
 11
15.2744750576
 21
4.139298009
 31
0.0
  0
LINE
  5
157
330
1F
100
AcDbEntity
  8
SK3
  6
SLD-Dashed
370
    18
100
AcDbLine
 10
15.2744750576
 20
4.139298009
 30
0.0
 11
14.9788068518
 21
4.0294342657
 31
0.0
  0
LINE
  5
158
330
1F
100
AcDbEntity
  8
SK3
  6
SLD-Dashed
370
    18
100
AcDbLine
 10
14.9788068518
 20
4.0294342657
 30
0.0
 11
14.6941366424
 21
4.0294342657
 31
0.0
  0
LINE
  5
159
330
1F
100
AcDbEntity
  8
SK3
  6
SLD-Dashed
370
    18
100
AcDbLine
 10
14.6941366424
 20
4.0294342657
 30
0.0
 11
14.4370084273
 21
4.139298009
 31
0.0
  0
LINE
  5
15A
330
1F
100
AcDbEntity
  8
SK3
  6
SLD-Dashed
370
    18
100
AcDbLine
 10
14.4370084273
 20
4.139298009
 30
0.0
 11
14.2223655636
 21
4.352640614
 31
0.0
  0
LINE
  5
15B
330
1F
100
AcDbEntity
  8
SK3
  6
SLD-Dashed
370
    18
100
AcDbLine
 10
14.2223655636
 20
4.352640614
 30
0.0
 11
14.0626823145
 21
4.6570633842
 31
0.0
  0
LINE
  5
15C
330
1F
100
AcDbEntity
  8
SK3
  6
SLD-Dashed
370
    18
100
AcDbLine
 10
14.0626823145
 20
4.6570633842
 30
0.0
 11
13.9672388899
 21
5.0348743745
 31
0.0
  0
LINE
  5
15D
330
1F
100
AcDbEntity
  8
SK3
  6
SLD-Dashed
370
    18
100
AcDbLine
 10
13.9672388899
 20
5.0348743745
 30
0.0
 11
13.9415821148
 21
5.4641165836
 31
0.0
  0
LINE
  5
15E
330
1F
100
AcDbEntity
  8
SK3
  6
SLD-Dashed
370
    18
100
AcDbLine
 10
13.9415821148
 20
5.4641165836
 30
0.0
 11
13.9872030677
 21
5.9198440145
 31
0.0
  0
LINE
  5
15F
330
1F
100
AcDbEntity
  8
SK3
  6
SLD-Dashed
370
    18
100
AcDbLine
 10
3.3100253255
 20
8.8686354442
 30
0.0
 11
3.4272021018
 21
9.3360481938
 31
0.0
  0
LINE
  5
160
330
1F
100
AcDbEntity
  8
SK3
  6
SLD-Dashed
370
    18
100
AcDbLine
 10
3.4272021018
 20
9.3360481938
 30
0.0
 11
3.6079550452
 21
9.7762966134
 31
0.0
  0
LINE
  5
161
330
1F
100
AcDbEntity
  8
SK3
  6
SLD-Dashed
370
    18
100
AcDbLine
 10
3.6079550452
 20
9.7762966134
 30
0.0
 11
3.8417794516
 21
10.1637950651
 31
0.0
  0
LINE
  5
162
330
1F
100
AcDbEntity
  8
SK3
  6
SLD-Dashed
370
    18
100
AcDbLine
 10
3.8417794516
 20
10.1637950651
 30
0.0
 11
4.1150862965
 21
10.4760235473
 31
0.0
  0
LINE
  5
163
330
1F
100
AcDbEntity
  8
SK3
  6
SLD-Dashed
370
    18
100
AcDbLine
 10
4.1150862965
 20
10.4760235473
 30
0.0
 11
4.4119919794
 21
10.6948364755
 31
0.0
  0
LINE
  5
164
330
1F
100
AcDbEntity
  8
SK3
  6
SLD-Dashed
370
    18
100
AcDbLine
 10
4.4119919794
 20
10.6948364755
 30
0.0
 11
4.7152414213
 21
10.8075172378
 31
0.0
  0
LINE
  5
165
330
1F
100
AcDbEntity
  8
SK3
  6
SLD-Dashed
370
    18
100
AcDbLine
 10
4.7152414213
 20
10.8075172378
 30
0.0
 11
5.0072108668
 21
10.8075172378
 31
0.0
  0
LINE
  5
166
330
1F
100
AcDbEntity
  8
SK3
  6
SLD-Dashed
370
    18
100
AcDbLine
 10
5.0072108668
 20
10.8075172378
 30
0.0
 11
5.2709321131
 21
10.6948364755
 31
0.0
  0
LINE
  5
167
330
1F
100
AcDbEntity
  8
SK3
  6
SLD-Dashed
370
    18
100
AcDbLine
 10
5.2709321131
 20
10.6948364755
 30
0.0
 11
5.4910786399
 21
10.4760235473
 31
0.0
  0
LINE
  5
168
330
1F
100
AcDbEntity
  8
SK3
  6
SLD-Dashed
370
    18
100
AcDbLine
 10
5.4910786399
 20
10.4760235473
 30
0.0
 11
5.6548563313
 21
10.1637950651
 31
0.0
  0
LINE
  5
169
330
1F
100
AcDbEntity
  8
SK3
  6
SLD-Dashed
370
    18
100
AcDbLine
 10
5.6548563313
 20
10.1637950651
 30
0.0
 11
5.7527470232
 21
9.7762966134
 31
0.0
  0
LINE
  5
16A
330
1F
100
AcDbEntity
  8
SK3
  6
SLD-Dashed
370
    18
100
AcDbLine
 10
5.7527470232
 20
9.7762966134
 30
0.0
 11
5.7790616643
 21
9.3360481938
 31
0.0
  0
LINE
  5
16B
330
1F
100
AcDbEntity
  8
SK3
  6
SLD-Dashed
370
    18
100
AcDbLine
 10
5.7790616643
 20
9.3360481938
 30
0.0
 11
5.7322709434
 21
8.8686354442
 31
0.0
  0
LINE
  5
16C
330
1F
100
AcDbEntity
  8
SK3
  6
SLD-Dashed
370
    18
100
AcDbLine
 10
5.7322709434
 20
8.8686354442
 30
0.0
 11
5.6150941671
 21
8.4012226946
 31
0.0
  0
LINE
  5
16D
330
1F
100
AcDbEntity
  8
SK3
  6
SLD-Dashed
370
    18
100
AcDbLine
 10
5.6150941671
 20
8.4012226946
 30
0.0
 11
5.4343412237
 21
7.960974275
 31
0.0
  0
LINE
  5
16E
330
1F
100
AcDbEntity
  8
SK3
  6
SLD-Dashed
370
    18
100
AcDbLine
 10
5.4343412237
 20
7.960974275
 30
0.0
 11
5.2005168173
 21
7.5734758234
 31
0.0
  0
LINE
  5
16F
330
1F
100
AcDbEntity
  8
SK3
  6
SLD-Dashed
370
    18
100
AcDbLine
 10
5.2005168173
 20
7.5734758234
 30
0.0
 11
4.9272099725
 21
7.2612473412
 31
0.0
  0
LINE
  5
170
330
1F
100
AcDbEntity
  8
SK3
  6
SLD-Dashed
370
    18
100
AcDbLine
 10
4.9272099725
 20
7.2612473412
 30
0.0
 11
4.6303042896
 21
7.0424344129
 31
0.0
  0
LINE
  5
171
330
1F
100
AcDbEntity
  8
SK3
  6
SLD-Dashed
370
    18
100
AcDbLine
 10
4.6303042896
 20
7.0424344129
 30
0.0
 11
4.3270548477
 21
6.9297536506
 31
0.0
  0
LINE
  5
172
330
1F
100
AcDbEntity
  8
SK3
  6
SLD-Dashed
370
    18
100
AcDbLine
 10
4.3270548477
 20
6.9297536506
 30
0.0
 11
4.0350854021
 21
6.9297536506
 31
0.0
  0
LINE
  5
173
330
1F
100
AcDbEntity
  8
SK3
  6
SLD-Dashed
370
    18
100
AcDbLine
 10
4.0350854021
 20
6.9297536506
 30
0.0
 11
3.7713641558
 21
7.0424344129
 31
0.0
  0
LINE
  5
174
330
1F
100
AcDbEntity
  8
SK3
  6
SLD-Dashed
370
    18
100
AcDbLine
 10
3.7713641558
 20
7.0424344129
 30
0.0
 11
3.551217629
 21
7.2612473412
 31
0.0
  0
LINE
  5
175
330
1F
100
AcDbEntity
  8
SK3
  6
SLD-Dashed
370
    18
100
AcDbLine
 10
3.551217629
 20
7.2612473412
 30
0.0
 11
3.3874399376
 21
7.5734758234
 31
0.0
  0
LINE
  5
176
330
1F
100
AcDbEntity
  8
SK3
  6
SLD-Dashed
370
    18
100
AcDbLine
 10
3.3874399376
 20
7.5734758234
 30
0.0
 11
3.2895492458
 21
7.960974275
 31
0.0
  0
LINE
  5
177
330
1F
100
AcDbEntity
  8
SK3
  6
SLD-Dashed
370
    18
100
AcDbLine
 10
3.2895492458
 20
7.960974275
 30
0.0
 11
3.2632346046
 21
8.4012226946
 31
0.0
  0
LINE
  5
178
330
1F
100
AcDbEntity
  8
SK3
  6
SLD-Dashed
370
    18
100
AcDbLine
 10
3.2632346046
 20
8.4012226946
 30
0.0
 11
3.3100253255
 21
8.8686354442
 31
0.0
  0
LINE
  5
179
330
1F
100
AcDbEntity
  8
SK3
  6
SLD-Dashed
370
    18
100
AcDbLine
 10
3.9873194828
 20
-6.941194921
 30
0.0
 11
3.95
 21
-6.9515310164
 31
0.0
  0
LINE
  5
17A
330
1F
100
AcDbEntity
  8
SK3
  6
SLD-Dashed
370
    18
100
AcDbLine
 10
5.06497889
 20
-10.7414234849
 30
0.0
 11
15.6885307418
 21
-7.7990985247
 31
0.0
  0
LINE
  5
17B
330
1F
100
AcDbEntity
  8
SK3
  6
SLD-Dashed
370
    18
100
AcDbLine
 10
14.6475648711
 20
-4.0405895043
 30
0.0
 11
4.0240130193
 21
-6.9829144645
 31
0.0
  0
LINE
  5
17C
330
1F
100
AcDbEntity
  8
SK3
  6
SLD-Dashed
370
    18
100
AcDbLine
 10
-68.25
 20
-9.14
 30
0.0
 11
-66.6824940192
 21
-8.235
 31
0.0
  0
LINE
  5
17D
330
1F
100
AcDbEntity
  8
SK3
  6
SLD-Dashed
370
    18
100
AcDbLine
 10
-66.6824940192
 20
8.235
 30
0.0
 11
-68.25
 21
9.14
 31
0.0
  0
LINE
  5
17E
330
1F
100
AcDbEntity
  8
SK3
  6
SLD-Dashed
370
    18
100
AcDbLine
 10
-66.6824940192
 20
-8.235
 30
0.0
 11
-63.48
 21
-8.235
 31
0.0
  0
LINE
  5
17F
330
1F
100
AcDbEntity
  8
SK3
  6
SLD-Dashed
370
    18
100
AcDbLine
 10
-63.48
 20
8.235
 30
0.0
 11
-66.6824940192
 21
8.235
 31
0.0
  0
LINE
  5
180
330
1F
100
AcDbEntity
  8
SK3
  6
SLD-Dashed
370
    18
100
AcDbLine
 10
-63.48
 20
-8.235
 30
0.0
 11
-62.6204640132
 21
-6.74624
 31
0.0
  0
LINE
  5
181
330
1F
100
AcDbEntity
  8
SK3
  6
SLD-Dashed
370
    18
100
AcDbLine
 10
-62.6204640132
 20
6.74624
 30
0.0
 11
-63.48
 21
8.235
 31
0.0
  0
LINE
  5
182
330
1F
100
AcDbEntity
  8
SK3
  6
SLD-Dashed
370
    18
100
AcDbLine
 10
66.548
 20
6.9273502692
 30
0.0
 11
65.548
 21
6.35
 31
0.0
  0
LINE
  5
183
330
1F
100
AcDbEntity
  8
SK3
  6
SLD-Dashed
370
    18
100
AcDbLine
 10
65.548
 20
-6.35
 30
0.0
 11
66.548
 21
-6.9273502692
 31
0.0
  0
LINE
  5
184
330
1F
100
AcDbEntity
  8
SK3
  6
SLD-Dashed
370
    18
100
AcDbLine
 10
-62.6204640132
 20
-6.74624
 30
0.0
 11
21.86
 21
-6.74624
 31
0.0
  0
LINE
  5
185
330
1F
100
AcDbEntity
  8
SK3
  6
SLD-Dashed
370
    18
100
AcDbLine
 10
21.86
 20
6.74624
 30
0.0
 11
-62.6204640132
 21
6.74624
 31
0.0
  0
LINE
  5
186
330
1F
100
AcDbEntity
  8
SK3
  6
SLD-Dashed
370
    18
100
AcDbLine
 10
21.86
 20
-6.74624
 30
0.0
 11
22.0980850117
 21
-6.35
 31
0.0
  0
LINE
  5
187
330
1F
100
AcDbEntity
  8
SK3
  6
SLD-Dashed
370
    18
100
AcDbLine
 10
22.0980850117
 20
6.35
 30
0.0
 11
21.86
 21
6.74624
 31
0.0
  0
LINE
  5
188
330
1F
100
AcDbEntity
  8
SK3
  6
SLD-Dashed
370
    18
100
AcDbLine
 10
39.4589
 20
6.35
 30
0.0
 11
22.0980850117
 21
6.35
 31
0.0
  0
LINE
  5
189
330
1F
100
AcDbEntity
  8
SK3
  6
SLD-Dashed
370
    18
100
AcDbLine
 10
65.548
 20
6.35
 30
0.0
 11
49.1838580013
 21
6.35
 31
0.0
  0
LINE
  5
18A
330
1F
100
AcDbEntity
  8
SK3
  6
SLD-Dashed
370
    18
100
AcDbLine
 10
22.0980850117
 20
-6.35
 30
0.0
 11
65.548
 21
-6.35
 31
0.0
  0
LINE
  5
18B
330
1F
100
AcDbEntity
  8
SK3
  6
SLD-Dashed
370
    18
100
AcDbLine
 10
37.9767467415
 20
15.9182506395
 30
0.0
 11
37.9767467415
 21
14.4182506395
 31
0.0
  0
LINE
  5
18C
330
1F
100
AcDbEntity
  8
SK3
  6
SLD-Dashed
370
    18
100
AcDbLine
 10
50.4767467415
 20
14.4182506395
 30
0.0
 11
50.4767467415
 21
15.909849568
 31
0.0
  0
LINE
  5
18D
330
1F
100
AcDbEntity
  8
SK3
  6
SLD-Dashed
370
    18
100
AcDbLine
 10
6.1
 20
24.83
 30
0.0
 11
6.1
 21
20.43
 31
0.0
  0
LINE
  5
18E
330
1F
100
AcDbEntity
  8
SK3
  6
SLD-Dashed
370
    18
100
AcDbLine
 10
16.1
 20
20.43
 30
0.0
 11
16.1
 21
24.83
 31
0.0
  0
LINE
  5
18F
330
1F
100
AcDbEntity
  8
SK3
  6
SLD-Dashed
370
    18
100
AcDbLine
 10
39.4589
 20
14.375
 30
0.0
 11
39.4589
 21
6.35
 31
0.0
  0
LINE
  5
190
330
1F
100
AcDbEntity
  8
SK3
  6
SLD-Dashed
370
    18
100
AcDbLine
 10
49.1871
 20
6.3475174188
 30
0.0
 11
49.1871
 21
14.375
 31
0.0
  0
LINE
  5
191
330
1F
100
AcDbEntity
  8
SK3
  6
SLD-Dashed
370
    18
100
AcDbLine
 10
4.0240130193
 20
6.9829144645
 30
0.0
 11
14.6475648711
 21
4.0405895043
 31
0.0
  0
LINE
  5
192
330
1F
100
AcDbEntity
  8
SK3
  6
SLD-Dashed
370
    18
100
AcDbLine
 10
15.6885307418
 20
7.7990985247
 30
0.0
 11
5.06497889
 21
10.7414234849
 31
0.0
  0
LINE
  5
193
330
1F
100
AcDbEntity
  8
SK3
  6
SLD-Dashed
370
    18
100
AcDbLine
 10
3.95
 20
6.9515310164
 30
0.0
 11
3.9873194828
 21
6.941194921
 31
0.0
  0
LINE
  5
194
330
1F
100
AcDbEntity
  8
SK3
  6
SLD-Solid
370
    18
100
AcDbLine
 10
-38.2499992847
 20
7.9375002533
 30
0.0
 11
-63.3082389832
 21
7.9375002533
 31
0.0
  0
LINE
  5
195
330
1F
100
AcDbEntity
  8
SK3
  6
SLD-Solid
370
    18
100
AcDbLine
 10
-63.3082389832
 20
-7.9375002533
 30
0.0
 11
-38.2499992847
 21
-7.9375002533
 31
0.0
  0
LINE
  5
196
330
1F
100
AcDbEntity
  8
SK3
  6
SLD-Solid
370
    18
100
AcDbLine
 10
-38.2499992847
 20
0.0
 30
0.0
 11
-38.2499992847
 21
-1.1296240846
 31
0.0
  0
LINE
  5
197
330
1F
100
AcDbEntity
  8
SK3
  6
SLD-Solid
370
    18
100
AcDbLine
 10
-38.2500475839
 20
-1.1296240846
 30
0.0
 11
-38.2499992847
 21
-2.236252185
 31
0.0
  0
LINE
  5
198
330
1F
100
AcDbEntity
  8
SK3
  6
SLD-Solid
370
    18
100
AcDbLine
 10
-38.2499992847
 20
-2.236252185
 30
0.0
 11
-38.2499992847
 21
-3.2973566558
 31
0.0
  0
LINE
  5
199
330
1F
100
AcDbEntity
  8
SK3
  6
SLD-Solid
370
    18
100
AcDbLine
 10
-38.2499992847
 20
-3.2973566558
 30
0.0
 11
-38.2499992847
 21
-4.2913365178
 31
0.0
  0
LINE
  5
19A
330
1F
100
AcDbEntity
  8
SK3
  6
SLD-Solid
370
    18
100
AcDbLine
 10
-38.2499992847
 20
-4.2913365178
 30
0.0
 11
-38.2499992847
 21
-5.1979571581
 31
0.0
  0
LINE
  5
19B
330
1F
100
AcDbEntity
  8
SK3
  6
SLD-Solid
370
    18
100
AcDbLine
 10
-38.2499992847
 20
-5.1979571581
 30
0.0
 11
-38.2499992847
 21
-5.9987623245
 31
0.0
  0
LINE
  5
19C
330
1F
100
AcDbEntity
  8
SK3
  6
SLD-Solid
370
    18
100
AcDbLine
 10
-38.2499992847
 20
-5.9987623245
 30
0.0
 11
-38.2499992847
 21
-6.6774501465
 31
0.0
  0
LINE
  5
19D
330
1F
100
AcDbEntity
  8
SK3
  6
SLD-Solid
370
    18
100
AcDbLine
 10
-38.2499992847
 20
-6.6774501465
 30
0.0
 11
-38.2499992847
 21
-7.2202039883
 31
0.0
  0
LINE
  5
19E
330
1F
100
AcDbEntity
  8
SK3
  6
SLD-Solid
370
    18
100
AcDbLine
 10
-38.2499992847
 20
-7.2202039883
 30
0.0
 11
-38.2499992847
 21
-7.6159755699
 31
0.0
  0
LINE
  5
19F
330
1F
100
AcDbEntity
  8
SK3
  6
SLD-Solid
370
    18
100
AcDbLine
 10
-38.2499992847
 20
-7.6159755699
 30
0.0
 11
-38.2499992847
 21
-7.85670802
 31
0.0
  0
LINE
  5
1A0
330
1F
100
AcDbEntity
  8
SK3
  6
SLD-Solid
370
    18
100
AcDbLine
 10
-38.2499992847
 20
-7.85670802
 30
0.0
 11
-38.2499992847
 21
-7.9375002533
 31
0.0
  0
LINE
  5
1A1
330
1F
100
AcDbEntity
  8
SK3
  6
SLD-Solid
370
    18
100
AcDbLine
 10
-38.2500475839
 20
7.9375002533
 30
0.0
 11
-38.2499992847
 21
7.85670802
 31
0.0
  0
LINE
  5
1A2
330
1F
100
AcDbEntity
  8
SK3
  6
SLD-Solid
370
    18
100
AcDbLine
 10
-38.2499992847
 20
7.85670802
 30
0.0
 11
-38.2499992847
 21
7.6159755699
 31
0.0
  0
LINE
  5
1A3
330
1F
100
AcDbEntity
  8
SK3
  6
SLD-Solid
370
    18
100
AcDbLine
 10
-38.2499992847
 20
7.6159755699
 30
0.0
 11
-38.2499992847
 21
7.2202039883
 31
0.0
  0
LINE
  5
1A4
330
1F
100
AcDbEntity
  8
SK3
  6
SLD-Solid
370
    18
100
AcDbLine
 10
-38.2499992847
 20
7.2202039883
 30
0.0
 11
-38.2499992847
 21
6.6774501465
 31
0.0
  0
LINE
  5
1A5
330
1F
100
AcDbEntity
  8
SK3
  6
SLD-Solid
370
    18
100
AcDbLine
 10
-38.2499992847
 20
6.6774501465
 30
0.0
 11
-38.2499992847
 21
5.9987623245
 31
0.0
  0
LINE
  5
1A6
330
1F
100
AcDbEntity
  8
SK3
  6
SLD-Solid
370
    18
100
AcDbLine
 10
-38.2499992847
 20
5.9987623245
 30
0.0
 11
-38.2499992847
 21
5.1979571581
 31
0.0
  0
LINE
  5
1A7
330
1F
100
AcDbEntity
  8
SK3
  6
SLD-Solid
370
    18
100
AcDbLine
 10
-38.2499992847
 20
5.1979571581
 30
0.0
 11
-38.2499992847
 21
4.2913365178
 31
0.0
  0
LINE
  5
1A8
330
1F
100
AcDbEntity
  8
SK3
  6
SLD-Solid
370
    18
100
AcDbLine
 10
-38.2499992847
 20
4.2913365178
 30
0.0
 11
-38.2499992847
 21
3.2973566558
 31
0.0
  0
LINE
  5
1A9
330
1F
100
AcDbEntity
  8
SK3
  6
SLD-Solid
370
    18
100
AcDbLine
 10
-38.2499992847
 20
3.2973566558
 30
0.0
 11
-38.2499992847
 21
2.236252185
 31
0.0
  0
LINE
  5
1AA
330
1F
100
AcDbEntity
  8
SK3
  6
SLD-Solid
370
    18
100
AcDbLine
 10
-38.2499992847
 20
2.236252185
 30
0.0
 11
-38.2499992847
 21
1.1296240846
 31
0.0
  0
LINE
  5
1AB
330
1F
100
AcDbEntity
  8
SK3
  6
SLD-Solid
370
    18
100
AcDbLine
 10
-38.2499992847
 20
1.1296240846
 30
0.0
 11
-38.2499992847
 21
0.0
 31
0.0
  0
LINE
  5
1AC
330
1F
100
AcDbEntity
  8
SK3
  6
SLD-Solid
370
    18
100
AcDbLine
 10
49.8792491853
 20
6.3050435856
 30
0.0
 11
49.8792491853
 21
14.3750002608
 31
0.0
  0
LINE
  5
1AD
330
1F
100
AcDbEntity
  8
SK3
  6
SLD-Solid
370
    18
100
AcDbLine
 10
38.7667492032
 20
14.3750002608
 30
0.0
 11
38.7667492032
 21
6.3050435856
 31
0.0
  0
LINE
  5
1AE
330
1F
100
AcDbEntity
  8
SK3
  6
SLD-Solid
370
    18
100
AcDbLine
 10
49.8278141022
 20
6.3050435856
 30
0.0
 11
49.8175509274
 21
6.2960847281
 31
0.0
  0
LINE
  5
1AF
330
1F
100
AcDbEntity
  8
4
  6
SLD-Center
370
    18
100
AcDbLine
 10
67.7658112452
 20
0.0
 30
0.0
 11
-0.0119159357
 21
0.0
 31
0.0
  0
LINE
  5
1B0
330
1F
100
AcDbEntity
  8
4
  6
SLD-Center
370
    18
100
AcDbLine
 10
44.323
 20
16.375
 30
0.0
 11
44.323
 21
4.35
 31
0.0
  0
LINE
  5
1B1
330
1F
100
AcDbEntity
  8
SK4
  6
SLD-Center
370
    18
100
AcDbLine
 10
-70.2875937497
 20
0.0
 30
0.0
 11
66.548
 21
0.0
 31
0.0
  0
LINE
  5
1B2
330
1F
100
AcDbEntity
  8
81
370
    18
100
AcDbLine
 10
66.548
 20
0.0
 30
0.0
 11
70.0835339059
 21
3.5355339059
 31
0.0
  0
LINE
  5
1B3
330
1F
100
AcDbEntity
  8
81
370
    18
100
AcDbLine
 10
66.548
 20
0.0
 30
0.0
 11
63.0124660941
 21
-3.5355339059
 31
0.0
  0
LINE
  5
1B4
330
1F
100
AcDbEntity
  8
81
370
    18
100
AcDbLine
 10
66.548
 20
0.0
 30
0.0
 11
63.0124660941
 21
3.5355339059
 31
0.0
  0
LINE
  5
1B5
330
1F
100
AcDbEntity
  8
81
100
AcDbLine
 10
66.548
 20
0.0
 30
0.0
 11
76.548
 21
0.0
 31
0.0
  0
LINE
  5
1B6
330
1F
100
AcDbEntity
  8
81
370
    18
100
AcDbLine
 10
66.548
 20
0.0
 30
0.0
 11
70.0835339059
 21
-3.5355339059
 31
0.0
  0
LINE
  5
1B7
330
1F
100
AcDbEntity
  8
80
370
    18
100
AcDbLine
 10
-0.0119159357
 20
0.0
 30
0.0
 11
-3.5474498416
 21
-3.5355339059
 31
0.0
  0
LINE
  5
1B8
330
1F
100
AcDbEntity
  8
80
370
    18
100
AcDbLine
 10
-0.0119159357
 20
0.0
 30
0.0
 11
3.5236179703
 21
3.5355339059
 31
0.0
  0
LINE
  5
1B9
330
1F
100
AcDbEntity
  8
80
370
    18
100
AcDbLine
 10
-0.0119159357
 20
0.0
 30
0.0
 11
-3.5474498416
 21
3.5355339059
 31
0.0
  0
LINE
  5
1BA
330
1F
100
AcDbEntity
  8
80
370
    18
100
AcDbLine
 10
-0.0119159357
 20
0.0
 30
0.0
 11
-10.0119159357
 21
0.0
 31
0.0
  0
LINE
  5
1BB
330
1F
100
AcDbEntity
  8
80
370
    18
100
AcDbLine
 10
-0.0119159357
 20
0.0
 30
0.0
 11
3.5236179703
 21
-3.5355339059
 31
0.0
  0
ARC
  5
1BC
330
1F
100
AcDbEntity
  8
1
  6
SLD-Solid
370
    25
100
AcDbCircle
 10
19.812
 20
-22.987
 30
0.0
 40
0.7620000000000218
100
AcDbArc
 50
90.0
 51
130.8137087597
  0
ARC
  5
1BD
330
1F
100
AcDbEntity
  8
1
  6
SLD-Solid
370
    25
100
AcDbCircle
 10
19.812
 20
22.987
 30
0.0
 40
0.7620000000000289
100
AcDbArc
 50
180.0
 51
270.0
  0
ARC
  5
1BE
330
1F
100
AcDbEntity
  8
1
  6
SLD-Solid
370
    25
100
AcDbCircle
 10
2.45
 20
22.79
 30
0.0
 40
0.7500000000000043
100
AcDbArc
 50
245.0
 51
0.0
  0
ARC
  5
1BF
330
1F
100
AcDbEntity
  8
1
  6
SLD-Solid
370
    25
100
AcDbCircle
 10
2.45
 20
-22.79
 30
0.0
 40
0.7500000000000152
100
AcDbArc
 50
30.4400371691
 51
115.0
  0
ARC
  5
1C0
330
1F
100
AcDbEntity
  8
1
  6
SLD-Solid
370
    25
100
AcDbCircle
 10
34.288
 20
-21.463
 30
0.0
 40
0.7620000000000005
100
AcDbArc
 50
270.0
 51
0.0
  0
ARC
  5
1C1
330
1F
100
AcDbEntity
  8
1
  6
SLD-Solid
370
    25
100
AcDbCircle
 10
34.288
 20
21.463
 30
0.0
 40
0.7620000000000111
100
AcDbArc
 50
0.0
 51
90.0
  0
ARC
  5
1C2
330
1F
100
AcDbEntity
  8
1
  6
SLD-Solid
370
    25
100
AcDbCircle
 10
38.225
 20
-19.05
 30
0.0
 40
3.175000000000011
100
AcDbArc
 50
107.5143633476
 51
180.0
  0
ARC
  5
1C3
330
1F
100
AcDbEntity
  8
1
  6
SLD-Solid
370
    25
100
AcDbCircle
 10
38.225
 20
19.05
 30
0.0
 40
3.175000000000011
100
AcDbArc
 50
180.0
 51
270.0
  0
ARC
  5
1C4
330
1F
100
AcDbEntity
  8
SK1
  6
SLD-Solid
370
    25
100
AcDbCircle
 10
-66.95
 20
11.1476148288
 30
0.0
 40
1.299999999999997
100
AcDbArc
 50
98.2972222222
 51
180.0
  0
ARC
  5
1C5
330
1F
100
AcDbEntity
  8
SK1
  6
SLD-Solid
370
    25
100
AcDbCircle
 10
-66.95
 20
-11.1476148288
 30
0.0
 40
1.299999999999999
100
AcDbArc
 50
180.0
 51
261.7027777778
  0
ARC
  5
1C6
330
1F
100
AcDbEntity
  8
1
370
    18
100
AcDbCircle
 10
44.3883078778
 20
29.7216367639
 30
0.0
 40
15.15637534732775
100
AcDbArc
 50
246.0055670317
 51
293.9944329683
  0
CIRCLE
  5
1C7
330
1F
100
AcDbEntity
  8
81
370
    18
100
AcDbCircle
 10
66.548
 20
0.0
 30
0.0
 40
2.499999999999984
  0
CIRCLE
  5
1C8
330
1F
100
AcDbEntity
  8
80
370
    18
100
AcDbCircle
 10
-0.0119159357
 20
0.0
 30
0.0
 40
2.500000000000009
  0
ARC
  5
1C9
330
1F
100
AcDbEntity
  8
1
370
    18
100
AcDbCircle
 10
44.3465160917
 20
-34.4267258219
 30
0.0
 40
19.81444252238359
100
AcDbArc
 50
69.4931297073
 51
107.995489945
  0
ARC
  5
1CA
330
1F
100
AcDbEntity
  8
1
370
    18
100
AcDbCircle
 10
39.1967746344
 20
-18.973344538
 30
0.0
 40
3.528221934257943
100
AcDbArc
 50
105.9875813052
 51
123.1168140313
  0
SPLINE
  5
1CB
330
1F
100
AcDbEntity
  8
1
  6
SLD-Solid
370
    25
100
AcDbSpline
210
0.0
220
0.0
230
1.0
 70
     8
 71
     3
 72
    16
 73
    12
 74
     0
 42
0.000000001
 43
0.00000001
 40
0.0
 40
0.0
 40
0.0
 40
0.0
 40
0.0695972585631702
 40
0.1233277320974721
 40
0.247039555460377
 40
0.370625409937532
 40
0.4955039070586293
 40
0.6236892810562452
 40
0.7463896350927952
 40
0.874029172385884
 40
1.0
 40
1.0
 40
1.0
 40
1.0
 10
3.200000000000008
 20
-29.80486644841631
 30
0.0
 10
3.200840331068336
 20
-29.8321187437415
 30
0.0
 10
3.202329414503616
 20
-29.88041035531206
 30
0.0
 10
3.217237155250588
 20
-29.97610817340506
 30
0.0
 10
3.250688715768016
 20
-30.08991350869657
 30
0.0
 10
3.31865255168802
 20
-30.22007249881833
 30
0.0
 10
3.411627067179679
 20
-30.33622596976964
 30
0.0
 10
3.525709306310159
 20
-30.43184457715033
 30
0.0
 10
3.657379123027604
 20
-30.50320141671877
 30
0.0
 10
3.800029806285382
 20
-30.54921347619221
 30
0.0
 10
3.900229701070776
 20
-30.5550230082085
 30
0.0
 10
3.949999999999926
 20
-30.55790866138918
 30
0.0
  0
SPLINE
  5
1CC
330
1F
100
AcDbEntity
  8
1
  6
SLD-Solid
370
    25
100
AcDbSpline
210
0.0
220
0.0
230
1.0
 70
     8
 71
     3
 72
    18
 73
    14
 74
     0
 42
0.000000001
 43
0.00000001
 40
0.0
 40
0.0
 40
0.0
 40
0.0
 40
0.0628280480421825
 40
0.1260701253970792
 40
0.1897406253785904
 40
0.2538535710757105
 40
0.3764737521324676
 40
0.5046580328934662
 40
0.6294958758641306
 40
0.7530413720168776
 40
0.8767127000651272
 40
0.9303985995609487
 40
1.0
 40
1.0
 40
1.0
 40
1.0
 10
3.949999999999926
 20
30.55788999666614
 30
0.0
 10
3.925199676033206
 20
30.55717534525744
 30
0.0
 10
3.875435596934693
 20
30.55574133297283
 30
0.0
 10
3.801295881396202
 20
30.5441309437327
 30
0.0
 10
3.728175768565503
 20
30.52555103963992
 30
0.0
 10
3.635356745735146
 20
30.49149389245028
 30
0.0
 10
3.525704227685292
 20
30.43173903699994
 30
0.0
 10
3.411641971522855
 20
30.33624779546198
 30
0.0
 10
3.318651270434195
 20
30.22005039304358
 30
0.0
 10
3.25068907205453
 20
30.08990134371376
 30
0.0
 10
3.217240115096248
 20
29.97610524198125
 30
0.0
 10
3.202330512999688
 20
29.88040905934514
 30
0.0
 10
3.20084093556651
 20
29.83211788338436
 30
0.0
 10
3.200000000000008
 20
29.80485527419838
 30
0.0
  0
SPLINE
  5
1CD
330
1F
100
AcDbEntity
  8
1
  6
SLD-Solid
370
    25
100
AcDbSpline
210
0.0
220
0.0
230
1.0
 70
     8
 71
     3
 72
    18
 73
    14
 74
     0
 42
0.000000001
 43
0.00000001
 40
0.0
 40
0.0
 40
0.0
 40
0.0
 40
0.0627054734815585
 40
0.1258180026435944
 40
0.1893518955758989
 40
0.2533210967871997
 40
0.3760223802380994
 40
0.5042027350874037
 40
0.6287442443905509
 40
0.7524970007335178
 40
0.8762904256225891
 40
0.9301814553533038
 40
1.0
 40
1.0
 40
1.0
 40
1.0
 10
18.3
 20
-30.55788999666613
 30
0.0
 10
18.3247518925103
 20
-30.55717815032796
 30
0.0
 10
18.37441635566446
 20
-30.55574983666591
 30
0.0
 10
18.44840700700191
 20
-30.54418621918458
 30
0.0
 10
18.52137928311718
 20
-30.52568315689515
 30
0.0
 10
18.61414871610721
 20
-30.49172081055997
 30
0.0
 10
18.72382631062687
 20
-30.43206331201421
 30
0.0
 10
18.83789060104975
 20
-30.33670781031285
 30
0.0
 10
18.93096567570619
 20
-30.22063090164698
 30
0.0
 10
18.99906840635736
 20
-30.09053486574009
 30
0.0
 10
19.03266226172083
 20
-29.97656054635133
 30
0.0
 10
19.04765434845164
 20
-29.88065972774423
 30
0.0
 10
19.04915376650081
 20
-29.83220301390153
 30
0.0
 10
19.05000000000003
 20
-29.80485527419841
 30
0.0
  0
SPLINE
  5
1CE
330
1F
100
AcDbEntity
  8
1
  6
SLD-Solid
370
    25
100
AcDbSpline
210
0.0
220
0.0
230
1.0
 70
     8
 71
     3
 72
    16
 73
    12
 74
     0
 42
0.000000001
 43
0.00000001
 40
0.0
 40
0.0
 40
0.0
 40
0.0
 40
0.069814031064149
 40
0.1237498965154266
 40
0.2475836018648968
 40
0.371376536255524
 40
0.4959583438678432
 40
0.62413948620796
 40
0.7469207609697971
 40
0.8742805094910139
 40
1.0
 40
1.0
 40
1.0
 40
1.0
 10
19.05000000000004
 20
29.80486644841627
 30
0.0
 10
19.04915437967805
 20
29.83220375694686
 30
0.0
 10
19.04765546283079
 20
29.88066090875586
 30
0.0
 10
19.03266526234906
 20
29.97656337346558
 30
0.0
 10
18.99906876123938
 20
30.09054703967056
 30
0.0
 10
18.9309643939984
 20
30.22065301278143
 30
0.0
 10
18.83790550330879
 20
30.33668609025478
 30
0.0
 10
18.7238212796448
 20
30.43216876423575
 30
0.0
 10
18.5921637601932
 20
30.5033860496425
 30
0.0
 10
18.44966044222825
 20
30.54924901227124
 30
0.0
 10
18.34967079633339
 20
30.5550346108969
 30
0.0
 10
18.3
 20
30.55790866138912
 30
0.0
  0
SPLINE
  5
1CF
330
1F
100
AcDbEntity
  8
1
  6
SLD-Solid
370
    25
100
AcDbSpline
210
0.0
220
0.0
230
1.0
 70
     8
 71
     3
 72
     8
 73
     4
 74
     0
 42
0.000000001
 43
0.00000001
 40
0.0
 40
0.0
 40
0.0
 40
0.0
 40
1.0
 40
1.0
 40
1.0
 40
1.0
 10
13.03
 20
27.80504563417289
 30
0.0
 10
13.47759651810109
 20
28.61249255653033
 30
0.0
 10
13.92634937951633
 20
29.41929290832669
 30
0.0
 10
14.37601294652259
 20
30.22558142012641
 30
0.0
  0
SPLINE
  5
1D0
330
1F
100
AcDbEntity
  8
1
  6
SLD-Solid
370
    25
100
AcDbSpline
210
0.0
220
0.0
230
1.0
 70
     8
 71
     3
 72
     8
 73
     4
 74
     0
 42
0.000000001
 43
0.00000001
 40
0.0
 40
0.0
 40
0.0
 40
0.0
 40
0.0006742907251946
 40
0.0006742907251946
 40
0.0006742907251946
 40
0.0006742907251946
 10
14.64112635455677
 20
30.55790866138912
 30
0.0
 10
14.55231121915219
 20
30.44723498609876
 30
0.0
 10
14.4639323132736
 20
30.33646040447047
 30
0.0
 10
14.37601294652259
 20
30.22558142012641
 30
0.0
  0
SPLINE
  5
1D1
330
1F
100
AcDbEntity
  8
1
  6
SLD-Solid
370
    25
100
AcDbSpline
210
0.0
220
0.0
230
1.0
 70
     8
 71
     3
 72
     8
 73
     4
 74
     0
 42
0.000000001
 43
0.00000001
 40
0.0
 40
0.0
 40
0.0
 40
0.0
 40
0.0006744126776058
 40
0.0006744126776058
 40
0.0006744126776058
 40
0.0006744126776058
 10
14.37595046659278
 20
-30.22546938779914
 30
0.0
 10
14.46389058426685
 20
-30.33637953005828
 30
0.0
 10
14.55229031970066
 20
-30.4471852334213
 30
0.0
 10
14.64112635455682
 20
-30.55788999666613
 30
0.0
  0
SPLINE
  5
1D2
330
1F
100
AcDbEntity
  8
1
  6
SLD-Solid
370
    25
100
AcDbSpline
210
0.0
220
0.0
230
1.0
 70
     8
 71
     3
 72
     8
 73
     4
 74
     0
 42
0.000000001
 43
0.00000001
 40
0.0
 40
0.0
 40
0.0
 40
0.0
 40
1.0
 40
1.0
 40
1.0
 40
1.0
 10
13.03
 20
-27.8050456341729
 30
0.0
 10
13.47756662864426
 20
-28.61243863709861
 30
0.0
 10
13.92629890859749
 20
-29.41920220926157
 30
0.0
 10
14.37595046659278
 20
-30.22546938779914
 30
0.0
  0
SPLINE
  5
1D3
330
1F
100
AcDbEntity
  8
1
  6
SLD-Solid
370
    25
100
AcDbSpline
210
0.0
220
0.0
230
1.0
 70
     8
 71
     3
 72
    14
 73
    10
 74
     0
 42
0.000000001
 43
0.00000001
 40
0.0
 40
0.0
 40
0.0
 40
0.0
 40
0.25
 40
0.25
 40
0.5
 40
0.5
 40
0.75
 40
0.75
 40
1.0
 40
1.0
 40
1.0
 40
1.0
 10
13.03000000000003
 20
25.81171788356632
 30
0.0
 10
13.05182784069899
 20
25.80868166763939
 30
0.0
 10
13.06930451588752
 20
25.79706282581692
 30
0.0
 10
13.09355241467171
 20
25.75265705035271
 30
0.0
 10
13.09996413738394
 20
25.71975400624286
 30
0.0
 10
13.10003555457993
 20
25.63443445773249
 30
0.0
 10
13.09360869858517
 20
25.5807312169283
 30
0.0
 10
13.0695303199543
 20
25.45976651603279
 30
0.0
 10
13.05190366619462
 20
25.39187340765437
 30
0.0
 10
13.03
 20
25.31924243797493
 30
0.0
  0
SPLINE
  5
1D4
330
1F
100
AcDbEntity
  8
1
  6
SLD-Solid
370
    25
100
AcDbSpline
210
0.0
220
0.0
230
1.0
 70
     8
 71
     3
 72
     8
 73
     4
 74
     0
 42
0.000000001
 43
0.00000001
 40
0.0
 40
0.0
 40
0.0
 40
0.0
 40
1.0
 40
1.0
 40
1.0
 40
1.0
 10
7.853987053479635
 20
-30.22558142012361
 30
0.0
 10
8.303659523846807
 20
-29.41927694377143
 30
0.0
 10
8.752412641282724
 20
-28.61247603335507
 30
0.0
 10
9.199999999998916
 20
-27.80504563417604
 30
0.0
  0
SPLINE
  5
1D5
330
1F
100
AcDbEntity
  8
1
  6
SLD-Solid
370
    25
100
AcDbSpline
210
0.0
220
0.0
230
1.0
 70
     8
 71
     3
 72
     8
 73
     4
 74
     0
 42
0.000000001
 43
0.00000001
 40
0.0
 40
0.0
 40
0.0
 40
0.0
 40
0.0006742907251988
 40
0.0006742907251988
 40
0.0006742907251988
 40
0.0006742907251988
 10
7.588873645443278
 20
-30.55790866138918
 30
0.0
 10
7.677688780848579
 20
-30.44723498609787
 30
0.0
 10
7.766067686727892
 20
-30.33646040446862
 30
0.0
 10
7.853987053479635
 20
-30.2255814201236
 30
0.0
  0
SPLINE
  5
1D6
330
1F
100
AcDbEntity
  8
1
  6
SLD-Solid
370
    25
100
AcDbSpline
210
0.0
220
0.0
230
1.0
 70
     8
 71
     3
 72
     8
 73
     4
 74
     0
 42
0.000000001
 43
0.00000001
 40
0.0
 40
0.0
 40
0.0
 40
0.0
 40
0.0006744126776058
 40
0.0006744126776058
 40
0.0006744126776058
 40
0.0006744126776058
 10
7.854049533407311
 20
30.22546938779905
 30
0.0
 10
7.766109415733217
 20
30.3363795300582
 30
0.0
 10
7.677709680299425
 20
30.44718523342124
 30
0.0
 10
7.588873645443278
 20
30.55788999666608
 30
0.0
  0
SPLINE
  5
1D7
330
1F
100
AcDbEntity
  8
1
  6
SLD-Solid
370
    25
100
AcDbSpline
210
0.0
220
0.0
230
1.0
 70
     8
 71
     3
 72
     8
 73
     4
 74
     0
 42
0.000000001
 43
0.00000001
 40
0.0
 40
0.0
 40
0.0
 40
0.0
 40
1.0
 40
1.0
 40
1.0
 40
1.0
 10
7.85404953340731
 20
30.22546938779905
 30
0.0
 10
8.303692188804778
 20
29.41921817244954
 30
0.0
 10
8.752424212806664
 20
28.61245515876924
 30
0.0
 10
9.200000000000031
 20
27.80504563417281
 30
0.0
  0
SPLINE
  5
1D8
330
1F
100
AcDbEntity
  8
1
  6
SLD-Solid
370
    25
100
AcDbSpline
210
0.0
220
0.0
230
1.0
 70
     8
 71
     3
 72
    14
 73
    10
 74
     0
 42
0.000000001
 43
0.00000001
 40
0.0
 40
0.0
 40
0.0
 40
0.0
 40
0.25
 40
0.25
 40
0.5
 40
0.5
 40
0.75
 40
0.75
 40
1.0
 40
1.0
 40
1.0
 40
1.0
 10
9.199999999998917
 20
25.27054331738513
 30
0.0
 10
9.169610391132208
 20
25.36219671402947
 30
0.0
 10
9.144652419509603
 20
25.44797517411545
 30
0.0
 10
9.109411114929548
 20
25.60359055831212
 30
0.0
 10
9.100075894724919
 20
25.66959440204699
 30
0.0
 10
9.099925023949814
 20
25.77434199055131
 30
0.0
 10
9.109375914768851
 20
25.81145009587543
 30
0.0
 10
9.144272722663887
 20
25.85500935243901
 30
0.0
 10
9.16955575262427
 20
25.86176202446131
 30
0.0
 10
9.200000000000033
 20
25.85691311136566
 30
0.0
  0
SPLINE
  5
1D9
330
1F
100
AcDbEntity
  8
1
  6
SLD-Solid
370
    25
100
AcDbSpline
210
0.0
220
0.0
230
1.0
 70
     8
 71
     3
 72
    12
 73
     8
 74
     0
 42
0.000000001
 43
0.00000001
 40
0.0
 40
0.0
 40
0.0
 40
0.0
 40
0.2499999999999984
 40
0.2499999999999984
 40
0.4999999999999969
 40
0.4999999999999969
 40
1.0
 40
1.0
 40
1.0
 40
1.0
 10
12.28000000000001
 20
-26.98706356756882
 30
0.0
 10
12.3797576251588
 20
-26.98706356756884
 30
0.0
 10
12.48041217798164
 20
-27.00843624414832
 30
0.0
 10
12.66352022573501
 20
-27.0892138443703
 30
0.0
 10
12.74662210573628
 20
-27.14844080533419
 30
0.0
 10
12.95377706693949
 20
-27.3689835197036
 30
0.0
 10
13.03
 20
-27.5690278551815
 30
0.0
 10
13.03
 20
-27.76916635406971
 30
0.0
  0
SPLINE
  5
1DA
330
1F
100
AcDbEntity
  8
1
  6
SLD-Solid
370
    25
100
AcDbSpline
210
0.0
220
0.0
230
1.0
 70
     8
 71
     3
 72
    18
 73
    14
 74
     0
 42
0.000000001
 43
0.00000001
 40
0.0
 40
0.0
 40
0.0
 40
0.0
 40
0.0624999999999983
 40
0.0624999999999983
 40
0.1249999999999966
 40
0.1249999999999966
 40
0.2499999999999938
 40
0.2499999999999938
 40
0.4999999999999959
 40
0.4999999999999959
 40
0.7499999999999979
 40
0.7499999999999979
 40
1.0
 40
1.0
 40
1.0
 40
1.0
 10
13.03000000000036
 20
25.28882228478211
 30
0.0
 10
13.03000000000036
 20
25.25845422870356
 30
0.0
 10
13.02749489038153
 20
25.2235844243417
 30
0.0
 10
13.01920268672242
 20
25.15482296737459
 30
0.0
 10
13.01359186100944
 20
25.12104898565237
 30
0.0
 10
12.99361738711129
 20
25.02074756626962
 30
0.0
 10
12.97668865169253
 20
24.95779435948031
 30
0.0
 10
12.91737158574223
 20
24.77496256517874
 30
0.0
 10
12.86564177103967
 20
24.66011878167492
 30
0.0
 10
12.74049543384718
 20
24.45045700081743
 30
0.0
 10
12.66639130892198
 20
24.35409856583138
 30
0.0
 10
12.49025684706088
 20
24.18769951882044
 30
0.0
 10
12.39180028213161
 20
24.12054595344067
 30
0.0
 10
12.28000000000129
 20
24.07805063523435
 30
0.0
  0
SPLINE
  5
1DB
330
1F
100
AcDbEntity
  8
1
  6
SLD-Solid
370
    25
100
AcDbSpline
210
0.0
220
0.0
230
1.0
 70
     8
 71
     3
 72
    14
 73
    10
 74
     0
 42
0.000000001
 43
0.00000001
 40
0.0
 40
0.0
 40
0.0
 40
0.0
 40
0.25
 40
0.25
 40
0.5
 40
0.5
 40
0.75
 40
0.75
 40
1.0
 40
1.0
 40
1.0
 40
1.0
 10
9.2
 20
-27.76916635406976
 30
0.0
 10
9.2
 20
-27.66854183645165
 30
0.0
 10
9.218753722673611
 20
-27.56842327754112
 30
0.0
 10
9.291517535812325
 20
-27.38167264562872
 30
0.0
 10
9.345885298656015
 20
-27.29482655372887
 30
0.0
 10
9.4827134536752
 20
-27.14914073715224
 30
0.0
 10
9.566479996683737
 20
-27.08925426891757
 30
0.0
 10
9.74908978763267
 20
-27.00861553825999
 30
0.0
 10
9.849941180320524
 20
-26.98706356756863
 30
0.0
 10
9.950000000001264
 20
-26.98706356756881
 30
0.0
  0
SPLINE
  5
1DC
330
1F
100
AcDbEntity
  8
1
  6
SLD-Solid
370
    25
100
AcDbSpline
210
0.0
220
0.0
230
1.0
 70
     8
 71
     3
 72
    16
 73
    12
 74
     0
 42
0.000000001
 43
0.00000001
 40
0.0
 40
0.0
 40
0.0
 40
0.0
 40
0.2500000000000015
 40
0.2500000000000015
 40
0.500000000000003
 40
0.500000000000003
 40
0.7500000000000044
 40
0.7500000000000044
 40
0.8750000000000022
 40
0.8750000000000022
 40
1.0
 40
1.0
 40
1.0
 40
1.0
 10
9.950000000001264
 20
24.0668597530442
 30
0.0
 10
9.840493351282301
 20
24.10694414130925
 30
0.0
 10
9.742786160773385
 20
24.17117631338119
 30
0.0
 10
9.567840382590495
 20
24.3309608363144
 30
0.0
 10
9.493988254028265
 20
24.42340952890721
 30
0.0
 10
9.367115049350577
 20
24.62793394074455
 30
0.0
 10
9.314523965069572
 20
24.73961559875828
 30
0.0
 10
9.253446937619024
 20
24.91971397324593
 30
0.0
 10
9.235893303123913
 20
24.98231479864191
 30
0.0
 10
9.209102989072852
 20
25.11253703191809
 30
0.0
 10
9.20000000000042
 20
25.18114365477708
 30
0.0
 10
9.200000000000363
 20
25.2401210769379
 30
0.0
  0
SPLINE
  5
1DD
330
1F
100
AcDbEntity
  8
1
  6
SLD-Solid
370
    25
100
AcDbSpline
210
0.0
220
0.0
230
1.0
 70
     8
 71
     3
 72
    12
 73
     8
 74
     0
 42
0.000000001
 43
0.00000001
 40
0.0
 40
0.0
 40
0.0
 40
0.0
 40
0.25
 40
0.25
 40
0.5
 40
0.5
 40
1.0
 40
1.0
 40
1.0
 40
1.0
 10
12.28000000000129
 20
24.07805063523435
 30
0.0
 10
12.11125565653914
 20
24.01391086354244
 30
0.0
 10
11.92801760594739
 20
23.96418277266271
 30
0.0
 10
11.53284005751316
 20
23.89473625632987
 30
0.0
 10
11.3277419038663
 20
23.87652150272299
 30
0.0
 10
10.70517895587215
 20
23.87317080568451
 30
0.0
 10
10.29199014189997
 20
23.94167588712289
 30
0.0
 10
9.950000000001264
 20
24.0668597530442
 30
0.0
  0
SPLINE
  5
1DE
330
1F
100
AcDbEntity
  8
1
  6
SLD-Solid
370
    25
100
AcDbSpline
210
0.0
220
0.0
230
1.0
 70
    24
 71
     2
 72
     6
 73
     3
 74
     0
 42
0.000000001
 43
0.00000001
 40
0.0
 40
0.0
 40
0.0
 40
0.5000000000000002
 40
0.5000000000000002
 40
0.5000000000000002
 10
19.05
 20
-22.41000000000002
 30
0.0
 10
19.11746327593937
 20
-22.41000000000001
 30
0.0
 10
19.18383413548057
 20
-22.40999999999999
 30
0.0
  0
SPLINE
  5
1DF
330
1F
100
AcDbEntity
  8
1
  6
SLD-Solid
370
    25
100
AcDbSpline
210
0.0
220
0.0
230
1.0
 70
    24
 71
     3
 72
     8
 73
     4
 74
     0
 42
0.000000001
 43
0.00000001
 40
0.5000000000000002
 40
0.5000000000000002
 40
0.5000000000000002
 40
0.5000000000000002
 40
0.7500000000000002
 40
0.7500000000000002
 40
0.7500000000000002
 40
0.7500000000000002
 10
19.18383413548057
 20
-22.40999999999999
 30
0.0
 10
19.21701956525114
 20
-22.41000000000001
 30
0.0
 10
19.25031263598455
 20
-22.41000000000001
 30
0.0
 10
19.27479260821969
 20
-22.41000000000001
 30
0.0
  0
SPLINE
  5
1E0
330
1F
100
AcDbEntity
  8
1
  6
SLD-Solid
370
    25
100
AcDbSpline
210
0.0
220
0.0
230
1.0
 70
    24
 71
     3
 72
     8
 73
     4
 74
     0
 42
0.000000001
 43
0.00000001
 40
0.7500000000000002
 40
0.7500000000000002
 40
0.7500000000000002
 40
0.7500000000000002
 40
0.8750000000000001
 40
0.8750000000000001
 40
0.8750000000000001
 40
0.8750000000000001
 10
19.27479260821969
 20
-22.41000000000001
 30
0.0
 10
19.28703259433727
 20
-22.41000000000001
 30
0.0
 10
19.29703904647191
 20
-22.41000000000001
 30
0.0
 10
19.30385998171415
 20
-22.41000000000001
 30
0.0
  0
SPLINE
  5
1E1
330
1F
100
AcDbEntity
  8
1
  6
SLD-Solid
370
    25
100
AcDbSpline
210
0.0
220
0.0
230
1.0
 70
    24
 71
     3
 72
     8
 73
     4
 74
     0
 42
0.000000001
 43
0.00000001
 40
0.8750000000000001
 40
0.8750000000000001
 40
0.8750000000000001
 40
0.8750000000000001
 40
0.9375000000000001
 40
0.9375000000000001
 40
0.9375000000000001
 40
0.9375000000000001
 10
19.30385998171415
 20
-22.41000000000001
 30
0.0
 10
19.30727044933526
 20
-22.41000000000001
 30
0.0
 10
19.3098894796463
 20
-22.41000000000001
 30
0.0
 10
19.31164470409434
 20
-22.41000000000001
 30
0.0
  0
SPLINE
  5
1E2
330
1F
100
AcDbEntity
  8
1
  6
SLD-Solid
370
    25
100
AcDbSpline
210
0.0
220
0.0
230
1.0
 70
    24
 71
     3
 72
     8
 73
     4
 74
     0
 42
0.000000001
 43
0.00000001
 40
0.9375000000000001
 40
0.9375000000000001
 40
0.9375000000000001
 40
0.9375000000000001
 40
1.0
 40
1.0
 40
1.0
 40
1.0
 10
19.31164470409434
 20
-22.41000000000001
 30
0.0
 10
19.31339992854241
 20
-22.40999999999999
 30
0.0
 10
19.31429083190615
 20
-22.41000000000001
 30
0.0
 10
19.31429024493909
 20
-22.41000000000001
 30
0.0
  0
SPLINE
  5
1E3
330
1F
100
AcDbEntity
  8
1
  6
SLD-Solid
370
    25
100
AcDbSpline
210
0.0
220
0.0
230
1.0
 70
     8
 71
     3
 72
    16
 73
    12
 74
     0
 42
0.000000001
 43
0.00000001
 40
0.0
 40
0.0
 40
0.0
 40
0.0
 40
0.125
 40
0.125
 40
0.25
 40
0.25
 40
0.5
 40
0.5
 40
0.75
 40
0.75
 40
1.0
 40
1.0
 40
1.0
 40
1.0
 10
9.200000000000031
 20
25.82649087091906
 30
0.0
 10
9.20000000000003
 20
25.76704453528219
 30
0.0
 10
9.209309779240229
 20
25.72460913603001
 30
0.0
 10
9.23628553908998
 20
25.66309575968362
 30
0.0
 10
9.253818395994097
 20
25.64221451078865
 30
0.0
 10
9.314732612350872
 20
25.59089236418538
 30
0.0
 10
9.367586350542481
 20
25.5716263880416
 30
0.0
 10
9.493923269647611
 20
25.54782523997986
 30
0.0
 10
9.568606186754785
 20
25.5438020492668
 30
0.0
 10
9.743190718990338
 20
25.55566084202213
 30
0.0
 10
9.840260492227317
 20
25.57101227172013
 30
0.0
 10
9.950000000000015
 20
25.60325879037599
 30
0.0
  0
SPLINE
  5
1E4
330
1F
100
AcDbEntity
  8
1
  6
SLD-Solid
370
    25
100
AcDbSpline
210
0.0
220
0.0
230
1.0
 70
     8
 71
     3
 72
    12
 73
     8
 74
     0
 42
0.000000001
 43
0.00000001
 40
0.0
 40
0.0
 40
0.0
 40
0.0
 40
0.2499999999999994
 40
0.2499999999999994
 40
0.4999999999999989
 40
0.4999999999999989
 40
1.0
 40
1.0
 40
1.0
 40
1.0
 10
9.950000000000015
 20
25.60325879037599
 30
0.0
 10
10.12099348269384
 20
25.6535045463633
 30
0.0
 10
10.30594493731549
 20
25.69087007490118
 30
0.0
 10
10.70348914958049
 20
25.74162454002532
 30
0.0
 10
10.90918343641383
 20
25.75391313067249
 30
0.0
 10
11.53176214943043
 20
25.75179790476193
 30
0.0
 10
11.94250893135804
 20
25.69754140003429
 30
0.0
 10
12.28000000000004
 20
25.59426208810603
 30
0.0
  0
SPLINE
  5
1E5
330
1F
100
AcDbEntity
  8
1
  6
SLD-Solid
370
    25
100
AcDbSpline
210
0.0
220
0.0
230
1.0
 70
     8
 71
     3
 72
    18
 73
    14
 74
     0
 42
0.000000001
 43
0.00000001
 40
0.0
 40
0.0
 40
0.0
 40
0.0
 40
0.2500000000000006
 40
0.2500000000000006
 40
0.5000000000000012
 40
0.5000000000000012
 40
0.7500000000000018
 40
0.7500000000000018
 40
0.8750000000000021
 40
0.8750000000000021
 40
0.9375000000000011
 40
0.9375000000000011
 40
1.0
 40
1.0
 40
1.0
 40
1.0
 10
12.28000000000004
 20
25.59426208810603
 30
0.0
 10
12.3915433948031
 20
25.56012748089476
 30
0.0
 10
12.49076613158672
 20
25.54318981789734
 30
0.0
 10
12.66653346245915
 20
25.52816909760165
 30
0.0
 10
12.74028542340615
 20
25.53041158029684
 30
0.0
 10
12.86605076853521
 20
25.54934151941308
 30
0.0
 10
12.91749996660364
 20
25.56531541934165
 30
0.0
 10
12.97688531868167
 20
25.60908469940351
 30
0.0
 10
12.99394905986494
 20
25.62703563897609
 30
0.0
 10
13.01360803438732
 20
25.66754728332328
 30
0.0
 10
13.01926149413289
 20
25.68358803034142
 30
0.0
 10
13.02752275857848
 20
25.72506394381625
 30
0.0
 10
13.03000000000003
 20
25.75103822857545
 30
0.0
 10
13.03000000000003
 20
25.78129773037291
 30
0.0
  0
SPLINE
  5
1E6
330
1F
100
AcDbEntity
  8
1
  6
SLD-Solid
370
    25
100
AcDbSpline
210
0.0
220
0.0
230
1.0
 70
     8
 71
     3
 72
    12
 73
     8
 74
     0
 42
0.000000001
 43
0.00000001
 40
0.0
 40
0.0
 40
0.0
 40
0.0
 40
0.2499999999999991
 40
0.2499999999999991
 40
0.4999999999999982
 40
0.4999999999999982
 40
1.0
 40
1.0
 40
1.0
 40
1.0
 10
9.2
 20
27.76916635406975
 30
0.0
 10
9.2
 20
27.66809333683724
 30
0.0
 10
9.218583298377256
 20
27.5689264133913
 30
0.0
 10
9.291549937975791
 20
27.38152387214674
 30
0.0
 10
9.34549688093282
 20
27.29531750692792
 30
0.0
 10
9.55107104167538
 20
27.07620366276164
 30
0.0
 10
9.748220416740102
 20
26.9870635675688
 30
0.0
 10
9.949999999999987
 20
26.98706356756881
 30
0.0
  0
SPLINE
  5
1E7
330
1F
100
AcDbEntity
  8
1
  6
SLD-Solid
370
    25
100
AcDbSpline
210
0.0
220
0.0
230
1.0
 70
     8
 71
     3
 72
    14
 73
    10
 74
     0
 42
0.000000001
 43
0.00000001
 40
0.0
 40
0.0
 40
0.0
 40
0.0
 40
0.25
 40
0.25
 40
0.5
 40
0.5
 40
0.75
 40
0.75
 40
1.0
 40
1.0
 40
1.0
 40
1.0
 10
12.28000000000001
 20
26.98706356756881
 30
0.0
 10
12.38041018140386
 20
26.9870635675688
 30
0.0
 10
12.48007417771603
 20
27.00821121867971
 30
0.0
 10
12.66478364882752
 20
27.08984749877595
 30
0.0
 10
12.74772062670419
 20
27.14949852632651
 30
0.0
 10
12.88443521562223
 20
27.29527278596964
 30
0.0
 10
12.93853405055463
 20
27.38169791130528
 30
0.0
 10
13.01142030969678
 20
27.56897740148013
 30
0.0
 10
13.03
 20
27.66812420510655
 30
0.0
 10
13.03
 20
27.76916635406975
 30
0.0
  0
SPLINE
  5
1E8
330
1F
100
AcDbEntity
  8
SK3
  6
SLD-Dashed
370
    18
100
AcDbSpline
210
0.0
220
0.0
230
1.0
 70
     8
 71
     3
 72
    30
 73
    26
 74
     0
 42
0.000000001
 43
0.00000001
 40
0.4999999999999971
 40
0.4999999999999971
 40
0.4999999999999971
 40
0.4999999999999971
 40
0.5624999999999977
 40
0.5624999999999977
 40
0.6249999999999981
 40
0.6249999999999981
 40
0.6562499999999984
 40
0.6562499999999984
 40
0.6874999999999987
 40
0.6874999999999987
 40
0.718749999999999
 40
0.718749999999999
 40
0.7499999999999992
 40
0.7499999999999992
 40
0.7812499999999994
 40
0.7812499999999994
 40
0.8124999999999998
 40
0.8124999999999998
 40
0.8749999999999998
 40
0.8749999999999998
 40
0.9374999999999999
 40
0.9374999999999999
 40
0.96875
 40
0.96875
 40
1.0
 40
1.0
 40
1.0
 40
1.0
 10
11.75479658556573
 20
-4.901433547105934
 30
0.0
 10
11.89746294966132
 20
-4.886411197664711
 30
0.0
 10
12.02884136644407
 20
-4.886974229786192
 30
0.0
 10
12.27243240561785
 20
-4.932317536304451
 30
0.0
 10
12.38574037094359
 20
-4.975421209748234
 30
0.0
 10
12.539475708453
 20
-5.103559339222866
 30
0.0
 10
12.58638543677661
 20
-5.156028957061215
 30
0.0
 10
12.66795201157341
 20
-5.291134993494206
 30
0.0
 10
12.70317196931762
 20
-5.375974586482819
 30
0.0
 10
12.74713654526595
 20
-5.58286198491411
 30
0.0
 10
12.75526091463637
 20
-5.705696917838718
 30
0.0
 10
12.73739776164136
 20
-5.968523156861118
 30
0.0
 10
12.71224833739216
 20
-6.103419156624206
 30
0.0
 10
12.64408666407786
 20
-6.357264662683472
 30
0.0
 10
12.60068164729126
 20
-6.478993458595601
 30
0.0
 10
12.50600924552238
 20
-6.704610974826185
 30
0.0
 10
12.45441331137413
 20
-6.809727668320977
 30
0.0
 10
12.2899062133226
 20
-7.109437894498881
 30
0.0
 10
12.17017846713216
 20
-7.284103436407841
 30
0.0
 10
11.91483731616863
 20
-7.597298819669203
 30
0.0
 10
11.77767665531765
 20
-7.737818016165223
 30
0.0
 10
11.54951158979961
 20
-7.918374112026484
 30
0.0
 10
11.46985276967112
 20
-7.973291374430619
 30
0.0
 10
11.29758630900469
 20
-8.069225810891208
 30
0.0
 10
11.20406269051036
 20
-8.110848935776536
 30
0.0
 10
11.10000000000001
 20
-8.139670393607947
 30
0.0
  0
SPLINE
  5
1E9
330
1F
100
AcDbEntity
  8
SK3
  6
SLD-Dashed
370
    18
100
AcDbSpline
210
0.0
220
0.0
230
1.0
 70
     8
 71
     3
 72
    34
 73
    30
 74
     0
 42
0.000000001
 43
0.00000001
 40
0.0
 40
0.0
 40
0.0
 40
0.0
 40
0.0312499999999996
 40
0.0312499999999996
 40
0.0624999999999992
 40
0.0624999999999992
 40
0.0937499999999988
 40
0.0937499999999988
 40
0.1249999999999985
 40
0.1249999999999985
 40
0.1562499999999982
 40
0.1562499999999982
 40
0.1874999999999979
 40
0.1874999999999979
 40
0.2499999999999979
 40
0.2499999999999979
 40
0.3124999999999978
 40
0.3124999999999978
 40
0.3437499999999977
 40
0.3437499999999977
 40
0.3749999999999976
 40
0.3749999999999976
 40
0.4062499999999975
 40
0.4062499999999975
 40
0.4374999999999973
 40
0.4374999999999973
 40
0.4687499999999972
 40
0.4687499999999972
 40
0.4999999999999971
 40
0.4999999999999971
 40
0.4999999999999971
 40
0.4999999999999971
 10
11.10000000000001
 20
-8.139670393607947
 30
0.0
 10
10.99593730948965
 20
-8.168491851439363
 30
0.0
 10
10.88327240143053
 20
-8.183619230956749
 30
0.0
 10
10.64024603173767
 20
-8.169996197171645
 30
0.0
 10
10.51600003630448
 20
-8.1409930617651
 30
0.0
 10
10.27540472633831
 20
-8.041511803988634
 30
0.0
 10
10.16352991293558
 20
-7.973785811074552
 30
0.0
 10
9.95664171922836
 20
-7.808864907520293
 30
0.0
 10
9.86514021175608
 20
-7.714409980823928
 30
0.0
 10
9.705479632928782
 20
-7.505675203818743
 30
0.0
 10
9.638640231842258
 20
-7.392601974747761
 30
0.0
 10
9.53414598644943
 20
-7.157373188583886
 30
0.0
 10
9.495668589618186
 20
-7.032517635178808
 30
0.0
 10
9.429144226770033
 20
-6.659799668562686
 30
0.0
 10
9.448570934642728
 20
-6.405979053005113
 30
0.0
 10
9.610438460184708
 20
-5.948466648519224
 30
0.0
 10
9.752910053168181
 20
-5.744009981362486
 30
0.0
 10
10.03367356462021
 20
-5.497500536354741
 30
0.0
 10
10.1372293865233
 20
-5.425546956212904
 30
0.0
 10
10.36592358660668
 20
-5.297018553104077
 30
0.0
 10
10.48785945052917
 20
-5.242562856658077
 30
0.0
 10
10.73642302172964
 20
-5.147912691227143
 30
0.0
 10
10.85648365715393
 20
-5.109640819744181
 30
0.0
 10
11.08061189675417
 20
-5.043111325123112
 30
0.0
 10
11.18022385975341
 20
-5.016231192190864
 30
0.0
 10
11.36576798793607
 20
-4.969815472118951
 30
0.0
 10
11.4505569433985
 20
-4.950785033120374
 30
0.0
 10
11.6091609189693
 20
-4.920394395500217
 30
0.0
 10
11.68346340351793
 20
-4.908944721826535
 30
0.0
 10
11.75479658556573
 20
-4.901433547105934
 30
0.0
  0
SPLINE
  5
1EA
330
1F
100
AcDbEntity
  8
SK3
  6
SLD-Dashed
370
    18
100
AcDbSpline
210
0.0
220
0.0
230
1.0
 70
     8
 71
     3
 72
    30
 73
    26
 74
     0
 42
0.000000001
 43
0.00000001
 40
0.4999999999999977
 40
0.4999999999999977
 40
0.4999999999999977
 40
0.4999999999999977
 40
0.5312499999999977
 40
0.5312499999999977
 40
0.5624999999999976
 40
0.5624999999999976
 40
0.6249999999999976
 40
0.6249999999999976
 40
0.6874999999999974
 40
0.6874999999999974
 40
0.7187499999999977
 40
0.7187499999999977
 40
0.7499999999999978
 40
0.7499999999999978
 40
0.781249999999998
 40
0.781249999999998
 40
0.8124999999999982
 40
0.8124999999999982
 40
0.8437499999999984
 40
0.8437499999999984
 40
0.8749999999999986
 40
0.8749999999999986
 40
0.9374999999999993
 40
0.9374999999999993
 40
1.0
 40
1.0
 40
1.0
 40
1.0
 10
9.528420299935433
 20
-8.783318638987486
 30
0.0
 10
9.563561233735419
 20
-8.863935054853203
 30
0.0
 10
9.607627266507032
 20
-8.927948620428339
 30
0.0
 10
9.70302702424504
 20
-9.02991315680237
 30
0.0
 10
9.7551658595878
 20
-9.069013533844462
 30
0.0
 10
9.920727180931483
 20
-9.161365608196956
 30
0.0
 10
10.03962982796815
 20
-9.189146893658648
 30
0.0
 10
10.29581948707685
 20
-9.20776112946159
 30
0.0
 10
10.43340974433163
 20
-9.197532970852961
 30
0.0
 10
10.66277322328793
 20
-9.159887465694737
 30
0.0
 10
10.74371097916556
 20
-9.143480319022103
 30
0.0
 10
10.91864535127572
 20
-9.10289441363147
 30
0.0
 10
11.01198337642656
 20
-9.079005870686094
 30
0.0
 10
11.22104536410176
 20
-9.02059910671637
 30
0.0
 10
11.33557343779477
 20
-8.986604712168617
 30
0.0
 10
11.57980302461464
 20
-8.902979810871834
 30
0.0
 10
11.70445599477363
 20
-8.854609275012844
 30
0.0
 10
11.94450363931204
 20
-8.738302937094135
 30
0.0
 10
12.05531700587899
 20
-8.672727087611985
 30
0.0
 10
12.25922745067754
 20
-8.52032559684357
 30
0.0
 10
12.35002701179844
 20
-8.435036721266158
 30
0.0
 10
12.58459907667488
 20
-8.152304640047161
 30
0.0
 10
12.68944177032681
 20
-7.926948099339554
 30
0.0
 10
12.77109851062198
 20
-7.442912699127661
 30
0.0
 10
12.74820534245737
 20
-7.186173862784494
 30
0.0
 10
12.66230763443389
 20
-6.940889607535652
 30
0.0
  0
SPLINE
  5
1EB
330
1F
100
AcDbEntity
  8
SK3
  6
SLD-Dashed
370
    18
100
AcDbSpline
210
0.0
220
0.0
230
1.0
 70
     8
 71
     3
 72
    34
 73
    30
 74
     0
 42
0.000000001
 43
0.00000001
 40
0.0
 40
0.0
 40
0.0
 40
0.0
 40
0.0312499999999997
 40
0.0312499999999997
 40
0.0624999999999995
 40
0.0624999999999995
 40
0.0937499999999992
 40
0.0937499999999992
 40
0.124999999999999
 40
0.124999999999999
 40
0.1562499999999987
 40
0.1562499999999987
 40
0.1874999999999984
 40
0.1874999999999984
 40
0.2499999999999982
 40
0.2499999999999982
 40
0.3124999999999979
 40
0.3124999999999979
 40
0.3437499999999978
 40
0.3437499999999978
 40
0.3749999999999978
 40
0.3749999999999978
 40
0.4062499999999978
 40
0.4062499999999978
 40
0.4374999999999977
 40
0.4374999999999977
 40
0.4687499999999977
 40
0.4687499999999977
 40
0.4999999999999977
 40
0.4999999999999977
 40
0.4999999999999977
 40
0.4999999999999977
 10
12.66230763443389
 20
-6.940889607535645
 30
0.0
 10
12.61935878042216
 20
-6.818247479911236
 30
0.0
 10
12.56229529856066
 20
-6.702062405426222
 30
0.0
 10
12.42103808962698
 20
-6.482980016463475
 30
0.0
 10
12.3359549142745
 20
-6.379752337446496
 30
0.0
 10
12.14618186397769
 20
-6.199831764960508
 30
0.0
 10
12.03922579636492
 20
-6.120673587225303
 30
0.0
 10
11.80824491388434
 20
-5.996443405511913
 30
0.0
 10
11.68389439480551
 20
-5.951950953011091
 30
0.0
 10
11.43804455248934
 20
-5.908952419297806
 30
0.0
 10
11.31731684279021
 20
-5.910654595408932
 30
0.0
 10
11.09745426351666
 20
-5.948127988753958
 30
0.0
 10
10.99815393168724
 20
-5.98260785307942
 30
0.0
 10
10.72267466537657
 20
-6.111713360853567
 30
0.0
 10
10.5718917600473
 20
-6.227019438453232
 30
0.0
 10
10.2885724862224
 20
-6.491284498769505
 30
0.0
 10
10.15786476490367
 20
-6.642104569644404
 30
0.0
 10
9.976005005593564
 20
-6.893749929925856
 30
0.0
 10
9.917635222666227
 20
-6.982205125338793
 30
0.0
 10
9.805404805610374
 20
-7.170924693447025
 30
0.0
 10
9.751060353100554
 20
-7.272111003090553
 30
0.0
 10
9.650448853514293
 20
-7.486812522722701
 30
0.0
 10
9.604326797725632
 20
-7.599530214338817
 30
0.0
 10
9.524388536729363
 20
-7.841923064473684
 30
0.0
 10
9.490665766297285
 20
-7.972450285447922
 30
0.0
 10
9.450224495380091
 20
-8.237810978297462
 30
0.0
 10
9.444739461343568
 20
-8.36989859677506
 30
0.0
 10
9.466585255233792
 20
-8.602871670374164
 30
0.0
 10
9.493279366135434
 20
-8.70270222312177
 30
0.0
 10
9.528420299935433
 20
-8.783318638987486
 30
0.0
  0
SPLINE
  5
1EC
330
1F
100
AcDbEntity
  8
1
  6
SLD-Dashed
370
    18
100
AcDbSpline
210
0.0
220
0.0
230
1.0
 70
    24
 71
     3
 72
     8
 73
     4
 74
     0
 42
0.000000001
 43
0.00000001
 40
0.0
 40
0.0
 40
0.0
 40
0.0
 40
0.5
 40
0.5
 40
0.5
 40
0.5
 10
19.31429024493909
 20
-22.41000000000001
 30
0.0
 10
19.31428561227381
 20
-22.41000000000001
 30
0.0
 10
19.25024171454993
 20
-22.41000000000001
 30
0.0
 10
19.18387404828385
 20
-22.41000000000001
 30
0.0
  0
SPLINE
  5
1ED
330
1F
100
AcDbEntity
  8
SK3
  6
SLD-Dashed
370
    18
100
AcDbSpline
210
0.0
220
0.0
230
1.0
 70
    24
 71
     2
 72
     6
 73
     3
 74
     0
 42
0.000000001
 43
0.00000001
 40
0.5
 40
0.5
 40
0.5
 40
1.0
 40
1.0
 40
1.0
 10
19.18387404828385
 20
-22.41000000000001
 30
0.0
 10
19.11750638201783
 20
-22.41000000000001
 30
0.0
 10
19.05
 20
-22.41000000000002
 30
0.0
  0
SPLINE
  5
1EE
330
1F
100
AcDbEntity
  8
1
  6
SLD-Dashed
370
    18
100
AcDbSpline
210
0.0
220
0.0
230
1.0
 70
    24
 71
     2
 72
     6
 73
     3
 74
     0
 42
0.000000001
 43
0.00000001
 40
0.0
 40
0.0
 40
0.0
 40
0.25
 40
0.25
 40
0.25
 10
3.200000000000008
 20
-22.41000000000004
 30
0.0
 10
3.170406995816624
 20
-22.41000000000003
 30
0.0
 10
3.14448132470381
 20
-22.41000000000001
 30
0.0
  0
SPLINE
  5
1EF
330
1F
100
AcDbEntity
  8
1
  6
SLD-Dashed
370
    18
100
AcDbSpline
210
0.0
220
0.0
230
1.0
 70
    24
 71
     3
 72
     8
 73
     4
 74
     0
 42
0.000000001
 43
0.00000001
 40
0.25
 40
0.25
 40
0.25
 40
0.25
 40
0.5
 40
0.5
 40
0.5
 40
0.5
 10
3.14448132470381
 20
-22.41000000000001
 30
0.0
 10
3.118555653590996
 20
-22.41000000000001
 30
0.0
 10
3.097084490555638
 20
-22.41000000000001
 30
0.0
 10
3.096615422637519
 20
-22.40999999999999
 30
0.0
  0
SPLINE
  5
1F0
330
1F
100
AcDbEntity
  8
1
  6
SLD-Dashed
370
    18
100
AcDbSpline
210
0.0
220
0.0
230
1.0
 70
    24
 71
     3
 72
     8
 73
     4
 74
     0
 42
0.000000001
 43
0.00000001
 40
0.5
 40
0.5
 40
0.5
 40
0.5
 40
0.5625
 40
0.5625
 40
0.5625
 40
0.5625
 10
3.096615422637519
 20
-22.40999999999999
 30
0.0
 10
3.096498155657976
 20
-22.41000000000001
 30
0.0
 10
3.097576707176336
 20
-22.41000000000001
 30
0.0
 10
3.099789717980542
 20
-22.41000000000001
 30
0.0
  0
SPLINE
  5
1F1
330
1F
100
AcDbEntity
  8
1
  6
SLD-Dashed
370
    18
100
AcDbSpline
210
0.0
220
0.0
230
1.0
 70
    24
 71
     3
 72
     8
 73
     4
 74
     0
 42
0.000000001
 43
0.00000001
 40
0.5625
 40
0.5625
 40
0.5625
 40
0.5625
 40
0.625
 40
0.625
 40
0.625
 40
0.625
 10
3.099789717980542
 20
-22.41000000000001
 30
0.0
 10
3.102002728784734
 20
-22.41000000000001
 30
0.0
 10
3.105345908570325
 20
-22.41000000000001
 30
0.0
 10
3.109607407038015
 20
-22.41000000000001
 30
0.0
  0
SPLINE
  5
1F2
330
1F
100
AcDbEntity
  8
1
  6
SLD-Dashed
370
    18
100
AcDbSpline
210
0.0
220
0.0
230
1.0
 70
    24
 71
     3
 72
     8
 73
     4
 74
     0
 42
0.000000001
 43
0.00000001
 40
0.625
 40
0.625
 40
0.625
 40
0.625
 40
0.75
 40
0.75
 40
0.75
 40
0.75
 10
3.109607407038015
 20
-22.41000000000001
 30
0.0
 10
3.118130403973379
 20
-22.41000000000001
 30
0.0
 10
3.130398007648125
 20
-22.41000000000001
 30
0.0
 10
3.143490990967584
 20
-22.41000000000001
 30
0.0
  0
SPLINE
  5
1F3
330
1F
100
AcDbEntity
  8
1
  6
SLD-Dashed
370
    18
100
AcDbSpline
210
0.0
220
0.0
230
1.0
 70
    24
 71
     2
 72
     6
 73
     3
 74
     0
 42
0.000000001
 43
0.00000001
 40
0.75
 40
0.75
 40
0.75
 40
1.0
 40
1.0
 40
1.0
 10
3.143490990967584
 20
-22.41000000000001
 30
0.0
 10
3.169676957606518
 20
-22.41000000000003
 30
0.0
 10
3.200000000000008
 20
-22.41000000000004
 30
0.0
  0
SPLINE
  5
1F4
330
1F
100
AcDbEntity
  8
SK3
  6
SLD-Dashed
370
    18
100
AcDbSpline
210
0.0
220
0.0
230
1.0
 70
     8
 71
     3
 72
    30
 73
    26
 74
     0
 42
0.000000001
 43
0.00000001
 40
0.4999999999999998
 40
0.4999999999999998
 40
0.4999999999999998
 40
0.4999999999999998
 40
0.5624999999999997
 40
0.5624999999999997
 40
0.5937499999999997
 40
0.5937499999999997
 40
0.6249999999999997
 40
0.6249999999999997
 40
0.6562499999999996
 40
0.6562499999999996
 40
0.6874999999999993
 40
0.6874999999999993
 40
0.7499999999999991
 40
0.7499999999999991
 40
0.7812499999999991
 40
0.7812499999999991
 40
0.812499999999999
 40
0.812499999999999
 40
0.8749999999999993
 40
0.8749999999999993
 40
0.9374999999999996
 40
0.9374999999999996
 40
0.9687499999999998
 40
0.9687499999999998
 40
1.0
 40
1.0
 40
1.0
 40
1.0
 10
11.10070155322193
 20
-0.6867806446436351
 30
0.0
 10
10.88487328526099
 20
-0.68668649530116
 30
0.0
 10
10.66695993667191
 20
-0.7314091515492407
 30
0.0
 10
10.36883069489548
 20
-0.8573324036223671
 30
0.0
 10
10.27232660505549
 20
-0.9097769735048402
 30
0.0
 10
10.09316301813305
 20
-1.030880210906797
 30
0.0
 10
10.01035801314715
 20
-1.099273863572385
 30
0.0
 10
9.85809200026895
 20
-1.251261280631556
 30
0.0
 10
9.788700375084947
 20
-1.335215891007234
 30
0.0
 10
9.669334047265762
 20
-1.511088629166789
 30
0.0
 10
9.618452284373927
 20
-1.603797750250983
 30
0.0
 10
9.493171541254702
 20
-1.896347059398749
 30
0.0
 10
9.450117602560953
 20
-2.101924731596837
 30
0.0
 10
9.449941558347344
 20
-2.408808799904342
 30
0.0
 10
9.460551032657152
 20
-2.508823236901846
 30
0.0
 10
9.502621940844946
 20
-2.704498007569868
 30
0.0
 10
9.53460621752955
 20
-2.80087841657483
 30
0.0
 10
9.658478333209805
 20
-3.071908588173945
 30
0.0
 10
9.781198670787736
 20
-3.235006337226946
 30
0.0
 10
10.08392744642476
 20
-3.50163398124493
 30
0.0
 10
10.26708339298824
 20
-3.607940944973846
 30
0.0
 10
10.56490438050341
 20
-3.714664125739016
 30
0.0
 10
10.66997524794502
 20
-3.742182811963958
 30
0.0
 10
10.88266147594885
 20
-3.778571214008576
 30
0.0
 10
10.99054595855786
 20
-3.787766140220146
 30
0.0
 10
11.10000000000001
 20
-3.787766140220146
 30
0.0
  0
SPLINE
  5
1F5
330
1F
100
AcDbEntity
  8
SK3
  6
SLD-Dashed
370
    18
100
AcDbSpline
210
0.0
220
0.0
230
1.0
 70
     8
 71
     3
 72
    32
 73
    28
 74
     0
 42
0.000000001
 43
0.00000001
 40
0.0
 40
0.0
 40
0.0
 40
0.0
 40
0.0312499999999999
 40
0.0312499999999999
 40
0.0624999999999997
 40
0.0624999999999997
 40
0.0937499999999996
 40
0.0937499999999996
 40
0.1249999999999994
 40
0.1249999999999994
 40
0.1874999999999992
 40
0.1874999999999992
 40
0.249999999999999
 40
0.249999999999999
 40
0.2812499999999989
 40
0.2812499999999989
 40
0.312499999999999
 40
0.312499999999999
 40
0.374999999999999
 40
0.374999999999999
 40
0.4062499999999992
 40
0.4062499999999992
 40
0.4374999999999994
 40
0.4374999999999994
 40
0.4687499999999996
 40
0.4687499999999996
 40
0.4999999999999998
 40
0.4999999999999998
 40
0.4999999999999998
 40
0.4999999999999998
 10
11.10000000000001
 20
-3.787766140220146
 30
0.0
 10
11.20945404144216
 20
-3.787766140220146
 30
0.0
 10
11.31699251505766
 20
-3.77857332845638
 30
0.0
 10
11.52842270682135
 20
-3.742513465759767
 30
0.0
 10
11.63343468118848
 20
-3.715182626605938
 30
0.0
 10
11.83302988080075
 20
-3.643810849968475
 30
0.0
 10
11.92762916003133
 20
-3.60005371977918
 30
0.0
 10
12.10666204146889
 20
-3.496063555093999
 30
0.0
 10
12.19108958741752
 20
-3.435494674721283
 30
0.0
 10
12.41840943186723
 20
-3.235487194488872
 30
0.0
 10
12.5412128042801
 20
-3.072211780658828
 30
0.0
 10
12.70609668334556
 20
-2.712191703584062
 30
0.0
 10
12.7498658188326
 20
-2.511406281215621
 30
0.0
 10
12.75006661590682
 20
-2.206762191573445
 30
0.0
 10
12.73925303931704
 20
-2.102663743045095
 30
0.0
 10
12.69696665105528
 20
-1.900023631118401
 30
0.0
 10
12.66568409163503
 20
-1.800628375409986
 30
0.0
 10
12.5410933260152
 20
-1.5086223880744
 30
0.0
 10
12.4196848805707
 20
-1.329150513223791
 30
0.0
 10
12.19032108316569
 20
-1.09982563399582
 30
0.0
 10
12.10747830050284
 20
-1.031413659325513
 30
0.0
 10
11.92916892541129
 20
-0.9106890902003186
 30
0.0
 10
11.83255025366053
 20
-0.8580074652528233
 30
0.0
 10
11.63340217743152
 20
-0.7737092118759934
 30
0.0
 10
11.53055350372277
 20
-0.7415889227052261
 30
0.0
 10
11.31815535720089
 20
-0.6979755792709332
 30
0.0
 10
11.2086156872024
 20
-0.6868277193148655
 30
0.0
 10
11.10070155322193
 20
-0.6867806446436351
 30
0.0
  0
SPLINE
  5
1F6
330
1F
100
AcDbEntity
  8
SK3
  6
SLD-Dashed
370
    18
100
AcDbSpline
210
0.0
220
0.0
230
1.0
 70
     8
 71
     3
 72
     8
 73
     4
 74
     0
 42
0.000000001
 43
0.00000001
 40
0.0
 40
0.0
 40
0.0
 40
0.0
 40
1.0
 40
1.0
 40
1.0
 40
1.0
 10
37.98502022693786
 20
15.91825063948025
 30
0.0
 10
38.00326401225101
 20
15.91025067466098
 30
0.0
 10
38.05126002202383
 20
15.88890145015778
 30
0.0
 10
38.12874674154287
 20
15.85902532806253
 30
0.0
  0
SPLINE
  5
1F7
330
1F
100
AcDbEntity
  8
SK3
  6
SLD-Dashed
370
    18
100
AcDbSpline
210
0.0
220
0.0
230
1.0
 70
     8
 71
     3
 72
    10
 73
     6
 74
     0
 42
0.000000001
 43
0.00000001
 40
0.0
 40
0.0
 40
0.0
 40
0.0
 40
0.5
 40
0.5
 40
1.0
 40
1.0
 40
1.0
 40
1.0
 10
3.69999999999999
 20
25.20500000000006
 30
0.0
 10
3.69999999999997
 20
25.2744618870064
 30
0.0
 10
3.679668344673007
 20
25.34157876899192
 30
0.0
 10
3.621774626393168
 20
25.46534569655893
 30
0.0
 10
3.584972825281691
 20
25.52292618711533
 30
0.0
 10
3.545388844997947
 20
25.57898258716477
 30
0.0
  0
SPLINE
  5
1F8
330
1F
100
AcDbEntity
  8
SK3
  6
SLD-Dashed
370
    18
100
AcDbSpline
210
0.0
220
0.0
230
1.0
 70
     8
 71
     3
 72
    10
 73
     6
 74
     0
 42
0.000000001
 43
0.00000001
 40
0.0
 40
0.0
 40
0.0
 40
0.0
 40
0.5
 40
0.5
 40
1.0
 40
1.0
 40
1.0
 40
1.0
 10
18.70470837592286
 20
25.57912025275681
 30
0.0
 10
18.66514338213328
 20
25.52310107590328
 30
0.0
 10
18.62842911249972
 20
25.46562249807943
 30
0.0
 10
18.57073957446644
 20
25.34260791126144
 30
0.0
 10
18.55000000000003
 20
25.27482658978054
 30
0.0
 10
18.55000000000003
 20
25.20500000000006
 30
0.0
  0
SPLINE
  5
1F9
330
1F
100
AcDbEntity
  8
SK3
  6
SLD-Dashed
370
    18
100
AcDbSpline
210
0.0
220
0.0
230
1.0
 70
    24
 71
     3
 72
     8
 73
     4
 74
     0
 42
0.000000001
 43
0.00000001
 40
0.0
 40
0.0
 40
0.0
 40
0.0
 40
0.4999999999999987
 40
0.4999999999999987
 40
0.4999999999999987
 40
0.4999999999999987
 10
19.05
 20
-22.41000000000002
 30
0.0
 10
18.97247827222663
 20
-22.41000000000001
 30
0.0
 10
18.89661835205909
 20
-22.41000000000001
 30
0.0
 10
18.83038739399197
 20
-22.40999999999999
 30
0.0
  0
SPLINE
  5
1FA
330
1F
100
AcDbEntity
  8
SK3
  6
SLD-Dashed
370
    18
100
AcDbSpline
210
0.0
220
0.0
230
1.0
 70
    24
 71
     3
 72
     8
 73
     4
 74
     0
 42
0.000000001
 43
0.00000001
 40
0.4999999999999987
 40
0.4999999999999987
 40
0.4999999999999987
 40
0.4999999999999987
 40
0.7499999999999993
 40
0.7499999999999993
 40
0.7499999999999993
 40
0.7499999999999993
 10
18.83038739399197
 20
-22.40999999999999
 30
0.0
 10
18.7972719149584
 20
-22.40999999999999
 30
0.0
 10
18.76669863834139
 20
-22.41000000000001
 30
0.0
 10
18.74342192288898
 20
-22.41000000000001
 30
0.0
  0
SPLINE
  5
1FB
330
1F
100
AcDbEntity
  8
SK3
  6
SLD-Dashed
370
    18
100
AcDbSpline
210
0.0
220
0.0
230
1.0
 70
    24
 71
     2
 72
     6
 73
     3
 74
     0
 42
0.000000001
 43
0.00000001
 40
0.7499999999999993
 40
0.7499999999999993
 40
0.7499999999999993
 40
1.0
 40
1.0
 40
1.0
 10
18.74342192288898
 20
-22.41000000000001
 30
0.0
 10
18.72014520743663
 20
-22.41000000000001
 30
0.0
 10
18.70461115500192
 20
-22.41000000000001
 30
0.0
  0
SPLINE
  5
1FC
330
1F
100
AcDbEntity
  8
1
  6
SLD-Dashed
370
    18
100
AcDbSpline
210
0.0
220
0.0
230
1.0
 70
    24
 71
     2
 72
     6
 73
     3
 74
     0
 42
0.000000001
 43
0.00000001
 40
0.0
 40
0.0
 40
0.0
 40
0.2500000000000002
 40
0.2500000000000002
 40
0.2500000000000002
 10
3.545291624077157
 20
-22.41000000000001
 30
0.0
 10
3.529781518569377
 20
-22.41000000000001
 30
0.0
 10
3.506264354048619
 20
-22.41000000000001
 30
0.0
  0
SPLINE
  5
1FD
330
1F
100
AcDbEntity
  8
1
  6
SLD-Dashed
370
    18
100
AcDbSpline
210
0.0
220
0.0
230
1.0
 70
    24
 71
     3
 72
     8
 73
     4
 74
     0
 42
0.000000001
 43
0.00000001
 40
0.2500000000000002
 40
0.2500000000000002
 40
0.2500000000000002
 40
0.2500000000000002
 40
0.5000000000000004
 40
0.5000000000000004
 40
0.5000000000000004
 40
0.5000000000000004
 10
3.506264354048619
 20
-22.41000000000001
 30
0.0
 10
3.482747189527874
 20
-22.41000000000007
 30
0.0
 10
3.452323510010763
 20
-22.41000000000015
 30
0.0
 10
3.419371480420971
 20
-22.41000000000023
 30
0.0
  0
SPLINE
  5
1FE
330
1F
100
AcDbEntity
  8
1
  6
SLD-Dashed
370
    18
100
AcDbSpline
210
0.0
220
0.0
230
1.0
 70
    24
 71
     3
 72
     8
 73
     4
 74
     0
 42
0.000000001
 43
0.00000001
 40
0.5000000000000004
 40
0.5000000000000004
 40
0.5000000000000004
 40
0.5000000000000004
 40
1.0
 40
1.0
 40
1.0
 40
1.0
 10
3.419371480420971
 20
-22.41000000000023
 30
0.0
 10
3.353467421241402
 20
-22.41000000000017
 30
0.0
 10
3.27748356546001
 20
-22.41000000000011
 30
0.0
 10
3.200000000000008
 20
-22.41000000000004
 30
0.0
  0
SPLINE
  5
1FF
330
1F
100
AcDbEntity
  8
SK3
  6
SLD-Dashed
370
    18
100
AcDbSpline
210
0.0
220
0.0
230
1.0
 70
     8
 71
     3
 72
    40
 73
    36
 74
     0
 42
0.000000001
 43
0.00000001
 40
0.0
 40
0.0
 40
0.0
 40
0.0
 40
0.0126129321449816
 40
0.0314976481339604
 40
0.0629183966702564
 40
0.0880663439714168
 40
0.1258663548219043
 40
0.1545361786951687
 40
0.1972635113751465
 40
0.2185774264758751
 40
0.2505499734499138
 40
0.2790323571745755
 40
0.3220275475257124
 40
0.3436168159336463
 40
0.3758133620275749
 40
0.404289809506831
 40
0.4468993710431156
 40
0.468210972392158
 40
0.5002437124696447
 40
0.5288533887317777
 40
0.5719828275869667
 40
0.5934420637179458
 40
0.6254916984483699
 40
0.6539107272569499
 40
0.6965262692674994
 40
0.7178823906336999
 40
0.7500313093276819
 40
0.7787800102949101
 40
0.8217645159398103
 40
0.8431483194632992
 40
0.8751517844153629
 40
0.9000181010942334
 40
0.9373587731677226
 40
0.9685909586685477
 40
1.0
 40
1.0
 40
1.0
 40
1.0
 10
3.949999999998913
 20
-30.2255814201236
 30
0.0
 10
3.947274304054435
 20
-30.22556434752343
 30
0.0
 10
3.940467559136421
 20
-30.22552171296812
 30
0.0
 10
3.926878079312857
 20
-30.2250044970339
 30
0.0
 10
3.910614550228702
 20
-30.22373214657325
 30
0.0
 10
3.890377361763564
 20
-30.22117483723314
 30
0.0
 10
3.870876571852047
 20
-30.21766990056469
 30
0.0
 10
3.847909402640806
 20
-30.21222207486604
 30
0.0
 10
3.828703761990084
 20
-30.20644931168601
 30
0.0
 10
3.809172441364902
 20
-30.19943885792487
 30
0.0
 10
3.792810014292199
 20
-30.19274290251863
 30
0.0
 10
3.772556787560234
 20
-30.18326307338681
 30
0.0
 10
3.754852229733858
 20
-30.17368149207812
 30
0.0
 10
3.737001129755929
 20
-30.16277896347311
 30
0.0
 10
3.722237930658994
 20
-30.15285978974806
 30
0.0
 10
3.704336292931802
 20
-30.13951958199215
 30
0.0
 10
3.689010882644334
 20
-30.12669241146886
 30
0.0
 10
3.673804931859087
 20
-30.11259090121806
 30
0.0
 10
3.661328526176227
 20
-30.10000934793182
 30
0.0
 10
3.646311367638357
 20
-30.08334675455451
 30
0.0
 10
3.633674708738411
 20
-30.06764146706179
 30
0.0
 10
3.621410566074518
 20
-30.05073531891781
 30
0.0
 10
3.61161122362894
 20
-30.03598007668933
 30
0.0
 10
3.600156512781675
 20
-30.01686769647027
 30
0.0
 10
3.590829750079546
 20
-29.99919574996679
 30
0.0
 10
3.582035812874655
 20
-29.98037484052062
 30
0.0
 10
3.575165778815601
 20
-29.96397246361066
 30
0.0
 10
3.567449829656538
 20
-29.94288522109269
 30
0.0
 10
3.561558066370706
 20
-29.92362739013727
 30
0.0
 10
3.556428567390841
 20
-29.90344062128827
 30
0.0
 10
3.552918981595651
 20
-29.88689085311454
 30
0.0
 10
3.549536425733839
 20
-29.86681061568511
 30
0.0
 10
3.547124737183378
 20
-29.84675343612377
 30
0.0
 10
3.545564419127047
 20
-29.82519260420114
 30
0.0
 10
3.545382726751277
 20
-29.81165457437736
 30
0.0
 10
3.545291624076082
 20
-29.80486644841329
 30
0.0
  0
SPLINE
  5
200
330
1F
100
AcDbEntity
  8
SK3
  6
SLD-Dashed
370
    18
100
AcDbSpline
210
0.0
220
0.0
230
1.0
 70
     8
 71
     3
 72
    40
 73
    36
 74
     0
 42
0.000000001
 43
0.00000001
 40
0.0
 40
0.0
 40
0.0
 40
0.0
 40
0.0314214559572227
 40
0.0627294389671943
 40
0.0877405066521885
 40
0.125275232669724
 40
0.1539551384600139
 40
0.1970430837597965
 40
0.2184753360378567
 40
0.2505176110611755
 40
0.2789492345937477
 40
0.3216198597593979
 40
0.3430128235413608
 40
0.3752634384750789
 40
0.4040010771804361
 40
0.4468656794915655
 40
0.4682159459362438
 40
0.5002096454815023
 40
0.5286754137344519
 40
0.5715400247765465
 40
0.5931009716299148
 40
0.6253883780511632
 40
0.6539191343952845
 40
0.696591424456682
 40
0.7179237821488482
 40
0.749974649427047
 40
0.7785976316863411
 40
0.795854339812784
 40
0.8217160693566484
 40
0.8431552865480455
 40
0.8751886732441913
 40
0.9000580147531466
 40
0.9373794059838183
 40
0.9685930788650419
 40
0.9999999999999999
 40
0.9999999999999999
 40
0.9999999999999999
 40
0.9999999999999999
 10
18.70461115500192
 20
-29.8048552741984
 30
0.0
 10
18.70451980286351
 20
-29.81164440520547
 30
0.0
 10
18.70433742848852
 20
-29.82519814949179
 30
0.0
 10
18.70296728595201
 20
-29.84411564286003
 30
0.0
 10
18.70072137877139
 20
-29.8642704379547
 30
0.0
 10
18.69761618492969
 20
-29.88374590039355
 30
0.0
 10
18.69275878580929
 20
-29.90686111791568
 30
0.0
 10
18.68756401153336
 20
-29.92633239392292
 30
0.0
 10
18.6812196607601
 20
-29.94620899181276
 30
0.0
 10
18.67516357609368
 20
-29.96284451017633
 30
0.0
 10
18.66659391017357
 20
-29.9834210419252
 30
0.0
 10
18.65792216957785
 20
-30.00144320562834
 30
0.0
 10
18.64799759935261
 20
-30.01973532130568
 30
0.0
 10
18.63887055578691
 20
-30.03502499592458
 30
0.0
 10
18.62647938435723
 20
-30.05373739732936
 30
0.0
 10
18.61447418288871
 20
-30.06985792745572
 30
0.0
 10
18.60124205632123
 20
-30.08589113399746
 30
0.0
 10
18.58942860682681
 20
-30.09904955418359
 30
0.0
 10
18.57374043191444
 20
-30.11493869793073
 30
0.0
 10
18.55884768057943
 20
-30.12841850147777
 30
0.0
 10
18.54265426161457
 20
-30.14162746302954
 30
0.0
 10
18.52838800292801
 20
-30.15228399886076
 30
0.0
 10
18.50983571493524
 20
-30.16477481501635
 30
0.0
 10
18.49262445031484
 20
-30.17498291257688
 30
0.0
 10
18.47424607318986
 20
-30.1846280460551
 30
0.0
 10
18.45820753870477
 20
-30.1921766794648
 30
0.0
 10
18.44263074348686
 20
-30.19858412922857
 30
0.0
 10
18.4280832437388
 20
-30.20393768674263
 30
0.0
 10
18.41482664955695
 20
-30.20828861199138
 30
0.0
 10
18.3983427498559
 20
-30.21299666641592
 30
0.0
 10
18.38186940102375
 20
-30.21692139734203
 30
0.0
 10
18.36186218647022
 20
-30.2207080512395
 30
0.0
 10
18.34185224742004
 20
-30.2234114028093
 30
0.0
 10
18.32031695323612
 20
-30.22516290854392
 30
0.0
 10
18.30678623642203
 20
-30.22536701808552
 30
0.0
 10
18.3
 20
-30.22546938779914
 30
0.0
  0
SPLINE
  5
201
330
1F
100
AcDbEntity
  8
SK3
  6
SLD-Dashed
370
    18
100
AcDbSpline
210
0.0
220
0.0
230
1.0
 70
     8
 71
     3
 72
    40
 73
    36
 74
     0
 42
0.000000001
 43
0.00000001
 40
0.0
 40
0.0
 40
0.0
 40
0.0
 40
0.0125929119920853
 40
0.0314096195346373
 40
0.0626234169499198
 40
0.0875147363747587
 40
0.124814412830725
 40
0.1532834083387407
 40
0.1962265830891685
 40
0.2178107992109856
 40
0.2500224951329321
 40
0.2785169301552057
 40
0.3211718523043689
 40
0.3425182663517161
 40
0.3746092478105291
 40
0.4033018002026093
 40
0.4463503818994342
 40
0.4677602234265854
 40
0.4997883410590171
 40
0.5282270395863745
 40
0.5709521530205331
 40
0.5924138618617291
 40
0.6247350591047612
 40
0.6534144483970801
 40
0.6961683199419044
 40
0.7174969314503464
 40
0.7494813527194152
 40
0.7779588669976988
 40
0.8208766717687367
 40
0.8424514691504715
 40
0.874724282179473
 40
0.8997563983109313
 40
0.9372703102803501
 40
0.968578418532575
 40
0.9999999999999999
 40
0.9999999999999999
 40
0.9999999999999999
 40
0.9999999999999999
 10
18.3
 20
30.2255814201264
 30
0.0
 10
18.30272136951243
 20
30.2255644174685
 30
0.0
 10
18.30950909113325
 20
30.22552200892815
 30
0.0
 10
18.32303491151129
 20
30.22500878447086
 30
0.0
 10
18.33918410220826
 20
30.22374990827884
 30
0.0
 10
18.35921637335285
 20
30.22123374888839
 30
0.0
 10
18.37851743465278
 20
30.21779055348819
 30
0.0
 10
18.4013925941177
 20
30.21241015713829
 30
0.0
 10
18.42066868063112
 20
30.20665667098935
 30
0.0
 10
18.44035778154608
 20
30.1996216006493
 30
0.0
 10
18.45683219318451
 20
30.19290122073894
 30
0.0
 10
18.47707551770182
 20
30.18344563237709
 30
0.0
 10
18.49468238340836
 20
30.17394373601333
 30
0.0
 10
18.51242282863931
 20
30.16314575471341
 30
0.0
 10
18.52718102114116
 20
30.15327064640552
 30
0.0
 10
18.54520190007998
 20
30.13989144466212
 30
0.0
 10
18.56066753372128
 20
30.1269774001082
 30
0.0
 10
18.57597030022935
 20
30.11281096127926
 30
0.0
 10
18.58844277986747
 20
30.10024903998077
 30
0.0
 10
18.60339048841035
 20
30.08369276015745
 30
0.0
 10
18.61596948562733
 20
30.06810049270645
 30
0.0
 10
18.62824307125508
 20
30.05123600708182
 30
0.0
 10
18.63812738344198
 20
30.03639837328907
 30
0.0
 10
18.64967535556759
 20
30.01717281850425
 30
0.0
 10
18.65905060754959
 20
29.99943559548715
 30
0.0
 10
18.66785100498268
 20
29.98063051707893
 30
0.0
 10
18.67469312836915
 20
29.96432508828282
 30
0.0
 10
18.68239354934313
 20
29.94334796470476
 30
0.0
 10
18.68830098830935
 20
29.92412819400953
 30
0.0
 10
18.69347515991063
 20
29.90386495846921
 30
0.0
 10
18.69702701390045
 20
29.88718562683121
 30
0.0
 10
18.70044011360975
 20
29.86697716337643
 30
0.0
 10
18.70287111134992
 20
29.84683182165026
 30
0.0
 10
18.70443405316872
 20
29.82521437831679
 30
0.0
 10
18.70461682479816
 20
29.81165726630969
 30
0.0
 10
18.70470837592284
 20
29.80486644841631
 30
0.0
  0
SPLINE
  5
202
330
1F
100
AcDbEntity
  8
SK3
  6
SLD-Dashed
370
    18
100
AcDbSpline
210
0.0
220
0.0
230
1.0
 70
     8
 71
     3
 72
    39
 73
    35
 74
     0
 42
0.000000001
 43
0.00000001
 40
0.0
 40
0.0
 40
0.0
 40
0.0
 40
0.0314091160307674
 40
0.0626413758641538
 40
0.0875470935131885
 40
0.1248485138287456
 40
0.1532930400450731
 40
0.1960941157944613
 40
0.2176225947738233
 40
0.2499693772004398
 40
0.2785546285585068
 40
0.3212364873026817
 40
0.3425405354923858
 40
0.3745092858974068
 40
0.4029918411019298
 40
0.4459785689856149
 40
0.4675618916159466
 40
0.4997576608210499
 40
0.5282368343000431
 40
0.5708480092884092
 40
0.5921584935845995
 40
0.6241883328452476
 40
0.6527986190299354
 40
0.6959401501309849
 40
0.7174023419155745
 40
0.7494519752642005
 40
0.7778741158300017
 40
0.8205144520917228
 40
0.8418962920619149
 40
0.8741359236783777
 40
0.8993502252909598
 40
0.9370840470446206
 40
0.9685048711195197
 40
1.0
 40
1.0
 40
1.0
 40
1.0
 10
3.545388844997949
 20
29.80485527419822
 30
0.0
 10
3.545479748550551
 20
29.81164171345381
 30
0.0
 10
3.545661043802572
 20
29.82517637936962
 30
0.0
 10
3.547029433803315
 20
29.84405190465709
 30
0.0
 10
3.549258968233795
 20
29.86411824570155
 30
0.0
 10
3.552336224857495
 20
29.88347227622578
 30
0.0
 10
3.557141779746726
 20
29.90643124843554
 30
0.0
 10
3.562288225622173
 20
29.9258197128242
 30
0.0
 10
3.568614089357717
 20
29.9457279096632
 30
0.0
 10
3.574692956926409
 20
29.96248267210255
 30
0.0
 10
3.583287776048098
 20
29.98315850998389
 30
0.0
 10
3.59195501531224
 20
30.0012009056766
 30
0.0
 10
3.601831018727626
 20
30.01943081107643
 30
0.0
 10
3.610874012133403
 20
30.03461278108221
 30
0.0
 10
3.623189627258757
 20
30.05326734966757
 30
0.0
 10
3.635184378154355
 20
30.06942261759874
 30
0.0
 10
3.648473969075876
 20
30.08556438898105
 30
0.0
 10
3.66034015734035
 20
30.09880574838224
 30
0.0
 10
3.676012531497218
 20
30.11469877887864
 30
0.0
 10
3.690813818886909
 20
30.12812096686806
 30
0.0
 10
3.706862089264385
 20
30.14124723286358
 30
0.0
 10
3.721035740664466
 20
30.15187245989077
 30
0.0
 10
3.739615920455555
 20
30.1644342737751
 30
0.0
 10
3.756939716856917
 20
30.1747409054124
 30
0.0
 10
3.775422312926251
 20
30.18446497823752
 30
0.0
 10
3.79144104293602
 20
30.19201976729597
 30
0.0
 10
3.812039955628064
 20
30.20051935318394
 30
0.0
 10
3.830933874073432
 20
30.20705284128367
 30
0.0
 10
3.850922478500731
 20
30.2128058501302
 30
0.0
 10
3.867492347984377
 20
30.21678677988683
 30
0.0
 10
3.887698638249892
 20
30.22064109222349
 30
0.0
 10
3.907913014965722
 20
30.22338985618054
 30
0.0
 10
3.929600305356967
 20
30.22516034748681
 30
0.0
 10
3.943194750029202
 20
30.22536629328648
 30
0.0
 10
3.949999999999967
 20
30.22546938779905
 30
0.0
  0
SPLINE
  5
203
330
1F
100
AcDbEntity
  8
SK3
  6
SLD-Dashed
370
    18
100
AcDbSpline
210
0.0
220
0.0
230
1.0
 70
     8
 71
     3
 72
    30
 73
    26
 74
     0
 42
0.000000001
 43
0.00000001
 40
0.5000000000000016
 40
0.5000000000000016
 40
0.5000000000000016
 40
0.5000000000000016
 40
0.5625000000000014
 40
0.5625000000000014
 40
0.5937500000000014
 40
0.5937500000000014
 40
0.6250000000000013
 40
0.6250000000000013
 40
0.6562500000000013
 40
0.6562500000000013
 40
0.6875000000000012
 40
0.6875000000000012
 40
0.7500000000000009
 40
0.7500000000000009
 40
0.7812500000000007
 40
0.7812500000000007
 40
0.8125000000000006
 40
0.8125000000000006
 40
0.8750000000000003
 40
0.8750000000000003
 40
0.9375000000000001
 40
0.9375000000000001
 40
0.96875
 40
0.96875
 40
1.0
 40
1.0
 40
1.0
 40
1.0
 10
11.09929844677809
 20
3.787766012937073
 30
0.0
 10
11.31512671473904
 20
3.787844328548305
 30
0.0
 10
11.5330400633281
 20
3.750889262135758
 30
0.0
 10
11.83116930510453
 20
3.644571484254115
 30
0.0
 10
11.92767339494452
 20
3.600037255497422
 30
0.0
 10
12.10683698186694
 20
3.495952701426837
 30
0.0
 10
12.18964198685286
 20
3.436638281784636
 30
0.0
 10
12.34190799973105
 20
3.302925237097944
 30
0.0
 10
12.41129962491507
 20
3.22817618675892
 30
0.0
 10
12.53066595273424
 20
3.069052612816904
 30
0.0
 10
12.58154771562607
 20
2.983995921432551
 30
0.0
 10
12.70682845874528
 20
2.710883138195793
 30
0.0
 10
12.74988239743909
 20
2.512755536558407
 30
0.0
 10
12.75005844165265
 20
2.205900920979297
 30
0.0
 10
12.73944896734287
 20
2.10409564753928
 30
0.0
 10
12.69737805915507
 20
1.901509184390145
 30
0.0
 10
12.66539378247043
 20
1.799926651541099
 30
0.0
 10
12.54152166679019
 20
1.509668979059638
 30
0.0
 10
12.41880132921229
 20
1.328433854589049
 30
0.0
 10
12.11607255357525
 20
1.025423686659178
 30
0.0
 10
11.93291660701176
 20
0.9007071060449026
 30
0.0
 10
11.63509561949659
 20
0.7743195984551212
 30
0.0
 10
11.53002475205499
 20
0.7414335488037036
 30
0.0
 10
11.31733852405116
 20
0.6978549509474643
 30
0.0
 10
11.20945404144215
 20
0.6867804916266471
 30
0.0
 10
11.10000000000001
 20
0.6867804916266471
 30
0.0
  0
SPLINE
  5
204
330
1F
100
AcDbEntity
  8
SK3
  6
SLD-Dashed
370
    18
100
AcDbSpline
210
0.0
220
0.0
230
1.0
 70
     8
 71
     3
 72
    32
 73
    28
 74
     0
 42
0.000000001
 43
0.00000001
 40
0.0
 40
0.0
 40
0.0
 40
0.0
 40
0.0312500000000001
 40
0.0312500000000001
 40
0.0625000000000001
 40
0.0625000000000001
 40
0.0937500000000002
 40
0.0937500000000002
 40
0.1250000000000002
 40
0.1250000000000002
 40
0.1875000000000002
 40
0.1875000000000002
 40
0.2500000000000002
 40
0.2500000000000002
 40
0.2812500000000004
 40
0.2812500000000004
 40
0.3125000000000005
 40
0.3125000000000005
 40
0.3750000000000007
 40
0.3750000000000007
 40
0.4062500000000009
 40
0.4062500000000009
 40
0.4375000000000011
 40
0.4375000000000011
 40
0.4687500000000013
 40
0.4687500000000013
 40
0.5000000000000016
 40
0.5000000000000016
 40
0.5000000000000016
 40
0.5000000000000016
 10
11.10000000000001
 20
0.6867804916266471
 30
0.0
 10
10.99054595855786
 20
0.6867804916266471
 30
0.0
 10
10.88300748494234
 20
0.6978519169173816
 30
0.0
 10
10.67157729317865
 20
0.7410380563700123
 30
0.0
 10
10.56656531881153
 20
0.7737031975053668
 30
0.0
 10
10.36697011919925
 20
0.8582303125313286
 30
0.0
 10
10.27237083996868
 20
0.9097573042868359
 30
0.0
 10
10.09333795853112
 20
1.030751744013229
 30
0.0
 10
10.00891041258248
 20
1.100583040304338
 30
0.0
 10
9.781590568132783
 20
1.327897234965396
 30
0.0
 10
9.658787195719901
 20
1.509321425019437
 30
0.0
 10
9.493903316654437
 20
1.894927731320266
 30
0.0
 10
9.4501341811674
 20
2.103271213289688
 30
0.0
 10
9.449933384093182
 20
2.40794889688712
 30
0.0
 10
9.46074696068297
 20
2.510222343261252
 30
0.0
 10
9.503033348944742
 20
2.705916590523306
 30
0.0
 10
9.534315908364968
 20
2.800221958421397
 30
0.0
 10
9.658906673984793
 20
3.072888284710952
 30
0.0
 10
9.780315119429298
 20
3.234385799298918
 30
0.0
 10
10.00967891683432
 20
3.436160430175993
 30
0.0
 10
10.09252169949719
 20
3.495489903524461
 30
0.0
 10
10.27083107458872
 20
3.599257582730254
 30
0.0
 10
10.36744974633949
 20
3.64399945907342
 30
0.0
 10
10.56659782256848
 20
3.715177102574748
 30
0.0
 10
10.66944649627723
 20
3.742052781161721
 30
0.0
 10
10.88184464279911
 20
3.778470779378977
 30
0.0
 10
10.9913843127976
 20
3.78772685513145
 30
0.0
 10
11.09929844677809
 20
3.787766012937073
 30
0.0
  0
SPLINE
  5
205
330
1F
100
AcDbEntity
  8
SK3
  6
SLD-Dashed
370
    18
100
AcDbSpline
210
0.0
220
0.0
230
1.0
 70
     8
 71
     2
 72
     6
 73
     3
 74
     0
 42
0.000000001
 43
0.00000001
 40
0.0
 40
0.0
 40
0.0
 40
0.0312500000000003
 40
0.0312500000000003
 40
0.0312500000000003
 10
39.45889999999998
 20
6.349999999999974
 30
0.0
 10
39.49375030887222
 20
6.323193392518654
 30
0.0
 10
39.56088663162487
 20
6.27222089241574
 30
0.0
  0
SPLINE
  5
206
330
1F
100
AcDbEntity
  8
SK3
  6
SLD-Dashed
370
    18
100
AcDbSpline
210
0.0
220
0.0
230
1.0
 70
     8
 71
     3
 72
     8
 73
     4
 74
     0
 42
0.000000001
 43
0.00000001
 40
0.0312500000000003
 40
0.0312500000000003
 40
0.0312500000000003
 40
0.0312500000000003
 40
0.0625000000000007
 40
0.0625000000000007
 40
0.0625000000000007
 40
0.0625000000000007
 10
39.56088663162487
 20
6.27222089241574
 30
0.0
 10
39.62802295437758
 20
6.221248392312841
 30
0.0
 10
39.72898497349732
 20
6.144973574219774
 30
0.0
 10
39.85568958288842
 20
6.0514373129723
 30
0.0
  0
SPLINE
  5
207
330
1F
100
AcDbEntity
  8
SK3
  6
SLD-Dashed
370
    18
100
AcDbSpline
210
0.0
220
0.0
230
1.0
 70
     8
 71
     3
 72
     8
 73
     4
 74
     0
 42
0.000000001
 43
0.00000001
 40
0.0625000000000007
 40
0.0625000000000007
 40
0.0625000000000007
 40
0.0625000000000007
 40
0.093750000000001
 40
0.093750000000001
 40
0.093750000000001
 40
0.093750000000001
 10
39.85568958288842
 20
6.0514373129723
 30
0.0
 10
39.98239419227951
 20
5.957901051724828
 30
0.0
 10
40.1367812264067
 20
5.845644976662672
 30
0.0
 10
40.31349410234415
 20
5.721815160710526
 30
0.0
  0
SPLINE
  5
208
330
1F
100
AcDbEntity
  8
SK3
  6
SLD-Dashed
370
    18
100
AcDbSpline
210
0.0
220
0.0
230
1.0
 70
     8
 71
     3
 72
     8
 73
     4
 74
     0
 42
0.000000001
 43
0.00000001
 40
0.093750000000001
 40
0.093750000000001
 40
0.093750000000001
 40
0.093750000000001
 40
0.1250000000000013
 40
0.1250000000000013
 40
0.1250000000000013
 40
0.1250000000000013
 10
40.31349410234415
 20
5.721815160710526
 30
0.0
 10
40.49020697828161
 20
5.597985344758396
 30
0.0
 10
40.68697859328722
 20
5.464075548148338
 30
0.0
 10
40.90354582005408
 20
5.325006861850008
 30
0.0
  0
SPLINE
  5
209
330
1F
100
AcDbEntity
  8
SK3
  6
SLD-Dashed
370
    18
100
AcDbSpline
210
0.0
220
0.0
230
1.0
 70
     8
 71
     3
 72
     8
 73
     4
 74
     0
 42
0.000000001
 43
0.00000001
 40
0.1250000000000013
 40
0.1250000000000013
 40
0.1250000000000013
 40
0.1250000000000013
 40
0.1562500000000016
 40
0.1562500000000016
 40
0.1562500000000016
 40
0.1562500000000016
 10
40.90354582005408
 20
5.325006861850008
 30
0.0
 10
41.12011304682088
 20
5.185938175551665
 30
0.0
 10
41.35714806102432
 20
5.041388969144752
 30
0.0
 10
41.60822043494076
 20
4.902352422752047
 30
0.0
  0
SPLINE
  5
20A
330
1F
100
AcDbEntity
  8
SK3
  6
SLD-Dashed
370
    18
100
AcDbSpline
210
0.0
220
0.0
230
1.0
 70
     8
 71
     3
 72
     8
 73
     4
 74
     0
 42
0.000000001
 43
0.00000001
 40
0.1562500000000016
 40
0.1562500000000016
 40
0.1562500000000016
 40
0.1562500000000016
 40
0.1875000000000019
 40
0.1875000000000019
 40
0.1875000000000019
 40
0.1875000000000019
 10
41.60822043494076
 20
4.902352422752047
 30
0.0
 10
41.85929280885724
 20
4.763315876359371
 30
0.0
 10
42.12602997093916
 20
4.628388880184859
 30
0.0
 10
42.41333966430481
 20
4.506643294928857
 30
0.0
  0
SPLINE
  5
20B
330
1F
100
AcDbEntity
  8
SK3
  6
SLD-Dashed
370
    18
100
AcDbSpline
210
0.0
220
0.0
230
1.0
 70
     8
 71
     3
 72
     8
 73
     4
 74
     0
 42
0.000000001
 43
0.00000001
 40
0.1875000000000019
 40
0.1875000000000019
 40
0.1875000000000019
 40
0.1875000000000019
 40
0.2031250000000023
 40
0.2031250000000023
 40
0.2031250000000023
 40
0.2031250000000023
 10
42.41333966430481
 20
4.506643294928857
 30
0.0
 10
42.55699451098764
 20
4.445770502300863
 30
0.0
 10
42.70652246489047
 20
4.388110015743026
 30
0.0
 10
42.85871282604951
 20
4.336723200504718
 30
0.0
  0
SPLINE
  5
20C
330
1F
100
AcDbEntity
  8
SK3
  6
SLD-Dashed
370
    18
100
AcDbSpline
210
0.0
220
0.0
230
1.0
 70
     8
 71
     3
 72
     8
 73
     4
 74
     0
 42
0.000000001
 43
0.00000001
 40
0.2031250000000023
 40
0.2031250000000023
 40
0.2031250000000023
 40
0.2031250000000023
 40
0.2187500000000027
 40
0.2187500000000027
 40
0.2187500000000027
 40
0.2187500000000027
 10
42.85871282604951
 20
4.336723200504718
 30
0.0
 10
43.01090318720853
 20
4.285336385266382
 30
0.0
 10
43.16642457992741
 20
4.239896757954297
 30
0.0
 10
43.32581094554182
 20
4.202072964660554
 30
0.0
  0
SPLINE
  5
20D
330
1F
100
AcDbEntity
  8
SK3
  6
SLD-Dashed
370
    18
100
AcDbSpline
210
0.0
220
0.0
230
1.0
 70
     8
 71
     3
 72
     8
 73
     4
 74
     0
 42
0.000000001
 43
0.00000001
 40
0.2187500000000027
 40
0.2187500000000027
 40
0.2187500000000027
 40
0.2187500000000027
 40
0.2500000000000036
 40
0.2500000000000036
 40
0.2500000000000036
 40
0.2500000000000036
 10
43.32581094554182
 20
4.202072964660554
 30
0.0
 10
43.64458367677056
 20
4.126425378073069
 30
0.0
 10
43.98266097347535
 20
4.082680365998368
 30
0.0
 10
44.31520161108225
 20
4.082045076290751
 30
0.0
  0
SPLINE
  5
20E
330
1F
100
AcDbEntity
  8
SK3
  6
SLD-Dashed
370
    18
100
AcDbSpline
210
0.0
220
0.0
230
1.0
 70
     8
 71
     3
 72
     8
 73
     4
 74
     0
 42
0.000000001
 43
0.00000001
 40
0.2500000000000036
 40
0.2500000000000036
 40
0.2500000000000036
 40
0.2500000000000036
 40
0.2656250000000036
 40
0.2656250000000036
 40
0.2656250000000036
 40
0.2656250000000036
 10
44.31520161108225
 20
4.082045076290751
 30
0.0
 10
44.48147192988574
 20
4.081727431436942
 30
0.0
 10
44.64761226695639
 20
4.091605659725599
 30
0.0
 10
44.81362400250287
 20
4.111416191755792
 30
0.0
  0
SPLINE
  5
20F
330
1F
100
AcDbEntity
  8
SK3
  6
SLD-Dashed
370
    18
100
AcDbSpline
210
0.0
220
0.0
230
1.0
 70
     8
 71
     3
 72
     8
 73
     4
 74
     0
 42
0.000000001
 43
0.00000001
 40
0.2656250000000036
 40
0.2656250000000036
 40
0.2656250000000036
 40
0.2656250000000036
 40
0.2812500000000037
 40
0.2812500000000037
 40
0.2812500000000037
 40
0.2812500000000037
 10
44.81362400250287
 20
4.111416191755792
 30
0.0
 10
44.97963573804935
 20
4.131226723785998
 30
0.0
 10
45.14507396402843
 20
4.161082971828329
 30
0.0
 10
45.30516056605431
 20
4.198531953851482
 30
0.0
  0
SPLINE
  5
210
330
1F
100
AcDbEntity
  8
SK3
  6
SLD-Dashed
370
    18
100
AcDbSpline
210
0.0
220
0.0
230
1.0
 70
     8
 71
     3
 72
     8
 73
     4
 74
     0
 42
0.000000001
 43
0.00000001
 40
0.2812500000000037
 40
0.2812500000000037
 40
0.2812500000000037
 40
0.2812500000000037
 40
0.3125000000000032
 40
0.3125000000000032
 40
0.3125000000000032
 40
0.3125000000000032
 10
45.30516056605431
 20
4.198531953851482
 30
0.0
 10
45.62533377010601
 20
4.273429917897801
 30
0.0
 10
45.93303970670724
 20
4.380323568229157
 30
0.0
 10
46.22066016386751
 20
4.501571424239479
 30
0.0
  0
SPLINE
  5
211
330
1F
100
AcDbEntity
  8
SK3
  6
SLD-Dashed
370
    18
100
AcDbSpline
210
0.0
220
0.0
230
1.0
 70
     8
 71
     3
 72
     8
 73
     4
 74
     0
 42
0.000000001
 43
0.00000001
 40
0.3125000000000032
 40
0.3125000000000032
 40
0.3125000000000032
 40
0.3125000000000032
 40
0.3437500000000028
 40
0.3437500000000028
 40
0.3437500000000028
 40
0.3437500000000028
 10
46.22066016386751
 20
4.501571424239479
 30
0.0
 10
46.50828062102779
 20
4.622819280249817
 30
0.0
 10
46.77588909733792
 20
4.757675294647927
 30
0.0
 10
47.02816448011617
 20
4.897034414263597
 30
0.0
  0
SPLINE
  5
212
330
1F
100
AcDbEntity
  8
SK3
  6
SLD-Dashed
370
    18
100
AcDbSpline
210
0.0
220
0.0
230
1.0
 70
     8
 71
     3
 72
     8
 73
     4
 74
     0
 42
0.000000001
 43
0.00000001
 40
0.3437500000000028
 40
0.3437500000000028
 40
0.3437500000000028
 40
0.3437500000000028
 40
0.3750000000000023
 40
0.3750000000000023
 40
0.3750000000000023
 40
0.3750000000000023
 10
47.02816448011617
 20
4.897034414263597
 30
0.0
 10
47.28043986289439
 20
5.036393533879253
 30
0.0
 10
47.51838213952993
 20
5.181307524838203
 30
0.0
 10
47.73470502746767
 20
5.320034058579719
 30
0.0
  0
SPLINE
  5
213
330
1F
100
AcDbEntity
  8
SK3
  6
SLD-Dashed
370
    18
100
AcDbSpline
210
0.0
220
0.0
230
1.0
 70
     8
 71
     3
 72
     8
 73
     4
 74
     0
 42
0.000000001
 43
0.00000001
 40
0.3750000000000023
 40
0.3750000000000023
 40
0.3750000000000023
 40
0.3750000000000023
 40
0.4062500000000019
 40
0.4062500000000019
 40
0.4062500000000019
 40
0.4062500000000019
 10
47.73470502746767
 20
5.320034058579719
 30
0.0
 10
47.95102791540544
 20
5.458760592321234
 30
0.0
 10
48.14776367204799
 20
5.592485355579761
 30
0.0
 10
48.32465215322694
 20
5.716314472229929
 30
0.0
  0
SPLINE
  5
214
330
1F
100
AcDbEntity
  8
SK3
  6
SLD-Dashed
370
    18
100
AcDbSpline
210
0.0
220
0.0
230
1.0
 70
     8
 71
     3
 72
     8
 73
     4
 74
     0
 42
0.000000001
 43
0.00000001
 40
0.4062500000000019
 40
0.4062500000000019
 40
0.4062500000000019
 40
0.4062500000000019
 40
0.4375000000000014
 40
0.4375000000000014
 40
0.4375000000000014
 40
0.4375000000000014
 10
48.32465215322694
 20
5.716314472229929
 30
0.0
 10
48.50154063440588
 20
5.840143588880125
 30
0.0
 10
48.65767009017031
 20
5.953570769368956
 30
0.0
 10
48.78503679697881
 20
6.047545251388585
 30
0.0
  0
SPLINE
  5
215
330
1F
100
AcDbEntity
  8
SK3
  6
SLD-Dashed
370
    18
100
AcDbSpline
210
0.0
220
0.0
230
1.0
 70
     8
 71
     3
 72
     8
 73
     4
 74
     0
 42
0.000000001
 43
0.00000001
 40
0.4375000000000014
 40
0.4375000000000014
 40
0.4375000000000014
 40
0.4375000000000014
 40
0.4531250000000012
 40
0.4531250000000012
 40
0.4531250000000012
 40
0.4531250000000012
 10
48.78503679697881
 20
6.047545251388585
 30
0.0
 10
48.84872015038301
 20
6.094532492398379
 30
0.0
 10
48.90567102855799
 20
6.137004197443195
 30
0.0
 10
48.95548097741571
 20
6.174375368903161
 30
0.0
  0
SPLINE
  5
216
330
1F
100
AcDbEntity
  8
SK3
  6
SLD-Dashed
370
    18
100
AcDbSpline
210
0.0
220
0.0
230
1.0
 70
     8
 71
     3
 72
     8
 73
     4
 74
     0
 42
0.000000001
 43
0.00000001
 40
0.4531250000000012
 40
0.4531250000000012
 40
0.4531250000000012
 40
0.4531250000000012
 40
0.468750000000001
 40
0.468750000000001
 40
0.468750000000001
 40
0.468750000000001
 10
48.95548097741571
 20
6.174375368903161
 30
0.0
 10
49.00529092627344
 20
6.211746540363141
 30
0.0
 10
49.04813491610592
 20
6.244152105492957
 30
0.0
 10
49.0823316919269
 20
6.270109197117686
 30
0.0
  0
SPLINE
  5
217
330
1F
100
AcDbEntity
  8
SK3
  6
SLD-Dashed
370
    18
100
AcDbSpline
210
0.0
220
0.0
230
1.0
 70
     8
 71
     3
 72
     8
 73
     4
 74
     0
 42
0.000000001
 43
0.00000001
 40
0.468750000000001
 40
0.468750000000001
 40
0.468750000000001
 40
0.468750000000001
 40
0.5000000000000004
 40
0.5000000000000004
 40
0.5000000000000004
 40
0.5000000000000004
 10
49.0823316919269
 20
6.270109197117686
 30
0.0
 10
49.15072524356891
 20
6.32202338036713
 30
0.0
 10
49.18598308610063
 20
6.349144445809508
 30
0.0
 10
49.18707416029599
 20
6.349980206808429
 30
0.0
  0
SPLINE
  5
218
330
1F
100
AcDbEntity
  8
SK3
  6
SLD-Dashed
370
    18
100
AcDbSpline
210
0.0
220
0.0
230
1.0
 70
     8
 71
     3
 72
     8
 73
     4
 74
     0
 42
0.000000001
 43
0.00000001
 40
0.5156250000000002
 40
0.5156250000000002
 40
0.5156250000000002
 40
0.5156250000000002
 40
0.53125
 40
0.53125
 40
0.53125
 40
0.53125
 10
49.16255919718156
 20
6.331221399779395
 30
0.0
 10
49.14576190992019
 20
6.318381623546608
 30
0.0
 10
49.12055753121545
 20
6.299136547680682
 30
0.0
 10
49.08730082690045
 20
6.273881857287715
 30
0.0
  0
SPLINE
  5
219
330
1F
100
AcDbEntity
  8
SK3
  6
SLD-Dashed
370
    18
100
AcDbSpline
210
0.0
220
0.0
230
1.0
 70
     8
 71
     3
 72
     8
 73
     4
 74
     0
 42
0.000000001
 43
0.00000001
 40
0.53125
 40
0.53125
 40
0.53125
 40
0.53125
 40
0.5624999999999997
 40
0.5624999999999997
 40
0.5624999999999997
 40
0.5624999999999997
 10
49.08730082690045
 20
6.273881857287715
 30
0.0
 10
49.0207874182705
 20
6.223372476501794
 30
0.0
 10
48.92050501015151
 20
6.14758336711358
 30
0.0
 10
48.79377096421024
 20
6.053992418596617
 30
0.0
  0
SPLINE
  5
21A
330
1F
100
AcDbEntity
  8
SK3
  6
SLD-Dashed
370
    18
100
AcDbSpline
210
0.0
220
0.0
230
1.0
 70
     8
 71
     3
 72
     8
 73
     4
 74
     0
 42
0.000000001
 43
0.00000001
 40
0.5624999999999997
 40
0.5624999999999997
 40
0.5624999999999997
 40
0.5624999999999997
 40
0.5937499999999993
 40
0.5937499999999993
 40
0.5937499999999993
 40
0.5937499999999993
 10
48.79377096421024
 20
6.053992418596617
 30
0.0
 10
48.667036918269
 20
5.960401470079639
 30
0.0
 10
48.51365949559093
 20
5.848820543242504
 30
0.0
 10
48.33651079050462
 20
5.724622263127609
 30
0.0
  0
SPLINE
  5
21B
330
1F
100
AcDbEntity
  8
SK3
  6
SLD-Dashed
370
    18
100
AcDbSpline
210
0.0
220
0.0
230
1.0
 70
     8
 71
     3
 72
     8
 73
     4
 74
     0
 42
0.000000001
 43
0.00000001
 40
0.5937499999999993
 40
0.5937499999999993
 40
0.5937499999999993
 40
0.5937499999999993
 40
0.624999999999999
 40
0.624999999999999
 40
0.624999999999999
 40
0.624999999999999
 10
48.33651079050462
 20
5.724622263127609
 30
0.0
 10
48.15936208541825
 20
5.600423983012699
 30
0.0
 10
47.96236539988254
 20
5.466308374829302
 30
0.0
 10
47.74600745687778
 20
5.327289295677599
 30
0.0
  0
SPLINE
  5
21C
330
1F
100
AcDbEntity
  8
SK3
  6
SLD-Dashed
370
    18
100
AcDbSpline
210
0.0
220
0.0
230
1.0
 70
     8
 71
     3
 72
     8
 73
     4
 74
     0
 42
0.000000001
 43
0.00000001
 40
0.624999999999999
 40
0.624999999999999
 40
0.624999999999999
 40
0.624999999999999
 40
0.6562499999999987
 40
0.6562499999999987
 40
0.6562499999999987
 40
0.6562499999999987
 10
47.74600745687778
 20
5.327289295677599
 30
0.0
 10
47.52964951387307
 20
5.188270216525869
 30
0.0
 10
47.29204922664605
 20
5.043252034668925
 30
0.0
 10
47.04036608641248
 20
4.903785235670956
 30
0.0
  0
SPLINE
  5
21D
330
1F
100
AcDbEntity
  8
SK3
  6
SLD-Dashed
370
    18
100
AcDbSpline
210
0.0
220
0.0
230
1.0
 70
     8
 71
     3
 72
     8
 73
     4
 74
     0
 42
0.000000001
 43
0.00000001
 40
0.6562499999999987
 40
0.6562499999999987
 40
0.6562499999999987
 40
0.6562499999999987
 40
0.6874999999999983
 40
0.6874999999999983
 40
0.6874999999999983
 40
0.6874999999999983
 10
47.04036608641248
 20
4.903785235670956
 30
0.0
 10
46.78868294617889
 20
4.764318436673
 30
0.0
 10
46.52183713443232
 20
4.629320205583203
 30
0.0
 10
46.23533591810998
 20
4.507777706774525
 30
0.0
  0
SPLINE
  5
21E
330
1F
100
AcDbEntity
  8
SK3
  6
SLD-Dashed
370
    18
100
AcDbSpline
210
0.0
220
0.0
230
1.0
 70
     8
 71
     3
 72
     8
 73
     4
 74
     0
 42
0.000000001
 43
0.00000001
 40
0.6874999999999983
 40
0.6874999999999983
 40
0.6874999999999983
 40
0.6874999999999983
 40
0.718749999999998
 40
0.718749999999998
 40
0.718749999999998
 40
0.718749999999998
 10
46.23533591810998
 20
4.507777706774525
 30
0.0
 10
45.94883470178764
 20
4.386235207965848
 30
0.0
 10
45.6402218863851
 20
4.278084423231916
 30
0.0
 10
45.3210925476913
 20
4.202287463246253
 30
0.0
  0
SPLINE
  5
21F
330
1F
100
AcDbEntity
  8
SK3
  6
SLD-Dashed
370
    18
100
AcDbSpline
210
0.0
220
0.0
230
1.0
 70
     8
 71
     3
 72
     8
 73
     4
 74
     0
 42
0.000000001
 43
0.00000001
 40
0.718749999999998
 40
0.718749999999998
 40
0.718749999999998
 40
0.718749999999998
 40
0.7499999999999977
 40
0.7499999999999977
 40
0.7499999999999977
 40
0.7499999999999977
 10
45.3210925476913
 20
4.202287463246253
 30
0.0
 10
45.00196320899745
 20
4.126490503260589
 30
0.0
 10
44.66289947972622
 20
4.082528902957537
 30
0.0
 10
44.32895211869268
 20
4.082041966677559
 30
0.0
  0
SPLINE
  5
220
330
1F
100
AcDbEntity
  8
SK3
  6
SLD-Dashed
370
    18
100
AcDbSpline
210
0.0
220
0.0
230
1.0
 70
     8
 71
     3
 72
     8
 73
     4
 74
     0
 42
0.000000001
 43
0.00000001
 40
0.7499999999999977
 40
0.7499999999999977
 40
0.7499999999999977
 40
0.7499999999999977
 40
0.7656249999999978
 40
0.7656249999999978
 40
0.7656249999999978
 40
0.7656249999999978
 10
44.32895211869268
 20
4.082041966677559
 30
0.0
 10
44.16197843817589
 20
4.081798498537563
 30
0.0
 10
43.99562325576266
 20
4.091836701125763
 30
0.0
 10
43.82986945418325
 20
4.111716056005986
 30
0.0
  0
SPLINE
  5
221
330
1F
100
AcDbEntity
  8
SK3
  6
SLD-Dashed
370
    18
100
AcDbSpline
210
0.0
220
0.0
230
1.0
 70
     8
 71
     3
 72
     8
 73
     4
 74
     0
 42
0.000000001
 43
0.00000001
 40
0.7656249999999978
 40
0.7656249999999978
 40
0.7656249999999978
 40
0.7656249999999978
 40
0.781249999999998
 40
0.781249999999998
 40
0.781249999999998
 40
0.781249999999998
 10
43.82986945418325
 20
4.111716056005986
 30
0.0
 10
43.66411565260388
 20
4.131595410886195
 30
0.0
 10
43.4980467335596
 20
4.161647356182345
 30
0.0
 10
43.33778396285339
 20
4.199247769523802
 30
0.0
  0
SPLINE
  5
222
330
1F
100
AcDbEntity
  8
SK3
  6
SLD-Dashed
370
    18
100
AcDbSpline
210
0.0
220
0.0
230
1.0
 70
     8
 71
     3
 72
     8
 73
     4
 74
     0
 42
0.000000001
 43
0.00000001
 40
0.781249999999998
 40
0.781249999999998
 40
0.781249999999998
 40
0.781249999999998
 40
0.8124999999999983
 40
0.8124999999999983
 40
0.8124999999999983
 40
0.8124999999999983
 10
43.33778396285339
 20
4.199247769523802
 30
0.0
 10
43.01725842144096
 20
4.27444859620673
 30
0.0
 10
42.71459421872083
 20
4.379618041180248
 30
0.0
 10
42.42502322100424
 20
4.501704904101018
 30
0.0
  0
SPLINE
  5
223
330
1F
100
AcDbEntity
  8
SK3
  6
SLD-Dashed
370
    18
100
AcDbSpline
210
0.0
220
0.0
230
1.0
 70
     8
 71
     3
 72
     8
 73
     4
 74
     0
 42
0.000000001
 43
0.00000001
 40
0.8124999999999983
 40
0.8124999999999983
 40
0.8124999999999983
 40
0.8124999999999983
 40
0.8437499999999987
 40
0.8437499999999987
 40
0.8437499999999987
 40
0.8437499999999987
 10
42.42502322100424
 20
4.501704904101018
 30
0.0
 10
42.13545222328761
 20
4.623791767021775
 30
0.0
 10
41.86595363157265
 20
4.75985151913861
 30
0.0
 10
41.61444005760841
 20
4.89891091483894
 30
0.0
  0
SPLINE
  5
224
330
1F
100
AcDbEntity
  8
SK3
  6
SLD-Dashed
370
    18
100
AcDbSpline
210
0.0
220
0.0
230
1.0
 70
     8
 71
     3
 72
     8
 73
     4
 74
     0
 42
0.000000001
 43
0.00000001
 40
0.8437499999999987
 40
0.8437499999999987
 40
0.8437499999999987
 40
0.8437499999999987
 40
0.874999999999999
 40
0.874999999999999
 40
0.874999999999999
 40
0.874999999999999
 10
41.61444005760841
 20
4.89891091483894
 30
0.0
 10
41.36292648364416
 20
5.03797031053927
 30
0.0
 10
41.12782249386972
 20
5.181130167142729
 30
0.0
 10
40.90937776594043
 20
5.321263754679485
 30
0.0
  0
SPLINE
  5
225
330
1F
100
AcDbEntity
  8
SK3
  6
SLD-Dashed
370
    18
100
AcDbSpline
210
0.0
220
0.0
230
1.0
 70
     8
 71
     3
 72
     8
 73
     4
 74
     0
 42
0.000000001
 43
0.00000001
 40
0.874999999999999
 40
0.874999999999999
 40
0.874999999999999
 40
0.874999999999999
 40
0.9062499999999993
 40
0.9062499999999993
 40
0.9062499999999993
 40
0.9062499999999993
 10
40.90937776594043
 20
5.321263754679485
 30
0.0
 10
40.69093303801115
 20
5.461397342216241
 30
0.0
 10
40.49436050328826
 20
5.595162002578764
 30
0.0
 10
40.31899229802134
 20
5.717963699386715
 30
0.0
  0
SPLINE
  5
226
330
1F
100
AcDbEntity
  8
SK3
  6
SLD-Dashed
370
    18
100
AcDbSpline
210
0.0
220
0.0
230
1.0
 70
     8
 71
     3
 72
     8
 73
     4
 74
     0
 42
0.000000001
 43
0.00000001
 40
0.9062499999999993
 40
0.9062499999999993
 40
0.9062499999999993
 40
0.9062499999999993
 40
0.9374999999999997
 40
0.9374999999999997
 40
0.9374999999999997
 40
0.9374999999999997
 10
40.31899229802134
 20
5.717963699386715
 30
0.0
 10
40.14362409275441
 20
5.840765396194665
 30
0.0
 10
39.9884295031936
 20
5.95348606957389
 30
0.0
 10
39.85980017907388
 20
6.048403411770327
 30
0.0
  0
SPLINE
  5
227
330
1F
100
AcDbEntity
  8
SK3
  6
SLD-Dashed
370
    18
100
AcDbSpline
210
0.0
220
0.0
230
1.0
 70
     8
 71
     3
 72
     8
 73
     4
 74
     0
 42
0.000000001
 43
0.00000001
 40
0.9374999999999997
 40
0.9374999999999997
 40
0.9374999999999997
 40
0.9374999999999997
 40
0.9687499999999999
 40
0.9687499999999999
 40
0.9687499999999999
 40
0.9687499999999999
 10
39.85980017907388
 20
6.048403411770327
 30
0.0
 10
39.7311708549541
 20
6.143320753966779
 30
0.0
 10
39.63160353686109
 20
6.218540952516401
 30
0.0
 10
39.56324459586409
 20
6.270430822296065
 30
0.0
  0
SPLINE
  5
228
330
1F
100
AcDbEntity
  8
SK3
  6
SLD-Dashed
370
    18
100
AcDbSpline
210
0.0
220
0.0
230
1.0
 70
     8
 71
     2
 72
     6
 73
     3
 74
     0
 42
0.000000001
 43
0.00000001
 40
0.9687499999999999
 40
0.9687499999999999
 40
0.9687499999999999
 40
1.0
 40
1.0
 40
1.0
 10
39.56324459586407
 20
6.27043082229608
 30
0.0
 10
39.4948856548671
 20
6.322320692075735
 30
0.0
 10
39.45889999999998
 20
6.349999999999974
 30
0.0
  0
SPLINE
  5
229
330
1F
100
AcDbEntity
  8
SK3
  6
SLD-Dashed
370
    18
100
AcDbSpline
210
0.0
220
0.0
230
1.0
 70
     8
 71
     2
 72
     6
 73
     3
 74
     0
 42
0.000000001
 43
0.00000001
 40
0.0
 40
0.0
 40
0.0
 40
0.0312500000000003
 40
0.0312500000000003
 40
0.0312500000000003
 10
39.45889999999998
 20
6.349999999999974
 30
0.0
 10
39.49375030887222
 20
6.323193392518654
 30
0.0
 10
39.56088663162487
 20
6.27222089241574
 30
0.0
  0
SPLINE
  5
22A
330
1F
100
AcDbEntity
  8
SK3
  6
SLD-Dashed
370
    18
100
AcDbSpline
210
0.0
220
0.0
230
1.0
 70
     8
 71
     3
 72
     8
 73
     4
 74
     0
 42
0.000000001
 43
0.00000001
 40
0.0312500000000003
 40
0.0312500000000003
 40
0.0312500000000003
 40
0.0312500000000003
 40
0.0625000000000007
 40
0.0625000000000007
 40
0.0625000000000007
 40
0.0625000000000007
 10
39.56088663162487
 20
6.27222089241574
 30
0.0
 10
39.62802295437758
 20
6.221248392312841
 30
0.0
 10
39.72898497349732
 20
6.144973574219774
 30
0.0
 10
39.85568958288842
 20
6.0514373129723
 30
0.0
  0
SPLINE
  5
22B
330
1F
100
AcDbEntity
  8
SK3
  6
SLD-Dashed
370
    18
100
AcDbSpline
210
0.0
220
0.0
230
1.0
 70
     8
 71
     3
 72
     8
 73
     4
 74
     0
 42
0.000000001
 43
0.00000001
 40
0.0625000000000007
 40
0.0625000000000007
 40
0.0625000000000007
 40
0.0625000000000007
 40
0.093750000000001
 40
0.093750000000001
 40
0.093750000000001
 40
0.093750000000001
 10
39.85568958288842
 20
6.0514373129723
 30
0.0
 10
39.98239419227951
 20
5.957901051724828
 30
0.0
 10
40.1367812264067
 20
5.845644976662672
 30
0.0
 10
40.31349410234415
 20
5.721815160710526
 30
0.0
  0
SPLINE
  5
22C
330
1F
100
AcDbEntity
  8
SK3
  6
SLD-Dashed
370
    18
100
AcDbSpline
210
0.0
220
0.0
230
1.0
 70
     8
 71
     3
 72
     8
 73
     4
 74
     0
 42
0.000000001
 43
0.00000001
 40
0.093750000000001
 40
0.093750000000001
 40
0.093750000000001
 40
0.093750000000001
 40
0.1250000000000013
 40
0.1250000000000013
 40
0.1250000000000013
 40
0.1250000000000013
 10
40.31349410234415
 20
5.721815160710526
 30
0.0
 10
40.49020697828161
 20
5.597985344758396
 30
0.0
 10
40.68697859328722
 20
5.464075548148338
 30
0.0
 10
40.90354582005408
 20
5.325006861850008
 30
0.0
  0
SPLINE
  5
22D
330
1F
100
AcDbEntity
  8
SK3
  6
SLD-Dashed
370
    18
100
AcDbSpline
210
0.0
220
0.0
230
1.0
 70
     8
 71
     3
 72
     8
 73
     4
 74
     0
 42
0.000000001
 43
0.00000001
 40
0.1250000000000013
 40
0.1250000000000013
 40
0.1250000000000013
 40
0.1250000000000013
 40
0.1562500000000016
 40
0.1562500000000016
 40
0.1562500000000016
 40
0.1562500000000016
 10
40.90354582005408
 20
5.325006861850008
 30
0.0
 10
41.12011304682088
 20
5.185938175551665
 30
0.0
 10
41.35714806102432
 20
5.041388969144752
 30
0.0
 10
41.60822043494076
 20
4.902352422752047
 30
0.0
  0
SPLINE
  5
22E
330
1F
100
AcDbEntity
  8
SK3
  6
SLD-Dashed
370
    18
100
AcDbSpline
210
0.0
220
0.0
230
1.0
 70
     8
 71
     3
 72
     8
 73
     4
 74
     0
 42
0.000000001
 43
0.00000001
 40
0.1562500000000016
 40
0.1562500000000016
 40
0.1562500000000016
 40
0.1562500000000016
 40
0.1875000000000019
 40
0.1875000000000019
 40
0.1875000000000019
 40
0.1875000000000019
 10
41.60822043494076
 20
4.902352422752047
 30
0.0
 10
41.85929280885724
 20
4.763315876359371
 30
0.0
 10
42.12602997093916
 20
4.628388880184859
 30
0.0
 10
42.41333966430481
 20
4.506643294928857
 30
0.0
  0
SPLINE
  5
22F
330
1F
100
AcDbEntity
  8
SK3
  6
SLD-Dashed
370
    18
100
AcDbSpline
210
0.0
220
0.0
230
1.0
 70
     8
 71
     3
 72
     8
 73
     4
 74
     0
 42
0.000000001
 43
0.00000001
 40
0.1875000000000019
 40
0.1875000000000019
 40
0.1875000000000019
 40
0.1875000000000019
 40
0.2031250000000023
 40
0.2031250000000023
 40
0.2031250000000023
 40
0.2031250000000023
 10
42.41333966430481
 20
4.506643294928857
 30
0.0
 10
42.55699451098764
 20
4.445770502300863
 30
0.0
 10
42.70652246489047
 20
4.388110015743026
 30
0.0
 10
42.85871282604951
 20
4.336723200504718
 30
0.0
  0
SPLINE
  5
230
330
1F
100
AcDbEntity
  8
SK3
  6
SLD-Dashed
370
    18
100
AcDbSpline
210
0.0
220
0.0
230
1.0
 70
     8
 71
     3
 72
     8
 73
     4
 74
     0
 42
0.000000001
 43
0.00000001
 40
0.2031250000000023
 40
0.2031250000000023
 40
0.2031250000000023
 40
0.2031250000000023
 40
0.2187500000000027
 40
0.2187500000000027
 40
0.2187500000000027
 40
0.2187500000000027
 10
42.85871282604951
 20
4.336723200504718
 30
0.0
 10
43.01090318720853
 20
4.285336385266382
 30
0.0
 10
43.16642457992741
 20
4.239896757954297
 30
0.0
 10
43.32581094554182
 20
4.202072964660554
 30
0.0
  0
SPLINE
  5
231
330
1F
100
AcDbEntity
  8
SK3
  6
SLD-Dashed
370
    18
100
AcDbSpline
210
0.0
220
0.0
230
1.0
 70
     8
 71
     3
 72
     8
 73
     4
 74
     0
 42
0.000000001
 43
0.00000001
 40
0.2187500000000027
 40
0.2187500000000027
 40
0.2187500000000027
 40
0.2187500000000027
 40
0.2500000000000036
 40
0.2500000000000036
 40
0.2500000000000036
 40
0.2500000000000036
 10
43.32581094554182
 20
4.202072964660554
 30
0.0
 10
43.64458367677056
 20
4.126425378073069
 30
0.0
 10
43.98266097347535
 20
4.082680365998368
 30
0.0
 10
44.31520161108225
 20
4.082045076290751
 30
0.0
  0
SPLINE
  5
232
330
1F
100
AcDbEntity
  8
SK3
  6
SLD-Dashed
370
    18
100
AcDbSpline
210
0.0
220
0.0
230
1.0
 70
     8
 71
     3
 72
     8
 73
     4
 74
     0
 42
0.000000001
 43
0.00000001
 40
0.2500000000000036
 40
0.2500000000000036
 40
0.2500000000000036
 40
0.2500000000000036
 40
0.2656250000000036
 40
0.2656250000000036
 40
0.2656250000000036
 40
0.2656250000000036
 10
44.31520161108225
 20
4.082045076290751
 30
0.0
 10
44.48147192988574
 20
4.081727431436942
 30
0.0
 10
44.64761226695639
 20
4.091605659725599
 30
0.0
 10
44.81362400250287
 20
4.111416191755792
 30
0.0
  0
SPLINE
  5
233
330
1F
100
AcDbEntity
  8
SK3
  6
SLD-Dashed
370
    18
100
AcDbSpline
210
0.0
220
0.0
230
1.0
 70
     8
 71
     3
 72
     8
 73
     4
 74
     0
 42
0.000000001
 43
0.00000001
 40
0.2656250000000036
 40
0.2656250000000036
 40
0.2656250000000036
 40
0.2656250000000036
 40
0.2812500000000037
 40
0.2812500000000037
 40
0.2812500000000037
 40
0.2812500000000037
 10
44.81362400250287
 20
4.111416191755792
 30
0.0
 10
44.97963573804935
 20
4.131226723785998
 30
0.0
 10
45.14507396402843
 20
4.161082971828329
 30
0.0
 10
45.30516056605431
 20
4.198531953851482
 30
0.0
  0
SPLINE
  5
234
330
1F
100
AcDbEntity
  8
SK3
  6
SLD-Dashed
370
    18
100
AcDbSpline
210
0.0
220
0.0
230
1.0
 70
     8
 71
     3
 72
     8
 73
     4
 74
     0
 42
0.000000001
 43
0.00000001
 40
0.2812500000000037
 40
0.2812500000000037
 40
0.2812500000000037
 40
0.2812500000000037
 40
0.3125000000000032
 40
0.3125000000000032
 40
0.3125000000000032
 40
0.3125000000000032
 10
45.30516056605431
 20
4.198531953851482
 30
0.0
 10
45.62533377010601
 20
4.273429917897801
 30
0.0
 10
45.93303970670724
 20
4.380323568229157
 30
0.0
 10
46.22066016386751
 20
4.501571424239479
 30
0.0
  0
SPLINE
  5
235
330
1F
100
AcDbEntity
  8
SK3
  6
SLD-Dashed
370
    18
100
AcDbSpline
210
0.0
220
0.0
230
1.0
 70
     8
 71
     3
 72
     8
 73
     4
 74
     0
 42
0.000000001
 43
0.00000001
 40
0.3125000000000032
 40
0.3125000000000032
 40
0.3125000000000032
 40
0.3125000000000032
 40
0.3437500000000028
 40
0.3437500000000028
 40
0.3437500000000028
 40
0.3437500000000028
 10
46.22066016386751
 20
4.501571424239479
 30
0.0
 10
46.50828062102779
 20
4.622819280249817
 30
0.0
 10
46.77588909733792
 20
4.757675294647927
 30
0.0
 10
47.02816448011617
 20
4.897034414263597
 30
0.0
  0
SPLINE
  5
236
330
1F
100
AcDbEntity
  8
SK3
  6
SLD-Dashed
370
    18
100
AcDbSpline
210
0.0
220
0.0
230
1.0
 70
     8
 71
     3
 72
     8
 73
     4
 74
     0
 42
0.000000001
 43
0.00000001
 40
0.3437500000000028
 40
0.3437500000000028
 40
0.3437500000000028
 40
0.3437500000000028
 40
0.3750000000000023
 40
0.3750000000000023
 40
0.3750000000000023
 40
0.3750000000000023
 10
47.02816448011617
 20
4.897034414263597
 30
0.0
 10
47.28043986289439
 20
5.036393533879253
 30
0.0
 10
47.51838213952993
 20
5.181307524838203
 30
0.0
 10
47.73470502746767
 20
5.320034058579719
 30
0.0
  0
SPLINE
  5
237
330
1F
100
AcDbEntity
  8
SK3
  6
SLD-Dashed
370
    18
100
AcDbSpline
210
0.0
220
0.0
230
1.0
 70
     8
 71
     3
 72
     8
 73
     4
 74
     0
 42
0.000000001
 43
0.00000001
 40
0.3750000000000023
 40
0.3750000000000023
 40
0.3750000000000023
 40
0.3750000000000023
 40
0.4062500000000019
 40
0.4062500000000019
 40
0.4062500000000019
 40
0.4062500000000019
 10
47.73470502746767
 20
5.320034058579719
 30
0.0
 10
47.95102791540544
 20
5.458760592321234
 30
0.0
 10
48.14776367204799
 20
5.592485355579761
 30
0.0
 10
48.32465215322694
 20
5.716314472229929
 30
0.0
  0
SPLINE
  5
238
330
1F
100
AcDbEntity
  8
SK3
  6
SLD-Dashed
370
    18
100
AcDbSpline
210
0.0
220
0.0
230
1.0
 70
     8
 71
     3
 72
     8
 73
     4
 74
     0
 42
0.000000001
 43
0.00000001
 40
0.4062500000000019
 40
0.4062500000000019
 40
0.4062500000000019
 40
0.4062500000000019
 40
0.4375000000000014
 40
0.4375000000000014
 40
0.4375000000000014
 40
0.4375000000000014
 10
48.32465215322694
 20
5.716314472229929
 30
0.0
 10
48.50154063440588
 20
5.840143588880125
 30
0.0
 10
48.65767009017031
 20
5.953570769368956
 30
0.0
 10
48.78503679697881
 20
6.047545251388585
 30
0.0
  0
SPLINE
  5
239
330
1F
100
AcDbEntity
  8
SK3
  6
SLD-Dashed
370
    18
100
AcDbSpline
210
0.0
220
0.0
230
1.0
 70
     8
 71
     3
 72
     8
 73
     4
 74
     0
 42
0.000000001
 43
0.00000001
 40
0.4375000000000014
 40
0.4375000000000014
 40
0.4375000000000014
 40
0.4375000000000014
 40
0.4531250000000012
 40
0.4531250000000012
 40
0.4531250000000012
 40
0.4531250000000012
 10
48.78503679697881
 20
6.047545251388585
 30
0.0
 10
48.84872015038301
 20
6.094532492398379
 30
0.0
 10
48.90567102855799
 20
6.137004197443195
 30
0.0
 10
48.95548097741571
 20
6.174375368903161
 30
0.0
  0
SPLINE
  5
23A
330
1F
100
AcDbEntity
  8
SK3
  6
SLD-Dashed
370
    18
100
AcDbSpline
210
0.0
220
0.0
230
1.0
 70
     8
 71
     3
 72
     8
 73
     4
 74
     0
 42
0.000000001
 43
0.00000001
 40
0.4531250000000012
 40
0.4531250000000012
 40
0.4531250000000012
 40
0.4531250000000012
 40
0.468750000000001
 40
0.468750000000001
 40
0.468750000000001
 40
0.468750000000001
 10
48.95548097741571
 20
6.174375368903161
 30
0.0
 10
49.00529092627344
 20
6.211746540363141
 30
0.0
 10
49.04813491610592
 20
6.244152105492957
 30
0.0
 10
49.0823316919269
 20
6.270109197117686
 30
0.0
  0
SPLINE
  5
23B
330
1F
100
AcDbEntity
  8
SK3
  6
SLD-Dashed
370
    18
100
AcDbSpline
210
0.0
220
0.0
230
1.0
 70
     8
 71
     3
 72
     8
 73
     4
 74
     0
 42
0.000000001
 43
0.00000001
 40
0.468750000000001
 40
0.468750000000001
 40
0.468750000000001
 40
0.468750000000001
 40
0.5000000000000004
 40
0.5000000000000004
 40
0.5000000000000004
 40
0.5000000000000004
 10
49.0823316919269
 20
6.270109197117686
 30
0.0
 10
49.15072524356891
 20
6.32202338036713
 30
0.0
 10
49.18598308610063
 20
6.349144445809508
 30
0.0
 10
49.18707416029599
 20
6.349980206808429
 30
0.0
  0
SPLINE
  5
23C
330
1F
100
AcDbEntity
  8
SK3
  6
SLD-Dashed
370
    18
100
AcDbSpline
210
0.0
220
0.0
230
1.0
 70
     8
 71
     3
 72
     8
 73
     4
 74
     0
 42
0.000000001
 43
0.00000001
 40
0.5156250000000002
 40
0.5156250000000002
 40
0.5156250000000002
 40
0.5156250000000002
 40
0.53125
 40
0.53125
 40
0.53125
 40
0.53125
 10
49.16255919718156
 20
6.331221399779395
 30
0.0
 10
49.14576190992019
 20
6.318381623546608
 30
0.0
 10
49.12055753121545
 20
6.299136547680682
 30
0.0
 10
49.08730082690045
 20
6.273881857287715
 30
0.0
  0
SPLINE
  5
23D
330
1F
100
AcDbEntity
  8
SK3
  6
SLD-Dashed
370
    18
100
AcDbSpline
210
0.0
220
0.0
230
1.0
 70
     8
 71
     3
 72
     8
 73
     4
 74
     0
 42
0.000000001
 43
0.00000001
 40
0.53125
 40
0.53125
 40
0.53125
 40
0.53125
 40
0.5624999999999997
 40
0.5624999999999997
 40
0.5624999999999997
 40
0.5624999999999997
 10
49.08730082690045
 20
6.273881857287715
 30
0.0
 10
49.0207874182705
 20
6.223372476501794
 30
0.0
 10
48.92050501015151
 20
6.14758336711358
 30
0.0
 10
48.79377096421024
 20
6.053992418596617
 30
0.0
  0
SPLINE
  5
23E
330
1F
100
AcDbEntity
  8
SK3
  6
SLD-Dashed
370
    18
100
AcDbSpline
210
0.0
220
0.0
230
1.0
 70
     8
 71
     3
 72
     8
 73
     4
 74
     0
 42
0.000000001
 43
0.00000001
 40
0.5624999999999997
 40
0.5624999999999997
 40
0.5624999999999997
 40
0.5624999999999997
 40
0.5937499999999993
 40
0.5937499999999993
 40
0.5937499999999993
 40
0.5937499999999993
 10
48.79377096421024
 20
6.053992418596617
 30
0.0
 10
48.667036918269
 20
5.960401470079639
 30
0.0
 10
48.51365949559093
 20
5.848820543242504
 30
0.0
 10
48.33651079050462
 20
5.724622263127609
 30
0.0
  0
SPLINE
  5
23F
330
1F
100
AcDbEntity
  8
SK3
  6
SLD-Dashed
370
    18
100
AcDbSpline
210
0.0
220
0.0
230
1.0
 70
     8
 71
     3
 72
     8
 73
     4
 74
     0
 42
0.000000001
 43
0.00000001
 40
0.5937499999999993
 40
0.5937499999999993
 40
0.5937499999999993
 40
0.5937499999999993
 40
0.624999999999999
 40
0.624999999999999
 40
0.624999999999999
 40
0.624999999999999
 10
48.33651079050462
 20
5.724622263127609
 30
0.0
 10
48.15936208541825
 20
5.600423983012699
 30
0.0
 10
47.96236539988254
 20
5.466308374829302
 30
0.0
 10
47.74600745687778
 20
5.327289295677599
 30
0.0
  0
SPLINE
  5
240
330
1F
100
AcDbEntity
  8
SK3
  6
SLD-Dashed
370
    18
100
AcDbSpline
210
0.0
220
0.0
230
1.0
 70
     8
 71
     3
 72
     8
 73
     4
 74
     0
 42
0.000000001
 43
0.00000001
 40
0.624999999999999
 40
0.624999999999999
 40
0.624999999999999
 40
0.624999999999999
 40
0.6562499999999987
 40
0.6562499999999987
 40
0.6562499999999987
 40
0.6562499999999987
 10
47.74600745687778
 20
5.327289295677599
 30
0.0
 10
47.52964951387307
 20
5.188270216525869
 30
0.0
 10
47.29204922664605
 20
5.043252034668925
 30
0.0
 10
47.04036608641248
 20
4.903785235670956
 30
0.0
  0
SPLINE
  5
241
330
1F
100
AcDbEntity
  8
SK3
  6
SLD-Dashed
370
    18
100
AcDbSpline
210
0.0
220
0.0
230
1.0
 70
     8
 71
     3
 72
     8
 73
     4
 74
     0
 42
0.000000001
 43
0.00000001
 40
0.6562499999999987
 40
0.6562499999999987
 40
0.6562499999999987
 40
0.6562499999999987
 40
0.6874999999999983
 40
0.6874999999999983
 40
0.6874999999999983
 40
0.6874999999999983
 10
47.04036608641248
 20
4.903785235670956
 30
0.0
 10
46.78868294617889
 20
4.764318436673
 30
0.0
 10
46.52183713443232
 20
4.629320205583203
 30
0.0
 10
46.23533591810998
 20
4.507777706774525
 30
0.0
  0
SPLINE
  5
242
330
1F
100
AcDbEntity
  8
SK3
  6
SLD-Dashed
370
    18
100
AcDbSpline
210
0.0
220
0.0
230
1.0
 70
     8
 71
     3
 72
     8
 73
     4
 74
     0
 42
0.000000001
 43
0.00000001
 40
0.6874999999999983
 40
0.6874999999999983
 40
0.6874999999999983
 40
0.6874999999999983
 40
0.718749999999998
 40
0.718749999999998
 40
0.718749999999998
 40
0.718749999999998
 10
46.23533591810998
 20
4.507777706774525
 30
0.0
 10
45.94883470178764
 20
4.386235207965848
 30
0.0
 10
45.6402218863851
 20
4.278084423231916
 30
0.0
 10
45.3210925476913
 20
4.202287463246253
 30
0.0
  0
SPLINE
  5
243
330
1F
100
AcDbEntity
  8
SK3
  6
SLD-Dashed
370
    18
100
AcDbSpline
210
0.0
220
0.0
230
1.0
 70
     8
 71
     3
 72
     8
 73
     4
 74
     0
 42
0.000000001
 43
0.00000001
 40
0.718749999999998
 40
0.718749999999998
 40
0.718749999999998
 40
0.718749999999998
 40
0.7499999999999977
 40
0.7499999999999977
 40
0.7499999999999977
 40
0.7499999999999977
 10
45.3210925476913
 20
4.202287463246253
 30
0.0
 10
45.00196320899745
 20
4.126490503260589
 30
0.0
 10
44.66289947972622
 20
4.082528902957537
 30
0.0
 10
44.32895211869268
 20
4.082041966677559
 30
0.0
  0
SPLINE
  5
244
330
1F
100
AcDbEntity
  8
SK3
  6
SLD-Dashed
370
    18
100
AcDbSpline
210
0.0
220
0.0
230
1.0
 70
     8
 71
     3
 72
     8
 73
     4
 74
     0
 42
0.000000001
 43
0.00000001
 40
0.7499999999999977
 40
0.7499999999999977
 40
0.7499999999999977
 40
0.7499999999999977
 40
0.7656249999999978
 40
0.7656249999999978
 40
0.7656249999999978
 40
0.7656249999999978
 10
44.32895211869268
 20
4.082041966677559
 30
0.0
 10
44.16197843817589
 20
4.081798498537563
 30
0.0
 10
43.99562325576266
 20
4.091836701125763
 30
0.0
 10
43.82986945418325
 20
4.111716056005986
 30
0.0
  0
SPLINE
  5
245
330
1F
100
AcDbEntity
  8
SK3
  6
SLD-Dashed
370
    18
100
AcDbSpline
210
0.0
220
0.0
230
1.0
 70
     8
 71
     3
 72
     8
 73
     4
 74
     0
 42
0.000000001
 43
0.00000001
 40
0.7656249999999978
 40
0.7656249999999978
 40
0.7656249999999978
 40
0.7656249999999978
 40
0.781249999999998
 40
0.781249999999998
 40
0.781249999999998
 40
0.781249999999998
 10
43.82986945418325
 20
4.111716056005986
 30
0.0
 10
43.66411565260388
 20
4.131595410886195
 30
0.0
 10
43.4980467335596
 20
4.161647356182345
 30
0.0
 10
43.33778396285339
 20
4.199247769523802
 30
0.0
  0
SPLINE
  5
246
330
1F
100
AcDbEntity
  8
SK3
  6
SLD-Dashed
370
    18
100
AcDbSpline
210
0.0
220
0.0
230
1.0
 70
     8
 71
     3
 72
     8
 73
     4
 74
     0
 42
0.000000001
 43
0.00000001
 40
0.781249999999998
 40
0.781249999999998
 40
0.781249999999998
 40
0.781249999999998
 40
0.8124999999999983
 40
0.8124999999999983
 40
0.8124999999999983
 40
0.8124999999999983
 10
43.33778396285339
 20
4.199247769523802
 30
0.0
 10
43.01725842144096
 20
4.27444859620673
 30
0.0
 10
42.71459421872083
 20
4.379618041180248
 30
0.0
 10
42.42502322100424
 20
4.501704904101018
 30
0.0
  0
SPLINE
  5
247
330
1F
100
AcDbEntity
  8
SK3
  6
SLD-Dashed
370
    18
100
AcDbSpline
210
0.0
220
0.0
230
1.0
 70
     8
 71
     3
 72
     8
 73
     4
 74
     0
 42
0.000000001
 43
0.00000001
 40
0.8124999999999983
 40
0.8124999999999983
 40
0.8124999999999983
 40
0.8124999999999983
 40
0.8437499999999987
 40
0.8437499999999987
 40
0.8437499999999987
 40
0.8437499999999987
 10
42.42502322100424
 20
4.501704904101018
 30
0.0
 10
42.13545222328761
 20
4.623791767021775
 30
0.0
 10
41.86595363157265
 20
4.75985151913861
 30
0.0
 10
41.61444005760841
 20
4.89891091483894
 30
0.0
  0
SPLINE
  5
248
330
1F
100
AcDbEntity
  8
SK3
  6
SLD-Dashed
370
    18
100
AcDbSpline
210
0.0
220
0.0
230
1.0
 70
     8
 71
     3
 72
     8
 73
     4
 74
     0
 42
0.000000001
 43
0.00000001
 40
0.8437499999999987
 40
0.8437499999999987
 40
0.8437499999999987
 40
0.8437499999999987
 40
0.874999999999999
 40
0.874999999999999
 40
0.874999999999999
 40
0.874999999999999
 10
41.61444005760841
 20
4.89891091483894
 30
0.0
 10
41.36292648364416
 20
5.03797031053927
 30
0.0
 10
41.12782249386972
 20
5.181130167142729
 30
0.0
 10
40.90937776594043
 20
5.321263754679485
 30
0.0
  0
SPLINE
  5
249
330
1F
100
AcDbEntity
  8
SK3
  6
SLD-Dashed
370
    18
100
AcDbSpline
210
0.0
220
0.0
230
1.0
 70
     8
 71
     3
 72
     8
 73
     4
 74
     0
 42
0.000000001
 43
0.00000001
 40
0.874999999999999
 40
0.874999999999999
 40
0.874999999999999
 40
0.874999999999999
 40
0.9062499999999993
 40
0.9062499999999993
 40
0.9062499999999993
 40
0.9062499999999993
 10
40.90937776594043
 20
5.321263754679485
 30
0.0
 10
40.69093303801115
 20
5.461397342216241
 30
0.0
 10
40.49436050328826
 20
5.595162002578764
 30
0.0
 10
40.31899229802134
 20
5.717963699386715
 30
0.0
  0
SPLINE
  5
24A
330
1F
100
AcDbEntity
  8
SK3
  6
SLD-Dashed
370
    18
100
AcDbSpline
210
0.0
220
0.0
230
1.0
 70
     8
 71
     3
 72
     8
 73
     4
 74
     0
 42
0.000000001
 43
0.00000001
 40
0.9062499999999993
 40
0.9062499999999993
 40
0.9062499999999993
 40
0.9062499999999993
 40
0.9374999999999997
 40
0.9374999999999997
 40
0.9374999999999997
 40
0.9374999999999997
 10
40.31899229802134
 20
5.717963699386715
 30
0.0
 10
40.14362409275441
 20
5.840765396194665
 30
0.0
 10
39.9884295031936
 20
5.95348606957389
 30
0.0
 10
39.85980017907388
 20
6.048403411770327
 30
0.0
  0
SPLINE
  5
24B
330
1F
100
AcDbEntity
  8
SK3
  6
SLD-Dashed
370
    18
100
AcDbSpline
210
0.0
220
0.0
230
1.0
 70
     8
 71
     3
 72
     8
 73
     4
 74
     0
 42
0.000000001
 43
0.00000001
 40
0.9374999999999997
 40
0.9374999999999997
 40
0.9374999999999997
 40
0.9374999999999997
 40
0.9687499999999999
 40
0.9687499999999999
 40
0.9687499999999999
 40
0.9687499999999999
 10
39.85980017907388
 20
6.048403411770327
 30
0.0
 10
39.7311708549541
 20
6.143320753966779
 30
0.0
 10
39.63160353686109
 20
6.218540952516401
 30
0.0
 10
39.56324459586409
 20
6.270430822296065
 30
0.0
  0
SPLINE
  5
24C
330
1F
100
AcDbEntity
  8
SK3
  6
SLD-Dashed
370
    18
100
AcDbSpline
210
0.0
220
0.0
230
1.0
 70
     8
 71
     2
 72
     6
 73
     3
 74
     0
 42
0.000000001
 43
0.00000001
 40
0.9687499999999999
 40
0.9687499999999999
 40
0.9687499999999999
 40
1.0
 40
1.0
 40
1.0
 10
39.56324459586407
 20
6.27043082229608
 30
0.0
 10
39.4948856548671
 20
6.322320692075735
 30
0.0
 10
39.45889999999998
 20
6.349999999999974
 30
0.0
  0
SPLINE
  5
24D
330
1F
100
AcDbEntity
  8
SK3
  6
SLD-Dashed
370
    18
100
AcDbSpline
210
0.0
220
0.0
230
1.0
 70
     8
 71
     3
 72
    38
 73
    34
 74
     0
 42
0.000000001
 43
0.00000001
 40
0.499999999999998
 40
0.499999999999998
 40
0.499999999999998
 40
0.499999999999998
 40
0.5312499999999979
 40
0.5312499999999979
 40
0.5624999999999978
 40
0.5624999999999978
 40
0.5937499999999978
 40
0.5937499999999978
 40
0.6249999999999977
 40
0.6249999999999977
 40
0.6562499999999977
 40
0.6562499999999977
 40
0.6874999999999976
 40
0.6874999999999976
 40
0.7187499999999976
 40
0.7187499999999976
 40
0.7499999999999974
 40
0.7499999999999974
 40
0.8124999999999982
 40
0.8124999999999982
 40
0.8437499999999984
 40
0.8437499999999984
 40
0.8749999999999988
 40
0.8749999999999988
 40
0.906249999999999
 40
0.906249999999999
 40
0.9374999999999993
 40
0.9374999999999993
 40
0.9687499999999996
 40
0.9687499999999996
 40
0.9843749999999998
 40
0.9843749999999998
 40
1.0
 40
1.0
 40
1.0
 40
1.0
 10
9.547165917302161
 20
6.130078845461997
 30
0.0
 10
9.591669608828735
 20
6.017622124064613
 30
0.0
 10
9.651912210336913
 20
5.910039381771336
 30
0.0
 10
9.796812632231477
 20
5.715206444890285
 30
0.0
 10
9.882567425050462
 20
5.625950668749137
 30
0.0
 10
10.0770713882353
 20
5.465835135561363
 30
0.0
 10
10.18346038260028
 20
5.396630723958358
 30
0.0
 10
10.41491716747874
 20
5.273967848329584
 30
0.0
 10
10.54009168137382
 20
5.221079864175506
 30
0.0
 10
10.78642802631474
 20
5.131319199450722
 30
0.0
 10
10.90588750473029
 20
5.094347448465299
 30
0.0
 10
11.12471660654359
 20
5.03099362135518
 30
0.0
 10
11.22226506040226
 20
5.005212811238495
 30
0.0
 10
11.40290338683524
 20
4.961304046026231
 30
0.0
 10
11.48653843453272
 20
4.943230320262122
 30
0.0
 10
11.64292087602178
 20
4.914958406516963
 30
0.0
 10
11.71620965691779
 20
4.90463742056118
 30
0.0
 10
11.92719226675067
 20
4.885740181441757
 30
0.0
 10
12.05703185085182
 20
4.888799294418996
 30
0.0
 10
12.23947266366207
 20
4.928553216744826
 30
0.0
 10
12.29788111599017
 20
4.947672533286187
 30
0.0
 10
12.4097898608672
 20
5.001691346856623
 30
0.0
 10
12.46364510461582
 20
5.036838190440908
 30
0.0
 10
12.56271343290431
 20
5.128737393306097
 30
0.0
 10
12.60843468736296
 20
5.185584113645413
 30
0.0
 10
12.68612312343485
 20
5.332786429895063
 30
0.0
 10
12.71750492214961
 20
5.423233084513153
 30
0.0
 10
12.75225985948271
 20
5.640299190695288
 30
0.0
 10
12.7546372439699
 20
5.767683503121006
 30
0.0
 10
12.73422628849653
 20
5.96411574042225
 30
0.0
 10
12.72357436485568
 20
6.03079986275442
 30
0.0
 10
12.69687670664384
 20
6.160247296436612
 30
0.0
 10
12.68086259956384
 20
6.223527817320322
 30
0.0
 10
12.66230763443389
 20
6.286790301132335
 30
0.0
  0
SPLINE
  5
24E
330
1F
100
AcDbEntity
  8
SK3
  6
SLD-Dashed
370
    18
100
AcDbSpline
210
0.0
220
0.0
230
1.0
 70
     8
 71
     3
 72
    32
 73
    28
 74
     0
 42
0.000000001
 43
0.00000001
 40
0.0
 40
0.0
 40
0.0
 40
0.0
 40
0.0312499999999997
 40
0.0312499999999997
 40
0.0624999999999995
 40
0.0624999999999995
 40
0.1249999999999989
 40
0.1249999999999989
 40
0.1874999999999984
 40
0.1874999999999984
 40
0.2187499999999984
 40
0.2187499999999984
 40
0.2499999999999984
 40
0.2499999999999984
 40
0.2812499999999984
 40
0.2812499999999984
 40
0.3124999999999984
 40
0.3124999999999984
 40
0.3437499999999984
 40
0.3437499999999984
 40
0.3749999999999984
 40
0.3749999999999984
 40
0.4374999999999982
 40
0.4374999999999982
 40
0.4687499999999981
 40
0.4687499999999981
 40
0.499999999999998
 40
0.499999999999998
 40
0.499999999999998
 40
0.499999999999998
 10
12.66230763443392
 20
6.286790301132335
 30
0.0
 10
12.62519770417402
 20
6.413315268756374
 30
0.0
 10
12.58120302127298
 20
6.529338209342157
 30
0.0
 10
12.48471880657841
 20
6.749261649681142
 30
0.0
 10
12.4316588224455
 20
6.853656412382149
 30
0.0
 10
12.26556941339615
 20
7.146821567827748
 30
0.0
 10
12.14616169070411
 20
7.317061421523461
 30
0.0
 10
11.8880894599053
 20
7.625840216913628
 30
0.0
 10
11.74985718622881
 20
7.763778523701699
 30
0.0
 10
11.51944141192589
 20
7.93957223353469
 30
0.0
 10
11.4384840088555
 20
7.993145929764543
 30
0.0
 10
11.26094996715928
 20
8.08611350183603
 30
0.0
 10
11.16541818036972
 20
8.125025816098606
 30
0.0
 10
10.9530284447129
 20
8.175251229353163
 30
0.0
 10
10.83703519791095
 20
8.185597853152489
 30
0.0
 10
10.5913368132058
 20
8.160487774001004
 30
0.0
 10
10.46687270231074
 20
8.125321374609383
 30
0.0
 10
10.22897755356156
 20
8.01535151717931
 30
0.0
 10
10.119593844491
 20
7.943374611664937
 30
0.0
 10
9.919042005980982
 20
7.771958981462483
 30
0.0
 10
9.830027015680656
 20
7.673959535020848
 30
0.0
 10
9.601531880722977
 20
7.354720962768339
 30
0.0
 10
9.501243573240782
 20
7.107453544913898
 30
0.0
 10
9.44727008051531
 20
6.73204300403351
 30
0.0
 10
9.445111331805922
 20
6.607943683149966
 30
0.0
 10
9.472789440891722
 20
6.361880396588824
 30
0.0
 10
9.502662225775588
 20
6.242535566859379
 30
0.0
 10
9.547165917302161
 20
6.130078845461997
 30
0.0
  0
SPLINE
  5
24F
330
1F
100
AcDbEntity
  8
1
  6
SLD-Dashed
370
    18
100
AcDbSpline
210
0.0
220
0.0
230
1.0
 70
    24
 71
     3
 72
     8
 73
     4
 74
     0
 42
0.000000001
 43
0.00000001
 40
0.0
 40
0.0
 40
0.0
 40
0.0
 40
0.5000000000000013
 40
0.5000000000000013
 40
0.5000000000000013
 40
0.5000000000000013
 10
3.200000000000008
 20
-22.41000000000004
 30
0.0
 10
3.277521727773375
 20
-22.41000000000011
 30
0.0
 10
3.353381647940912
 20
-22.41000000000018
 30
0.0
 10
3.419612606008038
 20
-22.41000000000023
 30
0.0
  0
SPLINE
  5
250
330
1F
100
AcDbEntity
  8
1
  6
SLD-Dashed
370
    18
100
AcDbSpline
210
0.0
220
0.0
230
1.0
 70
    24
 71
     3
 72
     8
 73
     4
 74
     0
 42
0.000000001
 43
0.00000001
 40
0.5000000000000013
 40
0.5000000000000013
 40
0.5000000000000013
 40
0.5000000000000013
 40
0.7500000000000007
 40
0.7500000000000007
 40
0.7500000000000007
 40
0.7500000000000007
 10
3.419612606008038
 20
-22.41000000000023
 30
0.0
 10
3.452728085041601
 20
-22.41000000000015
 30
0.0
 10
3.483301361658614
 20
-22.41000000000007
 30
0.0
 10
3.506578077110994
 20
-22.41000000000001
 30
0.0
  0
SPLINE
  5
251
330
1F
100
AcDbEntity
  8
1
  6
SLD-Dashed
370
    18
100
AcDbSpline
210
0.0
220
0.0
230
1.0
 70
    24
 71
     2
 72
     6
 73
     3
 74
     0
 42
0.000000001
 43
0.00000001
 40
0.7500000000000007
 40
0.7500000000000007
 40
0.7500000000000007
 40
1.0
 40
1.0
 40
1.0
 10
3.506578077110994
 20
-22.41000000000001
 30
0.0
 10
3.529854792563389
 20
-22.41000000000001
 30
0.0
 10
3.545388844998096
 20
-22.41000000000001
 30
0.0
  0
SPLINE
  5
252
330
1F
100
AcDbEntity
  8
SK3
  6
SLD-Dashed
370
    18
100
AcDbSpline
210
0.0
220
0.0
230
1.0
 70
    24
 71
     2
 72
     6
 73
     3
 74
     0
 42
0.000000001
 43
0.00000001
 40
0.0
 40
0.0
 40
0.0
 40
0.2500000000000016
 40
0.2500000000000016
 40
0.2500000000000016
 10
18.70470837592285
 20
-22.41000000000001
 30
0.0
 10
18.72021848143064
 20
-22.41000000000001
 30
0.0
 10
18.74373564595137
 20
-22.41000000000001
 30
0.0
  0
SPLINE
  5
253
330
1F
100
AcDbEntity
  8
SK3
  6
SLD-Dashed
370
    18
100
AcDbSpline
210
0.0
220
0.0
230
1.0
 70
    24
 71
     3
 72
     8
 73
     4
 74
     0
 42
0.000000001
 43
0.00000001
 40
0.2500000000000016
 40
0.2500000000000016
 40
0.2500000000000016
 40
0.2500000000000016
 40
0.5000000000000032
 40
0.5000000000000032
 40
0.5000000000000032
 40
0.5000000000000032
 10
18.74373564595137
 20
-22.41000000000001
 30
0.0
 10
18.76725281047213
 20
-22.41000000000001
 30
0.0
 10
18.79767648998924
 20
-22.41000000000001
 30
0.0
 10
18.83062851957902
 20
-22.41000000000001
 30
0.0
  0
SPLINE
  5
254
330
1F
100
AcDbEntity
  8
SK3
  6
SLD-Dashed
370
    18
100
AcDbSpline
210
0.0
220
0.0
230
1.0
 70
    24
 71
     3
 72
     8
 73
     4
 74
     0
 42
0.000000001
 43
0.00000001
 40
0.5000000000000032
 40
0.5000000000000032
 40
0.5000000000000032
 40
0.5000000000000032
 40
1.0
 40
1.0
 40
1.0
 40
1.0
 10
18.83062851957902
 20
-22.41000000000001
 30
0.0
 10
18.8965325787586
 20
-22.41000000000001
 30
0.0
 10
18.97251643454
 20
-22.41000000000001
 30
0.0
 10
19.05
 20
-22.41000000000002
 30
0.0
  0
SPLINE
  5
255
330
1F
100
AcDbEntity
  8
SK3
  6
SLD-Dashed
370
    18
100
AcDbSpline
210
0.0
220
0.0
230
1.0
 70
     8
 71
     3
 72
    10
 73
     6
 74
     0
 42
0.000000001
 43
0.00000001
 40
0.0
 40
0.0
 40
0.0
 40
0.0
 40
0.5
 40
0.5
 40
1.0
 40
1.0
 40
1.0
 40
1.0
 10
3.54529162407714
 20
25.57912025275685
 30
0.0
 10
3.584856617866725
 20
25.5231010759033
 30
0.0
 10
3.621570887500298
 20
25.46562249807944
 30
0.0
 10
3.679260425533597
 20
25.34260791126144
 30
0.0
 10
3.699999999999994
 20
25.27482658978054
 30
0.0
 10
3.699999999999995
 20
25.20500000000004
 30
0.0
  0
SPLINE
  5
256
330
1F
100
AcDbEntity
  8
SK3
  6
SLD-Dashed
370
    18
100
AcDbSpline
210
0.0
220
0.0
230
1.0
 70
     8
 71
     3
 72
    10
 73
     6
 74
     0
 42
0.000000001
 43
0.00000001
 40
0.0
 40
0.0
 40
0.0
 40
0.0
 40
0.5
 40
0.5
 40
1.0
 40
1.0
 40
1.0
 40
1.0
 10
18.55000000000003
 20
25.20500000000006
 30
0.0
 10
18.55000000000003
 20
25.27446188700639
 30
0.0
 10
18.57033165532697
 20
25.34157876899191
 30
0.0
 10
18.62822537360677
 20
25.46534569655892
 30
0.0
 10
18.6650271747182
 20
25.52292618711533
 30
0.0
 10
18.70461115500195
 20
25.57898258716477
 30
0.0
  0
SPLINE
  5
257
330
1F
100
AcDbEntity
  8
SK3
  6
SLD-Dashed
370
    18
100
AcDbSpline
210
0.0
220
0.0
230
1.0
 70
     8
 71
     3
 72
    40
 73
    36
 74
     0
 42
0.000000001
 43
0.00000001
 40
0.0
 40
0.0
 40
0.0
 40
0.0
 40
0.0314214559572178
 40
0.0627294389672004
 40
0.0877405066521895
 40
0.1252752326697184
 40
0.1539551384600108
 40
0.1970430837597873
 40
0.2184753360378477
 40
0.2505176110611737
 40
0.2789492345937391
 40
0.3216198597594042
 40
0.3430128235413673
 40
0.3752634384750793
 40
0.4040010771804458
 40
0.4468656794915723
 40
0.468215945936246
 40
0.5002096454814972
 40
0.528675413734447
 40
0.5715400247765458
 40
0.5931009716299191
 40
0.6253883780511656
 40
0.6539191343952843
 40
0.6965914244566831
 40
0.7179237821488444
 40
0.7499746494270431
 40
0.7785976316863417
 40
0.7958543398127828
 40
0.8217160693566459
 40
0.8431552865480468
 40
0.8751886732441888
 40
0.9000580147531506
 40
0.9373794059838182
 40
0.9685930788650364
 40
1.0
 40
1.0
 40
1.0
 40
1.0
 10
3.545388844996977
 20
-29.80485527420155
 30
0.0
 10
3.545480197135401
 20
-29.8116444052086
 30
0.0
 10
3.545662571510378
 20
-29.82519814949493
 30
0.0
 10
3.547032714046904
 20
-29.84411564286314
 30
0.0
 10
3.549278621227539
 20
-29.86427043795786
 30
0.0
 10
3.552383815069222
 20
-29.88374590039668
 30
0.0
 10
3.557241214189624
 20
-29.9068611179188
 30
0.0
 10
3.562435988465533
 20
-29.92633239392606
 30
0.0
 10
3.56878033923881
 20
-29.9462089918159
 30
0.0
 10
3.574836423905242
 20
-29.96284451017945
 30
0.0
 10
3.58340608982534
 20
-29.98342104192835
 30
0.0
 10
3.592077830421053
 20
-30.00144320563147
 30
0.0
 10
3.602002400646304
 20
-30.01973532130882
 30
0.0
 10
3.611129444211995
 20
-30.03502499592772
 30
0.0
 10
3.6235206156417
 20
-30.0537373973325
 30
0.0
 10
3.635525817110191
 20
-30.06985792745885
 30
0.0
 10
3.648757943677714
 20
-30.08589113400059
 30
0.0
 10
3.6605713931721
 20
-30.09904955418671
 30
0.0
 10
3.676259568084505
 20
-30.11493869793386
 30
0.0
 10
3.691152319419489
 20
-30.12841850148091
 30
0.0
 10
3.707345738384378
 20
-30.14162746303265
 30
0.0
 10
3.721611997070908
 20
-30.15228399886389
 30
0.0
 10
3.740164285063695
 20
-30.16477481501945
 30
0.0
 10
3.757375549684081
 20
-30.17498291258002
 30
0.0
 10
3.775753926809078
 20
-30.1846280460582
 30
0.0
 10
3.791792461294156
 20
-30.19217667946792
 30
0.0
 10
3.807369256512051
 20
-30.19858412923169
 30
0.0
 10
3.821916756260118
 20
-30.20393768674575
 30
0.0
 10
3.835173350441991
 20
-30.20828861199452
 30
0.0
 10
3.851657250143025
 20
-30.21299666641903
 30
0.0
 10
3.8681305989752
 20
-30.21692139734512
 30
0.0
 10
3.888137813528716
 20
-30.22070805124262
 30
0.0
 10
3.908147752578903
 20
-30.22341140281241
 30
0.0
 10
3.929683046762819
 20
-30.22516290854704
 30
0.0
 10
3.943213763576911
 20
-30.22536701808863
 30
0.0
 10
3.949999999998913
 20
-30.22546938780225
 30
0.0
  0
SPLINE
  5
258
330
1F
100
AcDbEntity
  8
1
  6
SLD-Dashed
370
    18
100
AcDbSpline
210
0.0
220
0.0
230
1.0
 70
     8
 71
     3
 72
     8
 73
     4
 74
     0
 42
0.000000001
 43
0.00000001
 40
0.0
 40
0.0
 40
0.0
 40
0.0
 40
1.0
 40
1.0
 40
1.0
 40
1.0
 10
14.37601294652262
 20
-30.22558142012644
 30
0.0
 10
13.92634047615433
 20
-29.41927694377228
 30
0.0
 10
13.47758735871728
 20
-28.61247603335392
 30
0.0
 10
13.03
 20
-27.8050456341729
 30
0.0
  0
SPLINE
  5
259
330
1F
100
AcDbEntity
  8
1
  6
SLD-Dashed
370
    18
100
AcDbSpline
210
0.0
220
0.0
230
1.0
 70
     8
 71
     3
 72
    10
 73
     6
 74
     0
 42
0.000000001
 43
0.00000001
 40
0.0
 40
0.0
 40
0.0
 40
0.0
 40
0.5
 40
0.5
 40
1.0
 40
1.0
 40
1.0
 40
1.0
 10
13.03000000000003
 20
-27.76916635406974
 30
0.0
 10
13.03000000000003
 20
-27.5694896072665
 30
0.0
 10
12.95302573325512
 20
-27.36838646497957
 30
0.0
 10
12.67905057581468
 20
-27.07630005005162
 30
0.0
 10
12.48172757240075
 20
-26.98706356756883
 30
0.0
 10
12.28000000000001
 20
-26.98706356756882
 30
0.0
  0
SPLINE
  5
25A
330
1F
100
AcDbEntity
  8
1
  6
SLD-Dashed
370
    18
100
AcDbSpline
210
0.0
220
0.0
230
1.0
 70
     8
 71
     3
 72
    10
 73
     6
 74
     0
 42
0.000000001
 43
0.00000001
 40
0.0
 40
0.0
 40
0.0
 40
0.0
 40
0.5
 40
0.5
 40
1.0
 40
1.0
 40
1.0
 40
1.0
 10
9.950000000000653
 20
-26.98706356756945
 30
0.0
 10
9.748441495091548
 20
-26.98706356756928
 30
0.0
 10
9.550692481024276
 20
-27.07656444408194
 30
0.0
 10
9.277196882747168
 20
-27.3681586685193
 30
0.0
 10
9.200000000000166
 20
-27.56927498425101
 30
0.0
 10
9.2
 20
-27.76916635406976
 30
0.0
  0
SPLINE
  5
25B
330
1F
100
AcDbEntity
  8
1
  6
SLD-Dashed
370
    18
100
AcDbSpline
210
0.0
220
0.0
230
1.0
 70
     8
 71
     3
 72
     8
 73
     4
 74
     0
 42
0.000000001
 43
0.00000001
 40
0.0
 40
0.0
 40
0.0
 40
0.0
 40
1.0
 40
1.0
 40
1.0
 40
1.0
 10
9.199999999998889
 20
-27.80504563417608
 30
0.0
 10
8.752433371354632
 20
-28.61243863710179
 30
0.0
 10
8.303701091401411
 20
-29.41920220926474
 30
0.0
 10
7.854049533406168
 20
-30.2254693878023
 30
0.0
  0
SPLINE
  5
25C
330
1F
100
AcDbEntity
  8
SK3
  6
SLD-Dashed
370
    18
100
AcDbSpline
210
0.0
220
0.0
230
1.0
 70
     8
 71
     3
 72
    40
 73
    36
 74
     0
 42
0.000000001
 43
0.00000001
 40
0.0
 40
0.0
 40
0.0
 40
0.0
 40
0.0126129321449749
 40
0.0314976481339587
 40
0.0629183966702574
 40
0.0880663439714092
 40
0.1258663548219046
 40
0.1545361786951767
 40
0.1972635113751502
 40
0.2185774264758776
 40
0.250549973449914
 40
0.2790323571745715
 40
0.3220275475257097
 40
0.3436168159336435
 40
0.3758133620275704
 40
0.4042898095068478
 40
0.4468993710431288
 40
0.4682109723921613
 40
0.5002437124696372
 40
0.528853388731771
 40
0.5719828275869605
 40
0.593442063717947
 40
0.6254916984483689
 40
0.6539107272569482
 40
0.6965262692674938
 40
0.7178823906336926
 40
0.7500313093276828
 40
0.7787800102949213
 40
0.8217645159397994
 40
0.8431483194632984
 40
0.8751517844153632
 40
0.9000181010942335
 40
0.937358773167723
 40
0.9685909586685477
 40
1.0
 40
1.0
 40
1.0
 40
1.0
 10
18.3
 20
-30.22558142012643
 30
0.0
 10
18.30272569594447
 20
-30.22556434752625
 30
0.0
 10
18.30953244086249
 20
-30.22552171297095
 30
0.0
 10
18.32312192068607
 20
-30.22500449703673
 30
0.0
 10
18.33938544977022
 20
-30.2237321465761
 30
0.0
 10
18.35962263823536
 20
-30.22117483723599
 30
0.0
 10
18.37912342814686
 20
-30.21766990056754
 30
0.0
 10
18.4020905973581
 20
-30.21222207486888
 30
0.0
 10
18.42129623800885
 20
-30.20644931168887
 30
0.0
 10
18.44082755863401
 20
-30.19943885792772
 30
0.0
 10
18.45718998570674
 20
-30.19274290252151
 30
0.0
 10
18.47744321243868
 20
-30.18326307338969
 30
0.0
 10
18.49514777026505
 20
-30.173681492081
 30
0.0
 10
18.51299887024301
 20
-30.16277896347599
 30
0.0
 10
18.52776206933997
 20
-30.15285978975095
 30
0.0
 10
18.54566370706713
 20
-30.13951958199504
 30
0.0
 10
18.56098911735461
 20
-30.12669241147175
 30
0.0
 10
18.57619506813986
 20
-30.11259090122094
 30
0.0
 10
18.58867147382272
 20
-30.10000934793473
 30
0.0
 10
18.60368863236057
 20
-30.08334675455741
 30
0.0
 10
18.61632529126057
 20
-30.06764146706471
 30
0.0
 10
18.62858943392444
 20
-30.05073531892073
 30
0.0
 10
18.63838877637001
 20
-30.03598007669225
 30
0.0
 10
18.64984348721731
 20
-30.0168676964732
 30
0.0
 10
18.65917024991941
 20
-29.9991957499697
 30
0.0
 10
18.66796418712434
 20
-29.98037484052356
 30
0.0
 10
18.67483422118336
 20
-29.9639724636136
 30
0.0
 10
18.68255017034244
 20
-29.9428852210956
 30
0.0
 10
18.6884419336283
 20
-29.92362739014023
 30
0.0
 10
18.69357143260815
 20
-29.90344062129119
 30
0.0
 10
18.69708101840338
 20
-29.88689085311748
 30
0.0
 10
18.70046357426518
 20
-29.86681061568805
 30
0.0
 10
18.70287526281565
 20
-29.8467534361267
 30
0.0
 10
18.70443558087199
 20
-29.82519260420408
 30
0.0
 10
18.70461727324778
 20
-29.8116545743803
 30
0.0
 10
18.70470837592293
 20
-29.80486644841622
 30
0.0
  0
SPLINE
  5
25D
330
1F
100
AcDbEntity
  8
SK3
  6
SLD-Dashed
370
    18
100
AcDbSpline
210
0.0
220
0.0
230
1.0
 70
     8
 71
     3
 72
    40
 73
    36
 74
     0
 42
0.000000001
 43
0.00000001
 40
0.0
 40
0.0
 40
0.0
 40
0.0
 40
0.0125929119920799
 40
0.0314096195346371
 40
0.0626234169499144
 40
0.0875147363747578
 40
0.1248144128307291
 40
0.1532834083387329
 40
0.1962265830891804
 40
0.2178107992109905
 40
0.2500224951329297
 40
0.2785169301551935
 40
0.3211718523043735
 40
0.3425182663517212
 40
0.3746092478105252
 40
0.4033018002026009
 40
0.4463503818994297
 40
0.4677602234265738
 40
0.4997883410590129
 40
0.5282270395863776
 40
0.5709521530205359
 40
0.592413861861735
 40
0.6247350591047609
 40
0.6534144483970886
 40
0.696168319941901
 40
0.717496931450338
 40
0.7494813527194164
 40
0.7779588669976948
 40
0.8208766717687338
 40
0.8424514691504659
 40
0.8747242821794735
 40
0.8997563983109476
 40
0.9372703102803513
 40
0.9685784185325865
 40
1.0
 40
1.0
 40
1.0
 40
1.0
 10
3.950000000000004
 20
30.22558142012637
 30
0.0
 10
3.947278630487614
 20
30.22556441746846
 30
0.0
 10
3.940490908866773
 20
30.2255220089281
 30
0.0
 10
3.92696508848873
 20
30.22500878447085
 30
0.0
 10
3.910815897791764
 20
30.22374990827881
 30
0.0
 10
3.890783626647183
 20
30.22123374888838
 30
0.0
 10
3.871482565347219
 20
30.21779055348817
 30
0.0
 10
3.848607405882313
 20
30.21241015713827
 30
0.0
 10
3.829331319368893
 20
30.20665667098931
 30
0.0
 10
3.809642218453933
 20
30.19962160064928
 30
0.0
 10
3.793167806815499
 20
30.19290122073892
 30
0.0
 10
3.77292448229818
 20
30.18344563237707
 30
0.0
 10
3.75531761659167
 20
30.1739437360133
 30
0.0
 10
3.737577171360704
 20
30.16314575471339
 30
0.0
 10
3.722818978858867
 20
30.1532706464055
 30
0.0
 10
3.704798099920048
 20
30.1398914446621
 30
0.0
 10
3.689332466278722
 20
30.12697740010818
 30
0.0
 10
3.674029699770648
 20
30.11281096127924
 30
0.0
 10
3.661557220132555
 20
30.10024903998077
 30
0.0
 10
3.646609511589663
 20
30.08369276015743
 30
0.0
 10
3.63403051437266
 20
30.06810049270645
 30
0.0
 10
3.621756928744926
 20
30.05123600708179
 30
0.0
 10
3.611872616558009
 20
30.03639837328908
 30
0.0
 10
3.600324644432406
 20
30.01717281850422
 30
0.0
 10
3.590949392450409
 20
29.99943559548713
 30
0.0
 10
3.582148995017319
 20
29.98063051707894
 30
0.0
 10
3.57530687163083
 20
29.96432508828282
 30
0.0
 10
3.567606450656881
 20
29.94334796470472
 30
0.0
 10
3.561699011690643
 20
29.92412819400953
 30
0.0
 10
3.556524840089357
 20
29.9038649584692
 30
0.0
 10
3.552972986099557
 20
29.8871856268312
 30
0.0
 10
3.549559886390239
 20
29.86697716337639
 30
0.0
 10
3.547128888650073
 20
29.84683182165024
 30
0.0
 10
3.545565946831244
 20
29.82521437831678
 30
0.0
 10
3.54538317520183
 20
29.81165726630968
 30
0.0
 10
3.545291624077135
 20
29.80486644841629
 30
0.0
  0
SPLINE
  5
25E
330
1F
100
AcDbEntity
  8
1
  6
SLD-Dashed
370
    18
100
AcDbSpline
210
0.0
220
0.0
230
1.0
 70
     8
 71
     3
 72
     8
 73
     4
 74
     0
 42
0.000000001
 43
0.00000001
 40
0.0
 40
0.0
 40
0.0
 40
0.0
 40
1.0
 40
1.0
 40
1.0
 40
1.0
 10
9.199999999999985
 20
27.80504563417289
 30
0.0
 10
8.752403481898929
 20
28.61249255653032
 30
0.0
 10
8.30365062048366
 20
29.41929290832669
 30
0.0
 10
7.853987053477382
 20
30.2255814201264
 30
0.0
  0
SPLINE
  5
25F
330
1F
100
AcDbEntity
  8
1
  6
SLD-Dashed
370
    18
100
AcDbSpline
210
0.0
220
0.0
230
1.0
 70
     8
 71
     3
 72
    12
 73
     8
 74
     0
 42
0.000000001
 43
0.00000001
 40
0.0
 40
0.0
 40
0.0
 40
0.0
 40
0.2499999999999984
 40
0.2499999999999984
 40
0.4999999999999969
 40
0.4999999999999969
 40
1.0
 40
1.0
 40
1.0
 40
1.0
 10
9.949999999999987
 20
26.98706356756881
 30
0.0
 10
9.850149452042919
 20
26.9870635675688
 30
0.0
 10
9.748134209428105
 20
27.00887348025307
 30
0.0
 10
9.565410104204544
 20
27.0898925831707
 30
0.0
 10
9.481984824368904
 20
27.14976438531446
 30
0.0
 10
9.27727456740339
 20
27.36818499553367
 30
0.0
 10
9.2
 20
27.56879736260814
 30
0.0
 10
9.2
 20
27.76916635406975
 30
0.0
  0
SPLINE
  5
260
330
1F
100
AcDbEntity
  8
1
  6
SLD-Dashed
370
    18
100
AcDbSpline
210
0.0
220
0.0
230
1.0
 70
     8
 71
     3
 72
    12
 73
     8
 74
     0
 42
0.000000001
 43
0.00000001
 40
0.0
 40
0.0
 40
0.0
 40
0.0
 40
0.2500000000000007
 40
0.2500000000000007
 40
0.5000000000000014
 40
0.5000000000000014
 40
1.0
 40
1.0
 40
1.0
 40
1.0
 10
13.03
 20
27.76916635406975
 30
0.0
 10
13.03
 20
27.66900663339827
 30
0.0
 10
13.01145353522916
 20
27.56910146598283
 30
0.0
 10
12.93858199206009
 20
27.38178244661978
 30
0.0
 10
12.88523035542459
 20
27.29613295246496
 30
0.0
 10
12.67790477657023
 20
27.07503152815011
 30
0.0
 10
12.47994383972985
 20
26.98706356756884
 30
0.0
 10
12.28000000000001
 20
26.98706356756881
 30
0.0
  0
SPLINE
  5
261
330
1F
100
AcDbEntity
  8
1
  6
SLD-Dashed
370
    18
100
AcDbSpline
210
0.0
220
0.0
230
1.0
 70
     8
 71
     3
 72
     8
 73
     4
 74
     0
 42
0.000000001
 43
0.00000001
 40
0.0
 40
0.0
 40
0.0
 40
0.0
 40
1.0
 40
1.0
 40
1.0
 40
1.0
 10
14.37595046659275
 20
30.22546938779912
 30
0.0
 10
13.92630781119526
 20
29.41921817244961
 30
0.0
 10
13.47757578719337
 20
28.61245515876932
 30
0.0
 10
13.03
 20
27.80504563417289
 30
0.0
  0
SPLINE
  5
262
330
1F
100
AcDbEntity
  8
SK3
  6
SLD-Dashed
370
    18
100
AcDbSpline
210
0.0
220
0.0
230
1.0
 70
     8
 71
     3
 72
    39
 73
    35
 74
     0
 42
0.000000001
 43
0.00000001
 40
0.0
 40
0.0
 40
0.0
 40
0.0
 40
0.0314091160307677
 40
0.062641375864154
 40
0.0875470935131889
 40
0.1248485138287462
 40
0.1532930400450872
 40
0.1960941157944515
 40
0.2176225947738144
 40
0.2499693772004302
 40
0.2785546285585205
 40
0.3212364873026964
 40
0.3425405354923894
 40
0.3745092858974103
 40
0.4029918411019262
 40
0.4459785689856202
 40
0.4675618916159423
 40
0.4997576608210476
 40
0.5282368343000382
 40
0.5708480092883969
 40
0.5921584935845849
 40
0.624188332845246
 40
0.6527986190299447
 40
0.6959401501309724
 40
0.7174023419155647
 40
0.7494519752642036
 40
0.7778741158300034
 40
0.8205144520917296
 40
0.8418962920619176
 40
0.8741359236783779
 40
0.8993502252909584
 40
0.9370840470446232
 40
0.9685048711195082
 40
1.0
 40
1.0
 40
1.0
 40
1.0
 10
18.70461115500203
 20
29.80485527419826
 30
0.0
 10
18.70452025144943
 20
29.81164171345385
 30
0.0
 10
18.70433895619737
 20
29.82517637936968
 30
0.0
 10
18.70297056619667
 20
29.84405190465712
 30
0.0
 10
18.70074103176618
 20
29.86411824570159
 30
0.0
 10
18.69766377514249
 20
29.88347227622582
 30
0.0
 10
18.69285822025328
 20
29.90643124843558
 30
0.0
 10
18.68771177437779
 20
29.92581971282424
 30
0.0
 10
18.68138591064229
 20
29.94572790966326
 30
0.0
 10
18.67530704307359
 20
29.96248267210257
 30
0.0
 10
18.6667122239519
 20
29.98315850998393
 30
0.0
 10
18.65804498468777
 20
30.00120090567664
 30
0.0
 10
18.64816898127238
 20
30.01943081107649
 30
0.0
 10
18.63912598786658
 20
30.03461278108225
 30
0.0
 10
18.62681037274124
 20
30.05326734966762
 30
0.0
 10
18.61481562184565
 20
30.06942261759878
 30
0.0
 10
18.60152603092412
 20
30.08556438898109
 30
0.0
 10
18.58965984265966
 20
30.09880574838227
 30
0.0
 10
18.57398746850279
 20
30.11469877887869
 30
0.0
 10
18.55918618111312
 20
30.1281209668681
 30
0.0
 10
18.5431379107356
 20
30.14124723286362
 30
0.0
 10
18.52896425933555
 20
30.15187245989084
 30
0.0
 10
18.51038407954443
 20
30.16443427377514
 30
0.0
 10
18.49306028314308
 20
30.17474090541244
 30
0.0
 10
18.47457768707377
 20
30.18446497823759
 30
0.0
 10
18.45855895706398
 20
30.19201976729602
 30
0.0
 10
18.43796004437194
 20
30.20051935318399
 30
0.0
 10
18.4190661259266
 20
30.20705284128372
 30
0.0
 10
18.39907752149929
 20
30.21280585013027
 30
0.0
 10
18.38250765201567
 20
30.21678677988689
 30
0.0
 10
18.36230136175011
 20
30.22064109222356
 30
0.0
 10
18.34208698503432
 20
30.22338985618061
 30
0.0
 10
18.32039969464306
 20
30.22516034748688
 30
0.0
 10
18.30680524997082
 20
30.22536629328656
 30
0.0
 10
18.30000000000005
 20
30.22546938779912
 30
0.0
  0
SPLINE
  5
263
330
1F
100
AcDbEntity
  8
SK3
  6
SLD-Dashed
370
    18
100
AcDbSpline
210
0.0
220
0.0
230
1.0
 70
     8
 71
     3
 72
    34
 73
    30
 74
     0
 42
0.000000001
 43
0.00000001
 40
0.4999999999999964
 40
0.4999999999999964
 40
0.4999999999999964
 40
0.4999999999999964
 40
0.5624999999999961
 40
0.5624999999999961
 40
0.5937499999999962
 40
0.5937499999999962
 40
0.6249999999999963
 40
0.6249999999999963
 40
0.6562499999999964
 40
0.6562499999999964
 40
0.6874999999999966
 40
0.6874999999999966
 40
0.7499999999999971
 40
0.7499999999999971
 40
0.7812499999999974
 40
0.7812499999999974
 40
0.8124999999999978
 40
0.8124999999999978
 40
0.8437499999999982
 40
0.8437499999999982
 40
0.8749999999999986
 40
0.8749999999999986
 40
0.9062499999999989
 40
0.9062499999999989
 40
0.9374999999999992
 40
0.9374999999999992
 40
0.9687499999999997
 40
0.9687499999999997
 40
1.0
 40
1.0
 40
1.0
 40
1.0
 10
10.43489457346451
 20
9.192707275454424
 30
0.0
 10
10.57763203931583
 20
9.178391047657614
 30
0.0
 10
10.73072898252596
 20
9.148788373493304
 30
0.0
 10
11.00846457422353
 20
9.079848161145563
 30
0.0
 10
11.10872720463399
 20
9.052921739824741
 30
0.0
 10
11.33151412887494
 20
8.987194762961344
 30
0.0
 10
11.45288474947191
 20
8.948740399015172
 30
0.0
 10
11.69975803299397
 20
8.855687905200394
 30
0.0
 10
11.82369929941918
 20
8.80103390362743
 30
0.0
 10
12.05254486308015
 20
8.674067238076615
 30
0.0
 10
12.15835137945201
 20
8.601647149158655
 30
0.0
 10
12.44326053814744
 20
8.3542096128539
 30
0.0
 10
12.58579742123005
 20
8.151094935723822
 30
0.0
 10
12.70895241472732
 20
7.809142101035414
 30
0.0
 10
12.73535560308829
 20
7.68700358996962
 30
0.0
 10
12.75526974501039
 20
7.441164323332035
 30
0.0
 10
12.74937513382361
 20
7.31528186355649
 30
0.0
 10
12.70533810945414
 20
7.063941193639963
 30
0.0
 10
12.66802095968712
 20
6.94163100009642
 30
0.0
 10
12.56344952904385
 20
6.704179749394003
 30
0.0
 10
12.49625932456629
 20
6.590217548379678
 30
0.0
 10
12.33809446794183
 20
6.382378293731277
 30
0.0
 10
12.24493473983124
 20
6.285873995051198
 30
0.0
 10
12.04054915126639
 20
6.122156553344173
 30
0.0
 10
11.9293214784509
 20
6.054026580940127
 30
0.0
 10
11.68736550523705
 20
5.952992896783492
 30
0.0
 10
11.56181201416268
 20
5.923411177353239
 30
0.0
 10
11.31821027169287
 20
5.909336941584402
 30
0.0
 10
11.20410590689122
 20
5.924577191512063
 30
0.0
 10
11.10000000000001
 20
5.953410618658249
 30
0.0
  0
SPLINE
  5
264
330
1F
100
AcDbEntity
  8
SK3
  6
SLD-Dashed
370
    18
100
AcDbSpline
210
0.0
220
0.0
230
1.0
 70
     8
 71
     3
 72
    32
 73
    28
 74
     0
 42
0.000000001
 43
0.00000001
 40
0.0
 40
0.0
 40
0.0
 40
0.0
 40
0.0312499999999998
 40
0.0312499999999998
 40
0.0624999999999996
 40
0.0624999999999996
 40
0.1249999999999991
 40
0.1249999999999991
 40
0.1874999999999986
 40
0.1874999999999986
 40
0.2187499999999983
 40
0.2187499999999983
 40
0.2499999999999979
 40
0.2499999999999979
 40
0.2812499999999978
 40
0.2812499999999978
 40
0.3124999999999976
 40
0.3124999999999976
 40
0.3437499999999974
 40
0.3437499999999974
 40
0.3749999999999972
 40
0.3749999999999972
 40
0.406249999999997
 40
0.406249999999997
 40
0.4374999999999968
 40
0.4374999999999968
 40
0.4999999999999964
 40
0.4999999999999964
 40
0.4999999999999964
 40
0.4999999999999964
 10
11.10000000000001
 20
5.953410618658249
 30
0.0
 10
10.99589409310879
 20
5.982244045804435
 30
0.0
 10
10.90407857642198
 20
6.023103286373573
 30
0.0
 10
10.73262137377525
 20
6.118240725872824
 30
0.0
 10
10.65318813797005
 20
6.172784121821907
 30
0.0
 10
10.42547236553634
 20
6.352355611395098
 30
0.0
 10
10.29042057236915
 20
6.490344336420463
 30
0.0
 10
10.03758703563627
 20
6.798492095359341
 30
0.0
 10
9.919813607757956
 20
6.968691620995678
 30
0.0
 10
9.755188160048112
 20
7.264657280293567
 30
0.0
 10
9.702965925809076
 20
7.36952916930763
 30
0.0
 10
9.608196888300572
 20
7.590905988961221
 30
0.0
 10
9.564891013149571
 20
7.708630023759009
 30
0.0
 10
9.49358862725347
 20
7.962877344356849
 30
0.0
 10
9.46689227676846
 20
8.097433676092718
 30
0.0
 10
9.444811777617273
 20
8.35746663645976
 30
0.0
 10
9.450063840888228
 20
8.483405619809336
 30
0.0
 10
9.490124926315874
 20
8.696446913670282
 30
0.0
 10
9.523244242074139
 20
8.782864284801857
 30
0.0
 10
9.604247903804639
 20
8.92514426674946
 30
0.0
 10
9.65074356746913
 20
8.979230676614138
 30
0.0
 10
9.751569607309607
 20
9.067142795898937
 30
0.0
 10
9.806244160784559
 20
9.100654189155017
 30
0.0
 10
9.91929173158787
 20
9.151642126956078
 30
0.0
 10
9.978038231873294
 20
9.169399205425442
 30
0.0
 10
10.16095206270198
 20
9.205547608603656
 30
0.0
 10
10.29215710761321
 20
9.207023503251234
 30
0.0
 10
10.43489457346451
 20
9.192707275454424
 30
0.0
  0
DIMENSION
  5
265
330
1F
100
AcDbEntity
  8
2
100
AcDbDimension
  2
_D
 10
66.548
 20
63.6976937193
 30
0.0
 11
29.5478153332
 21
63.6976937193
 31
0.0
 70
   160
  1
<>
 71
     2
 42
-1.0
  3
SLDDIMSTYLE0
100
AcDbAlignedDimension
 13
0.0
 23
22.225
 33
0.0
 14
66.548
 24
11.303
 34
0.0
100
AcDbRotatedDimension
  0
DIMENSION
  5
27A
330
1F
100
AcDbEntity
  8
SK2
100
AcDbDimension
  2
_D_1
 10
66.548
 20
51.3840636056
 30
0.0
 11
41.7678369956
 21
51.3840636056
 31
0.0
 70
   160
  1
<>
 71
     2
 42
-1.0
  3
SLDDIMSTYLE0
100
AcDbAlignedDimension
 13
19.05
 23
29.8048664484
 33
0.0
 14
66.548
 24
11.303
 34
0.0
100
AcDbRotatedDimension
  0
DIMENSION
  5
28D
330
1F
100
AcDbEntity
  8
SK2
100
AcDbDimension
  2
_D_2
 10
66.548
 20
38.1253625679
 30
0.0
 11
50.9923882174
 21
38.1253625679
 31
0.0
 70
   160
  1
<>
 71
     2
 42
-1.0
  3
SLDDIMSTYLE0
100
AcDbAlignedDimension
 13
35.05
 23
21.463
 33
0.0
 14
66.548
 24
11.303
 34
0.0
100
AcDbRotatedDimension
  0
DIMENSION
  5
2A0
330
1F
100
AcDbEntity
  8
SK2
100
AcDbDimension
  2
_D_3
 10
66.548
 20
24.755829124
 30
0.0
 11
56.4643638448
 21
24.755829124
 31
0.0
 70
   160
  1
<>
 71
     2
 42
-1.0
  3
SLDDIMSTYLE0
100
AcDbAlignedDimension
 13
44.323
 23
16.375
 33
0.0
 14
66.548
 24
11.303
 34
0.0
100
AcDbRotatedDimension
  0
DIMENSION
  5
2B3
330
1F
100
AcDbEntity
  8
SK2
100
AcDbDimension
  2
_D_4
 10
82.137407449
 20
-6.35
 30
0.0
 11
82.137407449
 21
0.1251319944
 31
0.0
 70
   160
  1
%%c<>
 71
     2
 42
-1.0
  3
SLDDIMSTYLE1
100
AcDbAlignedDimension
 13
65.548
 23
6.35
 33
0.0
 14
65.548
 24
-6.35
 34
0.0
 50
90.0
100
AcDbRotatedDimension
  0
DIMENSION
  5
2C8
330
1F
100
AcDbEntity
  8
SK2
100
AcDbDimension
  2
_D_5
 10
96.5633707469
 20
-11.303
 30
0.0
 11
96.5633707469
 21
0.1251319944
 31
0.0
 70
   160
  1
%%c<>
 71
     2
 42
-1.0
  3
SLDDIMSTYLE0
100
AcDbAlignedDimension
 13
66.548
 23
11.303
 33
0.0
 14
66.548
 24
-11.303
 34
0.0
 50
90.0
100
AcDbRotatedDimension
  0
DIMENSION
  5
2DA
330
1F
100
AcDbEntity
  8
SK2
100
AcDbDimension
  2
_D_6
 10
109.6877433713
 20
-15.875
 30
0.0
 11
109.6877433713
 21
0.1251319944
 31
0.0
 70
   160
  1
%%c<>
 71
     2
 42
-1.0
  3
SLDDIMSTYLE0
100
AcDbAlignedDimension
 13
61.976
 23
15.875
 33
0.0
 14
61.976
 24
-15.875
 34
0.0
 50
90.0
100
AcDbRotatedDimension
  0
DIMENSION
  5
2EC
330
1F
100
AcDbEntity
  8
SK2
100
AcDbDimension
  2
_D_7
 10
66.548
 20
-54.8118309826
 30
0.0
 11
-19.4954688971
 21
-54.8118309826
 31
0.0
 70
   160
  1
<>
 71
     2
 42
-1.0
  3
SLDDIMSTYLE2
100
AcDbAlignedDimension
 13
-68.25
 23
-11.1476148288
 33
0.0
 14
66.548
 24
-11.303
 34
0.0
 50
0.0
100
AcDbRotatedDimension
  0
DIMENSION
  5
300
330
1F
100
AcDbEntity
  8
SK2
100
AcDbDimension
  2
_D_8
 10
66.548
 20
-43.6133552172
 30
0.0
 11
39.9337952554
 21
-43.6133552172
 31
0.0
 70
   160
  1
<>
 71
     2
 42
-1.0
  3
SLDDIMSTYLE0
100
AcDbAlignedDimension
 13
22.0980850117
 23
-6.35
 33
0.0
 14
66.548
 24
-11.303
 34
0.0
100
AcDbRotatedDimension
  0
DIMENSION
  5
313
330
1F
100
AcDbEntity
  8
SK2
100
AcDbDimension
  2
_D_9
 10
66.548
 20
-30.2505536378
 30
0.0
 11
54.6612856992
 21
-30.2505536378
 31
0.0
 70
   160
  1
<>
 71
     2
 42
-1.0
  3
SLDDIMSTYLE3
100
AcDbAlignedDimension
 13
61.976
 23
-15.875
 33
0.0
 14
66.548
 24
-11.303
 34
0.0
100
AcDbRotatedDimension
  0
DIMENSION
  5
320
330
1F
100
AcDbEntity
  8
SK2
100
AcDbDimension
  2
_D_10
 10
19.05
 20
51.3840636056
 30
0.0
 11
8.7669345207
 21
51.3840636056
 31
0.0
 70
   160
  1
<>
 71
     2
 42
-1.0
  3
SLDDIMSTYLE4
100
AcDbAlignedDimension
 13
0.0
 23
22.225
 33
0.0
 14
19.05
 24
29.8048664484
 34
0.0
100
AcDbRotatedDimension
  0
DIMENSION
  5
32B
330
1F
100
AcDbEntity
  8
SK2
100
AcDbDimension
  2
_D_11
 10
-91.8047467014
 20
-30.5579086614
 30
0.0
 11
-91.8047467014
 21
3.139474263
 31
0.0
 70
   160
  1
%%c<>
 71
     2
 42
-1.0
  3
SLDDIMSTYLE0
100
AcDbAlignedDimension
 13
5.7694368227
 23
30.5578899967
 33
0.0
 14
5.7694368227
 24
-30.5579086614
 34
0.0
 50
90.0
100
AcDbRotatedDimension
  0
DIMENSION
  5
33D
330
1F
100
AcDbEntity
  8
SK2
100
AcDbDimension
  2
_D_12
 10
-81.5648514598
 20
-7.9375002533
 30
0.0
 11
-81.5648514598
 21
3.139474263
 31
0.0
 70
   160
  1
<>
 71
     2
 42
-1.0
  3
SLDDIMSTYLE5
100
AcDbAlignedDimension
 13
-63.3082389832
 23
7.9375002533
 33
0.0
 14
-63.3082389832
 24
-7.9375002533
 34
0.0
 50
90.0
100
AcDbRotatedDimension
  0
MTEXT
  5
34B
330
1F
100
AcDbEntity
  8
SK6
 62
     5
100
AcDbMText
 10
-56.2952201325
 20
26.7684620092
 30
0.0
 40
3.5
 41
0.0
 71
     1
 72
     1
  1
ASME B5.50 CAT 40
  7
SLDTEXTSTYLE0
 73
     1
 44
1.0
  0
MTEXT
  5
34C
330
1F
100
AcDbEntity
  8
SK6
 62
     5
100
AcDbMText
 10
-53.2959144074
 20
-23.4775377158
 30
0.0
 40
3.5
 41
0.0
 71
     1
 72
     1
  1
AA3B20-40 13 067
  7
SLDTEXTSTYLE0
 73
     1
 44
1.0
  0
ENDSEC
  0
SECTION
  2
OBJECTS
  0
DICTIONARY
  5
C
330
0
100
AcDbDictionary
281
     1
  3
ACAD_GROUP
350
D
  3
ACAD_LAYOUT
350
1A
  3
ACAD_MLINESTYLE
350
17
  3
ACAD_PLOTSETTINGS
350
19
  3
ACAD_PLOTSTYLENAME
350
E
  3
ACAD_SCALELIST
350
47
  0
DICTIONARY
  5
D
102
{ACAD_REACTORS
330
C
102
}
330
C
100
AcDbDictionary
281
     1
  0
DICTIONARY
  5
1A
102
{ACAD_REACTORS
330
C
102
}
330
C
100
AcDbDictionary
281
     1
  3
Layout1
350
1E
  3
Layout2
350
26
  3
Model
350
22
  0
DICTIONARY
  5
17
102
{ACAD_REACTORS
330
C
102
}
330
C
100
AcDbDictionary
281
     1
  3
Standard
350
18
  0
DICTIONARY
  5
19
102
{ACAD_REACTORS
330
C
102
}
330
C
100
AcDbDictionary
281
     1
  0
ACDBDICTIONARYWDFLT
  5
E
102
{ACAD_REACTORS
330
C
102
}
330
C
100
AcDbDictionary
281
     1
  3
Normal
350
F
100
AcDbDictionaryWithDefault
340
F
  0
DICTIONARY
  5
47
102
{ACAD_REACTORS
330
C
102
}
330
C
100
AcDbDictionary
281
     1
  3
A0
350
48
  3
A1
350
49
  3
A2
350
4A
  3
A3
350
4B
  3
A4
350
4C
  3
A5
350
4D
  3
A6
350
4E
  3
A7
350
4F
  3
A8
350
50
  3
A9
350
51
  3
B0
350
52
  3
B1
350
53
  3
B2
350
54
  3
B3
350
55
  3
B4
350
56
  3
B5
350
57
  3
B6
350
58
  3
B7
350
59
  3
B8
350
5A
  3
B9
350
5B
  3
C0
350
5C
  3
C1
350
5D
  3
C2
350
5E
  3
C3
350
5F
  3
C4
350
60
  3
C5
350
61
  3
C6
350
62
  3
C7
350
63
  3
C8
350
64
  3
C9
350
65
  3
D0
350
66
  3
D1
350
67
  3
D2
350
68
  0
LAYOUT
  5
1E
102
{ACAD_REACTORS
330
1A
102
}
330
1A
100
AcDbPlotSettings
  1

  2
none_device
  4

  6

 40
0.0
 41
0.0
 42
0.0
 43
0.0
 44
0.0
 45
0.0
 46
0.0
 47
0.0
 48
0.0
 49
0.0
140
0.0
141
0.0
142
1.0
143
1.0
 70
   688
 72
     1
 73
     0
 74
     5
  7

 75
    16
147
1.0
148
0.0
149
0.0
100
AcDbLayout
  1
Layout1
 70
     1
 71
     1
 10
0.0
 20
0.0
 11
420.0
 21
297.0
 12
0.0
 22
0.0
 32
0.0
 14
1.0000000000E+20
 24
1.0000000000E+20
 34
1.0000000000E+20
 15
-1.0000000000E+20
 25
-1.0000000000E+20
 35
-1.0000000000E+20
146
0.0
 13
0.0
 23
0.0
 33
0.0
 16
1.0
 26
0.0
 36
0.0
 17
0.0
 27
1.0
 37
0.0
 76
     0
330
1B
  0
LAYOUT
  5
26
102
{ACAD_REACTORS
330
1A
102
}
330
1A
100
AcDbPlotSettings
  1

  2
none_device
  4

  6

 40
0.0
 41
0.0
 42
0.0
 43
0.0
 44
0.0
 45
0.0
 46
0.0
 47
0.0
 48
0.0
 49
0.0
140
0.0
141
0.0
142
1.0
143
1.0
 70
   688
 72
     1
 73
     0
 74
     5
  7

 75
    16
147
1.0
148
0.0
149
0.0
100
AcDbLayout
  1
Layout2
 70
     1
 71
     2
 10
0.0
 20
0.0
 11
0.0
 21
0.0
 12
0.0
 22
0.0
 32
0.0
 14
0.0
 24
0.0
 34
0.0
 15
0.0
 25
0.0
 35
0.0
146
0.0
 13
0.0
 23
0.0
 33
0.0
 16
1.0
 26
0.0
 36
0.0
 17
0.0
 27
1.0
 37
0.0
 76
     0
330
23
  0
LAYOUT
  5
22
102
{ACAD_REACTORS
330
1A
102
}
330
1A
100
AcDbPlotSettings
  1

  2
none_device
  4
Letter_(8.50_x_11.00_Inches)
  6

 40
6.35
 41
6.35
 42
6.35000508
 43
6.35000508
 44
215.9
 45
279.4
 46
0.0
 47
0.0
 48
0.0
 49
0.0
140
0.0
141
0.0
142
1.0
143
1.0
 70
  1712
 72
     1
 73
     0
 74
     0
  7

 75
     0
147
1.0
148
0.0
149
0.0
100
AcDbLayout
  1
Model
 70
     1
 71
     0
 10
0.0
 20
0.0
 11
297.0
 21
210.0
 12
0.0
 22
0.0
 32
0.0
 14
0.0
 24
0.0
 34
0.0
 15
297.0
 25
210.0
 35
0.0
146
0.0
 13
0.0
 23
0.0
 33
0.0
 16
1.0
 26
0.0
 36
0.0
 17
0.0
 27
1.0
 37
0.0
 76
     0
330
1F
331
29
  0
MLINESTYLE
  5
18
102
{ACAD_REACTORS
330
17
102
}
330
17
100
AcDbMlineStyle
  2
Standard
 70
     0
  3

 62
   256
 51
90.0
 52
90.0
 71
     2
 49
0.5
 62
   256
  6
BYLAYER
 49
-0.5
 62
   256
  6
BYLAYER
  0
ACDBPLACEHOLDER
  5
F
102
{ACAD_REACTORS
330
E
102
}
330
E
  0
SCALE
  5
48
102
{ACAD_REACTORS
330
47
102
}
330
47
100
AcDbScale
 70
     0
300
1:1
140
1.0
141
1.0
290
     1
  0
SCALE
  5
49
102
{ACAD_REACTORS
330
47
102
}
330
47
100
AcDbScale
 70
     0
300
1:2
140
1.0
141
2.0
290
     0
  0
SCALE
  5
4A
102
{ACAD_REACTORS
330
47
102
}
330
47
100
AcDbScale
 70
     0
300
1:4
140
1.0
141
4.0
290
     0
  0
SCALE
  5
4B
102
{ACAD_REACTORS
330
47
102
}
330
47
100
AcDbScale
 70
     0
300
1:5
140
1.0
141
5.0
290
     0
  0
SCALE
  5
4C
102
{ACAD_REACTORS
330
47
102
}
330
47
100
AcDbScale
 70
     0
300
1:8
140
1.0
141
8.0
290
     0
  0
SCALE
  5
4D
102
{ACAD_REACTORS
330
47
102
}
330
47
100
AcDbScale
 70
     0
300
1:10
140
1.0
141
10.0
290
     0
  0
SCALE
  5
4E
102
{ACAD_REACTORS
330
47
102
}
330
47
100
AcDbScale
 70
     0
300
1:16
140
1.0
141
16.0
290
     0
  0
SCALE
  5
4F
102
{ACAD_REACTORS
330
47
102
}
330
47
100
AcDbScale
 70
     0
300
1:20
140
1.0
141
20.0
290
     0
  0
SCALE
  5
50
102
{ACAD_REACTORS
330
47
102
}
330
47
100
AcDbScale
 70
     0
300
1:30
140
1.0
141
30.0
290
     0
  0
SCALE
  5
51
102
{ACAD_REACTORS
330
47
102
}
330
47
100
AcDbScale
 70
     0
300
1:40
140
1.0
141
40.0
290
     0
  0
SCALE
  5
52
102
{ACAD_REACTORS
330
47
102
}
330
47
100
AcDbScale
 70
     0
300
1:50
140
1.0
141
50.0
290
     0
  0
SCALE
  5
53
102
{ACAD_REACTORS
330
47
102
}
330
47
100
AcDbScale
 70
     0
300
1:100
140
1.0
141
100.0
290
     0
  0
SCALE
  5
54
102
{ACAD_REACTORS
330
47
102
}
330
47
100
AcDbScale
 70
     0
300
2:1
140
2.0
141
1.0
290
     0
  0
SCALE
  5
55
102
{ACAD_REACTORS
330
47
102
}
330
47
100
AcDbScale
 70
     0
300
4:1
140
4.0
141
1.0
290
     0
  0
SCALE
  5
56
102
{ACAD_REACTORS
330
47
102
}
330
47
100
AcDbScale
 70
     0
300
8:1
140
8.0
141
1.0
290
     0
  0
SCALE
  5
57
102
{ACAD_REACTORS
330
47
102
}
330
47
100
AcDbScale
 70
     0
300
10:1
140
10.0
141
1.0
290
     0
  0
SCALE
  5
58
102
{ACAD_REACTORS
330
47
102
}
330
47
100
AcDbScale
 70
     0
300
100:1
140
100.0
141
1.0
290
     0
  0
SCALE
  5
59
102
{ACAD_REACTORS
330
47
102
}
330
47
100
AcDbScale
 70
     0
300
1/128" = 1'-0"
140
0.0078125
141
12.0
290
     0
  0
SCALE
  5
5A
102
{ACAD_REACTORS
330
47
102
}
330
47
100
AcDbScale
 70
     0
300
1/64" = 1'-0"
140
0.015625
141
12.0
290
     0
  0
SCALE
  5
5B
102
{ACAD_REACTORS
330
47
102
}
330
47
100
AcDbScale
 70
     0
300
1/32" = 1'-0"
140
0.03125
141
12.0
290
     0
  0
SCALE
  5
5C
102
{ACAD_REACTORS
330
47
102
}
330
47
100
AcDbScale
 70
     0
300
1/16" = 1'-0"
140
0.0625
141
12.0
290
     0
  0
SCALE
  5
5D
102
{ACAD_REACTORS
330
47
102
}
330
47
100
AcDbScale
 70
     0
300
3/32" = 1'-0"
140
0.09375
141
12.0
290
     0
  0
SCALE
  5
5E
102
{ACAD_REACTORS
330
47
102
}
330
47
100
AcDbScale
 70
     0
300
1/8" = 1'-0"
140
0.125
141
12.0
290
     0
  0
SCALE
  5
5F
102
{ACAD_REACTORS
330
47
102
}
330
47
100
AcDbScale
 70
     0
300
3/16" = 1'-0"
140
0.1875
141
12.0
290
     0
  0
SCALE
  5
60
102
{ACAD_REACTORS
330
47
102
}
330
47
100
AcDbScale
 70
     0
300
1/4" = 1'-0"
140
0.25
141
12.0
290
     0
  0
SCALE
  5
61
102
{ACAD_REACTORS
330
47
102
}
330
47
100
AcDbScale
 70
     0
300
3/8" = 1'-0"
140
0.375
141
12.0
290
     0
  0
SCALE
  5
62
102
{ACAD_REACTORS
330
47
102
}
330
47
100
AcDbScale
 70
     0
300
1/2" = 1'-0"
140
0.5
141
12.0
290
     0
  0
SCALE
  5
63
102
{ACAD_REACTORS
330
47
102
}
330
47
100
AcDbScale
 70
     0
300
3/4" = 1'-0"
140
0.75
141
12.0
290
     0
  0
SCALE
  5
64
102
{ACAD_REACTORS
330
47
102
}
330
47
100
AcDbScale
 70
     0
300
1" = 1'-0"
140
1.0
141
12.0
290
     0
  0
SCALE
  5
65
102
{ACAD_REACTORS
330
47
102
}
330
47
100
AcDbScale
 70
     0
300
1-1/2" = 1'-0"
140
1.5
141
12.0
290
     0
  0
SCALE
  5
66
102
{ACAD_REACTORS
330
47
102
}
330
47
100
AcDbScale
 70
     0
300
3" = 1'-0"
140
3.0
141
12.0
290
     0
  0
SCALE
  5
67
102
{ACAD_REACTORS
330
47
102
}
330
47
100
AcDbScale
 70
     0
300
6" = 1'-0"
140
6.0
141
12.0
290
     0
  0
SCALE
  5
68
102
{ACAD_REACTORS
330
47
102
}
330
47
100
AcDbScale
 70
     0
300
1'-0" = 1'-0"
140
12.0
141
12.0
290
     0
  0
ENDSEC
  0
EOF
