  0
SECTION
  2
HEADER
  9
$ACADVER
  1
AC1015
  9
$ACADMAINTVER
 70
     6
  9
$DWGCODEPAGE
  3
ANSI_1250
  9
$INSBASE
 10
0.0
 20
0.0
 30
0.0
  9
$EXTMIN
 10
0.0
 20
0.0
 30
0.0
  9
$EXTMAX
 10
297.0
 20
210.0
 30
0.0
  9
$LIMMIN
 10
0.0
 20
0.0
  9
$LIMMAX
 10
297.0
 20
210.0
  9
$ORTHOMODE
 70
     0
  9
$REGENMODE
 70
     1
  9
$FILLMODE
 70
     1
  9
$QTEXTMODE
 70
     0
  9
$MIRRTEXT
 70
     1
  9
$LTSCALE
 40
1.0
  9
$ATTMODE
 70
     1
  9
$TEXTSIZE
 40
3.5
  9
$TRACEWID
 40
1.0
  9
$TEXTSTYLE
  7
Standard
  9
$CLAYER
  8
0
  9
$CELTYPE
  6
ByLayer
  9
$CECOLOR
 62
   256
  9
$CELTSCALE
 40
1.0
  9
$DISPSILH
 70
     0
  9
$DIMSCALE
 40
1.0
  9
$DIMASZ
 40
3.302
  9
$DIMEXO
 40
1.0
  9
$DIMDLI
 40
3.75
  9
$DIMRND
 40
0.0
  9
$DIMDLE
 40
0.0
  9
$DIMEXE
 40
1.0
  9
$DIMTP
 40
0.0
  9
$DIMTM
 40
0.0
  9
$DIMTXT
 40
3.5
  9
$DIMCEN
 40
2.5
  9
$DIMTSZ
 40
0.0
  9
$DIMTOL
 70
     0
  9
$DIMLIM
 70
     0
  9
$DIMTIH
 70
     1
  9
$DIMTOH
 70
     1
  9
$DIMSE1
 70
     0
  9
$DIMSE2
 70
     0
  9
$DIMTAD
 70
     1
  9
$DIMZIN
 70
     0
  9
$DIMBLK
  1

  9
$DIMASO
 70
     1
  9
$DIMSHO
 70
     1
  9
$DIMPOST
  1

  9
$DIMAPOST
  1

  9
$DIMALT
 70
     0
  9
$DIMALTD
 70
     3
  9
$DIMALTF
 40
0.0393700787
  9
$DIMLFAC
 40
1.0
  9
$DIMTOFL
 70
     1
  9
$DIMTVP
 40
0.0
  9
$DIMTIX
 70
     0
  9
$DIMSOXD
 70
     0
  9
$DIMSAH
 70
     0
  9
$DIMBLK1
  1

  9
$DIMBLK2
  1

  9
$DIMSTYLE
  2
ISO-25
  9
$DIMCLRD
 70
     0
  9
$DIMCLRE
 70
     0
  9
$DIMCLRT
 70
     0
  9
$DIMTFAC
 40
1.0
  9
$DIMGAP
 40
1.524
  9
$DIMJUST
 70
     0
  9
$DIMSD1
 70
     0
  9
$DIMSD2
 70
     0
  9
$DIMTOLJ
 70
     0
  9
$DIMTZIN
 70
     0
  9
$DIMALTZ
 70
     0
  9
$DIMALTTZ
 70
     0
  9
$DIMUPT
 70
     0
  9
$DIMDEC
 70
     2
  9
$DIMTDEC
 70
     2
  9
$DIMALTU
 70
     2
  9
$DIMALTTD
 70
     3
  9
$DIMTXSTY
  7
Standard
  9
$DIMAUNIT
 70
     0
  9
$DIMADEC
 70
     2
  9
$DIMALTRND
 40
0.0
  9
$DIMAZIN
 70
     0
  9
$DIMDSEP
 70
    44
  9
$DIMATFIT
 70
     3
  9
$DIMFRAC
 70
     0
  9
$DIMLDRBLK
  1

  9
$DIMLUNIT
 70
     2
  9
$DIMLWD
 70
    -2
  9
$DIMLWE
 70
    -2
  9
$DIMTMOVE
 70
     0
  9
$LUNITS
 70
     2
  9
$LUPREC
 70
     2
  9
$SKETCHINC
 40
1.0
  9
$FILLETRAD
 40
10.0
  9
$AUNITS
 70
     0
  9
$AUPREC
 70
     2
  9
$MENU
  1
.
  9
$ELEVATION
 40
0.0
  9
$PELEVATION
 40
0.0
  9
$THICKNESS
 40
0.0
  9
$LIMCHECK
 70
     0
  9
$CHAMFERA
 40
0.0
  9
$CHAMFERB
 40
0.0
  9
$CHAMFERC
 40
0.0
  9
$CHAMFERD
 40
0.0
  9
$SKPOLY
 70
     0
  9
$TDCREATE
 40
2459278.312420162
  9
$TDUCREATE
 40
2459278.270753495
  9
$TDUPDATE
 40
2459278.312421898
  9
$TDUUPDATE
 40
2459278.270755231
  9
$TDINDWG
 40
0.0000000116
  9
$TDUSRTIMER
 40
0.0000000116
  9
$USRTIMER
 70
     1
  9
$ANGBASE
 50
0.0
  9
$ANGDIR
 70
     0
  9
$PDMODE
 70
     0
  9
$PDSIZE
 40
-1.0
  9
$PLINEWID
 40
0.0
  9
$SPLFRAME
 70
     0
  9
$SPLINETYPE
 70
     6
  9
$SPLINESEGS
 70
     8
  9
$HANDSEED
  5
37B
  9
$SURFTAB1
 70
     6
  9
$SURFTAB2
 70
     6
  9
$SURFTYPE
 70
     6
  9
$SURFU
 70
     6
  9
$SURFV
 70
     6
  9
$UCSBASE
  2

  9
$UCSNAME
  2

  9
$UCSORG
 10
0.0
 20
0.0
 30
0.0
  9
$UCSXDIR
 10
1.0
 20
0.0
 30
0.0
  9
$UCSYDIR
 10
0.0
 20
1.0
 30
0.0
  9
$UCSORTHOREF
  2

  9
$UCSORTHOVIEW
 70
     0
  9
$UCSORGTOP
 10
0.0
 20
0.0
 30
0.0
  9
$UCSORGBOTTOM
 10
0.0
 20
0.0
 30
0.0
  9
$UCSORGLEFT
 10
0.0
 20
0.0
 30
0.0
  9
$UCSORGRIGHT
 10
0.0
 20
0.0
 30
0.0
  9
$UCSORGFRONT
 10
0.0
 20
0.0
 30
0.0
  9
$UCSORGBACK
 10
0.0
 20
0.0
 30
0.0
  9
$PUCSBASE
  2

  9
$PUCSNAME
  2

  9
$PUCSORG
 10
0.0
 20
0.0
 30
0.0
  9
$PUCSXDIR
 10
1.0
 20
0.0
 30
0.0
  9
$PUCSYDIR
 10
0.0
 20
1.0
 30
0.0
  9
$PUCSORTHOREF
  2

  9
$PUCSORTHOVIEW
 70
     0
  9
$PUCSORGTOP
 10
0.0
 20
0.0
 30
0.0
  9
$PUCSORGBOTTOM
 10
0.0
 20
0.0
 30
0.0
  9
$PUCSORGLEFT
 10
0.0
 20
0.0
 30
0.0
  9
$PUCSORGRIGHT
 10
0.0
 20
0.0
 30
0.0
  9
$PUCSORGFRONT
 10
0.0
 20
0.0
 30
0.0
  9
$PUCSORGBACK
 10
0.0
 20
0.0
 30
0.0
  9
$USERI1
 70
     0
  9
$USERI2
 70
     0
  9
$USERI3
 70
     0
  9
$USERI4
 70
     0
  9
$USERI5
 70
     0
  9
$USERR1
 40
0.0
  9
$USERR2
 40
0.0
  9
$USERR3
 40
0.0
  9
$USERR4
 40
0.0
  9
$USERR5
 40
0.0
  9
$WORLDVIEW
 70
     1
  9
$SHADEDGE
 70
     3
  9
$SHADEDIF
 70
    70
  9
$TILEMODE
 70
     1
  9
$MAXACTVP
 70
    64
  9
$PINSBASE
 10
0.0
 20
0.0
 30
0.0
  9
$PLIMCHECK
 70
     0
  9
$PEXTMIN
 10
1.0000000000E+20
 20
1.0000000000E+20
 30
1.0000000000E+20
  9
$PEXTMAX
 10
-1.0000000000E+20
 20
-1.0000000000E+20
 30
-1.0000000000E+20
  9
$PLIMMIN
 10
0.0
 20
0.0
  9
$PLIMMAX
 10
420.0
 20
297.0
  9
$UNITMODE
 70
     0
  9
$VISRETAIN
 70
     1
  9
$PLINEGEN
 70
     0
  9
$PSLTSCALE
 70
     1
  9
$TREEDEPTH
 70
  3020
  9
$CMLSTYLE
  2
Standard
  9
$CMLJUST
 70
     0
  9
$CMLSCALE
 40
20.0
  9
$PROXYGRAPHICS
 70
     1
  9
$MEASUREMENT
 70
     1
  9
$CELWEIGHT
370
    -1
  9
$ENDCAPS
280
     0
  9
$JOINSTYLE
280
     0
  9
$LWDISPLAY
290
     1
  9
$INSUNITS
 70
     4
  9
$HYPERLINKBASE
  1

  9
$STYLESHEET
  1

  9
$XEDIT
290
     1
  9
$CEPSNTYPE
380
     0
  9
$PSTYLEMODE
290
     1
  9
$FINGERPRINTGUID
  2
{298A5DB1-0979-4A70-9E39-DA2F78425157}
  9
$VERSIONGUID
  2
{FAEB1C32-E019-11D5-929B-00C0DF256EC4}
  9
$EXTNAMES
290
     1
  9
$PSVPSCALE
 40
0.0
  9
$OLESTARTUP
290
     0
  0
ENDSEC
  0
SECTION
  2
CLASSES
  0
CLASS
  1
ACDBDICTIONARYWDFLT
  2
AcDbDictionaryWithDefault
  3
ObjectDBX Classes
 90
        0
280
     0
281
     0
  0
CLASS
  1
VISUALSTYLE
  2
AcDbVisualStyle
  3
ObjectDBX Classes
 90
     4095
280
     0
281
     0
  0
CLASS
  1
MATERIAL
  2
AcDbMaterial
  3
ObjectDBX Classes
 90
     1153
280
     0
281
     0
  0
CLASS
  1
SCALE
  2
AcDbScale
  3
ObjectDBX Classes
 90
     1153
280
     0
281
     0
  0
CLASS
  1
TABLESTYLE
  2
AcDbTableStyle
  3
ObjectDBX Classes
 90
     4095
280
     0
281
     0
  0
CLASS
  1
MLEADERSTYLE
  2
AcDbMLeaderStyle
  3
ACDB_MLEADERSTYLE_CLASS
 90
     4095
280
     0
281
     0
  0
CLASS
  1
SUN
  2
AcDbSun
  3
SCENEOE
 90
     1153
280
     0
281
     0
  0
CLASS
  1
ACDBPLACEHOLDER
  2
AcDbPlaceHolder
  3
ObjectDBX Classes
 90
        0
280
     0
281
     0
  0
CLASS
  1
LAYOUT
  2
AcDbLayout
  3
ObjectDBX Classes
 90
        0
280
     0
281
     0
  0
ENDSEC
  0
SECTION
  2
TABLES
  0
TABLE
  2
VPORT
  5
8
330
0
100
AcDbSymbolTable
 70
     1
  0
VPORT
  5
29
330
8
100
AcDbSymbolTableRecord
100
AcDbViewportTableRecord
  2
*Active
 70
     0
 10
0.0
 20
0.0
 11
1.0
 21
1.0
 12
148.5
 22
105.0
 13
0.0
 23
0.0
 14
10.0
 24
10.0
 15
10.0
 25
10.0
 16
0.0
 26
0.0
 36
1.0
 17
0.0
 27
0.0
 37
0.0
 40
210.0
 41
1.4142857143
 42
50.0
 43
0.0
 44
0.0
 50
0.0
 51
0.0
 71
     0
 72
  2000
 73
     1
 74
     3
 75
     0
 76
     0
 77
     0
 78
     0
281
     0
 65
     1
110
0.0
120
0.0
130
0.0
111
1.0
121
0.0
131
0.0
112
0.0
122
1.0
132
0.0
 79
     0
146
0.0
  0
ENDTAB
  0
TABLE
  2
LTYPE
  5
5
330
0
100
AcDbSymbolTable
 70
     8
  0
LTYPE
  5
14
330
5
100
AcDbSymbolTableRecord
100
AcDbLinetypeTableRecord
  2
ByBlock
 70
     0
  3

 72
    65
 73
     0
 40
0.0
  0
LTYPE
  5
15
330
5
100
AcDbSymbolTableRecord
100
AcDbLinetypeTableRecord
  2
ByLayer
 70
     0
  3

 72
    65
 73
     0
 40
0.0
  0
LTYPE
  5
16
330
5
100
AcDbSymbolTableRecord
100
AcDbLinetypeTableRecord
  2
Continuous
 70
     0
  3
Solid line
 72
    65
 73
     0
 40
0.0
  0
LTYPE
  5
6E
330
5
100
AcDbSymbolTableRecord
100
AcDbLinetypeTableRecord
  2
SLD-Solid
 70
     0
  3
SolidWorks Line Style
 72
    65
 73
     0
 40
0.0
  0
LTYPE
  5
6F
330
5
100
AcDbSymbolTableRecord
100
AcDbLinetypeTableRecord
  2
SLD-Dashed
 70
     0
  3
SolidWorks Line Style
 72
    65
 73
     2
 40
1.905
 49
1.27
 74
     0
 49
-0.635
 74
     0
  0
LTYPE
  5
70
330
5
100
AcDbSymbolTableRecord
100
AcDbLinetypeTableRecord
  2
SLD-Phantom
 70
     0
  3
SolidWorks Line Style
 72
    65
 73
     6
 40
12.7
 49
6.35
 74
     0
 49
-1.27
 74
     0
 49
1.27
 74
     0
 49
-1.27
 74
     0
 49
1.27
 74
     0
 49
-1.27
 74
     0
  0
LTYPE
  5
71
330
5
100
AcDbSymbolTableRecord
100
AcDbLinetypeTableRecord
  2
SLD-Chain
 70
     0
  3
SolidWorks Line Style
 72
    65
 73
     4
 40
10.16
 49
6.35
 74
     0
 49
-1.27
 74
     0
 49
1.27
 74
     0
 49
-1.27
 74
     0
  0
LTYPE
  5
72
330
5
100
AcDbSymbolTableRecord
100
AcDbLinetypeTableRecord
  2
SLD-Center
 70
     0
  3
SolidWorks Line Style
 72
    65
 73
     4
 40
19.05
 49
15.24
 74
     0
 49
-1.27
 74
     0
 49
1.27
 74
     0
 49
-1.27
 74
     0
  0
LTYPE
  5
73
330
5
100
AcDbSymbolTableRecord
100
AcDbLinetypeTableRecord
  2
SLD-Stitch
 70
     0
  3
SolidWorks Line Style
 72
    65
 73
     2
 40
0.635
 49
0.0
 74
     0
 49
-0.635
 74
     0
  0
LTYPE
  5
74
330
5
100
AcDbSymbolTableRecord
100
AcDbLinetypeTableRecord
  2
SLD-Thin-Thick-Chain
 70
     0
  3
SolidWorks Line Style
 72
    65
 73
     4
 40
10.16
 49
6.35
 74
     0
 49
-1.27
 74
     0
 49
1.27
 74
     0
 49
-1.27
 74
     0
  0
ENDTAB
  0
TABLE
  2
LAYER
  5
2
330
0
100
AcDbSymbolTable
 70
    14
  0
LAYER
  5
10
330
2
100
AcDbSymbolTableRecord
100
AcDbLayerTableRecord
  2
0
 70
     0
 62
     7
  6
Continuous
370
    -3
390
F
  0
LAYER
  5
75
330
2
100
AcDbSymbolTableRecord
100
AcDbLayerTableRecord
  2
SLD-0
 70
     0
 62
   179
  6
SLD-Solid
370
    -3
390
F
  0
LAYER
  5
76
330
2
100
AcDbSymbolTableRecord
100
AcDbLayerTableRecord
  2
80
 70
     0
 62
    -6
  6
SLD-Solid
290
     0
370
    -3
390
F
  0
LAYER
  5
77
330
2
100
AcDbSymbolTableRecord
100
AcDbLayerTableRecord
  2
81
 70
     0
 62
    -3
  6
SLD-Solid
290
     0
370
    -3
390
F
  0
LAYER
  5
78
330
2
100
AcDbSymbolTableRecord
100
AcDbLayerTableRecord
  2
1
 70
     0
 62
     4
  6
SLD-Solid
290
     0
370
    -3
390
F
  0
LAYER
  5
79
330
2
100
AcDbSymbolTableRecord
100
AcDbLayerTableRecord
  2
4
 70
     0
 62
    -2
  6
SLD-Chain
290
     0
370
    -3
390
F
  0
LAYER
  5
7A
330
2
100
AcDbSymbolTableRecord
100
AcDbLayerTableRecord
  2
2
 70
     0
 62
     7
  6
SLD-Solid
290
     0
370
    -3
390
F
  0
LAYER
  5
7B
330
2
100
AcDbSymbolTableRecord
100
AcDbLayerTableRecord
  2
SK3
 70
     0
 62
     1
  6
SLD-Dashed
290
     0
370
    -3
390
F
  0
LAYER
  5
7C
330
2
100
AcDbSymbolTableRecord
100
AcDbLayerTableRecord
  2
SK4
 70
     0
 62
     2
  6
SLD-Chain
290
     0
370
    -3
390
F
  0
LAYER
  5
7D
330
2
100
AcDbSymbolTableRecord
100
AcDbLayerTableRecord
  2
SK2
 70
     0
 62
     7
  6
SLD-Solid
290
     0
370
    -3
390
F
  0
LAYER
  5
7E
330
2
100
AcDbSymbolTableRecord
100
AcDbLayerTableRecord
  2
SK6
 70
     0
 62
     5
  6
SLD-Solid
290
     0
370
    -3
390
F
  0
LAYER
  5
7F
330
2
100
AcDbSymbolTableRecord
100
AcDbLayerTableRecord
  2
6
 70
     0
 62
     5
  6
SLD-Solid
370
    -3
390
F
  0
LAYER
  5
80
330
2
100
AcDbSymbolTableRecord
100
AcDbLayerTableRecord
  2
SK1
 70
     0
 62
     4
  6
SLD-Solid
370
    -3
390
F
  0
LAYER
  5
81
330
2
100
AcDbSymbolTableRecord
100
AcDbLayerTableRecord
  2
LAYER5
 70
     0
 62
   218
  6
SLD-Solid
370
    -3
390
F
  0
ENDTAB
  0
TABLE
  2
STYLE
  5
3
330
0
100
AcDbSymbolTable
 70
     3
  0
STYLE
  5
11
330
3
100
AcDbSymbolTableRecord
100
AcDbTextStyleTableRecord
  2
Standard
 70
     0
 40
0.0
 41
1.0
 50
0.0
 71
     0
 42
3.5
  3
txt
  4

  0
STYLE
  5
2B0
330
3
100
AcDbSymbolTableRecord
100
AcDbTextStyleTableRecord
  2
SLDTEXTSTYLE0
 70
     0
 40
0.0
 41
0.75
 50
0.0
 71
     0
 42
3.5
  3
TXT
  4

  0
STYLE
  5
36D
330
3
100
AcDbSymbolTableRecord
100
AcDbTextStyleTableRecord
  2
SLDTEXTSTYLE1
 70
     0
 40
0.0
 41
0.6875
 50
0.0
 71
     0
 42
3.5
  3
TXT
  4

  0
ENDTAB
  0
TABLE
  2
VIEW
  5
6
330
0
100
AcDbSymbolTable
 70
     0
  0
ENDTAB
  0
TABLE
  2
UCS
  5
7
330
0
100
AcDbSymbolTable
 70
     0
  0
ENDTAB
  0
TABLE
  2
APPID
  5
9
330
0
100
AcDbSymbolTable
 70
     1
  0
APPID
  5
12
330
9
100
AcDbSymbolTableRecord
100
AcDbRegAppTableRecord
  2
ACAD
 70
     0
  0
ENDTAB
  0
TABLE
  2
DIMSTYLE
  5
A
330
0
100
AcDbSymbolTable
 70
     7
100
AcDbDimStyleTable
  0
DIMSTYLE
105
27
330
A
100
AcDbSymbolTableRecord
100
AcDbDimStyleTableRecord
  2
ISO-25
 70
     0
 41
2.5
 42
0.625
 43
3.75
 44
1.25
 73
     0
 74
     0
 77
     1
 78
     8
140
2.5
141
2.5
143
0.0393700787
147
0.625
171
     3
172
     1
178
     0
271
     2
272
     2
274
     3
278
    44
283
     0
284
     8
340
11
  0
DIMSTYLE
105
2B1
102
{ACAD_REACTORS
330
2AF
330
2C4
330
2F8
330
30B
330
331
330
343
102
}
330
A
100
AcDbSymbolTableRecord
100
AcDbDimStyleTableRecord
  2
SLDDIMSTYLE0
 70
     0
 41
3.302
 44
0.0
 45
0.000000001
 73
     0
 74
     0
 77
     1
 78
    12
 79
     3
140
3.5
143
0.0393700787
147
0.875
148
0.000000001
170
     1
173
     1
178
     0
271
     2
272
     2
276
     2
284
    12
340
2B0
  0
DIMSTYLE
105
2D8
102
{ACAD_REACTORS
330
2D7
102
}
330
A
100
AcDbSymbolTableRecord
100
AcDbDimStyleTableRecord
  2
SLDDIMSTYLE1
 70
     0
 41
3.302
 44
0.0
 45
0.000000001
 73
     0
 74
     0
 77
     1
 78
    12
 79
     3
140
3.5
147
0.875
172
     1
173
     1
178
     0
271
     2
272
     2
276
     2
284
    12
289
     0
340
2B0
  0
DIMSTYLE
105
2E5
102
{ACAD_REACTORS
330
2E4
102
}
330
A
100
AcDbSymbolTableRecord
100
AcDbDimStyleTableRecord
  2
SLDDIMSTYLE2
 70
     0
 41
3.302
 44
0.0
 45
0.000000001
 73
     0
 74
     0
 77
     1
 78
    12
 79
     3
140
3.5
143
0.0393700787
147
0.875
148
0.000000001
170
     1
171
     3
173
     1
178
     0
271
     3
272
     2
274
     3
276
     2
284
    12
340
2B0
  0
DIMSTYLE
105
31F
102
{ACAD_REACTORS
330
31E
102
}
330
A
100
AcDbSymbolTableRecord
100
AcDbDimStyleTableRecord
  2
SLDDIMSTYLE3
 70
     0
 41
3.302
 44
0.0
 45
0.000000001
 73
     0
 74
     0
 77
     1
 78
    12
 79
     3
140
3.5
143
0.0393700787
147
0.875
148
0.000000001
170
     1
173
     1
178
     0
271
     3
272
     2
276
     2
284
    12
340
2B0
  0
DIMSTYLE
105
356
102
{ACAD_REACTORS
330
355
330
36F
102
}
330
A
100
AcDbSymbolTableRecord
100
AcDbDimStyleTableRecord
  2
SLDDIMSTYLE4
 70
     0
 41
3.302
 44
0.0
 45
0.000000001
 73
     0
 74
     0
 77
     1
 78
    12
 79
     3
140
3.5
147
0.875
173
     1
178
     0
271
     2
272
     2
276
     2
284
    12
340
2B0
  0
DIMSTYLE
105
362
102
{ACAD_REACTORS
330
361
102
}
330
A
100
AcDbSymbolTableRecord
100
AcDbDimStyleTableRecord
  2
SLDDIMSTYLE5
 70
     0
 41
3.302
 44
0.0
 45
0.000000001
 73
     0
 74
     0
 77
     1
 78
    12
 79
     3
140
3.5
147
0.875
172
     1
173
     1
178
     0
271
     6
272
     2
276
     2
284
    12
289
     0
340
2B0
  0
ENDTAB
  0
TABLE
  2
BLOCK_RECORD
  5
1
330
0
100
AcDbSymbolTable
 70
    13
  0
BLOCK_RECORD
  5
1F
330
1
100
AcDbSymbolTableRecord
100
AcDbBlockTableRecord
  2
*Model_Space
340
22
  0
BLOCK_RECORD
  5
1B
330
1
100
AcDbSymbolTableRecord
100
AcDbBlockTableRecord
  2
*Paper_Space
340
1E
  0
BLOCK_RECORD
  5
23
330
1
100
AcDbSymbolTableRecord
100
AcDbBlockTableRecord
  2
*Paper_Space0
340
26
  0
BLOCK_RECORD
  5
2B2
330
1
100
AcDbSymbolTableRecord
100
AcDbBlockTableRecord
  2
_D
340
0
  0
BLOCK_RECORD
  5
2C5
330
1
100
AcDbSymbolTableRecord
100
AcDbBlockTableRecord
  2
_D_1
340
0
  0
BLOCK_RECORD
  5
2D9
330
1
100
AcDbSymbolTableRecord
100
AcDbBlockTableRecord
  2
_D_2
340
0
  0
BLOCK_RECORD
  5
2E6
330
1
100
AcDbSymbolTableRecord
100
AcDbBlockTableRecord
  2
_D_3
340
0
  0
BLOCK_RECORD
  5
2F9
330
1
100
AcDbSymbolTableRecord
100
AcDbBlockTableRecord
  2
_D_4
340
0
  0
BLOCK_RECORD
  5
30C
330
1
100
AcDbSymbolTableRecord
100
AcDbBlockTableRecord
  2
_D_5
340
0
  0
BLOCK_RECORD
  5
320
330
1
100
AcDbSymbolTableRecord
100
AcDbBlockTableRecord
  2
_D_6
340
0
  0
BLOCK_RECORD
  5
332
330
1
100
AcDbSymbolTableRecord
100
AcDbBlockTableRecord
  2
_D_7
340
0
  0
BLOCK_RECORD
  5
344
330
1
100
AcDbSymbolTableRecord
100
AcDbBlockTableRecord
  2
_D_8
340
0
  0
BLOCK_RECORD
  5
357
330
1
100
AcDbSymbolTableRecord
100
AcDbBlockTableRecord
  2
_D_9
340
0
  0
BLOCK_RECORD
  5
363
330
1
100
AcDbSymbolTableRecord
100
AcDbBlockTableRecord
  2
_D_10
340
0
  0
BLOCK_RECORD
  5
370
330
1
100
AcDbSymbolTableRecord
100
AcDbBlockTableRecord
  2
_D_11
340
0
  0
ENDTAB
  0
ENDSEC
  0
SECTION
  2
BLOCKS
  0
BLOCK
  5
20
330
1F
100
AcDbEntity
  8
0
100
AcDbBlockBegin
  2
*Model_Space
 70
     0
 10
0.0
 20
0.0
 30
0.0
  3
*Model_Space
  1

  0
ENDBLK
  5
21
330
1F
100
AcDbEntity
  8
0
100
AcDbBlockEnd
  0
BLOCK
  5
1C
330
1B
100
AcDbEntity
 67
     1
  8
0
100
AcDbBlockBegin
  2
*Paper_Space
 70
     0
 10
0.0
 20
0.0
 30
0.0
  3
*Paper_Space
  1

  0
ENDBLK
  5
1D
330
1B
100
AcDbEntity
 67
     1
  8
0
100
AcDbBlockEnd
  0
BLOCK
  5
24
330
23
100
AcDbEntity
  8
0
100
AcDbBlockBegin
  2
*Paper_Space0
 70
     0
 10
0.0
 20
0.0
 30
0.0
  3
*Paper_Space0
  1

  0
ENDBLK
  5
25
330
23
100
AcDbEntity
  8
0
100
AcDbBlockEnd
  0
BLOCK
  5
2B3
330
2B2
100
AcDbEntity
  8
0
100
AcDbBlockBegin
  2
_D
 70
     0
 10
0.0
 20
0.0
 30
0.0
  3
_D
  1

  0
SOLID
  5
2B5
330
2B2
100
AcDbEntity
  8
2
100
AcDbTrace
 10
0.0
 20
54.9568292526
 30
0.0
 11
3.302
 21
54.4488292526
 31
0.0
 12
3.302
 22
55.4648292526
 32
0.0
 13
3.302
 23
55.4648292526
 33
0.0
  0
SOLID
  5
2B6
330
2B2
100
AcDbEntity
  8
2
100
AcDbTrace
 10
44.45
 20
54.9568292526
 30
0.0
 11
41.148
 21
55.4648292526
 31
0.0
 12
41.148
 22
54.4488292526
 32
0.0
 13
41.148
 23
54.4488292526
 33
0.0
  0
LINE
  5
2B7
330
2B2
100
AcDbEntity
  8
2
100
AcDbLine
 10
12.9975757802
 20
65.7497109687
 30
0.0
 11
11.9311695227
 21
65.7497109687
 31
0.0
  0
LINE
  5
2B8
330
2B2
100
AcDbEntity
  8
2
100
AcDbLine
 10
11.9311695227
 20
65.7497109687
 30
0.0
 11
11.9311695227
 21
60.1934609776
 31
0.0
  0
LINE
  5
2B9
330
2B2
100
AcDbEntity
  8
2
100
AcDbLine
 10
11.9311695227
 20
60.1934609776
 30
0.0
 11
12.9975757802
 21
60.1934609776
 31
0.0
  0
LINE
  5
2BA
330
2B2
100
AcDbEntity
  8
2
100
AcDbLine
 10
22.0489648411
 20
65.7497109687
 30
0.0
 11
23.1153710985
 21
65.7497109687
 31
0.0
  0
LINE
  5
2BB
330
2B2
100
AcDbEntity
  8
2
100
AcDbLine
 10
23.1153710985
 20
65.7497109687
 30
0.0
 11
23.1153710985
 21
60.1934609776
 31
0.0
  0
LINE
  5
2BC
330
2B2
100
AcDbEntity
  8
2
100
AcDbLine
 10
23.1153710985
 20
60.1934609776
 30
0.0
 11
22.0489648411
 21
60.1934609776
 31
0.0
  0
LINE
  5
2BD
330
2B2
100
AcDbEntity
  8
2
100
AcDbLine
 10
0.0
 20
23.225
 30
0.0
 11
0.0
 21
55.9568292526
 31
0.0
  0
LINE
  5
2BE
330
2B2
100
AcDbEntity
  8
2
100
AcDbLine
 10
44.45
 20
13.827
 30
0.0
 11
44.45
 21
55.9568292526
 31
0.0
  0
LINE
  5
2BF
330
2B2
100
AcDbEntity
  8
2
100
AcDbLine
 10
0.0
 20
54.9568292526
 30
0.0
 11
44.45
 21
54.9568292526
 31
0.0
  0
MTEXT
  5
2C0
330
2B2
100
AcDbEntity
  8
2
100
AcDbMText
 10
10.8842076685
 20
59.5220385185
 30
0.0
 40
3.5
 41
0.0
 71
     1
 72
     1
  1

  7
SLDTEXTSTYLE0
 73
     1
 44
1.0
  0
MTEXT
  5
2C1
330
2B2
100
AcDbEntity
  8
2
100
AcDbMText
 10
12.9975757802
 20
64.7051978922
 30
0.0
 40
3.5
 41
0.0
 71
     1
 72
     1
  1
1,75
  7
SLDTEXTSTYLE0
 73
     1
 44
1.0
  0
MTEXT
  5
2C2
330
2B2
100
AcDbEntity
  8
2
100
AcDbMText
 10
11.704520067
 20
59.4685663418
 30
0.0
 40
3.5
 41
0.0
 71
     1
 72
     1
  1
44,45
  7
SLDTEXTSTYLE0
 73
     1
 44
1.0
  0
MTEXT
  5
2C3
330
2B2
100
AcDbEntity
  8
2
100
AcDbMText
 10
25.4942774724
 20
59.5220385185
 30
0.0
 40
3.5
 41
0.0
 71
     1
 72
     1
  1

  7
SLDTEXTSTYLE0
 73
     1
 44
1.0
  0
ENDBLK
  5
2B4
330
2B2
100
AcDbEntity
  8
0
100
AcDbBlockEnd
  0
BLOCK
  5
2C6
330
2C5
100
AcDbEntity
  8
0
100
AcDbBlockBegin
  2
_D_1
 70
     0
 10
0.0
 20
0.0
 30
0.0
  3
_D_1
  1

  0
SOLID
  5
2C8
330
2C5
100
AcDbEntity
  8
SK2
100
AcDbTrace
 10
19.05
 20
42.1957535875
 30
0.0
 11
22.352
 21
41.6877535875
 31
0.0
 12
22.352
 22
42.7037535875
 32
0.0
 13
22.352
 23
42.7037535875
 33
0.0
  0
SOLID
  5
2C9
330
2C5
100
AcDbEntity
  8
SK2
100
AcDbTrace
 10
44.45
 20
42.1957535875
 30
0.0
 11
41.148
 21
42.7037535875
 31
0.0
 12
41.148
 22
41.6877535875
 32
0.0
 13
41.148
 23
41.6877535875
 33
0.0
  0
LINE
  5
2CA
330
2C5
100
AcDbEntity
  8
SK2
100
AcDbLine
 10
26.7986283901
 20
52.9886353035
 30
0.0
 11
25.7322221326
 21
52.9886353035
 31
0.0
  0
LINE
  5
2CB
330
2C5
100
AcDbEntity
  8
SK2
100
AcDbLine
 10
25.7322221326
 20
52.9886353035
 30
0.0
 11
25.7322221326
 21
47.4323853125
 31
0.0
  0
LINE
  5
2CC
330
2C5
100
AcDbEntity
  8
SK2
100
AcDbLine
 10
25.7322221326
 20
47.4323853125
 30
0.0
 11
26.7986283901
 21
47.4323853125
 31
0.0
  0
LINE
  5
2CD
330
2C5
100
AcDbEntity
  8
SK2
100
AcDbLine
 10
35.850017451
 20
52.9886353035
 30
0.0
 11
36.9164237084
 21
52.9886353035
 31
0.0
  0
LINE
  5
2CE
330
2C5
100
AcDbEntity
  8
SK2
100
AcDbLine
 10
36.9164237084
 20
52.9886353035
 30
0.0
 11
36.9164237084
 21
47.4323853125
 31
0.0
  0
LINE
  5
2CF
330
2C5
100
AcDbEntity
  8
SK2
100
AcDbLine
 10
36.9164237084
 20
47.4323853125
 30
0.0
 11
35.850017451
 21
47.4323853125
 31
0.0
  0
LINE
  5
2D0
330
2C5
100
AcDbEntity
  8
SK2
100
AcDbLine
 10
19.05
 20
30.8048664484
 30
0.0
 11
19.05
 21
43.1957535875
 31
0.0
  0
LINE
  5
2D1
330
2C5
100
AcDbEntity
  8
SK2
100
AcDbLine
 10
44.45
 20
13.827
 30
0.0
 11
44.45
 21
43.1957535875
 31
0.0
  0
LINE
  5
2D2
330
2C5
100
AcDbEntity
  8
SK2
100
AcDbLine
 10
19.05
 20
42.1957535875
 30
0.0
 11
44.45
 21
42.1957535875
 31
0.0
  0
MTEXT
  5
2D3
330
2C5
100
AcDbEntity
  8
SK2
100
AcDbMText
 10
24.6852602784
 20
46.7609628533
 30
0.0
 40
3.5
 41
0.0
 71
     1
 72
     1
  1

  7
SLDTEXTSTYLE0
 73
     1
 44
1.0
  0
MTEXT
  5
2D4
330
2C5
100
AcDbEntity
  8
SK2
100
AcDbMText
 10
26.7986283901
 20
51.944122227
 30
0.0
 40
3.5
 41
0.0
 71
     1
 72
     1
  1
1,00
  7
SLDTEXTSTYLE0
 73
     1
 44
1.0
  0
MTEXT
  5
2D5
330
2C5
100
AcDbEntity
  8
SK2
100
AcDbMText
 10
26.7986283901
 20
46.7074906767
 30
0.0
 40
3.5
 41
0.0
 71
     1
 72
     1
  1
25,4
  7
SLDTEXTSTYLE0
 73
     1
 44
1.0
  0
MTEXT
  5
2D6
330
2C5
100
AcDbEntity
  8
SK2
100
AcDbMText
 10
39.2953300823
 20
46.7609628533
 30
0.0
 40
3.5
 41
0.0
 71
     1
 72
     1
  1

  7
SLDTEXTSTYLE0
 73
     1
 44
1.0
  0
ENDBLK
  5
2C7
330
2C5
100
AcDbEntity
  8
0
100
AcDbBlockEnd
  0
BLOCK
  5
2DA
330
2D9
100
AcDbEntity
  8
0
100
AcDbBlockBegin
  2
_D_2
 70
     0
 10
0.0
 20
0.0
 30
0.0
  3
_D_2
  1

  0
SOLID
  5
2DC
330
2D9
100
AcDbEntity
  8
SK2
100
AcDbTrace
 10
35.052
 20
32.5095712457
 30
0.0
 11
31.75
 21
33.0175712457
 31
0.0
 12
31.75
 22
32.0015712457
 32
0.0
 13
31.75
 23
32.0015712457
 33
0.0
  0
SOLID
  5
2DD
330
2D9
100
AcDbEntity
  8
SK2
100
AcDbTrace
 10
44.45
 20
32.5095712457
 30
0.0
 11
47.752
 21
32.0015712457
 31
0.0
 12
47.752
 22
33.0175712457
 32
0.0
 13
47.752
 23
33.0175712457
 33
0.0
  0
LINE
  5
2DE
330
2D9
100
AcDbEntity
  8
SK2
100
AcDbLine
 10
35.052
 20
23.1836591967
 30
0.0
 11
35.052
 21
33.5095712457
 31
0.0
  0
LINE
  5
2DF
330
2D9
100
AcDbEntity
  8
SK2
100
AcDbLine
 10
44.45
 20
13.827
 30
0.0
 11
44.45
 21
33.5095712457
 31
0.0
  0
LINE
  5
2E0
330
2D9
100
AcDbEntity
  8
SK2
100
AcDbLine
 10
35.052
 20
32.5095712457
 30
0.0
 11
28.702
 21
32.5095712457
 31
0.0
  0
LINE
  5
2E1
330
2D9
100
AcDbEntity
  8
SK2
100
AcDbLine
 10
35.052
 20
32.5095712457
 30
0.0
 11
44.45
 21
32.5095712457
 31
0.0
  0
LINE
  5
2E2
330
2D9
100
AcDbEntity
  8
SK2
100
AcDbLine
 10
44.45
 20
32.5095712457
 30
0.0
 11
50.8
 21
32.5095712457
 31
0.0
  0
MTEXT
  5
2E3
330
2D9
100
AcDbEntity
  8
SK2
100
AcDbMText
 10
36.6265991446
 20
37.0213081602
 30
0.0
 40
3.5
 41
0.0
 71
     1
 72
     1
  1
9,4
  7
SLDTEXTSTYLE0
 73
     1
 44
1.0
  0
ENDBLK
  5
2DB
330
2D9
100
AcDbEntity
  8
0
100
AcDbBlockEnd
  0
BLOCK
  5
2E7
330
2E6
100
AcDbEntity
  8
0
100
AcDbBlockBegin
  2
_D_3
 70
     0
 10
0.0
 20
0.0
 30
0.0
  3
_D_3
  1

  0
SOLID
  5
2E9
330
2E6
100
AcDbEntity
  8
SK2
100
AcDbTrace
 10
-68.25
 20
-62.8379472433
 30
0.0
 11
-64.948
 21
-63.3459472433
 31
0.0
 12
-64.948
 22
-62.3299472433
 32
0.0
 13
-64.948
 23
-62.3299472433
 33
0.0
  0
SOLID
  5
2EA
330
2E6
100
AcDbEntity
  8
SK2
100
AcDbTrace
 10
44.45
 20
-62.8379472433
 30
0.0
 11
41.148
 21
-62.3299472433
 31
0.0
 12
41.148
 22
-63.3459472433
 32
0.0
 13
41.148
 23
-63.3459472433
 33
0.0
  0
LINE
  5
2EB
330
2E6
100
AcDbEntity
  8
SK2
100
AcDbLine
 10
-29.6981423897
 20
-52.0450655272
 30
0.0
 11
-30.7645486472
 21
-52.0450655272
 31
0.0
  0
LINE
  5
2EC
330
2E6
100
AcDbEntity
  8
SK2
100
AcDbLine
 10
-30.7645486472
 20
-52.0450655272
 30
0.0
 11
-30.7645486472
 21
-57.6013155183
 31
0.0
  0
LINE
  5
2ED
330
2E6
100
AcDbEntity
  8
SK2
100
AcDbLine
 10
-30.7645486472
 20
-57.6013155183
 30
0.0
 11
-29.6981423897
 21
-57.6013155183
 31
0.0
  0
LINE
  5
2EE
330
2E6
100
AcDbEntity
  8
SK2
100
AcDbLine
 10
-18.0606419025
 20
-52.0450655272
 30
0.0
 11
-16.994235645
 21
-52.0450655272
 31
0.0
  0
LINE
  5
2EF
330
2E6
100
AcDbEntity
  8
SK2
100
AcDbLine
 10
-16.994235645
 20
-52.0450655272
 30
0.0
 11
-16.994235645
 21
-57.6013155183
 31
0.0
  0
LINE
  5
2F0
330
2E6
100
AcDbEntity
  8
SK2
100
AcDbLine
 10
-16.994235645
 20
-57.6013155183
 30
0.0
 11
-18.0606419025
 21
-57.6013155183
 31
0.0
  0
LINE
  5
2F1
330
2E6
100
AcDbEntity
  8
SK2
100
AcDbLine
 10
-68.25
 20
-12.1476148288
 30
0.0
 11
-68.25
 21
-63.8379472433
 31
0.0
  0
LINE
  5
2F2
330
2E6
100
AcDbEntity
  8
SK2
100
AcDbLine
 10
44.45
 20
-13.827
 30
0.0
 11
44.45
 21
-63.8379472433
 31
0.0
  0
LINE
  5
2F3
330
2E6
100
AcDbEntity
  8
SK2
100
AcDbLine
 10
-68.25
 20
-62.8379472433
 30
0.0
 11
44.45
 21
-62.8379472433
 31
0.0
  0
MTEXT
  5
2F4
330
2E6
100
AcDbEntity
  8
SK2
100
AcDbMText
 10
-31.8115105014
 20
-58.2727379774
 30
0.0
 40
3.5
 41
0.0
 71
     1
 72
     1
  1

  7
SLDTEXTSTYLE0
 73
     1
 44
1.0
  0
MTEXT
  5
2F5
330
2E6
100
AcDbEntity
  8
SK2
100
AcDbMText
 10
-29.6981423897
 20
-53.0895786037
 30
0.0
 40
3.5
 41
0.0
 71
     1
 72
     1
  1
4,437
  7
SLDTEXTSTYLE0
 73
     1
 44
1.0
  0
MTEXT
  5
2F6
330
2E6
100
AcDbEntity
  8
SK2
100
AcDbMText
 10
-29.6981428554
 20
-58.3262101541
 30
0.0
 40
3.5
 41
0.0
 71
     1
 72
     1
  1
112,7
  7
SLDTEXTSTYLE0
 73
     1
 44
1.0
  0
MTEXT
  5
2F7
330
2E6
100
AcDbEntity
  8
SK2
100
AcDbMText
 10
-14.6153302025
 20
-58.2727379774
 30
0.0
 40
3.5
 41
0.0
 71
     1
 72
     1
  1

  7
SLDTEXTSTYLE0
 73
     1
 44
1.0
  0
ENDBLK
  5
2E8
330
2E6
100
AcDbEntity
  8
0
100
AcDbBlockEnd
  0
BLOCK
  5
2FA
330
2F9
100
AcDbEntity
  8
0
100
AcDbBlockBegin
  2
_D_4
 70
     0
 10
0.0
 20
0.0
 30
0.0
  3
_D_4
  1

  0
SOLID
  5
2FC
330
2F9
100
AcDbEntity
  8
SK2
100
AcDbTrace
 10
-0.59
 20
-51.7936046651
 30
0.0
 11
2.712
 21
-52.3016046651
 31
0.0
 12
2.712
 22
-51.2856046651
 32
0.0
 13
2.712
 23
-51.2856046651
 33
0.0
  0
SOLID
  5
2FD
330
2F9
100
AcDbEntity
  8
SK2
100
AcDbTrace
 10
44.45
 20
-51.7936046651
 30
0.0
 11
41.148
 21
-51.2856046651
 31
0.0
 12
41.148
 22
-52.3016046651
 32
0.0
 13
41.148
 23
-52.3016046651
 33
0.0
  0
LINE
  5
2FE
330
2F9
100
AcDbEntity
  8
SK2
100
AcDbLine
 10
8.477341127
 20
-41.0007229491
 30
0.0
 11
7.4109348695
 21
-41.0007229491
 31
0.0
  0
LINE
  5
2FF
330
2F9
100
AcDbEntity
  8
SK2
100
AcDbLine
 10
7.4109348695
 20
-41.0007229491
 30
0.0
 11
7.4109348695
 21
-46.5569729401
 31
0.0
  0
LINE
  5
300
330
2F9
100
AcDbEntity
  8
SK2
100
AcDbLine
 10
7.4109348695
 20
-46.5569729401
 30
0.0
 11
8.477341127
 21
-46.5569729401
 31
0.0
  0
LINE
  5
301
330
2F9
100
AcDbEntity
  8
SK2
100
AcDbLine
 10
17.5287301879
 20
-41.0007229491
 30
0.0
 11
18.5951364454
 21
-41.0007229491
 31
0.0
  0
LINE
  5
302
330
2F9
100
AcDbEntity
  8
SK2
100
AcDbLine
 10
18.5951364454
 20
-41.0007229491
 30
0.0
 11
18.5951364454
 21
-46.5569729401
 31
0.0
  0
LINE
  5
303
330
2F9
100
AcDbEntity
  8
SK2
100
AcDbLine
 10
18.5951364454
 20
-46.5569729401
 30
0.0
 11
17.5287301879
 21
-46.5569729401
 31
0.0
  0
LINE
  5
304
330
2F9
100
AcDbEntity
  8
SK2
100
AcDbLine
 10
-0.59
 20
-7.74624
 30
0.0
 11
-0.59
 21
-52.7936046651
 31
0.0
  0
LINE
  5
305
330
2F9
100
AcDbEntity
  8
SK2
100
AcDbLine
 10
44.45
 20
-13.827
 30
0.0
 11
44.45
 21
-52.7936046651
 31
0.0
  0
LINE
  5
306
330
2F9
100
AcDbEntity
  8
SK2
100
AcDbLine
 10
-0.59
 20
-51.7936046651
 30
0.0
 11
44.45
 21
-51.7936046651
 31
0.0
  0
MTEXT
  5
307
330
2F9
100
AcDbEntity
  8
SK2
100
AcDbMText
 10
6.3639730153
 20
-47.2283953993
 30
0.0
 40
3.5
 41
0.0
 71
     1
 72
     1
  1

  7
SLDTEXTSTYLE0
 73
     1
 44
1.0
  0
MTEXT
  5
308
330
2F9
100
AcDbEntity
  8
SK2
100
AcDbMText
 10
8.477341127
 20
-42.0452360256
 30
0.0
 40
3.5
 41
0.0
 71
     1
 72
     1
  1
1,77
  7
SLDTEXTSTYLE0
 73
     1
 44
1.0
  0
MTEXT
  5
309
330
2F9
100
AcDbEntity
  8
SK2
100
AcDbMText
 10
7.1842854138
 20
-47.2818675759
 30
0.0
 40
3.5
 41
0.0
 71
     1
 72
     1
  1
45,04
  7
SLDTEXTSTYLE0
 73
     1
 44
1.0
  0
MTEXT
  5
30A
330
2F9
100
AcDbEntity
  8
SK2
100
AcDbMText
 10
20.9740428192
 20
-47.2283953993
 30
0.0
 40
3.5
 41
0.0
 71
     1
 72
     1
  1

  7
SLDTEXTSTYLE0
 73
     1
 44
1.0
  0
ENDBLK
  5
2FB
330
2F9
100
AcDbEntity
  8
0
100
AcDbBlockEnd
  0
BLOCK
  5
30D
330
30C
100
AcDbEntity
  8
0
100
AcDbBlockBegin
  2
_D_5
 70
     0
 10
0.0
 20
0.0
 30
0.0
  3
_D_5
  1

  0
SOLID
  5
30F
330
30C
100
AcDbEntity
  8
SK2
100
AcDbTrace
 10
22.225
 20
-41.4570966099
 30
0.0
 11
25.527
 21
-41.9650966099
 31
0.0
 12
25.527
 22
-40.9490966099
 32
0.0
 13
25.527
 23
-40.9490966099
 33
0.0
  0
SOLID
  5
310
330
30C
100
AcDbEntity
  8
SK2
100
AcDbTrace
 10
44.45
 20
-41.4570966099
 30
0.0
 11
41.148
 21
-40.9490966099
 31
0.0
 12
41.148
 22
-41.9650966099
 32
0.0
 13
41.148
 23
-41.9650966099
 33
0.0
  0
LINE
  5
311
330
30C
100
AcDbEntity
  8
SK2
100
AcDbLine
 10
29.2461380301
 20
-30.6642148938
 30
0.0
 11
28.1797317726
 21
-30.6642148938
 31
0.0
  0
LINE
  5
312
330
30C
100
AcDbEntity
  8
SK2
100
AcDbLine
 10
28.1797317726
 20
-30.6642148938
 30
0.0
 11
28.1797317726
 21
-36.2204648849
 31
0.0
  0
LINE
  5
313
330
30C
100
AcDbEntity
  8
SK2
100
AcDbLine
 10
28.1797317726
 20
-36.2204648849
 30
0.0
 11
29.2461380301
 21
-36.2204648849
 31
0.0
  0
LINE
  5
314
330
30C
100
AcDbEntity
  8
SK2
100
AcDbLine
 10
38.297527091
 20
-30.6642148938
 30
0.0
 11
39.3639333484
 21
-30.6642148938
 31
0.0
  0
LINE
  5
315
330
30C
100
AcDbEntity
  8
SK2
100
AcDbLine
 10
39.3639333484
 20
-30.6642148938
 30
0.0
 11
39.3639333484
 21
-36.2204648849
 31
0.0
  0
LINE
  5
316
330
30C
100
AcDbEntity
  8
SK2
100
AcDbLine
 10
39.3639333484
 20
-36.2204648849
 30
0.0
 11
38.297527091
 21
-36.2204648849
 31
0.0
  0
LINE
  5
317
330
30C
100
AcDbEntity
  8
SK2
100
AcDbLine
 10
22.225
 20
-25.4546002652
 30
0.0
 11
22.225
 21
-42.4570966099
 31
0.0
  0
LINE
  5
318
330
30C
100
AcDbEntity
  8
SK2
100
AcDbLine
 10
44.45
 20
-13.827
 30
0.0
 11
44.45
 21
-42.4570966099
 31
0.0
  0
LINE
  5
319
330
30C
100
AcDbEntity
  8
SK2
100
AcDbLine
 10
22.225
 20
-41.4570966099
 30
0.0
 11
44.45
 21
-41.4570966099
 31
0.0
  0
MTEXT
  5
31A
330
30C
100
AcDbEntity
  8
SK2
100
AcDbMText
 10
27.1327699184
 20
-36.891887344
 30
0.0
 40
3.5
 41
0.0
 71
     1
 72
     1
  1

  7
SLDTEXTSTYLE0
 73
     1
 44
1.0
  0
MTEXT
  5
31B
330
30C
100
AcDbEntity
  8
SK2
100
AcDbMText
 10
29.2461380301
 20
-31.7087279703
 30
0.0
 40
3.5
 41
0.0
 71
     1
 72
     1
  1
0,88
  7
SLDTEXTSTYLE0
 73
     1
 44
1.0
  0
MTEXT
  5
31C
330
30C
100
AcDbEntity
  8
SK2
100
AcDbMText
 10
27.9530823169
 20
-36.9453595206
 30
0.0
 40
3.5
 41
0.0
 71
     1
 72
     1
  1
22,23
  7
SLDTEXTSTYLE0
 73
     1
 44
1.0
  0
MTEXT
  5
31D
330
30C
100
AcDbEntity
  8
SK2
100
AcDbMText
 10
41.7428397223
 20
-36.891887344
 30
0.0
 40
3.5
 41
0.0
 71
     1
 72
     1
  1

  7
SLDTEXTSTYLE0
 73
     1
 44
1.0
  0
ENDBLK
  5
30E
330
30C
100
AcDbEntity
  8
0
100
AcDbBlockEnd
  0
BLOCK
  5
321
330
320
100
AcDbEntity
  8
0
100
AcDbBlockBegin
  2
_D_6
 70
     0
 10
0.0
 20
0.0
 30
0.0
  3
_D_6
  1

  0
SOLID
  5
323
330
320
100
AcDbEntity
  8
SK2
100
AcDbTrace
 10
60.7343570843
 20
-6.35
 30
0.0
 11
61.2423570843
 21
-3.048
 31
0.0
 12
60.2263570843
 22
-3.048
 32
0.0
 13
60.2263570843
 23
-3.048
 33
0.0
  0
SOLID
  5
324
330
320
100
AcDbEntity
  8
SK2
100
AcDbTrace
 10
60.7343570843
 20
6.35
 30
0.0
 11
60.2263570843
 21
3.048
 31
0.0
 12
61.2423570843
 22
3.048
 32
0.0
 13
61.2423570843
 23
3.048
 33
0.0
  0
LINE
  5
325
330
320
100
AcDbEntity
  8
SK2
100
AcDbLine
 10
49.9414753682
 20
-5.0471869763
 30
0.0
 11
49.9414753682
 21
-6.1135932338
 31
0.0
  0
LINE
  5
326
330
320
100
AcDbEntity
  8
SK2
100
AcDbLine
 10
49.9414753682
 20
-6.1135932338
 30
0.0
 11
55.4977253593
 21
-6.1135932338
 31
0.0
  0
LINE
  5
327
330
320
100
AcDbEntity
  8
SK2
100
AcDbLine
 10
55.4977253593
 20
-6.1135932338
 30
0.0
 11
55.4977253593
 21
-5.0471869763
 31
0.0
  0
LINE
  5
328
330
320
100
AcDbEntity
  8
SK2
100
AcDbLine
 10
49.9414753682
 20
4.0042020846
 30
0.0
 11
49.9414753682
 21
5.070608342
 31
0.0
  0
LINE
  5
329
330
320
100
AcDbEntity
  8
SK2
100
AcDbLine
 10
49.9414753682
 20
5.070608342
 30
0.0
 11
55.4977253593
 21
5.070608342
 31
0.0
  0
LINE
  5
32A
330
320
100
AcDbEntity
  8
SK2
100
AcDbLine
 10
55.4977253593
 20
5.070608342
 30
0.0
 11
55.4977253593
 21
4.0042020846
 31
0.0
  0
LINE
  5
32B
330
320
100
AcDbEntity
  8
SK2
100
AcDbLine
 10
44.45
 20
-6.35
 30
0.0
 11
61.7343570843
 21
-6.35
 31
0.0
  0
LINE
  5
32C
330
320
100
AcDbEntity
  8
SK2
100
AcDbLine
 10
44.45
 20
6.35
 30
0.0
 11
61.7343570843
 21
6.35
 31
0.0
  0
LINE
  5
32D
330
320
100
AcDbEntity
  8
SK2
100
AcDbLine
 10
60.7343570843
 20
-6.35
 30
0.0
 11
60.7343570843
 21
6.35
 31
0.0
  0
MTEXT
  5
32E
330
320
100
AcDbEntity
  8
SK2
100
AcDbMText
 10
50.9859884447
 20
-5.0471869763
 30
0.0
 40
3.5
 41
0.0
 71
     1
 72
     1
  1
0,50
  7
SLDTEXTSTYLE0
 11
6.123233995736766E-17
 21
1.0
 31
0.0
 73
     1
 44
1.0
  0
MTEXT
  5
32F
330
320
100
AcDbEntity
  8
SK2
100
AcDbMText
 10
56.2226199951
 20
-7.6864061412
 30
0.0
 40
3.5
 41
0.0
 71
     1
 72
     1
  1
%%c
  7
SLDTEXTSTYLE0
 11
6.123233995736766E-17
 21
1.0
 31
0.0
 73
     1
 44
1.0
  0
MTEXT
  5
330
330
320
100
AcDbEntity
  8
SK2
100
AcDbMText
 10
56.2226199951
 20
-2.4079687428
 30
0.0
 40
3.5
 41
0.0
 71
     1
 72
     1
  1
12,7
  7
SLDTEXTSTYLE0
 11
6.123233995736766E-17
 21
1.0
 31
0.0
 73
     1
 44
1.0
  0
ENDBLK
  5
322
330
320
100
AcDbEntity
  8
0
100
AcDbBlockEnd
  0
BLOCK
  5
333
330
332
100
AcDbEntity
  8
0
100
AcDbBlockBegin
  2
_D_7
 70
     0
 10
0.0
 20
0.0
 30
0.0
  3
_D_7
  1

  0
SOLID
  5
335
330
332
100
AcDbEntity
  8
SK2
100
AcDbTrace
 10
76.0384498918
 20
12.827
 30
0.0
 11
75.5304498918
 21
9.525
 31
0.0
 12
76.5464498918
 22
9.525
 32
0.0
 13
76.5464498918
 23
9.525
 33
0.0
  0
SOLID
  5
336
330
332
100
AcDbEntity
  8
SK2
100
AcDbTrace
 10
76.0384498918
 20
-12.827
 30
0.0
 11
76.5464498918
 21
-9.525
 31
0.0
 12
75.5304498918
 22
-9.525
 32
0.0
 13
75.5304498918
 23
-9.525
 33
0.0
  0
LINE
  5
337
330
332
100
AcDbEntity
  8
SK2
100
AcDbLine
 10
65.2455681758
 20
-5.0471869763
 30
0.0
 11
65.2455681758
 21
-6.1135932338
 31
0.0
  0
LINE
  5
338
330
332
100
AcDbEntity
  8
SK2
100
AcDbLine
 10
65.2455681758
 20
-6.1135932338
 30
0.0
 11
70.8018181669
 21
-6.1135932338
 31
0.0
  0
LINE
  5
339
330
332
100
AcDbEntity
  8
SK2
100
AcDbLine
 10
70.8018181669
 20
-6.1135932338
 30
0.0
 11
70.8018181669
 21
-5.0471869763
 31
0.0
  0
LINE
  5
33A
330
332
100
AcDbEntity
  8
SK2
100
AcDbLine
 10
65.2455681758
 20
4.0042020846
 30
0.0
 11
65.2455681758
 21
5.070608342
 31
0.0
  0
LINE
  5
33B
330
332
100
AcDbEntity
  8
SK2
100
AcDbLine
 10
65.2455681758
 20
5.070608342
 30
0.0
 11
70.8018181669
 21
5.070608342
 31
0.0
  0
LINE
  5
33C
330
332
100
AcDbEntity
  8
SK2
100
AcDbLine
 10
70.8018181669
 20
5.070608342
 30
0.0
 11
70.8018181669
 21
4.0042020846
 31
0.0
  0
LINE
  5
33D
330
332
100
AcDbEntity
  8
SK2
100
AcDbLine
 10
45.45
 20
12.827
 30
0.0
 11
77.0384498918
 21
12.827
 31
0.0
  0
LINE
  5
33E
330
332
100
AcDbEntity
  8
SK2
100
AcDbLine
 10
45.45
 20
-12.827
 30
0.0
 11
77.0384498918
 21
-12.827
 31
0.0
  0
LINE
  5
33F
330
332
100
AcDbEntity
  8
SK2
100
AcDbLine
 10
76.0384498918
 20
12.827
 30
0.0
 11
76.0384498918
 21
-12.827
 31
0.0
  0
MTEXT
  5
340
330
332
100
AcDbEntity
  8
SK2
100
AcDbMText
 10
66.2900812523
 20
-5.0471869763
 30
0.0
 40
3.5
 41
0.0
 71
     1
 72
     1
  1
1,01
  7
SLDTEXTSTYLE0
 11
-7.044195017643634E-15
 21
1.0
 31
0.0
 73
     1
 44
1.0
  0
MTEXT
  5
341
330
332
100
AcDbEntity
  8
SK2
100
AcDbMText
 10
71.5267128026
 20
-8.9794613887
 30
0.0
 40
3.5
 41
0.0
 71
     1
 72
     1
  1
%%c
  7
SLDTEXTSTYLE0
 11
-7.044195017643634E-15
 21
1.0
 31
0.0
 73
     1
 44
1.0
  0
MTEXT
  5
342
330
332
100
AcDbEntity
  8
SK2
100
AcDbMText
 10
71.5267128026
 20
-3.7010239903
 30
0.0
 40
3.5
 41
0.0
 71
     1
 72
     1
  1
25,65
  7
SLDTEXTSTYLE0
 11
-7.044195017643634E-15
 21
1.0
 31
0.0
 73
     1
 44
1.0
  0
ENDBLK
  5
334
330
332
100
AcDbEntity
  8
0
100
AcDbBlockEnd
  0
BLOCK
  5
345
330
344
100
AcDbEntity
  8
0
100
AcDbBlockBegin
  2
_D_8
 70
     0
 10
0.0
 20
0.0
 30
0.0
  3
_D_8
  1

  0
SOLID
  5
347
330
344
100
AcDbEntity
  8
SK2
100
AcDbTrace
 10
91.8198411965
 20
22.1836591967
 30
0.0
 11
91.3118411965
 21
18.8816591967
 31
0.0
 12
92.3278411965
 22
18.8816591967
 32
0.0
 13
92.3278411965
 23
18.8816591967
 33
0.0
  0
SOLID
  5
348
330
344
100
AcDbEntity
  8
SK2
100
AcDbTrace
 10
91.8198411965
 20
-22.225
 30
0.0
 11
92.3278411965
 21
-18.923
 31
0.0
 12
91.3118411965
 22
-18.923
 32
0.0
 13
91.3118411965
 23
-18.923
 33
0.0
  0
LINE
  5
349
330
344
100
AcDbEntity
  8
SK2
100
AcDbLine
 10
81.0269594804
 20
-5.0471869763
 30
0.0
 11
81.0269594804
 21
-6.1135932338
 31
0.0
  0
LINE
  5
34A
330
344
100
AcDbEntity
  8
SK2
100
AcDbLine
 10
81.0269594804
 20
-6.1135932338
 30
0.0
 11
86.5832094715
 21
-6.1135932338
 31
0.0
  0
LINE
  5
34B
330
344
100
AcDbEntity
  8
SK2
100
AcDbLine
 10
86.5832094715
 20
-6.1135932338
 30
0.0
 11
86.5832094715
 21
-5.0471869763
 31
0.0
  0
LINE
  5
34C
330
344
100
AcDbEntity
  8
SK2
100
AcDbLine
 10
81.0269594804
 20
4.0042020846
 30
0.0
 11
81.0269594804
 21
5.070608342
 31
0.0
  0
LINE
  5
34D
330
344
100
AcDbEntity
  8
SK2
100
AcDbLine
 10
81.0269594804
 20
5.070608342
 30
0.0
 11
86.5832094715
 21
5.070608342
 31
0.0
  0
LINE
  5
34E
330
344
100
AcDbEntity
  8
SK2
100
AcDbLine
 10
86.5832094715
 20
5.070608342
 30
0.0
 11
86.5832094715
 21
4.0042020846
 31
0.0
  0
LINE
  5
34F
330
344
100
AcDbEntity
  8
SK2
100
AcDbLine
 10
36.052
 20
22.1836591967
 30
0.0
 11
92.8198411965
 21
22.1836591967
 31
0.0
  0
LINE
  5
350
330
344
100
AcDbEntity
  8
SK2
100
AcDbLine
 10
36.052
 20
-22.225
 30
0.0
 11
92.8198411965
 21
-22.225
 31
0.0
  0
LINE
  5
351
330
344
100
AcDbEntity
  8
SK2
100
AcDbLine
 10
91.8198411965
 20
22.1836591967
 30
0.0
 11
91.8198411965
 21
-22.225
 31
0.0
  0
MTEXT
  5
352
330
344
100
AcDbEntity
  8
SK2
100
AcDbMText
 10
82.0714725569
 20
-5.0471869763
 30
0.0
 40
3.5
 41
0.0
 71
     1
 72
     1
  1
1,75
  7
SLDTEXTSTYLE0
 11
-6.156016597943509E-15
 21
1.0
 31
0.0
 73
     1
 44
1.0
  0
MTEXT
  5
353
330
344
100
AcDbEntity
  8
SK2
100
AcDbMText
 10
87.3081041072
 20
-8.9794613887
 30
0.0
 40
3.5
 41
0.0
 71
     1
 72
     1
  1
%%c
  7
SLDTEXTSTYLE0
 11
-6.156016597943509E-15
 21
1.0
 31
0.0
 73
     1
 44
1.0
  0
MTEXT
  5
354
330
344
100
AcDbEntity
  8
SK2
100
AcDbMText
 10
87.3081041072
 20
-3.7010239903
 30
0.0
 40
3.5
 41
0.0
 71
     1
 72
     1
  1
44,45
  7
SLDTEXTSTYLE0
 11
-6.156016597943509E-15
 21
1.0
 31
0.0
 73
     1
 44
1.0
  0
ENDBLK
  5
346
330
344
100
AcDbEntity
  8
0
100
AcDbBlockEnd
  0
BLOCK
  5
358
330
357
100
AcDbEntity
  8
0
100
AcDbBlockBegin
  2
_D_9
 70
     0
 10
0.0
 20
0.0
 30
0.0
  3
_D_9
  1

  0
SOLID
  5
35A
330
357
100
AcDbEntity
  8
SK2
100
AcDbTrace
 10
-88.404256195
 20
30.5578899967
 30
0.0
 11
-88.912256195
 21
27.2558899967
 31
0.0
 12
-87.896256195
 22
27.2558899967
 32
0.0
 13
-87.896256195
 23
27.2558899967
 33
0.0
  0
SOLID
  5
35B
330
357
100
AcDbEntity
  8
SK2
100
AcDbTrace
 10
-88.404256195
 20
-30.5579086614
 30
0.0
 11
-87.896256195
 21
-27.2559086614
 31
0.0
 12
-88.912256195
 22
-27.2559086614
 32
0.0
 13
-88.912256195
 23
-27.2559086614
 33
0.0
  0
LINE
  5
35C
330
357
100
AcDbEntity
  8
SK2
100
AcDbLine
 10
4.7694368227
 20
30.5578899967
 30
0.0
 11
-89.404256195
 21
30.5578899967
 31
0.0
  0
LINE
  5
35D
330
357
100
AcDbEntity
  8
SK2
100
AcDbLine
 10
2.95
 20
-30.5579086614
 30
0.0
 11
-89.404256195
 21
-30.5579086614
 31
0.0
  0
LINE
  5
35E
330
357
100
AcDbEntity
  8
SK2
100
AcDbLine
 10
-88.404256195
 20
30.5578899967
 30
0.0
 11
-88.404256195
 21
-30.5579086614
 31
0.0
  0
MTEXT
  5
35F
330
357
100
AcDbEntity
  8
SK2
100
AcDbMText
 10
-92.9159932842
 20
-7.6864061412
 30
0.0
 40
3.5
 41
0.0
 71
     1
 72
     1
  1
%%c
  7
SLDTEXTSTYLE0
 11
-1.059690869644414E-14
 21
1.0
 31
0.0
 73
     1
 44
1.0
  0
MTEXT
  5
360
330
357
100
AcDbEntity
  8
SK2
100
AcDbMText
 10
-92.9694654608
 20
-2.4079687428
 30
0.0
 40
3.5
 41
0.0
 71
     1
 72
     1
  1
63,5
  7
SLDTEXTSTYLE0
 11
-1.059690869644414E-14
 21
1.0
 31
0.0
 73
     1
 44
1.0
  0
ENDBLK
  5
359
330
357
100
AcDbEntity
  8
0
100
AcDbBlockEnd
  0
BLOCK
  5
364
330
363
100
AcDbEntity
  8
0
100
AcDbBlockBegin
  2
_D_10
 70
     0
 10
0.0
 20
0.0
 30
0.0
  3
_D_10
  1

  0
SOLID
  5
366
330
363
100
AcDbEntity
  8
SK2
100
AcDbTrace
 10
-76.9400375145
 20
7.9375002533
 30
0.0
 11
-76.4320375145
 21
11.2395002533
 31
0.0
 12
-77.4480375145
 22
11.2395002533
 32
0.0
 13
-77.4480375145
 23
11.2395002533
 33
0.0
  0
SOLID
  5
367
330
363
100
AcDbEntity
  8
SK2
100
AcDbTrace
 10
-76.9400375145
 20
-7.9375002533
 30
0.0
 11
-77.4480375145
 21
-11.2395002533
 31
0.0
 12
-76.4320375145
 22
-11.2395002533
 32
0.0
 13
-76.4320375145
 23
-11.2395002533
 33
0.0
  0
LINE
  5
368
330
363
100
AcDbEntity
  8
SK2
100
AcDbLine
 10
-64.3082389832
 20
7.9375002533
 30
0.0
 11
-77.9400375145
 21
7.9375002533
 31
0.0
  0
LINE
  5
369
330
363
100
AcDbEntity
  8
SK2
100
AcDbLine
 10
-64.3082389832
 20
-7.9375002533
 30
0.0
 11
-77.9400375145
 21
-7.9375002533
 31
0.0
  0
LINE
  5
36A
330
363
100
AcDbEntity
  8
SK2
100
AcDbLine
 10
-76.9400375145
 20
7.9375002533
 30
0.0
 11
-76.9400375145
 21
14.2875002533
 31
0.0
  0
LINE
  5
36B
330
363
100
AcDbEntity
  8
SK2
100
AcDbLine
 10
-76.9400375145
 20
7.9375002533
 30
0.0
 11
-76.9400375145
 21
-7.9375002533
 31
0.0
  0
LINE
  5
36C
330
363
100
AcDbEntity
  8
SK2
100
AcDbLine
 10
-76.9400375145
 20
-7.9375002533
 30
0.0
 11
-76.9400375145
 21
-14.2875002533
 31
0.0
  0
MTEXT
  5
36E
330
363
100
AcDbEntity
  8
SK2
100
AcDbMText
 10
-81.4517744291
 20
-13.2894042826
 30
0.0
 40
3.5
 41
0.0
 71
     1
 72
     1
  1
5/8 - 11 UNC
  7
SLDTEXTSTYLE1
 11
-7.044195017643634E-15
 21
1.0
 31
0.0
 73
     1
 44
1.0
  0
ENDBLK
  5
365
330
363
100
AcDbEntity
  8
0
100
AcDbBlockEnd
  0
BLOCK
  5
371
330
370
100
AcDbEntity
  8
0
100
AcDbBlockBegin
  2
_D_11
 70
     0
 10
0.0
 20
0.0
 30
0.0
  3
_D_11
  1

  0
SOLID
  5
373
330
370
100
AcDbEntity
  8
SK2
100
AcDbTrace
 10
0.0
 20
42.1957535875
 30
0.0
 11
3.302
 21
41.6877535875
 31
0.0
 12
3.302
 22
42.7037535875
 32
0.0
 13
3.302
 23
42.7037535875
 33
0.0
  0
SOLID
  5
374
330
370
100
AcDbEntity
  8
SK2
100
AcDbTrace
 10
19.05
 20
42.1957535875
 30
0.0
 11
15.748
 21
42.7037535875
 31
0.0
 12
15.748
 22
41.6877535875
 32
0.0
 13
15.748
 23
41.6877535875
 33
0.0
  0
LINE
  5
375
330
370
100
AcDbEntity
  8
SK2
100
AcDbLine
 10
0.0
 20
23.225
 30
0.0
 11
0.0
 21
43.1957535875
 31
0.0
  0
LINE
  5
376
330
370
100
AcDbEntity
  8
SK2
100
AcDbLine
 10
19.05
 20
30.8048664484
 30
0.0
 11
19.05
 21
43.1957535875
 31
0.0
  0
LINE
  5
377
330
370
100
AcDbEntity
  8
SK2
100
AcDbLine
 10
0.0
 20
42.1957535875
 30
0.0
 11
19.05
 21
42.1957535875
 31
0.0
  0
MTEXT
  5
378
330
370
100
AcDbEntity
  8
SK2
100
AcDbMText
 10
2.7423909206
 20
46.7074905021
 30
0.0
 40
3.5
 41
0.0
 71
     1
 72
     1
  1
19,05
  7
SLDTEXTSTYLE0
 73
     1
 44
1.0
  0
ENDBLK
  5
372
330
370
100
AcDbEntity
  8
0
100
AcDbBlockEnd
  0
ENDSEC
  0
SECTION
  2
ENTITIES
  0
LINE
  5
82
330
1F
100
AcDbEntity
  8
1
  6
SLD-Solid
370
    25
100
AcDbLine
 10
28.1633740529
 20
-22.225
 30
0.0
 11
35.052
 21
-22.225
 31
0.0
  0
LINE
  5
83
330
1F
100
AcDbEntity
  8
1
  6
SLD-Solid
370
    25
100
AcDbLine
 10
1.8869952227
 20
22.225
 30
0.0
 11
0.0
 21
22.225
 31
0.0
  0
LINE
  5
84
330
1F
100
AcDbEntity
  8
1
  6
SLD-Solid
370
    25
100
AcDbLine
 10
0.0
 20
-22.225
 30
0.0
 11
1.8869952227
 21
-22.225
 31
0.0
  0
LINE
  5
85
330
1F
100
AcDbEntity
  8
1
  6
SLD-Solid
370
    25
100
AcDbLine
 10
1.8869952227
 20
-22.225
 30
0.0
 11
2.1330363037
 21
-22.1102691597
 31
0.0
  0
LINE
  5
86
330
1F
100
AcDbEntity
  8
1
  6
SLD-Solid
370
    25
100
AcDbLine
 10
2.1330363037
 20
22.1102691597
 30
0.0
 11
1.8869952227
 21
22.225
 31
0.0
  0
LINE
  5
87
330
1F
100
AcDbEntity
  8
SK1
  6
SLD-Solid
370
    25
100
AcDbLine
 10
0.0
 20
22.225
 30
0.0
 11
-67.1376006954
 21
12.4340074512
 31
0.0
  0
LINE
  5
88
330
1F
100
AcDbEntity
  8
SK1
  6
SLD-Solid
370
    25
100
AcDbLine
 10
-67.1376006954
 20
-12.4340074512
 30
0.0
 11
0.0
 21
-22.225
 31
0.0
  0
LINE
  5
89
330
1F
100
AcDbEntity
  8
1
  6
SLD-Solid
370
    25
100
AcDbLine
 10
35.052
 20
-22.225
 30
0.0
 11
44.45
 21
-12.827
 31
0.0
  0
LINE
  5
8A
330
1F
100
AcDbEntity
  8
1
  6
SLD-Solid
370
    25
100
AcDbLine
 10
44.45
 20
12.827
 30
0.0
 11
35.1542426128
 21
22.1227573872
 31
0.0
  0
LINE
  5
8B
330
1F
100
AcDbEntity
  8
1
  6
SLD-Solid
370
    25
100
AcDbLine
 10
18.3
 20
-30.5578899967
 30
0.0
 11
18.3
 21
30.5579086614
 31
0.0
  0
LINE
  5
8C
330
1F
100
AcDbEntity
  8
1
  6
SLD-Solid
370
    25
100
AcDbLine
 10
19.05
 20
29.8048664484
 30
0.0
 11
19.05
 21
-29.8048552742
 31
0.0
  0
LINE
  5
8D
330
1F
100
AcDbEntity
  8
1
  6
SLD-Solid
370
    25
100
AcDbLine
 10
3.2
 20
-29.8048664484
 30
0.0
 11
3.2
 21
29.8048552742
 31
0.0
  0
LINE
  5
8E
330
1F
100
AcDbEntity
  8
1
  6
SLD-Solid
370
    25
100
AcDbLine
 10
3.95
 20
30.5578899967
 30
0.0
 11
3.95
 21
-30.5579086614
 31
0.0
  0
LINE
  5
8F
330
1F
100
AcDbEntity
  8
1
  6
SLD-Solid
370
    25
100
AcDbLine
 10
18.3
 20
30.5579086614
 30
0.0
 11
14.6411263546
 21
30.5579086614
 31
0.0
  0
LINE
  5
90
330
1F
100
AcDbEntity
  8
1
  6
SLD-Solid
370
    25
100
AcDbLine
 10
14.6411263546
 20
-30.5578899967
 30
0.0
 11
18.3
 21
-30.5578899967
 31
0.0
  0
LINE
  5
91
330
1F
100
AcDbEntity
  8
1
  6
SLD-Solid
370
    25
100
AcDbLine
 10
14.6411263546
 20
30.5579086614
 30
0.0
 11
14.6411263546
 21
-30.5578899967
 31
0.0
  0
LINE
  5
92
330
1F
100
AcDbEntity
  8
1
  6
SLD-Solid
370
    25
100
AcDbLine
 10
3.95
 20
-30.5579086614
 30
0.0
 11
7.5888736454
 21
-30.5579086614
 31
0.0
  0
LINE
  5
93
330
1F
100
AcDbEntity
  8
1
  6
SLD-Solid
370
    25
100
AcDbLine
 10
7.5888736454
 20
30.5578899967
 30
0.0
 11
3.95
 21
30.5578899967
 31
0.0
  0
LINE
  5
94
330
1F
100
AcDbEntity
  8
1
  6
SLD-Solid
370
    25
100
AcDbLine
 10
7.5888736454
 20
30.5578899967
 30
0.0
 11
7.5888736454
 21
-30.5579086614
 31
0.0
  0
LINE
  5
95
330
1F
100
AcDbEntity
  8
1
  6
SLD-Solid
370
    25
100
AcDbLine
 10
9.2
 20
27.8050456342
 30
0.0
 11
9.2
 21
25.8569131114
 31
0.0
  0
LINE
  5
96
330
1F
100
AcDbEntity
  8
1
  6
SLD-Solid
370
    25
100
AcDbLine
 10
9.2
 20
25.2705433174
 30
0.0
 11
9.2
 21
-27.8050456342
 31
0.0
  0
LINE
  5
97
330
1F
100
AcDbEntity
  8
1
  6
SLD-Solid
370
    25
100
AcDbLine
 10
13.03
 20
25.319242438
 30
0.0
 11
13.03
 21
-27.8050456342
 31
0.0
  0
LINE
  5
98
330
1F
100
AcDbEntity
  8
1
  6
SLD-Solid
370
    25
100
AcDbLine
 10
13.03
 20
27.8050456342
 30
0.0
 11
13.03
 21
25.8117178836
 31
0.0
  0
LINE
  5
99
330
1F
100
AcDbEntity
  8
1
  6
SLD-Solid
370
    25
100
AcDbLine
 10
12.28
 20
24.0780506352
 30
0.0
 11
12.28
 21
-26.9870635676
 31
0.0
  0
LINE
  5
9A
330
1F
100
AcDbEntity
  8
1
  6
SLD-Solid
370
    25
100
AcDbLine
 10
9.95
 20
24.066859753
 30
0.0
 11
9.95
 21
-26.9870635676
 31
0.0
  0
LINE
  5
9B
330
1F
100
AcDbEntity
  8
1
  6
SLD-Solid
370
    25
100
AcDbLine
 10
9.95
 20
-26.9870635676
 30
0.0
 11
12.28
 21
-26.9870635676
 31
0.0
  0
LINE
  5
9C
330
1F
100
AcDbEntity
  8
1
  6
SLD-Solid
370
    25
100
AcDbLine
 10
21.05
 20
21.8369979403
 30
0.0
 11
21.05
 21
-21.445949501
 31
0.0
  0
LINE
  5
9D
330
1F
100
AcDbEntity
  8
1
  6
SLD-Solid
370
    25
100
AcDbLine
 10
35.052
 20
22.1836591967
 30
0.0
 11
35.052
 21
-22.225
 31
0.0
  0
LINE
  5
9E
330
1F
100
AcDbEntity
  8
1
  6
SLD-Solid
370
    25
100
AcDbLine
 10
0.0
 20
22.225
 30
0.0
 11
0.0
 21
-22.225
 31
0.0
  0
LINE
  5
9F
330
1F
100
AcDbEntity
  8
1
  6
SLD-Solid
370
    25
100
AcDbLine
 10
1.8869952227
 20
22.225
 30
0.0
 11
1.8869952227
 21
-22.225
 31
0.0
  0
LINE
  5
A0
330
1F
100
AcDbEntity
  8
1
  6
SLD-Solid
370
    25
100
AcDbLine
 10
44.45
 20
12.827
 30
0.0
 11
44.45
 21
-12.827
 31
0.0
  0
LINE
  5
A1
330
1F
100
AcDbEntity
  8
1
  6
SLD-Solid
370
    25
100
AcDbLine
 10
9.2
 20
25.8569131114
 30
0.0
 11
9.2
 21
25.8264908709
 31
0.0
  0
LINE
  5
A2
330
1F
100
AcDbEntity
  8
1
  6
SLD-Solid
370
    25
100
AcDbLine
 10
13.03
 20
25.7812977304
 30
0.0
 11
13.03
 21
25.8117178836
 31
0.0
  0
LINE
  5
A3
330
1F
100
AcDbEntity
  8
1
  6
SLD-Solid
370
    25
100
AcDbLine
 10
9.95
 20
26.9870635676
 30
0.0
 11
9.95
 21
25.6032587904
 31
0.0
  0
LINE
  5
A4
330
1F
100
AcDbEntity
  8
1
  6
SLD-Solid
370
    25
100
AcDbLine
 10
12.28
 20
26.9870635676
 30
0.0
 11
12.28
 21
25.5942620881
 31
0.0
  0
LINE
  5
A5
330
1F
100
AcDbEntity
  8
SK1
  6
SLD-Solid
370
    25
100
AcDbLine
 10
-68.25
 20
-11.1476148288
 30
0.0
 11
-68.25
 21
11.1476148288
 31
0.0
  0
LINE
  5
A6
330
1F
100
AcDbEntity
  8
1
  6
SLD-Solid
370
    25
100
AcDbLine
 10
9.95
 20
26.9870635676
 30
0.0
 11
12.28
 21
26.9870635676
 31
0.0
  0
LINE
  5
A7
330
1F
100
AcDbEntity
  8
1
  6
SLD-Solid
370
    25
100
AcDbLine
 10
2.1330363037
 20
22.1102691597
 30
0.0
 11
2.1330363037
 21
-22.1102691597
 31
0.0
  0
LINE
  5
A8
330
1F
100
AcDbEntity
  8
SK1
  6
SLD-Solid
370
    25
100
AcDbLine
 10
-67.1376006954
 20
0.0
 30
0.0
 11
-67.1376006954
 21
-12.4340074512
 31
0.0
  0
LINE
  5
A9
330
1F
100
AcDbEntity
  8
SK1
  6
SLD-Solid
370
    25
100
AcDbLine
 10
-67.1376006954
 20
12.4340074512
 30
0.0
 11
-67.1376006954
 21
0.0
 31
0.0
  0
LINE
  5
AA
330
1F
100
AcDbEntity
  8
SK3
  6
SLD-Dashed
370
    18
100
AcDbLine
 10
19.05
 20
-6.6488143213
 30
0.0
 11
18.8161847139
 21
-6.4760896069
 31
0.0
  0
LINE
  5
AB
330
1F
100
AcDbEntity
  8
SK3
  6
SLD-Dashed
370
    18
100
AcDbLine
 10
18.8161847139
 20
-6.4760896069
 30
0.0
 11
18.5531822006
 21
-6.396203884
 31
0.0
  0
LINE
  5
AC
330
1F
100
AcDbEntity
  8
SK3
  6
SLD-Dashed
370
    18
100
AcDbLine
 10
18.5531822006
 20
-6.396203884
 30
0.0
 11
18.2707077792
 21
-6.4121081331
 31
0.0
  0
LINE
  5
AD
330
1F
100
AcDbEntity
  8
SK3
  6
SLD-Dashed
370
    18
100
AcDbLine
 10
18.2707077792
 20
-6.4121081331
 30
0.0
 11
17.9791960612
 21
-6.5232148508
 31
0.0
  0
LINE
  5
AE
330
1F
100
AcDbEntity
  8
SK3
  6
SLD-Dashed
370
    18
100
AcDbLine
 10
17.9791960612
 20
-6.5232148508
 30
0.0
 11
17.689415496
 21
-6.7254197524
 31
0.0
  0
LINE
  5
AF
330
1F
100
AcDbEntity
  8
SK3
  6
SLD-Dashed
370
    18
100
AcDbLine
 10
17.689415496
 20
-6.7254197524
 30
0.0
 11
17.4120705846
 21
-7.0112533843
 31
0.0
  0
LINE
  5
B0
330
1F
100
AcDbEntity
  8
SK3
  6
SLD-Dashed
370
    18
100
AcDbLine
 10
17.4120705846
 20
-7.0112533843
 30
0.0
 11
17.1574064541
 21
-7.3701570454
 31
0.0
  0
LINE
  5
B1
330
1F
100
AcDbEntity
  8
SK3
  6
SLD-Dashed
370
    18
100
AcDbLine
 10
17.1574064541
 20
-7.3701570454
 30
0.0
 11
16.9348304035
 21
-7.7888728264
 31
0.0
  0
LINE
  5
B2
330
1F
100
AcDbEntity
  8
SK3
  6
SLD-Dashed
370
    18
100
AcDbLine
 10
16.9348304035
 20
-7.7888728264
 30
0.0
 11
16.7525643972
 21
-8.2519333568
 31
0.0
  0
LINE
  5
B3
330
1F
100
AcDbEntity
  8
SK3
  6
SLD-Dashed
370
    18
100
AcDbLine
 10
16.7525643972
 20
-8.2519333568
 30
0.0
 11
16.6173413455
 21
-8.7422331698
 31
0.0
  0
LINE
  5
B4
330
1F
100
AcDbEntity
  8
SK3
  6
SLD-Dashed
370
    18
100
AcDbLine
 10
16.6173413455
 20
-8.7422331698
 30
0.0
 11
16.5341563912
 21
-9.2416605792
 31
0.0
  0
LINE
  5
B5
330
1F
100
AcDbEntity
  8
SK3
  6
SLD-Dashed
370
    18
100
AcDbLine
 10
16.5341563912
 20
-9.2416605792
 30
0.0
 11
16.5060823883
 21
-9.731766725
 31
0.0
  0
LINE
  5
B6
330
1F
100
AcDbEntity
  8
SK3
  6
SLD-Dashed
370
    18
100
AcDbLine
 10
16.5060823883
 20
-9.731766725
 30
0.0
 11
16.5341563912
 21
-10.194447075
 31
0.0
  0
LINE
  5
B7
330
1F
100
AcDbEntity
  8
SK3
  6
SLD-Dashed
370
    18
100
AcDbLine
 10
16.5341563912
 20
-10.194447075
 30
0.0
 11
16.6173413455
 21
-10.6126102065
 31
0.0
  0
LINE
  5
B8
330
1F
100
AcDbEntity
  8
SK3
  6
SLD-Dashed
370
    18
100
AcDbLine
 10
16.6173413455
 20
-10.6126102065
 30
0.0
 11
16.7525643972
 21
-10.9708091637
 31
0.0
  0
LINE
  5
B9
330
1F
100
AcDbEntity
  8
SK3
  6
SLD-Dashed
370
    18
100
AcDbLine
 10
16.7525643972
 20
-10.9708091637
 30
0.0
 11
16.9348304035
 21
-11.2558120691
 31
0.0
  0
LINE
  5
BA
330
1F
100
AcDbEntity
  8
SK3
  6
SLD-Dashed
370
    18
100
AcDbLine
 10
16.9348304035
 20
-11.2558120691
 30
0.0
 11
17.1574064541
 21
-11.4570909087
 31
0.0
  0
LINE
  5
BB
330
1F
100
AcDbEntity
  8
SK3
  6
SLD-Dashed
370
    18
100
AcDbLine
 10
17.1574064541
 20
-11.4570909087
 30
0.0
 11
17.4120705846
 21
-11.5672104376
 31
0.0
  0
LINE
  5
BC
330
1F
100
AcDbEntity
  8
SK3
  6
SLD-Dashed
370
    18
100
AcDbLine
 10
17.4120705846
 20
-11.5672104376
 30
0.0
 11
17.689415496
 21
-11.5821028379
 31
0.0
  0
LINE
  5
BD
330
1F
100
AcDbEntity
  8
SK3
  6
SLD-Dashed
370
    18
100
AcDbLine
 10
17.689415496
 20
-11.5821028379
 30
0.0
 11
17.9791960612
 21
-11.5012179839
 31
0.0
  0
LINE
  5
BE
330
1F
100
AcDbEntity
  8
SK3
  6
SLD-Dashed
370
    18
100
AcDbLine
 10
17.7375722606
 20
-11.6451704306
 30
0.0
 11
18.3810104057
 21
-11.2618286611
 31
0.0
  0
LINE
  5
BF
330
1F
100
AcDbEntity
  8
SK3
  6
SLD-Dashed
370
    18
100
AcDbLine
 10
18.2707077792
 20
-11.3275437641
 30
0.0
 11
18.5531822006
 21
-11.0674957081
 31
0.0
  0
LINE
  5
C0
330
1F
100
AcDbEntity
  8
SK3
  6
SLD-Dashed
370
    18
100
AcDbLine
 10
18.5531822006
 20
-11.0674957081
 30
0.0
 11
18.8161847139
 21
-10.730679997
 31
0.0
  0
LINE
  5
C1
330
1F
100
AcDbEntity
  8
SK3
  6
SLD-Dashed
370
    18
100
AcDbLine
 10
18.8161847139
 20
-10.730679997
 30
0.0
 11
19.05
 21
-10.329538611
 31
0.0
  0
LINE
  5
C2
330
1F
100
AcDbEntity
  8
SK3
  6
SLD-Dashed
370
    18
100
AcDbLine
 10
19.05
 20
-6.511218589
 30
0.0
 11
19.05
 21
-10.329538611
 31
0.0
  0
LINE
  5
C3
330
1F
100
AcDbEntity
  8
SK3
  6
SLD-Dashed
370
    18
100
AcDbLine
 10
5.6259851119
 20
-8.943826748
 30
0.0
 11
5.5351771035
 21
-8.5053406669
 31
0.0
  0
LINE
  5
C4
330
1F
100
AcDbEntity
  8
SK3
  6
SLD-Dashed
370
    18
100
AcDbLine
 10
5.5351771035
 20
-8.5053406669
 30
0.0
 11
5.4010979853
 21
-8.0888421089
 31
0.0
  0
LINE
  5
C5
330
1F
100
AcDbEntity
  8
SK3
  6
SLD-Dashed
370
    18
100
AcDbLine
 10
5.4010979853
 20
-8.0888421089
 30
0.0
 11
5.230471044
 21
-7.7152160508
 31
0.0
  0
LINE
  5
C6
330
1F
100
AcDbEntity
  8
SK3
  6
SLD-Dashed
370
    18
100
AcDbLine
 10
5.230471044
 20
-7.7152160508
 30
0.0
 11
5.031852227
 21
-7.4031976633
 31
0.0
  0
LINE
  5
C7
330
1F
100
AcDbEntity
  8
SK3
  6
SLD-Dashed
370
    18
100
AcDbLine
 10
5.031852227
 20
-7.4031976633
 30
0.0
 11
4.8152011111
 21
-7.1684328512
 31
0.0
  0
LINE
  5
C8
330
1F
100
AcDbEntity
  8
SK3
  6
SLD-Dashed
370
    18
100
AcDbLine
 10
4.8152011111
 20
-7.1684328512
 30
0.0
 11
4.5913814879
 21
-7.0226937025
 31
0.0
  0
LINE
  5
C9
330
1F
100
AcDbEntity
  8
SK3
  6
SLD-Dashed
370
    18
100
AcDbLine
 10
4.5913814879
 20
-7.0226937025
 30
0.0
 11
4.371616608
 21
-6.9732881867
 31
0.0
  0
LINE
  5
CA
330
1F
100
AcDbEntity
  8
SK3
  6
SLD-Dashed
370
    18
100
AcDbLine
 10
4.371616608
 20
-6.9732881867
 30
0.0
 11
4.1669263999
 21
-7.0226937025
 31
0.0
  0
LINE
  5
CB
330
1F
100
AcDbEntity
  8
SK3
  6
SLD-Dashed
370
    18
100
AcDbLine
 10
4.1669263999
 20
-7.0226937025
 30
0.0
 11
3.9875748856
 21
-7.1684328512
 31
0.0
  0
LINE
  5
CC
330
1F
100
AcDbEntity
  8
SK3
  6
SLD-Dashed
370
    18
100
AcDbLine
 10
3.9875748856
 20
-7.1684328512
 30
0.0
 11
3.8425554988
 21
-7.4031976633
 31
0.0
  0
LINE
  5
CD
330
1F
100
AcDbEntity
  8
SK3
  6
SLD-Dashed
370
    18
100
AcDbLine
 10
3.8425554988
 20
-7.4031976633
 30
0.0
 11
3.7391401171
 21
-7.7152160508
 31
0.0
  0
LINE
  5
CE
330
1F
100
AcDbEntity
  8
SK3
  6
SLD-Dashed
370
    18
100
AcDbLine
 10
3.7391401171
 20
-7.7152160508
 30
0.0
 11
3.6825144197
 21
-8.0888421089
 31
0.0
  0
LINE
  5
CF
330
1F
100
AcDbEntity
  8
SK3
  6
SLD-Dashed
370
    18
100
AcDbLine
 10
3.6825144197
 20
-8.0888421089
 30
0.0
 11
3.6755178553
 21
-8.5053406669
 31
0.0
  0
LINE
  5
D0
330
1F
100
AcDbEntity
  8
SK3
  6
SLD-Dashed
370
    18
100
AcDbLine
 10
3.6755178553
 20
-8.5053406669
 30
0.0
 11
3.718501261
 21
-8.943826748
 31
0.0
  0
LINE
  5
D1
330
1F
100
AcDbEntity
  8
SK3
  6
SLD-Dashed
370
    18
100
AcDbLine
 10
3.718501261
 20
-8.943826748
 30
0.0
 11
3.8093092693
 21
-9.382312829
 31
0.0
  0
LINE
  5
D2
330
1F
100
AcDbEntity
  8
SK3
  6
SLD-Dashed
370
    18
100
AcDbLine
 10
3.8093092693
 20
-9.382312829
 30
0.0
 11
3.9433883876
 21
-9.798811387
 31
0.0
  0
LINE
  5
D3
330
1F
100
AcDbEntity
  8
SK3
  6
SLD-Dashed
370
    18
100
AcDbLine
 10
3.9433883876
 20
-9.798811387
 30
0.0
 11
4.1140153288
 21
-10.1724374451
 31
0.0
  0
LINE
  5
D4
330
1F
100
AcDbEntity
  8
SK3
  6
SLD-Dashed
370
    18
100
AcDbLine
 10
4.1140153288
 20
-10.1724374451
 30
0.0
 11
4.3126341459
 21
-10.4844558326
 31
0.0
  0
LINE
  5
D5
330
1F
100
AcDbEntity
  8
SK3
  6
SLD-Dashed
370
    18
100
AcDbLine
 10
4.3126341459
 20
-10.4844558326
 30
0.0
 11
4.5292852618
 21
-10.7192206447
 31
0.0
  0
LINE
  5
D6
330
1F
100
AcDbEntity
  8
SK3
  6
SLD-Dashed
370
    18
100
AcDbLine
 10
4.5292852618
 20
-10.7192206447
 30
0.0
 11
4.7531048849
 21
-10.8649597934
 31
0.0
  0
LINE
  5
D7
330
1F
100
AcDbEntity
  8
SK3
  6
SLD-Dashed
370
    18
100
AcDbLine
 10
4.7531048849
 20
-10.8649597934
 30
0.0
 11
4.9728697649
 21
-10.9143653093
 31
0.0
  0
LINE
  5
D8
330
1F
100
AcDbEntity
  8
SK3
  6
SLD-Dashed
370
    18
100
AcDbLine
 10
4.9728697649
 20
-10.9143653093
 30
0.0
 11
5.1775599729
 21
-10.8649597934
 31
0.0
  0
LINE
  5
D9
330
1F
100
AcDbEntity
  8
SK3
  6
SLD-Dashed
370
    18
100
AcDbLine
 10
5.1775599729
 20
-10.8649597934
 30
0.0
 11
5.3569114873
 21
-10.7192206447
 31
0.0
  0
LINE
  5
DA
330
1F
100
AcDbEntity
  8
SK3
  6
SLD-Dashed
370
    18
100
AcDbLine
 10
5.3569114873
 20
-10.7192206447
 30
0.0
 11
5.5019308741
 21
-10.4844558326
 31
0.0
  0
LINE
  5
DB
330
1F
100
AcDbEntity
  8
SK3
  6
SLD-Dashed
370
    18
100
AcDbLine
 10
5.5019308741
 20
-10.4844558326
 30
0.0
 11
5.6053462557
 21
-10.1724374451
 31
0.0
  0
LINE
  5
DC
330
1F
100
AcDbEntity
  8
SK3
  6
SLD-Dashed
370
    18
100
AcDbLine
 10
5.6053462557
 20
-10.1724374451
 30
0.0
 11
5.6619719532
 21
-9.798811387
 31
0.0
  0
LINE
  5
DD
330
1F
100
AcDbEntity
  8
SK3
  6
SLD-Dashed
370
    18
100
AcDbLine
 10
5.6619719532
 20
-9.798811387
 30
0.0
 11
5.6689685176
 21
-9.382312829
 31
0.0
  0
LINE
  5
DE
330
1F
100
AcDbEntity
  8
SK3
  6
SLD-Dashed
370
    18
100
AcDbLine
 10
5.6689685176
 20
-9.382312829
 30
0.0
 11
5.6259851119
 21
-8.943826748
 31
0.0
  0
LINE
  5
DF
330
1F
100
AcDbEntity
  8
SK3
  6
SLD-Dashed
370
    18
100
AcDbLine
 10
18.4408128517
 20
-8.8714518524
 30
0.0
 11
18.4795661481
 21
-8.469086838
 31
0.0
  0
LINE
  5
E0
330
1F
100
AcDbEntity
  8
SK3
  6
SLD-Dashed
370
    18
100
AcDbLine
 10
18.4795661481
 20
-8.469086838
 30
0.0
 11
18.4588974842
 21
-8.0920038972
 31
0.0
  0
LINE
  5
E1
330
1F
100
AcDbEntity
  8
SK3
  6
SLD-Dashed
370
    18
100
AcDbLine
 10
18.4588974842
 20
-8.0920038972
 30
0.0
 11
18.3801055482
 21
-7.7638965381
 31
0.0
  0
LINE
  5
E2
330
1F
100
AcDbEntity
  8
SK3
  6
SLD-Dashed
370
    18
100
AcDbLine
 10
18.3801055482
 20
-7.7638965381
 30
0.0
 11
18.248141127
 21
-7.5053809527
 31
0.0
  0
LINE
  5
E3
330
1F
100
AcDbEntity
  8
SK3
  6
SLD-Dashed
370
    18
100
AcDbLine
 10
18.248141127
 20
-7.5053809527
 30
0.0
 11
18.0712960308
 21
-7.3327006259
 31
0.0
  0
LINE
  5
E4
330
1F
100
AcDbEntity
  8
SK3
  6
SLD-Dashed
370
    18
100
AcDbLine
 10
18.0712960308
 20
-7.3327006259
 30
0.0
 11
17.8606820871
 21
-7.2567056979
 31
0.0
  0
LINE
  5
E5
330
1F
100
AcDbEntity
  8
SK3
  6
SLD-Dashed
370
    18
100
AcDbLine
 10
17.8606820871
 20
-7.2567056979
 30
0.0
 11
17.6295329448
 21
-7.2821712094
 31
0.0
  0
LINE
  5
E6
330
1F
100
AcDbEntity
  8
SK3
  6
SLD-Dashed
370
    18
100
AcDbLine
 10
17.6295329448
 20
-7.2821712094
 30
0.0
 11
17.3923725545
 21
-7.4074970686
 31
0.0
  0
LINE
  5
E7
330
1F
100
AcDbEntity
  8
SK3
  6
SLD-Dashed
370
    18
100
AcDbLine
 10
17.3923725545
 20
-7.4074970686
 30
0.0
 11
17.1641025758
 21
-7.6248085909
 31
0.0
  0
LINE
  5
E8
330
1F
100
AcDbEntity
  8
SK3
  6
SLD-Dashed
370
    18
100
AcDbLine
 10
17.1641025758
 20
-7.6248085909
 30
0.0
 11
16.959066051
 21
-7.9204512942
 31
0.0
  0
LINE
  5
E9
330
1F
100
AcDbEntity
  8
SK3
  6
SLD-Dashed
370
    18
100
AcDbLine
 10
16.959066051
 20
-7.9204512942
 30
0.0
 11
16.7901461789
 21
-8.2758488601
 31
0.0
  0
LINE
  5
EA
330
1F
100
AcDbEntity
  8
SK3
  6
SLD-Dashed
370
    18
100
AcDbLine
 10
16.7901461789
 20
-8.2758488601
 30
0.0
 11
16.6679568163
 21
-8.6686703525
 31
0.0
  0
LINE
  5
EB
330
1F
100
AcDbEntity
  8
SK3
  6
SLD-Dashed
370
    18
100
AcDbLine
 10
16.6679568163
 20
-8.6686703525
 30
0.0
 11
16.6001755704
 21
-9.0742333523
 31
0.0
  0
LINE
  5
EC
330
1F
100
AcDbEntity
  8
SK3
  6
SLD-Dashed
370
    18
100
AcDbLine
 10
16.6001755704
 20
-9.0742333523
 30
0.0
 11
16.5910613861
 21
-9.4670548447
 31
0.0
  0
LINE
  5
ED
330
1F
100
AcDbEntity
  8
SK3
  6
SLD-Dashed
370
    18
100
AcDbLine
 10
16.5910613861
 20
-9.4670548447
 30
0.0
 11
16.6411869411
 21
-9.8224524106
 31
0.0
  0
LINE
  5
EE
330
1F
100
AcDbEntity
  8
SK3
  6
SLD-Dashed
370
    18
100
AcDbLine
 10
16.6411869411
 20
-9.8224524106
 30
0.0
 11
16.7474026624
 21
-10.1180951139
 31
0.0
  0
LINE
  5
EF
330
1F
100
AcDbEntity
  8
SK3
  6
SLD-Dashed
370
    18
100
AcDbLine
 10
16.7474026624
 20
-10.1180951139
 30
0.0
 11
16.9030346256
 21
-10.3354066363
 31
0.0
  0
LINE
  5
F0
330
1F
100
AcDbEntity
  8
SK3
  6
SLD-Dashed
370
    18
100
AcDbLine
 10
16.9030346256
 20
-10.3354066363
 30
0.0
 11
17.0983039021
 21
-10.4607324955
 31
0.0
  0
LINE
  5
F1
330
1F
100
AcDbEntity
  8
SK3
  6
SLD-Dashed
370
    18
100
AcDbLine
 10
17.0983039021
 20
-10.4607324955
 30
0.0
 11
17.3209410051
 21
-10.486198007
 31
0.0
  0
LINE
  5
F2
330
1F
100
AcDbEntity
  8
SK3
  6
SLD-Dashed
370
    18
100
AcDbLine
 10
17.3209410051
 20
-10.486198007
 30
0.0
 11
17.5569568267
 21
-10.4102030789
 31
0.0
  0
LINE
  5
F3
330
1F
100
AcDbEntity
  8
SK3
  6
SLD-Dashed
370
    18
100
AcDbLine
 10
17.5569568267
 20
-10.4102030789
 30
0.0
 11
17.7915216246
 21
-10.2375227522
 31
0.0
  0
LINE
  5
F4
330
1F
100
AcDbEntity
  8
SK3
  6
SLD-Dashed
370
    18
100
AcDbLine
 10
17.7915216246
 20
-10.2375227522
 30
0.0
 11
18.0098968302
 21
-9.9790071667
 31
0.0
  0
LINE
  5
F5
330
1F
100
AcDbEntity
  8
SK3
  6
SLD-Dashed
370
    18
100
AcDbLine
 10
18.0098968302
 20
-9.9790071667
 30
0.0
 11
18.1983611259
 21
-9.6508998076
 31
0.0
  0
LINE
  5
F6
330
1F
100
AcDbEntity
  8
SK3
  6
SLD-Dashed
370
    18
100
AcDbLine
 10
18.1983611259
 20
-9.6508998076
 30
0.0
 11
18.3450726071
 21
-9.2738168668
 31
0.0
  0
LINE
  5
F7
330
1F
100
AcDbEntity
  8
SK3
  6
SLD-Dashed
370
    18
100
AcDbLine
 10
18.3450726071
 20
-9.2738168668
 30
0.0
 11
18.4408128517
 21
-8.8714518524
 31
0.0
  0
LINE
  5
F8
330
1F
100
AcDbEntity
  8
SK3
  6
SLD-Dashed
370
    18
100
AcDbLine
 10
5.641206471
 20
-8.9078631218
 30
0.0
 11
5.6781658386
 21
-9.3121568571
 31
0.0
  0
LINE
  5
F9
330
1F
100
AcDbEntity
  8
SK3
  6
SLD-Dashed
370
    18
100
AcDbLine
 10
5.6781658386
 20
-9.3121568571
 30
0.0
 11
5.6633630452
 21
-9.6910473301
 31
0.0
  0
LINE
  5
FA
330
1F
100
AcDbEntity
  8
SK3
  6
SLD-Dashed
370
    18
100
AcDbLine
 10
5.6633630452
 20
-9.6910473301
 30
0.0
 11
5.5977282047
 21
-10.020727459
 31
0.0
  0
LINE
  5
FB
330
1F
100
AcDbEntity
  8
SK3
  6
SLD-Dashed
370
    18
100
AcDbLine
 10
5.5977282047
 20
-10.020727459
 30
0.0
 11
5.4853853955
 21
-10.2804822287
 31
0.0
  0
LINE
  5
FC
330
1F
100
AcDbEntity
  8
SK3
  6
SLD-Dashed
370
    18
100
AcDbLine
 10
5.4853853955
 20
-10.2804822287
 30
0.0
 11
5.3333935295
 21
-10.4539902918
 31
0.0
  0
LINE
  5
FD
330
1F
100
AcDbEntity
  8
SK3
  6
SLD-Dashed
370
    18
100
AcDbLine
 10
5.3333935295
 20
-10.4539902918
 30
0.0
 11
5.1513028146
 21
-10.5303494985
 31
0.0
  0
LINE
  5
FE
330
1F
100
AcDbEntity
  8
SK3
  6
SLD-Dashed
370
    18
100
AcDbLine
 10
5.1513028146
 20
-10.5303494985
 30
0.0
 11
4.9505546801
 21
-10.5047619191
 31
0.0
  0
LINE
  5
FF
330
1F
100
AcDbEntity
  8
SK3
  6
SLD-Dashed
370
    18
100
AcDbLine
 10
4.9505546801
 20
-10.5047619191
 30
0.0
 11
4.7437628696
 21
-10.3788353153
 31
0.0
  0
LINE
  5
100
330
1F
100
AcDbEntity
  8
SK3
  6
SLD-Dashed
370
    18
100
AcDbLine
 10
4.7437628696
 20
-10.3788353153
 30
0.0
 11
4.5439208732
 21
-10.1604821188
 31
0.0
  0
LINE
  5
101
330
1F
100
AcDbEntity
  8
SK3
  6
SLD-Dashed
370
    18
100
AcDbLine
 10
4.5439208732
 20
-10.1604821188
 30
0.0
 11
4.3635854983
 21
-9.8634222638
 31
0.0
  0
LINE
  5
102
330
1F
100
AcDbEntity
  8
SK3
  6
SLD-Dashed
370
    18
100
AcDbLine
 10
4.3635854983
 20
-9.8634222638
 30
0.0
 11
4.2140878798
 21
-9.5063211136
 31
0.0
  0
LINE
  5
103
330
1F
100
AcDbEntity
  8
SK3
  6
SLD-Dashed
370
    18
100
AcDbLine
 10
4.2140878798
 20
-9.5063211136
 30
0.0
 11
4.104821503
 21
-9.1116166469
 31
0.0
  0
LINE
  5
104
330
1F
100
AcDbEntity
  8
SK3
  6
SLD-Dashed
370
    18
100
AcDbLine
 10
4.104821503
 20
-9.1116166469
 30
0.0
 11
4.042651976
 21
-8.7041095968
 31
0.0
  0
LINE
  5
105
330
1F
100
AcDbEntity
  8
SK3
  6
SLD-Dashed
370
    18
100
AcDbLine
 10
4.042651976
 20
-8.7041095968
 30
0.0
 11
4.031485639
 21
-8.30940513
 31
0.0
  0
LINE
  5
106
330
1F
100
AcDbEntity
  8
SK3
  6
SLD-Dashed
370
    18
100
AcDbLine
 10
4.031485639
 20
-8.30940513
 30
0.0
 11
4.072024114
 21
-7.9523039799
 31
0.0
  0
LINE
  5
107
330
1F
100
AcDbEntity
  8
SK3
  6
SLD-Dashed
370
    18
100
AcDbLine
 10
4.072024114
 20
-7.9523039799
 30
0.0
 11
4.1617202194
 21
-7.6552441249
 31
0.0
  0
LINE
  5
108
330
1F
100
AcDbEntity
  8
SK3
  6
SLD-Dashed
370
    18
100
AcDbLine
 10
4.1617202194
 20
-7.6552441249
 30
0.0
 11
4.2949380192
 21
-7.4368909283
 31
0.0
  0
LINE
  5
109
330
1F
100
AcDbEntity
  8
SK3
  6
SLD-Dashed
370
    18
100
AcDbLine
 10
4.2949380192
 20
-7.4368909283
 30
0.0
 11
4.4633069489
 21
-7.3109643245
 31
0.0
  0
LINE
  5
10A
330
1F
100
AcDbEntity
  8
SK3
  6
SLD-Dashed
370
    18
100
AcDbLine
 10
4.4633069489
 20
-7.3109643245
 30
0.0
 11
4.6562477696
 21
-7.2853767451
 31
0.0
  0
LINE
  5
10B
330
1F
100
AcDbEntity
  8
SK3
  6
SLD-Dashed
370
    18
100
AcDbLine
 10
4.6562477696
 20
-7.2853767451
 30
0.0
 11
4.8616372998
 21
-7.3617359519
 31
0.0
  0
LINE
  5
10C
330
1F
100
AcDbEntity
  8
SK3
  6
SLD-Dashed
370
    18
100
AcDbLine
 10
4.8616372998
 20
-7.3617359519
 30
0.0
 11
5.0665701601
 21
-7.535244015
 31
0.0
  0
LINE
  5
10D
330
1F
100
AcDbEntity
  8
SK3
  6
SLD-Dashed
370
    18
100
AcDbLine
 10
5.0665701601
 20
-7.535244015
 30
0.0
 11
5.2581696651
 21
-7.7949987847
 31
0.0
  0
LINE
  5
10E
330
1F
100
AcDbEntity
  8
SK3
  6
SLD-Dashed
370
    18
100
AcDbLine
 10
5.2581696651
 20
-7.7949987847
 30
0.0
 11
5.4243969133
 21
-8.1246789135
 31
0.0
  0
LINE
  5
10F
330
1F
100
AcDbEntity
  8
SK3
  6
SLD-Dashed
370
    18
100
AcDbLine
 10
5.4243969133
 20
-8.1246789135
 30
0.0
 11
5.5548072353
 21
-8.5035693866
 31
0.0
  0
LINE
  5
110
330
1F
100
AcDbEntity
  8
SK3
  6
SLD-Dashed
370
    18
100
AcDbLine
 10
5.5548072353
 20
-8.5035693866
 30
0.0
 11
5.641206471
 21
-8.9078631218
 31
0.0
  0
LINE
  5
111
330
1F
100
AcDbEntity
  8
SK3
  6
SLD-Dashed
370
    18
100
AcDbLine
 10
-66.6824940192
 20
-8.235
 30
0.0
 11
-66.6824940192
 21
8.235
 31
0.0
  0
LINE
  5
112
330
1F
100
AcDbEntity
  8
SK3
  6
SLD-Dashed
370
    18
100
AcDbLine
 10
-68.25
 20
-9.14
 30
0.0
 11
-68.25
 21
9.14
 31
0.0
  0
LINE
  5
113
330
1F
100
AcDbEntity
  8
SK3
  6
SLD-Dashed
370
    18
100
AcDbLine
 10
-63.48
 20
-8.235
 30
0.0
 11
-63.48
 21
8.235
 31
0.0
  0
LINE
  5
114
330
1F
100
AcDbEntity
  8
SK3
  6
SLD-Dashed
370
    18
100
AcDbLine
 10
-62.6204640132
 20
-6.74624
 30
0.0
 11
-62.6204640132
 21
6.74624
 31
0.0
  0
LINE
  5
115
330
1F
100
AcDbEntity
  8
SK3
  6
SLD-Dashed
370
    18
100
AcDbLine
 10
3.5452916241
 20
-29.8048664484
 30
0.0
 11
3.5452916241
 21
-22.785
 31
0.0
  0
LINE
  5
116
330
1F
100
AcDbEntity
  8
SK3
  6
SLD-Dashed
370
    18
100
AcDbLine
 10
18.704611155
 20
-22.785
 30
0.0
 11
18.704611155
 21
-29.8048552742
 31
0.0
  0
LINE
  5
117
330
1F
100
AcDbEntity
  8
SK3
  6
SLD-Dashed
370
    18
100
AcDbLine
 10
7.8539870535
 20
-30.2255814201
 30
0.0
 11
3.95
 21
-30.2255814201
 31
0.0
  0
LINE
  5
118
330
1F
100
AcDbEntity
  8
SK3
  6
SLD-Dashed
370
    18
100
AcDbLine
 10
18.3
 20
-30.2254693878
 30
0.0
 11
14.3759504666
 21
-30.2254693878
 31
0.0
  0
LINE
  5
119
330
1F
100
AcDbEntity
  8
1
  6
SLD-Dashed
370
    18
100
AcDbLine
 10
9.2
 20
-27.8050456342
 30
0.0
 11
9.2
 21
-27.7691663541
 31
0.0
  0
LINE
  5
11A
330
1F
100
AcDbEntity
  8
1
  6
SLD-Dashed
370
    18
100
AcDbLine
 10
13.03
 20
-27.7691663541
 30
0.0
 11
13.03
 21
-27.8050456342
 31
0.0
  0
LINE
  5
11B
330
1F
100
AcDbEntity
  8
SK3
  6
SLD-Dashed
370
    18
100
AcDbLine
 10
18.7047083759
 20
29.8048664484
 30
0.0
 11
18.7047083759
 21
25.5791202528
 31
0.0
  0
LINE
  5
11C
330
1F
100
AcDbEntity
  8
SK3
  6
SLD-Dashed
370
    18
100
AcDbLine
 10
3.545388845
 20
25.5789825872
 30
0.0
 11
3.545388845
 21
29.8048552742
 31
0.0
  0
LINE
  5
11D
330
1F
100
AcDbEntity
  8
SK3
  6
SLD-Dashed
370
    18
100
AcDbLine
 10
14.3760129465
 20
30.2255814201
 30
0.0
 11
18.3
 21
30.2255814201
 31
0.0
  0
LINE
  5
11E
330
1F
100
AcDbEntity
  8
SK3
  6
SLD-Dashed
370
    18
100
AcDbLine
 10
3.95
 20
30.2254693878
 30
0.0
 11
7.8540495334
 21
30.2254693878
 31
0.0
  0
LINE
  5
11F
330
1F
100
AcDbEntity
  8
1
  6
SLD-Dashed
370
    18
100
AcDbLine
 10
9.2
 20
27.8050456342
 30
0.0
 11
9.2
 21
27.7691663541
 31
0.0
  0
LINE
  5
120
330
1F
100
AcDbEntity
  8
1
  6
SLD-Dashed
370
    18
100
AcDbLine
 10
13.03
 20
27.7691663541
 30
0.0
 11
13.03
 21
27.8050456342
 31
0.0
  0
LINE
  5
121
330
1F
100
AcDbEntity
  8
SK3
  6
SLD-Dashed
370
    18
100
AcDbLine
 10
3.5452916241
 20
-22.785
 30
0.0
 11
18.704611155
 21
-22.785
 31
0.0
  0
LINE
  5
122
330
1F
100
AcDbEntity
  8
SK3
  6
SLD-Dashed
370
    18
100
AcDbLine
 10
18.704611155
 20
-22.41
 30
0.0
 11
3.5452916241
 21
-22.41
 31
0.0
  0
LINE
  5
123
330
1F
100
AcDbEntity
  8
SK3
  6
SLD-Dashed
370
    18
100
AcDbLine
 10
3.7
 20
24.83
 30
0.0
 11
18.55
 21
24.83
 31
0.0
  0
LINE
  5
124
330
1F
100
AcDbEntity
  8
SK3
  6
SLD-Dashed
370
    18
100
AcDbLine
 10
18.55
 20
25.205
 30
0.0
 11
3.7
 21
25.205
 31
0.0
  0
LINE
  5
125
330
1F
100
AcDbEntity
  8
SK3
  6
SLD-Dashed
370
    18
100
AcDbLine
 10
43.45
 20
-6.35
 30
0.0
 11
43.45
 21
6.35
 31
0.0
  0
LINE
  5
126
330
1F
100
AcDbEntity
  8
SK3
  6
SLD-Dashed
370
    18
100
AcDbLine
 10
44.45
 20
-6.9273502692
 30
0.0
 11
44.45
 21
6.9273502692
 31
0.0
  0
LINE
  5
127
330
1F
100
AcDbEntity
  8
SK3
  6
SLD-Dashed
370
    18
100
AcDbLine
 10
-0.59
 20
-6.74624
 30
0.0
 11
-0.59
 21
6.74624
 31
0.0
  0
LINE
  5
128
330
1F
100
AcDbEntity
  8
SK3
  6
SLD-Dashed
370
    18
100
AcDbLine
 10
-0.3519149883
 20
6.35
 30
0.0
 11
-0.3519149883
 21
-6.35
 31
0.0
  0
LINE
  5
129
330
1F
100
AcDbEntity
  8
SK3
  6
SLD-Dashed
370
    18
100
AcDbLine
 10
16.275
 20
-20.725
 30
0.0
 11
28.175
 21
-20.725
 31
0.0
  0
LINE
  5
12A
330
1F
100
AcDbEntity
  8
SK3
  6
SLD-Dashed
370
    18
100
AcDbLine
 10
19.4536053173
 20
-22.41
 30
0.0
 11
16.275
 21
-22.41
 31
0.0
  0
LINE
  5
12B
330
1F
100
AcDbEntity
  8
SK3
  6
SLD-Dashed
370
    18
100
AcDbLine
 10
16.1
 20
20.43
 30
0.0
 11
6.1
 21
20.43
 31
0.0
  0
LINE
  5
12C
330
1F
100
AcDbEntity
  8
SK3
  6
SLD-Dashed
370
    18
100
AcDbLine
 10
6.1
 20
24.83
 30
0.0
 11
16.1
 21
24.83
 31
0.0
  0
LINE
  5
12D
330
1F
100
AcDbEntity
  8
SK3
  6
SLD-Dashed
370
    18
100
AcDbLine
 10
6.400000056
 20
20.13
 30
0.0
 11
15.8
 21
20.13
 31
0.0
  0
LINE
  5
12E
330
1F
100
AcDbEntity
  8
SK3
  6
SLD-Dashed
370
    18
100
AcDbLine
 10
27.0891
 20
-20.725
 30
0.0
 11
17.3609
 21
-20.725
 31
0.0
  0
LINE
  5
12F
330
1F
100
AcDbEntity
  8
SK3
  6
SLD-Dashed
370
    18
100
AcDbLine
 10
16.6269146287
 20
8.8714518524
 30
0.0
 11
16.5881613323
 21
9.2738168668
 31
0.0
  0
LINE
  5
130
330
1F
100
AcDbEntity
  8
SK3
  6
SLD-Dashed
370
    18
100
AcDbLine
 10
16.5881613323
 20
9.2738168668
 30
0.0
 11
16.6088299962
 21
9.6508998076
 31
0.0
  0
LINE
  5
131
330
1F
100
AcDbEntity
  8
SK3
  6
SLD-Dashed
370
    18
100
AcDbLine
 10
16.6088299962
 20
9.6508998076
 30
0.0
 11
16.6876219323
 21
9.9790071667
 31
0.0
  0
LINE
  5
132
330
1F
100
AcDbEntity
  8
SK3
  6
SLD-Dashed
370
    18
100
AcDbLine
 10
16.6876219323
 20
9.9790071667
 30
0.0
 11
16.8195863534
 21
10.2375227522
 31
0.0
  0
LINE
  5
133
330
1F
100
AcDbEntity
  8
SK3
  6
SLD-Dashed
370
    18
100
AcDbLine
 10
16.8195863534
 20
10.2375227522
 30
0.0
 11
16.9964314497
 21
10.4102030789
 31
0.0
  0
LINE
  5
134
330
1F
100
AcDbEntity
  8
SK3
  6
SLD-Dashed
370
    18
100
AcDbLine
 10
16.9964314497
 20
10.4102030789
 30
0.0
 11
17.2070453933
 21
10.486198007
 31
0.0
  0
LINE
  5
135
330
1F
100
AcDbEntity
  8
SK3
  6
SLD-Dashed
370
    18
100
AcDbLine
 10
17.2070453933
 20
10.486198007
 30
0.0
 11
17.4381945356
 21
10.4607324955
 31
0.0
  0
LINE
  5
136
330
1F
100
AcDbEntity
  8
SK3
  6
SLD-Dashed
370
    18
100
AcDbLine
 10
17.4381945356
 20
10.4607324955
 30
0.0
 11
17.6753549259
 21
10.3354066363
 31
0.0
  0
LINE
  5
137
330
1F
100
AcDbEntity
  8
SK3
  6
SLD-Dashed
370
    18
100
AcDbLine
 10
17.6753549259
 20
10.3354066363
 30
0.0
 11
17.9036249046
 21
10.1180951139
 31
0.0
  0
LINE
  5
138
330
1F
100
AcDbEntity
  8
SK3
  6
SLD-Dashed
370
    18
100
AcDbLine
 10
17.9036249046
 20
10.1180951139
 30
0.0
 11
18.1086614295
 21
9.8224524106
 31
0.0
  0
LINE
  5
139
330
1F
100
AcDbEntity
  8
SK3
  6
SLD-Dashed
370
    18
100
AcDbLine
 10
18.1086614295
 20
9.8224524106
 30
0.0
 11
18.2775813016
 21
9.4670548447
 31
0.0
  0
LINE
  5
13A
330
1F
100
AcDbEntity
  8
SK3
  6
SLD-Dashed
370
    18
100
AcDbLine
 10
18.2775813016
 20
9.4670548447
 30
0.0
 11
18.3997706641
 21
9.0742333523
 31
0.0
  0
LINE
  5
13B
330
1F
100
AcDbEntity
  8
SK3
  6
SLD-Dashed
370
    18
100
AcDbLine
 10
18.3997706641
 20
9.0742333523
 30
0.0
 11
18.46755191
 21
8.6686703525
 31
0.0
  0
LINE
  5
13C
330
1F
100
AcDbEntity
  8
SK3
  6
SLD-Dashed
370
    18
100
AcDbLine
 10
18.46755191
 20
8.6686703525
 30
0.0
 11
18.4766660944
 21
8.2758488601
 31
0.0
  0
LINE
  5
13D
330
1F
100
AcDbEntity
  8
SK3
  6
SLD-Dashed
370
    18
100
AcDbLine
 10
18.4766660944
 20
8.2758488601
 30
0.0
 11
18.4265405394
 21
7.9204512942
 31
0.0
  0
LINE
  5
13E
330
1F
100
AcDbEntity
  8
SK3
  6
SLD-Dashed
370
    18
100
AcDbLine
 10
18.4265405394
 20
7.9204512942
 30
0.0
 11
18.3203248181
 21
7.6248085909
 31
0.0
  0
LINE
  5
13F
330
1F
100
AcDbEntity
  8
SK3
  6
SLD-Dashed
370
    18
100
AcDbLine
 10
18.3203248181
 20
7.6248085909
 30
0.0
 11
18.1646928549
 21
7.4074970686
 31
0.0
  0
LINE
  5
140
330
1F
100
AcDbEntity
  8
SK3
  6
SLD-Dashed
370
    18
100
AcDbLine
 10
18.1646928549
 20
7.4074970686
 30
0.0
 11
17.9694235784
 21
7.2821712094
 31
0.0
  0
LINE
  5
141
330
1F
100
AcDbEntity
  8
SK3
  6
SLD-Dashed
370
    18
100
AcDbLine
 10
17.9694235784
 20
7.2821712094
 30
0.0
 11
17.7467864754
 21
7.2567056979
 31
0.0
  0
LINE
  5
142
330
1F
100
AcDbEntity
  8
SK3
  6
SLD-Dashed
370
    18
100
AcDbLine
 10
17.7467864754
 20
7.2567056979
 30
0.0
 11
17.5107706538
 21
7.3327006259
 31
0.0
  0
LINE
  5
143
330
1F
100
AcDbEntity
  8
SK3
  6
SLD-Dashed
370
    18
100
AcDbLine
 10
17.5107706538
 20
7.3327006259
 30
0.0
 11
17.2762058558
 21
7.5053809527
 31
0.0
  0
LINE
  5
144
330
1F
100
AcDbEntity
  8
SK3
  6
SLD-Dashed
370
    18
100
AcDbLine
 10
17.2762058558
 20
7.5053809527
 30
0.0
 11
17.0578306503
 21
7.7638965381
 31
0.0
  0
LINE
  5
145
330
1F
100
AcDbEntity
  8
SK3
  6
SLD-Dashed
370
    18
100
AcDbLine
 10
17.0578306503
 20
7.7638965381
 30
0.0
 11
16.8693663545
 21
8.0920038972
 31
0.0
  0
LINE
  5
146
330
1F
100
AcDbEntity
  8
SK3
  6
SLD-Dashed
370
    18
100
AcDbLine
 10
16.8693663545
 20
8.0920038972
 30
0.0
 11
16.7226548734
 21
8.469086838
 31
0.0
  0
LINE
  5
147
330
1F
100
AcDbEntity
  8
SK3
  6
SLD-Dashed
370
    18
100
AcDbLine
 10
16.7226548734
 20
8.469086838
 30
0.0
 11
16.6269146287
 21
8.8714518524
 31
0.0
  0
LINE
  5
148
330
1F
100
AcDbEntity
  8
SK3
  6
SLD-Dashed
370
    18
100
AcDbLine
 10
18.7047083759
 20
-22.785
 30
0.0
 11
3.545388845
 21
-22.785
 31
0.0
  0
LINE
  5
149
330
1F
100
AcDbEntity
  8
SK3
  6
SLD-Dashed
370
    18
100
AcDbLine
 10
3.545388845
 20
-22.41
 30
0.0
 11
18.7047066107
 21
-22.41
 31
0.0
  0
LINE
  5
14A
330
1F
100
AcDbEntity
  8
SK3
  6
SLD-Dashed
370
    18
100
AcDbLine
 10
14.3760129465
 20
-30.2255814201
 30
0.0
 11
18.3
 21
-30.2255814201
 31
0.0
  0
LINE
  5
14B
330
1F
100
AcDbEntity
  8
1
  6
SLD-Dashed
370
    18
100
AcDbLine
 10
12.28
 20
-26.9870635676
 30
0.0
 11
9.95
 21
-26.9870635676
 31
0.0
  0
LINE
  5
14C
330
1F
100
AcDbEntity
  8
SK3
  6
SLD-Dashed
370
    18
100
AcDbLine
 10
3.95
 20
-30.2254693878
 30
0.0
 11
7.8540495334
 21
-30.2254693878
 31
0.0
  0
LINE
  5
14D
330
1F
100
AcDbEntity
  8
SK3
  6
SLD-Dashed
370
    18
100
AcDbLine
 10
3.545388845
 20
-22.785
 30
0.0
 11
3.545388845
 21
-29.8048552742
 31
0.0
  0
LINE
  5
14E
330
1F
100
AcDbEntity
  8
SK3
  6
SLD-Dashed
370
    18
100
AcDbLine
 10
18.7047083759
 20
-29.8048664484
 30
0.0
 11
18.7047083759
 21
-22.785
 31
0.0
  0
LINE
  5
14F
330
1F
100
AcDbEntity
  8
SK3
  6
SLD-Dashed
370
    18
100
AcDbLine
 10
3.5452916241
 20
29.8048664484
 30
0.0
 11
3.5452916241
 21
25.5791202528
 31
0.0
  0
LINE
  5
150
330
1F
100
AcDbEntity
  8
SK3
  6
SLD-Dashed
370
    18
100
AcDbLine
 10
7.8539870535
 20
30.2255814201
 30
0.0
 11
3.95
 21
30.2255814201
 31
0.0
  0
LINE
  5
151
330
1F
100
AcDbEntity
  8
1
  6
SLD-Dashed
370
    18
100
AcDbLine
 10
12.28
 20
26.9870635676
 30
0.0
 11
9.95
 21
26.9870635676
 31
0.0
  0
LINE
  5
152
330
1F
100
AcDbEntity
  8
SK3
  6
SLD-Dashed
370
    18
100
AcDbLine
 10
18.3
 20
30.2254693878
 30
0.0
 11
14.3759504666
 21
30.2254693878
 31
0.0
  0
LINE
  5
153
330
1F
100
AcDbEntity
  8
SK3
  6
SLD-Dashed
370
    18
100
AcDbLine
 10
18.704611155
 20
25.5789825872
 30
0.0
 11
18.704611155
 21
29.8048552742
 31
0.0
  0
LINE
  5
154
330
1F
100
AcDbEntity
  8
SK3
  6
SLD-Dashed
370
    18
100
AcDbLine
 10
4.067532294
 20
8.9078631218
 30
0.0
 11
4.0305729264
 21
8.5035693866
 31
0.0
  0
LINE
  5
155
330
1F
100
AcDbEntity
  8
SK3
  6
SLD-Dashed
370
    18
100
AcDbLine
 10
4.0305729264
 20
8.5035693866
 30
0.0
 11
4.0453757198
 21
8.1246789135
 31
0.0
  0
LINE
  5
156
330
1F
100
AcDbEntity
  8
SK3
  6
SLD-Dashed
370
    18
100
AcDbLine
 10
4.0453757198
 20
8.1246789135
 30
0.0
 11
4.1110105603
 21
7.7949987847
 31
0.0
  0
LINE
  5
157
330
1F
100
AcDbEntity
  8
SK3
  6
SLD-Dashed
370
    18
100
AcDbLine
 10
4.1110105603
 20
7.7949987847
 30
0.0
 11
4.2233533695
 21
7.535244015
 31
0.0
  0
LINE
  5
158
330
1F
100
AcDbEntity
  8
SK3
  6
SLD-Dashed
370
    18
100
AcDbLine
 10
4.2233533695
 20
7.535244015
 30
0.0
 11
4.3753452356
 21
7.3617359519
 31
0.0
  0
LINE
  5
159
330
1F
100
AcDbEntity
  8
SK3
  6
SLD-Dashed
370
    18
100
AcDbLine
 10
4.3753452356
 20
7.3617359519
 30
0.0
 11
4.5574359504
 21
7.2853767451
 31
0.0
  0
LINE
  5
15A
330
1F
100
AcDbEntity
  8
SK3
  6
SLD-Dashed
370
    18
100
AcDbLine
 10
4.5574359504
 20
7.2853767451
 30
0.0
 11
4.7581840849
 21
7.3109643245
 31
0.0
  0
LINE
  5
15B
330
1F
100
AcDbEntity
  8
SK3
  6
SLD-Dashed
370
    18
100
AcDbLine
 10
4.7581840849
 20
7.3109643245
 30
0.0
 11
4.9649758954
 21
7.4368909283
 31
0.0
  0
LINE
  5
15C
330
1F
100
AcDbEntity
  8
SK3
  6
SLD-Dashed
370
    18
100
AcDbLine
 10
4.9649758954
 20
7.4368909283
 30
0.0
 11
5.1648178918
 21
7.6552441249
 31
0.0
  0
LINE
  5
15D
330
1F
100
AcDbEntity
  8
SK3
  6
SLD-Dashed
370
    18
100
AcDbLine
 10
5.1648178918
 20
7.6552441249
 30
0.0
 11
5.3451532667
 21
7.9523039799
 31
0.0
  0
LINE
  5
15E
330
1F
100
AcDbEntity
  8
SK3
  6
SLD-Dashed
370
    18
100
AcDbLine
 10
5.3451532667
 20
7.9523039799
 30
0.0
 11
5.4946508852
 21
8.30940513
 31
0.0
  0
LINE
  5
15F
330
1F
100
AcDbEntity
  8
SK3
  6
SLD-Dashed
370
    18
100
AcDbLine
 10
5.4946508852
 20
8.30940513
 30
0.0
 11
5.6039172621
 21
8.7041095968
 31
0.0
  0
LINE
  5
160
330
1F
100
AcDbEntity
  8
SK3
  6
SLD-Dashed
370
    18
100
AcDbLine
 10
5.6039172621
 20
8.7041095968
 30
0.0
 11
5.666086789
 21
9.1116166469
 31
0.0
  0
LINE
  5
161
330
1F
100
AcDbEntity
  8
SK3
  6
SLD-Dashed
370
    18
100
AcDbLine
 10
5.666086789
 20
9.1116166469
 30
0.0
 11
5.677253126
 21
9.5063211136
 31
0.0
  0
LINE
  5
162
330
1F
100
AcDbEntity
  8
SK3
  6
SLD-Dashed
370
    18
100
AcDbLine
 10
5.677253126
 20
9.5063211136
 30
0.0
 11
5.636714651
 21
9.8634222638
 31
0.0
  0
LINE
  5
163
330
1F
100
AcDbEntity
  8
SK3
  6
SLD-Dashed
370
    18
100
AcDbLine
 10
5.636714651
 20
9.8634222638
 30
0.0
 11
5.5470185456
 21
10.1604821188
 31
0.0
  0
LINE
  5
164
330
1F
100
AcDbEntity
  8
SK3
  6
SLD-Dashed
370
    18
100
AcDbLine
 10
5.5470185456
 20
10.1604821188
 30
0.0
 11
5.4138007459
 21
10.3788353153
 31
0.0
  0
LINE
  5
165
330
1F
100
AcDbEntity
  8
SK3
  6
SLD-Dashed
370
    18
100
AcDbLine
 10
5.4138007459
 20
10.3788353153
 30
0.0
 11
5.2454318161
 21
10.5047619191
 31
0.0
  0
LINE
  5
166
330
1F
100
AcDbEntity
  8
SK3
  6
SLD-Dashed
370
    18
100
AcDbLine
 10
5.2454318161
 20
10.5047619191
 30
0.0
 11
5.0524909954
 21
10.5303494985
 31
0.0
  0
LINE
  5
167
330
1F
100
AcDbEntity
  8
SK3
  6
SLD-Dashed
370
    18
100
AcDbLine
 10
5.0524909954
 20
10.5303494985
 30
0.0
 11
4.8471014652
 21
10.4539902918
 31
0.0
  0
LINE
  5
168
330
1F
100
AcDbEntity
  8
SK3
  6
SLD-Dashed
370
    18
100
AcDbLine
 10
4.8471014652
 20
10.4539902918
 30
0.0
 11
4.6421686049
 21
10.2804822287
 31
0.0
  0
LINE
  5
169
330
1F
100
AcDbEntity
  8
SK3
  6
SLD-Dashed
370
    18
100
AcDbLine
 10
4.6421686049
 20
10.2804822287
 30
0.0
 11
4.4505690999
 21
10.020727459
 31
0.0
  0
LINE
  5
16A
330
1F
100
AcDbEntity
  8
SK3
  6
SLD-Dashed
370
    18
100
AcDbLine
 10
4.4505690999
 20
10.020727459
 30
0.0
 11
4.2843418517
 21
9.6910473301
 31
0.0
  0
LINE
  5
16B
330
1F
100
AcDbEntity
  8
SK3
  6
SLD-Dashed
370
    18
100
AcDbLine
 10
4.2843418517
 20
9.6910473301
 30
0.0
 11
4.1539315297
 21
9.3121568571
 31
0.0
  0
LINE
  5
16C
330
1F
100
AcDbEntity
  8
SK3
  6
SLD-Dashed
370
    18
100
AcDbLine
 10
4.1539315297
 20
9.3121568571
 30
0.0
 11
4.067532294
 21
8.9078631218
 31
0.0
  0
LINE
  5
16D
330
1F
100
AcDbEntity
  8
SK3
  6
SLD-Dashed
370
    18
100
AcDbLine
 10
19.0604813117
 20
6.6523245878
 30
0.0
 11
18.8270348288
 21
6.4791017412
 31
0.0
  0
LINE
  5
16E
330
1F
100
AcDbEntity
  8
SK3
  6
SLD-Dashed
370
    18
100
AcDbLine
 10
18.8270348288
 20
6.4791017412
 30
0.0
 11
18.5642032402
 21
6.3986554441
 31
0.0
  0
LINE
  5
16F
330
1F
100
AcDbEntity
  8
SK3
  6
SLD-Dashed
370
    18
100
AcDbLine
 10
18.5642032402
 20
6.3986554441
 30
0.0
 11
18.2816955509
 21
6.4139573845
 31
0.0
  0
LINE
  5
170
330
1F
100
AcDbEntity
  8
SK3
  6
SLD-Dashed
370
    18
100
AcDbLine
 10
18.2816955509
 20
6.4139573845
 30
0.0
 11
17.9899476014
 21
6.5244423085
 31
0.0
  0
LINE
  5
171
330
1F
100
AcDbEntity
  8
SK3
  6
SLD-Dashed
370
    18
100
AcDbLine
 10
17.9899476014
 20
6.5244423085
 30
0.0
 11
17.6997365676
 21
6.7260289004
 31
0.0
  0
LINE
  5
172
330
1F
100
AcDbEntity
  8
SK3
  6
SLD-Dashed
370
    18
100
AcDbLine
 10
17.6997365676
 20
6.7260289004
 30
0.0
 11
17.4217828517
 21
7.0112705468
 31
0.0
  0
LINE
  5
173
330
1F
100
AcDbEntity
  8
SK3
  6
SLD-Dashed
370
    18
100
AcDbLine
 10
17.4217828517
 20
7.0112705468
 30
0.0
 11
17.1663540705
 21
7.3696304149
 31
0.0
  0
LINE
  5
174
330
1F
100
AcDbEntity
  8
SK3
  6
SLD-Dashed
370
    18
100
AcDbLine
 10
17.1663540705
 20
7.3696304149
 30
0.0
 11
16.9428857689
 21
7.7878706829
 31
0.0
  0
LINE
  5
175
330
1F
100
AcDbEntity
  8
SK3
  6
SLD-Dashed
370
    18
100
AcDbLine
 10
16.9428857689
 20
7.7878706829
 30
0.0
 11
16.7596328711
 21
8.2505415457
 31
0.0
  0
LINE
  5
176
330
1F
100
AcDbEntity
  8
SK3
  6
SLD-Dashed
370
    18
100
AcDbLine
 10
16.7596328711
 20
8.2505415457
 30
0.0
 11
16.6233647434
 21
8.740551931
 31
0.0
  0
LINE
  5
177
330
1F
100
AcDbEntity
  8
SK3
  6
SLD-Dashed
370
    18
100
AcDbLine
 10
16.6233647434
 20
8.740551931
 30
0.0
 11
16.5391151335
 21
9.239800844
 31
0.0
  0
LINE
  5
178
330
1F
100
AcDbEntity
  8
SK3
  6
SLD-Dashed
370
    18
100
AcDbLine
 10
16.5391151335
 20
9.239800844
 30
0.0
 11
16.5099962239
 21
9.7298460183
 31
0.0
  0
LINE
  5
179
330
1F
100
AcDbEntity
  8
SK3
  6
SLD-Dashed
370
    18
100
AcDbLine
 10
16.5099962239
 20
9.7298460183
 30
0.0
 11
16.5370836679
 21
10.1925851741
 31
0.0
  0
LINE
  5
17A
330
1F
100
AcDbEntity
  8
SK3
  6
SLD-Dashed
370
    18
100
AcDbLine
 10
16.5370836679
 20
10.1925851741
 30
0.0
 11
16.6193768545
 21
10.6109247163
 31
0.0
  0
LINE
  5
17B
330
1F
100
AcDbEntity
  8
SK3
  6
SLD-Dashed
370
    18
100
AcDbLine
 10
16.6193768545
 20
10.6109247163
 30
0.0
 11
16.7538358717
 21
10.9694111726
 31
0.0
  0
LINE
  5
17C
330
1F
100
AcDbEntity
  8
SK3
  6
SLD-Dashed
370
    18
100
AcDbLine
 10
16.7538358717
 20
10.9694111726
 30
0.0
 11
16.9354938002
 21
11.2548020452
 31
0.0
  0
LINE
  5
17D
330
1F
100
AcDbEntity
  8
SK3
  6
SLD-Dashed
370
    18
100
AcDbLine
 10
16.9354938002
 20
11.2548020452
 30
0.0
 11
17.1576401921
 21
11.4565549886
 31
0.0
  0
LINE
  5
17E
330
1F
100
AcDbEntity
  8
SK3
  6
SLD-Dashed
370
    18
100
AcDbLine
 10
17.1576401921
 20
11.4565549886
 30
0.0
 11
17.4120689544
 21
11.5672172445
 31
0.0
  0
LINE
  5
17F
330
1F
100
AcDbEntity
  8
SK3
  6
SLD-Dashed
370
    18
100
AcDbLine
 10
17.4120689544
 20
11.5672172445
 30
0.0
 11
17.6893814829
 21
11.5827009466
 31
0.0
  0
LINE
  5
180
330
1F
100
AcDbEntity
  8
SK3
  6
SLD-Dashed
370
    18
100
AcDbLine
 10
17.6893814829
 20
11.5827009466
 30
0.0
 11
17.9793338465
 21
11.5024341267
 31
0.0
  0
LINE
  5
181
330
1F
100
AcDbEntity
  8
SK3
  6
SLD-Dashed
370
    18
100
AcDbLine
 10
17.9793338465
 20
11.5024341267
 30
0.0
 11
18.2712151981
 21
11.3293818428
 31
0.0
  0
LINE
  5
182
330
1F
100
AcDbEntity
  8
SK3
  6
SLD-Dashed
370
    18
100
AcDbLine
 10
18.2712151981
 20
11.3293818428
 30
0.0
 11
18.554243434
 21
11.0699366503
 31
0.0
  0
LINE
  5
183
330
1F
100
AcDbEntity
  8
SK3
  6
SLD-Dashed
370
    18
100
AcDbLine
 10
18.554243434
 20
11.0699366503
 30
0.0
 11
18.8179634847
 21
10.7336824607
 31
0.0
  0
LINE
  5
184
330
1F
100
AcDbEntity
  8
SK3
  6
SLD-Dashed
370
    18
100
AcDbLine
 10
18.8182000163
 20
10.7487148345
 30
0.0
 11
19.0604813117
 21
10.3330488775
 31
0.0
  0
LINE
  5
185
330
1F
100
AcDbEntity
  8
SK3
  6
SLD-Dashed
370
    18
100
AcDbLine
 10
19.0604813117
 20
6.5147288555
 30
0.0
 11
19.0604813117
 21
10.3330488775
 31
0.0
  0
LINE
  5
186
330
1F
100
AcDbEntity
  8
SK3
  6
SLD-Dashed
370
    18
100
AcDbLine
 10
3.718501261
 20
8.943826748
 30
0.0
 11
3.8093092693
 21
9.382312829
 31
0.0
  0
LINE
  5
187
330
1F
100
AcDbEntity
  8
SK3
  6
SLD-Dashed
370
    18
100
AcDbLine
 10
3.8093092693
 20
9.382312829
 30
0.0
 11
3.9433883876
 21
9.798811387
 31
0.0
  0
LINE
  5
188
330
1F
100
AcDbEntity
  8
SK3
  6
SLD-Dashed
370
    18
100
AcDbLine
 10
3.9433883876
 20
9.798811387
 30
0.0
 11
4.1140153288
 21
10.1724374451
 31
0.0
  0
LINE
  5
189
330
1F
100
AcDbEntity
  8
SK3
  6
SLD-Dashed
370
    18
100
AcDbLine
 10
4.1140153288
 20
10.1724374451
 30
0.0
 11
4.3126341459
 21
10.4844558326
 31
0.0
  0
LINE
  5
18A
330
1F
100
AcDbEntity
  8
SK3
  6
SLD-Dashed
370
    18
100
AcDbLine
 10
4.3126341459
 20
10.4844558326
 30
0.0
 11
4.5292852618
 21
10.7192206447
 31
0.0
  0
LINE
  5
18B
330
1F
100
AcDbEntity
  8
SK3
  6
SLD-Dashed
370
    18
100
AcDbLine
 10
4.5292852618
 20
10.7192206447
 30
0.0
 11
4.7531048849
 21
10.8649597934
 31
0.0
  0
LINE
  5
18C
330
1F
100
AcDbEntity
  8
SK3
  6
SLD-Dashed
370
    18
100
AcDbLine
 10
4.7531048849
 20
10.8649597934
 30
0.0
 11
4.9728697649
 21
10.9143653093
 31
0.0
  0
LINE
  5
18D
330
1F
100
AcDbEntity
  8
SK3
  6
SLD-Dashed
370
    18
100
AcDbLine
 10
4.9728697649
 20
10.9143653093
 30
0.0
 11
5.1775599729
 21
10.8649597934
 31
0.0
  0
LINE
  5
18E
330
1F
100
AcDbEntity
  8
SK3
  6
SLD-Dashed
370
    18
100
AcDbLine
 10
5.1775599729
 20
10.8649597934
 30
0.0
 11
5.3569114873
 21
10.7192206447
 31
0.0
  0
LINE
  5
18F
330
1F
100
AcDbEntity
  8
SK3
  6
SLD-Dashed
370
    18
100
AcDbLine
 10
5.3569114873
 20
10.7192206447
 30
0.0
 11
5.5019308741
 21
10.4844558326
 31
0.0
  0
LINE
  5
190
330
1F
100
AcDbEntity
  8
SK3
  6
SLD-Dashed
370
    18
100
AcDbLine
 10
5.5019308741
 20
10.4844558326
 30
0.0
 11
5.6053462557
 21
10.1724374451
 31
0.0
  0
LINE
  5
191
330
1F
100
AcDbEntity
  8
SK3
  6
SLD-Dashed
370
    18
100
AcDbLine
 10
5.6053462557
 20
10.1724374451
 30
0.0
 11
5.6619719532
 21
9.798811387
 31
0.0
  0
LINE
  5
192
330
1F
100
AcDbEntity
  8
SK3
  6
SLD-Dashed
370
    18
100
AcDbLine
 10
5.6619719532
 20
9.798811387
 30
0.0
 11
5.6689685176
 21
9.382312829
 31
0.0
  0
LINE
  5
193
330
1F
100
AcDbEntity
  8
SK3
  6
SLD-Dashed
370
    18
100
AcDbLine
 10
5.6689685176
 20
9.382312829
 30
0.0
 11
5.6259851119
 21
8.943826748
 31
0.0
  0
LINE
  5
194
330
1F
100
AcDbEntity
  8
SK3
  6
SLD-Dashed
370
    18
100
AcDbLine
 10
5.6259851119
 20
8.943826748
 30
0.0
 11
5.5351771035
 21
8.5053406669
 31
0.0
  0
LINE
  5
195
330
1F
100
AcDbEntity
  8
SK3
  6
SLD-Dashed
370
    18
100
AcDbLine
 10
5.5351771035
 20
8.5053406669
 30
0.0
 11
5.4010979853
 21
8.0888421089
 31
0.0
  0
LINE
  5
196
330
1F
100
AcDbEntity
  8
SK3
  6
SLD-Dashed
370
    18
100
AcDbLine
 10
5.4010979853
 20
8.0888421089
 30
0.0
 11
5.230471044
 21
7.7152160508
 31
0.0
  0
LINE
  5
197
330
1F
100
AcDbEntity
  8
SK3
  6
SLD-Dashed
370
    18
100
AcDbLine
 10
5.230471044
 20
7.7152160508
 30
0.0
 11
5.031852227
 21
7.4031976633
 31
0.0
  0
LINE
  5
198
330
1F
100
AcDbEntity
  8
SK3
  6
SLD-Dashed
370
    18
100
AcDbLine
 10
5.031852227
 20
7.4031976633
 30
0.0
 11
4.8152011111
 21
7.1684328512
 31
0.0
  0
LINE
  5
199
330
1F
100
AcDbEntity
  8
SK3
  6
SLD-Dashed
370
    18
100
AcDbLine
 10
4.8152011111
 20
7.1684328512
 30
0.0
 11
4.5913814879
 21
7.0226937025
 31
0.0
  0
LINE
  5
19A
330
1F
100
AcDbEntity
  8
SK3
  6
SLD-Dashed
370
    18
100
AcDbLine
 10
4.5913814879
 20
7.0226937025
 30
0.0
 11
4.371616608
 21
6.9732881867
 31
0.0
  0
LINE
  5
19B
330
1F
100
AcDbEntity
  8
SK3
  6
SLD-Dashed
370
    18
100
AcDbLine
 10
4.371616608
 20
6.9732881867
 30
0.0
 11
4.1669263999
 21
7.0226937025
 31
0.0
  0
LINE
  5
19C
330
1F
100
AcDbEntity
  8
SK3
  6
SLD-Dashed
370
    18
100
AcDbLine
 10
4.1669263999
 20
7.0226937025
 30
0.0
 11
3.9875748856
 21
7.1684328512
 31
0.0
  0
LINE
  5
19D
330
1F
100
AcDbEntity
  8
SK3
  6
SLD-Dashed
370
    18
100
AcDbLine
 10
3.9875748856
 20
7.1684328512
 30
0.0
 11
3.8425554988
 21
7.4031976633
 31
0.0
  0
LINE
  5
19E
330
1F
100
AcDbEntity
  8
SK3
  6
SLD-Dashed
370
    18
100
AcDbLine
 10
3.8425554988
 20
7.4031976633
 30
0.0
 11
3.7391401171
 21
7.7152160508
 31
0.0
  0
LINE
  5
19F
330
1F
100
AcDbEntity
  8
SK3
  6
SLD-Dashed
370
    18
100
AcDbLine
 10
3.7391401171
 20
7.7152160508
 30
0.0
 11
3.6825144197
 21
8.0888421089
 31
0.0
  0
LINE
  5
1A0
330
1F
100
AcDbEntity
  8
SK3
  6
SLD-Dashed
370
    18
100
AcDbLine
 10
3.6825144197
 20
8.0888421089
 30
0.0
 11
3.6755178553
 21
8.5053406669
 31
0.0
  0
LINE
  5
1A1
330
1F
100
AcDbEntity
  8
SK3
  6
SLD-Dashed
370
    18
100
AcDbLine
 10
3.6755178553
 20
8.5053406669
 30
0.0
 11
3.718501261
 21
8.943826748
 31
0.0
  0
LINE
  5
1A2
330
1F
100
AcDbEntity
  8
SK3
  6
SLD-Dashed
370
    18
100
AcDbLine
 10
19.05
 20
-6.5096104434
 30
0.0
 11
18.6432434604
 21
-6.4121983199
 31
0.0
  0
LINE
  5
1A3
330
1F
100
AcDbEntity
  8
SK3
  6
SLD-Dashed
370
    18
100
AcDbLine
 10
17.4088764289
 20
-11.5664526822
 30
0.0
 11
17.7375722606
 21
-11.6451704306
 31
0.0
  0
LINE
  5
1A4
330
1F
100
AcDbEntity
  8
SK3
  6
SLD-Dashed
370
    18
100
AcDbLine
 10
5.6686603003
 20
-9.6930495818
 30
0.0
 11
5.6764135015
 21
-9.5259719598
 31
0.0
  0
LINE
  5
1A5
330
1F
100
AcDbEntity
  8
SK3
  6
SLD-Dashed
370
    18
100
AcDbLine
 10
5.3797631594
 20
-8.0236818914
 30
0.0
 11
5.3090841282
 21
-7.8720919232
 31
0.0
  0
LINE
  5
1A6
330
1F
100
AcDbEntity
  8
SK3
  6
SLD-Dashed
370
    18
100
AcDbLine
 10
5.1740150157
 20
-10.5266054328
 30
0.0
 11
11.8540498232
 21
-9.2075295417
 31
0.0
  0
LINE
  5
1A7
330
1F
100
AcDbEntity
  8
SK3
  6
SLD-Dashed
370
    18
100
AcDbLine
 10
10.6984231028
 20
-6.0720033181
 30
0.0
 11
4.5347237493
 21
-7.2891208109
 31
0.0
  0
LINE
  5
1A8
330
1F
100
AcDbEntity
  8
SK3
  6
SLD-Dashed
370
    18
100
AcDbLine
 10
17.9181478161
 20
-7.2668254943
 30
0.0
 11
-8.9531127825
 21
-0.831559431
 31
0.0
  0
LINE
  5
1A9
330
1F
100
AcDbEntity
  8
SK3
  6
SLD-Dashed
370
    18
100
AcDbLine
 10
11.8524626917
 20
-9.2074977149
 30
0.0
 11
17.1495796644
 21
-10.4760782105
 31
0.0
  0
LINE
  5
1AA
330
1F
100
AcDbEntity
  8
SK3
  6
SLD-Dashed
370
    18
100
AcDbLine
 10
-11.2828205936
 20
-3.6669424869
 30
0.0
 11
10.6413630082
 21
-8.9174574072
 31
0.0
  0
LINE
  5
1AB
330
1F
100
AcDbEntity
  8
SK3
  6
SLD-Dashed
370
    18
100
AcDbLine
 10
-68.25
 20
-9.14
 30
0.0
 11
-66.6824940192
 21
-8.235
 31
0.0
  0
LINE
  5
1AC
330
1F
100
AcDbEntity
  8
SK3
  6
SLD-Dashed
370
    18
100
AcDbLine
 10
-66.6824940192
 20
8.235
 30
0.0
 11
-68.25
 21
9.14
 31
0.0
  0
LINE
  5
1AD
330
1F
100
AcDbEntity
  8
SK3
  6
SLD-Dashed
370
    18
100
AcDbLine
 10
-66.6824940192
 20
-8.235
 30
0.0
 11
-63.48
 21
-8.235
 31
0.0
  0
LINE
  5
1AE
330
1F
100
AcDbEntity
  8
SK3
  6
SLD-Dashed
370
    18
100
AcDbLine
 10
-63.48
 20
8.235
 30
0.0
 11
-66.6824940192
 21
8.235
 31
0.0
  0
LINE
  5
1AF
330
1F
100
AcDbEntity
  8
SK3
  6
SLD-Dashed
370
    18
100
AcDbLine
 10
-63.48
 20
-8.235
 30
0.0
 11
-62.6204640132
 21
-6.74624
 31
0.0
  0
LINE
  5
1B0
330
1F
100
AcDbEntity
  8
SK3
  6
SLD-Dashed
370
    18
100
AcDbLine
 10
-62.6204640132
 20
6.74624
 30
0.0
 11
-63.48
 21
8.235
 31
0.0
  0
LINE
  5
1B1
330
1F
100
AcDbEntity
  8
SK3
  6
SLD-Dashed
370
    18
100
AcDbLine
 10
44.45
 20
6.9273502692
 30
0.0
 11
43.45
 21
6.35
 31
0.0
  0
LINE
  5
1B2
330
1F
100
AcDbEntity
  8
SK3
  6
SLD-Dashed
370
    18
100
AcDbLine
 10
43.45
 20
-6.35
 30
0.0
 11
44.45
 21
-6.9273502692
 31
0.0
  0
LINE
  5
1B3
330
1F
100
AcDbEntity
  8
SK3
  6
SLD-Dashed
370
    18
100
AcDbLine
 10
-62.6204640132
 20
-6.74624
 30
0.0
 11
-0.59
 21
-6.74624
 31
0.0
  0
LINE
  5
1B4
330
1F
100
AcDbEntity
  8
SK3
  6
SLD-Dashed
370
    18
100
AcDbLine
 10
-0.59
 20
6.74624
 30
0.0
 11
-62.6204640132
 21
6.74624
 31
0.0
  0
LINE
  5
1B5
330
1F
100
AcDbEntity
  8
SK3
  6
SLD-Dashed
370
    18
100
AcDbLine
 10
-0.59
 20
-6.74624
 30
0.0
 11
-0.3519149883
 21
-6.35
 31
0.0
  0
LINE
  5
1B6
330
1F
100
AcDbEntity
  8
SK3
  6
SLD-Dashed
370
    18
100
AcDbLine
 10
-0.3519149883
 20
6.35
 30
0.0
 11
-0.59
 21
6.74624
 31
0.0
  0
LINE
  5
1B7
330
1F
100
AcDbEntity
  8
SK3
  6
SLD-Dashed
370
    18
100
AcDbLine
 10
43.45
 20
6.35
 30
0.0
 11
-0.3519149883
 21
6.35
 31
0.0
  0
LINE
  5
1B8
330
1F
100
AcDbEntity
  8
SK3
  6
SLD-Dashed
370
    18
100
AcDbLine
 10
27.0891
 20
-6.35
 30
0.0
 11
43.45
 21
-6.35
 31
0.0
  0
LINE
  5
1B9
330
1F
100
AcDbEntity
  8
SK3
  6
SLD-Dashed
370
    18
100
AcDbLine
 10
-0.3519149883
 20
-6.35
 30
0.0
 11
17.3641419987
 21
-6.35
 31
0.0
  0
LINE
  5
1BA
330
1F
100
AcDbEntity
  8
SK3
  6
SLD-Dashed
370
    18
100
AcDbLine
 10
28.175
 20
-22.2219073219
 30
0.0
 11
28.175
 21
-20.725
 31
0.0
  0
LINE
  5
1BB
330
1F
100
AcDbEntity
  8
SK3
  6
SLD-Dashed
370
    18
100
AcDbLine
 10
16.275
 20
-20.725
 30
0.0
 11
16.275
 21
-22.41
 31
0.0
  0
LINE
  5
1BC
330
1F
100
AcDbEntity
  8
SK3
  6
SLD-Dashed
370
    18
100
AcDbLine
 10
6.1
 20
24.83
 30
0.0
 11
6.1
 21
20.43
 31
0.0
  0
LINE
  5
1BD
330
1F
100
AcDbEntity
  8
SK3
  6
SLD-Dashed
370
    18
100
AcDbLine
 10
16.1
 20
20.43
 30
0.0
 11
16.1
 21
24.83
 31
0.0
  0
LINE
  5
1BE
330
1F
100
AcDbEntity
  8
SK3
  6
SLD-Dashed
370
    18
100
AcDbLine
 10
27.0891
 20
-20.725
 30
0.0
 11
27.0891
 21
-6.35
 31
0.0
  0
LINE
  5
1BF
330
1F
100
AcDbEntity
  8
SK3
  6
SLD-Dashed
370
    18
100
AcDbLine
 10
17.3609
 20
-6.3475174188
 30
0.0
 11
17.3609
 21
-20.725
 31
0.0
  0
LINE
  5
1C0
330
1F
100
AcDbEntity
  8
SK3
  6
SLD-Dashed
370
    18
100
AcDbLine
 10
10.6413630082
 20
8.9174574072
 30
0.0
 11
-11.2796255482
 21
3.6677076526
 31
0.0
  0
LINE
  5
1C1
330
1F
100
AcDbEntity
  8
SK3
  6
SLD-Dashed
370
    18
100
AcDbLine
 10
17.1495796644
 20
10.4760782105
 30
0.0
 11
11.8524626917
 21
9.2074977149
 31
0.0
  0
LINE
  5
1C2
330
1F
100
AcDbEntity
  8
SK3
  6
SLD-Dashed
370
    18
100
AcDbLine
 10
-8.9535458628
 20
0.8314557147
 30
0.0
 11
17.9181478161
 21
7.2668254943
 31
0.0
  0
LINE
  5
1C3
330
1F
100
AcDbEntity
  8
SK3
  6
SLD-Dashed
370
    18
100
AcDbLine
 10
4.5347237493
 20
7.2891208109
 30
0.0
 11
10.6984231028
 21
6.0720033181
 31
0.0
  0
LINE
  5
1C4
330
1F
100
AcDbEntity
  8
SK3
  6
SLD-Dashed
370
    18
100
AcDbLine
 10
11.8540498232
 20
9.2075295417
 30
0.0
 11
5.1740150157
 21
10.5266054328
 31
0.0
  0
LINE
  5
1C5
330
1F
100
AcDbEntity
  8
SK3
  6
SLD-Dashed
370
    18
100
AcDbLine
 10
18.6432434604
 20
6.4121983199
 30
0.0
 11
19.05
 21
6.5096104434
 31
0.0
  0
LINE
  5
1C6
330
1F
100
AcDbEntity
  8
SK3
  6
SLD-Dashed
370
    18
100
AcDbLine
 10
3.2
 20
7.1959241477
 30
0.0
 11
4.284793934
 21
6.9817148559
 31
0.0
  0
LINE
  5
1C7
330
1F
100
AcDbEntity
  8
SK3
  6
SLD-Dashed
370
    18
100
AcDbLine
 10
5.3090841282
 20
7.8720919232
 30
0.0
 11
5.3797631594
 21
8.0236818914
 31
0.0
  0
LINE
  5
1C8
330
1F
100
AcDbEntity
  8
SK3
  6
SLD-Dashed
370
    18
100
AcDbLine
 10
5.6764135015
 20
9.5259719598
 30
0.0
 11
5.6686603003
 21
9.6930495818
 31
0.0
  0
LINE
  5
1C9
330
1F
100
AcDbEntity
  8
SK3
370
    18
100
AcDbLine
 10
17.4120689544
 20
11.5672172445
 30
0.0
 11
17.4088764216
 21
11.5664526805
 31
0.0
  0
LINE
  5
1CA
330
1F
100
AcDbEntity
  8
SK3
  6
SLD-Solid
370
    18
100
AcDbLine
 10
-38.2499992847
 20
7.9375002533
 30
0.0
 11
-63.3082389832
 21
7.9375002533
 31
0.0
  0
LINE
  5
1CB
330
1F
100
AcDbEntity
  8
SK3
  6
SLD-Solid
370
    18
100
AcDbLine
 10
-63.3082389832
 20
-7.9375002533
 30
0.0
 11
-38.2499992847
 21
-7.9375002533
 31
0.0
  0
LINE
  5
1CC
330
1F
100
AcDbEntity
  8
SK3
  6
SLD-Solid
370
    18
100
AcDbLine
 10
-38.2499992847
 20
0.0
 30
0.0
 11
-38.2499992847
 21
-1.0808227817
 31
0.0
  0
LINE
  5
1CD
330
1F
100
AcDbEntity
  8
SK3
  6
SLD-Solid
370
    18
100
AcDbLine
 10
-38.2499992847
 20
0.0
 30
0.0
 11
-38.2499992847
 21
-1.0808227817
 31
0.0
  0
LINE
  5
1CE
330
1F
100
AcDbEntity
  8
SK3
  6
SLD-Solid
370
    18
100
AcDbLine
 10
-38.2500374951
 20
-1.0808227817
 30
0.0
 11
-38.2499992847
 21
-2.1415117662
 31
0.0
  0
LINE
  5
1CF
330
1F
100
AcDbEntity
  8
SK3
  6
SLD-Solid
370
    18
100
AcDbLine
 10
-38.2499992847
 20
-2.1415117662
 30
0.0
 11
-38.2499992847
 21
-3.1623085961
 31
0.0
  0
LINE
  5
1D0
330
1F
100
AcDbEntity
  8
SK3
  6
SLD-Solid
370
    18
100
AcDbLine
 10
-38.2499992847
 20
-3.1623085961
 30
0.0
 11
-38.2499992847
 21
-4.1241976433
 31
0.0
  0
LINE
  5
1D1
330
1F
100
AcDbEntity
  8
SK3
  6
SLD-Solid
370
    18
100
AcDbLine
 10
-38.2499992847
 20
-4.1241976433
 30
0.0
 11
-38.2499992847
 21
-5.0092604943
 31
0.0
  0
LINE
  5
1D2
330
1F
100
AcDbEntity
  8
SK3
  6
SLD-Solid
370
    18
100
AcDbLine
 10
-38.2499992847
 20
-5.0092604943
 30
0.0
 11
-38.2499992847
 21
-5.8010104112
 31
0.0
  0
LINE
  5
1D3
330
1F
100
AcDbEntity
  8
SK3
  6
SLD-Solid
370
    18
100
AcDbLine
 10
-38.2499992847
 20
-5.8010104112
 30
0.0
 11
-38.2499992847
 21
-6.4846985042
 31
0.0
  0
LINE
  5
1D4
330
1F
100
AcDbEntity
  8
SK3
  6
SLD-Solid
370
    18
100
AcDbLine
 10
-38.2499992847
 20
-6.4846985042
 30
0.0
 11
-38.2499992847
 21
-7.047588937
 31
0.0
  0
LINE
  5
1D5
330
1F
100
AcDbEntity
  8
SK3
  6
SLD-Solid
370
    18
100
AcDbLine
 10
-38.2499992847
 20
-7.047588937
 30
0.0
 11
-38.2499992847
 21
-7.4791959487
 31
0.0
  0
LINE
  5
1D6
330
1F
100
AcDbEntity
  8
SK3
  6
SLD-Solid
370
    18
100
AcDbLine
 10
-38.2499992847
 20
-7.4791959487
 30
0.0
 11
-38.2499992847
 21
-7.7714798972
 31
0.0
  0
LINE
  5
1D7
330
1F
100
AcDbEntity
  8
SK3
  6
SLD-Solid
370
    18
100
AcDbLine
 10
-38.2499992847
 20
-7.7714798972
 30
0.0
 11
-38.2499992847
 21
-7.9189958051
 31
0.0
  0
LINE
  5
1D8
330
1F
100
AcDbEntity
  8
SK3
  6
SLD-Solid
370
    18
100
AcDbLine
 10
-38.2499992847
 20
-7.9189958051
 30
0.0
 11
-38.2499992847
 21
-7.9375002533
 31
0.0
  0
LINE
  5
1D9
330
1F
100
AcDbEntity
  8
SK3
  6
SLD-Solid
370
    18
100
AcDbLine
 10
-38.2500374951
 20
7.9375002533
 30
0.0
 11
-38.2499992847
 21
7.9189958051
 31
0.0
  0
LINE
  5
1DA
330
1F
100
AcDbEntity
  8
SK3
  6
SLD-Solid
370
    18
100
AcDbLine
 10
-38.2499992847
 20
7.9189958051
 30
0.0
 11
-38.2499992847
 21
7.7714798972
 31
0.0
  0
LINE
  5
1DB
330
1F
100
AcDbEntity
  8
SK3
  6
SLD-Solid
370
    18
100
AcDbLine
 10
-38.2499992847
 20
7.7714798972
 30
0.0
 11
-38.2499992847
 21
7.4791959487
 31
0.0
  0
LINE
  5
1DC
330
1F
100
AcDbEntity
  8
SK3
  6
SLD-Solid
370
    18
100
AcDbLine
 10
-38.2499992847
 20
7.4791959487
 30
0.0
 11
-38.2499992847
 21
7.047588937
 31
0.0
  0
LINE
  5
1DD
330
1F
100
AcDbEntity
  8
SK3
  6
SLD-Solid
370
    18
100
AcDbLine
 10
-38.2499992847
 20
7.047588937
 30
0.0
 11
-38.2499992847
 21
6.4846985042
 31
0.0
  0
LINE
  5
1DE
330
1F
100
AcDbEntity
  8
SK3
  6
SLD-Solid
370
    18
100
AcDbLine
 10
-38.2499992847
 20
6.4846985042
 30
0.0
 11
-38.2499992847
 21
5.8010104112
 31
0.0
  0
LINE
  5
1DF
330
1F
100
AcDbEntity
  8
SK3
  6
SLD-Solid
370
    18
100
AcDbLine
 10
-38.2499992847
 20
5.8010104112
 30
0.0
 11
-38.2499992847
 21
5.0092604943
 31
0.0
  0
LINE
  5
1E0
330
1F
100
AcDbEntity
  8
SK3
  6
SLD-Solid
370
    18
100
AcDbLine
 10
-38.2499992847
 20
5.0092604943
 30
0.0
 11
-38.2499992847
 21
4.1241976433
 31
0.0
  0
LINE
  5
1E1
330
1F
100
AcDbEntity
  8
SK3
  6
SLD-Solid
370
    18
100
AcDbLine
 10
-38.2499992847
 20
4.1241976433
 30
0.0
 11
-38.2499992847
 21
3.1623085961
 31
0.0
  0
LINE
  5
1E2
330
1F
100
AcDbEntity
  8
SK3
  6
SLD-Solid
370
    18
100
AcDbLine
 10
-38.2499992847
 20
3.1623085961
 30
0.0
 11
-38.2499992847
 21
2.1415117662
 31
0.0
  0
LINE
  5
1E3
330
1F
100
AcDbEntity
  8
SK3
  6
SLD-Solid
370
    18
100
AcDbLine
 10
-38.2499992847
 20
2.1415117662
 30
0.0
 11
-38.2499992847
 21
1.0808227817
 31
0.0
  0
LINE
  5
1E4
330
1F
100
AcDbEntity
  8
SK3
  6
SLD-Solid
370
    18
100
AcDbLine
 10
-38.2499992847
 20
1.0808227817
 30
0.0
 11
-38.2499992847
 21
0.0
 31
0.0
  0
LINE
  5
1E5
330
1F
100
AcDbEntity
  8
SK3
  6
SLD-Solid
370
    18
100
AcDbLine
 10
-38.2500374951
 20
-1.0808227817
 30
0.0
 11
-38.2499992847
 21
-2.1415117662
 31
0.0
  0
LINE
  5
1E6
330
1F
100
AcDbEntity
  8
SK3
  6
SLD-Solid
370
    18
100
AcDbLine
 10
-38.2499992847
 20
-2.1415117662
 30
0.0
 11
-38.2499992847
 21
-3.1623085961
 31
0.0
  0
LINE
  5
1E7
330
1F
100
AcDbEntity
  8
SK3
  6
SLD-Solid
370
    18
100
AcDbLine
 10
-38.2499992847
 20
-3.1623085961
 30
0.0
 11
-38.2499992847
 21
-4.1241976433
 31
0.0
  0
LINE
  5
1E8
330
1F
100
AcDbEntity
  8
SK3
  6
SLD-Solid
370
    18
100
AcDbLine
 10
-38.2499992847
 20
-4.1241976433
 30
0.0
 11
-38.2499992847
 21
-5.0092604943
 31
0.0
  0
LINE
  5
1E9
330
1F
100
AcDbEntity
  8
SK3
  6
SLD-Solid
370
    18
100
AcDbLine
 10
-38.2499992847
 20
-5.0092604943
 30
0.0
 11
-38.2499992847
 21
-5.8010104112
 31
0.0
  0
LINE
  5
1EA
330
1F
100
AcDbEntity
  8
SK3
  6
SLD-Solid
370
    18
100
AcDbLine
 10
-38.2499992847
 20
-5.8010104112
 30
0.0
 11
-38.2499992847
 21
-6.4846985042
 31
0.0
  0
LINE
  5
1EB
330
1F
100
AcDbEntity
  8
SK3
  6
SLD-Solid
370
    18
100
AcDbLine
 10
-38.2499992847
 20
-6.4846985042
 30
0.0
 11
-38.2499992847
 21
-7.047588937
 31
0.0
  0
LINE
  5
1EC
330
1F
100
AcDbEntity
  8
SK3
  6
SLD-Solid
370
    18
100
AcDbLine
 10
-38.2499992847
 20
-7.047588937
 30
0.0
 11
-38.2499992847
 21
-7.4791959487
 31
0.0
  0
LINE
  5
1ED
330
1F
100
AcDbEntity
  8
SK3
  6
SLD-Solid
370
    18
100
AcDbLine
 10
-38.2499992847
 20
-7.4791959487
 30
0.0
 11
-38.2499992847
 21
-7.7714798972
 31
0.0
  0
LINE
  5
1EE
330
1F
100
AcDbEntity
  8
SK3
  6
SLD-Solid
370
    18
100
AcDbLine
 10
-38.2499992847
 20
-7.7714798972
 30
0.0
 11
-38.2499992847
 21
-7.9189958051
 31
0.0
  0
LINE
  5
1EF
330
1F
100
AcDbEntity
  8
SK3
  6
SLD-Solid
370
    18
100
AcDbLine
 10
-38.2499992847
 20
-7.9189958051
 30
0.0
 11
-38.2499992847
 21
-7.9375002533
 31
0.0
  0
LINE
  5
1F0
330
1F
100
AcDbEntity
  8
SK3
  6
SLD-Solid
370
    18
100
AcDbLine
 10
-38.2500374951
 20
7.9375002533
 30
0.0
 11
-38.2499992847
 21
7.9189958051
 31
0.0
  0
LINE
  5
1F1
330
1F
100
AcDbEntity
  8
SK3
  6
SLD-Solid
370
    18
100
AcDbLine
 10
-38.2499992847
 20
7.9189958051
 30
0.0
 11
-38.2499992847
 21
7.7714798972
 31
0.0
  0
LINE
  5
1F2
330
1F
100
AcDbEntity
  8
SK3
  6
SLD-Solid
370
    18
100
AcDbLine
 10
-38.2499992847
 20
7.7714798972
 30
0.0
 11
-38.2499992847
 21
7.4791959487
 31
0.0
  0
LINE
  5
1F3
330
1F
100
AcDbEntity
  8
SK3
  6
SLD-Solid
370
    18
100
AcDbLine
 10
-38.2499992847
 20
7.4791959487
 30
0.0
 11
-38.2499992847
 21
7.047588937
 31
0.0
  0
LINE
  5
1F4
330
1F
100
AcDbEntity
  8
SK3
  6
SLD-Solid
370
    18
100
AcDbLine
 10
-38.2499992847
 20
7.047588937
 30
0.0
 11
-38.2499992847
 21
6.4846985042
 31
0.0
  0
LINE
  5
1F5
330
1F
100
AcDbEntity
  8
SK3
  6
SLD-Solid
370
    18
100
AcDbLine
 10
-38.2499992847
 20
6.4846985042
 30
0.0
 11
-38.2499992847
 21
5.8010104112
 31
0.0
  0
LINE
  5
1F6
330
1F
100
AcDbEntity
  8
SK3
  6
SLD-Solid
370
    18
100
AcDbLine
 10
-38.2499992847
 20
5.8010104112
 30
0.0
 11
-38.2499992847
 21
5.0092604943
 31
0.0
  0
LINE
  5
1F7
330
1F
100
AcDbEntity
  8
SK3
  6
SLD-Solid
370
    18
100
AcDbLine
 10
-38.2499992847
 20
5.0092604943
 30
0.0
 11
-38.2499992847
 21
4.1241976433
 31
0.0
  0
LINE
  5
1F8
330
1F
100
AcDbEntity
  8
SK3
  6
SLD-Solid
370
    18
100
AcDbLine
 10
-38.2499992847
 20
4.1241976433
 30
0.0
 11
-38.2499992847
 21
3.1623085961
 31
0.0
  0
LINE
  5
1F9
330
1F
100
AcDbEntity
  8
SK3
  6
SLD-Solid
370
    18
100
AcDbLine
 10
-38.2499992847
 20
3.1623085961
 30
0.0
 11
-38.2499992847
 21
2.1415117662
 31
0.0
  0
LINE
  5
1FA
330
1F
100
AcDbEntity
  8
SK3
  6
SLD-Solid
370
    18
100
AcDbLine
 10
-38.2499992847
 20
2.1415117662
 30
0.0
 11
-38.2499992847
 21
1.0808227817
 31
0.0
  0
LINE
  5
1FB
330
1F
100
AcDbEntity
  8
SK3
  6
SLD-Solid
370
    18
100
AcDbLine
 10
-38.2499992847
 20
1.0808227817
 30
0.0
 11
-38.2499992847
 21
0.0
 31
0.0
  0
LINE
  5
1FC
330
1F
100
AcDbEntity
  8
SK3
  6
SLD-Solid
370
    18
100
AcDbLine
 10
16.6687499732
 20
-6.3050435856
 30
0.0
 11
16.6687499732
 21
-20.7250006497
 31
0.0
  0
LINE
  5
1FD
330
1F
100
AcDbEntity
  8
SK3
  6
SLD-Solid
370
    18
100
AcDbLine
 10
27.7812499553
 20
-20.7250006497
 30
0.0
 11
27.7812499553
 21
-6.3050435856
 31
0.0
  0
LINE
  5
1FE
330
1F
100
AcDbEntity
  8
SK3
  6
SLD-Solid
370
    18
100
AcDbLine
 10
16.720186919
 20
-6.3050435856
 30
0.0
 11
16.7304482311
 21
-6.2960847281
 31
0.0
  0
LINE
  5
1FF
330
1F
100
AcDbEntity
  8
4
  6
SLD-Center
370
    18
100
AcDbLine
 10
46.45
 20
0.0
 30
0.0
 11
-0.1546036231
 21
0.0
 31
0.0
  0
LINE
  5
200
330
1F
100
AcDbEntity
  8
4
  6
SLD-Center
370
    18
100
AcDbLine
 10
22.225
 20
-24.4546002652
 30
0.0
 11
22.225
 21
-4.3499830375
 31
0.0
  0
LINE
  5
201
330
1F
100
AcDbEntity
  8
SK4
  6
SLD-Center
370
    18
100
AcDbLine
 10
46.0068003291
 20
0.0
 30
0.0
 11
-69.1376006954
 21
0.0
 31
0.0
  0
LINE
  5
202
330
1F
100
AcDbEntity
  8
81
370
    18
100
AcDbLine
 10
44.45
 20
0.0
 30
0.0
 11
47.9855339059
 21
3.5355339059
 31
0.0
  0
LINE
  5
203
330
1F
100
AcDbEntity
  8
81
370
    18
100
AcDbLine
 10
44.45
 20
0.0
 30
0.0
 11
40.9144660941
 21
-3.5355339059
 31
0.0
  0
LINE
  5
204
330
1F
100
AcDbEntity
  8
81
370
    18
100
AcDbLine
 10
44.45
 20
0.0
 30
0.0
 11
40.9144660941
 21
3.5355339059
 31
0.0
  0
LINE
  5
205
330
1F
100
AcDbEntity
  8
81
100
AcDbLine
 10
44.45
 20
0.0
 30
0.0
 11
54.45
 21
0.0
 31
0.0
  0
LINE
  5
206
330
1F
100
AcDbEntity
  8
81
370
    18
100
AcDbLine
 10
44.45
 20
0.0
 30
0.0
 11
47.9855339059
 21
-3.5355339059
 31
0.0
  0
LINE
  5
207
330
1F
100
AcDbEntity
  8
80
370
    18
100
AcDbLine
 10
0.0
 20
0.0
 30
0.0
 11
-3.5355339059
 21
-3.5355339059
 31
0.0
  0
LINE
  5
208
330
1F
100
AcDbEntity
  8
80
370
    18
100
AcDbLine
 10
0.0
 20
0.0
 30
0.0
 11
3.5355339059
 21
3.5355339059
 31
0.0
  0
LINE
  5
209
330
1F
100
AcDbEntity
  8
80
370
    18
100
AcDbLine
 10
0.0
 20
0.0
 30
0.0
 11
-3.5355339059
 21
3.5355339059
 31
0.0
  0
LINE
  5
20A
330
1F
100
AcDbEntity
  8
80
370
    18
100
AcDbLine
 10
0.0
 20
0.0
 30
0.0
 11
-10.0
 21
0.0
 31
0.0
  0
LINE
  5
20B
330
1F
100
AcDbEntity
  8
80
370
    18
100
AcDbLine
 10
0.0
 20
0.0
 30
0.0
 11
3.5355339059
 21
-3.5355339059
 31
0.0
  0
ARC
  5
20C
330
1F
100
AcDbEntity
  8
1
  6
SLD-Solid
370
    25
100
AcDbCircle
 10
21.05
 20
24.225
 30
0.0
 40
2.0
100
AcDbArc
 50
180.0
 51
222.7855259999
  0
ARC
  5
20D
330
1F
100
AcDbEntity
  8
1
  6
SLD-Solid
370
    25
100
AcDbCircle
 10
2.45
 20
22.79
 30
0.0
 40
0.7500000000000046
100
AcDbArc
 50
245.0
 51
0.0
  0
ARC
  5
20E
330
1F
100
AcDbEntity
  8
1
  6
SLD-Solid
370
    25
100
AcDbCircle
 10
2.45
 20
-22.79
 30
0.0
 40
0.7500000000000117
100
AcDbArc
 50
30.4400371691
 51
115.0
  0
ARC
  5
20F
330
1F
100
AcDbEntity
  8
SK1
  6
SLD-Solid
370
    25
100
AcDbCircle
 10
-66.95
 20
11.1476148288
 30
0.0
 40
1.299999999999993
100
AcDbArc
 50
98.2972222222
 51
180.0
  0
ARC
  5
210
330
1F
100
AcDbEntity
  8
SK1
  6
SLD-Solid
370
    25
100
AcDbCircle
 10
-66.95
 20
-11.1476148288
 30
0.0
 40
1.299999999999999
100
AcDbArc
 50
180.0
 51
261.7027777778
  0
CIRCLE
  5
211
330
1F
100
AcDbEntity
  8
81
370
    18
100
AcDbCircle
 10
44.45
 20
0.0
 30
0.0
 40
2.499999999999992
  0
CIRCLE
  5
212
330
1F
100
AcDbEntity
  8
80
370
    18
100
AcDbCircle
 10
0.0
 20
0.0
 30
0.0
 40
2.500000000000009
  0
SPLINE
  5
213
330
1F
100
AcDbEntity
  8
1
  6
SLD-Solid
370
    25
100
AcDbSpline
210
0.0
220
0.0
230
1.0
 70
     8
 71
     3
 72
    18
 73
    14
 74
     0
 42
0.000000001
 43
0.00000001
 40
0.0
 40
0.0
 40
0.0
 40
0.0
 40
0.0627054734815585
 40
0.1258180026435944
 40
0.1893518955758989
 40
0.2533210967871997
 40
0.3760223802380994
 40
0.5042027350874037
 40
0.6287442443905509
 40
0.7524970007335178
 40
0.8762904256225891
 40
0.9301814553533038
 40
1.0
 40
1.0
 40
1.0
 40
1.0
 10
18.29999999999999
 20
-30.55788999666613
 30
0.0
 10
18.32475189251027
 20
-30.55717815032796
 30
0.0
 10
18.37441635566443
 20
-30.55574983666591
 30
0.0
 10
18.4484070070019
 20
-30.54418621918458
 30
0.0
 10
18.52137928311718
 20
-30.52568315689515
 30
0.0
 10
18.61414871610721
 20
-30.49172081055996
 30
0.0
 10
18.72382631062687
 20
-30.4320633120142
 30
0.0
 10
18.83789060104974
 20
-30.33670781031284
 30
0.0
 10
18.93096567570619
 20
-30.22063090164697
 30
0.0
 10
18.99906840635736
 20
-30.09053486574008
 30
0.0
 10
19.03266226172083
 20
-29.97656054635133
 30
0.0
 10
19.04765434845164
 20
-29.88065972774423
 30
0.0
 10
19.04915376650081
 20
-29.83220301390153
 30
0.0
 10
19.05000000000003
 20
-29.80485527419841
 30
0.0
  0
SPLINE
  5
214
330
1F
100
AcDbEntity
  8
1
  6
SLD-Solid
370
    25
100
AcDbSpline
210
0.0
220
0.0
230
1.0
 70
     8
 71
     3
 72
    16
 73
    12
 74
     0
 42
0.000000001
 43
0.00000001
 40
0.0
 40
0.0
 40
0.0
 40
0.0
 40
0.069814031064149
 40
0.1237498965154266
 40
0.2475836018648968
 40
0.371376536255524
 40
0.4959583438678432
 40
0.62413948620796
 40
0.7469207609697971
 40
0.8742805094910139
 40
1.0
 40
1.0
 40
1.0
 40
1.0
 10
19.05000000000003
 20
29.80486644841628
 30
0.0
 10
19.04915437967804
 20
29.83220375694687
 30
0.0
 10
19.04765546283079
 20
29.88066090875586
 30
0.0
 10
19.03266526234905
 20
29.97656337346558
 30
0.0
 10
18.99906876123937
 20
30.09054703967058
 30
0.0
 10
18.93096439399839
 20
30.22065301278145
 30
0.0
 10
18.83790550330878
 20
30.33668609025479
 30
0.0
 10
18.72382127964479
 20
30.43216876423575
 30
0.0
 10
18.59216376019319
 20
30.5033860496425
 30
0.0
 10
18.44966044222824
 20
30.54924901227124
 30
0.0
 10
18.34967079633338
 20
30.55503461089691
 30
0.0
 10
18.29999999999999
 20
30.55790866138913
 30
0.0
  0
SPLINE
  5
215
330
1F
100
AcDbEntity
  8
1
  6
SLD-Solid
370
    25
100
AcDbSpline
210
0.0
220
0.0
230
1.0
 70
     8
 71
     3
 72
    16
 73
    12
 74
     0
 42
0.000000001
 43
0.00000001
 40
0.0
 40
0.0
 40
0.0
 40
0.0
 40
0.0695972585631702
 40
0.1233277320974721
 40
0.247039555460377
 40
0.370625409937532
 40
0.4955039070586293
 40
0.6236892810562452
 40
0.7463896350927952
 40
0.874029172385884
 40
1.0
 40
1.0
 40
1.0
 40
1.0
 10
3.199999999999994
 20
-29.80486644841631
 30
0.0
 10
3.200840331068322
 20
-29.8321187437415
 30
0.0
 10
3.202329414503602
 20
-29.88041035531206
 30
0.0
 10
3.217237155250574
 20
-29.97610817340507
 30
0.0
 10
3.250688715768002
 20
-30.08991350869657
 30
0.0
 10
3.318652551687992
 20
-30.22007249881833
 30
0.0
 10
3.411627067179679
 20
-30.33622596976964
 30
0.0
 10
3.525709306310146
 20
-30.43184457715033
 30
0.0
 10
3.657379123027576
 20
-30.50320141671877
 30
0.0
 10
3.800029806285354
 20
-30.54921347619221
 30
0.0
 10
3.900229701070762
 20
-30.55502300820852
 30
0.0
 10
3.949999999999912
 20
-30.55790866138917
 30
0.0
  0
SPLINE
  5
216
330
1F
100
AcDbEntity
  8
1
  6
SLD-Solid
370
    25
100
AcDbSpline
210
0.0
220
0.0
230
1.0
 70
     8
 71
     3
 72
    18
 73
    14
 74
     0
 42
0.000000001
 43
0.00000001
 40
0.0
 40
0.0
 40
0.0
 40
0.0
 40
0.0628280480421825
 40
0.1260701253970792
 40
0.1897406253785904
 40
0.2538535710757105
 40
0.3764737521324676
 40
0.5046580328934662
 40
0.6294958758641306
 40
0.7530413720168776
 40
0.8767127000651272
 40
0.9303985995609487
 40
1.0
 40
1.0
 40
1.0
 40
1.0
 10
3.949999999999912
 20
30.55788999666614
 30
0.0
 10
3.925199676033178
 20
30.55717534525744
 30
0.0
 10
3.875435596934693
 20
30.55574133297283
 30
0.0
 10
3.801295881396174
 20
30.5441309437327
 30
0.0
 10
3.728175768565489
 20
30.52555103963992
 30
0.0
 10
3.635356745735133
 20
30.49149389245028
 30
0.0
 10
3.525704227685278
 20
30.43173903699994
 30
0.0
 10
3.411641971522841
 20
30.33624779546198
 30
0.0
 10
3.318651270434181
 20
30.22005039304358
 30
0.0
 10
3.250689072054502
 20
30.08990134371376
 30
0.0
 10
3.21724011509622
 20
29.97610524198125
 30
0.0
 10
3.202330512999674
 20
29.88040905934514
 30
0.0
 10
3.200840935566496
 20
29.83211788338436
 30
0.0
 10
3.199999999999994
 20
29.8048552741984
 30
0.0
  0
SPLINE
  5
217
330
1F
100
AcDbEntity
  8
1
  6
SLD-Solid
370
    25
100
AcDbSpline
210
0.0
220
0.0
230
1.0
 70
     8
 71
     3
 72
     8
 73
     4
 74
     0
 42
0.000000001
 43
0.00000001
 40
0.0
 40
0.0
 40
0.0
 40
0.0
 40
1.0
 40
1.0
 40
1.0
 40
1.0
 10
7.853987053479589
 20
-30.22558142012364
 30
0.0
 10
8.303659523846749
 20
-29.41927694377146
 30
0.0
 10
8.752412641282682
 20
-28.61247603335509
 30
0.0
 10
9.199999999998877
 20
-27.80504563417607
 30
0.0
  0
SPLINE
  5
218
330
1F
100
AcDbEntity
  8
1
  6
SLD-Solid
370
    25
100
AcDbSpline
210
0.0
220
0.0
230
1.0
 70
     8
 71
     3
 72
     8
 73
     4
 74
     0
 42
0.000000001
 43
0.00000001
 40
0.0
 40
0.0
 40
0.0
 40
0.0
 40
0.0006742907251988
 40
0.0006742907251988
 40
0.0006742907251988
 40
0.0006742907251988
 10
7.58887364544318
 20
-30.55790866138917
 30
0.0
 10
7.677688780848526
 20
-30.44723498609787
 30
0.0
 10
7.766067686727842
 20
-30.33646040446865
 30
0.0
 10
7.853987053479587
 20
-30.22558142012364
 30
0.0
  0
SPLINE
  5
219
330
1F
100
AcDbEntity
  8
1
  6
SLD-Solid
370
    25
100
AcDbSpline
210
0.0
220
0.0
230
1.0
 70
     8
 71
     3
 72
     8
 73
     4
 74
     0
 42
0.000000001
 43
0.00000001
 40
0.0
 40
0.0
 40
0.0
 40
0.0
 40
0.0006744126776058
 40
0.0006744126776058
 40
0.0006744126776058
 40
0.0006744126776058
 10
7.854049533407236
 20
30.22546938779909
 30
0.0
 10
7.766109415733144
 20
30.33637953005823
 30
0.0
 10
7.677709680299326
 20
30.44718523342128
 30
0.0
 10
7.588873645443181
 20
30.55788999666611
 30
0.0
  0
SPLINE
  5
21A
330
1F
100
AcDbEntity
  8
1
  6
SLD-Solid
370
    25
100
AcDbSpline
210
0.0
220
0.0
230
1.0
 70
     8
 71
     3
 72
     8
 73
     4
 74
     0
 42
0.000000001
 43
0.00000001
 40
0.0
 40
0.0
 40
0.0
 40
0.0
 40
1.0
 40
1.0
 40
1.0
 40
1.0
 10
7.854049533407238
 20
30.22546938779909
 30
0.0
 10
8.303692188804737
 20
29.41921817244961
 30
0.0
 10
8.752424212806627
 20
28.6124551587693
 30
0.0
 10
9.199999999999982
 20
27.80504563417287
 30
0.0
  0
SPLINE
  5
21B
330
1F
100
AcDbEntity
  8
1
  6
SLD-Solid
370
    25
100
AcDbSpline
210
0.0
220
0.0
230
1.0
 70
     8
 71
     3
 72
    14
 73
    10
 74
     0
 42
0.000000001
 43
0.00000001
 40
0.0
 40
0.0
 40
0.0
 40
0.0
 40
0.25
 40
0.25
 40
0.5
 40
0.5
 40
0.75
 40
0.75
 40
1.0
 40
1.0
 40
1.0
 40
1.0
 10
9.199999999998875
 20
25.27054331738514
 30
0.0
 10
9.16961039113215
 20
25.36219671402948
 30
0.0
 10
9.144652419509555
 20
25.44797517411548
 30
0.0
 10
9.109411114929499
 20
25.60359055831212
 30
0.0
 10
9.100075894724881
 20
25.66959440204699
 30
0.0
 10
9.099925023949774
 20
25.77434199055129
 30
0.0
 10
9.109375914768826
 20
25.81145009587538
 30
0.0
 10
9.144272722663821
 20
25.85500935243901
 30
0.0
 10
9.169555752624218
 20
25.86176202446131
 30
0.0
 10
9.199999999999982
 20
25.85691311136566
 30
0.0
  0
SPLINE
  5
21C
330
1F
100
AcDbEntity
  8
1
  6
SLD-Solid
370
    25
100
AcDbSpline
210
0.0
220
0.0
230
1.0
 70
     8
 71
     3
 72
     8
 73
     4
 74
     0
 42
0.000000001
 43
0.00000001
 40
0.0
 40
0.0
 40
0.0
 40
0.0
 40
1.0
 40
1.0
 40
1.0
 40
1.0
 10
13.03
 20
27.80504563417289
 30
0.0
 10
13.47759651810106
 20
28.61249255653032
 30
0.0
 10
13.92634937951632
 20
29.41929290832667
 30
0.0
 10
14.3760129465226
 20
30.2255814201264
 30
0.0
  0
SPLINE
  5
21D
330
1F
100
AcDbEntity
  8
1
  6
SLD-Solid
370
    25
100
AcDbSpline
210
0.0
220
0.0
230
1.0
 70
     8
 71
     3
 72
     8
 73
     4
 74
     0
 42
0.000000001
 43
0.00000001
 40
0.0
 40
0.0
 40
0.0
 40
0.0
 40
0.0006742907251946
 40
0.0006742907251946
 40
0.0006742907251946
 40
0.0006742907251946
 10
14.64112635455679
 20
30.55790866138913
 30
0.0
 10
14.55231121915221
 20
30.44723498609877
 30
0.0
 10
14.4639323132736
 20
30.33646040447047
 30
0.0
 10
14.3760129465226
 20
30.2255814201264
 30
0.0
  0
SPLINE
  5
21E
330
1F
100
AcDbEntity
  8
1
  6
SLD-Solid
370
    25
100
AcDbSpline
210
0.0
220
0.0
230
1.0
 70
     8
 71
     3
 72
     8
 73
     4
 74
     0
 42
0.000000001
 43
0.00000001
 40
0.0
 40
0.0
 40
0.0
 40
0.0
 40
0.0006744126776058
 40
0.0006744126776058
 40
0.0006744126776058
 40
0.0006744126776058
 10
14.37595046659275
 20
-30.22546938779917
 30
0.0
 10
14.46389058426685
 20
-30.3363795300583
 30
0.0
 10
14.55229031970066
 20
-30.44718523342133
 30
0.0
 10
14.64112635455681
 20
-30.55788999666615
 30
0.0
  0
SPLINE
  5
21F
330
1F
100
AcDbEntity
  8
1
  6
SLD-Solid
370
    25
100
AcDbSpline
210
0.0
220
0.0
230
1.0
 70
     8
 71
     3
 72
     8
 73
     4
 74
     0
 42
0.000000001
 43
0.00000001
 40
0.0
 40
0.0
 40
0.0
 40
0.0
 40
1.0
 40
1.0
 40
1.0
 40
1.0
 10
13.03000000000001
 20
-27.8050456341729
 30
0.0
 10
13.47756662864427
 20
-28.61243863709861
 30
0.0
 10
13.92629890859749
 20
-29.41920220926158
 30
0.0
 10
14.37595046659275
 20
-30.22546938779917
 30
0.0
  0
SPLINE
  5
220
330
1F
100
AcDbEntity
  8
1
  6
SLD-Solid
370
    25
100
AcDbSpline
210
0.0
220
0.0
230
1.0
 70
     8
 71
     3
 72
    14
 73
    10
 74
     0
 42
0.000000001
 43
0.00000001
 40
0.0
 40
0.0
 40
0.0
 40
0.0
 40
0.25
 40
0.25
 40
0.5
 40
0.5
 40
0.75
 40
0.75
 40
1.0
 40
1.0
 40
1.0
 40
1.0
 10
13.02999999999999
 20
25.81171788356631
 30
0.0
 10
13.05182784069894
 20
25.8086816676394
 30
0.0
 10
13.06930451588747
 20
25.79706282581692
 30
0.0
 10
13.09355241467167
 20
25.7526570503527
 30
0.0
 10
13.0999641373839
 20
25.71975400624283
 30
0.0
 10
13.10003555457988
 20
25.63443445773247
 30
0.0
 10
13.09360869858516
 20
25.58073121692831
 30
0.0
 10
13.06953031995429
 20
25.45976651603279
 30
0.0
 10
13.05190366619465
 20
25.39187340765437
 30
0.0
 10
13.03000000000001
 20
25.31924243797495
 30
0.0
  0
SPLINE
  5
221
330
1F
100
AcDbEntity
  8
1
  6
SLD-Solid
370
    25
100
AcDbSpline
210
0.0
220
0.0
230
1.0
 70
     8
 71
     3
 72
    12
 73
     8
 74
     0
 42
0.000000001
 43
0.00000001
 40
0.0
 40
0.0
 40
0.0
 40
0.0
 40
0.2499999999999992
 40
0.2499999999999992
 40
0.4999999999999983
 40
0.4999999999999983
 40
1.0
 40
1.0
 40
1.0
 40
1.0
 10
12.28
 20
-26.98706356756882
 30
0.0
 10
12.37975762515878
 20
-26.98706356756882
 30
0.0
 10
12.48041217798163
 20
-27.00843624414831
 30
0.0
 10
12.66352022573503
 20
-27.08921384437032
 30
0.0
 10
12.74662210573631
 20
-27.1484408053342
 30
0.0
 10
12.95377706693952
 20
-27.36898351970364
 30
0.0
 10
13.03000000000001
 20
-27.56902785518155
 30
0.0
 10
13.03000000000001
 20
-27.76916635406977
 30
0.0
  0
SPLINE
  5
222
330
1F
100
AcDbEntity
  8
1
  6
SLD-Solid
370
    25
100
AcDbSpline
210
0.0
220
0.0
230
1.0
 70
     8
 71
     3
 72
    18
 73
    14
 74
     0
 42
0.000000001
 43
0.00000001
 40
0.0
 40
0.0
 40
0.0
 40
0.0
 40
0.0624999999999991
 40
0.0624999999999991
 40
0.1249999999999982
 40
0.1249999999999982
 40
0.2499999999999976
 40
0.2499999999999976
 40
0.4999999999999984
 40
0.4999999999999984
 40
0.7499999999999992
 40
0.7499999999999992
 40
1.0
 40
1.0
 40
1.0
 40
1.0
 10
13.03
 20
25.28882228478157
 30
0.0
 10
13.03
 20
25.25845422870301
 30
0.0
 10
13.02749489038112
 20
25.22358442434114
 30
0.0
 10
13.01920268672195
 20
25.15482296737403
 30
0.0
 10
13.01359186100895
 20
25.12104898565181
 30
0.0
 10
12.99361738711075
 20
25.02074756626908
 30
0.0
 10
12.97668865169189
 20
24.95779435947976
 30
0.0
 10
12.91737158574147
 20
24.77496256517824
 30
0.0
 10
12.86564177103881
 20
24.66011878167448
 30
0.0
 10
12.7404954338462
 20
24.45045700081709
 30
0.0
 10
12.66639130892092
 20
24.35409856583109
 30
0.0
 10
12.49025684705969
 20
24.18769951882028
 30
0.0
 10
12.39180028213035
 20
24.12054595344059
 30
0.0
 10
12.28
 20
24.07805063523433
 30
0.0
  0
SPLINE
  5
223
330
1F
100
AcDbEntity
  8
1
  6
SLD-Solid
370
    25
100
AcDbSpline
210
0.0
220
0.0
230
1.0
 70
     8
 71
     3
 72
    14
 73
    10
 74
     0
 42
0.000000001
 43
0.00000001
 40
0.0
 40
0.0
 40
0.0
 40
0.0
 40
0.25
 40
0.25
 40
0.5
 40
0.5
 40
0.75
 40
0.75
 40
1.0
 40
1.0
 40
1.0
 40
1.0
 10
9.199999999999985
 20
-27.76916635406976
 30
0.0
 10
9.199999999999985
 20
-27.66854183645177
 30
0.0
 10
9.218753722673556
 20
-27.56842327754133
 30
0.0
 10
9.291517535812115
 20
-27.38167264562911
 30
0.0
 10
9.345885298655709
 20
-27.29482655372933
 30
0.0
 10
9.482713453674629
 20
-27.14914073715271
 30
0.0
 10
9.566479996683002
 20
-27.08925426891804
 30
0.0
 10
9.749089787631629
 20
-27.0086155382603
 30
0.0
 10
9.849941180319345
 20
-26.98706356756881
 30
0.0
 10
9.949999999999987
 20
-26.98706356756881
 30
0.0
  0
SPLINE
  5
224
330
1F
100
AcDbEntity
  8
1
  6
SLD-Solid
370
    25
100
AcDbSpline
210
0.0
220
0.0
230
1.0
 70
     8
 71
     3
 72
    16
 73
    12
 74
     0
 42
0.000000001
 43
0.00000001
 40
0.0
 40
0.0
 40
0.0
 40
0.0
 40
0.2499999999999998
 40
0.2499999999999998
 40
0.4999999999999996
 40
0.4999999999999996
 40
0.7499999999999993
 40
0.7499999999999993
 40
0.8749999999999997
 40
0.8749999999999997
 40
1.0
 40
1.0
 40
1.0
 40
1.0
 10
9.949999999999987
 20
24.0668597530442
 30
0.0
 10
9.840493351281065
 20
24.10694414130937
 30
0.0
 10
9.742786160772177
 20
24.17117631338136
 30
0.0
 10
9.567840382589413
 20
24.3309608363147
 30
0.0
 10
9.493988254027252
 20
24.42340952890754
 30
0.0
 10
9.367115049349728
 20
24.62793394074501
 30
0.0
 10
9.314523965068823
 20
24.73961559875878
 30
0.0
 10
9.253446937618397
 20
24.91971397324644
 30
0.0
 10
9.235893303123326
 20
24.98231479864246
 30
0.0
 10
9.209102989072404
 20
25.11253703191867
 30
0.0
 10
9.199999999999985
 20
25.18114365477766
 30
0.0
 10
9.199999999999985
 20
25.24012107693847
 30
0.0
  0
SPLINE
  5
225
330
1F
100
AcDbEntity
  8
1
  6
SLD-Solid
370
    25
100
AcDbSpline
210
0.0
220
0.0
230
1.0
 70
     8
 71
     3
 72
    12
 73
     8
 74
     0
 42
0.000000001
 43
0.00000001
 40
0.0
 40
0.0
 40
0.0
 40
0.0
 40
0.2499999999999994
 40
0.2499999999999994
 40
0.4999999999999989
 40
0.4999999999999989
 40
1.0
 40
1.0
 40
1.0
 40
1.0
 10
12.28
 20
24.07805063523433
 30
0.0
 10
12.11125565653784
 20
24.01391086354244
 30
0.0
 10
11.92801760594608
 20
23.96418277266272
 30
0.0
 10
11.53284005751187
 20
23.89473625632987
 30
0.0
 10
11.32774190386501
 20
23.87652150272299
 30
0.0
 10
10.70517895587086
 20
23.87317080568452
 30
0.0
 10
10.29199014189866
 20
23.94167588712289
 30
0.0
 10
9.949999999999987
 20
24.0668597530442
 30
0.0
  0
SPLINE
  5
226
330
1F
100
AcDbEntity
  8
1
  6
SLD-Solid
370
    25
100
AcDbSpline
210
0.0
220
0.0
230
1.0
 70
     8
 71
     3
 72
    14
 73
    10
 74
     0
 42
0.000000001
 43
0.00000001
 40
0.0
 40
0.0
 40
0.0
 40
0.0
 40
0.25
 40
0.25
 40
0.5
 40
0.5
 40
0.75
 40
0.75
 40
1.0
 40
1.0
 40
1.0
 40
1.0
 10
21.05000000000001
 20
-21.44594950101301
 30
0.0
 10
20.88449408461371
 20
-21.45501738819468
 30
0.0
 10
20.72532140506025
 20
-21.48656651582179
 30
0.0
 10
20.41787760077462
 20
-21.58852945430945
 30
0.0
 10
20.27093410678932
 20
-21.65910141193737
 30
0.0
 10
20.00028625964734
 20
-21.82873365947594
 30
0.0
 10
19.87364518305829
 20
-21.92960856355812
 30
0.0
 10
19.64594379329379
 20
-22.15303415317998
 30
0.0
 10
19.54401353040342
 20
-22.27576323790605
 30
0.0
 10
19.45360531732215
 20
-22.41000000000001
 30
0.0
  0
SPLINE
  5
227
330
1F
100
AcDbEntity
  8
1
  6
SLD-Solid
370
    25
100
AcDbSpline
210
0.0
220
0.0
230
1.0
 70
    24
 71
     3
 72
    10
 73
     6
 74
     0
 42
0.000000001
 43
0.00000001
 40
0.0
 40
0.0
 40
0.0
 40
0.0
 40
0.5
 40
0.5
 40
1.0
 40
1.0
 40
1.0
 40
1.0
 10
19.06858252391844
 20
-22.41000000000001
 30
0.0
 10
19.09445025496326
 20
-22.41000000000001
 30
0.0
 10
19.14524022254682
 20
-22.41000000000001
 30
0.0
 10
19.27892535080583
 20
-22.41
 30
0.0
 10
19.36208272919018
 20
-22.41000000000001
 30
0.0
 10
19.45360531732215
 20
-22.41000000000001
 30
0.0
  0
SPLINE
  5
228
330
1F
100
AcDbEntity
  8
1
  6
SLD-Solid
370
    25
100
AcDbSpline
210
0.0
220
0.0
230
1.0
 70
     8
 71
     3
 72
    25
 73
    21
 74
     0
 42
0.000000001
 43
0.00000001
 40
0.0
 40
0.0
 40
0.0
 40
0.0
 40
0.0770400941599564
 40
0.1245117530742793
 40
0.16966992776087
 40
0.2614671061497794
 40
0.3081996799037346
 40
0.3543816534444656
 40
0.4482391499469134
 40
0.4960154289456525
 40
0.5433858481706972
 40
0.5910866698446228
 40
0.6398422260266976
 40
0.6889694379295547
 40
0.735832841536721
 40
0.8312501103696213
 40
0.8799382683983256
 40
0.9097306481861691
 40
0.9697487530827852
 40
0.9999999999999999
 40
0.9999999999999999
 40
0.9999999999999999
 40
0.9999999999999999
 10
28.16337405293584
 20
-22.22189885947069
 30
0.0
 10
28.15807724803956
 20
-22.22046248986405
 30
0.0
 10
28.14951658270656
 20
-22.21814103764186
 30
0.0
 10
28.03731889993366
 20
-22.18845020667276
 30
0.0
 10
27.87125476353069
 20
-22.14532075445248
 30
0.0
 10
27.62877219833076
 20
-22.08422488025704
 30
0.0
 10
27.31580799140087
 20
-22.01009376324619
 30
0.0
 10
26.95399328120796
 20
-21.92834399504606
 30
0.0
 10
26.52424381523421
 20
-21.8388751385945
 30
0.0
 10
26.03481725320658
 20
-21.7489161459433
 30
0.0
 10
25.63790196122143
 20
-21.68275206918741
 30
0.0
 10
25.21376100624262
 20
-21.61985495487121
 30
0.0
 10
24.7620787750103
 20
-21.56185272158067
 30
0.0
 10
24.29351068964536
 20
-21.51168655018095
 30
0.0
 10
23.65344375009581
 20
-21.45713819651699
 30
0.0
 10
22.98929635438135
 20
-21.42272263175691
 30
0.0
 10
22.37719987092352
 20
-21.41289443544632
 30
0.0
 10
21.88932932998017
 20
-21.41461080918176
 30
0.0
 10
21.46697239059336
 20
-21.42492648324267
 30
0.0
 10
21.15466206506034
 20
-21.44067262296717
 30
0.0
 10
21.05000000000001
 20
-21.44594950101301
 30
0.0
  0
SPLINE
  5
229
330
1F
100
AcDbEntity
  8
1
  6
SLD-Solid
370
    25
100
AcDbSpline
210
0.0
220
0.0
230
1.0
 70
     8
 71
     3
 72
    34
 73
    30
 74
     0
 42
0.000000001
 43
0.00000001
 40
0.0
 40
0.0
 40
0.0
 40
0.0
 40
0.1250000000000006
 40
0.1250000000000006
 40
0.1875000000000009
 40
0.1875000000000009
 40
0.2500000000000012
 40
0.2500000000000012
 40
0.3125000000000016
 40
0.3125000000000016
 40
0.3750000000000019
 40
0.3750000000000019
 40
0.4375000000000017
 40
0.4375000000000017
 40
0.5000000000000014
 40
0.5000000000000014
 40
0.5625000000000012
 40
0.5625000000000012
 40
0.6250000000000011
 40
0.6250000000000011
 40
0.6875000000000009
 40
0.6875000000000009
 40
0.7500000000000008
 40
0.7500000000000008
 40
0.8125000000000006
 40
0.8125000000000006
 40
0.8750000000000004
 40
0.8750000000000004
 40
1.0
 40
1.0
 40
1.0
 40
1.0
 10
35.05200000000003
 20
22.18365919670443
 30
0.0
 10
34.90708858597402
 20
22.13827849353551
 30
0.0
 10
34.6504507689388
 20
22.05849348417496
 30
0.0
 10
34.1036547436783
 20
21.90451391953178
 30
0.0
 10
33.8961342240714
 20
21.84813414505128
 30
0.0
 10
33.4401355727339
 20
21.73132833135379
 30
0.0
 10
33.19061003000306
 20
21.67059346304886
 30
0.0
 10
32.64824157387933
 20
21.54839185530089
 30
0.0
 10
32.35609438962344
 20
21.48719359591041
 30
0.0
 10
31.74695375415723
 20
21.3717260244474
 30
0.0
 10
31.42789402405893
 20
21.31696492597252
 30
0.0
 10
30.76082967730581
 20
21.21681976192486
 30
0.0
 10
30.41084637716301
 20
21.17131470977596
 30
0.0
 10
29.70223616121631
 20
21.09522730414736
 30
0.0
 10
29.34149154694782
 20
21.06424761703433
 30
0.0
 10
28.60727505255686
 20
21.01814144350384
 30
0.0
 10
28.2312271402736
 20
21.0029837565746
 30
0.0
 10
27.4783540752673
 20
20.9904294436783
 30
0.0
 10
27.10427879804975
 20
20.9929464909833
 30
0.0
 10
26.3607170662799
 20
21.01492412559126
 30
0.0
 10
25.99123050506225
 20
21.03438692400449
 30
0.0
 10
25.25700089807784
 20
21.08961321899255
 30
0.0
 10
24.89585752621682
 20
21.12520814272657
 30
0.0
 10
24.20004592238153
 20
21.20839161811783
 30
0.0
 10
23.86305371469185
 20
21.25615273552085
 30
0.0
 10
23.21123059712626
 20
21.36121931424492
 30
0.0
 10
22.89420758029634
 20
21.41902642861686
 30
0.0
 10
22.00547074707748
 20
21.59666535401873
 30
0.0
 10
21.48676288367682
 20
21.72184727268665
 30
0.0
 10
21.05000000000001
 20
21.83699794026776
 30
0.0
  0
SPLINE
  5
22A
330
1F
100
AcDbEntity
  8
1
  6
SLD-Solid
370
    25
100
AcDbSpline
210
0.0
220
0.0
230
1.0
 70
     8
 71
     3
 72
     9
 73
     5
 74
     0
 42
0.000000001
 43
0.00000001
 40
0.0
 40
0.0
 40
0.0
 40
0.0
 40
0.4900943366302071
 40
1.0
 40
1.0
 40
1.0
 40
1.0
 10
35.15408159699813
 20
22.12259637135518
 30
0.0
 10
35.15025925047483
 20
22.12484444171291
 30
0.0
 10
35.14246004481652
 20
22.1294314572928
 30
0.0
 10
35.08254898744978
 20
22.16534611125244
 30
0.0
 10
35.05200000000003
 20
22.18365919670443
 30
0.0
  0
SPLINE
  5
22B
330
1F
100
AcDbEntity
  8
1
  6
SLD-Solid
370
    25
100
AcDbSpline
210
0.0
220
0.0
230
1.0
 70
     8
 71
     3
 72
    16
 73
    12
 74
     0
 42
0.000000001
 43
0.00000001
 40
0.0
 40
0.0
 40
0.0
 40
0.0
 40
0.125
 40
0.125
 40
0.25
 40
0.25
 40
0.5
 40
0.5
 40
0.75
 40
0.75
 40
1.0
 40
1.0
 40
1.0
 40
1.0
 10
9.199999999999983
 20
25.82649087091902
 30
0.0
 10
9.199999999999983
 20
25.76704453528217
 30
0.0
 10
9.20930977924021
 20
25.72460913602998
 30
0.0
 10
9.236285539089918
 20
25.6630957596836
 30
0.0
 10
9.25381839599405
 20
25.64221451078864
 30
0.0
 10
9.314732612350825
 20
25.59089236418539
 30
0.0
 10
9.36758635054245
 20
25.57162638804159
 30
0.0
 10
9.493923269647553
 20
25.54782523997984
 30
0.0
 10
9.56860618675474
 20
25.54380204926681
 30
0.0
 10
9.743190718990293
 20
25.55566084202212
 30
0.0
 10
9.840260492227259
 20
25.57101227172014
 30
0.0
 10
9.949999999999983
 20
25.60325879037601
 30
0.0
  0
SPLINE
  5
22C
330
1F
100
AcDbEntity
  8
1
  6
SLD-Solid
370
    25
100
AcDbSpline
210
0.0
220
0.0
230
1.0
 70
     8
 71
     3
 72
    12
 73
     8
 74
     0
 42
0.000000001
 43
0.00000001
 40
0.0
 40
0.0
 40
0.0
 40
0.0
 40
0.2500000000000006
 40
0.2500000000000006
 40
0.5000000000000011
 40
0.5000000000000011
 40
1.0
 40
1.0
 40
1.0
 40
1.0
 10
9.949999999999973
 20
25.60325879037601
 30
0.0
 10
10.12099348269378
 20
25.65350454636333
 30
0.0
 10
10.30594493731545
 20
25.69087007490121
 30
0.0
 10
10.70348914958043
 20
25.74162454002531
 30
0.0
 10
10.90918343641378
 20
25.75391313067251
 30
0.0
 10
11.53176214943037
 20
25.75179790476193
 30
0.0
 10
11.94250893135797
 20
25.69754140003431
 30
0.0
 10
12.27999999999999
 20
25.59426208810602
 30
0.0
  0
SPLINE
  5
22D
330
1F
100
AcDbEntity
  8
1
  6
SLD-Solid
370
    25
100
AcDbSpline
210
0.0
220
0.0
230
1.0
 70
     8
 71
     3
 72
    18
 73
    14
 74
     0
 42
0.000000001
 43
0.00000001
 40
0.0
 40
0.0
 40
0.0
 40
0.0
 40
0.2500000000000006
 40
0.2500000000000006
 40
0.5000000000000011
 40
0.5000000000000011
 40
0.7500000000000017
 40
0.7500000000000017
 40
0.8750000000000009
 40
0.8750000000000009
 40
0.9375000000000006
 40
0.9375000000000006
 40
1.0
 40
1.0
 40
1.0
 40
1.0
 10
12.28
 20
25.59426208810602
 30
0.0
 10
12.39154339480305
 20
25.56012748089476
 30
0.0
 10
12.49076613158666
 20
25.54318981789732
 30
0.0
 10
12.66653346245911
 20
25.52816909760164
 30
0.0
 10
12.74028542340612
 20
25.53041158029682
 30
0.0
 10
12.86605076853517
 20
25.54934151941308
 30
0.0
 10
12.91749996660361
 20
25.56531541934163
 30
0.0
 10
12.97688531868163
 20
25.6090846994035
 30
0.0
 10
12.99394905986489
 20
25.62703563897608
 30
0.0
 10
13.01360803438728
 20
25.66754728332324
 30
0.0
 10
13.01926149413283
 20
25.6835880303414
 30
0.0
 10
13.02752275857844
 20
25.72506394381625
 30
0.0
 10
13.03
 20
25.75103822857545
 30
0.0
 10
13.03
 20
25.78129773037287
 30
0.0
  0
SPLINE
  5
22E
330
1F
100
AcDbEntity
  8
1
  6
SLD-Solid
370
    25
100
AcDbSpline
210
0.0
220
0.0
230
1.0
 70
     8
 71
     3
 72
    12
 73
     8
 74
     0
 42
0.000000001
 43
0.00000001
 40
0.0
 40
0.0
 40
0.0
 40
0.0
 40
0.2499999999999991
 40
0.2499999999999991
 40
0.4999999999999982
 40
0.4999999999999982
 40
1.0
 40
1.0
 40
1.0
 40
1.0
 10
9.199999999999985
 20
27.76916635406975
 30
0.0
 10
9.199999999999985
 20
27.66809333683724
 30
0.0
 10
9.218583298377242
 20
27.5689264133913
 30
0.0
 10
9.291549937975763
 20
27.38152387214674
 30
0.0
 10
9.345496880932808
 20
27.29531750692792
 30
0.0
 10
9.551071041675366
 20
27.07620366276165
 30
0.0
 10
9.74822041674009
 20
26.9870635675688
 30
0.0
 10
9.949999999999987
 20
26.98706356756881
 30
0.0
  0
SPLINE
  5
22F
330
1F
100
AcDbEntity
  8
1
  6
SLD-Solid
370
    25
100
AcDbSpline
210
0.0
220
0.0
230
1.0
 70
     8
 71
     3
 72
    14
 73
    10
 74
     0
 42
0.000000001
 43
0.00000001
 40
0.0
 40
0.0
 40
0.0
 40
0.0
 40
0.25
 40
0.25
 40
0.5
 40
0.5
 40
0.75
 40
0.75
 40
1.0
 40
1.0
 40
1.0
 40
1.0
 10
12.28
 20
26.98706356756881
 30
0.0
 10
12.38041018140386
 20
26.9870635675688
 30
0.0
 10
12.48007417771602
 20
27.00821121867971
 30
0.0
 10
12.66478364882749
 20
27.08984749877595
 30
0.0
 10
12.74772062670419
 20
27.1494985263265
 30
0.0
 10
12.88443521562222
 20
27.29527278596965
 30
0.0
 10
12.93853405055463
 20
27.38169791130528
 30
0.0
 10
13.01142030969676
 20
27.56897740148013
 30
0.0
 10
13.03
 20
27.66812420510654
 30
0.0
 10
13.03
 20
27.76916635406975
 30
0.0
  0
SPLINE
  5
230
330
1F
100
AcDbEntity
  8
SK3
  6
SLD-Dashed
370
    18
100
AcDbSpline
210
0.0
220
0.0
230
1.0
 70
    24
 71
     3
 72
    16
 73
    12
 74
     0
 42
0.000000001
 43
0.00000001
 40
0.0
 40
0.0
 40
0.0
 40
0.0
 40
0.2499999999999989
 40
0.2499999999999989
 40
0.3749999999999983
 40
0.3749999999999983
 40
0.4999999999999983
 40
0.4999999999999983
 40
0.7499999999999992
 40
0.7499999999999992
 40
1.0
 40
1.0
 40
1.0
 40
1.0
 10
19.04999999999998
 20
-6.648814321294674
 30
0.0
 10
19.04999999999998
 20
-6.883696980958753
 30
0.0
 10
19.04999999999998
 20
-7.138039090382228
 30
0.0
 10
19.04999999999998
 20
-7.559342302183782
 30
0.0
 10
19.04999999999998
 20
-7.70620328171491
 30
0.0
 10
19.04999999999998
 20
-8.00660299686607
 30
0.0
 10
19.04999999999998
 20
-8.161019378688287
 30
0.0
 10
19.04999999999998
 20
-8.637259463910924
 30
0.0
 10
19.04999999999998
 20
-8.975182029350714
 30
0.0
 10
19.04999999999998
 20
-9.648952583665688
 30
0.0
 10
19.04999999999998
 20
-9.991071736925255
 30
0.0
 10
19.04999999999998
 20
-10.32953861099389
 30
0.0
  0
SPLINE
  5
231
330
1F
100
AcDbEntity
  8
SK3
  6
SLD-Dashed
370
    18
100
AcDbSpline
210
0.0
220
0.0
230
1.0
 70
     8
 71
     3
 72
     8
 73
     4
 74
     0
 42
0.000000001
 43
0.00000001
 40
0.0
 40
0.0
 40
0.0
 40
0.0
 40
1.0
 40
1.0
 40
1.0
 40
1.0
 10
11.85037484305647
 20
-5.968209101414149
 30
0.0
 10
11.86178086874971
 20
-5.97507543943143
 30
0.0
 10
11.87318747517106
 20
-5.982020937972472
 30
0.0
 10
11.88459551242568
 20
-5.989045152906565
 30
0.0
  0
SPLINE
  5
232
330
1F
100
AcDbEntity
  8
SK3
  6
SLD-Dashed
370
    18
100
AcDbSpline
210
0.0
220
0.0
230
1.0
 70
     8
 71
     3
 72
     8
 73
     4
 74
     0
 42
0.000000001
 43
0.00000001
 40
0.0
 40
0.0
 40
0.0
 40
0.0
 40
1.0
 40
1.0
 40
1.0
 40
1.0
 10
11.884595512414
 20
-9.08868075058601
 30
0.0
 10
11.87318746267946
 20
-9.082191288513616
 30
0.0
 10
11.86178084374247
 20
-9.075621712184477
 30
0.0
 10
11.85037480549741
 20
-9.068972407945457
 30
0.0
  0
SPLINE
  5
233
330
1F
100
AcDbEntity
  8
SK3
  6
SLD-Dashed
370
    18
100
AcDbSpline
210
0.0
220
0.0
230
1.0
 70
     8
 71
     3
 72
    32
 73
    28
 74
     0
 42
0.000000001
 43
0.00000001
 40
0.5000000000000006
 40
0.5000000000000006
 40
0.5000000000000006
 40
0.5000000000000006
 40
0.5312500000000006
 40
0.5312500000000006
 40
0.5625000000000004
 40
0.5625000000000004
 40
0.5937500000000004
 40
0.5937500000000004
 40
0.6250000000000003
 40
0.6250000000000003
 40
0.6562500000000003
 40
0.6562500000000003
 40
0.6875000000000003
 40
0.6875000000000003
 40
0.7187500000000002
 40
0.7187500000000002
 40
0.7500000000000002
 40
0.7500000000000002
 40
0.8125000000000002
 40
0.8125000000000002
 40
0.8750000000000001
 40
0.8750000000000001
 40
0.9375000000000001
 40
0.9375000000000001
 40
0.96875
 40
0.96875
 40
1.0
 40
1.0
 40
1.0
 40
1.0
 10
-12.65142534815797
 20
-1.849028409859642
 30
0.0
 10
-12.71109619905485
 20
-1.982917039850901
 30
0.0
 10
-12.74624831806524
 20
-2.127280776025385
 30
0.0
 10
-12.75649949321322
 20
-2.411928688155596
 30
0.0
 10
-12.73169384185378
 20
-2.554760746869861
 30
0.0
 10
-12.62927517610599
 20
-2.817628531152763
 30
0.0
 10
-12.55227788704509
 20
-2.938289024976531
 30
0.0
 10
-12.36231592901664
 20
-3.151859698446176
 30
0.0
 10
-12.25124886377876
 20
-3.243388644787987
 30
0.0
 10
-12.00889093855831
 20
-3.401118809639017
 30
0.0
 10
-11.87604176176377
 20
-3.467923741584875
 30
0.0
 10
-11.60337030969402
 20
-3.578193563144393
 30
0.0
 10
-11.46219554161719
 20
-3.62256738724049
 30
0.0
 10
-11.17206625859507
 20
-3.69461968669587
 30
0.0
 10
-11.02282091738044
 20
-3.722171211121714
 30
0.0
 10
-10.72525592312554
 20
-3.76231788825758
 30
0.0
 10
-10.57590800500426
 20
-3.775177817544669
 30
0.0
 10
-10.12641992344951
 20
-3.795577759381483
 30
0.0
 10
-9.822474018075496
 20
-3.785055983899103
 30
0.0
 10
-9.223635580176095
 20
-3.721876183729704
 30
0.0
 10
-8.929832340452359
 20
-3.669842585684729
 30
0.0
 10
-8.354524786720733
 20
-3.518650187831679
 30
0.0
 10
-8.071520325600352
 20
-3.419421694757521
 30
0.0
 10
-7.680559049073596
 20
-3.21831414577025
 30
0.0
 10
-7.554529621975211
 20
-3.141535461896494
 30
0.0
 10
-7.326794725850197
 20
-2.964874997649032
 30
0.0
 10
-7.222952332777616
 20
-2.86408391241915
 30
0.0
 10
-7.142151914500975
 20
-2.744713422844637
 30
0.0
  0
SPLINE
  5
234
330
1F
100
AcDbEntity
  8
SK3
  6
SLD-Dashed
370
    18
100
AcDbSpline
210
0.0
220
0.0
230
1.0
 70
     8
 71
     3
 72
    34
 73
    30
 74
     0
 42
0.000000001
 43
0.00000001
 40
0.0
 40
0.0
 40
0.0
 40
0.0
 40
0.015625
 40
0.015625
 40
0.03125
 40
0.03125
 40
0.0624999999999999
 40
0.0624999999999999
 40
0.0937499999999999
 40
0.0937499999999999
 40
0.1249999999999999
 40
0.1249999999999999
 40
0.1562499999999998
 40
0.1562499999999998
 40
0.1874999999999998
 40
0.1874999999999998
 40
0.2500000000000001
 40
0.2500000000000001
 40
0.3125000000000004
 40
0.3125000000000004
 40
0.3750000000000007
 40
0.3750000000000007
 40
0.4062500000000007
 40
0.4062500000000007
 40
0.4375000000000006
 40
0.4375000000000006
 40
0.4687500000000006
 40
0.4687500000000006
 40
0.5000000000000006
 40
0.5000000000000006
 40
0.5000000000000006
 40
0.5000000000000006
 10
-7.142151914500975
 20
-2.74471342284463
 30
0.0
 10
-7.101751705362647
 20
-2.685028178057367
 30
0.0
 10
-7.06835974234607
 20
-2.622214628821187
 30
0.0
 10
-7.019184405639701
 20
-2.488662990679194
 30
0.0
 10
-7.003860771212789
 20
-2.417823932890632
 30
0.0
 10
-6.991714382339809
 20
-2.20537413221935
 30
0.0
 10
-7.030428135917352
 20
-2.058852455218744
 30
0.0
 10
-7.171044285367814
 20
-1.798578738567189
 30
0.0
 10
-7.269192437740352
 20
-1.683798810037572
 30
0.0
 10
-7.489685118882275
 20
-1.480367565372488
 30
0.0
 10
-7.611106540824308
 20
-1.392381726503446
 30
0.0
 10
-7.86816057796308
 20
-1.234089644683772
 30
0.0
 10
-8.003521738074545
 20
-1.164418329764334
 30
0.0
 10
-8.278274313649275
 20
-1.041954177457345
 30
0.0
 10
-8.418672147263745
 20
-0.9886512835128175
 30
0.0
 10
-8.847321709857372
 20
-0.8484805416701519
 30
0.0
 10
-9.145102356158578
 20
-0.7807970968250268
 30
0.0
 10
-9.741983897931336
 20
-0.6963252078697955
 30
0.0
 10
-10.04238554201525
 20
-0.6788349869587956
 30
0.0
 10
-10.64772394644617
 20
-0.7012287425978634
 30
0.0
 10
-10.94895711079494
 20
-0.7411535467051269
 30
0.0
 10
-11.38649230434466
 20
-0.8582877859211815
 30
0.0
 10
-11.53141453603689
 20
-0.9075703933683621
 30
0.0
 10
-11.80844520779008
 20
-1.027994668686291
 30
0.0
 10
-11.94109239598694
 20
-1.099030495898275
 30
0.0
 10
-12.19115742810614
 20
-1.268854728696964
 30
0.0
 10
-12.30723046869166
 20
-1.367178416686092
 30
0.0
 10
-12.5068857078902
 20
-1.589238243876911
 30
0.0
 10
-12.5917544972611
 20
-1.71513977986839
 30
0.0
 10
-12.65142534815797
 20
-1.849028409859642
 30
0.0
  0
SPLINE
  5
235
330
1F
100
AcDbEntity
  8
1
  6
SLD-Dashed
370
    18
100
AcDbSpline
210
0.0
220
0.0
230
1.0
 70
    24
 71
     3
 72
    10
 73
     6
 74
     0
 42
0.000000001
 43
0.00000001
 40
0.0
 40
0.0
 40
0.0
 40
0.0
 40
0.5
 40
0.5
 40
1.0
 40
1.0
 40
1.0
 40
1.0
 10
19.45360531732215
 20
-22.41000000000001
 30
0.0
 10
19.36233605815321
 20
-22.41000000000001
 30
0.0
 10
19.27944908066595
 20
-22.41000000000001
 30
0.0
 10
19.14570039202915
 20
-22.41
 30
0.0
 10
19.09460957661904
 20
-22.41000000000001
 30
0.0
 10
19.06858252391844
 20
-22.41000000000001
 30
0.0
  0
SPLINE
  5
236
330
1F
100
AcDbEntity
  8
1
  6
SLD-Dashed
370
    18
100
AcDbSpline
210
0.0
220
0.0
230
1.0
 70
     8
 71
     3
 72
    12
 73
     8
 74
     0
 42
0.000000001
 43
0.00000001
 40
0.0
 40
0.0
 40
0.0
 40
0.0
 40
0.4999999999999991
 40
0.4999999999999991
 40
0.7499999999999996
 40
0.7499999999999996
 40
1.0
 40
1.0
 40
1.0
 40
1.0
 10
19.45360531732207
 20
-22.41000000000006
 30
0.0
 10
19.6329195282603
 20
-22.143756942501
 30
0.0
 10
19.86508813604157
 20
-21.91371328153474
 30
0.0
 10
20.26913171433331
 20
-21.66011069424927
 30
0.0
 10
20.41596654787092
 20
-21.58929664355698
 30
0.0
 10
20.7244066612001
 20
-21.48673771115069
 30
0.0
 10
20.884056001301
 20
-21.45504139029784
 30
0.0
 10
21.05000000000001
 20
-21.44594950101301
 30
0.0
  0
SPLINE
  5
237
330
1F
100
AcDbEntity
  8
1
  6
SLD-Dashed
370
    18
100
AcDbSpline
210
0.0
220
0.0
230
1.0
 70
    24
 71
     2
 72
     6
 73
     3
 74
     0
 42
0.000000001
 43
0.00000001
 40
0.0
 40
0.0
 40
0.0
 40
0.2500000000000002
 40
0.2500000000000002
 40
0.2500000000000002
 10
3.199999999999994
 20
-22.40999999999982
 30
0.0
 10
3.170406995816583
 20
-22.40999999999992
 30
0.0
 10
3.144481324703782
 20
-22.41000000000001
 30
0.0
  0
SPLINE
  5
238
330
1F
100
AcDbEntity
  8
1
  6
SLD-Dashed
370
    18
100
AcDbSpline
210
0.0
220
0.0
230
1.0
 70
    24
 71
     3
 72
     8
 73
     4
 74
     0
 42
0.000000001
 43
0.00000001
 40
0.2500000000000002
 40
0.2500000000000002
 40
0.2500000000000002
 40
0.2500000000000002
 40
0.5000000000000002
 40
0.5000000000000002
 40
0.5000000000000002
 40
0.5000000000000002
 10
3.144481324703782
 20
-22.41000000000001
 30
0.0
 10
3.118555653590982
 20
-22.41000000000001
 30
0.0
 10
3.097084490555624
 20
-22.41000000000001
 30
0.0
 10
3.096615422637505
 20
-22.41000000000001
 30
0.0
  0
SPLINE
  5
239
330
1F
100
AcDbEntity
  8
1
  6
SLD-Dashed
370
    18
100
AcDbSpline
210
0.0
220
0.0
230
1.0
 70
    24
 71
     3
 72
     8
 73
     4
 74
     0
 42
0.000000001
 43
0.00000001
 40
0.5000000000000002
 40
0.5000000000000002
 40
0.5000000000000002
 40
0.5000000000000002
 40
0.5625000000000002
 40
0.5625000000000002
 40
0.5625000000000002
 40
0.5625000000000002
 10
3.096615422637505
 20
-22.41000000000001
 30
0.0
 10
3.096498155657962
 20
-22.41000000000001
 30
0.0
 10
3.097576707176322
 20
-22.41
 30
0.0
 10
3.099789717980514
 20
-22.41
 30
0.0
  0
SPLINE
  5
23A
330
1F
100
AcDbEntity
  8
1
  6
SLD-Dashed
370
    18
100
AcDbSpline
210
0.0
220
0.0
230
1.0
 70
    24
 71
     3
 72
     8
 73
     4
 74
     0
 42
0.000000001
 43
0.00000001
 40
0.5625000000000002
 40
0.5625000000000002
 40
0.5625000000000002
 40
0.5625000000000002
 40
0.6250000000000002
 40
0.6250000000000002
 40
0.6250000000000002
 40
0.6250000000000002
 10
3.099789717980514
 20
-22.41
 30
0.0
 10
3.102002728784706
 20
-22.41
 30
0.0
 10
3.105345908570312
 20
-22.41000000000001
 30
0.0
 10
3.109607407038001
 20
-22.41
 30
0.0
  0
SPLINE
  5
23B
330
1F
100
AcDbEntity
  8
1
  6
SLD-Dashed
370
    18
100
AcDbSpline
210
0.0
220
0.0
230
1.0
 70
    24
 71
     3
 72
     8
 73
     4
 74
     0
 42
0.000000001
 43
0.00000001
 40
0.6250000000000002
 40
0.6250000000000002
 40
0.6250000000000002
 40
0.6250000000000002
 40
0.7500000000000001
 40
0.7500000000000001
 40
0.7500000000000001
 40
0.7500000000000001
 10
3.109607407038001
 20
-22.41
 30
0.0
 10
3.118130403973365
 20
-22.41000000000001
 30
0.0
 10
3.130398007648125
 20
-22.41000000000001
 30
0.0
 10
3.143490990967584
 20
-22.41000000000001
 30
0.0
  0
SPLINE
  5
23C
330
1F
100
AcDbEntity
  8
1
  6
SLD-Dashed
370
    18
100
AcDbSpline
210
0.0
220
0.0
230
1.0
 70
    24
 71
     2
 72
     6
 73
     3
 74
     0
 42
0.000000001
 43
0.00000001
 40
0.7500000000000001
 40
0.7500000000000001
 40
0.7500000000000001
 40
1.0
 40
1.0
 40
1.0
 10
3.143490990967599
 20
-22.41000000000001
 30
0.0
 10
3.169676957606518
 20
-22.40999999999992
 30
0.0
 10
3.200000000000008
 20
-22.40999999999982
 30
0.0
  0
SPLINE
  5
23D
330
1F
100
AcDbEntity
  8
1
  6
SLD-Dashed
370
    18
100
AcDbSpline
210
0.0
220
0.0
230
1.0
 70
     8
 71
     3
 72
    34
 73
    30
 74
     0
 42
0.000000001
 43
0.00000001
 40
0.0
 40
0.0
 40
0.0
 40
0.0
 40
0.0625000000000002
 40
0.0625000000000002
 40
0.1250000000000004
 40
0.1250000000000004
 40
0.2500000000000003
 40
0.2500000000000003
 40
0.3750000000000003
 40
0.3750000000000003
 40
0.4375000000000002
 40
0.4375000000000002
 40
0.5000000000000002
 40
0.5000000000000002
 40
0.5625000000000002
 40
0.5625000000000002
 40
0.6250000000000001
 40
0.6250000000000001
 40
0.6875000000000001
 40
0.6875000000000001
 40
0.7500000000000001
 40
0.7500000000000001
 40
0.8125000000000001
 40
0.8125000000000001
 40
0.875
 40
0.875
 40
0.9375
 40
0.9375
 40
1.0
 40
1.0
 40
1.0
 40
1.0
 10
21.04999999999982
 20
21.83699794026776
 30
0.0
 10
21.26604527915521
 20
21.78003852578395
 30
0.0
 10
21.50361615487586
 20
21.72026360173828
 30
0.0
 10
22.02104429155627
 20
21.5990293947494
 30
0.0
 10
22.30348399969026
 20
21.53706568388542
 30
0.0
 10
23.19513522031327
 20
21.35894484733675
 30
0.0
 10
23.84743981986859
 20
21.25043417589301
 30
0.0
 10
25.25614221832298
 20
21.08224822563055
 30
0.0
 10
25.98363500145298
 20
21.02602863582399
 30
0.0
 10
27.10892100480492
 20
20.9928298325651
 30
0.0
 10
27.48852174021957
 20
20.9904863645777
 30
0.0
 10
28.23583940820609
 20
21.00317554379543
 30
0.0
 10
28.606451543602
 20
21.01809547632263
 30
0.0
 10
29.34155642655353
 20
21.06424595092894
 30
0.0
 10
29.70893011519007
 20
21.09583786892674
 30
0.0
 10
30.41910397817854
 20
21.17231187856471
 30
0.0
 10
30.76240190700372
 20
21.21705972091153
 30
0.0
 10
31.4257477994816
 20
21.3166387975657
 30
0.0
 10
31.74580096729015
 20
21.37148074105199
 30
0.0
 10
32.36148261390861
 20
21.48824192573078
 30
0.0
 10
32.65026494976869
 20
21.5488523421646
 30
0.0
 10
33.18775666394028
 20
21.66994597732008
 30
0.0
 10
33.43700797699278
 20
21.73054635579155
 30
0.0
 10
33.89521728678665
 20
21.84788026634392
 30
0.0
 10
34.10430588551419
 20
21.90470379011455
 30
0.0
 10
34.46579064551636
 20
22.00648610862587
 30
0.0
 10
34.62048581066377
 20
22.05202151717107
 30
0.0
 10
34.87717318686317
 20
22.12920040052283
 30
0.0
 10
34.97951278034034
 20
22.16095897656633
 30
0.0
 10
35.05200000000003
 20
22.18365919670443
 30
0.0
  0
SPLINE
  5
23E
330
1F
100
AcDbEntity
  8
SK3
  6
SLD-Dashed
370
    18
100
AcDbSpline
210
0.0
220
0.0
230
1.0
 70
     8
 71
     3
 72
    10
 73
     6
 74
     0
 42
0.000000001
 43
0.00000001
 40
0.0
 40
0.0
 40
0.0
 40
0.0
 40
0.5
 40
0.5
 40
1.0
 40
1.0
 40
1.0
 40
1.0
 10
18.70470837592287
 20
25.57912025275684
 30
0.0
 10
18.66514338213329
 20
25.52310107590329
 30
0.0
 10
18.62842911249974
 20
25.46562249807944
 30
0.0
 10
18.57073957446639
 20
25.34260791126144
 30
0.0
 10
18.54999999999998
 20
25.27482658978055
 30
0.0
 10
18.54999999999998
 20
25.20500000000004
 30
0.0
  0
SPLINE
  5
23F
330
1F
100
AcDbEntity
  8
SK3
  6
SLD-Dashed
370
    18
100
AcDbSpline
210
0.0
220
0.0
230
1.0
 70
     8
 71
     3
 72
    10
 73
     6
 74
     0
 42
0.000000001
 43
0.00000001
 40
0.0
 40
0.0
 40
0.0
 40
0.0
 40
0.5
 40
0.5
 40
1.0
 40
1.0
 40
1.0
 40
1.0
 10
3.699999999999981
 20
25.20500000000004
 30
0.0
 10
3.699999999999966
 20
25.27446188700642
 30
0.0
 10
3.67966834467298
 20
25.34157876899189
 30
0.0
 10
3.621774626393164
 20
25.46534569655893
 30
0.0
 10
3.584972825281691
 20
25.52292618711532
 30
0.0
 10
3.545388844997951
 20
25.57898258716478
 30
0.0
  0
SPLINE
  5
240
330
1F
100
AcDbEntity
  8
1
  6
SLD-Dashed
370
    18
100
AcDbSpline
210
0.0
220
0.0
230
1.0
 70
    24
 71
     2
 72
     6
 73
     3
 74
     0
 42
0.000000001
 43
0.00000001
 40
0.0
 40
0.0
 40
0.0
 40
0.2500000000000002
 40
0.2500000000000002
 40
0.2500000000000002
 10
3.545291624077143
 20
-22.41000000000001
 30
0.0
 10
3.529781518569377
 20
-22.41000000000001
 30
0.0
 10
3.506264354048619
 20
-22.41000000000001
 30
0.0
  0
SPLINE
  5
241
330
1F
100
AcDbEntity
  8
1
  6
SLD-Dashed
370
    18
100
AcDbSpline
210
0.0
220
0.0
230
1.0
 70
    24
 71
     3
 72
     8
 73
     4
 74
     0
 42
0.000000001
 43
0.00000001
 40
0.2500000000000002
 40
0.2500000000000002
 40
0.2500000000000002
 40
0.2500000000000002
 40
0.5000000000000004
 40
0.5000000000000004
 40
0.5000000000000004
 40
0.5000000000000004
 10
3.506264354048619
 20
-22.41000000000001
 30
0.0
 10
3.482747189527846
 20
-22.41000000000001
 30
0.0
 10
3.452323510010749
 20
-22.41000000000001
 30
0.0
 10
3.419371480420957
 20
-22.41000000000001
 30
0.0
  0
SPLINE
  5
242
330
1F
100
AcDbEntity
  8
1
  6
SLD-Dashed
370
    18
100
AcDbSpline
210
0.0
220
0.0
230
1.0
 70
    24
 71
     3
 72
     8
 73
     4
 74
     0
 42
0.000000001
 43
0.00000001
 40
0.5000000000000004
 40
0.5000000000000004
 40
0.5000000000000004
 40
0.5000000000000004
 40
1.0
 40
1.0
 40
1.0
 40
1.0
 10
3.419371480420971
 20
-22.41000000000001
 30
0.0
 10
3.353467421241402
 20
-22.40999999999995
 30
0.0
 10
3.27748356546001
 20
-22.40999999999989
 30
0.0
 10
3.200000000000008
 20
-22.40999999999982
 30
0.0
  0
SPLINE
  5
243
330
1F
100
AcDbEntity
  8
SK3
  6
SLD-Dashed
370
    18
100
AcDbSpline
210
0.0
220
0.0
230
1.0
 70
    24
 71
     3
 72
     8
 73
     4
 74
     0
 42
0.000000001
 43
0.00000001
 40
0.0
 40
0.0
 40
0.0
 40
0.0
 40
0.4999999999999969
 40
0.4999999999999969
 40
0.4999999999999969
 40
0.4999999999999969
 10
19.06858252391844
 20
-22.41000000000001
 30
0.0
 10
18.98756339016361
 20
-22.41000000000001
 30
0.0
 10
18.90813242954145
 20
-22.41000000000001
 30
0.0
 10
18.83833984105063
 20
-22.41
 30
0.0
  0
SPLINE
  5
244
330
1F
100
AcDbEntity
  8
SK3
  6
SLD-Dashed
370
    18
100
AcDbSpline
210
0.0
220
0.0
230
1.0
 70
    24
 71
     3
 72
     8
 73
     4
 74
     0
 42
0.000000001
 43
0.00000001
 40
0.4999999999999969
 40
0.4999999999999969
 40
0.4999999999999969
 40
0.4999999999999969
 40
0.7499999999999984
 40
0.7499999999999984
 40
0.7499999999999984
 40
0.7499999999999984
 10
18.83833984105063
 20
-22.41
 30
0.0
 10
18.80344354680522
 20
-22.41
 30
0.0
 10
18.7710759797752
 20
-22.41000000000001
 30
0.0
 10
18.74624034180189
 20
-22.41000000000001
 30
0.0
  0
SPLINE
  5
245
330
1F
100
AcDbEntity
  8
SK3
  6
SLD-Dashed
370
    18
100
AcDbSpline
210
0.0
220
0.0
230
1.0
 70
    24
 71
     2
 72
     6
 73
     3
 74
     0
 42
0.000000001
 43
0.00000001
 40
0.7499999999999984
 40
0.7499999999999984
 40
0.7499999999999984
 40
1.0
 40
1.0
 40
1.0
 10
18.74624034180189
 20
-22.41000000000001
 30
0.0
 10
18.72140470382855
 20
-22.41000000000001
 30
0.0
 10
18.70461115500188
 20
-22.41000000000001
 30
0.0
  0
SPLINE
  5
246
330
1F
100
AcDbEntity
  8
SK3
  6
SLD-Dashed
370
    18
100
AcDbSpline
210
0.0
220
0.0
230
1.0
 70
     8
 71
     3
 72
    40
 73
    36
 74
     0
 42
0.000000001
 43
0.00000001
 40
0.0
 40
0.0
 40
0.0
 40
0.0
 40
0.0126129321449816
 40
0.0314976481339604
 40
0.0629183966702564
 40
0.0880663439714168
 40
0.1258663548219043
 40
0.1545361786951687
 40
0.1972635113751465
 40
0.2185774264758751
 40
0.2505499734499138
 40
0.2790323571745755
 40
0.3220275475257124
 40
0.3436168159336463
 40
0.3758133620275749
 40
0.404289809506831
 40
0.4468993710431156
 40
0.468210972392158
 40
0.5002437124696447
 40
0.5288533887317777
 40
0.5719828275869667
 40
0.5934420637179458
 40
0.6254916984483699
 40
0.6539107272569499
 40
0.6965262692674994
 40
0.7178823906336999
 40
0.7500313093276819
 40
0.7787800102949101
 40
0.8217645159398103
 40
0.8431483194632992
 40
0.8751517844153629
 40
0.9000181010942334
 40
0.9373587731677226
 40
0.9685909586685477
 40
1.0
 40
1.0
 40
1.0
 40
1.0
 10
3.949999999998899
 20
-30.22558142012364
 30
0.0
 10
3.947274304054421
 20
-30.22556434752346
 30
0.0
 10
3.940467559136407
 20
-30.22552171296815
 30
0.0
 10
3.926878079312829
 20
-30.22500449703394
 30
0.0
 10
3.910614550228689
 20
-30.22373214657328
 30
0.0
 10
3.89037736176355
 20
-30.22117483723317
 30
0.0
 10
3.870876571852047
 20
-30.21766990056472
 30
0.0
 10
3.847909402640806
 20
-30.21222207486607
 30
0.0
 10
3.828703761990057
 20
-30.20644931168604
 30
0.0
 10
3.809172441364903
 20
-30.19943885792489
 30
0.0
 10
3.792810014292172
 20
-30.19274290251866
 30
0.0
 10
3.772556787560222
 20
-30.18326307338683
 30
0.0
 10
3.754852229733846
 20
-30.17368149207815
 30
0.0
 10
3.737001129755918
 20
-30.16277896347313
 30
0.0
 10
3.722237930658983
 20
-30.15285978974809
 30
0.0
 10
3.704336292931792
 20
-30.13951958199216
 30
0.0
 10
3.689010882644311
 20
-30.12669241146887
 30
0.0
 10
3.673804931859079
 20
-30.11259090121807
 30
0.0
 10
3.661328526176205
 20
-30.10000934793183
 30
0.0
 10
3.64631136763835
 20
-30.08334675455453
 30
0.0
 10
3.633674708738405
 20
-30.0676414670618
 30
0.0
 10
3.621410566074526
 20
-30.05073531891782
 30
0.0
 10
3.611611223628936
 20
-30.03598007668936
 30
0.0
 10
3.600156512781671
 20
-30.01686769647027
 30
0.0
 10
3.590829750079544
 20
-29.9991957499668
 30
0.0
 10
3.582035812874654
 20
-29.98037484052064
 30
0.0
 10
3.575165778815601
 20
-29.96397246361067
 30
0.0
 10
3.567449829656524
 20
-29.9428852210927
 30
0.0
 10
3.561558066370693
 20
-29.92362739013729
 30
0.0
 10
3.556428567390843
 20
-29.90344062128828
 30
0.0
 10
3.55291898159564
 20
-29.88689085311455
 30
0.0
 10
3.549536425733843
 20
-29.86681061568513
 30
0.0
 10
3.547124737183369
 20
-29.84675343612379
 30
0.0
 10
3.545564419127054
 20
-29.82519260420115
 30
0.0
 10
3.54538272675127
 20
-29.81165457437737
 30
0.0
 10
3.545291624076088
 20
-29.8048664484133
 30
0.0
  0
SPLINE
  5
247
330
1F
100
AcDbEntity
  8
SK3
  6
SLD-Dashed
370
    18
100
AcDbSpline
210
0.0
220
0.0
230
1.0
 70
     8
 71
     3
 72
    40
 73
    36
 74
     0
 42
0.000000001
 43
0.00000001
 40
0.0
 40
0.0
 40
0.0
 40
0.0
 40
0.0314214559572227
 40
0.0627294389671943
 40
0.0877405066521885
 40
0.125275232669724
 40
0.1539551384600139
 40
0.1970430837597965
 40
0.2184753360378567
 40
0.2505176110611755
 40
0.2789492345937477
 40
0.3216198597593979
 40
0.3430128235413608
 40
0.3752634384750789
 40
0.4040010771804361
 40
0.4468656794915655
 40
0.4682159459362438
 40
0.5002096454815023
 40
0.5286754137344519
 40
0.5715400247765465
 40
0.5931009716299148
 40
0.6253883780511632
 40
0.6539191343952845
 40
0.696591424456682
 40
0.7179237821488482
 40
0.749974649427047
 40
0.7785976316863411
 40
0.795854339812784
 40
0.8217160693566484
 40
0.8431552865480455
 40
0.8751886732441913
 40
0.9000580147531466
 40
0.9373794059838183
 40
0.9685930788650419
 40
0.9999999999999999
 40
0.9999999999999999
 40
0.9999999999999999
 40
0.9999999999999999
 10
18.70461115500191
 20
-29.80485527419843
 30
0.0
 10
18.7045198028635
 20
-29.8116444052055
 30
0.0
 10
18.70433742848851
 20
-29.8251981494918
 30
0.0
 10
18.702967285952
 20
-29.84411564286005
 30
0.0
 10
18.70072137877138
 20
-29.86427043795472
 30
0.0
 10
18.69761618492965
 20
-29.88374590039357
 30
0.0
 10
18.69275878580928
 20
-29.9068611179157
 30
0.0
 10
18.68756401153334
 20
-29.92633239392294
 30
0.0
 10
18.68121966076008
 20
-29.94620899181278
 30
0.0
 10
18.67516357609366
 20
-29.96284451017635
 30
0.0
 10
18.66659391017355
 20
-29.98342104192523
 30
0.0
 10
18.65792216957784
 20
-30.00144320562836
 30
0.0
 10
18.6479975993526
 20
-30.0197353213057
 30
0.0
 10
18.63887055578689
 20
-30.0350249959246
 30
0.0
 10
18.62647938435721
 20
-30.05373739732939
 30
0.0
 10
18.6144741828887
 20
-30.06985792745574
 30
0.0
 10
18.60124205632122
 20
-30.08589113399748
 30
0.0
 10
18.5894286068268
 20
-30.0990495541836
 30
0.0
 10
18.5737404319144
 20
-30.11493869793076
 30
0.0
 10
18.55884768057942
 20
-30.12841850147779
 30
0.0
 10
18.54265426161455
 20
-30.14162746302956
 30
0.0
 10
18.528388002928
 20
-30.15228399886078
 30
0.0
 10
18.50983571493522
 20
-30.16477481501637
 30
0.0
 10
18.49262445031482
 20
-30.1749829125769
 30
0.0
 10
18.47424607318984
 20
-30.18462804605512
 30
0.0
 10
18.45820753870475
 20
-30.19217667946483
 30
0.0
 10
18.44263074348684
 20
-30.19858412922859
 30
0.0
 10
18.42808324373879
 20
-30.20393768674265
 30
0.0
 10
18.41482664955693
 20
-30.20828861199142
 30
0.0
 10
18.39834274985589
 20
-30.21299666641595
 30
0.0
 10
18.38186940102374
 20
-30.21692139734205
 30
0.0
 10
18.36186218647021
 20
-30.22070805123953
 30
0.0
 10
18.34185224742002
 20
-30.22341140280932
 30
0.0
 10
18.32031695323611
 20
-30.22516290854395
 30
0.0
 10
18.30678623642201
 20
-30.22536701808555
 30
0.0
 10
18.29999999999998
 20
-30.22546938779917
 30
0.0
  0
SPLINE
  5
248
330
1F
100
AcDbEntity
  8
SK3
  6
SLD-Dashed
370
    18
100
AcDbSpline
210
0.0
220
0.0
230
1.0
 70
     8
 71
     3
 72
    40
 73
    36
 74
     0
 42
0.000000001
 43
0.00000001
 40
0.0
 40
0.0
 40
0.0
 40
0.0
 40
0.0125929119920853
 40
0.0314096195346373
 40
0.0626234169499198
 40
0.0875147363747587
 40
0.124814412830725
 40
0.1532834083387407
 40
0.1962265830891685
 40
0.2178107992109856
 40
0.2500224951329321
 40
0.2785169301552057
 40
0.3211718523043689
 40
0.3425182663517161
 40
0.3746092478105291
 40
0.4033018002026093
 40
0.4463503818994342
 40
0.4677602234265854
 40
0.4997883410590171
 40
0.5282270395863745
 40
0.5709521530205331
 40
0.5924138618617291
 40
0.6247350591047612
 40
0.6534144483970801
 40
0.6961683199419044
 40
0.7174969314503464
 40
0.7494813527194152
 40
0.7779588669976988
 40
0.8208766717687367
 40
0.8424514691504715
 40
0.874724282179473
 40
0.8997563983109313
 40
0.9372703102803501
 40
0.968578418532575
 40
0.9999999999999999
 40
0.9999999999999999
 40
0.9999999999999999
 40
0.9999999999999999
 10
18.29999999999998
 20
30.2255814201264
 30
0.0
 10
18.30272136951242
 20
30.22556441746849
 30
0.0
 10
18.30950909113324
 20
30.22552200892816
 30
0.0
 10
18.32303491151127
 20
30.22500878447087
 30
0.0
 10
18.33918410220825
 20
30.22374990827885
 30
0.0
 10
18.35921637335283
 20
30.2212337488884
 30
0.0
 10
18.37851743465276
 20
30.21779055348817
 30
0.0
 10
18.40139259411768
 20
30.21241015713829
 30
0.0
 10
18.42066868063111
 20
30.20665667098936
 30
0.0
 10
18.44035778154607
 20
30.1996216006493
 30
0.0
 10
18.4568321931845
 20
30.19290122073895
 30
0.0
 10
18.4770755177018
 20
30.18344563237709
 30
0.0
 10
18.49468238340834
 20
30.17394373601334
 30
0.0
 10
18.51242282863929
 20
30.1631457547134
 30
0.0
 10
18.52718102114115
 20
30.15327064640552
 30
0.0
 10
18.54520190007996
 20
30.13989144466214
 30
0.0
 10
18.56066753372126
 20
30.12697740010819
 30
0.0
 10
18.57597030022934
 20
30.11281096127928
 30
0.0
 10
18.58844277986743
 20
30.10024903998077
 30
0.0
 10
18.60339048841031
 20
30.08369276015745
 30
0.0
 10
18.61596948562732
 20
30.06810049270645
 30
0.0
 10
18.62824307125507
 20
30.05123600708182
 30
0.0
 10
18.63812738344197
 20
30.03639837328908
 30
0.0
 10
18.64967535556758
 20
30.01717281850425
 30
0.0
 10
18.65905060754957
 20
29.99943559548714
 30
0.0
 10
18.66785100498266
 20
29.98063051707892
 30
0.0
 10
18.67469312836914
 20
29.96432508828282
 30
0.0
 10
18.68239354934311
 20
29.94334796470476
 30
0.0
 10
18.68830098830934
 20
29.92412819400953
 30
0.0
 10
18.69347515991062
 20
29.90386495846921
 30
0.0
 10
18.69702701390044
 20
29.88718562683121
 30
0.0
 10
18.70044011360974
 20
29.86697716337641
 30
0.0
 10
18.70287111134991
 20
29.84683182165026
 30
0.0
 10
18.70443405316871
 20
29.82521437831679
 30
0.0
 10
18.70461682479815
 20
29.81165726630968
 30
0.0
 10
18.70470837592283
 20
29.80486644841631
 30
0.0
  0
SPLINE
  5
249
330
1F
100
AcDbEntity
  8
SK3
  6
SLD-Dashed
370
    18
100
AcDbSpline
210
0.0
220
0.0
230
1.0
 70
     8
 71
     3
 72
    39
 73
    35
 74
     0
 42
0.000000001
 43
0.00000001
 40
0.0
 40
0.0
 40
0.0
 40
0.0
 40
0.0314091160307674
 40
0.0626413758641538
 40
0.0875470935131885
 40
0.1248485138287456
 40
0.1532930400450731
 40
0.1960941157944613
 40
0.2176225947738233
 40
0.2499693772004398
 40
0.2785546285585068
 40
0.3212364873026817
 40
0.3425405354923858
 40
0.3745092858974068
 40
0.4029918411019298
 40
0.4459785689856149
 40
0.4675618916159466
 40
0.4997576608210499
 40
0.5282368343000431
 40
0.5708480092884092
 40
0.5921584935845995
 40
0.6241883328452476
 40
0.6527986190299354
 40
0.6959401501309849
 40
0.7174023419155745
 40
0.7494519752642005
 40
0.7778741158300017
 40
0.8205144520917228
 40
0.8418962920619149
 40
0.8741359236783777
 40
0.8993502252909598
 40
0.9370840470446206
 40
0.9685048711195197
 40
1.0
 40
1.0
 40
1.0
 40
1.0
 10
3.545388844997949
 20
29.80485527419824
 30
0.0
 10
3.545479748550551
 20
29.81164171345381
 30
0.0
 10
3.545661043802571
 20
29.82517637936963
 30
0.0
 10
3.547029433803313
 20
29.8440519046571
 30
0.0
 10
3.549258968233792
 20
29.86411824570155
 30
0.0
 10
3.55233622485749
 20
29.88347227622577
 30
0.0
 10
3.557141779746733
 20
29.90643124843555
 30
0.0
 10
3.562288225622179
 20
29.92581971282422
 30
0.0
 10
3.568614089357694
 20
29.94572790966324
 30
0.0
 10
3.574692956926385
 20
29.96248267210256
 30
0.0
 10
3.583287776048087
 20
29.98315850998391
 30
0.0
 10
3.591955015312227
 20
30.00120090567659
 30
0.0
 10
3.601831018727613
 20
30.01943081107644
 30
0.0
 10
3.610874012133402
 20
30.0346127810822
 30
0.0
 10
3.623189627258727
 20
30.05326734966759
 30
0.0
 10
3.635184378154324
 20
30.06942261759874
 30
0.0
 10
3.648473969075872
 20
30.08556438898106
 30
0.0
 10
3.660340157340331
 20
30.09880574838225
 30
0.0
 10
3.676012531497197
 20
30.11469877887866
 30
0.0
 10
3.690813818886902
 20
30.12812096686806
 30
0.0
 10
3.706862089264378
 20
30.14124723286361
 30
0.0
 10
3.721035740664443
 20
30.1518724598908
 30
0.0
 10
3.739615920455532
 20
30.16443427377511
 30
0.0
 10
3.756939716856893
 20
30.17474090541241
 30
0.0
 10
3.775422312926226
 20
30.18446497823752
 30
0.0
 10
3.791441042936008
 20
30.19201976729599
 30
0.0
 10
3.812039955628066
 20
30.20051935318394
 30
0.0
 10
3.830933874073405
 20
30.20705284128369
 30
0.0
 10
3.850922478500704
 20
30.21280585013022
 30
0.0
 10
3.867492347984363
 20
30.21678677988682
 30
0.0
 10
3.887698638249892
 20
30.22064109222352
 30
0.0
 10
3.907913014965708
 20
30.22338985618055
 30
0.0
 10
3.929600305356953
 20
30.22516034748684
 30
0.0
 10
3.943194750029189
 20
30.22536629328651
 30
0.0
 10
3.949999999999954
 20
30.22546938779909
 30
0.0
  0
SPLINE
  5
24A
330
1F
100
AcDbEntity
  8
SK3
  6
SLD-Dashed
370
    18
100
AcDbSpline
210
0.0
220
0.0
230
1.0
 70
     8
 71
     3
 72
    30
 73
    26
 74
     0
 42
0.000000001
 43
0.00000001
 40
0.499999999999999
 40
0.499999999999999
 40
0.499999999999999
 40
0.499999999999999
 40
0.515624999999999
 40
0.515624999999999
 40
0.531249999999999
 40
0.531249999999999
 40
0.562499999999999
 40
0.562499999999999
 40
0.5937499999999989
 40
0.5937499999999989
 40
0.6249999999999989
 40
0.6249999999999989
 40
0.6562499999999989
 40
0.6562499999999989
 40
0.687499999999999
 40
0.687499999999999
 40
0.7499999999999992
 40
0.7499999999999992
 40
0.8124999999999994
 40
0.8124999999999994
 40
0.8749999999999997
 40
0.8749999999999997
 40
0.9374999999999999
 40
0.9374999999999999
 40
1.0
 40
1.0
 40
1.0
 40
1.0
 10
-7.130385535502964
 20
2.726928447504516
 30
0.0
 10
-7.091565328725541
 20
2.666868385789611
 30
0.0
 10
-7.059371855724208
 20
2.602577256975755
 30
0.0
 10
-7.014104236643337
 20
2.468425043763087
 30
0.0
 10
-7.000818565713093
 20
2.396875365810728
 30
0.0
 10
-6.99514213286348
 20
2.183866409049245
 30
0.0
 10
-7.037462789704241
 20
2.039928456941613
 30
0.0
 10
-7.184117636945111
 20
1.781174373633405
 30
0.0
 10
-7.282724056110037
 20
1.669221024700518
 30
0.0
 10
-7.506375142314753
 20
1.467368530428385
 30
0.0
 10
-7.628403352372762
 20
1.38060452658801
 30
0.0
 10
-7.88515971643948
 20
1.22490963544708
 30
0.0
 10
-8.02091584980745
 20
1.155899322658006
 30
0.0
 10
-8.296940565859973
 20
1.034507561367457
 30
0.0
 10
-8.437505299386528
 20
0.9818888199347592
 30
0.0
 10
-8.865426249831
 20
0.8438946136504686
 30
0.0
 10
-9.160025934781519
 20
0.7777798566097338
 30
0.0
 10
-9.759300630986054
 20
0.6948297872872988
 30
0.0
 10
-10.05887757575709
 20
0.6786090109618809
 30
0.0
 10
-10.65789708991581
 20
0.7024792048694606
 30
0.0
 10
-10.96115100168975
 20
0.7433267009037612
 30
0.0
 10
-11.54356311741772
 20
0.9014738617484086
 30
0.0
 10
-11.82806349824408
 20
1.020412305093615
 30
0.0
 10
-12.32258593429082
 20
1.360038701097479
 30
0.0
 10
-12.5368490887702
 20
1.585880166728983
 30
0.0
 10
-12.65568915903846
 20
1.858705066261124
 30
0.0
  0
SPLINE
  5
24B
330
1F
100
AcDbEntity
  8
SK3
  6
SLD-Dashed
370
    18
100
AcDbSpline
210
0.0
220
0.0
230
1.0
 70
     8
 71
     3
 72
    30
 73
    26
 74
     0
 42
0.000000001
 43
0.00000001
 40
0.0
 40
0.0
 40
0.0
 40
0.0
 40
0.0312499999999998
 40
0.0312499999999998
 40
0.0624999999999997
 40
0.0624999999999997
 40
0.0937499999999995
 40
0.0937499999999995
 40
0.1249999999999993
 40
0.1249999999999993
 40
0.1562499999999992
 40
0.1562499999999992
 40
0.187499999999999
 40
0.187499999999999
 40
0.249999999999999
 40
0.249999999999999
 40
0.312499999999999
 40
0.312499999999999
 40
0.374999999999999
 40
0.374999999999999
 40
0.437499999999999
 40
0.437499999999999
 40
0.468749999999999
 40
0.468749999999999
 40
0.499999999999999
 40
0.499999999999999
 40
0.499999999999999
 40
0.499999999999999
 10
-12.65568915903845
 20
1.858705066261124
 30
0.0
 10
-12.71510919417258
 20
1.995117516027198
 30
0.0
 10
-12.74826198958907
 20
2.138112823601567
 30
0.0
 10
-12.7552316239915
 20
2.425858483020737
 30
0.0
 10
-12.72851791776375
 20
2.56744855126937
 30
0.0
 10
-12.62270728825683
 20
2.829503850906808
 30
0.0
 10
-12.54353473506772
 20
2.950153299185541
 30
0.0
 10
-12.35264830277792
 20
3.160486576587664
 30
0.0
 10
-12.23998994677655
 20
3.252011365177943
 30
0.0
 10
-11.99453856711719
 20
3.409021016471843
 30
0.0
 10
-11.8636137381386
 20
3.473744340647226
 30
0.0
 10
-11.58924282018656
 20
3.583031099091027
 30
0.0
 10
-11.44491790526635
 20
3.627567891488916
 30
0.0
 10
-11.00910445491768
 20
3.733534481724817
 30
0.0
 10
-10.71099263421837
 20
3.770047281286319
 30
0.0
 10
-10.10380298123988
 20
3.795540400492694
 30
0.0
 10
-9.802499602048417
 20
3.783788809939181
 30
0.0
 10
-9.207684971247604
 20
3.719300812385293
 30
0.0
 10
-8.912696864683378
 20
3.666481952286207
 30
0.0
 10
-8.333042918766312
 20
3.511783480193868
 30
0.0
 10
-8.052854653494062
 20
3.412126376045717
 30
0.0
 10
-7.661345687756338
 20
3.207147674527393
 30
0.0
 10
-7.537660551476935
 20
3.130372193209233
 30
0.0
 10
-7.311018900727606
 20
2.950419125890634
 30
0.0
 10
-7.208025949057811
 20
2.847048570934305
 30
0.0
 10
-7.130385535502964
 20
2.726928447504516
 30
0.0
  0
SPLINE
  5
24C
330
1F
100
AcDbEntity
  8
SK3
  6
SLD-Dashed
370
    18
100
AcDbSpline
210
0.0
220
0.0
230
1.0
 70
     8
 71
     2
 72
     6
 73
     3
 74
     0
 42
0.000000001
 43
0.00000001
 40
0.0
 40
0.0
 40
0.0
 40
0.0312499999999998
 40
0.0312499999999998
 40
0.0312499999999998
 10
27.08909999999998
 20
-6.349999999999994
 30
0.0
 10
27.05424969112774
 20
-6.323193392518661
 30
0.0
 10
26.98711336837506
 20
-6.272220892415755
 30
0.0
  0
SPLINE
  5
24D
330
1F
100
AcDbEntity
  8
SK3
  6
SLD-Dashed
370
    18
100
AcDbSpline
210
0.0
220
0.0
230
1.0
 70
     8
 71
     3
 72
     8
 73
     4
 74
     0
 42
0.000000001
 43
0.00000001
 40
0.0312499999999998
 40
0.0312499999999998
 40
0.0312499999999998
 40
0.0312499999999998
 40
0.0624999999999996
 40
0.0624999999999996
 40
0.0624999999999996
 40
0.0624999999999996
 10
26.98711336837506
 20
-6.272220892415755
 30
0.0
 10
26.91997704562238
 20
-6.221248392312854
 30
0.0
 10
26.81901502650263
 20
-6.144973574219788
 30
0.0
 10
26.69231041711156
 20
-6.051437312972308
 30
0.0
  0
SPLINE
  5
24E
330
1F
100
AcDbEntity
  8
SK3
  6
SLD-Dashed
370
    18
100
AcDbSpline
210
0.0
220
0.0
230
1.0
 70
     8
 71
     3
 72
     8
 73
     4
 74
     0
 42
0.000000001
 43
0.00000001
 40
0.0624999999999996
 40
0.0624999999999996
 40
0.0624999999999996
 40
0.0624999999999996
 40
0.0937499999999994
 40
0.0937499999999994
 40
0.0937499999999994
 40
0.0937499999999994
 10
26.69231041711156
 20
-6.051437312972308
 30
0.0
 10
26.56560580772047
 20
-5.957901051724834
 30
0.0
 10
26.41121877359329
 20
-5.845644976662678
 30
0.0
 10
26.23450589765586
 20
-5.721815160710547
 30
0.0
  0
SPLINE
  5
24F
330
1F
100
AcDbEntity
  8
SK3
  6
SLD-Dashed
370
    18
100
AcDbSpline
210
0.0
220
0.0
230
1.0
 70
     8
 71
     3
 72
     8
 73
     4
 74
     0
 42
0.000000001
 43
0.00000001
 40
0.0937499999999994
 40
0.0937499999999994
 40
0.0937499999999994
 40
0.0937499999999994
 40
0.1249999999999993
 40
0.1249999999999993
 40
0.1249999999999993
 40
0.1249999999999993
 10
26.23450589765586
 20
-5.721815160710547
 30
0.0
 10
26.05779302171837
 20
-5.597985344758402
 30
0.0
 10
25.86102140671279
 20
-5.464075548148338
 30
0.0
 10
25.64445417994593
 20
-5.325006861850001
 30
0.0
  0
SPLINE
  5
250
330
1F
100
AcDbEntity
  8
SK3
  6
SLD-Dashed
370
    18
100
AcDbSpline
210
0.0
220
0.0
230
1.0
 70
     8
 71
     3
 72
     8
 73
     4
 74
     0
 42
0.000000001
 43
0.00000001
 40
0.1249999999999993
 40
0.1249999999999993
 40
0.1249999999999993
 40
0.1249999999999993
 40
0.1562499999999991
 40
0.1562499999999991
 40
0.1562499999999991
 40
0.1562499999999991
 10
25.64445417994593
 20
-5.325006861850001
 30
0.0
 10
25.4278869531791
 20
-5.185938175551665
 30
0.0
 10
25.19085193897566
 20
-5.041388969144759
 30
0.0
 10
24.93977956505922
 20
-4.902352422752054
 30
0.0
  0
SPLINE
  5
251
330
1F
100
AcDbEntity
  8
SK3
  6
SLD-Dashed
370
    18
100
AcDbSpline
210
0.0
220
0.0
230
1.0
 70
     8
 71
     3
 72
     8
 73
     4
 74
     0
 42
0.000000001
 43
0.00000001
 40
0.1562499999999991
 40
0.1562499999999991
 40
0.1562499999999991
 40
0.1562499999999991
 40
0.1874999999999989
 40
0.1874999999999989
 40
0.1874999999999989
 40
0.1874999999999989
 10
24.93977956505922
 20
-4.902352422752054
 30
0.0
 10
24.68870719114274
 20
-4.763315876359364
 30
0.0
 10
24.42197002906082
 20
-4.628388880184859
 30
0.0
 10
24.13466033569517
 20
-4.506643294928864
 30
0.0
  0
SPLINE
  5
252
330
1F
100
AcDbEntity
  8
SK3
  6
SLD-Dashed
370
    18
100
AcDbSpline
210
0.0
220
0.0
230
1.0
 70
     8
 71
     3
 72
     8
 73
     4
 74
     0
 42
0.000000001
 43
0.00000001
 40
0.1874999999999989
 40
0.1874999999999989
 40
0.1874999999999989
 40
0.1874999999999989
 40
0.2031249999999989
 40
0.2031249999999989
 40
0.2031249999999989
 40
0.2031249999999989
 10
24.13466033569517
 20
-4.506643294928864
 30
0.0
 10
23.99100548901234
 20
-4.445770502300863
 30
0.0
 10
23.84147753510954
 20
-4.388110015743019
 30
0.0
 10
23.6892871739505
 20
-4.336723200504704
 30
0.0
  0
SPLINE
  5
253
330
1F
100
AcDbEntity
  8
SK3
  6
SLD-Dashed
370
    18
100
AcDbSpline
210
0.0
220
0.0
230
1.0
 70
     8
 71
     3
 72
     8
 73
     4
 74
     0
 42
0.000000001
 43
0.00000001
 40
0.2031249999999989
 40
0.2031249999999989
 40
0.2031249999999989
 40
0.2031249999999989
 40
0.2187499999999989
 40
0.2187499999999989
 40
0.2187499999999989
 40
0.2187499999999989
 10
23.6892871739505
 20
-4.336723200504704
 30
0.0
 10
23.53709681279148
 20
-4.285336385266396
 30
0.0
 10
23.38157542007258
 20
-4.239896757954297
 30
0.0
 10
23.22218905445819
 20
-4.202072964660554
 30
0.0
  0
SPLINE
  5
254
330
1F
100
AcDbEntity
  8
SK3
  6
SLD-Dashed
370
    18
100
AcDbSpline
210
0.0
220
0.0
230
1.0
 70
     8
 71
     3
 72
     8
 73
     4
 74
     0
 42
0.000000001
 43
0.00000001
 40
0.2187499999999989
 40
0.2187499999999989
 40
0.2187499999999989
 40
0.2187499999999989
 40
0.2499999999999986
 40
0.2499999999999986
 40
0.2499999999999986
 40
0.2499999999999986
 10
23.22218905445819
 20
-4.202072964660554
 30
0.0
 10
22.90341632322945
 20
-4.126425378073069
 30
0.0
 10
22.56533902652463
 20
-4.082680365998368
 30
0.0
 10
22.2327983889177
 20
-4.082045076290744
 30
0.0
  0
SPLINE
  5
255
330
1F
100
AcDbEntity
  8
SK3
  6
SLD-Dashed
370
    18
100
AcDbSpline
210
0.0
220
0.0
230
1.0
 70
     8
 71
     3
 72
     8
 73
     4
 74
     0
 42
0.000000001
 43
0.00000001
 40
0.2499999999999986
 40
0.2499999999999986
 40
0.2499999999999986
 40
0.2499999999999986
 40
0.2656249999999986
 40
0.2656249999999986
 40
0.2656249999999986
 40
0.2656249999999986
 10
22.2327983889177
 20
-4.082045076290744
 30
0.0
 10
22.06652807011422
 20
-4.081727431436935
 30
0.0
 10
21.90038773304359
 20
-4.091605659725599
 30
0.0
 10
21.73437599749714
 20
-4.111416191755792
 30
0.0
  0
SPLINE
  5
256
330
1F
100
AcDbEntity
  8
SK3
  6
SLD-Dashed
370
    18
100
AcDbSpline
210
0.0
220
0.0
230
1.0
 70
     8
 71
     3
 72
     8
 73
     4
 74
     0
 42
0.000000001
 43
0.00000001
 40
0.2656249999999986
 40
0.2656249999999986
 40
0.2656249999999986
 40
0.2656249999999986
 40
0.2812499999999987
 40
0.2812499999999987
 40
0.2812499999999987
 40
0.2812499999999987
 10
21.73437599749714
 20
-4.111416191755792
 30
0.0
 10
21.56836426195066
 20
-4.131226723785991
 30
0.0
 10
21.40292603597155
 20
-4.161082971828316
 30
0.0
 10
21.24283943394567
 20
-4.198531953851482
 30
0.0
  0
SPLINE
  5
257
330
1F
100
AcDbEntity
  8
SK3
  6
SLD-Dashed
370
    18
100
AcDbSpline
210
0.0
220
0.0
230
1.0
 70
     8
 71
     3
 72
     8
 73
     4
 74
     0
 42
0.000000001
 43
0.00000001
 40
0.2812499999999987
 40
0.2812499999999987
 40
0.2812499999999987
 40
0.2812499999999987
 40
0.3124999999999987
 40
0.3124999999999987
 40
0.3124999999999987
 40
0.3124999999999987
 10
21.24283943394567
 20
-4.198531953851482
 30
0.0
 10
20.92266622989397
 20
-4.273429917897781
 30
0.0
 10
20.61496029329274
 20
-4.380323568229164
 30
0.0
 10
20.32733983613247
 20
-4.501571424239494
 30
0.0
  0
SPLINE
  5
258
330
1F
100
AcDbEntity
  8
SK3
  6
SLD-Dashed
370
    18
100
AcDbSpline
210
0.0
220
0.0
230
1.0
 70
     8
 71
     3
 72
     8
 73
     4
 74
     0
 42
0.000000001
 43
0.00000001
 40
0.3124999999999987
 40
0.3124999999999987
 40
0.3124999999999987
 40
0.3124999999999987
 40
0.3437499999999987
 40
0.3437499999999987
 40
0.3437499999999987
 40
0.3437499999999987
 10
20.32733983613247
 20
-4.501571424239494
 30
0.0
 10
20.0397193789722
 20
-4.622819280249817
 30
0.0
 10
19.77211090266206
 20
-4.75767529464792
 30
0.0
 10
19.51983551988384
 20
-4.897034414263583
 30
0.0
  0
SPLINE
  5
259
330
1F
100
AcDbEntity
  8
SK3
  6
SLD-Dashed
370
    18
100
AcDbSpline
210
0.0
220
0.0
230
1.0
 70
     8
 71
     3
 72
     8
 73
     4
 74
     0
 42
0.000000001
 43
0.00000001
 40
0.3437499999999987
 40
0.3437499999999987
 40
0.3437499999999987
 40
0.3437499999999987
 40
0.3749999999999987
 40
0.3749999999999987
 40
0.3749999999999987
 40
0.3749999999999987
 10
19.51983551988384
 20
-4.897034414263583
 30
0.0
 10
19.26756013710559
 20
-5.036393533879253
 30
0.0
 10
19.02961786047005
 20
-5.18130752483819
 30
0.0
 10
18.81329497253229
 20
-5.320034058579705
 30
0.0
  0
SPLINE
  5
25A
330
1F
100
AcDbEntity
  8
SK3
  6
SLD-Dashed
370
    18
100
AcDbSpline
210
0.0
220
0.0
230
1.0
 70
     8
 71
     3
 72
     8
 73
     4
 74
     0
 42
0.000000001
 43
0.00000001
 40
0.3749999999999987
 40
0.3749999999999987
 40
0.3749999999999987
 40
0.3749999999999987
 40
0.4062499999999988
 40
0.4062499999999988
 40
0.4062499999999988
 40
0.4062499999999988
 10
18.81329497253229
 20
-5.320034058579705
 30
0.0
 10
18.59697208459454
 20
-5.458760592321219
 30
0.0
 10
18.40023632795204
 20
-5.592485355579761
 30
0.0
 10
18.22334784677307
 20
-5.716314472229936
 30
0.0
  0
SPLINE
  5
25B
330
1F
100
AcDbEntity
  8
SK3
  6
SLD-Dashed
370
    18
100
AcDbSpline
210
0.0
220
0.0
230
1.0
 70
     8
 71
     3
 72
     8
 73
     4
 74
     0
 42
0.000000001
 43
0.00000001
 40
0.4062499999999988
 40
0.4062499999999988
 40
0.4062499999999988
 40
0.4062499999999988
 40
0.4374999999999988
 40
0.4374999999999988
 40
0.4374999999999988
 40
0.4374999999999988
 10
18.22334784677307
 20
-5.716314472229936
 30
0.0
 10
18.0464593655941
 20
-5.840143588880125
 30
0.0
 10
17.8903299098297
 20
-5.953570769368949
 30
0.0
 10
17.7629632030212
 20
-6.047545251388578
 30
0.0
  0
SPLINE
  5
25C
330
1F
100
AcDbEntity
  8
SK3
  6
SLD-Dashed
370
    18
100
AcDbSpline
210
0.0
220
0.0
230
1.0
 70
     8
 71
     3
 72
     8
 73
     4
 74
     0
 42
0.000000001
 43
0.00000001
 40
0.4374999999999988
 40
0.4374999999999988
 40
0.4374999999999988
 40
0.4374999999999988
 40
0.4531249999999989
 40
0.4531249999999989
 40
0.4531249999999989
 40
0.4531249999999989
 10
17.7629632030212
 20
-6.047545251388578
 30
0.0
 10
17.69927984961694
 20
-6.094532492398392
 30
0.0
 10
17.64232897144199
 20
-6.137004197443209
 30
0.0
 10
17.59251902258427
 20
-6.174375368903175
 30
0.0
  0
SPLINE
  5
25D
330
1F
100
AcDbEntity
  8
SK3
  6
SLD-Dashed
370
    18
100
AcDbSpline
210
0.0
220
0.0
230
1.0
 70
     8
 71
     3
 72
     8
 73
     4
 74
     0
 42
0.000000001
 43
0.00000001
 40
0.4531249999999989
 40
0.4531249999999989
 40
0.4531249999999989
 40
0.4531249999999989
 40
0.4687499999999989
 40
0.4687499999999989
 40
0.4687499999999989
 40
0.4687499999999989
 10
17.59251902258427
 20
-6.174375368903175
 30
0.0
 10
17.54270907372654
 20
-6.211746540363141
 30
0.0
 10
17.49986508389406
 20
-6.244152105492964
 30
0.0
 10
17.46566830807306
 20
-6.270109197117686
 30
0.0
  0
SPLINE
  5
25E
330
1F
100
AcDbEntity
  8
SK3
  6
SLD-Dashed
370
    18
100
AcDbSpline
210
0.0
220
0.0
230
1.0
 70
     8
 71
     3
 72
     8
 73
     4
 74
     0
 42
0.000000001
 43
0.00000001
 40
0.4687499999999989
 40
0.4687499999999989
 40
0.4687499999999989
 40
0.4687499999999989
 40
0.4999999999999991
 40
0.4999999999999991
 40
0.4999999999999991
 40
0.4999999999999991
 10
17.46566830807306
 20
-6.270109197117686
 30
0.0
 10
17.39727475643106
 20
-6.32202338036713
 30
0.0
 10
17.36201691389941
 20
-6.349144445809508
 30
0.0
 10
17.360925839704
 20
-6.349980206808429
 30
0.0
  0
SPLINE
  5
25F
330
1F
100
AcDbEntity
  8
SK3
  6
SLD-Dashed
370
    18
100
AcDbSpline
210
0.0
220
0.0
230
1.0
 70
     8
 71
     3
 72
     8
 73
     4
 74
     0
 42
0.000000001
 43
0.00000001
 40
0.5156249999999991
 40
0.5156249999999991
 40
0.5156249999999991
 40
0.5156249999999991
 40
0.5312499999999992
 40
0.5312499999999992
 40
0.5312499999999992
 40
0.5312499999999992
 10
17.38544080281841
 20
-6.331221399779409
 30
0.0
 10
17.40223809007978
 20
-6.318381623546622
 30
0.0
 10
17.42744246878453
 20
-6.299136547680696
 30
0.0
 10
17.46069917309949
 20
-6.273881857287729
 30
0.0
  0
SPLINE
  5
260
330
1F
100
AcDbEntity
  8
SK3
  6
SLD-Dashed
370
    18
100
AcDbSpline
210
0.0
220
0.0
230
1.0
 70
     8
 71
     3
 72
     8
 73
     4
 74
     0
 42
0.000000001
 43
0.00000001
 40
0.5312499999999992
 40
0.5312499999999992
 40
0.5312499999999992
 40
0.5312499999999992
 40
0.5624999999999996
 40
0.5624999999999996
 40
0.5624999999999996
 40
0.5624999999999996
 10
17.46069917309949
 20
-6.273881857287729
 30
0.0
 10
17.52721258172947
 20
-6.223372476501808
 30
0.0
 10
17.62749498984848
 20
-6.147583367113609
 30
0.0
 10
17.75422903578971
 20
-6.05399241859663
 30
0.0
  0
SPLINE
  5
261
330
1F
100
AcDbEntity
  8
SK3
  6
SLD-Dashed
370
    18
100
AcDbSpline
210
0.0
220
0.0
230
1.0
 70
     8
 71
     3
 72
     8
 73
     4
 74
     0
 42
0.000000001
 43
0.00000001
 40
0.5624999999999996
 40
0.5624999999999996
 40
0.5624999999999996
 40
0.5624999999999996
 40
0.5937499999999998
 40
0.5937499999999998
 40
0.5937499999999998
 40
0.5937499999999998
 10
17.75422903578971
 20
-6.05399241859663
 30
0.0
 10
17.88096308173098
 20
-5.96040147007966
 30
0.0
 10
18.03434050440902
 20
-5.848820543242539
 30
0.0
 10
18.21148920949536
 20
-5.724622263127636
 30
0.0
  0
SPLINE
  5
262
330
1F
100
AcDbEntity
  8
SK3
  6
SLD-Dashed
370
    18
100
AcDbSpline
210
0.0
220
0.0
230
1.0
 70
     8
 71
     3
 72
     8
 73
     4
 74
     0
 42
0.000000001
 43
0.00000001
 40
0.5937499999999998
 40
0.5937499999999998
 40
0.5937499999999998
 40
0.5937499999999998
 40
0.625
 40
0.625
 40
0.625
 40
0.625
 10
18.21148920949536
 20
-5.724622263127636
 30
0.0
 10
18.3886379145817
 20
-5.600423983012727
 30
0.0
 10
18.58563460011744
 20
-5.466308374829324
 30
0.0
 10
18.80199254312215
 20
-5.327289295677613
 30
0.0
  0
SPLINE
  5
263
330
1F
100
AcDbEntity
  8
SK3
  6
SLD-Dashed
370
    18
100
AcDbSpline
210
0.0
220
0.0
230
1.0
 70
     8
 71
     3
 72
     8
 73
     4
 74
     0
 42
0.000000001
 43
0.00000001
 40
0.625
 40
0.625
 40
0.625
 40
0.625
 40
0.6562500000000003
 40
0.6562500000000003
 40
0.6562500000000003
 40
0.6562500000000003
 10
18.80199254312215
 20
-5.327289295677613
 30
0.0
 10
19.01835048612688
 20
-5.188270216525896
 30
0.0
 10
19.2559507733539
 20
-5.043252034668953
 30
0.0
 10
19.50763391358748
 20
-4.90378523567099
 30
0.0
  0
SPLINE
  5
264
330
1F
100
AcDbEntity
  8
SK3
  6
SLD-Dashed
370
    18
100
AcDbSpline
210
0.0
220
0.0
230
1.0
 70
     8
 71
     3
 72
     8
 73
     4
 74
     0
 42
0.000000001
 43
0.00000001
 40
0.6562500000000003
 40
0.6562500000000003
 40
0.6562500000000003
 40
0.6562500000000003
 40
0.6875000000000004
 40
0.6875000000000004
 40
0.6875000000000004
 40
0.6875000000000004
 10
19.50763391358748
 20
-4.90378523567099
 30
0.0
 10
19.75931705382106
 20
-4.764318436673028
 30
0.0
 10
20.02616286556763
 20
-4.629320205583237
 30
0.0
 10
20.31266408188997
 20
-4.50777770677456
 30
0.0
  0
SPLINE
  5
265
330
1F
100
AcDbEntity
  8
SK3
  6
SLD-Dashed
370
    18
100
AcDbSpline
210
0.0
220
0.0
230
1.0
 70
     8
 71
     3
 72
     8
 73
     4
 74
     0
 42
0.000000001
 43
0.00000001
 40
0.6875000000000004
 40
0.6875000000000004
 40
0.6875000000000004
 40
0.6875000000000004
 40
0.7187500000000006
 40
0.7187500000000006
 40
0.7187500000000006
 40
0.7187500000000006
 10
20.31266408188997
 20
-4.50777770677456
 30
0.0
 10
20.59916529821234
 20
-4.386235207965883
 30
0.0
 10
20.90777811361488
 20
-4.278084423231958
 30
0.0
 10
21.22690745230871
 20
-4.202287463246288
 30
0.0
  0
SPLINE
  5
266
330
1F
100
AcDbEntity
  8
SK3
  6
SLD-Dashed
370
    18
100
AcDbSpline
210
0.0
220
0.0
230
1.0
 70
     8
 71
     3
 72
     8
 73
     4
 74
     0
 42
0.000000001
 43
0.00000001
 40
0.7187500000000006
 40
0.7187500000000006
 40
0.7187500000000006
 40
0.7187500000000006
 40
0.7500000000000007
 40
0.7500000000000007
 40
0.7500000000000007
 40
0.7500000000000007
 10
21.22690745230871
 20
-4.202287463246288
 30
0.0
 10
21.54603679100253
 20
-4.126490503260631
 30
0.0
 10
21.88510052027373
 20
-4.082528902957558
 30
0.0
 10
22.21904788130727
 20
-4.082041966677587
 30
0.0
  0
SPLINE
  5
267
330
1F
100
AcDbEntity
  8
SK3
  6
SLD-Dashed
370
    18
100
AcDbSpline
210
0.0
220
0.0
230
1.0
 70
     8
 71
     3
 72
     8
 73
     4
 74
     0
 42
0.000000001
 43
0.00000001
 40
0.7500000000000007
 40
0.7500000000000007
 40
0.7500000000000007
 40
0.7500000000000007
 40
0.7656250000000007
 40
0.7656250000000007
 40
0.7656250000000007
 40
0.7656250000000007
 10
22.21904788130727
 20
-4.082041966677587
 30
0.0
 10
22.38602156182404
 20
-4.081798498537591
 30
0.0
 10
22.5523767442373
 20
-4.091836701125791
 30
0.0
 10
22.7181305458167
 20
-4.111716056006006
 30
0.0
  0
SPLINE
  5
268
330
1F
100
AcDbEntity
  8
SK3
  6
SLD-Dashed
370
    18
100
AcDbSpline
210
0.0
220
0.0
230
1.0
 70
     8
 71
     3
 72
     8
 73
     4
 74
     0
 42
0.000000001
 43
0.00000001
 40
0.7656250000000007
 40
0.7656250000000007
 40
0.7656250000000007
 40
0.7656250000000007
 40
0.7812500000000006
 40
0.7812500000000006
 40
0.7812500000000006
 40
0.7812500000000006
 10
22.7181305458167
 20
-4.111716056006006
 30
0.0
 10
22.88388434739608
 20
-4.131595410886223
 30
0.0
 10
23.04995326644035
 20
-4.161647356182373
 30
0.0
 10
23.21021603714657
 20
-4.199247769523836
 30
0.0
  0
SPLINE
  5
269
330
1F
100
AcDbEntity
  8
SK3
  6
SLD-Dashed
370
    18
100
AcDbSpline
210
0.0
220
0.0
230
1.0
 70
     8
 71
     3
 72
     8
 73
     4
 74
     0
 42
0.000000001
 43
0.00000001
 40
0.7812500000000006
 40
0.7812500000000006
 40
0.7812500000000006
 40
0.7812500000000006
 40
0.8125000000000004
 40
0.8125000000000004
 40
0.8125000000000004
 40
0.8125000000000004
 10
23.21021603714657
 20
-4.199247769523836
 30
0.0
 10
23.530741578559
 20
-4.274448596206757
 30
0.0
 10
23.83340578127918
 20
-4.379618041180276
 30
0.0
 10
24.12297677899575
 20
-4.50170490410104
 30
0.0
  0
SPLINE
  5
26A
330
1F
100
AcDbEntity
  8
SK3
  6
SLD-Dashed
370
    18
100
AcDbSpline
210
0.0
220
0.0
230
1.0
 70
     8
 71
     3
 72
     8
 73
     4
 74
     0
 42
0.000000001
 43
0.00000001
 40
0.8125000000000004
 40
0.8125000000000004
 40
0.8125000000000004
 40
0.8125000000000004
 40
0.8437500000000003
 40
0.8437500000000003
 40
0.8437500000000003
 40
0.8437500000000003
 10
24.12297677899575
 20
-4.50170490410104
 30
0.0
 10
24.41254777671234
 20
-4.623791767021795
 30
0.0
 10
24.68204636842736
 20
-4.759851519138637
 30
0.0
 10
24.93355994239158
 20
-4.898910914838975
 30
0.0
  0
SPLINE
  5
26B
330
1F
100
AcDbEntity
  8
SK3
  6
SLD-Dashed
370
    18
100
AcDbSpline
210
0.0
220
0.0
230
1.0
 70
     8
 71
     3
 72
     8
 73
     4
 74
     0
 42
0.000000001
 43
0.00000001
 40
0.8437500000000003
 40
0.8437500000000003
 40
0.8437500000000003
 40
0.8437500000000003
 40
0.8750000000000003
 40
0.8750000000000003
 40
0.8750000000000003
 40
0.8750000000000003
 10
24.93355994239158
 20
-4.898910914838975
 30
0.0
 10
25.18507351635579
 20
-5.037970310539305
 30
0.0
 10
25.42017750613027
 20
-5.181130167142757
 30
0.0
 10
25.63862223405955
 20
-5.321263754679507
 30
0.0
  0
SPLINE
  5
26C
330
1F
100
AcDbEntity
  8
SK3
  6
SLD-Dashed
370
    18
100
AcDbSpline
210
0.0
220
0.0
230
1.0
 70
     8
 71
     3
 72
     8
 73
     4
 74
     0
 42
0.000000001
 43
0.00000001
 40
0.8750000000000003
 40
0.8750000000000003
 40
0.8750000000000003
 40
0.8750000000000003
 40
0.9062500000000002
 40
0.9062500000000002
 40
0.9062500000000002
 40
0.9062500000000002
 10
25.63862223405955
 20
-5.321263754679507
 30
0.0
 10
25.85706696198883
 20
-5.461397342216255
 30
0.0
 10
26.05363949671169
 20
-5.595162002578778
 30
0.0
 10
26.22900770197864
 20
-5.717963699386742
 30
0.0
  0
SPLINE
  5
26D
330
1F
100
AcDbEntity
  8
SK3
  6
SLD-Dashed
370
    18
100
AcDbSpline
210
0.0
220
0.0
230
1.0
 70
     8
 71
     3
 72
     8
 73
     4
 74
     0
 42
0.000000001
 43
0.00000001
 40
0.9062500000000002
 40
0.9062500000000002
 40
0.9062500000000002
 40
0.9062500000000002
 40
0.9375000000000001
 40
0.9375000000000001
 40
0.9375000000000001
 40
0.9375000000000001
 10
26.22900770197864
 20
-5.717963699386742
 30
0.0
 10
26.40437590724557
 20
-5.840765396194693
 30
0.0
 10
26.55957049680638
 20
-5.953486069573903
 30
0.0
 10
26.68819982092613
 20
-6.048403411770348
 30
0.0
  0
SPLINE
  5
26E
330
1F
100
AcDbEntity
  8
SK3
  6
SLD-Dashed
370
    18
100
AcDbSpline
210
0.0
220
0.0
230
1.0
 70
     8
 71
     3
 72
     8
 73
     4
 74
     0
 42
0.000000001
 43
0.00000001
 40
0.9375000000000001
 40
0.9375000000000001
 40
0.9375000000000001
 40
0.9375000000000001
 40
0.9687500000000001
 40
0.9687500000000001
 40
0.9687500000000001
 40
0.9687500000000001
 10
26.68819982092613
 20
-6.048403411770348
 30
0.0
 10
26.81682914504588
 20
-6.143320753966785
 30
0.0
 10
26.91639646313887
 20
-6.218540952516408
 30
0.0
 10
26.98475540413586
 20
-6.270430822296093
 30
0.0
  0
SPLINE
  5
26F
330
1F
100
AcDbEntity
  8
SK3
  6
SLD-Dashed
370
    18
100
AcDbSpline
210
0.0
220
0.0
230
1.0
 70
     8
 71
     2
 72
     6
 73
     3
 74
     0
 42
0.000000001
 43
0.00000001
 40
0.9687500000000001
 40
0.9687500000000001
 40
0.9687500000000001
 40
1.0
 40
1.0
 40
1.0
 10
26.98475540413586
 20
-6.270430822296093
 30
0.0
 10
27.05311434513285
 20
-6.322320692075757
 30
0.0
 10
27.08909999999998
 20
-6.349999999999994
 30
0.0
  0
SPLINE
  5
270
330
1F
100
AcDbEntity
  8
SK3
  6
SLD-Dashed
370
    18
100
AcDbSpline
210
0.0
220
0.0
230
1.0
 70
     8
 71
     2
 72
     6
 73
     3
 74
     0
 42
0.000000001
 43
0.00000001
 40
0.0
 40
0.0
 40
0.0
 40
0.0312499999999998
 40
0.0312499999999998
 40
0.0312499999999998
 10
27.08909999999998
 20
-6.349999999999994
 30
0.0
 10
27.05424969112774
 20
-6.323193392518661
 30
0.0
 10
26.98711336837506
 20
-6.272220892415755
 30
0.0
  0
SPLINE
  5
271
330
1F
100
AcDbEntity
  8
SK3
  6
SLD-Dashed
370
    18
100
AcDbSpline
210
0.0
220
0.0
230
1.0
 70
     8
 71
     3
 72
     8
 73
     4
 74
     0
 42
0.000000001
 43
0.00000001
 40
0.0312499999999998
 40
0.0312499999999998
 40
0.0312499999999998
 40
0.0312499999999998
 40
0.0624999999999996
 40
0.0624999999999996
 40
0.0624999999999996
 40
0.0624999999999996
 10
26.98711336837506
 20
-6.272220892415755
 30
0.0
 10
26.91997704562238
 20
-6.221248392312854
 30
0.0
 10
26.81901502650263
 20
-6.144973574219788
 30
0.0
 10
26.69231041711156
 20
-6.051437312972308
 30
0.0
  0
SPLINE
  5
272
330
1F
100
AcDbEntity
  8
SK3
  6
SLD-Dashed
370
    18
100
AcDbSpline
210
0.0
220
0.0
230
1.0
 70
     8
 71
     3
 72
     8
 73
     4
 74
     0
 42
0.000000001
 43
0.00000001
 40
0.0624999999999996
 40
0.0624999999999996
 40
0.0624999999999996
 40
0.0624999999999996
 40
0.0937499999999994
 40
0.0937499999999994
 40
0.0937499999999994
 40
0.0937499999999994
 10
26.69231041711156
 20
-6.051437312972308
 30
0.0
 10
26.56560580772047
 20
-5.957901051724834
 30
0.0
 10
26.41121877359329
 20
-5.845644976662678
 30
0.0
 10
26.23450589765586
 20
-5.721815160710547
 30
0.0
  0
SPLINE
  5
273
330
1F
100
AcDbEntity
  8
SK3
  6
SLD-Dashed
370
    18
100
AcDbSpline
210
0.0
220
0.0
230
1.0
 70
     8
 71
     3
 72
     8
 73
     4
 74
     0
 42
0.000000001
 43
0.00000001
 40
0.0937499999999994
 40
0.0937499999999994
 40
0.0937499999999994
 40
0.0937499999999994
 40
0.1249999999999993
 40
0.1249999999999993
 40
0.1249999999999993
 40
0.1249999999999993
 10
26.23450589765586
 20
-5.721815160710547
 30
0.0
 10
26.05779302171837
 20
-5.597985344758402
 30
0.0
 10
25.86102140671279
 20
-5.464075548148338
 30
0.0
 10
25.64445417994593
 20
-5.325006861850001
 30
0.0
  0
SPLINE
  5
274
330
1F
100
AcDbEntity
  8
SK3
  6
SLD-Dashed
370
    18
100
AcDbSpline
210
0.0
220
0.0
230
1.0
 70
     8
 71
     3
 72
     8
 73
     4
 74
     0
 42
0.000000001
 43
0.00000001
 40
0.1249999999999993
 40
0.1249999999999993
 40
0.1249999999999993
 40
0.1249999999999993
 40
0.1562499999999991
 40
0.1562499999999991
 40
0.1562499999999991
 40
0.1562499999999991
 10
25.64445417994593
 20
-5.325006861850001
 30
0.0
 10
25.4278869531791
 20
-5.185938175551665
 30
0.0
 10
25.19085193897566
 20
-5.041388969144759
 30
0.0
 10
24.93977956505922
 20
-4.902352422752054
 30
0.0
  0
SPLINE
  5
275
330
1F
100
AcDbEntity
  8
SK3
  6
SLD-Dashed
370
    18
100
AcDbSpline
210
0.0
220
0.0
230
1.0
 70
     8
 71
     3
 72
     8
 73
     4
 74
     0
 42
0.000000001
 43
0.00000001
 40
0.1562499999999991
 40
0.1562499999999991
 40
0.1562499999999991
 40
0.1562499999999991
 40
0.1874999999999989
 40
0.1874999999999989
 40
0.1874999999999989
 40
0.1874999999999989
 10
24.93977956505922
 20
-4.902352422752054
 30
0.0
 10
24.68870719114274
 20
-4.763315876359364
 30
0.0
 10
24.42197002906082
 20
-4.628388880184859
 30
0.0
 10
24.13466033569517
 20
-4.506643294928864
 30
0.0
  0
SPLINE
  5
276
330
1F
100
AcDbEntity
  8
SK3
  6
SLD-Dashed
370
    18
100
AcDbSpline
210
0.0
220
0.0
230
1.0
 70
     8
 71
     3
 72
     8
 73
     4
 74
     0
 42
0.000000001
 43
0.00000001
 40
0.1874999999999989
 40
0.1874999999999989
 40
0.1874999999999989
 40
0.1874999999999989
 40
0.2031249999999989
 40
0.2031249999999989
 40
0.2031249999999989
 40
0.2031249999999989
 10
24.13466033569517
 20
-4.506643294928864
 30
0.0
 10
23.99100548901234
 20
-4.445770502300863
 30
0.0
 10
23.84147753510954
 20
-4.388110015743019
 30
0.0
 10
23.6892871739505
 20
-4.336723200504704
 30
0.0
  0
SPLINE
  5
277
330
1F
100
AcDbEntity
  8
SK3
  6
SLD-Dashed
370
    18
100
AcDbSpline
210
0.0
220
0.0
230
1.0
 70
     8
 71
     3
 72
     8
 73
     4
 74
     0
 42
0.000000001
 43
0.00000001
 40
0.2031249999999989
 40
0.2031249999999989
 40
0.2031249999999989
 40
0.2031249999999989
 40
0.2187499999999989
 40
0.2187499999999989
 40
0.2187499999999989
 40
0.2187499999999989
 10
23.6892871739505
 20
-4.336723200504704
 30
0.0
 10
23.53709681279148
 20
-4.285336385266396
 30
0.0
 10
23.38157542007258
 20
-4.239896757954297
 30
0.0
 10
23.22218905445819
 20
-4.202072964660554
 30
0.0
  0
SPLINE
  5
278
330
1F
100
AcDbEntity
  8
SK3
  6
SLD-Dashed
370
    18
100
AcDbSpline
210
0.0
220
0.0
230
1.0
 70
     8
 71
     3
 72
     8
 73
     4
 74
     0
 42
0.000000001
 43
0.00000001
 40
0.2187499999999989
 40
0.2187499999999989
 40
0.2187499999999989
 40
0.2187499999999989
 40
0.2499999999999986
 40
0.2499999999999986
 40
0.2499999999999986
 40
0.2499999999999986
 10
23.22218905445819
 20
-4.202072964660554
 30
0.0
 10
22.90341632322945
 20
-4.126425378073069
 30
0.0
 10
22.56533902652463
 20
-4.082680365998368
 30
0.0
 10
22.2327983889177
 20
-4.082045076290744
 30
0.0
  0
SPLINE
  5
279
330
1F
100
AcDbEntity
  8
SK3
  6
SLD-Dashed
370
    18
100
AcDbSpline
210
0.0
220
0.0
230
1.0
 70
     8
 71
     3
 72
     8
 73
     4
 74
     0
 42
0.000000001
 43
0.00000001
 40
0.2499999999999986
 40
0.2499999999999986
 40
0.2499999999999986
 40
0.2499999999999986
 40
0.2656249999999986
 40
0.2656249999999986
 40
0.2656249999999986
 40
0.2656249999999986
 10
22.2327983889177
 20
-4.082045076290744
 30
0.0
 10
22.06652807011422
 20
-4.081727431436935
 30
0.0
 10
21.90038773304359
 20
-4.091605659725599
 30
0.0
 10
21.73437599749714
 20
-4.111416191755792
 30
0.0
  0
SPLINE
  5
27A
330
1F
100
AcDbEntity
  8
SK3
  6
SLD-Dashed
370
    18
100
AcDbSpline
210
0.0
220
0.0
230
1.0
 70
     8
 71
     3
 72
     8
 73
     4
 74
     0
 42
0.000000001
 43
0.00000001
 40
0.2656249999999986
 40
0.2656249999999986
 40
0.2656249999999986
 40
0.2656249999999986
 40
0.2812499999999987
 40
0.2812499999999987
 40
0.2812499999999987
 40
0.2812499999999987
 10
21.73437599749714
 20
-4.111416191755792
 30
0.0
 10
21.56836426195066
 20
-4.131226723785991
 30
0.0
 10
21.40292603597155
 20
-4.161082971828316
 30
0.0
 10
21.24283943394567
 20
-4.198531953851482
 30
0.0
  0
SPLINE
  5
27B
330
1F
100
AcDbEntity
  8
SK3
  6
SLD-Dashed
370
    18
100
AcDbSpline
210
0.0
220
0.0
230
1.0
 70
     8
 71
     3
 72
     8
 73
     4
 74
     0
 42
0.000000001
 43
0.00000001
 40
0.2812499999999987
 40
0.2812499999999987
 40
0.2812499999999987
 40
0.2812499999999987
 40
0.3124999999999987
 40
0.3124999999999987
 40
0.3124999999999987
 40
0.3124999999999987
 10
21.24283943394567
 20
-4.198531953851482
 30
0.0
 10
20.92266622989397
 20
-4.273429917897781
 30
0.0
 10
20.61496029329274
 20
-4.380323568229164
 30
0.0
 10
20.32733983613247
 20
-4.501571424239494
 30
0.0
  0
SPLINE
  5
27C
330
1F
100
AcDbEntity
  8
SK3
  6
SLD-Dashed
370
    18
100
AcDbSpline
210
0.0
220
0.0
230
1.0
 70
     8
 71
     3
 72
     8
 73
     4
 74
     0
 42
0.000000001
 43
0.00000001
 40
0.3124999999999987
 40
0.3124999999999987
 40
0.3124999999999987
 40
0.3124999999999987
 40
0.3437499999999987
 40
0.3437499999999987
 40
0.3437499999999987
 40
0.3437499999999987
 10
20.32733983613247
 20
-4.501571424239494
 30
0.0
 10
20.0397193789722
 20
-4.622819280249817
 30
0.0
 10
19.77211090266206
 20
-4.75767529464792
 30
0.0
 10
19.51983551988384
 20
-4.897034414263583
 30
0.0
  0
SPLINE
  5
27D
330
1F
100
AcDbEntity
  8
SK3
  6
SLD-Dashed
370
    18
100
AcDbSpline
210
0.0
220
0.0
230
1.0
 70
     8
 71
     3
 72
     8
 73
     4
 74
     0
 42
0.000000001
 43
0.00000001
 40
0.3437499999999987
 40
0.3437499999999987
 40
0.3437499999999987
 40
0.3437499999999987
 40
0.3749999999999987
 40
0.3749999999999987
 40
0.3749999999999987
 40
0.3749999999999987
 10
19.51983551988384
 20
-4.897034414263583
 30
0.0
 10
19.26756013710559
 20
-5.036393533879253
 30
0.0
 10
19.02961786047005
 20
-5.18130752483819
 30
0.0
 10
18.81329497253229
 20
-5.320034058579705
 30
0.0
  0
SPLINE
  5
27E
330
1F
100
AcDbEntity
  8
SK3
  6
SLD-Dashed
370
    18
100
AcDbSpline
210
0.0
220
0.0
230
1.0
 70
     8
 71
     3
 72
     8
 73
     4
 74
     0
 42
0.000000001
 43
0.00000001
 40
0.3749999999999987
 40
0.3749999999999987
 40
0.3749999999999987
 40
0.3749999999999987
 40
0.4062499999999988
 40
0.4062499999999988
 40
0.4062499999999988
 40
0.4062499999999988
 10
18.81329497253229
 20
-5.320034058579705
 30
0.0
 10
18.59697208459454
 20
-5.458760592321219
 30
0.0
 10
18.40023632795204
 20
-5.592485355579761
 30
0.0
 10
18.22334784677307
 20
-5.716314472229936
 30
0.0
  0
SPLINE
  5
27F
330
1F
100
AcDbEntity
  8
SK3
  6
SLD-Dashed
370
    18
100
AcDbSpline
210
0.0
220
0.0
230
1.0
 70
     8
 71
     3
 72
     8
 73
     4
 74
     0
 42
0.000000001
 43
0.00000001
 40
0.4062499999999988
 40
0.4062499999999988
 40
0.4062499999999988
 40
0.4062499999999988
 40
0.4374999999999988
 40
0.4374999999999988
 40
0.4374999999999988
 40
0.4374999999999988
 10
18.22334784677307
 20
-5.716314472229936
 30
0.0
 10
18.0464593655941
 20
-5.840143588880125
 30
0.0
 10
17.8903299098297
 20
-5.953570769368949
 30
0.0
 10
17.7629632030212
 20
-6.047545251388578
 30
0.0
  0
SPLINE
  5
280
330
1F
100
AcDbEntity
  8
SK3
  6
SLD-Dashed
370
    18
100
AcDbSpline
210
0.0
220
0.0
230
1.0
 70
     8
 71
     3
 72
     8
 73
     4
 74
     0
 42
0.000000001
 43
0.00000001
 40
0.4374999999999988
 40
0.4374999999999988
 40
0.4374999999999988
 40
0.4374999999999988
 40
0.4531249999999989
 40
0.4531249999999989
 40
0.4531249999999989
 40
0.4531249999999989
 10
17.7629632030212
 20
-6.047545251388578
 30
0.0
 10
17.69927984961694
 20
-6.094532492398392
 30
0.0
 10
17.64232897144199
 20
-6.137004197443209
 30
0.0
 10
17.59251902258427
 20
-6.174375368903175
 30
0.0
  0
SPLINE
  5
281
330
1F
100
AcDbEntity
  8
SK3
  6
SLD-Dashed
370
    18
100
AcDbSpline
210
0.0
220
0.0
230
1.0
 70
     8
 71
     3
 72
     8
 73
     4
 74
     0
 42
0.000000001
 43
0.00000001
 40
0.4531249999999989
 40
0.4531249999999989
 40
0.4531249999999989
 40
0.4531249999999989
 40
0.4687499999999989
 40
0.4687499999999989
 40
0.4687499999999989
 40
0.4687499999999989
 10
17.59251902258427
 20
-6.174375368903175
 30
0.0
 10
17.54270907372654
 20
-6.211746540363141
 30
0.0
 10
17.49986508389406
 20
-6.244152105492964
 30
0.0
 10
17.46566830807306
 20
-6.270109197117686
 30
0.0
  0
SPLINE
  5
282
330
1F
100
AcDbEntity
  8
SK3
  6
SLD-Dashed
370
    18
100
AcDbSpline
210
0.0
220
0.0
230
1.0
 70
     8
 71
     3
 72
     8
 73
     4
 74
     0
 42
0.000000001
 43
0.00000001
 40
0.4687499999999989
 40
0.4687499999999989
 40
0.4687499999999989
 40
0.4687499999999989
 40
0.4999999999999991
 40
0.4999999999999991
 40
0.4999999999999991
 40
0.4999999999999991
 10
17.46566830807306
 20
-6.270109197117686
 30
0.0
 10
17.39727475643106
 20
-6.32202338036713
 30
0.0
 10
17.36201691389941
 20
-6.349144445809508
 30
0.0
 10
17.360925839704
 20
-6.349980206808429
 30
0.0
  0
SPLINE
  5
283
330
1F
100
AcDbEntity
  8
SK3
  6
SLD-Dashed
370
    18
100
AcDbSpline
210
0.0
220
0.0
230
1.0
 70
     8
 71
     3
 72
     8
 73
     4
 74
     0
 42
0.000000001
 43
0.00000001
 40
0.5156249999999991
 40
0.5156249999999991
 40
0.5156249999999991
 40
0.5156249999999991
 40
0.5312499999999992
 40
0.5312499999999992
 40
0.5312499999999992
 40
0.5312499999999992
 10
17.38544080281841
 20
-6.331221399779409
 30
0.0
 10
17.40223809007978
 20
-6.318381623546622
 30
0.0
 10
17.42744246878453
 20
-6.299136547680696
 30
0.0
 10
17.46069917309949
 20
-6.273881857287729
 30
0.0
  0
SPLINE
  5
284
330
1F
100
AcDbEntity
  8
SK3
  6
SLD-Dashed
370
    18
100
AcDbSpline
210
0.0
220
0.0
230
1.0
 70
     8
 71
     3
 72
     8
 73
     4
 74
     0
 42
0.000000001
 43
0.00000001
 40
0.5312499999999992
 40
0.5312499999999992
 40
0.5312499999999992
 40
0.5312499999999992
 40
0.5624999999999996
 40
0.5624999999999996
 40
0.5624999999999996
 40
0.5624999999999996
 10
17.46069917309949
 20
-6.273881857287729
 30
0.0
 10
17.52721258172947
 20
-6.223372476501808
 30
0.0
 10
17.62749498984848
 20
-6.147583367113609
 30
0.0
 10
17.75422903578971
 20
-6.05399241859663
 30
0.0
  0
SPLINE
  5
285
330
1F
100
AcDbEntity
  8
SK3
  6
SLD-Dashed
370
    18
100
AcDbSpline
210
0.0
220
0.0
230
1.0
 70
     8
 71
     3
 72
     8
 73
     4
 74
     0
 42
0.000000001
 43
0.00000001
 40
0.5624999999999996
 40
0.5624999999999996
 40
0.5624999999999996
 40
0.5624999999999996
 40
0.5937499999999998
 40
0.5937499999999998
 40
0.5937499999999998
 40
0.5937499999999998
 10
17.75422903578971
 20
-6.05399241859663
 30
0.0
 10
17.88096308173098
 20
-5.96040147007966
 30
0.0
 10
18.03434050440902
 20
-5.848820543242539
 30
0.0
 10
18.21148920949536
 20
-5.724622263127636
 30
0.0
  0
SPLINE
  5
286
330
1F
100
AcDbEntity
  8
SK3
  6
SLD-Dashed
370
    18
100
AcDbSpline
210
0.0
220
0.0
230
1.0
 70
     8
 71
     3
 72
     8
 73
     4
 74
     0
 42
0.000000001
 43
0.00000001
 40
0.5937499999999998
 40
0.5937499999999998
 40
0.5937499999999998
 40
0.5937499999999998
 40
0.625
 40
0.625
 40
0.625
 40
0.625
 10
18.21148920949536
 20
-5.724622263127636
 30
0.0
 10
18.3886379145817
 20
-5.600423983012727
 30
0.0
 10
18.58563460011744
 20
-5.466308374829324
 30
0.0
 10
18.80199254312215
 20
-5.327289295677613
 30
0.0
  0
SPLINE
  5
287
330
1F
100
AcDbEntity
  8
SK3
  6
SLD-Dashed
370
    18
100
AcDbSpline
210
0.0
220
0.0
230
1.0
 70
     8
 71
     3
 72
     8
 73
     4
 74
     0
 42
0.000000001
 43
0.00000001
 40
0.625
 40
0.625
 40
0.625
 40
0.625
 40
0.6562500000000003
 40
0.6562500000000003
 40
0.6562500000000003
 40
0.6562500000000003
 10
18.80199254312215
 20
-5.327289295677613
 30
0.0
 10
19.01835048612688
 20
-5.188270216525896
 30
0.0
 10
19.2559507733539
 20
-5.043252034668953
 30
0.0
 10
19.50763391358748
 20
-4.90378523567099
 30
0.0
  0
SPLINE
  5
288
330
1F
100
AcDbEntity
  8
SK3
  6
SLD-Dashed
370
    18
100
AcDbSpline
210
0.0
220
0.0
230
1.0
 70
     8
 71
     3
 72
     8
 73
     4
 74
     0
 42
0.000000001
 43
0.00000001
 40
0.6562500000000003
 40
0.6562500000000003
 40
0.6562500000000003
 40
0.6562500000000003
 40
0.6875000000000004
 40
0.6875000000000004
 40
0.6875000000000004
 40
0.6875000000000004
 10
19.50763391358748
 20
-4.90378523567099
 30
0.0
 10
19.75931705382106
 20
-4.764318436673028
 30
0.0
 10
20.02616286556763
 20
-4.629320205583237
 30
0.0
 10
20.31266408188997
 20
-4.50777770677456
 30
0.0
  0
SPLINE
  5
289
330
1F
100
AcDbEntity
  8
SK3
  6
SLD-Dashed
370
    18
100
AcDbSpline
210
0.0
220
0.0
230
1.0
 70
     8
 71
     3
 72
     8
 73
     4
 74
     0
 42
0.000000001
 43
0.00000001
 40
0.6875000000000004
 40
0.6875000000000004
 40
0.6875000000000004
 40
0.6875000000000004
 40
0.7187500000000006
 40
0.7187500000000006
 40
0.7187500000000006
 40
0.7187500000000006
 10
20.31266408188997
 20
-4.50777770677456
 30
0.0
 10
20.59916529821234
 20
-4.386235207965883
 30
0.0
 10
20.90777811361488
 20
-4.278084423231958
 30
0.0
 10
21.22690745230871
 20
-4.202287463246288
 30
0.0
  0
SPLINE
  5
28A
330
1F
100
AcDbEntity
  8
SK3
  6
SLD-Dashed
370
    18
100
AcDbSpline
210
0.0
220
0.0
230
1.0
 70
     8
 71
     3
 72
     8
 73
     4
 74
     0
 42
0.000000001
 43
0.00000001
 40
0.7187500000000006
 40
0.7187500000000006
 40
0.7187500000000006
 40
0.7187500000000006
 40
0.7500000000000007
 40
0.7500000000000007
 40
0.7500000000000007
 40
0.7500000000000007
 10
21.22690745230871
 20
-4.202287463246288
 30
0.0
 10
21.54603679100253
 20
-4.126490503260631
 30
0.0
 10
21.88510052027373
 20
-4.082528902957558
 30
0.0
 10
22.21904788130727
 20
-4.082041966677587
 30
0.0
  0
SPLINE
  5
28B
330
1F
100
AcDbEntity
  8
SK3
  6
SLD-Dashed
370
    18
100
AcDbSpline
210
0.0
220
0.0
230
1.0
 70
     8
 71
     3
 72
     8
 73
     4
 74
     0
 42
0.000000001
 43
0.00000001
 40
0.7500000000000007
 40
0.7500000000000007
 40
0.7500000000000007
 40
0.7500000000000007
 40
0.7656250000000007
 40
0.7656250000000007
 40
0.7656250000000007
 40
0.7656250000000007
 10
22.21904788130727
 20
-4.082041966677587
 30
0.0
 10
22.38602156182404
 20
-4.081798498537591
 30
0.0
 10
22.5523767442373
 20
-4.091836701125791
 30
0.0
 10
22.7181305458167
 20
-4.111716056006006
 30
0.0
  0
SPLINE
  5
28C
330
1F
100
AcDbEntity
  8
SK3
  6
SLD-Dashed
370
    18
100
AcDbSpline
210
0.0
220
0.0
230
1.0
 70
     8
 71
     3
 72
     8
 73
     4
 74
     0
 42
0.000000001
 43
0.00000001
 40
0.7656250000000007
 40
0.7656250000000007
 40
0.7656250000000007
 40
0.7656250000000007
 40
0.7812500000000006
 40
0.7812500000000006
 40
0.7812500000000006
 40
0.7812500000000006
 10
22.7181305458167
 20
-4.111716056006006
 30
0.0
 10
22.88388434739608
 20
-4.131595410886223
 30
0.0
 10
23.04995326644035
 20
-4.161647356182373
 30
0.0
 10
23.21021603714657
 20
-4.199247769523836
 30
0.0
  0
SPLINE
  5
28D
330
1F
100
AcDbEntity
  8
SK3
  6
SLD-Dashed
370
    18
100
AcDbSpline
210
0.0
220
0.0
230
1.0
 70
     8
 71
     3
 72
     8
 73
     4
 74
     0
 42
0.000000001
 43
0.00000001
 40
0.7812500000000006
 40
0.7812500000000006
 40
0.7812500000000006
 40
0.7812500000000006
 40
0.8125000000000004
 40
0.8125000000000004
 40
0.8125000000000004
 40
0.8125000000000004
 10
23.21021603714657
 20
-4.199247769523836
 30
0.0
 10
23.530741578559
 20
-4.274448596206757
 30
0.0
 10
23.83340578127918
 20
-4.379618041180276
 30
0.0
 10
24.12297677899575
 20
-4.50170490410104
 30
0.0
  0
SPLINE
  5
28E
330
1F
100
AcDbEntity
  8
SK3
  6
SLD-Dashed
370
    18
100
AcDbSpline
210
0.0
220
0.0
230
1.0
 70
     8
 71
     3
 72
     8
 73
     4
 74
     0
 42
0.000000001
 43
0.00000001
 40
0.8125000000000004
 40
0.8125000000000004
 40
0.8125000000000004
 40
0.8125000000000004
 40
0.8437500000000003
 40
0.8437500000000003
 40
0.8437500000000003
 40
0.8437500000000003
 10
24.12297677899575
 20
-4.50170490410104
 30
0.0
 10
24.41254777671234
 20
-4.623791767021795
 30
0.0
 10
24.68204636842736
 20
-4.759851519138637
 30
0.0
 10
24.93355994239158
 20
-4.898910914838975
 30
0.0
  0
SPLINE
  5
28F
330
1F
100
AcDbEntity
  8
SK3
  6
SLD-Dashed
370
    18
100
AcDbSpline
210
0.0
220
0.0
230
1.0
 70
     8
 71
     3
 72
     8
 73
     4
 74
     0
 42
0.000000001
 43
0.00000001
 40
0.8437500000000003
 40
0.8437500000000003
 40
0.8437500000000003
 40
0.8437500000000003
 40
0.8750000000000003
 40
0.8750000000000003
 40
0.8750000000000003
 40
0.8750000000000003
 10
24.93355994239158
 20
-4.898910914838975
 30
0.0
 10
25.18507351635579
 20
-5.037970310539305
 30
0.0
 10
25.42017750613027
 20
-5.181130167142757
 30
0.0
 10
25.63862223405955
 20
-5.321263754679507
 30
0.0
  0
SPLINE
  5
290
330
1F
100
AcDbEntity
  8
SK3
  6
SLD-Dashed
370
    18
100
AcDbSpline
210
0.0
220
0.0
230
1.0
 70
     8
 71
     3
 72
     8
 73
     4
 74
     0
 42
0.000000001
 43
0.00000001
 40
0.8750000000000003
 40
0.8750000000000003
 40
0.8750000000000003
 40
0.8750000000000003
 40
0.9062500000000002
 40
0.9062500000000002
 40
0.9062500000000002
 40
0.9062500000000002
 10
25.63862223405955
 20
-5.321263754679507
 30
0.0
 10
25.85706696198883
 20
-5.461397342216255
 30
0.0
 10
26.05363949671169
 20
-5.595162002578778
 30
0.0
 10
26.22900770197864
 20
-5.717963699386742
 30
0.0
  0
SPLINE
  5
291
330
1F
100
AcDbEntity
  8
SK3
  6
SLD-Dashed
370
    18
100
AcDbSpline
210
0.0
220
0.0
230
1.0
 70
     8
 71
     3
 72
     8
 73
     4
 74
     0
 42
0.000000001
 43
0.00000001
 40
0.9062500000000002
 40
0.9062500000000002
 40
0.9062500000000002
 40
0.9062500000000002
 40
0.9375000000000001
 40
0.9375000000000001
 40
0.9375000000000001
 40
0.9375000000000001
 10
26.22900770197864
 20
-5.717963699386742
 30
0.0
 10
26.40437590724557
 20
-5.840765396194693
 30
0.0
 10
26.55957049680638
 20
-5.953486069573903
 30
0.0
 10
26.68819982092613
 20
-6.048403411770348
 30
0.0
  0
SPLINE
  5
292
330
1F
100
AcDbEntity
  8
SK3
  6
SLD-Dashed
370
    18
100
AcDbSpline
210
0.0
220
0.0
230
1.0
 70
     8
 71
     3
 72
     8
 73
     4
 74
     0
 42
0.000000001
 43
0.00000001
 40
0.9375000000000001
 40
0.9375000000000001
 40
0.9375000000000001
 40
0.9375000000000001
 40
0.9687500000000001
 40
0.9687500000000001
 40
0.9687500000000001
 40
0.9687500000000001
 10
26.68819982092613
 20
-6.048403411770348
 30
0.0
 10
26.81682914504588
 20
-6.143320753966785
 30
0.0
 10
26.91639646313887
 20
-6.218540952516408
 30
0.0
 10
26.98475540413586
 20
-6.270430822296093
 30
0.0
  0
SPLINE
  5
293
330
1F
100
AcDbEntity
  8
SK3
  6
SLD-Dashed
370
    18
100
AcDbSpline
210
0.0
220
0.0
230
1.0
 70
     8
 71
     2
 72
     6
 73
     3
 74
     0
 42
0.000000001
 43
0.00000001
 40
0.9687500000000001
 40
0.9687500000000001
 40
0.9687500000000001
 40
1.0
 40
1.0
 40
1.0
 10
26.98475540413586
 20
-6.270430822296093
 30
0.0
 10
27.05311434513285
 20
-6.322320692075757
 30
0.0
 10
27.08909999999998
 20
-6.349999999999994
 30
0.0
  0
SPLINE
  5
294
330
1F
100
AcDbEntity
  8
SK3
  6
SLD-Dashed
370
    18
100
AcDbSpline
210
0.0
220
0.0
230
1.0
 70
     8
 71
     3
 72
     8
 73
     4
 74
     0
 42
0.000000001
 43
0.00000001
 40
0.0
 40
0.0
 40
0.0
 40
0.0
 40
1.0
 40
1.0
 40
1.0
 40
1.0
 10
11.88459551241397
 20
9.08868075058622
 30
0.0
 10
11.87318746269975
 20
9.0821912884781
 30
0.0
 10
11.86178084378334
 20
9.075621712113236
 30
0.0
 10
11.8503748055591
 20
9.0689724078385
 30
0.0
  0
SPLINE
  5
295
330
1F
100
AcDbEntity
  8
SK3
  6
SLD-Dashed
370
    18
100
AcDbSpline
210
0.0
220
0.0
230
1.0
 70
     8
 71
     3
 72
     8
 73
     4
 74
     0
 42
0.000000001
 43
0.00000001
 40
0.0
 40
0.0
 40
0.0
 40
0.0
 40
1.0
 40
1.0
 40
1.0
 40
1.0
 10
11.85037484305642
 20
5.968209101522439
 30
0.0
 10
11.86178086874567
 20
5.975075439537375
 30
0.0
 10
11.87318747516301
 20
5.982020938076002
 30
0.0
 10
11.88459551241361
 20
5.989045153007624
 30
0.0
  0
SPLINE
  5
296
330
1F
100
AcDbEntity
  8
1
  6
SLD-Dashed
370
    18
100
AcDbSpline
210
0.0
220
0.0
230
1.0
 70
    24
 71
     3
 72
     8
 73
     4
 74
     0
 42
0.000000001
 43
0.00000001
 40
0.0
 40
0.0
 40
0.0
 40
0.0
 40
0.5000000000000013
 40
0.5000000000000013
 40
0.5000000000000013
 40
0.5000000000000013
 10
3.200000000000008
 20
-22.40999999999982
 30
0.0
 10
3.277521727773389
 20
-22.40999999999989
 30
0.0
 10
3.353381647940926
 20
-22.40999999999995
 30
0.0
 10
3.419612606008038
 20
-22.41000000000001
 30
0.0
  0
SPLINE
  5
297
330
1F
100
AcDbEntity
  8
1
  6
SLD-Dashed
370
    18
100
AcDbSpline
210
0.0
220
0.0
230
1.0
 70
    24
 71
     3
 72
     8
 73
     4
 74
     0
 42
0.000000001
 43
0.00000001
 40
0.5000000000000013
 40
0.5000000000000013
 40
0.5000000000000013
 40
0.5000000000000013
 40
0.7500000000000007
 40
0.7500000000000007
 40
0.7500000000000007
 40
0.7500000000000007
 10
3.419612606008024
 20
-22.41000000000001
 30
0.0
 10
3.452728085041573
 20
-22.41000000000001
 30
0.0
 10
3.4833013616586
 20
-22.41000000000001
 30
0.0
 10
3.50657807711098
 20
-22.41000000000001
 30
0.0
  0
SPLINE
  5
298
330
1F
100
AcDbEntity
  8
1
  6
SLD-Dashed
370
    18
100
AcDbSpline
210
0.0
220
0.0
230
1.0
 70
    24
 71
     2
 72
     6
 73
     3
 74
     0
 42
0.000000001
 43
0.00000001
 40
0.7500000000000007
 40
0.7500000000000007
 40
0.7500000000000007
 40
1.0
 40
1.0
 40
1.0
 10
3.50657807711098
 20
-22.41000000000001
 30
0.0
 10
3.529854792563375
 20
-22.41000000000001
 30
0.0
 10
3.545388844998082
 20
-22.41000000000001
 30
0.0
  0
SPLINE
  5
299
330
1F
100
AcDbEntity
  8
SK3
  6
SLD-Dashed
370
    18
100
AcDbSpline
210
0.0
220
0.0
230
1.0
 70
    24
 71
     2
 72
     6
 73
     3
 74
     0
 42
0.000000001
 43
0.00000001
 40
0.0
 40
0.0
 40
0.0
 40
0.2500000000000014
 40
0.2500000000000014
 40
0.2500000000000014
 10
18.70470661068596
 20
-22.41000000000001
 30
0.0
 10
18.72152928400342
 20
-22.41000000000001
 30
0.0
 10
18.74658216782032
 20
-22.41
 30
0.0
  0
SPLINE
  5
29A
330
1F
100
AcDbEntity
  8
SK3
  6
SLD-Dashed
370
    18
100
AcDbSpline
210
0.0
220
0.0
230
1.0
 70
    24
 71
     3
 72
     8
 73
     4
 74
     0
 42
0.000000001
 43
0.00000001
 40
0.2500000000000014
 40
0.2500000000000014
 40
0.2500000000000014
 40
0.2500000000000014
 40
0.5000000000000028
 40
0.5000000000000028
 40
0.5000000000000028
 40
0.5000000000000028
 10
18.74658216782032
 20
-22.41
 30
0.0
 10
18.7716350516372
 20
-22.41
 30
0.0
 10
18.80383671321531
 20
-22.41000000000001
 30
0.0
 10
18.83856555286026
 20
-22.41000000000001
 30
0.0
  0
SPLINE
  5
29B
330
1F
100
AcDbEntity
  8
SK3
  6
SLD-Dashed
370
    18
100
AcDbSpline
210
0.0
220
0.0
230
1.0
 70
    24
 71
     3
 72
     8
 73
     4
 74
     0
 42
0.000000001
 43
0.00000001
 40
0.5000000000000028
 40
0.5000000000000028
 40
0.5000000000000028
 40
0.5000000000000028
 40
1.0
 40
1.0
 40
1.0
 40
1.0
 10
18.83856555286026
 20
-22.41000000000001
 30
0.0
 10
18.90802323215019
 20
-22.41000000000001
 30
0.0
 10
18.9876042635487
 20
-22.41000000000001
 30
0.0
 10
19.06858252391844
 20
-22.41000000000001
 30
0.0
  0
SPLINE
  5
29C
330
1F
100
AcDbEntity
  8
SK3
  6
SLD-Dashed
370
    18
100
AcDbSpline
210
0.0
220
0.0
230
1.0
 70
     8
 71
     3
 72
    10
 73
     6
 74
     0
 42
0.000000001
 43
0.00000001
 40
0.0
 40
0.0
 40
0.0
 40
0.0
 40
0.5
 40
0.5
 40
1.0
 40
1.0
 40
1.0
 40
1.0
 10
18.54999999999998
 20
25.20500000000004
 30
0.0
 10
18.55000000000001
 20
25.27446188700642
 30
0.0
 10
18.57033165532698
 20
25.34157876899191
 30
0.0
 10
18.62822537360675
 20
25.46534569655894
 30
0.0
 10
18.66502717471818
 20
25.52292618711535
 30
0.0
 10
18.70461115500194
 20
25.57898258716482
 30
0.0
  0
SPLINE
  5
29D
330
1F
100
AcDbEntity
  8
SK3
  6
SLD-Dashed
370
    18
100
AcDbSpline
210
0.0
220
0.0
230
1.0
 70
     8
 71
     3
 72
    10
 73
     6
 74
     0
 42
0.000000001
 43
0.00000001
 40
0.0
 40
0.0
 40
0.0
 40
0.0
 40
0.5
 40
0.5
 40
1.0
 40
1.0
 40
1.0
 40
1.0
 10
3.545291624077121
 20
25.57912025275686
 30
0.0
 10
3.584856617866707
 20
25.52310107590331
 30
0.0
 10
3.621570887500267
 20
25.46562249807945
 30
0.0
 10
3.679260425533595
 20
25.34260791126144
 30
0.0
 10
3.69999999999998
 20
25.27482658978055
 30
0.0
 10
3.699999999999981
 20
25.20500000000004
 30
0.0
  0
SPLINE
  5
29E
330
1F
100
AcDbEntity
  8
SK3
  6
SLD-Dashed
370
    18
100
AcDbSpline
210
0.0
220
0.0
230
1.0
 70
     8
 71
     3
 72
    40
 73
    36
 74
     0
 42
0.000000001
 43
0.00000001
 40
0.0
 40
0.0
 40
0.0
 40
0.0
 40
0.0314214559572178
 40
0.0627294389672004
 40
0.0877405066521895
 40
0.1252752326697184
 40
0.1539551384600108
 40
0.1970430837597873
 40
0.2184753360378477
 40
0.2505176110611737
 40
0.2789492345937391
 40
0.3216198597594042
 40
0.3430128235413673
 40
0.3752634384750793
 40
0.4040010771804458
 40
0.4468656794915723
 40
0.468215945936246
 40
0.5002096454814972
 40
0.528675413734447
 40
0.5715400247765458
 40
0.5931009716299191
 40
0.6253883780511656
 40
0.6539191343952843
 40
0.6965914244566831
 40
0.7179237821488444
 40
0.7499746494270431
 40
0.7785976316863417
 40
0.7958543398127828
 40
0.8217160693566459
 40
0.8431552865480468
 40
0.8751886732441888
 40
0.9000580147531506
 40
0.9373794059838182
 40
0.9685930788650364
 40
1.0
 40
1.0
 40
1.0
 40
1.0
 10
3.545388844996986
 20
-29.80485527420156
 30
0.0
 10
3.545480197135409
 20
-29.81164440520862
 30
0.0
 10
3.545662571510386
 20
-29.82519814949494
 30
0.0
 10
3.54703271404691
 20
-29.84411564286315
 30
0.0
 10
3.549278621227517
 20
-29.86427043795787
 30
0.0
 10
3.552383815069227
 20
-29.88374590039669
 30
0.0
 10
3.557241214189641
 20
-29.90686111791881
 30
0.0
 10
3.562435988465548
 20
-29.92633239392607
 30
0.0
 10
3.568780339238825
 20
-29.94620899181592
 30
0.0
 10
3.574836423905242
 20
-29.96284451017946
 30
0.0
 10
3.583406089825339
 20
-29.98342104192837
 30
0.0
 10
3.59207783042105
 20
-30.00144320563149
 30
0.0
 10
3.602002400646287
 20
-30.01973532130884
 30
0.0
 10
3.611129444211991
 20
-30.03502499592773
 30
0.0
 10
3.623520615641682
 20
-30.05373739733253
 30
0.0
 10
3.635525817110186
 20
-30.06985792745887
 30
0.0
 10
3.648757943677708
 20
-30.0858911340006
 30
0.0
 10
3.66057139317208
 20
-30.09904955418673
 30
0.0
 10
3.676259568084497
 20
-30.11493869793387
 30
0.0
 10
3.69115231941948
 20
-30.12841850148093
 30
0.0
 10
3.707345738384368
 20
-30.14162746303267
 30
0.0
 10
3.721611997070898
 20
-30.15228399886391
 30
0.0
 10
3.740164285063671
 20
-30.16477481501947
 30
0.0
 10
3.75737554968407
 20
-30.17498291258005
 30
0.0
 10
3.775753926809067
 20
-30.18462804605823
 30
0.0
 10
3.791792461294144
 20
-30.19217667946794
 30
0.0
 10
3.807369256512039
 20
-30.19858412923172
 30
0.0
 10
3.821916756260105
 20
-30.20393768674578
 30
0.0
 10
3.835173350441965
 20
-30.20828861199454
 30
0.0
 10
3.851657250143012
 20
-30.21299666641907
 30
0.0
 10
3.868130598975172
 20
-30.21692139734516
 30
0.0
 10
3.888137813528689
 20
-30.22070805124265
 30
0.0
 10
3.908147752578903
 20
-30.22341140281245
 30
0.0
 10
3.929683046762791
 20
-30.22516290854708
 30
0.0
 10
3.943213763576897
 20
-30.22536701808867
 30
0.0
 10
3.949999999998899
 20
-30.22546938780228
 30
0.0
  0
SPLINE
  5
29F
330
1F
100
AcDbEntity
  8
1
  6
SLD-Dashed
370
    18
100
AcDbSpline
210
0.0
220
0.0
230
1.0
 70
     8
 71
     3
 72
     8
 73
     4
 74
     0
 42
0.000000001
 43
0.00000001
 40
0.0
 40
0.0
 40
0.0
 40
0.0
 40
1.0
 40
1.0
 40
1.0
 40
1.0
 10
14.3760129465226
 20
-30.22558142012645
 30
0.0
 10
13.92634047615433
 20
-29.41927694377228
 30
0.0
 10
13.47758735871729
 20
-28.61247603335392
 30
0.0
 10
13.03000000000001
 20
-27.8050456341729
 30
0.0
  0
SPLINE
  5
2A0
330
1F
100
AcDbEntity
  8
1
  6
SLD-Dashed
370
    18
100
AcDbSpline
210
0.0
220
0.0
230
1.0
 70
     8
 71
     3
 72
    10
 73
     6
 74
     0
 42
0.000000001
 43
0.00000001
 40
0.0
 40
0.0
 40
0.0
 40
0.0
 40
0.5
 40
0.5
 40
1.0
 40
1.0
 40
1.0
 40
1.0
 10
13.03
 20
-27.76916635406976
 30
0.0
 10
13.03
 20
-27.56948960726652
 30
0.0
 10
12.95302573325509
 20
-27.36838646497959
 30
0.0
 10
12.67905057581468
 20
-27.07630005005163
 30
0.0
 10
12.48172757240074
 20
-26.98706356756883
 30
0.0
 10
12.28
 20
-26.98706356756882
 30
0.0
  0
SPLINE
  5
2A1
330
1F
100
AcDbEntity
  8
1
  6
SLD-Dashed
370
    18
100
AcDbSpline
210
0.0
220
0.0
230
1.0
 70
     8
 71
     3
 72
    10
 73
     6
 74
     0
 42
0.000000001
 43
0.00000001
 40
0.0
 40
0.0
 40
0.0
 40
0.0
 40
0.5
 40
0.5
 40
1.0
 40
1.0
 40
1.0
 40
1.0
 10
9.950000000000307
 20
-26.98706356756848
 30
0.0
 10
9.74844149509109
 20
-26.9870635675684
 30
0.0
 10
9.550692481023734
 20
-27.07656444408125
 30
0.0
 10
9.277196882746738
 20
-27.36815866851899
 30
0.0
 10
9.199999999999916
 20
-27.56927498425089
 30
0.0
 10
9.199999999999985
 20
-27.76916635406976
 30
0.0
  0
SPLINE
  5
2A2
330
1F
100
AcDbEntity
  8
1
  6
SLD-Dashed
370
    18
100
AcDbSpline
210
0.0
220
0.0
230
1.0
 70
     8
 71
     3
 72
     8
 73
     4
 74
     0
 42
0.000000001
 43
0.00000001
 40
0.0
 40
0.0
 40
0.0
 40
0.0
 40
1.0
 40
1.0
 40
1.0
 40
1.0
 10
9.199999999998877
 20
-27.80504563417607
 30
0.0
 10
8.752433371354604
 20
-28.61243863710177
 30
0.0
 10
8.303701091401397
 20
-29.41920220926472
 30
0.0
 10
7.85404953340614
 20
-30.22546938780228
 30
0.0
  0
SPLINE
  5
2A3
330
1F
100
AcDbEntity
  8
SK3
  6
SLD-Dashed
370
    18
100
AcDbSpline
210
0.0
220
0.0
230
1.0
 70
     8
 71
     3
 72
    40
 73
    36
 74
     0
 42
0.000000001
 43
0.00000001
 40
0.0
 40
0.0
 40
0.0
 40
0.0
 40
0.0126129321449749
 40
0.0314976481339587
 40
0.0629183966702574
 40
0.0880663439714092
 40
0.1258663548219046
 40
0.1545361786951767
 40
0.1972635113751502
 40
0.2185774264758776
 40
0.250549973449914
 40
0.2790323571745715
 40
0.3220275475257097
 40
0.3436168159336435
 40
0.3758133620275704
 40
0.4042898095068478
 40
0.4468993710431288
 40
0.4682109723921613
 40
0.5002437124696372
 40
0.528853388731771
 40
0.5719828275869605
 40
0.593442063717947
 40
0.6254916984483689
 40
0.6539107272569482
 40
0.6965262692674938
 40
0.7178823906336926
 40
0.7500313093276828
 40
0.7787800102949213
 40
0.8217645159397994
 40
0.8431483194632984
 40
0.8751517844153632
 40
0.9000181010942335
 40
0.937358773167723
 40
0.9685909586685477
 40
1.0
 40
1.0
 40
1.0
 40
1.0
 10
18.29999999999998
 20
-30.22558142012645
 30
0.0
 10
18.30272569594446
 20
-30.22556434752626
 30
0.0
 10
18.30953244086248
 20
-30.22552171297096
 30
0.0
 10
18.32312192068605
 20
-30.22500449703674
 30
0.0
 10
18.33938544977021
 20
-30.22373214657611
 30
0.0
 10
18.35962263823535
 20
-30.221174837236
 30
0.0
 10
18.37912342814685
 20
-30.21766990056755
 30
0.0
 10
18.40209059735809
 20
-30.21222207486889
 30
0.0
 10
18.42129623800884
 20
-30.20644931168887
 30
0.0
 10
18.44082755863399
 20
-30.19943885792772
 30
0.0
 10
18.45718998570672
 20
-30.19274290252152
 30
0.0
 10
18.47744321243866
 20
-30.1832630733897
 30
0.0
 10
18.49514777026504
 20
-30.17368149208102
 30
0.0
 10
18.51299887024299
 20
-30.162778963476
 30
0.0
 10
18.52776206933995
 20
-30.15285978975096
 30
0.0
 10
18.54566370706712
 20
-30.13951958199505
 30
0.0
 10
18.5609891173546
 20
-30.12669241147175
 30
0.0
 10
18.57619506813985
 20
-30.11259090122096
 30
0.0
 10
18.5886714738227
 20
-30.10000934793473
 30
0.0
 10
18.60368863236059
 20
-30.08334675455742
 30
0.0
 10
18.61632529126053
 20
-30.06764146706472
 30
0.0
 10
18.62858943392443
 20
-30.05073531892072
 30
0.0
 10
18.63838877637
 20
-30.03598007669226
 30
0.0
 10
18.64984348721726
 20
-30.0168676964732
 30
0.0
 10
18.65917024991942
 20
-29.99919574996971
 30
0.0
 10
18.66796418712432
 20
-29.98037484052357
 30
0.0
 10
18.67483422118335
 20
-29.96397246361361
 30
0.0
 10
18.68255017034242
 20
-29.9428852210956
 30
0.0
 10
18.68844193362828
 20
-29.92362739014023
 30
0.0
 10
18.69357143260813
 20
-29.9034406212912
 30
0.0
 10
18.69708101840336
 20
-29.88689085311749
 30
0.0
 10
18.70046357426516
 20
-29.86681061568806
 30
0.0
 10
18.70287526281563
 20
-29.84675343612671
 30
0.0
 10
18.70443558087198
 20
-29.82519260420409
 30
0.0
 10
18.70461727324776
 20
-29.81165457438031
 30
0.0
 10
18.70470837592292
 20
-29.80486644841623
 30
0.0
  0
SPLINE
  5
2A4
330
1F
100
AcDbEntity
  8
SK3
  6
SLD-Dashed
370
    18
100
AcDbSpline
210
0.0
220
0.0
230
1.0
 70
     8
 71
     3
 72
    40
 73
    36
 74
     0
 42
0.000000001
 43
0.00000001
 40
0.0
 40
0.0
 40
0.0
 40
0.0
 40
0.0125929119920799
 40
0.0314096195346371
 40
0.0626234169499144
 40
0.0875147363747578
 40
0.1248144128307291
 40
0.1532834083387329
 40
0.1962265830891804
 40
0.2178107992109905
 40
0.2500224951329297
 40
0.2785169301551935
 40
0.3211718523043735
 40
0.3425182663517212
 40
0.3746092478105252
 40
0.4033018002026009
 40
0.4463503818994297
 40
0.4677602234265738
 40
0.4997883410590129
 40
0.5282270395863776
 40
0.5709521530205359
 40
0.592413861861735
 40
0.6247350591047609
 40
0.6534144483970886
 40
0.696168319941901
 40
0.717496931450338
 40
0.7494813527194164
 40
0.7779588669976948
 40
0.8208766717687338
 40
0.8424514691504659
 40
0.8747242821794735
 40
0.8997563983109476
 40
0.9372703102803513
 40
0.9685784185325865
 40
1.0
 40
1.0
 40
1.0
 40
1.0
 10
3.949999999999992
 20
30.22558142012638
 30
0.0
 10
3.947278630487588
 20
30.22556441746848
 30
0.0
 10
3.940490908866747
 20
30.22552200892813
 30
0.0
 10
3.926965088488717
 20
30.22500878447087
 30
0.0
 10
3.910815897791752
 20
30.22374990827883
 30
0.0
 10
3.89078362664717
 20
30.2212337488884
 30
0.0
 10
3.871482565347205
 20
30.21779055348816
 30
0.0
 10
3.848607405882314
 20
30.21241015713827
 30
0.0
 10
3.82933131936888
 20
30.20665667098931
 30
0.0
 10
3.80964221845392
 20
30.19962160064928
 30
0.0
 10
3.793167806815499
 20
30.19290122073893
 30
0.0
 10
3.772924482298166
 20
30.18344563237708
 30
0.0
 10
3.755317616591642
 20
30.17394373601331
 30
0.0
 10
3.737577171360691
 20
30.16314575471338
 30
0.0
 10
3.72281897885884
 20
30.1532706464055
 30
0.0
 10
3.704798099920049
 20
30.13989144466212
 30
0.0
 10
3.689332466278723
 20
30.12697740010817
 30
0.0
 10
3.674029699770635
 20
30.11281096127926
 30
0.0
 10
3.661557220132542
 20
30.10024903998077
 30
0.0
 10
3.646609511589663
 20
30.08369276015743
 30
0.0
 10
3.634030514372661
 20
30.06810049270645
 30
0.0
 10
3.621756928744913
 20
30.05123600708179
 30
0.0
 10
3.61187261655801
 20
30.03639837328908
 30
0.0
 10
3.600324644432407
 20
30.01717281850422
 30
0.0
 10
3.590949392450395
 20
29.99943559548712
 30
0.0
 10
3.58214899501732
 20
29.98063051707892
 30
0.0
 10
3.575306871630831
 20
29.96432508828282
 30
0.0
 10
3.567606450656867
 20
29.94334796470472
 30
0.0
 10
3.561699011690657
 20
29.92412819400953
 30
0.0
 10
3.556524840089344
 20
29.9038649584692
 30
0.0
 10
3.55297298609953
 20
29.8871856268312
 30
0.0
 10
3.549559886390226
 20
29.86697716337638
 30
0.0
 10
3.54712888865006
 20
29.84683182165024
 30
0.0
 10
3.545565946831231
 20
29.82521437831678
 30
0.0
 10
3.545383175201803
 20
29.81165726630967
 30
0.0
 10
3.545291624077121
 20
29.80486644841629
 30
0.0
  0
SPLINE
  5
2A5
330
1F
100
AcDbEntity
  8
1
  6
SLD-Dashed
370
    18
100
AcDbSpline
210
0.0
220
0.0
230
1.0
 70
     8
 71
     3
 72
     8
 73
     4
 74
     0
 42
0.000000001
 43
0.00000001
 40
0.0
 40
0.0
 40
0.0
 40
0.0
 40
1.0
 40
1.0
 40
1.0
 40
1.0
 10
9.199999999999973
 20
27.80504563417289
 30
0.0
 10
8.752403481898915
 20
28.61249255653032
 30
0.0
 10
8.303650620483646
 20
29.41929290832669
 30
0.0
 10
7.853987053477382
 20
30.2255814201264
 30
0.0
  0
SPLINE
  5
2A6
330
1F
100
AcDbEntity
  8
1
  6
SLD-Dashed
370
    18
100
AcDbSpline
210
0.0
220
0.0
230
1.0
 70
     8
 71
     3
 72
    12
 73
     8
 74
     0
 42
0.000000001
 43
0.00000001
 40
0.0
 40
0.0
 40
0.0
 40
0.0
 40
0.2499999999999984
 40
0.2499999999999984
 40
0.4999999999999969
 40
0.4999999999999969
 40
1.0
 40
1.0
 40
1.0
 40
1.0
 10
9.949999999999987
 20
26.98706356756881
 30
0.0
 10
9.850149452042906
 20
26.9870635675688
 30
0.0
 10
9.748134209428077
 20
27.00887348025307
 30
0.0
 10
9.565410104204544
 20
27.08989258317072
 30
0.0
 10
9.481984824368892
 20
27.14976438531446
 30
0.0
 10
9.277274567403376
 20
27.36818499553367
 30
0.0
 10
9.199999999999985
 20
27.56879736260814
 30
0.0
 10
9.199999999999985
 20
27.76916635406975
 30
0.0
  0
SPLINE
  5
2A7
330
1F
100
AcDbEntity
  8
1
  6
SLD-Dashed
370
    18
100
AcDbSpline
210
0.0
220
0.0
230
1.0
 70
     8
 71
     3
 72
    12
 73
     8
 74
     0
 42
0.000000001
 43
0.00000001
 40
0.0
 40
0.0
 40
0.0
 40
0.0
 40
0.2500000000000007
 40
0.2500000000000007
 40
0.5000000000000014
 40
0.5000000000000014
 40
1.0
 40
1.0
 40
1.0
 40
1.0
 10
13.02999999999999
 20
27.76916635406974
 30
0.0
 10
13.03000000000001
 20
27.66900663339825
 30
0.0
 10
13.01145353522915
 20
27.56910146598282
 30
0.0
 10
12.93858199206008
 20
27.38178244661978
 30
0.0
 10
12.88523035542458
 20
27.29613295246495
 30
0.0
 10
12.67790477657023
 20
27.0750315281501
 30
0.0
 10
12.47994383972983
 20
26.98706356756882
 30
0.0
 10
12.28
 20
26.98706356756881
 30
0.0
  0
SPLINE
  5
2A8
330
1F
100
AcDbEntity
  8
1
  6
SLD-Dashed
370
    18
100
AcDbSpline
210
0.0
220
0.0
230
1.0
 70
     8
 71
     3
 72
     8
 73
     4
 74
     0
 42
0.000000001
 43
0.00000001
 40
0.0
 40
0.0
 40
0.0
 40
0.0
 40
1.0
 40
1.0
 40
1.0
 40
1.0
 10
14.37595046659275
 20
30.22546938779911
 30
0.0
 10
13.92630781119525
 20
29.41921817244963
 30
0.0
 10
13.47757578719337
 20
28.61245515876932
 30
0.0
 10
13.03
 20
27.80504563417289
 30
0.0
  0
SPLINE
  5
2A9
330
1F
100
AcDbEntity
  8
SK3
  6
SLD-Dashed
370
    18
100
AcDbSpline
210
0.0
220
0.0
230
1.0
 70
     8
 71
     3
 72
    39
 73
    35
 74
     0
 42
0.000000001
 43
0.00000001
 40
0.0
 40
0.0
 40
0.0
 40
0.0
 40
0.0314091160307677
 40
0.062641375864154
 40
0.0875470935131889
 40
0.1248485138287462
 40
0.1532930400450872
 40
0.1960941157944515
 40
0.2176225947738144
 40
0.2499693772004302
 40
0.2785546285585205
 40
0.3212364873026964
 40
0.3425405354923894
 40
0.3745092858974103
 40
0.4029918411019262
 40
0.4459785689856202
 40
0.4675618916159423
 40
0.4997576608210476
 40
0.5282368343000382
 40
0.5708480092883969
 40
0.5921584935845849
 40
0.624188332845246
 40
0.6527986190299447
 40
0.6959401501309724
 40
0.7174023419155647
 40
0.7494519752642036
 40
0.7778741158300034
 40
0.8205144520917296
 40
0.8418962920619176
 40
0.8741359236783779
 40
0.8993502252909584
 40
0.9370840470446232
 40
0.9685048711195082
 40
1.0
 40
1.0
 40
1.0
 40
1.0
 10
18.70461115500205
 20
29.80485527419827
 30
0.0
 10
18.70452025144945
 20
29.81164171345385
 30
0.0
 10
18.70433895619739
 20
29.82517637936968
 30
0.0
 10
18.70297056619669
 20
29.84405190465712
 30
0.0
 10
18.70074103176619
 20
29.86411824570157
 30
0.0
 10
18.69766377514248
 20
29.88347227622579
 30
0.0
 10
18.6928582202533
 20
29.90643124843557
 30
0.0
 10
18.68771177437781
 20
29.92581971282423
 30
0.0
 10
18.68138591064231
 20
29.94572790966326
 30
0.0
 10
18.6753070430736
 20
29.96248267210257
 30
0.0
 10
18.66671222395192
 20
29.98315850998393
 30
0.0
 10
18.65804498468776
 20
30.00120090567662
 30
0.0
 10
18.64816898127236
 20
30.01943081107648
 30
0.0
 10
18.6391259878666
 20
30.03461278108222
 30
0.0
 10
18.62681037274125
 20
30.0532673496676
 30
0.0
 10
18.61481562184566
 20
30.06942261759877
 30
0.0
 10
18.6015260309241
 20
30.08556438898107
 30
0.0
 10
18.58965984265965
 20
30.09880574838226
 30
0.0
 10
18.57398746850278
 20
30.11469877887869
 30
0.0
 10
18.5591861811131
 20
30.12812096686807
 30
0.0
 10
18.54313791073561
 20
30.14124723286361
 30
0.0
 10
18.52896425933556
 20
30.15187245989082
 30
0.0
 10
18.51038407954444
 20
30.16443427377513
 30
0.0
 10
18.49306028314307
 20
30.17474090541242
 30
0.0
 10
18.47457768707375
 20
30.18446497823755
 30
0.0
 10
18.45855895706397
 20
30.19201976729601
 30
0.0
 10
18.43796004437193
 20
30.20051935318394
 30
0.0
 10
18.41906612592656
 20
30.2070528412837
 30
0.0
 10
18.39907752149927
 20
30.21280585013026
 30
0.0
 10
18.38250765201563
 20
30.21678677988685
 30
0.0
 10
18.3623013617501
 20
30.22064109222355
 30
0.0
 10
18.34208698503431
 20
30.22338985618057
 30
0.0
 10
18.32039969464305
 20
30.22516034748685
 30
0.0
 10
18.3068052499708
 20
30.22536629328653
 30
0.0
 10
18.30000000000004
 20
30.22546938779911
 30
0.0
  0
SPLINE
  5
2AA
330
1F
100
AcDbEntity
  8
SK3
  6
SLD-Dashed
370
    18
100
AcDbSpline
210
0.0
220
0.0
230
1.0
 70
    24
 71
     3
 72
    16
 73
    12
 74
     0
 42
0.000000001
 43
0.00000001
 40
0.0
 40
0.0
 40
0.0
 40
0.0
 40
0.2499999999999992
 40
0.2499999999999992
 40
0.3749999999999986
 40
0.3749999999999986
 40
0.4999999999999986
 40
0.4999999999999986
 40
0.7499999999999992
 40
0.7499999999999992
 40
1.0
 40
1.0
 40
1.0
 40
1.0
 10
19.06048131174428
 20
6.652324587782638
 30
0.0
 10
19.0604813117443
 20
6.887207247446717
 30
0.0
 10
19.06048131174428
 20
7.141549356870192
 30
0.0
 10
19.06048131174428
 20
7.562852568671746
 30
0.0
 10
19.06048131174428
 20
7.709713548202874
 30
0.0
 10
19.06048131174428
 20
8.010113263354034
 30
0.0
 10
19.06048131174428
 20
8.164529645176245
 30
0.0
 10
19.06048131174428
 20
8.640769730398889
 30
0.0
 10
19.06048131174428
 20
8.978692295838671
 30
0.0
 10
19.06048131174428
 20
9.652462850153643
 30
0.0
 10
19.06048131174428
 20
9.994582003413218
 30
0.0
 10
19.06048131174428
 20
10.33304887748185
 30
0.0
  0
ELLIPSE
  5
2AB
330
1F
100
AcDbEntity
  8
SK3
  6
SLD-Dashed
370
    18
100
AcDbEllipse
 10
11.8871133473
 20
-7.5191393683
 30
0.0
 11
0.03385882744889912
 21
1.688460908529115
 31
0.0
210
0.0
220
0.0
230
1.0
 40
0.046392465
 41
0.4375032044852789
 42
3.520077657885275
  0
ELLIPSE
  5
2AC
330
1F
100
AcDbEntity
  8
SK3
  6
SLD-Dashed
370
    18
100
AcDbEllipse
 10
11.8871133473
 20
-7.5191393683
 30
0.0
 11
3.067832073467711
 21
-0.06151945614674136
 31
0.0
210
0.0
220
0.0
230
1.0
 40
0.505226194
 41
1.592902384961735
 42
4.710544890796999
  0
ELLIPSE
  5
2AD
330
1F
100
AcDbEntity
  8
SK3
  6
SLD-Dashed
370
    18
100
AcDbEllipse
 10
11.8871133473
 20
7.5191393683
 30
0.0
 11
3.067832073253508
 21
0.06151945614243903
 31
0.0
210
0.0
220
0.0
230
1.0
 40
0.505226194
 41
1.572640416363321
 42
4.690282922216996
  0
ELLIPSE
  5
2AE
330
1F
100
AcDbEntity
  8
SK3
  6
SLD-Dashed
370
    18
100
AcDbEllipse
 10
11.8871133473
 20
7.5191393683
 30
0.0
 11
-0.03385882744889734
 21
1.688460908529116
 31
0.0
210
0.0
220
0.0
230
1.0
 40
0.046392465
 41
5.904700302884974
 42
8.987274756142565
  0
DIMENSION
  5
2AF
330
1F
100
AcDbEntity
  8
2
100
AcDbDimension
  2
_D
 10
44.45
 20
54.9568292526
 30
0.0
 11
17.5232699614
 21
54.9568292526
 31
0.0
 70
   160
  1
<>
 71
     2
 42
-1.0
  3
SLDDIMSTYLE0
100
AcDbAlignedDimension
 13
0.0
 23
22.225
 33
0.0
 14
44.45
 24
12.827
 34
0.0
100
AcDbRotatedDimension
  0
DIMENSION
  5
2C4
330
1F
100
AcDbEntity
  8
SK2
100
AcDbDimension
  2
_D_1
 10
44.45
 20
42.1957535875
 30
0.0
 11
31.3243225713
 21
42.1957535875
 31
0.0
 70
   160
  1
<>
 71
     2
 42
-1.0
  3
SLDDIMSTYLE0
100
AcDbAlignedDimension
 13
19.05
 23
29.8048664484
 33
0.0
 14
44.45
 24
12.827
 34
0.0
100
AcDbRotatedDimension
  0
DIMENSION
  5
2D7
330
1F
100
AcDbEntity
  8
SK2
100
AcDbDimension
  2
_D_2
 10
44.45
 20
32.5095712457
 30
0.0
 11
39.8592379618
 21
32.5095712457
 31
0.0
 70
   160
  1
<>
 71
     2
 42
-1.0
  3
SLDDIMSTYLE1
100
AcDbAlignedDimension
 13
35.052
 23
22.1836591967
 33
0.0
 14
44.45
 24
12.827
 34
0.0
100
AcDbRotatedDimension
  0
DIMENSION
  5
2E4
330
1F
100
AcDbEntity
  8
SK2
100
AcDbDimension
  2
_D_3
 10
44.45
 20
-62.8379472433
 30
0.0
 11
-23.8793924954
 21
-62.8379472433
 31
0.0
 70
   160
  1
<>
 71
     2
 42
-1.0
  3
SLDDIMSTYLE2
100
AcDbAlignedDimension
 13
-68.25
 23
-11.1476148288
 33
0.0
 14
44.45
 24
-12.827
 34
0.0
 50
0.0
100
AcDbRotatedDimension
  0
DIMENSION
  5
2F8
330
1F
100
AcDbEntity
  8
SK2
100
AcDbDimension
  2
_D_4
 10
44.45
 20
-51.7936046651
 30
0.0
 11
13.0030353082
 21
-51.7936046651
 31
0.0
 70
   160
  1
<>
 71
     2
 42
-1.0
  3
SLDDIMSTYLE0
100
AcDbAlignedDimension
 13
-0.59
 23
-6.74624
 33
0.0
 14
44.45
 24
-12.827
 34
0.0
100
AcDbRotatedDimension
  0
DIMENSION
  5
30B
330
1F
100
AcDbEntity
  8
SK2
100
AcDbDimension
  2
_D_5
 10
44.45
 20
-41.4570966099
 30
0.0
 11
33.7718322113
 21
-41.4570966099
 31
0.0
 70
   160
  1
<>
 71
     2
 42
-1.0
  3
SLDDIMSTYLE0
100
AcDbAlignedDimension
 13
22.225
 23
-24.4546002652
 33
0.0
 14
44.45
 24
-12.827
 34
0.0
100
AcDbRotatedDimension
  0
DIMENSION
  5
31E
330
1F
100
AcDbEntity
  8
SK2
100
AcDbDimension
  2
_D_6
 10
60.7343570843
 20
6.35
 30
0.0
 11
60.7343570843
 21
-0.5214924459
 31
0.0
 70
   160
  1
%%c<>
 71
     2
 42
-1.0
  3
SLDDIMSTYLE3
100
AcDbAlignedDimension
 13
43.45
 23
-6.35
 33
0.0
 14
43.45
 24
6.35
 34
0.0
 50
90.0
100
AcDbRotatedDimension
  0
DIMENSION
  5
331
330
1F
100
AcDbEntity
  8
SK2
100
AcDbDimension
  2
_D_7
 10
76.0384498918
 20
-12.827
 30
0.0
 11
76.0384498918
 21
-0.5214924459
 31
0.0
 70
   160
  1
%%c<>
 71
     2
 42
-1.0
  3
SLDDIMSTYLE0
100
AcDbAlignedDimension
 13
44.45
 23
12.827
 33
0.0
 14
44.45
 24
-12.827
 34
0.0
 50
90.0
100
AcDbRotatedDimension
  0
DIMENSION
  5
343
330
1F
100
AcDbEntity
  8
SK2
100
AcDbDimension
  2
_D_8
 10
91.8198411965
 20
-22.225
 30
0.0
 11
91.8198411965
 21
-0.5214924459
 31
0.0
 70
   160
  1
%%c<>
 71
     2
 42
-1.0
  3
SLDDIMSTYLE0
100
AcDbAlignedDimension
 13
35.052
 23
22.1836591967
 33
0.0
 14
35.052
 24
-22.225
 34
0.0
 50
90.0
100
AcDbRotatedDimension
  0
DIMENSION
  5
355
330
1F
100
AcDbEntity
  8
SK2
100
AcDbDimension
  2
_D_9
 10
-88.404256195
 20
-30.5579086614
 30
0.0
 11
-88.404256195
 21
-0.5214924459
 31
0.0
 70
   160
  1
%%c<>
 71
     2
 42
-1.0
  3
SLDDIMSTYLE4
100
AcDbAlignedDimension
 13
5.7694368227
 23
30.5578899967
 33
0.0
 14
3.95
 24
-30.5579086614
 34
0.0
 50
90.0
100
AcDbRotatedDimension
  0
DIMENSION
  5
361
330
1F
100
AcDbEntity
  8
SK2
100
AcDbDimension
  2
_D_10
 10
-76.9400375145
 20
-7.9375002533
 30
0.0
 11
-76.9400375145
 21
0.7689286077
 31
0.0
 70
   160
  1
<>
 71
     2
 42
-1.0
  3
SLDDIMSTYLE5
100
AcDbAlignedDimension
 13
-63.3082389832
 23
7.9375002533
 33
0.0
 14
-63.3082389832
 24
-7.9375002533
 34
0.0
 50
90.0
100
AcDbRotatedDimension
  0
DIMENSION
  5
36F
330
1F
100
AcDbEntity
  8
SK2
100
AcDbDimension
  2
_D_11
 10
19.05
 20
42.1957535875
 30
0.0
 11
8.5611411642
 21
42.1957535875
 31
0.0
 70
   160
  1
<>
 71
     2
 42
-1.0
  3
SLDDIMSTYLE4
100
AcDbAlignedDimension
 13
0.0
 23
22.225
 33
0.0
 14
19.05
 24
29.8048664484
 34
0.0
100
AcDbRotatedDimension
  0
MTEXT
  5
379
330
1F
100
AcDbEntity
  8
SK6
 62
     5
100
AcDbMText
 10
-55.5669417994
 20
-23.2609688989
 30
0.0
 40
3.5
 41
0.0
 71
     1
 72
     1
  1
AA3B20-40 13 044
  7
SLDTEXTSTYLE0
 73
     1
 44
1.0
  0
MTEXT
  5
37A
330
1F
100
AcDbEntity
  8
SK6
 62
     5
100
AcDbMText
 10
-59.4401916332
 20
26.7581852742
 30
0.0
 40
3.5
 41
0.0
 71
     1
 72
     1
  1
ASME B5.50 CAT 40
  7
SLDTEXTSTYLE0
 73
     1
 44
1.0
  0
ENDSEC
  0
SECTION
  2
OBJECTS
  0
DICTIONARY
  5
C
330
0
100
AcDbDictionary
281
     1
  3
ACAD_GROUP
350
D
  3
ACAD_LAYOUT
350
1A
  3
ACAD_MLINESTYLE
350
17
  3
ACAD_PLOTSETTINGS
350
19
  3
ACAD_PLOTSTYLENAME
350
E
  3
ACAD_SCALELIST
350
47
  0
DICTIONARY
  5
D
102
{ACAD_REACTORS
330
C
102
}
330
C
100
AcDbDictionary
281
     1
  0
DICTIONARY
  5
1A
102
{ACAD_REACTORS
330
C
102
}
330
C
100
AcDbDictionary
281
     1
  3
Layout1
350
1E
  3
Layout2
350
26
  3
Model
350
22
  0
DICTIONARY
  5
17
102
{ACAD_REACTORS
330
C
102
}
330
C
100
AcDbDictionary
281
     1
  3
Standard
350
18
  0
DICTIONARY
  5
19
102
{ACAD_REACTORS
330
C
102
}
330
C
100
AcDbDictionary
281
     1
  0
ACDBDICTIONARYWDFLT
  5
E
102
{ACAD_REACTORS
330
C
102
}
330
C
100
AcDbDictionary
281
     1
  3
Normal
350
F
100
AcDbDictionaryWithDefault
340
F
  0
DICTIONARY
  5
47
102
{ACAD_REACTORS
330
C
102
}
330
C
100
AcDbDictionary
281
     1
  3
A0
350
48
  3
A1
350
49
  3
A2
350
4A
  3
A3
350
4B
  3
A4
350
4C
  3
A5
350
4D
  3
A6
350
4E
  3
A7
350
4F
  3
A8
350
50
  3
A9
350
51
  3
B0
350
52
  3
B1
350
53
  3
B2
350
54
  3
B3
350
55
  3
B4
350
56
  3
B5
350
57
  3
B6
350
58
  3
B7
350
59
  3
B8
350
5A
  3
B9
350
5B
  3
C0
350
5C
  3
C1
350
5D
  3
C2
350
5E
  3
C3
350
5F
  3
C4
350
60
  3
C5
350
61
  3
C6
350
62
  3
C7
350
63
  3
C8
350
64
  3
C9
350
65
  3
D0
350
66
  3
D1
350
67
  3
D2
350
68
  0
LAYOUT
  5
1E
102
{ACAD_REACTORS
330
1A
102
}
330
1A
100
AcDbPlotSettings
  1

  2
none_device
  4

  6

 40
0.0
 41
0.0
 42
0.0
 43
0.0
 44
0.0
 45
0.0
 46
0.0
 47
0.0
 48
0.0
 49
0.0
140
0.0
141
0.0
142
1.0
143
1.0
 70
   688
 72
     1
 73
     0
 74
     5
  7

 75
    16
147
1.0
148
0.0
149
0.0
100
AcDbLayout
  1
Layout1
 70
     1
 71
     1
 10
0.0
 20
0.0
 11
420.0
 21
297.0
 12
0.0
 22
0.0
 32
0.0
 14
1.0000000000E+20
 24
1.0000000000E+20
 34
1.0000000000E+20
 15
-1.0000000000E+20
 25
-1.0000000000E+20
 35
-1.0000000000E+20
146
0.0
 13
0.0
 23
0.0
 33
0.0
 16
1.0
 26
0.0
 36
0.0
 17
0.0
 27
1.0
 37
0.0
 76
     0
330
1B
  0
LAYOUT
  5
26
102
{ACAD_REACTORS
330
1A
102
}
330
1A
100
AcDbPlotSettings
  1

  2
none_device
  4

  6

 40
0.0
 41
0.0
 42
0.0
 43
0.0
 44
0.0
 45
0.0
 46
0.0
 47
0.0
 48
0.0
 49
0.0
140
0.0
141
0.0
142
1.0
143
1.0
 70
   688
 72
     1
 73
     0
 74
     5
  7

 75
    16
147
1.0
148
0.0
149
0.0
100
AcDbLayout
  1
Layout2
 70
     1
 71
     2
 10
0.0
 20
0.0
 11
0.0
 21
0.0
 12
0.0
 22
0.0
 32
0.0
 14
0.0
 24
0.0
 34
0.0
 15
0.0
 25
0.0
 35
0.0
146
0.0
 13
0.0
 23
0.0
 33
0.0
 16
1.0
 26
0.0
 36
0.0
 17
0.0
 27
1.0
 37
0.0
 76
     0
330
23
  0
LAYOUT
  5
22
102
{ACAD_REACTORS
330
1A
102
}
330
1A
100
AcDbPlotSettings
  1

  2
none_device
  4
Letter_(8.50_x_11.00_Inches)
  6

 40
6.35
 41
6.35
 42
6.35000508
 43
6.35000508
 44
215.9
 45
279.4
 46
0.0
 47
0.0
 48
0.0
 49
0.0
140
0.0
141
0.0
142
1.0
143
1.0
 70
  1712
 72
     1
 73
     0
 74
     0
  7

 75
     0
147
1.0
148
0.0
149
0.0
100
AcDbLayout
  1
Model
 70
     1
 71
     0
 10
0.0
 20
0.0
 11
297.0
 21
210.0
 12
0.0
 22
0.0
 32
0.0
 14
0.0
 24
0.0
 34
0.0
 15
297.0
 25
210.0
 35
0.0
146
0.0
 13
0.0
 23
0.0
 33
0.0
 16
1.0
 26
0.0
 36
0.0
 17
0.0
 27
1.0
 37
0.0
 76
     0
330
1F
331
29
  0
MLINESTYLE
  5
18
102
{ACAD_REACTORS
330
17
102
}
330
17
100
AcDbMlineStyle
  2
Standard
 70
     0
  3

 62
   256
 51
90.0
 52
90.0
 71
     2
 49
0.5
 62
   256
  6
BYLAYER
 49
-0.5
 62
   256
  6
BYLAYER
  0
ACDBPLACEHOLDER
  5
F
102
{ACAD_REACTORS
330
E
102
}
330
E
  0
SCALE
  5
48
102
{ACAD_REACTORS
330
47
102
}
330
47
100
AcDbScale
 70
     0
300
1:1
140
1.0
141
1.0
290
     1
  0
SCALE
  5
49
102
{ACAD_REACTORS
330
47
102
}
330
47
100
AcDbScale
 70
     0
300
1:2
140
1.0
141
2.0
290
     0
  0
SCALE
  5
4A
102
{ACAD_REACTORS
330
47
102
}
330
47
100
AcDbScale
 70
     0
300
1:4
140
1.0
141
4.0
290
     0
  0
SCALE
  5
4B
102
{ACAD_REACTORS
330
47
102
}
330
47
100
AcDbScale
 70
     0
300
1:5
140
1.0
141
5.0
290
     0
  0
SCALE
  5
4C
102
{ACAD_REACTORS
330
47
102
}
330
47
100
AcDbScale
 70
     0
300
1:8
140
1.0
141
8.0
290
     0
  0
SCALE
  5
4D
102
{ACAD_REACTORS
330
47
102
}
330
47
100
AcDbScale
 70
     0
300
1:10
140
1.0
141
10.0
290
     0
  0
SCALE
  5
4E
102
{ACAD_REACTORS
330
47
102
}
330
47
100
AcDbScale
 70
     0
300
1:16
140
1.0
141
16.0
290
     0
  0
SCALE
  5
4F
102
{ACAD_REACTORS
330
47
102
}
330
47
100
AcDbScale
 70
     0
300
1:20
140
1.0
141
20.0
290
     0
  0
SCALE
  5
50
102
{ACAD_REACTORS
330
47
102
}
330
47
100
AcDbScale
 70
     0
300
1:30
140
1.0
141
30.0
290
     0
  0
SCALE
  5
51
102
{ACAD_REACTORS
330
47
102
}
330
47
100
AcDbScale
 70
     0
300
1:40
140
1.0
141
40.0
290
     0
  0
SCALE
  5
52
102
{ACAD_REACTORS
330
47
102
}
330
47
100
AcDbScale
 70
     0
300
1:50
140
1.0
141
50.0
290
     0
  0
SCALE
  5
53
102
{ACAD_REACTORS
330
47
102
}
330
47
100
AcDbScale
 70
     0
300
1:100
140
1.0
141
100.0
290
     0
  0
SCALE
  5
54
102
{ACAD_REACTORS
330
47
102
}
330
47
100
AcDbScale
 70
     0
300
2:1
140
2.0
141
1.0
290
     0
  0
SCALE
  5
55
102
{ACAD_REACTORS
330
47
102
}
330
47
100
AcDbScale
 70
     0
300
4:1
140
4.0
141
1.0
290
     0
  0
SCALE
  5
56
102
{ACAD_REACTORS
330
47
102
}
330
47
100
AcDbScale
 70
     0
300
8:1
140
8.0
141
1.0
290
     0
  0
SCALE
  5
57
102
{ACAD_REACTORS
330
47
102
}
330
47
100
AcDbScale
 70
     0
300
10:1
140
10.0
141
1.0
290
     0
  0
SCALE
  5
58
102
{ACAD_REACTORS
330
47
102
}
330
47
100
AcDbScale
 70
     0
300
100:1
140
100.0
141
1.0
290
     0
  0
SCALE
  5
59
102
{ACAD_REACTORS
330
47
102
}
330
47
100
AcDbScale
 70
     0
300
1/128" = 1'-0"
140
0.0078125
141
12.0
290
     0
  0
SCALE
  5
5A
102
{ACAD_REACTORS
330
47
102
}
330
47
100
AcDbScale
 70
     0
300
1/64" = 1'-0"
140
0.015625
141
12.0
290
     0
  0
SCALE
  5
5B
102
{ACAD_REACTORS
330
47
102
}
330
47
100
AcDbScale
 70
     0
300
1/32" = 1'-0"
140
0.03125
141
12.0
290
     0
  0
SCALE
  5
5C
102
{ACAD_REACTORS
330
47
102
}
330
47
100
AcDbScale
 70
     0
300
1/16" = 1'-0"
140
0.0625
141
12.0
290
     0
  0
SCALE
  5
5D
102
{ACAD_REACTORS
330
47
102
}
330
47
100
AcDbScale
 70
     0
300
3/32" = 1'-0"
140
0.09375
141
12.0
290
     0
  0
SCALE
  5
5E
102
{ACAD_REACTORS
330
47
102
}
330
47
100
AcDbScale
 70
     0
300
1/8" = 1'-0"
140
0.125
141
12.0
290
     0
  0
SCALE
  5
5F
102
{ACAD_REACTORS
330
47
102
}
330
47
100
AcDbScale
 70
     0
300
3/16" = 1'-0"
140
0.1875
141
12.0
290
     0
  0
SCALE
  5
60
102
{ACAD_REACTORS
330
47
102
}
330
47
100
AcDbScale
 70
     0
300
1/4" = 1'-0"
140
0.25
141
12.0
290
     0
  0
SCALE
  5
61
102
{ACAD_REACTORS
330
47
102
}
330
47
100
AcDbScale
 70
     0
300
3/8" = 1'-0"
140
0.375
141
12.0
290
     0
  0
SCALE
  5
62
102
{ACAD_REACTORS
330
47
102
}
330
47
100
AcDbScale
 70
     0
300
1/2" = 1'-0"
140
0.5
141
12.0
290
     0
  0
SCALE
  5
63
102
{ACAD_REACTORS
330
47
102
}
330
47
100
AcDbScale
 70
     0
300
3/4" = 1'-0"
140
0.75
141
12.0
290
     0
  0
SCALE
  5
64
102
{ACAD_REACTORS
330
47
102
}
330
47
100
AcDbScale
 70
     0
300
1" = 1'-0"
140
1.0
141
12.0
290
     0
  0
SCALE
  5
65
102
{ACAD_REACTORS
330
47
102
}
330
47
100
AcDbScale
 70
     0
300
1-1/2" = 1'-0"
140
1.5
141
12.0
290
     0
  0
SCALE
  5
66
102
{ACAD_REACTORS
330
47
102
}
330
47
100
AcDbScale
 70
     0
300
3" = 1'-0"
140
3.0
141
12.0
290
     0
  0
SCALE
  5
67
102
{ACAD_REACTORS
330
47
102
}
330
47
100
AcDbScale
 70
     0
300
6" = 1'-0"
140
6.0
141
12.0
290
     0
  0
SCALE
  5
68
102
{ACAD_REACTORS
330
47
102
}
330
47
100
AcDbScale
 70
     0
300
1'-0" = 1'-0"
140
12.0
141
12.0
290
     0
  0
ENDSEC
  0
EOF
