  0
SECTION
  2
HEADER
  9
$ACADVER
  1
AC1015
  9
$ACADMAINTVER
 70
     6
  9
$DWGCODEPAGE
  3
ANSI_1250
  9
$INSBASE
 10
0.0
 20
0.0
 30
0.0
  9
$EXTMIN
 10
0.0
 20
0.0
 30
0.0
  9
$EXTMAX
 10
297.0
 20
210.0
 30
0.0
  9
$LIMMIN
 10
0.0
 20
0.0
  9
$LIMMAX
 10
297.0
 20
210.0
  9
$ORTHOMODE
 70
     0
  9
$REGENMODE
 70
     1
  9
$FILLMODE
 70
     1
  9
$QTEXTMODE
 70
     0
  9
$MIRRTEXT
 70
     1
  9
$LTSCALE
 40
1.0
  9
$ATTMODE
 70
     1
  9
$TEXTSIZE
 40
3.5
  9
$TRACEWID
 40
1.0
  9
$TEXTSTYLE
  7
Standard
  9
$CLAYER
  8
0
  9
$CELTYPE
  6
ByLayer
  9
$CECOLOR
 62
   256
  9
$CELTSCALE
 40
1.0
  9
$DISPSILH
 70
     0
  9
$DIMSCALE
 40
1.0
  9
$DIMASZ
 40
3.302
  9
$DIMEXO
 40
1.0
  9
$DIMDLI
 40
3.75
  9
$DIMRND
 40
0.0
  9
$DIMDLE
 40
0.0
  9
$DIMEXE
 40
1.0
  9
$DIMTP
 40
0.0
  9
$DIMTM
 40
0.0
  9
$DIMTXT
 40
3.5
  9
$DIMCEN
 40
2.5
  9
$DIMTSZ
 40
0.0
  9
$DIMTOL
 70
     0
  9
$DIMLIM
 70
     0
  9
$DIMTIH
 70
     1
  9
$DIMTOH
 70
     1
  9
$DIMSE1
 70
     0
  9
$DIMSE2
 70
     0
  9
$DIMTAD
 70
     1
  9
$DIMZIN
 70
     0
  9
$DIMBLK
  1

  9
$DIMASO
 70
     1
  9
$DIMSHO
 70
     1
  9
$DIMPOST
  1

  9
$DIMAPOST
  1

  9
$DIMALT
 70
     0
  9
$DIMALTD
 70
     3
  9
$DIMALTF
 40
0.0393700787
  9
$DIMLFAC
 40
1.0
  9
$DIMTOFL
 70
     1
  9
$DIMTVP
 40
0.0
  9
$DIMTIX
 70
     0
  9
$DIMSOXD
 70
     0
  9
$DIMSAH
 70
     0
  9
$DIMBLK1
  1

  9
$DIMBLK2
  1

  9
$DIMSTYLE
  2
ISO-25
  9
$DIMCLRD
 70
     0
  9
$DIMCLRE
 70
     0
  9
$DIMCLRT
 70
     0
  9
$DIMTFAC
 40
1.0
  9
$DIMGAP
 40
1.524
  9
$DIMJUST
 70
     0
  9
$DIMSD1
 70
     0
  9
$DIMSD2
 70
     0
  9
$DIMTOLJ
 70
     0
  9
$DIMTZIN
 70
     0
  9
$DIMALTZ
 70
     0
  9
$DIMALTTZ
 70
     0
  9
$DIMUPT
 70
     0
  9
$DIMDEC
 70
     2
  9
$DIMTDEC
 70
     2
  9
$DIMALTU
 70
     2
  9
$DIMALTTD
 70
     3
  9
$DIMTXSTY
  7
Standard
  9
$DIMAUNIT
 70
     0
  9
$DIMADEC
 70
     2
  9
$DIMALTRND
 40
0.0
  9
$DIMAZIN
 70
     0
  9
$DIMDSEP
 70
    44
  9
$DIMATFIT
 70
     3
  9
$DIMFRAC
 70
     0
  9
$DIMLDRBLK
  1

  9
$DIMLUNIT
 70
     2
  9
$DIMLWD
 70
    -2
  9
$DIMLWE
 70
    -2
  9
$DIMTMOVE
 70
     0
  9
$LUNITS
 70
     2
  9
$LUPREC
 70
     2
  9
$SKETCHINC
 40
1.0
  9
$FILLETRAD
 40
10.0
  9
$AUNITS
 70
     0
  9
$AUPREC
 70
     2
  9
$MENU
  1
.
  9
$ELEVATION
 40
0.0
  9
$PELEVATION
 40
0.0
  9
$THICKNESS
 40
0.0
  9
$LIMCHECK
 70
     0
  9
$CHAMFERA
 40
0.0
  9
$CHAMFERB
 40
0.0
  9
$CHAMFERC
 40
0.0
  9
$CHAMFERD
 40
0.0
  9
$SKPOLY
 70
     0
  9
$TDCREATE
 40
2459278.312212801
  9
$TDUCREATE
 40
2459278.270546134
  9
$TDUPDATE
 40
2459278.312214745
  9
$TDUUPDATE
 40
2459278.270548079
  9
$TDINDWG
 40
0.0000000116
  9
$TDUSRTIMER
 40
0.0000000116
  9
$USRTIMER
 70
     1
  9
$ANGBASE
 50
0.0
  9
$ANGDIR
 70
     0
  9
$PDMODE
 70
     0
  9
$PDSIZE
 40
-1.0
  9
$PLINEWID
 40
0.0
  9
$SPLFRAME
 70
     0
  9
$SPLINETYPE
 70
     6
  9
$SPLINESEGS
 70
     8
  9
$HANDSEED
  5
358
  9
$SURFTAB1
 70
     6
  9
$SURFTAB2
 70
     6
  9
$SURFTYPE
 70
     6
  9
$SURFU
 70
     6
  9
$SURFV
 70
     6
  9
$UCSBASE
  2

  9
$UCSNAME
  2

  9
$UCSORG
 10
0.0
 20
0.0
 30
0.0
  9
$UCSXDIR
 10
1.0
 20
0.0
 30
0.0
  9
$UCSYDIR
 10
0.0
 20
1.0
 30
0.0
  9
$UCSORTHOREF
  2

  9
$UCSORTHOVIEW
 70
     0
  9
$UCSORGTOP
 10
0.0
 20
0.0
 30
0.0
  9
$UCSORGBOTTOM
 10
0.0
 20
0.0
 30
0.0
  9
$UCSORGLEFT
 10
0.0
 20
0.0
 30
0.0
  9
$UCSORGRIGHT
 10
0.0
 20
0.0
 30
0.0
  9
$UCSORGFRONT
 10
0.0
 20
0.0
 30
0.0
  9
$UCSORGBACK
 10
0.0
 20
0.0
 30
0.0
  9
$PUCSBASE
  2

  9
$PUCSNAME
  2

  9
$PUCSORG
 10
0.0
 20
0.0
 30
0.0
  9
$PUCSXDIR
 10
1.0
 20
0.0
 30
0.0
  9
$PUCSYDIR
 10
0.0
 20
1.0
 30
0.0
  9
$PUCSORTHOREF
  2

  9
$PUCSORTHOVIEW
 70
     0
  9
$PUCSORGTOP
 10
0.0
 20
0.0
 30
0.0
  9
$PUCSORGBOTTOM
 10
0.0
 20
0.0
 30
0.0
  9
$PUCSORGLEFT
 10
0.0
 20
0.0
 30
0.0
  9
$PUCSORGRIGHT
 10
0.0
 20
0.0
 30
0.0
  9
$PUCSORGFRONT
 10
0.0
 20
0.0
 30
0.0
  9
$PUCSORGBACK
 10
0.0
 20
0.0
 30
0.0
  9
$USERI1
 70
     0
  9
$USERI2
 70
     0
  9
$USERI3
 70
     0
  9
$USERI4
 70
     0
  9
$USERI5
 70
     0
  9
$USERR1
 40
0.0
  9
$USERR2
 40
0.0
  9
$USERR3
 40
0.0
  9
$USERR4
 40
0.0
  9
$USERR5
 40
0.0
  9
$WORLDVIEW
 70
     1
  9
$SHADEDGE
 70
     3
  9
$SHADEDIF
 70
    70
  9
$TILEMODE
 70
     1
  9
$MAXACTVP
 70
    64
  9
$PINSBASE
 10
0.0
 20
0.0
 30
0.0
  9
$PLIMCHECK
 70
     0
  9
$PEXTMIN
 10
1.0000000000E+20
 20
1.0000000000E+20
 30
1.0000000000E+20
  9
$PEXTMAX
 10
-1.0000000000E+20
 20
-1.0000000000E+20
 30
-1.0000000000E+20
  9
$PLIMMIN
 10
0.0
 20
0.0
  9
$PLIMMAX
 10
420.0
 20
297.0
  9
$UNITMODE
 70
     0
  9
$VISRETAIN
 70
     1
  9
$PLINEGEN
 70
     0
  9
$PSLTSCALE
 70
     1
  9
$TREEDEPTH
 70
  3020
  9
$CMLSTYLE
  2
Standard
  9
$CMLJUST
 70
     0
  9
$CMLSCALE
 40
20.0
  9
$PROXYGRAPHICS
 70
     1
  9
$MEASUREMENT
 70
     1
  9
$CELWEIGHT
370
    -1
  9
$ENDCAPS
280
     0
  9
$JOINSTYLE
280
     0
  9
$LWDISPLAY
290
     1
  9
$INSUNITS
 70
     4
  9
$HYPERLINKBASE
  1

  9
$STYLESHEET
  1

  9
$XEDIT
290
     1
  9
$CEPSNTYPE
380
     0
  9
$PSTYLEMODE
290
     1
  9
$FINGERPRINTGUID
  2
{35D76DC5-A730-4A77-863B-715AB8C3AD9E}
  9
$VERSIONGUID
  2
{FAEB1C32-E019-11D5-929B-00C0DF256EC4}
  9
$EXTNAMES
290
     1
  9
$PSVPSCALE
 40
0.0
  9
$OLESTARTUP
290
     0
  0
ENDSEC
  0
SECTION
  2
CLASSES
  0
CLASS
  1
ACDBDICTIONARYWDFLT
  2
AcDbDictionaryWithDefault
  3
ObjectDBX Classes
 90
        0
280
     0
281
     0
  0
CLASS
  1
VISUALSTYLE
  2
AcDbVisualStyle
  3
ObjectDBX Classes
 90
     4095
280
     0
281
     0
  0
CLASS
  1
MATERIAL
  2
AcDbMaterial
  3
ObjectDBX Classes
 90
     1153
280
     0
281
     0
  0
CLASS
  1
SCALE
  2
AcDbScale
  3
ObjectDBX Classes
 90
     1153
280
     0
281
     0
  0
CLASS
  1
TABLESTYLE
  2
AcDbTableStyle
  3
ObjectDBX Classes
 90
     4095
280
     0
281
     0
  0
CLASS
  1
MLEADERSTYLE
  2
AcDbMLeaderStyle
  3
ACDB_MLEADERSTYLE_CLASS
 90
     4095
280
     0
281
     0
  0
CLASS
  1
SUN
  2
AcDbSun
  3
SCENEOE
 90
     1153
280
     0
281
     0
  0
CLASS
  1
ACDBPLACEHOLDER
  2
AcDbPlaceHolder
  3
ObjectDBX Classes
 90
        0
280
     0
281
     0
  0
CLASS
  1
LAYOUT
  2
AcDbLayout
  3
ObjectDBX Classes
 90
        0
280
     0
281
     0
  0
ENDSEC
  0
SECTION
  2
TABLES
  0
TABLE
  2
VPORT
  5
8
330
0
100
AcDbSymbolTable
 70
     1
  0
VPORT
  5
29
330
8
100
AcDbSymbolTableRecord
100
AcDbViewportTableRecord
  2
*Active
 70
     0
 10
0.0
 20
0.0
 11
1.0
 21
1.0
 12
148.5
 22
105.0
 13
0.0
 23
0.0
 14
10.0
 24
10.0
 15
10.0
 25
10.0
 16
0.0
 26
0.0
 36
1.0
 17
0.0
 27
0.0
 37
0.0
 40
210.0
 41
1.4142857143
 42
50.0
 43
0.0
 44
0.0
 50
0.0
 51
0.0
 71
     0
 72
  2000
 73
     1
 74
     3
 75
     0
 76
     0
 77
     0
 78
     0
281
     0
 65
     1
110
0.0
120
0.0
130
0.0
111
1.0
121
0.0
131
0.0
112
0.0
122
1.0
132
0.0
 79
     0
146
0.0
  0
ENDTAB
  0
TABLE
  2
LTYPE
  5
5
330
0
100
AcDbSymbolTable
 70
     8
  0
LTYPE
  5
14
330
5
100
AcDbSymbolTableRecord
100
AcDbLinetypeTableRecord
  2
ByBlock
 70
     0
  3

 72
    65
 73
     0
 40
0.0
  0
LTYPE
  5
15
330
5
100
AcDbSymbolTableRecord
100
AcDbLinetypeTableRecord
  2
ByLayer
 70
     0
  3

 72
    65
 73
     0
 40
0.0
  0
LTYPE
  5
16
330
5
100
AcDbSymbolTableRecord
100
AcDbLinetypeTableRecord
  2
Continuous
 70
     0
  3
Solid line
 72
    65
 73
     0
 40
0.0
  0
LTYPE
  5
6E
330
5
100
AcDbSymbolTableRecord
100
AcDbLinetypeTableRecord
  2
SLD-Solid
 70
     0
  3
SolidWorks Line Style
 72
    65
 73
     0
 40
0.0
  0
LTYPE
  5
6F
330
5
100
AcDbSymbolTableRecord
100
AcDbLinetypeTableRecord
  2
SLD-Dashed
 70
     0
  3
SolidWorks Line Style
 72
    65
 73
     2
 40
1.905
 49
1.27
 74
     0
 49
-0.635
 74
     0
  0
LTYPE
  5
70
330
5
100
AcDbSymbolTableRecord
100
AcDbLinetypeTableRecord
  2
SLD-Phantom
 70
     0
  3
SolidWorks Line Style
 72
    65
 73
     6
 40
12.7
 49
6.35
 74
     0
 49
-1.27
 74
     0
 49
1.27
 74
     0
 49
-1.27
 74
     0
 49
1.27
 74
     0
 49
-1.27
 74
     0
  0
LTYPE
  5
71
330
5
100
AcDbSymbolTableRecord
100
AcDbLinetypeTableRecord
  2
SLD-Chain
 70
     0
  3
SolidWorks Line Style
 72
    65
 73
     4
 40
10.16
 49
6.35
 74
     0
 49
-1.27
 74
     0
 49
1.27
 74
     0
 49
-1.27
 74
     0
  0
LTYPE
  5
72
330
5
100
AcDbSymbolTableRecord
100
AcDbLinetypeTableRecord
  2
SLD-Center
 70
     0
  3
SolidWorks Line Style
 72
    65
 73
     4
 40
19.05
 49
15.24
 74
     0
 49
-1.27
 74
     0
 49
1.27
 74
     0
 49
-1.27
 74
     0
  0
LTYPE
  5
73
330
5
100
AcDbSymbolTableRecord
100
AcDbLinetypeTableRecord
  2
SLD-Stitch
 70
     0
  3
SolidWorks Line Style
 72
    65
 73
     2
 40
0.635
 49
0.0
 74
     0
 49
-0.635
 74
     0
  0
LTYPE
  5
74
330
5
100
AcDbSymbolTableRecord
100
AcDbLinetypeTableRecord
  2
SLD-Thin-Thick-Chain
 70
     0
  3
SolidWorks Line Style
 72
    65
 73
     4
 40
10.16
 49
6.35
 74
     0
 49
-1.27
 74
     0
 49
1.27
 74
     0
 49
-1.27
 74
     0
  0
ENDTAB
  0
TABLE
  2
LAYER
  5
2
330
0
100
AcDbSymbolTable
 70
    14
  0
LAYER
  5
10
330
2
100
AcDbSymbolTableRecord
100
AcDbLayerTableRecord
  2
0
 70
     0
 62
     7
  6
Continuous
370
    -3
390
F
  0
LAYER
  5
75
330
2
100
AcDbSymbolTableRecord
100
AcDbLayerTableRecord
  2
SLD-0
 70
     0
 62
   179
  6
SLD-Solid
370
    -3
390
F
  0
LAYER
  5
76
330
2
100
AcDbSymbolTableRecord
100
AcDbLayerTableRecord
  2
80
 70
     0
 62
    -6
  6
SLD-Solid
290
     0
370
    -3
390
F
  0
LAYER
  5
77
330
2
100
AcDbSymbolTableRecord
100
AcDbLayerTableRecord
  2
81
 70
     0
 62
    -3
  6
SLD-Solid
290
     0
370
    -3
390
F
  0
LAYER
  5
78
330
2
100
AcDbSymbolTableRecord
100
AcDbLayerTableRecord
  2
1
 70
     0
 62
     4
  6
SLD-Solid
290
     0
370
    -3
390
F
  0
LAYER
  5
79
330
2
100
AcDbSymbolTableRecord
100
AcDbLayerTableRecord
  2
4
 70
     0
 62
    -2
  6
SLD-Chain
290
     0
370
    -3
390
F
  0
LAYER
  5
7A
330
2
100
AcDbSymbolTableRecord
100
AcDbLayerTableRecord
  2
2
 70
     0
 62
     7
  6
SLD-Solid
290
     0
370
    -3
390
F
  0
LAYER
  5
7B
330
2
100
AcDbSymbolTableRecord
100
AcDbLayerTableRecord
  2
SK3
 70
     0
 62
     1
  6
SLD-Dashed
290
     0
370
    -3
390
F
  0
LAYER
  5
7C
330
2
100
AcDbSymbolTableRecord
100
AcDbLayerTableRecord
  2
SK4
 70
     0
 62
     2
  6
SLD-Chain
290
     0
370
    -3
390
F
  0
LAYER
  5
7D
330
2
100
AcDbSymbolTableRecord
100
AcDbLayerTableRecord
  2
SK2
 70
     0
 62
     7
  6
SLD-Solid
290
     0
370
    -3
390
F
  0
LAYER
  5
7E
330
2
100
AcDbSymbolTableRecord
100
AcDbLayerTableRecord
  2
SK6
 70
     0
 62
     5
  6
SLD-Solid
290
     0
370
    -3
390
F
  0
LAYER
  5
7F
330
2
100
AcDbSymbolTableRecord
100
AcDbLayerTableRecord
  2
6
 70
     0
 62
     5
  6
SLD-Solid
370
    -3
390
F
  0
LAYER
  5
80
330
2
100
AcDbSymbolTableRecord
100
AcDbLayerTableRecord
  2
SK1
 70
     0
 62
     4
  6
SLD-Solid
370
    -3
390
F
  0
LAYER
  5
81
330
2
100
AcDbSymbolTableRecord
100
AcDbLayerTableRecord
  2
LAYER5
 70
     0
 62
   218
  6
SLD-Solid
370
    -3
390
F
  0
ENDTAB
  0
TABLE
  2
STYLE
  5
3
330
0
100
AcDbSymbolTable
 70
     3
  0
STYLE
  5
11
330
3
100
AcDbSymbolTableRecord
100
AcDbTextStyleTableRecord
  2
Standard
 70
     0
 40
0.0
 41
1.0
 50
0.0
 71
     0
 42
3.5
  3
txt
  4

  0
STYLE
  5
278
330
3
100
AcDbSymbolTableRecord
100
AcDbTextStyleTableRecord
  2
SLDTEXTSTYLE0
 70
     0
 40
0.0
 41
0.75
 50
0.0
 71
     0
 42
3.5
  3
TXT
  4

  0
STYLE
  5
354
330
3
100
AcDbSymbolTableRecord
100
AcDbTextStyleTableRecord
  2
SLDTEXTSTYLE1
 70
     0
 40
0.0
 41
0.6875
 50
0.0
 71
     0
 42
3.5
  3
TXT
  4

  0
ENDTAB
  0
TABLE
  2
VIEW
  5
6
330
0
100
AcDbSymbolTable
 70
     0
  0
ENDTAB
  0
TABLE
  2
UCS
  5
7
330
0
100
AcDbSymbolTable
 70
     0
  0
ENDTAB
  0
TABLE
  2
APPID
  5
9
330
0
100
AcDbSymbolTable
 70
     1
  0
APPID
  5
12
330
9
100
AcDbSymbolTableRecord
100
AcDbRegAppTableRecord
  2
ACAD
 70
     0
  0
ENDTAB
  0
TABLE
  2
DIMSTYLE
  5
A
330
0
100
AcDbSymbolTable
 70
     7
100
AcDbDimStyleTable
  0
DIMSTYLE
105
27
330
A
100
AcDbSymbolTableRecord
100
AcDbDimStyleTableRecord
  2
ISO-25
 70
     0
 41
2.5
 42
0.625
 43
3.75
 44
1.25
 73
     0
 74
     0
 77
     1
 78
     8
140
2.5
141
2.5
143
0.0393700787
147
0.625
171
     3
172
     1
178
     0
271
     2
272
     2
274
     3
278
    44
283
     0
284
     8
340
11
  0
DIMSTYLE
105
279
102
{ACAD_REACTORS
330
277
330
28C
330
29F
330
2B2
330
2E5
330
2F7
330
31D
102
}
330
A
100
AcDbSymbolTableRecord
100
AcDbDimStyleTableRecord
  2
SLDDIMSTYLE0
 70
     0
 41
3.302
 44
0.0
 45
0.000000001
 73
     0
 74
     0
 77
     1
 78
    12
 79
     3
140
3.5
143
0.0393700787
147
0.875
148
0.000000001
170
     1
173
     1
178
     0
271
     2
272
     2
276
     2
284
    12
340
278
  0
DIMSTYLE
105
2C6
102
{ACAD_REACTORS
330
2C5
330
33D
102
}
330
A
100
AcDbSymbolTableRecord
100
AcDbDimStyleTableRecord
  2
SLDDIMSTYLE1
 70
     0
 41
3.302
 44
0.0
 45
0.000000001
 73
     0
 74
     0
 77
     1
 78
    12
 79
     3
140
3.5
147
0.875
173
     1
178
     0
271
     2
272
     2
276
     2
284
    12
340
278
  0
DIMSTYLE
105
2D1
102
{ACAD_REACTORS
330
2D0
102
}
330
A
100
AcDbSymbolTableRecord
100
AcDbDimStyleTableRecord
  2
SLDDIMSTYLE2
 70
     0
 41
3.302
 44
0.0
 45
0.000000001
 73
     0
 74
     0
 77
     1
 78
    12
 79
     3
140
3.5
143
0.0393700787
147
0.875
148
0.000000001
170
     1
172
     1
173
     1
178
     0
271
     3
272
     2
276
     2
284
    12
289
     0
340
278
  0
DIMSTYLE
105
30A
102
{ACAD_REACTORS
330
309
102
}
330
A
100
AcDbSymbolTableRecord
100
AcDbDimStyleTableRecord
  2
SLDDIMSTYLE3
 70
     0
 41
3.302
 44
0.0
 45
0.000000001
 73
     0
 74
     0
 77
     1
 78
    12
 79
     3
140
3.5
143
0.0393700787
147
0.875
148
0.000000001
170
     1
171
     3
173
     1
178
     0
271
     3
272
     2
274
     3
276
     2
284
    12
340
278
  0
DIMSTYLE
105
331
102
{ACAD_REACTORS
330
330
102
}
330
A
100
AcDbSymbolTableRecord
100
AcDbDimStyleTableRecord
  2
SLDDIMSTYLE4
 70
     0
 41
3.302
 44
0.0
 45
0.000000001
 73
     0
 74
     0
 77
     1
 78
    12
 79
     3
140
3.5
147
0.875
172
     1
173
     1
178
     0
271
     2
272
     2
276
     2
284
    12
289
     0
340
278
  0
DIMSTYLE
105
349
102
{ACAD_REACTORS
330
348
102
}
330
A
100
AcDbSymbolTableRecord
100
AcDbDimStyleTableRecord
  2
SLDDIMSTYLE5
 70
     0
 41
3.302
 44
0.0
 45
0.000000001
 73
     0
 74
     0
 77
     1
 78
    12
 79
     3
140
3.5
147
0.875
172
     1
173
     1
178
     0
271
     6
272
     2
276
     2
284
    12
289
     0
340
278
  0
ENDTAB
  0
TABLE
  2
BLOCK_RECORD
  5
1
330
0
100
AcDbSymbolTable
 70
    14
  0
BLOCK_RECORD
  5
1F
330
1
100
AcDbSymbolTableRecord
100
AcDbBlockTableRecord
  2
*Model_Space
340
22
  0
BLOCK_RECORD
  5
1B
330
1
100
AcDbSymbolTableRecord
100
AcDbBlockTableRecord
  2
*Paper_Space
340
1E
  0
BLOCK_RECORD
  5
23
330
1
100
AcDbSymbolTableRecord
100
AcDbBlockTableRecord
  2
*Paper_Space0
340
26
  0
BLOCK_RECORD
  5
27A
330
1
100
AcDbSymbolTableRecord
100
AcDbBlockTableRecord
  2
_D
340
0
  0
BLOCK_RECORD
  5
28D
330
1
100
AcDbSymbolTableRecord
100
AcDbBlockTableRecord
  2
_D_1
340
0
  0
BLOCK_RECORD
  5
2A0
330
1
100
AcDbSymbolTableRecord
100
AcDbBlockTableRecord
  2
_D_2
340
0
  0
BLOCK_RECORD
  5
2B3
330
1
100
AcDbSymbolTableRecord
100
AcDbBlockTableRecord
  2
_D_3
340
0
  0
BLOCK_RECORD
  5
2C7
330
1
100
AcDbSymbolTableRecord
100
AcDbBlockTableRecord
  2
_D_4
340
0
  0
BLOCK_RECORD
  5
2D2
330
1
100
AcDbSymbolTableRecord
100
AcDbBlockTableRecord
  2
_D_5
340
0
  0
BLOCK_RECORD
  5
2E6
330
1
100
AcDbSymbolTableRecord
100
AcDbBlockTableRecord
  2
_D_6
340
0
  0
BLOCK_RECORD
  5
2F8
330
1
100
AcDbSymbolTableRecord
100
AcDbBlockTableRecord
  2
_D_7
340
0
  0
BLOCK_RECORD
  5
30B
330
1
100
AcDbSymbolTableRecord
100
AcDbBlockTableRecord
  2
_D_8
340
0
  0
BLOCK_RECORD
  5
31E
330
1
100
AcDbSymbolTableRecord
100
AcDbBlockTableRecord
  2
_D_9
340
0
  0
BLOCK_RECORD
  5
332
330
1
100
AcDbSymbolTableRecord
100
AcDbBlockTableRecord
  2
_D_10
340
0
  0
BLOCK_RECORD
  5
33E
330
1
100
AcDbSymbolTableRecord
100
AcDbBlockTableRecord
  2
_D_11
340
0
  0
BLOCK_RECORD
  5
34A
330
1
100
AcDbSymbolTableRecord
100
AcDbBlockTableRecord
  2
_D_12
340
0
  0
ENDTAB
  0
ENDSEC
  0
SECTION
  2
BLOCKS
  0
BLOCK
  5
20
330
1F
100
AcDbEntity
  8
0
100
AcDbBlockBegin
  2
*Model_Space
 70
     0
 10
0.0
 20
0.0
 30
0.0
  3
*Model_Space
  1

  0
ENDBLK
  5
21
330
1F
100
AcDbEntity
  8
0
100
AcDbBlockEnd
  0
BLOCK
  5
1C
330
1B
100
AcDbEntity
 67
     1
  8
0
100
AcDbBlockBegin
  2
*Paper_Space
 70
     0
 10
0.0
 20
0.0
 30
0.0
  3
*Paper_Space
  1

  0
ENDBLK
  5
1D
330
1B
100
AcDbEntity
 67
     1
  8
0
100
AcDbBlockEnd
  0
BLOCK
  5
24
330
23
100
AcDbEntity
  8
0
100
AcDbBlockBegin
  2
*Paper_Space0
 70
     0
 10
0.0
 20
0.0
 30
0.0
  3
*Paper_Space0
  1

  0
ENDBLK
  5
25
330
23
100
AcDbEntity
  8
0
100
AcDbBlockEnd
  0
BLOCK
  5
27B
330
27A
100
AcDbEntity
  8
0
100
AcDbBlockBegin
  2
_D
 70
     0
 10
0.0
 20
0.0
 30
0.0
  3
_D
  1

  0
SOLID
  5
27D
330
27A
100
AcDbEntity
  8
2
100
AcDbTrace
 10
0.0
 20
62.4453802758
 30
0.0
 11
3.302
 21
61.9373802758
 31
0.0
 12
3.302
 22
62.9533802758
 32
0.0
 13
3.302
 23
62.9533802758
 33
0.0
  0
SOLID
  5
27E
330
27A
100
AcDbEntity
  8
2
100
AcDbTrace
 10
63.5
 20
62.4453802758
 30
0.0
 11
60.198
 21
62.9533802758
 31
0.0
 12
60.198
 22
61.9373802758
 32
0.0
 13
60.198
 23
61.9373802758
 33
0.0
  0
LINE
  5
27F
330
27A
100
AcDbEntity
  8
2
100
AcDbLine
 10
22.3733014369
 20
73.2382619919
 30
0.0
 11
21.3068951795
 21
73.2382619919
 31
0.0
  0
LINE
  5
280
330
27A
100
AcDbEntity
  8
2
100
AcDbLine
 10
21.3068951795
 20
73.2382619919
 30
0.0
 11
21.3068951795
 21
67.6820120008
 31
0.0
  0
LINE
  5
281
330
27A
100
AcDbEntity
  8
2
100
AcDbLine
 10
21.3068951795
 20
67.6820120008
 30
0.0
 11
22.3733014369
 21
67.6820120008
 31
0.0
  0
LINE
  5
282
330
27A
100
AcDbEntity
  8
2
100
AcDbLine
 10
31.4246904978
 20
73.2382619919
 30
0.0
 11
32.4910967553
 21
73.2382619919
 31
0.0
  0
LINE
  5
283
330
27A
100
AcDbEntity
  8
2
100
AcDbLine
 10
32.4910967553
 20
73.2382619919
 30
0.0
 11
32.4910967553
 21
67.6820120008
 31
0.0
  0
LINE
  5
284
330
27A
100
AcDbEntity
  8
2
100
AcDbLine
 10
32.4910967553
 20
67.6820120008
 30
0.0
 11
31.4246904978
 21
67.6820120008
 31
0.0
  0
LINE
  5
285
330
27A
100
AcDbEntity
  8
2
100
AcDbLine
 10
0.0
 20
23.225
 30
0.0
 11
0.0
 21
63.4453802758
 31
0.0
  0
LINE
  5
286
330
27A
100
AcDbEntity
  8
2
100
AcDbLine
 10
63.5
 20
10.906
 30
0.0
 11
63.5
 21
63.4453802758
 31
0.0
  0
LINE
  5
287
330
27A
100
AcDbEntity
  8
2
100
AcDbLine
 10
0.0
 20
62.4453802758
 30
0.0
 11
63.5
 21
62.4453802758
 31
0.0
  0
MTEXT
  5
288
330
27A
100
AcDbEntity
  8
2
100
AcDbMText
 10
20.2599333253
 20
67.0105895417
 30
0.0
 40
3.5
 41
0.0
 71
     1
 72
     1
  1

  7
SLDTEXTSTYLE0
 73
     1
 44
1.0
  0
MTEXT
  5
289
330
27A
100
AcDbEntity
  8
2
100
AcDbMText
 10
22.3733014369
 20
72.1937489154
 30
0.0
 40
3.5
 41
0.0
 71
     1
 72
     1
  1
2,50
  7
SLDTEXTSTYLE0
 73
     1
 44
1.0
  0
MTEXT
  5
28A
330
27A
100
AcDbEntity
  8
2
100
AcDbMText
 10
22.3733014369
 20
66.957117365
 30
0.0
 40
3.5
 41
0.0
 71
     1
 72
     1
  1
63,5
  7
SLDTEXTSTYLE0
 73
     1
 44
1.0
  0
MTEXT
  5
28B
330
27A
100
AcDbEntity
  8
2
100
AcDbMText
 10
34.8700031291
 20
67.0105895417
 30
0.0
 40
3.5
 41
0.0
 71
     1
 72
     1
  1

  7
SLDTEXTSTYLE0
 73
     1
 44
1.0
  0
ENDBLK
  5
27C
330
27A
100
AcDbEntity
  8
0
100
AcDbBlockEnd
  0
BLOCK
  5
28E
330
28D
100
AcDbEntity
  8
0
100
AcDbBlockBegin
  2
_D_1
 70
     0
 10
0.0
 20
0.0
 30
0.0
  3
_D_1
  1

  0
SOLID
  5
290
330
28D
100
AcDbEntity
  8
SK2
100
AcDbTrace
 10
19.05
 20
49.8810119523
 30
0.0
 11
22.352
 21
49.3730119523
 31
0.0
 12
22.352
 22
50.3890119523
 32
0.0
 13
22.352
 23
50.3890119523
 33
0.0
  0
SOLID
  5
291
330
28D
100
AcDbEntity
  8
SK2
100
AcDbTrace
 10
63.5
 20
49.8810119523
 30
0.0
 11
60.198
 21
50.3890119523
 31
0.0
 12
60.198
 22
49.3730119523
 32
0.0
 13
60.198
 23
49.3730119523
 33
0.0
  0
LINE
  5
292
330
28D
100
AcDbEntity
  8
SK2
100
AcDbLine
 10
33.2694625371
 20
60.6738936683
 30
0.0
 11
32.2030562796
 21
60.6738936683
 31
0.0
  0
LINE
  5
293
330
28D
100
AcDbEntity
  8
SK2
100
AcDbLine
 10
32.2030562796
 20
60.6738936683
 30
0.0
 11
32.2030562796
 21
55.1176436773
 31
0.0
  0
LINE
  5
294
330
28D
100
AcDbEntity
  8
SK2
100
AcDbLine
 10
32.2030562796
 20
55.1176436773
 30
0.0
 11
33.2694625371
 21
55.1176436773
 31
0.0
  0
LINE
  5
295
330
28D
100
AcDbEntity
  8
SK2
100
AcDbLine
 10
42.320851598
 20
60.6738936683
 30
0.0
 11
43.3872578554
 21
60.6738936683
 31
0.0
  0
LINE
  5
296
330
28D
100
AcDbEntity
  8
SK2
100
AcDbLine
 10
43.3872578554
 20
60.6738936683
 30
0.0
 11
43.3872578554
 21
55.1176436773
 31
0.0
  0
LINE
  5
297
330
28D
100
AcDbEntity
  8
SK2
100
AcDbLine
 10
43.3872578554
 20
55.1176436773
 30
0.0
 11
42.320851598
 21
55.1176436773
 31
0.0
  0
LINE
  5
298
330
28D
100
AcDbEntity
  8
SK2
100
AcDbLine
 10
19.05
 20
30.8048664484
 30
0.0
 11
19.05
 21
50.8810119523
 31
0.0
  0
LINE
  5
299
330
28D
100
AcDbEntity
  8
SK2
100
AcDbLine
 10
63.5
 20
10.906
 30
0.0
 11
63.5
 21
50.8810119523
 31
0.0
  0
LINE
  5
29A
330
28D
100
AcDbEntity
  8
SK2
100
AcDbLine
 10
19.05
 20
49.8810119523
 30
0.0
 11
63.5
 21
49.8810119523
 31
0.0
  0
MTEXT
  5
29B
330
28D
100
AcDbEntity
  8
SK2
100
AcDbMText
 10
31.1560944254
 20
54.4462212182
 30
0.0
 40
3.5
 41
0.0
 71
     1
 72
     1
  1

  7
SLDTEXTSTYLE0
 73
     1
 44
1.0
  0
MTEXT
  5
29C
330
28D
100
AcDbEntity
  8
SK2
100
AcDbMText
 10
33.2694625371
 20
59.6293805919
 30
0.0
 40
3.5
 41
0.0
 71
     1
 72
     1
  1
1,75
  7
SLDTEXTSTYLE0
 73
     1
 44
1.0
  0
MTEXT
  5
29D
330
28D
100
AcDbEntity
  8
SK2
100
AcDbMText
 10
31.9764068239
 20
54.3927490415
 30
0.0
 40
3.5
 41
0.0
 71
     1
 72
     1
  1
44,45
  7
SLDTEXTSTYLE0
 73
     1
 44
1.0
  0
MTEXT
  5
29E
330
28D
100
AcDbEntity
  8
SK2
100
AcDbMText
 10
45.7661642293
 20
54.4462212182
 30
0.0
 40
3.5
 41
0.0
 71
     1
 72
     1
  1

  7
SLDTEXTSTYLE0
 73
     1
 44
1.0
  0
ENDBLK
  5
28F
330
28D
100
AcDbEntity
  8
0
100
AcDbBlockEnd
  0
BLOCK
  5
2A1
330
2A0
100
AcDbEntity
  8
0
100
AcDbBlockBegin
  2
_D_2
 70
     0
 10
0.0
 20
0.0
 30
0.0
  3
_D_2
  1

  0
SOLID
  5
2A3
330
2A0
100
AcDbEntity
  8
SK2
100
AcDbTrace
 10
35.05
 20
37.0795388236
 30
0.0
 11
38.352
 21
36.5715388236
 31
0.0
 12
38.352
 22
37.5875388236
 32
0.0
 13
38.352
 23
37.5875388236
 33
0.0
  0
SOLID
  5
2A4
330
2A0
100
AcDbEntity
  8
SK2
100
AcDbTrace
 10
63.5
 20
37.0795388236
 30
0.0
 11
60.198
 21
37.5875388236
 31
0.0
 12
60.198
 22
36.5715388236
 32
0.0
 13
60.198
 23
36.5715388236
 33
0.0
  0
LINE
  5
2A5
330
2A0
100
AcDbEntity
  8
SK2
100
AcDbLine
 10
45.168159172
 20
47.8724205396
 30
0.0
 11
44.1017529145
 21
47.8724205396
 31
0.0
  0
LINE
  5
2A6
330
2A0
100
AcDbEntity
  8
SK2
100
AcDbLine
 10
44.1017529145
 20
47.8724205396
 30
0.0
 11
44.1017529145
 21
42.3161705485
 31
0.0
  0
LINE
  5
2A7
330
2A0
100
AcDbEntity
  8
SK2
100
AcDbLine
 10
44.1017529145
 20
42.3161705485
 30
0.0
 11
45.168159172
 21
42.3161705485
 31
0.0
  0
LINE
  5
2A8
330
2A0
100
AcDbEntity
  8
SK2
100
AcDbLine
 10
54.2195482329
 20
47.8724205396
 30
0.0
 11
55.2859544903
 21
47.8724205396
 31
0.0
  0
LINE
  5
2A9
330
2A0
100
AcDbEntity
  8
SK2
100
AcDbLine
 10
55.2859544903
 20
47.8724205396
 30
0.0
 11
55.2859544903
 21
42.3161705485
 31
0.0
  0
LINE
  5
2AA
330
2A0
100
AcDbEntity
  8
SK2
100
AcDbLine
 10
55.2859544903
 20
42.3161705485
 30
0.0
 11
54.2195482329
 21
42.3161705485
 31
0.0
  0
LINE
  5
2AB
330
2A0
100
AcDbEntity
  8
SK2
100
AcDbLine
 10
35.05
 20
22.463
 30
0.0
 11
35.05
 21
38.0795388236
 31
0.0
  0
LINE
  5
2AC
330
2A0
100
AcDbEntity
  8
SK2
100
AcDbLine
 10
63.5
 20
10.906
 30
0.0
 11
63.5
 21
38.0795388236
 31
0.0
  0
LINE
  5
2AD
330
2A0
100
AcDbEntity
  8
SK2
100
AcDbLine
 10
35.05
 20
37.0795388236
 30
0.0
 11
63.5
 21
37.0795388236
 31
0.0
  0
MTEXT
  5
2AE
330
2A0
100
AcDbEntity
  8
SK2
100
AcDbMText
 10
43.0547910603
 20
41.6447480894
 30
0.0
 40
3.5
 41
0.0
 71
     1
 72
     1
  1

  7
SLDTEXTSTYLE0
 73
     1
 44
1.0
  0
MTEXT
  5
2AF
330
2A0
100
AcDbEntity
  8
SK2
100
AcDbMText
 10
45.168159172
 20
46.8279074631
 30
0.0
 40
3.5
 41
0.0
 71
     1
 72
     1
  1
1,12
  7
SLDTEXTSTYLE0
 73
     1
 44
1.0
  0
MTEXT
  5
2B0
330
2A0
100
AcDbEntity
  8
SK2
100
AcDbMText
 10
43.8751034588
 20
41.5912759128
 30
0.0
 40
3.5
 41
0.0
 71
     1
 72
     1
  1
28,45
  7
SLDTEXTSTYLE0
 73
     1
 44
1.0
  0
MTEXT
  5
2B1
330
2A0
100
AcDbEntity
  8
SK2
100
AcDbMText
 10
57.6648608642
 20
41.6447480894
 30
0.0
 40
3.5
 41
0.0
 71
     1
 72
     1
  1

  7
SLDTEXTSTYLE0
 73
     1
 44
1.0
  0
ENDBLK
  5
2A2
330
2A0
100
AcDbEntity
  8
0
100
AcDbBlockEnd
  0
BLOCK
  5
2B4
330
2B3
100
AcDbEntity
  8
0
100
AcDbBlockBegin
  2
_D_3
 70
     0
 10
0.0
 20
0.0
 30
0.0
  3
_D_3
  1

  0
SOLID
  5
2B6
330
2B3
100
AcDbEntity
  8
SK2
100
AcDbTrace
 10
44.45
 20
23.7564950919
 30
0.0
 11
47.752
 21
23.2484950919
 31
0.0
 12
47.752
 22
24.2644950919
 32
0.0
 13
47.752
 23
24.2644950919
 33
0.0
  0
SOLID
  5
2B7
330
2B3
100
AcDbEntity
  8
SK2
100
AcDbTrace
 10
63.5
 20
23.7564950919
 30
0.0
 11
60.198
 21
24.2644950919
 31
0.0
 12
60.198
 22
23.2484950919
 32
0.0
 13
60.198
 23
23.2484950919
 33
0.0
  0
LINE
  5
2B8
330
2B3
100
AcDbEntity
  8
SK2
100
AcDbLine
 10
49.2385775713
 20
34.5493768079
 30
0.0
 11
48.1721713139
 21
34.5493768079
 31
0.0
  0
LINE
  5
2B9
330
2B3
100
AcDbEntity
  8
SK2
100
AcDbLine
 10
48.1721713139
 20
34.5493768079
 30
0.0
 11
48.1721713139
 21
28.9931268169
 31
0.0
  0
LINE
  5
2BA
330
2B3
100
AcDbEntity
  8
SK2
100
AcDbLine
 10
48.1721713139
 20
28.9931268169
 30
0.0
 11
49.2385775713
 21
28.9931268169
 31
0.0
  0
LINE
  5
2BB
330
2B3
100
AcDbEntity
  8
SK2
100
AcDbLine
 10
58.2899666322
 20
34.5493768079
 30
0.0
 11
59.3563728897
 21
34.5493768079
 31
0.0
  0
LINE
  5
2BC
330
2B3
100
AcDbEntity
  8
SK2
100
AcDbLine
 10
59.3563728897
 20
34.5493768079
 30
0.0
 11
59.3563728897
 21
28.9931268169
 31
0.0
  0
LINE
  5
2BD
330
2B3
100
AcDbEntity
  8
SK2
100
AcDbLine
 10
59.3563728897
 20
28.9931268169
 30
0.0
 11
58.2899666322
 21
28.9931268169
 31
0.0
  0
LINE
  5
2BE
330
2B3
100
AcDbEntity
  8
SK2
100
AcDbLine
 10
44.45
 20
12.2
 30
0.0
 11
44.45
 21
24.7564950919
 31
0.0
  0
LINE
  5
2BF
330
2B3
100
AcDbEntity
  8
SK2
100
AcDbLine
 10
63.5
 20
10.906
 30
0.0
 11
63.5
 21
24.7564950919
 31
0.0
  0
LINE
  5
2C0
330
2B3
100
AcDbEntity
  8
SK2
100
AcDbLine
 10
44.45
 20
23.7564950919
 30
0.0
 11
63.5
 21
23.7564950919
 31
0.0
  0
MTEXT
  5
2C1
330
2B3
100
AcDbEntity
  8
SK2
100
AcDbMText
 10
47.1252094596
 20
28.3217043577
 30
0.0
 40
3.5
 41
0.0
 71
     1
 72
     1
  1

  7
SLDTEXTSTYLE0
 73
     1
 44
1.0
  0
MTEXT
  5
2C2
330
2B3
100
AcDbEntity
  8
SK2
100
AcDbMText
 10
49.2385775713
 20
33.5048637314
 30
0.0
 40
3.5
 41
0.0
 71
     1
 72
     1
  1
0,75
  7
SLDTEXTSTYLE0
 73
     1
 44
1.0
  0
MTEXT
  5
2C3
330
2B3
100
AcDbEntity
  8
SK2
100
AcDbMText
 10
47.9455218581
 20
28.2682321811
 30
0.0
 40
3.5
 41
0.0
 71
     1
 72
     1
  1
19,05
  7
SLDTEXTSTYLE0
 73
     1
 44
1.0
  0
MTEXT
  5
2C4
330
2B3
100
AcDbEntity
  8
SK2
100
AcDbMText
 10
61.7352792635
 20
28.3217043577
 30
0.0
 40
3.5
 41
0.0
 71
     1
 72
     1
  1

  7
SLDTEXTSTYLE0
 73
     1
 44
1.0
  0
ENDBLK
  5
2B5
330
2B3
100
AcDbEntity
  8
0
100
AcDbBlockEnd
  0
BLOCK
  5
2C8
330
2C7
100
AcDbEntity
  8
0
100
AcDbBlockBegin
  2
_D_4
 70
     0
 10
0.0
 20
0.0
 30
0.0
  3
_D_4
  1

  0
SOLID
  5
2CA
330
2C7
100
AcDbEntity
  8
SK2
100
AcDbTrace
 10
0.0
 20
49.8810119523
 30
0.0
 11
3.302
 21
49.3730119523
 31
0.0
 12
3.302
 22
50.3890119523
 32
0.0
 13
3.302
 23
50.3890119523
 33
0.0
  0
SOLID
  5
2CB
330
2C7
100
AcDbEntity
  8
SK2
100
AcDbTrace
 10
19.05
 20
49.8810119523
 30
0.0
 11
15.748
 21
50.3890119523
 31
0.0
 12
15.748
 22
49.3730119523
 32
0.0
 13
15.748
 23
49.3730119523
 33
0.0
  0
LINE
  5
2CC
330
2C7
100
AcDbEntity
  8
SK2
100
AcDbLine
 10
0.0
 20
23.225
 30
0.0
 11
0.0
 21
50.8810119523
 31
0.0
  0
LINE
  5
2CD
330
2C7
100
AcDbEntity
  8
SK2
100
AcDbLine
 10
19.05
 20
30.8048664484
 30
0.0
 11
19.05
 21
50.8810119523
 31
0.0
  0
LINE
  5
2CE
330
2C7
100
AcDbEntity
  8
SK2
100
AcDbLine
 10
0.0
 20
49.8810119523
 30
0.0
 11
19.05
 21
49.8810119523
 31
0.0
  0
MTEXT
  5
2CF
330
2C7
100
AcDbEntity
  8
SK2
100
AcDbMText
 10
3.4592177057
 20
54.3927488669
 30
0.0
 40
3.5
 41
0.0
 71
     1
 72
     1
  1
19,05
  7
SLDTEXTSTYLE0
 73
     1
 44
1.0
  0
ENDBLK
  5
2C9
330
2C7
100
AcDbEntity
  8
0
100
AcDbBlockEnd
  0
BLOCK
  5
2D3
330
2D2
100
AcDbEntity
  8
0
100
AcDbBlockBegin
  2
_D_5
 70
     0
 10
0.0
 20
0.0
 30
0.0
  3
_D_5
  1

  0
SOLID
  5
2D5
330
2D2
100
AcDbEntity
  8
SK2
100
AcDbTrace
 10
80.5599619864
 20
4.7625
 30
0.0
 11
81.0679619864
 21
8.0645
 31
0.0
 12
80.0519619864
 22
8.0645
 32
0.0
 13
80.0519619864
 23
8.0645
 33
0.0
  0
SOLID
  5
2D6
330
2D2
100
AcDbEntity
  8
SK2
100
AcDbTrace
 10
80.5599619864
 20
-4.7625
 30
0.0
 11
80.0519619864
 21
-8.0645
 31
0.0
 12
81.0679619864
 22
-8.0645
 32
0.0
 13
81.0679619864
 23
-8.0645
 33
0.0
  0
LINE
  5
2D7
330
2D2
100
AcDbEntity
  8
SK2
100
AcDbLine
 10
69.7670802704
 20
16.5987672233
 30
0.0
 11
69.7670802704
 21
15.5323609659
 31
0.0
  0
LINE
  5
2D8
330
2D2
100
AcDbEntity
  8
SK2
100
AcDbLine
 10
69.7670802704
 20
15.5323609659
 30
0.0
 11
75.3233302614
 21
15.5323609659
 31
0.0
  0
LINE
  5
2D9
330
2D2
100
AcDbEntity
  8
SK2
100
AcDbLine
 10
75.3233302614
 20
15.5323609659
 30
0.0
 11
75.3233302614
 21
16.5987672233
 31
0.0
  0
LINE
  5
2DA
330
2D2
100
AcDbEntity
  8
SK2
100
AcDbLine
 10
69.7670802704
 20
25.6501562843
 30
0.0
 11
69.7670802704
 21
26.7165625417
 31
0.0
  0
LINE
  5
2DB
330
2D2
100
AcDbEntity
  8
SK2
100
AcDbLine
 10
69.7670802704
 20
26.7165625417
 30
0.0
 11
75.3233302614
 21
26.7165625417
 31
0.0
  0
LINE
  5
2DC
330
2D2
100
AcDbEntity
  8
SK2
100
AcDbLine
 10
75.3233302614
 20
26.7165625417
 30
0.0
 11
75.3233302614
 21
25.6501562843
 31
0.0
  0
LINE
  5
2DD
330
2D2
100
AcDbEntity
  8
SK2
100
AcDbLine
 10
63.75
 20
4.7625
 30
0.0
 11
81.5599619864
 21
4.7625
 31
0.0
  0
LINE
  5
2DE
330
2D2
100
AcDbEntity
  8
SK2
100
AcDbLine
 10
63.75
 20
-4.7625
 30
0.0
 11
81.5599619864
 21
-4.7625
 31
0.0
  0
LINE
  5
2DF
330
2D2
100
AcDbEntity
  8
SK2
100
AcDbLine
 10
80.5599619864
 20
4.7625
 30
0.0
 11
80.5599619864
 21
29.5824306966
 31
0.0
  0
LINE
  5
2E0
330
2D2
100
AcDbEntity
  8
SK2
100
AcDbLine
 10
80.5599619864
 20
4.7625
 30
0.0
 11
80.5599619864
 21
-4.7625
 31
0.0
  0
LINE
  5
2E1
330
2D2
100
AcDbEntity
  8
SK2
100
AcDbLine
 10
80.5599619864
 20
-4.7625
 30
0.0
 11
80.5599619864
 21
-11.1125
 31
0.0
  0
MTEXT
  5
2E2
330
2D2
100
AcDbEntity
  8
SK2
100
AcDbMText
 10
70.8115933469
 20
16.5987672233
 30
0.0
 40
3.5
 41
0.0
 71
     1
 72
     1
  1
0,38
  7
SLDTEXTSTYLE0
 11
-7.044195017643634E-15
 21
1.0
 31
0.0
 73
     1
 44
1.0
  0
MTEXT
  5
2E3
330
2D2
100
AcDbEntity
  8
SK2
100
AcDbMText
 10
76.0482248972
 20
12.666492811
 30
0.0
 40
3.5
 41
0.0
 71
     1
 72
     1
  1
%%c
  7
SLDTEXTSTYLE0
 11
-7.044195017643634E-15
 21
1.0
 31
0.0
 73
     1
 44
1.0
  0
MTEXT
  5
2E4
330
2D2
100
AcDbEntity
  8
SK2
100
AcDbMText
 10
76.0482248972
 20
17.9449302093
 30
0.0
 40
3.5
 41
0.0
 71
     1
 72
     1
  1
9,525
  7
SLDTEXTSTYLE0
 11
-7.044195017643634E-15
 21
1.0
 31
0.0
 73
     1
 44
1.0
  0
ENDBLK
  5
2D4
330
2D2
100
AcDbEntity
  8
0
100
AcDbBlockEnd
  0
BLOCK
  5
2E7
330
2E6
100
AcDbEntity
  8
0
100
AcDbBlockBegin
  2
_D_6
 70
     0
 10
0.0
 20
0.0
 30
0.0
  3
_D_6
  1

  0
SOLID
  5
2E9
330
2E6
100
AcDbEntity
  8
SK2
100
AcDbTrace
 10
96.0328348388
 20
9.906
 30
0.0
 11
95.5248348388
 21
6.604
 31
0.0
 12
96.5408348388
 22
6.604
 32
0.0
 13
96.5408348388
 23
6.604
 33
0.0
  0
SOLID
  5
2EA
330
2E6
100
AcDbEntity
  8
SK2
100
AcDbTrace
 10
96.0328348388
 20
-9.906
 30
0.0
 11
96.5408348388
 21
-6.604
 31
0.0
 12
95.5248348388
 22
-6.604
 32
0.0
 13
95.5248348388
 23
-6.604
 33
0.0
  0
LINE
  5
2EB
330
2E6
100
AcDbEntity
  8
SK2
100
AcDbLine
 10
85.2399531227
 20
-3.4721763351
 30
0.0
 11
85.2399531227
 21
-4.5385825926
 31
0.0
  0
LINE
  5
2EC
330
2E6
100
AcDbEntity
  8
SK2
100
AcDbLine
 10
85.2399531227
 20
-4.5385825926
 30
0.0
 11
90.7962031138
 21
-4.5385825926
 31
0.0
  0
LINE
  5
2ED
330
2E6
100
AcDbEntity
  8
SK2
100
AcDbLine
 10
90.7962031138
 20
-4.5385825926
 30
0.0
 11
90.7962031138
 21
-3.4721763351
 31
0.0
  0
LINE
  5
2EE
330
2E6
100
AcDbEntity
  8
SK2
100
AcDbLine
 10
85.2399531227
 20
5.5792127258
 30
0.0
 11
85.2399531227
 21
6.6456189832
 31
0.0
  0
LINE
  5
2EF
330
2E6
100
AcDbEntity
  8
SK2
100
AcDbLine
 10
85.2399531227
 20
6.6456189832
 30
0.0
 11
90.7962031138
 21
6.6456189832
 31
0.0
  0
LINE
  5
2F0
330
2E6
100
AcDbEntity
  8
SK2
100
AcDbLine
 10
90.7962031138
 20
6.6456189832
 30
0.0
 11
90.7962031138
 21
5.5792127258
 31
0.0
  0
LINE
  5
2F1
330
2E6
100
AcDbEntity
  8
SK2
100
AcDbLine
 10
64.5
 20
9.906
 30
0.0
 11
97.0328348388
 21
9.906
 31
0.0
  0
LINE
  5
2F2
330
2E6
100
AcDbEntity
  8
SK2
100
AcDbLine
 10
64.5
 20
-9.906
 30
0.0
 11
97.0328348388
 21
-9.906
 31
0.0
  0
LINE
  5
2F3
330
2E6
100
AcDbEntity
  8
SK2
100
AcDbLine
 10
96.0328348388
 20
9.906
 30
0.0
 11
96.0328348388
 21
-9.906
 31
0.0
  0
MTEXT
  5
2F4
330
2E6
100
AcDbEntity
  8
SK2
100
AcDbMText
 10
86.2844661992
 20
-3.4721763351
 30
0.0
 40
3.5
 41
0.0
 71
     1
 72
     1
  1
0,78
  7
SLDTEXTSTYLE0
 11
-7.044195017643634E-15
 21
1.0
 31
0.0
 73
     1
 44
1.0
  0
MTEXT
  5
2F5
330
2E6
100
AcDbEntity
  8
SK2
100
AcDbMText
 10
91.5210977496
 20
-7.4044507475
 30
0.0
 40
3.5
 41
0.0
 71
     1
 72
     1
  1
%%c
  7
SLDTEXTSTYLE0
 11
-7.044195017643634E-15
 21
1.0
 31
0.0
 73
     1
 44
1.0
  0
MTEXT
  5
2F6
330
2E6
100
AcDbEntity
  8
SK2
100
AcDbMText
 10
91.5210977496
 20
-2.1260133491
 30
0.0
 40
3.5
 41
0.0
 71
     1
 72
     1
  1
19,81
  7
SLDTEXTSTYLE0
 11
-7.044195017643634E-15
 21
1.0
 31
0.0
 73
     1
 44
1.0
  0
ENDBLK
  5
2E8
330
2E6
100
AcDbEntity
  8
0
100
AcDbBlockEnd
  0
BLOCK
  5
2F9
330
2F8
100
AcDbEntity
  8
0
100
AcDbBlockBegin
  2
_D_7
 70
     0
 10
0.0
 20
0.0
 30
0.0
  3
_D_7
  1

  0
SOLID
  5
2FB
330
2F8
100
AcDbEntity
  8
SK2
100
AcDbTrace
 10
111.4327224418
 20
12.7
 30
0.0
 11
110.9247224418
 21
9.398
 31
0.0
 12
111.9407224418
 22
9.398
 32
0.0
 13
111.9407224418
 23
9.398
 33
0.0
  0
SOLID
  5
2FC
330
2F8
100
AcDbEntity
  8
SK2
100
AcDbTrace
 10
111.4327224418
 20
-12.7
 30
0.0
 11
111.9407224418
 21
-9.398
 31
0.0
 12
110.9247224418
 22
-9.398
 32
0.0
 13
110.9247224418
 23
-9.398
 33
0.0
  0
LINE
  5
2FD
330
2F8
100
AcDbEntity
  8
SK2
100
AcDbLine
 10
100.6398407258
 20
-3.4721763351
 30
0.0
 11
100.6398407258
 21
-4.5385825926
 31
0.0
  0
LINE
  5
2FE
330
2F8
100
AcDbEntity
  8
SK2
100
AcDbLine
 10
100.6398407258
 20
-4.5385825926
 30
0.0
 11
106.1960907168
 21
-4.5385825926
 31
0.0
  0
LINE
  5
2FF
330
2F8
100
AcDbEntity
  8
SK2
100
AcDbLine
 10
106.1960907168
 20
-4.5385825926
 30
0.0
 11
106.1960907168
 21
-3.4721763351
 31
0.0
  0
LINE
  5
300
330
2F8
100
AcDbEntity
  8
SK2
100
AcDbLine
 10
100.6398407258
 20
5.5792127258
 30
0.0
 11
100.6398407258
 21
6.6456189832
 31
0.0
  0
LINE
  5
301
330
2F8
100
AcDbEntity
  8
SK2
100
AcDbLine
 10
100.6398407258
 20
6.6456189832
 30
0.0
 11
106.1960907168
 21
6.6456189832
 31
0.0
  0
LINE
  5
302
330
2F8
100
AcDbEntity
  8
SK2
100
AcDbLine
 10
106.1960907168
 20
6.6456189832
 30
0.0
 11
106.1960907168
 21
5.5792127258
 31
0.0
  0
LINE
  5
303
330
2F8
100
AcDbEntity
  8
SK2
100
AcDbLine
 10
61.706
 20
12.7
 30
0.0
 11
112.4327224418
 21
12.7
 31
0.0
  0
LINE
  5
304
330
2F8
100
AcDbEntity
  8
SK2
100
AcDbLine
 10
61.706
 20
-12.7
 30
0.0
 11
112.4327224418
 21
-12.7
 31
0.0
  0
LINE
  5
305
330
2F8
100
AcDbEntity
  8
SK2
100
AcDbLine
 10
111.4327224418
 20
12.7
 30
0.0
 11
111.4327224418
 21
-12.7
 31
0.0
  0
MTEXT
  5
306
330
2F8
100
AcDbEntity
  8
SK2
100
AcDbMText
 10
101.6843538022
 20
-3.4721763351
 30
0.0
 40
3.5
 41
0.0
 71
     1
 72
     1
  1
1,00
  7
SLDTEXTSTYLE0
 11
-7.044195017643634E-15
 21
1.0
 31
0.0
 73
     1
 44
1.0
  0
MTEXT
  5
307
330
2F8
100
AcDbEntity
  8
SK2
100
AcDbMText
 10
106.9209853526
 20
-6.1113955
 30
0.0
 40
3.5
 41
0.0
 71
     1
 72
     1
  1
%%c
  7
SLDTEXTSTYLE0
 11
-7.044195017643634E-15
 21
1.0
 31
0.0
 73
     1
 44
1.0
  0
MTEXT
  5
308
330
2F8
100
AcDbEntity
  8
SK2
100
AcDbMText
 10
106.9209853526
 20
-0.8329581016
 30
0.0
 40
3.5
 41
0.0
 71
     1
 72
     1
  1
25,4
  7
SLDTEXTSTYLE0
 11
-7.044195017643634E-15
 21
1.0
 31
0.0
 73
     1
 44
1.0
  0
ENDBLK
  5
2FA
330
2F8
100
AcDbEntity
  8
0
100
AcDbBlockEnd
  0
BLOCK
  5
30C
330
30B
100
AcDbEntity
  8
0
100
AcDbBlockBegin
  2
_D_8
 70
     0
 10
0.0
 20
0.0
 30
0.0
  3
_D_8
  1

  0
SOLID
  5
30E
330
30B
100
AcDbEntity
  8
SK2
100
AcDbTrace
 10
-68.25
 20
-46.062839345
 30
0.0
 11
-64.948
 21
-46.570839345
 31
0.0
 12
-64.948
 22
-45.554839345
 32
0.0
 13
-64.948
 23
-45.554839345
 33
0.0
  0
SOLID
  5
30F
330
30B
100
AcDbEntity
  8
SK2
100
AcDbTrace
 10
63.5
 20
-46.062839345
 30
0.0
 11
60.198
 21
-45.554839345
 31
0.0
 12
60.198
 22
-46.570839345
 32
0.0
 13
60.198
 23
-46.570839345
 33
0.0
  0
LINE
  5
310
330
30B
100
AcDbEntity
  8
SK2
100
AcDbLine
 10
-18.8168273441
 20
-35.269957629
 30
0.0
 11
-19.8832336016
 21
-35.269957629
 31
0.0
  0
LINE
  5
311
330
30B
100
AcDbEntity
  8
SK2
100
AcDbLine
 10
-19.8832336016
 20
-35.269957629
 30
0.0
 11
-19.8832336016
 21
-40.8262076201
 31
0.0
  0
LINE
  5
312
330
30B
100
AcDbEntity
  8
SK2
100
AcDbLine
 10
-19.8832336016
 20
-40.8262076201
 30
0.0
 11
-18.8168273441
 21
-40.8262076201
 31
0.0
  0
LINE
  5
313
330
30B
100
AcDbEntity
  8
SK2
100
AcDbLine
 10
-7.1793268569
 20
-35.269957629
 30
0.0
 11
-6.1129205994
 21
-35.269957629
 31
0.0
  0
LINE
  5
314
330
30B
100
AcDbEntity
  8
SK2
100
AcDbLine
 10
-6.1129205994
 20
-35.269957629
 30
0.0
 11
-6.1129205994
 21
-40.8262076201
 31
0.0
  0
LINE
  5
315
330
30B
100
AcDbEntity
  8
SK2
100
AcDbLine
 10
-6.1129205994
 20
-40.8262076201
 30
0.0
 11
-7.1793268569
 21
-40.8262076201
 31
0.0
  0
LINE
  5
316
330
30B
100
AcDbEntity
  8
SK2
100
AcDbLine
 10
-68.25
 20
-12.1476148288
 30
0.0
 11
-68.25
 21
-47.062839345
 31
0.0
  0
LINE
  5
317
330
30B
100
AcDbEntity
  8
SK2
100
AcDbLine
 10
63.5
 20
-10.906
 30
0.0
 11
63.5
 21
-47.062839345
 31
0.0
  0
LINE
  5
318
330
30B
100
AcDbEntity
  8
SK2
100
AcDbLine
 10
-68.25
 20
-46.062839345
 30
0.0
 11
63.5
 21
-46.062839345
 31
0.0
  0
MTEXT
  5
319
330
30B
100
AcDbEntity
  8
SK2
100
AcDbMText
 10
-20.9301954558
 20
-41.4976300792
 30
0.0
 40
3.5
 41
0.0
 71
     1
 72
     1
  1

  7
SLDTEXTSTYLE0
 73
     1
 44
1.0
  0
MTEXT
  5
31A
330
30B
100
AcDbEntity
  8
SK2
100
AcDbMText
 10
-18.8168273441
 20
-36.3144707055
 30
0.0
 40
3.5
 41
0.0
 71
     1
 72
     1
  1
5,187
  7
SLDTEXTSTYLE0
 73
     1
 44
1.0
  0
MTEXT
  5
31B
330
30B
100
AcDbEntity
  8
SK2
100
AcDbMText
 10
-20.109883523
 20
-41.5511022558
 30
0.0
 40
3.5
 41
0.0
 71
     1
 72
     1
  1
131,75
  7
SLDTEXTSTYLE0
 73
     1
 44
1.0
  0
MTEXT
  5
31C
330
30B
100
AcDbEntity
  8
SK2
100
AcDbMText
 10
-3.7340151569
 20
-41.4976300792
 30
0.0
 40
3.5
 41
0.0
 71
     1
 72
     1
  1

  7
SLDTEXTSTYLE0
 73
     1
 44
1.0
  0
ENDBLK
  5
30D
330
30B
100
AcDbEntity
  8
0
100
AcDbBlockEnd
  0
BLOCK
  5
31F
330
31E
100
AcDbEntity
  8
0
100
AcDbBlockBegin
  2
_D_9
 70
     0
 10
0.0
 20
0.0
 30
0.0
  3
_D_9
  1

  0
SOLID
  5
321
330
31E
100
AcDbEntity
  8
SK2
100
AcDbTrace
 10
25.4019512444
 20
-38.2151793569
 30
0.0
 11
28.7039512444
 21
-38.7231793569
 31
0.0
 12
28.7039512444
 22
-37.7071793569
 32
0.0
 13
28.7039512444
 23
-37.7071793569
 33
0.0
  0
SOLID
  5
322
330
31E
100
AcDbEntity
  8
SK2
100
AcDbTrace
 10
63.5
 20
-38.2151793569
 30
0.0
 11
60.198
 21
-37.7071793569
 31
0.0
 12
60.198
 22
-38.7231793569
 32
0.0
 13
60.198
 23
-38.7231793569
 33
0.0
  0
LINE
  5
323
330
31E
100
AcDbEntity
  8
SK2
100
AcDbLine
 10
39.2771743999
 20
-27.4222976409
 30
0.0
 11
38.2107681424
 21
-27.4222976409
 31
0.0
  0
LINE
  5
324
330
31E
100
AcDbEntity
  8
SK2
100
AcDbLine
 10
38.2107681424
 20
-27.4222976409
 30
0.0
 11
38.2107681424
 21
-32.9785476319
 31
0.0
  0
LINE
  5
325
330
31E
100
AcDbEntity
  8
SK2
100
AcDbLine
 10
38.2107681424
 20
-32.9785476319
 30
0.0
 11
39.2771743999
 21
-32.9785476319
 31
0.0
  0
LINE
  5
326
330
31E
100
AcDbEntity
  8
SK2
100
AcDbLine
 10
48.3285634608
 20
-27.4222976409
 30
0.0
 11
49.3949697182
 21
-27.4222976409
 31
0.0
  0
LINE
  5
327
330
31E
100
AcDbEntity
  8
SK2
100
AcDbLine
 10
49.3949697182
 20
-27.4222976409
 30
0.0
 11
49.3949697182
 21
-32.9785476319
 31
0.0
  0
LINE
  5
328
330
31E
100
AcDbEntity
  8
SK2
100
AcDbLine
 10
49.3949697182
 20
-32.9785476319
 30
0.0
 11
48.3285634608
 21
-32.9785476319
 31
0.0
  0
LINE
  5
329
330
31E
100
AcDbEntity
  8
SK2
100
AcDbLine
 10
25.4019512444
 20
-5.7625
 30
0.0
 11
25.4019512444
 21
-39.2151793569
 31
0.0
  0
LINE
  5
32A
330
31E
100
AcDbEntity
  8
SK2
100
AcDbLine
 10
63.5
 20
-10.906
 30
0.0
 11
63.5
 21
-39.2151793569
 31
0.0
  0
LINE
  5
32B
330
31E
100
AcDbEntity
  8
SK2
100
AcDbLine
 10
25.4019512444
 20
-38.2151793569
 30
0.0
 11
63.5
 21
-38.2151793569
 31
0.0
  0
MTEXT
  5
32C
330
31E
100
AcDbEntity
  8
SK2
100
AcDbMText
 10
37.1638062882
 20
-33.649970091
 30
0.0
 40
3.5
 41
0.0
 71
     1
 72
     1
  1

  7
SLDTEXTSTYLE0
 73
     1
 44
1.0
  0
MTEXT
  5
32D
330
31E
100
AcDbEntity
  8
SK2
100
AcDbMText
 10
39.2771743999
 20
-28.4668107173
 30
0.0
 40
3.5
 41
0.0
 71
     1
 72
     1
  1
1,50
  7
SLDTEXTSTYLE0
 73
     1
 44
1.0
  0
MTEXT
  5
32E
330
31E
100
AcDbEntity
  8
SK2
100
AcDbMText
 10
39.2771743999
 20
-33.7034422677
 30
0.0
 40
3.5
 41
0.0
 71
     1
 72
     1
  1
38,1
  7
SLDTEXTSTYLE0
 73
     1
 44
1.0
  0
MTEXT
  5
32F
330
31E
100
AcDbEntity
  8
SK2
100
AcDbMText
 10
51.7738760921
 20
-33.649970091
 30
0.0
 40
3.5
 41
0.0
 71
     1
 72
     1
  1

  7
SLDTEXTSTYLE0
 73
     1
 44
1.0
  0
ENDBLK
  5
320
330
31E
100
AcDbEntity
  8
0
100
AcDbBlockEnd
  0
BLOCK
  5
333
330
332
100
AcDbEntity
  8
0
100
AcDbBlockBegin
  2
_D_10
 70
     0
 10
0.0
 20
0.0
 30
0.0
  3
_D_10
  1

  0
SOLID
  5
335
330
332
100
AcDbEntity
  8
SK2
100
AcDbTrace
 10
60.706
 20
-23.237962738
 30
0.0
 11
57.404
 21
-22.729962738
 31
0.0
 12
57.404
 22
-23.745962738
 32
0.0
 13
57.404
 23
-23.745962738
 33
0.0
  0
SOLID
  5
336
330
332
100
AcDbEntity
  8
SK2
100
AcDbTrace
 10
63.5
 20
-23.237962738
 30
0.0
 11
66.802
 21
-23.745962738
 31
0.0
 12
66.802
 22
-22.729962738
 32
0.0
 13
66.802
 23
-22.729962738
 33
0.0
  0
LINE
  5
337
330
332
100
AcDbEntity
  8
SK2
100
AcDbLine
 10
60.706
 20
-13.7
 30
0.0
 11
60.706
 21
-24.237962738
 31
0.0
  0
LINE
  5
338
330
332
100
AcDbEntity
  8
SK2
100
AcDbLine
 10
63.5
 20
-10.906
 30
0.0
 11
63.5
 21
-24.237962738
 31
0.0
  0
LINE
  5
339
330
332
100
AcDbEntity
  8
SK2
100
AcDbLine
 10
60.706
 20
-23.237962738
 30
0.0
 11
49.2385772221
 21
-23.237962738
 31
0.0
  0
LINE
  5
33A
330
332
100
AcDbEntity
  8
SK2
100
AcDbLine
 10
60.706
 20
-23.237962738
 30
0.0
 11
63.5
 21
-23.237962738
 31
0.0
  0
LINE
  5
33B
330
332
100
AcDbEntity
  8
SK2
100
AcDbLine
 10
63.5
 20
-23.237962738
 30
0.0
 11
69.85
 21
-23.237962738
 31
0.0
  0
MTEXT
  5
33C
330
332
100
AcDbEntity
  8
SK2
100
AcDbMText
 10
49.2385772221
 20
-18.7262258235
 30
0.0
 40
3.5
 41
0.0
 71
     1
 72
     1
  1
2,79
  7
SLDTEXTSTYLE0
 73
     1
 44
1.0
  0
ENDBLK
  5
334
330
332
100
AcDbEntity
  8
0
100
AcDbBlockEnd
  0
BLOCK
  5
33F
330
33E
100
AcDbEntity
  8
0
100
AcDbBlockBegin
  2
_D_11
 70
     0
 10
0.0
 20
0.0
 30
0.0
  3
_D_11
  1

  0
SOLID
  5
341
330
33E
100
AcDbEntity
  8
SK2
100
AcDbTrace
 10
-86.1506732907
 20
-30.5579086614
 30
0.0
 11
-85.6426732907
 21
-27.2559086614
 31
0.0
 12
-86.6586732907
 22
-27.2559086614
 32
0.0
 13
-86.6586732907
 23
-27.2559086614
 33
0.0
  0
SOLID
  5
342
330
33E
100
AcDbEntity
  8
SK2
100
AcDbTrace
 10
-86.1506732907
 20
30.5578899967
 30
0.0
 11
-86.6586732907
 21
27.2558899967
 31
0.0
 12
-85.6426732907
 22
27.2558899967
 32
0.0
 13
-85.6426732907
 23
27.2558899967
 33
0.0
  0
LINE
  5
343
330
33E
100
AcDbEntity
  8
SK2
100
AcDbLine
 10
2.95
 20
-30.5579086614
 30
0.0
 11
-87.1506732907
 21
-30.5579086614
 31
0.0
  0
LINE
  5
344
330
33E
100
AcDbEntity
  8
SK2
100
AcDbLine
 10
2.95
 20
30.5578899967
 30
0.0
 11
-87.1506732907
 21
30.5578899967
 31
0.0
  0
LINE
  5
345
330
33E
100
AcDbEntity
  8
SK2
100
AcDbLine
 10
-86.1506732907
 20
-30.5579086614
 30
0.0
 11
-86.1506732907
 21
30.5578899967
 31
0.0
  0
MTEXT
  5
346
330
33E
100
AcDbEntity
  8
SK2
100
AcDbMText
 10
-90.6624103799
 20
-6.1113955
 30
0.0
 40
3.5
 41
0.0
 71
     1
 72
     1
  1
%%c
  7
SLDTEXTSTYLE0
 11
-4.823748968393321E-15
 21
1.0
 31
0.0
 73
     1
 44
1.0
  0
MTEXT
  5
347
330
33E
100
AcDbEntity
  8
SK2
100
AcDbMText
 10
-90.7158825566
 20
-0.8329581016
 30
0.0
 40
3.5
 41
0.0
 71
     1
 72
     1
  1
63,5
  7
SLDTEXTSTYLE0
 11
-4.823748968393321E-15
 21
1.0
 31
0.0
 73
     1
 44
1.0
  0
ENDBLK
  5
340
330
33E
100
AcDbEntity
  8
0
100
AcDbBlockEnd
  0
BLOCK
  5
34B
330
34A
100
AcDbEntity
  8
0
100
AcDbBlockBegin
  2
_D_12
 70
     0
 10
0.0
 20
0.0
 30
0.0
  3
_D_12
  1

  0
SOLID
  5
34D
330
34A
100
AcDbEntity
  8
SK2
100
AcDbTrace
 10
-77.7598623873
 20
7.9375002533
 30
0.0
 11
-77.2518623873
 21
11.2395002533
 31
0.0
 12
-78.2678623873
 22
11.2395002533
 32
0.0
 13
-78.2678623873
 23
11.2395002533
 33
0.0
  0
SOLID
  5
34E
330
34A
100
AcDbEntity
  8
SK2
100
AcDbTrace
 10
-77.7598623873
 20
-7.9375002533
 30
0.0
 11
-78.2678623873
 21
-11.2395002533
 31
0.0
 12
-77.2518623873
 22
-11.2395002533
 32
0.0
 13
-77.2518623873
 23
-11.2395002533
 33
0.0
  0
LINE
  5
34F
330
34A
100
AcDbEntity
  8
SK2
100
AcDbLine
 10
-64.3082389832
 20
7.9375002533
 30
0.0
 11
-78.7598623873
 21
7.9375002533
 31
0.0
  0
LINE
  5
350
330
34A
100
AcDbEntity
  8
SK2
100
AcDbLine
 10
-64.3082389832
 20
-7.9375002533
 30
0.0
 11
-78.7598623873
 21
-7.9375002533
 31
0.0
  0
LINE
  5
351
330
34A
100
AcDbEntity
  8
SK2
100
AcDbLine
 10
-77.7598623873
 20
7.9375002533
 30
0.0
 11
-77.7598623873
 21
14.2875002533
 31
0.0
  0
LINE
  5
352
330
34A
100
AcDbEntity
  8
SK2
100
AcDbLine
 10
-77.7598623873
 20
7.9375002533
 30
0.0
 11
-77.7598623873
 21
-7.9375002533
 31
0.0
  0
LINE
  5
353
330
34A
100
AcDbEntity
  8
SK2
100
AcDbLine
 10
-77.7598623873
 20
-7.9375002533
 30
0.0
 11
-77.7598623873
 21
-14.2875002533
 31
0.0
  0
MTEXT
  5
355
330
34A
100
AcDbEntity
  8
SK2
100
AcDbMText
 10
-82.2715993019
 20
-13.0048146949
 30
0.0
 40
3.5
 41
0.0
 71
     1
 72
     1
  1
5/8 - 11 UNC
  7
SLDTEXTSTYLE1
 11
-7.044195017643634E-15
 21
1.0
 31
0.0
 73
     1
 44
1.0
  0
ENDBLK
  5
34C
330
34A
100
AcDbEntity
  8
0
100
AcDbBlockEnd
  0
ENDSEC
  0
SECTION
  2
ENTITIES
  0
LINE
  5
82
330
1F
100
AcDbEntity
  8
1
  6
SLD-Solid
370
    25
100
AcDbLine
 10
34.288
 20
22.225
 30
0.0
 11
19.812
 21
22.225
 31
0.0
  0
LINE
  5
83
330
1F
100
AcDbEntity
  8
1
  6
SLD-Solid
370
    25
100
AcDbLine
 10
19.812
 20
-22.225
 30
0.0
 11
34.288
 21
-22.225
 31
0.0
  0
LINE
  5
84
330
1F
100
AcDbEntity
  8
1
  6
SLD-Solid
370
    25
100
AcDbLine
 10
1.8869952227
 20
22.225
 30
0.0
 11
0.0
 21
22.225
 31
0.0
  0
LINE
  5
85
330
1F
100
AcDbEntity
  8
1
  6
SLD-Solid
370
    25
100
AcDbLine
 10
0.0
 20
-22.225
 30
0.0
 11
1.8869952227
 21
-22.225
 31
0.0
  0
LINE
  5
86
330
1F
100
AcDbEntity
  8
1
  6
SLD-Solid
370
    25
100
AcDbLine
 10
1.8869952227
 20
-22.225
 30
0.0
 11
2.1330363037
 21
-22.1102691597
 31
0.0
  0
LINE
  5
87
330
1F
100
AcDbEntity
  8
1
  6
SLD-Solid
370
    25
100
AcDbLine
 10
2.1330363037
 20
22.1102691597
 30
0.0
 11
1.8869952227
 21
22.225
 31
0.0
  0
LINE
  5
88
330
1F
100
AcDbEntity
  8
SK1
  6
SLD-Solid
370
    25
100
AcDbLine
 10
0.0
 20
22.225
 30
0.0
 11
-67.1376006954
 21
12.4340074512
 31
0.0
  0
LINE
  5
89
330
1F
100
AcDbEntity
  8
SK1
  6
SLD-Solid
370
    25
100
AcDbLine
 10
-67.1376006954
 20
-12.4340074512
 30
0.0
 11
0.0
 21
-22.225
 31
0.0
  0
LINE
  5
8A
330
1F
100
AcDbEntity
  8
1
  6
SLD-Solid
370
    25
100
AcDbLine
 10
38.95
 20
12.7
 30
0.0
 11
38.225
 21
12.7
 31
0.0
  0
LINE
  5
8B
330
1F
100
AcDbEntity
  8
1
  6
SLD-Solid
370
    25
100
AcDbLine
 10
60.706
 20
12.7
 30
0.0
 11
49.9372185197
 21
12.7
 31
0.0
  0
LINE
  5
8C
330
1F
100
AcDbEntity
  8
1
  6
SLD-Solid
370
    25
100
AcDbLine
 10
52.0452272688
 20
-12.7
 30
0.0
 11
60.706
 21
-12.7
 31
0.0
  0
LINE
  5
8D
330
1F
100
AcDbEntity
  8
1
  6
SLD-Solid
370
    25
100
AcDbLine
 10
38.225
 20
-12.7
 30
0.0
 11
38.9655980451
 21
-12.7
 31
0.0
  0
LINE
  5
8E
330
1F
100
AcDbEntity
  8
1
  6
SLD-Solid
370
    25
100
AcDbLine
 10
60.706
 20
-12.7
 30
0.0
 11
63.5
 21
-9.906
 31
0.0
  0
LINE
  5
8F
330
1F
100
AcDbEntity
  8
1
  6
SLD-Solid
370
    25
100
AcDbLine
 10
63.5
 20
9.906
 30
0.0
 11
60.706
 21
12.7
 31
0.0
  0
LINE
  5
90
330
1F
100
AcDbEntity
  8
1
  6
SLD-Solid
370
    25
100
AcDbLine
 10
18.3
 20
30.5579086614
 30
0.0
 11
14.6411263546
 21
30.5579086614
 31
0.0
  0
LINE
  5
91
330
1F
100
AcDbEntity
  8
1
  6
SLD-Solid
370
    25
100
AcDbLine
 10
18.3
 20
-30.5578899967
 30
0.0
 11
18.3
 21
30.5579086614
 31
0.0
  0
LINE
  5
92
330
1F
100
AcDbEntity
  8
1
  6
SLD-Solid
370
    25
100
AcDbLine
 10
14.6411263546
 20
-30.5578899967
 30
0.0
 11
18.3
 21
-30.5578899967
 31
0.0
  0
LINE
  5
93
330
1F
100
AcDbEntity
  8
1
  6
SLD-Solid
370
    25
100
AcDbLine
 10
14.6411263546
 20
30.5579086614
 30
0.0
 11
14.6411263546
 21
-30.5578899967
 31
0.0
  0
LINE
  5
94
330
1F
100
AcDbEntity
  8
1
  6
SLD-Solid
370
    25
100
AcDbLine
 10
19.05
 20
29.8048664484
 30
0.0
 11
19.05
 21
-29.8048552742
 31
0.0
  0
LINE
  5
95
330
1F
100
AcDbEntity
  8
1
  6
SLD-Solid
370
    25
100
AcDbLine
 10
3.2
 20
-29.8048664484
 30
0.0
 11
3.2
 21
29.8048552742
 31
0.0
  0
LINE
  5
96
330
1F
100
AcDbEntity
  8
1
  6
SLD-Solid
370
    25
100
AcDbLine
 10
3.95
 20
30.5578899967
 30
0.0
 11
3.95
 21
-30.5579086614
 31
0.0
  0
LINE
  5
97
330
1F
100
AcDbEntity
  8
1
  6
SLD-Solid
370
    25
100
AcDbLine
 10
3.95
 20
-30.5579086614
 30
0.0
 11
7.5888736454
 21
-30.5579086614
 31
0.0
  0
LINE
  5
98
330
1F
100
AcDbEntity
  8
1
  6
SLD-Solid
370
    25
100
AcDbLine
 10
7.5888736454
 20
30.5578899967
 30
0.0
 11
3.95
 21
30.5578899967
 31
0.0
  0
LINE
  5
99
330
1F
100
AcDbEntity
  8
1
  6
SLD-Solid
370
    25
100
AcDbLine
 10
7.5888736454
 20
30.5578899967
 30
0.0
 11
7.5888736454
 21
-30.5579086614
 31
0.0
  0
LINE
  5
9A
330
1F
100
AcDbEntity
  8
1
  6
SLD-Solid
370
    25
100
AcDbLine
 10
13.03
 20
25.319242438
 30
0.0
 11
13.03
 21
-27.8050456342
 31
0.0
  0
LINE
  5
9B
330
1F
100
AcDbEntity
  8
1
  6
SLD-Solid
370
    25
100
AcDbLine
 10
13.03
 20
27.8050456342
 30
0.0
 11
13.03
 21
25.8117178836
 31
0.0
  0
LINE
  5
9C
330
1F
100
AcDbEntity
  8
1
  6
SLD-Solid
370
    25
100
AcDbLine
 10
9.2
 20
27.8050456342
 30
0.0
 11
9.2
 21
25.8569131114
 31
0.0
  0
LINE
  5
9D
330
1F
100
AcDbEntity
  8
1
  6
SLD-Solid
370
    25
100
AcDbLine
 10
9.2
 20
25.2705433174
 30
0.0
 11
9.2
 21
-27.8050456342
 31
0.0
  0
LINE
  5
9E
330
1F
100
AcDbEntity
  8
1
  6
SLD-Solid
370
    25
100
AcDbLine
 10
9.95
 20
24.066859753
 30
0.0
 11
9.95
 21
-26.9870635676
 31
0.0
  0
LINE
  5
9F
330
1F
100
AcDbEntity
  8
1
  6
SLD-Solid
370
    25
100
AcDbLine
 10
12.28
 20
24.0780506352
 30
0.0
 11
12.28
 21
-26.9870635676
 31
0.0
  0
LINE
  5
A0
330
1F
100
AcDbEntity
  8
1
  6
SLD-Solid
370
    25
100
AcDbLine
 10
9.95
 20
-26.9870635676
 30
0.0
 11
12.28
 21
-26.9870635676
 31
0.0
  0
LINE
  5
A1
330
1F
100
AcDbEntity
  8
1
  6
SLD-Solid
370
    25
100
AcDbLine
 10
35.05
 20
0.0
 30
0.0
 11
35.05
 21
-21.463
 31
0.0
  0
LINE
  5
A2
330
1F
100
AcDbEntity
  8
1
  6
SLD-Solid
370
    25
100
AcDbLine
 10
35.05
 20
21.463
 30
0.0
 11
35.05
 21
0.0
 31
0.0
  0
LINE
  5
A3
330
1F
100
AcDbEntity
  8
1
  6
SLD-Solid
370
    25
100
AcDbLine
 10
0.0
 20
22.225
 30
0.0
 11
0.0
 21
-22.225
 31
0.0
  0
LINE
  5
A4
330
1F
100
AcDbEntity
  8
1
  6
SLD-Solid
370
    25
100
AcDbLine
 10
1.8869952227
 20
22.225
 30
0.0
 11
1.8869952227
 21
-22.225
 31
0.0
  0
LINE
  5
A5
330
1F
100
AcDbEntity
  8
1
  6
SLD-Solid
370
    25
100
AcDbLine
 10
9.2
 20
25.8569131114
 30
0.0
 11
9.2
 21
25.8264908709
 31
0.0
  0
LINE
  5
A6
330
1F
100
AcDbEntity
  8
1
  6
SLD-Solid
370
    25
100
AcDbLine
 10
13.03
 20
25.7812977304
 30
0.0
 11
13.03
 21
25.8117178836
 31
0.0
  0
LINE
  5
A7
330
1F
100
AcDbEntity
  8
1
  6
SLD-Solid
370
    25
100
AcDbLine
 10
9.95
 20
26.9870635676
 30
0.0
 11
9.95
 21
25.6032587904
 31
0.0
  0
LINE
  5
A8
330
1F
100
AcDbEntity
  8
1
  6
SLD-Solid
370
    25
100
AcDbLine
 10
12.28
 20
26.9870635676
 30
0.0
 11
12.28
 21
25.5942620881
 31
0.0
  0
LINE
  5
A9
330
1F
100
AcDbEntity
  8
1
  6
SLD-Solid
370
    25
100
AcDbLine
 10
60.706
 20
12.7
 30
0.0
 11
60.706
 21
-12.7
 31
0.0
  0
LINE
  5
AA
330
1F
100
AcDbEntity
  8
1
  6
SLD-Solid
370
    25
100
AcDbLine
 10
63.5
 20
9.906
 30
0.0
 11
63.5
 21
-9.906
 31
0.0
  0
LINE
  5
AB
330
1F
100
AcDbEntity
  8
SK1
  6
SLD-Solid
370
    25
100
AcDbLine
 10
-68.25
 20
-11.1476148288
 30
0.0
 11
-68.25
 21
11.1476148288
 31
0.0
  0
LINE
  5
AC
330
1F
100
AcDbEntity
  8
1
  6
SLD-Solid
370
    25
100
AcDbLine
 10
9.95
 20
26.9870635676
 30
0.0
 11
12.28
 21
26.9870635676
 31
0.0
  0
LINE
  5
AD
330
1F
100
AcDbEntity
  8
1
  6
SLD-Solid
370
    25
100
AcDbLine
 10
19.812
 20
0.0
 30
0.0
 11
19.812
 21
-22.225
 31
0.0
  0
LINE
  5
AE
330
1F
100
AcDbEntity
  8
1
  6
SLD-Solid
370
    25
100
AcDbLine
 10
19.812
 20
22.225
 30
0.0
 11
19.812
 21
0.0
 31
0.0
  0
LINE
  5
AF
330
1F
100
AcDbEntity
  8
1
  6
SLD-Solid
370
    25
100
AcDbLine
 10
2.1330363037
 20
22.1102691597
 30
0.0
 11
2.1330363037
 21
-22.1102691597
 31
0.0
  0
LINE
  5
B0
330
1F
100
AcDbEntity
  8
1
  6
SLD-Solid
370
    25
100
AcDbLine
 10
34.288
 20
0.0
 30
0.0
 11
34.288
 21
22.225
 31
0.0
  0
LINE
  5
B1
330
1F
100
AcDbEntity
  8
1
  6
SLD-Solid
370
    25
100
AcDbLine
 10
34.288
 20
-22.225
 30
0.0
 11
34.288
 21
0.0
 31
0.0
  0
LINE
  5
B2
330
1F
100
AcDbEntity
  8
SK1
  6
SLD-Solid
370
    25
100
AcDbLine
 10
-67.1376006954
 20
0.0
 30
0.0
 11
-67.1376006954
 21
-12.4340074512
 31
0.0
  0
LINE
  5
B3
330
1F
100
AcDbEntity
  8
SK1
  6
SLD-Solid
370
    25
100
AcDbLine
 10
-67.1376006954
 20
12.4340074512
 30
0.0
 11
-67.1376006954
 21
0.0
 31
0.0
  0
LINE
  5
B4
330
1F
100
AcDbEntity
  8
1
  6
SLD-Solid
370
    25
100
AcDbLine
 10
38.225
 20
0.0
 30
0.0
 11
38.225
 21
-12.7
 31
0.0
  0
LINE
  5
B5
330
1F
100
AcDbEntity
  8
1
  6
SLD-Solid
370
    25
100
AcDbLine
 10
38.225
 20
12.7
 30
0.0
 11
38.225
 21
0.0
 31
0.0
  0
LINE
  5
B6
330
1F
100
AcDbEntity
  8
SK3
  6
SLD-Dashed
370
    18
100
AcDbLine
 10
5.7322709434
 20
-8.8686354442
 30
0.0
 11
5.6150941671
 21
-8.4012226946
 31
0.0
  0
LINE
  5
B7
330
1F
100
AcDbEntity
  8
SK3
  6
SLD-Dashed
370
    18
100
AcDbLine
 10
5.6150941671
 20
-8.4012226946
 30
0.0
 11
5.4343412237
 21
-7.960974275
 31
0.0
  0
LINE
  5
B8
330
1F
100
AcDbEntity
  8
SK3
  6
SLD-Dashed
370
    18
100
AcDbLine
 10
5.4343412237
 20
-7.960974275
 30
0.0
 11
5.2005168173
 21
-7.5734758234
 31
0.0
  0
LINE
  5
B9
330
1F
100
AcDbEntity
  8
SK3
  6
SLD-Dashed
370
    18
100
AcDbLine
 10
5.2005168173
 20
-7.5734758234
 30
0.0
 11
4.9272099725
 21
-7.2612473412
 31
0.0
  0
LINE
  5
BA
330
1F
100
AcDbEntity
  8
SK3
  6
SLD-Dashed
370
    18
100
AcDbLine
 10
4.9272099725
 20
-7.2612473412
 30
0.0
 11
4.6303042896
 21
-7.0424344129
 31
0.0
  0
LINE
  5
BB
330
1F
100
AcDbEntity
  8
SK3
  6
SLD-Dashed
370
    18
100
AcDbLine
 10
4.6303042896
 20
-7.0424344129
 30
0.0
 11
4.3270548477
 21
-6.9297536506
 31
0.0
  0
LINE
  5
BC
330
1F
100
AcDbEntity
  8
SK3
  6
SLD-Dashed
370
    18
100
AcDbLine
 10
4.3270548477
 20
-6.9297536506
 30
0.0
 11
4.0350854021
 21
-6.9297536506
 31
0.0
  0
LINE
  5
BD
330
1F
100
AcDbEntity
  8
SK3
  6
SLD-Dashed
370
    18
100
AcDbLine
 10
4.0350854021
 20
-6.9297536506
 30
0.0
 11
3.7713641558
 21
-7.0424344129
 31
0.0
  0
LINE
  5
BE
330
1F
100
AcDbEntity
  8
SK3
  6
SLD-Dashed
370
    18
100
AcDbLine
 10
3.7713641558
 20
-7.0424344129
 30
0.0
 11
3.551217629
 21
-7.2612473412
 31
0.0
  0
LINE
  5
BF
330
1F
100
AcDbEntity
  8
SK3
  6
SLD-Dashed
370
    18
100
AcDbLine
 10
3.551217629
 20
-7.2612473412
 30
0.0
 11
3.3874399376
 21
-7.5734758234
 31
0.0
  0
LINE
  5
C0
330
1F
100
AcDbEntity
  8
SK3
  6
SLD-Dashed
370
    18
100
AcDbLine
 10
3.3874399376
 20
-7.5734758234
 30
0.0
 11
3.2895492458
 21
-7.960974275
 31
0.0
  0
LINE
  5
C1
330
1F
100
AcDbEntity
  8
SK3
  6
SLD-Dashed
370
    18
100
AcDbLine
 10
3.2895492458
 20
-7.960974275
 30
0.0
 11
3.2632346046
 21
-8.4012226946
 31
0.0
  0
LINE
  5
C2
330
1F
100
AcDbEntity
  8
SK3
  6
SLD-Dashed
370
    18
100
AcDbLine
 10
3.2632346046
 20
-8.4012226946
 30
0.0
 11
3.3100253255
 21
-8.8686354442
 31
0.0
  0
LINE
  5
C3
330
1F
100
AcDbEntity
  8
SK3
  6
SLD-Dashed
370
    18
100
AcDbLine
 10
3.3100253255
 20
-8.8686354442
 30
0.0
 11
3.4272021018
 21
-9.3360481938
 31
0.0
  0
LINE
  5
C4
330
1F
100
AcDbEntity
  8
SK3
  6
SLD-Dashed
370
    18
100
AcDbLine
 10
3.4272021018
 20
-9.3360481938
 30
0.0
 11
3.6079550452
 21
-9.7762966134
 31
0.0
  0
LINE
  5
C5
330
1F
100
AcDbEntity
  8
SK3
  6
SLD-Dashed
370
    18
100
AcDbLine
 10
3.6079550452
 20
-9.7762966134
 30
0.0
 11
3.8417794516
 21
-10.1637950651
 31
0.0
  0
LINE
  5
C6
330
1F
100
AcDbEntity
  8
SK3
  6
SLD-Dashed
370
    18
100
AcDbLine
 10
3.8417794516
 20
-10.1637950651
 30
0.0
 11
4.1150862965
 21
-10.4760235473
 31
0.0
  0
LINE
  5
C7
330
1F
100
AcDbEntity
  8
SK3
  6
SLD-Dashed
370
    18
100
AcDbLine
 10
4.1150862965
 20
-10.4760235473
 30
0.0
 11
4.4119919794
 21
-10.6948364755
 31
0.0
  0
LINE
  5
C8
330
1F
100
AcDbEntity
  8
SK3
  6
SLD-Dashed
370
    18
100
AcDbLine
 10
4.4119919794
 20
-10.6948364755
 30
0.0
 11
4.7152414213
 21
-10.8075172378
 31
0.0
  0
LINE
  5
C9
330
1F
100
AcDbEntity
  8
SK3
  6
SLD-Dashed
370
    18
100
AcDbLine
 10
4.7152414213
 20
-10.8075172378
 30
0.0
 11
5.0072108668
 21
-10.8075172378
 31
0.0
  0
LINE
  5
CA
330
1F
100
AcDbEntity
  8
SK3
  6
SLD-Dashed
370
    18
100
AcDbLine
 10
5.0072108668
 20
-10.8075172378
 30
0.0
 11
5.2709321131
 21
-10.6948364755
 31
0.0
  0
LINE
  5
CB
330
1F
100
AcDbEntity
  8
SK3
  6
SLD-Dashed
370
    18
100
AcDbLine
 10
5.2709321131
 20
-10.6948364755
 30
0.0
 11
5.4910786399
 21
-10.4760235473
 31
0.0
  0
LINE
  5
CC
330
1F
100
AcDbEntity
  8
SK3
  6
SLD-Dashed
370
    18
100
AcDbLine
 10
5.4910786399
 20
-10.4760235473
 30
0.0
 11
5.6548563313
 21
-10.1637950651
 31
0.0
  0
LINE
  5
CD
330
1F
100
AcDbEntity
  8
SK3
  6
SLD-Dashed
370
    18
100
AcDbLine
 10
5.6548563313
 20
-10.1637950651
 30
0.0
 11
5.7527470232
 21
-9.7762966134
 31
0.0
  0
LINE
  5
CE
330
1F
100
AcDbEntity
  8
SK3
  6
SLD-Dashed
370
    18
100
AcDbLine
 10
5.7527470232
 20
-9.7762966134
 30
0.0
 11
5.7790616643
 21
-9.3360481938
 31
0.0
  0
LINE
  5
CF
330
1F
100
AcDbEntity
  8
SK3
  6
SLD-Dashed
370
    18
100
AcDbLine
 10
5.7790616643
 20
-9.3360481938
 30
0.0
 11
5.7322709434
 21
-8.8686354442
 31
0.0
  0
LINE
  5
D0
330
1F
100
AcDbEntity
  8
SK3
  6
SLD-Dashed
370
    18
100
AcDbLine
 10
3.2
 20
-7.1668508159
 30
0.0
 11
3.2
 21
-11.3022369236
 31
0.0
  0
LINE
  5
D1
330
1F
100
AcDbEntity
  8
SK3
  6
SLD-Dashed
370
    18
100
AcDbLine
 10
5.7253406934
 20
-8.8621689747
 30
0.0
 11
5.7709616463
 21
-9.3178964056
 31
0.0
  0
LINE
  5
D2
330
1F
100
AcDbEntity
  8
SK3
  6
SLD-Dashed
370
    18
100
AcDbLine
 10
5.7709616463
 20
-9.3178964056
 30
0.0
 11
5.7453048712
 21
-9.7471386147
 31
0.0
  0
LINE
  5
D3
330
1F
100
AcDbEntity
  8
SK3
  6
SLD-Dashed
370
    18
100
AcDbLine
 10
5.7453048712
 20
-9.7471386147
 30
0.0
 11
5.6498614466
 21
-10.124949605
 31
0.0
  0
LINE
  5
D4
330
1F
100
AcDbEntity
  8
SK3
  6
SLD-Dashed
370
    18
100
AcDbLine
 10
5.6498614466
 20
-10.124949605
 30
0.0
 11
5.4901781975
 21
-10.4293723752
 31
0.0
  0
LINE
  5
D5
330
1F
100
AcDbEntity
  8
SK3
  6
SLD-Dashed
370
    18
100
AcDbLine
 10
5.4901781975
 20
-10.4293723752
 30
0.0
 11
5.2755353338
 21
-10.6427149802
 31
0.0
  0
LINE
  5
D6
330
1F
100
AcDbEntity
  8
SK3
  6
SLD-Dashed
370
    18
100
AcDbLine
 10
5.2755353338
 20
-10.6427149802
 30
0.0
 11
5.0184071187
 21
-10.7525787235
 31
0.0
  0
LINE
  5
D7
330
1F
100
AcDbEntity
  8
SK3
  6
SLD-Dashed
370
    18
100
AcDbLine
 10
5.0184071187
 20
-10.7525787235
 30
0.0
 11
4.7337369093
 21
-10.7525787235
 31
0.0
  0
LINE
  5
D8
330
1F
100
AcDbEntity
  8
SK3
  6
SLD-Dashed
370
    18
100
AcDbLine
 10
4.7337369093
 20
-10.7525787235
 30
0.0
 11
4.4380687034
 21
-10.6427149802
 31
0.0
  0
LINE
  5
D9
330
1F
100
AcDbEntity
  8
SK3
  6
SLD-Dashed
370
    18
100
AcDbLine
 10
4.4380687034
 20
-10.6427149802
 30
0.0
 11
4.1485856626
 21
-10.4293723752
 31
0.0
  0
LINE
  5
DA
330
1F
100
AcDbEntity
  8
SK3
  6
SLD-Dashed
370
    18
100
AcDbLine
 10
4.1485856626
 20
-10.4293723752
 30
0.0
 11
3.8821114889
 21
-10.124949605
 31
0.0
  0
LINE
  5
DB
330
1F
100
AcDbEntity
  8
SK3
  6
SLD-Dashed
370
    18
100
AcDbLine
 10
3.8821114889
 20
-10.124949605
 30
0.0
 11
3.6541326926
 21
-9.7471386147
 31
0.0
  0
LINE
  5
DC
330
1F
100
AcDbEntity
  8
SK3
  6
SLD-Dashed
370
    18
100
AcDbLine
 10
3.6541326926
 20
-9.7471386147
 30
0.0
 11
3.4778985728
 21
-9.3178964056
 31
0.0
  0
LINE
  5
DD
330
1F
100
AcDbEntity
  8
SK3
  6
SLD-Dashed
370
    18
100
AcDbLine
 10
3.4778985728
 20
-9.3178964056
 30
0.0
 11
3.3636512159
 21
-8.8621689747
 31
0.0
  0
LINE
  5
DE
330
1F
100
AcDbEntity
  8
SK3
  6
SLD-Dashed
370
    18
100
AcDbLine
 10
3.3636512159
 20
-8.8621689747
 30
0.0
 11
3.318030263
 21
-8.4064415438
 31
0.0
  0
LINE
  5
DF
330
1F
100
AcDbEntity
  8
SK3
  6
SLD-Dashed
370
    18
100
AcDbLine
 10
3.318030263
 20
-8.4064415438
 30
0.0
 11
3.3436870381
 21
-7.9771993347
 31
0.0
  0
LINE
  5
E0
330
1F
100
AcDbEntity
  8
SK3
  6
SLD-Dashed
370
    18
100
AcDbLine
 10
3.3436870381
 20
-7.9771993347
 30
0.0
 11
3.4391304627
 21
-7.5993883444
 31
0.0
  0
LINE
  5
E1
330
1F
100
AcDbEntity
  8
SK3
  6
SLD-Dashed
370
    18
100
AcDbLine
 10
3.4391304627
 20
-7.5993883444
 30
0.0
 11
3.5988137118
 21
-7.2949655742
 31
0.0
  0
LINE
  5
E2
330
1F
100
AcDbEntity
  8
SK3
  6
SLD-Dashed
370
    18
100
AcDbLine
 10
3.5988137118
 20
-7.2949655742
 30
0.0
 11
3.8134565755
 21
-7.0816229692
 31
0.0
  0
LINE
  5
E3
330
1F
100
AcDbEntity
  8
SK3
  6
SLD-Dashed
370
    18
100
AcDbLine
 10
3.8134565755
 20
-7.0816229692
 30
0.0
 11
4.0705847906
 21
-6.9717592259
 31
0.0
  0
LINE
  5
E4
330
1F
100
AcDbEntity
  8
SK3
  6
SLD-Dashed
370
    18
100
AcDbLine
 10
4.0705847906
 20
-6.9717592259
 30
0.0
 11
4.355255
 21
-6.9717592259
 31
0.0
  0
LINE
  5
E5
330
1F
100
AcDbEntity
  8
SK3
  6
SLD-Dashed
370
    18
100
AcDbLine
 10
4.355255
 20
-6.9717592259
 30
0.0
 11
4.6509232059
 21
-7.0816229692
 31
0.0
  0
LINE
  5
E6
330
1F
100
AcDbEntity
  8
SK3
  6
SLD-Dashed
370
    18
100
AcDbLine
 10
4.6509232059
 20
-7.0816229692
 30
0.0
 11
4.9404062467
 21
-7.2949655742
 31
0.0
  0
LINE
  5
E7
330
1F
100
AcDbEntity
  8
SK3
  6
SLD-Dashed
370
    18
100
AcDbLine
 10
4.9404062467
 20
-7.2949655742
 30
0.0
 11
5.2068804204
 21
-7.5993883444
 31
0.0
  0
LINE
  5
E8
330
1F
100
AcDbEntity
  8
SK3
  6
SLD-Dashed
370
    18
100
AcDbLine
 10
5.2068804204
 20
-7.5993883444
 30
0.0
 11
5.4348592167
 21
-7.9771993347
 31
0.0
  0
LINE
  5
E9
330
1F
100
AcDbEntity
  8
SK3
  6
SLD-Dashed
370
    18
100
AcDbLine
 10
5.4348592167
 20
-7.9771993347
 30
0.0
 11
5.6110933365
 21
-8.4064415438
 31
0.0
  0
LINE
  5
EA
330
1F
100
AcDbEntity
  8
SK3
  6
SLD-Dashed
370
    18
100
AcDbLine
 10
5.6110933365
 20
-8.4064415438
 30
0.0
 11
5.7253406934
 21
-8.8621689747
 31
0.0
  0
LINE
  5
EB
330
1F
100
AcDbEntity
  8
SK3
  6
SLD-Dashed
370
    18
100
AcDbLine
 10
16.3488925452
 20
-5.9198440145
 30
0.0
 11
16.2346451883
 21
-5.4641165836
 31
0.0
  0
LINE
  5
EC
330
1F
100
AcDbEntity
  8
SK3
  6
SLD-Dashed
370
    18
100
AcDbLine
 10
16.2346451883
 20
-5.4641165836
 30
0.0
 11
16.0584110685
 21
-5.0348743745
 31
0.0
  0
LINE
  5
ED
330
1F
100
AcDbEntity
  8
SK3
  6
SLD-Dashed
370
    18
100
AcDbLine
 10
16.0584110685
 20
-5.0348743745
 30
0.0
 11
15.8304322722
 21
-4.6570633842
 31
0.0
  0
LINE
  5
EE
330
1F
100
AcDbEntity
  8
SK3
  6
SLD-Dashed
370
    18
100
AcDbLine
 10
15.8304322722
 20
-4.6570633842
 30
0.0
 11
15.5639580985
 21
-4.352640614
 31
0.0
  0
LINE
  5
EF
330
1F
100
AcDbEntity
  8
SK3
  6
SLD-Dashed
370
    18
100
AcDbLine
 10
15.5639580985
 20
-4.352640614
 30
0.0
 11
15.2744750576
 21
-4.139298009
 31
0.0
  0
LINE
  5
F0
330
1F
100
AcDbEntity
  8
SK3
  6
SLD-Dashed
370
    18
100
AcDbLine
 10
15.2744750576
 20
-4.139298009
 30
0.0
 11
14.9788068518
 21
-4.0294342657
 31
0.0
  0
LINE
  5
F1
330
1F
100
AcDbEntity
  8
SK3
  6
SLD-Dashed
370
    18
100
AcDbLine
 10
14.9788068518
 20
-4.0294342657
 30
0.0
 11
14.6941366424
 21
-4.0294342657
 31
0.0
  0
LINE
  5
F2
330
1F
100
AcDbEntity
  8
SK3
  6
SLD-Dashed
370
    18
100
AcDbLine
 10
14.6941366424
 20
-4.0294342657
 30
0.0
 11
14.4370084273
 21
-4.139298009
 31
0.0
  0
LINE
  5
F3
330
1F
100
AcDbEntity
  8
SK3
  6
SLD-Dashed
370
    18
100
AcDbLine
 10
14.4370084273
 20
-4.139298009
 30
0.0
 11
14.2223655636
 21
-4.352640614
 31
0.0
  0
LINE
  5
F4
330
1F
100
AcDbEntity
  8
SK3
  6
SLD-Dashed
370
    18
100
AcDbLine
 10
14.2223655636
 20
-4.352640614
 30
0.0
 11
14.0626823145
 21
-4.6570633842
 31
0.0
  0
LINE
  5
F5
330
1F
100
AcDbEntity
  8
SK3
  6
SLD-Dashed
370
    18
100
AcDbLine
 10
14.0626823145
 20
-4.6570633842
 30
0.0
 11
13.9672388899
 21
-5.0348743745
 31
0.0
  0
LINE
  5
F6
330
1F
100
AcDbEntity
  8
SK3
  6
SLD-Dashed
370
    18
100
AcDbLine
 10
13.9672388899
 20
-5.0348743745
 30
0.0
 11
13.9415821148
 21
-5.4641165836
 31
0.0
  0
LINE
  5
F7
330
1F
100
AcDbEntity
  8
SK3
  6
SLD-Dashed
370
    18
100
AcDbLine
 10
13.9415821148
 20
-5.4641165836
 30
0.0
 11
13.9872030677
 21
-5.9198440145
 31
0.0
  0
LINE
  5
F8
330
1F
100
AcDbEntity
  8
SK3
  6
SLD-Dashed
370
    18
100
AcDbLine
 10
13.9872030677
 20
-5.9198440145
 30
0.0
 11
14.1014504246
 21
-6.3755714454
 31
0.0
  0
LINE
  5
F9
330
1F
100
AcDbEntity
  8
SK3
  6
SLD-Dashed
370
    18
100
AcDbLine
 10
14.1014504246
 20
-6.3755714454
 30
0.0
 11
14.2776845444
 21
-6.8048136545
 31
0.0
  0
LINE
  5
FA
330
1F
100
AcDbEntity
  8
SK3
  6
SLD-Dashed
370
    18
100
AcDbLine
 10
14.2776845444
 20
-6.8048136545
 30
0.0
 11
14.5056633407
 21
-7.1826246448
 31
0.0
  0
LINE
  5
FB
330
1F
100
AcDbEntity
  8
SK3
  6
SLD-Dashed
370
    18
100
AcDbLine
 10
14.5056633407
 20
-7.1826246448
 30
0.0
 11
14.7721375144
 21
-7.487047415
 31
0.0
  0
LINE
  5
FC
330
1F
100
AcDbEntity
  8
SK3
  6
SLD-Dashed
370
    18
100
AcDbLine
 10
14.7721375144
 20
-7.487047415
 30
0.0
 11
15.0616205552
 21
-7.70039002
 31
0.0
  0
LINE
  5
FD
330
1F
100
AcDbEntity
  8
SK3
  6
SLD-Dashed
370
    18
100
AcDbLine
 10
15.0616205552
 20
-7.70039002
 30
0.0
 11
15.3572887611
 21
-7.8102537633
 31
0.0
  0
LINE
  5
FE
330
1F
100
AcDbEntity
  8
SK3
  6
SLD-Dashed
370
    18
100
AcDbLine
 10
15.3572887611
 20
-7.8102537633
 30
0.0
 11
15.6419589705
 21
-7.8102537633
 31
0.0
  0
LINE
  5
FF
330
1F
100
AcDbEntity
  8
SK3
  6
SLD-Dashed
370
    18
100
AcDbLine
 10
15.6419589705
 20
-7.8102537633
 30
0.0
 11
15.8990871856
 21
-7.70039002
 31
0.0
  0
LINE
  5
100
330
1F
100
AcDbEntity
  8
SK3
  6
SLD-Dashed
370
    18
100
AcDbLine
 10
15.8990871856
 20
-7.70039002
 30
0.0
 11
16.1137300493
 21
-7.487047415
 31
0.0
  0
LINE
  5
101
330
1F
100
AcDbEntity
  8
SK3
  6
SLD-Dashed
370
    18
100
AcDbLine
 10
16.1137300493
 20
-7.487047415
 30
0.0
 11
16.2734132984
 21
-7.1826246448
 31
0.0
  0
LINE
  5
102
330
1F
100
AcDbEntity
  8
SK3
  6
SLD-Dashed
370
    18
100
AcDbLine
 10
16.2734132984
 20
-7.1826246448
 30
0.0
 11
16.3688567229
 21
-6.8048136545
 31
0.0
  0
LINE
  5
103
330
1F
100
AcDbEntity
  8
SK3
  6
SLD-Dashed
370
    18
100
AcDbLine
 10
16.3688567229
 20
-6.8048136545
 30
0.0
 11
16.394513498
 21
-6.3755714454
 31
0.0
  0
LINE
  5
104
330
1F
100
AcDbEntity
  8
SK3
  6
SLD-Dashed
370
    18
100
AcDbLine
 10
16.394513498
 20
-6.3755714454
 30
0.0
 11
16.3488925452
 21
-5.9198440145
 31
0.0
  0
LINE
  5
105
330
1F
100
AcDbEntity
  8
SK3
  6
SLD-Dashed
370
    18
100
AcDbLine
 10
-66.6824940192
 20
-8.235
 30
0.0
 11
-66.6824940192
 21
8.235
 31
0.0
  0
LINE
  5
106
330
1F
100
AcDbEntity
  8
SK3
  6
SLD-Dashed
370
    18
100
AcDbLine
 10
-68.25
 20
-9.1365296062
 30
0.0
 11
-68.25
 21
9.1365296062
 31
0.0
  0
LINE
  5
107
330
1F
100
AcDbEntity
  8
SK3
  6
SLD-Dashed
370
    18
100
AcDbLine
 10
-63.48
 20
-8.235
 30
0.0
 11
-63.48
 21
8.235
 31
0.0
  0
LINE
  5
108
330
1F
100
AcDbEntity
  8
SK3
  6
SLD-Dashed
370
    18
100
AcDbLine
 10
-62.6204640132
 20
-6.74624
 30
0.0
 11
-62.6204640132
 21
6.74624
 31
0.0
  0
LINE
  5
109
330
1F
100
AcDbEntity
  8
SK3
  6
SLD-Dashed
370
    18
100
AcDbLine
 10
3.5452916241
 20
-29.8048664484
 30
0.0
 11
3.5452916241
 21
-22.785
 31
0.0
  0
LINE
  5
10A
330
1F
100
AcDbEntity
  8
SK3
  6
SLD-Dashed
370
    18
100
AcDbLine
 10
18.704611155
 20
-22.785
 30
0.0
 11
18.704611155
 21
-29.8048552742
 31
0.0
  0
LINE
  5
10B
330
1F
100
AcDbEntity
  8
SK3
  6
SLD-Dashed
370
    18
100
AcDbLine
 10
7.8539870535
 20
-30.2255814201
 30
0.0
 11
3.95
 21
-30.2255814201
 31
0.0
  0
LINE
  5
10C
330
1F
100
AcDbEntity
  8
SK3
  6
SLD-Dashed
370
    18
100
AcDbLine
 10
18.3
 20
-30.2254693878
 30
0.0
 11
14.3759504666
 21
-30.2254693878
 31
0.0
  0
LINE
  5
10D
330
1F
100
AcDbEntity
  8
1
  6
SLD-Dashed
370
    18
100
AcDbLine
 10
9.2
 20
-27.8050456342
 30
0.0
 11
9.2
 21
-27.7691663541
 31
0.0
  0
LINE
  5
10E
330
1F
100
AcDbEntity
  8
1
  6
SLD-Dashed
370
    18
100
AcDbLine
 10
13.03
 20
-27.7691663541
 30
0.0
 11
13.03
 21
-27.8050456342
 31
0.0
  0
LINE
  5
10F
330
1F
100
AcDbEntity
  8
SK3
  6
SLD-Dashed
370
    18
100
AcDbLine
 10
18.7047083759
 20
29.8048664484
 30
0.0
 11
18.7047083759
 21
25.5791202528
 31
0.0
  0
LINE
  5
110
330
1F
100
AcDbEntity
  8
SK3
  6
SLD-Dashed
370
    18
100
AcDbLine
 10
3.545388845
 20
25.5789825872
 30
0.0
 11
3.545388845
 21
29.8048552742
 31
0.0
  0
LINE
  5
111
330
1F
100
AcDbEntity
  8
SK3
  6
SLD-Dashed
370
    18
100
AcDbLine
 10
14.3760129465
 20
30.2255814201
 30
0.0
 11
18.3
 21
30.2255814201
 31
0.0
  0
LINE
  5
112
330
1F
100
AcDbEntity
  8
SK3
  6
SLD-Dashed
370
    18
100
AcDbLine
 10
3.95
 20
30.2254693878
 30
0.0
 11
7.8540495334
 21
30.2254693878
 31
0.0
  0
LINE
  5
113
330
1F
100
AcDbEntity
  8
1
  6
SLD-Dashed
370
    18
100
AcDbLine
 10
9.2
 20
27.8050456342
 30
0.0
 11
9.2
 21
27.7691663541
 31
0.0
  0
LINE
  5
114
330
1F
100
AcDbEntity
  8
1
  6
SLD-Dashed
370
    18
100
AcDbLine
 10
13.03
 20
27.7691663541
 30
0.0
 11
13.03
 21
27.8050456342
 31
0.0
  0
LINE
  5
115
330
1F
100
AcDbEntity
  8
SK3
  6
SLD-Dashed
370
    18
100
AcDbLine
 10
18.704611155
 20
-22.41
 30
0.0
 11
3.5452916241
 21
-22.41
 31
0.0
  0
LINE
  5
116
330
1F
100
AcDbEntity
  8
SK3
  6
SLD-Dashed
370
    18
100
AcDbLine
 10
3.5452916241
 20
-22.785
 30
0.0
 11
18.704611155
 21
-22.785
 31
0.0
  0
LINE
  5
117
330
1F
100
AcDbEntity
  8
SK3
  6
SLD-Dashed
370
    18
100
AcDbLine
 10
3.7
 20
24.83
 30
0.0
 11
18.55
 21
24.83
 31
0.0
  0
LINE
  5
118
330
1F
100
AcDbEntity
  8
SK3
  6
SLD-Dashed
370
    18
100
AcDbLine
 10
18.55
 20
25.205
 30
0.0
 11
3.7
 21
25.205
 31
0.0
  0
LINE
  5
119
330
1F
100
AcDbEntity
  8
SK3
  6
SLD-Dashed
370
    18
100
AcDbLine
 10
24.21
 20
-6.74624
 30
0.0
 11
24.21
 21
6.74624
 31
0.0
  0
LINE
  5
11A
330
1F
100
AcDbEntity
  8
SK3
  6
SLD-Dashed
370
    18
100
AcDbLine
 10
25.4019512444
 20
4.7625
 30
0.0
 11
25.4019512444
 21
-4.7625
 31
0.0
  0
LINE
  5
11B
330
1F
100
AcDbEntity
  8
SK3
  6
SLD-Dashed
370
    18
100
AcDbLine
 10
49.95
 20
11.2
 30
0.0
 11
38.95
 21
11.2
 31
0.0
  0
LINE
  5
11C
330
1F
100
AcDbEntity
  8
SK3
  6
SLD-Dashed
370
    18
100
AcDbLine
 10
62.75
 20
-4.7625
 30
0.0
 11
62.75
 21
4.7625
 31
0.0
  0
LINE
  5
11D
330
1F
100
AcDbEntity
  8
SK3
  6
SLD-Dashed
370
    18
100
AcDbLine
 10
63.5
 20
-5.1920465071
 30
0.0
 11
63.5
 21
5.1920465071
 31
0.0
  0
LINE
  5
11E
330
1F
100
AcDbEntity
  8
SK3
  6
SLD-Dashed
370
    18
100
AcDbLine
 10
16.1
 20
20.43
 30
0.0
 11
6.1
 21
20.43
 31
0.0
  0
LINE
  5
11F
330
1F
100
AcDbEntity
  8
SK3
  6
SLD-Dashed
370
    18
100
AcDbLine
 10
6.1
 20
24.83
 30
0.0
 11
16.1
 21
24.83
 31
0.0
  0
LINE
  5
120
330
1F
100
AcDbEntity
  8
SK3
  6
SLD-Dashed
370
    18
100
AcDbLine
 10
6.4000000641
 20
20.13
 30
0.0
 11
15.8
 21
20.13
 31
0.0
  0
LINE
  5
121
330
1F
100
AcDbEntity
  8
SK3
  6
SLD-Dashed
370
    18
100
AcDbLine
 10
48.641
 20
11.2
 30
0.0
 11
40.2725901216
 21
11.2
 31
0.0
  0
LINE
  5
122
330
1F
100
AcDbEntity
  8
SK3
  6
SLD-Dashed
370
    18
100
AcDbLine
 10
18.7047083759
 20
-22.785
 30
0.0
 11
3.545388845
 21
-22.785
 31
0.0
  0
LINE
  5
123
330
1F
100
AcDbEntity
  8
SK3
  6
SLD-Dashed
370
    18
100
AcDbLine
 10
3.545388845
 20
-22.41
 30
0.0
 11
18.7047083759
 21
-22.41
 31
0.0
  0
LINE
  5
124
330
1F
100
AcDbEntity
  8
SK3
  6
SLD-Dashed
370
    18
100
AcDbLine
 10
3.95
 20
-30.2254693878
 30
0.0
 11
7.8540495334
 21
-30.2254693878
 31
0.0
  0
LINE
  5
125
330
1F
100
AcDbEntity
  8
SK3
  6
SLD-Dashed
370
    18
100
AcDbLine
 10
14.3760129465
 20
-30.2255814201
 30
0.0
 11
18.3
 21
-30.2255814201
 31
0.0
  0
LINE
  5
126
330
1F
100
AcDbEntity
  8
1
  6
SLD-Dashed
370
    18
100
AcDbLine
 10
12.28
 20
-26.9870635676
 30
0.0
 11
9.95
 21
-26.9870635676
 31
0.0
  0
LINE
  5
127
330
1F
100
AcDbEntity
  8
SK3
  6
SLD-Dashed
370
    18
100
AcDbLine
 10
3.545388845
 20
-22.785
 30
0.0
 11
3.545388845
 21
-29.8048552742
 31
0.0
  0
LINE
  5
128
330
1F
100
AcDbEntity
  8
SK3
  6
SLD-Dashed
370
    18
100
AcDbLine
 10
18.7047083759
 20
-29.8048664484
 30
0.0
 11
18.7047083759
 21
-22.785
 31
0.0
  0
LINE
  5
129
330
1F
100
AcDbEntity
  8
SK3
  6
SLD-Dashed
370
    18
100
AcDbLine
 10
18.704611155
 20
25.5789825872
 30
0.0
 11
18.704611155
 21
29.8048552742
 31
0.0
  0
LINE
  5
12A
330
1F
100
AcDbEntity
  8
SK3
  6
SLD-Dashed
370
    18
100
AcDbLine
 10
3.5452916241
 20
29.8048664484
 30
0.0
 11
3.5452916241
 21
25.5791202528
 31
0.0
  0
LINE
  5
12B
330
1F
100
AcDbEntity
  8
SK3
  6
SLD-Dashed
370
    18
100
AcDbLine
 10
7.8539870535
 20
30.2255814201
 30
0.0
 11
3.95
 21
30.2255814201
 31
0.0
  0
LINE
  5
12C
330
1F
100
AcDbEntity
  8
1
  6
SLD-Dashed
370
    18
100
AcDbLine
 10
12.28
 20
26.9870635676
 30
0.0
 11
9.95
 21
26.9870635676
 31
0.0
  0
LINE
  5
12D
330
1F
100
AcDbEntity
  8
SK3
  6
SLD-Dashed
370
    18
100
AcDbLine
 10
18.3
 20
30.2254693878
 30
0.0
 11
14.3759504666
 21
30.2254693878
 31
0.0
  0
LINE
  5
12E
330
1F
100
AcDbEntity
  8
SK3
  6
SLD-Dashed
370
    18
100
AcDbLine
 10
3.3636512159
 20
8.8621689747
 30
0.0
 11
3.318030263
 21
8.4064415438
 31
0.0
  0
LINE
  5
12F
330
1F
100
AcDbEntity
  8
SK3
  6
SLD-Dashed
370
    18
100
AcDbLine
 10
3.318030263
 20
8.4064415438
 30
0.0
 11
3.3436870381
 21
7.9771993347
 31
0.0
  0
LINE
  5
130
330
1F
100
AcDbEntity
  8
SK3
  6
SLD-Dashed
370
    18
100
AcDbLine
 10
3.3436870381
 20
7.9771993347
 30
0.0
 11
3.4391304627
 21
7.5993883444
 31
0.0
  0
LINE
  5
131
330
1F
100
AcDbEntity
  8
SK3
  6
SLD-Dashed
370
    18
100
AcDbLine
 10
3.4391304627
 20
7.5993883444
 30
0.0
 11
3.5988137118
 21
7.2949655742
 31
0.0
  0
LINE
  5
132
330
1F
100
AcDbEntity
  8
SK3
  6
SLD-Dashed
370
    18
100
AcDbLine
 10
3.5988137118
 20
7.2949655742
 30
0.0
 11
3.8134565755
 21
7.0816229692
 31
0.0
  0
LINE
  5
133
330
1F
100
AcDbEntity
  8
SK3
  6
SLD-Dashed
370
    18
100
AcDbLine
 10
3.8134565755
 20
7.0816229692
 30
0.0
 11
4.0705847906
 21
6.9717592259
 31
0.0
  0
LINE
  5
134
330
1F
100
AcDbEntity
  8
SK3
  6
SLD-Dashed
370
    18
100
AcDbLine
 10
4.0705847906
 20
6.9717592259
 30
0.0
 11
4.355255
 21
6.9717592259
 31
0.0
  0
LINE
  5
135
330
1F
100
AcDbEntity
  8
SK3
  6
SLD-Dashed
370
    18
100
AcDbLine
 10
4.355255
 20
6.9717592259
 30
0.0
 11
4.6509232059
 21
7.0816229692
 31
0.0
  0
LINE
  5
136
330
1F
100
AcDbEntity
  8
SK3
  6
SLD-Dashed
370
    18
100
AcDbLine
 10
4.6509232059
 20
7.0816229692
 30
0.0
 11
4.9404062467
 21
7.2949655742
 31
0.0
  0
LINE
  5
137
330
1F
100
AcDbEntity
  8
SK3
  6
SLD-Dashed
370
    18
100
AcDbLine
 10
4.9404062467
 20
7.2949655742
 30
0.0
 11
5.2068804204
 21
7.5993883444
 31
0.0
  0
LINE
  5
138
330
1F
100
AcDbEntity
  8
SK3
  6
SLD-Dashed
370
    18
100
AcDbLine
 10
5.2068804204
 20
7.5993883444
 30
0.0
 11
5.4348592167
 21
7.9771993347
 31
0.0
  0
LINE
  5
139
330
1F
100
AcDbEntity
  8
SK3
  6
SLD-Dashed
370
    18
100
AcDbLine
 10
5.4348592167
 20
7.9771993347
 30
0.0
 11
5.6110933365
 21
8.4064415438
 31
0.0
  0
LINE
  5
13A
330
1F
100
AcDbEntity
  8
SK3
  6
SLD-Dashed
370
    18
100
AcDbLine
 10
5.6110933365
 20
8.4064415438
 30
0.0
 11
5.7253406934
 21
8.8621689747
 31
0.0
  0
LINE
  5
13B
330
1F
100
AcDbEntity
  8
SK3
  6
SLD-Dashed
370
    18
100
AcDbLine
 10
5.7253406934
 20
8.8621689747
 30
0.0
 11
5.7709616463
 21
9.3178964056
 31
0.0
  0
LINE
  5
13C
330
1F
100
AcDbEntity
  8
SK3
  6
SLD-Dashed
370
    18
100
AcDbLine
 10
5.7709616463
 20
9.3178964056
 30
0.0
 11
5.7453048712
 21
9.7471386147
 31
0.0
  0
LINE
  5
13D
330
1F
100
AcDbEntity
  8
SK3
  6
SLD-Dashed
370
    18
100
AcDbLine
 10
5.7453048712
 20
9.7471386147
 30
0.0
 11
5.6498614466
 21
10.124949605
 31
0.0
  0
LINE
  5
13E
330
1F
100
AcDbEntity
  8
SK3
  6
SLD-Dashed
370
    18
100
AcDbLine
 10
5.6498614466
 20
10.124949605
 30
0.0
 11
5.4901781975
 21
10.4293723752
 31
0.0
  0
LINE
  5
13F
330
1F
100
AcDbEntity
  8
SK3
  6
SLD-Dashed
370
    18
100
AcDbLine
 10
5.4901781975
 20
10.4293723752
 30
0.0
 11
5.2755353338
 21
10.6427149802
 31
0.0
  0
LINE
  5
140
330
1F
100
AcDbEntity
  8
SK3
  6
SLD-Dashed
370
    18
100
AcDbLine
 10
5.2755353338
 20
10.6427149802
 30
0.0
 11
5.0184071187
 21
10.7525787235
 31
0.0
  0
LINE
  5
141
330
1F
100
AcDbEntity
  8
SK3
  6
SLD-Dashed
370
    18
100
AcDbLine
 10
5.0184071187
 20
10.7525787235
 30
0.0
 11
4.7337369093
 21
10.7525787235
 31
0.0
  0
LINE
  5
142
330
1F
100
AcDbEntity
  8
SK3
  6
SLD-Dashed
370
    18
100
AcDbLine
 10
4.7337369093
 20
10.7525787235
 30
0.0
 11
4.4380687034
 21
10.6427149802
 31
0.0
  0
LINE
  5
143
330
1F
100
AcDbEntity
  8
SK3
  6
SLD-Dashed
370
    18
100
AcDbLine
 10
4.4380687034
 20
10.6427149802
 30
0.0
 11
4.1485856626
 21
10.4293723752
 31
0.0
  0
LINE
  5
144
330
1F
100
AcDbEntity
  8
SK3
  6
SLD-Dashed
370
    18
100
AcDbLine
 10
4.1485856626
 20
10.4293723752
 30
0.0
 11
3.8821114889
 21
10.124949605
 31
0.0
  0
LINE
  5
145
330
1F
100
AcDbEntity
  8
SK3
  6
SLD-Dashed
370
    18
100
AcDbLine
 10
3.8821114889
 20
10.124949605
 30
0.0
 11
3.6541326926
 21
9.7471386147
 31
0.0
  0
LINE
  5
146
330
1F
100
AcDbEntity
  8
SK3
  6
SLD-Dashed
370
    18
100
AcDbLine
 10
3.6541326926
 20
9.7471386147
 30
0.0
 11
3.4778985728
 21
9.3178964056
 31
0.0
  0
LINE
  5
147
330
1F
100
AcDbEntity
  8
SK3
  6
SLD-Dashed
370
    18
100
AcDbLine
 10
3.4778985728
 20
9.3178964056
 30
0.0
 11
3.3636512159
 21
8.8621689747
 31
0.0
  0
LINE
  5
148
330
1F
100
AcDbEntity
  8
SK3
  6
SLD-Dashed
370
    18
100
AcDbLine
 10
13.9872030677
 20
5.9198440145
 30
0.0
 11
14.1014504246
 21
6.3755714454
 31
0.0
  0
LINE
  5
149
330
1F
100
AcDbEntity
  8
SK3
  6
SLD-Dashed
370
    18
100
AcDbLine
 10
14.1014504246
 20
6.3755714454
 30
0.0
 11
14.2776845444
 21
6.8048136545
 31
0.0
  0
LINE
  5
14A
330
1F
100
AcDbEntity
  8
SK3
  6
SLD-Dashed
370
    18
100
AcDbLine
 10
14.2776845444
 20
6.8048136545
 30
0.0
 11
14.5056633407
 21
7.1826246448
 31
0.0
  0
LINE
  5
14B
330
1F
100
AcDbEntity
  8
SK3
  6
SLD-Dashed
370
    18
100
AcDbLine
 10
14.5056633407
 20
7.1826246448
 30
0.0
 11
14.7721375144
 21
7.487047415
 31
0.0
  0
LINE
  5
14C
330
1F
100
AcDbEntity
  8
SK3
  6
SLD-Dashed
370
    18
100
AcDbLine
 10
14.7721375144
 20
7.487047415
 30
0.0
 11
15.0616205552
 21
7.70039002
 31
0.0
  0
LINE
  5
14D
330
1F
100
AcDbEntity
  8
SK3
  6
SLD-Dashed
370
    18
100
AcDbLine
 10
15.0616205552
 20
7.70039002
 30
0.0
 11
15.3572887611
 21
7.8102537633
 31
0.0
  0
LINE
  5
14E
330
1F
100
AcDbEntity
  8
SK3
  6
SLD-Dashed
370
    18
100
AcDbLine
 10
15.3572887611
 20
7.8102537633
 30
0.0
 11
15.6419589705
 21
7.8102537633
 31
0.0
  0
LINE
  5
14F
330
1F
100
AcDbEntity
  8
SK3
  6
SLD-Dashed
370
    18
100
AcDbLine
 10
15.6419589705
 20
7.8102537633
 30
0.0
 11
15.8990871856
 21
7.70039002
 31
0.0
  0
LINE
  5
150
330
1F
100
AcDbEntity
  8
SK3
  6
SLD-Dashed
370
    18
100
AcDbLine
 10
15.8990871856
 20
7.70039002
 30
0.0
 11
16.1137300493
 21
7.487047415
 31
0.0
  0
LINE
  5
151
330
1F
100
AcDbEntity
  8
SK3
  6
SLD-Dashed
370
    18
100
AcDbLine
 10
16.1137300493
 20
7.487047415
 30
0.0
 11
16.2734132984
 21
7.1826246448
 31
0.0
  0
LINE
  5
152
330
1F
100
AcDbEntity
  8
SK3
  6
SLD-Dashed
370
    18
100
AcDbLine
 10
16.2734132984
 20
7.1826246448
 30
0.0
 11
16.3688567229
 21
6.8048136545
 31
0.0
  0
LINE
  5
153
330
1F
100
AcDbEntity
  8
SK3
  6
SLD-Dashed
370
    18
100
AcDbLine
 10
16.3688567229
 20
6.8048136545
 30
0.0
 11
16.394513498
 21
6.3755714454
 31
0.0
  0
LINE
  5
154
330
1F
100
AcDbEntity
  8
SK3
  6
SLD-Dashed
370
    18
100
AcDbLine
 10
16.394513498
 20
6.3755714454
 30
0.0
 11
16.3488925452
 21
5.9198440145
 31
0.0
  0
LINE
  5
155
330
1F
100
AcDbEntity
  8
SK3
  6
SLD-Dashed
370
    18
100
AcDbLine
 10
16.3488925452
 20
5.9198440145
 30
0.0
 11
16.2346451883
 21
5.4641165836
 31
0.0
  0
LINE
  5
156
330
1F
100
AcDbEntity
  8
SK3
  6
SLD-Dashed
370
    18
100
AcDbLine
 10
16.2346451883
 20
5.4641165836
 30
0.0
 11
16.0584110685
 21
5.0348743745
 31
0.0
  0
LINE
  5
157
330
1F
100
AcDbEntity
  8
SK3
  6
SLD-Dashed
370
    18
100
AcDbLine
 10
16.0584110685
 20
5.0348743745
 30
0.0
 11
15.8304322722
 21
4.6570633842
 31
0.0
  0
LINE
  5
158
330
1F
100
AcDbEntity
  8
SK3
  6
SLD-Dashed
370
    18
100
AcDbLine
 10
15.8304322722
 20
4.6570633842
 30
0.0
 11
15.5639580985
 21
4.352640614
 31
0.0
  0
LINE
  5
159
330
1F
100
AcDbEntity
  8
SK3
  6
SLD-Dashed
370
    18
100
AcDbLine
 10
15.5639580985
 20
4.352640614
 30
0.0
 11
15.2744750576
 21
4.139298009
 31
0.0
  0
LINE
  5
15A
330
1F
100
AcDbEntity
  8
SK3
  6
SLD-Dashed
370
    18
100
AcDbLine
 10
15.2744750576
 20
4.139298009
 30
0.0
 11
14.9788068518
 21
4.0294342657
 31
0.0
  0
LINE
  5
15B
330
1F
100
AcDbEntity
  8
SK3
  6
SLD-Dashed
370
    18
100
AcDbLine
 10
14.9788068518
 20
4.0294342657
 30
0.0
 11
14.6941366424
 21
4.0294342657
 31
0.0
  0
LINE
  5
15C
330
1F
100
AcDbEntity
  8
SK3
  6
SLD-Dashed
370
    18
100
AcDbLine
 10
14.6941366424
 20
4.0294342657
 30
0.0
 11
14.4370084273
 21
4.139298009
 31
0.0
  0
LINE
  5
15D
330
1F
100
AcDbEntity
  8
SK3
  6
SLD-Dashed
370
    18
100
AcDbLine
 10
14.4370084273
 20
4.139298009
 30
0.0
 11
14.2223655636
 21
4.352640614
 31
0.0
  0
LINE
  5
15E
330
1F
100
AcDbEntity
  8
SK3
  6
SLD-Dashed
370
    18
100
AcDbLine
 10
14.2223655636
 20
4.352640614
 30
0.0
 11
14.0626823145
 21
4.6570633842
 31
0.0
  0
LINE
  5
15F
330
1F
100
AcDbEntity
  8
SK3
  6
SLD-Dashed
370
    18
100
AcDbLine
 10
14.0626823145
 20
4.6570633842
 30
0.0
 11
13.9672388899
 21
5.0348743745
 31
0.0
  0
LINE
  5
160
330
1F
100
AcDbEntity
  8
SK3
  6
SLD-Dashed
370
    18
100
AcDbLine
 10
13.9672388899
 20
5.0348743745
 30
0.0
 11
13.9415821148
 21
5.4641165836
 31
0.0
  0
LINE
  5
161
330
1F
100
AcDbEntity
  8
SK3
  6
SLD-Dashed
370
    18
100
AcDbLine
 10
13.9415821148
 20
5.4641165836
 30
0.0
 11
13.9872030677
 21
5.9198440145
 31
0.0
  0
LINE
  5
162
330
1F
100
AcDbEntity
  8
SK3
  6
SLD-Dashed
370
    18
100
AcDbLine
 10
3.3100253255
 20
8.8686354442
 30
0.0
 11
3.4272021018
 21
9.3360481938
 31
0.0
  0
LINE
  5
163
330
1F
100
AcDbEntity
  8
SK3
  6
SLD-Dashed
370
    18
100
AcDbLine
 10
3.4272021018
 20
9.3360481938
 30
0.0
 11
3.6079550452
 21
9.7762966134
 31
0.0
  0
LINE
  5
164
330
1F
100
AcDbEntity
  8
SK3
  6
SLD-Dashed
370
    18
100
AcDbLine
 10
3.6079550452
 20
9.7762966134
 30
0.0
 11
3.8417794516
 21
10.1637950651
 31
0.0
  0
LINE
  5
165
330
1F
100
AcDbEntity
  8
SK3
  6
SLD-Dashed
370
    18
100
AcDbLine
 10
3.8417794516
 20
10.1637950651
 30
0.0
 11
4.1150862965
 21
10.4760235473
 31
0.0
  0
LINE
  5
166
330
1F
100
AcDbEntity
  8
SK3
  6
SLD-Dashed
370
    18
100
AcDbLine
 10
4.1150862965
 20
10.4760235473
 30
0.0
 11
4.4119919794
 21
10.6948364755
 31
0.0
  0
LINE
  5
167
330
1F
100
AcDbEntity
  8
SK3
  6
SLD-Dashed
370
    18
100
AcDbLine
 10
4.4119919794
 20
10.6948364755
 30
0.0
 11
4.7152414213
 21
10.8075172378
 31
0.0
  0
LINE
  5
168
330
1F
100
AcDbEntity
  8
SK3
  6
SLD-Dashed
370
    18
100
AcDbLine
 10
4.7152414213
 20
10.8075172378
 30
0.0
 11
5.0072108668
 21
10.8075172378
 31
0.0
  0
LINE
  5
169
330
1F
100
AcDbEntity
  8
SK3
  6
SLD-Dashed
370
    18
100
AcDbLine
 10
5.0072108668
 20
10.8075172378
 30
0.0
 11
5.2709321131
 21
10.6948364755
 31
0.0
  0
LINE
  5
16A
330
1F
100
AcDbEntity
  8
SK3
  6
SLD-Dashed
370
    18
100
AcDbLine
 10
5.2709321131
 20
10.6948364755
 30
0.0
 11
5.4910786399
 21
10.4760235473
 31
0.0
  0
LINE
  5
16B
330
1F
100
AcDbEntity
  8
SK3
  6
SLD-Dashed
370
    18
100
AcDbLine
 10
5.4910786399
 20
10.4760235473
 30
0.0
 11
5.6548563313
 21
10.1637950651
 31
0.0
  0
LINE
  5
16C
330
1F
100
AcDbEntity
  8
SK3
  6
SLD-Dashed
370
    18
100
AcDbLine
 10
5.6548563313
 20
10.1637950651
 30
0.0
 11
5.7527470232
 21
9.7762966134
 31
0.0
  0
LINE
  5
16D
330
1F
100
AcDbEntity
  8
SK3
  6
SLD-Dashed
370
    18
100
AcDbLine
 10
5.7527470232
 20
9.7762966134
 30
0.0
 11
5.7790616643
 21
9.3360481938
 31
0.0
  0
LINE
  5
16E
330
1F
100
AcDbEntity
  8
SK3
  6
SLD-Dashed
370
    18
100
AcDbLine
 10
5.7790616643
 20
9.3360481938
 30
0.0
 11
5.7322709434
 21
8.8686354442
 31
0.0
  0
LINE
  5
16F
330
1F
100
AcDbEntity
  8
SK3
  6
SLD-Dashed
370
    18
100
AcDbLine
 10
5.7322709434
 20
8.8686354442
 30
0.0
 11
5.6150941671
 21
8.4012226946
 31
0.0
  0
LINE
  5
170
330
1F
100
AcDbEntity
  8
SK3
  6
SLD-Dashed
370
    18
100
AcDbLine
 10
5.6150941671
 20
8.4012226946
 30
0.0
 11
5.4343412237
 21
7.960974275
 31
0.0
  0
LINE
  5
171
330
1F
100
AcDbEntity
  8
SK3
  6
SLD-Dashed
370
    18
100
AcDbLine
 10
5.4343412237
 20
7.960974275
 30
0.0
 11
5.2005168173
 21
7.5734758234
 31
0.0
  0
LINE
  5
172
330
1F
100
AcDbEntity
  8
SK3
  6
SLD-Dashed
370
    18
100
AcDbLine
 10
5.2005168173
 20
7.5734758234
 30
0.0
 11
4.9272099725
 21
7.2612473412
 31
0.0
  0
LINE
  5
173
330
1F
100
AcDbEntity
  8
SK3
  6
SLD-Dashed
370
    18
100
AcDbLine
 10
4.9272099725
 20
7.2612473412
 30
0.0
 11
4.6303042896
 21
7.0424344129
 31
0.0
  0
LINE
  5
174
330
1F
100
AcDbEntity
  8
SK3
  6
SLD-Dashed
370
    18
100
AcDbLine
 10
4.6303042896
 20
7.0424344129
 30
0.0
 11
4.3270548477
 21
6.9297536506
 31
0.0
  0
LINE
  5
175
330
1F
100
AcDbEntity
  8
SK3
  6
SLD-Dashed
370
    18
100
AcDbLine
 10
4.3270548477
 20
6.9297536506
 30
0.0
 11
4.0350854021
 21
6.9297536506
 31
0.0
  0
LINE
  5
176
330
1F
100
AcDbEntity
  8
SK3
  6
SLD-Dashed
370
    18
100
AcDbLine
 10
4.0350854021
 20
6.9297536506
 30
0.0
 11
3.7713641558
 21
7.0424344129
 31
0.0
  0
LINE
  5
177
330
1F
100
AcDbEntity
  8
SK3
  6
SLD-Dashed
370
    18
100
AcDbLine
 10
3.7713641558
 20
7.0424344129
 30
0.0
 11
3.551217629
 21
7.2612473412
 31
0.0
  0
LINE
  5
178
330
1F
100
AcDbEntity
  8
SK3
  6
SLD-Dashed
370
    18
100
AcDbLine
 10
3.551217629
 20
7.2612473412
 30
0.0
 11
3.3874399376
 21
7.5734758234
 31
0.0
  0
LINE
  5
179
330
1F
100
AcDbEntity
  8
SK3
  6
SLD-Dashed
370
    18
100
AcDbLine
 10
3.3874399376
 20
7.5734758234
 30
0.0
 11
3.2895492458
 21
7.960974275
 31
0.0
  0
LINE
  5
17A
330
1F
100
AcDbEntity
  8
SK3
  6
SLD-Dashed
370
    18
100
AcDbLine
 10
3.2895492458
 20
7.960974275
 30
0.0
 11
3.2632346046
 21
8.4012226946
 31
0.0
  0
LINE
  5
17B
330
1F
100
AcDbEntity
  8
SK3
  6
SLD-Dashed
370
    18
100
AcDbLine
 10
3.2632346046
 20
8.4012226946
 30
0.0
 11
3.3100253255
 21
8.8686354442
 31
0.0
  0
LINE
  5
17C
330
1F
100
AcDbEntity
  8
SK3
  6
SLD-Dashed
370
    18
100
AcDbLine
 10
3.2
 20
7.1668508159
 30
0.0
 11
3.2
 21
11.3022369236
 31
0.0
  0
LINE
  5
17D
330
1F
100
AcDbEntity
  8
SK3
  6
SLD-Dashed
370
    18
100
AcDbLine
 10
3.2
 20
-11.3098348849
 30
0.0
 11
5.0549767861
 21
-10.7960759675
 31
0.0
  0
LINE
  5
17E
330
1F
100
AcDbEntity
  8
SK3
  6
SLD-Dashed
370
    18
100
AcDbLine
 10
3.9873194828
 20
-6.941194921
 30
0.0
 11
3.2
 21
-7.1592528547
 31
0.0
  0
LINE
  5
17F
330
1F
100
AcDbEntity
  8
SK3
  6
SLD-Dashed
370
    18
100
AcDbLine
 10
5.06497889
 20
-10.7414234849
 30
0.0
 11
15.6885307418
 21
-7.7990985247
 31
0.0
  0
LINE
  5
180
330
1F
100
AcDbEntity
  8
SK3
  6
SLD-Dashed
370
    18
100
AcDbLine
 10
14.6475648711
 20
-4.0405895043
 30
0.0
 11
4.0240130193
 21
-6.9829144645
 31
0.0
  0
LINE
  5
181
330
1F
100
AcDbEntity
  8
SK3
  6
SLD-Dashed
370
    18
100
AcDbLine
 10
-68.25
 20
-9.14
 30
0.0
 11
-66.6824940192
 21
-8.235
 31
0.0
  0
LINE
  5
182
330
1F
100
AcDbEntity
  8
SK3
  6
SLD-Dashed
370
    18
100
AcDbLine
 10
-66.6824940192
 20
8.235
 30
0.0
 11
-68.25
 21
9.14
 31
0.0
  0
LINE
  5
183
330
1F
100
AcDbEntity
  8
SK3
  6
SLD-Dashed
370
    18
100
AcDbLine
 10
-66.6824940192
 20
-8.235
 30
0.0
 11
-63.48
 21
-8.235
 31
0.0
  0
LINE
  5
184
330
1F
100
AcDbEntity
  8
SK3
  6
SLD-Dashed
370
    18
100
AcDbLine
 10
-63.48
 20
8.235
 30
0.0
 11
-66.6824940192
 21
8.235
 31
0.0
  0
LINE
  5
185
330
1F
100
AcDbEntity
  8
SK3
  6
SLD-Dashed
370
    18
100
AcDbLine
 10
-63.48
 20
-8.235
 30
0.0
 11
-62.6204640132
 21
-6.74624
 31
0.0
  0
LINE
  5
186
330
1F
100
AcDbEntity
  8
SK3
  6
SLD-Dashed
370
    18
100
AcDbLine
 10
-62.6204640132
 20
6.74624
 30
0.0
 11
-63.48
 21
8.235
 31
0.0
  0
LINE
  5
187
330
1F
100
AcDbEntity
  8
SK3
  6
SLD-Dashed
370
    18
100
AcDbLine
 10
-62.6204640132
 20
-6.74624
 30
0.0
 11
24.21
 21
-6.74624
 31
0.0
  0
LINE
  5
188
330
1F
100
AcDbEntity
  8
SK3
  6
SLD-Dashed
370
    18
100
AcDbLine
 10
24.21
 20
6.74624
 30
0.0
 11
-62.6204640132
 21
6.74624
 31
0.0
  0
LINE
  5
189
330
1F
100
AcDbEntity
  8
SK3
  6
SLD-Dashed
370
    18
100
AcDbLine
 10
24.21
 20
-6.74624
 30
0.0
 11
25.4019512444
 21
-4.7625
 31
0.0
  0
LINE
  5
18A
330
1F
100
AcDbEntity
  8
SK3
  6
SLD-Dashed
370
    18
100
AcDbLine
 10
25.4019512444
 20
4.7625
 30
0.0
 11
24.21
 21
6.74624
 31
0.0
  0
LINE
  5
18B
330
1F
100
AcDbEntity
  8
SK3
  6
SLD-Dashed
370
    18
100
AcDbLine
 10
38.95
 20
12.7
 30
0.0
 11
38.95
 21
11.2
 31
0.0
  0
LINE
  5
18C
330
1F
100
AcDbEntity
  8
SK3
  6
SLD-Dashed
370
    18
100
AcDbLine
 10
49.95
 20
11.2
 30
0.0
 11
49.95
 21
12.7
 31
0.0
  0
LINE
  5
18D
330
1F
100
AcDbEntity
  8
SK3
  6
SLD-Dashed
370
    18
100
AcDbLine
 10
63.5
 20
5.1955127019
 30
0.0
 11
62.75
 21
4.7625
 31
0.0
  0
LINE
  5
18E
330
1F
100
AcDbEntity
  8
SK3
  6
SLD-Dashed
370
    18
100
AcDbLine
 10
62.75
 20
-4.7625
 30
0.0
 11
63.5
 21
-5.1955127019
 31
0.0
  0
LINE
  5
18F
330
1F
100
AcDbEntity
  8
SK3
  6
SLD-Dashed
370
    18
100
AcDbLine
 10
6.1
 20
24.83
 30
0.0
 11
6.1
 21
20.43
 31
0.0
  0
LINE
  5
190
330
1F
100
AcDbEntity
  8
SK3
  6
SLD-Dashed
370
    18
100
AcDbLine
 10
16.1
 20
20.43
 30
0.0
 11
16.1
 21
24.83
 31
0.0
  0
LINE
  5
191
330
1F
100
AcDbEntity
  8
SK3
  6
SLD-Dashed
370
    18
100
AcDbLine
 10
40.259
 20
4.7625
 30
0.0
 11
25.4019512444
 21
4.7625
 31
0.0
  0
LINE
  5
192
330
1F
100
AcDbEntity
  8
SK3
  6
SLD-Dashed
370
    18
100
AcDbLine
 10
62.75
 20
4.7625
 30
0.0
 11
48.632695299
 21
4.7625
 31
0.0
  0
LINE
  5
193
330
1F
100
AcDbEntity
  8
SK3
  6
SLD-Dashed
370
    18
100
AcDbLine
 10
25.4019512444
 20
-4.7625
 30
0.0
 11
62.75
 21
-4.7625
 31
0.0
  0
LINE
  5
194
330
1F
100
AcDbEntity
  8
SK3
  6
SLD-Dashed
370
    18
100
AcDbLine
 10
40.259
 20
11.2
 30
0.0
 11
40.259
 21
4.7625
 31
0.0
  0
LINE
  5
195
330
1F
100
AcDbEntity
  8
SK3
  6
SLD-Dashed
370
    18
100
AcDbLine
 10
48.641
 20
4.7551973213
 30
0.0
 11
48.641
 21
11.2
 31
0.0
  0
LINE
  5
196
330
1F
100
AcDbEntity
  8
SK3
  6
SLD-Dashed
370
    18
100
AcDbLine
 10
4.0240130193
 20
6.9829144645
 30
0.0
 11
14.6475648711
 21
4.0405895043
 31
0.0
  0
LINE
  5
197
330
1F
100
AcDbEntity
  8
SK3
  6
SLD-Dashed
370
    18
100
AcDbLine
 10
15.6885307418
 20
7.7990985247
 30
0.0
 11
5.06497889
 21
10.7414234849
 31
0.0
  0
LINE
  5
198
330
1F
100
AcDbEntity
  8
SK3
  6
SLD-Dashed
370
    18
100
AcDbLine
 10
3.2
 20
7.1592528547
 30
0.0
 11
3.9873194828
 21
6.941194921
 31
0.0
  0
LINE
  5
199
330
1F
100
AcDbEntity
  8
SK3
  6
SLD-Dashed
370
    18
100
AcDbLine
 10
5.0549767861
 20
10.7960759675
 30
0.0
 11
3.2
 21
11.3098348849
 31
0.0
  0
LINE
  5
19A
330
1F
100
AcDbEntity
  8
SK3
  6
SLD-Solid
370
    18
100
AcDbLine
 10
-38.2499992847
 20
7.9375002533
 30
0.0
 11
-63.3082389832
 21
7.9375002533
 31
0.0
  0
LINE
  5
19B
330
1F
100
AcDbEntity
  8
SK3
  6
SLD-Solid
370
    18
100
AcDbLine
 10
-63.3082389832
 20
-7.9375002533
 30
0.0
 11
-38.2499992847
 21
-7.9375002533
 31
0.0
  0
LINE
  5
19C
330
1F
100
AcDbEntity
  8
SK3
  6
SLD-Solid
370
    18
100
AcDbLine
 10
-38.2499992847
 20
0.0
 30
0.0
 11
-38.2499992847
 21
-1.1296240846
 31
0.0
  0
LINE
  5
19D
330
1F
100
AcDbEntity
  8
SK3
  6
SLD-Solid
370
    18
100
AcDbLine
 10
-38.2500208426
 20
-1.1296240846
 30
0.0
 11
-38.2499992847
 21
-2.236252185
 31
0.0
  0
LINE
  5
19E
330
1F
100
AcDbEntity
  8
SK3
  6
SLD-Solid
370
    18
100
AcDbLine
 10
-38.2499992847
 20
-2.236252185
 30
0.0
 11
-38.2499992847
 21
-3.2973566558
 31
0.0
  0
LINE
  5
19F
330
1F
100
AcDbEntity
  8
SK3
  6
SLD-Solid
370
    18
100
AcDbLine
 10
-38.2499992847
 20
-3.2973566558
 30
0.0
 11
-38.2499992847
 21
-4.2913365178
 31
0.0
  0
LINE
  5
1A0
330
1F
100
AcDbEntity
  8
SK3
  6
SLD-Solid
370
    18
100
AcDbLine
 10
-38.2499992847
 20
-4.2913365178
 30
0.0
 11
-38.2499992847
 21
-5.1979571581
 31
0.0
  0
LINE
  5
1A1
330
1F
100
AcDbEntity
  8
SK3
  6
SLD-Solid
370
    18
100
AcDbLine
 10
-38.2499992847
 20
-5.1979571581
 30
0.0
 11
-38.2499992847
 21
-5.9987623245
 31
0.0
  0
LINE
  5
1A2
330
1F
100
AcDbEntity
  8
SK3
  6
SLD-Solid
370
    18
100
AcDbLine
 10
-38.2499992847
 20
-5.9987623245
 30
0.0
 11
-38.2499992847
 21
-6.6774501465
 31
0.0
  0
LINE
  5
1A3
330
1F
100
AcDbEntity
  8
SK3
  6
SLD-Solid
370
    18
100
AcDbLine
 10
-38.2499992847
 20
-6.6774501465
 30
0.0
 11
-38.2499992847
 21
-7.2202039883
 31
0.0
  0
LINE
  5
1A4
330
1F
100
AcDbEntity
  8
SK3
  6
SLD-Solid
370
    18
100
AcDbLine
 10
-38.2499992847
 20
-7.2202039883
 30
0.0
 11
-38.2499992847
 21
-7.6159755699
 31
0.0
  0
LINE
  5
1A5
330
1F
100
AcDbEntity
  8
SK3
  6
SLD-Solid
370
    18
100
AcDbLine
 10
-38.2499992847
 20
-7.6159755699
 30
0.0
 11
-38.2499992847
 21
-7.85670802
 31
0.0
  0
LINE
  5
1A6
330
1F
100
AcDbEntity
  8
SK3
  6
SLD-Solid
370
    18
100
AcDbLine
 10
-38.2499992847
 20
-7.85670802
 30
0.0
 11
-38.2499992847
 21
-7.9375002533
 31
0.0
  0
LINE
  5
1A7
330
1F
100
AcDbEntity
  8
SK3
  6
SLD-Solid
370
    18
100
AcDbLine
 10
-38.2500208426
 20
7.9375002533
 30
0.0
 11
-38.2499992847
 21
7.85670802
 31
0.0
  0
LINE
  5
1A8
330
1F
100
AcDbEntity
  8
SK3
  6
SLD-Solid
370
    18
100
AcDbLine
 10
-38.2499992847
 20
7.85670802
 30
0.0
 11
-38.2499992847
 21
7.6159755699
 31
0.0
  0
LINE
  5
1A9
330
1F
100
AcDbEntity
  8
SK3
  6
SLD-Solid
370
    18
100
AcDbLine
 10
-38.2499992847
 20
7.6159755699
 30
0.0
 11
-38.2499992847
 21
7.2202039883
 31
0.0
  0
LINE
  5
1AA
330
1F
100
AcDbEntity
  8
SK3
  6
SLD-Solid
370
    18
100
AcDbLine
 10
-38.2499992847
 20
7.2202039883
 30
0.0
 11
-38.2499992847
 21
6.6774501465
 31
0.0
  0
LINE
  5
1AB
330
1F
100
AcDbEntity
  8
SK3
  6
SLD-Solid
370
    18
100
AcDbLine
 10
-38.2499992847
 20
6.6774501465
 30
0.0
 11
-38.2499992847
 21
5.9987623245
 31
0.0
  0
LINE
  5
1AC
330
1F
100
AcDbEntity
  8
SK3
  6
SLD-Solid
370
    18
100
AcDbLine
 10
-38.2499992847
 20
5.9987623245
 30
0.0
 11
-38.2499992847
 21
5.1979571581
 31
0.0
  0
LINE
  5
1AD
330
1F
100
AcDbEntity
  8
SK3
  6
SLD-Solid
370
    18
100
AcDbLine
 10
-38.2499992847
 20
5.1979571581
 30
0.0
 11
-38.2499992847
 21
4.2913365178
 31
0.0
  0
LINE
  5
1AE
330
1F
100
AcDbEntity
  8
SK3
  6
SLD-Solid
370
    18
100
AcDbLine
 10
-38.2499992847
 20
4.2913365178
 30
0.0
 11
-38.2499992847
 21
3.2973566558
 31
0.0
  0
LINE
  5
1AF
330
1F
100
AcDbEntity
  8
SK3
  6
SLD-Solid
370
    18
100
AcDbLine
 10
-38.2499992847
 20
3.2973566558
 30
0.0
 11
-38.2499992847
 21
2.236252185
 31
0.0
  0
LINE
  5
1B0
330
1F
100
AcDbEntity
  8
SK3
  6
SLD-Solid
370
    18
100
AcDbLine
 10
-38.2499992847
 20
2.236252185
 30
0.0
 11
-38.2499992847
 21
1.1296240846
 31
0.0
  0
LINE
  5
1B1
330
1F
100
AcDbEntity
  8
SK3
  6
SLD-Solid
370
    18
100
AcDbLine
 10
-38.2499992847
 20
1.1296240846
 30
0.0
 11
-38.2499992847
 21
0.0
 31
0.0
  0
LINE
  5
1B2
330
1F
100
AcDbEntity
  8
SK3
  6
SLD-Solid
370
    18
100
AcDbLine
 10
49.212500453
 20
4.7625000589
 30
0.0
 11
49.212500453
 21
11.1999996006
 31
0.0
  0
LINE
  5
1B3
330
1F
100
AcDbEntity
  8
SK3
  6
SLD-Solid
370
    18
100
AcDbLine
 10
39.687499404
 20
11.1999996006
 30
0.0
 11
39.687499404
 21
4.7625000589
 31
0.0
  0
LINE
  5
1B4
330
1F
100
AcDbEntity
  8
SK3
  6
SLD-Solid
370
    18
100
AcDbLine
 10
42.187936604
 20
2.2620621603
 30
0.0
 11
41.5730029345
 21
2.8769986238
 31
0.0
  0
LINE
  5
1B5
330
1F
100
AcDbEntity
  8
SK3
  6
SLD-Solid
370
    18
100
AcDbLine
 10
49.212500453
 20
4.7625000589
 30
0.0
 11
49.1563603282
 21
4.7063608654
 31
0.0
  0
LINE
  5
1B6
330
1F
100
AcDbEntity
  8
SK3
  6
SLD-Solid
370
    18
100
AcDbLine
 10
46.7119597386
 20
2.2620621603
 30
0.0
 11
42.187936604
 21
2.2620621603
 31
0.0
  0
LINE
  5
1B7
330
1F
100
AcDbEntity
  8
SK3
  6
SLD-Solid
370
    18
100
AcDbLine
 10
41.5729664754
 20
2.8769986238
 30
0.0
 11
41.0258919001
 21
3.4241080284
 31
0.0
  0
LINE
  5
1B8
330
1F
100
AcDbEntity
  8
SK3
  6
SLD-Solid
370
    18
100
AcDbLine
 10
41.0258919001
 20
3.4241080284
 30
0.0
 11
40.5595079064
 21
3.8904922549
 31
0.0
  0
LINE
  5
1B9
330
1F
100
AcDbEntity
  8
SK3
  6
SLD-Solid
370
    18
100
AcDbLine
 10
40.5595079064
 20
3.8904922549
 30
0.0
 11
40.1848442852
 21
4.2651561089
 31
0.0
  0
LINE
  5
1BA
330
1F
100
AcDbEntity
  8
SK3
  6
SLD-Solid
370
    18
100
AcDbLine
 10
40.1848442852
 20
4.2651561089
 30
0.0
 11
39.9107336998
 21
4.5392662287
 31
0.0
  0
LINE
  5
1BB
330
1F
100
AcDbEntity
  8
SK3
  6
SLD-Solid
370
    18
100
AcDbLine
 10
39.9107336998
 20
4.5392662287
 30
0.0
 11
39.7436395288
 21
4.7063608654
 31
0.0
  0
LINE
  5
1BC
330
1F
100
AcDbEntity
  8
SK3
  6
SLD-Solid
370
    18
100
AcDbLine
 10
39.7436395288
 20
4.7063608654
 30
0.0
 11
39.687499404
 21
4.7625000589
 31
0.0
  0
LINE
  5
1BD
330
1F
100
AcDbEntity
  8
SK3
  6
SLD-Solid
370
    18
100
AcDbLine
 10
49.1563462209
 20
4.7063608654
 30
0.0
 11
48.9892661572
 21
4.5392662287
 31
0.0
  0
LINE
  5
1BE
330
1F
100
AcDbEntity
  8
SK3
  6
SLD-Solid
370
    18
100
AcDbLine
 10
48.9892661572
 20
4.5392662287
 30
0.0
 11
48.7151555717
 21
4.2651561089
 31
0.0
  0
LINE
  5
1BF
330
1F
100
AcDbEntity
  8
SK3
  6
SLD-Solid
370
    18
100
AcDbLine
 10
48.7151555717
 20
4.2651561089
 30
0.0
 11
48.3404919505
 21
3.8904922549
 31
0.0
  0
LINE
  5
1C0
330
1F
100
AcDbEntity
  8
SK3
  6
SLD-Solid
370
    18
100
AcDbLine
 10
48.3404919505
 20
3.8904922549
 30
0.0
 11
47.8741079569
 21
3.4241080284
 31
0.0
  0
LINE
  5
1C1
330
1F
100
AcDbEntity
  8
SK3
  6
SLD-Solid
370
    18
100
AcDbLine
 10
47.8741079569
 20
3.4241080284
 30
0.0
 11
47.3269969225
 21
2.8769986238
 31
0.0
  0
LINE
  5
1C2
330
1F
100
AcDbEntity
  8
SK3
  6
SLD-Solid
370
    18
100
AcDbLine
 10
47.3269969225
 20
2.8769986238
 30
0.0
 11
46.7120632529
 21
2.2620621603
 31
0.0
  0
LINE
  5
1C3
330
1F
100
AcDbEntity
  8
4
  6
SLD-Center
370
    18
100
AcDbLine
 10
65.5
 20
0.0
 30
0.0
 11
-0.3059764709
 21
0.0
 31
0.0
  0
LINE
  5
1C4
330
1F
100
AcDbEntity
  8
4
  6
SLD-Center
370
    18
100
AcDbLine
 10
44.45
 20
11.2
 30
0.0
 11
44.45
 21
2.7625
 31
0.0
  0
LINE
  5
1C5
330
1F
100
AcDbEntity
  8
SK4
  6
SLD-Center
370
    18
100
AcDbLine
 10
-69.1376006954
 20
0.0
 30
0.0
 11
63.7352783763
 21
0.0
 31
0.0
  0
LINE
  5
1C6
330
1F
100
AcDbEntity
  8
81
370
    18
100
AcDbLine
 10
63.5
 20
0.0
 30
0.0
 11
67.0355339059
 21
3.5355339059
 31
0.0
  0
LINE
  5
1C7
330
1F
100
AcDbEntity
  8
81
370
    18
100
AcDbLine
 10
63.5
 20
0.0
 30
0.0
 11
59.9644660941
 21
-3.5355339059
 31
0.0
  0
LINE
  5
1C8
330
1F
100
AcDbEntity
  8
81
370
    18
100
AcDbLine
 10
63.5
 20
0.0
 30
0.0
 11
59.9644660941
 21
3.5355339059
 31
0.0
  0
LINE
  5
1C9
330
1F
100
AcDbEntity
  8
81
100
AcDbLine
 10
63.5
 20
0.0
 30
0.0
 11
73.5
 21
0.0
 31
0.0
  0
LINE
  5
1CA
330
1F
100
AcDbEntity
  8
81
370
    18
100
AcDbLine
 10
63.5
 20
0.0
 30
0.0
 11
67.0355339059
 21
-3.5355339059
 31
0.0
  0
LINE
  5
1CB
330
1F
100
AcDbEntity
  8
80
370
    18
100
AcDbLine
 10
0.0
 20
0.0
 30
0.0
 11
-3.5355339059
 21
-3.5355339059
 31
0.0
  0
LINE
  5
1CC
330
1F
100
AcDbEntity
  8
80
370
    18
100
AcDbLine
 10
0.0
 20
0.0
 30
0.0
 11
3.5355339059
 21
3.5355339059
 31
0.0
  0
LINE
  5
1CD
330
1F
100
AcDbEntity
  8
80
370
    18
100
AcDbLine
 10
0.0
 20
0.0
 30
0.0
 11
-3.5355339059
 21
3.5355339059
 31
0.0
  0
LINE
  5
1CE
330
1F
100
AcDbEntity
  8
80
370
    18
100
AcDbLine
 10
0.0
 20
0.0
 30
0.0
 11
-10.0
 21
0.0
 31
0.0
  0
LINE
  5
1CF
330
1F
100
AcDbEntity
  8
80
370
    18
100
AcDbLine
 10
0.0
 20
0.0
 30
0.0
 11
3.5355339059
 21
-3.5355339059
 31
0.0
  0
ARC
  5
1D0
330
1F
100
AcDbEntity
  8
1
  6
SLD-Solid
370
    25
100
AcDbCircle
 10
19.812
 20
-22.987
 30
0.0
 40
0.7620000000000102
100
AcDbArc
 50
90.0
 51
130.8135744247
  0
ARC
  5
1D1
330
1F
100
AcDbEntity
  8
1
  6
SLD-Solid
370
    25
100
AcDbCircle
 10
19.812
 20
22.987
 30
0.0
 40
0.7620000000000005
100
AcDbArc
 50
180.0
 51
270.0
  0
ARC
  5
1D2
330
1F
100
AcDbEntity
  8
1
  6
SLD-Solid
370
    25
100
AcDbCircle
 10
2.45
 20
22.79
 30
0.0
 40
0.7500000000000046
100
AcDbArc
 50
245.0
 51
0.0
  0
ARC
  5
1D3
330
1F
100
AcDbEntity
  8
1
  6
SLD-Solid
370
    25
100
AcDbCircle
 10
2.45
 20
-22.79
 30
0.0
 40
0.7500000000000117
100
AcDbArc
 50
30.4400371691
 51
115.0
  0
ARC
  5
1D4
330
1F
100
AcDbEntity
  8
1
  6
SLD-Solid
370
    25
100
AcDbCircle
 10
34.288
 20
-21.463
 30
0.0
 40
0.7620000000000147
100
AcDbArc
 50
270.0
 51
0.0
  0
ARC
  5
1D5
330
1F
100
AcDbEntity
  8
1
  6
SLD-Solid
370
    25
100
AcDbCircle
 10
34.288
 20
21.463
 30
0.0
 40
0.7620000000000289
100
AcDbArc
 50
0.0
 51
90.0
  0
ARC
  5
1D6
330
1F
100
AcDbEntity
  8
1
  6
SLD-Solid
370
    25
100
AcDbCircle
 10
38.225
 20
-15.875
 30
0.0
 40
3.175000000000004
100
AcDbArc
 50
90.0
 51
180.0
  0
ARC
  5
1D7
330
1F
100
AcDbEntity
  8
1
  6
SLD-Solid
370
    25
100
AcDbCircle
 10
38.225
 20
15.875
 30
0.0
 40
3.174999999999997
100
AcDbArc
 50
180.0
 51
270.0
  0
ARC
  5
1D8
330
1F
100
AcDbEntity
  8
SK1
  6
SLD-Solid
370
    25
100
AcDbCircle
 10
-66.95
 20
11.1476148288
 30
0.0
 40
1.299999999999997
100
AcDbArc
 50
98.2972222222
 51
180.0
  0
ARC
  5
1D9
330
1F
100
AcDbEntity
  8
SK1
  6
SLD-Solid
370
    25
100
AcDbCircle
 10
-66.95
 20
-11.1476148288
 30
0.0
 40
1.299999999999999
100
AcDbArc
 50
180.0
 51
261.7027777778
  0
ARC
  5
1DA
330
1F
100
AcDbEntity
  8
1
  6
SLD-Solid
370
    25
100
AcDbCircle
 10
44.4496248449
 20
24.6717111182
 30
0.0
 40
13.17451101678881
100
AcDbArc
 50
245.3266581981
 51
294.6157747311
  0
CIRCLE
  5
1DB
330
1F
100
AcDbEntity
  8
81
370
    18
100
AcDbCircle
 10
63.5
 20
0.0
 30
0.0
 40
2.499999999999984
  0
CIRCLE
  5
1DC
330
1F
100
AcDbEntity
  8
80
370
    18
100
AcDbCircle
 10
0.0
 20
0.0
 30
0.0
 40
2.500000000000009
  0
SPLINE
  5
1DD
330
1F
100
AcDbEntity
  8
1
  6
SLD-Solid
370
    25
100
AcDbSpline
210
0.0
220
0.0
230
1.0
 70
     8
 71
     3
 72
    18
 73
    14
 74
     0
 42
0.000000001
 43
0.00000001
 40
0.0
 40
0.0
 40
0.0
 40
0.0
 40
0.0627054734815585
 40
0.1258180026435944
 40
0.1893518955758989
 40
0.2533210967871997
 40
0.3760223802380994
 40
0.5042027350874037
 40
0.6287442443905509
 40
0.7524970007335178
 40
0.8762904256225891
 40
0.9301814553533038
 40
1.0
 40
1.0
 40
1.0
 40
1.0
 10
18.30000000000001
 20
-30.55788999666614
 30
0.0
 10
18.32475189251025
 20
-30.55717815032796
 30
0.0
 10
18.3744163556644
 20
-30.55574983666592
 30
0.0
 10
18.44840700700191
 20
-30.54418621918458
 30
0.0
 10
18.52137928311719
 20
-30.52568315689516
 30
0.0
 10
18.6141487161072
 20
-30.49172081055997
 30
0.0
 10
18.72382631062685
 20
-30.4320633120142
 30
0.0
 10
18.83789060104971
 20
-30.33670781031284
 30
0.0
 10
18.93096567570618
 20
-30.22063090164697
 30
0.0
 10
18.99906840635736
 20
-30.09053486574008
 30
0.0
 10
19.03266226172081
 20
-29.97656054635133
 30
0.0
 10
19.04765434845161
 20
-29.88065972774423
 30
0.0
 10
19.04915376650079
 20
-29.83220301390153
 30
0.0
 10
19.05000000000001
 20
-29.80485527419841
 30
0.0
  0
SPLINE
  5
1DE
330
1F
100
AcDbEntity
  8
1
  6
SLD-Solid
370
    25
100
AcDbSpline
210
0.0
220
0.0
230
1.0
 70
     8
 71
     3
 72
    16
 73
    12
 74
     0
 42
0.000000001
 43
0.00000001
 40
0.0
 40
0.0
 40
0.0
 40
0.0
 40
0.069814031064149
 40
0.1237498965154266
 40
0.2475836018648968
 40
0.371376536255524
 40
0.4959583438678432
 40
0.62413948620796
 40
0.7469207609697971
 40
0.8742805094910139
 40
1.0
 40
1.0
 40
1.0
 40
1.0
 10
19.05000000000002
 20
29.80486644841628
 30
0.0
 10
19.04915437967802
 20
29.83220375694687
 30
0.0
 10
19.04765546283078
 20
29.88066090875585
 30
0.0
 10
19.03266526234905
 20
29.97656337346558
 30
0.0
 10
18.9990687612394
 20
30.09054703967057
 30
0.0
 10
18.93096439399839
 20
30.22065301278143
 30
0.0
 10
18.83790550330877
 20
30.33668609025479
 30
0.0
 10
18.72382127964479
 20
30.43216876423576
 30
0.0
 10
18.59216376019318
 20
30.50338604964251
 30
0.0
 10
18.44966044222823
 20
30.54924901227124
 30
0.0
 10
18.34967079633339
 20
30.55503461089692
 30
0.0
 10
18.30000000000001
 20
30.55790866138914
 30
0.0
  0
SPLINE
  5
1DF
330
1F
100
AcDbEntity
  8
1
  6
SLD-Solid
370
    25
100
AcDbSpline
210
0.0
220
0.0
230
1.0
 70
     8
 71
     3
 72
    16
 73
    12
 74
     0
 42
0.000000001
 43
0.00000001
 40
0.0
 40
0.0
 40
0.0
 40
0.0
 40
0.0695972585631702
 40
0.1233277320974721
 40
0.247039555460377
 40
0.370625409937532
 40
0.4955039070586293
 40
0.6236892810562452
 40
0.7463896350927952
 40
0.874029172385884
 40
1.0
 40
1.0
 40
1.0
 40
1.0
 10
3.199999999999994
 20
-29.8048664484163
 30
0.0
 10
3.200840331068322
 20
-29.8321187437415
 30
0.0
 10
3.202329414503616
 20
-29.88041035531205
 30
0.0
 10
3.217237155250574
 20
-29.97610817340506
 30
0.0
 10
3.250688715768002
 20
-30.08991350869657
 30
0.0
 10
3.318652551687992
 20
-30.22007249881832
 30
0.0
 10
3.411627067179679
 20
-30.33622596976963
 30
0.0
 10
3.525709306310146
 20
-30.43184457715032
 30
0.0
 10
3.65737912302759
 20
-30.50320141671876
 30
0.0
 10
3.800029806285354
 20
-30.5492134761922
 30
0.0
 10
3.900229701070748
 20
-30.55502300820851
 30
0.0
 10
3.949999999999912
 20
-30.55790866138917
 30
0.0
  0
SPLINE
  5
1E0
330
1F
100
AcDbEntity
  8
1
  6
SLD-Solid
370
    25
100
AcDbSpline
210
0.0
220
0.0
230
1.0
 70
     8
 71
     3
 72
    18
 73
    14
 74
     0
 42
0.000000001
 43
0.00000001
 40
0.0
 40
0.0
 40
0.0
 40
0.0
 40
0.0628280480421825
 40
0.1260701253970792
 40
0.1897406253785904
 40
0.2538535710757105
 40
0.3764737521324676
 40
0.5046580328934662
 40
0.6294958758641306
 40
0.7530413720168776
 40
0.8767127000651272
 40
0.9303985995609487
 40
1.0
 40
1.0
 40
1.0
 40
1.0
 10
3.949999999999913
 20
30.55788999666613
 30
0.0
 10
3.925199676033179
 20
30.55717534525745
 30
0.0
 10
3.875435596934694
 20
30.55574133297283
 30
0.0
 10
3.801295881396175
 20
30.54413094373269
 30
0.0
 10
3.72817576856549
 20
30.52555103963993
 30
0.0
 10
3.635356745735133
 20
30.49149389245028
 30
0.0
 10
3.525704227685277
 20
30.43173903699993
 30
0.0
 10
3.411641971522839
 20
30.33624779546198
 30
0.0
 10
3.318651270434177
 20
30.22005039304358
 30
0.0
 10
3.250689072054483
 20
30.08990134371377
 30
0.0
 10
3.217240115096214
 20
29.97610524198125
 30
0.0
 10
3.202330512999666
 20
29.88040905934514
 30
0.0
 10
3.200840935566474
 20
29.83211788338436
 30
0.0
 10
3.199999999999986
 20
29.80485527419838
 30
0.0
  0
SPLINE
  5
1E1
330
1F
100
AcDbEntity
  8
1
  6
SLD-Solid
370
    25
100
AcDbSpline
210
0.0
220
0.0
230
1.0
 70
     8
 71
     3
 72
     8
 73
     4
 74
     0
 42
0.000000001
 43
0.00000001
 40
0.0
 40
0.0
 40
0.0
 40
0.0
 40
1.0
 40
1.0
 40
1.0
 40
1.0
 10
13.03
 20
27.8050456341729
 30
0.0
 10
13.47759651810104
 20
28.61249255653032
 30
0.0
 10
13.92634937951633
 20
29.41929290832668
 30
0.0
 10
14.37601294652259
 20
30.22558142012639
 30
0.0
  0
SPLINE
  5
1E2
330
1F
100
AcDbEntity
  8
1
  6
SLD-Solid
370
    25
100
AcDbSpline
210
0.0
220
0.0
230
1.0
 70
     8
 71
     3
 72
     8
 73
     4
 74
     0
 42
0.000000001
 43
0.00000001
 40
0.0
 40
0.0
 40
0.0
 40
0.0
 40
0.0006742907251946
 40
0.0006742907251946
 40
0.0006742907251946
 40
0.0006742907251946
 10
14.64112635455678
 20
30.55790866138914
 30
0.0
 10
14.55231121915219
 20
30.44723498609877
 30
0.0
 10
14.4639323132736
 20
30.33646040447046
 30
0.0
 10
14.37601294652259
 20
30.22558142012639
 30
0.0
  0
SPLINE
  5
1E3
330
1F
100
AcDbEntity
  8
1
  6
SLD-Solid
370
    25
100
AcDbSpline
210
0.0
220
0.0
230
1.0
 70
     8
 71
     3
 72
     8
 73
     4
 74
     0
 42
0.000000001
 43
0.00000001
 40
0.0
 40
0.0
 40
0.0
 40
0.0
 40
0.0006744126776058
 40
0.0006744126776058
 40
0.0006744126776058
 40
0.0006744126776058
 10
14.37595046659275
 20
-30.22546938779914
 30
0.0
 10
14.46389058426686
 20
-30.33637953005828
 30
0.0
 10
14.55229031970067
 20
-30.44718523342131
 30
0.0
 10
14.64112635455679
 20
-30.55788999666614
 30
0.0
  0
SPLINE
  5
1E4
330
1F
100
AcDbEntity
  8
1
  6
SLD-Solid
370
    25
100
AcDbSpline
210
0.0
220
0.0
230
1.0
 70
     8
 71
     3
 72
     8
 73
     4
 74
     0
 42
0.000000001
 43
0.00000001
 40
0.0
 40
0.0
 40
0.0
 40
0.0
 40
1.0
 40
1.0
 40
1.0
 40
1.0
 10
13.03
 20
-27.8050456341729
 30
0.0
 10
13.47756662864427
 20
-28.6124386370986
 30
0.0
 10
13.92629890859748
 20
-29.41920220926157
 30
0.0
 10
14.37595046659275
 20
-30.22546938779914
 30
0.0
  0
SPLINE
  5
1E5
330
1F
100
AcDbEntity
  8
1
  6
SLD-Solid
370
    25
100
AcDbSpline
210
0.0
220
0.0
230
1.0
 70
     8
 71
     3
 72
    14
 73
    10
 74
     0
 42
0.000000001
 43
0.00000001
 40
0.0
 40
0.0
 40
0.0
 40
0.0
 40
0.25
 40
0.25
 40
0.5
 40
0.5
 40
0.75
 40
0.75
 40
1.0
 40
1.0
 40
1.0
 40
1.0
 10
13.02999999999999
 20
25.81171788356633
 30
0.0
 10
13.05182784069893
 20
25.8086816676394
 30
0.0
 10
13.06930451588747
 20
25.79706282581693
 30
0.0
 10
13.09355241467165
 20
25.75265705035272
 30
0.0
 10
13.09996413738389
 20
25.71975400624288
 30
0.0
 10
13.10003555457989
 20
25.63443445773251
 30
0.0
 10
13.09360869858514
 20
25.58073121692831
 30
0.0
 10
13.06953031995429
 20
25.45976651603279
 30
0.0
 10
13.05190366619462
 20
25.39187340765439
 30
0.0
 10
13.03
 20
25.31924243797494
 30
0.0
  0
SPLINE
  5
1E6
330
1F
100
AcDbEntity
  8
1
  6
SLD-Solid
370
    25
100
AcDbSpline
210
0.0
220
0.0
230
1.0
 70
     8
 71
     3
 72
     8
 73
     4
 74
     0
 42
0.000000001
 43
0.00000001
 40
0.0
 40
0.0
 40
0.0
 40
0.0
 40
1.0
 40
1.0
 40
1.0
 40
1.0
 10
7.85398705347956
 20
-30.22558142012363
 30
0.0
 10
8.30365952384672
 20
-29.41927694377145
 30
0.0
 10
8.752412641282653
 20
-28.61247603335509
 30
0.0
 10
9.199999999998848
 20
-27.80504563417607
 30
0.0
  0
SPLINE
  5
1E7
330
1F
100
AcDbEntity
  8
1
  6
SLD-Solid
370
    25
100
AcDbSpline
210
0.0
220
0.0
230
1.0
 70
     8
 71
     3
 72
     8
 73
     4
 74
     0
 42
0.000000001
 43
0.00000001
 40
0.0
 40
0.0
 40
0.0
 40
0.0
 40
0.0006742907251988
 40
0.0006742907251988
 40
0.0006742907251988
 40
0.0006742907251988
 10
7.588873645443182
 20
-30.55790866138917
 30
0.0
 10
7.677688780848528
 20
-30.44723498609787
 30
0.0
 10
7.766067686727844
 20
-30.33646040446865
 30
0.0
 10
7.853987053479562
 20
-30.22558142012363
 30
0.0
  0
SPLINE
  5
1E8
330
1F
100
AcDbEntity
  8
1
  6
SLD-Solid
370
    25
100
AcDbSpline
210
0.0
220
0.0
230
1.0
 70
     8
 71
     3
 72
     8
 73
     4
 74
     0
 42
0.000000001
 43
0.00000001
 40
0.0
 40
0.0
 40
0.0
 40
0.0
 40
0.0006744126776058
 40
0.0006744126776058
 40
0.0006744126776058
 40
0.0006744126776058
 10
7.854049533407223
 20
30.22546938779911
 30
0.0
 10
7.766109415733123
 20
30.33637953005827
 30
0.0
 10
7.677709680299322
 20
30.44718523342129
 30
0.0
 10
7.588873645443181
 20
30.55788999666613
 30
0.0
  0
SPLINE
  5
1E9
330
1F
100
AcDbEntity
  8
1
  6
SLD-Solid
370
    25
100
AcDbSpline
210
0.0
220
0.0
230
1.0
 70
     8
 71
     3
 72
     8
 73
     4
 74
     0
 42
0.000000001
 43
0.00000001
 40
0.0
 40
0.0
 40
0.0
 40
0.0
 40
1.0
 40
1.0
 40
1.0
 40
1.0
 10
7.854049533407223
 20
30.22546938779912
 30
0.0
 10
8.303692188804709
 20
29.41921817244962
 30
0.0
 10
8.7524242128066
 20
28.61245515876933
 30
0.0
 10
9.199999999999973
 20
27.8050456341729
 30
0.0
  0
SPLINE
  5
1EA
330
1F
100
AcDbEntity
  8
1
  6
SLD-Solid
370
    25
100
AcDbSpline
210
0.0
220
0.0
230
1.0
 70
     8
 71
     3
 72
    14
 73
    10
 74
     0
 42
0.000000001
 43
0.00000001
 40
0.0
 40
0.0
 40
0.0
 40
0.0
 40
0.25
 40
0.25
 40
0.5
 40
0.5
 40
0.75
 40
0.75
 40
1.0
 40
1.0
 40
1.0
 40
1.0
 10
9.199999999998848
 20
25.27054331738515
 30
0.0
 10
9.169610391132107
 20
25.36219671402947
 30
0.0
 10
9.144652419509542
 20
25.44797517411545
 30
0.0
 10
9.109411114929483
 20
25.60359055831212
 30
0.0
 10
9.100075894724851
 20
25.66959440204699
 30
0.0
 10
9.099925023949755
 20
25.77434199055131
 30
0.0
 10
9.109375914768806
 20
25.81145009587541
 30
0.0
 10
9.144272722663828
 20
25.85500935243902
 30
0.0
 10
9.16955575262421
 20
25.86176202446133
 30
0.0
 10
9.199999999999974
 20
25.85691311136567
 30
0.0
  0
SPLINE
  5
1EB
330
1F
100
AcDbEntity
  8
1
  6
SLD-Solid
370
    25
100
AcDbSpline
210
0.0
220
0.0
230
1.0
 70
     8
 71
     3
 72
    14
 73
    10
 74
     0
 42
0.000000001
 43
0.00000001
 40
0.0
 40
0.0
 40
0.0
 40
0.0
 40
0.25
 40
0.25
 40
0.5
 40
0.5
 40
0.75
 40
0.75
 40
1.0
 40
1.0
 40
1.0
 40
1.0
 10
9.199999999999985
 20
-27.76916635406976
 30
0.0
 10
9.199999999999985
 20
-27.66854183645165
 30
0.0
 10
9.218753722673611
 20
-27.56842327754111
 30
0.0
 10
9.29151753581231
 20
-27.38167264562871
 30
0.0
 10
9.345885298656015
 20
-27.29482655372886
 30
0.0
 10
9.482713453675185
 20
-27.14914073715223
 30
0.0
 10
9.566479996683737
 20
-27.08925426891756
 30
0.0
 10
9.74908978763267
 20
-27.00861553825999
 30
0.0
 10
9.84994118032051
 20
-26.98706356756862
 30
0.0
 10
9.95000000000125
 20
-26.9870635675688
 30
0.0
  0
SPLINE
  5
1EC
330
1F
100
AcDbEntity
  8
1
  6
SLD-Solid
370
    25
100
AcDbSpline
210
0.0
220
0.0
230
1.0
 70
     8
 71
     3
 72
    16
 73
    12
 74
     0
 42
0.000000001
 43
0.00000001
 40
0.0
 40
0.0
 40
0.0
 40
0.0
 40
0.2500000000000015
 40
0.2500000000000015
 40
0.500000000000003
 40
0.500000000000003
 40
0.7500000000000044
 40
0.7500000000000044
 40
0.8750000000000022
 40
0.8750000000000022
 40
1.0
 40
1.0
 40
1.0
 40
1.0
 10
9.95000000000125
 20
24.06685975304419
 30
0.0
 10
9.840493351282328
 20
24.10694414130935
 30
0.0
 10
9.742786160773454
 20
24.17117631338135
 30
0.0
 10
9.56784038259069
 20
24.33096083631469
 30
0.0
 10
9.49398825402853
 20
24.42340952890755
 30
0.0
 10
9.367115049351005
 20
24.62793394074501
 30
0.0
 10
9.314523965070084
 20
24.73961559875877
 30
0.0
 10
9.253446937619675
 20
24.91971397324647
 30
0.0
 10
9.235893303124604
 20
24.98231479864245
 30
0.0
 10
9.209102989073667
 20
25.11253703191867
 30
0.0
 10
9.200000000001262
 20
25.18114365477765
 30
0.0
 10
9.200000000001262
 20
25.24012107693848
 30
0.0
  0
SPLINE
  5
1ED
330
1F
100
AcDbEntity
  8
1
  6
SLD-Solid
370
    25
100
AcDbSpline
210
0.0
220
0.0
230
1.0
 70
     8
 71
     3
 72
    12
 73
     8
 74
     0
 42
0.000000001
 43
0.00000001
 40
0.0
 40
0.0
 40
0.0
 40
0.0
 40
0.2499999999999984
 40
0.2499999999999984
 40
0.4999999999999969
 40
0.4999999999999969
 40
1.0
 40
1.0
 40
1.0
 40
1.0
 10
12.28
 20
-26.98706356756882
 30
0.0
 10
12.37975762515876
 20
-26.98706356756883
 30
0.0
 10
12.48041217798163
 20
-27.00843624414831
 30
0.0
 10
12.66352022573501
 20
-27.0892138443703
 30
0.0
 10
12.74662210573628
 20
-27.14844080533418
 30
0.0
 10
12.95377706693951
 20
-27.3689835197036
 30
0.0
 10
13.03
 20
-27.56902785518149
 30
0.0
 10
13.03
 20
-27.7691663540697
 30
0.0
  0
SPLINE
  5
1EE
330
1F
100
AcDbEntity
  8
1
  6
SLD-Solid
370
    25
100
AcDbSpline
210
0.0
220
0.0
230
1.0
 70
     8
 71
     3
 72
    18
 73
    14
 74
     0
 42
0.000000001
 43
0.00000001
 40
0.0
 40
0.0
 40
0.0
 40
0.0
 40
0.0624999999999983
 40
0.0624999999999983
 40
0.1249999999999966
 40
0.1249999999999966
 40
0.2499999999999938
 40
0.2499999999999938
 40
0.4999999999999959
 40
0.4999999999999959
 40
0.7499999999999979
 40
0.7499999999999979
 40
1.0
 40
1.0
 40
1.0
 40
1.0
 10
13.03000000000128
 20
25.28882228478155
 30
0.0
 10
13.03000000000128
 20
25.258454228703
 30
0.0
 10
13.02749489038239
 20
25.22358442434114
 30
0.0
 10
13.01920268672323
 20
25.15482296737403
 30
0.0
 10
13.01359186101023
 20
25.12104898565183
 30
0.0
 10
12.99361738711202
 20
25.02074756626908
 30
0.0
 10
12.97668865169317
 20
24.95779435947977
 30
0.0
 10
12.91737158574274
 20
24.77496256517828
 30
0.0
 10
12.86564177104009
 20
24.66011878167448
 30
0.0
 10
12.74049543384748
 20
24.45045700081709
 30
0.0
 10
12.66639130892219
 20
24.35409856583109
 30
0.0
 10
12.49025684706097
 20
24.18769951882028
 30
0.0
 10
12.39180028213162
 20
24.1205459534406
 30
0.0
 10
12.28000000000128
 20
24.07805063523434
 30
0.0
  0
SPLINE
  5
1EF
330
1F
100
AcDbEntity
  8
1
  6
SLD-Solid
370
    25
100
AcDbSpline
210
0.0
220
0.0
230
1.0
 70
     8
 71
     3
 72
    12
 73
     8
 74
     0
 42
0.000000001
 43
0.00000001
 40
0.0
 40
0.0
 40
0.0
 40
0.0
 40
0.25
 40
0.25
 40
0.5
 40
0.5
 40
1.0
 40
1.0
 40
1.0
 40
1.0
 10
12.28000000000128
 20
24.07805063523434
 30
0.0
 10
12.1112556565391
 20
24.01391086354245
 30
0.0
 10
11.92801760594736
 20
23.96418277266271
 30
0.0
 10
11.53284005751314
 20
23.89473625632987
 30
0.0
 10
11.3277419038663
 20
23.87652150272302
 30
0.0
 10
10.70517895587215
 20
23.87317080568452
 30
0.0
 10
10.29199014189995
 20
23.9416758871229
 30
0.0
 10
9.95000000000125
 20
24.06685975304419
 30
0.0
  0
SPLINE
  5
1F0
330
1F
100
AcDbEntity
  8
1
  6
SLD-Solid
370
    25
100
AcDbSpline
210
0.0
220
0.0
230
1.0
 70
     8
 71
     3
 72
    16
 73
    12
 74
     0
 42
0.000000001
 43
0.00000001
 40
0.0
 40
0.0
 40
0.0
 40
0.0
 40
0.125
 40
0.125
 40
0.25
 40
0.25
 40
0.5
 40
0.5
 40
0.75
 40
0.75
 40
1.0
 40
1.0
 40
1.0
 40
1.0
 10
9.199999999999976
 20
25.82649087091905
 30
0.0
 10
9.199999999999978
 20
25.7670445352822
 30
0.0
 10
9.209309779240176
 20
25.72460913603001
 30
0.0
 10
9.236285539089913
 20
25.66309575968363
 30
0.0
 10
9.253818395994044
 20
25.64221451078866
 30
0.0
 10
9.31473261235082
 20
25.59089236418539
 30
0.0
 10
9.367586350542444
 20
25.57162638804162
 30
0.0
 10
9.493923269647548
 20
25.54782523997986
 30
0.0
 10
9.568606186754735
 20
25.54380204926682
 30
0.0
 10
9.743190718990288
 20
25.55566084202216
 30
0.0
 10
9.840260492227253
 20
25.57101227172015
 30
0.0
 10
9.949999999999964
 20
25.60325879037601
 30
0.0
  0
SPLINE
  5
1F1
330
1F
100
AcDbEntity
  8
1
  6
SLD-Solid
370
    25
100
AcDbSpline
210
0.0
220
0.0
230
1.0
 70
     8
 71
     3
 72
    12
 73
     8
 74
     0
 42
0.000000001
 43
0.00000001
 40
0.0
 40
0.0
 40
0.0
 40
0.0
 40
0.2499999999999994
 40
0.2499999999999994
 40
0.4999999999999989
 40
0.4999999999999989
 40
1.0
 40
1.0
 40
1.0
 40
1.0
 10
9.949999999999955
 20
25.60325879037601
 30
0.0
 10
10.12099348269378
 20
25.65350454636333
 30
0.0
 10
10.30594493731544
 20
25.69087007490121
 30
0.0
 10
10.70348914958041
 20
25.74162454002533
 30
0.0
 10
10.90918343641378
 20
25.75391313067251
 30
0.0
 10
11.53176214943037
 20
25.75179790476194
 30
0.0
 10
11.94250893135796
 20
25.69754140003432
 30
0.0
 10
12.27999999999998
 20
25.59426208810603
 30
0.0
  0
SPLINE
  5
1F2
330
1F
100
AcDbEntity
  8
1
  6
SLD-Solid
370
    25
100
AcDbSpline
210
0.0
220
0.0
230
1.0
 70
     8
 71
     3
 72
    18
 73
    14
 74
     0
 42
0.000000001
 43
0.00000001
 40
0.0
 40
0.0
 40
0.0
 40
0.0
 40
0.2500000000000006
 40
0.2500000000000006
 40
0.5000000000000012
 40
0.5000000000000012
 40
0.7500000000000018
 40
0.7500000000000018
 40
0.8750000000000021
 40
0.8750000000000021
 40
0.9375000000000011
 40
0.9375000000000011
 40
1.0
 40
1.0
 40
1.0
 40
1.0
 10
12.27999999999999
 20
25.59426208810603
 30
0.0
 10
12.39154339480305
 20
25.56012748089478
 30
0.0
 10
12.49076613158665
 20
25.54318981789734
 30
0.0
 10
12.6665334624591
 20
25.52816909760165
 30
0.0
 10
12.74028542340613
 20
25.53041158029684
 30
0.0
 10
12.86605076853515
 20
25.54934151941309
 30
0.0
 10
12.91749996660361
 20
25.56531541934167
 30
0.0
 10
12.97688531868162
 20
25.60908469940351
 30
0.0
 10
12.99394905986487
 20
25.62703563897609
 30
0.0
 10
13.01360803438726
 20
25.66754728332327
 30
0.0
 10
13.01926149413283
 20
25.68358803034143
 30
0.0
 10
13.02752275857842
 20
25.72506394381625
 30
0.0
 10
13.02999999999999
 20
25.75103822857545
 30
0.0
 10
13.02999999999999
 20
25.78129773037291
 30
0.0
  0
SPLINE
  5
1F3
330
1F
100
AcDbEntity
  8
1
  6
SLD-Solid
370
    25
100
AcDbSpline
210
0.0
220
0.0
230
1.0
 70
     8
 71
     3
 72
    12
 73
     8
 74
     0
 42
0.000000001
 43
0.00000001
 40
0.0
 40
0.0
 40
0.0
 40
0.0
 40
0.2499999999999991
 40
0.2499999999999991
 40
0.4999999999999982
 40
0.4999999999999982
 40
1.0
 40
1.0
 40
1.0
 40
1.0
 10
9.199999999999985
 20
27.76916635406976
 30
0.0
 10
9.199999999999985
 20
27.66809333683725
 30
0.0
 10
9.218583298377228
 20
27.56892641339131
 30
0.0
 10
9.291549937975748
 20
27.38152387214675
 30
0.0
 10
9.345496880932808
 20
27.29531750692793
 30
0.0
 10
9.551071041675366
 20
27.07620366276164
 30
0.0
 10
9.74822041674009
 20
26.98706356756882
 30
0.0
 10
9.949999999999973
 20
26.98706356756883
 30
0.0
  0
SPLINE
  5
1F4
330
1F
100
AcDbEntity
  8
1
  6
SLD-Solid
370
    25
100
AcDbSpline
210
0.0
220
0.0
230
1.0
 70
     8
 71
     3
 72
    14
 73
    10
 74
     0
 42
0.000000001
 43
0.00000001
 40
0.0
 40
0.0
 40
0.0
 40
0.0
 40
0.25
 40
0.25
 40
0.5
 40
0.5
 40
0.75
 40
0.75
 40
1.0
 40
1.0
 40
1.0
 40
1.0
 10
12.28
 20
26.98706356756883
 30
0.0
 10
12.38041018140384
 20
26.98706356756882
 30
0.0
 10
12.480074177716
 20
27.00821121867972
 30
0.0
 10
12.66478364882749
 20
27.08984749877595
 30
0.0
 10
12.74772062670421
 20
27.1494985263265
 30
0.0
 10
12.8844352156222
 20
27.29527278596965
 30
0.0
 10
12.93853405055463
 20
27.38169791130529
 30
0.0
 10
13.01142030969676
 20
27.56897740148014
 30
0.0
 10
13.03
 20
27.66812420510654
 30
0.0
 10
13.03
 20
27.76916635406976
 30
0.0
  0
SPLINE
  5
1F5
330
1F
100
AcDbEntity
  8
1
  6
SLD-Solid
370
    25
100
AcDbSpline
210
0.0
220
0.0
230
1.0
 70
     8
 71
     3
 72
    35
 73
    31
 74
     0
 42
0.000000001
 43
0.00000001
 40
0.0
 40
0.0
 40
0.0
 40
0.0
 40
0.0359074310824656
 40
0.0750875943533615
 40
0.1153224123174854
 40
0.1562247365630979
 40
0.1980685774649249
 40
0.2442412716581688
 40
0.2914162759729254
 40
0.3449980755799095
 40
0.3997982075728191
 40
0.4300076426565877
 40
0.4604064217283973
 40
0.4913914289951153
 40
0.5225756557923243
 40
0.5545808525157362
 40
0.5868081160680206
 40
0.6197503668075682
 40
0.6529482459856949
 40
0.6844717416438136
 40
0.7162441446070563
 40
0.7488628646891016
 40
0.7818073164745427
 40
0.8283692043994201
 40
0.8761933775351596
 40
0.8994281414416521
 40
0.9228579694946645
 40
0.9469446542202379
 40
0.9712757588880738
 40
1.0
 40
1.0
 40
1.0
 40
1.0
 10
38.96559804507999
 20
-12.69591716112937
 30
0.0
 10
38.97067948210803
 20
-12.69397616188865
 30
0.0
 10
38.98130549657893
 20
-12.6899172537676
 30
0.0
 10
39.1534147818254
 20
-12.62550069084557
 30
0.0
 10
39.43154435515743
 20
-12.52512449187468
 30
0.0
 10
39.82488692318049
 20
-12.39078611697582
 30
0.0
 10
40.3335736999443
 20
-12.23023108949404
 30
0.0
 10
40.95887898139795
 20
-12.05327243606135
 30
0.0
 10
41.72312811641697
 20
-11.86761193557819
 30
0.0
 10
42.6078826140671
 20
-11.69474215572822
 30
0.0
 10
43.44785983592621
 20
-11.57736929658171
 30
0.0
 10
44.16768913527207
 20
-11.51000562859028
 30
0.0
 10
44.7473584364791
 20
-11.47491616181674
 30
0.0
 10
45.33792351518852
 20
-11.45918607495844
 30
0.0
 10
45.9397949573858
 20
-11.46391287583422
 30
0.0
 10
46.54673220803416
 20
-11.48993105156337
 30
0.0
 10
47.15761051644903
 20
-11.53768379227139
 30
0.0
 10
47.76407146050769
 20
-11.60648601378933
 30
0.0
 10
48.34940270210901
 20
-11.69335842845365
 30
0.0
 10
48.90654888429895
 20
-11.79446988256791
 30
0.0
 10
49.43499949780812
 20
-11.90678859371781
 30
0.0
 10
49.9397738147196
 20
-12.02922097323579
 30
0.0
 10
50.47720690792311
 20
-12.1748870484795
 30
0.0
 10
51.01690863541235
 20
-12.33864130661935
 30
0.0
 10
51.42013961828222
 20
-12.47386843140459
 30
0.0
 10
51.67459407654169
 20
-12.56346489330044
 30
0.0
 10
51.82913311705857
 20
-12.61941821947604
 30
0.0
 10
51.94530296396911
 20
-12.66239146232722
 30
0.0
 10
52.02810582776592
 20
-12.69350574536671
 30
0.0
 10
52.03921353823328
 20
-12.69771895966927
 30
0.0
 10
52.04522726878159
 20
-12.69999999999997
 30
0.0
  0
SPLINE
  5
1F6
330
1F
100
AcDbEntity
  8
SK3
  6
SLD-Dashed
370
    18
100
AcDbSpline
210
0.0
220
0.0
230
1.0
 70
     8
 71
     3
 72
    30
 73
    26
 74
     0
 42
0.000000001
 43
0.00000001
 40
0.4999999999999971
 40
0.4999999999999971
 40
0.4999999999999971
 40
0.4999999999999971
 40
0.5624999999999977
 40
0.5624999999999977
 40
0.6249999999999981
 40
0.6249999999999981
 40
0.6562499999999984
 40
0.6562499999999984
 40
0.6874999999999987
 40
0.6874999999999987
 40
0.718749999999999
 40
0.718749999999999
 40
0.7499999999999992
 40
0.7499999999999992
 40
0.7812499999999994
 40
0.7812499999999994
 40
0.8124999999999998
 40
0.8124999999999998
 40
0.8749999999999998
 40
0.8749999999999998
 40
0.9374999999999999
 40
0.9374999999999999
 40
0.96875
 40
0.96875
 40
1.0
 40
1.0
 40
1.0
 40
1.0
 10
11.75479658556571
 20
-4.901433547105913
 30
0.0
 10
11.89746294966131
 20
-4.886411197664698
 30
0.0
 10
12.02884136644405
 20
-4.886974229786185
 30
0.0
 10
12.27243240561783
 20
-4.932317536304437
 30
0.0
 10
12.38574037094357
 20
-4.975421209748227
 30
0.0
 10
12.539475708453
 20
-5.103559339222866
 30
0.0
 10
12.58638543677658
 20
-5.156028957061201
 30
0.0
 10
12.66795201157342
 20
-5.291134993494206
 30
0.0
 10
12.7031719693176
 20
-5.375974586482812
 30
0.0
 10
12.74713654526593
 20
-5.582861984914103
 30
0.0
 10
12.75526091463634
 20
-5.705696917838718
 30
0.0
 10
12.73739776164136
 20
-5.968523156861111
 30
0.0
 10
12.71224833739215
 20
-6.103419156624199
 30
0.0
 10
12.64408666407788
 20
-6.357264662683465
 30
0.0
 10
12.60068164729125
 20
-6.478993458595587
 30
0.0
 10
12.50600924552238
 20
-6.704610974826185
 30
0.0
 10
12.45441331137412
 20
-6.80972766832097
 30
0.0
 10
12.28990621332257
 20
-7.109437894498874
 30
0.0
 10
12.17017846713214
 20
-7.284103436407833
 30
0.0
 10
11.91483731616862
 20
-7.597298819669196
 30
0.0
 10
11.77767665531765
 20
-7.737818016165216
 30
0.0
 10
11.54951158979958
 20
-7.918374112026477
 30
0.0
 10
11.46985276967112
 20
-7.973291374430619
 30
0.0
 10
11.29758630900467
 20
-8.069225810891208
 30
0.0
 10
11.20406269051033
 20
-8.110848935776529
 30
0.0
 10
11.09999999999999
 20
-8.139670393607947
 30
0.0
  0
SPLINE
  5
1F7
330
1F
100
AcDbEntity
  8
SK3
  6
SLD-Dashed
370
    18
100
AcDbSpline
210
0.0
220
0.0
230
1.0
 70
     8
 71
     3
 72
    34
 73
    30
 74
     0
 42
0.000000001
 43
0.00000001
 40
0.0
 40
0.0
 40
0.0
 40
0.0
 40
0.0312499999999996
 40
0.0312499999999996
 40
0.0624999999999992
 40
0.0624999999999992
 40
0.0937499999999988
 40
0.0937499999999988
 40
0.1249999999999985
 40
0.1249999999999985
 40
0.1562499999999982
 40
0.1562499999999982
 40
0.1874999999999979
 40
0.1874999999999979
 40
0.2499999999999979
 40
0.2499999999999979
 40
0.3124999999999978
 40
0.3124999999999978
 40
0.3437499999999977
 40
0.3437499999999977
 40
0.3749999999999976
 40
0.3749999999999976
 40
0.4062499999999975
 40
0.4062499999999975
 40
0.4374999999999973
 40
0.4374999999999973
 40
0.4687499999999972
 40
0.4687499999999972
 40
0.4999999999999971
 40
0.4999999999999971
 40
0.4999999999999971
 40
0.4999999999999971
 10
11.09999999999999
 20
-8.139670393607947
 30
0.0
 10
10.99593730948964
 20
-8.168491851439356
 30
0.0
 10
10.88327240143051
 20
-8.183619230956744
 30
0.0
 10
10.64024603173767
 20
-8.169996197171638
 30
0.0
 10
10.51600003630447
 20
-8.140993061765085
 30
0.0
 10
10.2754047263383
 20
-8.041511803988627
 30
0.0
 10
10.16352991293557
 20
-7.973785811074552
 30
0.0
 10
9.956641719228331
 20
-7.808864907520287
 30
0.0
 10
9.865140211756065
 20
-7.714409980823921
 30
0.0
 10
9.705479632928768
 20
-7.505675203818743
 30
0.0
 10
9.638640231842244
 20
-7.392601974747746
 30
0.0
 10
9.53414598644943
 20
-7.157373188583886
 30
0.0
 10
9.495668589618173
 20
-7.032517635178801
 30
0.0
 10
9.429144226770033
 20
-6.659799668562679
 30
0.0
 10
9.448570934642714
 20
-6.405979053005106
 30
0.0
 10
9.610438460184708
 20
-5.948466648519217
 30
0.0
 10
9.752910053168154
 20
-5.744009981362471
 30
0.0
 10
10.03367356462018
 20
-5.497500536354726
 30
0.0
 10
10.13722938652328
 20
-5.425546956212897
 30
0.0
 10
10.36592358660667
 20
-5.297018553104077
 30
0.0
 10
10.48785945052917
 20
-5.24256285665807
 30
0.0
 10
10.73642302172963
 20
-5.147912691227136
 30
0.0
 10
10.85648365715393
 20
-5.109640819744174
 30
0.0
 10
11.08061189675417
 20
-5.043111325123098
 30
0.0
 10
11.18022385975341
 20
-5.016231192190849
 30
0.0
 10
11.36576798793605
 20
-4.969815472118936
 30
0.0
 10
11.45055694339847
 20
-4.95078503312036
 30
0.0
 10
11.60916091896927
 20
-4.92039439550021
 30
0.0
 10
11.68346340351792
 20
-4.90894472182652
 30
0.0
 10
11.75479658556571
 20
-4.901433547105913
 30
0.0
  0
SPLINE
  5
1F8
330
1F
100
AcDbEntity
  8
SK3
  6
SLD-Dashed
370
    18
100
AcDbSpline
210
0.0
220
0.0
230
1.0
 70
     8
 71
     3
 72
    30
 73
    26
 74
     0
 42
0.000000001
 43
0.00000001
 40
0.4999999999999977
 40
0.4999999999999977
 40
0.4999999999999977
 40
0.4999999999999977
 40
0.5312499999999977
 40
0.5312499999999977
 40
0.5624999999999976
 40
0.5624999999999976
 40
0.6249999999999976
 40
0.6249999999999976
 40
0.6874999999999974
 40
0.6874999999999974
 40
0.7187499999999977
 40
0.7187499999999977
 40
0.7499999999999978
 40
0.7499999999999978
 40
0.781249999999998
 40
0.781249999999998
 40
0.8124999999999982
 40
0.8124999999999982
 40
0.8437499999999984
 40
0.8437499999999984
 40
0.8749999999999986
 40
0.8749999999999986
 40
0.9374999999999993
 40
0.9374999999999993
 40
1.0
 40
1.0
 40
1.0
 40
1.0
 10
9.528420299935405
 20
-8.78331863898748
 30
0.0
 10
9.563561233735404
 20
-8.863935054853195
 30
0.0
 10
9.607627266507018
 20
-8.927948620428332
 30
0.0
 10
9.703027024245026
 20
-9.029913156802357
 30
0.0
 10
9.755165859587786
 20
-9.069013533844455
 30
0.0
 10
9.920727180931454
 20
-9.161365608196956
 30
0.0
 10
10.03962982796813
 20
-9.189146893658636
 30
0.0
 10
10.29581948707684
 20
-9.207761129461582
 30
0.0
 10
10.43340974433161
 20
-9.197532970852954
 30
0.0
 10
10.6627732232879
 20
-9.159887465694732
 30
0.0
 10
10.74371097916553
 20
-9.143480319022096
 30
0.0
 10
10.91864535127571
 20
-9.102894413631462
 30
0.0
 10
11.01198337642652
 20
-9.07900587068608
 30
0.0
 10
11.22104536410175
 20
-9.020599106716363
 30
0.0
 10
11.33557343779476
 20
-8.98660471216861
 30
0.0
 10
11.57980302461463
 20
-8.902979810871827
 30
0.0
 10
11.7044559947736
 20
-8.85460927501284
 30
0.0
 10
11.94450363931203
 20
-8.738302937094128
 30
0.0
 10
12.05531700587897
 20
-8.672727087611985
 30
0.0
 10
12.25922745067752
 20
-8.520325596843563
 30
0.0
 10
12.35002701179842
 20
-8.435036721266151
 30
0.0
 10
12.58459907667486
 20
-8.152304640047147
 30
0.0
 10
12.68944177032678
 20
-7.926948099339547
 30
0.0
 10
12.77109851062196
 20
-7.442912699127654
 30
0.0
 10
12.74820534245737
 20
-7.186173862784487
 30
0.0
 10
12.66230763443388
 20
-6.940889607535645
 30
0.0
  0
SPLINE
  5
1F9
330
1F
100
AcDbEntity
  8
SK3
  6
SLD-Dashed
370
    18
100
AcDbSpline
210
0.0
220
0.0
230
1.0
 70
     8
 71
     3
 72
    34
 73
    30
 74
     0
 42
0.000000001
 43
0.00000001
 40
0.0
 40
0.0
 40
0.0
 40
0.0
 40
0.0312499999999997
 40
0.0312499999999997
 40
0.0624999999999995
 40
0.0624999999999995
 40
0.0937499999999992
 40
0.0937499999999992
 40
0.124999999999999
 40
0.124999999999999
 40
0.1562499999999987
 40
0.1562499999999987
 40
0.1874999999999984
 40
0.1874999999999984
 40
0.2499999999999982
 40
0.2499999999999982
 40
0.3124999999999979
 40
0.3124999999999979
 40
0.3437499999999978
 40
0.3437499999999978
 40
0.3749999999999978
 40
0.3749999999999978
 40
0.4062499999999978
 40
0.4062499999999978
 40
0.4374999999999977
 40
0.4374999999999977
 40
0.4687499999999977
 40
0.4687499999999977
 40
0.4999999999999977
 40
0.4999999999999977
 40
0.4999999999999977
 40
0.4999999999999977
 10
12.66230763443388
 20
-6.940889607535638
 30
0.0
 10
12.61935878042214
 20
-6.818247479911228
 30
0.0
 10
12.56229529856064
 20
-6.702062405426222
 30
0.0
 10
12.42103808962697
 20
-6.482980016463468
 30
0.0
 10
12.33595491427447
 20
-6.37975233744649
 30
0.0
 10
12.14618186397769
 20
-6.199831764960501
 30
0.0
 10
12.03922579636489
 20
-6.120673587225289
 30
0.0
 10
11.80824491388432
 20
-5.996443405511906
 30
0.0
 10
11.68389439480548
 20
-5.951950953011084
 30
0.0
 10
11.43804455248933
 20
-5.9089524192978
 30
0.0
 10
11.31731684279019
 20
-5.910654595408932
 30
0.0
 10
11.09745426351665
 20
-5.948127988753944
 30
0.0
 10
10.99815393168722
 20
-5.982607853079413
 30
0.0
 10
10.72267466537656
 20
-6.111713360853567
 30
0.0
 10
10.57189176004729
 20
-6.227019438453225
 30
0.0
 10
10.2885724862224
 20
-6.491284498769498
 30
0.0
 10
10.15786476490364
 20
-6.642104569644397
 30
0.0
 10
9.976005005593564
 20
-6.893749929925856
 30
0.0
 10
9.917635222666213
 20
-6.982205125338786
 30
0.0
 10
9.80540480561036
 20
-7.170924693447017
 30
0.0
 10
9.751060353100554
 20
-7.272111003090553
 30
0.0
 10
9.650448853514265
 20
-7.486812522722694
 30
0.0
 10
9.604326797725632
 20
-7.599530214338804
 30
0.0
 10
9.524388536729337
 20
-7.841923064473677
 30
0.0
 10
9.49066576629727
 20
-7.972450285447914
 30
0.0
 10
9.450224495380077
 20
-8.237810978297455
 30
0.0
 10
9.444739461343554
 20
-8.369898596775053
 30
0.0
 10
9.466585255233777
 20
-8.602871670374157
 30
0.0
 10
9.493279366135422
 20
-8.702702223121763
 30
0.0
 10
9.528420299935405
 20
-8.78331863898748
 30
0.0
  0
SPLINE
  5
1FA
330
1F
100
AcDbEntity
  8
SK3
  6
SLD-Dashed
370
    18
100
AcDbSpline
210
0.0
220
0.0
230
1.0
 70
    24
 71
     3
 72
     9
 73
     5
 74
     0
 42
0.000000001
 43
0.00000001
 40
0.0
 40
0.0
 40
0.0
 40
0.0
 40
0.1577324459620821
 40
1.0
 40
1.0
 40
1.0
 40
1.0
 10
19.05
 20
-22.41
 30
0.0
 10
19.05070563117041
 20
-22.41
 30
0.0
 10
19.05517922673355
 20
-22.41
 30
0.0
 10
19.11230001438742
 20
-22.41
 30
0.0
 10
19.16041100048935
 20
-22.41
 30
0.0
  0
SPLINE
  5
1FB
330
1F
100
AcDbEntity
  8
1
  6
SLD-Dashed
370
    18
100
AcDbSpline
210
0.0
220
0.0
230
1.0
 70
    24
 71
     3
 72
     8
 73
     4
 74
     0
 42
0.000000001
 43
0.00000001
 40
0.0
 40
0.0
 40
0.0
 40
0.0
 40
0.5
 40
0.5
 40
0.5
 40
0.5
 10
19.31428655170252
 20
-22.41
 30
0.0
 10
19.31428196748837
 20
-22.41
 30
0.0
 10
19.25023989173313
 20
-22.41
 30
0.0
 10
19.18387409073338
 20
-22.41
 30
0.0
  0
SPLINE
  5
1FC
330
1F
100
AcDbEntity
  8
SK3
  6
SLD-Dashed
370
    18
100
AcDbSpline
210
0.0
220
0.0
230
1.0
 70
    24
 71
     2
 72
     6
 73
     3
 74
     0
 42
0.000000001
 43
0.00000001
 40
0.5
 40
0.5
 40
0.5
 40
1.0
 40
1.0
 40
1.0
 10
19.18387409073338
 20
-22.41
 30
0.0
 10
19.11750641027369
 20
-22.41
 30
0.0
 10
19.05
 20
-22.41
 30
0.0
  0
SPLINE
  5
1FD
330
1F
100
AcDbEntity
  8
1
  6
SLD-Dashed
370
    18
100
AcDbSpline
210
0.0
220
0.0
230
1.0
 70
    24
 71
     2
 72
     6
 73
     3
 74
     0
 42
0.000000001
 43
0.00000001
 40
0.0
 40
0.0
 40
0.0
 40
0.2500000000000002
 40
0.2500000000000002
 40
0.2500000000000002
 10
3.199999999999994
 20
-22.41000000000004
 30
0.0
 10
3.170406995816597
 20
-22.41000000000002
 30
0.0
 10
3.144481324703796
 20
-22.41
 30
0.0
  0
SPLINE
  5
1FE
330
1F
100
AcDbEntity
  8
1
  6
SLD-Dashed
370
    18
100
AcDbSpline
210
0.0
220
0.0
230
1.0
 70
    24
 71
     3
 72
     8
 73
     4
 74
     0
 42
0.000000001
 43
0.00000001
 40
0.2500000000000002
 40
0.2500000000000002
 40
0.2500000000000002
 40
0.2500000000000002
 40
0.5000000000000002
 40
0.5000000000000002
 40
0.5000000000000002
 40
0.5000000000000002
 10
3.144481324703796
 20
-22.41
 30
0.0
 10
3.118555653590982
 20
-22.41
 30
0.0
 10
3.097084490555624
 20
-22.41
 30
0.0
 10
3.096615422637492
 20
-22.41
 30
0.0
  0
SPLINE
  5
1FF
330
1F
100
AcDbEntity
  8
1
  6
SLD-Dashed
370
    18
100
AcDbSpline
210
0.0
220
0.0
230
1.0
 70
    24
 71
     3
 72
     8
 73
     4
 74
     0
 42
0.000000001
 43
0.00000001
 40
0.5000000000000002
 40
0.5000000000000002
 40
0.5000000000000002
 40
0.5000000000000002
 40
0.5625000000000002
 40
0.5625000000000002
 40
0.5625000000000002
 40
0.5625000000000002
 10
3.096615422637492
 20
-22.41
 30
0.0
 10
3.096498155657962
 20
-22.41
 30
0.0
 10
3.097576707176322
 20
-22.41
 30
0.0
 10
3.099789717980514
 20
-22.41
 30
0.0
  0
SPLINE
  5
200
330
1F
100
AcDbEntity
  8
1
  6
SLD-Dashed
370
    18
100
AcDbSpline
210
0.0
220
0.0
230
1.0
 70
    24
 71
     3
 72
     8
 73
     4
 74
     0
 42
0.000000001
 43
0.00000001
 40
0.5625000000000002
 40
0.5625000000000002
 40
0.5625000000000002
 40
0.5625000000000002
 40
0.6250000000000002
 40
0.6250000000000002
 40
0.6250000000000002
 40
0.6250000000000002
 10
3.099789717980514
 20
-22.41
 30
0.0
 10
3.102002728784706
 20
-22.41
 30
0.0
 10
3.105345908570312
 20
-22.41
 30
0.0
 10
3.109607407037987
 20
-22.41
 30
0.0
  0
SPLINE
  5
201
330
1F
100
AcDbEntity
  8
1
  6
SLD-Dashed
370
    18
100
AcDbSpline
210
0.0
220
0.0
230
1.0
 70
    24
 71
     3
 72
     8
 73
     4
 74
     0
 42
0.000000001
 43
0.00000001
 40
0.6250000000000002
 40
0.6250000000000002
 40
0.6250000000000002
 40
0.6250000000000002
 40
0.7500000000000001
 40
0.7500000000000001
 40
0.7500000000000001
 40
0.7500000000000001
 10
3.109607407037987
 20
-22.41
 30
0.0
 10
3.118130403973365
 20
-22.41
 30
0.0
 10
3.130398007648111
 20
-22.41
 30
0.0
 10
3.143490990967571
 20
-22.41
 30
0.0
  0
SPLINE
  5
202
330
1F
100
AcDbEntity
  8
1
  6
SLD-Dashed
370
    18
100
AcDbSpline
210
0.0
220
0.0
230
1.0
 70
    24
 71
     2
 72
     6
 73
     3
 74
     0
 42
0.000000001
 43
0.00000001
 40
0.7500000000000001
 40
0.7500000000000001
 40
0.7500000000000001
 40
1.0
 40
1.0
 40
1.0
 10
3.143490990967557
 20
-22.41
 30
0.0
 10
3.16967695760649
 20
-22.41000000000002
 30
0.0
 10
3.199999999999981
 20
-22.41000000000004
 30
0.0
  0
SPLINE
  5
203
330
1F
100
AcDbEntity
  8
SK3
  6
SLD-Dashed
370
    18
100
AcDbSpline
210
0.0
220
0.0
230
1.0
 70
     8
 71
     3
 72
    30
 73
    26
 74
     0
 42
0.000000001
 43
0.00000001
 40
0.4999999999999998
 40
0.4999999999999998
 40
0.4999999999999998
 40
0.4999999999999998
 40
0.5624999999999997
 40
0.5624999999999997
 40
0.5937499999999997
 40
0.5937499999999997
 40
0.6249999999999997
 40
0.6249999999999997
 40
0.6562499999999996
 40
0.6562499999999996
 40
0.6874999999999993
 40
0.6874999999999993
 40
0.7499999999999991
 40
0.7499999999999991
 40
0.7812499999999991
 40
0.7812499999999991
 40
0.812499999999999
 40
0.812499999999999
 40
0.8749999999999993
 40
0.8749999999999993
 40
0.9374999999999996
 40
0.9374999999999996
 40
0.9687499999999998
 40
0.9687499999999998
 40
1.0
 40
1.0
 40
1.0
 40
1.0
 10
11.10070155322192
 20
-0.6867806446436211
 30
0.0
 10
10.88487328526096
 20
-0.68668649530116
 30
0.0
 10
10.6669599366719
 20
-0.7314091515492269
 30
0.0
 10
10.36883069489547
 20
-0.8573324036223601
 30
0.0
 10
10.27232660505548
 20
-0.9097769735048333
 30
0.0
 10
10.09316301813304
 20
-1.03088021090679
 30
0.0
 10
10.01035801314713
 20
-1.099273863572378
 30
0.0
 10
9.858092000268936
 20
-1.251261280631549
 30
0.0
 10
9.788700375084918
 20
-1.33521589100722
 30
0.0
 10
9.669334047265762
 20
-1.511088629166775
 30
0.0
 10
9.618452284373912
 20
-1.603797750250983
 30
0.0
 10
9.49317154125469
 20
-1.896347059398756
 30
0.0
 10
9.450117602560926
 20
-2.101924731596816
 30
0.0
 10
9.44994155834733
 20
-2.408808799904342
 30
0.0
 10
9.460551032657124
 20
-2.508823236901832
 30
0.0
 10
9.502621940844946
 20
-2.704498007569868
 30
0.0
 10
9.534606217529538
 20
-2.800878416574816
 30
0.0
 10
9.658478333209791
 20
-3.071908588173931
 30
0.0
 10
9.781198670787722
 20
-3.235006337226932
 30
0.0
 10
10.08392744642475
 20
-3.50163398124493
 30
0.0
 10
10.26708339298822
 20
-3.607940944973832
 30
0.0
 10
10.56490438050341
 20
-3.714664125739016
 30
0.0
 10
10.66997524794501
 20
-3.742182811963951
 30
0.0
 10
10.88266147594884
 20
-3.778571214008569
 30
0.0
 10
10.99054595855783
 20
-3.787766140220146
 30
0.0
 10
11.09999999999999
 20
-3.787766140220146
 30
0.0
  0
SPLINE
  5
204
330
1F
100
AcDbEntity
  8
SK3
  6
SLD-Dashed
370
    18
100
AcDbSpline
210
0.0
220
0.0
230
1.0
 70
     8
 71
     3
 72
    32
 73
    28
 74
     0
 42
0.000000001
 43
0.00000001
 40
0.0
 40
0.0
 40
0.0
 40
0.0
 40
0.0312499999999999
 40
0.0312499999999999
 40
0.0624999999999997
 40
0.0624999999999997
 40
0.0937499999999996
 40
0.0937499999999996
 40
0.1249999999999994
 40
0.1249999999999994
 40
0.1874999999999992
 40
0.1874999999999992
 40
0.249999999999999
 40
0.249999999999999
 40
0.2812499999999989
 40
0.2812499999999989
 40
0.312499999999999
 40
0.312499999999999
 40
0.374999999999999
 40
0.374999999999999
 40
0.4062499999999992
 40
0.4062499999999992
 40
0.4374999999999994
 40
0.4374999999999994
 40
0.4687499999999996
 40
0.4687499999999996
 40
0.4999999999999998
 40
0.4999999999999998
 40
0.4999999999999998
 40
0.4999999999999998
 10
11.09999999999999
 20
-3.787766140220146
 30
0.0
 10
11.20945404144215
 20
-3.787766140220146
 30
0.0
 10
11.31699251505765
 20
-3.778573328456373
 30
0.0
 10
11.52842270682132
 20
-3.742513465759767
 30
0.0
 10
11.63343468118845
 20
-3.715182626605931
 30
0.0
 10
11.83302988080073
 20
-3.643810849968468
 30
0.0
 10
11.92762916003133
 20
-3.60005371977918
 30
0.0
 10
12.10666204146886
 20
-3.496063555093985
 30
0.0
 10
12.19108958741751
 20
-3.435494674721276
 30
0.0
 10
12.41840943186721
 20
-3.235487194488865
 30
0.0
 10
12.54121280428008
 20
-3.072211780658814
 30
0.0
 10
12.70609668334556
 20
-2.712191703584062
 30
0.0
 10
12.7498658188326
 20
-2.511406281215621
 30
0.0
 10
12.75006661590682
 20
-2.206762191573439
 30
0.0
 10
12.73925303931701
 20
-2.102663743045082
 30
0.0
 10
12.69696665105526
 20
-1.900023631118415
 30
0.0
 10
12.66568409163503
 20
-1.800628375409973
 30
0.0
 10
12.54109332601519
 20
-1.508622388074414
 30
0.0
 10
12.41968488057069
 20
-1.329150513223791
 30
0.0
 10
12.19032108316566
 20
-1.09982563399582
 30
0.0
 10
12.10747830050281
 20
-1.031413659325506
 30
0.0
 10
11.92916892541126
 20
-0.9106890902003049
 30
0.0
 10
11.83255025366052
 20
-0.8580074652528094
 30
0.0
 10
11.6334021774315
 20
-0.7737092118759725
 30
0.0
 10
11.53055350372279
 20
-0.7415889227052261
 30
0.0
 10
11.31815535720088
 20
-0.6979755792709263
 30
0.0
 10
11.20861568720238
 20
-0.6868277193148518
 30
0.0
 10
11.10070155322192
 20
-0.6867806446436211
 30
0.0
  0
SPLINE
  5
205
330
1F
100
AcDbEntity
  8
SK3
  6
SLD-Dashed
370
    18
100
AcDbSpline
210
0.0
220
0.0
230
1.0
 70
     8
 71
     3
 72
    10
 73
     6
 74
     0
 42
0.000000001
 43
0.00000001
 40
0.0
 40
0.0
 40
0.0
 40
0.0
 40
0.5
 40
0.5
 40
1.0
 40
1.0
 40
1.0
 40
1.0
 10
3.699999999999966
 20
25.20500000000004
 30
0.0
 10
3.699999999999951
 20
25.2744618870064
 30
0.0
 10
3.679668344672964
 20
25.3415787689919
 30
0.0
 10
3.621774626393161
 20
25.46534569655893
 30
0.0
 10
3.584972825281703
 20
25.52292618711533
 30
0.0
 10
3.545388844997962
 20
25.57898258716475
 30
0.0
  0
SPLINE
  5
206
330
1F
100
AcDbEntity
  8
SK3
  6
SLD-Dashed
370
    18
100
AcDbSpline
210
0.0
220
0.0
230
1.0
 70
     8
 71
     3
 72
    10
 73
     6
 74
     0
 42
0.000000001
 43
0.00000001
 40
0.0
 40
0.0
 40
0.0
 40
0.0
 40
0.5
 40
0.5
 40
1.0
 40
1.0
 40
1.0
 40
1.0
 10
18.70470837592285
 20
25.57912025275683
 30
0.0
 10
18.66514338213327
 20
25.52310107590328
 30
0.0
 10
18.62842911249971
 20
25.46562249807942
 30
0.0
 10
18.57073957446641
 20
25.34260791126142
 30
0.0
 10
18.55000000000003
 20
25.27482658978053
 30
0.0
 10
18.55000000000003
 20
25.20500000000003
 30
0.0
  0
SPLINE
  5
207
330
1F
100
AcDbEntity
  8
SK3
  6
SLD-Dashed
370
    18
100
AcDbSpline
210
0.0
220
0.0
230
1.0
 70
    24
 71
     3
 72
     8
 73
     4
 74
     0
 42
0.000000001
 43
0.00000001
 40
0.0
 40
0.0
 40
0.0
 40
0.0
 40
0.4999999999999987
 40
0.4999999999999987
 40
0.4999999999999987
 40
0.4999999999999987
 10
19.05
 20
-22.41
 30
0.0
 10
18.97247827222662
 20
-22.40999999999999
 30
0.0
 10
18.89661835205906
 20
-22.41
 30
0.0
 10
18.83038739399197
 20
-22.40999999999999
 30
0.0
  0
SPLINE
  5
208
330
1F
100
AcDbEntity
  8
SK3
  6
SLD-Dashed
370
    18
100
AcDbSpline
210
0.0
220
0.0
230
1.0
 70
    24
 71
     3
 72
     8
 73
     4
 74
     0
 42
0.000000001
 43
0.00000001
 40
0.4999999999999987
 40
0.4999999999999987
 40
0.4999999999999987
 40
0.4999999999999987
 40
0.7499999999999993
 40
0.7499999999999993
 40
0.7499999999999993
 40
0.7499999999999993
 10
18.83038739399197
 20
-22.40999999999999
 30
0.0
 10
18.7972719149584
 20
-22.40999999999999
 30
0.0
 10
18.76669863834138
 20
-22.41
 30
0.0
 10
18.743421922889
 20
-22.41
 30
0.0
  0
SPLINE
  5
209
330
1F
100
AcDbEntity
  8
SK3
  6
SLD-Dashed
370
    18
100
AcDbSpline
210
0.0
220
0.0
230
1.0
 70
    24
 71
     2
 72
     6
 73
     3
 74
     0
 42
0.000000001
 43
0.00000001
 40
0.7499999999999993
 40
0.7499999999999993
 40
0.7499999999999993
 40
1.0
 40
1.0
 40
1.0
 10
18.743421922889
 20
-22.41
 30
0.0
 10
18.7201452074366
 20
-22.41
 30
0.0
 10
18.7046111550019
 20
-22.41
 30
0.0
  0
SPLINE
  5
20A
330
1F
100
AcDbEntity
  8
1
  6
SLD-Dashed
370
    18
100
AcDbSpline
210
0.0
220
0.0
230
1.0
 70
    24
 71
     2
 72
     6
 73
     3
 74
     0
 42
0.000000001
 43
0.00000001
 40
0.0
 40
0.0
 40
0.0
 40
0.2500000000000002
 40
0.2500000000000002
 40
0.2500000000000002
 10
3.545291624077143
 20
-22.41
 30
0.0
 10
3.529781518569364
 20
-22.41
 30
0.0
 10
3.506264354048605
 20
-22.41
 30
0.0
  0
SPLINE
  5
20B
330
1F
100
AcDbEntity
  8
1
  6
SLD-Dashed
370
    18
100
AcDbSpline
210
0.0
220
0.0
230
1.0
 70
    24
 71
     3
 72
     8
 73
     4
 74
     0
 42
0.000000001
 43
0.00000001
 40
0.2500000000000002
 40
0.2500000000000002
 40
0.2500000000000002
 40
0.2500000000000002
 40
0.5000000000000004
 40
0.5000000000000004
 40
0.5000000000000004
 40
0.5000000000000004
 10
3.506264354048605
 20
-22.41
 30
0.0
 10
3.482747189527846
 20
-22.41
 30
0.0
 10
3.452323510010749
 20
-22.41
 30
0.0
 10
3.419371480420957
 20
-22.41
 30
0.0
  0
SPLINE
  5
20C
330
1F
100
AcDbEntity
  8
1
  6
SLD-Dashed
370
    18
100
AcDbSpline
210
0.0
220
0.0
230
1.0
 70
    24
 71
     3
 72
     8
 73
     4
 74
     0
 42
0.000000001
 43
0.00000001
 40
0.5000000000000004
 40
0.5000000000000004
 40
0.5000000000000004
 40
0.5000000000000004
 40
1.0
 40
1.0
 40
1.0
 40
1.0
 10
3.419371480420943
 20
-22.41
 30
0.0
 10
3.353467421241374
 20
-22.41000000000002
 30
0.0
 10
3.277483565459982
 20
-22.41000000000003
 30
0.0
 10
3.199999999999981
 20
-22.41000000000004
 30
0.0
  0
SPLINE
  5
20D
330
1F
100
AcDbEntity
  8
SK3
  6
SLD-Dashed
370
    18
100
AcDbSpline
210
0.0
220
0.0
230
1.0
 70
     8
 71
     3
 72
    40
 73
    36
 74
     0
 42
0.000000001
 43
0.00000001
 40
0.0
 40
0.0
 40
0.0
 40
0.0
 40
0.0126129321449816
 40
0.0314976481339604
 40
0.0629183966702564
 40
0.0880663439714168
 40
0.1258663548219043
 40
0.1545361786951687
 40
0.1972635113751465
 40
0.2185774264758751
 40
0.2505499734499138
 40
0.2790323571745755
 40
0.3220275475257124
 40
0.3436168159336463
 40
0.3758133620275749
 40
0.404289809506831
 40
0.4468993710431156
 40
0.468210972392158
 40
0.5002437124696447
 40
0.5288533887317777
 40
0.5719828275869667
 40
0.5934420637179458
 40
0.6254916984483699
 40
0.6539107272569499
 40
0.6965262692674994
 40
0.7178823906336999
 40
0.7500313093276819
 40
0.7787800102949101
 40
0.8217645159398103
 40
0.8431483194632992
 40
0.8751517844153629
 40
0.9000181010942334
 40
0.9373587731677226
 40
0.9685909586685477
 40
1.0
 40
1.0
 40
1.0
 40
1.0
 10
3.949999999998871
 20
-30.22558142012363
 30
0.0
 10
3.947274304054393
 20
-30.22556434752346
 30
0.0
 10
3.940467559136379
 20
-30.22552171296815
 30
0.0
 10
3.926878079312801
 20
-30.22500449703394
 30
0.0
 10
3.910614550228661
 20
-30.22373214657328
 30
0.0
 10
3.890377361763522
 20
-30.22117483723317
 30
0.0
 10
3.870876571852019
 20
-30.21766990056472
 30
0.0
 10
3.847909402640779
 20
-30.21222207486607
 30
0.0
 10
3.828703761990029
 20
-30.20644931168604
 30
0.0
 10
3.809172441364861
 20
-30.19943885792489
 30
0.0
 10
3.792810014292145
 20
-30.19274290251866
 30
0.0
 10
3.772556787560208
 20
-30.18326307338683
 30
0.0
 10
3.754852229733818
 20
-30.17368149207814
 30
0.0
 10
3.73700112975589
 20
-30.16277896347313
 30
0.0
 10
3.722237930658942
 20
-30.15285978974808
 30
0.0
 10
3.704336292931765
 20
-30.13951958199216
 30
0.0
 10
3.689010882644284
 20
-30.12669241146887
 30
0.0
 10
3.673804931859051
 20
-30.11259090121807
 30
0.0
 10
3.661328526176177
 20
-30.10000934793183
 30
0.0
 10
3.646311367638322
 20
-30.08334675455452
 30
0.0
 10
3.633674708738377
 20
-30.0676414670618
 30
0.0
 10
3.621410566074498
 20
-30.05073531891782
 30
0.0
 10
3.611611223628908
 20
-30.03598007668935
 30
0.0
 10
3.600156512781644
 20
-30.01686769647027
 30
0.0
 10
3.590829750079516
 20
-29.9991957499668
 30
0.0
 10
3.582035812874626
 20
-29.98037484052064
 30
0.0
 10
3.575165778815573
 20
-29.96397246361067
 30
0.0
 10
3.567449829656497
 20
-29.9428852210927
 30
0.0
 10
3.561558066370665
 20
-29.92362739013728
 30
0.0
 10
3.556428567390815
 20
-29.90344062128828
 30
0.0
 10
3.552918981595612
 20
-29.88689085311455
 30
0.0
 10
3.549536425733815
 20
-29.86681061568513
 30
0.0
 10
3.547124737183341
 20
-29.84675343612378
 30
0.0
 10
3.545564419127026
 20
-29.82519260420115
 30
0.0
 10
3.545382726751242
 20
-29.81165457437737
 30
0.0
 10
3.545291624076061
 20
-29.80486644841329
 30
0.0
  0
SPLINE
  5
20E
330
1F
100
AcDbEntity
  8
SK3
  6
SLD-Dashed
370
    18
100
AcDbSpline
210
0.0
220
0.0
230
1.0
 70
     8
 71
     3
 72
    40
 73
    36
 74
     0
 42
0.000000001
 43
0.00000001
 40
0.0
 40
0.0
 40
0.0
 40
0.0
 40
0.0314214559572227
 40
0.0627294389671943
 40
0.0877405066521885
 40
0.125275232669724
 40
0.1539551384600139
 40
0.1970430837597965
 40
0.2184753360378567
 40
0.2505176110611755
 40
0.2789492345937477
 40
0.3216198597593979
 40
0.3430128235413608
 40
0.3752634384750789
 40
0.4040010771804361
 40
0.4468656794915655
 40
0.4682159459362438
 40
0.5002096454815023
 40
0.5286754137344519
 40
0.5715400247765465
 40
0.5931009716299148
 40
0.6253883780511632
 40
0.6539191343952845
 40
0.696591424456682
 40
0.7179237821488482
 40
0.749974649427047
 40
0.7785976316863411
 40
0.795854339812784
 40
0.8217160693566484
 40
0.8431552865480455
 40
0.8751886732441913
 40
0.9000580147531466
 40
0.9373794059838183
 40
0.9685930788650419
 40
0.9999999999999999
 40
0.9999999999999999
 40
0.9999999999999999
 40
0.9999999999999999
 10
18.7046111550019
 20
-29.8048552741984
 30
0.0
 10
18.70451980286349
 20
-29.81164440520547
 30
0.0
 10
18.7043374284885
 20
-29.82519814949178
 30
0.0
 10
18.702967285952
 20
-29.84411564286003
 30
0.0
 10
18.70072137877135
 20
-29.8642704379547
 30
0.0
 10
18.69761618492965
 20
-29.88374590039355
 30
0.0
 10
18.69275878580927
 20
-29.90686111791567
 30
0.0
 10
18.68756401153335
 20
-29.92633239392292
 30
0.0
 10
18.68121966076007
 20
-29.94620899181276
 30
0.0
 10
18.67516357609364
 20
-29.96284451017633
 30
0.0
 10
18.66659391017353
 20
-29.9834210419252
 30
0.0
 10
18.65792216957784
 20
-30.00144320562834
 30
0.0
 10
18.6479975993526
 20
-30.01973532130567
 30
0.0
 10
18.63887055578689
 20
-30.03502499592458
 30
0.0
 10
18.62647938435723
 20
-30.05373739732936
 30
0.0
 10
18.6144741828887
 20
-30.06985792745571
 30
0.0
 10
18.6012420563212
 20
-30.08589113399746
 30
0.0
 10
18.5894286068268
 20
-30.09904955418358
 30
0.0
 10
18.57374043191441
 20
-30.11493869793074
 30
0.0
 10
18.55884768057942
 20
-30.12841850147777
 30
0.0
 10
18.54265426161454
 20
-30.14162746302954
 30
0.0
 10
18.52838800292801
 20
-30.15228399886076
 30
0.0
 10
18.50983571493524
 20
-30.16477481501635
 30
0.0
 10
18.49262445031481
 20
-30.17498291257688
 30
0.0
 10
18.47424607318984
 20
-30.1846280460551
 30
0.0
 10
18.45820753870475
 20
-30.1921766794648
 30
0.0
 10
18.44263074348686
 20
-30.19858412922857
 30
0.0
 10
18.42808324373879
 20
-30.20393768674263
 30
0.0
 10
18.41482664955693
 20
-30.20828861199139
 30
0.0
 10
18.39834274985589
 20
-30.21299666641593
 30
0.0
 10
18.38186940102372
 20
-30.21692139734203
 30
0.0
 10
18.36186218647021
 20
-30.2207080512395
 30
0.0
 10
18.34185224742002
 20
-30.2234114028093
 30
0.0
 10
18.32031695323609
 20
-30.22516290854393
 30
0.0
 10
18.30678623642201
 20
-30.22536701808553
 30
0.0
 10
18.30000000000001
 20
-30.22546938779914
 30
0.0
  0
SPLINE
  5
20F
330
1F
100
AcDbEntity
  8
SK3
  6
SLD-Dashed
370
    18
100
AcDbSpline
210
0.0
220
0.0
230
1.0
 70
     8
 71
     3
 72
    40
 73
    36
 74
     0
 42
0.000000001
 43
0.00000001
 40
0.0
 40
0.0
 40
0.0
 40
0.0
 40
0.0125929119920853
 40
0.0314096195346373
 40
0.0626234169499198
 40
0.0875147363747587
 40
0.124814412830725
 40
0.1532834083387407
 40
0.1962265830891685
 40
0.2178107992109856
 40
0.2500224951329321
 40
0.2785169301552057
 40
0.3211718523043689
 40
0.3425182663517161
 40
0.3746092478105291
 40
0.4033018002026093
 40
0.4463503818994342
 40
0.4677602234265854
 40
0.4997883410590171
 40
0.5282270395863745
 40
0.5709521530205331
 40
0.5924138618617291
 40
0.6247350591047612
 40
0.6534144483970801
 40
0.6961683199419044
 40
0.7174969314503464
 40
0.7494813527194152
 40
0.7779588669976988
 40
0.8208766717687367
 40
0.8424514691504715
 40
0.874724282179473
 40
0.8997563983109313
 40
0.9372703102803501
 40
0.968578418532575
 40
0.9999999999999999
 40
0.9999999999999999
 40
0.9999999999999999
 40
0.9999999999999999
 10
18.30000000000001
 20
30.22558142012639
 30
0.0
 10
18.3027213695124
 20
30.22556441746849
 30
0.0
 10
18.30950909113323
 20
30.22552200892814
 30
0.0
 10
18.3230349115113
 20
30.22500878447085
 30
0.0
 10
18.33918410220825
 20
30.22374990827884
 30
0.0
 10
18.35921637335282
 20
30.22123374888838
 30
0.0
 10
18.37851743465278
 20
30.21779055348816
 30
0.0
 10
18.40139259411769
 20
30.21241015713828
 30
0.0
 10
18.42066868063111
 20
30.20665667098935
 30
0.0
 10
18.44035778154607
 20
30.19962160064929
 30
0.0
 10
18.4568321931845
 20
30.19290122073894
 30
0.0
 10
18.47707551770182
 20
30.18344563237708
 30
0.0
 10
18.49468238340836
 20
30.17394373601333
 30
0.0
 10
18.51242282863928
 20
30.16314575471339
 30
0.0
 10
18.52718102114116
 20
30.15327064640552
 30
0.0
 10
18.54520190007995
 20
30.13989144466212
 30
0.0
 10
18.56066753372128
 20
30.12697740010818
 30
0.0
 10
18.57597030022935
 20
30.11281096127925
 30
0.0
 10
18.58844277986745
 20
30.10024903998076
 30
0.0
 10
18.60339048841032
 20
30.08369276015745
 30
0.0
 10
18.61596948562731
 20
30.06810049270645
 30
0.0
 10
18.62824307125507
 20
30.05123600708182
 30
0.0
 10
18.63812738344198
 20
30.03639837328907
 30
0.0
 10
18.6496753555676
 20
30.01717281850425
 30
0.0
 10
18.65905060754959
 20
29.99943559548714
 30
0.0
 10
18.66785100498267
 20
29.98063051707891
 30
0.0
 10
18.67469312836914
 20
29.96432508828283
 30
0.0
 10
18.68239354934312
 20
29.94334796470476
 30
0.0
 10
18.68830098830934
 20
29.92412819400953
 30
0.0
 10
18.69347515991063
 20
29.90386495846921
 30
0.0
 10
18.69702701390044
 20
29.88718562683121
 30
0.0
 10
18.70044011360977
 20
29.86697716337641
 30
0.0
 10
18.70287111134991
 20
29.84683182165025
 30
0.0
 10
18.70443405316874
 20
29.82521437831678
 30
0.0
 10
18.70461682479817
 20
29.81165726630967
 30
0.0
 10
18.70470837592286
 20
29.8048664484163
 30
0.0
  0
SPLINE
  5
210
330
1F
100
AcDbEntity
  8
SK3
  6
SLD-Dashed
370
    18
100
AcDbSpline
210
0.0
220
0.0
230
1.0
 70
     8
 71
     3
 72
    39
 73
    35
 74
     0
 42
0.000000001
 43
0.00000001
 40
0.0
 40
0.0
 40
0.0
 40
0.0
 40
0.0314091160307674
 40
0.0626413758641538
 40
0.0875470935131885
 40
0.1248485138287456
 40
0.1532930400450731
 40
0.1960941157944613
 40
0.2176225947738233
 40
0.2499693772004398
 40
0.2785546285585068
 40
0.3212364873026817
 40
0.3425405354923858
 40
0.3745092858974068
 40
0.4029918411019298
 40
0.4459785689856149
 40
0.4675618916159466
 40
0.4997576608210499
 40
0.5282368343000431
 40
0.5708480092884092
 40
0.5921584935845995
 40
0.6241883328452476
 40
0.6527986190299354
 40
0.6959401501309849
 40
0.7174023419155745
 40
0.7494519752642005
 40
0.7778741158300017
 40
0.8205144520917228
 40
0.8418962920619149
 40
0.8741359236783777
 40
0.8993502252909598
 40
0.9370840470446206
 40
0.9685048711195197
 40
1.0
 40
1.0
 40
1.0
 40
1.0
 10
3.545388844997963
 20
29.80485527419826
 30
0.0
 10
3.545479748550579
 20
29.81164171345384
 30
0.0
 10
3.545661043802585
 20
29.82517637936966
 30
0.0
 10
3.547029433803341
 20
29.84405190465713
 30
0.0
 10
3.549258968233805
 20
29.86411824570158
 30
0.0
 10
3.552336224857504
 20
29.8834722762258
 30
0.0
 10
3.557141779746733
 20
29.90643124843558
 30
0.0
 10
3.562288225622193
 20
29.92581971282425
 30
0.0
 10
3.568614089357694
 20
29.94572790966325
 30
0.0
 10
3.574692956926385
 20
29.9624826721026
 30
0.0
 10
3.5832877760481
 20
29.98315850998393
 30
0.0
 10
3.591955015312241
 20
30.00120090567663
 30
0.0
 10
3.601831018727626
 20
30.01943081107647
 30
0.0
 10
3.610874012133402
 20
30.03461278108223
 30
0.0
 10
3.623189627258741
 20
30.05326734966762
 30
0.0
 10
3.635184378154352
 20
30.06942261759878
 30
0.0
 10
3.648473969075872
 20
30.08556438898111
 30
0.0
 10
3.660340157340331
 20
30.09880574838228
 30
0.0
 10
3.676012531497212
 20
30.1146987788787
 30
0.0
 10
3.690813818886902
 20
30.1281209668681
 30
0.0
 10
3.706862089264377
 20
30.14124723286363
 30
0.0
 10
3.721035740664443
 20
30.15187245989083
 30
0.0
 10
3.739615920455546
 20
30.16443427377515
 30
0.0
 10
3.756939716856893
 20
30.17474090541246
 30
0.0
 10
3.775422312926226
 20
30.18446497823759
 30
0.0
 10
3.791441042936007
 20
30.19201976729602
 30
0.0
 10
3.812039955628066
 20
30.20051935318398
 30
0.0
 10
3.830933874073419
 20
30.20705284128374
 30
0.0
 10
3.850922478500704
 20
30.21280585013025
 30
0.0
 10
3.86749234798435
 20
30.21678677988687
 30
0.0
 10
3.887698638249879
 20
30.22064109222356
 30
0.0
 10
3.907913014965694
 20
30.22338985618059
 30
0.0
 10
3.929600305356953
 20
30.22516034748688
 30
0.0
 10
3.943194750029175
 20
30.22536629328655
 30
0.0
 10
3.949999999999954
 20
30.22546938779911
 30
0.0
  0
SPLINE
  5
211
330
1F
100
AcDbEntity
  8
SK3
  6
SLD-Dashed
370
    18
100
AcDbSpline
210
0.0
220
0.0
230
1.0
 70
     8
 71
     3
 72
    30
 73
    26
 74
     0
 42
0.000000001
 43
0.00000001
 40
0.5000000000000016
 40
0.5000000000000016
 40
0.5000000000000016
 40
0.5000000000000016
 40
0.5625000000000014
 40
0.5625000000000014
 40
0.5937500000000014
 40
0.5937500000000014
 40
0.6250000000000013
 40
0.6250000000000013
 40
0.6562500000000013
 40
0.6562500000000013
 40
0.6875000000000012
 40
0.6875000000000012
 40
0.7500000000000009
 40
0.7500000000000009
 40
0.7812500000000007
 40
0.7812500000000007
 40
0.8125000000000006
 40
0.8125000000000006
 40
0.8750000000000003
 40
0.8750000000000003
 40
0.9375000000000001
 40
0.9375000000000001
 40
0.96875
 40
0.96875
 40
1.0
 40
1.0
 40
1.0
 40
1.0
 10
11.09929844677808
 20
3.78776601293708
 30
0.0
 10
11.31512671473901
 20
3.787844328548312
 30
0.0
 10
11.5330400633281
 20
3.750889262135751
 30
0.0
 10
11.8311693051045
 20
3.644571484254108
 30
0.0
 10
11.92767339494451
 20
3.600037255497429
 30
0.0
 10
12.10683698186694
 20
3.495952701426844
 30
0.0
 10
12.18964198685285
 20
3.436638281784643
 30
0.0
 10
12.34190799973103
 20
3.302925237097951
 30
0.0
 10
12.41129962491505
 20
3.228176186758927
 30
0.0
 10
12.53066595273422
 20
3.069052612816897
 30
0.0
 10
12.58154771562606
 20
2.983995921432545
 30
0.0
 10
12.70682845874528
 20
2.710883138195799
 30
0.0
 10
12.74988239743906
 20
2.512755536558414
 30
0.0
 10
12.75005844165265
 20
2.205900920979303
 30
0.0
 10
12.73944896734286
 20
2.104095647539286
 30
0.0
 10
12.69737805915505
 20
1.901509184390151
 30
0.0
 10
12.66539378247043
 20
1.799926651541085
 30
0.0
 10
12.54152166679019
 20
1.509668979059644
 30
0.0
 10
12.41880132921226
 20
1.328433854589063
 30
0.0
 10
12.11607255357523
 20
1.025423686659192
 30
0.0
 10
11.93291660701176
 20
0.9007071060449026
 30
0.0
 10
11.63509561949659
 20
0.7743195984551352
 30
0.0
 10
11.53002475205496
 20
0.7414335488037105
 30
0.0
 10
11.31733852405115
 20
0.6978549509474713
 30
0.0
 10
11.20945404144214
 20
0.6867804916266609
 30
0.0
 10
11.09999999999999
 20
0.6867804916266609
 30
0.0
  0
SPLINE
  5
212
330
1F
100
AcDbEntity
  8
SK3
  6
SLD-Dashed
370
    18
100
AcDbSpline
210
0.0
220
0.0
230
1.0
 70
     8
 71
     3
 72
    32
 73
    28
 74
     0
 42
0.000000001
 43
0.00000001
 40
0.0
 40
0.0
 40
0.0
 40
0.0
 40
0.0312500000000001
 40
0.0312500000000001
 40
0.0625000000000001
 40
0.0625000000000001
 40
0.0937500000000002
 40
0.0937500000000002
 40
0.1250000000000002
 40
0.1250000000000002
 40
0.1875000000000002
 40
0.1875000000000002
 40
0.2500000000000002
 40
0.2500000000000002
 40
0.2812500000000004
 40
0.2812500000000004
 40
0.3125000000000005
 40
0.3125000000000005
 40
0.3750000000000007
 40
0.3750000000000007
 40
0.4062500000000009
 40
0.4062500000000009
 40
0.4375000000000011
 40
0.4375000000000011
 40
0.4687500000000013
 40
0.4687500000000013
 40
0.5000000000000016
 40
0.5000000000000016
 40
0.5000000000000016
 40
0.5000000000000016
 10
11.09999999999999
 20
0.6867804916266609
 30
0.0
 10
10.99054595855783
 20
0.6867804916266609
 30
0.0
 10
10.88300748494232
 20
0.6978519169173886
 30
0.0
 10
10.67157729317865
 20
0.7410380563700192
 30
0.0
 10
10.56656531881152
 20
0.7737031975053738
 30
0.0
 10
10.36697011919925
 20
0.8582303125313495
 30
0.0
 10
10.27237083996867
 20
0.9097573042868359
 30
0.0
 10
10.09333795853112
 20
1.030751744013236
 30
0.0
 10
10.00891041258246
 20
1.100583040304359
 30
0.0
 10
9.781590568132783
 20
1.327897234965396
 30
0.0
 10
9.658787195719887
 20
1.50932142501943
 30
0.0
 10
9.493903316654423
 20
1.894927731320259
 30
0.0
 10
9.4501341811674
 20
2.103271213289681
 30
0.0
 10
9.449933384093168
 20
2.407948896887113
 30
0.0
 10
9.460746960682956
 20
2.510222343261259
 30
0.0
 10
9.503033348944715
 20
2.705916590523314
 30
0.0
 10
9.534315908364954
 20
2.800221958421403
 30
0.0
 10
9.658906673984779
 20
3.072888284710959
 30
0.0
 10
9.780315119429284
 20
3.234385799298925
 30
0.0
 10
10.00967891683431
 20
3.436160430176
 30
0.0
 10
10.09252169949718
 20
3.495489903524468
 30
0.0
 10
10.2708310745887
 20
3.599257582730262
 30
0.0
 10
10.36744974633946
 20
3.643999459073427
 30
0.0
 10
10.56659782256848
 20
3.715177102574754
 30
0.0
 10
10.66944649627721
 20
3.742052781161728
 30
0.0
 10
10.88184464279909
 20
3.778470779378998
 30
0.0
 10
10.9913843127976
 20
3.787726855131457
 30
0.0
 10
11.09929844677808
 20
3.78776601293708
 30
0.0
  0
SPLINE
  5
213
330
1F
100
AcDbEntity
  8
SK3
  6
SLD-Dashed
370
    18
100
AcDbSpline
210
0.0
220
0.0
230
1.0
 70
     8
 71
     2
 72
     6
 73
     3
 74
     0
 42
0.000000001
 43
0.00000001
 40
0.0
 40
0.0
 40
0.0
 40
0.0312499999999995
 40
0.0312499999999995
 40
0.0312499999999995
 10
40.259
 20
4.762499999999989
 30
0.0
 10
40.29093930001918
 20
4.734325305954745
 30
0.0
 10
40.35214995484323
 20
4.680737147350955
 30
0.0
  0
SPLINE
  5
214
330
1F
100
AcDbEntity
  8
SK3
  6
SLD-Dashed
370
    18
100
AcDbSpline
210
0.0
220
0.0
230
1.0
 70
     8
 71
     3
 72
     8
 73
     4
 74
     0
 42
0.000000001
 43
0.00000001
 40
0.0312499999999995
 40
0.0312499999999995
 40
0.0312499999999995
 40
0.0312499999999995
 40
0.0468749999999991
 40
0.0468749999999991
 40
0.0468749999999991
 40
0.0468749999999991
 10
40.35214995484323
 20
4.680737147350955
 30
0.0
 10
40.38275528225525
 20
4.65394306804906
 30
0.0
 10
40.42111293084502
 20
4.620429581277744
 30
0.0
 10
40.46579806264962
 20
4.581570727118206
 30
0.0
  0
SPLINE
  5
215
330
1F
100
AcDbEntity
  8
SK3
  6
SLD-Dashed
370
    18
100
AcDbSpline
210
0.0
220
0.0
230
1.0
 70
     8
 71
     3
 72
     8
 73
     4
 74
     0
 42
0.000000001
 43
0.00000001
 40
0.0468749999999991
 40
0.0468749999999991
 40
0.0468749999999991
 40
0.0468749999999991
 40
0.0624999999999988
 40
0.0624999999999988
 40
0.0624999999999988
 40
0.0624999999999988
 10
40.46579806264962
 20
4.581570727118206
 30
0.0
 10
40.51048319445422
 20
4.542711872958682
 30
0.0
 10
40.56142036242567
 20
4.498571562975201
 30
0.0
 10
40.61811780444631
 20
4.449746780503472
 30
0.0
  0
SPLINE
  5
216
330
1F
100
AcDbEntity
  8
SK3
  6
SLD-Dashed
370
    18
100
AcDbSpline
210
0.0
220
0.0
230
1.0
 70
     8
 71
     3
 72
     8
 73
     4
 74
     0
 42
0.000000001
 43
0.00000001
 40
0.0624999999999988
 40
0.0624999999999988
 40
0.0624999999999988
 40
0.0624999999999988
 40
0.0937499999999984
 40
0.0937499999999984
 40
0.0937499999999984
 40
0.0937499999999984
 10
40.61811780444631
 20
4.449746780503472
 30
0.0
 10
40.7315126884876
 20
4.352097215560055
 30
0.0
 10
40.86958127134112
 20
4.234279707352587
 30
0.0
 10
41.02358158489662
 20
4.105760393076974
 30
0.0
  0
SPLINE
  5
217
330
1F
100
AcDbEntity
  8
SK3
  6
SLD-Dashed
370
    18
100
AcDbSpline
210
0.0
220
0.0
230
1.0
 70
     8
 71
     3
 72
     8
 73
     4
 74
     0
 42
0.000000001
 43
0.00000001
 40
0.0937499999999984
 40
0.0937499999999984
 40
0.0937499999999984
 40
0.0937499999999984
 40
0.1249999999999979
 40
0.1249999999999979
 40
0.1249999999999979
 40
0.1249999999999979
 10
41.02358158489662
 20
4.105760393076974
 30
0.0
 10
41.1775818984521
 20
3.977241078801361
 30
0.0
 10
41.34747456826944
 20
3.837933257327494
 30
0.0
 10
41.5325295061272
 20
3.69168787042165
 30
0.0
  0
SPLINE
  5
218
330
1F
100
AcDbEntity
  8
SK3
  6
SLD-Dashed
370
    18
100
AcDbSpline
210
0.0
220
0.0
230
1.0
 70
     8
 71
     3
 72
     8
 73
     4
 74
     0
 42
0.000000001
 43
0.00000001
 40
0.1249999999999979
 40
0.1249999999999979
 40
0.1249999999999979
 40
0.1249999999999979
 40
0.1562499999999975
 40
0.1562499999999975
 40
0.1562499999999975
 40
0.1562499999999975
 10
41.5325295061272
 20
3.69168787042165
 30
0.0
 10
41.71758444398495
 20
3.545442483515793
 30
0.0
 10
41.91894480600079
 20
3.391350357523665
 30
0.0
 10
42.13092379353474
 20
3.239604868096296
 30
0.0
  0
SPLINE
  5
219
330
1F
100
AcDbEntity
  8
SK3
  6
SLD-Dashed
370
    18
100
AcDbSpline
210
0.0
220
0.0
230
1.0
 70
     8
 71
     3
 72
     8
 73
     4
 74
     0
 42
0.000000001
 43
0.00000001
 40
0.1562499999999975
 40
0.1562499999999975
 40
0.1562499999999975
 40
0.1562499999999975
 40
0.1874999999999971
 40
0.1874999999999971
 40
0.1874999999999971
 40
0.1874999999999971
 10
42.13092379353474
 20
3.239604868096296
 30
0.0
 10
42.34290278106868
 20
3.087859378668914
 30
0.0
 10
42.56654243229792
 20
2.937084319534905
 30
0.0
 10
42.80706673173666
 20
2.795738717041765
 30
0.0
  0
SPLINE
  5
21A
330
1F
100
AcDbEntity
  8
SK3
  6
SLD-Dashed
370
    18
100
AcDbSpline
210
0.0
220
0.0
230
1.0
 70
     8
 71
     3
 72
     8
 73
     4
 74
     0
 42
0.000000001
 43
0.00000001
 40
0.1874999999999971
 40
0.1874999999999971
 40
0.1874999999999971
 40
0.1874999999999971
 40
0.2187499999999967
 40
0.2187499999999967
 40
0.2187499999999967
 40
0.2187499999999967
 10
42.80706673173666
 20
2.795738717041765
 30
0.0
 10
43.04759103117538
 20
2.654393114548639
 30
0.0
 10
43.30544549766217
 20
2.522107990004102
 30
0.0
 10
43.58047131452121
 20
2.423428436094277
 30
0.0
  0
SPLINE
  5
21B
330
1F
100
AcDbEntity
  8
SK3
  6
SLD-Dashed
370
    18
100
AcDbSpline
210
0.0
220
0.0
230
1.0
 70
     8
 71
     3
 72
     8
 73
     4
 74
     0
 42
0.000000001
 43
0.00000001
 40
0.2187499999999967
 40
0.2187499999999967
 40
0.2187499999999967
 40
0.2187499999999967
 40
0.2343749999999965
 40
0.2343749999999965
 40
0.2343749999999965
 40
0.2343749999999965
 10
43.58047131452121
 20
2.423428436094277
 30
0.0
 10
43.71798422295071
 20
2.374088659139364
 30
0.0
 10
43.86175635630586
 20
2.332944604084564
 30
0.0
 10
44.00703104169075
 20
2.305026409398711
 30
0.0
  0
SPLINE
  5
21C
330
1F
100
AcDbEntity
  8
SK3
  6
SLD-Dashed
370
    18
100
AcDbSpline
210
0.0
220
0.0
230
1.0
 70
     8
 71
     3
 72
     8
 73
     4
 74
     0
 42
0.000000001
 43
0.00000001
 40
0.2343749999999965
 40
0.2343749999999965
 40
0.2343749999999965
 40
0.2343749999999965
 40
0.2499999999999963
 40
0.2499999999999963
 40
0.2499999999999963
 40
0.2499999999999963
 10
44.00703104169075
 20
2.305026409398711
 30
0.0
 10
44.15230572707564
 20
2.277108214712845
 30
0.0
 10
44.29975989768249
 20
2.262081603394126
 30
0.0
 10
44.44970708274164
 20
2.262062186545815
 30
0.0
  0
SPLINE
  5
21D
330
1F
100
AcDbEntity
  8
SK3
  6
SLD-Dashed
370
    18
100
AcDbSpline
210
0.0
220
0.0
230
1.0
 70
     8
 71
     3
 72
     8
 73
     4
 74
     0
 42
0.000000001
 43
0.00000001
 40
0.2499999999999963
 40
0.2499999999999963
 40
0.2499999999999963
 40
0.2499999999999963
 40
0.2812499999999959
 40
0.2812499999999959
 40
0.2812499999999959
 40
0.2812499999999959
 10
44.44970708274164
 20
2.262062186545815
 30
0.0
 10
44.74960145285996
 20
2.262023352849196
 30
0.0
 10
45.04443654563557
 20
2.324687414737722
 30
0.0
 10
45.31990935075792
 20
2.423565045245532
 30
0.0
  0
SPLINE
  5
21E
330
1F
100
AcDbEntity
  8
SK3
  6
SLD-Dashed
370
    18
100
AcDbSpline
210
0.0
220
0.0
230
1.0
 70
     8
 71
     3
 72
     8
 73
     4
 74
     0
 42
0.000000001
 43
0.00000001
 40
0.2812499999999959
 40
0.2812499999999959
 40
0.2812499999999959
 40
0.2812499999999959
 40
0.3124999999999954
 40
0.3124999999999954
 40
0.3124999999999954
 40
0.3124999999999954
 10
45.31990935075792
 20
2.423565045245532
 30
0.0
 10
45.59538215588029
 20
2.522442675753356
 30
0.0
 10
45.84879727992434
 20
2.652427112557656
 30
0.0
 10
46.09018382905729
 20
2.794123877551055
 30
0.0
  0
SPLINE
  5
21F
330
1F
100
AcDbEntity
  8
SK3
  6
SLD-Dashed
370
    18
100
AcDbSpline
210
0.0
220
0.0
230
1.0
 70
     8
 71
     3
 72
     8
 73
     4
 74
     0
 42
0.000000001
 43
0.00000001
 40
0.3124999999999954
 40
0.3124999999999954
 40
0.3124999999999954
 40
0.3124999999999954
 40
0.3437499999999951
 40
0.3437499999999951
 40
0.3437499999999951
 40
0.3437499999999951
 10
46.09018382905729
 20
2.794123877551055
 30
0.0
 10
46.33157037819021
 20
2.93582064254444
 30
0.0
 10
46.55678464239167
 20
3.087678014971396
 30
0.0
 10
46.76774569784155
 20
3.238652554668847
 30
0.0
  0
SPLINE
  5
220
330
1F
100
AcDbEntity
  8
SK3
  6
SLD-Dashed
370
    18
100
AcDbSpline
210
0.0
220
0.0
230
1.0
 70
     8
 71
     3
 72
     8
 73
     4
 74
     0
 42
0.000000001
 43
0.00000001
 40
0.3437499999999951
 40
0.3437499999999951
 40
0.3437499999999951
 40
0.3437499999999951
 40
0.3749999999999946
 40
0.3749999999999946
 40
0.3749999999999946
 40
0.3749999999999946
 10
46.76774569784155
 20
3.238652554668847
 30
0.0
 10
46.97870675329145
 20
3.389627094366285
 30
0.0
 10
47.17647171595605
 20
3.540843655332831
 30
0.0
 10
47.36234044329306
 20
3.687635029072212
 30
0.0
  0
SPLINE
  5
221
330
1F
100
AcDbEntity
  8
SK3
  6
SLD-Dashed
370
    18
100
AcDbSpline
210
0.0
220
0.0
230
1.0
 70
     8
 71
     3
 72
     8
 73
     4
 74
     0
 42
0.000000001
 43
0.00000001
 40
0.3749999999999946
 40
0.3749999999999946
 40
0.3749999999999946
 40
0.3749999999999946
 40
0.4062499999999942
 40
0.4062499999999942
 40
0.4062499999999942
 40
0.4062499999999942
 10
47.36234044329306
 20
3.687635029072212
 30
0.0
 10
47.54820917063006
 20
3.834426402811606
 30
0.0
 10
47.72063438909328
 20
3.975778598737489
 30
0.0
 10
47.87413729890196
 20
4.103856904392689
 30
0.0
  0
SPLINE
  5
222
330
1F
100
AcDbEntity
  8
SK3
  6
SLD-Dashed
370
    18
100
AcDbSpline
210
0.0
220
0.0
230
1.0
 70
     8
 71
     3
 72
     8
 73
     4
 74
     0
 42
0.000000001
 43
0.00000001
 40
0.4062499999999942
 40
0.4062499999999942
 40
0.4062499999999942
 40
0.4062499999999942
 40
0.4374999999999938
 40
0.4374999999999938
 40
0.4374999999999938
 40
0.4374999999999938
 10
47.87413729890196
 20
4.103856904392689
 30
0.0
 10
48.02764020871066
 20
4.231935210047888
 30
0.0
 10
48.16477601218071
 20
4.348919126938952
 30
0.0
 10
48.27922474515385
 20
4.447458532566534
 30
0.0
  0
SPLINE
  5
223
330
1F
100
AcDbEntity
  8
SK3
  6
SLD-Dashed
370
    18
100
AcDbSpline
210
0.0
220
0.0
230
1.0
 70
     8
 71
     3
 72
     8
 73
     4
 74
     0
 42
0.000000001
 43
0.00000001
 40
0.4374999999999938
 40
0.4374999999999938
 40
0.4374999999999938
 40
0.4374999999999938
 40
0.4687499999999934
 40
0.4687499999999934
 40
0.4687499999999934
 40
0.4687499999999934
 10
48.27922474515385
 20
4.447458532566534
 30
0.0
 10
48.39367347812702
 20
4.545997938194088
 30
0.0
 10
48.48348369548062
 20
4.624393263009202
 30
0.0
 10
48.5456356271949
 20
4.678798610834659
 30
0.0
  0
SPLINE
  5
224
330
1F
100
AcDbEntity
  8
SK3
  6
SLD-Dashed
370
    18
100
AcDbSpline
210
0.0
220
0.0
230
1.0
 70
     8
 71
     3
 72
     8
 73
     4
 74
     0
 42
0.000000001
 43
0.00000001
 40
0.4687499999999934
 40
0.4687499999999934
 40
0.4687499999999934
 40
0.4687499999999934
 40
0.4843749999999933
 40
0.4843749999999933
 40
0.4843749999999933
 40
0.4843749999999933
 10
48.5456356271949
 20
4.678798610834659
 30
0.0
 10
48.57671159305203
 20
4.706001284747393
 30
0.0
 10
48.60068410024567
 20
4.727054702904327
 30
0.0
 10
48.61658881981808
 20
4.741032339420665
 30
0.0
  0
SPLINE
  5
225
330
1F
100
AcDbEntity
  8
SK3
  6
SLD-Dashed
370
    18
100
AcDbSpline
210
0.0
220
0.0
230
1.0
 70
     8
 71
     3
 72
     8
 73
     4
 74
     0
 42
0.000000001
 43
0.00000001
 40
0.4843749999999933
 40
0.4843749999999933
 40
0.4843749999999933
 40
0.4843749999999933
 40
0.4999999999999931
 40
0.4999999999999931
 40
0.4999999999999931
 40
0.4999999999999931
 10
48.61658881981808
 20
4.741032339420665
 30
0.0
 10
48.63249353939043
 20
4.755009975937016
 30
0.0
 10
48.64063188558783
 20
4.762176059526044
 30
0.0
 10
48.6409878261772
 20
4.762489287039429
 30
0.0
  0
SPLINE
  5
226
330
1F
100
AcDbEntity
  8
SK3
  6
SLD-Dashed
370
    18
100
AcDbSpline
210
0.0
220
0.0
230
1.0
 70
     8
 71
     3
 72
     8
 73
     4
 74
     0
 42
0.000000001
 43
0.00000001
 40
0.4999999999999931
 40
0.4999999999999931
 40
0.4999999999999931
 40
0.4999999999999931
 40
0.5312499999999928
 40
0.5312499999999928
 40
0.5312499999999928
 40
0.5312499999999928
 10
48.6409878261772
 20
4.762489287039429
 30
0.0
 10
48.64169970735598
 20
4.763115742066199
 30
0.0
 10
48.6100534964813
 20
4.735199252748276
 30
0.0
 10
48.54941109481179
 20
4.682103861969114
 30
0.0
  0
SPLINE
  5
227
330
1F
100
AcDbEntity
  8
SK3
  6
SLD-Dashed
370
    18
100
AcDbSpline
210
0.0
220
0.0
230
1.0
 70
     8
 71
     3
 72
     8
 73
     4
 74
     0
 42
0.000000001
 43
0.00000001
 40
0.5312499999999928
 40
0.5312499999999928
 40
0.5312499999999928
 40
0.5312499999999928
 40
0.5624999999999926
 40
0.5624999999999926
 40
0.5624999999999926
 40
0.5624999999999926
 10
48.54941109481179
 20
4.682103861969114
 30
0.0
 10
48.4887686931423
 20
4.629008471189938
 30
0.0
 10
48.39831962486905
 20
4.550036632950297
 30
0.0
 10
48.28491309213397
 20
4.452357091948092
 30
0.0
  0
SPLINE
  5
228
330
1F
100
AcDbEntity
  8
SK3
  6
SLD-Dashed
370
    18
100
AcDbSpline
210
0.0
220
0.0
230
1.0
 70
     8
 71
     3
 72
     8
 73
     4
 74
     0
 42
0.000000001
 43
0.00000001
 40
0.5624999999999926
 40
0.5624999999999926
 40
0.5624999999999926
 40
0.5624999999999926
 40
0.5937499999999923
 40
0.5937499999999923
 40
0.5937499999999923
 40
0.5937499999999923
 10
48.28491309213397
 20
4.452357091948092
 30
0.0
 10
48.17150655939882
 20
4.354677550945859
 30
0.0
 10
48.03593617141107
 20
4.238936989937311
 30
0.0
 10
47.88096300848012
 20
4.109553797623164
 30
0.0
  0
SPLINE
  5
229
330
1F
100
AcDbEntity
  8
SK3
  6
SLD-Dashed
370
    18
100
AcDbSpline
210
0.0
220
0.0
230
1.0
 70
     8
 71
     3
 72
     8
 73
     4
 74
     0
 42
0.000000001
 43
0.00000001
 40
0.5937499999999923
 40
0.5937499999999923
 40
0.5937499999999923
 40
0.5937499999999923
 40
0.6249999999999921
 40
0.6249999999999921
 40
0.6249999999999921
 40
0.6249999999999921
 10
47.88096300848012
 20
4.109553797623164
 30
0.0
 10
47.72598984554919
 20
3.980170605309016
 30
0.0
 10
47.5558985524248
 20
3.840681439463214
 30
0.0
 10
47.37183033966054
 20
3.695134339068165
 30
0.0
  0
SPLINE
  5
22A
330
1F
100
AcDbEntity
  8
SK3
  6
SLD-Dashed
370
    18
100
AcDbSpline
210
0.0
220
0.0
230
1.0
 70
     8
 71
     3
 72
     8
 73
     4
 74
     0
 42
0.000000001
 43
0.00000001
 40
0.6249999999999921
 40
0.6249999999999921
 40
0.6249999999999921
 40
0.6249999999999921
 40
0.656249999999992
 40
0.656249999999992
 40
0.656249999999992
 40
0.656249999999992
 10
47.37183033966054
 20
3.695134339068165
 30
0.0
 10
47.18776212689631
 20
3.549587238673102
 30
0.0
 10
46.98892538717038
 20
3.397205389082267
 30
0.0
 10
46.77588012559549
 20
3.244478942548396
 30
0.0
  0
SPLINE
  5
22B
330
1F
100
AcDbEntity
  8
SK3
  6
SLD-Dashed
370
    18
100
AcDbSpline
210
0.0
220
0.0
230
1.0
 70
     8
 71
     3
 72
     8
 73
     4
 74
     0
 42
0.000000001
 43
0.00000001
 40
0.656249999999992
 40
0.656249999999992
 40
0.656249999999992
 40
0.656249999999992
 40
0.6874999999999918
 40
0.6874999999999918
 40
0.6874999999999918
 40
0.6874999999999918
 10
46.77588012559549
 20
3.244478942548396
 30
0.0
 10
46.56283486402053
 20
3.09175249601451
 30
0.0
 10
46.33938050653834
 20
2.941037029497565
 30
0.0
 10
46.10127587384301
 20
2.800649435673069
 30
0.0
  0
SPLINE
  5
22C
330
1F
100
AcDbEntity
  8
SK3
  6
SLD-Dashed
370
    18
100
AcDbSpline
210
0.0
220
0.0
230
1.0
 70
     8
 71
     3
 72
     8
 73
     4
 74
     0
 42
0.000000001
 43
0.00000001
 40
0.6874999999999918
 40
0.6874999999999918
 40
0.6874999999999918
 40
0.6874999999999918
 40
0.703124999999992
 40
0.703124999999992
 40
0.703124999999992
 40
0.703124999999992
 10
46.10127587384301
 20
2.800649435673069
 30
0.0
 10
45.98222355749536
 20
2.730455638760829
 30
0.0
 10
45.85944589595898
 20
2.662914369308309
 30
0.0
 10
45.73171554850082
 20
2.599946152763308
 30
0.0
  0
SPLINE
  5
22D
330
1F
100
AcDbEntity
  8
SK3
  6
SLD-Dashed
370
    18
100
AcDbSpline
210
0.0
220
0.0
230
1.0
 70
     8
 71
     3
 72
     8
 73
     4
 74
     0
 42
0.000000001
 43
0.00000001
 40
0.703124999999992
 40
0.703124999999992
 40
0.703124999999992
 40
0.703124999999992
 40
0.7187499999999921
 40
0.7187499999999921
 40
0.7187499999999921
 40
0.7187499999999921
 10
45.73171554850082
 20
2.599946152763308
 30
0.0
 10
45.60398520104268
 20
2.536977936218307
 30
0.0
 10
45.47024354024447
 20
2.478156719665461
 30
0.0
 10
45.33211361506155
 20
2.427972339191065
 30
0.0
  0
SPLINE
  5
22E
330
1F
100
AcDbEntity
  8
SK3
  6
SLD-Dashed
370
    18
100
AcDbSpline
210
0.0
220
0.0
230
1.0
 70
     8
 71
     3
 72
     8
 73
     4
 74
     0
 42
0.000000001
 43
0.00000001
 40
0.7187499999999921
 40
0.7187499999999921
 40
0.7187499999999921
 40
0.7187499999999921
 40
0.7343749999999923
 40
0.7343749999999923
 40
0.7343749999999923
 40
0.7343749999999923
 10
45.33211361506155
 20
2.427972339191065
 30
0.0
 10
45.19398368987866
 20
2.377787958716668
 30
0.0
 10
45.05258026609434
 20
2.336589061858907
 30
0.0
 10
44.90693903303914
 20
2.307751834559918
 30
0.0
  0
SPLINE
  5
22F
330
1F
100
AcDbEntity
  8
SK3
  6
SLD-Dashed
370
    18
100
AcDbSpline
210
0.0
220
0.0
230
1.0
 70
     8
 71
     3
 72
     8
 73
     4
 74
     0
 42
0.000000001
 43
0.00000001
 40
0.7343749999999923
 40
0.7343749999999923
 40
0.7343749999999923
 40
0.7343749999999923
 40
0.7499999999999925
 40
0.7499999999999925
 40
0.7499999999999925
 40
0.7499999999999925
 10
44.90693903303914
 20
2.307751834559918
 30
0.0
 10
44.76129779998396
 20
2.278914607260929
 30
0.0
 10
44.60991832310619
 20
2.262822498803413
 30
0.0
 10
44.46114333833563
 20
2.262089614491258
 30
0.0
  0
SPLINE
  5
230
330
1F
100
AcDbEntity
  8
SK3
  6
SLD-Dashed
370
    18
100
AcDbSpline
210
0.0
220
0.0
230
1.0
 70
     8
 71
     3
 72
     8
 73
     4
 74
     0
 42
0.000000001
 43
0.00000001
 40
0.7499999999999925
 40
0.7499999999999925
 40
0.7499999999999925
 40
0.7499999999999925
 40
0.7656249999999927
 40
0.7656249999999927
 40
0.7656249999999927
 40
0.7656249999999927
 10
44.46114333833563
 20
2.262089614491258
 30
0.0
 10
44.31236835356501
 20
2.26135673017909
 30
0.0
 10
44.16472926056313
 20
2.275427657613266
 30
0.0
 10
44.01813684843632
 20
2.302917938546325
 30
0.0
  0
SPLINE
  5
231
330
1F
100
AcDbEntity
  8
SK3
  6
SLD-Dashed
370
    18
100
AcDbSpline
210
0.0
220
0.0
230
1.0
 70
     8
 71
     3
 72
     8
 73
     4
 74
     0
 42
0.000000001
 43
0.00000001
 40
0.7656249999999927
 40
0.7656249999999927
 40
0.7656249999999927
 40
0.7656249999999927
 40
0.7812499999999929
 40
0.7812499999999929
 40
0.7812499999999929
 40
0.7812499999999929
 10
44.01813684843632
 20
2.302917938546325
 30
0.0
 10
43.87154443630948
 20
2.330408219479371
 30
0.0
 10
43.72790227611244
 20
2.371039899115412
 30
0.0
 10
43.59040409314225
 20
2.419882305626966
 30
0.0
  0
SPLINE
  5
232
330
1F
100
AcDbEntity
  8
SK3
  6
SLD-Dashed
370
    18
100
AcDbSpline
210
0.0
220
0.0
230
1.0
 70
     8
 71
     3
 72
     8
 73
     4
 74
     0
 42
0.000000001
 43
0.00000001
 40
0.7812499999999929
 40
0.7812499999999929
 40
0.7812499999999929
 40
0.7812499999999929
 40
0.8124999999999939
 40
0.8124999999999939
 40
0.8124999999999939
 40
0.8124999999999939
 10
43.59040409314225
 20
2.419882305626966
 30
0.0
 10
43.31540772720189
 20
2.517567118650074
 30
0.0
 10
43.05634055626882
 20
2.649717807154548
 30
0.0
 10
42.81516850474597
 20
2.790985357875309
 30
0.0
  0
SPLINE
  5
233
330
1F
100
AcDbEntity
  8
SK3
  6
SLD-Dashed
370
    18
100
AcDbSpline
210
0.0
220
0.0
230
1.0
 70
     8
 71
     3
 72
     8
 73
     4
 74
     0
 42
0.000000001
 43
0.00000001
 40
0.8124999999999939
 40
0.8124999999999939
 40
0.8124999999999939
 40
0.8124999999999939
 40
0.8437499999999949
 40
0.8437499999999949
 40
0.8437499999999949
 40
0.8437499999999949
 10
42.81516850474597
 20
2.790985357875309
 30
0.0
 10
42.57399645322312
 20
2.932252908596084
 30
0.0
 10
42.34977209361345
 20
3.083146698699454
 30
0.0
 10
42.13721725309676
 20
3.235102669834955
 30
0.0
  0
SPLINE
  5
234
330
1F
100
AcDbEntity
  8
SK3
  6
SLD-Dashed
370
    18
100
AcDbSpline
210
0.0
220
0.0
230
1.0
 70
     8
 71
     3
 72
     8
 73
     4
 74
     0
 42
0.000000001
 43
0.00000001
 40
0.8437499999999949
 40
0.8437499999999949
 40
0.8437499999999949
 40
0.8437499999999949
 40
0.874999999999996
 40
0.874999999999996
 40
0.874999999999996
 40
0.874999999999996
 10
42.13721725309676
 20
3.235102669834955
 30
0.0
 10
41.92466241258004
 20
3.387058640970442
 30
0.0
 10
41.72262045478676
 20
3.541552145539057
 30
0.0
 10
41.53721095955935
 20
3.687989322667701
 30
0.0
  0
SPLINE
  5
235
330
1F
100
AcDbEntity
  8
SK3
  6
SLD-Dashed
370
    18
100
AcDbSpline
210
0.0
220
0.0
230
1.0
 70
     8
 71
     3
 72
     8
 73
     4
 74
     0
 42
0.000000001
 43
0.00000001
 40
0.874999999999996
 40
0.874999999999996
 40
0.874999999999996
 40
0.874999999999996
 40
0.906249999999997
 40
0.906249999999997
 40
0.906249999999997
 40
0.906249999999997
 10
41.53721095955935
 20
3.687989322667701
 30
0.0
 10
41.35180146433194
 20
3.834426499796345
 30
0.0
 10
41.18184718617861
 20
3.973731932099628
 30
0.0
 10
41.02794370654163
 20
4.102120735131748
 30
0.0
  0
SPLINE
  5
236
330
1F
100
AcDbEntity
  8
SK3
  6
SLD-Dashed
370
    18
100
AcDbSpline
210
0.0
220
0.0
230
1.0
 70
     8
 71
     3
 72
     8
 73
     4
 74
     0
 42
0.000000001
 43
0.00000001
 40
0.906249999999997
 40
0.906249999999997
 40
0.906249999999997
 40
0.906249999999997
 40
0.937499999999998
 40
0.937499999999998
 40
0.937499999999998
 40
0.937499999999998
 10
41.02794370654163
 20
4.102120735131748
 30
0.0
 10
40.87404022690465
 20
4.230509538163882
 30
0.0
 10
40.73494440838879
 20
4.349160215316824
 30
0.0
 10
40.62083140794689
 20
4.447410185306255
 30
0.0
  0
SPLINE
  5
237
330
1F
100
AcDbEntity
  8
SK3
  6
SLD-Dashed
370
    18
100
AcDbSpline
210
0.0
220
0.0
230
1.0
 70
     8
 71
     3
 72
     8
 73
     4
 74
     0
 42
0.000000001
 43
0.00000001
 40
0.937499999999998
 40
0.937499999999998
 40
0.937499999999998
 40
0.937499999999998
 40
0.9687499999999991
 40
0.9687499999999991
 40
0.9687499999999991
 40
0.9687499999999991
 10
40.62083140794689
 20
4.447410185306255
 30
0.0
 10
40.506718407505
 20
4.545660155295672
 30
0.0
 10
40.41573627170268
 20
4.625073168737615
 30
0.0
 10
40.35342410146457
 20
4.679621709333059
 30
0.0
  0
SPLINE
  5
238
330
1F
100
AcDbEntity
  8
SK3
  6
SLD-Dashed
370
    18
100
AcDbSpline
210
0.0
220
0.0
230
1.0
 70
     8
 71
     2
 72
     6
 73
     3
 74
     0
 42
0.000000001
 43
0.00000001
 40
0.9687499999999991
 40
0.9687499999999991
 40
0.9687499999999991
 40
1.0
 40
1.0
 40
1.0
 10
40.35342410146457
 20
4.679621709333059
 30
0.0
 10
40.29111193122647
 20
4.73417024992849
 30
0.0
 10
40.259
 20
4.762499999999989
 30
0.0
  0
SPLINE
  5
239
330
1F
100
AcDbEntity
  8
SK3
  6
SLD-Dashed
370
    18
100
AcDbSpline
210
0.0
220
0.0
230
1.0
 70
     8
 71
     2
 72
     6
 73
     3
 74
     0
 42
0.000000001
 43
0.00000001
 40
0.0
 40
0.0
 40
0.0
 40
0.0312499999999995
 40
0.0312499999999995
 40
0.0312499999999995
 10
40.259
 20
4.762499999999989
 30
0.0
 10
40.29093930001918
 20
4.734325305954745
 30
0.0
 10
40.35214995484323
 20
4.680737147350955
 30
0.0
  0
SPLINE
  5
23A
330
1F
100
AcDbEntity
  8
SK3
  6
SLD-Dashed
370
    18
100
AcDbSpline
210
0.0
220
0.0
230
1.0
 70
     8
 71
     3
 72
     8
 73
     4
 74
     0
 42
0.000000001
 43
0.00000001
 40
0.0312499999999995
 40
0.0312499999999995
 40
0.0312499999999995
 40
0.0312499999999995
 40
0.0468749999999991
 40
0.0468749999999991
 40
0.0468749999999991
 40
0.0468749999999991
 10
40.35214995484323
 20
4.680737147350955
 30
0.0
 10
40.38275528225525
 20
4.65394306804906
 30
0.0
 10
40.42111293084502
 20
4.620429581277744
 30
0.0
 10
40.46579806264962
 20
4.581570727118206
 30
0.0
  0
SPLINE
  5
23B
330
1F
100
AcDbEntity
  8
SK3
  6
SLD-Dashed
370
    18
100
AcDbSpline
210
0.0
220
0.0
230
1.0
 70
     8
 71
     3
 72
     8
 73
     4
 74
     0
 42
0.000000001
 43
0.00000001
 40
0.0468749999999991
 40
0.0468749999999991
 40
0.0468749999999991
 40
0.0468749999999991
 40
0.0624999999999988
 40
0.0624999999999988
 40
0.0624999999999988
 40
0.0624999999999988
 10
40.46579806264962
 20
4.581570727118206
 30
0.0
 10
40.51048319445422
 20
4.542711872958682
 30
0.0
 10
40.56142036242567
 20
4.498571562975201
 30
0.0
 10
40.61811780444631
 20
4.449746780503472
 30
0.0
  0
SPLINE
  5
23C
330
1F
100
AcDbEntity
  8
SK3
  6
SLD-Dashed
370
    18
100
AcDbSpline
210
0.0
220
0.0
230
1.0
 70
     8
 71
     3
 72
     8
 73
     4
 74
     0
 42
0.000000001
 43
0.00000001
 40
0.0624999999999988
 40
0.0624999999999988
 40
0.0624999999999988
 40
0.0624999999999988
 40
0.0937499999999984
 40
0.0937499999999984
 40
0.0937499999999984
 40
0.0937499999999984
 10
40.61811780444631
 20
4.449746780503472
 30
0.0
 10
40.7315126884876
 20
4.352097215560055
 30
0.0
 10
40.86958127134112
 20
4.234279707352587
 30
0.0
 10
41.02358158489662
 20
4.105760393076974
 30
0.0
  0
SPLINE
  5
23D
330
1F
100
AcDbEntity
  8
SK3
  6
SLD-Dashed
370
    18
100
AcDbSpline
210
0.0
220
0.0
230
1.0
 70
     8
 71
     3
 72
     8
 73
     4
 74
     0
 42
0.000000001
 43
0.00000001
 40
0.0937499999999984
 40
0.0937499999999984
 40
0.0937499999999984
 40
0.0937499999999984
 40
0.1249999999999979
 40
0.1249999999999979
 40
0.1249999999999979
 40
0.1249999999999979
 10
41.02358158489662
 20
4.105760393076974
 30
0.0
 10
41.1775818984521
 20
3.977241078801361
 30
0.0
 10
41.34747456826944
 20
3.837933257327494
 30
0.0
 10
41.5325295061272
 20
3.69168787042165
 30
0.0
  0
SPLINE
  5
23E
330
1F
100
AcDbEntity
  8
SK3
  6
SLD-Dashed
370
    18
100
AcDbSpline
210
0.0
220
0.0
230
1.0
 70
     8
 71
     3
 72
     8
 73
     4
 74
     0
 42
0.000000001
 43
0.00000001
 40
0.1249999999999979
 40
0.1249999999999979
 40
0.1249999999999979
 40
0.1249999999999979
 40
0.1562499999999975
 40
0.1562499999999975
 40
0.1562499999999975
 40
0.1562499999999975
 10
41.5325295061272
 20
3.69168787042165
 30
0.0
 10
41.71758444398495
 20
3.545442483515793
 30
0.0
 10
41.91894480600079
 20
3.391350357523665
 30
0.0
 10
42.13092379353474
 20
3.239604868096296
 30
0.0
  0
SPLINE
  5
23F
330
1F
100
AcDbEntity
  8
SK3
  6
SLD-Dashed
370
    18
100
AcDbSpline
210
0.0
220
0.0
230
1.0
 70
     8
 71
     3
 72
     8
 73
     4
 74
     0
 42
0.000000001
 43
0.00000001
 40
0.1562499999999975
 40
0.1562499999999975
 40
0.1562499999999975
 40
0.1562499999999975
 40
0.1874999999999971
 40
0.1874999999999971
 40
0.1874999999999971
 40
0.1874999999999971
 10
42.13092379353474
 20
3.239604868096296
 30
0.0
 10
42.34290278106868
 20
3.087859378668914
 30
0.0
 10
42.56654243229792
 20
2.937084319534905
 30
0.0
 10
42.80706673173666
 20
2.795738717041765
 30
0.0
  0
SPLINE
  5
240
330
1F
100
AcDbEntity
  8
SK3
  6
SLD-Dashed
370
    18
100
AcDbSpline
210
0.0
220
0.0
230
1.0
 70
     8
 71
     3
 72
     8
 73
     4
 74
     0
 42
0.000000001
 43
0.00000001
 40
0.1874999999999971
 40
0.1874999999999971
 40
0.1874999999999971
 40
0.1874999999999971
 40
0.2187499999999967
 40
0.2187499999999967
 40
0.2187499999999967
 40
0.2187499999999967
 10
42.80706673173666
 20
2.795738717041765
 30
0.0
 10
43.04759103117538
 20
2.654393114548639
 30
0.0
 10
43.30544549766217
 20
2.522107990004102
 30
0.0
 10
43.58047131452121
 20
2.423428436094277
 30
0.0
  0
SPLINE
  5
241
330
1F
100
AcDbEntity
  8
SK3
  6
SLD-Dashed
370
    18
100
AcDbSpline
210
0.0
220
0.0
230
1.0
 70
     8
 71
     3
 72
     8
 73
     4
 74
     0
 42
0.000000001
 43
0.00000001
 40
0.2187499999999967
 40
0.2187499999999967
 40
0.2187499999999967
 40
0.2187499999999967
 40
0.2343749999999965
 40
0.2343749999999965
 40
0.2343749999999965
 40
0.2343749999999965
 10
43.58047131452121
 20
2.423428436094277
 30
0.0
 10
43.71798422295071
 20
2.374088659139364
 30
0.0
 10
43.86175635630586
 20
2.332944604084564
 30
0.0
 10
44.00703104169075
 20
2.305026409398711
 30
0.0
  0
SPLINE
  5
242
330
1F
100
AcDbEntity
  8
SK3
  6
SLD-Dashed
370
    18
100
AcDbSpline
210
0.0
220
0.0
230
1.0
 70
     8
 71
     3
 72
     8
 73
     4
 74
     0
 42
0.000000001
 43
0.00000001
 40
0.2343749999999965
 40
0.2343749999999965
 40
0.2343749999999965
 40
0.2343749999999965
 40
0.2499999999999963
 40
0.2499999999999963
 40
0.2499999999999963
 40
0.2499999999999963
 10
44.00703104169075
 20
2.305026409398711
 30
0.0
 10
44.15230572707564
 20
2.277108214712845
 30
0.0
 10
44.29975989768249
 20
2.262081603394126
 30
0.0
 10
44.44970708274164
 20
2.262062186545815
 30
0.0
  0
SPLINE
  5
243
330
1F
100
AcDbEntity
  8
SK3
  6
SLD-Dashed
370
    18
100
AcDbSpline
210
0.0
220
0.0
230
1.0
 70
     8
 71
     3
 72
     8
 73
     4
 74
     0
 42
0.000000001
 43
0.00000001
 40
0.2499999999999963
 40
0.2499999999999963
 40
0.2499999999999963
 40
0.2499999999999963
 40
0.2812499999999959
 40
0.2812499999999959
 40
0.2812499999999959
 40
0.2812499999999959
 10
44.44970708274164
 20
2.262062186545815
 30
0.0
 10
44.74960145285996
 20
2.262023352849196
 30
0.0
 10
45.04443654563557
 20
2.324687414737722
 30
0.0
 10
45.31990935075792
 20
2.423565045245532
 30
0.0
  0
SPLINE
  5
244
330
1F
100
AcDbEntity
  8
SK3
  6
SLD-Dashed
370
    18
100
AcDbSpline
210
0.0
220
0.0
230
1.0
 70
     8
 71
     3
 72
     8
 73
     4
 74
     0
 42
0.000000001
 43
0.00000001
 40
0.2812499999999959
 40
0.2812499999999959
 40
0.2812499999999959
 40
0.2812499999999959
 40
0.3124999999999954
 40
0.3124999999999954
 40
0.3124999999999954
 40
0.3124999999999954
 10
45.31990935075792
 20
2.423565045245532
 30
0.0
 10
45.59538215588029
 20
2.522442675753356
 30
0.0
 10
45.84879727992434
 20
2.652427112557656
 30
0.0
 10
46.09018382905729
 20
2.794123877551055
 30
0.0
  0
SPLINE
  5
245
330
1F
100
AcDbEntity
  8
SK3
  6
SLD-Dashed
370
    18
100
AcDbSpline
210
0.0
220
0.0
230
1.0
 70
     8
 71
     3
 72
     8
 73
     4
 74
     0
 42
0.000000001
 43
0.00000001
 40
0.3124999999999954
 40
0.3124999999999954
 40
0.3124999999999954
 40
0.3124999999999954
 40
0.3437499999999951
 40
0.3437499999999951
 40
0.3437499999999951
 40
0.3437499999999951
 10
46.09018382905729
 20
2.794123877551055
 30
0.0
 10
46.33157037819021
 20
2.93582064254444
 30
0.0
 10
46.55678464239167
 20
3.087678014971396
 30
0.0
 10
46.76774569784155
 20
3.238652554668847
 30
0.0
  0
SPLINE
  5
246
330
1F
100
AcDbEntity
  8
SK3
  6
SLD-Dashed
370
    18
100
AcDbSpline
210
0.0
220
0.0
230
1.0
 70
     8
 71
     3
 72
     8
 73
     4
 74
     0
 42
0.000000001
 43
0.00000001
 40
0.3437499999999951
 40
0.3437499999999951
 40
0.3437499999999951
 40
0.3437499999999951
 40
0.3749999999999946
 40
0.3749999999999946
 40
0.3749999999999946
 40
0.3749999999999946
 10
46.76774569784155
 20
3.238652554668847
 30
0.0
 10
46.97870675329145
 20
3.389627094366285
 30
0.0
 10
47.17647171595605
 20
3.540843655332831
 30
0.0
 10
47.36234044329306
 20
3.687635029072212
 30
0.0
  0
SPLINE
  5
247
330
1F
100
AcDbEntity
  8
SK3
  6
SLD-Dashed
370
    18
100
AcDbSpline
210
0.0
220
0.0
230
1.0
 70
     8
 71
     3
 72
     8
 73
     4
 74
     0
 42
0.000000001
 43
0.00000001
 40
0.3749999999999946
 40
0.3749999999999946
 40
0.3749999999999946
 40
0.3749999999999946
 40
0.4062499999999942
 40
0.4062499999999942
 40
0.4062499999999942
 40
0.4062499999999942
 10
47.36234044329306
 20
3.687635029072212
 30
0.0
 10
47.54820917063006
 20
3.834426402811606
 30
0.0
 10
47.72063438909328
 20
3.975778598737489
 30
0.0
 10
47.87413729890196
 20
4.103856904392689
 30
0.0
  0
SPLINE
  5
248
330
1F
100
AcDbEntity
  8
SK3
  6
SLD-Dashed
370
    18
100
AcDbSpline
210
0.0
220
0.0
230
1.0
 70
     8
 71
     3
 72
     8
 73
     4
 74
     0
 42
0.000000001
 43
0.00000001
 40
0.4062499999999942
 40
0.4062499999999942
 40
0.4062499999999942
 40
0.4062499999999942
 40
0.4374999999999938
 40
0.4374999999999938
 40
0.4374999999999938
 40
0.4374999999999938
 10
47.87413729890196
 20
4.103856904392689
 30
0.0
 10
48.02764020871066
 20
4.231935210047888
 30
0.0
 10
48.16477601218071
 20
4.348919126938952
 30
0.0
 10
48.27922474515385
 20
4.447458532566534
 30
0.0
  0
SPLINE
  5
249
330
1F
100
AcDbEntity
  8
SK3
  6
SLD-Dashed
370
    18
100
AcDbSpline
210
0.0
220
0.0
230
1.0
 70
     8
 71
     3
 72
     8
 73
     4
 74
     0
 42
0.000000001
 43
0.00000001
 40
0.4374999999999938
 40
0.4374999999999938
 40
0.4374999999999938
 40
0.4374999999999938
 40
0.4687499999999934
 40
0.4687499999999934
 40
0.4687499999999934
 40
0.4687499999999934
 10
48.27922474515385
 20
4.447458532566534
 30
0.0
 10
48.39367347812702
 20
4.545997938194088
 30
0.0
 10
48.48348369548062
 20
4.624393263009202
 30
0.0
 10
48.5456356271949
 20
4.678798610834659
 30
0.0
  0
SPLINE
  5
24A
330
1F
100
AcDbEntity
  8
SK3
  6
SLD-Dashed
370
    18
100
AcDbSpline
210
0.0
220
0.0
230
1.0
 70
     8
 71
     3
 72
     8
 73
     4
 74
     0
 42
0.000000001
 43
0.00000001
 40
0.4687499999999934
 40
0.4687499999999934
 40
0.4687499999999934
 40
0.4687499999999934
 40
0.4843749999999933
 40
0.4843749999999933
 40
0.4843749999999933
 40
0.4843749999999933
 10
48.5456356271949
 20
4.678798610834659
 30
0.0
 10
48.57671159305203
 20
4.706001284747393
 30
0.0
 10
48.60068410024567
 20
4.727054702904327
 30
0.0
 10
48.61658881981808
 20
4.741032339420665
 30
0.0
  0
SPLINE
  5
24B
330
1F
100
AcDbEntity
  8
SK3
  6
SLD-Dashed
370
    18
100
AcDbSpline
210
0.0
220
0.0
230
1.0
 70
     8
 71
     3
 72
     8
 73
     4
 74
     0
 42
0.000000001
 43
0.00000001
 40
0.4843749999999933
 40
0.4843749999999933
 40
0.4843749999999933
 40
0.4843749999999933
 40
0.4999999999999931
 40
0.4999999999999931
 40
0.4999999999999931
 40
0.4999999999999931
 10
48.61658881981808
 20
4.741032339420665
 30
0.0
 10
48.63249353939043
 20
4.755009975937016
 30
0.0
 10
48.64063188558783
 20
4.762176059526044
 30
0.0
 10
48.6409878261772
 20
4.762489287039429
 30
0.0
  0
SPLINE
  5
24C
330
1F
100
AcDbEntity
  8
SK3
  6
SLD-Dashed
370
    18
100
AcDbSpline
210
0.0
220
0.0
230
1.0
 70
     8
 71
     3
 72
     8
 73
     4
 74
     0
 42
0.000000001
 43
0.00000001
 40
0.4999999999999931
 40
0.4999999999999931
 40
0.4999999999999931
 40
0.4999999999999931
 40
0.5312499999999928
 40
0.5312499999999928
 40
0.5312499999999928
 40
0.5312499999999928
 10
48.6409878261772
 20
4.762489287039429
 30
0.0
 10
48.64169970735598
 20
4.763115742066199
 30
0.0
 10
48.6100534964813
 20
4.735199252748276
 30
0.0
 10
48.54941109481179
 20
4.682103861969114
 30
0.0
  0
SPLINE
  5
24D
330
1F
100
AcDbEntity
  8
SK3
  6
SLD-Dashed
370
    18
100
AcDbSpline
210
0.0
220
0.0
230
1.0
 70
     8
 71
     3
 72
     8
 73
     4
 74
     0
 42
0.000000001
 43
0.00000001
 40
0.5312499999999928
 40
0.5312499999999928
 40
0.5312499999999928
 40
0.5312499999999928
 40
0.5624999999999926
 40
0.5624999999999926
 40
0.5624999999999926
 40
0.5624999999999926
 10
48.54941109481179
 20
4.682103861969114
 30
0.0
 10
48.4887686931423
 20
4.629008471189938
 30
0.0
 10
48.39831962486905
 20
4.550036632950297
 30
0.0
 10
48.28491309213397
 20
4.452357091948092
 30
0.0
  0
SPLINE
  5
24E
330
1F
100
AcDbEntity
  8
SK3
  6
SLD-Dashed
370
    18
100
AcDbSpline
210
0.0
220
0.0
230
1.0
 70
     8
 71
     3
 72
     8
 73
     4
 74
     0
 42
0.000000001
 43
0.00000001
 40
0.5624999999999926
 40
0.5624999999999926
 40
0.5624999999999926
 40
0.5624999999999926
 40
0.5937499999999923
 40
0.5937499999999923
 40
0.5937499999999923
 40
0.5937499999999923
 10
48.28491309213397
 20
4.452357091948092
 30
0.0
 10
48.17150655939882
 20
4.354677550945859
 30
0.0
 10
48.03593617141107
 20
4.238936989937311
 30
0.0
 10
47.88096300848012
 20
4.109553797623164
 30
0.0
  0
SPLINE
  5
24F
330
1F
100
AcDbEntity
  8
SK3
  6
SLD-Dashed
370
    18
100
AcDbSpline
210
0.0
220
0.0
230
1.0
 70
     8
 71
     3
 72
     8
 73
     4
 74
     0
 42
0.000000001
 43
0.00000001
 40
0.5937499999999923
 40
0.5937499999999923
 40
0.5937499999999923
 40
0.5937499999999923
 40
0.6249999999999921
 40
0.6249999999999921
 40
0.6249999999999921
 40
0.6249999999999921
 10
47.88096300848012
 20
4.109553797623164
 30
0.0
 10
47.72598984554919
 20
3.980170605309016
 30
0.0
 10
47.5558985524248
 20
3.840681439463214
 30
0.0
 10
47.37183033966054
 20
3.695134339068165
 30
0.0
  0
SPLINE
  5
250
330
1F
100
AcDbEntity
  8
SK3
  6
SLD-Dashed
370
    18
100
AcDbSpline
210
0.0
220
0.0
230
1.0
 70
     8
 71
     3
 72
     8
 73
     4
 74
     0
 42
0.000000001
 43
0.00000001
 40
0.6249999999999921
 40
0.6249999999999921
 40
0.6249999999999921
 40
0.6249999999999921
 40
0.656249999999992
 40
0.656249999999992
 40
0.656249999999992
 40
0.656249999999992
 10
47.37183033966054
 20
3.695134339068165
 30
0.0
 10
47.18776212689631
 20
3.549587238673102
 30
0.0
 10
46.98892538717038
 20
3.397205389082267
 30
0.0
 10
46.77588012559549
 20
3.244478942548396
 30
0.0
  0
SPLINE
  5
251
330
1F
100
AcDbEntity
  8
SK3
  6
SLD-Dashed
370
    18
100
AcDbSpline
210
0.0
220
0.0
230
1.0
 70
     8
 71
     3
 72
     8
 73
     4
 74
     0
 42
0.000000001
 43
0.00000001
 40
0.656249999999992
 40
0.656249999999992
 40
0.656249999999992
 40
0.656249999999992
 40
0.6874999999999918
 40
0.6874999999999918
 40
0.6874999999999918
 40
0.6874999999999918
 10
46.77588012559549
 20
3.244478942548396
 30
0.0
 10
46.56283486402053
 20
3.09175249601451
 30
0.0
 10
46.33938050653834
 20
2.941037029497565
 30
0.0
 10
46.10127587384301
 20
2.800649435673069
 30
0.0
  0
SPLINE
  5
252
330
1F
100
AcDbEntity
  8
SK3
  6
SLD-Dashed
370
    18
100
AcDbSpline
210
0.0
220
0.0
230
1.0
 70
     8
 71
     3
 72
     8
 73
     4
 74
     0
 42
0.000000001
 43
0.00000001
 40
0.6874999999999918
 40
0.6874999999999918
 40
0.6874999999999918
 40
0.6874999999999918
 40
0.703124999999992
 40
0.703124999999992
 40
0.703124999999992
 40
0.703124999999992
 10
46.10127587384301
 20
2.800649435673069
 30
0.0
 10
45.98222355749536
 20
2.730455638760829
 30
0.0
 10
45.85944589595898
 20
2.662914369308309
 30
0.0
 10
45.73171554850082
 20
2.599946152763308
 30
0.0
  0
SPLINE
  5
253
330
1F
100
AcDbEntity
  8
SK3
  6
SLD-Dashed
370
    18
100
AcDbSpline
210
0.0
220
0.0
230
1.0
 70
     8
 71
     3
 72
     8
 73
     4
 74
     0
 42
0.000000001
 43
0.00000001
 40
0.703124999999992
 40
0.703124999999992
 40
0.703124999999992
 40
0.703124999999992
 40
0.7187499999999921
 40
0.7187499999999921
 40
0.7187499999999921
 40
0.7187499999999921
 10
45.73171554850082
 20
2.599946152763308
 30
0.0
 10
45.60398520104268
 20
2.536977936218307
 30
0.0
 10
45.47024354024447
 20
2.478156719665461
 30
0.0
 10
45.33211361506155
 20
2.427972339191065
 30
0.0
  0
SPLINE
  5
254
330
1F
100
AcDbEntity
  8
SK3
  6
SLD-Dashed
370
    18
100
AcDbSpline
210
0.0
220
0.0
230
1.0
 70
     8
 71
     3
 72
     8
 73
     4
 74
     0
 42
0.000000001
 43
0.00000001
 40
0.7187499999999921
 40
0.7187499999999921
 40
0.7187499999999921
 40
0.7187499999999921
 40
0.7343749999999923
 40
0.7343749999999923
 40
0.7343749999999923
 40
0.7343749999999923
 10
45.33211361506155
 20
2.427972339191065
 30
0.0
 10
45.19398368987866
 20
2.377787958716668
 30
0.0
 10
45.05258026609434
 20
2.336589061858907
 30
0.0
 10
44.90693903303914
 20
2.307751834559918
 30
0.0
  0
SPLINE
  5
255
330
1F
100
AcDbEntity
  8
SK3
  6
SLD-Dashed
370
    18
100
AcDbSpline
210
0.0
220
0.0
230
1.0
 70
     8
 71
     3
 72
     8
 73
     4
 74
     0
 42
0.000000001
 43
0.00000001
 40
0.7343749999999923
 40
0.7343749999999923
 40
0.7343749999999923
 40
0.7343749999999923
 40
0.7499999999999925
 40
0.7499999999999925
 40
0.7499999999999925
 40
0.7499999999999925
 10
44.90693903303914
 20
2.307751834559918
 30
0.0
 10
44.76129779998396
 20
2.278914607260929
 30
0.0
 10
44.60991832310619
 20
2.262822498803413
 30
0.0
 10
44.46114333833563
 20
2.262089614491258
 30
0.0
  0
SPLINE
  5
256
330
1F
100
AcDbEntity
  8
SK3
  6
SLD-Dashed
370
    18
100
AcDbSpline
210
0.0
220
0.0
230
1.0
 70
     8
 71
     3
 72
     8
 73
     4
 74
     0
 42
0.000000001
 43
0.00000001
 40
0.7499999999999925
 40
0.7499999999999925
 40
0.7499999999999925
 40
0.7499999999999925
 40
0.7656249999999927
 40
0.7656249999999927
 40
0.7656249999999927
 40
0.7656249999999927
 10
44.46114333833563
 20
2.262089614491258
 30
0.0
 10
44.31236835356501
 20
2.26135673017909
 30
0.0
 10
44.16472926056313
 20
2.275427657613266
 30
0.0
 10
44.01813684843632
 20
2.302917938546325
 30
0.0
  0
SPLINE
  5
257
330
1F
100
AcDbEntity
  8
SK3
  6
SLD-Dashed
370
    18
100
AcDbSpline
210
0.0
220
0.0
230
1.0
 70
     8
 71
     3
 72
     8
 73
     4
 74
     0
 42
0.000000001
 43
0.00000001
 40
0.7656249999999927
 40
0.7656249999999927
 40
0.7656249999999927
 40
0.7656249999999927
 40
0.7812499999999929
 40
0.7812499999999929
 40
0.7812499999999929
 40
0.7812499999999929
 10
44.01813684843632
 20
2.302917938546325
 30
0.0
 10
43.87154443630948
 20
2.330408219479371
 30
0.0
 10
43.72790227611244
 20
2.371039899115412
 30
0.0
 10
43.59040409314225
 20
2.419882305626966
 30
0.0
  0
SPLINE
  5
258
330
1F
100
AcDbEntity
  8
SK3
  6
SLD-Dashed
370
    18
100
AcDbSpline
210
0.0
220
0.0
230
1.0
 70
     8
 71
     3
 72
     8
 73
     4
 74
     0
 42
0.000000001
 43
0.00000001
 40
0.7812499999999929
 40
0.7812499999999929
 40
0.7812499999999929
 40
0.7812499999999929
 40
0.8124999999999939
 40
0.8124999999999939
 40
0.8124999999999939
 40
0.8124999999999939
 10
43.59040409314225
 20
2.419882305626966
 30
0.0
 10
43.31540772720189
 20
2.517567118650074
 30
0.0
 10
43.05634055626882
 20
2.649717807154548
 30
0.0
 10
42.81516850474597
 20
2.790985357875309
 30
0.0
  0
SPLINE
  5
259
330
1F
100
AcDbEntity
  8
SK3
  6
SLD-Dashed
370
    18
100
AcDbSpline
210
0.0
220
0.0
230
1.0
 70
     8
 71
     3
 72
     8
 73
     4
 74
     0
 42
0.000000001
 43
0.00000001
 40
0.8124999999999939
 40
0.8124999999999939
 40
0.8124999999999939
 40
0.8124999999999939
 40
0.8437499999999949
 40
0.8437499999999949
 40
0.8437499999999949
 40
0.8437499999999949
 10
42.81516850474597
 20
2.790985357875309
 30
0.0
 10
42.57399645322312
 20
2.932252908596084
 30
0.0
 10
42.34977209361345
 20
3.083146698699454
 30
0.0
 10
42.13721725309676
 20
3.235102669834955
 30
0.0
  0
SPLINE
  5
25A
330
1F
100
AcDbEntity
  8
SK3
  6
SLD-Dashed
370
    18
100
AcDbSpline
210
0.0
220
0.0
230
1.0
 70
     8
 71
     3
 72
     8
 73
     4
 74
     0
 42
0.000000001
 43
0.00000001
 40
0.8437499999999949
 40
0.8437499999999949
 40
0.8437499999999949
 40
0.8437499999999949
 40
0.874999999999996
 40
0.874999999999996
 40
0.874999999999996
 40
0.874999999999996
 10
42.13721725309676
 20
3.235102669834955
 30
0.0
 10
41.92466241258004
 20
3.387058640970442
 30
0.0
 10
41.72262045478676
 20
3.541552145539057
 30
0.0
 10
41.53721095955935
 20
3.687989322667701
 30
0.0
  0
SPLINE
  5
25B
330
1F
100
AcDbEntity
  8
SK3
  6
SLD-Dashed
370
    18
100
AcDbSpline
210
0.0
220
0.0
230
1.0
 70
     8
 71
     3
 72
     8
 73
     4
 74
     0
 42
0.000000001
 43
0.00000001
 40
0.874999999999996
 40
0.874999999999996
 40
0.874999999999996
 40
0.874999999999996
 40
0.906249999999997
 40
0.906249999999997
 40
0.906249999999997
 40
0.906249999999997
 10
41.53721095955935
 20
3.687989322667701
 30
0.0
 10
41.35180146433194
 20
3.834426499796345
 30
0.0
 10
41.18184718617861
 20
3.973731932099628
 30
0.0
 10
41.02794370654163
 20
4.102120735131748
 30
0.0
  0
SPLINE
  5
25C
330
1F
100
AcDbEntity
  8
SK3
  6
SLD-Dashed
370
    18
100
AcDbSpline
210
0.0
220
0.0
230
1.0
 70
     8
 71
     3
 72
     8
 73
     4
 74
     0
 42
0.000000001
 43
0.00000001
 40
0.906249999999997
 40
0.906249999999997
 40
0.906249999999997
 40
0.906249999999997
 40
0.937499999999998
 40
0.937499999999998
 40
0.937499999999998
 40
0.937499999999998
 10
41.02794370654163
 20
4.102120735131748
 30
0.0
 10
40.87404022690465
 20
4.230509538163882
 30
0.0
 10
40.73494440838879
 20
4.349160215316824
 30
0.0
 10
40.62083140794689
 20
4.447410185306255
 30
0.0
  0
SPLINE
  5
25D
330
1F
100
AcDbEntity
  8
SK3
  6
SLD-Dashed
370
    18
100
AcDbSpline
210
0.0
220
0.0
230
1.0
 70
     8
 71
     3
 72
     8
 73
     4
 74
     0
 42
0.000000001
 43
0.00000001
 40
0.937499999999998
 40
0.937499999999998
 40
0.937499999999998
 40
0.937499999999998
 40
0.9687499999999991
 40
0.9687499999999991
 40
0.9687499999999991
 40
0.9687499999999991
 10
40.62083140794689
 20
4.447410185306255
 30
0.0
 10
40.506718407505
 20
4.545660155295672
 30
0.0
 10
40.41573627170268
 20
4.625073168737615
 30
0.0
 10
40.35342410146457
 20
4.679621709333059
 30
0.0
  0
SPLINE
  5
25E
330
1F
100
AcDbEntity
  8
SK3
  6
SLD-Dashed
370
    18
100
AcDbSpline
210
0.0
220
0.0
230
1.0
 70
     8
 71
     2
 72
     6
 73
     3
 74
     0
 42
0.000000001
 43
0.00000001
 40
0.9687499999999991
 40
0.9687499999999991
 40
0.9687499999999991
 40
1.0
 40
1.0
 40
1.0
 10
40.35342410146457
 20
4.679621709333059
 30
0.0
 10
40.29111193122647
 20
4.73417024992849
 30
0.0
 10
40.259
 20
4.762499999999989
 30
0.0
  0
SPLINE
  5
25F
330
1F
100
AcDbEntity
  8
SK3
  6
SLD-Dashed
370
    18
100
AcDbSpline
210
0.0
220
0.0
230
1.0
 70
     8
 71
     3
 72
    38
 73
    34
 74
     0
 42
0.000000001
 43
0.00000001
 40
0.499999999999998
 40
0.499999999999998
 40
0.499999999999998
 40
0.499999999999998
 40
0.5312499999999979
 40
0.5312499999999979
 40
0.5624999999999978
 40
0.5624999999999978
 40
0.5937499999999978
 40
0.5937499999999978
 40
0.6249999999999977
 40
0.6249999999999977
 40
0.6562499999999977
 40
0.6562499999999977
 40
0.6874999999999976
 40
0.6874999999999976
 40
0.7187499999999976
 40
0.7187499999999976
 40
0.7499999999999974
 40
0.7499999999999974
 40
0.8124999999999982
 40
0.8124999999999982
 40
0.8437499999999984
 40
0.8437499999999984
 40
0.8749999999999988
 40
0.8749999999999988
 40
0.906249999999999
 40
0.906249999999999
 40
0.9374999999999993
 40
0.9374999999999993
 40
0.9687499999999996
 40
0.9687499999999996
 40
0.9843749999999998
 40
0.9843749999999998
 40
1.0
 40
1.0
 40
1.0
 40
1.0
 10
9.547165917302147
 20
6.130078845462003
 30
0.0
 10
9.59166960882872
 20
6.01762212406462
 30
0.0
 10
9.6519122103369
 20
5.910039381771343
 30
0.0
 10
9.796812632231477
 20
5.715206444890278
 30
0.0
 10
9.882567425050448
 20
5.625950668749144
 30
0.0
 10
10.07707138823528
 20
5.46583513556137
 30
0.0
 10
10.18346038260025
 20
5.396630723958365
 30
0.0
 10
10.41491716747871
 20
5.273967848329591
 30
0.0
 10
10.54009168137381
 20
5.221079864175512
 30
0.0
 10
10.78642802631473
 20
5.131319199450729
 30
0.0
 10
10.90588750473028
 20
5.094347448465319
 30
0.0
 10
11.12471660654359
 20
5.030993621355173
 30
0.0
 10
11.22226506040225
 20
5.005212811238502
 30
0.0
 10
11.40290338683521
 20
4.961304046026238
 30
0.0
 10
11.48653843453271
 20
4.943230320262129
 30
0.0
 10
11.64292087602177
 20
4.91495840651697
 30
0.0
 10
11.71620965691778
 20
4.904637420561187
 30
0.0
 10
11.92719226675067
 20
4.885740181441764
 30
0.0
 10
12.05703185085182
 20
4.888799294419003
 30
0.0
 10
12.23947266366206
 20
4.928553216744833
 30
0.0
 10
12.29788111599016
 20
4.947672533286193
 30
0.0
 10
12.40978986086719
 20
5.00169134685663
 30
0.0
 10
12.46364510461581
 20
5.036838190440915
 30
0.0
 10
12.56271343290429
 20
5.12873739330609
 30
0.0
 10
12.60843468736296
 20
5.18558411364542
 30
0.0
 10
12.68612312343485
 20
5.33278642989507
 30
0.0
 10
12.7175049221496
 20
5.42323308451316
 30
0.0
 10
12.75225985948268
 20
5.640299190695294
 30
0.0
 10
12.75463724396988
 20
5.767683503121013
 30
0.0
 10
12.73422628849653
 20
5.964115740422257
 30
0.0
 10
12.72357436485565
 20
6.03079986275444
 30
0.0
 10
12.69687670664381
 20
6.160247296436619
 30
0.0
 10
12.68086259956382
 20
6.223527817320329
 30
0.0
 10
12.66230763443388
 20
6.286790301132342
 30
0.0
  0
SPLINE
  5
260
330
1F
100
AcDbEntity
  8
SK3
  6
SLD-Dashed
370
    18
100
AcDbSpline
210
0.0
220
0.0
230
1.0
 70
     8
 71
     3
 72
    32
 73
    28
 74
     0
 42
0.000000001
 43
0.00000001
 40
0.0
 40
0.0
 40
0.0
 40
0.0
 40
0.0312499999999997
 40
0.0312499999999997
 40
0.0624999999999995
 40
0.0624999999999995
 40
0.1249999999999989
 40
0.1249999999999989
 40
0.1874999999999984
 40
0.1874999999999984
 40
0.2187499999999984
 40
0.2187499999999984
 40
0.2499999999999984
 40
0.2499999999999984
 40
0.2812499999999984
 40
0.2812499999999984
 40
0.3124999999999984
 40
0.3124999999999984
 40
0.3437499999999984
 40
0.3437499999999984
 40
0.3749999999999984
 40
0.3749999999999984
 40
0.4374999999999982
 40
0.4374999999999982
 40
0.4687499999999981
 40
0.4687499999999981
 40
0.499999999999998
 40
0.499999999999998
 40
0.499999999999998
 40
0.499999999999998
 10
12.66230763443388
 20
6.286790301132342
 30
0.0
 10
12.625197704174
 20
6.413315268756367
 30
0.0
 10
12.58120302127298
 20
6.529338209342137
 30
0.0
 10
12.48471880657839
 20
6.749261649681134
 30
0.0
 10
12.43165882244551
 20
6.853656412382156
 30
0.0
 10
12.26556941339614
 20
7.14682156782774
 30
0.0
 10
12.14616169070409
 20
7.317061421523468
 30
0.0
 10
11.8880894599053
 20
7.625840216913621
 30
0.0
 10
11.7498571862288
 20
7.763778523701692
 30
0.0
 10
11.51944141192589
 20
7.93957223353467
 30
0.0
 10
11.43848400885548
 20
7.993145929764537
 30
0.0
 10
11.26094996715928
 20
8.086113501836023
 30
0.0
 10
11.1654181803697
 20
8.1250258160986
 30
0.0
 10
10.9530284447129
 20
8.17525122935317
 30
0.0
 10
10.83703519791095
 20
8.185597853152496
 30
0.0
 10
10.5913368132058
 20
8.16048777400101
 30
0.0
 10
10.46687270231074
 20
8.125321374609404
 30
0.0
 10
10.22897755356156
 20
8.015351517179331
 30
0.0
 10
10.119593844491
 20
7.94337461166493
 30
0.0
 10
9.919042005980996
 20
7.77195898146249
 30
0.0
 10
9.83002701568067
 20
7.673959535020855
 30
0.0
 10
9.601531880722963
 20
7.354720962768361
 30
0.0
 10
9.501243573240782
 20
7.107453544913906
 30
0.0
 10
9.447270080515297
 20
6.732043004033517
 30
0.0
 10
9.445111331805894
 20
6.607943683149972
 30
0.0
 10
9.472789440891708
 20
6.361880396588831
 30
0.0
 10
9.502662225775573
 20
6.242535566859386
 30
0.0
 10
9.547165917302147
 20
6.130078845462003
 30
0.0
  0
SPLINE
  5
261
330
1F
100
AcDbEntity
  8
1
  6
SLD-Dashed
370
    18
100
AcDbSpline
210
0.0
220
0.0
230
1.0
 70
    24
 71
     3
 72
     8
 73
     4
 74
     0
 42
0.000000001
 43
0.00000001
 40
0.0
 40
0.0
 40
0.0
 40
0.0
 40
0.5000000000000013
 40
0.5000000000000013
 40
0.5000000000000013
 40
0.5000000000000013
 10
3.199999999999981
 20
-22.41000000000004
 30
0.0
 10
3.277521727773361
 20
-22.41000000000003
 30
0.0
 10
3.353381647940884
 20
-22.41000000000001
 30
0.0
 10
3.41961260600801
 20
-22.41
 30
0.0
  0
SPLINE
  5
262
330
1F
100
AcDbEntity
  8
1
  6
SLD-Dashed
370
    18
100
AcDbSpline
210
0.0
220
0.0
230
1.0
 70
    24
 71
     3
 72
     8
 73
     4
 74
     0
 42
0.000000001
 43
0.00000001
 40
0.5000000000000013
 40
0.5000000000000013
 40
0.5000000000000013
 40
0.5000000000000013
 40
0.7500000000000007
 40
0.7500000000000007
 40
0.7500000000000007
 40
0.7500000000000007
 10
3.419612606008024
 20
-22.41
 30
0.0
 10
3.452728085041587
 20
-22.41
 30
0.0
 10
3.4833013616586
 20
-22.41000000000001
 30
0.0
 10
3.50657807711098
 20
-22.41
 30
0.0
  0
SPLINE
  5
263
330
1F
100
AcDbEntity
  8
1
  6
SLD-Dashed
370
    18
100
AcDbSpline
210
0.0
220
0.0
230
1.0
 70
    24
 71
     2
 72
     6
 73
     3
 74
     0
 42
0.000000001
 43
0.00000001
 40
0.7500000000000007
 40
0.7500000000000007
 40
0.7500000000000007
 40
1.0
 40
1.0
 40
1.0
 10
3.50657807711098
 20
-22.41
 30
0.0
 10
3.529854792563361
 20
-22.41
 30
0.0
 10
3.545388844998082
 20
-22.41
 30
0.0
  0
SPLINE
  5
264
330
1F
100
AcDbEntity
  8
SK3
  6
SLD-Dashed
370
    18
100
AcDbSpline
210
0.0
220
0.0
230
1.0
 70
    24
 71
     2
 72
     6
 73
     3
 74
     0
 42
0.000000001
 43
0.00000001
 40
0.0
 40
0.0
 40
0.0
 40
0.2500000000000016
 40
0.2500000000000016
 40
0.2500000000000016
 10
18.70470837592286
 20
-22.41
 30
0.0
 10
18.72021848143061
 20
-22.41
 30
0.0
 10
18.74373564595137
 20
-22.41
 30
0.0
  0
SPLINE
  5
265
330
1F
100
AcDbEntity
  8
SK3
  6
SLD-Dashed
370
    18
100
AcDbSpline
210
0.0
220
0.0
230
1.0
 70
    24
 71
     3
 72
     8
 73
     4
 74
     0
 42
0.000000001
 43
0.00000001
 40
0.2500000000000016
 40
0.2500000000000016
 40
0.2500000000000016
 40
0.2500000000000016
 40
0.5000000000000032
 40
0.5000000000000032
 40
0.5000000000000032
 40
0.5000000000000032
 10
18.74373564595137
 20
-22.41
 30
0.0
 10
18.76725281047212
 20
-22.41
 30
0.0
 10
18.79767648998924
 20
-22.41
 30
0.0
 10
18.83062851957902
 20
-22.41
 30
0.0
  0
SPLINE
  5
266
330
1F
100
AcDbEntity
  8
SK3
  6
SLD-Dashed
370
    18
100
AcDbSpline
210
0.0
220
0.0
230
1.0
 70
    24
 71
     3
 72
     8
 73
     4
 74
     0
 42
0.000000001
 43
0.00000001
 40
0.5000000000000032
 40
0.5000000000000032
 40
0.5000000000000032
 40
0.5000000000000032
 40
1.0
 40
1.0
 40
1.0
 40
1.0
 10
18.83062851957902
 20
-22.41
 30
0.0
 10
18.89653257875859
 20
-22.41
 30
0.0
 10
18.97251643454
 20
-22.41
 30
0.0
 10
19.05
 20
-22.41
 30
0.0
  0
SPLINE
  5
267
330
1F
100
AcDbEntity
  8
SK3
  6
SLD-Dashed
370
    18
100
AcDbSpline
210
0.0
220
0.0
230
1.0
 70
     8
 71
     3
 72
    10
 73
     6
 74
     0
 42
0.000000001
 43
0.00000001
 40
0.0
 40
0.0
 40
0.0
 40
0.0
 40
0.5
 40
0.5
 40
1.0
 40
1.0
 40
1.0
 40
1.0
 10
18.55000000000003
 20
25.20500000000004
 30
0.0
 10
18.55000000000002
 20
25.27446188700639
 30
0.0
 10
18.57033165532696
 20
25.34157876899189
 30
0.0
 10
18.62822537360674
 20
25.46534569655894
 30
0.0
 10
18.66502717471818
 20
25.52292618711533
 30
0.0
 10
18.70461115500191
 20
25.57898258716478
 30
0.0
  0
SPLINE
  5
268
330
1F
100
AcDbEntity
  8
SK3
  6
SLD-Dashed
370
    18
100
AcDbSpline
210
0.0
220
0.0
230
1.0
 70
     8
 71
     3
 72
    10
 73
     6
 74
     0
 42
0.000000001
 43
0.00000001
 40
0.0
 40
0.0
 40
0.0
 40
0.0
 40
0.5
 40
0.5
 40
1.0
 40
1.0
 40
1.0
 40
1.0
 10
3.545291624077126
 20
25.57912025275683
 30
0.0
 10
3.584856617866711
 20
25.52310107590331
 30
0.0
 10
3.62157088750027
 20
25.46562249807945
 30
0.0
 10
3.679260425533583
 20
25.34260791126145
 30
0.0
 10
3.699999999999966
 20
25.27482658978053
 30
0.0
 10
3.699999999999967
 20
25.20500000000003
 30
0.0
  0
SPLINE
  5
269
330
1F
100
AcDbEntity
  8
SK3
  6
SLD-Dashed
370
    18
100
AcDbSpline
210
0.0
220
0.0
230
1.0
 70
     8
 71
     3
 72
    40
 73
    36
 74
     0
 42
0.000000001
 43
0.00000001
 40
0.0
 40
0.0
 40
0.0
 40
0.0
 40
0.0314214559572178
 40
0.0627294389672004
 40
0.0877405066521895
 40
0.1252752326697184
 40
0.1539551384600108
 40
0.1970430837597873
 40
0.2184753360378477
 40
0.2505176110611737
 40
0.2789492345937391
 40
0.3216198597594042
 40
0.3430128235413673
 40
0.3752634384750793
 40
0.4040010771804458
 40
0.4468656794915723
 40
0.468215945936246
 40
0.5002096454814972
 40
0.528675413734447
 40
0.5715400247765458
 40
0.5931009716299191
 40
0.6253883780511656
 40
0.6539191343952843
 40
0.6965914244566831
 40
0.7179237821488444
 40
0.7499746494270431
 40
0.7785976316863417
 40
0.7958543398127828
 40
0.8217160693566459
 40
0.8431552865480468
 40
0.8751886732441888
 40
0.9000580147531506
 40
0.9373794059838182
 40
0.9685930788650364
 40
1.0
 40
1.0
 40
1.0
 40
1.0
 10
3.545388844996958
 20
-29.80485527420155
 30
0.0
 10
3.545480197135381
 20
-29.81164440520861
 30
0.0
 10
3.545662571510358
 20
-29.82519814949493
 30
0.0
 10
3.547032714046883
 20
-29.84411564286314
 30
0.0
 10
3.549278621227503
 20
-29.86427043795787
 30
0.0
 10
3.552383815069199
 20
-29.88374590039669
 30
0.0
 10
3.557241214189599
 20
-29.90686111791881
 30
0.0
 10
3.562435988465507
 20
-29.92633239392607
 30
0.0
 10
3.568780339238797
 20
-29.94620899181591
 30
0.0
 10
3.574836423905214
 20
-29.96284451017946
 30
0.0
 10
3.583406089825311
 20
-29.98342104192836
 30
0.0
 10
3.592077830421023
 20
-30.00144320563148
 30
0.0
 10
3.602002400646259
 20
-30.01973532130883
 30
0.0
 10
3.611129444211963
 20
-30.03502499592773
 30
0.0
 10
3.623520615641654
 20
-30.05373739733252
 30
0.0
 10
3.635525817110158
 20
-30.06985792745886
 30
0.0
 10
3.64875794367768
 20
-30.0858911340006
 30
0.0
 10
3.660571393172052
 20
-30.09904955418673
 30
0.0
 10
3.67625956808447
 20
-30.11493869793387
 30
0.0
 10
3.691152319419452
 20
-30.12841850148093
 30
0.0
 10
3.70734573838434
 20
-30.14162746303266
 30
0.0
 10
3.72161199707087
 20
-30.1522839988639
 30
0.0
 10
3.740164285063643
 20
-30.16477481501947
 30
0.0
 10
3.757375549684042
 20
-30.17498291258004
 30
0.0
 10
3.775753926809039
 20
-30.18462804605822
 30
0.0
 10
3.791792461294116
 20
-30.19217667946794
 30
0.0
 10
3.807369256512011
 20
-30.19858412923171
 30
0.0
 10
3.821916756260077
 20
-30.20393768674577
 30
0.0
 10
3.835173350441937
 20
-30.20828861199454
 30
0.0
 10
3.851657250142984
 20
-30.21299666641907
 30
0.0
 10
3.868130598975145
 20
-30.21692139734515
 30
0.0
 10
3.888137813528661
 20
-30.22070805124265
 30
0.0
 10
3.908147752578861
 20
-30.22341140281244
 30
0.0
 10
3.929683046762764
 20
-30.22516290854707
 30
0.0
 10
3.943213763576869
 20
-30.22536701808866
 30
0.0
 10
3.949999999998871
 20
-30.22546938780228
 30
0.0
  0
SPLINE
  5
26A
330
1F
100
AcDbEntity
  8
1
  6
SLD-Dashed
370
    18
100
AcDbSpline
210
0.0
220
0.0
230
1.0
 70
     8
 71
     3
 72
     8
 73
     4
 74
     0
 42
0.000000001
 43
0.00000001
 40
0.0
 40
0.0
 40
0.0
 40
0.0
 40
1.0
 40
1.0
 40
1.0
 40
1.0
 10
14.37601294652262
 20
-30.22558142012643
 30
0.0
 10
13.92634047615435
 20
-29.41927694377227
 30
0.0
 10
13.47758735871729
 20
-28.61247603335391
 30
0.0
 10
13.03
 20
-27.8050456341729
 30
0.0
  0
SPLINE
  5
26B
330
1F
100
AcDbEntity
  8
1
  6
SLD-Dashed
370
    18
100
AcDbSpline
210
0.0
220
0.0
230
1.0
 70
     8
 71
     3
 72
    10
 73
     6
 74
     0
 42
0.000000001
 43
0.00000001
 40
0.0
 40
0.0
 40
0.0
 40
0.0
 40
0.5
 40
0.5
 40
1.0
 40
1.0
 40
1.0
 40
1.0
 10
13.03000000000003
 20
-27.76916635406972
 30
0.0
 10
13.03000000000003
 20
-27.56948960726649
 30
0.0
 10
12.9530257332551
 20
-27.36838646497956
 30
0.0
 10
12.67905057581468
 20
-27.07630005005161
 30
0.0
 10
12.48172757240074
 20
-26.98706356756882
 30
0.0
 10
12.28
 20
-26.98706356756882
 30
0.0
  0
SPLINE
  5
26C
330
1F
100
AcDbEntity
  8
1
  6
SLD-Dashed
370
    18
100
AcDbSpline
210
0.0
220
0.0
230
1.0
 70
     8
 71
     3
 72
    10
 73
     6
 74
     0
 42
0.000000001
 43
0.00000001
 40
0.0
 40
0.0
 40
0.0
 40
0.0
 40
0.5
 40
0.5
 40
1.0
 40
1.0
 40
1.0
 40
1.0
 10
9.950000000000639
 20
-26.98706356756944
 30
0.0
 10
9.748441495091534
 20
-26.98706356756928
 30
0.0
 10
9.550692481024248
 20
-27.07656444408194
 30
0.0
 10
9.277196882747168
 20
-27.36815866851929
 30
0.0
 10
9.200000000000152
 20
-27.56927498425101
 30
0.0
 10
9.199999999999985
 20
-27.76916635406976
 30
0.0
  0
SPLINE
  5
26D
330
1F
100
AcDbEntity
  8
1
  6
SLD-Dashed
370
    18
100
AcDbSpline
210
0.0
220
0.0
230
1.0
 70
     8
 71
     3
 72
     8
 73
     4
 74
     0
 42
0.000000001
 43
0.00000001
 40
0.0
 40
0.0
 40
0.0
 40
0.0
 40
1.0
 40
1.0
 40
1.0
 40
1.0
 10
9.199999999998848
 20
-27.80504563417607
 30
0.0
 10
8.75243337135459
 20
-28.61243863710176
 30
0.0
 10
8.303701091401368
 20
-29.41920220926471
 30
0.0
 10
7.854049533406113
 20
-30.22546938780228
 30
0.0
  0
SPLINE
  5
26E
330
1F
100
AcDbEntity
  8
SK3
  6
SLD-Dashed
370
    18
100
AcDbSpline
210
0.0
220
0.0
230
1.0
 70
     8
 71
     3
 72
    40
 73
    36
 74
     0
 42
0.000000001
 43
0.00000001
 40
0.0
 40
0.0
 40
0.0
 40
0.0
 40
0.0126129321449749
 40
0.0314976481339587
 40
0.0629183966702574
 40
0.0880663439714092
 40
0.1258663548219046
 40
0.1545361786951767
 40
0.1972635113751502
 40
0.2185774264758776
 40
0.250549973449914
 40
0.2790323571745715
 40
0.3220275475257097
 40
0.3436168159336435
 40
0.3758133620275704
 40
0.4042898095068478
 40
0.4468993710431288
 40
0.4682109723921613
 40
0.5002437124696372
 40
0.528853388731771
 40
0.5719828275869605
 40
0.593442063717947
 40
0.6254916984483689
 40
0.6539107272569482
 40
0.6965262692674938
 40
0.7178823906336926
 40
0.7500313093276828
 40
0.7787800102949213
 40
0.8217645159397994
 40
0.8431483194632984
 40
0.8751517844153632
 40
0.9000181010942335
 40
0.937358773167723
 40
0.9685909586685477
 40
1.0
 40
1.0
 40
1.0
 40
1.0
 10
18.30000000000001
 20
-30.22558142012643
 30
0.0
 10
18.30272569594448
 20
-30.22556434752625
 30
0.0
 10
18.30953244086249
 20
-30.22552171297095
 30
0.0
 10
18.32312192068606
 20
-30.22500449703673
 30
0.0
 10
18.33938544977022
 20
-30.22373214657609
 30
0.0
 10
18.35962263823534
 20
-30.22117483723599
 30
0.0
 10
18.37912342814686
 20
-30.21766990056754
 30
0.0
 10
18.4020905973581
 20
-30.21222207486888
 30
0.0
 10
18.42129623800885
 20
-30.20644931168886
 30
0.0
 10
18.44082755863402
 20
-30.19943885792771
 30
0.0
 10
18.45718998570673
 20
-30.1927429025215
 30
0.0
 10
18.4774432124387
 20
-30.18326307338969
 30
0.0
 10
18.49514777026507
 20
-30.17368149208101
 30
0.0
 10
18.51299887024297
 20
-30.16277896347598
 30
0.0
 10
18.52776206933995
 20
-30.15285978975094
 30
0.0
 10
18.54566370706713
 20
-30.13951958199503
 30
0.0
 10
18.56098911735461
 20
-30.12669241147174
 30
0.0
 10
18.57619506813987
 20
-30.11259090122094
 30
0.0
 10
18.58867147382273
 20
-30.10000934793471
 30
0.0
 10
18.6036886323606
 20
-30.0833467545574
 30
0.0
 10
18.61632529126056
 20
-30.0676414670647
 30
0.0
 10
18.62858943392445
 20
-30.05073531892071
 30
0.0
 10
18.63838877637001
 20
-30.03598007669224
 30
0.0
 10
18.64984348721728
 20
-30.01686769647318
 30
0.0
 10
18.65917024991942
 20
-29.9991957499697
 30
0.0
 10
18.66796418712434
 20
-29.98037484052356
 30
0.0
 10
18.67483422118338
 20
-29.96397246361359
 30
0.0
 10
18.68255017034246
 20
-29.94288522109558
 30
0.0
 10
18.6884419336283
 20
-29.92362739014021
 30
0.0
 10
18.69357143260816
 20
-29.90344062129118
 30
0.0
 10
18.69708101840335
 20
-29.88689085311746
 30
0.0
 10
18.70046357426516
 20
-29.86681061568804
 30
0.0
 10
18.70287526281565
 20
-29.84675343612669
 30
0.0
 10
18.70443558087197
 20
-29.82519260420407
 30
0.0
 10
18.70461727324775
 20
-29.81165457438028
 30
0.0
 10
18.70470837592294
 20
-29.80486644841621
 30
0.0
  0
SPLINE
  5
26F
330
1F
100
AcDbEntity
  8
SK3
  6
SLD-Dashed
370
    18
100
AcDbSpline
210
0.0
220
0.0
230
1.0
 70
     8
 71
     3
 72
    40
 73
    36
 74
     0
 42
0.000000001
 43
0.00000001
 40
0.0
 40
0.0
 40
0.0
 40
0.0
 40
0.0125929119920799
 40
0.0314096195346371
 40
0.0626234169499144
 40
0.0875147363747578
 40
0.1248144128307291
 40
0.1532834083387329
 40
0.1962265830891804
 40
0.2178107992109905
 40
0.2500224951329297
 40
0.2785169301551935
 40
0.3211718523043735
 40
0.3425182663517212
 40
0.3746092478105252
 40
0.4033018002026009
 40
0.4463503818994297
 40
0.4677602234265738
 40
0.4997883410590129
 40
0.5282270395863776
 40
0.5709521530205359
 40
0.592413861861735
 40
0.6247350591047609
 40
0.6534144483970886
 40
0.696168319941901
 40
0.717496931450338
 40
0.7494813527194164
 40
0.7779588669976948
 40
0.8208766717687338
 40
0.8424514691504659
 40
0.8747242821794735
 40
0.8997563983109476
 40
0.9372703102803513
 40
0.9685784185325865
 40
1.0
 40
1.0
 40
1.0
 40
1.0
 10
3.949999999999994
 20
30.22558142012638
 30
0.0
 10
3.94727863048759
 20
30.22556441746847
 30
0.0
 10
3.940490908866777
 20
30.22552200892811
 30
0.0
 10
3.926965088488719
 20
30.22500878447085
 30
0.0
 10
3.910815897791754
 20
30.22374990827881
 30
0.0
 10
3.890783626647172
 20
30.22123374888838
 30
0.0
 10
3.871482565347208
 20
30.21779055348815
 30
0.0
 10
3.848607405882317
 20
30.21241015713827
 30
0.0
 10
3.829331319368883
 20
30.2066566709893
 30
0.0
 10
3.809642218453936
 20
30.19962160064929
 30
0.0
 10
3.793167806815502
 20
30.19290122073894
 30
0.0
 10
3.772924482298169
 20
30.18344563237708
 30
0.0
 10
3.755317616591659
 20
30.17394373601331
 30
0.0
 10
3.737577171360694
 20
30.16314575471339
 30
0.0
 10
3.722818978858842
 20
30.15327064640552
 30
0.0
 10
3.704798099920052
 20
30.13989144466212
 30
0.0
 10
3.689332466278726
 20
30.12697740010818
 30
0.0
 10
3.674029699770638
 20
30.11281096127925
 30
0.0
 10
3.661557220132545
 20
30.10024903998078
 30
0.0
 10
3.646609511589653
 20
30.08369276015743
 30
0.0
 10
3.63403051437265
 20
30.06810049270646
 30
0.0
 10
3.621756928744902
 20
30.0512360070818
 30
0.0
 10
3.611872616557985
 20
30.03639837328909
 30
0.0
 10
3.600324644432396
 20
30.01717281850423
 30
0.0
 10
3.590949392450385
 20
29.99943559548712
 30
0.0
 10
3.582148995017309
 20
29.98063051707893
 30
0.0
 10
3.57530687163082
 20
29.96432508828284
 30
0.0
 10
3.567606450656871
 20
29.94334796470473
 30
0.0
 10
3.561699011690647
 20
29.92412819400954
 30
0.0
 10
3.556524840089333
 20
29.90386495846921
 30
0.0
 10
3.552972986099533
 20
29.88718562683121
 30
0.0
 10
3.549559886390229
 20
29.86697716337638
 30
0.0
 10
3.547128888650063
 20
29.84683182165025
 30
0.0
 10
3.545565946831235
 20
29.82521437831678
 30
0.0
 10
3.545383175201807
 20
29.81165726630967
 30
0.0
 10
3.545291624077125
 20
29.8048664484163
 30
0.0
  0
SPLINE
  5
270
330
1F
100
AcDbEntity
  8
1
  6
SLD-Dashed
370
    18
100
AcDbSpline
210
0.0
220
0.0
230
1.0
 70
     8
 71
     3
 72
     8
 73
     4
 74
     0
 42
0.000000001
 43
0.00000001
 40
0.0
 40
0.0
 40
0.0
 40
0.0
 40
1.0
 40
1.0
 40
1.0
 40
1.0
 10
9.199999999999973
 20
27.8050456341729
 30
0.0
 10
8.752403481898915
 20
28.61249255653032
 30
0.0
 10
8.303650620483646
 20
29.41929290832669
 30
0.0
 10
7.853987053477382
 20
30.22558142012641
 30
0.0
  0
SPLINE
  5
271
330
1F
100
AcDbEntity
  8
1
  6
SLD-Dashed
370
    18
100
AcDbSpline
210
0.0
220
0.0
230
1.0
 70
     8
 71
     3
 72
    12
 73
     8
 74
     0
 42
0.000000001
 43
0.00000001
 40
0.0
 40
0.0
 40
0.0
 40
0.0
 40
0.2499999999999984
 40
0.2499999999999984
 40
0.4999999999999969
 40
0.4999999999999969
 40
1.0
 40
1.0
 40
1.0
 40
1.0
 10
9.949999999999973
 20
26.98706356756883
 30
0.0
 10
9.850149452042906
 20
26.98706356756882
 30
0.0
 10
9.748134209428091
 20
27.00887348025308
 30
0.0
 10
9.565410104204544
 20
27.08989258317071
 30
0.0
 10
9.481984824368892
 20
27.14976438531447
 30
0.0
 10
9.277274567403376
 20
27.36818499553369
 30
0.0
 10
9.199999999999985
 20
27.56879736260816
 30
0.0
 10
9.199999999999985
 20
27.76916635406976
 30
0.0
  0
SPLINE
  5
272
330
1F
100
AcDbEntity
  8
1
  6
SLD-Dashed
370
    18
100
AcDbSpline
210
0.0
220
0.0
230
1.0
 70
     8
 71
     3
 72
    12
 73
     8
 74
     0
 42
0.000000001
 43
0.00000001
 40
0.0
 40
0.0
 40
0.0
 40
0.0
 40
0.2500000000000007
 40
0.2500000000000007
 40
0.5000000000000014
 40
0.5000000000000014
 40
1.0
 40
1.0
 40
1.0
 40
1.0
 10
13.02999999999999
 20
27.76916635406975
 30
0.0
 10
13.02999999999999
 20
27.66900663339827
 30
0.0
 10
13.01145353522914
 20
27.56910146598283
 30
0.0
 10
12.93858199206007
 20
27.38178244661978
 30
0.0
 10
12.88523035542459
 20
27.29613295246496
 30
0.0
 10
12.67790477657021
 20
27.07503152815011
 30
0.0
 10
12.47994383972982
 20
26.98706356756885
 30
0.0
 10
12.28
 20
26.98706356756883
 30
0.0
  0
SPLINE
  5
273
330
1F
100
AcDbEntity
  8
1
  6
SLD-Dashed
370
    18
100
AcDbSpline
210
0.0
220
0.0
230
1.0
 70
     8
 71
     3
 72
     8
 73
     4
 74
     0
 42
0.000000001
 43
0.00000001
 40
0.0
 40
0.0
 40
0.0
 40
0.0
 40
1.0
 40
1.0
 40
1.0
 40
1.0
 10
14.37595046659276
 20
30.22546938779913
 30
0.0
 10
13.92630781119526
 20
29.41921817244964
 30
0.0
 10
13.47757578719337
 20
28.61245515876933
 30
0.0
 10
13.03
 20
27.8050456341729
 30
0.0
  0
SPLINE
  5
274
330
1F
100
AcDbEntity
  8
SK3
  6
SLD-Dashed
370
    18
100
AcDbSpline
210
0.0
220
0.0
230
1.0
 70
     8
 71
     3
 72
    39
 73
    35
 74
     0
 42
0.000000001
 43
0.00000001
 40
0.0
 40
0.0
 40
0.0
 40
0.0
 40
0.0314091160307677
 40
0.062641375864154
 40
0.0875470935131889
 40
0.1248485138287462
 40
0.1532930400450872
 40
0.1960941157944515
 40
0.2176225947738144
 40
0.2499693772004302
 40
0.2785546285585205
 40
0.3212364873026964
 40
0.3425405354923894
 40
0.3745092858974103
 40
0.4029918411019262
 40
0.4459785689856202
 40
0.4675618916159423
 40
0.4997576608210476
 40
0.5282368343000382
 40
0.5708480092883969
 40
0.5921584935845849
 40
0.624188332845246
 40
0.6527986190299447
 40
0.6959401501309724
 40
0.7174023419155647
 40
0.7494519752642036
 40
0.7778741158300034
 40
0.8205144520917296
 40
0.8418962920619176
 40
0.8741359236783779
 40
0.8993502252909584
 40
0.9370840470446232
 40
0.9685048711195082
 40
1.0
 40
1.0
 40
1.0
 40
1.0
 10
18.70461115500203
 20
29.80485527419827
 30
0.0
 10
18.70452025144941
 20
29.81164171345386
 30
0.0
 10
18.70433895619739
 20
29.82517637936969
 30
0.0
 10
18.70297056619667
 20
29.84405190465713
 30
0.0
 10
18.70074103176619
 20
29.8641182457016
 30
0.0
 10
18.69766377514246
 20
29.88347227622582
 30
0.0
 10
18.69285822025327
 20
29.9064312484356
 30
0.0
 10
18.6877117743778
 20
29.92581971282426
 30
0.0
 10
18.68138591064229
 20
29.94572790966326
 30
0.0
 10
18.67530704307358
 20
29.96248267210259
 30
0.0
 10
18.6667122239519
 20
29.98315850998395
 30
0.0
 10
18.65804498468778
 20
30.00120090567664
 30
0.0
 10
18.64816898127236
 20
30.0194308110765
 30
0.0
 10
18.63912598786658
 20
30.03461278108223
 30
0.0
 10
18.62681037274123
 20
30.05326734966762
 30
0.0
 10
18.61481562184565
 20
30.0694226175988
 30
0.0
 10
18.60152603092411
 20
30.08556438898112
 30
0.0
 10
18.58965984265964
 20
30.09880574838228
 30
0.0
 10
18.5739874685028
 20
30.1146987788787
 30
0.0
 10
18.5591861811131
 20
30.1281209668681
 30
0.0
 10
18.54313791073561
 20
30.14124723286362
 30
0.0
 10
18.52896425933553
 20
30.15187245989084
 30
0.0
 10
18.51038407954444
 20
30.16443427377516
 30
0.0
 10
18.49306028314308
 20
30.17474090541246
 30
0.0
 10
18.47457768707378
 20
30.18446497823759
 30
0.0
 10
18.45855895706398
 20
30.19201976729604
 30
0.0
 10
18.43796004437193
 20
30.20051935318397
 30
0.0
 10
18.41906612592657
 20
30.20705284128373
 30
0.0
 10
18.39907752149929
 20
30.21280585013028
 30
0.0
 10
18.38250765201564
 20
30.21678677988689
 30
0.0
 10
18.36230136175013
 20
30.22064109222357
 30
0.0
 10
18.3420869850343
 20
30.2233898561806
 30
0.0
 10
18.32039969464304
 20
30.22516034748689
 30
0.0
 10
18.30680524997082
 20
30.22536629328657
 30
0.0
 10
18.30000000000005
 20
30.22546938779913
 30
0.0
  0
SPLINE
  5
275
330
1F
100
AcDbEntity
  8
SK3
  6
SLD-Dashed
370
    18
100
AcDbSpline
210
0.0
220
0.0
230
1.0
 70
     8
 71
     3
 72
    34
 73
    30
 74
     0
 42
0.000000001
 43
0.00000001
 40
0.4999999999999964
 40
0.4999999999999964
 40
0.4999999999999964
 40
0.4999999999999964
 40
0.5624999999999961
 40
0.5624999999999961
 40
0.5937499999999962
 40
0.5937499999999962
 40
0.6249999999999963
 40
0.6249999999999963
 40
0.6562499999999964
 40
0.6562499999999964
 40
0.6874999999999966
 40
0.6874999999999966
 40
0.7499999999999971
 40
0.7499999999999971
 40
0.7812499999999974
 40
0.7812499999999974
 40
0.8124999999999978
 40
0.8124999999999978
 40
0.8437499999999982
 40
0.8437499999999982
 40
0.8749999999999986
 40
0.8749999999999986
 40
0.9062499999999989
 40
0.9062499999999989
 40
0.9374999999999992
 40
0.9374999999999992
 40
0.9687499999999997
 40
0.9687499999999997
 40
1.0
 40
1.0
 40
1.0
 40
1.0
 10
10.43489457346451
 20
9.192707275454445
 30
0.0
 10
10.57763203931582
 20
9.178391047657621
 30
0.0
 10
10.73072898252594
 20
9.148788373493296
 30
0.0
 10
11.00846457422351
 20
9.079848161145557
 30
0.0
 10
11.10872720463398
 20
9.052921739824749
 30
0.0
 10
11.33151412887493
 20
8.987194762961352
 30
0.0
 10
11.4528847494719
 20
8.948740399015179
 30
0.0
 10
11.69975803299394
 20
8.855687905200401
 30
0.0
 10
11.82369929941915
 20
8.801033903627436
 30
0.0
 10
12.05254486308012
 20
8.67406723807662
 30
0.0
 10
12.15835137945199
 20
8.601647149158662
 30
0.0
 10
12.44326053814744
 20
8.354209612853907
 30
0.0
 10
12.58579742123002
 20
8.15109493572383
 30
0.0
 10
12.7089524147273
 20
7.809142101035421
 30
0.0
 10
12.73535560308828
 20
7.68700358996964
 30
0.0
 10
12.75526974501037
 20
7.441164323332042
 30
0.0
 10
12.74937513382361
 20
7.315281863556497
 30
0.0
 10
12.70533810945411
 20
7.06394119363997
 30
0.0
 10
12.66802095968712
 20
6.941631000096427
 30
0.0
 10
12.56344952904384
 20
6.70417974939401
 30
0.0
 10
12.49625932456626
 20
6.590217548379684
 30
0.0
 10
12.3380944679418
 20
6.382378293731284
 30
0.0
 10
12.24493473983124
 20
6.285873995051205
 30
0.0
 10
12.04054915126637
 20
6.12215655334418
 30
0.0
 10
11.9293214784509
 20
6.054026580940134
 30
0.0
 10
11.68736550523704
 20
5.952992896783499
 30
0.0
 10
11.56181201416266
 20
5.923411177353247
 30
0.0
 10
11.31821027169286
 20
5.909336941584408
 30
0.0
 10
11.20410590689121
 20
5.92457719151207
 30
0.0
 10
11.09999999999999
 20
5.953410618658256
 30
0.0
  0
SPLINE
  5
276
330
1F
100
AcDbEntity
  8
SK3
  6
SLD-Dashed
370
    18
100
AcDbSpline
210
0.0
220
0.0
230
1.0
 70
     8
 71
     3
 72
    32
 73
    28
 74
     0
 42
0.000000001
 43
0.00000001
 40
0.0
 40
0.0
 40
0.0
 40
0.0
 40
0.0312499999999998
 40
0.0312499999999998
 40
0.0624999999999996
 40
0.0624999999999996
 40
0.1249999999999991
 40
0.1249999999999991
 40
0.1874999999999986
 40
0.1874999999999986
 40
0.2187499999999983
 40
0.2187499999999983
 40
0.2499999999999979
 40
0.2499999999999979
 40
0.2812499999999978
 40
0.2812499999999978
 40
0.3124999999999976
 40
0.3124999999999976
 40
0.3437499999999974
 40
0.3437499999999974
 40
0.3749999999999972
 40
0.3749999999999972
 40
0.406249999999997
 40
0.406249999999997
 40
0.4374999999999968
 40
0.4374999999999968
 40
0.4999999999999964
 40
0.4999999999999964
 40
0.4999999999999964
 40
0.4999999999999964
 10
11.09999999999999
 20
5.953410618658256
 30
0.0
 10
10.99589409310876
 20
5.982244045804455
 30
0.0
 10
10.90407857642196
 20
6.02310328637358
 30
0.0
 10
10.73262137377526
 20
6.118240725872817
 30
0.0
 10
10.65318813797003
 20
6.172784121821914
 30
0.0
 10
10.42547236553633
 20
6.352355611395091
 30
0.0
 10
10.29042057236912
 20
6.490344336420456
 30
0.0
 10
10.03758703563626
 20
6.798492095359348
 30
0.0
 10
9.919813607757941
 20
6.968691620995685
 30
0.0
 10
9.755188160048098
 20
7.264657280293574
 30
0.0
 10
9.702965925809062
 20
7.369529169307637
 30
0.0
 10
9.608196888300544
 20
7.590905988961227
 30
0.0
 10
9.564891013149557
 20
7.708630023759016
 30
0.0
 10
9.493588627253455
 20
7.962877344356856
 30
0.0
 10
9.466892276768446
 20
8.097433676092724
 30
0.0
 10
9.444811777617273
 20
8.357466636459781
 30
0.0
 10
9.450063840888214
 20
8.483405619809343
 30
0.0
 10
9.490124926315847
 20
8.69644691367029
 30
0.0
 10
9.523244242074124
 20
8.782864284801864
 30
0.0
 10
9.60424790380461
 20
8.925144266749466
 30
0.0
 10
9.650743567469117
 20
8.979230676614131
 30
0.0
 10
9.751569607309593
 20
9.067142795898944
 30
0.0
 10
9.806244160784559
 20
9.100654189155025
 30
0.0
 10
9.919291731587856
 20
9.151642126956085
 30
0.0
 10
9.97803823187328
 20
9.16939920542545
 30
0.0
 10
10.16095206270196
 20
9.205547608603663
 30
0.0
 10
10.29215710761321
 20
9.207023503251255
 30
0.0
 10
10.43489457346451
 20
9.192707275454445
 30
0.0
  0
DIMENSION
  5
277
330
1F
100
AcDbEntity
  8
2
100
AcDbDimension
  2
_D
 10
63.5
 20
62.4453802758
 30
0.0
 11
26.8989956181
 21
62.4453802758
 31
0.0
 70
   160
  1
<>
 71
     2
 42
-1.0
  3
SLDDIMSTYLE0
100
AcDbAlignedDimension
 13
0.0
 23
22.225
 33
0.0
 14
63.5
 24
9.906
 34
0.0
100
AcDbRotatedDimension
  0
DIMENSION
  5
28C
330
1F
100
AcDbEntity
  8
SK2
100
AcDbDimension
  2
_D_1
 10
63.5
 20
49.8810119523
 30
0.0
 11
37.7951567183
 21
49.8810119523
 31
0.0
 70
   160
  1
<>
 71
     2
 42
-1.0
  3
SLDDIMSTYLE0
100
AcDbAlignedDimension
 13
19.05
 23
29.8048664484
 33
0.0
 14
63.5
 24
9.906
 34
0.0
100
AcDbRotatedDimension
  0
DIMENSION
  5
29F
330
1F
100
AcDbEntity
  8
SK2
100
AcDbDimension
  2
_D_2
 10
63.5
 20
37.0795388236
 30
0.0
 11
49.6938533532
 21
37.0795388236
 31
0.0
 70
   160
  1
<>
 71
     2
 42
-1.0
  3
SLDDIMSTYLE0
100
AcDbAlignedDimension
 13
35.05
 23
21.463
 33
0.0
 14
63.5
 24
9.906
 34
0.0
 50
0.0
100
AcDbRotatedDimension
  0
DIMENSION
  5
2B2
330
1F
100
AcDbEntity
  8
SK2
100
AcDbDimension
  2
_D_3
 10
63.5
 20
23.7564950919
 30
0.0
 11
53.7642717525
 21
23.7564950919
 31
0.0
 70
   160
  1
<>
 71
     2
 42
-1.0
  3
SLDDIMSTYLE0
100
AcDbAlignedDimension
 13
44.45
 23
11.2
 33
0.0
 14
63.5
 24
9.906
 34
0.0
100
AcDbRotatedDimension
  0
DIMENSION
  5
2C5
330
1F
100
AcDbEntity
  8
SK2
100
AcDbDimension
  2
_D_4
 10
19.05
 20
49.8810119523
 30
0.0
 11
9.2779679494
 21
49.8810119523
 31
0.0
 70
   160
  1
<>
 71
     2
 42
-1.0
  3
SLDDIMSTYLE1
100
AcDbAlignedDimension
 13
0.0
 23
22.225
 33
0.0
 14
19.05
 24
29.8048664484
 34
0.0
100
AcDbRotatedDimension
  0
DIMENSION
  5
2D0
330
1F
100
AcDbEntity
  8
SK2
100
AcDbDimension
  2
_D_5
 10
80.5599619864
 20
-4.7625
 30
0.0
 11
80.5599619864
 21
21.1244617538
 31
0.0
 70
   160
  1
%%c<>
 71
     2
 42
-1.0
  3
SLDDIMSTYLE2
100
AcDbAlignedDimension
 13
62.75
 23
4.7625
 33
0.0
 14
62.75
 24
-4.7625
 34
0.0
 50
90.0
100
AcDbRotatedDimension
  0
DIMENSION
  5
2E5
330
1F
100
AcDbEntity
  8
SK2
100
AcDbDimension
  2
_D_6
 10
96.0328348388
 20
-9.906
 30
0.0
 11
96.0328348388
 21
1.0535181953
 31
0.0
 70
   160
  1
%%c<>
 71
     2
 42
-1.0
  3
SLDDIMSTYLE0
100
AcDbAlignedDimension
 13
63.5
 23
9.906
 33
0.0
 14
63.5
 24
-9.906
 34
0.0
 50
90.0
100
AcDbRotatedDimension
  0
DIMENSION
  5
2F7
330
1F
100
AcDbEntity
  8
SK2
100
AcDbDimension
  2
_D_7
 10
111.4327224418
 20
-12.7
 30
0.0
 11
111.4327224418
 21
1.0535181953
 31
0.0
 70
   160
  1
%%c<>
 71
     2
 42
-1.0
  3
SLDDIMSTYLE0
100
AcDbAlignedDimension
 13
60.706
 23
12.7
 33
0.0
 14
60.706
 24
-12.7
 34
0.0
 50
90.0
100
AcDbRotatedDimension
  0
DIMENSION
  5
309
330
1F
100
AcDbEntity
  8
SK2
100
AcDbDimension
  2
_D_8
 10
63.5
 20
-46.062839345
 30
0.0
 11
-12.9980774498
 21
-46.062839345
 31
0.0
 70
   160
  1
<>
 71
     2
 42
-1.0
  3
SLDDIMSTYLE3
100
AcDbAlignedDimension
 13
-68.25
 23
-11.1476148288
 33
0.0
 14
63.5
 24
-9.906
 34
0.0
 50
0.0
100
AcDbRotatedDimension
  0
DIMENSION
  5
31D
330
1F
100
AcDbEntity
  8
SK2
100
AcDbDimension
  2
_D_9
 10
63.5
 20
-38.2151793569
 30
0.0
 11
43.8028685811
 21
-38.2151793569
 31
0.0
 70
   160
  1
<>
 71
     2
 42
-1.0
  3
SLDDIMSTYLE0
100
AcDbAlignedDimension
 13
25.4019512444
 23
-4.7625
 33
0.0
 14
63.5
 24
-9.906
 34
0.0
100
AcDbRotatedDimension
  0
DIMENSION
  5
330
330
1F
100
AcDbEntity
  8
SK2
100
AcDbDimension
  2
_D_10
 10
63.5
 20
-23.237962738
 30
0.0
 11
53.7642717525
 21
-23.237962738
 31
0.0
 70
   160
  1
<>
 71
     2
 42
-1.0
  3
SLDDIMSTYLE4
100
AcDbAlignedDimension
 13
60.706
 23
-12.7
 33
0.0
 14
63.5
 24
-9.906
 34
0.0
100
AcDbRotatedDimension
  0
DIMENSION
  5
33D
330
1F
100
AcDbEntity
  8
SK2
100
AcDbDimension
  2
_D_11
 10
-86.1506732907
 20
30.5578899967
 30
0.0
 11
-86.1506732907
 21
1.0535181953
 31
0.0
 70
   160
  1
%%c<>
 71
     2
 42
-1.0
  3
SLDDIMSTYLE1
100
AcDbAlignedDimension
 13
3.95
 23
-30.5579086614
 33
0.0
 14
3.95
 24
30.5578899967
 34
0.0
 50
90.0
100
AcDbRotatedDimension
  0
DIMENSION
  5
348
330
1F
100
AcDbEntity
  8
SK2
100
AcDbDimension
  2
_D_12
 10
-77.7598623873
 20
-7.9375002533
 30
0.0
 11
-77.7598623873
 21
1.0535181953
 31
0.0
 70
   160
  1
<>
 71
     2
 42
-1.0
  3
SLDDIMSTYLE5
100
AcDbAlignedDimension
 13
-63.3082389832
 23
7.9375002533
 33
0.0
 14
-63.3082389832
 24
-7.9375002533
 34
0.0
 50
90.0
100
AcDbRotatedDimension
  0
MTEXT
  5
356
330
1F
100
AcDbEntity
  8
SK6
 62
     5
100
AcDbMText
 10
-50.4158863629
 20
-22.8484034514
 30
0.0
 40
3.5
 41
0.0
 71
     1
 72
     1
  1
AA3B20-40 09 063
  7
SLDTEXTSTYLE0
 73
     1
 44
1.0
  0
MTEXT
  5
357
330
1F
100
AcDbEntity
  8
SK6
 62
     5
100
AcDbMText
 10
-53.2085949387
 20
27.2425377586
 30
0.0
 40
3.5
 41
0.0
 71
     1
 72
     1
  1
ASME B5.50 CAT 40
  7
SLDTEXTSTYLE0
 73
     1
 44
1.0
  0
ENDSEC
  0
SECTION
  2
OBJECTS
  0
DICTIONARY
  5
C
330
0
100
AcDbDictionary
281
     1
  3
ACAD_GROUP
350
D
  3
ACAD_LAYOUT
350
1A
  3
ACAD_MLINESTYLE
350
17
  3
ACAD_PLOTSETTINGS
350
19
  3
ACAD_PLOTSTYLENAME
350
E
  3
ACAD_SCALELIST
350
47
  0
DICTIONARY
  5
D
102
{ACAD_REACTORS
330
C
102
}
330
C
100
AcDbDictionary
281
     1
  0
DICTIONARY
  5
1A
102
{ACAD_REACTORS
330
C
102
}
330
C
100
AcDbDictionary
281
     1
  3
Layout1
350
1E
  3
Layout2
350
26
  3
Model
350
22
  0
DICTIONARY
  5
17
102
{ACAD_REACTORS
330
C
102
}
330
C
100
AcDbDictionary
281
     1
  3
Standard
350
18
  0
DICTIONARY
  5
19
102
{ACAD_REACTORS
330
C
102
}
330
C
100
AcDbDictionary
281
     1
  0
ACDBDICTIONARYWDFLT
  5
E
102
{ACAD_REACTORS
330
C
102
}
330
C
100
AcDbDictionary
281
     1
  3
Normal
350
F
100
AcDbDictionaryWithDefault
340
F
  0
DICTIONARY
  5
47
102
{ACAD_REACTORS
330
C
102
}
330
C
100
AcDbDictionary
281
     1
  3
A0
350
48
  3
A1
350
49
  3
A2
350
4A
  3
A3
350
4B
  3
A4
350
4C
  3
A5
350
4D
  3
A6
350
4E
  3
A7
350
4F
  3
A8
350
50
  3
A9
350
51
  3
B0
350
52
  3
B1
350
53
  3
B2
350
54
  3
B3
350
55
  3
B4
350
56
  3
B5
350
57
  3
B6
350
58
  3
B7
350
59
  3
B8
350
5A
  3
B9
350
5B
  3
C0
350
5C
  3
C1
350
5D
  3
C2
350
5E
  3
C3
350
5F
  3
C4
350
60
  3
C5
350
61
  3
C6
350
62
  3
C7
350
63
  3
C8
350
64
  3
C9
350
65
  3
D0
350
66
  3
D1
350
67
  3
D2
350
68
  0
LAYOUT
  5
1E
102
{ACAD_REACTORS
330
1A
102
}
330
1A
100
AcDbPlotSettings
  1

  2
none_device
  4

  6

 40
0.0
 41
0.0
 42
0.0
 43
0.0
 44
0.0
 45
0.0
 46
0.0
 47
0.0
 48
0.0
 49
0.0
140
0.0
141
0.0
142
1.0
143
1.0
 70
   688
 72
     1
 73
     0
 74
     5
  7

 75
    16
147
1.0
148
0.0
149
0.0
100
AcDbLayout
  1
Layout1
 70
     1
 71
     1
 10
0.0
 20
0.0
 11
420.0
 21
297.0
 12
0.0
 22
0.0
 32
0.0
 14
1.0000000000E+20
 24
1.0000000000E+20
 34
1.0000000000E+20
 15
-1.0000000000E+20
 25
-1.0000000000E+20
 35
-1.0000000000E+20
146
0.0
 13
0.0
 23
0.0
 33
0.0
 16
1.0
 26
0.0
 36
0.0
 17
0.0
 27
1.0
 37
0.0
 76
     0
330
1B
  0
LAYOUT
  5
26
102
{ACAD_REACTORS
330
1A
102
}
330
1A
100
AcDbPlotSettings
  1

  2
none_device
  4

  6

 40
0.0
 41
0.0
 42
0.0
 43
0.0
 44
0.0
 45
0.0
 46
0.0
 47
0.0
 48
0.0
 49
0.0
140
0.0
141
0.0
142
1.0
143
1.0
 70
   688
 72
     1
 73
     0
 74
     5
  7

 75
    16
147
1.0
148
0.0
149
0.0
100
AcDbLayout
  1
Layout2
 70
     1
 71
     2
 10
0.0
 20
0.0
 11
0.0
 21
0.0
 12
0.0
 22
0.0
 32
0.0
 14
0.0
 24
0.0
 34
0.0
 15
0.0
 25
0.0
 35
0.0
146
0.0
 13
0.0
 23
0.0
 33
0.0
 16
1.0
 26
0.0
 36
0.0
 17
0.0
 27
1.0
 37
0.0
 76
     0
330
23
  0
LAYOUT
  5
22
102
{ACAD_REACTORS
330
1A
102
}
330
1A
100
AcDbPlotSettings
  1

  2
none_device
  4
Letter_(8.50_x_11.00_Inches)
  6

 40
6.35
 41
6.35
 42
6.35000508
 43
6.35000508
 44
215.9
 45
279.4
 46
0.0
 47
0.0
 48
0.0
 49
0.0
140
0.0
141
0.0
142
1.0
143
1.0
 70
  1712
 72
     1
 73
     0
 74
     0
  7

 75
     0
147
1.0
148
0.0
149
0.0
100
AcDbLayout
  1
Model
 70
     1
 71
     0
 10
0.0
 20
0.0
 11
297.0
 21
210.0
 12
0.0
 22
0.0
 32
0.0
 14
0.0
 24
0.0
 34
0.0
 15
297.0
 25
210.0
 35
0.0
146
0.0
 13
0.0
 23
0.0
 33
0.0
 16
1.0
 26
0.0
 36
0.0
 17
0.0
 27
1.0
 37
0.0
 76
     0
330
1F
331
29
  0
MLINESTYLE
  5
18
102
{ACAD_REACTORS
330
17
102
}
330
17
100
AcDbMlineStyle
  2
Standard
 70
     0
  3

 62
   256
 51
90.0
 52
90.0
 71
     2
 49
0.5
 62
   256
  6
BYLAYER
 49
-0.5
 62
   256
  6
BYLAYER
  0
ACDBPLACEHOLDER
  5
F
102
{ACAD_REACTORS
330
E
102
}
330
E
  0
SCALE
  5
48
102
{ACAD_REACTORS
330
47
102
}
330
47
100
AcDbScale
 70
     0
300
1:1
140
1.0
141
1.0
290
     1
  0
SCALE
  5
49
102
{ACAD_REACTORS
330
47
102
}
330
47
100
AcDbScale
 70
     0
300
1:2
140
1.0
141
2.0
290
     0
  0
SCALE
  5
4A
102
{ACAD_REACTORS
330
47
102
}
330
47
100
AcDbScale
 70
     0
300
1:4
140
1.0
141
4.0
290
     0
  0
SCALE
  5
4B
102
{ACAD_REACTORS
330
47
102
}
330
47
100
AcDbScale
 70
     0
300
1:5
140
1.0
141
5.0
290
     0
  0
SCALE
  5
4C
102
{ACAD_REACTORS
330
47
102
}
330
47
100
AcDbScale
 70
     0
300
1:8
140
1.0
141
8.0
290
     0
  0
SCALE
  5
4D
102
{ACAD_REACTORS
330
47
102
}
330
47
100
AcDbScale
 70
     0
300
1:10
140
1.0
141
10.0
290
     0
  0
SCALE
  5
4E
102
{ACAD_REACTORS
330
47
102
}
330
47
100
AcDbScale
 70
     0
300
1:16
140
1.0
141
16.0
290
     0
  0
SCALE
  5
4F
102
{ACAD_REACTORS
330
47
102
}
330
47
100
AcDbScale
 70
     0
300
1:20
140
1.0
141
20.0
290
     0
  0
SCALE
  5
50
102
{ACAD_REACTORS
330
47
102
}
330
47
100
AcDbScale
 70
     0
300
1:30
140
1.0
141
30.0
290
     0
  0
SCALE
  5
51
102
{ACAD_REACTORS
330
47
102
}
330
47
100
AcDbScale
 70
     0
300
1:40
140
1.0
141
40.0
290
     0
  0
SCALE
  5
52
102
{ACAD_REACTORS
330
47
102
}
330
47
100
AcDbScale
 70
     0
300
1:50
140
1.0
141
50.0
290
     0
  0
SCALE
  5
53
102
{ACAD_REACTORS
330
47
102
}
330
47
100
AcDbScale
 70
     0
300
1:100
140
1.0
141
100.0
290
     0
  0
SCALE
  5
54
102
{ACAD_REACTORS
330
47
102
}
330
47
100
AcDbScale
 70
     0
300
2:1
140
2.0
141
1.0
290
     0
  0
SCALE
  5
55
102
{ACAD_REACTORS
330
47
102
}
330
47
100
AcDbScale
 70
     0
300
4:1
140
4.0
141
1.0
290
     0
  0
SCALE
  5
56
102
{ACAD_REACTORS
330
47
102
}
330
47
100
AcDbScale
 70
     0
300
8:1
140
8.0
141
1.0
290
     0
  0
SCALE
  5
57
102
{ACAD_REACTORS
330
47
102
}
330
47
100
AcDbScale
 70
     0
300
10:1
140
10.0
141
1.0
290
     0
  0
SCALE
  5
58
102
{ACAD_REACTORS
330
47
102
}
330
47
100
AcDbScale
 70
     0
300
100:1
140
100.0
141
1.0
290
     0
  0
SCALE
  5
59
102
{ACAD_REACTORS
330
47
102
}
330
47
100
AcDbScale
 70
     0
300
1/128" = 1'-0"
140
0.0078125
141
12.0
290
     0
  0
SCALE
  5
5A
102
{ACAD_REACTORS
330
47
102
}
330
47
100
AcDbScale
 70
     0
300
1/64" = 1'-0"
140
0.015625
141
12.0
290
     0
  0
SCALE
  5
5B
102
{ACAD_REACTORS
330
47
102
}
330
47
100
AcDbScale
 70
     0
300
1/32" = 1'-0"
140
0.03125
141
12.0
290
     0
  0
SCALE
  5
5C
102
{ACAD_REACTORS
330
47
102
}
330
47
100
AcDbScale
 70
     0
300
1/16" = 1'-0"
140
0.0625
141
12.0
290
     0
  0
SCALE
  5
5D
102
{ACAD_REACTORS
330
47
102
}
330
47
100
AcDbScale
 70
     0
300
3/32" = 1'-0"
140
0.09375
141
12.0
290
     0
  0
SCALE
  5
5E
102
{ACAD_REACTORS
330
47
102
}
330
47
100
AcDbScale
 70
     0
300
1/8" = 1'-0"
140
0.125
141
12.0
290
     0
  0
SCALE
  5
5F
102
{ACAD_REACTORS
330
47
102
}
330
47
100
AcDbScale
 70
     0
300
3/16" = 1'-0"
140
0.1875
141
12.0
290
     0
  0
SCALE
  5
60
102
{ACAD_REACTORS
330
47
102
}
330
47
100
AcDbScale
 70
     0
300
1/4" = 1'-0"
140
0.25
141
12.0
290
     0
  0
SCALE
  5
61
102
{ACAD_REACTORS
330
47
102
}
330
47
100
AcDbScale
 70
     0
300
3/8" = 1'-0"
140
0.375
141
12.0
290
     0
  0
SCALE
  5
62
102
{ACAD_REACTORS
330
47
102
}
330
47
100
AcDbScale
 70
     0
300
1/2" = 1'-0"
140
0.5
141
12.0
290
     0
  0
SCALE
  5
63
102
{ACAD_REACTORS
330
47
102
}
330
47
100
AcDbScale
 70
     0
300
3/4" = 1'-0"
140
0.75
141
12.0
290
     0
  0
SCALE
  5
64
102
{ACAD_REACTORS
330
47
102
}
330
47
100
AcDbScale
 70
     0
300
1" = 1'-0"
140
1.0
141
12.0
290
     0
  0
SCALE
  5
65
102
{ACAD_REACTORS
330
47
102
}
330
47
100
AcDbScale
 70
     0
300
1-1/2" = 1'-0"
140
1.5
141
12.0
290
     0
  0
SCALE
  5
66
102
{ACAD_REACTORS
330
47
102
}
330
47
100
AcDbScale
 70
     0
300
3" = 1'-0"
140
3.0
141
12.0
290
     0
  0
SCALE
  5
67
102
{ACAD_REACTORS
330
47
102
}
330
47
100
AcDbScale
 70
     0
300
6" = 1'-0"
140
6.0
141
12.0
290
     0
  0
SCALE
  5
68
102
{ACAD_REACTORS
330
47
102
}
330
47
100
AcDbScale
 70
     0
300
1'-0" = 1'-0"
140
12.0
141
12.0
290
     0
  0
ENDSEC
  0
EOF
