  0
SECTION
  2
HEADER
  9
$ACADVER
  1
AC1015
  9
$ACADMAINTVER
 70
     6
  9
$DWGCODEPAGE
  3
ANSI_1250
  9
$INSBASE
 10
0.0
 20
0.0
 30
0.0
  9
$EXTMIN
 10
0.0
 20
0.0
 30
0.0
  9
$EXTMAX
 10
297.0
 20
210.0
 30
0.0
  9
$LIMMIN
 10
0.0
 20
0.0
  9
$LIMMAX
 10
297.0
 20
210.0
  9
$ORTHOMODE
 70
     0
  9
$REGENMODE
 70
     1
  9
$FILLMODE
 70
     1
  9
$QTEXTMODE
 70
     0
  9
$MIRRTEXT
 70
     1
  9
$LTSCALE
 40
1.0
  9
$ATTMODE
 70
     1
  9
$TEXTSIZE
 40
3.5
  9
$TRACEWID
 40
1.0
  9
$TEXTSTYLE
  7
Standard
  9
$CLAYER
  8
0
  9
$CELTYPE
  6
ByLayer
  9
$CECOLOR
 62
   256
  9
$CELTSCALE
 40
1.0
  9
$DISPSILH
 70
     0
  9
$DIMSCALE
 40
1.0
  9
$DIMASZ
 40
3.302
  9
$DIMEXO
 40
1.0
  9
$DIMDLI
 40
3.75
  9
$DIMRND
 40
0.0
  9
$DIMDLE
 40
0.0
  9
$DIMEXE
 40
1.0
  9
$DIMTP
 40
0.0
  9
$DIMTM
 40
0.0
  9
$DIMTXT
 40
3.5
  9
$DIMCEN
 40
2.5
  9
$DIMTSZ
 40
0.0
  9
$DIMTOL
 70
     0
  9
$DIMLIM
 70
     0
  9
$DIMTIH
 70
     1
  9
$DIMTOH
 70
     1
  9
$DIMSE1
 70
     0
  9
$DIMSE2
 70
     0
  9
$DIMTAD
 70
     1
  9
$DIMZIN
 70
     0
  9
$DIMBLK
  1

  9
$DIMASO
 70
     1
  9
$DIMSHO
 70
     1
  9
$DIMPOST
  1

  9
$DIMAPOST
  1

  9
$DIMALT
 70
     0
  9
$DIMALTD
 70
     3
  9
$DIMALTF
 40
0.0393700787
  9
$DIMLFAC
 40
1.0
  9
$DIMTOFL
 70
     1
  9
$DIMTVP
 40
0.0
  9
$DIMTIX
 70
     0
  9
$DIMSOXD
 70
     0
  9
$DIMSAH
 70
     0
  9
$DIMBLK1
  1

  9
$DIMBLK2
  1

  9
$DIMSTYLE
  2
ISO-25
  9
$DIMCLRD
 70
     0
  9
$DIMCLRE
 70
     0
  9
$DIMCLRT
 70
     0
  9
$DIMTFAC
 40
1.0
  9
$DIMGAP
 40
1.524
  9
$DIMJUST
 70
     0
  9
$DIMSD1
 70
     0
  9
$DIMSD2
 70
     0
  9
$DIMTOLJ
 70
     0
  9
$DIMTZIN
 70
     0
  9
$DIMALTZ
 70
     0
  9
$DIMALTTZ
 70
     0
  9
$DIMUPT
 70
     0
  9
$DIMDEC
 70
     2
  9
$DIMTDEC
 70
     2
  9
$DIMALTU
 70
     2
  9
$DIMALTTD
 70
     3
  9
$DIMTXSTY
  7
Standard
  9
$DIMAUNIT
 70
     0
  9
$DIMADEC
 70
     2
  9
$DIMALTRND
 40
0.0
  9
$DIMAZIN
 70
     0
  9
$DIMDSEP
 70
    44
  9
$DIMATFIT
 70
     3
  9
$DIMFRAC
 70
     0
  9
$DIMLDRBLK
  1

  9
$DIMLUNIT
 70
     2
  9
$DIMLWD
 70
    -2
  9
$DIMLWE
 70
    -2
  9
$DIMTMOVE
 70
     0
  9
$LUNITS
 70
     2
  9
$LUPREC
 70
     2
  9
$SKETCHINC
 40
1.0
  9
$FILLETRAD
 40
10.0
  9
$AUNITS
 70
     0
  9
$AUPREC
 70
     2
  9
$MENU
  1
.
  9
$ELEVATION
 40
0.0
  9
$PELEVATION
 40
0.0
  9
$THICKNESS
 40
0.0
  9
$LIMCHECK
 70
     0
  9
$CHAMFERA
 40
0.0
  9
$CHAMFERB
 40
0.0
  9
$CHAMFERC
 40
0.0
  9
$CHAMFERD
 40
0.0
  9
$SKPOLY
 70
     0
  9
$TDCREATE
 40
2459278.312014722
  9
$TDUCREATE
 40
2459278.270348056
  9
$TDUPDATE
 40
2459278.312016447
  9
$TDUUPDATE
 40
2459278.27034978
  9
$TDINDWG
 40
0.0000000116
  9
$TDUSRTIMER
 40
0.0000000116
  9
$USRTIMER
 70
     1
  9
$ANGBASE
 50
0.0
  9
$ANGDIR
 70
     0
  9
$PDMODE
 70
     0
  9
$PDSIZE
 40
-1.0
  9
$PLINEWID
 40
0.0
  9
$SPLFRAME
 70
     0
  9
$SPLINETYPE
 70
     6
  9
$SPLINESEGS
 70
     8
  9
$HANDSEED
  5
379
  9
$SURFTAB1
 70
     6
  9
$SURFTAB2
 70
     6
  9
$SURFTYPE
 70
     6
  9
$SURFU
 70
     6
  9
$SURFV
 70
     6
  9
$UCSBASE
  2

  9
$UCSNAME
  2

  9
$UCSORG
 10
0.0
 20
0.0
 30
0.0
  9
$UCSXDIR
 10
1.0
 20
0.0
 30
0.0
  9
$UCSYDIR
 10
0.0
 20
1.0
 30
0.0
  9
$UCSORTHOREF
  2

  9
$UCSORTHOVIEW
 70
     0
  9
$UCSORGTOP
 10
0.0
 20
0.0
 30
0.0
  9
$UCSORGBOTTOM
 10
0.0
 20
0.0
 30
0.0
  9
$UCSORGLEFT
 10
0.0
 20
0.0
 30
0.0
  9
$UCSORGRIGHT
 10
0.0
 20
0.0
 30
0.0
  9
$UCSORGFRONT
 10
0.0
 20
0.0
 30
0.0
  9
$UCSORGBACK
 10
0.0
 20
0.0
 30
0.0
  9
$PUCSBASE
  2

  9
$PUCSNAME
  2

  9
$PUCSORG
 10
0.0
 20
0.0
 30
0.0
  9
$PUCSXDIR
 10
1.0
 20
0.0
 30
0.0
  9
$PUCSYDIR
 10
0.0
 20
1.0
 30
0.0
  9
$PUCSORTHOREF
  2

  9
$PUCSORTHOVIEW
 70
     0
  9
$PUCSORGTOP
 10
0.0
 20
0.0
 30
0.0
  9
$PUCSORGBOTTOM
 10
0.0
 20
0.0
 30
0.0
  9
$PUCSORGLEFT
 10
0.0
 20
0.0
 30
0.0
  9
$PUCSORGRIGHT
 10
0.0
 20
0.0
 30
0.0
  9
$PUCSORGFRONT
 10
0.0
 20
0.0
 30
0.0
  9
$PUCSORGBACK
 10
0.0
 20
0.0
 30
0.0
  9
$USERI1
 70
     0
  9
$USERI2
 70
     0
  9
$USERI3
 70
     0
  9
$USERI4
 70
     0
  9
$USERI5
 70
     0
  9
$USERR1
 40
0.0
  9
$USERR2
 40
0.0
  9
$USERR3
 40
0.0
  9
$USERR4
 40
0.0
  9
$USERR5
 40
0.0
  9
$WORLDVIEW
 70
     1
  9
$SHADEDGE
 70
     3
  9
$SHADEDIF
 70
    70
  9
$TILEMODE
 70
     1
  9
$MAXACTVP
 70
    64
  9
$PINSBASE
 10
0.0
 20
0.0
 30
0.0
  9
$PLIMCHECK
 70
     0
  9
$PEXTMIN
 10
1.0000000000E+20
 20
1.0000000000E+20
 30
1.0000000000E+20
  9
$PEXTMAX
 10
-1.0000000000E+20
 20
-1.0000000000E+20
 30
-1.0000000000E+20
  9
$PLIMMIN
 10
0.0
 20
0.0
  9
$PLIMMAX
 10
420.0
 20
297.0
  9
$UNITMODE
 70
     0
  9
$VISRETAIN
 70
     1
  9
$PLINEGEN
 70
     0
  9
$PSLTSCALE
 70
     1
  9
$TREEDEPTH
 70
  3020
  9
$CMLSTYLE
  2
Standard
  9
$CMLJUST
 70
     0
  9
$CMLSCALE
 40
20.0
  9
$PROXYGRAPHICS
 70
     1
  9
$MEASUREMENT
 70
     1
  9
$CELWEIGHT
370
    -1
  9
$ENDCAPS
280
     0
  9
$JOINSTYLE
280
     0
  9
$LWDISPLAY
290
     1
  9
$INSUNITS
 70
     4
  9
$HYPERLINKBASE
  1

  9
$STYLESHEET
  1

  9
$XEDIT
290
     1
  9
$CEPSNTYPE
380
     0
  9
$PSTYLEMODE
290
     1
  9
$FINGERPRINTGUID
  2
{A3DCF46A-8BD4-4DB5-B273-912CB51AA5B9}
  9
$VERSIONGUID
  2
{FAEB1C32-E019-11D5-929B-00C0DF256EC4}
  9
$EXTNAMES
290
     1
  9
$PSVPSCALE
 40
0.0
  9
$OLESTARTUP
290
     0
  0
ENDSEC
  0
SECTION
  2
CLASSES
  0
CLASS
  1
ACDBDICTIONARYWDFLT
  2
AcDbDictionaryWithDefault
  3
ObjectDBX Classes
 90
        0
280
     0
281
     0
  0
CLASS
  1
VISUALSTYLE
  2
AcDbVisualStyle
  3
ObjectDBX Classes
 90
     4095
280
     0
281
     0
  0
CLASS
  1
MATERIAL
  2
AcDbMaterial
  3
ObjectDBX Classes
 90
     1153
280
     0
281
     0
  0
CLASS
  1
SCALE
  2
AcDbScale
  3
ObjectDBX Classes
 90
     1153
280
     0
281
     0
  0
CLASS
  1
TABLESTYLE
  2
AcDbTableStyle
  3
ObjectDBX Classes
 90
     4095
280
     0
281
     0
  0
CLASS
  1
MLEADERSTYLE
  2
AcDbMLeaderStyle
  3
ACDB_MLEADERSTYLE_CLASS
 90
     4095
280
     0
281
     0
  0
CLASS
  1
SUN
  2
AcDbSun
  3
SCENEOE
 90
     1153
280
     0
281
     0
  0
CLASS
  1
ACDBPLACEHOLDER
  2
AcDbPlaceHolder
  3
ObjectDBX Classes
 90
        0
280
     0
281
     0
  0
CLASS
  1
LAYOUT
  2
AcDbLayout
  3
ObjectDBX Classes
 90
        0
280
     0
281
     0
  0
ENDSEC
  0
SECTION
  2
TABLES
  0
TABLE
  2
VPORT
  5
8
330
0
100
AcDbSymbolTable
 70
     1
  0
VPORT
  5
29
330
8
100
AcDbSymbolTableRecord
100
AcDbViewportTableRecord
  2
*Active
 70
     0
 10
0.0
 20
0.0
 11
1.0
 21
1.0
 12
148.5
 22
105.0
 13
0.0
 23
0.0
 14
10.0
 24
10.0
 15
10.0
 25
10.0
 16
0.0
 26
0.0
 36
1.0
 17
0.0
 27
0.0
 37
0.0
 40
210.0
 41
1.4142857143
 42
50.0
 43
0.0
 44
0.0
 50
0.0
 51
0.0
 71
     0
 72
  2000
 73
     1
 74
     3
 75
     0
 76
     0
 77
     0
 78
     0
281
     0
 65
     1
110
0.0
120
0.0
130
0.0
111
1.0
121
0.0
131
0.0
112
0.0
122
1.0
132
0.0
 79
     0
146
0.0
  0
ENDTAB
  0
TABLE
  2
LTYPE
  5
5
330
0
100
AcDbSymbolTable
 70
     8
  0
LTYPE
  5
14
330
5
100
AcDbSymbolTableRecord
100
AcDbLinetypeTableRecord
  2
ByBlock
 70
     0
  3

 72
    65
 73
     0
 40
0.0
  0
LTYPE
  5
15
330
5
100
AcDbSymbolTableRecord
100
AcDbLinetypeTableRecord
  2
ByLayer
 70
     0
  3

 72
    65
 73
     0
 40
0.0
  0
LTYPE
  5
16
330
5
100
AcDbSymbolTableRecord
100
AcDbLinetypeTableRecord
  2
Continuous
 70
     0
  3
Solid line
 72
    65
 73
     0
 40
0.0
  0
LTYPE
  5
6E
330
5
100
AcDbSymbolTableRecord
100
AcDbLinetypeTableRecord
  2
SLD-Solid
 70
     0
  3
SolidWorks Line Style
 72
    65
 73
     0
 40
0.0
  0
LTYPE
  5
6F
330
5
100
AcDbSymbolTableRecord
100
AcDbLinetypeTableRecord
  2
SLD-Dashed
 70
     0
  3
SolidWorks Line Style
 72
    65
 73
     2
 40
1.905
 49
1.27
 74
     0
 49
-0.635
 74
     0
  0
LTYPE
  5
70
330
5
100
AcDbSymbolTableRecord
100
AcDbLinetypeTableRecord
  2
SLD-Phantom
 70
     0
  3
SolidWorks Line Style
 72
    65
 73
     6
 40
12.7
 49
6.35
 74
     0
 49
-1.27
 74
     0
 49
1.27
 74
     0
 49
-1.27
 74
     0
 49
1.27
 74
     0
 49
-1.27
 74
     0
  0
LTYPE
  5
71
330
5
100
AcDbSymbolTableRecord
100
AcDbLinetypeTableRecord
  2
SLD-Chain
 70
     0
  3
SolidWorks Line Style
 72
    65
 73
     4
 40
10.16
 49
6.35
 74
     0
 49
-1.27
 74
     0
 49
1.27
 74
     0
 49
-1.27
 74
     0
  0
LTYPE
  5
72
330
5
100
AcDbSymbolTableRecord
100
AcDbLinetypeTableRecord
  2
SLD-Center
 70
     0
  3
SolidWorks Line Style
 72
    65
 73
     4
 40
19.05
 49
15.24
 74
     0
 49
-1.27
 74
     0
 49
1.27
 74
     0
 49
-1.27
 74
     0
  0
LTYPE
  5
73
330
5
100
AcDbSymbolTableRecord
100
AcDbLinetypeTableRecord
  2
SLD-Stitch
 70
     0
  3
SolidWorks Line Style
 72
    65
 73
     2
 40
0.635
 49
0.0
 74
     0
 49
-0.635
 74
     0
  0
LTYPE
  5
74
330
5
100
AcDbSymbolTableRecord
100
AcDbLinetypeTableRecord
  2
SLD-Thin-Thick-Chain
 70
     0
  3
SolidWorks Line Style
 72
    65
 73
     4
 40
10.16
 49
6.35
 74
     0
 49
-1.27
 74
     0
 49
1.27
 74
     0
 49
-1.27
 74
     0
  0
ENDTAB
  0
TABLE
  2
LAYER
  5
2
330
0
100
AcDbSymbolTable
 70
    14
  0
LAYER
  5
10
330
2
100
AcDbSymbolTableRecord
100
AcDbLayerTableRecord
  2
0
 70
     0
 62
     7
  6
Continuous
370
    -3
390
F
  0
LAYER
  5
75
330
2
100
AcDbSymbolTableRecord
100
AcDbLayerTableRecord
  2
SLD-0
 70
     0
 62
   179
  6
SLD-Solid
370
    -3
390
F
  0
LAYER
  5
76
330
2
100
AcDbSymbolTableRecord
100
AcDbLayerTableRecord
  2
80
 70
     0
 62
    -6
  6
SLD-Solid
290
     0
370
    -3
390
F
  0
LAYER
  5
77
330
2
100
AcDbSymbolTableRecord
100
AcDbLayerTableRecord
  2
81
 70
     0
 62
    -3
  6
SLD-Solid
290
     0
370
    -3
390
F
  0
LAYER
  5
78
330
2
100
AcDbSymbolTableRecord
100
AcDbLayerTableRecord
  2
1
 70
     0
 62
     4
  6
SLD-Solid
290
     0
370
    -3
390
F
  0
LAYER
  5
79
330
2
100
AcDbSymbolTableRecord
100
AcDbLayerTableRecord
  2
4
 70
     0
 62
    -2
  6
SLD-Chain
290
     0
370
    -3
390
F
  0
LAYER
  5
7A
330
2
100
AcDbSymbolTableRecord
100
AcDbLayerTableRecord
  2
2
 70
     0
 62
     7
  6
SLD-Solid
290
     0
370
    -3
390
F
  0
LAYER
  5
7B
330
2
100
AcDbSymbolTableRecord
100
AcDbLayerTableRecord
  2
SK3
 70
     0
 62
     1
  6
SLD-Dashed
290
     0
370
    -3
390
F
  0
LAYER
  5
7C
330
2
100
AcDbSymbolTableRecord
100
AcDbLayerTableRecord
  2
SK4
 70
     0
 62
     2
  6
SLD-Chain
290
     0
370
    -3
390
F
  0
LAYER
  5
7D
330
2
100
AcDbSymbolTableRecord
100
AcDbLayerTableRecord
  2
SK2
 70
     0
 62
     7
  6
SLD-Solid
290
     0
370
    -3
390
F
  0
LAYER
  5
7E
330
2
100
AcDbSymbolTableRecord
100
AcDbLayerTableRecord
  2
SK6
 70
     0
 62
     5
  6
SLD-Solid
290
     0
370
    -3
390
F
  0
LAYER
  5
7F
330
2
100
AcDbSymbolTableRecord
100
AcDbLayerTableRecord
  2
6
 70
     0
 62
     5
  6
SLD-Solid
370
    -3
390
F
  0
LAYER
  5
80
330
2
100
AcDbSymbolTableRecord
100
AcDbLayerTableRecord
  2
SK1
 70
     0
 62
     4
  6
SLD-Solid
370
    -3
390
F
  0
LAYER
  5
81
330
2
100
AcDbSymbolTableRecord
100
AcDbLayerTableRecord
  2
LAYER5
 70
     0
 62
   218
  6
SLD-Solid
370
    -3
390
F
  0
ENDTAB
  0
TABLE
  2
STYLE
  5
3
330
0
100
AcDbSymbolTable
 70
     3
  0
STYLE
  5
11
330
3
100
AcDbSymbolTableRecord
100
AcDbTextStyleTableRecord
  2
Standard
 70
     0
 40
0.0
 41
1.0
 50
0.0
 71
     0
 42
3.5
  3
txt
  4

  0
STYLE
  5
2AC
330
3
100
AcDbSymbolTableRecord
100
AcDbTextStyleTableRecord
  2
SLDTEXTSTYLE0
 70
     0
 40
0.0
 41
0.75
 50
0.0
 71
     0
 42
3.5
  3
TXT
  4

  0
STYLE
  5
36B
330
3
100
AcDbSymbolTableRecord
100
AcDbTextStyleTableRecord
  2
SLDTEXTSTYLE1
 70
     0
 40
0.0
 41
0.6875
 50
0.0
 71
     0
 42
3.5
  3
TXT
  4

  0
ENDTAB
  0
TABLE
  2
VIEW
  5
6
330
0
100
AcDbSymbolTable
 70
     0
  0
ENDTAB
  0
TABLE
  2
UCS
  5
7
330
0
100
AcDbSymbolTable
 70
     0
  0
ENDTAB
  0
TABLE
  2
APPID
  5
9
330
0
100
AcDbSymbolTable
 70
     1
  0
APPID
  5
12
330
9
100
AcDbSymbolTableRecord
100
AcDbRegAppTableRecord
  2
ACAD
 70
     0
  0
ENDTAB
  0
TABLE
  2
DIMSTYLE
  5
A
330
0
100
AcDbSymbolTable
 70
     7
100
AcDbDimStyleTable
  0
DIMSTYLE
105
27
330
A
100
AcDbSymbolTableRecord
100
AcDbDimStyleTableRecord
  2
ISO-25
 70
     0
 41
2.5
 42
0.625
 43
3.75
 44
1.25
 73
     0
 74
     0
 77
     1
 78
     8
140
2.5
141
2.5
143
0.0393700787
147
0.625
171
     3
172
     1
178
     0
271
     2
272
     2
274
     3
278
    44
283
     0
284
     8
340
11
  0
DIMSTYLE
105
2AD
102
{ACAD_REACTORS
330
2AB
330
2C0
330
2D3
330
2FB
330
30D
330
31F
102
}
330
A
100
AcDbSymbolTableRecord
100
AcDbDimStyleTableRecord
  2
SLDDIMSTYLE0
 70
     0
 41
3.302
 44
0.0
 45
0.000000001
 73
     0
 74
     0
 77
     1
 78
    12
 79
     3
140
3.5
143
0.0393700787
147
0.875
148
0.000000001
170
     1
173
     1
178
     0
271
     2
272
     2
276
     2
284
    12
340
2AC
  0
DIMSTYLE
105
2E7
102
{ACAD_REACTORS
330
2E6
102
}
330
A
100
AcDbSymbolTableRecord
100
AcDbDimStyleTableRecord
  2
SLDDIMSTYLE1
 70
     0
 41
3.302
 44
0.0
 45
0.000000001
 73
     0
 74
     0
 77
     1
 78
    12
 79
     3
140
3.5
143
0.0393700787
147
0.875
148
0.000000001
170
     1
171
     3
172
     1
173
     1
178
     0
271
     3
272
     2
274
     3
276
     2
284
    12
289
     0
340
2AC
  0
DIMSTYLE
105
333
102
{ACAD_REACTORS
330
332
102
}
330
A
100
AcDbSymbolTableRecord
100
AcDbDimStyleTableRecord
  2
SLDDIMSTYLE2
 70
     0
 41
3.302
 44
0.0
 45
0.000000001
 73
     0
 74
     0
 77
     1
 78
    12
 79
     3
140
3.5
147
0.875
172
     1
173
     1
178
     0
271
     2
272
     2
276
     2
284
    12
289
     0
340
2AC
  0
DIMSTYLE
105
340
102
{ACAD_REACTORS
330
33F
102
}
330
A
100
AcDbSymbolTableRecord
100
AcDbDimStyleTableRecord
  2
SLDDIMSTYLE3
 70
     0
 41
3.302
 44
0.0
 45
0.000000001
 73
     0
 74
     0
 77
     1
 78
    12
 79
     3
140
3.5
143
0.0393700787
147
0.875
148
0.000000001
170
     1
171
     3
173
     1
178
     0
271
     3
272
     2
274
     3
276
     2
284
    12
340
2AC
  0
DIMSTYLE
105
354
102
{ACAD_REACTORS
330
353
330
36D
102
}
330
A
100
AcDbSymbolTableRecord
100
AcDbDimStyleTableRecord
  2
SLDDIMSTYLE4
 70
     0
 41
3.302
 44
0.0
 45
0.000000001
 73
     0
 74
     0
 77
     1
 78
    12
 79
     3
140
3.5
147
0.875
173
     1
178
     0
271
     2
272
     2
276
     2
284
    12
340
2AC
  0
DIMSTYLE
105
360
102
{ACAD_REACTORS
330
35F
102
}
330
A
100
AcDbSymbolTableRecord
100
AcDbDimStyleTableRecord
  2
SLDDIMSTYLE5
 70
     0
 41
3.302
 44
0.0
 45
0.000000001
 73
     0
 74
     0
 77
     1
 78
    12
 79
     3
140
3.5
147
0.875
172
     1
173
     1
178
     0
271
     6
272
     2
276
     2
284
    12
289
     0
340
2AC
  0
ENDTAB
  0
TABLE
  2
BLOCK_RECORD
  5
1
330
0
100
AcDbSymbolTable
 70
    13
  0
BLOCK_RECORD
  5
1F
330
1
100
AcDbSymbolTableRecord
100
AcDbBlockTableRecord
  2
*Model_Space
340
22
  0
BLOCK_RECORD
  5
1B
330
1
100
AcDbSymbolTableRecord
100
AcDbBlockTableRecord
  2
*Paper_Space
340
1E
  0
BLOCK_RECORD
  5
23
330
1
100
AcDbSymbolTableRecord
100
AcDbBlockTableRecord
  2
*Paper_Space0
340
26
  0
BLOCK_RECORD
  5
2AE
330
1
100
AcDbSymbolTableRecord
100
AcDbBlockTableRecord
  2
_D
340
0
  0
BLOCK_RECORD
  5
2C1
330
1
100
AcDbSymbolTableRecord
100
AcDbBlockTableRecord
  2
_D_1
340
0
  0
BLOCK_RECORD
  5
2D4
330
1
100
AcDbSymbolTableRecord
100
AcDbBlockTableRecord
  2
_D_2
340
0
  0
BLOCK_RECORD
  5
2E8
330
1
100
AcDbSymbolTableRecord
100
AcDbBlockTableRecord
  2
_D_3
340
0
  0
BLOCK_RECORD
  5
2FC
330
1
100
AcDbSymbolTableRecord
100
AcDbBlockTableRecord
  2
_D_4
340
0
  0
BLOCK_RECORD
  5
30E
330
1
100
AcDbSymbolTableRecord
100
AcDbBlockTableRecord
  2
_D_5
340
0
  0
BLOCK_RECORD
  5
320
330
1
100
AcDbSymbolTableRecord
100
AcDbBlockTableRecord
  2
_D_6
340
0
  0
BLOCK_RECORD
  5
334
330
1
100
AcDbSymbolTableRecord
100
AcDbBlockTableRecord
  2
_D_7
340
0
  0
BLOCK_RECORD
  5
341
330
1
100
AcDbSymbolTableRecord
100
AcDbBlockTableRecord
  2
_D_8
340
0
  0
BLOCK_RECORD
  5
355
330
1
100
AcDbSymbolTableRecord
100
AcDbBlockTableRecord
  2
_D_9
340
0
  0
BLOCK_RECORD
  5
361
330
1
100
AcDbSymbolTableRecord
100
AcDbBlockTableRecord
  2
_D_10
340
0
  0
BLOCK_RECORD
  5
36E
330
1
100
AcDbSymbolTableRecord
100
AcDbBlockTableRecord
  2
_D_11
340
0
  0
ENDTAB
  0
ENDSEC
  0
SECTION
  2
BLOCKS
  0
BLOCK
  5
20
330
1F
100
AcDbEntity
  8
0
100
AcDbBlockBegin
  2
*Model_Space
 70
     0
 10
0.0
 20
0.0
 30
0.0
  3
*Model_Space
  1

  0
ENDBLK
  5
21
330
1F
100
AcDbEntity
  8
0
100
AcDbBlockEnd
  0
BLOCK
  5
1C
330
1B
100
AcDbEntity
 67
     1
  8
0
100
AcDbBlockBegin
  2
*Paper_Space
 70
     0
 10
0.0
 20
0.0
 30
0.0
  3
*Paper_Space
  1

  0
ENDBLK
  5
1D
330
1B
100
AcDbEntity
 67
     1
  8
0
100
AcDbBlockEnd
  0
BLOCK
  5
24
330
23
100
AcDbEntity
  8
0
100
AcDbBlockBegin
  2
*Paper_Space0
 70
     0
 10
0.0
 20
0.0
 30
0.0
  3
*Paper_Space0
  1

  0
ENDBLK
  5
25
330
23
100
AcDbEntity
  8
0
100
AcDbBlockEnd
  0
BLOCK
  5
2AF
330
2AE
100
AcDbEntity
  8
0
100
AcDbBlockBegin
  2
_D
 70
     0
 10
0.0
 20
0.0
 30
0.0
  3
_D
  1

  0
SOLID
  5
2B1
330
2AE
100
AcDbEntity
  8
2
100
AcDbTrace
 10
0.0
 20
48.9554563738
 30
0.0
 11
3.302
 21
48.4474563738
 31
0.0
 12
3.302
 22
49.4634563738
 32
0.0
 13
3.302
 23
49.4634563738
 33
0.0
  0
SOLID
  5
2B2
330
2AE
100
AcDbEntity
  8
2
100
AcDbTrace
 10
44.45
 20
48.9554563738
 30
0.0
 11
41.148
 21
49.4634563738
 31
0.0
 12
41.148
 22
48.4474563738
 32
0.0
 13
41.148
 23
48.4474563738
 33
0.0
  0
LINE
  5
2B3
330
2AE
100
AcDbEntity
  8
2
100
AcDbLine
 10
15.0608907292
 20
59.7483380898
 30
0.0
 11
13.9944844718
 21
59.7483380898
 31
0.0
  0
LINE
  5
2B4
330
2AE
100
AcDbEntity
  8
2
100
AcDbLine
 10
13.9944844718
 20
59.7483380898
 30
0.0
 11
13.9944844718
 21
54.1920880988
 31
0.0
  0
LINE
  5
2B5
330
2AE
100
AcDbEntity
  8
2
100
AcDbLine
 10
13.9944844718
 20
54.1920880988
 30
0.0
 11
15.0608907292
 21
54.1920880988
 31
0.0
  0
LINE
  5
2B6
330
2AE
100
AcDbEntity
  8
2
100
AcDbLine
 10
24.1122797902
 20
59.7483380898
 30
0.0
 11
25.1786860476
 21
59.7483380898
 31
0.0
  0
LINE
  5
2B7
330
2AE
100
AcDbEntity
  8
2
100
AcDbLine
 10
25.1786860476
 20
59.7483380898
 30
0.0
 11
25.1786860476
 21
54.1920880988
 31
0.0
  0
LINE
  5
2B8
330
2AE
100
AcDbEntity
  8
2
100
AcDbLine
 10
25.1786860476
 20
54.1920880988
 30
0.0
 11
24.1122797902
 21
54.1920880988
 31
0.0
  0
LINE
  5
2B9
330
2AE
100
AcDbEntity
  8
2
100
AcDbLine
 10
0.0
 20
23.225
 30
0.0
 11
0.0
 21
49.9554563738
 31
0.0
  0
LINE
  5
2BA
330
2AE
100
AcDbEntity
  8
2
100
AcDbLine
 10
44.45
 20
10.91
 30
0.0
 11
44.45
 21
49.9554563738
 31
0.0
  0
LINE
  5
2BB
330
2AE
100
AcDbEntity
  8
2
100
AcDbLine
 10
0.0
 20
48.9554563738
 30
0.0
 11
44.45
 21
48.9554563738
 31
0.0
  0
MTEXT
  5
2BC
330
2AE
100
AcDbEntity
  8
2
100
AcDbMText
 10
12.9475226176
 20
53.5206656396
 30
0.0
 40
3.5
 41
0.0
 71
     1
 72
     1
  1

  7
SLDTEXTSTYLE0
 73
     1
 44
1.0
  0
MTEXT
  5
2BD
330
2AE
100
AcDbEntity
  8
2
100
AcDbMText
 10
15.0608907292
 20
58.7038250133
 30
0.0
 40
3.5
 41
0.0
 71
     1
 72
     1
  1
1,75
  7
SLDTEXTSTYLE0
 73
     1
 44
1.0
  0
MTEXT
  5
2BE
330
2AE
100
AcDbEntity
  8
2
100
AcDbMText
 10
13.7678350161
 20
53.467193463
 30
0.0
 40
3.5
 41
0.0
 71
     1
 72
     1
  1
44,45
  7
SLDTEXTSTYLE0
 73
     1
 44
1.0
  0
MTEXT
  5
2BF
330
2AE
100
AcDbEntity
  8
2
100
AcDbMText
 10
27.5575924215
 20
53.5206656396
 30
0.0
 40
3.5
 41
0.0
 71
     1
 72
     1
  1

  7
SLDTEXTSTYLE0
 73
     1
 44
1.0
  0
ENDBLK
  5
2B0
330
2AE
100
AcDbEntity
  8
0
100
AcDbBlockEnd
  0
BLOCK
  5
2C2
330
2C1
100
AcDbEntity
  8
0
100
AcDbBlockBegin
  2
_D_1
 70
     0
 10
0.0
 20
0.0
 30
0.0
  3
_D_1
  1

  0
SOLID
  5
2C4
330
2C1
100
AcDbEntity
  8
SK2
100
AcDbTrace
 10
19.05
 20
36.3664251339
 30
0.0
 11
22.352
 21
35.8584251339
 31
0.0
 12
22.352
 22
36.8744251339
 32
0.0
 13
22.352
 23
36.8744251339
 33
0.0
  0
SOLID
  5
2C5
330
2C1
100
AcDbEntity
  8
SK2
100
AcDbTrace
 10
44.45
 20
36.3664251339
 30
0.0
 11
41.148
 21
36.8744251339
 31
0.0
 12
41.148
 22
35.8584251339
 32
0.0
 13
41.148
 23
35.8584251339
 33
0.0
  0
LINE
  5
2C6
330
2C1
100
AcDbEntity
  8
SK2
100
AcDbLine
 10
27.1416216263
 20
47.15930685
 30
0.0
 11
26.0752153689
 21
47.15930685
 31
0.0
  0
LINE
  5
2C7
330
2C1
100
AcDbEntity
  8
SK2
100
AcDbLine
 10
26.0752153689
 20
47.15930685
 30
0.0
 11
26.0752153689
 21
41.6030568589
 31
0.0
  0
LINE
  5
2C8
330
2C1
100
AcDbEntity
  8
SK2
100
AcDbLine
 10
26.0752153689
 20
41.6030568589
 30
0.0
 11
27.1416216263
 21
41.6030568589
 31
0.0
  0
LINE
  5
2C9
330
2C1
100
AcDbEntity
  8
SK2
100
AcDbLine
 10
36.1930106872
 20
47.15930685
 30
0.0
 11
37.2594169447
 21
47.15930685
 31
0.0
  0
LINE
  5
2CA
330
2C1
100
AcDbEntity
  8
SK2
100
AcDbLine
 10
37.2594169447
 20
47.15930685
 30
0.0
 11
37.2594169447
 21
41.6030568589
 31
0.0
  0
LINE
  5
2CB
330
2C1
100
AcDbEntity
  8
SK2
100
AcDbLine
 10
37.2594169447
 20
41.6030568589
 30
0.0
 11
36.1930106872
 21
41.6030568589
 31
0.0
  0
LINE
  5
2CC
330
2C1
100
AcDbEntity
  8
SK2
100
AcDbLine
 10
19.05
 20
30.8048664484
 30
0.0
 11
19.05
 21
37.3664251339
 31
0.0
  0
LINE
  5
2CD
330
2C1
100
AcDbEntity
  8
SK2
100
AcDbLine
 10
44.45
 20
10.91
 30
0.0
 11
44.45
 21
37.3664251339
 31
0.0
  0
LINE
  5
2CE
330
2C1
100
AcDbEntity
  8
SK2
100
AcDbLine
 10
19.05
 20
36.3664251339
 30
0.0
 11
44.45
 21
36.3664251339
 31
0.0
  0
MTEXT
  5
2CF
330
2C1
100
AcDbEntity
  8
SK2
100
AcDbMText
 10
25.0282535147
 20
40.9316343998
 30
0.0
 40
3.5
 41
0.0
 71
     1
 72
     1
  1

  7
SLDTEXTSTYLE0
 73
     1
 44
1.0
  0
MTEXT
  5
2D0
330
2C1
100
AcDbEntity
  8
SK2
100
AcDbMText
 10
27.1416216263
 20
46.1147937735
 30
0.0
 40
3.5
 41
0.0
 71
     1
 72
     1
  1
1,00
  7
SLDTEXTSTYLE0
 73
     1
 44
1.0
  0
MTEXT
  5
2D1
330
2C1
100
AcDbEntity
  8
SK2
100
AcDbMText
 10
27.1416216263
 20
40.8781622231
 30
0.0
 40
3.5
 41
0.0
 71
     1
 72
     1
  1
25,4
  7
SLDTEXTSTYLE0
 73
     1
 44
1.0
  0
MTEXT
  5
2D2
330
2C1
100
AcDbEntity
  8
SK2
100
AcDbMText
 10
39.6383233186
 20
40.9316343998
 30
0.0
 40
3.5
 41
0.0
 71
     1
 72
     1
  1

  7
SLDTEXTSTYLE0
 73
     1
 44
1.0
  0
ENDBLK
  5
2C3
330
2C1
100
AcDbEntity
  8
0
100
AcDbBlockEnd
  0
BLOCK
  5
2D5
330
2D4
100
AcDbEntity
  8
0
100
AcDbBlockBegin
  2
_D_2
 70
     0
 10
0.0
 20
0.0
 30
0.0
  3
_D_2
  1

  0
SOLID
  5
2D7
330
2D4
100
AcDbEntity
  8
SK2
100
AcDbTrace
 10
28.575
 20
22.0516254344
 30
0.0
 11
31.877
 21
21.5436254344
 31
0.0
 12
31.877
 22
22.5596254344
 32
0.0
 13
31.877
 23
22.5596254344
 33
0.0
  0
SOLID
  5
2D8
330
2D4
100
AcDbEntity
  8
SK2
100
AcDbTrace
 10
44.45
 20
22.0516254344
 30
0.0
 11
41.148
 21
22.5596254344
 31
0.0
 12
41.148
 22
21.5436254344
 32
0.0
 13
41.148
 23
21.5436254344
 33
0.0
  0
LINE
  5
2D9
330
2D4
100
AcDbEntity
  8
SK2
100
AcDbLine
 10
31.9151533099
 20
32.8445071504
 30
0.0
 11
30.8487470524
 21
32.8445071504
 31
0.0
  0
LINE
  5
2DA
330
2D4
100
AcDbEntity
  8
SK2
100
AcDbLine
 10
30.8487470524
 20
32.8445071504
 30
0.0
 11
30.8487470524
 21
27.2882571593
 31
0.0
  0
LINE
  5
2DB
330
2D4
100
AcDbEntity
  8
SK2
100
AcDbLine
 10
30.8487470524
 20
27.2882571593
 30
0.0
 11
31.9151533099
 21
27.2882571593
 31
0.0
  0
LINE
  5
2DC
330
2D4
100
AcDbEntity
  8
SK2
100
AcDbLine
 10
40.9665423708
 20
32.8445071504
 30
0.0
 11
42.0329486282
 21
32.8445071504
 31
0.0
  0
LINE
  5
2DD
330
2D4
100
AcDbEntity
  8
SK2
100
AcDbLine
 10
42.0329486282
 20
32.8445071504
 30
0.0
 11
42.0329486282
 21
27.2882571593
 31
0.0
  0
LINE
  5
2DE
330
2D4
100
AcDbEntity
  8
SK2
100
AcDbLine
 10
42.0329486282
 20
27.2882571593
 30
0.0
 11
40.9665423708
 21
27.2882571593
 31
0.0
  0
LINE
  5
2DF
330
2D4
100
AcDbEntity
  8
SK2
100
AcDbLine
 10
28.575
 20
8.98125
 30
0.0
 11
28.575
 21
23.0516254344
 31
0.0
  0
LINE
  5
2E0
330
2D4
100
AcDbEntity
  8
SK2
100
AcDbLine
 10
44.45
 20
10.91
 30
0.0
 11
44.45
 21
23.0516254344
 31
0.0
  0
LINE
  5
2E1
330
2D4
100
AcDbEntity
  8
SK2
100
AcDbLine
 10
28.575
 20
22.0516254344
 30
0.0
 11
44.45
 21
22.0516254344
 31
0.0
  0
MTEXT
  5
2E2
330
2D4
100
AcDbEntity
  8
SK2
100
AcDbMText
 10
29.8017851982
 20
26.6168347002
 30
0.0
 40
3.5
 41
0.0
 71
     1
 72
     1
  1

  7
SLDTEXTSTYLE0
 73
     1
 44
1.0
  0
MTEXT
  5
2E3
330
2D4
100
AcDbEntity
  8
SK2
100
AcDbMText
 10
31.9151533099
 20
31.7999940739
 30
0.0
 40
3.5
 41
0.0
 71
     1
 72
     1
  1
0,63
  7
SLDTEXTSTYLE0
 73
     1
 44
1.0
  0
MTEXT
  5
2E4
330
2D4
100
AcDbEntity
  8
SK2
100
AcDbMText
 10
30.6220975967
 20
26.5633625236
 30
0.0
 40
3.5
 41
0.0
 71
     1
 72
     1
  1
15,88
  7
SLDTEXTSTYLE0
 73
     1
 44
1.0
  0
MTEXT
  5
2E5
330
2D4
100
AcDbEntity
  8
SK2
100
AcDbMText
 10
44.4118550021
 20
26.6168347002
 30
0.0
 40
3.5
 41
0.0
 71
     1
 72
     1
  1

  7
SLDTEXTSTYLE0
 73
     1
 44
1.0
  0
ENDBLK
  5
2D6
330
2D4
100
AcDbEntity
  8
0
100
AcDbBlockEnd
  0
BLOCK
  5
2E9
330
2E8
100
AcDbEntity
  8
0
100
AcDbBlockBegin
  2
_D_3
 70
     0
 10
0.0
 20
0.0
 30
0.0
  3
_D_3
  1

  0
SOLID
  5
2EB
330
2E8
100
AcDbEntity
  8
SK2
100
AcDbTrace
 10
61.5548878447
 20
4.7625
 30
0.0
 11
62.0628878447
 21
8.0645
 31
0.0
 12
61.0468878447
 22
8.0645
 32
0.0
 13
61.0468878447
 23
8.0645
 33
0.0
  0
SOLID
  5
2EC
330
2E8
100
AcDbEntity
  8
SK2
100
AcDbTrace
 10
61.5548878447
 20
-4.7625
 30
0.0
 11
61.0468878447
 21
-8.0645
 31
0.0
 12
62.0628878447
 22
-8.0645
 32
0.0
 13
62.0628878447
 23
-8.0645
 33
0.0
  0
LINE
  5
2ED
330
2E8
100
AcDbEntity
  8
SK2
100
AcDbLine
 10
50.7620061286
 20
16.2328756564
 30
0.0
 11
50.7620061286
 21
15.1664693989
 31
0.0
  0
LINE
  5
2EE
330
2E8
100
AcDbEntity
  8
SK2
100
AcDbLine
 10
50.7620061286
 20
15.1664693989
 30
0.0
 11
56.3182561197
 21
15.1664693989
 31
0.0
  0
LINE
  5
2EF
330
2E8
100
AcDbEntity
  8
SK2
100
AcDbLine
 10
56.3182561197
 20
15.1664693989
 30
0.0
 11
56.3182561197
 21
16.2328756564
 31
0.0
  0
LINE
  5
2F0
330
2E8
100
AcDbEntity
  8
SK2
100
AcDbLine
 10
50.7620061286
 20
27.8703761436
 30
0.0
 11
50.7620061286
 21
28.9367824011
 31
0.0
  0
LINE
  5
2F1
330
2E8
100
AcDbEntity
  8
SK2
100
AcDbLine
 10
50.7620061286
 20
28.9367824011
 30
0.0
 11
56.3182561197
 21
28.9367824011
 31
0.0
  0
LINE
  5
2F2
330
2E8
100
AcDbEntity
  8
SK2
100
AcDbLine
 10
56.3182561197
 20
28.9367824011
 30
0.0
 11
56.3182561197
 21
27.8703761436
 31
0.0
  0
LINE
  5
2F3
330
2E8
100
AcDbEntity
  8
SK2
100
AcDbLine
 10
39.2288476495
 20
4.7625
 30
0.0
 11
62.5548878447
 21
4.7625
 31
0.0
  0
LINE
  5
2F4
330
2E8
100
AcDbEntity
  8
SK2
100
AcDbLine
 10
44.7
 20
-4.7625
 30
0.0
 11
62.5548878447
 21
-4.7625
 31
0.0
  0
LINE
  5
2F5
330
2E8
100
AcDbEntity
  8
SK2
100
AcDbLine
 10
61.5548878447
 20
4.7625
 30
0.0
 11
61.5548878447
 21
30.5095943772
 31
0.0
  0
LINE
  5
2F6
330
2E8
100
AcDbEntity
  8
SK2
100
AcDbLine
 10
61.5548878447
 20
4.7625
 30
0.0
 11
61.5548878447
 21
-4.7625
 31
0.0
  0
LINE
  5
2F7
330
2E8
100
AcDbEntity
  8
SK2
100
AcDbLine
 10
61.5548878447
 20
-4.7625
 30
0.0
 11
61.5548878447
 21
-11.1125
 31
0.0
  0
MTEXT
  5
2F8
330
2E8
100
AcDbEntity
  8
SK2
100
AcDbMText
 10
51.8065192051
 20
16.2328756564
 30
0.0
 40
3.5
 41
0.0
 71
     1
 72
     1
  1
0,375
  7
SLDTEXTSTYLE0
 11
-7.044195017643634E-15
 21
1.0
 31
0.0
 73
     1
 44
1.0
  0
MTEXT
  5
2F9
330
2E8
100
AcDbEntity
  8
SK2
100
AcDbMText
 10
57.0431507555
 20
13.5936564915
 30
0.0
 40
3.5
 41
0.0
 71
     1
 72
     1
  1
%%c
  7
SLDTEXTSTYLE0
 11
-7.044195017643634E-15
 21
1.0
 31
0.0
 73
     1
 44
1.0
  0
MTEXT
  5
2FA
330
2E8
100
AcDbEntity
  8
SK2
100
AcDbMText
 10
57.0431507555
 20
18.8720938899
 30
0.0
 40
3.5
 41
0.0
 71
     1
 72
     1
  1
9,525
  7
SLDTEXTSTYLE0
 11
-7.044195017643634E-15
 21
1.0
 31
0.0
 73
     1
 44
1.0
  0
ENDBLK
  5
2EA
330
2E8
100
AcDbEntity
  8
0
100
AcDbBlockEnd
  0
BLOCK
  5
2FD
330
2FC
100
AcDbEntity
  8
0
100
AcDbBlockBegin
  2
_D_4
 70
     0
 10
0.0
 20
0.0
 30
0.0
  3
_D_4
  1

  0
SOLID
  5
2FF
330
2FC
100
AcDbEntity
  8
SK2
100
AcDbTrace
 10
77.6984741636
 20
9.91
 30
0.0
 11
77.1904741636
 21
6.608
 31
0.0
 12
78.2064741636
 22
6.608
 32
0.0
 13
78.2064741636
 23
6.608
 33
0.0
  0
SOLID
  5
300
330
2FC
100
AcDbEntity
  8
SK2
100
AcDbTrace
 10
77.6984741636
 20
-9.91
 30
0.0
 11
78.2064741636
 21
-6.608
 31
0.0
 12
77.1904741636
 22
-6.608
 32
0.0
 13
77.1904741636
 23
-6.608
 33
0.0
  0
LINE
  5
301
330
2FC
100
AcDbEntity
  8
SK2
100
AcDbLine
 10
66.9055924476
 20
-4.5698500399
 30
0.0
 11
66.9055924476
 21
-5.6362562973
 31
0.0
  0
LINE
  5
302
330
2FC
100
AcDbEntity
  8
SK2
100
AcDbLine
 10
66.9055924476
 20
-5.6362562973
 30
0.0
 11
72.4618424386
 21
-5.6362562973
 31
0.0
  0
LINE
  5
303
330
2FC
100
AcDbEntity
  8
SK2
100
AcDbLine
 10
72.4618424386
 20
-5.6362562973
 30
0.0
 11
72.4618424386
 21
-4.5698500399
 31
0.0
  0
LINE
  5
304
330
2FC
100
AcDbEntity
  8
SK2
100
AcDbLine
 10
66.9055924476
 20
4.481539021
 30
0.0
 11
66.9055924476
 21
5.5479452785
 31
0.0
  0
LINE
  5
305
330
2FC
100
AcDbEntity
  8
SK2
100
AcDbLine
 10
66.9055924476
 20
5.5479452785
 30
0.0
 11
72.4618424386
 21
5.5479452785
 31
0.0
  0
LINE
  5
306
330
2FC
100
AcDbEntity
  8
SK2
100
AcDbLine
 10
72.4618424386
 20
5.5479452785
 30
0.0
 11
72.4618424386
 21
4.481539021
 31
0.0
  0
LINE
  5
307
330
2FC
100
AcDbEntity
  8
SK2
100
AcDbLine
 10
45.45
 20
9.91
 30
0.0
 11
78.6984741636
 21
9.91
 31
0.0
  0
LINE
  5
308
330
2FC
100
AcDbEntity
  8
SK2
100
AcDbLine
 10
45.45
 20
-9.91
 30
0.0
 11
78.6984741636
 21
-9.91
 31
0.0
  0
LINE
  5
309
330
2FC
100
AcDbEntity
  8
SK2
100
AcDbLine
 10
77.6984741636
 20
9.91
 30
0.0
 11
77.6984741636
 21
-9.91
 31
0.0
  0
MTEXT
  5
30A
330
2FC
100
AcDbEntity
  8
SK2
100
AcDbMText
 10
67.950105524
 20
-4.5698500399
 30
0.0
 40
3.5
 41
0.0
 71
     1
 72
     1
  1
0,78
  7
SLDTEXTSTYLE0
 11
-7.044195017643634E-15
 21
1.0
 31
0.0
 73
     1
 44
1.0
  0
MTEXT
  5
30B
330
2FC
100
AcDbEntity
  8
SK2
100
AcDbMText
 10
73.1867370744
 20
-8.5021244523
 30
0.0
 40
3.5
 41
0.0
 71
     1
 72
     1
  1
%%c
  7
SLDTEXTSTYLE0
 11
-7.044195017643634E-15
 21
1.0
 31
0.0
 73
     1
 44
1.0
  0
MTEXT
  5
30C
330
2FC
100
AcDbEntity
  8
SK2
100
AcDbMText
 10
73.1867370744
 20
-3.2236870539
 30
0.0
 40
3.5
 41
0.0
 71
     1
 72
     1
  1
19,82
  7
SLDTEXTSTYLE0
 11
-7.044195017643634E-15
 21
1.0
 31
0.0
 73
     1
 44
1.0
  0
ENDBLK
  5
2FE
330
2FC
100
AcDbEntity
  8
0
100
AcDbBlockEnd
  0
BLOCK
  5
30F
330
30E
100
AcDbEntity
  8
0
100
AcDbBlockBegin
  2
_D_5
 70
     0
 10
0.0
 20
0.0
 30
0.0
  3
_D_5
  1

  0
SOLID
  5
311
330
30E
100
AcDbEntity
  8
SK2
100
AcDbTrace
 10
92.8116188026
 20
12.7
 30
0.0
 11
92.3036188026
 21
9.398
 31
0.0
 12
93.3196188026
 22
9.398
 32
0.0
 13
93.3196188026
 23
9.398
 33
0.0
  0
SOLID
  5
312
330
30E
100
AcDbEntity
  8
SK2
100
AcDbTrace
 10
92.8116188026
 20
-12.7
 30
0.0
 11
93.3196188026
 21
-9.398
 31
0.0
 12
92.3036188026
 22
-9.398
 32
0.0
 13
92.3036188026
 23
-9.398
 33
0.0
  0
LINE
  5
313
330
30E
100
AcDbEntity
  8
SK2
100
AcDbLine
 10
82.0187370866
 20
-3.71114864
 30
0.0
 11
82.0187370866
 21
-4.7775548974
 31
0.0
  0
LINE
  5
314
330
30E
100
AcDbEntity
  8
SK2
100
AcDbLine
 10
82.0187370866
 20
-4.7775548974
 30
0.0
 11
87.5749870776
 21
-4.7775548974
 31
0.0
  0
LINE
  5
315
330
30E
100
AcDbEntity
  8
SK2
100
AcDbLine
 10
87.5749870776
 20
-4.7775548974
 30
0.0
 11
87.5749870776
 21
-3.71114864
 31
0.0
  0
LINE
  5
316
330
30E
100
AcDbEntity
  8
SK2
100
AcDbLine
 10
82.0187370866
 20
5.340240421
 30
0.0
 11
82.0187370866
 21
6.4066466784
 31
0.0
  0
LINE
  5
317
330
30E
100
AcDbEntity
  8
SK2
100
AcDbLine
 10
82.0187370866
 20
6.4066466784
 30
0.0
 11
87.5749870776
 21
6.4066466784
 31
0.0
  0
LINE
  5
318
330
30E
100
AcDbEntity
  8
SK2
100
AcDbLine
 10
87.5749870776
 20
6.4066466784
 30
0.0
 11
87.5749870776
 21
5.340240421
 31
0.0
  0
LINE
  5
319
330
30E
100
AcDbEntity
  8
SK2
100
AcDbLine
 10
42.66
 20
12.7
 30
0.0
 11
93.8116188026
 21
12.7
 31
0.0
  0
LINE
  5
31A
330
30E
100
AcDbEntity
  8
SK2
100
AcDbLine
 10
42.66
 20
-12.7
 30
0.0
 11
93.8116188026
 21
-12.7
 31
0.0
  0
LINE
  5
31B
330
30E
100
AcDbEntity
  8
SK2
100
AcDbLine
 10
92.8116188026
 20
12.7
 30
0.0
 11
92.8116188026
 21
-12.7
 31
0.0
  0
MTEXT
  5
31C
330
30E
100
AcDbEntity
  8
SK2
100
AcDbMText
 10
83.063250163
 20
-3.71114864
 30
0.0
 40
3.5
 41
0.0
 71
     1
 72
     1
  1
1,00
  7
SLDTEXTSTYLE0
 11
-7.044195017643634E-15
 21
1.0
 31
0.0
 73
     1
 44
1.0
  0
MTEXT
  5
31D
330
30E
100
AcDbEntity
  8
SK2
100
AcDbMText
 10
88.2998817134
 20
-6.3503678048
 30
0.0
 40
3.5
 41
0.0
 71
     1
 72
     1
  1
%%c
  7
SLDTEXTSTYLE0
 11
-7.044195017643634E-15
 21
1.0
 31
0.0
 73
     1
 44
1.0
  0
MTEXT
  5
31E
330
30E
100
AcDbEntity
  8
SK2
100
AcDbMText
 10
88.2998817134
 20
-1.0719304064
 30
0.0
 40
3.5
 41
0.0
 71
     1
 72
     1
  1
25,4
  7
SLDTEXTSTYLE0
 11
-7.044195017643634E-15
 21
1.0
 31
0.0
 73
     1
 44
1.0
  0
ENDBLK
  5
310
330
30E
100
AcDbEntity
  8
0
100
AcDbBlockEnd
  0
BLOCK
  5
321
330
320
100
AcDbEntity
  8
0
100
AcDbBlockBegin
  2
_D_6
 70
     0
 10
0.0
 20
0.0
 30
0.0
  3
_D_6
  1

  0
SOLID
  5
323
330
320
100
AcDbEntity
  8
SK2
100
AcDbTrace
 10
6.3479512444
 20
-42.0712021712
 30
0.0
 11
9.6499512444
 21
-42.5792021712
 31
0.0
 12
9.6499512444
 22
-41.5632021712
 32
0.0
 13
9.6499512444
 23
-41.5632021712
 33
0.0
  0
SOLID
  5
324
330
320
100
AcDbEntity
  8
SK2
100
AcDbTrace
 10
44.45
 20
-42.0712021712
 30
0.0
 11
41.148
 21
-41.5632021712
 31
0.0
 12
41.148
 22
-42.5792021712
 32
0.0
 13
41.148
 23
-42.5792021712
 33
0.0
  0
LINE
  5
325
330
320
100
AcDbEntity
  8
SK2
100
AcDbLine
 10
23.9522417025
 20
-31.2783204551
 30
0.0
 11
22.8858354451
 21
-31.2783204551
 31
0.0
  0
LINE
  5
326
330
320
100
AcDbEntity
  8
SK2
100
AcDbLine
 10
22.8858354451
 20
-31.2783204551
 30
0.0
 11
22.8858354451
 21
-36.8345704462
 31
0.0
  0
LINE
  5
327
330
320
100
AcDbEntity
  8
SK2
100
AcDbLine
 10
22.8858354451
 20
-36.8345704462
 30
0.0
 11
23.9522417025
 21
-36.8345704462
 31
0.0
  0
LINE
  5
328
330
320
100
AcDbEntity
  8
SK2
100
AcDbLine
 10
33.0036307635
 20
-31.2783204551
 30
0.0
 11
34.0700370209
 21
-31.2783204551
 31
0.0
  0
LINE
  5
329
330
320
100
AcDbEntity
  8
SK2
100
AcDbLine
 10
34.0700370209
 20
-31.2783204551
 30
0.0
 11
34.0700370209
 21
-36.8345704462
 31
0.0
  0
LINE
  5
32A
330
320
100
AcDbEntity
  8
SK2
100
AcDbLine
 10
34.0700370209
 20
-36.8345704462
 30
0.0
 11
33.0036307635
 21
-36.8345704462
 31
0.0
  0
LINE
  5
32B
330
320
100
AcDbEntity
  8
SK2
100
AcDbLine
 10
6.3479512444
 20
-5.7625
 30
0.0
 11
6.3479512444
 21
-43.0712021712
 31
0.0
  0
LINE
  5
32C
330
320
100
AcDbEntity
  8
SK2
100
AcDbLine
 10
44.45
 20
-10.91
 30
0.0
 11
44.45
 21
-43.0712021712
 31
0.0
  0
LINE
  5
32D
330
320
100
AcDbEntity
  8
SK2
100
AcDbLine
 10
6.3479512444
 20
-42.0712021712
 30
0.0
 11
44.45
 21
-42.0712021712
 31
0.0
  0
MTEXT
  5
32E
330
320
100
AcDbEntity
  8
SK2
100
AcDbMText
 10
21.8388735909
 20
-37.5059929053
 30
0.0
 40
3.5
 41
0.0
 71
     1
 72
     1
  1

  7
SLDTEXTSTYLE0
 73
     1
 44
1.0
  0
MTEXT
  5
32F
330
320
100
AcDbEntity
  8
SK2
100
AcDbMText
 10
23.9522417025
 20
-32.3228335316
 30
0.0
 40
3.5
 41
0.0
 71
     1
 72
     1
  1
1,50
  7
SLDTEXTSTYLE0
 73
     1
 44
1.0
  0
MTEXT
  5
330
330
320
100
AcDbEntity
  8
SK2
100
AcDbMText
 10
23.9522417025
 20
-37.559465082
 30
0.0
 40
3.5
 41
0.0
 71
     1
 72
     1
  1
38,1
  7
SLDTEXTSTYLE0
 73
     1
 44
1.0
  0
MTEXT
  5
331
330
320
100
AcDbEntity
  8
SK2
100
AcDbMText
 10
36.4489433948
 20
-37.5059929053
 30
0.0
 40
3.5
 41
0.0
 71
     1
 72
     1
  1

  7
SLDTEXTSTYLE0
 73
     1
 44
1.0
  0
ENDBLK
  5
322
330
320
100
AcDbEntity
  8
0
100
AcDbBlockEnd
  0
BLOCK
  5
335
330
334
100
AcDbEntity
  8
0
100
AcDbBlockBegin
  2
_D_7
 70
     0
 10
0.0
 20
0.0
 30
0.0
  3
_D_7
  1

  0
SOLID
  5
337
330
334
100
AcDbEntity
  8
SK2
100
AcDbTrace
 10
41.66
 20
-24.38986563
 30
0.0
 11
38.358
 21
-23.88186563
 31
0.0
 12
38.358
 22
-24.89786563
 32
0.0
 13
38.358
 23
-24.89786563
 33
0.0
  0
SOLID
  5
338
330
334
100
AcDbEntity
  8
SK2
100
AcDbTrace
 10
44.45
 20
-24.38986563
 30
0.0
 11
47.752
 21
-24.89786563
 31
0.0
 12
47.752
 22
-23.88186563
 32
0.0
 13
47.752
 23
-23.88186563
 33
0.0
  0
LINE
  5
339
330
334
100
AcDbEntity
  8
SK2
100
AcDbLine
 10
41.66
 20
-13.7
 30
0.0
 11
41.66
 21
-25.38986563
 31
0.0
  0
LINE
  5
33A
330
334
100
AcDbEntity
  8
SK2
100
AcDbLine
 10
44.45
 20
-10.91
 30
0.0
 11
44.45
 21
-25.38986563
 31
0.0
  0
LINE
  5
33B
330
334
100
AcDbEntity
  8
SK2
100
AcDbLine
 10
41.66
 20
-24.38986563
 30
0.0
 11
30.4371574809
 21
-24.38986563
 31
0.0
  0
LINE
  5
33C
330
334
100
AcDbEntity
  8
SK2
100
AcDbLine
 10
41.66
 20
-24.38986563
 30
0.0
 11
44.45
 21
-24.38986563
 31
0.0
  0
LINE
  5
33D
330
334
100
AcDbEntity
  8
SK2
100
AcDbLine
 10
44.45
 20
-24.38986563
 30
0.0
 11
50.8
 21
-24.38986563
 31
0.0
  0
MTEXT
  5
33E
330
334
100
AcDbEntity
  8
SK2
100
AcDbMText
 10
30.4371574809
 20
-19.8781287154
 30
0.0
 40
3.5
 41
0.0
 71
     1
 72
     1
  1
2,79
  7
SLDTEXTSTYLE0
 73
     1
 44
1.0
  0
ENDBLK
  5
336
330
334
100
AcDbEntity
  8
0
100
AcDbBlockEnd
  0
BLOCK
  5
342
330
341
100
AcDbEntity
  8
0
100
AcDbBlockBegin
  2
_D_8
 70
     0
 10
0.0
 20
0.0
 30
0.0
  3
_D_8
  1

  0
SOLID
  5
344
330
341
100
AcDbEntity
  8
SK2
100
AcDbTrace
 10
-68.25
 20
-50.668260916
 30
0.0
 11
-64.948
 21
-51.176260916
 31
0.0
 12
-64.948
 22
-50.160260916
 32
0.0
 13
-64.948
 23
-50.160260916
 33
0.0
  0
SOLID
  5
345
330
341
100
AcDbEntity
  8
SK2
100
AcDbTrace
 10
44.45
 20
-50.668260916
 30
0.0
 11
41.148
 21
-50.160260916
 31
0.0
 12
41.148
 22
-51.176260916
 32
0.0
 13
41.148
 23
-51.176260916
 33
0.0
  0
LINE
  5
346
330
341
100
AcDbEntity
  8
SK2
100
AcDbLine
 10
-26.0814919233
 20
-39.8753792
 30
0.0
 11
-27.1478981807
 21
-39.8753792
 31
0.0
  0
LINE
  5
347
330
341
100
AcDbEntity
  8
SK2
100
AcDbLine
 10
-27.1478981807
 20
-39.8753792
 30
0.0
 11
-27.1478981807
 21
-45.4316291911
 31
0.0
  0
LINE
  5
348
330
341
100
AcDbEntity
  8
SK2
100
AcDbLine
 10
-27.1478981807
 20
-45.4316291911
 30
0.0
 11
-26.0814919233
 21
-45.4316291911
 31
0.0
  0
LINE
  5
349
330
341
100
AcDbEntity
  8
SK2
100
AcDbLine
 10
-14.443991436
 20
-39.8753792
 30
0.0
 11
-13.3775851785
 21
-39.8753792
 31
0.0
  0
LINE
  5
34A
330
341
100
AcDbEntity
  8
SK2
100
AcDbLine
 10
-13.3775851785
 20
-39.8753792
 30
0.0
 11
-13.3775851785
 21
-45.4316291911
 31
0.0
  0
LINE
  5
34B
330
341
100
AcDbEntity
  8
SK2
100
AcDbLine
 10
-13.3775851785
 20
-45.4316291911
 30
0.0
 11
-14.443991436
 21
-45.4316291911
 31
0.0
  0
LINE
  5
34C
330
341
100
AcDbEntity
  8
SK2
100
AcDbLine
 10
-68.25
 20
-12.1476148288
 30
0.0
 11
-68.25
 21
-51.668260916
 31
0.0
  0
LINE
  5
34D
330
341
100
AcDbEntity
  8
SK2
100
AcDbLine
 10
44.45
 20
-10.91
 30
0.0
 11
44.45
 21
-51.668260916
 31
0.0
  0
LINE
  5
34E
330
341
100
AcDbEntity
  8
SK2
100
AcDbLine
 10
-68.25
 20
-50.668260916
 30
0.0
 11
44.45
 21
-50.668260916
 31
0.0
  0
MTEXT
  5
34F
330
341
100
AcDbEntity
  8
SK2
100
AcDbMText
 10
-28.1948600349
 20
-46.1030516502
 30
0.0
 40
3.5
 41
0.0
 71
     1
 72
     1
  1

  7
SLDTEXTSTYLE0
 73
     1
 44
1.0
  0
MTEXT
  5
350
330
341
100
AcDbEntity
  8
SK2
100
AcDbMText
 10
-26.0814919233
 20
-40.9198922765
 30
0.0
 40
3.5
 41
0.0
 71
     1
 72
     1
  1
4,437
  7
SLDTEXTSTYLE0
 73
     1
 44
1.0
  0
MTEXT
  5
351
330
341
100
AcDbEntity
  8
SK2
100
AcDbMText
 10
-26.0814923889
 20
-46.1565238268
 30
0.0
 40
3.5
 41
0.0
 71
     1
 72
     1
  1
112,7
  7
SLDTEXTSTYLE0
 73
     1
 44
1.0
  0
MTEXT
  5
352
330
341
100
AcDbEntity
  8
SK2
100
AcDbMText
 10
-10.998679736
 20
-46.1030516502
 30
0.0
 40
3.5
 41
0.0
 71
     1
 72
     1
  1

  7
SLDTEXTSTYLE0
 73
     1
 44
1.0
  0
ENDBLK
  5
343
330
341
100
AcDbEntity
  8
0
100
AcDbBlockEnd
  0
BLOCK
  5
356
330
355
100
AcDbEntity
  8
0
100
AcDbBlockBegin
  2
_D_9
 70
     0
 10
0.0
 20
0.0
 30
0.0
  3
_D_9
  1

  0
SOLID
  5
358
330
355
100
AcDbEntity
  8
SK2
100
AcDbTrace
 10
-87.8144774701
 20
30.5578899967
 30
0.0
 11
-88.3224774701
 21
27.2558899967
 31
0.0
 12
-87.3064774701
 22
27.2558899967
 32
0.0
 13
-87.3064774701
 23
27.2558899967
 33
0.0
  0
SOLID
  5
359
330
355
100
AcDbEntity
  8
SK2
100
AcDbTrace
 10
-87.8144774701
 20
-30.5579086614
 30
0.0
 11
-87.3064774701
 21
-27.2559086614
 31
0.0
 12
-88.3224774701
 22
-27.2559086614
 32
0.0
 13
-88.3224774701
 23
-27.2559086614
 33
0.0
  0
LINE
  5
35A
330
355
100
AcDbEntity
  8
SK2
100
AcDbLine
 10
2.95
 20
30.5578899967
 30
0.0
 11
-88.8144774701
 21
30.5578899967
 31
0.0
  0
LINE
  5
35B
330
355
100
AcDbEntity
  8
SK2
100
AcDbLine
 10
2.95
 20
-30.5579086614
 30
0.0
 11
-88.8144774701
 21
-30.5579086614
 31
0.0
  0
LINE
  5
35C
330
355
100
AcDbEntity
  8
SK2
100
AcDbLine
 10
-87.8144774701
 20
30.5578899967
 30
0.0
 11
-87.8144774701
 21
-30.5579086614
 31
0.0
  0
MTEXT
  5
35D
330
355
100
AcDbEntity
  8
SK2
100
AcDbMText
 10
-92.3262145593
 20
-9.4643625939
 30
0.0
 40
3.5
 41
0.0
 71
     1
 72
     1
  1
%%c
  7
SLDTEXTSTYLE0
 11
-3.491481338843133E-15
 21
1.0
 31
0.0
 73
     1
 44
1.0
  0
MTEXT
  5
35E
330
355
100
AcDbEntity
  8
SK2
100
AcDbMText
 10
-92.379686736
 20
-4.1859251955
 30
0.0
 40
3.5
 41
0.0
 71
     1
 72
     1
  1
63,5
  7
SLDTEXTSTYLE0
 11
-3.491481338843133E-15
 21
1.0
 31
0.0
 73
     1
 44
1.0
  0
ENDBLK
  5
357
330
355
100
AcDbEntity
  8
0
100
AcDbBlockEnd
  0
BLOCK
  5
362
330
361
100
AcDbEntity
  8
0
100
AcDbBlockBegin
  2
_D_10
 70
     0
 10
0.0
 20
0.0
 30
0.0
  3
_D_10
  1

  0
SOLID
  5
364
330
361
100
AcDbEntity
  8
SK2
100
AcDbTrace
 10
-78.172902171
 20
7.9375002533
 30
0.0
 11
-77.664902171
 21
11.2395002533
 31
0.0
 12
-78.680902171
 22
11.2395002533
 32
0.0
 13
-78.680902171
 23
11.2395002533
 33
0.0
  0
SOLID
  5
365
330
361
100
AcDbEntity
  8
SK2
100
AcDbTrace
 10
-78.172902171
 20
-7.9375002533
 30
0.0
 11
-78.680902171
 21
-11.2395002533
 31
0.0
 12
-77.664902171
 22
-11.2395002533
 32
0.0
 13
-77.664902171
 23
-11.2395002533
 33
0.0
  0
LINE
  5
366
330
361
100
AcDbEntity
  8
SK2
100
AcDbLine
 10
-64.3082389832
 20
7.9375002533
 30
0.0
 11
-79.172902171
 21
7.9375002533
 31
0.0
  0
LINE
  5
367
330
361
100
AcDbEntity
  8
SK2
100
AcDbLine
 10
-64.3082389832
 20
-7.9375002533
 30
0.0
 11
-79.172902171
 21
-7.9375002533
 31
0.0
  0
LINE
  5
368
330
361
100
AcDbEntity
  8
SK2
100
AcDbLine
 10
-78.172902171
 20
7.9375002533
 30
0.0
 11
-78.172902171
 21
14.2875002533
 31
0.0
  0
LINE
  5
369
330
361
100
AcDbEntity
  8
SK2
100
AcDbLine
 10
-78.172902171
 20
7.9375002533
 30
0.0
 11
-78.172902171
 21
-7.9375002533
 31
0.0
  0
LINE
  5
36A
330
361
100
AcDbEntity
  8
SK2
100
AcDbLine
 10
-78.172902171
 20
-7.9375002533
 30
0.0
 11
-78.172902171
 21
-14.2875002533
 31
0.0
  0
MTEXT
  5
36C
330
361
100
AcDbEntity
  8
SK2
100
AcDbMText
 10
-82.6846390855
 20
-12.6492692451
 30
0.0
 40
3.5
 41
0.0
 71
     1
 72
     1
  1
5/8 - 11 UNC
  7
SLDTEXTSTYLE1
 11
-7.044195017643634E-15
 21
1.0
 31
0.0
 73
     1
 44
1.0
  0
ENDBLK
  5
363
330
361
100
AcDbEntity
  8
0
100
AcDbBlockEnd
  0
BLOCK
  5
36F
330
36E
100
AcDbEntity
  8
0
100
AcDbBlockBegin
  2
_D_11
 70
     0
 10
0.0
 20
0.0
 30
0.0
  3
_D_11
  1

  0
SOLID
  5
371
330
36E
100
AcDbEntity
  8
SK2
100
AcDbTrace
 10
0.0
 20
36.3664251339
 30
0.0
 11
3.302
 21
35.8584251339
 31
0.0
 12
3.302
 22
36.8744251339
 32
0.0
 13
3.302
 23
36.8744251339
 33
0.0
  0
SOLID
  5
372
330
36E
100
AcDbEntity
  8
SK2
100
AcDbTrace
 10
19.05
 20
36.3664251339
 30
0.0
 11
15.748
 21
36.8744251339
 31
0.0
 12
15.748
 22
35.8584251339
 32
0.0
 13
15.748
 23
35.8584251339
 33
0.0
  0
LINE
  5
373
330
36E
100
AcDbEntity
  8
SK2
100
AcDbLine
 10
0.0
 20
23.225
 30
0.0
 11
0.0
 21
37.3664251339
 31
0.0
  0
LINE
  5
374
330
36E
100
AcDbEntity
  8
SK2
100
AcDbLine
 10
19.05
 20
30.8048664484
 30
0.0
 11
19.05
 21
37.3664251339
 31
0.0
  0
LINE
  5
375
330
36E
100
AcDbEntity
  8
SK2
100
AcDbLine
 10
0.0
 20
36.3664251339
 30
0.0
 11
19.05
 21
36.3664251339
 31
0.0
  0
MTEXT
  5
376
330
36E
100
AcDbEntity
  8
SK2
100
AcDbMText
 10
3.3188992339
 20
40.8781620485
 30
0.0
 40
3.5
 41
0.0
 71
     1
 72
     1
  1
19,05
  7
SLDTEXTSTYLE0
 73
     1
 44
1.0
  0
ENDBLK
  5
370
330
36E
100
AcDbEntity
  8
0
100
AcDbBlockEnd
  0
ENDSEC
  0
SECTION
  2
ENTITIES
  0
LINE
  5
82
330
1F
100
AcDbEntity
  8
1
  6
SLD-Solid
370
    25
100
AcDbLine
 10
1.8869952227
 20
-22.225
 30
0.0
 11
2.1330363037
 21
-22.1102691597
 31
0.0
  0
LINE
  5
83
330
1F
100
AcDbEntity
  8
1
  6
SLD-Solid
370
    25
100
AcDbLine
 10
2.1330363037
 20
22.1102691597
 30
0.0
 11
1.8869952227
 21
22.225
 31
0.0
  0
LINE
  5
84
330
1F
100
AcDbEntity
  8
SK1
  6
SLD-Solid
370
    25
100
AcDbLine
 10
0.0
 20
22.225
 30
0.0
 11
-67.1376006954
 21
12.4340074512
 31
0.0
  0
LINE
  5
85
330
1F
100
AcDbEntity
  8
SK1
  6
SLD-Solid
370
    25
100
AcDbLine
 10
-67.1376006954
 20
-12.4340074512
 30
0.0
 11
0.0
 21
-22.225
 31
0.0
  0
LINE
  5
86
330
1F
100
AcDbEntity
  8
1
  6
SLD-Solid
370
    25
100
AcDbLine
 10
1.8869952227
 20
22.225
 30
0.0
 11
0.0
 21
22.225
 31
0.0
  0
LINE
  5
87
330
1F
100
AcDbEntity
  8
1
  6
SLD-Solid
370
    25
100
AcDbLine
 10
0.0
 20
-22.225
 30
0.0
 11
1.8869952227
 21
-22.225
 31
0.0
  0
LINE
  5
88
330
1F
100
AcDbEntity
  8
1
  6
SLD-Solid
370
    25
100
AcDbLine
 10
23.0796458479
 20
12.7
 30
0.0
 11
22.225
 21
12.7
 31
0.0
  0
LINE
  5
89
330
1F
100
AcDbEntity
  8
1
  6
SLD-Solid
370
    25
100
AcDbLine
 10
41.66
 20
12.7
 30
0.0
 11
34.075
 21
12.7
 31
0.0
  0
LINE
  5
8A
330
1F
100
AcDbEntity
  8
1
  6
SLD-Solid
370
    25
100
AcDbLine
 10
34.1904103454
 20
-12.7
 30
0.0
 11
41.66
 21
-12.7
 31
0.0
  0
LINE
  5
8B
330
1F
100
AcDbEntity
  8
1
  6
SLD-Solid
370
    25
100
AcDbLine
 10
22.225
 20
-12.7
 30
0.0
 11
22.96251039
 21
-12.7
 31
0.0
  0
LINE
  5
8C
330
1F
100
AcDbEntity
  8
1
  6
SLD-Solid
370
    25
100
AcDbLine
 10
41.66
 20
-12.7
 30
0.0
 11
44.45
 21
-9.91
 31
0.0
  0
LINE
  5
8D
330
1F
100
AcDbEntity
  8
1
  6
SLD-Solid
370
    25
100
AcDbLine
 10
44.45
 20
9.91
 30
0.0
 11
41.66
 21
12.7
 31
0.0
  0
LINE
  5
8E
330
1F
100
AcDbEntity
  8
1
  6
SLD-Solid
370
    25
100
AcDbLine
 10
3.2
 20
-29.8048664484
 30
0.0
 11
3.2
 21
29.8048552742
 31
0.0
  0
LINE
  5
8F
330
1F
100
AcDbEntity
  8
1
  6
SLD-Solid
370
    25
100
AcDbLine
 10
3.95
 20
30.5578899967
 30
0.0
 11
3.95
 21
-30.5579086614
 31
0.0
  0
LINE
  5
90
330
1F
100
AcDbEntity
  8
1
  6
SLD-Solid
370
    25
100
AcDbLine
 10
18.3
 20
-30.5578899967
 30
0.0
 11
18.3
 21
30.5579086614
 31
0.0
  0
LINE
  5
91
330
1F
100
AcDbEntity
  8
1
  6
SLD-Solid
370
    25
100
AcDbLine
 10
19.05
 20
29.8048664484
 30
0.0
 11
19.05
 21
-29.8048552742
 31
0.0
  0
LINE
  5
92
330
1F
100
AcDbEntity
  8
1
  6
SLD-Solid
370
    25
100
AcDbLine
 10
3.95
 20
-30.5579086614
 30
0.0
 11
7.5888736454
 21
-30.5579086614
 31
0.0
  0
LINE
  5
93
330
1F
100
AcDbEntity
  8
1
  6
SLD-Solid
370
    25
100
AcDbLine
 10
7.5888736454
 20
30.5578899967
 30
0.0
 11
3.95
 21
30.5578899967
 31
0.0
  0
LINE
  5
94
330
1F
100
AcDbEntity
  8
1
  6
SLD-Solid
370
    25
100
AcDbLine
 10
7.5888736454
 20
30.5578899967
 30
0.0
 11
7.5888736454
 21
-30.5579086614
 31
0.0
  0
LINE
  5
95
330
1F
100
AcDbEntity
  8
1
  6
SLD-Solid
370
    25
100
AcDbLine
 10
18.3
 20
30.5579086614
 30
0.0
 11
14.6411263546
 21
30.5579086614
 31
0.0
  0
LINE
  5
96
330
1F
100
AcDbEntity
  8
1
  6
SLD-Solid
370
    25
100
AcDbLine
 10
14.6411263546
 20
-30.5578899967
 30
0.0
 11
18.3
 21
-30.5578899967
 31
0.0
  0
LINE
  5
97
330
1F
100
AcDbEntity
  8
1
  6
SLD-Solid
370
    25
100
AcDbLine
 10
14.6411263546
 20
30.5579086614
 30
0.0
 11
14.6411263546
 21
-30.5578899967
 31
0.0
  0
LINE
  5
98
330
1F
100
AcDbEntity
  8
1
  6
SLD-Solid
370
    25
100
AcDbLine
 10
13.03
 20
25.319242438
 30
0.0
 11
13.03
 21
-27.8050456342
 31
0.0
  0
LINE
  5
99
330
1F
100
AcDbEntity
  8
1
  6
SLD-Solid
370
    25
100
AcDbLine
 10
13.03
 20
27.8050456342
 30
0.0
 11
13.03
 21
25.8117178836
 31
0.0
  0
LINE
  5
9A
330
1F
100
AcDbEntity
  8
1
  6
SLD-Solid
370
    25
100
AcDbLine
 10
9.2
 20
27.8050456342
 30
0.0
 11
9.2
 21
25.8569131114
 31
0.0
  0
LINE
  5
9B
330
1F
100
AcDbEntity
  8
1
  6
SLD-Solid
370
    25
100
AcDbLine
 10
9.2
 20
25.2705433174
 30
0.0
 11
9.2
 21
-27.8050456342
 31
0.0
  0
LINE
  5
9C
330
1F
100
AcDbEntity
  8
1
  6
SLD-Solid
370
    25
100
AcDbLine
 10
9.95
 20
24.066859753
 30
0.0
 11
9.95
 21
-26.9870635676
 31
0.0
  0
LINE
  5
9D
330
1F
100
AcDbEntity
  8
1
  6
SLD-Solid
370
    25
100
AcDbLine
 10
12.28
 20
24.0780506352
 30
0.0
 11
12.28
 21
-26.9870635676
 31
0.0
  0
LINE
  5
9E
330
1F
100
AcDbEntity
  8
1
  6
SLD-Solid
370
    25
100
AcDbLine
 10
9.95
 20
-26.9870635676
 30
0.0
 11
12.28
 21
-26.9870635676
 31
0.0
  0
LINE
  5
9F
330
1F
100
AcDbEntity
  8
1
  6
SLD-Solid
370
    25
100
AcDbLine
 10
1.8869952227
 20
22.225
 30
0.0
 11
1.8869952227
 21
-22.225
 31
0.0
  0
LINE
  5
A0
330
1F
100
AcDbEntity
  8
1
  6
SLD-Solid
370
    25
100
AcDbLine
 10
0.0
 20
22.225
 30
0.0
 11
0.0
 21
-22.225
 31
0.0
  0
LINE
  5
A1
330
1F
100
AcDbEntity
  8
1
  6
SLD-Solid
370
    25
100
AcDbLine
 10
9.2
 20
25.8569131114
 30
0.0
 11
9.2
 21
25.8264908709
 31
0.0
  0
LINE
  5
A2
330
1F
100
AcDbEntity
  8
1
  6
SLD-Solid
370
    25
100
AcDbLine
 10
13.03
 20
25.7812977304
 30
0.0
 11
13.03
 21
25.8117178836
 31
0.0
  0
LINE
  5
A3
330
1F
100
AcDbEntity
  8
1
  6
SLD-Solid
370
    25
100
AcDbLine
 10
9.95
 20
26.9870635676
 30
0.0
 11
9.95
 21
25.6032587904
 31
0.0
  0
LINE
  5
A4
330
1F
100
AcDbEntity
  8
1
  6
SLD-Solid
370
    25
100
AcDbLine
 10
12.28
 20
26.9870635676
 30
0.0
 11
12.28
 21
25.5942620881
 31
0.0
  0
LINE
  5
A5
330
1F
100
AcDbEntity
  8
1
  6
SLD-Solid
370
    25
100
AcDbLine
 10
41.66
 20
12.7
 30
0.0
 11
41.66
 21
-12.7
 31
0.0
  0
LINE
  5
A6
330
1F
100
AcDbEntity
  8
1
  6
SLD-Solid
370
    25
100
AcDbLine
 10
44.45
 20
9.91
 30
0.0
 11
44.45
 21
-9.91
 31
0.0
  0
LINE
  5
A7
330
1F
100
AcDbEntity
  8
SK1
  6
SLD-Solid
370
    25
100
AcDbLine
 10
-68.25
 20
-11.1476148288
 30
0.0
 11
-68.25
 21
11.1476148288
 31
0.0
  0
LINE
  5
A8
330
1F
100
AcDbEntity
  8
1
  6
SLD-Solid
370
    25
100
AcDbLine
 10
9.95
 20
26.9870635676
 30
0.0
 11
12.28
 21
26.9870635676
 31
0.0
  0
LINE
  5
A9
330
1F
100
AcDbEntity
  8
1
  6
SLD-Solid
370
    25
100
AcDbLine
 10
2.1330363037
 20
22.1102691597
 30
0.0
 11
2.1330363037
 21
-22.1102691597
 31
0.0
  0
LINE
  5
AA
330
1F
100
AcDbEntity
  8
SK1
  6
SLD-Solid
370
    25
100
AcDbLine
 10
-67.1376006954
 20
0.0
 30
0.0
 11
-67.1376006954
 21
-12.4340074512
 31
0.0
  0
LINE
  5
AB
330
1F
100
AcDbEntity
  8
SK1
  6
SLD-Solid
370
    25
100
AcDbLine
 10
-67.1376006954
 20
12.4340074512
 30
0.0
 11
-67.1376006954
 21
0.0
 31
0.0
  0
LINE
  5
AC
330
1F
100
AcDbEntity
  8
1
  6
SLD-Solid
370
    25
100
AcDbLine
 10
22.225
 20
0.0
 30
0.0
 11
22.225
 21
-12.7
 31
0.0
  0
LINE
  5
AD
330
1F
100
AcDbEntity
  8
1
  6
SLD-Solid
370
    25
100
AcDbLine
 10
22.225
 20
12.7
 30
0.0
 11
22.225
 21
0.0
 31
0.0
  0
LINE
  5
AE
330
1F
100
AcDbEntity
  8
SK3
  6
SLD-Dashed
370
    18
100
AcDbLine
 10
19.05
 20
-6.6488143213
 30
0.0
 11
18.8161847139
 21
-6.4760896069
 31
0.0
  0
LINE
  5
AF
330
1F
100
AcDbEntity
  8
SK3
  6
SLD-Dashed
370
    18
100
AcDbLine
 10
18.8161847139
 20
-6.4760896069
 30
0.0
 11
18.5531822006
 21
-6.396203884
 31
0.0
  0
LINE
  5
B0
330
1F
100
AcDbEntity
  8
SK3
  6
SLD-Dashed
370
    18
100
AcDbLine
 10
18.5531822006
 20
-6.396203884
 30
0.0
 11
18.2707077792
 21
-6.4121081331
 31
0.0
  0
LINE
  5
B1
330
1F
100
AcDbEntity
  8
SK3
  6
SLD-Dashed
370
    18
100
AcDbLine
 10
18.2707077792
 20
-6.4121081331
 30
0.0
 11
17.9791960612
 21
-6.5232148508
 31
0.0
  0
LINE
  5
B2
330
1F
100
AcDbEntity
  8
SK3
  6
SLD-Dashed
370
    18
100
AcDbLine
 10
17.9791960612
 20
-6.5232148508
 30
0.0
 11
17.689415496
 21
-6.7254197524
 31
0.0
  0
LINE
  5
B3
330
1F
100
AcDbEntity
  8
SK3
  6
SLD-Dashed
370
    18
100
AcDbLine
 10
17.689415496
 20
-6.7254197524
 30
0.0
 11
17.4120705846
 21
-7.0112533843
 31
0.0
  0
LINE
  5
B4
330
1F
100
AcDbEntity
  8
SK3
  6
SLD-Dashed
370
    18
100
AcDbLine
 10
17.4120705846
 20
-7.0112533843
 30
0.0
 11
17.1574064541
 21
-7.3701570454
 31
0.0
  0
LINE
  5
B5
330
1F
100
AcDbEntity
  8
SK3
  6
SLD-Dashed
370
    18
100
AcDbLine
 10
17.1574064541
 20
-7.3701570454
 30
0.0
 11
16.9348304035
 21
-7.7888728264
 31
0.0
  0
LINE
  5
B6
330
1F
100
AcDbEntity
  8
SK3
  6
SLD-Dashed
370
    18
100
AcDbLine
 10
16.9348304035
 20
-7.7888728264
 30
0.0
 11
16.7525643972
 21
-8.2519333568
 31
0.0
  0
LINE
  5
B7
330
1F
100
AcDbEntity
  8
SK3
  6
SLD-Dashed
370
    18
100
AcDbLine
 10
16.7525643972
 20
-8.2519333568
 30
0.0
 11
16.6173413455
 21
-8.7422331698
 31
0.0
  0
LINE
  5
B8
330
1F
100
AcDbEntity
  8
SK3
  6
SLD-Dashed
370
    18
100
AcDbLine
 10
16.6173413455
 20
-8.7422331698
 30
0.0
 11
16.5341563912
 21
-9.2416605792
 31
0.0
  0
LINE
  5
B9
330
1F
100
AcDbEntity
  8
SK3
  6
SLD-Dashed
370
    18
100
AcDbLine
 10
16.5341563912
 20
-9.2416605792
 30
0.0
 11
16.5060823883
 21
-9.731766725
 31
0.0
  0
LINE
  5
BA
330
1F
100
AcDbEntity
  8
SK3
  6
SLD-Dashed
370
    18
100
AcDbLine
 10
16.5060823883
 20
-9.731766725
 30
0.0
 11
16.5341563912
 21
-10.194447075
 31
0.0
  0
LINE
  5
BB
330
1F
100
AcDbEntity
  8
SK3
  6
SLD-Dashed
370
    18
100
AcDbLine
 10
16.5341563912
 20
-10.194447075
 30
0.0
 11
16.6173413455
 21
-10.6126102065
 31
0.0
  0
LINE
  5
BC
330
1F
100
AcDbEntity
  8
SK3
  6
SLD-Dashed
370
    18
100
AcDbLine
 10
16.6173413455
 20
-10.6126102065
 30
0.0
 11
16.7525643972
 21
-10.9708091637
 31
0.0
  0
LINE
  5
BD
330
1F
100
AcDbEntity
  8
SK3
  6
SLD-Dashed
370
    18
100
AcDbLine
 10
16.7525643972
 20
-10.9708091637
 30
0.0
 11
16.9348304035
 21
-11.2558120691
 31
0.0
  0
LINE
  5
BE
330
1F
100
AcDbEntity
  8
SK3
  6
SLD-Dashed
370
    18
100
AcDbLine
 10
16.9348304035
 20
-11.2558120691
 30
0.0
 11
17.1574064541
 21
-11.4570909087
 31
0.0
  0
LINE
  5
BF
330
1F
100
AcDbEntity
  8
SK3
  6
SLD-Dashed
370
    18
100
AcDbLine
 10
17.1574064541
 20
-11.4570909087
 30
0.0
 11
17.4120705846
 21
-11.5672104376
 31
0.0
  0
LINE
  5
C0
330
1F
100
AcDbEntity
  8
SK3
  6
SLD-Dashed
370
    18
100
AcDbLine
 10
17.4120705846
 20
-11.5672104376
 30
0.0
 11
17.689415496
 21
-11.5821028379
 31
0.0
  0
LINE
  5
C1
330
1F
100
AcDbEntity
  8
SK3
  6
SLD-Dashed
370
    18
100
AcDbLine
 10
17.689415496
 20
-11.5821028379
 30
0.0
 11
17.9791960612
 21
-11.5012179839
 31
0.0
  0
LINE
  5
C2
330
1F
100
AcDbEntity
  8
SK3
  6
SLD-Dashed
370
    18
100
AcDbLine
 10
17.9791960612
 20
-11.5012179839
 30
0.0
 11
18.2707077792
 21
-11.3275437641
 31
0.0
  0
LINE
  5
C3
330
1F
100
AcDbEntity
  8
SK3
  6
SLD-Dashed
370
    18
100
AcDbLine
 10
18.2707077792
 20
-11.3275437641
 30
0.0
 11
18.5531822006
 21
-11.0674957081
 31
0.0
  0
LINE
  5
C4
330
1F
100
AcDbEntity
  8
SK3
  6
SLD-Dashed
370
    18
100
AcDbLine
 10
18.5531822006
 20
-11.0674957081
 30
0.0
 11
18.8161847139
 21
-10.730679997
 31
0.0
  0
LINE
  5
C5
330
1F
100
AcDbEntity
  8
SK3
  6
SLD-Dashed
370
    18
100
AcDbLine
 10
18.8161847139
 20
-10.730679997
 30
0.0
 11
19.05
 21
-10.329538611
 31
0.0
  0
LINE
  5
C6
330
1F
100
AcDbEntity
  8
SK3
  6
SLD-Dashed
370
    18
100
AcDbLine
 10
19.05
 20
-6.511218589
 30
0.0
 11
19.05
 21
-11.9492786353
 31
0.0
  0
LINE
  5
C7
330
1F
100
AcDbEntity
  8
SK3
  6
SLD-Dashed
370
    18
100
AcDbLine
 10
5.6259851119
 20
-8.943826748
 30
0.0
 11
5.5351771035
 21
-8.5053406669
 31
0.0
  0
LINE
  5
C8
330
1F
100
AcDbEntity
  8
SK3
  6
SLD-Dashed
370
    18
100
AcDbLine
 10
5.5351771035
 20
-8.5053406669
 30
0.0
 11
5.4010979853
 21
-8.0888421089
 31
0.0
  0
LINE
  5
C9
330
1F
100
AcDbEntity
  8
SK3
  6
SLD-Dashed
370
    18
100
AcDbLine
 10
5.4010979853
 20
-8.0888421089
 30
0.0
 11
5.230471044
 21
-7.7152160508
 31
0.0
  0
LINE
  5
CA
330
1F
100
AcDbEntity
  8
SK3
  6
SLD-Dashed
370
    18
100
AcDbLine
 10
5.230471044
 20
-7.7152160508
 30
0.0
 11
5.031852227
 21
-7.4031976633
 31
0.0
  0
LINE
  5
CB
330
1F
100
AcDbEntity
  8
SK3
  6
SLD-Dashed
370
    18
100
AcDbLine
 10
5.031852227
 20
-7.4031976633
 30
0.0
 11
4.8152011111
 21
-7.1684328512
 31
0.0
  0
LINE
  5
CC
330
1F
100
AcDbEntity
  8
SK3
  6
SLD-Dashed
370
    18
100
AcDbLine
 10
4.8152011111
 20
-7.1684328512
 30
0.0
 11
4.5913814879
 21
-7.0226937025
 31
0.0
  0
LINE
  5
CD
330
1F
100
AcDbEntity
  8
SK3
  6
SLD-Dashed
370
    18
100
AcDbLine
 10
4.5913814879
 20
-7.0226937025
 30
0.0
 11
4.371616608
 21
-6.9732881867
 31
0.0
  0
LINE
  5
CE
330
1F
100
AcDbEntity
  8
SK3
  6
SLD-Dashed
370
    18
100
AcDbLine
 10
4.371616608
 20
-6.9732881867
 30
0.0
 11
4.1669263999
 21
-7.0226937025
 31
0.0
  0
LINE
  5
CF
330
1F
100
AcDbEntity
  8
SK3
  6
SLD-Dashed
370
    18
100
AcDbLine
 10
4.1669263999
 20
-7.0226937025
 30
0.0
 11
3.9875748856
 21
-7.1684328512
 31
0.0
  0
LINE
  5
D0
330
1F
100
AcDbEntity
  8
SK3
  6
SLD-Dashed
370
    18
100
AcDbLine
 10
3.9875748856
 20
-7.1684328512
 30
0.0
 11
3.8425554988
 21
-7.4031976633
 31
0.0
  0
LINE
  5
D1
330
1F
100
AcDbEntity
  8
SK3
  6
SLD-Dashed
370
    18
100
AcDbLine
 10
3.8425554988
 20
-7.4031976633
 30
0.0
 11
3.7391401171
 21
-7.7152160508
 31
0.0
  0
LINE
  5
D2
330
1F
100
AcDbEntity
  8
SK3
  6
SLD-Dashed
370
    18
100
AcDbLine
 10
3.7391401171
 20
-7.7152160508
 30
0.0
 11
3.6825144197
 21
-8.0888421089
 31
0.0
  0
LINE
  5
D3
330
1F
100
AcDbEntity
  8
SK3
  6
SLD-Dashed
370
    18
100
AcDbLine
 10
3.6825144197
 20
-8.0888421089
 30
0.0
 11
3.6755178553
 21
-8.5053406669
 31
0.0
  0
LINE
  5
D4
330
1F
100
AcDbEntity
  8
SK3
  6
SLD-Dashed
370
    18
100
AcDbLine
 10
3.6755178553
 20
-8.5053406669
 30
0.0
 11
3.718501261
 21
-8.943826748
 31
0.0
  0
LINE
  5
D5
330
1F
100
AcDbEntity
  8
SK3
  6
SLD-Dashed
370
    18
100
AcDbLine
 10
3.718501261
 20
-8.943826748
 30
0.0
 11
3.8093092693
 21
-9.382312829
 31
0.0
  0
LINE
  5
D6
330
1F
100
AcDbEntity
  8
SK3
  6
SLD-Dashed
370
    18
100
AcDbLine
 10
3.8093092693
 20
-9.382312829
 30
0.0
 11
3.9433883876
 21
-9.798811387
 31
0.0
  0
LINE
  5
D7
330
1F
100
AcDbEntity
  8
SK3
  6
SLD-Dashed
370
    18
100
AcDbLine
 10
3.9433883876
 20
-9.798811387
 30
0.0
 11
4.1140153288
 21
-10.1724374451
 31
0.0
  0
LINE
  5
D8
330
1F
100
AcDbEntity
  8
SK3
  6
SLD-Dashed
370
    18
100
AcDbLine
 10
4.1140153288
 20
-10.1724374451
 30
0.0
 11
4.3126341459
 21
-10.4844558326
 31
0.0
  0
LINE
  5
D9
330
1F
100
AcDbEntity
  8
SK3
  6
SLD-Dashed
370
    18
100
AcDbLine
 10
4.3126341459
 20
-10.4844558326
 30
0.0
 11
4.5292852618
 21
-10.7192206447
 31
0.0
  0
LINE
  5
DA
330
1F
100
AcDbEntity
  8
SK3
  6
SLD-Dashed
370
    18
100
AcDbLine
 10
4.5292852618
 20
-10.7192206447
 30
0.0
 11
4.7531048849
 21
-10.8649597934
 31
0.0
  0
LINE
  5
DB
330
1F
100
AcDbEntity
  8
SK3
  6
SLD-Dashed
370
    18
100
AcDbLine
 10
4.7531048849
 20
-10.8649597934
 30
0.0
 11
4.9728697649
 21
-10.9143653093
 31
0.0
  0
LINE
  5
DC
330
1F
100
AcDbEntity
  8
SK3
  6
SLD-Dashed
370
    18
100
AcDbLine
 10
4.9728697649
 20
-10.9143653093
 30
0.0
 11
5.1775599729
 21
-10.8649597934
 31
0.0
  0
LINE
  5
DD
330
1F
100
AcDbEntity
  8
SK3
  6
SLD-Dashed
370
    18
100
AcDbLine
 10
5.1775599729
 20
-10.8649597934
 30
0.0
 11
5.3569114873
 21
-10.7192206447
 31
0.0
  0
LINE
  5
DE
330
1F
100
AcDbEntity
  8
SK3
  6
SLD-Dashed
370
    18
100
AcDbLine
 10
5.3569114873
 20
-10.7192206447
 30
0.0
 11
5.5019308741
 21
-10.4844558326
 31
0.0
  0
LINE
  5
DF
330
1F
100
AcDbEntity
  8
SK3
  6
SLD-Dashed
370
    18
100
AcDbLine
 10
5.5019308741
 20
-10.4844558326
 30
0.0
 11
5.6053462557
 21
-10.1724374451
 31
0.0
  0
LINE
  5
E0
330
1F
100
AcDbEntity
  8
SK3
  6
SLD-Dashed
370
    18
100
AcDbLine
 10
5.6053462557
 20
-10.1724374451
 30
0.0
 11
5.6619719532
 21
-9.798811387
 31
0.0
  0
LINE
  5
E1
330
1F
100
AcDbEntity
  8
SK3
  6
SLD-Dashed
370
    18
100
AcDbLine
 10
5.6619719532
 20
-9.798811387
 30
0.0
 11
5.6689685176
 21
-9.382312829
 31
0.0
  0
LINE
  5
E2
330
1F
100
AcDbEntity
  8
SK3
  6
SLD-Dashed
370
    18
100
AcDbLine
 10
5.6689685176
 20
-9.382312829
 30
0.0
 11
5.6259851119
 21
-8.943826748
 31
0.0
  0
LINE
  5
E3
330
1F
100
AcDbEntity
  8
SK3
  6
SLD-Dashed
370
    18
100
AcDbLine
 10
3.2
 20
-7.1983508192
 30
0.0
 11
3.2
 21
-11.2707369204
 31
0.0
  0
LINE
  5
E4
330
1F
100
AcDbEntity
  8
SK3
  6
SLD-Dashed
370
    18
100
AcDbLine
 10
18.4408128517
 20
-8.8714518524
 30
0.0
 11
18.4795661481
 21
-8.469086838
 31
0.0
  0
LINE
  5
E5
330
1F
100
AcDbEntity
  8
SK3
  6
SLD-Dashed
370
    18
100
AcDbLine
 10
18.4795661481
 20
-8.469086838
 30
0.0
 11
18.4588974842
 21
-8.0920038972
 31
0.0
  0
LINE
  5
E6
330
1F
100
AcDbEntity
  8
SK3
  6
SLD-Dashed
370
    18
100
AcDbLine
 10
18.4588974842
 20
-8.0920038972
 30
0.0
 11
18.3801055482
 21
-7.7638965381
 31
0.0
  0
LINE
  5
E7
330
1F
100
AcDbEntity
  8
SK3
  6
SLD-Dashed
370
    18
100
AcDbLine
 10
18.3801055482
 20
-7.7638965381
 30
0.0
 11
18.248141127
 21
-7.5053809527
 31
0.0
  0
LINE
  5
E8
330
1F
100
AcDbEntity
  8
SK3
  6
SLD-Dashed
370
    18
100
AcDbLine
 10
18.248141127
 20
-7.5053809527
 30
0.0
 11
18.0712960308
 21
-7.3327006259
 31
0.0
  0
LINE
  5
E9
330
1F
100
AcDbEntity
  8
SK3
  6
SLD-Dashed
370
    18
100
AcDbLine
 10
18.0712960308
 20
-7.3327006259
 30
0.0
 11
17.8606820871
 21
-7.2567056979
 31
0.0
  0
LINE
  5
EA
330
1F
100
AcDbEntity
  8
SK3
  6
SLD-Dashed
370
    18
100
AcDbLine
 10
17.8606820871
 20
-7.2567056979
 30
0.0
 11
17.6295329448
 21
-7.2821712094
 31
0.0
  0
LINE
  5
EB
330
1F
100
AcDbEntity
  8
SK3
  6
SLD-Dashed
370
    18
100
AcDbLine
 10
17.6295329448
 20
-7.2821712094
 30
0.0
 11
17.3923725545
 21
-7.4074970686
 31
0.0
  0
LINE
  5
EC
330
1F
100
AcDbEntity
  8
SK3
  6
SLD-Dashed
370
    18
100
AcDbLine
 10
17.3923725545
 20
-7.4074970686
 30
0.0
 11
17.1641025758
 21
-7.6248085909
 31
0.0
  0
LINE
  5
ED
330
1F
100
AcDbEntity
  8
SK3
  6
SLD-Dashed
370
    18
100
AcDbLine
 10
17.1641025758
 20
-7.6248085909
 30
0.0
 11
16.959066051
 21
-7.9204512942
 31
0.0
  0
LINE
  5
EE
330
1F
100
AcDbEntity
  8
SK3
  6
SLD-Dashed
370
    18
100
AcDbLine
 10
16.959066051
 20
-7.9204512942
 30
0.0
 11
16.7901461789
 21
-8.2758488601
 31
0.0
  0
LINE
  5
EF
330
1F
100
AcDbEntity
  8
SK3
  6
SLD-Dashed
370
    18
100
AcDbLine
 10
16.7901461789
 20
-8.2758488601
 30
0.0
 11
16.6679568163
 21
-8.6686703525
 31
0.0
  0
LINE
  5
F0
330
1F
100
AcDbEntity
  8
SK3
  6
SLD-Dashed
370
    18
100
AcDbLine
 10
16.6679568163
 20
-8.6686703525
 30
0.0
 11
16.6001755704
 21
-9.0742333523
 31
0.0
  0
LINE
  5
F1
330
1F
100
AcDbEntity
  8
SK3
  6
SLD-Dashed
370
    18
100
AcDbLine
 10
16.6001755704
 20
-9.0742333523
 30
0.0
 11
16.5910613861
 21
-9.4670548447
 31
0.0
  0
LINE
  5
F2
330
1F
100
AcDbEntity
  8
SK3
  6
SLD-Dashed
370
    18
100
AcDbLine
 10
16.5910613861
 20
-9.4670548447
 30
0.0
 11
16.6411869411
 21
-9.8224524106
 31
0.0
  0
LINE
  5
F3
330
1F
100
AcDbEntity
  8
SK3
  6
SLD-Dashed
370
    18
100
AcDbLine
 10
16.6411869411
 20
-9.8224524106
 30
0.0
 11
16.7474026624
 21
-10.1180951139
 31
0.0
  0
LINE
  5
F4
330
1F
100
AcDbEntity
  8
SK3
  6
SLD-Dashed
370
    18
100
AcDbLine
 10
16.7474026624
 20
-10.1180951139
 30
0.0
 11
16.9030346256
 21
-10.3354066363
 31
0.0
  0
LINE
  5
F5
330
1F
100
AcDbEntity
  8
SK3
  6
SLD-Dashed
370
    18
100
AcDbLine
 10
16.9030346256
 20
-10.3354066363
 30
0.0
 11
17.0983039021
 21
-10.4607324955
 31
0.0
  0
LINE
  5
F6
330
1F
100
AcDbEntity
  8
SK3
  6
SLD-Dashed
370
    18
100
AcDbLine
 10
17.0983039021
 20
-10.4607324955
 30
0.0
 11
17.3209410051
 21
-10.486198007
 31
0.0
  0
LINE
  5
F7
330
1F
100
AcDbEntity
  8
SK3
  6
SLD-Dashed
370
    18
100
AcDbLine
 10
17.3209410051
 20
-10.486198007
 30
0.0
 11
17.5569568267
 21
-10.4102030789
 31
0.0
  0
LINE
  5
F8
330
1F
100
AcDbEntity
  8
SK3
  6
SLD-Dashed
370
    18
100
AcDbLine
 10
17.5569568267
 20
-10.4102030789
 30
0.0
 11
17.7915216246
 21
-10.2375227522
 31
0.0
  0
LINE
  5
F9
330
1F
100
AcDbEntity
  8
SK3
  6
SLD-Dashed
370
    18
100
AcDbLine
 10
17.7915216246
 20
-10.2375227522
 30
0.0
 11
18.0098968302
 21
-9.9790071667
 31
0.0
  0
LINE
  5
FA
330
1F
100
AcDbEntity
  8
SK3
  6
SLD-Dashed
370
    18
100
AcDbLine
 10
18.0098968302
 20
-9.9790071667
 30
0.0
 11
18.1983611259
 21
-9.6508998076
 31
0.0
  0
LINE
  5
FB
330
1F
100
AcDbEntity
  8
SK3
  6
SLD-Dashed
370
    18
100
AcDbLine
 10
18.1983611259
 20
-9.6508998076
 30
0.0
 11
18.3450726071
 21
-9.2738168668
 31
0.0
  0
LINE
  5
FC
330
1F
100
AcDbEntity
  8
SK3
  6
SLD-Dashed
370
    18
100
AcDbLine
 10
18.3450726071
 20
-9.2738168668
 30
0.0
 11
18.4408128517
 21
-8.8714518524
 31
0.0
  0
LINE
  5
FD
330
1F
100
AcDbEntity
  8
SK3
  6
SLD-Dashed
370
    18
100
AcDbLine
 10
5.641206471
 20
-8.9078631218
 30
0.0
 11
5.6781658386
 21
-9.3121568571
 31
0.0
  0
LINE
  5
FE
330
1F
100
AcDbEntity
  8
SK3
  6
SLD-Dashed
370
    18
100
AcDbLine
 10
5.6781658386
 20
-9.3121568571
 30
0.0
 11
5.6633630452
 21
-9.6910473301
 31
0.0
  0
LINE
  5
FF
330
1F
100
AcDbEntity
  8
SK3
  6
SLD-Dashed
370
    18
100
AcDbLine
 10
5.6633630452
 20
-9.6910473301
 30
0.0
 11
5.5977282047
 21
-10.020727459
 31
0.0
  0
LINE
  5
100
330
1F
100
AcDbEntity
  8
SK3
  6
SLD-Dashed
370
    18
100
AcDbLine
 10
5.5977282047
 20
-10.020727459
 30
0.0
 11
5.4853853955
 21
-10.2804822287
 31
0.0
  0
LINE
  5
101
330
1F
100
AcDbEntity
  8
SK3
  6
SLD-Dashed
370
    18
100
AcDbLine
 10
5.4853853955
 20
-10.2804822287
 30
0.0
 11
5.3333935295
 21
-10.4539902918
 31
0.0
  0
LINE
  5
102
330
1F
100
AcDbEntity
  8
SK3
  6
SLD-Dashed
370
    18
100
AcDbLine
 10
5.3333935295
 20
-10.4539902918
 30
0.0
 11
5.1513028146
 21
-10.5303494985
 31
0.0
  0
LINE
  5
103
330
1F
100
AcDbEntity
  8
SK3
  6
SLD-Dashed
370
    18
100
AcDbLine
 10
5.1513028146
 20
-10.5303494985
 30
0.0
 11
4.9505546801
 21
-10.5047619191
 31
0.0
  0
LINE
  5
104
330
1F
100
AcDbEntity
  8
SK3
  6
SLD-Dashed
370
    18
100
AcDbLine
 10
4.9505546801
 20
-10.5047619191
 30
0.0
 11
4.7437628696
 21
-10.3788353153
 31
0.0
  0
LINE
  5
105
330
1F
100
AcDbEntity
  8
SK3
  6
SLD-Dashed
370
    18
100
AcDbLine
 10
4.7437628696
 20
-10.3788353153
 30
0.0
 11
4.5439208732
 21
-10.1604821188
 31
0.0
  0
LINE
  5
106
330
1F
100
AcDbEntity
  8
SK3
  6
SLD-Dashed
370
    18
100
AcDbLine
 10
4.5439208732
 20
-10.1604821188
 30
0.0
 11
4.3635854983
 21
-9.8634222638
 31
0.0
  0
LINE
  5
107
330
1F
100
AcDbEntity
  8
SK3
  6
SLD-Dashed
370
    18
100
AcDbLine
 10
4.3635854983
 20
-9.8634222638
 30
0.0
 11
4.2140878798
 21
-9.5063211136
 31
0.0
  0
LINE
  5
108
330
1F
100
AcDbEntity
  8
SK3
  6
SLD-Dashed
370
    18
100
AcDbLine
 10
4.2140878798
 20
-9.5063211136
 30
0.0
 11
4.104821503
 21
-9.1116166469
 31
0.0
  0
LINE
  5
109
330
1F
100
AcDbEntity
  8
SK3
  6
SLD-Dashed
370
    18
100
AcDbLine
 10
4.104821503
 20
-9.1116166469
 30
0.0
 11
4.042651976
 21
-8.7041095968
 31
0.0
  0
LINE
  5
10A
330
1F
100
AcDbEntity
  8
SK3
  6
SLD-Dashed
370
    18
100
AcDbLine
 10
4.042651976
 20
-8.7041095968
 30
0.0
 11
4.031485639
 21
-8.30940513
 31
0.0
  0
LINE
  5
10B
330
1F
100
AcDbEntity
  8
SK3
  6
SLD-Dashed
370
    18
100
AcDbLine
 10
4.031485639
 20
-8.30940513
 30
0.0
 11
4.072024114
 21
-7.9523039799
 31
0.0
  0
LINE
  5
10C
330
1F
100
AcDbEntity
  8
SK3
  6
SLD-Dashed
370
    18
100
AcDbLine
 10
4.072024114
 20
-7.9523039799
 30
0.0
 11
4.1617202194
 21
-7.6552441249
 31
0.0
  0
LINE
  5
10D
330
1F
100
AcDbEntity
  8
SK3
  6
SLD-Dashed
370
    18
100
AcDbLine
 10
4.1617202194
 20
-7.6552441249
 30
0.0
 11
4.2949380192
 21
-7.4368909283
 31
0.0
  0
LINE
  5
10E
330
1F
100
AcDbEntity
  8
SK3
  6
SLD-Dashed
370
    18
100
AcDbLine
 10
4.2949380192
 20
-7.4368909283
 30
0.0
 11
4.4633069489
 21
-7.3109643245
 31
0.0
  0
LINE
  5
10F
330
1F
100
AcDbEntity
  8
SK3
  6
SLD-Dashed
370
    18
100
AcDbLine
 10
4.4633069489
 20
-7.3109643245
 30
0.0
 11
4.6562477696
 21
-7.2853767451
 31
0.0
  0
LINE
  5
110
330
1F
100
AcDbEntity
  8
SK3
  6
SLD-Dashed
370
    18
100
AcDbLine
 10
4.6562477696
 20
-7.2853767451
 30
0.0
 11
4.8616372998
 21
-7.3617359519
 31
0.0
  0
LINE
  5
111
330
1F
100
AcDbEntity
  8
SK3
  6
SLD-Dashed
370
    18
100
AcDbLine
 10
4.8616372998
 20
-7.3617359519
 30
0.0
 11
5.0665701601
 21
-7.535244015
 31
0.0
  0
LINE
  5
112
330
1F
100
AcDbEntity
  8
SK3
  6
SLD-Dashed
370
    18
100
AcDbLine
 10
5.0665701601
 20
-7.535244015
 30
0.0
 11
5.2581696651
 21
-7.7949987847
 31
0.0
  0
LINE
  5
113
330
1F
100
AcDbEntity
  8
SK3
  6
SLD-Dashed
370
    18
100
AcDbLine
 10
5.2581696651
 20
-7.7949987847
 30
0.0
 11
5.4243969133
 21
-8.1246789135
 31
0.0
  0
LINE
  5
114
330
1F
100
AcDbEntity
  8
SK3
  6
SLD-Dashed
370
    18
100
AcDbLine
 10
5.4243969133
 20
-8.1246789135
 30
0.0
 11
5.5548072353
 21
-8.5035693866
 31
0.0
  0
LINE
  5
115
330
1F
100
AcDbEntity
  8
SK3
  6
SLD-Dashed
370
    18
100
AcDbLine
 10
5.5548072353
 20
-8.5035693866
 30
0.0
 11
5.641206471
 21
-8.9078631218
 31
0.0
  0
LINE
  5
116
330
1F
100
AcDbEntity
  8
SK3
  6
SLD-Dashed
370
    18
100
AcDbLine
 10
-66.6824940192
 20
-8.235
 30
0.0
 11
-66.6824940192
 21
8.235
 31
0.0
  0
LINE
  5
117
330
1F
100
AcDbEntity
  8
SK3
  6
SLD-Dashed
370
    18
100
AcDbLine
 10
-68.25
 20
-9.14
 30
0.0
 11
-68.25
 21
9.14
 31
0.0
  0
LINE
  5
118
330
1F
100
AcDbEntity
  8
SK3
  6
SLD-Dashed
370
    18
100
AcDbLine
 10
-63.48
 20
-8.235
 30
0.0
 11
-63.48
 21
8.235
 31
0.0
  0
LINE
  5
119
330
1F
100
AcDbEntity
  8
SK3
  6
SLD-Dashed
370
    18
100
AcDbLine
 10
-62.6204640132
 20
-6.74624
 30
0.0
 11
-62.6204640132
 21
6.74624
 31
0.0
  0
LINE
  5
11A
330
1F
100
AcDbEntity
  8
SK3
  6
SLD-Dashed
370
    18
100
AcDbLine
 10
3.5452916241
 20
-29.8048664484
 30
0.0
 11
3.5452916241
 21
-22.785
 31
0.0
  0
LINE
  5
11B
330
1F
100
AcDbEntity
  8
SK3
  6
SLD-Dashed
370
    18
100
AcDbLine
 10
18.704611155
 20
-22.785
 30
0.0
 11
18.704611155
 21
-29.8048552742
 31
0.0
  0
LINE
  5
11C
330
1F
100
AcDbEntity
  8
SK3
  6
SLD-Dashed
370
    18
100
AcDbLine
 10
7.8539870535
 20
-30.2255814201
 30
0.0
 11
3.95
 21
-30.2255814201
 31
0.0
  0
LINE
  5
11D
330
1F
100
AcDbEntity
  8
SK3
  6
SLD-Dashed
370
    18
100
AcDbLine
 10
18.3
 20
-30.2254693878
 30
0.0
 11
14.3759504666
 21
-30.2254693878
 31
0.0
  0
LINE
  5
11E
330
1F
100
AcDbEntity
  8
1
  6
SLD-Dashed
370
    18
100
AcDbLine
 10
9.2
 20
-27.8050456342
 30
0.0
 11
9.2
 21
-27.7691663541
 31
0.0
  0
LINE
  5
11F
330
1F
100
AcDbEntity
  8
1
  6
SLD-Dashed
370
    18
100
AcDbLine
 10
13.03
 20
-27.7691663541
 30
0.0
 11
13.03
 21
-27.8050456342
 31
0.0
  0
LINE
  5
120
330
1F
100
AcDbEntity
  8
SK3
  6
SLD-Dashed
370
    18
100
AcDbLine
 10
18.7047083759
 20
29.8048664484
 30
0.0
 11
18.7047083759
 21
25.5791202528
 31
0.0
  0
LINE
  5
121
330
1F
100
AcDbEntity
  8
SK3
  6
SLD-Dashed
370
    18
100
AcDbLine
 10
3.545388845
 20
25.5789825872
 30
0.0
 11
3.545388845
 21
29.8048552742
 31
0.0
  0
LINE
  5
122
330
1F
100
AcDbEntity
  8
SK3
  6
SLD-Dashed
370
    18
100
AcDbLine
 10
14.3760129465
 20
30.2255814201
 30
0.0
 11
18.3
 21
30.2255814201
 31
0.0
  0
LINE
  5
123
330
1F
100
AcDbEntity
  8
SK3
  6
SLD-Dashed
370
    18
100
AcDbLine
 10
3.95
 20
30.2254693878
 30
0.0
 11
7.8540495334
 21
30.2254693878
 31
0.0
  0
LINE
  5
124
330
1F
100
AcDbEntity
  8
1
  6
SLD-Dashed
370
    18
100
AcDbLine
 10
9.2
 20
27.8050456342
 30
0.0
 11
9.2
 21
27.7691663541
 31
0.0
  0
LINE
  5
125
330
1F
100
AcDbEntity
  8
1
  6
SLD-Dashed
370
    18
100
AcDbLine
 10
13.03
 20
27.7691663541
 30
0.0
 11
13.03
 21
27.8050456342
 31
0.0
  0
LINE
  5
126
330
1F
100
AcDbEntity
  8
SK3
  6
SLD-Dashed
370
    18
100
AcDbLine
 10
18.704611155
 20
-22.41
 30
0.0
 11
3.5452916241
 21
-22.41
 31
0.0
  0
LINE
  5
127
330
1F
100
AcDbEntity
  8
SK3
  6
SLD-Dashed
370
    18
100
AcDbLine
 10
3.5452916241
 20
-22.785
 30
0.0
 11
18.704611155
 21
-22.785
 31
0.0
  0
LINE
  5
128
330
1F
100
AcDbEntity
  8
SK3
  6
SLD-Dashed
370
    18
100
AcDbLine
 10
3.7
 20
24.83
 30
0.0
 11
18.55
 21
24.83
 31
0.0
  0
LINE
  5
129
330
1F
100
AcDbEntity
  8
SK3
  6
SLD-Dashed
370
    18
100
AcDbLine
 10
18.55
 20
25.205
 30
0.0
 11
3.7
 21
25.205
 31
0.0
  0
LINE
  5
12A
330
1F
100
AcDbEntity
  8
SK3
  6
SLD-Dashed
370
    18
100
AcDbLine
 10
5.156
 20
-6.74624
 30
0.0
 11
5.156
 21
6.74624
 31
0.0
  0
LINE
  5
12B
330
1F
100
AcDbEntity
  8
SK3
  6
SLD-Dashed
370
    18
100
AcDbLine
 10
6.3479512444
 20
4.7625
 30
0.0
 11
6.3479512444
 21
-4.7625
 31
0.0
  0
LINE
  5
12C
330
1F
100
AcDbEntity
  8
SK3
  6
SLD-Dashed
370
    18
100
AcDbLine
 10
23.075
 20
11.2
 30
0.0
 11
34.075
 21
11.2
 31
0.0
  0
LINE
  5
12D
330
1F
100
AcDbEntity
  8
SK3
  6
SLD-Dashed
370
    18
100
AcDbLine
 10
43.7
 20
-4.7625
 30
0.0
 11
43.7
 21
4.7625
 31
0.0
  0
LINE
  5
12E
330
1F
100
AcDbEntity
  8
SK3
  6
SLD-Dashed
370
    18
100
AcDbLine
 10
44.45
 20
-5.1923477359
 30
0.0
 11
44.45
 21
5.1923477359
 31
0.0
  0
LINE
  5
12F
330
1F
100
AcDbEntity
  8
SK3
  6
SLD-Dashed
370
    18
100
AcDbLine
 10
16.1
 20
20.43
 30
0.0
 11
6.1
 21
20.43
 31
0.0
  0
LINE
  5
130
330
1F
100
AcDbEntity
  8
SK3
  6
SLD-Dashed
370
    18
100
AcDbLine
 10
6.1
 20
24.83
 30
0.0
 11
16.1
 21
24.83
 31
0.0
  0
LINE
  5
131
330
1F
100
AcDbEntity
  8
SK3
  6
SLD-Dashed
370
    18
100
AcDbLine
 10
6.400000056
 20
20.13
 30
0.0
 11
15.8
 21
20.13
 31
0.0
  0
LINE
  5
132
330
1F
100
AcDbEntity
  8
SK3
  6
SLD-Dashed
370
    18
100
AcDbLine
 10
24.384
 20
11.2
 30
0.0
 11
32.7537027728
 21
11.2
 31
0.0
  0
LINE
  5
133
330
1F
100
AcDbEntity
  8
SK3
  6
SLD-Dashed
370
    18
100
AcDbLine
 10
16.6269146287
 20
8.8714518524
 30
0.0
 11
16.5881613323
 21
9.2738168668
 31
0.0
  0
LINE
  5
134
330
1F
100
AcDbEntity
  8
SK3
  6
SLD-Dashed
370
    18
100
AcDbLine
 10
16.5881613323
 20
9.2738168668
 30
0.0
 11
16.6088299962
 21
9.6508998076
 31
0.0
  0
LINE
  5
135
330
1F
100
AcDbEntity
  8
SK3
  6
SLD-Dashed
370
    18
100
AcDbLine
 10
16.6088299962
 20
9.6508998076
 30
0.0
 11
16.6876219323
 21
9.9790071667
 31
0.0
  0
LINE
  5
136
330
1F
100
AcDbEntity
  8
SK3
  6
SLD-Dashed
370
    18
100
AcDbLine
 10
16.6876219323
 20
9.9790071667
 30
0.0
 11
16.8195863534
 21
10.2375227522
 31
0.0
  0
LINE
  5
137
330
1F
100
AcDbEntity
  8
SK3
  6
SLD-Dashed
370
    18
100
AcDbLine
 10
16.8195863534
 20
10.2375227522
 30
0.0
 11
16.9964314497
 21
10.4102030789
 31
0.0
  0
LINE
  5
138
330
1F
100
AcDbEntity
  8
SK3
  6
SLD-Dashed
370
    18
100
AcDbLine
 10
16.9964314497
 20
10.4102030789
 30
0.0
 11
17.2070453933
 21
10.486198007
 31
0.0
  0
LINE
  5
139
330
1F
100
AcDbEntity
  8
SK3
  6
SLD-Dashed
370
    18
100
AcDbLine
 10
17.2070453933
 20
10.486198007
 30
0.0
 11
17.4381945356
 21
10.4607324955
 31
0.0
  0
LINE
  5
13A
330
1F
100
AcDbEntity
  8
SK3
  6
SLD-Dashed
370
    18
100
AcDbLine
 10
17.4381945356
 20
10.4607324955
 30
0.0
 11
17.6753549259
 21
10.3354066363
 31
0.0
  0
LINE
  5
13B
330
1F
100
AcDbEntity
  8
SK3
  6
SLD-Dashed
370
    18
100
AcDbLine
 10
17.6753549259
 20
10.3354066363
 30
0.0
 11
17.9036249046
 21
10.1180951139
 31
0.0
  0
LINE
  5
13C
330
1F
100
AcDbEntity
  8
SK3
  6
SLD-Dashed
370
    18
100
AcDbLine
 10
17.9036249046
 20
10.1180951139
 30
0.0
 11
18.1086614295
 21
9.8224524106
 31
0.0
  0
LINE
  5
13D
330
1F
100
AcDbEntity
  8
SK3
  6
SLD-Dashed
370
    18
100
AcDbLine
 10
18.1086614295
 20
9.8224524106
 30
0.0
 11
18.2775813016
 21
9.4670548447
 31
0.0
  0
LINE
  5
13E
330
1F
100
AcDbEntity
  8
SK3
  6
SLD-Dashed
370
    18
100
AcDbLine
 10
18.2775813016
 20
9.4670548447
 30
0.0
 11
18.3997706641
 21
9.0742333523
 31
0.0
  0
LINE
  5
13F
330
1F
100
AcDbEntity
  8
SK3
  6
SLD-Dashed
370
    18
100
AcDbLine
 10
18.3997706641
 20
9.0742333523
 30
0.0
 11
18.46755191
 21
8.6686703525
 31
0.0
  0
LINE
  5
140
330
1F
100
AcDbEntity
  8
SK3
  6
SLD-Dashed
370
    18
100
AcDbLine
 10
18.46755191
 20
8.6686703525
 30
0.0
 11
18.4766660944
 21
8.2758488601
 31
0.0
  0
LINE
  5
141
330
1F
100
AcDbEntity
  8
SK3
  6
SLD-Dashed
370
    18
100
AcDbLine
 10
18.4766660944
 20
8.2758488601
 30
0.0
 11
18.4265405394
 21
7.9204512942
 31
0.0
  0
LINE
  5
142
330
1F
100
AcDbEntity
  8
SK3
  6
SLD-Dashed
370
    18
100
AcDbLine
 10
18.4265405394
 20
7.9204512942
 30
0.0
 11
18.3203248181
 21
7.6248085909
 31
0.0
  0
LINE
  5
143
330
1F
100
AcDbEntity
  8
SK3
  6
SLD-Dashed
370
    18
100
AcDbLine
 10
18.3203248181
 20
7.6248085909
 30
0.0
 11
18.1646928549
 21
7.4074970686
 31
0.0
  0
LINE
  5
144
330
1F
100
AcDbEntity
  8
SK3
  6
SLD-Dashed
370
    18
100
AcDbLine
 10
18.1646928549
 20
7.4074970686
 30
0.0
 11
17.9694235784
 21
7.2821712094
 31
0.0
  0
LINE
  5
145
330
1F
100
AcDbEntity
  8
SK3
  6
SLD-Dashed
370
    18
100
AcDbLine
 10
17.9694235784
 20
7.2821712094
 30
0.0
 11
17.7467864754
 21
7.2567056979
 31
0.0
  0
LINE
  5
146
330
1F
100
AcDbEntity
  8
SK3
  6
SLD-Dashed
370
    18
100
AcDbLine
 10
17.7467864754
 20
7.2567056979
 30
0.0
 11
17.5107706538
 21
7.3327006259
 31
0.0
  0
LINE
  5
147
330
1F
100
AcDbEntity
  8
SK3
  6
SLD-Dashed
370
    18
100
AcDbLine
 10
17.5107706538
 20
7.3327006259
 30
0.0
 11
17.2762058558
 21
7.5053809527
 31
0.0
  0
LINE
  5
148
330
1F
100
AcDbEntity
  8
SK3
  6
SLD-Dashed
370
    18
100
AcDbLine
 10
17.2762058558
 20
7.5053809527
 30
0.0
 11
17.0578306503
 21
7.7638965381
 31
0.0
  0
LINE
  5
149
330
1F
100
AcDbEntity
  8
SK3
  6
SLD-Dashed
370
    18
100
AcDbLine
 10
17.0578306503
 20
7.7638965381
 30
0.0
 11
16.8693663545
 21
8.0920038972
 31
0.0
  0
LINE
  5
14A
330
1F
100
AcDbEntity
  8
SK3
  6
SLD-Dashed
370
    18
100
AcDbLine
 10
16.8693663545
 20
8.0920038972
 30
0.0
 11
16.7226548734
 21
8.469086838
 31
0.0
  0
LINE
  5
14B
330
1F
100
AcDbEntity
  8
SK3
  6
SLD-Dashed
370
    18
100
AcDbLine
 10
16.7226548734
 20
8.469086838
 30
0.0
 11
16.6269146287
 21
8.8714518524
 31
0.0
  0
LINE
  5
14C
330
1F
100
AcDbEntity
  8
SK3
  6
SLD-Dashed
370
    18
100
AcDbLine
 10
18.7047083759
 20
-22.785
 30
0.0
 11
3.545388845
 21
-22.785
 31
0.0
  0
LINE
  5
14D
330
1F
100
AcDbEntity
  8
SK3
  6
SLD-Dashed
370
    18
100
AcDbLine
 10
3.545388845
 20
-22.41
 30
0.0
 11
18.7047083759
 21
-22.41
 31
0.0
  0
LINE
  5
14E
330
1F
100
AcDbEntity
  8
SK3
  6
SLD-Dashed
370
    18
100
AcDbLine
 10
3.545388845
 20
-22.785
 30
0.0
 11
3.545388845
 21
-29.8048552742
 31
0.0
  0
LINE
  5
14F
330
1F
100
AcDbEntity
  8
SK3
  6
SLD-Dashed
370
    18
100
AcDbLine
 10
3.95
 20
-30.2254693878
 30
0.0
 11
7.8540495334
 21
-30.2254693878
 31
0.0
  0
LINE
  5
150
330
1F
100
AcDbEntity
  8
SK3
  6
SLD-Dashed
370
    18
100
AcDbLine
 10
14.3760129465
 20
-30.2255814201
 30
0.0
 11
18.3
 21
-30.2255814201
 31
0.0
  0
LINE
  5
151
330
1F
100
AcDbEntity
  8
1
  6
SLD-Dashed
370
    18
100
AcDbLine
 10
12.28
 20
-26.9870635676
 30
0.0
 11
9.95
 21
-26.9870635676
 31
0.0
  0
LINE
  5
152
330
1F
100
AcDbEntity
  8
SK3
  6
SLD-Dashed
370
    18
100
AcDbLine
 10
18.7047083759
 20
-29.8048664484
 30
0.0
 11
18.7047083759
 21
-22.785
 31
0.0
  0
LINE
  5
153
330
1F
100
AcDbEntity
  8
SK3
  6
SLD-Dashed
370
    18
100
AcDbLine
 10
18.704611155
 20
25.5789825872
 30
0.0
 11
18.704611155
 21
29.8048552742
 31
0.0
  0
LINE
  5
154
330
1F
100
AcDbEntity
  8
SK3
  6
SLD-Dashed
370
    18
100
AcDbLine
 10
18.3
 20
30.2254693878
 30
0.0
 11
14.3759504666
 21
30.2254693878
 31
0.0
  0
LINE
  5
155
330
1F
100
AcDbEntity
  8
SK3
  6
SLD-Dashed
370
    18
100
AcDbLine
 10
3.5452916241
 20
29.8048664484
 30
0.0
 11
3.5452916241
 21
25.5791202528
 31
0.0
  0
LINE
  5
156
330
1F
100
AcDbEntity
  8
SK3
  6
SLD-Dashed
370
    18
100
AcDbLine
 10
7.8539870535
 20
30.2255814201
 30
0.0
 11
3.95
 21
30.2255814201
 31
0.0
  0
LINE
  5
157
330
1F
100
AcDbEntity
  8
1
  6
SLD-Dashed
370
    18
100
AcDbLine
 10
12.28
 20
26.9870635676
 30
0.0
 11
9.95
 21
26.9870635676
 31
0.0
  0
LINE
  5
158
330
1F
100
AcDbEntity
  8
SK3
  6
SLD-Dashed
370
    18
100
AcDbLine
 10
4.067532294
 20
8.9078631218
 30
0.0
 11
4.0305729264
 21
8.5035693866
 31
0.0
  0
LINE
  5
159
330
1F
100
AcDbEntity
  8
SK3
  6
SLD-Dashed
370
    18
100
AcDbLine
 10
4.0305729264
 20
8.5035693866
 30
0.0
 11
4.0453757198
 21
8.1246789135
 31
0.0
  0
LINE
  5
15A
330
1F
100
AcDbEntity
  8
SK3
  6
SLD-Dashed
370
    18
100
AcDbLine
 10
4.0453757198
 20
8.1246789135
 30
0.0
 11
4.1110105603
 21
7.7949987847
 31
0.0
  0
LINE
  5
15B
330
1F
100
AcDbEntity
  8
SK3
  6
SLD-Dashed
370
    18
100
AcDbLine
 10
4.1110105603
 20
7.7949987847
 30
0.0
 11
4.2233533695
 21
7.535244015
 31
0.0
  0
LINE
  5
15C
330
1F
100
AcDbEntity
  8
SK3
  6
SLD-Dashed
370
    18
100
AcDbLine
 10
4.2233533695
 20
7.535244015
 30
0.0
 11
4.3753452356
 21
7.3617359519
 31
0.0
  0
LINE
  5
15D
330
1F
100
AcDbEntity
  8
SK3
  6
SLD-Dashed
370
    18
100
AcDbLine
 10
4.3753452356
 20
7.3617359519
 30
0.0
 11
4.5574359504
 21
7.2853767451
 31
0.0
  0
LINE
  5
15E
330
1F
100
AcDbEntity
  8
SK3
  6
SLD-Dashed
370
    18
100
AcDbLine
 10
4.5574359504
 20
7.2853767451
 30
0.0
 11
4.7581840849
 21
7.3109643245
 31
0.0
  0
LINE
  5
15F
330
1F
100
AcDbEntity
  8
SK3
  6
SLD-Dashed
370
    18
100
AcDbLine
 10
4.7581840849
 20
7.3109643245
 30
0.0
 11
4.9649758954
 21
7.4368909283
 31
0.0
  0
LINE
  5
160
330
1F
100
AcDbEntity
  8
SK3
  6
SLD-Dashed
370
    18
100
AcDbLine
 10
4.9649758954
 20
7.4368909283
 30
0.0
 11
5.1648178918
 21
7.6552441249
 31
0.0
  0
LINE
  5
161
330
1F
100
AcDbEntity
  8
SK3
  6
SLD-Dashed
370
    18
100
AcDbLine
 10
5.1648178918
 20
7.6552441249
 30
0.0
 11
5.3451532667
 21
7.9523039799
 31
0.0
  0
LINE
  5
162
330
1F
100
AcDbEntity
  8
SK3
  6
SLD-Dashed
370
    18
100
AcDbLine
 10
5.3451532667
 20
7.9523039799
 30
0.0
 11
5.4946508852
 21
8.30940513
 31
0.0
  0
LINE
  5
163
330
1F
100
AcDbEntity
  8
SK3
  6
SLD-Dashed
370
    18
100
AcDbLine
 10
5.4946508852
 20
8.30940513
 30
0.0
 11
5.6039172621
 21
8.7041095968
 31
0.0
  0
LINE
  5
164
330
1F
100
AcDbEntity
  8
SK3
  6
SLD-Dashed
370
    18
100
AcDbLine
 10
5.6039172621
 20
8.7041095968
 30
0.0
 11
5.666086789
 21
9.1116166469
 31
0.0
  0
LINE
  5
165
330
1F
100
AcDbEntity
  8
SK3
  6
SLD-Dashed
370
    18
100
AcDbLine
 10
5.666086789
 20
9.1116166469
 30
0.0
 11
5.677253126
 21
9.5063211136
 31
0.0
  0
LINE
  5
166
330
1F
100
AcDbEntity
  8
SK3
  6
SLD-Dashed
370
    18
100
AcDbLine
 10
5.677253126
 20
9.5063211136
 30
0.0
 11
5.636714651
 21
9.8634222638
 31
0.0
  0
LINE
  5
167
330
1F
100
AcDbEntity
  8
SK3
  6
SLD-Dashed
370
    18
100
AcDbLine
 10
5.636714651
 20
9.8634222638
 30
0.0
 11
5.5470185456
 21
10.1604821188
 31
0.0
  0
LINE
  5
168
330
1F
100
AcDbEntity
  8
SK3
  6
SLD-Dashed
370
    18
100
AcDbLine
 10
5.5470185456
 20
10.1604821188
 30
0.0
 11
5.4138007459
 21
10.3788353153
 31
0.0
  0
LINE
  5
169
330
1F
100
AcDbEntity
  8
SK3
  6
SLD-Dashed
370
    18
100
AcDbLine
 10
5.4138007459
 20
10.3788353153
 30
0.0
 11
5.2454318161
 21
10.5047619191
 31
0.0
  0
LINE
  5
16A
330
1F
100
AcDbEntity
  8
SK3
  6
SLD-Dashed
370
    18
100
AcDbLine
 10
5.2454318161
 20
10.5047619191
 30
0.0
 11
5.0524909954
 21
10.5303494985
 31
0.0
  0
LINE
  5
16B
330
1F
100
AcDbEntity
  8
SK3
  6
SLD-Dashed
370
    18
100
AcDbLine
 10
5.0524909954
 20
10.5303494985
 30
0.0
 11
4.8471014652
 21
10.4539902918
 31
0.0
  0
LINE
  5
16C
330
1F
100
AcDbEntity
  8
SK3
  6
SLD-Dashed
370
    18
100
AcDbLine
 10
4.8471014652
 20
10.4539902918
 30
0.0
 11
4.6421686049
 21
10.2804822287
 31
0.0
  0
LINE
  5
16D
330
1F
100
AcDbEntity
  8
SK3
  6
SLD-Dashed
370
    18
100
AcDbLine
 10
4.6421686049
 20
10.2804822287
 30
0.0
 11
4.4505690999
 21
10.020727459
 31
0.0
  0
LINE
  5
16E
330
1F
100
AcDbEntity
  8
SK3
  6
SLD-Dashed
370
    18
100
AcDbLine
 10
4.4505690999
 20
10.020727459
 30
0.0
 11
4.2843418517
 21
9.6910473301
 31
0.0
  0
LINE
  5
16F
330
1F
100
AcDbEntity
  8
SK3
  6
SLD-Dashed
370
    18
100
AcDbLine
 10
4.2843418517
 20
9.6910473301
 30
0.0
 11
4.1539315297
 21
9.3121568571
 31
0.0
  0
LINE
  5
170
330
1F
100
AcDbEntity
  8
SK3
  6
SLD-Dashed
370
    18
100
AcDbLine
 10
4.1539315297
 20
9.3121568571
 30
0.0
 11
4.067532294
 21
8.9078631218
 31
0.0
  0
LINE
  5
171
330
1F
100
AcDbEntity
  8
SK3
  6
SLD-Dashed
370
    18
100
AcDbLine
 10
19.05
 20
6.6488143213
 30
0.0
 11
18.8161847139
 21
6.4760896069
 31
0.0
  0
LINE
  5
172
330
1F
100
AcDbEntity
  8
SK3
  6
SLD-Dashed
370
    18
100
AcDbLine
 10
18.8161847139
 20
6.4760896069
 30
0.0
 11
18.5531822006
 21
6.396203884
 31
0.0
  0
LINE
  5
173
330
1F
100
AcDbEntity
  8
SK3
  6
SLD-Dashed
370
    18
100
AcDbLine
 10
18.5531822006
 20
6.396203884
 30
0.0
 11
18.2707077792
 21
6.4121081331
 31
0.0
  0
LINE
  5
174
330
1F
100
AcDbEntity
  8
SK3
  6
SLD-Dashed
370
    18
100
AcDbLine
 10
18.2707077792
 20
6.4121081331
 30
0.0
 11
17.9791960612
 21
6.5232148508
 31
0.0
  0
LINE
  5
175
330
1F
100
AcDbEntity
  8
SK3
  6
SLD-Dashed
370
    18
100
AcDbLine
 10
17.9791960612
 20
6.5232148508
 30
0.0
 11
17.689415496
 21
6.7254197524
 31
0.0
  0
LINE
  5
176
330
1F
100
AcDbEntity
  8
SK3
  6
SLD-Dashed
370
    18
100
AcDbLine
 10
17.689415496
 20
6.7254197524
 30
0.0
 11
17.4120705846
 21
7.0112533843
 31
0.0
  0
LINE
  5
177
330
1F
100
AcDbEntity
  8
SK3
  6
SLD-Dashed
370
    18
100
AcDbLine
 10
17.4120705846
 20
7.0112533843
 30
0.0
 11
17.1574064541
 21
7.3701570454
 31
0.0
  0
LINE
  5
178
330
1F
100
AcDbEntity
  8
SK3
  6
SLD-Dashed
370
    18
100
AcDbLine
 10
17.1574064541
 20
7.3701570454
 30
0.0
 11
16.9348304035
 21
7.7888728264
 31
0.0
  0
LINE
  5
179
330
1F
100
AcDbEntity
  8
SK3
  6
SLD-Dashed
370
    18
100
AcDbLine
 10
16.9348304035
 20
7.7888728264
 30
0.0
 11
16.7525643972
 21
8.2519333568
 31
0.0
  0
LINE
  5
17A
330
1F
100
AcDbEntity
  8
SK3
  6
SLD-Dashed
370
    18
100
AcDbLine
 10
16.7525643972
 20
8.2519333568
 30
0.0
 11
16.6173413455
 21
8.7422331698
 31
0.0
  0
LINE
  5
17B
330
1F
100
AcDbEntity
  8
SK3
  6
SLD-Dashed
370
    18
100
AcDbLine
 10
16.6173413455
 20
8.7422331698
 30
0.0
 11
16.5341563912
 21
9.2416605792
 31
0.0
  0
LINE
  5
17C
330
1F
100
AcDbEntity
  8
SK3
  6
SLD-Dashed
370
    18
100
AcDbLine
 10
16.5341563912
 20
9.2416605792
 30
0.0
 11
16.5060823883
 21
9.731766725
 31
0.0
  0
LINE
  5
17D
330
1F
100
AcDbEntity
  8
SK3
  6
SLD-Dashed
370
    18
100
AcDbLine
 10
16.5060823883
 20
9.731766725
 30
0.0
 11
16.5341563912
 21
10.194447075
 31
0.0
  0
LINE
  5
17E
330
1F
100
AcDbEntity
  8
SK3
  6
SLD-Dashed
370
    18
100
AcDbLine
 10
16.5341563912
 20
10.194447075
 30
0.0
 11
16.6173413455
 21
10.6126102065
 31
0.0
  0
LINE
  5
17F
330
1F
100
AcDbEntity
  8
SK3
  6
SLD-Dashed
370
    18
100
AcDbLine
 10
16.6173413455
 20
10.6126102065
 30
0.0
 11
16.7525643972
 21
10.9708091637
 31
0.0
  0
LINE
  5
180
330
1F
100
AcDbEntity
  8
SK3
  6
SLD-Dashed
370
    18
100
AcDbLine
 10
16.7525643972
 20
10.9708091637
 30
0.0
 11
16.9348304035
 21
11.2558120691
 31
0.0
  0
LINE
  5
181
330
1F
100
AcDbEntity
  8
SK3
  6
SLD-Dashed
370
    18
100
AcDbLine
 10
16.9348304035
 20
11.2558120691
 30
0.0
 11
17.1574064541
 21
11.4570909087
 31
0.0
  0
LINE
  5
182
330
1F
100
AcDbEntity
  8
SK3
  6
SLD-Dashed
370
    18
100
AcDbLine
 10
17.1574064541
 20
11.4570909087
 30
0.0
 11
17.4120705846
 21
11.5672104376
 31
0.0
  0
LINE
  5
183
330
1F
100
AcDbEntity
  8
SK3
  6
SLD-Dashed
370
    18
100
AcDbLine
 10
17.4120705846
 20
11.5672104376
 30
0.0
 11
17.689415496
 21
11.5821028379
 31
0.0
  0
LINE
  5
184
330
1F
100
AcDbEntity
  8
SK3
  6
SLD-Dashed
370
    18
100
AcDbLine
 10
17.689415496
 20
11.5821028379
 30
0.0
 11
17.9791960612
 21
11.5012179839
 31
0.0
  0
LINE
  5
185
330
1F
100
AcDbEntity
  8
SK3
  6
SLD-Dashed
370
    18
100
AcDbLine
 10
17.9791960612
 20
11.5012179839
 30
0.0
 11
18.2707077792
 21
11.3275437641
 31
0.0
  0
LINE
  5
186
330
1F
100
AcDbEntity
  8
SK3
  6
SLD-Dashed
370
    18
100
AcDbLine
 10
18.2707077792
 20
11.3275437641
 30
0.0
 11
18.5531822006
 21
11.0674957081
 31
0.0
  0
LINE
  5
187
330
1F
100
AcDbEntity
  8
SK3
  6
SLD-Dashed
370
    18
100
AcDbLine
 10
18.5531822006
 20
11.0674957081
 30
0.0
 11
18.8161847139
 21
10.730679997
 31
0.0
  0
LINE
  5
188
330
1F
100
AcDbEntity
  8
SK3
  6
SLD-Dashed
370
    18
100
AcDbLine
 10
18.8161847139
 20
10.730679997
 30
0.0
 11
19.05
 21
10.329538611
 31
0.0
  0
LINE
  5
189
330
1F
100
AcDbEntity
  8
SK3
  6
SLD-Dashed
370
    18
100
AcDbLine
 10
19.05
 20
6.511218589
 30
0.0
 11
19.05
 21
11.9492786353
 31
0.0
  0
LINE
  5
18A
330
1F
100
AcDbEntity
  8
SK3
  6
SLD-Dashed
370
    18
100
AcDbLine
 10
3.718501261
 20
8.943826748
 30
0.0
 11
3.8093092693
 21
9.382312829
 31
0.0
  0
LINE
  5
18B
330
1F
100
AcDbEntity
  8
SK3
  6
SLD-Dashed
370
    18
100
AcDbLine
 10
3.8093092693
 20
9.382312829
 30
0.0
 11
3.9433883876
 21
9.798811387
 31
0.0
  0
LINE
  5
18C
330
1F
100
AcDbEntity
  8
SK3
  6
SLD-Dashed
370
    18
100
AcDbLine
 10
3.9433883876
 20
9.798811387
 30
0.0
 11
4.1140153288
 21
10.1724374451
 31
0.0
  0
LINE
  5
18D
330
1F
100
AcDbEntity
  8
SK3
  6
SLD-Dashed
370
    18
100
AcDbLine
 10
4.1140153288
 20
10.1724374451
 30
0.0
 11
4.3126341459
 21
10.4844558326
 31
0.0
  0
LINE
  5
18E
330
1F
100
AcDbEntity
  8
SK3
  6
SLD-Dashed
370
    18
100
AcDbLine
 10
4.3126341459
 20
10.4844558326
 30
0.0
 11
4.5292852618
 21
10.7192206447
 31
0.0
  0
LINE
  5
18F
330
1F
100
AcDbEntity
  8
SK3
  6
SLD-Dashed
370
    18
100
AcDbLine
 10
4.5292852618
 20
10.7192206447
 30
0.0
 11
4.7531048849
 21
10.8649597934
 31
0.0
  0
LINE
  5
190
330
1F
100
AcDbEntity
  8
SK3
  6
SLD-Dashed
370
    18
100
AcDbLine
 10
4.7531048849
 20
10.8649597934
 30
0.0
 11
4.9728697649
 21
10.9143653093
 31
0.0
  0
LINE
  5
191
330
1F
100
AcDbEntity
  8
SK3
  6
SLD-Dashed
370
    18
100
AcDbLine
 10
4.9728697649
 20
10.9143653093
 30
0.0
 11
5.1775599729
 21
10.8649597934
 31
0.0
  0
LINE
  5
192
330
1F
100
AcDbEntity
  8
SK3
  6
SLD-Dashed
370
    18
100
AcDbLine
 10
5.1775599729
 20
10.8649597934
 30
0.0
 11
5.3569114873
 21
10.7192206447
 31
0.0
  0
LINE
  5
193
330
1F
100
AcDbEntity
  8
SK3
  6
SLD-Dashed
370
    18
100
AcDbLine
 10
5.3569114873
 20
10.7192206447
 30
0.0
 11
5.5019308741
 21
10.4844558326
 31
0.0
  0
LINE
  5
194
330
1F
100
AcDbEntity
  8
SK3
  6
SLD-Dashed
370
    18
100
AcDbLine
 10
5.5019308741
 20
10.4844558326
 30
0.0
 11
5.6053462557
 21
10.1724374451
 31
0.0
  0
LINE
  5
195
330
1F
100
AcDbEntity
  8
SK3
  6
SLD-Dashed
370
    18
100
AcDbLine
 10
5.6053462557
 20
10.1724374451
 30
0.0
 11
5.6619719532
 21
9.798811387
 31
0.0
  0
LINE
  5
196
330
1F
100
AcDbEntity
  8
SK3
  6
SLD-Dashed
370
    18
100
AcDbLine
 10
5.6619719532
 20
9.798811387
 30
0.0
 11
5.6689685176
 21
9.382312829
 31
0.0
  0
LINE
  5
197
330
1F
100
AcDbEntity
  8
SK3
  6
SLD-Dashed
370
    18
100
AcDbLine
 10
5.6689685176
 20
9.382312829
 30
0.0
 11
5.6259851119
 21
8.943826748
 31
0.0
  0
LINE
  5
198
330
1F
100
AcDbEntity
  8
SK3
  6
SLD-Dashed
370
    18
100
AcDbLine
 10
5.6259851119
 20
8.943826748
 30
0.0
 11
5.5351771035
 21
8.5053406669
 31
0.0
  0
LINE
  5
199
330
1F
100
AcDbEntity
  8
SK3
  6
SLD-Dashed
370
    18
100
AcDbLine
 10
5.5351771035
 20
8.5053406669
 30
0.0
 11
5.4010979853
 21
8.0888421089
 31
0.0
  0
LINE
  5
19A
330
1F
100
AcDbEntity
  8
SK3
  6
SLD-Dashed
370
    18
100
AcDbLine
 10
5.4010979853
 20
8.0888421089
 30
0.0
 11
5.230471044
 21
7.7152160508
 31
0.0
  0
LINE
  5
19B
330
1F
100
AcDbEntity
  8
SK3
  6
SLD-Dashed
370
    18
100
AcDbLine
 10
5.230471044
 20
7.7152160508
 30
0.0
 11
5.031852227
 21
7.4031976633
 31
0.0
  0
LINE
  5
19C
330
1F
100
AcDbEntity
  8
SK3
  6
SLD-Dashed
370
    18
100
AcDbLine
 10
5.031852227
 20
7.4031976633
 30
0.0
 11
4.8152011111
 21
7.1684328512
 31
0.0
  0
LINE
  5
19D
330
1F
100
AcDbEntity
  8
SK3
  6
SLD-Dashed
370
    18
100
AcDbLine
 10
4.8152011111
 20
7.1684328512
 30
0.0
 11
4.5913814879
 21
7.0226937025
 31
0.0
  0
LINE
  5
19E
330
1F
100
AcDbEntity
  8
SK3
  6
SLD-Dashed
370
    18
100
AcDbLine
 10
4.5913814879
 20
7.0226937025
 30
0.0
 11
4.371616608
 21
6.9732881867
 31
0.0
  0
LINE
  5
19F
330
1F
100
AcDbEntity
  8
SK3
  6
SLD-Dashed
370
    18
100
AcDbLine
 10
4.371616608
 20
6.9732881867
 30
0.0
 11
4.1669263999
 21
7.0226937025
 31
0.0
  0
LINE
  5
1A0
330
1F
100
AcDbEntity
  8
SK3
  6
SLD-Dashed
370
    18
100
AcDbLine
 10
4.1669263999
 20
7.0226937025
 30
0.0
 11
3.9875748856
 21
7.1684328512
 31
0.0
  0
LINE
  5
1A1
330
1F
100
AcDbEntity
  8
SK3
  6
SLD-Dashed
370
    18
100
AcDbLine
 10
3.9875748856
 20
7.1684328512
 30
0.0
 11
3.8425554988
 21
7.4031976633
 31
0.0
  0
LINE
  5
1A2
330
1F
100
AcDbEntity
  8
SK3
  6
SLD-Dashed
370
    18
100
AcDbLine
 10
3.8425554988
 20
7.4031976633
 30
0.0
 11
3.7391401171
 21
7.7152160508
 31
0.0
  0
LINE
  5
1A3
330
1F
100
AcDbEntity
  8
SK3
  6
SLD-Dashed
370
    18
100
AcDbLine
 10
3.7391401171
 20
7.7152160508
 30
0.0
 11
3.6825144197
 21
8.0888421089
 31
0.0
  0
LINE
  5
1A4
330
1F
100
AcDbEntity
  8
SK3
  6
SLD-Dashed
370
    18
100
AcDbLine
 10
3.6825144197
 20
8.0888421089
 30
0.0
 11
3.6755178553
 21
8.5053406669
 31
0.0
  0
LINE
  5
1A5
330
1F
100
AcDbEntity
  8
SK3
  6
SLD-Dashed
370
    18
100
AcDbLine
 10
3.6755178553
 20
8.5053406669
 30
0.0
 11
3.718501261
 21
8.943826748
 31
0.0
  0
LINE
  5
1A6
330
1F
100
AcDbEntity
  8
SK3
  6
SLD-Dashed
370
    18
100
AcDbLine
 10
3.2
 20
7.1983508192
 30
0.0
 11
3.2
 21
11.2707369204
 31
0.0
  0
LINE
  5
1A7
330
1F
100
AcDbEntity
  8
SK3
  6
SLD-Dashed
370
    18
100
AcDbLine
 10
19.05
 20
-6.5096104434
 30
0.0
 11
18.6432434604
 21
-6.4121983199
 31
0.0
  0
LINE
  5
1A8
330
1F
100
AcDbEntity
  8
SK3
  6
SLD-Dashed
370
    18
100
AcDbLine
 10
17.4088764289
 20
-11.5664526822
 30
0.0
 11
19.05
 21
-11.9594772962
 31
0.0
  0
LINE
  5
1A9
330
1F
100
AcDbEntity
  8
SK3
  6
SLD-Dashed
370
    18
100
AcDbLine
 10
3.2
 20
-11.2731635919
 30
0.0
 11
5.0596924388
 21
-10.90593864
 31
0.0
  0
LINE
  5
1AA
330
1F
100
AcDbEntity
  8
SK3
  6
SLD-Dashed
370
    18
100
AcDbLine
 10
4.284793934
 20
-6.9817148559
 30
0.0
 11
3.2
 21
-7.1959241477
 31
0.0
  0
LINE
  5
1AB
330
1F
100
AcDbEntity
  8
SK3
  6
SLD-Dashed
370
    18
100
AcDbLine
 10
5.6686603003
 20
-9.6930495818
 30
0.0
 11
5.6764135015
 21
-9.5259719598
 31
0.0
  0
LINE
  5
1AC
330
1F
100
AcDbEntity
  8
SK3
  6
SLD-Dashed
370
    18
100
AcDbLine
 10
5.3797631594
 20
-8.0236818914
 30
0.0
 11
5.3090841282
 21
-7.8720919232
 31
0.0
  0
LINE
  5
1AD
330
1F
100
AcDbEntity
  8
SK3
  6
SLD-Dashed
370
    18
100
AcDbLine
 10
5.1740150157
 20
-10.5266054328
 30
0.0
 11
11.8540498232
 21
-9.2075295417
 31
0.0
  0
LINE
  5
1AE
330
1F
100
AcDbEntity
  8
SK3
  6
SLD-Dashed
370
    18
100
AcDbLine
 10
10.6984231028
 20
-6.0720033181
 30
0.0
 11
4.5347237493
 21
-7.2891208109
 31
0.0
  0
LINE
  5
1AF
330
1F
100
AcDbEntity
  8
SK3
  6
SLD-Dashed
370
    18
100
AcDbLine
 10
17.9181478161
 20
-7.2668254943
 30
0.0
 11
-8.9531127825
 21
-0.831559431
 31
0.0
  0
LINE
  5
1B0
330
1F
100
AcDbEntity
  8
SK3
  6
SLD-Dashed
370
    18
100
AcDbLine
 10
11.8524626917
 20
-9.2074977149
 30
0.0
 11
17.1495796644
 21
-10.4760782105
 31
0.0
  0
LINE
  5
1B1
330
1F
100
AcDbEntity
  8
SK3
  6
SLD-Dashed
370
    18
100
AcDbLine
 10
-11.2828205936
 20
-3.6669424869
 30
0.0
 11
10.6413630082
 21
-8.9174574072
 31
0.0
  0
LINE
  5
1B2
330
1F
100
AcDbEntity
  8
SK3
  6
SLD-Dashed
370
    18
100
AcDbLine
 10
-68.25
 20
-9.14
 30
0.0
 11
-66.6824940192
 21
-8.235
 31
0.0
  0
LINE
  5
1B3
330
1F
100
AcDbEntity
  8
SK3
  6
SLD-Dashed
370
    18
100
AcDbLine
 10
-66.6824940192
 20
8.235
 30
0.0
 11
-68.25
 21
9.14
 31
0.0
  0
LINE
  5
1B4
330
1F
100
AcDbEntity
  8
SK3
  6
SLD-Dashed
370
    18
100
AcDbLine
 10
-63.48
 20
-8.235
 30
0.0
 11
-62.6204640132
 21
-6.74624
 31
0.0
  0
LINE
  5
1B5
330
1F
100
AcDbEntity
  8
SK3
  6
SLD-Dashed
370
    18
100
AcDbLine
 10
-62.6204640132
 20
6.74624
 30
0.0
 11
-63.48
 21
8.235
 31
0.0
  0
LINE
  5
1B6
330
1F
100
AcDbEntity
  8
SK3
  6
SLD-Dashed
370
    18
100
AcDbLine
 10
-66.6824940192
 20
-8.235
 30
0.0
 11
-63.48
 21
-8.235
 31
0.0
  0
LINE
  5
1B7
330
1F
100
AcDbEntity
  8
SK3
  6
SLD-Dashed
370
    18
100
AcDbLine
 10
-63.48
 20
8.235
 30
0.0
 11
-66.6824940192
 21
8.235
 31
0.0
  0
LINE
  5
1B8
330
1F
100
AcDbEntity
  8
SK3
  6
SLD-Dashed
370
    18
100
AcDbLine
 10
-62.6204640132
 20
-6.74624
 30
0.0
 11
5.156
 21
-6.74624
 31
0.0
  0
LINE
  5
1B9
330
1F
100
AcDbEntity
  8
SK3
  6
SLD-Dashed
370
    18
100
AcDbLine
 10
5.156
 20
6.74624
 30
0.0
 11
-62.6204640132
 21
6.74624
 31
0.0
  0
LINE
  5
1BA
330
1F
100
AcDbEntity
  8
SK3
  6
SLD-Dashed
370
    18
100
AcDbLine
 10
5.156
 20
-6.74624
 30
0.0
 11
6.3479512444
 21
-4.7625
 31
0.0
  0
LINE
  5
1BB
330
1F
100
AcDbEntity
  8
SK3
  6
SLD-Dashed
370
    18
100
AcDbLine
 10
6.3479512444
 20
4.7625
 30
0.0
 11
5.156
 21
6.74624
 31
0.0
  0
LINE
  5
1BC
330
1F
100
AcDbEntity
  8
SK3
  6
SLD-Dashed
370
    18
100
AcDbLine
 10
34.075
 20
11.2
 30
0.0
 11
34.075
 21
12.7
 31
0.0
  0
LINE
  5
1BD
330
1F
100
AcDbEntity
  8
SK3
  6
SLD-Dashed
370
    18
100
AcDbLine
 10
23.075
 20
12.7
 30
0.0
 11
23.075
 21
11.2
 31
0.0
  0
LINE
  5
1BE
330
1F
100
AcDbEntity
  8
SK3
  6
SLD-Dashed
370
    18
100
AcDbLine
 10
44.45
 20
5.1955127019
 30
0.0
 11
43.7
 21
4.7625
 31
0.0
  0
LINE
  5
1BF
330
1F
100
AcDbEntity
  8
SK3
  6
SLD-Dashed
370
    18
100
AcDbLine
 10
43.7
 20
-4.7625
 30
0.0
 11
44.45
 21
-5.1955127019
 31
0.0
  0
LINE
  5
1C0
330
1F
100
AcDbEntity
  8
SK3
  6
SLD-Dashed
370
    18
100
AcDbLine
 10
6.1
 20
24.83
 30
0.0
 11
6.1
 21
20.43
 31
0.0
  0
LINE
  5
1C1
330
1F
100
AcDbEntity
  8
SK3
  6
SLD-Dashed
370
    18
100
AcDbLine
 10
16.1
 20
20.43
 30
0.0
 11
16.1
 21
24.83
 31
0.0
  0
LINE
  5
1C2
330
1F
100
AcDbEntity
  8
SK3
  6
SLD-Dashed
370
    18
100
AcDbLine
 10
24.384
 20
4.7625
 30
0.0
 11
6.3479512444
 21
4.7625
 31
0.0
  0
LINE
  5
1C3
330
1F
100
AcDbEntity
  8
SK3
  6
SLD-Dashed
370
    18
100
AcDbLine
 10
43.7
 20
4.7625
 30
0.0
 11
32.757695299
 21
4.7625
 31
0.0
  0
LINE
  5
1C4
330
1F
100
AcDbEntity
  8
SK3
  6
SLD-Dashed
370
    18
100
AcDbLine
 10
6.3479512444
 20
-4.7625
 30
0.0
 11
43.7
 21
-4.7625
 31
0.0
  0
LINE
  5
1C5
330
1F
100
AcDbEntity
  8
SK3
  6
SLD-Dashed
370
    18
100
AcDbLine
 10
24.384
 20
11.2
 30
0.0
 11
24.384
 21
4.7625
 31
0.0
  0
LINE
  5
1C6
330
1F
100
AcDbEntity
  8
SK3
  6
SLD-Dashed
370
    18
100
AcDbLine
 10
32.766
 20
4.7551973213
 30
0.0
 11
32.766
 21
11.2
 31
0.0
  0
LINE
  5
1C7
330
1F
100
AcDbEntity
  8
SK3
  6
SLD-Dashed
370
    18
100
AcDbLine
 10
10.6413630082
 20
8.9174574072
 30
0.0
 11
-11.2796255482
 21
3.6677076526
 31
0.0
  0
LINE
  5
1C8
330
1F
100
AcDbEntity
  8
SK3
  6
SLD-Dashed
370
    18
100
AcDbLine
 10
17.1495796644
 20
10.4760782105
 30
0.0
 11
11.8524626917
 21
9.2074977149
 31
0.0
  0
LINE
  5
1C9
330
1F
100
AcDbEntity
  8
SK3
  6
SLD-Dashed
370
    18
100
AcDbLine
 10
-8.9535458628
 20
0.8314557147
 30
0.0
 11
17.9181478161
 21
7.2668254943
 31
0.0
  0
LINE
  5
1CA
330
1F
100
AcDbEntity
  8
SK3
  6
SLD-Dashed
370
    18
100
AcDbLine
 10
4.5347237493
 20
7.2891208109
 30
0.0
 11
10.6984231028
 21
6.0720033181
 31
0.0
  0
LINE
  5
1CB
330
1F
100
AcDbEntity
  8
SK3
  6
SLD-Dashed
370
    18
100
AcDbLine
 10
11.8540498232
 20
9.2075295417
 30
0.0
 11
5.1740150157
 21
10.5266054328
 31
0.0
  0
LINE
  5
1CC
330
1F
100
AcDbEntity
  8
SK3
  6
SLD-Dashed
370
    18
100
AcDbLine
 10
19.05
 20
11.9594772962
 30
0.0
 11
17.4088764289
 21
11.5664526822
 31
0.0
  0
LINE
  5
1CD
330
1F
100
AcDbEntity
  8
SK3
  6
SLD-Dashed
370
    18
100
AcDbLine
 10
18.6432434604
 20
6.4121983199
 30
0.0
 11
19.05
 21
6.5096104434
 31
0.0
  0
LINE
  5
1CE
330
1F
100
AcDbEntity
  8
SK3
  6
SLD-Dashed
370
    18
100
AcDbLine
 10
3.2
 20
7.1959241477
 30
0.0
 11
4.284793934
 21
6.9817148559
 31
0.0
  0
LINE
  5
1CF
330
1F
100
AcDbEntity
  8
SK3
  6
SLD-Dashed
370
    18
100
AcDbLine
 10
5.0596924388
 20
10.90593864
 30
0.0
 11
3.2
 21
11.2731635919
 31
0.0
  0
LINE
  5
1D0
330
1F
100
AcDbEntity
  8
SK3
  6
SLD-Dashed
370
    18
100
AcDbLine
 10
5.3090841282
 20
7.8720919232
 30
0.0
 11
5.3797631594
 21
8.0236818914
 31
0.0
  0
LINE
  5
1D1
330
1F
100
AcDbEntity
  8
SK3
  6
SLD-Dashed
370
    18
100
AcDbLine
 10
5.6764135015
 20
9.5259719598
 30
0.0
 11
5.6686603003
 21
9.6930495818
 31
0.0
  0
LINE
  5
1D2
330
1F
100
AcDbEntity
  8
SK3
  6
SLD-Solid
370
    18
100
AcDbLine
 10
-38.2499992847
 20
7.9375002533
 30
0.0
 11
-63.3082389832
 21
7.9375002533
 31
0.0
  0
LINE
  5
1D3
330
1F
100
AcDbEntity
  8
SK3
  6
SLD-Solid
370
    18
100
AcDbLine
 10
-63.3082389832
 20
-7.9375002533
 30
0.0
 11
-38.2499992847
 21
-7.9375002533
 31
0.0
  0
LINE
  5
1D4
330
1F
100
AcDbEntity
  8
SK3
  6
SLD-Solid
370
    18
100
AcDbLine
 10
-38.2499992847
 20
0.0
 30
0.0
 11
-38.2499992847
 21
-1.0808227817
 31
0.0
  0
LINE
  5
1D5
330
1F
100
AcDbEntity
  8
SK3
  6
SLD-Solid
370
    18
100
AcDbLine
 10
-38.2500096312
 20
-1.0808227817
 30
0.0
 11
-38.2499992847
 21
-2.1415117662
 31
0.0
  0
LINE
  5
1D6
330
1F
100
AcDbEntity
  8
SK3
  6
SLD-Solid
370
    18
100
AcDbLine
 10
-38.2499992847
 20
-2.1415117662
 30
0.0
 11
-38.2499992847
 21
-3.1623085961
 31
0.0
  0
LINE
  5
1D7
330
1F
100
AcDbEntity
  8
SK3
  6
SLD-Solid
370
    18
100
AcDbLine
 10
-38.2499992847
 20
-3.1623085961
 30
0.0
 11
-38.2499992847
 21
-4.1241976433
 31
0.0
  0
LINE
  5
1D8
330
1F
100
AcDbEntity
  8
SK3
  6
SLD-Solid
370
    18
100
AcDbLine
 10
-38.2499992847
 20
-4.1241976433
 30
0.0
 11
-38.2499992847
 21
-5.0092604943
 31
0.0
  0
LINE
  5
1D9
330
1F
100
AcDbEntity
  8
SK3
  6
SLD-Solid
370
    18
100
AcDbLine
 10
-38.2499992847
 20
-5.0092604943
 30
0.0
 11
-38.2499992847
 21
-5.8010104112
 31
0.0
  0
LINE
  5
1DA
330
1F
100
AcDbEntity
  8
SK3
  6
SLD-Solid
370
    18
100
AcDbLine
 10
-38.2499992847
 20
-5.8010104112
 30
0.0
 11
-38.2499992847
 21
-6.4846985042
 31
0.0
  0
LINE
  5
1DB
330
1F
100
AcDbEntity
  8
SK3
  6
SLD-Solid
370
    18
100
AcDbLine
 10
-38.2499992847
 20
-6.4846985042
 30
0.0
 11
-38.2499992847
 21
-7.047588937
 31
0.0
  0
LINE
  5
1DC
330
1F
100
AcDbEntity
  8
SK3
  6
SLD-Solid
370
    18
100
AcDbLine
 10
-38.2499992847
 20
-7.047588937
 30
0.0
 11
-38.2499992847
 21
-7.4791959487
 31
0.0
  0
LINE
  5
1DD
330
1F
100
AcDbEntity
  8
SK3
  6
SLD-Solid
370
    18
100
AcDbLine
 10
-38.2499992847
 20
-7.4791959487
 30
0.0
 11
-38.2499992847
 21
-7.7714798972
 31
0.0
  0
LINE
  5
1DE
330
1F
100
AcDbEntity
  8
SK3
  6
SLD-Solid
370
    18
100
AcDbLine
 10
-38.2499992847
 20
-7.7714798972
 30
0.0
 11
-38.2499992847
 21
-7.9189958051
 31
0.0
  0
LINE
  5
1DF
330
1F
100
AcDbEntity
  8
SK3
  6
SLD-Solid
370
    18
100
AcDbLine
 10
-38.2499992847
 20
-7.9189958051
 30
0.0
 11
-38.2499992847
 21
-7.9375002533
 31
0.0
  0
LINE
  5
1E0
330
1F
100
AcDbEntity
  8
SK3
  6
SLD-Solid
370
    18
100
AcDbLine
 10
-38.2500096312
 20
7.9375002533
 30
0.0
 11
-38.2499992847
 21
7.9189958051
 31
0.0
  0
LINE
  5
1E1
330
1F
100
AcDbEntity
  8
SK3
  6
SLD-Solid
370
    18
100
AcDbLine
 10
-38.2499992847
 20
7.9189958051
 30
0.0
 11
-38.2499992847
 21
7.7714798972
 31
0.0
  0
LINE
  5
1E2
330
1F
100
AcDbEntity
  8
SK3
  6
SLD-Solid
370
    18
100
AcDbLine
 10
-38.2499992847
 20
7.7714798972
 30
0.0
 11
-38.2499992847
 21
7.4791959487
 31
0.0
  0
LINE
  5
1E3
330
1F
100
AcDbEntity
  8
SK3
  6
SLD-Solid
370
    18
100
AcDbLine
 10
-38.2499992847
 20
7.4791959487
 30
0.0
 11
-38.2499992847
 21
7.047588937
 31
0.0
  0
LINE
  5
1E4
330
1F
100
AcDbEntity
  8
SK3
  6
SLD-Solid
370
    18
100
AcDbLine
 10
-38.2499992847
 20
7.047588937
 30
0.0
 11
-38.2499992847
 21
6.4846985042
 31
0.0
  0
LINE
  5
1E5
330
1F
100
AcDbEntity
  8
SK3
  6
SLD-Solid
370
    18
100
AcDbLine
 10
-38.2499992847
 20
6.4846985042
 30
0.0
 11
-38.2499992847
 21
5.8010104112
 31
0.0
  0
LINE
  5
1E6
330
1F
100
AcDbEntity
  8
SK3
  6
SLD-Solid
370
    18
100
AcDbLine
 10
-38.2499992847
 20
5.8010104112
 30
0.0
 11
-38.2499992847
 21
5.0092604943
 31
0.0
  0
LINE
  5
1E7
330
1F
100
AcDbEntity
  8
SK3
  6
SLD-Solid
370
    18
100
AcDbLine
 10
-38.2499992847
 20
5.0092604943
 30
0.0
 11
-38.2499992847
 21
4.1241976433
 31
0.0
  0
LINE
  5
1E8
330
1F
100
AcDbEntity
  8
SK3
  6
SLD-Solid
370
    18
100
AcDbLine
 10
-38.2499992847
 20
4.1241976433
 30
0.0
 11
-38.2499992847
 21
3.1623085961
 31
0.0
  0
LINE
  5
1E9
330
1F
100
AcDbEntity
  8
SK3
  6
SLD-Solid
370
    18
100
AcDbLine
 10
-38.2499992847
 20
3.1623085961
 30
0.0
 11
-38.2499992847
 21
2.1415117662
 31
0.0
  0
LINE
  5
1EA
330
1F
100
AcDbEntity
  8
SK3
  6
SLD-Solid
370
    18
100
AcDbLine
 10
-38.2499992847
 20
2.1415117662
 30
0.0
 11
-38.2499992847
 21
1.0808227817
 31
0.0
  0
LINE
  5
1EB
330
1F
100
AcDbEntity
  8
SK3
  6
SLD-Solid
370
    18
100
AcDbLine
 10
-38.2499992847
 20
1.0808227817
 30
0.0
 11
-38.2499992847
 21
0.0
 31
0.0
  0
LINE
  5
1EC
330
1F
100
AcDbEntity
  8
SK3
  6
SLD-Solid
370
    18
100
AcDbLine
 10
33.3374999464
 20
4.7625000589
 30
0.0
 11
33.3374999464
 21
11.1999996006
 31
0.0
  0
LINE
  5
1ED
330
1F
100
AcDbEntity
  8
SK3
  6
SLD-Solid
370
    18
100
AcDbLine
 10
23.81250076
 20
11.1999996006
 30
0.0
 11
23.81250076
 21
4.7625000589
 31
0.0
  0
LINE
  5
1EE
330
1F
100
AcDbEntity
  8
SK3
  6
SLD-Solid
370
    18
100
AcDbLine
 10
26.31293796
 20
2.2620621603
 30
0.0
 11
25.6980005652
 21
2.8769986238
 31
0.0
  0
LINE
  5
1EF
330
1F
100
AcDbEntity
  8
SK3
  6
SLD-Solid
370
    18
100
AcDbLine
 10
33.3374999464
 20
4.7625000589
 30
0.0
 11
33.2813598216
 21
4.7063608654
 31
0.0
  0
LINE
  5
1F0
330
1F
100
AcDbEntity
  8
SK3
  6
SLD-Solid
370
    18
100
AcDbLine
 10
30.8369592676
 20
2.2620621603
 30
0.0
 11
26.31293796
 21
2.2620621603
 31
0.0
  0
LINE
  5
1F1
330
1F
100
AcDbEntity
  8
SK3
  6
SLD-Solid
370
    18
100
AcDbLine
 10
25.6979660044
 20
2.8769986238
 30
0.0
 11
25.1508913934
 21
3.4241080284
 31
0.0
  0
LINE
  5
1F2
330
1F
100
AcDbEntity
  8
SK3
  6
SLD-Solid
370
    18
100
AcDbLine
 10
25.1508913934
 20
3.4241080284
 30
0.0
 11
24.6845073998
 21
3.8904922549
 31
0.0
  0
LINE
  5
1F3
330
1F
100
AcDbEntity
  8
SK3
  6
SLD-Solid
370
    18
100
AcDbLine
 10
24.6845073998
 20
3.8904922549
 30
0.0
 11
24.3098437786
 21
4.2651561089
 31
0.0
  0
LINE
  5
1F4
330
1F
100
AcDbEntity
  8
SK3
  6
SLD-Solid
370
    18
100
AcDbLine
 10
24.3098437786
 20
4.2651561089
 30
0.0
 11
24.0357331932
 21
4.5392662287
 31
0.0
  0
LINE
  5
1F5
330
1F
100
AcDbEntity
  8
SK3
  6
SLD-Solid
370
    18
100
AcDbLine
 10
24.0357331932
 20
4.5392662287
 30
0.0
 11
23.8686390221
 21
4.7063608654
 31
0.0
  0
LINE
  5
1F6
330
1F
100
AcDbEntity
  8
SK3
  6
SLD-Solid
370
    18
100
AcDbLine
 10
23.8686390221
 20
4.7063608654
 30
0.0
 11
23.81250076
 21
4.7625000589
 31
0.0
  0
LINE
  5
1F7
330
1F
100
AcDbEntity
  8
SK3
  6
SLD-Solid
370
    18
100
AcDbLine
 10
33.2813457498
 20
4.7063608654
 30
0.0
 11
33.1142656505
 21
4.5392662287
 31
0.0
  0
LINE
  5
1F8
330
1F
100
AcDbEntity
  8
SK3
  6
SLD-Solid
370
    18
100
AcDbLine
 10
33.1142656505
 20
4.5392662287
 30
0.0
 11
32.8401550651
 21
4.2651561089
 31
0.0
  0
LINE
  5
1F9
330
1F
100
AcDbEntity
  8
SK3
  6
SLD-Solid
370
    18
100
AcDbLine
 10
32.8401550651
 20
4.2651561089
 30
0.0
 11
32.4654914439
 21
3.8904922549
 31
0.0
  0
LINE
  5
1FA
330
1F
100
AcDbEntity
  8
SK3
  6
SLD-Solid
370
    18
100
AcDbLine
 10
32.4654914439
 20
3.8904922549
 30
0.0
 11
31.9991074502
 21
3.4241080284
 31
0.0
  0
LINE
  5
1FB
330
1F
100
AcDbEntity
  8
SK3
  6
SLD-Solid
370
    18
100
AcDbLine
 10
31.9991074502
 20
3.4241080284
 30
0.0
 11
31.4520001411
 21
2.8769986238
 31
0.0
  0
LINE
  5
1FC
330
1F
100
AcDbEntity
  8
SK3
  6
SLD-Solid
370
    18
100
AcDbLine
 10
31.4520001411
 20
2.8769986238
 30
0.0
 11
30.8370627463
 21
2.2620621603
 31
0.0
  0
LINE
  5
1FD
330
1F
100
AcDbEntity
  8
4
  6
SLD-Center
370
    18
100
AcDbLine
 10
46.45
 20
0.0
 30
0.0
 11
0.2646663179
 21
0.0
 31
0.0
  0
LINE
  5
1FE
330
1F
100
AcDbEntity
  8
4
  6
SLD-Center
370
    18
100
AcDbLine
 10
28.575
 20
2.7625
 30
0.0
 11
28.575
 21
13.2
 31
0.0
  0
LINE
  5
1FF
330
1F
100
AcDbEntity
  8
SK4
  6
SLD-Center
370
    18
100
AcDbLine
 10
-69.1376006954
 20
0.0
 30
0.0
 11
46.0751724386
 21
0.0
 31
0.0
  0
LINE
  5
200
330
1F
100
AcDbEntity
  8
81
370
    18
100
AcDbLine
 10
43.7
 20
0.0
 30
0.0
 11
47.2355339059
 21
3.5355339059
 31
0.0
  0
LINE
  5
201
330
1F
100
AcDbEntity
  8
81
370
    18
100
AcDbLine
 10
43.7
 20
0.0
 30
0.0
 11
40.1644660941
 21
-3.5355339059
 31
0.0
  0
LINE
  5
202
330
1F
100
AcDbEntity
  8
81
370
    18
100
AcDbLine
 10
43.7
 20
0.0
 30
0.0
 11
40.1644660941
 21
3.5355339059
 31
0.0
  0
LINE
  5
203
330
1F
100
AcDbEntity
  8
81
100
AcDbLine
 10
43.7
 20
0.0
 30
0.0
 11
53.7
 21
0.0
 31
0.0
  0
LINE
  5
204
330
1F
100
AcDbEntity
  8
81
370
    18
100
AcDbLine
 10
43.7
 20
0.0
 30
0.0
 11
47.2355339059
 21
-3.5355339059
 31
0.0
  0
LINE
  5
205
330
1F
100
AcDbEntity
  8
80
370
    18
100
AcDbLine
 10
0.0
 20
0.0
 30
0.0
 11
-3.5355339059
 21
-3.5355339059
 31
0.0
  0
LINE
  5
206
330
1F
100
AcDbEntity
  8
80
370
    18
100
AcDbLine
 10
0.0
 20
0.0
 30
0.0
 11
3.5355339059
 21
3.5355339059
 31
0.0
  0
LINE
  5
207
330
1F
100
AcDbEntity
  8
80
370
    18
100
AcDbLine
 10
0.0
 20
0.0
 30
0.0
 11
-3.5355339059
 21
3.5355339059
 31
0.0
  0
LINE
  5
208
330
1F
100
AcDbEntity
  8
80
370
    18
100
AcDbLine
 10
0.0
 20
0.0
 30
0.0
 11
-10.0
 21
0.0
 31
0.0
  0
LINE
  5
209
330
1F
100
AcDbEntity
  8
80
370
    18
100
AcDbLine
 10
0.0
 20
0.0
 30
0.0
 11
3.5355339059
 21
-3.5355339059
 31
0.0
  0
ARC
  5
20A
330
1F
100
AcDbEntity
  8
1
  6
SLD-Solid
370
    25
100
AcDbCircle
 10
2.45
 20
22.79
 30
0.0
 40
0.7500000000000103
100
AcDbArc
 50
245.0
 51
0.0
  0
ARC
  5
20B
330
1F
100
AcDbEntity
  8
1
  6
SLD-Solid
370
    25
100
AcDbCircle
 10
2.45
 20
-22.79
 30
0.0
 40
0.7500000000000072
100
AcDbArc
 50
30.4400371691
 51
115.0
  0
ARC
  5
20C
330
1F
100
AcDbEntity
  8
1
  6
SLD-Solid
370
    25
100
AcDbCircle
 10
22.225
 20
-15.875
 30
0.0
 40
3.175000000000011
100
AcDbArc
 50
90.0
 51
180.0
  0
ARC
  5
20D
330
1F
100
AcDbEntity
  8
1
  6
SLD-Solid
370
    25
100
AcDbCircle
 10
22.225
 20
15.875
 30
0.0
 40
3.175000000000011
100
AcDbArc
 50
180.0
 51
270.0
  0
ARC
  5
20E
330
1F
100
AcDbEntity
  8
SK1
  6
SLD-Solid
370
    25
100
AcDbCircle
 10
-66.95
 20
11.1476148288
 30
0.0
 40
1.299999999999997
100
AcDbArc
 50
98.2972222222
 51
180.0
  0
ARC
  5
20F
330
1F
100
AcDbEntity
  8
SK1
  6
SLD-Solid
370
    25
100
AcDbCircle
 10
-66.95
 20
-11.1476148288
 30
0.0
 40
1.299999999999999
100
AcDbArc
 50
180.0
 51
261.7027777778
  0
ARC
  5
210
330
1F
100
AcDbEntity
  8
1
  6
SLD-Solid
370
    25
100
AcDbCircle
 10
28.5751397875
 20
24.6341783201
 30
0.0
 40
13.14051271957776
100
AcDbArc
 50
245.2783706599
 51
294.7425899728
  0
ARC
  5
211
330
1F
100
AcDbEntity
  8
1
370
    18
100
AcDbCircle
 10
28.5788584742
 20
-26.7003834715
 30
0.0
 40
15.08489652439274
100
AcDbArc
 50
68.1611058181
 51
111.8585210647
  0
CIRCLE
  5
212
330
1F
100
AcDbEntity
  8
81
370
    18
100
AcDbCircle
 10
43.7
 20
0.0
 30
0.0
 40
2.499999999999984
  0
CIRCLE
  5
213
330
1F
100
AcDbEntity
  8
80
370
    18
100
AcDbCircle
 10
0.0
 20
0.0
 30
0.0
 40
2.500000000000009
  0
SPLINE
  5
214
330
1F
100
AcDbEntity
  8
1
  6
SLD-Solid
370
    25
100
AcDbSpline
210
0.0
220
0.0
230
1.0
 70
     8
 71
     3
 72
    16
 73
    12
 74
     0
 42
0.000000001
 43
0.00000001
 40
0.0
 40
0.0
 40
0.0
 40
0.0
 40
0.0695972585631702
 40
0.1233277320974721
 40
0.247039555460377
 40
0.370625409937532
 40
0.4955039070586293
 40
0.6236892810562452
 40
0.7463896350927952
 40
0.874029172385884
 40
1.0
 40
1.0
 40
1.0
 40
1.0
 10
3.200000000000008
 20
-29.8048664484163
 30
0.0
 10
3.200840331068322
 20
-29.8321187437415
 30
0.0
 10
3.202329414503657
 20
-29.88041035531205
 30
0.0
 10
3.217237155250602
 20
-29.97610817340506
 30
0.0
 10
3.25068871576803
 20
-30.08991350869657
 30
0.0
 10
3.318652551688006
 20
-30.22007249881832
 30
0.0
 10
3.411627067179679
 20
-30.33622596976963
 30
0.0
 10
3.525709306310159
 20
-30.43184457715032
 30
0.0
 10
3.657379123027604
 20
-30.50320141671876
 30
0.0
 10
3.800029806285382
 20
-30.5492134761922
 30
0.0
 10
3.900229701070762
 20
-30.55502300820851
 30
0.0
 10
3.949999999999926
 20
-30.55790866138917
 30
0.0
  0
SPLINE
  5
215
330
1F
100
AcDbEntity
  8
1
  6
SLD-Solid
370
    25
100
AcDbSpline
210
0.0
220
0.0
230
1.0
 70
     8
 71
     3
 72
    18
 73
    14
 74
     0
 42
0.000000001
 43
0.00000001
 40
0.0
 40
0.0
 40
0.0
 40
0.0
 40
0.0628280480421825
 40
0.1260701253970792
 40
0.1897406253785904
 40
0.2538535710757105
 40
0.3764737521324676
 40
0.5046580328934662
 40
0.6294958758641306
 40
0.7530413720168776
 40
0.8767127000651272
 40
0.9303985995609487
 40
1.0
 40
1.0
 40
1.0
 40
1.0
 10
3.949999999999926
 20
30.55788999666613
 30
0.0
 10
3.925199676033193
 20
30.55717534525744
 30
0.0
 10
3.875435596934707
 20
30.55574133297283
 30
0.0
 10
3.801295881396189
 20
30.54413094373269
 30
0.0
 10
3.728175768565517
 20
30.52555103963991
 30
0.0
 10
3.635356745735146
 20
30.49149389245028
 30
0.0
 10
3.525704227685305
 20
30.43173903699993
 30
0.0
 10
3.411641971522853
 20
30.33624779546198
 30
0.0
 10
3.318651270434233
 20
30.22005039304359
 30
0.0
 10
3.250689072054497
 20
30.08990134371376
 30
0.0
 10
3.217240115096242
 20
29.97610524198125
 30
0.0
 10
3.202330512999694
 20
29.88040905934514
 30
0.0
 10
3.200840935566487
 20
29.83211788338436
 30
0.0
 10
3.2
 20
29.8048552741984
 30
0.0
  0
SPLINE
  5
216
330
1F
100
AcDbEntity
  8
1
  6
SLD-Solid
370
    25
100
AcDbSpline
210
0.0
220
0.0
230
1.0
 70
     8
 71
     3
 72
    18
 73
    14
 74
     0
 42
0.000000001
 43
0.00000001
 40
0.0
 40
0.0
 40
0.0
 40
0.0
 40
0.0627054734815585
 40
0.1258180026435944
 40
0.1893518955758989
 40
0.2533210967871997
 40
0.3760223802380994
 40
0.5042027350874037
 40
0.6287442443905509
 40
0.7524970007335178
 40
0.8762904256225891
 40
0.9301814553533038
 40
1.0
 40
1.0
 40
1.0
 40
1.0
 10
18.30000000000002
 20
-30.55788999666613
 30
0.0
 10
18.32475189251027
 20
-30.55717815032796
 30
0.0
 10
18.37441635566443
 20
-30.55574983666592
 30
0.0
 10
18.44840700700193
 20
-30.54418621918458
 30
0.0
 10
18.52137928311721
 20
-30.52568315689514
 30
0.0
 10
18.6141487161072
 20
-30.49172081055996
 30
0.0
 10
18.72382631062689
 20
-30.4320633120142
 30
0.0
 10
18.83789060104974
 20
-30.33670781031284
 30
0.0
 10
18.93096567570621
 20
-30.22063090164697
 30
0.0
 10
18.9990684063574
 20
-30.09053486574008
 30
0.0
 10
19.03266226172082
 20
-29.97656054635133
 30
0.0
 10
19.04765434845163
 20
-29.88065972774422
 30
0.0
 10
19.04915376650082
 20
-29.83220301390153
 30
0.0
 10
19.05000000000001
 20
-29.8048552741984
 30
0.0
  0
SPLINE
  5
217
330
1F
100
AcDbEntity
  8
1
  6
SLD-Solid
370
    25
100
AcDbSpline
210
0.0
220
0.0
230
1.0
 70
     8
 71
     3
 72
    16
 73
    12
 74
     0
 42
0.000000001
 43
0.00000001
 40
0.0
 40
0.0
 40
0.0
 40
0.0
 40
0.069814031064149
 40
0.1237498965154266
 40
0.2475836018648968
 40
0.371376536255524
 40
0.4959583438678432
 40
0.62413948620796
 40
0.7469207609697971
 40
0.8742805094910139
 40
1.0
 40
1.0
 40
1.0
 40
1.0
 10
19.05000000000001
 20
29.80486644841629
 30
0.0
 10
19.04915437967803
 20
29.83220375694688
 30
0.0
 10
19.04765546283078
 20
29.88066090875586
 30
0.0
 10
19.03266526234904
 20
29.97656337346558
 30
0.0
 10
18.99906876123939
 20
30.09054703967058
 30
0.0
 10
18.93096439399841
 20
30.22065301278144
 30
0.0
 10
18.8379055033088
 20
30.33668609025481
 30
0.0
 10
18.72382127964481
 20
30.43216876423576
 30
0.0
 10
18.59216376019321
 20
30.50338604964251
 30
0.0
 10
18.44966044222823
 20
30.54924901227125
 30
0.0
 10
18.3496707963334
 20
30.55503461089692
 30
0.0
 10
18.30000000000001
 20
30.55790866138914
 30
0.0
  0
SPLINE
  5
218
330
1F
100
AcDbEntity
  8
1
  6
SLD-Solid
370
    25
100
AcDbSpline
210
0.0
220
0.0
230
1.0
 70
     8
 71
     3
 72
     8
 73
     4
 74
     0
 42
0.000000001
 43
0.00000001
 40
0.0
 40
0.0
 40
0.0
 40
0.0
 40
1.0
 40
1.0
 40
1.0
 40
1.0
 10
13.03000000000001
 20
27.8050456341729
 30
0.0
 10
13.47759651810107
 20
28.61249255653032
 30
0.0
 10
13.92634937951637
 20
29.41929290832668
 30
0.0
 10
14.3760129465226
 20
30.22558142012641
 30
0.0
  0
SPLINE
  5
219
330
1F
100
AcDbEntity
  8
1
  6
SLD-Solid
370
    25
100
AcDbSpline
210
0.0
220
0.0
230
1.0
 70
     8
 71
     3
 72
     8
 73
     4
 74
     0
 42
0.000000001
 43
0.00000001
 40
0.0
 40
0.0
 40
0.0
 40
0.0
 40
0.0006742907251946
 40
0.0006742907251946
 40
0.0006742907251946
 40
0.0006742907251946
 10
14.6411263545568
 20
30.55790866138914
 30
0.0
 10
14.5523112191522
 20
30.44723498609877
 30
0.0
 10
14.46393231327361
 20
30.33646040447047
 30
0.0
 10
14.3760129465226
 20
30.22558142012641
 30
0.0
  0
SPLINE
  5
21A
330
1F
100
AcDbEntity
  8
1
  6
SLD-Solid
370
    25
100
AcDbSpline
210
0.0
220
0.0
230
1.0
 70
     8
 71
     3
 72
     8
 73
     4
 74
     0
 42
0.000000001
 43
0.00000001
 40
0.0
 40
0.0
 40
0.0
 40
0.0
 40
0.0006744126776058
 40
0.0006744126776058
 40
0.0006744126776058
 40
0.0006744126776058
 10
14.37595046659276
 20
-30.22546938779915
 30
0.0
 10
14.46389058426686
 20
-30.33637953005828
 30
0.0
 10
14.55229031970068
 20
-30.44718523342132
 30
0.0
 10
14.64112635455681
 20
-30.55788999666613
 30
0.0
  0
SPLINE
  5
21B
330
1F
100
AcDbEntity
  8
1
  6
SLD-Solid
370
    25
100
AcDbSpline
210
0.0
220
0.0
230
1.0
 70
     8
 71
     3
 72
     8
 73
     4
 74
     0
 42
0.000000001
 43
0.00000001
 40
0.0
 40
0.0
 40
0.0
 40
0.0
 40
1.0
 40
1.0
 40
1.0
 40
1.0
 10
13.03000000000001
 20
-27.80504563417289
 30
0.0
 10
13.4775666286443
 20
-28.6124386370986
 30
0.0
 10
13.92629890859753
 20
-29.41920220926157
 30
0.0
 10
14.37595046659276
 20
-30.22546938779915
 30
0.0
  0
SPLINE
  5
21C
330
1F
100
AcDbEntity
  8
1
  6
SLD-Solid
370
    25
100
AcDbSpline
210
0.0
220
0.0
230
1.0
 70
     8
 71
     3
 72
    14
 73
    10
 74
     0
 42
0.000000001
 43
0.00000001
 40
0.0
 40
0.0
 40
0.0
 40
0.0
 40
0.25
 40
0.25
 40
0.5
 40
0.5
 40
0.75
 40
0.75
 40
1.0
 40
1.0
 40
1.0
 40
1.0
 10
13.02999999999999
 20
25.81171788356632
 30
0.0
 10
13.05182784069892
 20
25.80868166763938
 30
0.0
 10
13.06930451588745
 20
25.79706282581691
 30
0.0
 10
13.09355241467166
 20
25.75265705035272
 30
0.0
 10
13.0999641373839
 20
25.71975400624285
 30
0.0
 10
13.10003555457988
 20
25.6344344577325
 30
0.0
 10
13.09360869858516
 20
25.58073121692833
 30
0.0
 10
13.06953031995432
 20
25.45976651603279
 30
0.0
 10
13.05190366619466
 20
25.39187340765437
 30
0.0
 10
13.03000000000001
 20
25.31924243797497
 30
0.0
  0
SPLINE
  5
21D
330
1F
100
AcDbEntity
  8
1
  6
SLD-Solid
370
    25
100
AcDbSpline
210
0.0
220
0.0
230
1.0
 70
     8
 71
     3
 72
     8
 73
     4
 74
     0
 42
0.000000001
 43
0.00000001
 40
0.0
 40
0.0
 40
0.0
 40
0.0
 40
1.0
 40
1.0
 40
1.0
 40
1.0
 10
7.853987053479589
 20
-30.22558142012364
 30
0.0
 10
8.303659523846708
 20
-29.41927694377146
 30
0.0
 10
8.752412641282653
 20
-28.61247603335509
 30
0.0
 10
9.199999999998848
 20
-27.80504563417607
 30
0.0
  0
SPLINE
  5
21E
330
1F
100
AcDbEntity
  8
1
  6
SLD-Solid
370
    25
100
AcDbSpline
210
0.0
220
0.0
230
1.0
 70
     8
 71
     3
 72
     8
 73
     4
 74
     0
 42
0.000000001
 43
0.00000001
 40
0.0
 40
0.0
 40
0.0
 40
0.0
 40
0.0006742907251988
 40
0.0006742907251988
 40
0.0006742907251988
 40
0.0006742907251988
 10
7.588873645443195
 20
-30.55790866138917
 30
0.0
 10
7.677688780848539
 20
-30.44723498609787
 30
0.0
 10
7.766067686727855
 20
-30.33646040446865
 30
0.0
 10
7.853987053479585
 20
-30.22558142012364
 30
0.0
  0
SPLINE
  5
21F
330
1F
100
AcDbEntity
  8
1
  6
SLD-Solid
370
    25
100
AcDbSpline
210
0.0
220
0.0
230
1.0
 70
     8
 71
     3
 72
     8
 73
     4
 74
     0
 42
0.000000001
 43
0.00000001
 40
0.0
 40
0.0
 40
0.0
 40
0.0
 40
0.0006744126776058
 40
0.0006744126776058
 40
0.0006744126776058
 40
0.0006744126776058
 10
7.854049533407236
 20
30.22546938779911
 30
0.0
 10
7.766109415733136
 20
30.33637953005826
 30
0.0
 10
7.677709680299322
 20
30.44718523342131
 30
0.0
 10
7.588873645443195
 20
30.55788999666613
 30
0.0
  0
SPLINE
  5
220
330
1F
100
AcDbEntity
  8
1
  6
SLD-Solid
370
    25
100
AcDbSpline
210
0.0
220
0.0
230
1.0
 70
     8
 71
     3
 72
     8
 73
     4
 74
     0
 42
0.000000001
 43
0.00000001
 40
0.0
 40
0.0
 40
0.0
 40
0.0
 40
1.0
 40
1.0
 40
1.0
 40
1.0
 10
7.854049533407236
 20
30.22546938779912
 30
0.0
 10
8.303692188804751
 20
29.41921817244964
 30
0.0
 10
8.752424212806615
 20
28.61245515876934
 30
0.0
 10
9.199999999999985
 20
27.8050456341729
 30
0.0
  0
SPLINE
  5
221
330
1F
100
AcDbEntity
  8
1
  6
SLD-Solid
370
    25
100
AcDbSpline
210
0.0
220
0.0
230
1.0
 70
     8
 71
     3
 72
    14
 73
    10
 74
     0
 42
0.000000001
 43
0.00000001
 40
0.0
 40
0.0
 40
0.0
 40
0.0
 40
0.25
 40
0.25
 40
0.5
 40
0.5
 40
0.75
 40
0.75
 40
1.0
 40
1.0
 40
1.0
 40
1.0
 10
9.199999999998846
 20
25.27054331738517
 30
0.0
 10
9.169610391132117
 20
25.36219671402949
 30
0.0
 10
9.144652419509566
 20
25.44797517411546
 30
0.0
 10
9.109411114929522
 20
25.60359055831213
 30
0.0
 10
9.100075894724862
 20
25.66959440204698
 30
0.0
 10
9.099925023949767
 20
25.77434199055129
 30
0.0
 10
9.109375914768819
 20
25.81145009587539
 30
0.0
 10
9.144272722663857
 20
25.855009352439
 30
0.0
 10
9.16955575262421
 20
25.86176202446132
 30
0.0
 10
9.199999999999987
 20
25.85691311136566
 30
0.0
  0
SPLINE
  5
222
330
1F
100
AcDbEntity
  8
1
  6
SLD-Solid
370
    25
100
AcDbSpline
210
0.0
220
0.0
230
1.0
 70
     8
 71
     3
 72
    14
 73
    10
 74
     0
 42
0.000000001
 43
0.00000001
 40
0.0
 40
0.0
 40
0.0
 40
0.0
 40
0.25
 40
0.25
 40
0.5
 40
0.5
 40
0.75
 40
0.75
 40
1.0
 40
1.0
 40
1.0
 40
1.0
 10
9.199999999999985
 20
-27.76916635406976
 30
0.0
 10
9.199999999999985
 20
-27.66854183645165
 30
0.0
 10
9.218753722673611
 20
-27.56842327754111
 30
0.0
 10
9.291517535812337
 20
-27.38167264562871
 30
0.0
 10
9.345885298656015
 20
-27.29482655372886
 30
0.0
 10
9.482713453675212
 20
-27.14914073715223
 30
0.0
 10
9.566479996683725
 20
-27.08925426891756
 30
0.0
 10
9.74908978763267
 20
-27.00861553825999
 30
0.0
 10
9.849941180320537
 20
-26.98706356756862
 30
0.0
 10
9.950000000001264
 20
-26.9870635675688
 30
0.0
  0
SPLINE
  5
223
330
1F
100
AcDbEntity
  8
1
  6
SLD-Solid
370
    25
100
AcDbSpline
210
0.0
220
0.0
230
1.0
 70
     8
 71
     3
 72
    16
 73
    12
 74
     0
 42
0.000000001
 43
0.00000001
 40
0.0
 40
0.0
 40
0.0
 40
0.0
 40
0.2499999999999998
 40
0.2499999999999998
 40
0.4999999999999996
 40
0.4999999999999996
 40
0.7499999999999993
 40
0.7499999999999993
 40
0.8749999999999997
 40
0.8749999999999997
 40
1.0
 40
1.0
 40
1.0
 40
1.0
 10
9.950000000001264
 20
24.06685975304421
 30
0.0
 10
9.840493351282314
 20
24.10694414130929
 30
0.0
 10
9.742786160773399
 20
24.1711763133812
 30
0.0
 10
9.567840382590509
 20
24.33096083631442
 30
0.0
 10
9.49398825402828
 20
24.42340952890719
 30
0.0
 10
9.367115049350616
 20
24.62793394074455
 30
0.0
 10
9.314523965069599
 20
24.73961559875828
 30
0.0
 10
9.253446937619008
 20
24.91971397324591
 30
0.0
 10
9.235893303123937
 20
24.98231479864191
 30
0.0
 10
9.209102989072877
 20
25.11253703191811
 30
0.0
 10
9.20000000000043
 20
25.18114365477707
 30
0.0
 10
9.200000000000374
 20
25.2401210769379
 30
0.0
  0
SPLINE
  5
224
330
1F
100
AcDbEntity
  8
1
  6
SLD-Solid
370
    25
100
AcDbSpline
210
0.0
220
0.0
230
1.0
 70
     8
 71
     3
 72
    12
 73
     8
 74
     0
 42
0.000000001
 43
0.00000001
 40
0.0
 40
0.0
 40
0.0
 40
0.0
 40
0.2499999999999984
 40
0.2499999999999984
 40
0.4999999999999969
 40
0.4999999999999969
 40
1.0
 40
1.0
 40
1.0
 40
1.0
 10
12.28000000000001
 20
-26.98706356756882
 30
0.0
 10
12.37975762515878
 20
-26.98706356756883
 30
0.0
 10
12.48041217798163
 20
-27.00843624414831
 30
0.0
 10
12.663520225735
 20
-27.0892138443703
 30
0.0
 10
12.74662210573629
 20
-27.14844080533418
 30
0.0
 10
12.95377706693951
 20
-27.3689835197036
 30
0.0
 10
13.02999999999999
 20
-27.56902785518149
 30
0.0
 10
13.03000000000001
 20
-27.7691663540697
 30
0.0
  0
SPLINE
  5
225
330
1F
100
AcDbEntity
  8
1
  6
SLD-Solid
370
    25
100
AcDbSpline
210
0.0
220
0.0
230
1.0
 70
     8
 71
     3
 72
    18
 73
    14
 74
     0
 42
0.000000001
 43
0.00000001
 40
0.0
 40
0.0
 40
0.0
 40
0.0
 40
0.0625000000000005
 40
0.0625000000000005
 40
0.1250000000000011
 40
0.1250000000000011
 40
0.250000000000001
 40
0.250000000000001
 40
0.5000000000000007
 40
0.5000000000000007
 40
0.7500000000000003
 40
0.7500000000000003
 40
1.0
 40
1.0
 40
1.0
 40
1.0
 10
13.03000000000037
 20
25.28882228478213
 30
0.0
 10
13.03000000000037
 20
25.25845422870358
 30
0.0
 10
13.02749489038152
 20
25.22358442434171
 30
0.0
 10
13.01920268672241
 20
25.1548229673746
 30
0.0
 10
13.01359186100945
 20
25.12104898565239
 30
0.0
 10
12.9936173871113
 20
25.02074756626964
 30
0.0
 10
12.97668865169252
 20
24.95779435948031
 30
0.0
 10
12.91737158574221
 20
24.77496256517874
 30
0.0
 10
12.86564177103966
 20
24.66011878167493
 30
0.0
 10
12.7404954338472
 20
24.45045700081745
 30
0.0
 10
12.66639130892203
 20
24.3540985658314
 30
0.0
 10
12.49025684706093
 20
24.18769951882047
 30
0.0
 10
12.39180028213158
 20
24.12054595344067
 30
0.0
 10
12.28000000000129
 20
24.07805063523434
 30
0.0
  0
SPLINE
  5
226
330
1F
100
AcDbEntity
  8
1
  6
SLD-Solid
370
    25
100
AcDbSpline
210
0.0
220
0.0
230
1.0
 70
     8
 71
     3
 72
    12
 73
     8
 74
     0
 42
0.000000001
 43
0.00000001
 40
0.0
 40
0.0
 40
0.0
 40
0.0
 40
0.25
 40
0.25
 40
0.5
 40
0.5
 40
1.0
 40
1.0
 40
1.0
 40
1.0
 10
12.28000000000129
 20
24.07805063523434
 30
0.0
 10
12.11125565653912
 20
24.01391086354245
 30
0.0
 10
11.92801760594739
 20
23.96418277266271
 30
0.0
 10
11.53284005751315
 20
23.89473625632987
 30
0.0
 10
11.32774190386632
 20
23.876521502723
 30
0.0
 10
10.70517895587214
 20
23.87317080568453
 30
0.0
 10
10.29199014189997
 20
23.94167588712291
 30
0.0
 10
9.950000000001264
 20
24.06685975304421
 30
0.0
  0
SPLINE
  5
227
330
1F
100
AcDbEntity
  8
1
  6
SLD-Solid
370
    25
100
AcDbSpline
210
0.0
220
0.0
230
1.0
 70
     8
 71
     3
 72
    16
 73
    12
 74
     0
 42
0.000000001
 43
0.00000001
 40
0.0
 40
0.0
 40
0.0
 40
0.0
 40
0.1250000000000011
 40
0.1250000000000011
 40
0.2500000000000023
 40
0.2500000000000023
 40
0.5000000000000016
 40
0.5000000000000016
 40
0.7500000000000008
 40
0.7500000000000008
 40
1.0
 40
1.0
 40
1.0
 40
1.0
 10
9.199999999999985
 20
25.82649087091902
 30
0.0
 10
9.199999999999985
 20
25.76704453528218
 30
0.0
 10
9.209309779240172
 20
25.72460913602999
 30
0.0
 10
9.236285539089895
 20
25.66309575968362
 30
0.0
 10
9.25381839599404
 20
25.64221451078866
 30
0.0
 10
9.314732612350829
 20
25.59089236418539
 30
0.0
 10
9.367586350542439
 20
25.5716263880416
 30
0.0
 10
9.493923269647542
 20
25.54782523997985
 30
0.0
 10
9.56860618675473
 20
25.5438020492668
 30
0.0
 10
9.743190718990297
 20
25.55566084202213
 30
0.0
 10
9.840260492227248
 20
25.57101227172016
 30
0.0
 10
9.949999999999958
 20
25.60325879037602
 30
0.0
  0
SPLINE
  5
228
330
1F
100
AcDbEntity
  8
1
  6
SLD-Solid
370
    25
100
AcDbSpline
210
0.0
220
0.0
230
1.0
 70
     8
 71
     3
 72
    12
 73
     8
 74
     0
 42
0.000000001
 43
0.00000001
 40
0.0
 40
0.0
 40
0.0
 40
0.0
 40
0.2500000000000006
 40
0.2500000000000006
 40
0.5000000000000011
 40
0.5000000000000011
 40
1.0
 40
1.0
 40
1.0
 40
1.0
 10
9.949999999999958
 20
25.60325879037602
 30
0.0
 10
10.12099348269382
 20
25.65350454636334
 30
0.0
 10
10.30594493731543
 20
25.69087007490123
 30
0.0
 10
10.70348914958044
 20
25.74162454002533
 30
0.0
 10
10.90918343641378
 20
25.75391313067253
 30
0.0
 10
11.53176214943036
 20
25.75179790476194
 30
0.0
 10
11.94250893135798
 20
25.69754140003431
 30
0.0
 10
12.27999999999999
 20
25.59426208810603
 30
0.0
  0
SPLINE
  5
229
330
1F
100
AcDbEntity
  8
1
  6
SLD-Solid
370
    25
100
AcDbSpline
210
0.0
220
0.0
230
1.0
 70
     8
 71
     3
 72
    18
 73
    14
 74
     0
 42
0.000000001
 43
0.00000001
 40
0.0
 40
0.0
 40
0.0
 40
0.0
 40
0.2500000000000006
 40
0.2500000000000006
 40
0.5000000000000011
 40
0.5000000000000011
 40
0.7500000000000017
 40
0.7500000000000017
 40
0.8750000000000009
 40
0.8750000000000009
 40
0.9375000000000006
 40
0.9375000000000006
 40
1.0
 40
1.0
 40
1.0
 40
1.0
 10
12.27999999999998
 20
25.59426208810603
 30
0.0
 10
12.39154339480305
 20
25.56012748089477
 30
0.0
 10
12.49076613158667
 20
25.54318981789733
 30
0.0
 10
12.6665334624591
 20
25.52816909760165
 30
0.0
 10
12.7402854234061
 20
25.53041158029682
 30
0.0
 10
12.86605076853514
 20
25.54934151941308
 30
0.0
 10
12.9174999666036
 20
25.56531541934163
 30
0.0
 10
12.9768853186816
 20
25.60908469940349
 30
0.0
 10
12.99394905986489
 20
25.62703563897608
 30
0.0
 10
13.01360803438725
 20
25.66754728332324
 30
0.0
 10
13.01926149413282
 20
25.6835880303414
 30
0.0
 10
13.0275227585784
 20
25.72506394381623
 30
0.0
 10
13.02999999999998
 20
25.75103822857545
 30
0.0
 10
13.02999999999998
 20
25.78129773037289
 30
0.0
  0
SPLINE
  5
22A
330
1F
100
AcDbEntity
  8
1
  6
SLD-Solid
370
    25
100
AcDbSpline
210
0.0
220
0.0
230
1.0
 70
     8
 71
     3
 72
    12
 73
     8
 74
     0
 42
0.000000001
 43
0.00000001
 40
0.0
 40
0.0
 40
0.0
 40
0.0
 40
0.2499999999999991
 40
0.2499999999999991
 40
0.4999999999999982
 40
0.4999999999999982
 40
1.0
 40
1.0
 40
1.0
 40
1.0
 10
9.200000000000014
 20
27.76916635406977
 30
0.0
 10
9.200000000000014
 20
27.66809333683725
 30
0.0
 10
9.218583298377242
 20
27.5689264133913
 30
0.0
 10
9.291549937975763
 20
27.38152387214675
 30
0.0
 10
9.345496880932808
 20
27.29531750692793
 30
0.0
 10
9.55107104167538
 20
27.07620366276164
 30
0.0
 10
9.748220416740116
 20
26.9870635675688
 30
0.0
 10
9.949999999999987
 20
26.98706356756882
 30
0.0
  0
SPLINE
  5
22B
330
1F
100
AcDbEntity
  8
1
  6
SLD-Solid
370
    25
100
AcDbSpline
210
0.0
220
0.0
230
1.0
 70
     8
 71
     3
 72
    14
 73
    10
 74
     0
 42
0.000000001
 43
0.00000001
 40
0.0
 40
0.0
 40
0.0
 40
0.0
 40
0.25
 40
0.25
 40
0.5
 40
0.5
 40
0.75
 40
0.75
 40
1.0
 40
1.0
 40
1.0
 40
1.0
 10
12.28000000000001
 20
26.98706356756882
 30
0.0
 10
12.38041018140384
 20
26.9870635675688
 30
0.0
 10
12.48007417771602
 20
27.00821121867972
 30
0.0
 10
12.66478364882751
 20
27.08984749877595
 30
0.0
 10
12.74772062670421
 20
27.1494985263265
 30
0.0
 10
12.88443521562222
 20
27.29527278596965
 30
0.0
 10
12.93853405055465
 20
27.38169791130529
 30
0.0
 10
13.01142030969679
 20
27.56897740148014
 30
0.0
 10
13.03000000000001
 20
27.66812420510654
 30
0.0
 10
13.03000000000001
 20
27.76916635406977
 30
0.0
  0
SPLINE
  5
22C
330
1F
100
AcDbEntity
  8
SK3
  6
SLD-Dashed
370
    18
100
AcDbSpline
210
0.0
220
0.0
230
1.0
 70
    24
 71
     3
 72
    16
 73
    12
 74
     0
 42
0.000000001
 43
0.00000001
 40
0.0
 40
0.0
 40
0.0
 40
0.0
 40
0.2499999999999989
 40
0.2499999999999989
 40
0.3749999999999983
 40
0.3749999999999983
 40
0.4999999999999983
 40
0.4999999999999983
 40
0.7499999999999992
 40
0.7499999999999992
 40
1.0
 40
1.0
 40
1.0
 40
1.0
 10
19.05000000000001
 20
-6.648814321294674
 30
0.0
 10
19.05000000000001
 20
-6.88369698095874
 30
0.0
 10
19.05000000000001
 20
-7.138039090382222
 30
0.0
 10
19.04999999999998
 20
-7.559342302183782
 30
0.0
 10
19.05000000000001
 20
-7.706203281714903
 30
0.0
 10
19.05000000000001
 20
-8.006602996866064
 30
0.0
 10
19.04999999999998
 20
-8.161019378688273
 30
0.0
 10
19.05000000000001
 20
-8.637259463910919
 30
0.0
 10
19.04999999999998
 20
-8.975182029350714
 30
0.0
 10
19.05000000000001
 20
-9.64895258366568
 30
0.0
 10
19.05000000000001
 20
-9.991071736925248
 30
0.0
 10
19.05000000000001
 20
-10.32953861099388
 30
0.0
  0
SPLINE
  5
22D
330
1F
100
AcDbEntity
  8
SK3
  6
SLD-Dashed
370
    18
100
AcDbSpline
210
0.0
220
0.0
230
1.0
 70
     8
 71
     3
 72
     8
 73
     4
 74
     0
 42
0.000000001
 43
0.00000001
 40
0.0
 40
0.0
 40
0.0
 40
0.0
 40
1.0
 40
1.0
 40
1.0
 40
1.0
 10
11.85037484305651
 20
-5.968209101414065
 30
0.0
 10
11.86178086874973
 20
-5.975075439431347
 30
0.0
 10
11.8731874751711
 20
-5.982020937972396
 30
0.0
 10
11.88459551242571
 20
-5.989045152906481
 30
0.0
  0
SPLINE
  5
22E
330
1F
100
AcDbEntity
  8
SK3
  6
SLD-Dashed
370
    18
100
AcDbSpline
210
0.0
220
0.0
230
1.0
 70
     8
 71
     3
 72
     8
 73
     4
 74
     0
 42
0.000000001
 43
0.00000001
 40
0.0
 40
0.0
 40
0.0
 40
0.0
 40
1.0
 40
1.0
 40
1.0
 40
1.0
 10
11.88459551241403
 20
-9.088680750585667
 30
0.0
 10
11.87318746423776
 20
-9.082191288537807
 30
0.0
 10
11.86178084686345
 20
-9.075621712241622
 30
0.0
 10
11.8503748101856
 20
-9.068972408043908
 30
0.0
  0
SPLINE
  5
22F
330
1F
100
AcDbEntity
  8
SK3
  6
SLD-Dashed
370
    18
100
AcDbSpline
210
0.0
220
0.0
230
1.0
 70
     8
 71
     3
 72
    32
 73
    28
 74
     0
 42
0.000000001
 43
0.00000001
 40
0.4999999999999994
 40
0.4999999999999994
 40
0.4999999999999994
 40
0.4999999999999994
 40
0.5312499999999994
 40
0.5312499999999994
 40
0.5624999999999994
 40
0.5624999999999994
 40
0.5937499999999996
 40
0.5937499999999996
 40
0.6249999999999996
 40
0.6249999999999996
 40
0.6562499999999996
 40
0.6562499999999996
 40
0.6874999999999996
 40
0.6874999999999996
 40
0.7187499999999997
 40
0.7187499999999997
 40
0.7499999999999997
 40
0.7499999999999997
 40
0.8124999999999997
 40
0.8124999999999997
 40
0.8749999999999998
 40
0.8749999999999998
 40
0.9374999999999998
 40
0.9374999999999998
 40
0.96875
 40
0.96875
 40
1.0
 40
1.0
 40
1.0
 40
1.0
 10
-12.65142534815796
 20
-1.849028409859635
 30
0.0
 10
-12.71109619905483
 20
-1.982917039850887
 30
0.0
 10
-12.74624831806523
 20
-2.127280776025378
 30
0.0
 10
-12.75649949321321
 20
-2.411928688155589
 30
0.0
 10
-12.73169384185377
 20
-2.554760746869847
 30
0.0
 10
-12.62927517610597
 20
-2.817628531152742
 30
0.0
 10
-12.55227788704508
 20
-2.938289024976525
 30
0.0
 10
-12.36231592901664
 20
-3.151859698446183
 30
0.0
 10
-12.25124886377875
 20
-3.24338864478798
 30
0.0
 10
-12.0088909385583
 20
-3.401118809639017
 30
0.0
 10
-11.87604176176374
 20
-3.467923741584868
 30
0.0
 10
-11.60337030969401
 20
-3.578193563144386
 30
0.0
 10
-11.46219554161718
 20
-3.622567387240483
 30
0.0
 10
-11.17206625859504
 20
-3.694619686695856
 30
0.0
 10
-11.02282091738042
 20
-3.722171211121714
 30
0.0
 10
-10.72525592312551
 20
-3.762317888257573
 30
0.0
 10
-10.57590800500424
 20
-3.775177817544662
 30
0.0
 10
-10.12641992344949
 20
-3.795577759381476
 30
0.0
 10
-9.822474018075484
 20
-3.785055983899097
 30
0.0
 10
-9.223635580176095
 20
-3.721876183729697
 30
0.0
 10
-8.929832340452345
 20
-3.669842585684723
 30
0.0
 10
-8.354524786720747
 20
-3.518650187831672
 30
0.0
 10
-8.071520325600352
 20
-3.419421694757507
 30
0.0
 10
-7.68055904907361
 20
-3.218314145770243
 30
0.0
 10
-7.554529621975198
 20
-3.14153546189648
 30
0.0
 10
-7.326794725850183
 20
-2.964874997649018
 30
0.0
 10
-7.222952332777588
 20
-2.864083912419137
 30
0.0
 10
-7.14215191450096
 20
-2.74471342284463
 30
0.0
  0
SPLINE
  5
230
330
1F
100
AcDbEntity
  8
SK3
  6
SLD-Dashed
370
    18
100
AcDbSpline
210
0.0
220
0.0
230
1.0
 70
     8
 71
     3
 72
    34
 73
    30
 74
     0
 42
0.000000001
 43
0.00000001
 40
0.0
 40
0.0
 40
0.0
 40
0.0
 40
0.015625
 40
0.015625
 40
0.0312499999999999
 40
0.0312499999999999
 40
0.0624999999999998
 40
0.0624999999999998
 40
0.0937499999999996
 40
0.0937499999999996
 40
0.1249999999999995
 40
0.1249999999999995
 40
0.1562499999999994
 40
0.1562499999999994
 40
0.1874999999999992
 40
0.1874999999999992
 40
0.2499999999999993
 40
0.2499999999999993
 40
0.3124999999999993
 40
0.3124999999999993
 40
0.3749999999999994
 40
0.3749999999999994
 40
0.4062499999999994
 40
0.4062499999999994
 40
0.4374999999999994
 40
0.4374999999999994
 40
0.4687499999999994
 40
0.4687499999999994
 40
0.4999999999999994
 40
0.4999999999999994
 40
0.4999999999999994
 40
0.4999999999999994
 10
-7.14215191450096
 20
-2.74471342284463
 30
0.0
 10
-7.101751705362647
 20
-2.68502817805738
 30
0.0
 10
-7.06835974234607
 20
-2.622214628821194
 30
0.0
 10
-7.019184405639701
 20
-2.488662990679201
 30
0.0
 10
-7.003860771212789
 20
-2.417823932890639
 30
0.0
 10
-6.991714382339809
 20
-2.205374132219363
 30
0.0
 10
-7.030428135917338
 20
-2.058852455218744
 30
0.0
 10
-7.171044285367828
 20
-1.798578738567203
 30
0.0
 10
-7.269192437740352
 20
-1.683798810037579
 30
0.0
 10
-7.489685118882261
 20
-1.480367565372488
 30
0.0
 10
-7.611106540824281
 20
-1.392381726503453
 30
0.0
 10
-7.86816057796308
 20
-1.234089644683779
 30
0.0
 10
-8.003521738074532
 20
-1.164418329764334
 30
0.0
 10
-8.278274313649275
 20
-1.041954177457352
 30
0.0
 10
-8.418672147263717
 20
-0.9886512835128245
 30
0.0
 10
-8.847321709857358
 20
-0.8484805416701519
 30
0.0
 10
-9.145102356158535
 20
-0.78079709682502
 30
0.0
 10
-9.741983897931295
 20
-0.6963252078697955
 30
0.0
 10
-10.04238554201521
 20
-0.6788349869587956
 30
0.0
 10
-10.64772394644616
 20
-0.7012287425978494
 30
0.0
 10
-10.9489571107949
 20
-0.74115354670512
 30
0.0
 10
-11.38649230434464
 20
-0.8582877859211746
 30
0.0
 10
-11.53141453603687
 20
-0.9075703933683621
 30
0.0
 10
-11.80844520779006
 20
-1.027994668686291
 30
0.0
 10
-11.94109239598692
 20
-1.099030495898268
 30
0.0
 10
-12.19115742810611
 20
-1.268854728696957
 30
0.0
 10
-12.30723046869166
 20
-1.367178416686085
 30
0.0
 10
-12.50688570789019
 20
-1.589238243876898
 30
0.0
 10
-12.59175449726108
 20
-1.715139779868383
 30
0.0
 10
-12.65142534815796
 20
-1.849028409859635
 30
0.0
  0
SPLINE
  5
231
330
1F
100
AcDbEntity
  8
1
  6
SLD-Dashed
370
    18
100
AcDbSpline
210
0.0
220
0.0
230
1.0
 70
    24
 71
     2
 72
     6
 73
     3
 74
     0
 42
0.000000001
 43
0.00000001
 40
0.0
 40
0.0
 40
0.0
 40
0.2500000000000002
 40
0.2500000000000002
 40
0.2500000000000002
 10
3.200000000000008
 20
-22.41000000000004
 30
0.0
 10
3.17040699581661
 20
-22.41000000000002
 30
0.0
 10
3.144481324703796
 20
-22.41
 30
0.0
  0
SPLINE
  5
232
330
1F
100
AcDbEntity
  8
1
  6
SLD-Dashed
370
    18
100
AcDbSpline
210
0.0
220
0.0
230
1.0
 70
    24
 71
     3
 72
     8
 73
     4
 74
     0
 42
0.000000001
 43
0.00000001
 40
0.2500000000000002
 40
0.2500000000000002
 40
0.2500000000000002
 40
0.2500000000000002
 40
0.5000000000000002
 40
0.5000000000000002
 40
0.5000000000000002
 40
0.5000000000000002
 10
3.144481324703796
 20
-22.41
 30
0.0
 10
3.118555653590982
 20
-22.41
 30
0.0
 10
3.097084490555624
 20
-22.41
 30
0.0
 10
3.096615422637533
 20
-22.41
 30
0.0
  0
SPLINE
  5
233
330
1F
100
AcDbEntity
  8
1
  6
SLD-Dashed
370
    18
100
AcDbSpline
210
0.0
220
0.0
230
1.0
 70
    24
 71
     3
 72
     8
 73
     4
 74
     0
 42
0.000000001
 43
0.00000001
 40
0.5000000000000002
 40
0.5000000000000002
 40
0.5000000000000002
 40
0.5000000000000002
 40
0.5625000000000002
 40
0.5625000000000002
 40
0.5625000000000002
 40
0.5625000000000002
 10
3.096615422637533
 20
-22.41
 30
0.0
 10
3.09649815565799
 20
-22.41
 30
0.0
 10
3.097576707176364
 20
-22.41
 30
0.0
 10
3.099789717980528
 20
-22.41
 30
0.0
  0
SPLINE
  5
234
330
1F
100
AcDbEntity
  8
1
  6
SLD-Dashed
370
    18
100
AcDbSpline
210
0.0
220
0.0
230
1.0
 70
    24
 71
     3
 72
     8
 73
     4
 74
     0
 42
0.000000001
 43
0.00000001
 40
0.5625000000000002
 40
0.5625000000000002
 40
0.5625000000000002
 40
0.5625000000000002
 40
0.6250000000000002
 40
0.6250000000000002
 40
0.6250000000000002
 40
0.6250000000000002
 10
3.099789717980528
 20
-22.41
 30
0.0
 10
3.102002728784719
 20
-22.41
 30
0.0
 10
3.10534590857034
 20
-22.41
 30
0.0
 10
3.109607407038029
 20
-22.41
 30
0.0
  0
SPLINE
  5
235
330
1F
100
AcDbEntity
  8
1
  6
SLD-Dashed
370
    18
100
AcDbSpline
210
0.0
220
0.0
230
1.0
 70
    24
 71
     3
 72
     8
 73
     4
 74
     0
 42
0.000000001
 43
0.00000001
 40
0.6250000000000002
 40
0.6250000000000002
 40
0.6250000000000002
 40
0.6250000000000002
 40
0.7500000000000001
 40
0.7500000000000001
 40
0.7500000000000001
 40
0.7500000000000001
 10
3.109607407038029
 20
-22.41
 30
0.0
 10
3.118130403973379
 20
-22.41
 30
0.0
 10
3.130398007648111
 20
-22.41
 30
0.0
 10
3.143490990967612
 20
-22.41
 30
0.0
  0
SPLINE
  5
236
330
1F
100
AcDbEntity
  8
1
  6
SLD-Dashed
370
    18
100
AcDbSpline
210
0.0
220
0.0
230
1.0
 70
    24
 71
     2
 72
     6
 73
     3
 74
     0
 42
0.000000001
 43
0.00000001
 40
0.7500000000000001
 40
0.7500000000000001
 40
0.7500000000000001
 40
1.0
 40
1.0
 40
1.0
 10
3.143490990967612
 20
-22.41
 30
0.0
 10
3.16967695760656
 20
-22.41000000000001
 30
0.0
 10
3.200000000000008
 20
-22.41000000000004
 30
0.0
  0
SPLINE
  5
237
330
1F
100
AcDbEntity
  8
SK3
  6
SLD-Dashed
370
    18
100
AcDbSpline
210
0.0
220
0.0
230
1.0
 70
     8
 71
     3
 72
    10
 73
     6
 74
     0
 42
0.000000001
 43
0.00000001
 40
0.0
 40
0.0
 40
0.0
 40
0.0
 40
0.5
 40
0.5
 40
1.0
 40
1.0
 40
1.0
 40
1.0
 10
18.70470837592284
 20
25.57912025275685
 30
0.0
 10
18.66514338213328
 20
25.52310107590329
 30
0.0
 10
18.62842911249971
 20
25.46562249807943
 30
0.0
 10
18.57073957446643
 20
25.34260791126142
 30
0.0
 10
18.55000000000001
 20
25.27482658978053
 30
0.0
 10
18.55000000000001
 20
25.20500000000002
 30
0.0
  0
SPLINE
  5
238
330
1F
100
AcDbEntity
  8
SK3
  6
SLD-Dashed
370
    18
100
AcDbSpline
210
0.0
220
0.0
230
1.0
 70
     8
 71
     3
 72
    10
 73
     6
 74
     0
 42
0.000000001
 43
0.00000001
 40
0.0
 40
0.0
 40
0.0
 40
0.0
 40
0.5
 40
0.5
 40
1.0
 40
1.0
 40
1.0
 40
1.0
 10
3.700000000000008
 20
25.20500000000002
 30
0.0
 10
3.700000000000007
 20
25.27446188700639
 30
0.0
 10
3.679668344673006
 20
25.34157876899189
 30
0.0
 10
3.621774626393203
 20
25.46534569655893
 30
0.0
 10
3.584972825281772
 20
25.52292618711533
 30
0.0
 10
3.54538884499799
 20
25.57898258716477
 30
0.0
  0
SPLINE
  5
239
330
1F
100
AcDbEntity
  8
SK3
  6
SLD-Dashed
370
    18
100
AcDbSpline
210
0.0
220
0.0
230
1.0
 70
    24
 71
     3
 72
     8
 73
     4
 74
     0
 42
0.000000001
 43
0.00000001
 40
0.0
 40
0.0
 40
0.0
 40
0.0
 40
0.4999999999999987
 40
0.4999999999999987
 40
0.4999999999999987
 40
0.4999999999999987
 10
19.05000000000001
 20
-22.41
 30
0.0
 10
18.97247827222662
 20
-22.40999999999999
 30
0.0
 10
18.89661835205908
 20
-22.41
 30
0.0
 10
18.83038739399198
 20
-22.40999999999999
 30
0.0
  0
SPLINE
  5
23A
330
1F
100
AcDbEntity
  8
SK3
  6
SLD-Dashed
370
    18
100
AcDbSpline
210
0.0
220
0.0
230
1.0
 70
    24
 71
     3
 72
     8
 73
     4
 74
     0
 42
0.000000001
 43
0.00000001
 40
0.4999999999999987
 40
0.4999999999999987
 40
0.4999999999999987
 40
0.4999999999999987
 40
0.7499999999999993
 40
0.7499999999999993
 40
0.7499999999999993
 40
0.7499999999999993
 10
18.83038739399198
 20
-22.40999999999999
 30
0.0
 10
18.79727191495842
 20
-22.40999999999999
 30
0.0
 10
18.76669863834141
 20
-22.41
 30
0.0
 10
18.743421922889
 20
-22.41
 30
0.0
  0
SPLINE
  5
23B
330
1F
100
AcDbEntity
  8
SK3
  6
SLD-Dashed
370
    18
100
AcDbSpline
210
0.0
220
0.0
230
1.0
 70
    24
 71
     2
 72
     6
 73
     3
 74
     0
 42
0.000000001
 43
0.00000001
 40
0.7499999999999993
 40
0.7499999999999993
 40
0.7499999999999993
 40
1.0
 40
1.0
 40
1.0
 10
18.743421922889
 20
-22.41
 30
0.0
 10
18.72014520743662
 20
-22.41
 30
0.0
 10
18.70461115500191
 20
-22.41
 30
0.0
  0
SPLINE
  5
23C
330
1F
100
AcDbEntity
  8
1
  6
SLD-Dashed
370
    18
100
AcDbSpline
210
0.0
220
0.0
230
1.0
 70
    24
 71
     2
 72
     6
 73
     3
 74
     0
 42
0.000000001
 43
0.00000001
 40
0.0
 40
0.0
 40
0.0
 40
0.2500000000000002
 40
0.2500000000000002
 40
0.2500000000000002
 10
3.545291624077185
 20
-22.41
 30
0.0
 10
3.529781518569364
 20
-22.41
 30
0.0
 10
3.506264354048605
 20
-22.41
 30
0.0
  0
SPLINE
  5
23D
330
1F
100
AcDbEntity
  8
1
  6
SLD-Dashed
370
    18
100
AcDbSpline
210
0.0
220
0.0
230
1.0
 70
    24
 71
     3
 72
     8
 73
     4
 74
     0
 42
0.000000001
 43
0.00000001
 40
0.2500000000000002
 40
0.2500000000000002
 40
0.2500000000000002
 40
0.2500000000000002
 40
0.5000000000000004
 40
0.5000000000000004
 40
0.5000000000000004
 40
0.5000000000000004
 10
3.506264354048605
 20
-22.41
 30
0.0
 10
3.482747189527874
 20
-22.41000000000004
 30
0.0
 10
3.452323510010791
 20
-22.41000000000008
 30
0.0
 10
3.419371480420957
 20
-22.41000000000012
 30
0.0
  0
SPLINE
  5
23E
330
1F
100
AcDbEntity
  8
1
  6
SLD-Dashed
370
    18
100
AcDbSpline
210
0.0
220
0.0
230
1.0
 70
    24
 71
     3
 72
     8
 73
     4
 74
     0
 42
0.000000001
 43
0.00000001
 40
0.5000000000000004
 40
0.5000000000000004
 40
0.5000000000000004
 40
0.5000000000000004
 40
1.0
 40
1.0
 40
1.0
 40
1.0
 10
3.419371480420957
 20
-22.41000000000012
 30
0.0
 10
3.353467421241402
 20
-22.4100000000001
 30
0.0
 10
3.27748356546001
 20
-22.41000000000007
 30
0.0
 10
3.200000000000008
 20
-22.41000000000004
 30
0.0
  0
SPLINE
  5
23F
330
1F
100
AcDbEntity
  8
SK3
  6
SLD-Dashed
370
    18
100
AcDbSpline
210
0.0
220
0.0
230
1.0
 70
     8
 71
     3
 72
    40
 73
    36
 74
     0
 42
0.000000001
 43
0.00000001
 40
0.0
 40
0.0
 40
0.0
 40
0.0
 40
0.0126129321449816
 40
0.0314976481339604
 40
0.0629183966702564
 40
0.0880663439714168
 40
0.1258663548219043
 40
0.1545361786951687
 40
0.1972635113751465
 40
0.2185774264758751
 40
0.2505499734499138
 40
0.2790323571745755
 40
0.3220275475257124
 40
0.3436168159336463
 40
0.3758133620275749
 40
0.404289809506831
 40
0.4468993710431156
 40
0.468210972392158
 40
0.5002437124696447
 40
0.5288533887317777
 40
0.5719828275869667
 40
0.5934420637179458
 40
0.6254916984483699
 40
0.6539107272569499
 40
0.6965262692674994
 40
0.7178823906336999
 40
0.7500313093276819
 40
0.7787800102949101
 40
0.8217645159398103
 40
0.8431483194632992
 40
0.8751517844153629
 40
0.9000181010942334
 40
0.9373587731677226
 40
0.9685909586685477
 40
1.0
 40
1.0
 40
1.0
 40
1.0
 10
3.949999999998872
 20
-30.22558142012364
 30
0.0
 10
3.94727430405445
 20
-30.22556434752347
 30
0.0
 10
3.94046755913638
 20
-30.22552171296816
 30
0.0
 10
3.926878079312802
 20
-30.22500449703395
 30
0.0
 10
3.910614550228703
 20
-30.22373214657329
 30
0.0
 10
3.890377361763537
 20
-30.22117483723317
 30
0.0
 10
3.870876571852034
 20
-30.21766990056472
 30
0.0
 10
3.847909402640765
 20
-30.21222207486607
 30
0.0
 10
3.828703761990044
 20
-30.20644931168604
 30
0.0
 10
3.809172441364862
 20
-30.19943885792489
 30
0.0
 10
3.792810014292159
 20
-30.19274290251866
 30
0.0
 10
3.772556787560223
 20
-30.18326307338683
 30
0.0
 10
3.754852229733847
 20
-30.17368149207815
 30
0.0
 10
3.737001129755919
 20
-30.16277896347313
 30
0.0
 10
3.722237930658957
 20
-30.15285978974809
 30
0.0
 10
3.704336292931766
 20
-30.13951958199217
 30
0.0
 10
3.689010882644285
 20
-30.12669241146888
 30
0.0
 10
3.673804931859066
 20
-30.11259090121808
 30
0.0
 10
3.661328526176179
 20
-30.10000934793184
 30
0.0
 10
3.646311367638323
 20
-30.08334675455453
 30
0.0
 10
3.633674708738378
 20
-30.06764146706181
 30
0.0
 10
3.621410566074486
 20
-30.05073531891782
 30
0.0
 10
3.611611223628937
 20
-30.03598007668936
 30
0.0
 10
3.6001565127817
 20
-30.01686769647028
 30
0.0
 10
3.590829750079545
 20
-29.99919574996681
 30
0.0
 10
3.582035812874669
 20
-29.98037484052065
 30
0.0
 10
3.575165778815588
 20
-29.96397246361068
 30
0.0
 10
3.567449829656512
 20
-29.9428852210927
 30
0.0
 10
3.561558066370681
 20
-29.92362739013729
 30
0.0
 10
3.556428567390831
 20
-29.90344062128828
 30
0.0
 10
3.552918981595628
 20
-29.88689085311456
 30
0.0
 10
3.549536425733831
 20
-29.86681061568513
 30
0.0
 10
3.547124737183356
 20
-29.84675343612379
 30
0.0
 10
3.545564419127041
 20
-29.82519260420116
 30
0.0
 10
3.545382726751258
 20
-29.81165457437738
 30
0.0
 10
3.545291624076104
 20
-29.8048664484133
 30
0.0
  0
SPLINE
  5
240
330
1F
100
AcDbEntity
  8
SK3
  6
SLD-Dashed
370
    18
100
AcDbSpline
210
0.0
220
0.0
230
1.0
 70
     8
 71
     3
 72
    40
 73
    36
 74
     0
 42
0.000000001
 43
0.00000001
 40
0.0
 40
0.0
 40
0.0
 40
0.0
 40
0.0125929119920853
 40
0.0314096195346373
 40
0.0626234169499198
 40
0.0875147363747587
 40
0.124814412830725
 40
0.1532834083387407
 40
0.1962265830891685
 40
0.2178107992109856
 40
0.2500224951329321
 40
0.2785169301552057
 40
0.3211718523043689
 40
0.3425182663517161
 40
0.3746092478105291
 40
0.4033018002026093
 40
0.4463503818994342
 40
0.4677602234265854
 40
0.4997883410590171
 40
0.5282270395863745
 40
0.5709521530205331
 40
0.5924138618617291
 40
0.6247350591047612
 40
0.6534144483970801
 40
0.6961683199419044
 40
0.7174969314503464
 40
0.7494813527194152
 40
0.7779588669976988
 40
0.8208766717687367
 40
0.8424514691504715
 40
0.874724282179473
 40
0.8997563983109313
 40
0.9372703102803501
 40
0.968578418532575
 40
0.9999999999999999
 40
0.9999999999999999
 40
0.9999999999999999
 40
0.9999999999999999
 10
18.30000000000001
 20
30.22558142012641
 30
0.0
 10
18.30272136951242
 20
30.2255644174685
 30
0.0
 10
18.30950909113327
 20
30.22552200892817
 30
0.0
 10
18.3230349115113
 20
30.22500878447087
 30
0.0
 10
18.33918410220825
 20
30.22374990827885
 30
0.0
 10
18.35921637335283
 20
30.22123374888839
 30
0.0
 10
18.37851743465279
 20
30.21779055348818
 30
0.0
 10
18.40139259411771
 20
30.21241015713831
 30
0.0
 10
18.42066868063113
 20
30.20665667098936
 30
0.0
 10
18.44035778154607
 20
30.19962160064931
 30
0.0
 10
18.4568321931845
 20
30.19290122073897
 30
0.0
 10
18.47707551770183
 20
30.1834456323771
 30
0.0
 10
18.49468238340837
 20
30.17394373601334
 30
0.0
 10
18.51242282863929
 20
30.1631457547134
 30
0.0
 10
18.52718102114117
 20
30.15327064640552
 30
0.0
 10
18.54520190007996
 20
30.13989144466214
 30
0.0
 10
18.56066753372129
 20
30.1269774001082
 30
0.0
 10
18.57597030022936
 20
30.11281096127928
 30
0.0
 10
18.58844277986746
 20
30.10024903998078
 30
0.0
 10
18.60339048841033
 20
30.08369276015746
 30
0.0
 10
18.61596948562732
 20
30.06810049270646
 30
0.0
 10
18.62824307125507
 20
30.05123600708183
 30
0.0
 10
18.63812738344197
 20
30.03639837328909
 30
0.0
 10
18.64967535556761
 20
30.01717281850426
 30
0.0
 10
18.6590506075496
 20
29.99943559548715
 30
0.0
 10
18.66785100498266
 20
29.98063051707893
 30
0.0
 10
18.67469312836916
 20
29.96432508828282
 30
0.0
 10
18.68239354934311
 20
29.94334796470477
 30
0.0
 10
18.68830098830934
 20
29.92412819400954
 30
0.0
 10
18.69347515991065
 20
29.90386495846922
 30
0.0
 10
18.69702701390044
 20
29.88718562683122
 30
0.0
 10
18.70044011360977
 20
29.86697716337642
 30
0.0
 10
18.70287111134991
 20
29.84683182165026
 30
0.0
 10
18.70443405316874
 20
29.82521437831679
 30
0.0
 10
18.70461682479818
 20
29.81165726630968
 30
0.0
 10
18.70470837592286
 20
29.80486644841631
 30
0.0
  0
SPLINE
  5
241
330
1F
100
AcDbEntity
  8
SK3
  6
SLD-Dashed
370
    18
100
AcDbSpline
210
0.0
220
0.0
230
1.0
 70
     8
 71
     3
 72
    39
 73
    35
 74
     0
 42
0.000000001
 43
0.00000001
 40
0.0
 40
0.0
 40
0.0
 40
0.0
 40
0.0314091160307674
 40
0.0626413758641538
 40
0.0875470935131885
 40
0.1248485138287456
 40
0.1532930400450731
 40
0.1960941157944613
 40
0.2176225947738233
 40
0.2499693772004398
 40
0.2785546285585068
 40
0.3212364873026817
 40
0.3425405354923858
 40
0.3745092858974068
 40
0.4029918411019298
 40
0.4459785689856149
 40
0.4675618916159466
 40
0.4997576608210499
 40
0.5282368343000431
 40
0.5708480092884092
 40
0.5921584935845995
 40
0.6241883328452476
 40
0.6527986190299354
 40
0.6959401501309849
 40
0.7174023419155745
 40
0.7494519752642005
 40
0.7778741158300017
 40
0.8205144520917228
 40
0.8418962920619149
 40
0.8741359236783777
 40
0.8993502252909598
 40
0.9370840470446206
 40
0.9685048711195197
 40
1.0
 40
1.0
 40
1.0
 40
1.0
 10
3.545388844997991
 20
29.80485527419827
 30
0.0
 10
3.545479748550593
 20
29.81164171345384
 30
0.0
 10
3.545661043802626
 20
29.82517637936966
 30
0.0
 10
3.547029433803327
 20
29.84405190465713
 30
0.0
 10
3.549258968233819
 20
29.86411824570158
 30
0.0
 10
3.552336224857532
 20
29.8834722762258
 30
0.0
 10
3.557141779746747
 20
29.90643124843558
 30
0.0
 10
3.562288225622206
 20
29.92581971282424
 30
0.0
 10
3.568614089357709
 20
29.94572790966324
 30
0.0
 10
3.574692956926413
 20
29.96248267210258
 30
0.0
 10
3.583287776048129
 20
29.98315850998393
 30
0.0
 10
3.591955015312255
 20
30.00120090567663
 30
0.0
 10
3.601831018727654
 20
30.01943081107647
 30
0.0
 10
3.610874012133416
 20
30.03461278108222
 30
0.0
 10
3.623189627258741
 20
30.05326734966761
 30
0.0
 10
3.63518437815438
 20
30.06942261759878
 30
0.0
 10
3.648473969075886
 20
30.0855643889811
 30
0.0
 10
3.660340157340373
 20
30.09880574838228
 30
0.0
 10
3.67601253149724
 20
30.11469877887868
 30
0.0
 10
3.690813818886916
 20
30.1281209668681
 30
0.0
 10
3.706862089264405
 20
30.14124723286364
 30
0.0
 10
3.721035740664457
 20
30.15187245989082
 30
0.0
 10
3.739615920455546
 20
30.16443427377515
 30
0.0
 10
3.756939716856921
 20
30.17474090541245
 30
0.0
 10
3.775422312926268
 20
30.18446497823756
 30
0.0
 10
3.79144104293605
 20
30.19201976729602
 30
0.0
 10
3.812039955628066
 20
30.20051935318398
 30
0.0
 10
3.830933874073433
 20
30.20705284128374
 30
0.0
 10
3.850922478500718
 20
30.21280585013025
 30
0.0
 10
3.867492347984363
 20
30.21678677988687
 30
0.0
 10
3.887698638249892
 20
30.22064109222357
 30
0.0
 10
3.907913014965708
 20
30.22338985618059
 30
0.0
 10
3.929600305356967
 20
30.22516034748687
 30
0.0
 10
3.943194750029189
 20
30.22536629328656
 30
0.0
 10
3.949999999999954
 20
30.22546938779911
 30
0.0
  0
SPLINE
  5
242
330
1F
100
AcDbEntity
  8
SK3
  6
SLD-Dashed
370
    18
100
AcDbSpline
210
0.0
220
0.0
230
1.0
 70
     8
 71
     3
 72
    30
 73
    26
 74
     0
 42
0.000000001
 43
0.00000001
 40
0.5000000000000003
 40
0.5000000000000003
 40
0.5000000000000003
 40
0.5000000000000003
 40
0.5156250000000004
 40
0.5156250000000004
 40
0.5312500000000003
 40
0.5312500000000003
 40
0.5625000000000003
 40
0.5625000000000003
 40
0.5937500000000004
 40
0.5937500000000004
 40
0.6250000000000004
 40
0.6250000000000004
 40
0.6562500000000004
 40
0.6562500000000004
 40
0.6875000000000004
 40
0.6875000000000004
 40
0.7500000000000003
 40
0.7500000000000003
 40
0.8125000000000003
 40
0.8125000000000003
 40
0.8750000000000002
 40
0.8750000000000002
 40
0.9375000000000002
 40
0.9375000000000002
 40
1.0
 40
1.0
 40
1.0
 40
1.0
 10
-7.130385535502964
 20
2.726928447504509
 30
0.0
 10
-7.091565328725541
 20
2.666868385789611
 30
0.0
 10
-7.059371855724223
 20
2.602577256975755
 30
0.0
 10
-7.014104236643337
 20
2.468425043763087
 30
0.0
 10
-7.00081856571308
 20
2.396875365810736
 30
0.0
 10
-6.99514213286348
 20
2.183866409049245
 30
0.0
 10
-7.037462789704213
 20
2.039928456941606
 30
0.0
 10
-7.184117636945098
 20
1.781174373633405
 30
0.0
 10
-7.282724056110023
 20
1.669221024700525
 30
0.0
 10
-7.506375142314753
 20
1.467368530428399
 30
0.0
 10
-7.628403352372748
 20
1.380604526588024
 30
0.0
 10
-7.885159716439466
 20
1.224909635447094
 30
0.0
 10
-8.020915849807436
 20
1.155899322658006
 30
0.0
 10
-8.296940565859945
 20
1.034507561367463
 30
0.0
 10
-8.437505299386528
 20
0.9818888199347731
 30
0.0
 10
-8.865426249830971
 20
0.8438946136504755
 30
0.0
 10
-9.160025934781505
 20
0.7777798566097407
 30
0.0
 10
-9.75930063098604
 20
0.6948297872873057
 30
0.0
 10
-10.05887757575707
 20
0.6786090109618879
 30
0.0
 10
-10.65789708991581
 20
0.7024792048694606
 30
0.0
 10
-10.96115100168973
 20
0.7433267009037681
 30
0.0
 10
-11.54356311741771
 20
0.9014738617484155
 30
0.0
 10
-11.82806349824407
 20
1.020412305093622
 30
0.0
 10
-12.32258593429081
 20
1.360038701097493
 30
0.0
 10
-12.5368490887702
 20
1.58588016672899
 30
0.0
 10
-12.65568915903843
 20
1.858705066261131
 30
0.0
  0
SPLINE
  5
243
330
1F
100
AcDbEntity
  8
SK3
  6
SLD-Dashed
370
    18
100
AcDbSpline
210
0.0
220
0.0
230
1.0
 70
     8
 71
     3
 72
    30
 73
    26
 74
     0
 42
0.000000001
 43
0.00000001
 40
0.0
 40
0.0
 40
0.0
 40
0.0
 40
0.0312500000000001
 40
0.0312500000000001
 40
0.0625000000000003
 40
0.0625000000000003
 40
0.0937500000000004
 40
0.0937500000000004
 40
0.1250000000000005
 40
0.1250000000000005
 40
0.1562500000000007
 40
0.1562500000000007
 40
0.1875000000000008
 40
0.1875000000000008
 40
0.2500000000000007
 40
0.2500000000000007
 40
0.3125000000000007
 40
0.3125000000000007
 40
0.3750000000000006
 40
0.3750000000000006
 40
0.4375000000000006
 40
0.4375000000000006
 40
0.4687500000000005
 40
0.4687500000000005
 40
0.5000000000000003
 40
0.5000000000000003
 40
0.5000000000000003
 40
0.5000000000000003
 10
-12.65568915903845
 20
1.858705066261131
 30
0.0
 10
-12.71510919417257
 20
1.995117516027205
 30
0.0
 10
-12.74826198958907
 20
2.138112823601573
 30
0.0
 10
-12.7552316239915
 20
2.425858483020737
 30
0.0
 10
-12.72851791776375
 20
2.567448551269377
 30
0.0
 10
-12.62270728825683
 20
2.829503850906814
 30
0.0
 10
-12.54353473506771
 20
2.950153299185549
 30
0.0
 10
-12.35264830277789
 20
3.160486576587671
 30
0.0
 10
-12.23998994677655
 20
3.252011365177943
 30
0.0
 10
-11.99453856711719
 20
3.40902101647185
 30
0.0
 10
-11.86361373813859
 20
3.473744340647233
 30
0.0
 10
-11.58924282018654
 20
3.583031099091041
 30
0.0
 10
-11.44491790526633
 20
3.627567891488923
 30
0.0
 10
-11.00910445491765
 20
3.733534481724823
 30
0.0
 10
-10.71099263421836
 20
3.770047281286326
 30
0.0
 10
-10.10380298123988
 20
3.795540400492694
 30
0.0
 10
-9.802499602048417
 20
3.783788809939181
 30
0.0
 10
-9.207684971247577
 20
3.719300812385307
 30
0.0
 10
-8.912696864683364
 20
3.666481952286235
 30
0.0
 10
-8.333042918766326
 20
3.511783480193875
 30
0.0
 10
-8.052854653494062
 20
3.412126376045724
 30
0.0
 10
-7.661345687756338
 20
3.2071476745274
 30
0.0
 10
-7.537660551476922
 20
3.130372193209233
 30
0.0
 10
-7.311018900727579
 20
2.950419125890641
 30
0.0
 10
-7.208025949057811
 20
2.847048570934305
 30
0.0
 10
-7.130385535502964
 20
2.726928447504509
 30
0.0
  0
SPLINE
  5
244
330
1F
100
AcDbEntity
  8
SK3
  6
SLD-Dashed
370
    18
100
AcDbSpline
210
0.0
220
0.0
230
1.0
 70
     8
 71
     2
 72
     6
 73
     3
 74
     0
 42
0.000000001
 43
0.00000001
 40
0.0
 40
0.0
 40
0.0
 40
0.0312499999999994
 40
0.0312499999999994
 40
0.0312499999999994
 10
24.38399999999999
 20
4.762499999999989
 30
0.0
 10
24.41593930001915
 20
4.734325305954759
 30
0.0
 10
24.47714995484321
 20
4.680737147350955
 30
0.0
  0
SPLINE
  5
245
330
1F
100
AcDbEntity
  8
SK3
  6
SLD-Dashed
370
    18
100
AcDbSpline
210
0.0
220
0.0
230
1.0
 70
     8
 71
     3
 72
     8
 73
     4
 74
     0
 42
0.000000001
 43
0.00000001
 40
0.0312499999999994
 40
0.0312499999999994
 40
0.0312499999999994
 40
0.0312499999999994
 40
0.0468749999999991
 40
0.0468749999999991
 40
0.0468749999999991
 40
0.0468749999999991
 10
24.47714995484321
 20
4.680737147350955
 30
0.0
 10
24.50775528225527
 20
4.65394306804906
 30
0.0
 10
24.54611293084499
 20
4.62042958127773
 30
0.0
 10
24.5907980626496
 20
4.581570727118206
 30
0.0
  0
SPLINE
  5
246
330
1F
100
AcDbEntity
  8
SK3
  6
SLD-Dashed
370
    18
100
AcDbSpline
210
0.0
220
0.0
230
1.0
 70
     8
 71
     3
 72
     8
 73
     4
 74
     0
 42
0.000000001
 43
0.00000001
 40
0.0468749999999991
 40
0.0468749999999991
 40
0.0468749999999991
 40
0.0468749999999991
 40
0.0624999999999988
 40
0.0624999999999988
 40
0.0624999999999988
 40
0.0624999999999988
 10
24.5907980626496
 20
4.581570727118206
 30
0.0
 10
24.63548319445422
 20
4.542711872958669
 30
0.0
 10
24.68642036242569
 20
4.498571562975201
 30
0.0
 10
24.74311780444632
 20
4.449746780503486
 30
0.0
  0
SPLINE
  5
247
330
1F
100
AcDbEntity
  8
SK3
  6
SLD-Dashed
370
    18
100
AcDbSpline
210
0.0
220
0.0
230
1.0
 70
     8
 71
     3
 72
     8
 73
     4
 74
     0
 42
0.000000001
 43
0.00000001
 40
0.0624999999999988
 40
0.0624999999999988
 40
0.0624999999999988
 40
0.0624999999999988
 40
0.0937499999999982
 40
0.0937499999999982
 40
0.0937499999999982
 40
0.0937499999999982
 10
24.74311780444632
 20
4.449746780503486
 30
0.0
 10
24.85651268848757
 20
4.352097215560055
 30
0.0
 10
24.99458127134113
 20
4.234279707352587
 30
0.0
 10
25.14858158489661
 20
4.105760393076974
 30
0.0
  0
SPLINE
  5
248
330
1F
100
AcDbEntity
  8
SK3
  6
SLD-Dashed
370
    18
100
AcDbSpline
210
0.0
220
0.0
230
1.0
 70
     8
 71
     3
 72
     8
 73
     4
 74
     0
 42
0.000000001
 43
0.00000001
 40
0.0937499999999982
 40
0.0937499999999982
 40
0.0937499999999982
 40
0.0937499999999982
 40
0.1249999999999975
 40
0.1249999999999975
 40
0.1249999999999975
 40
0.1249999999999975
 10
25.14858158489661
 20
4.105760393076974
 30
0.0
 10
25.30258189845211
 20
3.977241078801361
 30
0.0
 10
25.47247456826943
 20
3.837933257327494
 30
0.0
 10
25.65752950612718
 20
3.691687870421636
 30
0.0
  0
SPLINE
  5
249
330
1F
100
AcDbEntity
  8
SK3
  6
SLD-Dashed
370
    18
100
AcDbSpline
210
0.0
220
0.0
230
1.0
 70
     8
 71
     3
 72
     8
 73
     4
 74
     0
 42
0.000000001
 43
0.00000001
 40
0.1249999999999975
 40
0.1249999999999975
 40
0.1249999999999975
 40
0.1249999999999975
 40
0.1562499999999969
 40
0.1562499999999969
 40
0.1562499999999969
 40
0.1562499999999969
 10
25.65752950612718
 20
3.691687870421636
 30
0.0
 10
25.84258444398493
 20
3.545442483515793
 30
0.0
 10
26.04394480600078
 20
3.391350357523665
 30
0.0
 10
26.25592379353475
 20
3.239604868096296
 30
0.0
  0
SPLINE
  5
24A
330
1F
100
AcDbEntity
  8
SK3
  6
SLD-Dashed
370
    18
100
AcDbSpline
210
0.0
220
0.0
230
1.0
 70
     8
 71
     3
 72
     8
 73
     4
 74
     0
 42
0.000000001
 43
0.00000001
 40
0.1562499999999969
 40
0.1562499999999969
 40
0.1562499999999969
 40
0.1562499999999969
 40
0.1874999999999963
 40
0.1874999999999963
 40
0.1874999999999963
 40
0.1874999999999963
 10
26.25592379353475
 20
3.239604868096296
 30
0.0
 10
26.46790278106867
 20
3.087859378668928
 30
0.0
 10
26.6915424322979
 20
2.937084319534919
 30
0.0
 10
26.93206673173665
 20
2.795738717041793
 30
0.0
  0
SPLINE
  5
24B
330
1F
100
AcDbEntity
  8
SK3
  6
SLD-Dashed
370
    18
100
AcDbSpline
210
0.0
220
0.0
230
1.0
 70
     8
 71
     3
 72
     8
 73
     4
 74
     0
 42
0.000000001
 43
0.00000001
 40
0.1874999999999963
 40
0.1874999999999963
 40
0.1874999999999963
 40
0.1874999999999963
 40
0.2187499999999956
 40
0.2187499999999956
 40
0.2187499999999956
 40
0.2187499999999956
 10
26.93206673173665
 20
2.795738717041793
 30
0.0
 10
27.17259103117542
 20
2.654393114548653
 30
0.0
 10
27.43044549766219
 20
2.522107990004116
 30
0.0
 10
27.70547131452122
 20
2.423428436094291
 30
0.0
  0
SPLINE
  5
24C
330
1F
100
AcDbEntity
  8
SK3
  6
SLD-Dashed
370
    18
100
AcDbSpline
210
0.0
220
0.0
230
1.0
 70
     8
 71
     3
 72
     8
 73
     4
 74
     0
 42
0.000000001
 43
0.00000001
 40
0.2187499999999956
 40
0.2187499999999956
 40
0.2187499999999956
 40
0.2187499999999956
 40
0.2343749999999953
 40
0.2343749999999953
 40
0.2343749999999953
 40
0.2343749999999953
 10
27.70547131452122
 20
2.423428436094291
 30
0.0
 10
27.84298422295073
 20
2.374088659139392
 30
0.0
 10
27.98675635630585
 20
2.332944604084592
 30
0.0
 10
28.13203104169076
 20
2.305026409398725
 30
0.0
  0
SPLINE
  5
24D
330
1F
100
AcDbEntity
  8
SK3
  6
SLD-Dashed
370
    18
100
AcDbSpline
210
0.0
220
0.0
230
1.0
 70
     8
 71
     3
 72
     8
 73
     4
 74
     0
 42
0.000000001
 43
0.00000001
 40
0.2343749999999953
 40
0.2343749999999953
 40
0.2343749999999953
 40
0.2343749999999953
 40
0.2499999999999949
 40
0.2499999999999949
 40
0.2499999999999949
 40
0.2499999999999949
 10
28.13203104169076
 20
2.305026409398725
 30
0.0
 10
28.27730572707565
 20
2.277108214712858
 30
0.0
 10
28.42475989768253
 20
2.262081603394139
 30
0.0
 10
28.57470708274171
 20
2.262062186545843
 30
0.0
  0
SPLINE
  5
24E
330
1F
100
AcDbEntity
  8
SK3
  6
SLD-Dashed
370
    18
100
AcDbSpline
210
0.0
220
0.0
230
1.0
 70
     8
 71
     3
 72
     8
 73
     4
 74
     0
 42
0.000000001
 43
0.00000001
 40
0.2499999999999949
 40
0.2499999999999949
 40
0.2499999999999949
 40
0.2499999999999949
 40
0.2812499999999947
 40
0.2812499999999947
 40
0.2812499999999947
 40
0.2812499999999947
 10
28.57470708274171
 20
2.262062186545843
 30
0.0
 10
28.87460145286003
 20
2.262023352849224
 30
0.0
 10
29.16943654563558
 20
2.324687414737736
 30
0.0
 10
29.44490935075794
 20
2.423565045245546
 30
0.0
  0
SPLINE
  5
24F
330
1F
100
AcDbEntity
  8
SK3
  6
SLD-Dashed
370
    18
100
AcDbSpline
210
0.0
220
0.0
230
1.0
 70
     8
 71
     3
 72
     8
 73
     4
 74
     0
 42
0.000000001
 43
0.00000001
 40
0.2812499999999947
 40
0.2812499999999947
 40
0.2812499999999947
 40
0.2812499999999947
 40
0.3124999999999944
 40
0.3124999999999944
 40
0.3124999999999944
 40
0.3124999999999944
 10
29.44490935075794
 20
2.423565045245546
 30
0.0
 10
29.72038215588027
 20
2.52244267575337
 30
0.0
 10
29.97379727992436
 20
2.65242711255767
 30
0.0
 10
30.2151838290573
 20
2.794123877551069
 30
0.0
  0
SPLINE
  5
250
330
1F
100
AcDbEntity
  8
SK3
  6
SLD-Dashed
370
    18
100
AcDbSpline
210
0.0
220
0.0
230
1.0
 70
     8
 71
     3
 72
     8
 73
     4
 74
     0
 42
0.000000001
 43
0.00000001
 40
0.3124999999999944
 40
0.3124999999999944
 40
0.3124999999999944
 40
0.3124999999999944
 40
0.3437499999999941
 40
0.3437499999999941
 40
0.3437499999999941
 40
0.3437499999999941
 10
30.2151838290573
 20
2.794123877551069
 30
0.0
 10
30.45657037819022
 20
2.935820642544468
 30
0.0
 10
30.68178464239168
 20
3.087678014971409
 30
0.0
 10
30.89274569784156
 20
3.238652554668861
 30
0.0
  0
SPLINE
  5
251
330
1F
100
AcDbEntity
  8
SK3
  6
SLD-Dashed
370
    18
100
AcDbSpline
210
0.0
220
0.0
230
1.0
 70
     8
 71
     3
 72
     8
 73
     4
 74
     0
 42
0.000000001
 43
0.00000001
 40
0.3437499999999941
 40
0.3437499999999941
 40
0.3437499999999941
 40
0.3437499999999941
 40
0.3749999999999938
 40
0.3749999999999938
 40
0.3749999999999938
 40
0.3749999999999938
 10
30.89274569784156
 20
3.238652554668861
 30
0.0
 10
31.10370675329147
 20
3.389627094366312
 30
0.0
 10
31.30147171595607
 20
3.540843655332846
 30
0.0
 10
31.48734044329307
 20
3.687635029072239
 30
0.0
  0
SPLINE
  5
252
330
1F
100
AcDbEntity
  8
SK3
  6
SLD-Dashed
370
    18
100
AcDbSpline
210
0.0
220
0.0
230
1.0
 70
     8
 71
     3
 72
     8
 73
     4
 74
     0
 42
0.000000001
 43
0.00000001
 40
0.3749999999999938
 40
0.3749999999999938
 40
0.3749999999999938
 40
0.3749999999999938
 40
0.4062499999999936
 40
0.4062499999999936
 40
0.4062499999999936
 40
0.4062499999999936
 10
31.48734044329307
 20
3.687635029072239
 30
0.0
 10
31.6732091706301
 20
3.834426402811633
 30
0.0
 10
31.84563438909324
 20
3.975778598737503
 30
0.0
 10
31.99913729890197
 20
4.103856904392702
 30
0.0
  0
SPLINE
  5
253
330
1F
100
AcDbEntity
  8
SK3
  6
SLD-Dashed
370
    18
100
AcDbSpline
210
0.0
220
0.0
230
1.0
 70
     8
 71
     3
 72
     8
 73
     4
 74
     0
 42
0.000000001
 43
0.00000001
 40
0.4062499999999936
 40
0.4062499999999936
 40
0.4062499999999936
 40
0.4062499999999936
 40
0.4374999999999933
 40
0.4374999999999933
 40
0.4374999999999933
 40
0.4374999999999933
 10
31.99913729890197
 20
4.103856904392702
 30
0.0
 10
32.1526402087107
 20
4.231935210047902
 30
0.0
 10
32.28977601218072
 20
4.348919126938966
 30
0.0
 10
32.40422474515389
 20
4.44745853256652
 30
0.0
  0
SPLINE
  5
254
330
1F
100
AcDbEntity
  8
SK3
  6
SLD-Dashed
370
    18
100
AcDbSpline
210
0.0
220
0.0
230
1.0
 70
     8
 71
     3
 72
     8
 73
     4
 74
     0
 42
0.000000001
 43
0.00000001
 40
0.4374999999999933
 40
0.4374999999999933
 40
0.4374999999999933
 40
0.4374999999999933
 40
0.468749999999993
 40
0.468749999999993
 40
0.468749999999993
 40
0.468749999999993
 10
32.40422474515389
 20
4.44745853256652
 30
0.0
 10
32.51867347812709
 20
4.545997938194088
 30
0.0
 10
32.60848369548075
 20
4.624393263009202
 30
0.0
 10
32.67063562719494
 20
4.678798610834659
 30
0.0
  0
SPLINE
  5
255
330
1F
100
AcDbEntity
  8
SK3
  6
SLD-Dashed
370
    18
100
AcDbSpline
210
0.0
220
0.0
230
1.0
 70
     8
 71
     3
 72
     8
 73
     4
 74
     0
 42
0.000000001
 43
0.00000001
 40
0.468749999999993
 40
0.468749999999993
 40
0.468749999999993
 40
0.468749999999993
 40
0.4843749999999929
 40
0.4843749999999929
 40
0.4843749999999929
 40
0.4843749999999929
 10
32.67063562719494
 20
4.678798610834659
 30
0.0
 10
32.70171159305205
 20
4.706001284747393
 30
0.0
 10
32.72568410024568
 20
4.727054702904327
 30
0.0
 10
32.74158881981803
 20
4.741032339420665
 30
0.0
  0
SPLINE
  5
256
330
1F
100
AcDbEntity
  8
SK3
  6
SLD-Dashed
370
    18
100
AcDbSpline
210
0.0
220
0.0
230
1.0
 70
     8
 71
     3
 72
     8
 73
     4
 74
     0
 42
0.000000001
 43
0.00000001
 40
0.4843749999999929
 40
0.4843749999999929
 40
0.4843749999999929
 40
0.4843749999999929
 40
0.4999999999999929
 40
0.4999999999999929
 40
0.4999999999999929
 40
0.4999999999999929
 10
32.74158881981803
 20
4.741032339420665
 30
0.0
 10
32.75749353939042
 20
4.755009975937016
 30
0.0
 10
32.76563188558782
 20
4.762176059526044
 30
0.0
 10
32.76598782617718
 20
4.762489287039429
 30
0.0
  0
SPLINE
  5
257
330
1F
100
AcDbEntity
  8
SK3
  6
SLD-Dashed
370
    18
100
AcDbSpline
210
0.0
220
0.0
230
1.0
 70
     8
 71
     3
 72
     8
 73
     4
 74
     0
 42
0.000000001
 43
0.00000001
 40
0.4999999999999929
 40
0.4999999999999929
 40
0.4999999999999929
 40
0.4999999999999929
 40
0.5312499999999927
 40
0.5312499999999927
 40
0.5312499999999927
 40
0.5312499999999927
 10
32.76598782617718
 20
4.762489287039429
 30
0.0
 10
32.76669970735593
 20
4.763115742066199
 30
0.0
 10
32.73505349648129
 20
4.735199252748276
 30
0.0
 10
32.67441109481178
 20
4.682103861969086
 30
0.0
  0
SPLINE
  5
258
330
1F
100
AcDbEntity
  8
SK3
  6
SLD-Dashed
370
    18
100
AcDbSpline
210
0.0
220
0.0
230
1.0
 70
     8
 71
     3
 72
     8
 73
     4
 74
     0
 42
0.000000001
 43
0.00000001
 40
0.5312499999999927
 40
0.5312499999999927
 40
0.5312499999999927
 40
0.5312499999999927
 40
0.5624999999999926
 40
0.5624999999999926
 40
0.5624999999999926
 40
0.5624999999999926
 10
32.67441109481178
 20
4.682103861969086
 30
0.0
 10
32.61376869314231
 20
4.629008471189924
 30
0.0
 10
32.5233196248691
 20
4.550036632950283
 30
0.0
 10
32.40991309213393
 20
4.45235709194805
 30
0.0
  0
SPLINE
  5
259
330
1F
100
AcDbEntity
  8
SK3
  6
SLD-Dashed
370
    18
100
AcDbSpline
210
0.0
220
0.0
230
1.0
 70
     8
 71
     3
 72
     8
 73
     4
 74
     0
 42
0.000000001
 43
0.00000001
 40
0.5624999999999926
 40
0.5624999999999926
 40
0.5624999999999926
 40
0.5624999999999926
 40
0.5937499999999923
 40
0.5937499999999923
 40
0.5937499999999923
 40
0.5937499999999923
 10
32.40991309213393
 20
4.45235709194805
 30
0.0
 10
32.29650655939881
 20
4.354677550945832
 30
0.0
 10
32.16093617141108
 20
4.238936989937297
 30
0.0
 10
32.00596300848013
 20
4.10955379762315
 30
0.0
  0
SPLINE
  5
25A
330
1F
100
AcDbEntity
  8
SK3
  6
SLD-Dashed
370
    18
100
AcDbSpline
210
0.0
220
0.0
230
1.0
 70
     8
 71
     3
 72
     8
 73
     4
 74
     0
 42
0.000000001
 43
0.00000001
 40
0.5937499999999923
 40
0.5937499999999923
 40
0.5937499999999923
 40
0.5937499999999923
 40
0.6249999999999922
 40
0.6249999999999922
 40
0.6249999999999922
 40
0.6249999999999922
 10
32.00596300848013
 20
4.10955379762315
 30
0.0
 10
31.85098984554918
 20
3.980170605308988
 30
0.0
 10
31.68089855242473
 20
3.840681439463187
 30
0.0
 10
31.4968303396605
 20
3.695134339068137
 30
0.0
  0
SPLINE
  5
25B
330
1F
100
AcDbEntity
  8
SK3
  6
SLD-Dashed
370
    18
100
AcDbSpline
210
0.0
220
0.0
230
1.0
 70
     8
 71
     3
 72
     8
 73
     4
 74
     0
 42
0.000000001
 43
0.00000001
 40
0.6249999999999922
 40
0.6249999999999922
 40
0.6249999999999922
 40
0.6249999999999922
 40
0.6562499999999925
 40
0.6562499999999925
 40
0.6562499999999925
 40
0.6562499999999925
 10
31.4968303396605
 20
3.695134339068137
 30
0.0
 10
31.31276212689629
 20
3.549587238673074
 30
0.0
 10
31.11392538717039
 20
3.397205389082239
 30
0.0
 10
30.90088012559544
 20
3.244478942548368
 30
0.0
  0
SPLINE
  5
25C
330
1F
100
AcDbEntity
  8
SK3
  6
SLD-Dashed
370
    18
100
AcDbSpline
210
0.0
220
0.0
230
1.0
 70
     8
 71
     3
 72
     8
 73
     4
 74
     0
 42
0.000000001
 43
0.00000001
 40
0.6562499999999925
 40
0.6562499999999925
 40
0.6562499999999925
 40
0.6562499999999925
 40
0.6874999999999928
 40
0.6874999999999928
 40
0.6874999999999928
 40
0.6874999999999928
 10
30.90088012559544
 20
3.244478942548368
 30
0.0
 10
30.68783486402052
 20
3.091752496014482
 30
0.0
 10
30.46438050653835
 20
2.941037029497537
 30
0.0
 10
30.22627587384299
 20
2.800649435673042
 30
0.0
  0
SPLINE
  5
25D
330
1F
100
AcDbEntity
  8
SK3
  6
SLD-Dashed
370
    18
100
AcDbSpline
210
0.0
220
0.0
230
1.0
 70
     8
 71
     3
 72
     8
 73
     4
 74
     0
 42
0.000000001
 43
0.00000001
 40
0.6874999999999928
 40
0.6874999999999928
 40
0.6874999999999928
 40
0.6874999999999928
 40
0.7031249999999931
 40
0.7031249999999931
 40
0.7031249999999931
 40
0.7031249999999931
 10
30.22627587384299
 20
2.800649435673042
 30
0.0
 10
30.10722355749532
 20
2.730455638760801
 30
0.0
 10
29.98444589595897
 20
2.662914369308267
 30
0.0
 10
29.85671554850083
 20
2.59994615276328
 30
0.0
  0
SPLINE
  5
25E
330
1F
100
AcDbEntity
  8
SK3
  6
SLD-Dashed
370
    18
100
AcDbSpline
210
0.0
220
0.0
230
1.0
 70
     8
 71
     3
 72
     8
 73
     4
 74
     0
 42
0.000000001
 43
0.00000001
 40
0.7031249999999931
 40
0.7031249999999931
 40
0.7031249999999931
 40
0.7031249999999931
 40
0.7187499999999934
 40
0.7187499999999934
 40
0.7187499999999934
 40
0.7187499999999934
 10
29.85671554850083
 20
2.59994615276328
 30
0.0
 10
29.7289852010427
 20
2.536977936218279
 30
0.0
 10
29.59524354024448
 20
2.47815671966542
 30
0.0
 10
29.45711361506159
 20
2.427972339191023
 30
0.0
  0
SPLINE
  5
25F
330
1F
100
AcDbEntity
  8
SK3
  6
SLD-Dashed
370
    18
100
AcDbSpline
210
0.0
220
0.0
230
1.0
 70
     8
 71
     3
 72
     8
 73
     4
 74
     0
 42
0.000000001
 43
0.00000001
 40
0.7187499999999934
 40
0.7187499999999934
 40
0.7187499999999934
 40
0.7187499999999934
 40
0.7343749999999939
 40
0.7343749999999939
 40
0.7343749999999939
 40
0.7343749999999939
 10
29.45711361506159
 20
2.427972339191023
 30
0.0
 10
29.31898368987867
 20
2.377787958716626
 30
0.0
 10
29.17758026609432
 20
2.336589061858879
 30
0.0
 10
29.03193903303913
 20
2.30775183455989
 30
0.0
  0
SPLINE
  5
260
330
1F
100
AcDbEntity
  8
SK3
  6
SLD-Dashed
370
    18
100
AcDbSpline
210
0.0
220
0.0
230
1.0
 70
     8
 71
     3
 72
     8
 73
     4
 74
     0
 42
0.000000001
 43
0.00000001
 40
0.7343749999999939
 40
0.7343749999999939
 40
0.7343749999999939
 40
0.7343749999999939
 40
0.7499999999999942
 40
0.7499999999999942
 40
0.7499999999999942
 40
0.7499999999999942
 10
29.03193903303913
 20
2.30775183455989
 30
0.0
 10
28.88629779998395
 20
2.278914607260887
 30
0.0
 10
28.73491832310621
 20
2.262822498803385
 30
0.0
 10
28.58614333833559
 20
2.262089614491217
 30
0.0
  0
SPLINE
  5
261
330
1F
100
AcDbEntity
  8
SK3
  6
SLD-Dashed
370
    18
100
AcDbSpline
210
0.0
220
0.0
230
1.0
 70
     8
 71
     3
 72
     8
 73
     4
 74
     0
 42
0.000000001
 43
0.00000001
 40
0.7499999999999942
 40
0.7499999999999942
 40
0.7499999999999942
 40
0.7499999999999942
 40
0.7656249999999946
 40
0.7656249999999946
 40
0.7656249999999946
 40
0.7656249999999946
 10
28.58614333833559
 20
2.262089614491217
 30
0.0
 10
28.43736835356503
 20
2.261356730179048
 30
0.0
 10
28.28972926056309
 20
2.275427657613238
 30
0.0
 10
28.14313684843631
 20
2.302917938546284
 30
0.0
  0
SPLINE
  5
262
330
1F
100
AcDbEntity
  8
SK3
  6
SLD-Dashed
370
    18
100
AcDbSpline
210
0.0
220
0.0
230
1.0
 70
     8
 71
     3
 72
     8
 73
     4
 74
     0
 42
0.000000001
 43
0.00000001
 40
0.7656249999999946
 40
0.7656249999999946
 40
0.7656249999999946
 40
0.7656249999999946
 40
0.7812499999999949
 40
0.7812499999999949
 40
0.7812499999999949
 40
0.7812499999999949
 10
28.14313684843631
 20
2.302917938546284
 30
0.0
 10
27.9965444363095
 20
2.330408219479343
 30
0.0
 10
27.85290227611245
 20
2.371039899115384
 30
0.0
 10
27.71540409314224
 20
2.419882305626939
 30
0.0
  0
SPLINE
  5
263
330
1F
100
AcDbEntity
  8
SK3
  6
SLD-Dashed
370
    18
100
AcDbSpline
210
0.0
220
0.0
230
1.0
 70
     8
 71
     3
 72
     8
 73
     4
 74
     0
 42
0.000000001
 43
0.00000001
 40
0.7812499999999949
 40
0.7812499999999949
 40
0.7812499999999949
 40
0.7812499999999949
 40
0.8124999999999957
 40
0.8124999999999957
 40
0.8124999999999957
 40
0.8124999999999957
 10
27.71540409314224
 20
2.419882305626939
 30
0.0
 10
27.44040772720188
 20
2.517567118650046
 30
0.0
 10
27.18134055626881
 20
2.64971780715452
 30
0.0
 10
26.94016850474598
 20
2.790985357875295
 30
0.0
  0
SPLINE
  5
264
330
1F
100
AcDbEntity
  8
SK3
  6
SLD-Dashed
370
    18
100
AcDbSpline
210
0.0
220
0.0
230
1.0
 70
     8
 71
     3
 72
     8
 73
     4
 74
     0
 42
0.000000001
 43
0.00000001
 40
0.8124999999999957
 40
0.8124999999999957
 40
0.8124999999999957
 40
0.8124999999999957
 40
0.8437499999999963
 40
0.8437499999999963
 40
0.8437499999999963
 40
0.8437499999999963
 10
26.94016850474598
 20
2.790985357875295
 30
0.0
 10
26.69899645322313
 20
2.93225290859607
 30
0.0
 10
26.47477209361346
 20
3.083146698699441
 30
0.0
 10
26.26221725309677
 20
3.235102669834927
 30
0.0
  0
SPLINE
  5
265
330
1F
100
AcDbEntity
  8
SK3
  6
SLD-Dashed
370
    18
100
AcDbSpline
210
0.0
220
0.0
230
1.0
 70
     8
 71
     3
 72
     8
 73
     4
 74
     0
 42
0.000000001
 43
0.00000001
 40
0.8437499999999963
 40
0.8437499999999963
 40
0.8437499999999963
 40
0.8437499999999963
 40
0.8749999999999971
 40
0.8749999999999971
 40
0.8749999999999971
 40
0.8749999999999971
 10
26.26221725309677
 20
3.235102669834927
 30
0.0
 10
26.04966241258003
 20
3.387058640970428
 30
0.0
 10
25.84762045478675
 20
3.541552145539042
 30
0.0
 10
25.66221095955937
 20
3.687989322667687
 30
0.0
  0
SPLINE
  5
266
330
1F
100
AcDbEntity
  8
SK3
  6
SLD-Dashed
370
    18
100
AcDbSpline
210
0.0
220
0.0
230
1.0
 70
     8
 71
     3
 72
     8
 73
     4
 74
     0
 42
0.000000001
 43
0.00000001
 40
0.8749999999999971
 40
0.8749999999999971
 40
0.8749999999999971
 40
0.8749999999999971
 40
0.9062499999999978
 40
0.9062499999999978
 40
0.9062499999999978
 40
0.9062499999999978
 10
25.66221095955937
 20
3.687989322667687
 30
0.0
 10
25.47680146433196
 20
3.834426499796331
 30
0.0
 10
25.30684718617862
 20
3.973731932099628
 30
0.0
 10
25.15294370654164
 20
4.102120735131748
 30
0.0
  0
SPLINE
  5
267
330
1F
100
AcDbEntity
  8
SK3
  6
SLD-Dashed
370
    18
100
AcDbSpline
210
0.0
220
0.0
230
1.0
 70
     8
 71
     3
 72
     8
 73
     4
 74
     0
 42
0.000000001
 43
0.00000001
 40
0.9062499999999978
 40
0.9062499999999978
 40
0.9062499999999978
 40
0.9062499999999978
 40
0.9374999999999986
 40
0.9374999999999986
 40
0.9374999999999986
 40
0.9374999999999986
 10
25.15294370654164
 20
4.102120735131748
 30
0.0
 10
24.99904022690466
 20
4.230509538163868
 30
0.0
 10
24.85994440838879
 20
4.349160215316811
 30
0.0
 10
24.74583140794692
 20
4.447410185306241
 30
0.0
  0
SPLINE
  5
268
330
1F
100
AcDbEntity
  8
SK3
  6
SLD-Dashed
370
    18
100
AcDbSpline
210
0.0
220
0.0
230
1.0
 70
     8
 71
     3
 72
     8
 73
     4
 74
     0
 42
0.000000001
 43
0.00000001
 40
0.9374999999999986
 40
0.9374999999999986
 40
0.9374999999999986
 40
0.9374999999999986
 40
0.9687499999999992
 40
0.9687499999999992
 40
0.9687499999999992
 40
0.9687499999999992
 10
24.74583140794692
 20
4.447410185306241
 30
0.0
 10
24.63171840750505
 20
4.545660155295658
 30
0.0
 10
24.54073627170267
 20
4.6250731687376
 30
0.0
 10
24.47842410146456
 20
4.679621709333046
 30
0.0
  0
SPLINE
  5
269
330
1F
100
AcDbEntity
  8
SK3
  6
SLD-Dashed
370
    18
100
AcDbSpline
210
0.0
220
0.0
230
1.0
 70
     8
 71
     2
 72
     6
 73
     3
 74
     0
 42
0.000000001
 43
0.00000001
 40
0.9687499999999992
 40
0.9687499999999992
 40
0.9687499999999992
 40
1.0
 40
1.0
 40
1.0
 10
24.47842410146456
 20
4.679621709333046
 30
0.0
 10
24.41611193122645
 20
4.73417024992849
 30
0.0
 10
24.38399999999999
 20
4.762499999999989
 30
0.0
  0
SPLINE
  5
26A
330
1F
100
AcDbEntity
  8
SK3
  6
SLD-Dashed
370
    18
100
AcDbSpline
210
0.0
220
0.0
230
1.0
 70
     8
 71
     2
 72
     6
 73
     3
 74
     0
 42
0.000000001
 43
0.00000001
 40
0.0
 40
0.0
 40
0.0
 40
0.0312499999999994
 40
0.0312499999999994
 40
0.0312499999999994
 10
24.38399999999999
 20
4.762499999999989
 30
0.0
 10
24.41593930001915
 20
4.734325305954759
 30
0.0
 10
24.47714995484321
 20
4.680737147350955
 30
0.0
  0
SPLINE
  5
26B
330
1F
100
AcDbEntity
  8
SK3
  6
SLD-Dashed
370
    18
100
AcDbSpline
210
0.0
220
0.0
230
1.0
 70
     8
 71
     3
 72
     8
 73
     4
 74
     0
 42
0.000000001
 43
0.00000001
 40
0.0312499999999994
 40
0.0312499999999994
 40
0.0312499999999994
 40
0.0312499999999994
 40
0.0468749999999991
 40
0.0468749999999991
 40
0.0468749999999991
 40
0.0468749999999991
 10
24.47714995484321
 20
4.680737147350955
 30
0.0
 10
24.50775528225527
 20
4.65394306804906
 30
0.0
 10
24.54611293084499
 20
4.62042958127773
 30
0.0
 10
24.5907980626496
 20
4.581570727118206
 30
0.0
  0
SPLINE
  5
26C
330
1F
100
AcDbEntity
  8
SK3
  6
SLD-Dashed
370
    18
100
AcDbSpline
210
0.0
220
0.0
230
1.0
 70
     8
 71
     3
 72
     8
 73
     4
 74
     0
 42
0.000000001
 43
0.00000001
 40
0.0468749999999991
 40
0.0468749999999991
 40
0.0468749999999991
 40
0.0468749999999991
 40
0.0624999999999988
 40
0.0624999999999988
 40
0.0624999999999988
 40
0.0624999999999988
 10
24.5907980626496
 20
4.581570727118206
 30
0.0
 10
24.63548319445422
 20
4.542711872958669
 30
0.0
 10
24.68642036242569
 20
4.498571562975201
 30
0.0
 10
24.74311780444632
 20
4.449746780503486
 30
0.0
  0
SPLINE
  5
26D
330
1F
100
AcDbEntity
  8
SK3
  6
SLD-Dashed
370
    18
100
AcDbSpline
210
0.0
220
0.0
230
1.0
 70
     8
 71
     3
 72
     8
 73
     4
 74
     0
 42
0.000000001
 43
0.00000001
 40
0.0624999999999988
 40
0.0624999999999988
 40
0.0624999999999988
 40
0.0624999999999988
 40
0.0937499999999982
 40
0.0937499999999982
 40
0.0937499999999982
 40
0.0937499999999982
 10
24.74311780444632
 20
4.449746780503486
 30
0.0
 10
24.85651268848757
 20
4.352097215560055
 30
0.0
 10
24.99458127134113
 20
4.234279707352587
 30
0.0
 10
25.14858158489661
 20
4.105760393076974
 30
0.0
  0
SPLINE
  5
26E
330
1F
100
AcDbEntity
  8
SK3
  6
SLD-Dashed
370
    18
100
AcDbSpline
210
0.0
220
0.0
230
1.0
 70
     8
 71
     3
 72
     8
 73
     4
 74
     0
 42
0.000000001
 43
0.00000001
 40
0.0937499999999982
 40
0.0937499999999982
 40
0.0937499999999982
 40
0.0937499999999982
 40
0.1249999999999975
 40
0.1249999999999975
 40
0.1249999999999975
 40
0.1249999999999975
 10
25.14858158489661
 20
4.105760393076974
 30
0.0
 10
25.30258189845211
 20
3.977241078801361
 30
0.0
 10
25.47247456826943
 20
3.837933257327494
 30
0.0
 10
25.65752950612718
 20
3.691687870421636
 30
0.0
  0
SPLINE
  5
26F
330
1F
100
AcDbEntity
  8
SK3
  6
SLD-Dashed
370
    18
100
AcDbSpline
210
0.0
220
0.0
230
1.0
 70
     8
 71
     3
 72
     8
 73
     4
 74
     0
 42
0.000000001
 43
0.00000001
 40
0.1249999999999975
 40
0.1249999999999975
 40
0.1249999999999975
 40
0.1249999999999975
 40
0.1562499999999969
 40
0.1562499999999969
 40
0.1562499999999969
 40
0.1562499999999969
 10
25.65752950612718
 20
3.691687870421636
 30
0.0
 10
25.84258444398493
 20
3.545442483515793
 30
0.0
 10
26.04394480600078
 20
3.391350357523665
 30
0.0
 10
26.25592379353475
 20
3.239604868096296
 30
0.0
  0
SPLINE
  5
270
330
1F
100
AcDbEntity
  8
SK3
  6
SLD-Dashed
370
    18
100
AcDbSpline
210
0.0
220
0.0
230
1.0
 70
     8
 71
     3
 72
     8
 73
     4
 74
     0
 42
0.000000001
 43
0.00000001
 40
0.1562499999999969
 40
0.1562499999999969
 40
0.1562499999999969
 40
0.1562499999999969
 40
0.1874999999999963
 40
0.1874999999999963
 40
0.1874999999999963
 40
0.1874999999999963
 10
26.25592379353475
 20
3.239604868096296
 30
0.0
 10
26.46790278106867
 20
3.087859378668928
 30
0.0
 10
26.6915424322979
 20
2.937084319534919
 30
0.0
 10
26.93206673173665
 20
2.795738717041793
 30
0.0
  0
SPLINE
  5
271
330
1F
100
AcDbEntity
  8
SK3
  6
SLD-Dashed
370
    18
100
AcDbSpline
210
0.0
220
0.0
230
1.0
 70
     8
 71
     3
 72
     8
 73
     4
 74
     0
 42
0.000000001
 43
0.00000001
 40
0.1874999999999963
 40
0.1874999999999963
 40
0.1874999999999963
 40
0.1874999999999963
 40
0.2187499999999956
 40
0.2187499999999956
 40
0.2187499999999956
 40
0.2187499999999956
 10
26.93206673173665
 20
2.795738717041793
 30
0.0
 10
27.17259103117542
 20
2.654393114548653
 30
0.0
 10
27.43044549766219
 20
2.522107990004116
 30
0.0
 10
27.70547131452122
 20
2.423428436094291
 30
0.0
  0
SPLINE
  5
272
330
1F
100
AcDbEntity
  8
SK3
  6
SLD-Dashed
370
    18
100
AcDbSpline
210
0.0
220
0.0
230
1.0
 70
     8
 71
     3
 72
     8
 73
     4
 74
     0
 42
0.000000001
 43
0.00000001
 40
0.2187499999999956
 40
0.2187499999999956
 40
0.2187499999999956
 40
0.2187499999999956
 40
0.2343749999999953
 40
0.2343749999999953
 40
0.2343749999999953
 40
0.2343749999999953
 10
27.70547131452122
 20
2.423428436094291
 30
0.0
 10
27.84298422295073
 20
2.374088659139392
 30
0.0
 10
27.98675635630585
 20
2.332944604084592
 30
0.0
 10
28.13203104169076
 20
2.305026409398725
 30
0.0
  0
SPLINE
  5
273
330
1F
100
AcDbEntity
  8
SK3
  6
SLD-Dashed
370
    18
100
AcDbSpline
210
0.0
220
0.0
230
1.0
 70
     8
 71
     3
 72
     8
 73
     4
 74
     0
 42
0.000000001
 43
0.00000001
 40
0.2343749999999953
 40
0.2343749999999953
 40
0.2343749999999953
 40
0.2343749999999953
 40
0.2499999999999949
 40
0.2499999999999949
 40
0.2499999999999949
 40
0.2499999999999949
 10
28.13203104169076
 20
2.305026409398725
 30
0.0
 10
28.27730572707565
 20
2.277108214712858
 30
0.0
 10
28.42475989768253
 20
2.262081603394139
 30
0.0
 10
28.57470708274171
 20
2.262062186545843
 30
0.0
  0
SPLINE
  5
274
330
1F
100
AcDbEntity
  8
SK3
  6
SLD-Dashed
370
    18
100
AcDbSpline
210
0.0
220
0.0
230
1.0
 70
     8
 71
     3
 72
     8
 73
     4
 74
     0
 42
0.000000001
 43
0.00000001
 40
0.2499999999999949
 40
0.2499999999999949
 40
0.2499999999999949
 40
0.2499999999999949
 40
0.2812499999999947
 40
0.2812499999999947
 40
0.2812499999999947
 40
0.2812499999999947
 10
28.57470708274171
 20
2.262062186545843
 30
0.0
 10
28.87460145286003
 20
2.262023352849224
 30
0.0
 10
29.16943654563558
 20
2.324687414737736
 30
0.0
 10
29.44490935075794
 20
2.423565045245546
 30
0.0
  0
SPLINE
  5
275
330
1F
100
AcDbEntity
  8
SK3
  6
SLD-Dashed
370
    18
100
AcDbSpline
210
0.0
220
0.0
230
1.0
 70
     8
 71
     3
 72
     8
 73
     4
 74
     0
 42
0.000000001
 43
0.00000001
 40
0.2812499999999947
 40
0.2812499999999947
 40
0.2812499999999947
 40
0.2812499999999947
 40
0.3124999999999944
 40
0.3124999999999944
 40
0.3124999999999944
 40
0.3124999999999944
 10
29.44490935075794
 20
2.423565045245546
 30
0.0
 10
29.72038215588027
 20
2.52244267575337
 30
0.0
 10
29.97379727992436
 20
2.65242711255767
 30
0.0
 10
30.2151838290573
 20
2.794123877551069
 30
0.0
  0
SPLINE
  5
276
330
1F
100
AcDbEntity
  8
SK3
  6
SLD-Dashed
370
    18
100
AcDbSpline
210
0.0
220
0.0
230
1.0
 70
     8
 71
     3
 72
     8
 73
     4
 74
     0
 42
0.000000001
 43
0.00000001
 40
0.3124999999999944
 40
0.3124999999999944
 40
0.3124999999999944
 40
0.3124999999999944
 40
0.3437499999999941
 40
0.3437499999999941
 40
0.3437499999999941
 40
0.3437499999999941
 10
30.2151838290573
 20
2.794123877551069
 30
0.0
 10
30.45657037819022
 20
2.935820642544468
 30
0.0
 10
30.68178464239168
 20
3.087678014971409
 30
0.0
 10
30.89274569784156
 20
3.238652554668861
 30
0.0
  0
SPLINE
  5
277
330
1F
100
AcDbEntity
  8
SK3
  6
SLD-Dashed
370
    18
100
AcDbSpline
210
0.0
220
0.0
230
1.0
 70
     8
 71
     3
 72
     8
 73
     4
 74
     0
 42
0.000000001
 43
0.00000001
 40
0.3437499999999941
 40
0.3437499999999941
 40
0.3437499999999941
 40
0.3437499999999941
 40
0.3749999999999938
 40
0.3749999999999938
 40
0.3749999999999938
 40
0.3749999999999938
 10
30.89274569784156
 20
3.238652554668861
 30
0.0
 10
31.10370675329147
 20
3.389627094366312
 30
0.0
 10
31.30147171595607
 20
3.540843655332846
 30
0.0
 10
31.48734044329307
 20
3.687635029072239
 30
0.0
  0
SPLINE
  5
278
330
1F
100
AcDbEntity
  8
SK3
  6
SLD-Dashed
370
    18
100
AcDbSpline
210
0.0
220
0.0
230
1.0
 70
     8
 71
     3
 72
     8
 73
     4
 74
     0
 42
0.000000001
 43
0.00000001
 40
0.3749999999999938
 40
0.3749999999999938
 40
0.3749999999999938
 40
0.3749999999999938
 40
0.4062499999999936
 40
0.4062499999999936
 40
0.4062499999999936
 40
0.4062499999999936
 10
31.48734044329307
 20
3.687635029072239
 30
0.0
 10
31.6732091706301
 20
3.834426402811633
 30
0.0
 10
31.84563438909324
 20
3.975778598737503
 30
0.0
 10
31.99913729890197
 20
4.103856904392702
 30
0.0
  0
SPLINE
  5
279
330
1F
100
AcDbEntity
  8
SK3
  6
SLD-Dashed
370
    18
100
AcDbSpline
210
0.0
220
0.0
230
1.0
 70
     8
 71
     3
 72
     8
 73
     4
 74
     0
 42
0.000000001
 43
0.00000001
 40
0.4062499999999936
 40
0.4062499999999936
 40
0.4062499999999936
 40
0.4062499999999936
 40
0.4374999999999933
 40
0.4374999999999933
 40
0.4374999999999933
 40
0.4374999999999933
 10
31.99913729890197
 20
4.103856904392702
 30
0.0
 10
32.1526402087107
 20
4.231935210047902
 30
0.0
 10
32.28977601218072
 20
4.348919126938966
 30
0.0
 10
32.40422474515389
 20
4.44745853256652
 30
0.0
  0
SPLINE
  5
27A
330
1F
100
AcDbEntity
  8
SK3
  6
SLD-Dashed
370
    18
100
AcDbSpline
210
0.0
220
0.0
230
1.0
 70
     8
 71
     3
 72
     8
 73
     4
 74
     0
 42
0.000000001
 43
0.00000001
 40
0.4374999999999933
 40
0.4374999999999933
 40
0.4374999999999933
 40
0.4374999999999933
 40
0.468749999999993
 40
0.468749999999993
 40
0.468749999999993
 40
0.468749999999993
 10
32.40422474515389
 20
4.44745853256652
 30
0.0
 10
32.51867347812709
 20
4.545997938194088
 30
0.0
 10
32.60848369548075
 20
4.624393263009202
 30
0.0
 10
32.67063562719494
 20
4.678798610834659
 30
0.0
  0
SPLINE
  5
27B
330
1F
100
AcDbEntity
  8
SK3
  6
SLD-Dashed
370
    18
100
AcDbSpline
210
0.0
220
0.0
230
1.0
 70
     8
 71
     3
 72
     8
 73
     4
 74
     0
 42
0.000000001
 43
0.00000001
 40
0.468749999999993
 40
0.468749999999993
 40
0.468749999999993
 40
0.468749999999993
 40
0.4843749999999929
 40
0.4843749999999929
 40
0.4843749999999929
 40
0.4843749999999929
 10
32.67063562719494
 20
4.678798610834659
 30
0.0
 10
32.70171159305205
 20
4.706001284747393
 30
0.0
 10
32.72568410024568
 20
4.727054702904327
 30
0.0
 10
32.74158881981803
 20
4.741032339420665
 30
0.0
  0
SPLINE
  5
27C
330
1F
100
AcDbEntity
  8
SK3
  6
SLD-Dashed
370
    18
100
AcDbSpline
210
0.0
220
0.0
230
1.0
 70
     8
 71
     3
 72
     8
 73
     4
 74
     0
 42
0.000000001
 43
0.00000001
 40
0.4843749999999929
 40
0.4843749999999929
 40
0.4843749999999929
 40
0.4843749999999929
 40
0.4999999999999929
 40
0.4999999999999929
 40
0.4999999999999929
 40
0.4999999999999929
 10
32.74158881981803
 20
4.741032339420665
 30
0.0
 10
32.75749353939042
 20
4.755009975937016
 30
0.0
 10
32.76563188558782
 20
4.762176059526044
 30
0.0
 10
32.76598782617718
 20
4.762489287039429
 30
0.0
  0
SPLINE
  5
27D
330
1F
100
AcDbEntity
  8
SK3
  6
SLD-Dashed
370
    18
100
AcDbSpline
210
0.0
220
0.0
230
1.0
 70
     8
 71
     3
 72
     8
 73
     4
 74
     0
 42
0.000000001
 43
0.00000001
 40
0.4999999999999929
 40
0.4999999999999929
 40
0.4999999999999929
 40
0.4999999999999929
 40
0.5312499999999927
 40
0.5312499999999927
 40
0.5312499999999927
 40
0.5312499999999927
 10
32.76598782617718
 20
4.762489287039429
 30
0.0
 10
32.76669970735593
 20
4.763115742066199
 30
0.0
 10
32.73505349648129
 20
4.735199252748276
 30
0.0
 10
32.67441109481178
 20
4.682103861969086
 30
0.0
  0
SPLINE
  5
27E
330
1F
100
AcDbEntity
  8
SK3
  6
SLD-Dashed
370
    18
100
AcDbSpline
210
0.0
220
0.0
230
1.0
 70
     8
 71
     3
 72
     8
 73
     4
 74
     0
 42
0.000000001
 43
0.00000001
 40
0.5312499999999927
 40
0.5312499999999927
 40
0.5312499999999927
 40
0.5312499999999927
 40
0.5624999999999926
 40
0.5624999999999926
 40
0.5624999999999926
 40
0.5624999999999926
 10
32.67441109481178
 20
4.682103861969086
 30
0.0
 10
32.61376869314231
 20
4.629008471189924
 30
0.0
 10
32.5233196248691
 20
4.550036632950283
 30
0.0
 10
32.40991309213393
 20
4.45235709194805
 30
0.0
  0
SPLINE
  5
27F
330
1F
100
AcDbEntity
  8
SK3
  6
SLD-Dashed
370
    18
100
AcDbSpline
210
0.0
220
0.0
230
1.0
 70
     8
 71
     3
 72
     8
 73
     4
 74
     0
 42
0.000000001
 43
0.00000001
 40
0.5624999999999926
 40
0.5624999999999926
 40
0.5624999999999926
 40
0.5624999999999926
 40
0.5937499999999923
 40
0.5937499999999923
 40
0.5937499999999923
 40
0.5937499999999923
 10
32.40991309213393
 20
4.45235709194805
 30
0.0
 10
32.29650655939881
 20
4.354677550945832
 30
0.0
 10
32.16093617141108
 20
4.238936989937297
 30
0.0
 10
32.00596300848013
 20
4.10955379762315
 30
0.0
  0
SPLINE
  5
280
330
1F
100
AcDbEntity
  8
SK3
  6
SLD-Dashed
370
    18
100
AcDbSpline
210
0.0
220
0.0
230
1.0
 70
     8
 71
     3
 72
     8
 73
     4
 74
     0
 42
0.000000001
 43
0.00000001
 40
0.5937499999999923
 40
0.5937499999999923
 40
0.5937499999999923
 40
0.5937499999999923
 40
0.6249999999999922
 40
0.6249999999999922
 40
0.6249999999999922
 40
0.6249999999999922
 10
32.00596300848013
 20
4.10955379762315
 30
0.0
 10
31.85098984554918
 20
3.980170605308988
 30
0.0
 10
31.68089855242473
 20
3.840681439463187
 30
0.0
 10
31.4968303396605
 20
3.695134339068137
 30
0.0
  0
SPLINE
  5
281
330
1F
100
AcDbEntity
  8
SK3
  6
SLD-Dashed
370
    18
100
AcDbSpline
210
0.0
220
0.0
230
1.0
 70
     8
 71
     3
 72
     8
 73
     4
 74
     0
 42
0.000000001
 43
0.00000001
 40
0.6249999999999922
 40
0.6249999999999922
 40
0.6249999999999922
 40
0.6249999999999922
 40
0.6562499999999925
 40
0.6562499999999925
 40
0.6562499999999925
 40
0.6562499999999925
 10
31.4968303396605
 20
3.695134339068137
 30
0.0
 10
31.31276212689629
 20
3.549587238673074
 30
0.0
 10
31.11392538717039
 20
3.397205389082239
 30
0.0
 10
30.90088012559544
 20
3.244478942548368
 30
0.0
  0
SPLINE
  5
282
330
1F
100
AcDbEntity
  8
SK3
  6
SLD-Dashed
370
    18
100
AcDbSpline
210
0.0
220
0.0
230
1.0
 70
     8
 71
     3
 72
     8
 73
     4
 74
     0
 42
0.000000001
 43
0.00000001
 40
0.6562499999999925
 40
0.6562499999999925
 40
0.6562499999999925
 40
0.6562499999999925
 40
0.6874999999999928
 40
0.6874999999999928
 40
0.6874999999999928
 40
0.6874999999999928
 10
30.90088012559544
 20
3.244478942548368
 30
0.0
 10
30.68783486402052
 20
3.091752496014482
 30
0.0
 10
30.46438050653835
 20
2.941037029497537
 30
0.0
 10
30.22627587384299
 20
2.800649435673042
 30
0.0
  0
SPLINE
  5
283
330
1F
100
AcDbEntity
  8
SK3
  6
SLD-Dashed
370
    18
100
AcDbSpline
210
0.0
220
0.0
230
1.0
 70
     8
 71
     3
 72
     8
 73
     4
 74
     0
 42
0.000000001
 43
0.00000001
 40
0.6874999999999928
 40
0.6874999999999928
 40
0.6874999999999928
 40
0.6874999999999928
 40
0.7031249999999931
 40
0.7031249999999931
 40
0.7031249999999931
 40
0.7031249999999931
 10
30.22627587384299
 20
2.800649435673042
 30
0.0
 10
30.10722355749532
 20
2.730455638760801
 30
0.0
 10
29.98444589595897
 20
2.662914369308267
 30
0.0
 10
29.85671554850083
 20
2.59994615276328
 30
0.0
  0
SPLINE
  5
284
330
1F
100
AcDbEntity
  8
SK3
  6
SLD-Dashed
370
    18
100
AcDbSpline
210
0.0
220
0.0
230
1.0
 70
     8
 71
     3
 72
     8
 73
     4
 74
     0
 42
0.000000001
 43
0.00000001
 40
0.7031249999999931
 40
0.7031249999999931
 40
0.7031249999999931
 40
0.7031249999999931
 40
0.7187499999999934
 40
0.7187499999999934
 40
0.7187499999999934
 40
0.7187499999999934
 10
29.85671554850083
 20
2.59994615276328
 30
0.0
 10
29.7289852010427
 20
2.536977936218279
 30
0.0
 10
29.59524354024448
 20
2.47815671966542
 30
0.0
 10
29.45711361506159
 20
2.427972339191023
 30
0.0
  0
SPLINE
  5
285
330
1F
100
AcDbEntity
  8
SK3
  6
SLD-Dashed
370
    18
100
AcDbSpline
210
0.0
220
0.0
230
1.0
 70
     8
 71
     3
 72
     8
 73
     4
 74
     0
 42
0.000000001
 43
0.00000001
 40
0.7187499999999934
 40
0.7187499999999934
 40
0.7187499999999934
 40
0.7187499999999934
 40
0.7343749999999939
 40
0.7343749999999939
 40
0.7343749999999939
 40
0.7343749999999939
 10
29.45711361506159
 20
2.427972339191023
 30
0.0
 10
29.31898368987867
 20
2.377787958716626
 30
0.0
 10
29.17758026609432
 20
2.336589061858879
 30
0.0
 10
29.03193903303913
 20
2.30775183455989
 30
0.0
  0
SPLINE
  5
286
330
1F
100
AcDbEntity
  8
SK3
  6
SLD-Dashed
370
    18
100
AcDbSpline
210
0.0
220
0.0
230
1.0
 70
     8
 71
     3
 72
     8
 73
     4
 74
     0
 42
0.000000001
 43
0.00000001
 40
0.7343749999999939
 40
0.7343749999999939
 40
0.7343749999999939
 40
0.7343749999999939
 40
0.7499999999999942
 40
0.7499999999999942
 40
0.7499999999999942
 40
0.7499999999999942
 10
29.03193903303913
 20
2.30775183455989
 30
0.0
 10
28.88629779998395
 20
2.278914607260887
 30
0.0
 10
28.73491832310621
 20
2.262822498803385
 30
0.0
 10
28.58614333833559
 20
2.262089614491217
 30
0.0
  0
SPLINE
  5
287
330
1F
100
AcDbEntity
  8
SK3
  6
SLD-Dashed
370
    18
100
AcDbSpline
210
0.0
220
0.0
230
1.0
 70
     8
 71
     3
 72
     8
 73
     4
 74
     0
 42
0.000000001
 43
0.00000001
 40
0.7499999999999942
 40
0.7499999999999942
 40
0.7499999999999942
 40
0.7499999999999942
 40
0.7656249999999946
 40
0.7656249999999946
 40
0.7656249999999946
 40
0.7656249999999946
 10
28.58614333833559
 20
2.262089614491217
 30
0.0
 10
28.43736835356503
 20
2.261356730179048
 30
0.0
 10
28.28972926056309
 20
2.275427657613238
 30
0.0
 10
28.14313684843631
 20
2.302917938546284
 30
0.0
  0
SPLINE
  5
288
330
1F
100
AcDbEntity
  8
SK3
  6
SLD-Dashed
370
    18
100
AcDbSpline
210
0.0
220
0.0
230
1.0
 70
     8
 71
     3
 72
     8
 73
     4
 74
     0
 42
0.000000001
 43
0.00000001
 40
0.7656249999999946
 40
0.7656249999999946
 40
0.7656249999999946
 40
0.7656249999999946
 40
0.7812499999999949
 40
0.7812499999999949
 40
0.7812499999999949
 40
0.7812499999999949
 10
28.14313684843631
 20
2.302917938546284
 30
0.0
 10
27.9965444363095
 20
2.330408219479343
 30
0.0
 10
27.85290227611245
 20
2.371039899115384
 30
0.0
 10
27.71540409314224
 20
2.419882305626939
 30
0.0
  0
SPLINE
  5
289
330
1F
100
AcDbEntity
  8
SK3
  6
SLD-Dashed
370
    18
100
AcDbSpline
210
0.0
220
0.0
230
1.0
 70
     8
 71
     3
 72
     8
 73
     4
 74
     0
 42
0.000000001
 43
0.00000001
 40
0.7812499999999949
 40
0.7812499999999949
 40
0.7812499999999949
 40
0.7812499999999949
 40
0.8124999999999957
 40
0.8124999999999957
 40
0.8124999999999957
 40
0.8124999999999957
 10
27.71540409314224
 20
2.419882305626939
 30
0.0
 10
27.44040772720188
 20
2.517567118650046
 30
0.0
 10
27.18134055626881
 20
2.64971780715452
 30
0.0
 10
26.94016850474598
 20
2.790985357875295
 30
0.0
  0
SPLINE
  5
28A
330
1F
100
AcDbEntity
  8
SK3
  6
SLD-Dashed
370
    18
100
AcDbSpline
210
0.0
220
0.0
230
1.0
 70
     8
 71
     3
 72
     8
 73
     4
 74
     0
 42
0.000000001
 43
0.00000001
 40
0.8124999999999957
 40
0.8124999999999957
 40
0.8124999999999957
 40
0.8124999999999957
 40
0.8437499999999963
 40
0.8437499999999963
 40
0.8437499999999963
 40
0.8437499999999963
 10
26.94016850474598
 20
2.790985357875295
 30
0.0
 10
26.69899645322313
 20
2.93225290859607
 30
0.0
 10
26.47477209361346
 20
3.083146698699441
 30
0.0
 10
26.26221725309677
 20
3.235102669834927
 30
0.0
  0
SPLINE
  5
28B
330
1F
100
AcDbEntity
  8
SK3
  6
SLD-Dashed
370
    18
100
AcDbSpline
210
0.0
220
0.0
230
1.0
 70
     8
 71
     3
 72
     8
 73
     4
 74
     0
 42
0.000000001
 43
0.00000001
 40
0.8437499999999963
 40
0.8437499999999963
 40
0.8437499999999963
 40
0.8437499999999963
 40
0.8749999999999971
 40
0.8749999999999971
 40
0.8749999999999971
 40
0.8749999999999971
 10
26.26221725309677
 20
3.235102669834927
 30
0.0
 10
26.04966241258003
 20
3.387058640970428
 30
0.0
 10
25.84762045478675
 20
3.541552145539042
 30
0.0
 10
25.66221095955937
 20
3.687989322667687
 30
0.0
  0
SPLINE
  5
28C
330
1F
100
AcDbEntity
  8
SK3
  6
SLD-Dashed
370
    18
100
AcDbSpline
210
0.0
220
0.0
230
1.0
 70
     8
 71
     3
 72
     8
 73
     4
 74
     0
 42
0.000000001
 43
0.00000001
 40
0.8749999999999971
 40
0.8749999999999971
 40
0.8749999999999971
 40
0.8749999999999971
 40
0.9062499999999978
 40
0.9062499999999978
 40
0.9062499999999978
 40
0.9062499999999978
 10
25.66221095955937
 20
3.687989322667687
 30
0.0
 10
25.47680146433196
 20
3.834426499796331
 30
0.0
 10
25.30684718617862
 20
3.973731932099628
 30
0.0
 10
25.15294370654164
 20
4.102120735131748
 30
0.0
  0
SPLINE
  5
28D
330
1F
100
AcDbEntity
  8
SK3
  6
SLD-Dashed
370
    18
100
AcDbSpline
210
0.0
220
0.0
230
1.0
 70
     8
 71
     3
 72
     8
 73
     4
 74
     0
 42
0.000000001
 43
0.00000001
 40
0.9062499999999978
 40
0.9062499999999978
 40
0.9062499999999978
 40
0.9062499999999978
 40
0.9374999999999986
 40
0.9374999999999986
 40
0.9374999999999986
 40
0.9374999999999986
 10
25.15294370654164
 20
4.102120735131748
 30
0.0
 10
24.99904022690466
 20
4.230509538163868
 30
0.0
 10
24.85994440838879
 20
4.349160215316811
 30
0.0
 10
24.74583140794692
 20
4.447410185306241
 30
0.0
  0
SPLINE
  5
28E
330
1F
100
AcDbEntity
  8
SK3
  6
SLD-Dashed
370
    18
100
AcDbSpline
210
0.0
220
0.0
230
1.0
 70
     8
 71
     3
 72
     8
 73
     4
 74
     0
 42
0.000000001
 43
0.00000001
 40
0.9374999999999986
 40
0.9374999999999986
 40
0.9374999999999986
 40
0.9374999999999986
 40
0.9687499999999992
 40
0.9687499999999992
 40
0.9687499999999992
 40
0.9687499999999992
 10
24.74583140794692
 20
4.447410185306241
 30
0.0
 10
24.63171840750505
 20
4.545660155295658
 30
0.0
 10
24.54073627170267
 20
4.6250731687376
 30
0.0
 10
24.47842410146456
 20
4.679621709333046
 30
0.0
  0
SPLINE
  5
28F
330
1F
100
AcDbEntity
  8
SK3
  6
SLD-Dashed
370
    18
100
AcDbSpline
210
0.0
220
0.0
230
1.0
 70
     8
 71
     2
 72
     6
 73
     3
 74
     0
 42
0.000000001
 43
0.00000001
 40
0.9687499999999992
 40
0.9687499999999992
 40
0.9687499999999992
 40
1.0
 40
1.0
 40
1.0
 10
24.47842410146456
 20
4.679621709333046
 30
0.0
 10
24.41611193122645
 20
4.73417024992849
 30
0.0
 10
24.38399999999999
 20
4.762499999999989
 30
0.0
  0
SPLINE
  5
290
330
1F
100
AcDbEntity
  8
SK3
  6
SLD-Dashed
370
    18
100
AcDbSpline
210
0.0
220
0.0
230
1.0
 70
     8
 71
     3
 72
     8
 73
     4
 74
     0
 42
0.000000001
 43
0.00000001
 40
0.0
 40
0.0
 40
0.0
 40
0.0
 40
1.0
 40
1.0
 40
1.0
 40
1.0
 10
11.884595512414
 20
9.088680750586146
 30
0.0
 10
11.87318746425811
 20
9.08219128850246
 30
0.0
 10
11.86178084690448
 20
9.07562171217042
 30
0.0
 10
11.85037481024753
 20
9.068972407936887
 30
0.0
  0
SPLINE
  5
291
330
1F
100
AcDbEntity
  8
SK3
  6
SLD-Dashed
370
    18
100
AcDbSpline
210
0.0
220
0.0
230
1.0
 70
     8
 71
     3
 72
     8
 73
     4
 74
     0
 42
0.000000001
 43
0.00000001
 40
0.0
 40
0.0
 40
0.0
 40
0.0
 40
1.0
 40
1.0
 40
1.0
 40
1.0
 10
11.85037484305634
 20
5.9682091015224
 30
0.0
 10
11.8617808687456
 20
5.9750754395373
 30
0.0
 10
11.87318747516299
 20
5.982020938075906
 30
0.0
 10
11.88459551241361
 20
5.989045153007472
 30
0.0
  0
SPLINE
  5
292
330
1F
100
AcDbEntity
  8
1
  6
SLD-Dashed
370
    18
100
AcDbSpline
210
0.0
220
0.0
230
1.0
 70
    24
 71
     3
 72
     8
 73
     4
 74
     0
 42
0.000000001
 43
0.00000001
 40
0.0
 40
0.0
 40
0.0
 40
0.0
 40
0.5000000000000013
 40
0.5000000000000013
 40
0.5000000000000013
 40
0.5000000000000013
 10
3.200000000000008
 20
-22.41000000000004
 30
0.0
 10
3.277521727773375
 20
-22.41000000000007
 30
0.0
 10
3.353381647940912
 20
-22.4100000000001
 30
0.0
 10
3.41961260600801
 20
-22.41000000000012
 30
0.0
  0
SPLINE
  5
293
330
1F
100
AcDbEntity
  8
1
  6
SLD-Dashed
370
    18
100
AcDbSpline
210
0.0
220
0.0
230
1.0
 70
    24
 71
     3
 72
     8
 73
     4
 74
     0
 42
0.000000001
 43
0.00000001
 40
0.5000000000000013
 40
0.5000000000000013
 40
0.5000000000000013
 40
0.5000000000000013
 40
0.7500000000000007
 40
0.7500000000000007
 40
0.7500000000000007
 40
0.7500000000000007
 10
3.41961260600801
 20
-22.41000000000012
 30
0.0
 10
3.452728085041601
 20
-22.41000000000008
 30
0.0
 10
3.483301361658614
 20
-22.41000000000004
 30
0.0
 10
3.506578077110967
 20
-22.41
 30
0.0
  0
SPLINE
  5
294
330
1F
100
AcDbEntity
  8
1
  6
SLD-Dashed
370
    18
100
AcDbSpline
210
0.0
220
0.0
230
1.0
 70
    24
 71
     2
 72
     6
 73
     3
 74
     0
 42
0.000000001
 43
0.00000001
 40
0.7500000000000007
 40
0.7500000000000007
 40
0.7500000000000007
 40
1.0
 40
1.0
 40
1.0
 10
3.506578077110967
 20
-22.41
 30
0.0
 10
3.529854792563375
 20
-22.41
 30
0.0
 10
3.545388844998082
 20
-22.41
 30
0.0
  0
SPLINE
  5
295
330
1F
100
AcDbEntity
  8
SK3
  6
SLD-Dashed
370
    18
100
AcDbSpline
210
0.0
220
0.0
230
1.0
 70
    24
 71
     2
 72
     6
 73
     3
 74
     0
 42
0.000000001
 43
0.00000001
 40
0.0
 40
0.0
 40
0.0
 40
0.2500000000000016
 40
0.2500000000000016
 40
0.2500000000000016
 10
18.70470837592286
 20
-22.41
 30
0.0
 10
18.72021848143063
 20
-22.41
 30
0.0
 10
18.74373564595139
 20
-22.41
 30
0.0
  0
SPLINE
  5
296
330
1F
100
AcDbEntity
  8
SK3
  6
SLD-Dashed
370
    18
100
AcDbSpline
210
0.0
220
0.0
230
1.0
 70
    24
 71
     3
 72
     8
 73
     4
 74
     0
 42
0.000000001
 43
0.00000001
 40
0.2500000000000016
 40
0.2500000000000016
 40
0.2500000000000016
 40
0.2500000000000016
 40
0.5000000000000032
 40
0.5000000000000032
 40
0.5000000000000032
 40
0.5000000000000032
 10
18.74373564595139
 20
-22.41
 30
0.0
 10
18.76725281047215
 20
-22.41
 30
0.0
 10
18.79767648998923
 20
-22.41
 30
0.0
 10
18.83062851957901
 20
-22.41
 30
0.0
  0
SPLINE
  5
297
330
1F
100
AcDbEntity
  8
SK3
  6
SLD-Dashed
370
    18
100
AcDbSpline
210
0.0
220
0.0
230
1.0
 70
    24
 71
     3
 72
     8
 73
     4
 74
     0
 42
0.000000001
 43
0.00000001
 40
0.5000000000000032
 40
0.5000000000000032
 40
0.5000000000000032
 40
0.5000000000000032
 40
1.0
 40
1.0
 40
1.0
 40
1.0
 10
18.83062851957901
 20
-22.41
 30
0.0
 10
18.89653257875859
 20
-22.41
 30
0.0
 10
18.97251643453998
 20
-22.41
 30
0.0
 10
19.05000000000001
 20
-22.41
 30
0.0
  0
SPLINE
  5
298
330
1F
100
AcDbEntity
  8
SK3
  6
SLD-Dashed
370
    18
100
AcDbSpline
210
0.0
220
0.0
230
1.0
 70
     8
 71
     3
 72
    10
 73
     6
 74
     0
 42
0.000000001
 43
0.00000001
 40
0.0
 40
0.0
 40
0.0
 40
0.0
 40
0.5
 40
0.5
 40
1.0
 40
1.0
 40
1.0
 40
1.0
 10
18.55000000000001
 20
25.20500000000002
 30
0.0
 10
18.55000000000001
 20
25.27446188700638
 30
0.0
 10
18.57033165532696
 20
25.34157876899189
 30
0.0
 10
18.62822537360674
 20
25.46534569655893
 30
0.0
 10
18.66502717471819
 20
25.52292618711534
 30
0.0
 10
18.70461115500192
 20
25.5789825871648
 30
0.0
  0
SPLINE
  5
299
330
1F
100
AcDbEntity
  8
SK3
  6
SLD-Dashed
370
    18
100
AcDbSpline
210
0.0
220
0.0
230
1.0
 70
     8
 71
     3
 72
    10
 73
     6
 74
     0
 42
0.000000001
 43
0.00000001
 40
0.0
 40
0.0
 40
0.0
 40
0.0
 40
0.5
 40
0.5
 40
1.0
 40
1.0
 40
1.0
 40
1.0
 10
3.545291624077175
 20
25.57912025275685
 30
0.0
 10
3.584856617866718
 20
25.52310107590329
 30
0.0
 10
3.621570887500307
 20
25.46562249807943
 30
0.0
 10
3.679260425533594
 20
25.34260791126142
 30
0.0
 10
3.700000000000007
 20
25.27482658978053
 30
0.0
 10
3.700000000000009
 20
25.20500000000002
 30
0.0
  0
SPLINE
  5
29A
330
1F
100
AcDbEntity
  8
SK3
  6
SLD-Dashed
370
    18
100
AcDbSpline
210
0.0
220
0.0
230
1.0
 70
     8
 71
     3
 72
    40
 73
    36
 74
     0
 42
0.000000001
 43
0.00000001
 40
0.0
 40
0.0
 40
0.0
 40
0.0
 40
0.0314214559572178
 40
0.0627294389672004
 40
0.0877405066521895
 40
0.1252752326697184
 40
0.1539551384600108
 40
0.1970430837597873
 40
0.2184753360378477
 40
0.2505176110611737
 40
0.2789492345937391
 40
0.3216198597594042
 40
0.3430128235413673
 40
0.3752634384750793
 40
0.4040010771804458
 40
0.4468656794915723
 40
0.468215945936246
 40
0.5002096454814972
 40
0.528675413734447
 40
0.5715400247765458
 40
0.5931009716299191
 40
0.6253883780511656
 40
0.6539191343952843
 40
0.6965914244566831
 40
0.7179237821488444
 40
0.7499746494270431
 40
0.7785976316863417
 40
0.7958543398127828
 40
0.8217160693566459
 40
0.8431552865480468
 40
0.8751886732441888
 40
0.9000580147531506
 40
0.9373794059838182
 40
0.9685930788650364
 40
1.0
 40
1.0
 40
1.0
 40
1.0
 10
3.545388844996975
 20
-29.80485527420156
 30
0.0
 10
3.545480197135412
 20
-29.81164440520863
 30
0.0
 10
3.545662571510403
 20
-29.82519814949494
 30
0.0
 10
3.547032714046942
 20
-29.84411564286316
 30
0.0
 10
3.549278621227534
 20
-29.86427043795788
 30
0.0
 10
3.55238381506923
 20
-29.8837459003967
 30
0.0
 10
3.557241214189629
 20
-29.90686111791881
 30
0.0
 10
3.562435988465537
 20
-29.92633239392607
 30
0.0
 10
3.5687803392388
 20
-29.94620899181592
 30
0.0
 10
3.574836423905244
 20
-29.96284451017946
 30
0.0
 10
3.583406089825355
 20
-29.98342104192837
 30
0.0
 10
3.592077830421066
 20
-30.00144320563149
 30
0.0
 10
3.602002400646289
 20
-30.01973532130884
 30
0.0
 10
3.611129444211993
 20
-30.03502499592773
 30
0.0
 10
3.623520615641669
 20
-30.05373739733253
 30
0.0
 10
3.635525817110187
 20
-30.06985792745888
 30
0.0
 10
3.648757943677695
 20
-30.08589113400061
 30
0.0
 10
3.660571393172081
 20
-30.09904955418674
 30
0.0
 10
3.676259568084512
 20
-30.11493869793387
 30
0.0
 10
3.691152319419495
 20
-30.12841850148094
 30
0.0
 10
3.707345738384383
 20
-30.14162746303267
 30
0.0
 10
3.72161199707094
 20
-30.15228399886392
 30
0.0
 10
3.740164285063686
 20
-30.16477481501948
 30
0.0
 10
3.757375549684084
 20
-30.17498291258005
 30
0.0
 10
3.775753926809067
 20
-30.18462804605823
 30
0.0
 10
3.791792461294158
 20
-30.19217667946795
 30
0.0
 10
3.807369256512039
 20
-30.19858412923172
 30
0.0
 10
3.821916756260091
 20
-30.20393768674579
 30
0.0
 10
3.83517335044195
 20
-30.20828861199454
 30
0.0
 10
3.851657250142998
 20
-30.21299666641908
 30
0.0
 10
3.868130598975172
 20
-30.21692139734516
 30
0.0
 10
3.888137813528675
 20
-30.22070805124266
 30
0.0
 10
3.908147752578917
 20
-30.22341140281245
 30
0.0
 10
3.929683046762805
 20
-30.22516290854708
 30
0.0
 10
3.943213763576925
 20
-30.22536701808867
 30
0.0
 10
3.949999999998899
 20
-30.22546938780229
 30
0.0
  0
SPLINE
  5
29B
330
1F
100
AcDbEntity
  8
1
  6
SLD-Dashed
370
    18
100
AcDbSpline
210
0.0
220
0.0
230
1.0
 70
     8
 71
     3
 72
     8
 73
     4
 74
     0
 42
0.000000001
 43
0.00000001
 40
0.0
 40
0.0
 40
0.0
 40
0.0
 40
1.0
 40
1.0
 40
1.0
 40
1.0
 10
14.37601294652263
 20
-30.22558142012644
 30
0.0
 10
13.92634047615438
 20
-29.41927694377227
 30
0.0
 10
13.47758735871732
 20
-28.61247603335391
 30
0.0
 10
13.03000000000001
 20
-27.8050456341729
 30
0.0
  0
SPLINE
  5
29C
330
1F
100
AcDbEntity
  8
1
  6
SLD-Dashed
370
    18
100
AcDbSpline
210
0.0
220
0.0
230
1.0
 70
     8
 71
     3
 72
    10
 73
     6
 74
     0
 42
0.000000001
 43
0.00000001
 40
0.0
 40
0.0
 40
0.0
 40
0.0
 40
0.5
 40
0.5
 40
1.0
 40
1.0
 40
1.0
 40
1.0
 10
13.03000000000004
 20
-27.76916635406973
 30
0.0
 10
13.03000000000001
 20
-27.56948960726649
 30
0.0
 10
12.9530257332551
 20
-27.36838646497956
 30
0.0
 10
12.67905057581473
 20
-27.07630005005161
 30
0.0
 10
12.48172757240076
 20
-26.98706356756882
 30
0.0
 10
12.28000000000001
 20
-26.98706356756882
 30
0.0
  0
SPLINE
  5
29D
330
1F
100
AcDbEntity
  8
1
  6
SLD-Dashed
370
    18
100
AcDbSpline
210
0.0
220
0.0
230
1.0
 70
     8
 71
     3
 72
    10
 73
     6
 74
     0
 42
0.000000001
 43
0.00000001
 40
0.0
 40
0.0
 40
0.0
 40
0.0
 40
0.5
 40
0.5
 40
1.0
 40
1.0
 40
1.0
 40
1.0
 10
9.950000000000635
 20
-26.98706356756945
 30
0.0
 10
9.74844149509153
 20
-26.98706356756928
 30
0.0
 10
9.550692481024285
 20
-27.07656444408194
 30
0.0
 10
9.277196882747146
 20
-27.36815866851929
 30
0.0
 10
9.200000000000156
 20
-27.56927498425101
 30
0.0
 10
9.199999999999985
 20
-27.76916635406976
 30
0.0
  0
SPLINE
  5
29E
330
1F
100
AcDbEntity
  8
1
  6
SLD-Dashed
370
    18
100
AcDbSpline
210
0.0
220
0.0
230
1.0
 70
     8
 71
     3
 72
     8
 73
     4
 74
     0
 42
0.000000001
 43
0.00000001
 40
0.0
 40
0.0
 40
0.0
 40
0.0
 40
1.0
 40
1.0
 40
1.0
 40
1.0
 10
9.199999999998848
 20
-27.80504563417607
 30
0.0
 10
8.752433371354618
 20
-28.61243863710177
 30
0.0
 10
8.303701091401383
 20
-29.41920220926472
 30
0.0
 10
7.854049533406126
 20
-30.22546938780228
 30
0.0
  0
SPLINE
  5
29F
330
1F
100
AcDbEntity
  8
SK3
  6
SLD-Dashed
370
    18
100
AcDbSpline
210
0.0
220
0.0
230
1.0
 70
     8
 71
     3
 72
    40
 73
    36
 74
     0
 42
0.000000001
 43
0.00000001
 40
0.0
 40
0.0
 40
0.0
 40
0.0
 40
0.0126129321449749
 40
0.0314976481339587
 40
0.0629183966702574
 40
0.0880663439714092
 40
0.1258663548219046
 40
0.1545361786951767
 40
0.1972635113751502
 40
0.2185774264758776
 40
0.250549973449914
 40
0.2790323571745715
 40
0.3220275475257097
 40
0.3436168159336435
 40
0.3758133620275704
 40
0.4042898095068478
 40
0.4468993710431288
 40
0.4682109723921613
 40
0.5002437124696372
 40
0.528853388731771
 40
0.5719828275869605
 40
0.593442063717947
 40
0.6254916984483689
 40
0.6539107272569482
 40
0.6965262692674938
 40
0.7178823906336926
 40
0.7500313093276828
 40
0.7787800102949213
 40
0.8217645159397994
 40
0.8431483194632984
 40
0.8751517844153632
 40
0.9000181010942335
 40
0.937358773167723
 40
0.9685909586685477
 40
1.0
 40
1.0
 40
1.0
 40
1.0
 10
18.30000000000001
 20
-30.22558142012644
 30
0.0
 10
18.30272569594446
 20
-30.22556434752626
 30
0.0
 10
18.3095324408625
 20
-30.22552171297095
 30
0.0
 10
18.32312192068608
 20
-30.22500449703674
 30
0.0
 10
18.33938544977021
 20
-30.2237321465761
 30
0.0
 10
18.35962263823535
 20
-30.22117483723599
 30
0.0
 10
18.3791234281469
 20
-30.21766990056754
 30
0.0
 10
18.40209059735812
 20
-30.21222207486888
 30
0.0
 10
18.42129623800884
 20
-30.20644931168887
 30
0.0
 10
18.44082755863402
 20
-30.19943885792772
 30
0.0
 10
18.45718998570672
 20
-30.19274290252151
 30
0.0
 10
18.47744321243869
 20
-30.18326307338969
 30
0.0
 10
18.49514777026506
 20
-30.17368149208102
 30
0.0
 10
18.51299887024299
 20
-30.16277896347599
 30
0.0
 10
18.52776206933995
 20
-30.15285978975095
 30
0.0
 10
18.54566370706715
 20
-30.13951958199504
 30
0.0
 10
18.56098911735463
 20
-30.12669241147175
 30
0.0
 10
18.57619506813987
 20
-30.11259090122095
 30
0.0
 10
18.5886714738227
 20
-30.10000934793472
 30
0.0
 10
18.60368863236059
 20
-30.08334675455741
 30
0.0
 10
18.61632529126056
 20
-30.06764146706471
 30
0.0
 10
18.62858943392448
 20
-30.05073531892072
 30
0.0
 10
18.63838877637
 20
-30.03598007669226
 30
0.0
 10
18.64984348721726
 20
-30.0168676964732
 30
0.0
 10
18.65917024991939
 20
-29.99919574996971
 30
0.0
 10
18.66796418712433
 20
-29.98037484052357
 30
0.0
 10
18.67483422118338
 20
-29.9639724636136
 30
0.0
 10
18.68255017034246
 20
-29.9428852210956
 30
0.0
 10
18.68844193362829
 20
-29.92362739014023
 30
0.0
 10
18.69357143260816
 20
-29.90344062129119
 30
0.0
 10
18.69708101840337
 20
-29.88689085311748
 30
0.0
 10
18.70046357426516
 20
-29.86681061568805
 30
0.0
 10
18.70287526281564
 20
-29.8467534361267
 30
0.0
 10
18.70443558087195
 20
-29.82519260420408
 30
0.0
 10
18.70461727324776
 20
-29.8116545743803
 30
0.0
 10
18.70470837592294
 20
-29.80486644841622
 30
0.0
  0
SPLINE
  5
2A0
330
1F
100
AcDbEntity
  8
SK3
  6
SLD-Dashed
370
    18
100
AcDbSpline
210
0.0
220
0.0
230
1.0
 70
     8
 71
     3
 72
    39
 73
    35
 74
     0
 42
0.000000001
 43
0.00000001
 40
0.0
 40
0.0
 40
0.0
 40
0.0
 40
0.0314091160307677
 40
0.062641375864154
 40
0.0875470935131889
 40
0.1248485138287462
 40
0.1532930400450872
 40
0.1960941157944515
 40
0.2176225947738144
 40
0.2499693772004302
 40
0.2785546285585205
 40
0.3212364873026964
 40
0.3425405354923894
 40
0.3745092858974103
 40
0.4029918411019262
 40
0.4459785689856202
 40
0.4675618916159423
 40
0.4997576608210476
 40
0.5282368343000382
 40
0.5708480092883969
 40
0.5921584935845849
 40
0.624188332845246
 40
0.6527986190299447
 40
0.6959401501309724
 40
0.7174023419155647
 40
0.7494519752642036
 40
0.7778741158300034
 40
0.8205144520917296
 40
0.8418962920619176
 40
0.8741359236783779
 40
0.8993502252909584
 40
0.9370840470446232
 40
0.9685048711195082
 40
1.0
 40
1.0
 40
1.0
 40
1.0
 10
18.70461115500985
 20
29.80485527419817
 30
0.0
 10
18.70452025145725
 20
29.81164171345374
 30
0.0
 10
18.70433895620524
 20
29.82517637936957
 30
0.0
 10
18.70297056620454
 20
29.84405190465701
 30
0.0
 10
18.70074103177402
 20
29.86411824570148
 30
0.0
 10
18.69766377515034
 20
29.8834722762257
 30
0.0
 10
18.69285822026115
 20
29.90643124843548
 30
0.0
 10
18.68771177438569
 20
29.92581971282414
 30
0.0
 10
18.68138591065016
 20
29.94572790966316
 30
0.0
 10
18.67530704308149
 20
29.96248267210248
 30
0.0
 10
18.6667122239598
 20
29.98315850998384
 30
0.0
 10
18.65804498469564
 20
30.00120090567654
 30
0.0
 10
18.64816898128024
 20
30.0194308110764
 30
0.0
 10
18.63912598787448
 20
30.03461278108215
 30
0.0
 10
18.62681037274913
 20
30.05326734966753
 30
0.0
 10
18.61481562185355
 20
30.06942261759871
 30
0.0
 10
18.60152603093204
 20
30.08556438898101
 30
0.0
 10
18.58965984266755
 20
30.0988057483822
 30
0.0
 10
18.57398746851072
 20
30.11469877887862
 30
0.0
 10
18.55918618112101
 20
30.12812096686802
 30
0.0
 10
18.54313791074355
 20
30.14124723286357
 30
0.0
 10
18.52896425934347
 20
30.15187245989078
 30
0.0
 10
18.51038407955238
 20
30.16443427377509
 30
0.0
 10
18.49306028315103
 20
30.17474090541239
 30
0.0
 10
18.47457768708172
 20
30.18446497823753
 30
0.0
 10
18.45855895707194
 20
30.19201976729599
 30
0.0
 10
18.43796004437989
 20
30.20051935318394
 30
0.0
 10
18.41906612593452
 20
30.20705284128371
 30
0.0
 10
18.39907752150724
 20
30.21280585013025
 30
0.0
 10
18.38250765202359
 20
30.21678677988686
 30
0.0
 10
18.36230136175806
 20
30.22064109222357
 30
0.0
 10
18.34208698504225
 20
30.22338985618059
 30
0.0
 10
18.32039969465099
 20
30.22516034748687
 30
0.0
 10
18.30680524997877
 20
30.22536629328658
 30
0.0
 10
18.300000000008
 20
30.22546938779913
 30
0.0
  0
SPLINE
  5
2A1
330
1F
100
AcDbEntity
  8
SK3
  6
SLD-Dashed
370
    18
100
AcDbSpline
210
0.0
220
0.0
230
1.0
 70
     8
 71
     3
 72
    40
 73
    36
 74
     0
 42
0.000000001
 43
0.00000001
 40
0.0
 40
0.0
 40
0.0
 40
0.0
 40
0.0125929119920799
 40
0.0314096195346371
 40
0.0626234169499144
 40
0.0875147363747578
 40
0.1248144128307291
 40
0.1532834083387329
 40
0.1962265830891804
 40
0.2178107992109905
 40
0.2500224951329297
 40
0.2785169301551935
 40
0.3211718523043735
 40
0.3425182663517212
 40
0.3746092478105252
 40
0.4033018002026009
 40
0.4463503818994297
 40
0.4677602234265738
 40
0.4997883410590129
 40
0.5282270395863776
 40
0.5709521530205359
 40
0.592413861861735
 40
0.6247350591047609
 40
0.6534144483970886
 40
0.696168319941901
 40
0.717496931450338
 40
0.7494813527194164
 40
0.7779588669976948
 40
0.8208766717687338
 40
0.8424514691504659
 40
0.8747242821794735
 40
0.8997563983109476
 40
0.9372703102803513
 40
0.9685784185325865
 40
1.0
 40
1.0
 40
1.0
 40
1.0
 10
3.950000000000003
 20
30.22558142012639
 30
0.0
 10
3.947278630487599
 20
30.22556441746848
 30
0.0
 10
3.940490908866772
 20
30.22552200892814
 30
0.0
 10
3.926965088488743
 20
30.22500878447086
 30
0.0
 10
3.910815897791791
 20
30.22374990827882
 30
0.0
 10
3.890783626647181
 20
30.22123374888839
 30
0.0
 10
3.871482565347217
 20
30.21779055348816
 30
0.0
 10
3.848607405882298
 20
30.21241015713829
 30
0.0
 10
3.829331319368878
 20
30.20665667098931
 30
0.0
 10
3.809642218453973
 20
30.19962160064929
 30
0.0
 10
3.793167806815511
 20
30.19290122073895
 30
0.0
 10
3.772924482298206
 20
30.18344563237708
 30
0.0
 10
3.755317616591696
 20
30.17394373601331
 30
0.0
 10
3.737577171360717
 20
30.16314575471339
 30
0.0
 10
3.722818978858837
 20
30.15327064640551
 30
0.0
 10
3.704798099920047
 20
30.13989144466213
 30
0.0
 10
3.68933246627872
 20
30.12697740010818
 30
0.0
 10
3.674029699770646
 20
30.11281096127927
 30
0.0
 10
3.661557220132553
 20
30.10024903998077
 30
0.0
 10
3.646609511589675
 20
30.08369276015743
 30
0.0
 10
3.634030514372686
 20
30.06810049270646
 30
0.0
 10
3.621756928744938
 20
30.0512360070818
 30
0.0
 10
3.611872616558007
 20
30.03639837328909
 30
0.0
 10
3.600324644432431
 20
30.01717281850423
 30
0.0
 10
3.590949392450407
 20
29.99943559548712
 30
0.0
 10
3.582148995017373
 20
29.98063051707893
 30
0.0
 10
3.575306871630842
 20
29.96432508828283
 30
0.0
 10
3.567606450656893
 20
29.94334796470473
 30
0.0
 10
3.561699011690668
 20
29.92412819400954
 30
0.0
 10
3.556524840089355
 20
29.90386495846921
 30
0.0
 10
3.552972986099541
 20
29.88718562683121
 30
0.0
 10
3.549559886390265
 20
29.86697716337638
 30
0.0
 10
3.547128888650071
 20
29.84683182165025
 30
0.0
 10
3.545565946831271
 20
29.82521437831678
 30
0.0
 10
3.545383175201828
 20
29.81165726630967
 30
0.0
 10
3.545291624077175
 20
29.8048664484163
 30
0.0
  0
SPLINE
  5
2A2
330
1F
100
AcDbEntity
  8
1
  6
SLD-Dashed
370
    18
100
AcDbSpline
210
0.0
220
0.0
230
1.0
 70
     8
 71
     3
 72
     8
 73
     4
 74
     0
 42
0.000000001
 43
0.00000001
 40
0.0
 40
0.0
 40
0.0
 40
0.0
 40
1.0
 40
1.0
 40
1.0
 40
1.0
 10
9.199999999999985
 20
27.8050456341729
 30
0.0
 10
8.752403481898929
 20
28.61249255653032
 30
0.0
 10
8.30365062048366
 20
29.41929290832669
 30
0.0
 10
7.853987053477396
 20
30.22558142012642
 30
0.0
  0
SPLINE
  5
2A3
330
1F
100
AcDbEntity
  8
1
  6
SLD-Dashed
370
    18
100
AcDbSpline
210
0.0
220
0.0
230
1.0
 70
     8
 71
     3
 72
    12
 73
     8
 74
     0
 42
0.000000001
 43
0.00000001
 40
0.0
 40
0.0
 40
0.0
 40
0.0
 40
0.2499999999999984
 40
0.2499999999999984
 40
0.4999999999999969
 40
0.4999999999999969
 40
1.0
 40
1.0
 40
1.0
 40
1.0
 10
9.949999999999994
 20
26.98706356756881
 30
0.0
 10
9.85014945204294
 20
26.9870635675688
 30
0.0
 10
9.74813420942811
 20
27.00887348025308
 30
0.0
 10
9.565410104204535
 20
27.0898925831707
 30
0.0
 10
9.48198482436891
 20
27.14976438531446
 30
0.0
 10
9.277274567403408
 20
27.36818499553366
 30
0.0
 10
9.200000000000015
 20
27.56879736260814
 30
0.0
 10
9.200000000000014
 20
27.76916635406977
 30
0.0
  0
SPLINE
  5
2A4
330
1F
100
AcDbEntity
  8
1
  6
SLD-Dashed
370
    18
100
AcDbSpline
210
0.0
220
0.0
230
1.0
 70
     8
 71
     3
 72
    12
 73
     8
 74
     0
 42
0.000000001
 43
0.00000001
 40
0.0
 40
0.0
 40
0.0
 40
0.0
 40
0.2500000000000007
 40
0.2500000000000007
 40
0.5000000000000014
 40
0.5000000000000014
 40
1.0
 40
1.0
 40
1.0
 40
1.0
 10
13.03000000000001
 20
27.76916635406976
 30
0.0
 10
13.03000000000001
 20
27.66900663339827
 30
0.0
 10
13.01145353522917
 20
27.56910146598284
 30
0.0
 10
12.93858199206007
 20
27.3817824466198
 30
0.0
 10
12.88523035542463
 20
27.29613295246497
 30
0.0
 10
12.67790477657024
 20
27.07503152815012
 30
0.0
 10
12.47994383972986
 20
26.98706356756885
 30
0.0
 10
12.28000000000001
 20
26.98706356756882
 30
0.0
  0
SPLINE
  5
2A5
330
1F
100
AcDbEntity
  8
1
  6
SLD-Dashed
370
    18
100
AcDbSpline
210
0.0
220
0.0
230
1.0
 70
     8
 71
     3
 72
     8
 73
     4
 74
     0
 42
0.000000001
 43
0.00000001
 40
0.0
 40
0.0
 40
0.0
 40
0.0
 40
1.0
 40
1.0
 40
1.0
 40
1.0
 10
14.37595046659276
 20
30.22546938779913
 30
0.0
 10
13.9263078111953
 20
29.41921817244965
 30
0.0
 10
13.47757578719339
 20
28.61245515876935
 30
0.0
 10
13.03000000000001
 20
27.8050456341729
 30
0.0
  0
SPLINE
  5
2A6
330
1F
100
AcDbEntity
  8
SK3
  6
SLD-Dashed
370
    18
100
AcDbSpline
210
0.0
220
0.0
230
1.0
 70
    24
 71
     3
 72
    16
 73
    12
 74
     0
 42
0.000000001
 43
0.00000001
 40
0.0
 40
0.0
 40
0.0
 40
0.0
 40
0.2499999999999992
 40
0.2499999999999992
 40
0.3749999999999986
 40
0.3749999999999986
 40
0.4999999999999986
 40
0.4999999999999986
 40
0.7499999999999992
 40
0.7499999999999992
 40
1.0
 40
1.0
 40
1.0
 40
1.0
 10
19.05000000000001
 20
6.648814321294674
 30
0.0
 10
19.05000000000001
 20
6.88369698095874
 30
0.0
 10
19.05000000000001
 20
7.138039090382215
 30
0.0
 10
19.05000000000001
 20
7.559342302183775
 30
0.0
 10
19.05000000000001
 20
7.706203281714896
 30
0.0
 10
19.05000000000001
 20
8.006602996866064
 30
0.0
 10
19.05000000000001
 20
8.161019378688266
 30
0.0
 10
19.05000000000001
 20
8.637259463910919
 30
0.0
 10
19.04999999999998
 20
8.9751820293507
 30
0.0
 10
19.05000000000001
 20
9.648952583665674
 30
0.0
 10
19.05000000000001
 20
9.991071736925248
 30
0.0
 10
19.05000000000001
 20
10.32953861099388
 30
0.0
  0
ELLIPSE
  5
2A7
330
1F
100
AcDbEntity
  8
SK3
  6
SLD-Dashed
370
    18
100
AcDbEllipse
 10
11.8871133473
 20
-7.5191393683
 30
0.0
 11
0.03385882744891333
 21
1.688460908529115
 31
0.0
210
0.0
220
0.0
230
1.0
 40
0.046392465
 41
0.4375032044851694
 42
3.520077657885808
  0
ELLIPSE
  5
2A8
330
1F
100
AcDbEntity
  8
SK3
  6
SLD-Dashed
370
    18
100
AcDbEllipse
 10
11.8871133473
 20
-7.5191393683
 30
0.0
 11
3.067832073467864
 21
-0.06151945614674225
 31
0.0
210
0.0
220
0.0
230
1.0
 40
0.505226194
 41
1.592902384961721
 42
4.71054489232521
  0
ELLIPSE
  5
2A9
330
1F
100
AcDbEntity
  8
SK3
  6
SLD-Dashed
370
    18
100
AcDbEllipse
 10
11.8871133473
 20
7.5191393683
 30
0.0
 11
3.067832073253562
 21
0.06151945614242571
 31
0.0
210
0.0
220
0.0
230
1.0
 40
0.505226194
 41
1.572640414835036
 42
4.690282922216994
  0
ELLIPSE
  5
2AA
330
1F
100
AcDbEntity
  8
SK3
  6
SLD-Dashed
370
    18
100
AcDbEllipse
 10
11.8871133473
 20
7.5191393683
 30
0.0
 11
-0.03385882744888491
 21
1.688460908529116
 31
0.0
210
0.0
220
0.0
230
1.0
 40
0.046392465
 41
5.904700302884837
 42
8.98727475614276
  0
DIMENSION
  5
2AB
330
1F
100
AcDbEntity
  8
2
100
AcDbDimension
  2
_D
 10
44.45
 20
48.9554563738
 30
0.0
 11
19.5865849105
 21
48.9554563738
 31
0.0
 70
   160
  1
<>
 71
     2
 42
-1.0
  3
SLDDIMSTYLE0
100
AcDbAlignedDimension
 13
0.0
 23
22.225
 33
0.0
 14
44.45
 24
9.91
 34
0.0
100
AcDbRotatedDimension
  0
DIMENSION
  5
2C0
330
1F
100
AcDbEntity
  8
SK2
100
AcDbDimension
  2
_D_1
 10
44.45
 20
36.3664251339
 30
0.0
 11
31.6673158075
 21
36.3664251339
 31
0.0
 70
   160
  1
<>
 71
     2
 42
-1.0
  3
SLDDIMSTYLE0
100
AcDbAlignedDimension
 13
19.05
 23
29.8048664484
 33
0.0
 14
44.45
 24
9.91
 34
0.0
100
AcDbRotatedDimension
  0
DIMENSION
  5
2D3
330
1F
100
AcDbEntity
  8
SK2
100
AcDbDimension
  2
_D_2
 10
44.45
 20
22.0516254344
 30
0.0
 11
36.4408474911
 21
22.0516254344
 31
0.0
 70
   160
  1
<>
 71
     2
 42
-1.0
  3
SLDDIMSTYLE0
100
AcDbAlignedDimension
 13
28.575
 23
7.98125
 33
0.0
 14
44.45
 24
9.91
 34
0.0
100
AcDbRotatedDimension
  0
DIMENSION
  5
2E6
330
1F
100
AcDbEntity
  8
SK2
100
AcDbDimension
  2
_D_3
 10
61.5548878447
 20
-4.7625
 30
0.0
 11
61.5548878447
 21
22.0516254344
 31
0.0
 70
   160
  1
%%c<>
 71
     2
 42
-1.0
  3
SLDDIMSTYLE1
100
AcDbAlignedDimension
 13
38.2288476495
 23
4.7625
 33
0.0
 14
43.7
 24
-4.7625
 34
0.0
 50
90.0
100
AcDbRotatedDimension
  0
DIMENSION
  5
2FB
330
1F
100
AcDbEntity
  8
SK2
100
AcDbDimension
  2
_D_4
 10
77.6984741636
 20
-9.91
 30
0.0
 11
77.6984741636
 21
-0.0441555094
 31
0.0
 70
   160
  1
%%c<>
 71
     2
 42
-1.0
  3
SLDDIMSTYLE0
100
AcDbAlignedDimension
 13
44.45
 23
9.91
 33
0.0
 14
44.45
 24
-9.91
 34
0.0
 50
90.0
100
AcDbRotatedDimension
  0
DIMENSION
  5
30D
330
1F
100
AcDbEntity
  8
SK2
100
AcDbDimension
  2
_D_5
 10
92.8116188026
 20
-12.7
 30
0.0
 11
92.8116188026
 21
0.8145458905
 31
0.0
 70
   160
  1
%%c<>
 71
     2
 42
-1.0
  3
SLDDIMSTYLE0
100
AcDbAlignedDimension
 13
41.66
 23
12.7
 33
0.0
 14
41.66
 24
-12.7
 34
0.0
 50
90.0
100
AcDbRotatedDimension
  0
DIMENSION
  5
31F
330
1F
100
AcDbEntity
  8
SK2
100
AcDbDimension
  2
_D_6
 10
44.45
 20
-42.0712021712
 30
0.0
 11
28.4779358838
 21
-42.0712021712
 31
0.0
 70
   160
  1
<>
 71
     2
 42
-1.0
  3
SLDDIMSTYLE0
100
AcDbAlignedDimension
 13
6.3479512444
 23
-4.7625
 33
0.0
 14
44.45
 24
-9.91
 34
0.0
100
AcDbRotatedDimension
  0
DIMENSION
  5
332
330
1F
100
AcDbEntity
  8
SK2
100
AcDbDimension
  2
_D_7
 10
44.45
 20
-24.38986563
 30
0.0
 11
34.9628520113
 21
-24.38986563
 31
0.0
 70
   160
  1
<>
 71
     2
 42
-1.0
  3
SLDDIMSTYLE2
100
AcDbAlignedDimension
 13
41.66
 23
-12.7
 33
0.0
 14
44.45
 24
-9.91
 34
0.0
100
AcDbRotatedDimension
  0
DIMENSION
  5
33F
330
1F
100
AcDbEntity
  8
SK2
100
AcDbDimension
  2
_D_8
 10
44.45
 20
-50.668260916
 30
0.0
 11
-20.2627420289
 21
-50.668260916
 31
0.0
 70
   160
  1
<>
 71
     2
 42
-1.0
  3
SLDDIMSTYLE3
100
AcDbAlignedDimension
 13
-68.25
 23
-11.1476148288
 33
0.0
 14
44.45
 24
-9.91
 34
0.0
 50
0.0
100
AcDbRotatedDimension
  0
DIMENSION
  5
353
330
1F
100
AcDbEntity
  8
SK2
100
AcDbDimension
  2
_D_9
 10
-87.8144774701
 20
-30.5579086614
 30
0.0
 11
-87.8144774701
 21
-2.2994488986
 31
0.0
 70
   160
  1
%%c<>
 71
     2
 42
-1.0
  3
SLDDIMSTYLE4
100
AcDbAlignedDimension
 13
3.95
 23
30.5578899967
 33
0.0
 14
3.95
 24
-30.5579086614
 34
0.0
 50
90.0
100
AcDbRotatedDimension
  0
DIMENSION
  5
35F
330
1F
100
AcDbEntity
  8
SK2
100
AcDbDimension
  2
_D_10
 10
-78.172902171
 20
-7.9375002533
 30
0.0
 11
-78.172902171
 21
1.4090636452
 31
0.0
 70
   160
  1
<>
 71
     2
 42
-1.0
  3
SLDDIMSTYLE5
100
AcDbAlignedDimension
 13
-63.3082389832
 23
7.9375002533
 33
0.0
 14
-63.3082389832
 24
-7.9375002533
 34
0.0
 50
90.0
100
AcDbRotatedDimension
  0
DIMENSION
  5
36D
330
1F
100
AcDbEntity
  8
SK2
100
AcDbDimension
  2
_D_11
 10
19.05
 20
36.3664251339
 30
0.0
 11
9.1376494775
 21
36.3664251339
 31
0.0
 70
   160
  1
<>
 71
     2
 42
-1.0
  3
SLDDIMSTYLE4
100
AcDbAlignedDimension
 13
0.0
 23
22.225
 33
0.0
 14
19.05
 24
29.8048664484
 34
0.0
100
AcDbRotatedDimension
  0
MTEXT
  5
377
330
1F
100
AcDbEntity
  8
SK6
 62
     5
100
AcDbMText
 10
-55.1331435124
 20
-22.442213734
 30
0.0
 40
3.5
 41
0.0
 71
     1
 72
     1
  1
AA3B20-40 09 044
  7
SLDTEXTSTYLE0
 73
     1
 44
1.0
  0
MTEXT
  5
378
330
1F
100
AcDbEntity
  8
SK6
 62
     5
100
AcDbMText
 10
-57.5059466741
 20
27.0884647259
 30
0.0
 40
3.5
 41
0.0
 71
     1
 72
     1
  1
ASME B5.50 CAT 40
  7
SLDTEXTSTYLE0
 73
     1
 44
1.0
  0
ENDSEC
  0
SECTION
  2
OBJECTS
  0
DICTIONARY
  5
C
330
0
100
AcDbDictionary
281
     1
  3
ACAD_GROUP
350
D
  3
ACAD_LAYOUT
350
1A
  3
ACAD_MLINESTYLE
350
17
  3
ACAD_PLOTSETTINGS
350
19
  3
ACAD_PLOTSTYLENAME
350
E
  3
ACAD_SCALELIST
350
47
  0
DICTIONARY
  5
D
102
{ACAD_REACTORS
330
C
102
}
330
C
100
AcDbDictionary
281
     1
  0
DICTIONARY
  5
1A
102
{ACAD_REACTORS
330
C
102
}
330
C
100
AcDbDictionary
281
     1
  3
Layout1
350
1E
  3
Layout2
350
26
  3
Model
350
22
  0
DICTIONARY
  5
17
102
{ACAD_REACTORS
330
C
102
}
330
C
100
AcDbDictionary
281
     1
  3
Standard
350
18
  0
DICTIONARY
  5
19
102
{ACAD_REACTORS
330
C
102
}
330
C
100
AcDbDictionary
281
     1
  0
ACDBDICTIONARYWDFLT
  5
E
102
{ACAD_REACTORS
330
C
102
}
330
C
100
AcDbDictionary
281
     1
  3
Normal
350
F
100
AcDbDictionaryWithDefault
340
F
  0
DICTIONARY
  5
47
102
{ACAD_REACTORS
330
C
102
}
330
C
100
AcDbDictionary
281
     1
  3
A0
350
48
  3
A1
350
49
  3
A2
350
4A
  3
A3
350
4B
  3
A4
350
4C
  3
A5
350
4D
  3
A6
350
4E
  3
A7
350
4F
  3
A8
350
50
  3
A9
350
51
  3
B0
350
52
  3
B1
350
53
  3
B2
350
54
  3
B3
350
55
  3
B4
350
56
  3
B5
350
57
  3
B6
350
58
  3
B7
350
59
  3
B8
350
5A
  3
B9
350
5B
  3
C0
350
5C
  3
C1
350
5D
  3
C2
350
5E
  3
C3
350
5F
  3
C4
350
60
  3
C5
350
61
  3
C6
350
62
  3
C7
350
63
  3
C8
350
64
  3
C9
350
65
  3
D0
350
66
  3
D1
350
67
  3
D2
350
68
  0
LAYOUT
  5
1E
102
{ACAD_REACTORS
330
1A
102
}
330
1A
100
AcDbPlotSettings
  1

  2
none_device
  4

  6

 40
0.0
 41
0.0
 42
0.0
 43
0.0
 44
0.0
 45
0.0
 46
0.0
 47
0.0
 48
0.0
 49
0.0
140
0.0
141
0.0
142
1.0
143
1.0
 70
   688
 72
     1
 73
     0
 74
     5
  7

 75
    16
147
1.0
148
0.0
149
0.0
100
AcDbLayout
  1
Layout1
 70
     1
 71
     1
 10
0.0
 20
0.0
 11
420.0
 21
297.0
 12
0.0
 22
0.0
 32
0.0
 14
1.0000000000E+20
 24
1.0000000000E+20
 34
1.0000000000E+20
 15
-1.0000000000E+20
 25
-1.0000000000E+20
 35
-1.0000000000E+20
146
0.0
 13
0.0
 23
0.0
 33
0.0
 16
1.0
 26
0.0
 36
0.0
 17
0.0
 27
1.0
 37
0.0
 76
     0
330
1B
  0
LAYOUT
  5
26
102
{ACAD_REACTORS
330
1A
102
}
330
1A
100
AcDbPlotSettings
  1

  2
none_device
  4

  6

 40
0.0
 41
0.0
 42
0.0
 43
0.0
 44
0.0
 45
0.0
 46
0.0
 47
0.0
 48
0.0
 49
0.0
140
0.0
141
0.0
142
1.0
143
1.0
 70
   688
 72
     1
 73
     0
 74
     5
  7

 75
    16
147
1.0
148
0.0
149
0.0
100
AcDbLayout
  1
Layout2
 70
     1
 71
     2
 10
0.0
 20
0.0
 11
0.0
 21
0.0
 12
0.0
 22
0.0
 32
0.0
 14
0.0
 24
0.0
 34
0.0
 15
0.0
 25
0.0
 35
0.0
146
0.0
 13
0.0
 23
0.0
 33
0.0
 16
1.0
 26
0.0
 36
0.0
 17
0.0
 27
1.0
 37
0.0
 76
     0
330
23
  0
LAYOUT
  5
22
102
{ACAD_REACTORS
330
1A
102
}
330
1A
100
AcDbPlotSettings
  1

  2
none_device
  4
Letter_(8.50_x_11.00_Inches)
  6

 40
6.35
 41
6.35
 42
6.35000508
 43
6.35000508
 44
215.9
 45
279.4
 46
0.0
 47
0.0
 48
0.0
 49
0.0
140
0.0
141
0.0
142
1.0
143
1.0
 70
  1712
 72
     1
 73
     0
 74
     0
  7

 75
     0
147
1.0
148
0.0
149
0.0
100
AcDbLayout
  1
Model
 70
     1
 71
     0
 10
0.0
 20
0.0
 11
297.0
 21
210.0
 12
0.0
 22
0.0
 32
0.0
 14
0.0
 24
0.0
 34
0.0
 15
297.0
 25
210.0
 35
0.0
146
0.0
 13
0.0
 23
0.0
 33
0.0
 16
1.0
 26
0.0
 36
0.0
 17
0.0
 27
1.0
 37
0.0
 76
     0
330
1F
331
29
  0
MLINESTYLE
  5
18
102
{ACAD_REACTORS
330
17
102
}
330
17
100
AcDbMlineStyle
  2
Standard
 70
     0
  3

 62
   256
 51
90.0
 52
90.0
 71
     2
 49
0.5
 62
   256
  6
BYLAYER
 49
-0.5
 62
   256
  6
BYLAYER
  0
ACDBPLACEHOLDER
  5
F
102
{ACAD_REACTORS
330
E
102
}
330
E
  0
SCALE
  5
48
102
{ACAD_REACTORS
330
47
102
}
330
47
100
AcDbScale
 70
     0
300
1:1
140
1.0
141
1.0
290
     1
  0
SCALE
  5
49
102
{ACAD_REACTORS
330
47
102
}
330
47
100
AcDbScale
 70
     0
300
1:2
140
1.0
141
2.0
290
     0
  0
SCALE
  5
4A
102
{ACAD_REACTORS
330
47
102
}
330
47
100
AcDbScale
 70
     0
300
1:4
140
1.0
141
4.0
290
     0
  0
SCALE
  5
4B
102
{ACAD_REACTORS
330
47
102
}
330
47
100
AcDbScale
 70
     0
300
1:5
140
1.0
141
5.0
290
     0
  0
SCALE
  5
4C
102
{ACAD_REACTORS
330
47
102
}
330
47
100
AcDbScale
 70
     0
300
1:8
140
1.0
141
8.0
290
     0
  0
SCALE
  5
4D
102
{ACAD_REACTORS
330
47
102
}
330
47
100
AcDbScale
 70
     0
300
1:10
140
1.0
141
10.0
290
     0
  0
SCALE
  5
4E
102
{ACAD_REACTORS
330
47
102
}
330
47
100
AcDbScale
 70
     0
300
1:16
140
1.0
141
16.0
290
     0
  0
SCALE
  5
4F
102
{ACAD_REACTORS
330
47
102
}
330
47
100
AcDbScale
 70
     0
300
1:20
140
1.0
141
20.0
290
     0
  0
SCALE
  5
50
102
{ACAD_REACTORS
330
47
102
}
330
47
100
AcDbScale
 70
     0
300
1:30
140
1.0
141
30.0
290
     0
  0
SCALE
  5
51
102
{ACAD_REACTORS
330
47
102
}
330
47
100
AcDbScale
 70
     0
300
1:40
140
1.0
141
40.0
290
     0
  0
SCALE
  5
52
102
{ACAD_REACTORS
330
47
102
}
330
47
100
AcDbScale
 70
     0
300
1:50
140
1.0
141
50.0
290
     0
  0
SCALE
  5
53
102
{ACAD_REACTORS
330
47
102
}
330
47
100
AcDbScale
 70
     0
300
1:100
140
1.0
141
100.0
290
     0
  0
SCALE
  5
54
102
{ACAD_REACTORS
330
47
102
}
330
47
100
AcDbScale
 70
     0
300
2:1
140
2.0
141
1.0
290
     0
  0
SCALE
  5
55
102
{ACAD_REACTORS
330
47
102
}
330
47
100
AcDbScale
 70
     0
300
4:1
140
4.0
141
1.0
290
     0
  0
SCALE
  5
56
102
{ACAD_REACTORS
330
47
102
}
330
47
100
AcDbScale
 70
     0
300
8:1
140
8.0
141
1.0
290
     0
  0
SCALE
  5
57
102
{ACAD_REACTORS
330
47
102
}
330
47
100
AcDbScale
 70
     0
300
10:1
140
10.0
141
1.0
290
     0
  0
SCALE
  5
58
102
{ACAD_REACTORS
330
47
102
}
330
47
100
AcDbScale
 70
     0
300
100:1
140
100.0
141
1.0
290
     0
  0
SCALE
  5
59
102
{ACAD_REACTORS
330
47
102
}
330
47
100
AcDbScale
 70
     0
300
1/128" = 1'-0"
140
0.0078125
141
12.0
290
     0
  0
SCALE
  5
5A
102
{ACAD_REACTORS
330
47
102
}
330
47
100
AcDbScale
 70
     0
300
1/64" = 1'-0"
140
0.015625
141
12.0
290
     0
  0
SCALE
  5
5B
102
{ACAD_REACTORS
330
47
102
}
330
47
100
AcDbScale
 70
     0
300
1/32" = 1'-0"
140
0.03125
141
12.0
290
     0
  0
SCALE
  5
5C
102
{ACAD_REACTORS
330
47
102
}
330
47
100
AcDbScale
 70
     0
300
1/16" = 1'-0"
140
0.0625
141
12.0
290
     0
  0
SCALE
  5
5D
102
{ACAD_REACTORS
330
47
102
}
330
47
100
AcDbScale
 70
     0
300
3/32" = 1'-0"
140
0.09375
141
12.0
290
     0
  0
SCALE
  5
5E
102
{ACAD_REACTORS
330
47
102
}
330
47
100
AcDbScale
 70
     0
300
1/8" = 1'-0"
140
0.125
141
12.0
290
     0
  0
SCALE
  5
5F
102
{ACAD_REACTORS
330
47
102
}
330
47
100
AcDbScale
 70
     0
300
3/16" = 1'-0"
140
0.1875
141
12.0
290
     0
  0
SCALE
  5
60
102
{ACAD_REACTORS
330
47
102
}
330
47
100
AcDbScale
 70
     0
300
1/4" = 1'-0"
140
0.25
141
12.0
290
     0
  0
SCALE
  5
61
102
{ACAD_REACTORS
330
47
102
}
330
47
100
AcDbScale
 70
     0
300
3/8" = 1'-0"
140
0.375
141
12.0
290
     0
  0
SCALE
  5
62
102
{ACAD_REACTORS
330
47
102
}
330
47
100
AcDbScale
 70
     0
300
1/2" = 1'-0"
140
0.5
141
12.0
290
     0
  0
SCALE
  5
63
102
{ACAD_REACTORS
330
47
102
}
330
47
100
AcDbScale
 70
     0
300
3/4" = 1'-0"
140
0.75
141
12.0
290
     0
  0
SCALE
  5
64
102
{ACAD_REACTORS
330
47
102
}
330
47
100
AcDbScale
 70
     0
300
1" = 1'-0"
140
1.0
141
12.0
290
     0
  0
SCALE
  5
65
102
{ACAD_REACTORS
330
47
102
}
330
47
100
AcDbScale
 70
     0
300
1-1/2" = 1'-0"
140
1.5
141
12.0
290
     0
  0
SCALE
  5
66
102
{ACAD_REACTORS
330
47
102
}
330
47
100
AcDbScale
 70
     0
300
3" = 1'-0"
140
3.0
141
12.0
290
     0
  0
SCALE
  5
67
102
{ACAD_REACTORS
330
47
102
}
330
47
100
AcDbScale
 70
     0
300
6" = 1'-0"
140
6.0
141
12.0
290
     0
  0
SCALE
  5
68
102
{ACAD_REACTORS
330
47
102
}
330
47
100
AcDbScale
 70
     0
300
1'-0" = 1'-0"
140
12.0
141
12.0
290
     0
  0
ENDSEC
  0
EOF
