  0
SECTION
  2
HEADER
  9
$ACADVER
  1
AC1015
  9
$ACADMAINTVER
 70
     6
  9
$DWGCODEPAGE
  3
ANSI_1250
  9
$INSBASE
 10
0.0
 20
0.0
 30
0.0
  9
$EXTMIN
 10
0.0
 20
0.0
 30
0.0
  9
$EXTMAX
 10
297.0
 20
210.0
 30
0.0
  9
$LIMMIN
 10
0.0
 20
0.0
  9
$LIMMAX
 10
297.0
 20
210.0
  9
$ORTHOMODE
 70
     0
  9
$REGENMODE
 70
     1
  9
$FILLMODE
 70
     1
  9
$QTEXTMODE
 70
     0
  9
$MIRRTEXT
 70
     1
  9
$LTSCALE
 40
1.0
  9
$ATTMODE
 70
     1
  9
$TEXTSIZE
 40
3.5
  9
$TRACEWID
 40
1.0
  9
$TEXTSTYLE
  7
Standard
  9
$CLAYER
  8
0
  9
$CELTYPE
  6
ByLayer
  9
$CECOLOR
 62
   256
  9
$CELTSCALE
 40
1.0
  9
$DISPSILH
 70
     0
  9
$DIMSCALE
 40
1.0
  9
$DIMASZ
 40
3.302
  9
$DIMEXO
 40
1.0
  9
$DIMDLI
 40
3.75
  9
$DIMRND
 40
0.0
  9
$DIMDLE
 40
0.0
  9
$DIMEXE
 40
1.0
  9
$DIMTP
 40
0.0
  9
$DIMTM
 40
0.0
  9
$DIMTXT
 40
3.5
  9
$DIMCEN
 40
2.5
  9
$DIMTSZ
 40
0.0
  9
$DIMTOL
 70
     0
  9
$DIMLIM
 70
     0
  9
$DIMTIH
 70
     1
  9
$DIMTOH
 70
     1
  9
$DIMSE1
 70
     0
  9
$DIMSE2
 70
     0
  9
$DIMTAD
 70
     1
  9
$DIMZIN
 70
     0
  9
$DIMBLK
  1

  9
$DIMASO
 70
     1
  9
$DIMSHO
 70
     1
  9
$DIMPOST
  1

  9
$DIMAPOST
  1

  9
$DIMALT
 70
     0
  9
$DIMALTD
 70
     3
  9
$DIMALTF
 40
0.0393700787
  9
$DIMLFAC
 40
1.0
  9
$DIMTOFL
 70
     1
  9
$DIMTVP
 40
0.0
  9
$DIMTIX
 70
     0
  9
$DIMSOXD
 70
     0
  9
$DIMSAH
 70
     0
  9
$DIMBLK1
  1

  9
$DIMBLK2
  1

  9
$DIMSTYLE
  2
ISO-25
  9
$DIMCLRD
 70
     0
  9
$DIMCLRE
 70
     0
  9
$DIMCLRT
 70
     0
  9
$DIMTFAC
 40
1.0
  9
$DIMGAP
 40
1.524
  9
$DIMJUST
 70
     0
  9
$DIMSD1
 70
     0
  9
$DIMSD2
 70
     0
  9
$DIMTOLJ
 70
     0
  9
$DIMTZIN
 70
     0
  9
$DIMALTZ
 70
     0
  9
$DIMALTTZ
 70
     0
  9
$DIMUPT
 70
     0
  9
$DIMDEC
 70
     2
  9
$DIMTDEC
 70
     2
  9
$DIMALTU
 70
     2
  9
$DIMALTTD
 70
     3
  9
$DIMTXSTY
  7
Standard
  9
$DIMAUNIT
 70
     0
  9
$DIMADEC
 70
     2
  9
$DIMALTRND
 40
0.0
  9
$DIMAZIN
 70
     0
  9
$DIMDSEP
 70
    44
  9
$DIMATFIT
 70
     3
  9
$DIMFRAC
 70
     0
  9
$DIMLDRBLK
  1

  9
$DIMLUNIT
 70
     2
  9
$DIMLWD
 70
    -2
  9
$DIMLWE
 70
    -2
  9
$DIMTMOVE
 70
     0
  9
$LUNITS
 70
     2
  9
$LUPREC
 70
     2
  9
$SKETCHINC
 40
1.0
  9
$FILLETRAD
 40
10.0
  9
$AUNITS
 70
     0
  9
$AUPREC
 70
     2
  9
$MENU
  1
.
  9
$ELEVATION
 40
0.0
  9
$PELEVATION
 40
0.0
  9
$THICKNESS
 40
0.0
  9
$LIMCHECK
 70
     0
  9
$CHAMFERA
 40
0.0
  9
$CHAMFERB
 40
0.0
  9
$CHAMFERC
 40
0.0
  9
$CHAMFERD
 40
0.0
  9
$SKPOLY
 70
     0
  9
$TDCREATE
 40
2459278.34128934
  9
$TDUCREATE
 40
2459278.299622674
  9
$TDUPDATE
 40
2459278.341291088
  9
$TDUUPDATE
 40
2459278.299624421
  9
$TDINDWG
 40
0.0000000116
  9
$TDUSRTIMER
 40
0.0000000116
  9
$USRTIMER
 70
     1
  9
$ANGBASE
 50
0.0
  9
$ANGDIR
 70
     0
  9
$PDMODE
 70
     0
  9
$PDSIZE
 40
-1.0
  9
$PLINEWID
 40
0.0
  9
$SPLFRAME
 70
     0
  9
$SPLINETYPE
 70
     6
  9
$SPLINESEGS
 70
     8
  9
$HANDSEED
  5
368
  9
$SURFTAB1
 70
     6
  9
$SURFTAB2
 70
     6
  9
$SURFTYPE
 70
     6
  9
$SURFU
 70
     6
  9
$SURFV
 70
     6
  9
$UCSBASE
  2

  9
$UCSNAME
  2

  9
$UCSORG
 10
0.0
 20
0.0
 30
0.0
  9
$UCSXDIR
 10
1.0
 20
0.0
 30
0.0
  9
$UCSYDIR
 10
0.0
 20
1.0
 30
0.0
  9
$UCSORTHOREF
  2

  9
$UCSORTHOVIEW
 70
     0
  9
$UCSORGTOP
 10
0.0
 20
0.0
 30
0.0
  9
$UCSORGBOTTOM
 10
0.0
 20
0.0
 30
0.0
  9
$UCSORGLEFT
 10
0.0
 20
0.0
 30
0.0
  9
$UCSORGRIGHT
 10
0.0
 20
0.0
 30
0.0
  9
$UCSORGFRONT
 10
0.0
 20
0.0
 30
0.0
  9
$UCSORGBACK
 10
0.0
 20
0.0
 30
0.0
  9
$PUCSBASE
  2

  9
$PUCSNAME
  2

  9
$PUCSORG
 10
0.0
 20
0.0
 30
0.0
  9
$PUCSXDIR
 10
1.0
 20
0.0
 30
0.0
  9
$PUCSYDIR
 10
0.0
 20
1.0
 30
0.0
  9
$PUCSORTHOREF
  2

  9
$PUCSORTHOVIEW
 70
     0
  9
$PUCSORGTOP
 10
0.0
 20
0.0
 30
0.0
  9
$PUCSORGBOTTOM
 10
0.0
 20
0.0
 30
0.0
  9
$PUCSORGLEFT
 10
0.0
 20
0.0
 30
0.0
  9
$PUCSORGRIGHT
 10
0.0
 20
0.0
 30
0.0
  9
$PUCSORGFRONT
 10
0.0
 20
0.0
 30
0.0
  9
$PUCSORGBACK
 10
0.0
 20
0.0
 30
0.0
  9
$USERI1
 70
     0
  9
$USERI2
 70
     0
  9
$USERI3
 70
     0
  9
$USERI4
 70
     0
  9
$USERI5
 70
     0
  9
$USERR1
 40
0.0
  9
$USERR2
 40
0.0
  9
$USERR3
 40
0.0
  9
$USERR4
 40
0.0
  9
$USERR5
 40
0.0
  9
$WORLDVIEW
 70
     1
  9
$SHADEDGE
 70
     3
  9
$SHADEDIF
 70
    70
  9
$TILEMODE
 70
     1
  9
$MAXACTVP
 70
    64
  9
$PINSBASE
 10
0.0
 20
0.0
 30
0.0
  9
$PLIMCHECK
 70
     0
  9
$PEXTMIN
 10
1.0000000000E+20
 20
1.0000000000E+20
 30
1.0000000000E+20
  9
$PEXTMAX
 10
-1.0000000000E+20
 20
-1.0000000000E+20
 30
-1.0000000000E+20
  9
$PLIMMIN
 10
0.0
 20
0.0
  9
$PLIMMAX
 10
420.0
 20
297.0
  9
$UNITMODE
 70
     0
  9
$VISRETAIN
 70
     1
  9
$PLINEGEN
 70
     0
  9
$PSLTSCALE
 70
     1
  9
$TREEDEPTH
 70
  3020
  9
$CMLSTYLE
  2
Standard
  9
$CMLJUST
 70
     0
  9
$CMLSCALE
 40
20.0
  9
$PROXYGRAPHICS
 70
     1
  9
$MEASUREMENT
 70
     1
  9
$CELWEIGHT
370
    -1
  9
$ENDCAPS
280
     0
  9
$JOINSTYLE
280
     0
  9
$LWDISPLAY
290
     1
  9
$INSUNITS
 70
     4
  9
$HYPERLINKBASE
  1

  9
$STYLESHEET
  1

  9
$XEDIT
290
     1
  9
$CEPSNTYPE
380
     0
  9
$PSTYLEMODE
290
     1
  9
$FINGERPRINTGUID
  2
{322E4490-D665-404D-A6AF-4776B5C5975B}
  9
$VERSIONGUID
  2
{FAEB1C32-E019-11D5-929B-00C0DF256EC4}
  9
$EXTNAMES
290
     1
  9
$PSVPSCALE
 40
0.0
  9
$OLESTARTUP
290
     0
  0
ENDSEC
  0
SECTION
  2
CLASSES
  0
CLASS
  1
ACDBDICTIONARYWDFLT
  2
AcDbDictionaryWithDefault
  3
ObjectDBX Classes
 90
        0
280
     0
281
     0
  0
CLASS
  1
VISUALSTYLE
  2
AcDbVisualStyle
  3
ObjectDBX Classes
 90
     4095
280
     0
281
     0
  0
CLASS
  1
MATERIAL
  2
AcDbMaterial
  3
ObjectDBX Classes
 90
     1153
280
     0
281
     0
  0
CLASS
  1
SCALE
  2
AcDbScale
  3
ObjectDBX Classes
 90
     1153
280
     0
281
     0
  0
CLASS
  1
TABLESTYLE
  2
AcDbTableStyle
  3
ObjectDBX Classes
 90
     4095
280
     0
281
     0
  0
CLASS
  1
MLEADERSTYLE
  2
AcDbMLeaderStyle
  3
ACDB_MLEADERSTYLE_CLASS
 90
     4095
280
     0
281
     0
  0
CLASS
  1
SUN
  2
AcDbSun
  3
SCENEOE
 90
     1153
280
     0
281
     0
  0
CLASS
  1
ACDBPLACEHOLDER
  2
AcDbPlaceHolder
  3
ObjectDBX Classes
 90
        0
280
     0
281
     0
  0
CLASS
  1
LAYOUT
  2
AcDbLayout
  3
ObjectDBX Classes
 90
        0
280
     0
281
     0
  0
ENDSEC
  0
SECTION
  2
TABLES
  0
TABLE
  2
VPORT
  5
8
330
0
100
AcDbSymbolTable
 70
     1
  0
VPORT
  5
29
330
8
100
AcDbSymbolTableRecord
100
AcDbViewportTableRecord
  2
*Active
 70
     0
 10
0.0
 20
0.0
 11
1.0
 21
1.0
 12
148.5
 22
105.0
 13
0.0
 23
0.0
 14
10.0
 24
10.0
 15
10.0
 25
10.0
 16
0.0
 26
0.0
 36
1.0
 17
0.0
 27
0.0
 37
0.0
 40
210.0
 41
1.4142857143
 42
50.0
 43
0.0
 44
0.0
 50
0.0
 51
0.0
 71
     0
 72
  2000
 73
     1
 74
     3
 75
     0
 76
     0
 77
     0
 78
     0
281
     0
 65
     1
110
0.0
120
0.0
130
0.0
111
1.0
121
0.0
131
0.0
112
0.0
122
1.0
132
0.0
 79
     0
146
0.0
  0
ENDTAB
  0
TABLE
  2
LTYPE
  5
5
330
0
100
AcDbSymbolTable
 70
     8
  0
LTYPE
  5
14
330
5
100
AcDbSymbolTableRecord
100
AcDbLinetypeTableRecord
  2
ByBlock
 70
     0
  3

 72
    65
 73
     0
 40
0.0
  0
LTYPE
  5
15
330
5
100
AcDbSymbolTableRecord
100
AcDbLinetypeTableRecord
  2
ByLayer
 70
     0
  3

 72
    65
 73
     0
 40
0.0
  0
LTYPE
  5
16
330
5
100
AcDbSymbolTableRecord
100
AcDbLinetypeTableRecord
  2
Continuous
 70
     0
  3
Solid line
 72
    65
 73
     0
 40
0.0
  0
LTYPE
  5
6E
330
5
100
AcDbSymbolTableRecord
100
AcDbLinetypeTableRecord
  2
SLD-Solid
 70
     0
  3
SolidWorks Line Style
 72
    65
 73
     0
 40
0.0
  0
LTYPE
  5
6F
330
5
100
AcDbSymbolTableRecord
100
AcDbLinetypeTableRecord
  2
SLD-Dashed
 70
     0
  3
SolidWorks Line Style
 72
    65
 73
     2
 40
1.905
 49
1.27
 74
     0
 49
-0.635
 74
     0
  0
LTYPE
  5
70
330
5
100
AcDbSymbolTableRecord
100
AcDbLinetypeTableRecord
  2
SLD-Phantom
 70
     0
  3
SolidWorks Line Style
 72
    65
 73
     6
 40
12.7
 49
6.35
 74
     0
 49
-1.27
 74
     0
 49
1.27
 74
     0
 49
-1.27
 74
     0
 49
1.27
 74
     0
 49
-1.27
 74
     0
  0
LTYPE
  5
71
330
5
100
AcDbSymbolTableRecord
100
AcDbLinetypeTableRecord
  2
SLD-Chain
 70
     0
  3
SolidWorks Line Style
 72
    65
 73
     4
 40
10.16
 49
6.35
 74
     0
 49
-1.27
 74
     0
 49
1.27
 74
     0
 49
-1.27
 74
     0
  0
LTYPE
  5
72
330
5
100
AcDbSymbolTableRecord
100
AcDbLinetypeTableRecord
  2
SLD-Center
 70
     0
  3
SolidWorks Line Style
 72
    65
 73
     4
 40
19.05
 49
15.24
 74
     0
 49
-1.27
 74
     0
 49
1.27
 74
     0
 49
-1.27
 74
     0
  0
LTYPE
  5
73
330
5
100
AcDbSymbolTableRecord
100
AcDbLinetypeTableRecord
  2
SLD-Stitch
 70
     0
  3
SolidWorks Line Style
 72
    65
 73
     2
 40
0.635
 49
0.0
 74
     0
 49
-0.635
 74
     0
  0
LTYPE
  5
74
330
5
100
AcDbSymbolTableRecord
100
AcDbLinetypeTableRecord
  2
SLD-Thin-Thick-Chain
 70
     0
  3
SolidWorks Line Style
 72
    65
 73
     4
 40
10.16
 49
6.35
 74
     0
 49
-1.27
 74
     0
 49
1.27
 74
     0
 49
-1.27
 74
     0
  0
ENDTAB
  0
TABLE
  2
LAYER
  5
2
330
0
100
AcDbSymbolTable
 70
    14
  0
LAYER
  5
10
330
2
100
AcDbSymbolTableRecord
100
AcDbLayerTableRecord
  2
0
 70
     0
 62
     7
  6
Continuous
370
    -3
390
F
  0
LAYER
  5
75
330
2
100
AcDbSymbolTableRecord
100
AcDbLayerTableRecord
  2
SLD-0
 70
     0
 62
   179
  6
SLD-Solid
370
    -3
390
F
  0
LAYER
  5
76
330
2
100
AcDbSymbolTableRecord
100
AcDbLayerTableRecord
  2
80
 70
     0
 62
    -6
  6
SLD-Solid
290
     0
370
    -3
390
F
  0
LAYER
  5
77
330
2
100
AcDbSymbolTableRecord
100
AcDbLayerTableRecord
  2
81
 70
     0
 62
    -3
  6
SLD-Solid
290
     0
370
    -3
390
F
  0
LAYER
  5
78
330
2
100
AcDbSymbolTableRecord
100
AcDbLayerTableRecord
  2
1
 70
     0
 62
     4
  6
SLD-Solid
290
     0
370
    -3
390
F
  0
LAYER
  5
79
330
2
100
AcDbSymbolTableRecord
100
AcDbLayerTableRecord
  2
4
 70
     0
 62
    -2
  6
SLD-Chain
290
     0
370
    -3
390
F
  0
LAYER
  5
7A
330
2
100
AcDbSymbolTableRecord
100
AcDbLayerTableRecord
  2
2
 70
     0
 62
     7
  6
SLD-Solid
290
     0
370
    -3
390
F
  0
LAYER
  5
7B
330
2
100
AcDbSymbolTableRecord
100
AcDbLayerTableRecord
  2
SK3
 70
     0
 62
     1
  6
SLD-Dashed
290
     0
370
    -3
390
F
  0
LAYER
  5
7C
330
2
100
AcDbSymbolTableRecord
100
AcDbLayerTableRecord
  2
SK4
 70
     0
 62
     2
  6
SLD-Chain
290
     0
370
    -3
390
F
  0
LAYER
  5
7D
330
2
100
AcDbSymbolTableRecord
100
AcDbLayerTableRecord
  2
SK2
 70
     0
 62
     7
  6
SLD-Solid
290
     0
370
    -3
390
F
  0
LAYER
  5
7E
330
2
100
AcDbSymbolTableRecord
100
AcDbLayerTableRecord
  2
SK6
 70
     0
 62
     5
  6
SLD-Solid
290
     0
370
    -3
390
F
  0
LAYER
  5
7F
330
2
100
AcDbSymbolTableRecord
100
AcDbLayerTableRecord
  2
6
 70
     0
 62
     5
  6
SLD-Solid
370
    -3
390
F
  0
LAYER
  5
80
330
2
100
AcDbSymbolTableRecord
100
AcDbLayerTableRecord
  2
SK1
 70
     0
 62
     4
  6
SLD-Solid
370
    -3
390
F
  0
LAYER
  5
81
330
2
100
AcDbSymbolTableRecord
100
AcDbLayerTableRecord
  2
LAYER5
 70
     0
 62
   218
  6
SLD-Solid
370
    -3
390
F
  0
ENDTAB
  0
TABLE
  2
STYLE
  5
3
330
0
100
AcDbSymbolTable
 70
     3
  0
STYLE
  5
11
330
3
100
AcDbSymbolTableRecord
100
AcDbTextStyleTableRecord
  2
Standard
 70
     0
 40
0.0
 41
1.0
 50
0.0
 71
     0
 42
3.5
  3
txt
  4

  0
STYLE
  5
28E
330
3
100
AcDbSymbolTableRecord
100
AcDbTextStyleTableRecord
  2
SLDTEXTSTYLE0
 70
     0
 40
0.0
 41
0.75
 50
0.0
 71
     0
 42
3.5
  3
TXT
  4

  0
STYLE
  5
364
330
3
100
AcDbSymbolTableRecord
100
AcDbTextStyleTableRecord
  2
SLDTEXTSTYLE1
 70
     0
 40
0.0
 41
0.6666666667
 50
0.0
 71
     0
 42
3.5
  3
TXT
  4

  0
ENDTAB
  0
TABLE
  2
VIEW
  5
6
330
0
100
AcDbSymbolTable
 70
     0
  0
ENDTAB
  0
TABLE
  2
UCS
  5
7
330
0
100
AcDbSymbolTable
 70
     0
  0
ENDTAB
  0
TABLE
  2
APPID
  5
9
330
0
100
AcDbSymbolTable
 70
     1
  0
APPID
  5
12
330
9
100
AcDbSymbolTableRecord
100
AcDbRegAppTableRecord
  2
ACAD
 70
     0
  0
ENDTAB
  0
TABLE
  2
DIMSTYLE
  5
A
330
0
100
AcDbSymbolTable
 70
     5
100
AcDbDimStyleTable
  0
DIMSTYLE
105
27
330
A
100
AcDbSymbolTableRecord
100
AcDbDimStyleTableRecord
  2
ISO-25
 70
     0
 41
2.5
 42
0.625
 43
3.75
 44
1.25
 73
     0
 74
     0
 77
     1
 78
     8
140
2.5
141
2.5
143
0.0393700787
147
0.625
171
     3
172
     1
178
     0
271
     2
272
     2
274
     3
278
    44
283
     0
284
     8
340
11
  0
DIMSTYLE
105
28F
102
{ACAD_REACTORS
330
28D
330
2A2
330
2C0
330
2D3
330
2F9
330
30B
330
330
102
}
330
A
100
AcDbSymbolTableRecord
100
AcDbDimStyleTableRecord
  2
SLDDIMSTYLE0
 70
     0
 41
3.302
 44
0.0
 45
0.000000001
 73
     0
 74
     0
 77
     1
 78
    12
 79
     3
140
3.5
143
0.0393700787
147
0.875
148
0.000000001
170
     1
173
     1
178
     0
271
     2
272
     2
276
     2
284
    12
340
28E
  0
DIMSTYLE
105
2B6
102
{ACAD_REACTORS
330
2B5
330
350
330
35B
102
}
330
A
100
AcDbSymbolTableRecord
100
AcDbDimStyleTableRecord
  2
SLDDIMSTYLE1
 70
     0
 41
3.302
 44
0.0
 45
0.000000001
 73
     0
 74
     0
 77
     1
 78
    12
 79
     3
140
3.5
147
0.875
173
     1
178
     0
271
     2
272
     2
276
     2
284
    12
340
28E
  0
DIMSTYLE
105
2E7
102
{ACAD_REACTORS
330
2E6
330
31D
102
}
330
A
100
AcDbSymbolTableRecord
100
AcDbDimStyleTableRecord
  2
SLDDIMSTYLE2
 70
     0
 41
3.302
 44
0.0
 45
0.000000001
 73
     0
 74
     0
 77
     1
 78
    12
 79
     3
140
3.5
143
0.0393700787
147
0.875
148
0.000000001
170
     1
171
     3
173
     1
178
     0
271
     2
272
     2
274
     3
276
     2
284
    12
340
28E
  0
DIMSTYLE
105
344
102
{ACAD_REACTORS
330
343
102
}
330
A
100
AcDbSymbolTableRecord
100
AcDbDimStyleTableRecord
  2
SLDDIMSTYLE3
 70
     0
 41
3.302
 44
0.0
 45
0.000000001
 73
     0
 74
     0
 77
     1
 78
    12
 79
     3
140
3.5
147
0.875
172
     1
173
     1
178
     0
271
     2
272
     2
276
     2
284
    12
289
     0
340
28E
  0
ENDTAB
  0
TABLE
  2
BLOCK_RECORD
  5
1
330
0
100
AcDbSymbolTable
 70
    14
  0
BLOCK_RECORD
  5
1F
330
1
100
AcDbSymbolTableRecord
100
AcDbBlockTableRecord
  2
*Model_Space
340
22
  0
BLOCK_RECORD
  5
1B
330
1
100
AcDbSymbolTableRecord
100
AcDbBlockTableRecord
  2
*Paper_Space
340
1E
  0
BLOCK_RECORD
  5
23
330
1
100
AcDbSymbolTableRecord
100
AcDbBlockTableRecord
  2
*Paper_Space0
340
26
  0
BLOCK_RECORD
  5
290
330
1
100
AcDbSymbolTableRecord
100
AcDbBlockTableRecord
  2
_D
340
0
  0
BLOCK_RECORD
  5
2A3
330
1
100
AcDbSymbolTableRecord
100
AcDbBlockTableRecord
  2
_D_1
340
0
  0
BLOCK_RECORD
  5
2B7
330
1
100
AcDbSymbolTableRecord
100
AcDbBlockTableRecord
  2
_D_2
340
0
  0
BLOCK_RECORD
  5
2C1
330
1
100
AcDbSymbolTableRecord
100
AcDbBlockTableRecord
  2
_D_3
340
0
  0
BLOCK_RECORD
  5
2D4
330
1
100
AcDbSymbolTableRecord
100
AcDbBlockTableRecord
  2
_D_4
340
0
  0
BLOCK_RECORD
  5
2E8
330
1
100
AcDbSymbolTableRecord
100
AcDbBlockTableRecord
  2
_D_5
340
0
  0
BLOCK_RECORD
  5
2FA
330
1
100
AcDbSymbolTableRecord
100
AcDbBlockTableRecord
  2
_D_6
340
0
  0
BLOCK_RECORD
  5
30C
330
1
100
AcDbSymbolTableRecord
100
AcDbBlockTableRecord
  2
_D_7
340
0
  0
BLOCK_RECORD
  5
31E
330
1
100
AcDbSymbolTableRecord
100
AcDbBlockTableRecord
  2
_D_8
340
0
  0
BLOCK_RECORD
  5
331
330
1
100
AcDbSymbolTableRecord
100
AcDbBlockTableRecord
  2
_D_9
340
0
  0
BLOCK_RECORD
  5
345
330
1
100
AcDbSymbolTableRecord
100
AcDbBlockTableRecord
  2
_D_10
340
0
  0
BLOCK_RECORD
  5
351
330
1
100
AcDbSymbolTableRecord
100
AcDbBlockTableRecord
  2
_D_11
340
0
  0
BLOCK_RECORD
  5
35C
330
1
100
AcDbSymbolTableRecord
100
AcDbBlockTableRecord
  2
_D_12
340
0
  0
ENDTAB
  0
ENDSEC
  0
SECTION
  2
BLOCKS
  0
BLOCK
  5
20
330
1F
100
AcDbEntity
  8
0
100
AcDbBlockBegin
  2
*Model_Space
 70
     0
 10
0.0
 20
0.0
 30
0.0
  3
*Model_Space
  1

  0
ENDBLK
  5
21
330
1F
100
AcDbEntity
  8
0
100
AcDbBlockEnd
  0
BLOCK
  5
1C
330
1B
100
AcDbEntity
 67
     1
  8
0
100
AcDbBlockBegin
  2
*Paper_Space
 70
     0
 10
0.0
 20
0.0
 30
0.0
  3
*Paper_Space
  1

  0
ENDBLK
  5
1D
330
1B
100
AcDbEntity
 67
     1
  8
0
100
AcDbBlockEnd
  0
BLOCK
  5
24
330
23
100
AcDbEntity
  8
0
100
AcDbBlockBegin
  2
*Paper_Space0
 70
     0
 10
0.0
 20
0.0
 30
0.0
  3
*Paper_Space0
  1

  0
ENDBLK
  5
25
330
23
100
AcDbEntity
  8
0
100
AcDbBlockEnd
  0
BLOCK
  5
291
330
290
100
AcDbEntity
  8
0
100
AcDbBlockBegin
  2
_D
 70
     0
 10
0.0
 20
0.0
 30
0.0
  3
_D
  1

  0
SOLID
  5
293
330
290
100
AcDbEntity
  8
2
100
AcDbTrace
 10
0.0
 20
67.5111657488
 30
0.0
 11
3.302
 21
67.0031657488
 31
0.0
 12
3.302
 22
68.0191657488
 32
0.0
 13
3.302
 23
68.0191657488
 33
0.0
  0
SOLID
  5
294
330
290
100
AcDbEntity
  8
2
100
AcDbTrace
 10
90.0
 20
67.5111657488
 30
0.0
 11
86.698
 21
68.0191657488
 31
0.0
 12
86.698
 22
67.0031657488
 32
0.0
 13
86.698
 23
67.0031657488
 33
0.0
  0
LINE
  5
295
330
290
100
AcDbEntity
  8
2
100
AcDbLine
 10
28.7295138526
 20
78.3040474648
 30
0.0
 11
27.6631075951
 21
78.3040474648
 31
0.0
  0
LINE
  5
296
330
290
100
AcDbEntity
  8
2
100
AcDbLine
 10
27.6631075951
 20
78.3040474648
 30
0.0
 11
27.6631075951
 21
72.7477974738
 31
0.0
  0
LINE
  5
297
330
290
100
AcDbEntity
  8
2
100
AcDbLine
 10
27.6631075951
 20
72.7477974738
 30
0.0
 11
28.7295138526
 21
72.7477974738
 31
0.0
  0
LINE
  5
298
330
290
100
AcDbEntity
  8
2
100
AcDbLine
 10
37.7809029135
 20
78.3040474648
 30
0.0
 11
38.8473091709
 21
78.3040474648
 31
0.0
  0
LINE
  5
299
330
290
100
AcDbEntity
  8
2
100
AcDbLine
 10
38.8473091709
 20
78.3040474648
 30
0.0
 11
38.8473091709
 21
72.7477974738
 31
0.0
  0
LINE
  5
29A
330
290
100
AcDbEntity
  8
2
100
AcDbLine
 10
38.8473091709
 20
72.7477974738
 30
0.0
 11
37.7809029135
 21
72.7477974738
 31
0.0
  0
LINE
  5
29B
330
290
100
AcDbEntity
  8
2
100
AcDbLine
 10
0.0
 20
35.925
 30
0.0
 11
0.0
 21
68.5111657488
 31
0.0
  0
LINE
  5
29C
330
290
100
AcDbEntity
  8
2
100
AcDbLine
 10
90.0
 20
31.5
 30
0.0
 11
90.0
 21
68.5111657488
 31
0.0
  0
LINE
  5
29D
330
290
100
AcDbEntity
  8
2
100
AcDbLine
 10
0.0
 20
67.5111657488
 30
0.0
 11
90.0
 21
67.5111657488
 31
0.0
  0
MTEXT
  5
29E
330
290
100
AcDbEntity
  8
2
100
AcDbMText
 10
26.6161457409
 20
72.0763750146
 30
0.0
 40
3.5
 41
0.0
 71
     1
 72
     1
  1

  7
SLDTEXTSTYLE0
 73
     1
 44
1.0
  0
MTEXT
  5
29F
330
290
100
AcDbEntity
  8
2
100
AcDbMText
 10
28.7295138526
 20
77.2595343883
 30
0.0
 40
3.5
 41
0.0
 71
     1
 72
     1
  1
3,54
  7
SLDTEXTSTYLE0
 73
     1
 44
1.0
  0
MTEXT
  5
2A0
330
290
100
AcDbEntity
  8
2
100
AcDbMText
 10
30.6690971895
 20
72.022902838
 30
0.0
 40
3.5
 41
0.0
 71
     1
 72
     1
  1
90
  7
SLDTEXTSTYLE0
 73
     1
 44
1.0
  0
MTEXT
  5
2A1
330
290
100
AcDbEntity
  8
2
100
AcDbMText
 10
41.2262155448
 20
72.0763750146
 30
0.0
 40
3.5
 41
0.0
 71
     1
 72
     1
  1

  7
SLDTEXTSTYLE0
 73
     1
 44
1.0
  0
ENDBLK
  5
292
330
290
100
AcDbEntity
  8
0
100
AcDbBlockEnd
  0
BLOCK
  5
2A4
330
2A3
100
AcDbEntity
  8
0
100
AcDbBlockBegin
  2
_D_1
 70
     0
 10
0.0
 20
0.0
 30
0.0
  3
_D_1
  1

  0
SOLID
  5
2A6
330
2A3
100
AcDbEntity
  8
SK2
100
AcDbTrace
 10
19.05
 20
54.382856271
 30
0.0
 11
22.352
 21
53.874856271
 31
0.0
 12
22.352
 22
54.890856271
 32
0.0
 13
22.352
 23
54.890856271
 33
0.0
  0
SOLID
  5
2A7
330
2A3
100
AcDbEntity
  8
SK2
100
AcDbTrace
 10
90.0
 20
54.382856271
 30
0.0
 11
86.698
 21
54.890856271
 31
0.0
 12
86.698
 22
53.874856271
 32
0.0
 13
86.698
 23
53.874856271
 33
0.0
  0
LINE
  5
2A8
330
2A3
100
AcDbEntity
  8
SK2
100
AcDbLine
 10
42.9264066599
 20
65.1757379871
 30
0.0
 11
41.8600004024
 21
65.1757379871
 31
0.0
  0
LINE
  5
2A9
330
2A3
100
AcDbEntity
  8
SK2
100
AcDbLine
 10
41.8600004024
 20
65.1757379871
 30
0.0
 11
41.8600004024
 21
59.619487996
 31
0.0
  0
LINE
  5
2AA
330
2A3
100
AcDbEntity
  8
SK2
100
AcDbLine
 10
41.8600004024
 20
59.619487996
 30
0.0
 11
42.9264066599
 21
59.619487996
 31
0.0
  0
LINE
  5
2AB
330
2A3
100
AcDbEntity
  8
SK2
100
AcDbLine
 10
51.9777957208
 20
65.1757379871
 30
0.0
 11
53.0442019782
 21
65.1757379871
 31
0.0
  0
LINE
  5
2AC
330
2A3
100
AcDbEntity
  8
SK2
100
AcDbLine
 10
53.0442019782
 20
65.1757379871
 30
0.0
 11
53.0442019782
 21
59.619487996
 31
0.0
  0
LINE
  5
2AD
330
2A3
100
AcDbEntity
  8
SK2
100
AcDbLine
 10
53.0442019782
 20
59.619487996
 30
0.0
 11
51.9777957208
 21
59.619487996
 31
0.0
  0
LINE
  5
2AE
330
2A3
100
AcDbEntity
  8
SK2
100
AcDbLine
 10
19.05
 20
47.6976348437
 30
0.0
 11
19.05
 21
55.382856271
 31
0.0
  0
LINE
  5
2AF
330
2A3
100
AcDbEntity
  8
SK2
100
AcDbLine
 10
90.0
 20
31.5
 30
0.0
 11
90.0
 21
55.382856271
 31
0.0
  0
LINE
  5
2B0
330
2A3
100
AcDbEntity
  8
SK2
100
AcDbLine
 10
19.05
 20
54.382856271
 30
0.0
 11
90.0
 21
54.382856271
 31
0.0
  0
MTEXT
  5
2B1
330
2A3
100
AcDbEntity
  8
SK2
100
AcDbMText
 10
40.8130385482
 20
58.9480655369
 30
0.0
 40
3.5
 41
0.0
 71
     1
 72
     1
  1

  7
SLDTEXTSTYLE0
 73
     1
 44
1.0
  0
MTEXT
  5
2B2
330
2A3
100
AcDbEntity
  8
SK2
100
AcDbMText
 10
42.9264066599
 20
64.1312249106
 30
0.0
 40
3.5
 41
0.0
 71
     1
 72
     1
  1
2,79
  7
SLDTEXTSTYLE0
 73
     1
 44
1.0
  0
MTEXT
  5
2B3
330
2A3
100
AcDbEntity
  8
SK2
100
AcDbMText
 10
41.6333509467
 20
58.8945933602
 30
0.0
 40
3.5
 41
0.0
 71
     1
 72
     1
  1
70,95
  7
SLDTEXTSTYLE0
 73
     1
 44
1.0
  0
MTEXT
  5
2B4
330
2A3
100
AcDbEntity
  8
SK2
100
AcDbMText
 10
55.4231083521
 20
58.9480655369
 30
0.0
 40
3.5
 41
0.0
 71
     1
 72
     1
  1

  7
SLDTEXTSTYLE0
 73
     1
 44
1.0
  0
ENDBLK
  5
2A5
330
2A3
100
AcDbEntity
  8
0
100
AcDbBlockEnd
  0
BLOCK
  5
2B8
330
2B7
100
AcDbEntity
  8
0
100
AcDbBlockBegin
  2
_D_2
 70
     0
 10
0.0
 20
0.0
 30
0.0
  3
_D_2
  1

  0
SOLID
  5
2BA
330
2B7
100
AcDbEntity
  8
SK2
100
AcDbTrace
 10
0.0
 20
54.382856271
 30
0.0
 11
3.302
 21
53.874856271
 31
0.0
 12
3.302
 22
54.890856271
 32
0.0
 13
3.302
 23
54.890856271
 33
0.0
  0
SOLID
  5
2BB
330
2B7
100
AcDbEntity
  8
SK2
100
AcDbTrace
 10
19.05
 20
54.382856271
 30
0.0
 11
15.748
 21
54.890856271
 31
0.0
 12
15.748
 22
53.874856271
 32
0.0
 13
15.748
 23
53.874856271
 33
0.0
  0
LINE
  5
2BC
330
2B7
100
AcDbEntity
  8
SK2
100
AcDbLine
 10
0.0
 20
35.925
 30
0.0
 11
0.0
 21
55.382856271
 31
0.0
  0
LINE
  5
2BD
330
2B7
100
AcDbEntity
  8
SK2
100
AcDbLine
 10
19.05
 20
47.6976348437
 30
0.0
 11
19.05
 21
55.382856271
 31
0.0
  0
LINE
  5
2BE
330
2B7
100
AcDbEntity
  8
SK2
100
AcDbLine
 10
0.0
 20
54.382856271
 30
0.0
 11
19.05
 21
54.382856271
 31
0.0
  0
MTEXT
  5
2BF
330
2B7
100
AcDbEntity
  8
SK2
100
AcDbMText
 10
3.1643507325
 20
58.8945931856
 30
0.0
 40
3.5
 41
0.0
 71
     1
 72
     1
  1
19,05
  7
SLDTEXTSTYLE0
 73
     1
 44
1.0
  0
ENDBLK
  5
2B9
330
2B7
100
AcDbEntity
  8
0
100
AcDbBlockEnd
  0
BLOCK
  5
2C2
330
2C1
100
AcDbEntity
  8
0
100
AcDbBlockBegin
  2
_D_3
 70
     0
 10
0.0
 20
0.0
 30
0.0
  3
_D_3
  1

  0
SOLID
  5
2C4
330
2C1
100
AcDbEntity
  8
SK2
100
AcDbTrace
 10
70.7
 20
40.6439277478
 30
0.0
 11
74.002
 21
40.1359277478
 31
0.0
 12
74.002
 22
41.1519277478
 32
0.0
 13
74.002
 23
41.1519277478
 33
0.0
  0
SOLID
  5
2C5
330
2C1
100
AcDbEntity
  8
SK2
100
AcDbTrace
 10
90.0
 20
40.6439277478
 30
0.0
 11
86.698
 21
41.1519277478
 31
0.0
 12
86.698
 22
40.1359277478
 32
0.0
 13
86.698
 23
40.1359277478
 33
0.0
  0
LINE
  5
2C6
330
2C1
100
AcDbEntity
  8
SK2
100
AcDbLine
 10
76.8157636838
 20
51.4368094639
 30
0.0
 11
75.7493574264
 21
51.4368094639
 31
0.0
  0
LINE
  5
2C7
330
2C1
100
AcDbEntity
  8
SK2
100
AcDbLine
 10
75.7493574264
 20
51.4368094639
 30
0.0
 11
75.7493574264
 21
45.8805594728
 31
0.0
  0
LINE
  5
2C8
330
2C1
100
AcDbEntity
  8
SK2
100
AcDbLine
 10
75.7493574264
 20
45.8805594728
 30
0.0
 11
76.8157636838
 21
45.8805594728
 31
0.0
  0
LINE
  5
2C9
330
2C1
100
AcDbEntity
  8
SK2
100
AcDbLine
 10
85.8671527447
 20
51.4368094639
 30
0.0
 11
86.9335590022
 21
51.4368094639
 31
0.0
  0
LINE
  5
2CA
330
2C1
100
AcDbEntity
  8
SK2
100
AcDbLine
 10
86.9335590022
 20
51.4368094639
 30
0.0
 11
86.9335590022
 21
45.8805594728
 31
0.0
  0
LINE
  5
2CB
330
2C1
100
AcDbEntity
  8
SK2
100
AcDbLine
 10
86.9335590022
 20
45.8805594728
 30
0.0
 11
85.8671527447
 21
45.8805594728
 31
0.0
  0
LINE
  5
2CC
330
2C1
100
AcDbEntity
  8
SK2
100
AcDbLine
 10
70.7
 20
33.25
 30
0.0
 11
70.7
 21
41.6439277478
 31
0.0
  0
LINE
  5
2CD
330
2C1
100
AcDbEntity
  8
SK2
100
AcDbLine
 10
90.0
 20
31.5
 30
0.0
 11
90.0
 21
41.6439277478
 31
0.0
  0
LINE
  5
2CE
330
2C1
100
AcDbEntity
  8
SK2
100
AcDbLine
 10
70.7
 20
40.6439277478
 30
0.0
 11
90.0
 21
40.6439277478
 31
0.0
  0
MTEXT
  5
2CF
330
2C1
100
AcDbEntity
  8
SK2
100
AcDbMText
 10
74.7023955722
 20
45.2091370137
 30
0.0
 40
3.5
 41
0.0
 71
     1
 72
     1
  1

  7
SLDTEXTSTYLE0
 73
     1
 44
1.0
  0
MTEXT
  5
2D0
330
2C1
100
AcDbEntity
  8
SK2
100
AcDbMText
 10
76.8157636838
 20
50.3922963874
 30
0.0
 40
3.5
 41
0.0
 71
     1
 72
     1
  1
0,76
  7
SLDTEXTSTYLE0
 73
     1
 44
1.0
  0
MTEXT
  5
2D1
330
2C1
100
AcDbEntity
  8
SK2
100
AcDbMText
 10
76.8157636838
 20
45.155664837
 30
0.0
 40
3.5
 41
0.0
 71
     1
 72
     1
  1
19,3
  7
SLDTEXTSTYLE0
 73
     1
 44
1.0
  0
MTEXT
  5
2D2
330
2C1
100
AcDbEntity
  8
SK2
100
AcDbMText
 10
89.3124653761
 20
45.2091370137
 30
0.0
 40
3.5
 41
0.0
 71
     1
 72
     1
  1

  7
SLDTEXTSTYLE0
 73
     1
 44
1.0
  0
ENDBLK
  5
2C3
330
2C1
100
AcDbEntity
  8
0
100
AcDbBlockEnd
  0
BLOCK
  5
2D5
330
2D4
100
AcDbEntity
  8
0
100
AcDbBlockBegin
  2
_D_4
 70
     0
 10
0.0
 20
0.0
 30
0.0
  3
_D_4
  1

  0
SOLID
  5
2D7
330
2D4
100
AcDbEntity
  8
SK2
100
AcDbTrace
 10
37.8
 20
40.6439277478
 30
0.0
 11
41.102
 21
40.1359277478
 31
0.0
 12
41.102
 22
41.1519277478
 32
0.0
 13
41.102
 23
41.1519277478
 33
0.0
  0
SOLID
  5
2D8
330
2D4
100
AcDbEntity
  8
SK2
100
AcDbTrace
 10
70.7
 20
40.6439277478
 30
0.0
 11
67.398
 21
41.1519277478
 31
0.0
 12
67.398
 22
40.1359277478
 32
0.0
 13
67.398
 23
40.1359277478
 33
0.0
  0
LINE
  5
2D9
330
2D4
100
AcDbEntity
  8
SK2
100
AcDbLine
 10
51.4750732966
 20
51.4368094639
 30
0.0
 11
50.4086670391
 21
51.4368094639
 31
0.0
  0
LINE
  5
2DA
330
2D4
100
AcDbEntity
  8
SK2
100
AcDbLine
 10
50.4086670391
 20
51.4368094639
 30
0.0
 11
50.4086670391
 21
45.8805594728
 31
0.0
  0
LINE
  5
2DB
330
2D4
100
AcDbEntity
  8
SK2
100
AcDbLine
 10
50.4086670391
 20
45.8805594728
 30
0.0
 11
51.4750732966
 21
45.8805594728
 31
0.0
  0
LINE
  5
2DC
330
2D4
100
AcDbEntity
  8
SK2
100
AcDbLine
 10
60.5264623575
 20
51.4368094639
 30
0.0
 11
61.5928686149
 21
51.4368094639
 31
0.0
  0
LINE
  5
2DD
330
2D4
100
AcDbEntity
  8
SK2
100
AcDbLine
 10
61.5928686149
 20
51.4368094639
 30
0.0
 11
61.5928686149
 21
45.8805594728
 31
0.0
  0
LINE
  5
2DE
330
2D4
100
AcDbEntity
  8
SK2
100
AcDbLine
 10
61.5928686149
 20
45.8805594728
 30
0.0
 11
60.5264623575
 21
45.8805594728
 31
0.0
  0
LINE
  5
2DF
330
2D4
100
AcDbEntity
  8
SK2
100
AcDbLine
 10
37.8
 20
33.25
 30
0.0
 11
37.8
 21
41.6439277478
 31
0.0
  0
LINE
  5
2E0
330
2D4
100
AcDbEntity
  8
SK2
100
AcDbLine
 10
70.7
 20
33.25
 30
0.0
 11
70.7
 21
41.6439277478
 31
0.0
  0
LINE
  5
2E1
330
2D4
100
AcDbEntity
  8
SK2
100
AcDbLine
 10
37.8
 20
40.6439277478
 30
0.0
 11
70.7
 21
40.6439277478
 31
0.0
  0
MTEXT
  5
2E2
330
2D4
100
AcDbEntity
  8
SK2
100
AcDbMText
 10
49.3617051849
 20
45.2091370137
 30
0.0
 40
3.5
 41
0.0
 71
     1
 72
     1
  1

  7
SLDTEXTSTYLE0
 73
     1
 44
1.0
  0
MTEXT
  5
2E3
330
2D4
100
AcDbEntity
  8
SK2
100
AcDbMText
 10
51.4750732966
 20
50.3922963874
 30
0.0
 40
3.5
 41
0.0
 71
     1
 72
     1
  1
1,30
  7
SLDTEXTSTYLE0
 73
     1
 44
1.0
  0
MTEXT
  5
2E4
330
2D4
100
AcDbEntity
  8
SK2
100
AcDbMText
 10
51.4750732966
 20
45.155664837
 30
0.0
 40
3.5
 41
0.0
 71
     1
 72
     1
  1
32,9
  7
SLDTEXTSTYLE0
 73
     1
 44
1.0
  0
MTEXT
  5
2E5
330
2D4
100
AcDbEntity
  8
SK2
100
AcDbMText
 10
63.9717749888
 20
45.2091370137
 30
0.0
 40
3.5
 41
0.0
 71
     1
 72
     1
  1

  7
SLDTEXTSTYLE0
 73
     1
 44
1.0
  0
ENDBLK
  5
2D6
330
2D4
100
AcDbEntity
  8
0
100
AcDbBlockEnd
  0
BLOCK
  5
2E9
330
2E8
100
AcDbEntity
  8
0
100
AcDbBlockBegin
  2
_D_5
 70
     0
 10
0.0
 20
0.0
 30
0.0
  3
_D_5
  1

  0
SOLID
  5
2EB
330
2E8
100
AcDbEntity
  8
SK2
100
AcDbTrace
 10
107.1593500037
 20
20.0
 30
0.0
 11
106.6513500037
 21
16.698
 31
0.0
 12
107.6673500037
 22
16.698
 32
0.0
 13
107.6673500037
 23
16.698
 33
0.0
  0
SOLID
  5
2EC
330
2E8
100
AcDbEntity
  8
SK2
100
AcDbTrace
 10
107.1593500037
 20
-20.0
 30
0.0
 11
107.6673500037
 21
-16.698
 31
0.0
 12
106.6513500037
 22
-16.698
 32
0.0
 13
106.6513500037
 23
-16.698
 33
0.0
  0
LINE
  5
2ED
330
2E8
100
AcDbEntity
  8
SK2
100
AcDbLine
 10
96.3664682876
 20
-6.5442623612
 30
0.0
 11
96.3664682876
 21
-7.6106686186
 31
0.0
  0
LINE
  5
2EE
330
2E8
100
AcDbEntity
  8
SK2
100
AcDbLine
 10
96.3664682876
 20
-7.6106686186
 30
0.0
 11
101.9227182787
 21
-7.6106686186
 31
0.0
  0
LINE
  5
2EF
330
2E8
100
AcDbEntity
  8
SK2
100
AcDbLine
 10
101.9227182787
 20
-7.6106686186
 30
0.0
 11
101.9227182787
 21
-6.5442623612
 31
0.0
  0
LINE
  5
2F0
330
2E8
100
AcDbEntity
  8
SK2
100
AcDbLine
 10
96.3664682876
 20
5.0932381261
 30
0.0
 11
96.3664682876
 21
6.1596443835
 31
0.0
  0
LINE
  5
2F1
330
2E8
100
AcDbEntity
  8
SK2
100
AcDbLine
 10
96.3664682876
 20
6.1596443835
 30
0.0
 11
101.9227182787
 21
6.1596443835
 31
0.0
  0
LINE
  5
2F2
330
2E8
100
AcDbEntity
  8
SK2
100
AcDbLine
 10
101.9227182787
 20
6.1596443835
 30
0.0
 11
101.9227182787
 21
5.0932381261
 31
0.0
  0
LINE
  5
2F3
330
2E8
100
AcDbEntity
  8
SK2
100
AcDbLine
 10
84.6350528212
 20
20.0
 30
0.0
 11
108.1593500037
 21
20.0
 31
0.0
  0
LINE
  5
2F4
330
2E8
100
AcDbEntity
  8
SK2
100
AcDbLine
 10
89.0947441117
 20
-20.0
 30
0.0
 11
108.1593500037
 21
-20.0
 31
0.0
  0
LINE
  5
2F5
330
2E8
100
AcDbEntity
  8
SK2
100
AcDbLine
 10
107.1593500037
 20
20.0
 30
0.0
 11
107.1593500037
 21
-20.0
 31
0.0
  0
MTEXT
  5
2F6
330
2E8
100
AcDbEntity
  8
SK2
100
AcDbMText
 10
97.4109813641
 20
-6.5442623612
 30
0.0
 40
3.5
 41
0.0
 71
     1
 72
     1
  1
1,575
  7
SLDTEXTSTYLE0
 11
-7.044195017643634E-15
 21
1.0
 31
0.0
 73
     1
 44
1.0
  0
MTEXT
  5
2F7
330
2E8
100
AcDbEntity
  8
SK2
100
AcDbMText
 10
102.6476129145
 20
-5.9508427088
 30
0.0
 40
3.5
 41
0.0
 71
     1
 72
     1
  1
%%c
  7
SLDTEXTSTYLE0
 11
-7.044195017643634E-15
 21
1.0
 31
0.0
 73
     1
 44
1.0
  0
MTEXT
  5
2F8
330
2E8
100
AcDbEntity
  8
SK2
100
AcDbMText
 10
102.6476129145
 20
-0.6724053104
 30
0.0
 40
3.5
 41
0.0
 71
     1
 72
     1
  1
40
  7
SLDTEXTSTYLE0
 11
-7.044195017643634E-15
 21
1.0
 31
0.0
 73
     1
 44
1.0
  0
ENDBLK
  5
2EA
330
2E8
100
AcDbEntity
  8
0
100
AcDbBlockEnd
  0
BLOCK
  5
2FB
330
2FA
100
AcDbEntity
  8
0
100
AcDbBlockBegin
  2
_D_6
 70
     0
 10
0.0
 20
0.0
 30
0.0
  3
_D_6
  1

  0
SOLID
  5
2FD
330
2FA
100
AcDbEntity
  8
SK2
100
AcDbTrace
 10
123.2150324016
 20
30.5
 30
0.0
 11
122.7070324016
 21
27.198
 31
0.0
 12
123.7230324016
 22
27.198
 32
0.0
 13
123.7230324016
 23
27.198
 33
0.0
  0
SOLID
  5
2FE
330
2FA
100
AcDbEntity
  8
SK2
100
AcDbTrace
 10
123.2150324016
 20
-30.5
 30
0.0
 11
123.7230324016
 21
-27.198
 31
0.0
 12
122.7070324016
 22
-27.198
 32
0.0
 13
122.7070324016
 23
-27.198
 33
0.0
  0
LINE
  5
2FF
330
2FA
100
AcDbEntity
  8
SK2
100
AcDbLine
 10
112.4221506855
 20
-5.2512071137
 30
0.0
 11
112.4221506855
 21
-6.3176133711
 31
0.0
  0
LINE
  5
300
330
2FA
100
AcDbEntity
  8
SK2
100
AcDbLine
 10
112.4221506855
 20
-6.3176133711
 30
0.0
 11
117.9784006766
 21
-6.3176133711
 31
0.0
  0
LINE
  5
301
330
2FA
100
AcDbEntity
  8
SK2
100
AcDbLine
 10
117.9784006766
 20
-6.3176133711
 30
0.0
 11
117.9784006766
 21
-5.2512071137
 31
0.0
  0
LINE
  5
302
330
2FA
100
AcDbEntity
  8
SK2
100
AcDbLine
 10
112.4221506855
 20
3.8001819472
 30
0.0
 11
112.4221506855
 21
4.8665882047
 31
0.0
  0
LINE
  5
303
330
2FA
100
AcDbEntity
  8
SK2
100
AcDbLine
 10
112.4221506855
 20
4.8665882047
 30
0.0
 11
117.9784006766
 21
4.8665882047
 31
0.0
  0
LINE
  5
304
330
2FA
100
AcDbEntity
  8
SK2
100
AcDbLine
 10
117.9784006766
 20
4.8665882047
 30
0.0
 11
117.9784006766
 21
3.8001819472
 31
0.0
  0
LINE
  5
305
330
2FA
100
AcDbEntity
  8
SK2
100
AcDbLine
 10
91.0
 20
30.5
 30
0.0
 11
124.2150324016
 21
30.5
 31
0.0
  0
LINE
  5
306
330
2FA
100
AcDbEntity
  8
SK2
100
AcDbLine
 10
91.0
 20
-30.5
 30
0.0
 11
124.2150324016
 21
-30.5
 31
0.0
  0
LINE
  5
307
330
2FA
100
AcDbEntity
  8
SK2
100
AcDbLine
 10
123.2150324016
 20
30.5
 30
0.0
 11
123.2150324016
 21
-30.5
 31
0.0
  0
MTEXT
  5
308
330
2FA
100
AcDbEntity
  8
SK2
100
AcDbMText
 10
113.466663762
 20
-5.2512071137
 30
0.0
 40
3.5
 41
0.0
 71
     1
 72
     1
  1
2,40
  7
SLDTEXTSTYLE0
 11
-7.044195017643634E-15
 21
1.0
 31
0.0
 73
     1
 44
1.0
  0
MTEXT
  5
309
330
2FA
100
AcDbEntity
  8
SK2
100
AcDbMText
 10
118.7032953124
 20
-5.9508427088
 30
0.0
 40
3.5
 41
0.0
 71
     1
 72
     1
  1
%%c
  7
SLDTEXTSTYLE0
 11
-7.044195017643634E-15
 21
1.0
 31
0.0
 73
     1
 44
1.0
  0
MTEXT
  5
30A
330
2FA
100
AcDbEntity
  8
SK2
100
AcDbMText
 10
118.7032953124
 20
-0.6724053104
 30
0.0
 40
3.5
 41
0.0
 71
     1
 72
     1
  1
61
  7
SLDTEXTSTYLE0
 11
-7.044195017643634E-15
 21
1.0
 31
0.0
 73
     1
 44
1.0
  0
ENDBLK
  5
2FC
330
2FA
100
AcDbEntity
  8
0
100
AcDbBlockEnd
  0
BLOCK
  5
30D
330
30C
100
AcDbEntity
  8
0
100
AcDbBlockBegin
  2
_D_7
 70
     0
 10
0.0
 20
0.0
 30
0.0
  3
_D_7
  1

  0
SOLID
  5
30F
330
30C
100
AcDbEntity
  8
SK2
100
AcDbTrace
 10
136.0495748369
 20
-32.5
 30
0.0
 11
136.5575748369
 21
-29.198
 31
0.0
 12
135.5415748369
 22
-29.198
 32
0.0
 13
135.5415748369
 23
-29.198
 33
0.0
  0
SOLID
  5
310
330
30C
100
AcDbEntity
  8
SK2
100
AcDbTrace
 10
136.0495748369
 20
32.5
 30
0.0
 11
135.5415748369
 21
29.198
 31
0.0
 12
136.5575748369
 22
29.198
 32
0.0
 13
136.5575748369
 23
29.198
 33
0.0
  0
LINE
  5
311
330
30C
100
AcDbEntity
  8
SK2
100
AcDbLine
 10
125.2566931209
 20
-5.2512071137
 30
0.0
 11
125.2566931209
 21
-6.3176133711
 31
0.0
  0
LINE
  5
312
330
30C
100
AcDbEntity
  8
SK2
100
AcDbLine
 10
125.2566931209
 20
-6.3176133711
 30
0.0
 11
130.812943112
 21
-6.3176133711
 31
0.0
  0
LINE
  5
313
330
30C
100
AcDbEntity
  8
SK2
100
AcDbLine
 10
130.812943112
 20
-6.3176133711
 30
0.0
 11
130.812943112
 21
-5.2512071137
 31
0.0
  0
LINE
  5
314
330
30C
100
AcDbEntity
  8
SK2
100
AcDbLine
 10
125.2566931209
 20
3.8001819472
 30
0.0
 11
125.2566931209
 21
4.8665882047
 31
0.0
  0
LINE
  5
315
330
30C
100
AcDbEntity
  8
SK2
100
AcDbLine
 10
125.2566931209
 20
4.8665882047
 30
0.0
 11
130.812943112
 21
4.8665882047
 31
0.0
  0
LINE
  5
316
330
30C
100
AcDbEntity
  8
SK2
100
AcDbLine
 10
130.812943112
 20
4.8665882047
 30
0.0
 11
130.812943112
 21
3.8001819472
 31
0.0
  0
LINE
  5
317
330
30C
100
AcDbEntity
  8
SK2
100
AcDbLine
 10
89.0
 20
-32.5
 30
0.0
 11
137.0495748369
 21
-32.5
 31
0.0
  0
LINE
  5
318
330
30C
100
AcDbEntity
  8
SK2
100
AcDbLine
 10
89.0
 20
32.5
 30
0.0
 11
137.0495748369
 21
32.5
 31
0.0
  0
LINE
  5
319
330
30C
100
AcDbEntity
  8
SK2
100
AcDbLine
 10
136.0495748369
 20
-32.5
 30
0.0
 11
136.0495748369
 21
32.5
 31
0.0
  0
MTEXT
  5
31A
330
30C
100
AcDbEntity
  8
SK2
100
AcDbMText
 10
126.3012061974
 20
-5.2512071137
 30
0.0
 40
3.5
 41
0.0
 71
     1
 72
     1
  1
2,56
  7
SLDTEXTSTYLE0
 11
6.123233995736766E-17
 21
1.0
 31
0.0
 73
     1
 44
1.0
  0
MTEXT
  5
31B
330
30C
100
AcDbEntity
  8
SK2
100
AcDbMText
 10
131.5378377477
 20
-5.9508427088
 30
0.0
 40
3.5
 41
0.0
 71
     1
 72
     1
  1
%%c
  7
SLDTEXTSTYLE0
 11
6.123233995736766E-17
 21
1.0
 31
0.0
 73
     1
 44
1.0
  0
MTEXT
  5
31C
330
30C
100
AcDbEntity
  8
SK2
100
AcDbMText
 10
131.5378377477
 20
-0.6724053104
 30
0.0
 40
3.5
 41
0.0
 71
     1
 72
     1
  1
65
  7
SLDTEXTSTYLE0
 11
6.123233995736766E-17
 21
1.0
 31
0.0
 73
     1
 44
1.0
  0
ENDBLK
  5
30E
330
30C
100
AcDbEntity
  8
0
100
AcDbBlockEnd
  0
BLOCK
  5
31F
330
31E
100
AcDbEntity
  8
0
100
AcDbBlockBegin
  2
_D_8
 70
     0
 10
0.0
 20
0.0
 30
0.0
  3
_D_8
  1

  0
SOLID
  5
321
330
31E
100
AcDbEntity
  8
SK2
100
AcDbTrace
 10
-101.6
 20
-68.4058769943
 30
0.0
 11
-98.298
 21
-68.9138769943
 31
0.0
 12
-98.298
 22
-67.8978769943
 32
0.0
 13
-98.298
 23
-67.8978769943
 33
0.0
  0
SOLID
  5
322
330
31E
100
AcDbEntity
  8
SK2
100
AcDbTrace
 10
90.0
 20
-68.4058769943
 30
0.0
 11
86.698
 21
-67.8978769943
 31
0.0
 12
86.698
 22
-68.9138769943
 32
0.0
 13
86.698
 23
-68.9138769943
 33
0.0
  0
LINE
  5
323
330
31E
100
AcDbEntity
  8
SK2
100
AcDbLine
 10
-7.5402558014
 20
-57.6129952783
 30
0.0
 11
-8.6066620588
 21
-57.6129952783
 31
0.0
  0
LINE
  5
324
330
31E
100
AcDbEntity
  8
SK2
100
AcDbLine
 10
-8.6066620588
 20
-57.6129952783
 30
0.0
 11
-8.6066620588
 21
-63.1692452693
 31
0.0
  0
LINE
  5
325
330
31E
100
AcDbEntity
  8
SK2
100
AcDbLine
 10
-8.6066620588
 20
-63.1692452693
 30
0.0
 11
-7.5402558014
 21
-63.1692452693
 31
0.0
  0
LINE
  5
326
330
31E
100
AcDbEntity
  8
SK2
100
AcDbLine
 10
4.0972446859
 20
-57.6129952783
 30
0.0
 11
5.1636509433
 21
-57.6129952783
 31
0.0
  0
LINE
  5
327
330
31E
100
AcDbEntity
  8
SK2
100
AcDbLine
 10
5.1636509433
 20
-57.6129952783
 30
0.0
 11
5.1636509433
 21
-63.1692452693
 31
0.0
  0
LINE
  5
328
330
31E
100
AcDbEntity
  8
SK2
100
AcDbLine
 10
5.1636509433
 20
-63.1692452693
 30
0.0
 11
4.0972446859
 21
-63.1692452693
 31
0.0
  0
LINE
  5
329
330
31E
100
AcDbEntity
  8
SK2
100
AcDbLine
 10
-101.6
 20
-19.2922326599
 30
0.0
 11
-101.6
 21
-69.4058769943
 31
0.0
  0
LINE
  5
32A
330
31E
100
AcDbEntity
  8
SK2
100
AcDbLine
 10
90.0
 20
-31.5
 30
0.0
 11
90.0
 21
-69.4058769943
 31
0.0
  0
LINE
  5
32B
330
31E
100
AcDbEntity
  8
SK2
100
AcDbLine
 10
-101.6
 20
-68.4058769943
 30
0.0
 11
90.0
 21
-68.4058769943
 31
0.0
  0
MTEXT
  5
32C
330
31E
100
AcDbEntity
  8
SK2
100
AcDbMText
 10
-9.653623913
 20
-63.8406677284
 30
0.0
 40
3.5
 41
0.0
 71
     1
 72
     1
  1

  7
SLDTEXTSTYLE0
 73
     1
 44
1.0
  0
MTEXT
  5
32D
330
31E
100
AcDbEntity
  8
SK2
100
AcDbMText
 10
-7.5402558014
 20
-58.6575083547
 30
0.0
 40
3.5
 41
0.0
 71
     1
 72
     1
  1
7,543
  7
SLDTEXTSTYLE0
 73
     1
 44
1.0
  0
MTEXT
  5
32E
330
31E
100
AcDbEntity
  8
SK2
100
AcDbMText
 10
-7.540256267
 20
-63.8941399051
 30
0.0
 40
3.5
 41
0.0
 71
     1
 72
     1
  1
191,6
  7
SLDTEXTSTYLE0
 73
     1
 44
1.0
  0
MTEXT
  5
32F
330
31E
100
AcDbEntity
  8
SK2
100
AcDbMText
 10
7.5425563859
 20
-63.8406677284
 30
0.0
 40
3.5
 41
0.0
 71
     1
 72
     1
  1

  7
SLDTEXTSTYLE0
 73
     1
 44
1.0
  0
ENDBLK
  5
320
330
31E
100
AcDbEntity
  8
0
100
AcDbBlockEnd
  0
BLOCK
  5
332
330
331
100
AcDbEntity
  8
0
100
AcDbBlockBegin
  2
_D_9
 70
     0
 10
0.0
 20
0.0
 30
0.0
  3
_D_9
  1

  0
SOLID
  5
334
330
331
100
AcDbEntity
  8
SK2
100
AcDbTrace
 10
22.098
 20
-58.6957140312
 30
0.0
 11
25.4
 21
-59.2037140312
 31
0.0
 12
25.4
 22
-58.1877140312
 32
0.0
 13
25.4
 23
-58.1877140312
 33
0.0
  0
SOLID
  5
335
330
331
100
AcDbEntity
  8
SK2
100
AcDbTrace
 10
90.0
 20
-58.6957140312
 30
0.0
 11
86.698
 21
-58.1877140312
 31
0.0
 12
86.698
 22
-59.2037140312
 32
0.0
 13
86.698
 23
-59.2037140312
 33
0.0
  0
LINE
  5
336
330
331
100
AcDbEntity
  8
SK2
100
AcDbLine
 10
54.3437545222
 20
-47.9028323151
 30
0.0
 11
53.2773482647
 21
-47.9028323151
 31
0.0
  0
LINE
  5
337
330
331
100
AcDbEntity
  8
SK2
100
AcDbLine
 10
53.2773482647
 20
-47.9028323151
 30
0.0
 11
53.2773482647
 21
-53.4590823062
 31
0.0
  0
LINE
  5
338
330
331
100
AcDbEntity
  8
SK2
100
AcDbLine
 10
53.2773482647
 20
-53.4590823062
 30
0.0
 11
54.3437545222
 21
-53.4590823062
 31
0.0
  0
LINE
  5
339
330
331
100
AcDbEntity
  8
SK2
100
AcDbLine
 10
63.3951435831
 20
-47.9028323151
 30
0.0
 11
64.4615498405
 21
-47.9028323151
 31
0.0
  0
LINE
  5
33A
330
331
100
AcDbEntity
  8
SK2
100
AcDbLine
 10
64.4615498405
 20
-47.9028323151
 30
0.0
 11
64.4615498405
 21
-53.4590823062
 31
0.0
  0
LINE
  5
33B
330
331
100
AcDbEntity
  8
SK2
100
AcDbLine
 10
64.4615498405
 20
-53.4590823062
 30
0.0
 11
63.3951435831
 21
-53.4590823062
 31
0.0
  0
LINE
  5
33C
330
331
100
AcDbEntity
  8
SK2
100
AcDbLine
 10
22.098
 20
-33.5
 30
0.0
 11
22.098
 21
-59.6957140312
 31
0.0
  0
LINE
  5
33D
330
331
100
AcDbEntity
  8
SK2
100
AcDbLine
 10
90.0
 20
-31.5
 30
0.0
 11
90.0
 21
-59.6957140312
 31
0.0
  0
LINE
  5
33E
330
331
100
AcDbEntity
  8
SK2
100
AcDbLine
 10
22.098
 20
-58.6957140312
 30
0.0
 11
90.0
 21
-58.6957140312
 31
0.0
  0
MTEXT
  5
33F
330
331
100
AcDbEntity
  8
SK2
100
AcDbMText
 10
52.2303864105
 20
-54.1305047653
 30
0.0
 40
3.5
 41
0.0
 71
     1
 72
     1
  1

  7
SLDTEXTSTYLE0
 73
     1
 44
1.0
  0
MTEXT
  5
340
330
331
100
AcDbEntity
  8
SK2
100
AcDbMText
 10
54.3437545222
 20
-48.9473453916
 30
0.0
 40
3.5
 41
0.0
 71
     1
 72
     1
  1
2,67
  7
SLDTEXTSTYLE0
 73
     1
 44
1.0
  0
MTEXT
  5
341
330
331
100
AcDbEntity
  8
SK2
100
AcDbMText
 10
54.3437545222
 20
-54.183976942
 30
0.0
 40
3.5
 41
0.0
 71
     1
 72
     1
  1
67,9
  7
SLDTEXTSTYLE0
 73
     1
 44
1.0
  0
MTEXT
  5
342
330
331
100
AcDbEntity
  8
SK2
100
AcDbMText
 10
66.8404562144
 20
-54.1305047653
 30
0.0
 40
3.5
 41
0.0
 71
     1
 72
     1
  1

  7
SLDTEXTSTYLE0
 73
     1
 44
1.0
  0
ENDBLK
  5
333
330
331
100
AcDbEntity
  8
0
100
AcDbBlockEnd
  0
BLOCK
  5
346
330
345
100
AcDbEntity
  8
0
100
AcDbBlockBegin
  2
_D_10
 70
     0
 10
0.0
 20
0.0
 30
0.0
  3
_D_10
  1

  0
SOLID
  5
348
330
345
100
AcDbEntity
  8
SK2
100
AcDbTrace
 10
88.0
 20
-43.7047188256
 30
0.0
 11
84.698
 21
-43.1967188256
 31
0.0
 12
84.698
 22
-44.2127188256
 32
0.0
 13
84.698
 23
-44.2127188256
 33
0.0
  0
SOLID
  5
349
330
345
100
AcDbEntity
  8
SK2
100
AcDbTrace
 10
90.0
 20
-43.7047188256
 30
0.0
 11
93.302
 21
-44.2127188256
 31
0.0
 12
93.302
 22
-43.1967188256
 32
0.0
 13
93.302
 23
-43.1967188256
 33
0.0
  0
LINE
  5
34A
330
345
100
AcDbEntity
  8
SK2
100
AcDbLine
 10
88.0
 20
-33.5
 30
0.0
 11
88.0
 21
-44.7047188256
 31
0.0
  0
LINE
  5
34B
330
345
100
AcDbEntity
  8
SK2
100
AcDbLine
 10
90.0
 20
-31.5
 30
0.0
 11
90.0
 21
-44.7047188256
 31
0.0
  0
LINE
  5
34C
330
345
100
AcDbEntity
  8
SK2
100
AcDbLine
 10
88.0
 20
-43.7047188256
 30
0.0
 11
80.0484022683
 21
-43.7047188256
 31
0.0
  0
LINE
  5
34D
330
345
100
AcDbEntity
  8
SK2
100
AcDbLine
 10
88.0
 20
-43.7047188256
 30
0.0
 11
90.0
 21
-43.7047188256
 31
0.0
  0
LINE
  5
34E
330
345
100
AcDbEntity
  8
SK2
100
AcDbLine
 10
90.0
 20
-43.7047188256
 30
0.0
 11
96.35
 21
-43.7047188256
 31
0.0
  0
MTEXT
  5
34F
330
345
100
AcDbEntity
  8
SK2
100
AcDbMText
 10
80.0484022683
 20
-39.1929819111
 30
0.0
 40
3.5
 41
0.0
 71
     1
 72
     1
  1
2
  7
SLDTEXTSTYLE0
 73
     1
 44
1.0
  0
ENDBLK
  5
347
330
345
100
AcDbEntity
  8
0
100
AcDbBlockEnd
  0
BLOCK
  5
352
330
351
100
AcDbEntity
  8
0
100
AcDbBlockBegin
  2
_D_11
 70
     0
 10
0.0
 20
0.0
 30
0.0
  3
_D_11
  1

  0
SOLID
  5
354
330
351
100
AcDbEntity
  8
SK2
100
AcDbTrace
 10
-119.2034901261
 20
47.2968145978
 30
0.0
 11
-119.7114901261
 21
43.9948145978
 31
0.0
 12
-118.6954901261
 22
43.9948145978
 32
0.0
 13
-118.6954901261
 23
43.9948145978
 33
0.0
  0
SOLID
  5
355
330
351
100
AcDbEntity
  8
SK2
100
AcDbTrace
 10
-119.2034901261
 20
-47.4754841997
 30
0.0
 11
-118.6954901261
 21
-44.1734841997
 31
0.0
 12
-119.7114901261
 22
-44.1734841997
 32
0.0
 13
-119.7114901261
 23
-44.1734841997
 33
0.0
  0
LINE
  5
356
330
351
100
AcDbEntity
  8
SK2
100
AcDbLine
 10
2.95
 20
47.2968145978
 30
0.0
 11
-120.2034901261
 21
47.2968145978
 31
0.0
  0
LINE
  5
357
330
351
100
AcDbEntity
  8
SK2
100
AcDbLine
 10
2.95
 20
-47.4754841997
 30
0.0
 11
-120.2034901261
 21
-47.4754841997
 31
0.0
  0
LINE
  5
358
330
351
100
AcDbEntity
  8
SK2
100
AcDbLine
 10
-119.2034901261
 20
47.2968145978
 30
0.0
 11
-119.2034901261
 21
-47.4754841997
 31
0.0
  0
MTEXT
  5
359
330
351
100
AcDbEntity
  8
SK2
100
AcDbMText
 10
-123.7152272153
 20
-11.4069601627
 30
0.0
 40
3.5
 41
0.0
 71
     1
 72
     1
  1
%%c
  7
SLDTEXTSTYLE0
 11
-7.044195017643634E-15
 21
1.0
 31
0.0
 73
     1
 44
1.0
  0
MTEXT
  5
35A
330
351
100
AcDbEntity
  8
SK2
100
AcDbMText
 10
-123.768699392
 20
-6.1285227643
 30
0.0
 40
3.5
 41
0.0
 71
     1
 72
     1
  1
98,42
  7
SLDTEXTSTYLE0
 11
-7.044195017643634E-15
 21
1.0
 31
0.0
 73
     1
 44
1.0
  0
ENDBLK
  5
353
330
351
100
AcDbEntity
  8
0
100
AcDbBlockEnd
  0
BLOCK
  5
35D
330
35C
100
AcDbEntity
  8
0
100
AcDbBlockBegin
  2
_D_12
 70
     0
 10
0.0
 20
0.0
 30
0.0
  3
_D_12
  1

  0
SOLID
  5
35F
330
35C
100
AcDbEntity
  8
SK2
100
AcDbTrace
 10
-109.7564128284
 20
12.6999998465
 30
0.0
 11
-110.2644128284
 21
9.3979998465
 31
0.0
 12
-109.2484128284
 22
9.3979998465
 32
0.0
 13
-109.2484128284
 23
9.3979998465
 33
0.0
  0
SOLID
  5
360
330
35C
100
AcDbEntity
  8
SK2
100
AcDbTrace
 10
-109.7564128284
 20
-12.6999998465
 30
0.0
 11
-109.2484128284
 21
-9.3979998465
 31
0.0
 12
-110.2644128284
 22
-9.3979998465
 32
0.0
 13
-110.2644128284
 23
-9.3979998465
 33
0.0
  0
LINE
  5
361
330
35C
100
AcDbEntity
  8
SK2
100
AcDbLine
 10
-95.967097044
 20
12.6999998465
 30
0.0
 11
-110.7564128284
 21
12.6999998465
 31
0.0
  0
LINE
  5
362
330
35C
100
AcDbEntity
  8
SK2
100
AcDbLine
 10
-95.967097044
 20
-12.6999998465
 30
0.0
 11
-110.7564128284
 21
-12.6999998465
 31
0.0
  0
LINE
  5
363
330
35C
100
AcDbEntity
  8
SK2
100
AcDbLine
 10
-109.7564128284
 20
12.6999998465
 30
0.0
 11
-109.7564128284
 21
-12.6999998465
 31
0.0
  0
MTEXT
  5
365
330
35C
100
AcDbEntity
  8
SK2
100
AcDbMText
 10
-114.268149743
 20
-11.1769020599
 30
0.0
 40
3.5
 41
0.0
 71
     1
 72
     1
  1
1 - 8 UNC
  7
SLDTEXTSTYLE1
 11
-7.044195017643634E-15
 21
1.0
 31
0.0
 73
     1
 44
1.0
  0
ENDBLK
  5
35E
330
35C
100
AcDbEntity
  8
0
100
AcDbBlockEnd
  0
ENDSEC
  0
SECTION
  2
ENTITIES
  0
LINE
  5
82
330
1F
100
AcDbEntity
  8
SK1
  6
SLD-Solid
370
    25
100
AcDbLine
 10
0.0
 20
34.925
 30
0.0
 11
-99.8030472773
 21
20.3702515116
 31
0.0
  0
LINE
  5
83
330
1F
100
AcDbEntity
  8
SK1
  6
SLD-Solid
370
    25
100
AcDbLine
 10
-99.8030472773
 20
-20.3702515116
 30
0.0
 11
0.0
 21
-34.925
 31
0.0
  0
LINE
  5
84
330
1F
100
AcDbEntity
  8
1
  6
SLD-Solid
370
    25
100
AcDbLine
 10
1.7476022729
 20
-34.925
 30
0.0
 11
2.1330363037
 21
-34.7452691597
 31
0.0
  0
LINE
  5
85
330
1F
100
AcDbEntity
  8
1
  6
SLD-Solid
370
    25
100
AcDbLine
 10
2.1330363037
 20
34.7452691597
 30
0.0
 11
1.7476022729
 21
34.925
 31
0.0
  0
LINE
  5
86
330
1F
100
AcDbEntity
  8
1
  6
SLD-Solid
370
    25
100
AcDbLine
 10
1.7476022729
 20
34.925
 30
0.0
 11
0.0
 21
34.925
 31
0.0
  0
LINE
  5
87
330
1F
100
AcDbEntity
  8
1
  6
SLD-Solid
370
    25
100
AcDbLine
 10
0.0
 20
-34.925
 30
0.0
 11
1.7476022729
 21
-34.925
 31
0.0
  0
LINE
  5
88
330
1F
100
AcDbEntity
  8
1
  6
SLD-Solid
370
    25
100
AcDbLine
 10
27.0560289902
 20
32.5
 30
0.0
 11
22.098
 21
32.5
 31
0.0
  0
LINE
  5
89
330
1F
100
AcDbEntity
  8
1
  6
SLD-Solid
370
    25
100
AcDbLine
 10
59.9560289902
 20
32.5
 30
0.0
 11
48.5253214064
 21
32.5
 31
0.0
  0
LINE
  5
8A
330
1F
100
AcDbEntity
  8
1
  6
SLD-Solid
370
    25
100
AcDbLine
 10
88.0
 20
32.5
 30
0.0
 11
81.4253214064
 21
32.5
 31
0.0
  0
LINE
  5
8B
330
1F
100
AcDbEntity
  8
1
  6
SLD-Solid
370
    25
100
AcDbLine
 10
80.6122836229
 20
-32.5
 30
0.0
 11
88.0
 21
-32.5
 31
0.0
  0
LINE
  5
8C
330
1F
100
AcDbEntity
  8
1
  6
SLD-Solid
370
    25
100
AcDbLine
 10
47.6946923766
 20
-32.5
 30
0.0
 11
60.8053076234
 21
-32.5
 31
0.0
  0
LINE
  5
8D
330
1F
100
AcDbEntity
  8
1
  6
SLD-Solid
370
    25
100
AcDbLine
 10
22.098
 20
-32.5
 30
0.0
 11
27.8877163771
 21
-32.5
 31
0.0
  0
LINE
  5
8E
330
1F
100
AcDbEntity
  8
1
  6
SLD-Solid
370
    25
100
AcDbLine
 10
88.0
 20
-32.5
 30
0.0
 11
90.0
 21
-30.5
 31
0.0
  0
LINE
  5
8F
330
1F
100
AcDbEntity
  8
1
  6
SLD-Solid
370
    25
100
AcDbLine
 10
90.0
 20
30.5
 30
0.0
 11
88.0
 21
32.5
 31
0.0
  0
LINE
  5
90
330
1F
100
AcDbEntity
  8
1
  6
SLD-Solid
370
    25
100
AcDbLine
 10
67.6651000171
 20
31.235
 30
0.0
 11
73.6795225078
 21
31.235
 31
0.0
  0
LINE
  5
91
330
1F
100
AcDbEntity
  8
1
  6
SLD-Solid
370
    25
100
AcDbLine
 10
34.7656893933
 20
31.235
 30
0.0
 11
40.7260642743
 21
31.235
 31
0.0
  0
LINE
  5
92
330
1F
100
AcDbEntity
  8
1
  6
SLD-Solid
370
    25
100
AcDbLine
 10
3.95
 20
-47.4754841997
 30
0.0
 11
7.5902766066
 21
-47.4754841997
 31
0.0
  0
LINE
  5
93
330
1F
100
AcDbEntity
  8
1
  6
SLD-Solid
370
    25
100
AcDbLine
 10
3.95
 20
47.2968145978
 30
0.0
 11
3.95
 21
-47.4754841997
 31
0.0
  0
LINE
  5
94
330
1F
100
AcDbEntity
  8
1
  6
SLD-Solid
370
    25
100
AcDbLine
 10
7.5902766066
 20
47.2968145978
 30
0.0
 11
3.95
 21
47.2968145978
 31
0.0
  0
LINE
  5
95
330
1F
100
AcDbEntity
  8
1
  6
SLD-Solid
370
    25
100
AcDbLine
 10
7.5902766066
 20
47.2968145978
 30
0.0
 11
7.5902766066
 21
-47.4754841997
 31
0.0
  0
LINE
  5
96
330
1F
100
AcDbEntity
  8
1
  6
SLD-Solid
370
    25
100
AcDbLine
 10
3.2
 20
-46.6976348437
 30
0.0
 11
3.2
 21
46.5560855313
 31
0.0
  0
LINE
  5
97
330
1F
100
AcDbEntity
  8
1
  6
SLD-Solid
370
    25
100
AcDbLine
 10
19.05
 20
46.6976348437
 30
0.0
 11
19.05
 21
-46.6976348437
 31
0.0
  0
LINE
  5
98
330
1F
100
AcDbEntity
  8
1
  6
SLD-Solid
370
    25
100
AcDbLine
 10
18.3
 20
-47.4754841997
 30
0.0
 11
18.3
 21
47.4754841997
 31
0.0
  0
LINE
  5
99
330
1F
100
AcDbEntity
  8
1
  6
SLD-Solid
370
    25
100
AcDbLine
 10
9.2
 20
44.5790106634
 30
0.0
 11
9.2
 21
41.9587011964
 31
0.0
  0
LINE
  5
9A
330
1F
100
AcDbEntity
  8
1
  6
SLD-Solid
370
    25
100
AcDbLine
 10
9.2
 20
41.4830129515
 30
0.0
 11
9.2
 21
35.3885961177
 31
0.0
  0
LINE
  5
9B
330
1F
100
AcDbEntity
  8
1
  6
SLD-Solid
370
    25
100
AcDbLine
 10
9.2
 20
34.676688935
 30
0.0
 11
9.2
 21
-44.5790106634
 31
0.0
  0
LINE
  5
9C
330
1F
100
AcDbEntity
  8
1
  6
SLD-Solid
370
    25
100
AcDbLine
 10
13.03
 20
44.5790106634
 30
0.0
 11
13.03
 21
41.9871173317
 31
0.0
  0
LINE
  5
9D
330
1F
100
AcDbEntity
  8
1
  6
SLD-Solid
370
    25
100
AcDbLine
 10
14.6397233934
 20
47.4754841997
 30
0.0
 11
14.6397233934
 21
-47.4754841997
 31
0.0
  0
LINE
  5
9E
330
1F
100
AcDbEntity
  8
1
  6
SLD-Solid
370
    25
100
AcDbLine
 10
13.03
 20
34.6324292339
 30
0.0
 11
13.03
 21
-44.5790106634
 31
0.0
  0
LINE
  5
9F
330
1F
100
AcDbEntity
  8
1
  6
SLD-Solid
370
    25
100
AcDbLine
 10
13.03
 20
41.453113616
 30
0.0
 11
13.03
 21
35.4316103884
 31
0.0
  0
LINE
  5
A0
330
1F
100
AcDbEntity
  8
1
  6
SLD-Solid
370
    25
100
AcDbLine
 10
14.6397233934
 20
47.4754841997
 30
0.0
 11
18.3
 21
47.4754841997
 31
0.0
  0
LINE
  5
A1
330
1F
100
AcDbEntity
  8
1
  6
SLD-Solid
370
    25
100
AcDbLine
 10
14.6397233934
 20
-47.4754841997
 30
0.0
 11
18.3
 21
-47.4754841997
 31
0.0
  0
LINE
  5
A2
330
1F
100
AcDbEntity
  8
1
  6
SLD-Solid
370
    25
100
AcDbLine
 10
12.28
 20
33.3554707167
 30
0.0
 11
12.28
 21
-43.7694359685
 31
0.0
  0
LINE
  5
A3
330
1F
100
AcDbEntity
  8
1
  6
SLD-Solid
370
    25
100
AcDbLine
 10
9.95
 20
33.3652595305
 30
0.0
 11
9.95
 21
-43.7694359685
 31
0.0
  0
LINE
  5
A4
330
1F
100
AcDbEntity
  8
1
  6
SLD-Solid
370
    25
100
AcDbLine
 10
9.95
 20
-43.7694359685
 30
0.0
 11
12.28
 21
-43.7694359685
 31
0.0
  0
LINE
  5
A5
330
1F
100
AcDbEntity
  8
1
  6
SLD-Solid
370
    25
100
AcDbLine
 10
0.0
 20
34.925
 30
0.0
 11
0.0
 21
-34.925
 31
0.0
  0
LINE
  5
A6
330
1F
100
AcDbEntity
  8
1
  6
SLD-Solid
370
    25
100
AcDbLine
 10
1.7476022729
 20
34.925
 30
0.0
 11
1.7476022729
 21
-34.925
 31
0.0
  0
LINE
  5
A7
330
1F
100
AcDbEntity
  8
1
  6
SLD-Solid
370
    25
100
AcDbLine
 10
88.0
 20
32.5
 30
0.0
 11
88.0
 21
-32.5
 31
0.0
  0
LINE
  5
A8
330
1F
100
AcDbEntity
  8
1
  6
SLD-Solid
370
    25
100
AcDbLine
 10
90.0
 20
30.5
 30
0.0
 11
90.0
 21
-30.5
 31
0.0
  0
LINE
  5
A9
330
1F
100
AcDbEntity
  8
1
  6
SLD-Solid
370
    25
100
AcDbLine
 10
13.03
 20
35.4113240881
 30
0.0
 11
13.03
 21
35.4316103884
 31
0.0
  0
LINE
  5
AA
330
1F
100
AcDbEntity
  8
1
  6
SLD-Solid
370
    25
100
AcDbLine
 10
9.2
 20
35.3885961177
 30
0.0
 11
9.2
 21
35.3683101782
 31
0.0
  0
LINE
  5
AB
330
1F
100
AcDbEntity
  8
1
  6
SLD-Solid
370
    25
100
AcDbLine
 10
9.95
 20
40.2901760725
 30
0.0
 11
9.95
 21
35.4888548114
 31
0.0
  0
LINE
  5
AC
330
1F
100
AcDbEntity
  8
1
  6
SLD-Solid
370
    25
100
AcDbLine
 10
12.28
 20
40.2834337913
 30
0.0
 11
12.28
 21
35.4978726362
 31
0.0
  0
LINE
  5
AD
330
1F
100
AcDbEntity
  8
1
  6
SLD-Solid
370
    25
100
AcDbLine
 10
9.2
 20
41.9587011964
 30
0.0
 11
9.2
 21
41.9345423912
 31
0.0
  0
LINE
  5
AE
330
1F
100
AcDbEntity
  8
1
  6
SLD-Solid
370
    25
100
AcDbLine
 10
13.03
 20
41.9629580968
 30
0.0
 11
13.03
 21
41.9871173317
 31
0.0
  0
LINE
  5
AF
330
1F
100
AcDbEntity
  8
SK1
  6
SLD-Solid
370
    25
100
AcDbLine
 10
-101.6
 20
-18.2922326599
 30
0.0
 11
-101.6
 21
18.2922326599
 31
0.0
  0
LINE
  5
B0
330
1F
100
AcDbEntity
  8
1
  6
SLD-Solid
370
    25
100
AcDbLine
 10
9.95
 20
43.7694359685
 30
0.0
 11
9.95
 21
41.7091381742
 31
0.0
  0
LINE
  5
B1
330
1F
100
AcDbEntity
  8
1
  6
SLD-Solid
370
    25
100
AcDbLine
 10
12.28
 20
43.7694359685
 30
0.0
 11
12.28
 21
41.714962274
 31
0.0
  0
LINE
  5
B2
330
1F
100
AcDbEntity
  8
1
  6
SLD-Solid
370
    25
100
AcDbLine
 10
9.95
 20
43.7694359685
 30
0.0
 11
12.28
 21
43.7694359685
 31
0.0
  0
LINE
  5
B3
330
1F
100
AcDbEntity
  8
1
  6
SLD-Solid
370
    25
100
AcDbLine
 10
22.098
 20
0.0
 30
0.0
 11
22.098
 21
-32.5
 31
0.0
  0
LINE
  5
B4
330
1F
100
AcDbEntity
  8
1
  6
SLD-Solid
370
    25
100
AcDbLine
 10
22.098
 20
32.5
 30
0.0
 11
22.098
 21
0.0
 31
0.0
  0
LINE
  5
B5
330
1F
100
AcDbEntity
  8
1
  6
SLD-Solid
370
    25
100
AcDbLine
 10
2.1330363037
 20
34.7452691597
 30
0.0
 11
2.1330363037
 21
-34.7452691597
 31
0.0
  0
LINE
  5
B6
330
1F
100
AcDbEntity
  8
SK1
  6
SLD-Solid
370
    25
100
AcDbLine
 10
-99.8030472773
 20
0.0
 30
0.0
 11
-99.8030472773
 21
-20.3702515116
 31
0.0
  0
LINE
  5
B7
330
1F
100
AcDbEntity
  8
SK1
  6
SLD-Solid
370
    25
100
AcDbLine
 10
-99.8030472773
 20
20.3702515116
 30
0.0
 11
-99.8030472773
 21
0.0
 31
0.0
  0
LINE
  5
B8
330
1F
100
AcDbEntity
  8
SK3
  6
SLD-Dashed
370
    18
100
AcDbLine
 10
6.4723069743
 20
-13.9015950424
 30
0.0
 11
6.3142161927
 21
-13.2694985628
 31
0.0
  0
LINE
  5
B9
330
1F
100
AcDbEntity
  8
SK3
  6
SLD-Dashed
370
    18
100
AcDbLine
 10
6.3142161927
 20
-13.2694985628
 30
0.0
 11
6.0693777048
 21
-12.6771190298
 31
0.0
  0
LINE
  5
BA
330
1F
100
AcDbEntity
  8
SK3
  6
SLD-Dashed
370
    18
100
AcDbLine
 10
6.0693777048
 20
-12.6771190298
 30
0.0
 11
5.7531756131
 21
-12.1616778279
 31
0.0
  0
LINE
  5
BB
330
1F
100
AcDbEntity
  8
SK3
  6
SLD-Dashed
370
    18
100
AcDbLine
 10
5.7531756131
 20
-12.1616778279
 30
0.0
 11
5.3854780579
 21
-11.7555620236
 31
0.0
  0
LINE
  5
BC
330
1F
100
AcDbEntity
  8
SK3
  6
SLD-Dashed
370
    18
100
AcDbLine
 10
5.3854780579
 20
-11.7555620236
 30
0.0
 11
4.989388829
 21
-11.4842893664
 31
0.0
  0
LINE
  5
BD
330
1F
100
AcDbEntity
  8
SK3
  6
SLD-Dashed
370
    18
100
AcDbLine
 10
4.989388829
 20
-11.4842893664
 30
0.0
 11
4.5897956693
 21
-11.364904915
 31
0.0
  0
LINE
  5
BE
330
1F
100
AcDbEntity
  8
SK3
  6
SLD-Dashed
370
    18
100
AcDbLine
 10
4.5897956693
 20
-11.364904915
 30
0.0
 11
4.2118064866
 21
-11.4049100337
 31
0.0
  0
LINE
  5
BF
330
1F
100
AcDbEntity
  8
SK3
  6
SLD-Dashed
370
    18
100
AcDbLine
 10
4.2118064866
 20
-11.4049100337
 30
0.0
 11
3.8791717315
 21
-11.6017910536
 31
0.0
  0
LINE
  5
C0
330
1F
100
AcDbEntity
  8
SK3
  6
SLD-Dashed
370
    18
100
AcDbLine
 10
3.8791717315
 20
-11.6017910536
 30
0.0
 11
3.6127920689
 21
-11.9431772162
 31
0.0
  0
LINE
  5
C1
330
1F
100
AcDbEntity
  8
SK3
  6
SLD-Dashed
370
    18
100
AcDbLine
 10
3.6127920689
 20
-11.9431772162
 30
0.0
 11
3.4294051127
 21
-12.4076179734
 31
0.0
  0
LINE
  5
C2
330
1F
100
AcDbEntity
  8
SK3
  6
SLD-Dashed
370
    18
100
AcDbLine
 10
3.4294051127
 20
-12.4076179734
 30
0.0
 11
3.3405337399
 21
-12.9659308043
 31
0.0
  0
LINE
  5
C3
330
1F
100
AcDbEntity
  8
SK3
  6
SLD-Dashed
370
    18
100
AcDbLine
 10
3.3405337399
 20
-12.9659308043
 30
0.0
 11
3.3517620655
 21
-13.5830348604
 31
0.0
  0
LINE
  5
C4
330
1F
100
AcDbEntity
  8
SK3
  6
SLD-Dashed
370
    18
100
AcDbLine
 10
3.3517620655
 20
-13.5830348604
 30
0.0
 11
3.4623845728
 21
-14.2201552244
 31
0.0
  0
LINE
  5
C5
330
1F
100
AcDbEntity
  8
SK3
  6
SLD-Dashed
370
    18
100
AcDbLine
 10
3.4623845728
 20
-14.2201552244
 30
0.0
 11
3.6654504425
 21
-14.8372592805
 31
0.0
  0
LINE
  5
C6
330
1F
100
AcDbEntity
  8
SK3
  6
SLD-Dashed
370
    18
100
AcDbLine
 10
3.6654504425
 20
-14.8372592805
 30
0.0
 11
3.9482002994
 21
-15.3955721114
 31
0.0
  0
LINE
  5
C7
330
1F
100
AcDbEntity
  8
SK3
  6
SLD-Dashed
370
    18
100
AcDbLine
 10
3.9482002994
 20
-15.3955721114
 30
0.0
 11
4.2928679301
 21
-15.8600128686
 31
0.0
  0
LINE
  5
C8
330
1F
100
AcDbEntity
  8
SK3
  6
SLD-Dashed
370
    18
100
AcDbLine
 10
4.2928679301
 20
-15.8600128686
 30
0.0
 11
4.6777965997
 21
-16.2013990312
 31
0.0
  0
LINE
  5
C9
330
1F
100
AcDbEntity
  8
SK3
  6
SLD-Dashed
370
    18
100
AcDbLine
 10
4.6777965997
 20
-16.2013990312
 30
0.0
 11
5.0787998242
 21
-16.3982800511
 31
0.0
  0
LINE
  5
CA
330
1F
100
AcDbEntity
  8
SK3
  6
SLD-Dashed
370
    18
100
AcDbLine
 10
5.0787998242
 20
-16.3982800511
 30
0.0
 11
5.4706810962
 21
-16.4382851698
 31
0.0
  0
LINE
  5
CB
330
1F
100
AcDbEntity
  8
SK3
  6
SLD-Dashed
370
    18
100
AcDbLine
 10
5.4706810962
 20
-16.4382851698
 30
0.0
 11
5.8288170743
 21
-16.3189007184
 31
0.0
  0
LINE
  5
CC
330
1F
100
AcDbEntity
  8
SK3
  6
SLD-Dashed
370
    18
100
AcDbLine
 10
5.8288170743
 20
-16.3189007184
 30
0.0
 11
6.1307047577
 21
-16.0476280612
 31
0.0
  0
LINE
  5
CD
330
1F
100
AcDbEntity
  8
SK3
  6
SLD-Dashed
370
    18
100
AcDbLine
 10
6.1307047577
 20
-16.0476280612
 30
0.0
 11
6.3573754331
 21
-15.6415122569
 31
0.0
  0
LINE
  5
CE
330
1F
100
AcDbEntity
  8
SK3
  6
SLD-Dashed
370
    18
100
AcDbLine
 10
6.3573754331
 20
-15.6415122569
 30
0.0
 11
6.4945865482
 21
-15.126071055
 31
0.0
  0
LINE
  5
CF
330
1F
100
AcDbEntity
  8
SK3
  6
SLD-Dashed
370
    18
100
AcDbLine
 10
6.4945865482
 20
-15.126071055
 30
0.0
 11
6.5337166241
 21
-14.533691522
 31
0.0
  0
LINE
  5
D0
330
1F
100
AcDbEntity
  8
SK3
  6
SLD-Dashed
370
    18
100
AcDbLine
 10
6.5337166241
 20
-14.533691522
 30
0.0
 11
6.4723069743
 21
-13.9015950424
 31
0.0
  0
LINE
  5
D1
330
1F
100
AcDbEntity
  8
SK3
  6
SLD-Dashed
370
    18
100
AcDbLine
 10
6.4545594773
 20
-13.8826166832
 30
0.0
 11
6.5127856003
 21
-14.5025060877
 31
0.0
  0
LINE
  5
D2
330
1F
100
AcDbEntity
  8
SK3
  6
SLD-Dashed
370
    18
100
AcDbLine
 10
6.5127856003
 20
-14.5025060877
 30
0.0
 11
6.4682345259
 21
-15.0801510537
 31
0.0
  0
LINE
  5
D3
330
1F
100
AcDbEntity
  8
SK3
  6
SLD-Dashed
370
    18
100
AcDbLine
 10
6.4682345259
 20
-15.0801510537
 30
0.0
 11
6.3239423361
 21
-15.5761860314
 31
0.0
  0
LINE
  5
D4
330
1F
100
AcDbEntity
  8
SK3
  6
SLD-Dashed
370
    18
100
AcDbLine
 10
6.3239423361
 20
-15.5761860314
 30
0.0
 11
6.0897423053
 21
-15.9568070568
 31
0.0
  0
LINE
  5
D5
330
1F
100
AcDbEntity
  8
SK3
  6
SLD-Dashed
370
    18
100
AcDbLine
 10
6.0897423053
 20
-15.9568070568
 30
0.0
 11
5.7815947785
 21
-16.1960754359
 31
0.0
  0
LINE
  5
D6
330
1F
100
AcDbEntity
  8
SK3
  6
SLD-Dashed
370
    18
100
AcDbLine
 10
5.7815947785
 20
-16.1960754359
 30
0.0
 11
5.4204995004
 21
-16.2776854242
 31
0.0
  0
LINE
  5
D7
330
1F
100
AcDbEntity
  8
SK3
  6
SLD-Dashed
370
    18
100
AcDbLine
 10
5.4204995004
 20
-16.2776854242
 30
0.0
 11
5.0310645175
 21
-16.1960754359
 31
0.0
  0
LINE
  5
D8
330
1F
100
AcDbEntity
  8
SK3
  6
SLD-Dashed
370
    18
100
AcDbLine
 10
5.0310645175
 20
-16.1960754359
 30
0.0
 11
4.6398291803
 21
-15.9568070568
 31
0.0
  0
LINE
  5
D9
330
1F
100
AcDbEntity
  8
SK3
  6
SLD-Dashed
370
    18
100
AcDbLine
 10
4.6398291803
 20
-15.9568070568
 30
0.0
 11
4.2734555305
 21
-15.5761860314
 31
0.0
  0
LINE
  5
DA
330
1F
100
AcDbEntity
  8
SK3
  6
SLD-Dashed
370
    18
100
AcDbLine
 10
4.2734555305
 20
-15.5761860314
 30
0.0
 11
3.9569113269
 21
-15.0801510537
 31
0.0
  0
LINE
  5
DB
330
1F
100
AcDbEntity
  8
SK3
  6
SLD-Dashed
370
    18
100
AcDbLine
 10
3.9569113269
 20
-15.0801510537
 30
0.0
 11
3.7117685337
 21
-14.5025060877
 31
0.0
  0
LINE
  5
DC
330
1F
100
AcDbEntity
  8
SK3
  6
SLD-Dashed
370
    18
100
AcDbLine
 10
3.7117685337
 20
-14.5025060877
 30
0.0
 11
3.5547332273
 21
-13.8826166832
 31
0.0
  0
LINE
  5
DD
330
1F
100
AcDbEntity
  8
SK3
  6
SLD-Dashed
370
    18
100
AcDbLine
 10
3.5547332273
 20
-13.8826166832
 30
0.0
 11
3.4965071043
 21
-13.2627272786
 31
0.0
  0
LINE
  5
DE
330
1F
100
AcDbEntity
  8
SK3
  6
SLD-Dashed
370
    18
100
AcDbLine
 10
3.4965071043
 20
-13.2627272786
 30
0.0
 11
3.5410581787
 21
-12.6850823126
 31
0.0
  0
LINE
  5
DF
330
1F
100
AcDbEntity
  8
SK3
  6
SLD-Dashed
370
    18
100
AcDbLine
 10
3.5410581787
 20
-12.6850823126
 30
0.0
 11
3.6853503685
 21
-12.1890473349
 31
0.0
  0
LINE
  5
E0
330
1F
100
AcDbEntity
  8
SK3
  6
SLD-Dashed
370
    18
100
AcDbLine
 10
3.6853503685
 20
-12.1890473349
 30
0.0
 11
3.9195503993
 21
-11.8084263096
 31
0.0
  0
LINE
  5
E1
330
1F
100
AcDbEntity
  8
SK3
  6
SLD-Dashed
370
    18
100
AcDbLine
 10
3.9195503993
 20
-11.8084263096
 30
0.0
 11
4.2276979261
 21
-11.5691579304
 31
0.0
  0
LINE
  5
E2
330
1F
100
AcDbEntity
  8
SK3
  6
SLD-Dashed
370
    18
100
AcDbLine
 10
4.2276979261
 20
-11.5691579304
 30
0.0
 11
4.5887932042
 21
-11.4875479421
 31
0.0
  0
LINE
  5
E3
330
1F
100
AcDbEntity
  8
SK3
  6
SLD-Dashed
370
    18
100
AcDbLine
 10
4.5887932042
 20
-11.4875479421
 30
0.0
 11
4.9782281871
 21
-11.5691579304
 31
0.0
  0
LINE
  5
E4
330
1F
100
AcDbEntity
  8
SK3
  6
SLD-Dashed
370
    18
100
AcDbLine
 10
4.9782281871
 20
-11.5691579304
 30
0.0
 11
5.3694635243
 21
-11.8084263096
 31
0.0
  0
LINE
  5
E5
330
1F
100
AcDbEntity
  8
SK3
  6
SLD-Dashed
370
    18
100
AcDbLine
 10
5.3694635243
 20
-11.8084263096
 30
0.0
 11
5.7358371741
 21
-12.1890473349
 31
0.0
  0
LINE
  5
E6
330
1F
100
AcDbEntity
  8
SK3
  6
SLD-Dashed
370
    18
100
AcDbLine
 10
5.7358371741
 20
-12.1890473349
 30
0.0
 11
6.0523813778
 21
-12.6850823126
 31
0.0
  0
LINE
  5
E7
330
1F
100
AcDbEntity
  8
SK3
  6
SLD-Dashed
370
    18
100
AcDbLine
 10
6.0523813778
 20
-12.6850823126
 30
0.0
 11
6.2975241709
 21
-13.2627272786
 31
0.0
  0
LINE
  5
E8
330
1F
100
AcDbEntity
  8
SK3
  6
SLD-Dashed
370
    18
100
AcDbLine
 10
6.2975241709
 20
-13.2627272786
 30
0.0
 11
6.4545594773
 21
-13.8826166832
 31
0.0
  0
LINE
  5
E9
330
1F
100
AcDbEntity
  8
SK3
  6
SLD-Dashed
370
    18
100
AcDbLine
 10
17.1792841073
 20
-11.0168048658
 30
0.0
 11
17.022248801
 21
-10.3969154613
 31
0.0
  0
LINE
  5
EA
330
1F
100
AcDbEntity
  8
SK3
  6
SLD-Dashed
370
    18
100
AcDbLine
 10
17.022248801
 20
-10.3969154613
 30
0.0
 11
16.7771060078
 21
-9.8192704952
 31
0.0
  0
LINE
  5
EB
330
1F
100
AcDbEntity
  8
SK3
  6
SLD-Dashed
370
    18
100
AcDbLine
 10
16.7771060078
 20
-9.8192704952
 30
0.0
 11
16.4605618041
 21
-9.3232355176
 31
0.0
  0
LINE
  5
EC
330
1F
100
AcDbEntity
  8
SK3
  6
SLD-Dashed
370
    18
100
AcDbLine
 10
16.4605618041
 20
-9.3232355176
 30
0.0
 11
16.0941881543
 21
-8.9426144922
 31
0.0
  0
LINE
  5
ED
330
1F
100
AcDbEntity
  8
SK3
  6
SLD-Dashed
370
    18
100
AcDbLine
 10
16.0941881543
 20
-8.9426144922
 30
0.0
 11
15.7029528171
 21
-8.703346113
 31
0.0
  0
LINE
  5
EE
330
1F
100
AcDbEntity
  8
SK3
  6
SLD-Dashed
370
    18
100
AcDbLine
 10
15.7029528171
 20
-8.703346113
 30
0.0
 11
15.3135178342
 21
-8.6217361247
 31
0.0
  0
LINE
  5
EF
330
1F
100
AcDbEntity
  8
SK3
  6
SLD-Dashed
370
    18
100
AcDbLine
 10
15.3135178342
 20
-8.6217361247
 30
0.0
 11
14.9524225561
 21
-8.703346113
 31
0.0
  0
LINE
  5
F0
330
1F
100
AcDbEntity
  8
SK3
  6
SLD-Dashed
370
    18
100
AcDbLine
 10
14.9524225561
 20
-8.703346113
 30
0.0
 11
14.6442750293
 21
-8.9426144922
 31
0.0
  0
LINE
  5
F1
330
1F
100
AcDbEntity
  8
SK3
  6
SLD-Dashed
370
    18
100
AcDbLine
 10
14.6442750293
 20
-8.9426144922
 30
0.0
 11
14.4100749985
 21
-9.3232355176
 31
0.0
  0
LINE
  5
F2
330
1F
100
AcDbEntity
  8
SK3
  6
SLD-Dashed
370
    18
100
AcDbLine
 10
14.4100749985
 20
-9.3232355176
 30
0.0
 11
14.2657828088
 21
-9.8192704952
 31
0.0
  0
LINE
  5
F3
330
1F
100
AcDbEntity
  8
SK3
  6
SLD-Dashed
370
    18
100
AcDbLine
 10
14.2657828088
 20
-9.8192704952
 30
0.0
 11
14.2212317343
 21
-10.3969154613
 31
0.0
  0
LINE
  5
F4
330
1F
100
AcDbEntity
  8
SK3
  6
SLD-Dashed
370
    18
100
AcDbLine
 10
14.2212317343
 20
-10.3969154613
 30
0.0
 11
14.2794578574
 21
-11.0168048658
 31
0.0
  0
LINE
  5
F5
330
1F
100
AcDbEntity
  8
SK3
  6
SLD-Dashed
370
    18
100
AcDbLine
 10
14.2794578574
 20
-11.0168048658
 30
0.0
 11
14.4364931637
 21
-11.6366942703
 31
0.0
  0
LINE
  5
F6
330
1F
100
AcDbEntity
  8
SK3
  6
SLD-Dashed
370
    18
100
AcDbLine
 10
14.4364931637
 20
-11.6366942703
 30
0.0
 11
14.6816359569
 21
-12.2143392363
 31
0.0
  0
LINE
  5
F7
330
1F
100
AcDbEntity
  8
SK3
  6
SLD-Dashed
370
    18
100
AcDbLine
 10
14.6816359569
 20
-12.2143392363
 30
0.0
 11
14.9981801606
 21
-12.710374214
 31
0.0
  0
LINE
  5
F8
330
1F
100
AcDbEntity
  8
SK3
  6
SLD-Dashed
370
    18
100
AcDbLine
 10
14.9981801606
 20
-12.710374214
 30
0.0
 11
15.3645538104
 21
-13.0909952394
 31
0.0
  0
LINE
  5
F9
330
1F
100
AcDbEntity
  8
SK3
  6
SLD-Dashed
370
    18
100
AcDbLine
 10
15.3645538104
 20
-13.0909952394
 30
0.0
 11
15.7557891476
 21
-13.3302636185
 31
0.0
  0
LINE
  5
FA
330
1F
100
AcDbEntity
  8
SK3
  6
SLD-Dashed
370
    18
100
AcDbLine
 10
15.7557891476
 20
-13.3302636185
 30
0.0
 11
16.1452241305
 21
-13.4118736069
 31
0.0
  0
LINE
  5
FB
330
1F
100
AcDbEntity
  8
SK3
  6
SLD-Dashed
370
    18
100
AcDbLine
 10
16.1452241305
 20
-13.4118736069
 30
0.0
 11
16.5063194086
 21
-13.3302636185
 31
0.0
  0
LINE
  5
FC
330
1F
100
AcDbEntity
  8
SK3
  6
SLD-Dashed
370
    18
100
AcDbLine
 10
16.5063194086
 20
-13.3302636185
 30
0.0
 11
16.8144669354
 21
-13.0909952394
 31
0.0
  0
LINE
  5
FD
330
1F
100
AcDbEntity
  8
SK3
  6
SLD-Dashed
370
    18
100
AcDbLine
 10
16.8144669354
 20
-13.0909952394
 30
0.0
 11
17.0486669662
 21
-12.710374214
 31
0.0
  0
LINE
  5
FE
330
1F
100
AcDbEntity
  8
SK3
  6
SLD-Dashed
370
    18
100
AcDbLine
 10
17.0486669662
 20
-12.710374214
 30
0.0
 11
17.1929591559
 21
-12.2143392363
 31
0.0
  0
LINE
  5
FF
330
1F
100
AcDbEntity
  8
SK3
  6
SLD-Dashed
370
    18
100
AcDbLine
 10
17.1929591559
 20
-12.2143392363
 30
0.0
 11
17.2375102304
 21
-11.6366942703
 31
0.0
  0
LINE
  5
100
330
1F
100
AcDbEntity
  8
SK3
  6
SLD-Dashed
370
    18
100
AcDbLine
 10
17.2375102304
 20
-11.6366942703
 30
0.0
 11
17.1792841073
 21
-11.0168048658
 31
0.0
  0
LINE
  5
101
330
1F
100
AcDbEntity
  8
SK3
  6
SLD-Dashed
370
    18
100
AcDbLine
 10
88.0947441117
 20
-20.0
 30
0.0
 11
88.0947441117
 21
20.0
 31
0.0
  0
LINE
  5
102
330
1F
100
AcDbEntity
  8
SK3
  6
SLD-Dashed
370
    18
100
AcDbLine
 10
90.0
 20
-21.0948363381
 30
0.0
 11
90.0
 21
21.0948363381
 31
0.0
  0
LINE
  5
103
330
1F
100
AcDbEntity
  8
SK3
  6
SLD-Dashed
370
    18
100
AcDbLine
 10
18.5
 20
-20.25
 30
0.0
 11
18.5
 21
20.25
 31
0.0
  0
LINE
  5
104
330
1F
100
AcDbEntity
  8
SK3
  6
SLD-Dashed
370
    18
100
AcDbLine
 10
21.5
 20
-20.25
 30
0.0
 11
21.5
 21
20.25
 31
0.0
  0
LINE
  5
105
330
1F
100
AcDbEntity
  8
SK3
  6
SLD-Dashed
370
    18
100
AcDbLine
 10
21.5
 20
-19.9798613308
 30
0.0
 11
21.5
 21
19.9798613308
 31
0.0
  0
LINE
  5
106
330
1F
100
AcDbEntity
  8
SK3
  6
SLD-Dashed
370
    18
100
AcDbLine
 10
16.0
 20
-15.25
 30
0.0
 11
16.0
 21
15.25
 31
0.0
  0
LINE
  5
107
330
1F
100
AcDbEntity
  8
SK3
  6
SLD-Dashed
370
    18
100
AcDbLine
 10
18.5
 20
-15.2449441296
 30
0.0
 11
18.5
 21
15.2449441296
 31
0.0
  0
LINE
  5
108
330
1F
100
AcDbEntity
  8
SK3
  6
SLD-Dashed
370
    18
100
AcDbLine
 10
13.5139391888
 20
-11.1125
 30
0.0
 11
13.5139391888
 21
11.1125
 31
0.0
  0
LINE
  5
109
330
1F
100
AcDbEntity
  8
SK3
  6
SLD-Dashed
370
    18
100
AcDbLine
 10
-99.7034043657
 20
-13.19
 30
0.0
 11
-99.7034043657
 21
13.19
 31
0.0
  0
LINE
  5
10A
330
1F
100
AcDbEntity
  8
SK3
  6
SLD-Dashed
370
    18
100
AcDbLine
 10
-101.6
 20
-14.2799375549
 30
0.0
 11
-101.6
 21
14.2799375549
 31
0.0
  0
LINE
  5
10B
330
1F
100
AcDbEntity
  8
SK3
  6
SLD-Dashed
370
    18
100
AcDbLine
 10
-95.25
 20
-13.19
 30
0.0
 11
-95.25
 21
13.19
 31
0.0
  0
LINE
  5
10C
330
1F
100
AcDbEntity
  8
SK3
  6
SLD-Dashed
370
    18
100
AcDbLine
 10
-94.0505548158
 20
-11.1125
 30
0.0
 11
-94.0505548158
 21
11.1125
 31
0.0
  0
LINE
  5
10D
330
1F
100
AcDbEntity
  8
SK3
  6
SLD-Dashed
370
    18
100
AcDbLine
 10
3.7
 20
37.875
 30
0.0
 11
3.7
 21
46.5560855313
 31
0.0
  0
LINE
  5
10E
330
1F
100
AcDbEntity
  8
SK3
  6
SLD-Dashed
370
    18
100
AcDbLine
 10
3.95
 20
46.8162535878
 30
0.0
 11
7.9572893801
 21
46.8162535878
 31
0.0
  0
LINE
  5
10F
330
1F
100
AcDbEntity
  8
1
  6
SLD-Dashed
370
    18
100
AcDbLine
 10
13.03
 20
44.5510215932
 30
0.0
 11
13.03
 21
44.5790106634
 31
0.0
  0
LINE
  5
110
330
1F
100
AcDbEntity
  8
1
  6
SLD-Dashed
370
    18
100
AcDbLine
 10
9.2
 20
44.5790106634
 30
0.0
 11
9.2
 21
44.5510215932
 31
0.0
  0
LINE
  5
111
330
1F
100
AcDbEntity
  8
SK3
  6
SLD-Dashed
370
    18
100
AcDbLine
 10
19.05
 20
46.6976348437
 30
0.0
 11
19.05
 21
37.875
 31
0.0
  0
LINE
  5
112
330
1F
100
AcDbEntity
  8
1
  6
SLD-Dashed
370
    18
100
AcDbLine
 10
9.2
 20
-44.5790106634
 30
0.0
 11
9.2
 21
-44.5510215932
 31
0.0
  0
LINE
  5
113
330
1F
100
AcDbEntity
  8
1
  6
SLD-Dashed
370
    18
100
AcDbLine
 10
13.03
 20
-44.5510215932
 30
0.0
 11
13.03
 21
-44.5790106634
 31
0.0
  0
LINE
  5
114
330
1F
100
AcDbEntity
  8
SK3
  6
SLD-Dashed
370
    18
100
AcDbLine
 10
19.05
 20
-46.6976348437
 30
0.0
 11
19.05
 21
-35.475
 31
0.0
  0
LINE
  5
115
330
1F
100
AcDbEntity
  8
SK3
  6
SLD-Dashed
370
    18
100
AcDbLine
 10
3.2
 20
-35.475
 30
0.0
 11
3.2
 21
-46.6976348437
 31
0.0
  0
LINE
  5
116
330
1F
100
AcDbEntity
  8
SK3
  6
SLD-Dashed
370
    18
100
AcDbLine
 10
19.05
 20
-35.1
 30
0.0
 11
3.2
 21
-35.1
 31
0.0
  0
LINE
  5
117
330
1F
100
AcDbEntity
  8
SK3
  6
SLD-Dashed
370
    18
100
AcDbLine
 10
3.2
 20
-35.475
 30
0.0
 11
19.05
 21
-35.475
 31
0.0
  0
LINE
  5
118
330
1F
100
AcDbEntity
  8
SK3
  6
SLD-Dashed
370
    18
100
AcDbLine
 10
3.7
 20
37.5
 30
0.0
 11
19.05
 21
37.5
 31
0.0
  0
LINE
  5
119
330
1F
100
AcDbEntity
  8
SK3
  6
SLD-Dashed
370
    18
100
AcDbLine
 10
19.05
 20
37.875
 30
0.0
 11
3.7
 21
37.875
 31
0.0
  0
LINE
  5
11A
330
1F
100
AcDbEntity
  8
SK3
  6
SLD-Dashed
370
    18
100
AcDbLine
 10
46.3
 20
30.25
 30
0.0
 11
29.3
 21
30.25
 31
0.0
  0
LINE
  5
11B
330
1F
100
AcDbEntity
  8
SK3
  6
SLD-Dashed
370
    18
100
AcDbLine
 10
79.2
 20
30.25
 30
0.0
 11
62.2
 21
30.25
 31
0.0
  0
LINE
  5
11C
330
1F
100
AcDbEntity
  8
SK3
  6
SLD-Dashed
370
    18
100
AcDbLine
 10
16.1
 20
33.1
 30
0.0
 11
6.12012853
 21
33.1
 31
0.0
  0
LINE
  5
11D
330
1F
100
AcDbEntity
  8
SK3
  6
SLD-Dashed
370
    18
100
AcDbLine
 10
6.1
 20
37.5
 30
0.0
 11
16.07987147
 21
37.5
 31
0.0
  0
LINE
  5
11E
330
1F
100
AcDbEntity
  8
SK3
  6
SLD-Dashed
370
    18
100
AcDbLine
 10
6.400000003
 20
32.8
 30
0.0
 11
15.8
 21
32.8
 31
0.0
  0
LINE
  5
11F
330
1F
100
AcDbEntity
  8
1
  6
SLD-Dashed
370
    18
100
AcDbLine
 10
12.28
 20
43.7694359685
 30
0.0
 11
9.95
 21
43.7694359685
 31
0.0
  0
LINE
  5
120
330
1F
100
AcDbEntity
  8
1
  6
SLD-Dashed
370
    18
100
AcDbLine
 10
18.3
 20
47.4754841997
 30
0.0
 11
14.6397233934
 21
47.4754841997
 31
0.0
  0
LINE
  5
121
330
1F
100
AcDbEntity
  8
1
  6
SLD-Dashed
370
    18
100
AcDbLine
 10
18.3
 20
-47.4754841997
 30
0.0
 11
14.6397233934
 21
-47.4754841997
 31
0.0
  0
LINE
  5
122
330
1F
100
AcDbEntity
  8
1
  6
SLD-Dashed
370
    18
100
AcDbLine
 10
12.28
 20
-43.7694359685
 30
0.0
 11
9.95
 21
-43.7694359685
 31
0.0
  0
LINE
  5
123
330
1F
100
AcDbEntity
  8
1
  6
SLD-Dashed
370
    18
100
AcDbLine
 10
7.5902766066
 20
-47.4754841997
 30
0.0
 11
3.95
 21
-47.4754841997
 31
0.0
  0
LINE
  5
124
330
1F
100
AcDbEntity
  8
SK3
  6
SLD-Dashed
370
    18
100
AcDbLine
 10
3.5547332273
 20
13.8826166832
 30
0.0
 11
3.4965071043
 21
13.2627272786
 31
0.0
  0
LINE
  5
125
330
1F
100
AcDbEntity
  8
SK3
  6
SLD-Dashed
370
    18
100
AcDbLine
 10
3.4965071043
 20
13.2627272786
 30
0.0
 11
3.5410581787
 21
12.6850823126
 31
0.0
  0
LINE
  5
126
330
1F
100
AcDbEntity
  8
SK3
  6
SLD-Dashed
370
    18
100
AcDbLine
 10
3.5410581787
 20
12.6850823126
 30
0.0
 11
3.6853503685
 21
12.1890473349
 31
0.0
  0
LINE
  5
127
330
1F
100
AcDbEntity
  8
SK3
  6
SLD-Dashed
370
    18
100
AcDbLine
 10
3.6853503685
 20
12.1890473349
 30
0.0
 11
3.9195503993
 21
11.8084263096
 31
0.0
  0
LINE
  5
128
330
1F
100
AcDbEntity
  8
SK3
  6
SLD-Dashed
370
    18
100
AcDbLine
 10
3.9195503993
 20
11.8084263096
 30
0.0
 11
4.2276979261
 21
11.5691579304
 31
0.0
  0
LINE
  5
129
330
1F
100
AcDbEntity
  8
SK3
  6
SLD-Dashed
370
    18
100
AcDbLine
 10
4.2276979261
 20
11.5691579304
 30
0.0
 11
4.5887932042
 21
11.4875479421
 31
0.0
  0
LINE
  5
12A
330
1F
100
AcDbEntity
  8
SK3
  6
SLD-Dashed
370
    18
100
AcDbLine
 10
4.5887932042
 20
11.4875479421
 30
0.0
 11
4.9782281871
 21
11.5691579304
 31
0.0
  0
LINE
  5
12B
330
1F
100
AcDbEntity
  8
SK3
  6
SLD-Dashed
370
    18
100
AcDbLine
 10
4.9782281871
 20
11.5691579304
 30
0.0
 11
5.3694635243
 21
11.8084263096
 31
0.0
  0
LINE
  5
12C
330
1F
100
AcDbEntity
  8
SK3
  6
SLD-Dashed
370
    18
100
AcDbLine
 10
5.3694635243
 20
11.8084263096
 30
0.0
 11
5.7358371741
 21
12.1890473349
 31
0.0
  0
LINE
  5
12D
330
1F
100
AcDbEntity
  8
SK3
  6
SLD-Dashed
370
    18
100
AcDbLine
 10
5.7358371741
 20
12.1890473349
 30
0.0
 11
6.0523813778
 21
12.6850823126
 31
0.0
  0
LINE
  5
12E
330
1F
100
AcDbEntity
  8
SK3
  6
SLD-Dashed
370
    18
100
AcDbLine
 10
6.0523813778
 20
12.6850823126
 30
0.0
 11
6.2975241709
 21
13.2627272786
 31
0.0
  0
LINE
  5
12F
330
1F
100
AcDbEntity
  8
SK3
  6
SLD-Dashed
370
    18
100
AcDbLine
 10
6.2975241709
 20
13.2627272786
 30
0.0
 11
6.4545594773
 21
13.8826166832
 31
0.0
  0
LINE
  5
130
330
1F
100
AcDbEntity
  8
SK3
  6
SLD-Dashed
370
    18
100
AcDbLine
 10
6.4545594773
 20
13.8826166832
 30
0.0
 11
6.5127856003
 21
14.5025060877
 31
0.0
  0
LINE
  5
131
330
1F
100
AcDbEntity
  8
SK3
  6
SLD-Dashed
370
    18
100
AcDbLine
 10
6.5127856003
 20
14.5025060877
 30
0.0
 11
6.4682345259
 21
15.0801510537
 31
0.0
  0
LINE
  5
132
330
1F
100
AcDbEntity
  8
SK3
  6
SLD-Dashed
370
    18
100
AcDbLine
 10
6.4682345259
 20
15.0801510537
 30
0.0
 11
6.3239423361
 21
15.5761860314
 31
0.0
  0
LINE
  5
133
330
1F
100
AcDbEntity
  8
SK3
  6
SLD-Dashed
370
    18
100
AcDbLine
 10
6.3239423361
 20
15.5761860314
 30
0.0
 11
6.0897423053
 21
15.9568070568
 31
0.0
  0
LINE
  5
134
330
1F
100
AcDbEntity
  8
SK3
  6
SLD-Dashed
370
    18
100
AcDbLine
 10
6.0897423053
 20
15.9568070568
 30
0.0
 11
5.7815947785
 21
16.1960754359
 31
0.0
  0
LINE
  5
135
330
1F
100
AcDbEntity
  8
SK3
  6
SLD-Dashed
370
    18
100
AcDbLine
 10
5.7815947785
 20
16.1960754359
 30
0.0
 11
5.4204995004
 21
16.2776854242
 31
0.0
  0
LINE
  5
136
330
1F
100
AcDbEntity
  8
SK3
  6
SLD-Dashed
370
    18
100
AcDbLine
 10
5.4204995004
 20
16.2776854242
 30
0.0
 11
5.0310645175
 21
16.1960754359
 31
0.0
  0
LINE
  5
137
330
1F
100
AcDbEntity
  8
SK3
  6
SLD-Dashed
370
    18
100
AcDbLine
 10
5.0310645175
 20
16.1960754359
 30
0.0
 11
4.6398291803
 21
15.9568070568
 31
0.0
  0
LINE
  5
138
330
1F
100
AcDbEntity
  8
SK3
  6
SLD-Dashed
370
    18
100
AcDbLine
 10
4.6398291803
 20
15.9568070568
 30
0.0
 11
4.2734555305
 21
15.5761860314
 31
0.0
  0
LINE
  5
139
330
1F
100
AcDbEntity
  8
SK3
  6
SLD-Dashed
370
    18
100
AcDbLine
 10
4.2734555305
 20
15.5761860314
 30
0.0
 11
3.9569113269
 21
15.0801510537
 31
0.0
  0
LINE
  5
13A
330
1F
100
AcDbEntity
  8
SK3
  6
SLD-Dashed
370
    18
100
AcDbLine
 10
3.9569113269
 20
15.0801510537
 30
0.0
 11
3.7117685337
 21
14.5025060877
 31
0.0
  0
LINE
  5
13B
330
1F
100
AcDbEntity
  8
SK3
  6
SLD-Dashed
370
    18
100
AcDbLine
 10
3.7117685337
 20
14.5025060877
 30
0.0
 11
3.5547332273
 21
13.8826166832
 31
0.0
  0
LINE
  5
13C
330
1F
100
AcDbEntity
  8
SK3
  6
SLD-Dashed
370
    18
100
AcDbLine
 10
14.2794578574
 20
11.0168048658
 30
0.0
 11
14.4364931637
 21
11.6366942703
 31
0.0
  0
LINE
  5
13D
330
1F
100
AcDbEntity
  8
SK3
  6
SLD-Dashed
370
    18
100
AcDbLine
 10
14.4364931637
 20
11.6366942703
 30
0.0
 11
14.6816359569
 21
12.2143392363
 31
0.0
  0
LINE
  5
13E
330
1F
100
AcDbEntity
  8
SK3
  6
SLD-Dashed
370
    18
100
AcDbLine
 10
14.6816359569
 20
12.2143392363
 30
0.0
 11
14.9981801606
 21
12.710374214
 31
0.0
  0
LINE
  5
13F
330
1F
100
AcDbEntity
  8
SK3
  6
SLD-Dashed
370
    18
100
AcDbLine
 10
14.9981801606
 20
12.710374214
 30
0.0
 11
15.3645538104
 21
13.0909952394
 31
0.0
  0
LINE
  5
140
330
1F
100
AcDbEntity
  8
SK3
  6
SLD-Dashed
370
    18
100
AcDbLine
 10
15.3645538104
 20
13.0909952394
 30
0.0
 11
15.7557891476
 21
13.3302636185
 31
0.0
  0
LINE
  5
141
330
1F
100
AcDbEntity
  8
SK3
  6
SLD-Dashed
370
    18
100
AcDbLine
 10
15.7557891476
 20
13.3302636185
 30
0.0
 11
16.1452241305
 21
13.4118736069
 31
0.0
  0
LINE
  5
142
330
1F
100
AcDbEntity
  8
SK3
  6
SLD-Dashed
370
    18
100
AcDbLine
 10
16.1452241305
 20
13.4118736069
 30
0.0
 11
16.5063194086
 21
13.3302636185
 31
0.0
  0
LINE
  5
143
330
1F
100
AcDbEntity
  8
SK3
  6
SLD-Dashed
370
    18
100
AcDbLine
 10
16.5063194086
 20
13.3302636185
 30
0.0
 11
16.8144669354
 21
13.0909952394
 31
0.0
  0
LINE
  5
144
330
1F
100
AcDbEntity
  8
SK3
  6
SLD-Dashed
370
    18
100
AcDbLine
 10
16.8144669354
 20
13.0909952394
 30
0.0
 11
17.0486669662
 21
12.710374214
 31
0.0
  0
LINE
  5
145
330
1F
100
AcDbEntity
  8
SK3
  6
SLD-Dashed
370
    18
100
AcDbLine
 10
17.0486669662
 20
12.710374214
 30
0.0
 11
17.1929591559
 21
12.2143392363
 31
0.0
  0
LINE
  5
146
330
1F
100
AcDbEntity
  8
SK3
  6
SLD-Dashed
370
    18
100
AcDbLine
 10
17.1929591559
 20
12.2143392363
 30
0.0
 11
17.2375102304
 21
11.6366942703
 31
0.0
  0
LINE
  5
147
330
1F
100
AcDbEntity
  8
SK3
  6
SLD-Dashed
370
    18
100
AcDbLine
 10
17.2375102304
 20
11.6366942703
 30
0.0
 11
17.1792841073
 21
11.0168048658
 31
0.0
  0
LINE
  5
148
330
1F
100
AcDbEntity
  8
SK3
  6
SLD-Dashed
370
    18
100
AcDbLine
 10
17.1792841073
 20
11.0168048658
 30
0.0
 11
17.022248801
 21
10.3969154613
 31
0.0
  0
LINE
  5
149
330
1F
100
AcDbEntity
  8
SK3
  6
SLD-Dashed
370
    18
100
AcDbLine
 10
17.022248801
 20
10.3969154613
 30
0.0
 11
16.7771060078
 21
9.8192704952
 31
0.0
  0
LINE
  5
14A
330
1F
100
AcDbEntity
  8
SK3
  6
SLD-Dashed
370
    18
100
AcDbLine
 10
16.7771060078
 20
9.8192704952
 30
0.0
 11
16.4605618041
 21
9.3232355176
 31
0.0
  0
LINE
  5
14B
330
1F
100
AcDbEntity
  8
SK3
  6
SLD-Dashed
370
    18
100
AcDbLine
 10
16.4605618041
 20
9.3232355176
 30
0.0
 11
16.0941881543
 21
8.9426144922
 31
0.0
  0
LINE
  5
14C
330
1F
100
AcDbEntity
  8
SK3
  6
SLD-Dashed
370
    18
100
AcDbLine
 10
16.0941881543
 20
8.9426144922
 30
0.0
 11
15.7029528171
 21
8.703346113
 31
0.0
  0
LINE
  5
14D
330
1F
100
AcDbEntity
  8
SK3
  6
SLD-Dashed
370
    18
100
AcDbLine
 10
15.7029528171
 20
8.703346113
 30
0.0
 11
15.3135178342
 21
8.6217361247
 31
0.0
  0
LINE
  5
14E
330
1F
100
AcDbEntity
  8
SK3
  6
SLD-Dashed
370
    18
100
AcDbLine
 10
15.3135178342
 20
8.6217361247
 30
0.0
 11
14.9524225561
 21
8.703346113
 31
0.0
  0
LINE
  5
14F
330
1F
100
AcDbEntity
  8
SK3
  6
SLD-Dashed
370
    18
100
AcDbLine
 10
14.9524225561
 20
8.703346113
 30
0.0
 11
14.6442750293
 21
8.9426144922
 31
0.0
  0
LINE
  5
150
330
1F
100
AcDbEntity
  8
SK3
  6
SLD-Dashed
370
    18
100
AcDbLine
 10
14.6442750293
 20
8.9426144922
 30
0.0
 11
14.4100749985
 21
9.3232355176
 31
0.0
  0
LINE
  5
151
330
1F
100
AcDbEntity
  8
SK3
  6
SLD-Dashed
370
    18
100
AcDbLine
 10
14.4100749985
 20
9.3232355176
 30
0.0
 11
14.2657828088
 21
9.8192704952
 31
0.0
  0
LINE
  5
152
330
1F
100
AcDbEntity
  8
SK3
  6
SLD-Dashed
370
    18
100
AcDbLine
 10
14.2657828088
 20
9.8192704952
 30
0.0
 11
14.2212317343
 21
10.3969154613
 31
0.0
  0
LINE
  5
153
330
1F
100
AcDbEntity
  8
SK3
  6
SLD-Dashed
370
    18
100
AcDbLine
 10
14.2212317343
 20
10.3969154613
 30
0.0
 11
14.2794578574
 21
11.0168048658
 31
0.0
  0
LINE
  5
154
330
1F
100
AcDbEntity
  8
SK3
  6
SLD-Dashed
370
    18
100
AcDbLine
 10
3.3949403416
 20
13.9015950424
 30
0.0
 11
3.5530311231
 21
14.533691522
 31
0.0
  0
LINE
  5
155
330
1F
100
AcDbEntity
  8
SK3
  6
SLD-Dashed
370
    18
100
AcDbLine
 10
3.5530311231
 20
14.533691522
 30
0.0
 11
3.7978696111
 21
15.126071055
 31
0.0
  0
LINE
  5
156
330
1F
100
AcDbEntity
  8
SK3
  6
SLD-Dashed
370
    18
100
AcDbLine
 10
3.7978696111
 20
15.126071055
 30
0.0
 11
4.1140717028
 21
15.6415122569
 31
0.0
  0
LINE
  5
157
330
1F
100
AcDbEntity
  8
SK3
  6
SLD-Dashed
370
    18
100
AcDbLine
 10
4.1140717028
 20
15.6415122569
 30
0.0
 11
4.481769258
 21
16.0476280612
 31
0.0
  0
LINE
  5
158
330
1F
100
AcDbEntity
  8
SK3
  6
SLD-Dashed
370
    18
100
AcDbLine
 10
4.481769258
 20
16.0476280612
 30
0.0
 11
4.8778584869
 21
16.3189007184
 31
0.0
  0
LINE
  5
159
330
1F
100
AcDbEntity
  8
SK3
  6
SLD-Dashed
370
    18
100
AcDbLine
 10
4.8778584869
 20
16.3189007184
 30
0.0
 11
5.2774516466
 21
16.4382851698
 31
0.0
  0
LINE
  5
15A
330
1F
100
AcDbEntity
  8
SK3
  6
SLD-Dashed
370
    18
100
AcDbLine
 10
5.2774516466
 20
16.4382851698
 30
0.0
 11
5.6554408293
 21
16.3982800511
 31
0.0
  0
LINE
  5
15B
330
1F
100
AcDbEntity
  8
SK3
  6
SLD-Dashed
370
    18
100
AcDbLine
 10
5.6554408293
 20
16.3982800511
 30
0.0
 11
5.9880755844
 21
16.2013990312
 31
0.0
  0
LINE
  5
15C
330
1F
100
AcDbEntity
  8
SK3
  6
SLD-Dashed
370
    18
100
AcDbLine
 10
5.9880755844
 20
16.2013990312
 30
0.0
 11
6.254455247
 21
15.8600128686
 31
0.0
  0
LINE
  5
15D
330
1F
100
AcDbEntity
  8
SK3
  6
SLD-Dashed
370
    18
100
AcDbLine
 10
6.254455247
 20
15.8600128686
 30
0.0
 11
6.4378422032
 21
15.3955721114
 31
0.0
  0
LINE
  5
15E
330
1F
100
AcDbEntity
  8
SK3
  6
SLD-Dashed
370
    18
100
AcDbLine
 10
6.4378422032
 20
15.3955721114
 30
0.0
 11
6.526713576
 21
14.8372592805
 31
0.0
  0
LINE
  5
15F
330
1F
100
AcDbEntity
  8
SK3
  6
SLD-Dashed
370
    18
100
AcDbLine
 10
6.526713576
 20
14.8372592805
 30
0.0
 11
6.5154852503
 21
14.2201552244
 31
0.0
  0
LINE
  5
160
330
1F
100
AcDbEntity
  8
SK3
  6
SLD-Dashed
370
    18
100
AcDbLine
 10
6.5154852503
 20
14.2201552244
 30
0.0
 11
6.4048627431
 21
13.5830348604
 31
0.0
  0
LINE
  5
161
330
1F
100
AcDbEntity
  8
SK3
  6
SLD-Dashed
370
    18
100
AcDbLine
 10
6.4048627431
 20
13.5830348604
 30
0.0
 11
6.2017968733
 21
12.9659308043
 31
0.0
  0
LINE
  5
162
330
1F
100
AcDbEntity
  8
SK3
  6
SLD-Dashed
370
    18
100
AcDbLine
 10
6.2017968733
 20
12.9659308043
 30
0.0
 11
5.9190470164
 21
12.4076179734
 31
0.0
  0
LINE
  5
163
330
1F
100
AcDbEntity
  8
SK3
  6
SLD-Dashed
370
    18
100
AcDbLine
 10
5.9190470164
 20
12.4076179734
 30
0.0
 11
5.5743793858
 21
11.9431772162
 31
0.0
  0
LINE
  5
164
330
1F
100
AcDbEntity
  8
SK3
  6
SLD-Dashed
370
    18
100
AcDbLine
 10
5.5743793858
 20
11.9431772162
 30
0.0
 11
5.1894507162
 21
11.6017910536
 31
0.0
  0
LINE
  5
165
330
1F
100
AcDbEntity
  8
SK3
  6
SLD-Dashed
370
    18
100
AcDbLine
 10
5.1894507162
 20
11.6017910536
 30
0.0
 11
4.7884474917
 21
11.4049100337
 31
0.0
  0
LINE
  5
166
330
1F
100
AcDbEntity
  8
SK3
  6
SLD-Dashed
370
    18
100
AcDbLine
 10
4.7884474917
 20
11.4049100337
 30
0.0
 11
4.3965662196
 21
11.364904915
 31
0.0
  0
LINE
  5
167
330
1F
100
AcDbEntity
  8
SK3
  6
SLD-Dashed
370
    18
100
AcDbLine
 10
4.3965662196
 20
11.364904915
 30
0.0
 11
4.0384302416
 21
11.4842893664
 31
0.0
  0
LINE
  5
168
330
1F
100
AcDbEntity
  8
SK3
  6
SLD-Dashed
370
    18
100
AcDbLine
 10
4.0384302416
 20
11.4842893664
 30
0.0
 11
3.7365425582
 21
11.7555620236
 31
0.0
  0
LINE
  5
169
330
1F
100
AcDbEntity
  8
SK3
  6
SLD-Dashed
370
    18
100
AcDbLine
 10
3.7365425582
 20
11.7555620236
 30
0.0
 11
3.5098718828
 21
12.1616778279
 31
0.0
  0
LINE
  5
16A
330
1F
100
AcDbEntity
  8
SK3
  6
SLD-Dashed
370
    18
100
AcDbLine
 10
3.5098718828
 20
12.1616778279
 30
0.0
 11
3.3726607677
 21
12.6771190298
 31
0.0
  0
LINE
  5
16B
330
1F
100
AcDbEntity
  8
SK3
  6
SLD-Dashed
370
    18
100
AcDbLine
 10
3.3726607677
 20
12.6771190298
 30
0.0
 11
3.3335306917
 21
13.2694985628
 31
0.0
  0
LINE
  5
16C
330
1F
100
AcDbEntity
  8
SK3
  6
SLD-Dashed
370
    18
100
AcDbLine
 10
3.3335306917
 20
13.2694985628
 30
0.0
 11
3.3949403416
 21
13.9015950424
 31
0.0
  0
LINE
  5
16D
330
1F
100
AcDbEntity
  8
SK3
  6
SLD-Dashed
370
    18
100
AcDbLine
 10
5.6371324082
 20
-16.2495686026
 30
0.0
 11
16.3618570383
 21
-13.3837567853
 31
0.0
  0
LINE
  5
16E
330
1F
100
AcDbEntity
  8
SK3
  6
SLD-Dashed
370
    18
100
AcDbLine
 10
15.0968849264
 20
-8.6498529463
 30
0.0
 11
4.3721602964
 21
-11.5156647637
 31
0.0
  0
LINE
  5
16F
330
1F
100
AcDbEntity
  8
SK3
  6
SLD-Dashed
370
    18
100
AcDbLine
 10
90.0
 20
21.1
 30
0.0
 11
88.0947441117
 21
20.0
 31
0.0
  0
LINE
  5
170
330
1F
100
AcDbEntity
  8
SK3
  6
SLD-Dashed
370
    18
100
AcDbLine
 10
88.0947441117
 20
-20.0
 30
0.0
 11
90.0
 21
-21.1
 31
0.0
  0
LINE
  5
171
330
1F
100
AcDbEntity
  8
SK3
  6
SLD-Dashed
370
    18
100
AcDbLine
 10
21.5
 20
20.25
 30
0.0
 11
18.5
 21
20.25
 31
0.0
  0
LINE
  5
172
330
1F
100
AcDbEntity
  8
SK3
  6
SLD-Dashed
370
    18
100
AcDbLine
 10
18.5
 20
-20.25
 30
0.0
 11
21.5
 21
-20.25
 31
0.0
  0
LINE
  5
173
330
1F
100
AcDbEntity
  8
SK3
  6
SLD-Dashed
370
    18
100
AcDbLine
 10
29.3
 20
20.0
 30
0.0
 11
21.5
 21
20.0
 31
0.0
  0
LINE
  5
174
330
1F
100
AcDbEntity
  8
SK3
  6
SLD-Dashed
370
    18
100
AcDbLine
 10
62.2
 20
20.0
 30
0.0
 11
46.2817148465
 21
20.0
 31
0.0
  0
LINE
  5
175
330
1F
100
AcDbEntity
  8
SK3
  6
SLD-Dashed
370
    18
100
AcDbLine
 10
88.0947441117
 20
20.0
 30
0.0
 11
79.1753615308
 21
20.0
 31
0.0
  0
LINE
  5
176
330
1F
100
AcDbEntity
  8
SK3
  6
SLD-Dashed
370
    18
100
AcDbLine
 10
21.5
 20
-20.0
 30
0.0
 11
88.0947441117
 21
-20.0
 31
0.0
  0
LINE
  5
177
330
1F
100
AcDbEntity
  8
SK3
  6
SLD-Dashed
370
    18
100
AcDbLine
 10
18.5
 20
15.25
 30
0.0
 11
16.0
 21
15.25
 31
0.0
  0
LINE
  5
178
330
1F
100
AcDbEntity
  8
SK3
  6
SLD-Dashed
370
    18
100
AcDbLine
 10
16.0
 20
-15.25
 30
0.0
 11
18.5
 21
-15.25
 31
0.0
  0
LINE
  5
179
330
1F
100
AcDbEntity
  8
SK3
  6
SLD-Dashed
370
    18
100
AcDbLine
 10
16.0
 20
15.25
 30
0.0
 11
13.5139391888
 21
11.1125
 31
0.0
  0
LINE
  5
17A
330
1F
100
AcDbEntity
  8
SK3
  6
SLD-Dashed
370
    18
100
AcDbLine
 10
13.5139391888
 20
-11.1125
 30
0.0
 11
16.0
 21
-15.25
 31
0.0
  0
LINE
  5
17B
330
1F
100
AcDbEntity
  8
SK3
  6
SLD-Dashed
370
    18
100
AcDbLine
 10
-101.6
 20
-14.285
 30
0.0
 11
-99.7034043657
 21
-13.19
 31
0.0
  0
LINE
  5
17C
330
1F
100
AcDbEntity
  8
SK3
  6
SLD-Dashed
370
    18
100
AcDbLine
 10
-99.7034043657
 20
13.19
 30
0.0
 11
-101.6
 21
14.285
 31
0.0
  0
LINE
  5
17D
330
1F
100
AcDbEntity
  8
SK3
  6
SLD-Dashed
370
    18
100
AcDbLine
 10
-95.25
 20
-13.19
 30
0.0
 11
-94.0505548158
 21
-11.1125
 31
0.0
  0
LINE
  5
17E
330
1F
100
AcDbEntity
  8
SK3
  6
SLD-Dashed
370
    18
100
AcDbLine
 10
-94.0505548158
 20
11.1125
 30
0.0
 11
-95.25
 21
13.19
 31
0.0
  0
LINE
  5
17F
330
1F
100
AcDbEntity
  8
SK3
  6
SLD-Dashed
370
    18
100
AcDbLine
 10
-99.7034043657
 20
-13.19
 30
0.0
 11
-95.25
 21
-13.19
 31
0.0
  0
LINE
  5
180
330
1F
100
AcDbEntity
  8
SK3
  6
SLD-Dashed
370
    18
100
AcDbLine
 10
-95.25
 20
13.19
 30
0.0
 11
-99.7034043657
 21
13.19
 31
0.0
  0
LINE
  5
181
330
1F
100
AcDbEntity
  8
SK3
  6
SLD-Dashed
370
    18
100
AcDbLine
 10
-94.0505548158
 20
-11.1125
 30
0.0
 11
13.5139391888
 21
-11.1125
 31
0.0
  0
LINE
  5
182
330
1F
100
AcDbEntity
  8
SK3
  6
SLD-Dashed
370
    18
100
AcDbLine
 10
13.5139391888
 20
11.1125
 30
0.0
 11
-94.0505548158
 21
11.1125
 31
0.0
  0
LINE
  5
183
330
1F
100
AcDbEntity
  8
SK3
  6
SLD-Dashed
370
    18
100
AcDbLine
 10
27.05
 20
32.5
 30
0.0
 11
29.3
 21
30.25
 31
0.0
  0
LINE
  5
184
330
1F
100
AcDbEntity
  8
SK3
  6
SLD-Dashed
370
    18
100
AcDbLine
 10
46.3
 20
30.25
 30
0.0
 11
48.55
 21
32.5
 31
0.0
  0
LINE
  5
185
330
1F
100
AcDbEntity
  8
SK3
  6
SLD-Dashed
370
    18
100
AcDbLine
 10
59.95
 20
32.5
 30
0.0
 11
62.2
 21
30.25
 31
0.0
  0
LINE
  5
186
330
1F
100
AcDbEntity
  8
SK3
  6
SLD-Dashed
370
    18
100
AcDbLine
 10
79.2
 20
30.25
 30
0.0
 11
81.45
 21
32.5
 31
0.0
  0
LINE
  5
187
330
1F
100
AcDbEntity
  8
SK3
  6
SLD-Dashed
370
    18
100
AcDbLine
 10
29.3
 20
30.25
 30
0.0
 11
29.3
 21
20.0
 31
0.0
  0
LINE
  5
188
330
1F
100
AcDbEntity
  8
SK3
  6
SLD-Dashed
370
    18
100
AcDbLine
 10
46.3
 20
19.9922695589
 30
0.0
 11
46.3
 21
30.25
 31
0.0
  0
LINE
  5
189
330
1F
100
AcDbEntity
  8
SK3
  6
SLD-Dashed
370
    18
100
AcDbLine
 10
62.2
 20
30.25
 30
0.0
 11
62.2
 21
20.0
 31
0.0
  0
LINE
  5
18A
330
1F
100
AcDbEntity
  8
SK3
  6
SLD-Dashed
370
    18
100
AcDbLine
 10
79.2
 20
19.9895573937
 30
0.0
 11
79.2
 21
30.25
 31
0.0
  0
LINE
  5
18B
330
1F
100
AcDbEntity
  8
SK3
  6
SLD-Dashed
370
    18
100
AcDbLine
 10
6.1
 20
37.5
 30
0.0
 11
6.1
 21
33.1
 31
0.0
  0
LINE
  5
18C
330
1F
100
AcDbEntity
  8
SK3
  6
SLD-Dashed
370
    18
100
AcDbLine
 10
16.1
 20
33.1
 30
0.0
 11
16.1
 21
37.5
 31
0.0
  0
LINE
  5
18D
330
1F
100
AcDbEntity
  8
SK3
  6
SLD-Dashed
370
    18
100
AcDbLine
 10
4.3721602964
 20
11.5156647637
 30
0.0
 11
15.0968849264
 21
8.6498529463
 31
0.0
  0
LINE
  5
18E
330
1F
100
AcDbEntity
  8
SK3
  6
SLD-Dashed
370
    18
100
AcDbLine
 10
16.3618570383
 20
13.3837567853
 30
0.0
 11
5.6371324082
 21
16.2495686026
 31
0.0
  0
LINE
  5
18F
330
1F
100
AcDbEntity
  8
SK3
  6
SLD-Solid
370
    18
100
AcDbLine
 10
-55.5999986827
 20
12.6999998465
 30
0.0
 11
-94.967097044
 21
12.6999998465
 31
0.0
  0
LINE
  5
190
330
1F
100
AcDbEntity
  8
SK3
  6
SLD-Solid
370
    18
100
AcDbLine
 10
-94.967097044
 20
-12.6999998465
 30
0.0
 11
-55.5999986827
 21
-12.6999998465
 31
0.0
  0
LINE
  5
191
330
1F
100
AcDbEntity
  8
SK3
  6
SLD-Solid
370
    18
100
AcDbLine
 10
-55.5999986827
 20
0.0
 30
0.0
 11
-55.5999986827
 21
-1.7293164274
 31
0.0
  0
LINE
  5
192
330
1F
100
AcDbEntity
  8
SK3
  6
SLD-Solid
370
    18
100
AcDbLine
 10
-55.5999986827
 20
-1.7293164274
 30
0.0
 11
-55.5999986827
 21
-3.4264191054
 31
0.0
  0
LINE
  5
193
330
1F
100
AcDbEntity
  8
SK3
  6
SLD-Solid
370
    18
100
AcDbLine
 10
-55.5999986827
 20
-3.4264191054
 30
0.0
 11
-55.5999986827
 21
-5.05969394
 31
0.0
  0
LINE
  5
194
330
1F
100
AcDbEntity
  8
SK3
  6
SLD-Solid
370
    18
100
AcDbLine
 10
-55.5999986827
 20
-5.05969394
 30
0.0
 11
-55.5999986827
 21
-6.5987161361
 31
0.0
  0
LINE
  5
195
330
1F
100
AcDbEntity
  8
SK3
  6
SLD-Solid
370
    18
100
AcDbLine
 10
-55.5999986827
 20
-6.5987161361
 30
0.0
 11
-55.5999986827
 21
-8.0148167908
 31
0.0
  0
LINE
  5
196
330
1F
100
AcDbEntity
  8
SK3
  6
SLD-Solid
370
    18
100
AcDbLine
 10
-55.5999986827
 20
-8.0148167908
 30
0.0
 11
-55.5999986827
 21
-9.281616658
 31
0.0
  0
LINE
  5
197
330
1F
100
AcDbEntity
  8
SK3
  6
SLD-Solid
370
    18
100
AcDbLine
 10
-55.5999986827
 20
-9.281616658
 30
0.0
 11
-55.5999986827
 21
-10.3755174205
 31
0.0
  0
LINE
  5
198
330
1F
100
AcDbEntity
  8
SK3
  6
SLD-Solid
370
    18
100
AcDbLine
 10
-55.5999986827
 20
-10.3755174205
 30
0.0
 11
-55.5999986827
 21
-11.2761426717
 31
0.0
  0
LINE
  5
199
330
1F
100
AcDbEntity
  8
SK3
  6
SLD-Solid
370
    18
100
AcDbLine
 10
-55.5999986827
 20
-11.2761426717
 30
0.0
 11
-55.5999986827
 21
-11.9667137042
 31
0.0
  0
LINE
  5
19A
330
1F
100
AcDbEntity
  8
SK3
  6
SLD-Solid
370
    18
100
AcDbLine
 10
-55.5999986827
 20
-11.9667137042
 30
0.0
 11
-55.5999986827
 21
-12.4343680218
 31
0.0
  0
LINE
  5
19B
330
1F
100
AcDbEntity
  8
SK3
  6
SLD-Solid
370
    18
100
AcDbLine
 10
-55.5999986827
 20
-12.4343680218
 30
0.0
 11
-55.5999986827
 21
-12.6703931019
 31
0.0
  0
LINE
  5
19C
330
1F
100
AcDbEntity
  8
SK3
  6
SLD-Solid
370
    18
100
AcDbLine
 10
-55.5999986827
 20
-12.6703931019
 30
0.0
 11
-55.5999986827
 21
-12.6999998465
 31
0.0
  0
LINE
  5
19D
330
1F
100
AcDbEntity
  8
SK3
  6
SLD-Solid
370
    18
100
AcDbLine
 10
-55.5999986827
 20
12.6999998465
 30
0.0
 11
-55.5999986827
 21
12.6703931019
 31
0.0
  0
LINE
  5
19E
330
1F
100
AcDbEntity
  8
SK3
  6
SLD-Solid
370
    18
100
AcDbLine
 10
-55.5999986827
 20
12.6703931019
 30
0.0
 11
-55.5999986827
 21
12.4343680218
 31
0.0
  0
LINE
  5
19F
330
1F
100
AcDbEntity
  8
SK3
  6
SLD-Solid
370
    18
100
AcDbLine
 10
-55.5999986827
 20
12.4343680218
 30
0.0
 11
-55.5999986827
 21
11.9667137042
 31
0.0
  0
LINE
  5
1A0
330
1F
100
AcDbEntity
  8
SK3
  6
SLD-Solid
370
    18
100
AcDbLine
 10
-55.5999986827
 20
11.9667137042
 30
0.0
 11
-55.5999986827
 21
11.2761426717
 31
0.0
  0
LINE
  5
1A1
330
1F
100
AcDbEntity
  8
SK3
  6
SLD-Solid
370
    18
100
AcDbLine
 10
-55.5999986827
 20
11.2761426717
 30
0.0
 11
-55.5999986827
 21
10.3755174205
 31
0.0
  0
LINE
  5
1A2
330
1F
100
AcDbEntity
  8
SK3
  6
SLD-Solid
370
    18
100
AcDbLine
 10
-55.5999986827
 20
10.3755174205
 30
0.0
 11
-55.5999986827
 21
9.281616658
 31
0.0
  0
LINE
  5
1A3
330
1F
100
AcDbEntity
  8
SK3
  6
SLD-Solid
370
    18
100
AcDbLine
 10
-55.5999986827
 20
9.281616658
 30
0.0
 11
-55.5999986827
 21
8.0148167908
 31
0.0
  0
LINE
  5
1A4
330
1F
100
AcDbEntity
  8
SK3
  6
SLD-Solid
370
    18
100
AcDbLine
 10
-55.5999986827
 20
8.0148167908
 30
0.0
 11
-55.5999986827
 21
6.5987161361
 31
0.0
  0
LINE
  5
1A5
330
1F
100
AcDbEntity
  8
SK3
  6
SLD-Solid
370
    18
100
AcDbLine
 10
-55.5999986827
 20
6.5987161361
 30
0.0
 11
-55.5999986827
 21
5.05969394
 31
0.0
  0
LINE
  5
1A6
330
1F
100
AcDbEntity
  8
SK3
  6
SLD-Solid
370
    18
100
AcDbLine
 10
-55.5999986827
 20
5.05969394
 30
0.0
 11
-55.5999986827
 21
3.4264191054
 31
0.0
  0
LINE
  5
1A7
330
1F
100
AcDbEntity
  8
SK3
  6
SLD-Solid
370
    18
100
AcDbLine
 10
-55.5999986827
 20
3.4264191054
 30
0.0
 11
-55.5999986827
 21
1.7293164274
 31
0.0
  0
LINE
  5
1A8
330
1F
100
AcDbEntity
  8
SK3
  6
SLD-Solid
370
    18
100
AcDbLine
 10
-55.5999986827
 20
1.7293164274
 30
0.0
 11
-55.5999986827
 21
0.0
 31
0.0
  0
LINE
  5
1A9
330
1F
100
AcDbEntity
  8
SK3
  6
SLD-Solid
370
    18
100
AcDbLine
 10
46.7999987304
 20
19.9886709452
 30
0.0
 11
46.7999987304
 21
30.7500008494
 31
0.0
  0
LINE
  5
1AA
330
1F
100
AcDbEntity
  8
SK3
  6
SLD-Solid
370
    18
100
AcDbLine
 10
28.7999995053
 20
30.7500008494
 30
0.0
 11
28.7999995053
 21
19.9886709452
 31
0.0
  0
LINE
  5
1AB
330
1F
100
AcDbEntity
  8
SK3
  6
SLD-Solid
370
    18
100
AcDbLine
 10
46.7747673392
 20
19.9886709452
 30
0.0
 11
46.7345789075
 21
19.9706461281
 31
0.0
  0
LINE
  5
1AC
330
1F
100
AcDbEntity
  8
SK3
  6
SLD-Solid
370
    18
100
AcDbLine
 10
79.7000005841
 20
19.988739863
 30
0.0
 11
79.7000005841
 21
30.7500008494
 31
0.0
  0
LINE
  5
1AD
330
1F
100
AcDbEntity
  8
SK3
  6
SLD-Solid
370
    18
100
AcDbLine
 10
61.700001359
 20
30.7500008494
 30
0.0
 11
61.700001359
 21
19.988739863
 31
0.0
  0
LINE
  5
1AE
330
1F
100
AcDbEntity
  8
SK3
  6
SLD-Solid
370
    18
100
AcDbLine
 10
79.6753913164
 20
19.988739863
 30
0.0
 11
79.6345770359
 21
19.9706461281
 31
0.0
  0
LINE
  5
1AF
330
1F
100
AcDbEntity
  8
4
  6
SLD-Center
370
    18
100
AcDbLine
 10
92.0
 20
0.0
 30
0.0
 11
-0.7690529113
 21
0.0
 31
0.0
  0
LINE
  5
1B0
330
1F
100
AcDbEntity
  8
4
  6
SLD-Center
370
    18
100
AcDbLine
 10
37.8
 20
18.0
 30
0.0
 11
37.8
 21
32.25
 31
0.0
  0
LINE
  5
1B1
330
1F
100
AcDbEntity
  8
4
  6
SLD-Center
370
    18
100
AcDbLine
 10
70.7
 20
18.0
 30
0.0
 11
70.7
 21
32.25
 31
0.0
  0
LINE
  5
1B2
330
1F
100
AcDbEntity
  8
SK4
  6
SLD-Center
370
    18
100
AcDbLine
 10
-101.8030472773
 20
0.0
 30
0.0
 11
89.9552034514
 21
0.0
 31
0.0
  0
LINE
  5
1B3
330
1F
100
AcDbEntity
  8
81
370
    18
100
AcDbLine
 10
90.0
 20
0.0
 30
0.0
 11
93.5355339059
 21
3.5355339059
 31
0.0
  0
LINE
  5
1B4
330
1F
100
AcDbEntity
  8
81
370
    18
100
AcDbLine
 10
90.0
 20
0.0
 30
0.0
 11
86.4644660941
 21
-3.5355339059
 31
0.0
  0
LINE
  5
1B5
330
1F
100
AcDbEntity
  8
81
370
    18
100
AcDbLine
 10
90.0
 20
0.0
 30
0.0
 11
86.4644660941
 21
3.5355339059
 31
0.0
  0
LINE
  5
1B6
330
1F
100
AcDbEntity
  8
81
100
AcDbLine
 10
90.0
 20
0.0
 30
0.0
 11
100.0
 21
0.0
 31
0.0
  0
LINE
  5
1B7
330
1F
100
AcDbEntity
  8
81
370
    18
100
AcDbLine
 10
90.0
 20
0.0
 30
0.0
 11
93.5355339059
 21
-3.5355339059
 31
0.0
  0
LINE
  5
1B8
330
1F
100
AcDbEntity
  8
80
370
    18
100
AcDbLine
 10
0.0
 20
0.0
 30
0.0
 11
-3.5355339059
 21
-3.5355339059
 31
0.0
  0
LINE
  5
1B9
330
1F
100
AcDbEntity
  8
80
370
    18
100
AcDbLine
 10
0.0
 20
0.0
 30
0.0
 11
3.5355339059
 21
3.5355339059
 31
0.0
  0
LINE
  5
1BA
330
1F
100
AcDbEntity
  8
80
370
    18
100
AcDbLine
 10
0.0
 20
0.0
 30
0.0
 11
-3.5355339059
 21
3.5355339059
 31
0.0
  0
LINE
  5
1BB
330
1F
100
AcDbEntity
  8
80
370
    18
100
AcDbLine
 10
0.0
 20
0.0
 30
0.0
 11
-10.0
 21
0.0
 31
0.0
  0
LINE
  5
1BC
330
1F
100
AcDbEntity
  8
80
370
    18
100
AcDbLine
 10
0.0
 20
0.0
 30
0.0
 11
3.5355339059
 21
-3.5355339059
 31
0.0
  0
ARC
  5
1BD
330
1F
100
AcDbEntity
  8
1
  6
SLD-Solid
370
    25
100
AcDbCircle
 10
22.098
 20
-35.548
 30
0.0
 40
3.048000000000002
100
AcDbArc
 50
90.0
 51
171.5668667177
  0
ARC
  5
1BE
330
1F
100
AcDbEntity
  8
1
  6
SLD-Solid
370
    25
100
AcDbCircle
 10
22.098
 20
35.548
 30
0.0
 40
3.047999999999995
100
AcDbArc
 50
180.0
 51
270.0
  0
ARC
  5
1BF
330
1F
100
AcDbEntity
  8
1
  6
SLD-Solid
370
    25
100
AcDbCircle
 10
2.45
 20
35.425
 30
0.0
 40
0.7500000000000141
100
AcDbArc
 50
245.0
 51
0.0
  0
ARC
  5
1C0
330
1F
100
AcDbEntity
  8
1
  6
SLD-Solid
370
    25
100
AcDbCircle
 10
2.45
 20
-35.425
 30
0.0
 40
0.7500000000000039
100
AcDbArc
 50
25.5586387113
 51
115.0
  0
ARC
  5
1C1
330
1F
100
AcDbEntity
  8
SK1
  6
SLD-Solid
370
    25
100
AcDbCircle
 10
-99.5
 20
18.2922326599
 30
0.0
 40
2.100000000000009
100
AcDbArc
 50
98.2972222222
 51
180.0
  0
ARC
  5
1C2
330
1F
100
AcDbEntity
  8
SK1
  6
SLD-Solid
370
    25
100
AcDbCircle
 10
-99.5
 20
-18.2922326599
 30
0.0
 40
2.100000000000009
100
AcDbArc
 50
180.0
 51
261.7027777778
  0
ARC
  5
1C3
330
1F
100
AcDbEntity
  8
1
370
    18
100
AcDbCircle
 10
70.6945154297
 20
-71.2943101838
 30
0.0
 40
40.04198582199434
100
AcDbArc
 50
75.6594812904
 51
104.2983414984
  0
ARC
  5
1C4
330
1F
100
AcDbEntity
  8
1
370
    18
100
AcDbCircle
 10
37.8053231118
 20
-70.8556425586
 30
0.0
 40
39.61709529265036
100
AcDbArc
 50
75.5447491746
 51
104.4974280366
  0
CIRCLE
  5
1C5
330
1F
100
AcDbEntity
  8
81
370
    18
100
AcDbCircle
 10
90.0
 20
0.0
 30
0.0
 40
2.499999999999984
  0
CIRCLE
  5
1C6
330
1F
100
AcDbEntity
  8
80
370
    18
100
AcDbCircle
 10
0.0
 20
0.0
 30
0.0
 40
2.500000000000009
  0
SPLINE
  5
1C7
330
1F
100
AcDbEntity
  8
1
  6
SLD-Solid
370
    25
100
AcDbSpline
210
0.0
220
0.0
230
1.0
 70
     8
 71
     3
 72
    12
 73
     8
 74
     0
 42
0.000000001
 43
0.00000001
 40
0.0
 40
0.0
 40
0.0
 40
0.0
 40
0.249999999999997
 40
0.249999999999997
 40
0.499999999999994
 40
0.499999999999994
 40
1.0
 40
1.0
 40
1.0
 40
1.0
 10
3.950000000000009
 20
-47.47548419974251
 30
0.0
 10
3.849084030890598
 20
-47.47548419974252
 30
0.0
 10
3.749978417477442
 20
-47.45437693482705
 30
0.0
 10
3.566847730075526
 20
-47.37426897057829
 30
0.0
 10
3.483455095947358
 20
-47.31511647588034
 30
0.0
 10
3.278048511272599
 20
-47.09831987092235
 30
0.0
 10
3.200000000000008
 20
-46.89926900274104
 30
0.0
 10
3.200000000000008
 20
-46.69763484374773
 30
0.0
  0
SPLINE
  5
1C8
330
1F
100
AcDbEntity
  8
1
  6
SLD-Solid
370
    25
100
AcDbSpline
210
0.0
220
0.0
230
1.0
 70
     8
 71
     3
 72
    17
 73
    13
 74
     0
 42
0.000000001
 43
0.00000001
 40
0.0
 40
0.0
 40
0.0
 40
0.0
 40
0.0631225276679342
 40
0.1266732404557587
 40
0.1906578598239172
 40
0.2550819704917586
 40
0.3779677562094053
 40
0.5065287291742404
 40
0.7536275741715814
 40
0.8770326867277843
 40
0.9293515934451574
 40
1.0
 40
1.0
 40
1.0
 40
1.0
 10
3.950000000000007
 20
47.29681459776458
 30
0.0
 10
3.925201491186343
 20
47.29611182214629
 30
0.0
 10
3.875436255446311
 20
47.29470150370424
 30
0.0
 10
3.801280717948078
 20
47.28327895415906
 30
0.0
 10
3.728120549121011
 20
47.26498746189469
 30
0.0
 10
3.635342933307246
 20
47.23149463841939
 30
0.0
 10
3.525682301867305
 20
47.17267397042567
 30
0.0
 10
3.374709300492345
 20
47.04854698610306
 30
0.0
 10
3.264271220664426
 20
46.88235514412624
 30
0.0
 10
3.217384189869058
 20
46.72497704380524
 30
0.0
 10
3.202376761222994
 20
46.63086119232327
 30
0.0
 10
3.200867255992028
 20
46.58337040934663
 30
0.0
 10
3.200000000000047
 20
46.5560855313245
 30
0.0
  0
SPLINE
  5
1C9
330
1F
100
AcDbEntity
  8
1
  6
SLD-Solid
370
    25
100
AcDbSpline
210
0.0
220
0.0
230
1.0
 70
     8
 71
     3
 72
    12
 73
     8
 74
     0
 42
0.000000001
 43
0.00000001
 40
0.0
 40
0.0
 40
0.0
 40
0.0
 40
0.2499999999999983
 40
0.2499999999999983
 40
0.4999999999999967
 40
0.4999999999999967
 40
1.0
 40
1.0
 40
1.0
 40
1.0
 10
19.05000000000001
 20
-46.69763484374773
 30
0.0
 10
19.05000000000001
 20
-46.79851095846173
 30
0.0
 10
19.03137059366212
 20
-46.89733966428952
 30
0.0
 10
18.95815575330309
 20
-47.08411469648358
 30
0.0
 10
18.90402082648725
 20
-47.16991322230014
 30
0.0
 10
18.69812814693782
 20
-47.38753444472541
 30
0.0
 10
18.50197314321878
 20
-47.47548419974301
 30
0.0
 10
18.30000000000012
 20
-47.47548419974305
 30
0.0
  0
SPLINE
  5
1CA
330
1F
100
AcDbEntity
  8
1
  6
SLD-Solid
370
    25
100
AcDbSpline
210
0.0
220
0.0
230
1.0
 70
     8
 71
     3
 72
    12
 73
     8
 74
     0
 42
0.000000001
 43
0.00000001
 40
0.0
 40
0.0
 40
0.0
 40
0.0
 40
0.2499999999999983
 40
0.2499999999999983
 40
0.4999999999999967
 40
0.4999999999999967
 40
1.0
 40
1.0
 40
1.0
 40
1.0
 10
18.30000000000001
 20
47.4754841997425
 30
0.0
 10
18.40091596910943
 20
47.4754841997425
 30
0.0
 10
18.50002158252258
 20
47.45437693482703
 30
0.0
 10
18.68315226992451
 20
47.37426897057826
 30
0.0
 10
18.76654490405266
 20
47.3151164758803
 30
0.0
 10
18.97195148872745
 20
47.09831987092231
 30
0.0
 10
19.05000000000001
 20
46.89926900274103
 30
0.0
 10
19.05000000000001
 20
46.69763484374772
 30
0.0
  0
SPLINE
  5
1CB
330
1F
100
AcDbEntity
  8
1
  6
SLD-Solid
370
    25
100
AcDbSpline
210
0.0
220
0.0
230
1.0
 70
     8
 71
     3
 72
     8
 73
     4
 74
     0
 42
0.000000001
 43
0.00000001
 40
0.0
 40
0.0
 40
0.0
 40
0.0
 40
1.0
 40
1.0
 40
1.0
 40
1.0
 10
7.590276606597335
 20
-47.47548419974251
 30
0.0
 10
8.127774995464424
 20
-46.5104965471081
 30
0.0
 10
8.664408048367878
 20
-45.54503249842018
 30
0.0
 10
9.199999999999985
 20
-44.57901066343648
 30
0.0
  0
SPLINE
  5
1CC
330
1F
100
AcDbEntity
  8
1
  6
SLD-Solid
370
    25
100
AcDbSpline
210
0.0
220
0.0
230
1.0
 70
     8
 71
     3
 72
     8
 73
     4
 74
     0
 42
0.000000001
 43
0.00000001
 40
0.0000000000000097
 40
0.0000000000000097
 40
0.0000000000000097
 40
0.0000000000000097
 40
0.000879067901516
 40
0.000879067901516
 40
0.000879067901516
 40
0.000879067901516
 10
7.957289380062113
 20
46.81625358782998
 30
0.0
 10
7.835334863860815
 20
46.97654627942823
 30
0.0
 10
7.712991580674039
 20
47.13673210499548
 30
0.0
 10
7.590276606597335
 20
47.29681459776457
 30
0.0
  0
SPLINE
  5
1CD
330
1F
100
AcDbEntity
  8
1
  6
SLD-Solid
370
    25
100
AcDbSpline
210
0.0
220
0.0
230
1.0
 70
     8
 71
     3
 72
     8
 73
     4
 74
     0
 42
0.000000001
 43
0.00000001
 40
0.0
 40
0.0
 40
0.0
 40
0.0
 40
1.0
 40
1.0
 40
1.0
 40
1.0
 10
7.957289380062113
 20
46.81625358782998
 30
0.0
 10
8.37208849091912
 20
46.07082082933729
 30
0.0
 10
8.786353866857983
 20
45.32508460154717
 30
0.0
 10
9.199999999999985
 20
44.57901066343646
 30
0.0
  0
SPLINE
  5
1CE
330
1F
100
AcDbEntity
  8
1
  6
SLD-Solid
370
    25
100
AcDbSpline
210
0.0
220
0.0
230
1.0
 70
     8
 71
     3
 72
    14
 73
    10
 74
     0
 42
0.000000001
 43
0.00000001
 40
0.0
 40
0.0
 40
0.0
 40
0.0
 40
0.25
 40
0.25
 40
0.5
 40
0.5
 40
0.75
 40
0.75
 40
1.0
 40
1.0
 40
1.0
 40
1.0
 10
9.200000000002262
 20
41.48301295145395
 30
0.0
 10
9.176680646156926
 20
41.55645645104903
 30
0.0
 10
9.15795689205555
 20
41.62429306843828
 30
0.0
 10
9.131927678784693
 20
41.74600607925085
 30
0.0
 10
9.125045582368486
 20
41.7986057344129
 30
0.0
 10
9.12495487964375
 20
41.88147815789092
 30
0.0
 10
9.131870505305034
 20
41.91255410941321
 30
0.0
 10
9.157670888230385
 20
41.95124091970128
 30
0.0
 10
9.176601575159566
 20
41.95960923610539
 30
0.0
 10
9.199999999999985
 20
41.95870119642318
 30
0.0
  0
SPLINE
  5
1CF
330
1F
100
AcDbEntity
  8
1
  6
SLD-Solid
370
    25
100
AcDbSpline
210
0.0
220
0.0
230
1.0
 70
     8
 71
     3
 72
    14
 73
    10
 74
     0
 42
0.000000001
 43
0.00000001
 40
0.0
 40
0.0
 40
0.0
 40
0.0
 40
0.25
 40
0.25
 40
0.5
 40
0.5
 40
0.75
 40
0.75
 40
1.0
 40
1.0
 40
1.0
 40
1.0
 10
9.199999999999985
 20
34.67668893498505
 30
0.0
 10
9.176680646155248
 20
34.7621838013475
 30
0.0
 10
9.157956892054466
 20
34.84409122905368
 30
0.0
 10
9.13192767878472
 20
34.99897222909983
 30
0.0
 10
9.125045582368985
 20
35.07047900120372
 30
0.0
 10
9.124954879645056
 20
35.194409448215
 30
0.0
 10
9.131870505306658
 20
35.24816533561759
 30
0.0
 10
9.157670888232467
 20
35.33309634836896
 30
0.0
 10
9.176601575161772
 20
35.365452809728
 30
0.0
 10
9.200000000002262
 20
35.38859611770597
 30
0.0
  0
SPLINE
  5
1D0
330
1F
100
AcDbEntity
  8
1
  6
SLD-Solid
370
    25
100
AcDbSpline
210
0.0
220
0.0
230
1.0
 70
     8
 71
     3
 72
    14
 73
    10
 74
     0
 42
0.000000001
 43
0.00000001
 40
0.0
 40
0.0
 40
0.0
 40
0.0
 40
0.25
 40
0.25
 40
0.5
 40
0.5
 40
0.75
 40
0.75
 40
1.0
 40
1.0
 40
1.0
 40
1.0
 10
13.02999999999605
 20
41.98711733167133
 30
0.0
 10
13.05904068228761
 20
41.99358445674418
 30
0.0
 10
13.08275209482979
 20
41.98923559020628
 30
0.0
 10
13.11609658322467
 20
41.95189511103381
 30
0.0
 10
13.12492140067506
 20
41.91935250781672
 30
0.0
 10
13.12507754967817
 20
41.82511380576848
 30
0.0
 10
13.11615053209058
 20
41.76334893396453
 30
0.0
 10
13.08319562521535
 20
41.62087672885569
 30
0.0
 10
13.05911019949628
 20
41.53942138186894
 30
0.0
 10
13.03
 20
41.45311361597062
 30
0.0
  0
SPLINE
  5
1D1
330
1F
100
AcDbEntity
  8
1
  6
SLD-Solid
370
    25
100
AcDbSpline
210
0.0
220
0.0
230
1.0
 70
     8
 71
     3
 72
     8
 73
     4
 74
     0
 42
0.000000001
 43
0.00000001
 40
0.0
 40
0.0
 40
0.0
 40
0.0
 40
1.0
 40
1.0
 40
1.0
 40
1.0
 10
13.03
 20
44.57901066343646
 30
0.0
 10
13.56559777714787
 20
45.54504300562702
 30
0.0
 10
14.1022311018713
 20
46.5105074938454
 30
0.0
 10
14.63972339340268
 20
47.4754841997425
 30
0.0
  0
SPLINE
  5
1D2
330
1F
100
AcDbEntity
  8
1
  6
SLD-Solid
370
    25
100
AcDbSpline
210
0.0
220
0.0
230
1.0
 70
     8
 71
     3
 72
     8
 73
     4
 74
     0
 42
0.000000001
 43
0.00000001
 40
0.0
 40
0.0
 40
0.0
 40
0.0
 40
1.0
 40
1.0
 40
1.0
 40
1.0
 10
13.03
 20
-44.57901066343649
 30
0.0
 10
13.56559195163211
 20
-45.54503249842019
 30
0.0
 10
14.10222500453559
 20
-46.51049654710811
 30
0.0
 10
14.63972339340268
 20
-47.47548419974252
 30
0.0
  0
SPLINE
  5
1D3
330
1F
100
AcDbEntity
  8
1
  6
SLD-Solid
370
    25
100
AcDbSpline
210
0.0
220
0.0
230
1.0
 70
     8
 71
     3
 72
    14
 73
    10
 74
     0
 42
0.000000001
 43
0.00000001
 40
0.0
 40
0.0
 40
0.0
 40
0.0
 40
0.25
 40
0.25
 40
0.5
 40
0.5
 40
0.75
 40
0.75
 40
1.0
 40
1.0
 40
1.0
 40
1.0
 10
13.03
 20
35.43161038841291
 30
0.0
 10
13.05904068229165
 20
35.4108851273387
 30
0.0
 10
13.08275209483378
 20
35.37953864703776
 30
0.0
 10
13.11609658322839
 20
35.28872072742524
 30
0.0
 10
13.12492140067854
 20
35.23076880196018
 30
0.0
 10
13.12507754968095
 20
35.0895690753786
 30
0.0
 10
13.11615053209292
 20
35.00648906177569
 30
0.0
 10
13.08319562521661
 20
34.82779421025374
 30
0.0
 10
13.05911019949693
 20
34.73111937885589
 30
0.0
 10
13.03
 20
34.63242923389117
 30
0.0
  0
SPLINE
  5
1D4
330
1F
100
AcDbEntity
  8
1
  6
SLD-Solid
370
    25
100
AcDbSpline
210
0.0
220
0.0
230
1.0
 70
     8
 71
     3
 72
    12
 73
     8
 74
     0
 42
0.000000001
 43
0.00000001
 40
0.0
 40
0.0
 40
0.0
 40
0.0
 40
0.2500000000000032
 40
0.2500000000000032
 40
0.5000000000000063
 40
0.5000000000000063
 40
1.0
 40
1.0
 40
1.0
 40
1.0
 10
12.28000000000003
 20
-43.7694359684929
 30
0.0
 10
12.37996960464108
 20
-43.7694359684929
 30
0.0
 10
12.47988502523367
 20
-43.79051518316405
 30
0.0
 10
12.66449294223869
 20
-43.8719426284369
 30
0.0
 10
12.74728498815326
 20
-43.93126060501208
 30
0.0
 10
12.95342033959715
 20
-44.15080408372864
 30
0.0
 10
13.03
 20
-44.351632547958
 30
0.0
 10
13.03
 20
-44.55102159322502
 30
0.0
  0
SPLINE
  5
1D5
330
1F
100
AcDbEntity
  8
1
  6
SLD-Solid
370
    25
100
AcDbSpline
210
0.0
220
0.0
230
1.0
 70
     8
 71
     3
 72
    16
 73
    12
 74
     0
 42
0.000000001
 43
0.00000001
 40
0.0
 40
0.0
 40
0.0
 40
0.0
 40
0.1250000000000001
 40
0.1250000000000001
 40
0.2500000000000003
 40
0.2500000000000003
 40
0.5000000000000002
 40
0.5000000000000002
 40
0.7500000000000001
 40
0.7500000000000001
 40
1.0
 40
1.0
 40
1.0
 40
1.0
 10
13.03
 20
34.61214293353754
 30
0.0
 10
13.03000000000003
 20
34.56119277402756
 30
0.0
 10
13.02067456260612
 20
34.49413963137994
 30
0.0
 10
12.99367590047851
 20
34.36331338142199
 30
0.0
 10
12.97626449755333
 20
34.2990855656246
 30
0.0
 10
12.91545405813534
 20
34.11096290842621
 30
0.0
 10
12.86271449633858
 20
33.99023971150844
 30
0.0
 10
12.73634152951911
 20
33.76817627154973
 30
0.0
 10
12.6609884163974
 20
33.66394234496745
 30
0.0
 10
12.48671204537782
 20
33.48358218869541
 30
0.0
 10
12.38972674335428
 20
33.40848998465462
 30
0.0
 10
12.28000000000003
 20
33.35547071674115
 30
0.0
  0
SPLINE
  5
1D6
330
1F
100
AcDbEntity
  8
1
  6
SLD-Solid
370
    25
100
AcDbSpline
210
0.0
220
0.0
230
1.0
 70
     8
 71
     3
 72
    12
 73
     8
 74
     0
 42
0.000000001
 43
0.00000001
 40
0.0
 40
0.0
 40
0.0
 40
0.0
 40
0.5
 40
0.5
 40
0.75
 40
0.75
 40
1.0
 40
1.0
 40
1.0
 40
1.0
 10
9.199999999999985
 20
-44.55102159322501
 30
0.0
 10
9.199999999999985
 20
-44.35094747116169
 30
0.0
 10
9.277613070150126
 20
-44.14958800989078
 30
0.0
 10
9.48251103730058
 20
-43.93153570225753
 30
0.0
 10
9.566272299852297
 20
-43.87162606259761
 30
0.0
 10
9.749092094904391
 20
-43.79094541821728
 30
0.0
 10
9.849426682175643
 20
-43.76943596849291
 30
0.0
 10
9.949999999999987
 20
-43.76943596849291
 30
0.0
  0
SPLINE
  5
1D7
330
1F
100
AcDbEntity
  8
1
  6
SLD-Solid
370
    25
100
AcDbSpline
210
0.0
220
0.0
230
1.0
 70
     8
 71
     3
 72
    16
 73
    12
 74
     0
 42
0.000000001
 43
0.00000001
 40
0.0
 40
0.0
 40
0.0
 40
0.0
 40
0.2500000000000035
 40
0.2500000000000035
 40
0.500000000000007
 40
0.500000000000007
 40
0.7500000000000104
 40
0.7500000000000104
 40
0.8750000000000052
 40
0.8750000000000052
 40
1.0
 40
1.0
 40
1.0
 40
1.0
 10
9.949999999999987
 20
33.36525953046024
 30
0.0
 10
9.839257595210677
 20
33.42015914282665
 30
0.0
 10
9.740416734001458
 20
33.49854219709402
 30
0.0
 10
9.564708009184075
 20
33.68553569890508
 30
0.0
 10
9.4908304832661
 20
33.79082769792039
 30
0.0
 10
9.364658348120031
 20
34.01955880125702
 30
0.0
 10
9.312951425518149
 20
34.14247439570437
 30
0.0
 10
9.253206550793827
 20
34.33488461785979
 30
0.0
 10
9.236028623043971
 20
34.40121962580659
 30
0.0
 10
9.209723703057046
 20
34.53368853253285
 30
0.0
 10
9.200000000000014
 20
34.60516910831216
 30
0.0
 10
9.200000000000014
 20
34.65640299543513
 30
0.0
  0
SPLINE
  5
1D8
330
1F
100
AcDbEntity
  8
1
  6
SLD-Solid
370
    25
100
AcDbSpline
210
0.0
220
0.0
230
1.0
 70
     8
 71
     3
 72
    12
 73
     8
 74
     0
 42
0.000000001
 43
0.00000001
 40
0.0
 40
0.0
 40
0.0
 40
0.0
 40
0.2500000000000006
 40
0.2500000000000006
 40
0.5000000000000011
 40
0.5000000000000011
 40
1.0
 40
1.0
 40
1.0
 40
1.0
 10
12.28000000000003
 20
33.35547071674115
 30
0.0
 10
12.10934456477525
 20
33.27301109054178
 30
0.0
 10
11.92465326465505
 20
33.21019284332252
 30
0.0
 10
11.52752277837885
 20
33.124142789094
 30
0.0
 10
11.32193513118782
 20
33.10278110396341
 30
0.0
 10
10.69948105299426
 20
33.10504385732294
 30
0.0
 10
10.28831449591981
 20
33.19754297491611
 30
0.0
 10
9.949999999999987
 20
33.36525953046024
 30
0.0
  0
SPLINE
  5
1D9
330
1F
100
AcDbEntity
  8
1
  6
SLD-Solid
370
    25
100
AcDbSpline
210
0.0
220
0.0
230
1.0
 70
     8
 71
     3
 72
    26
 73
    22
 74
     0
 42
0.000000001
 43
0.00000001
 40
0.0
 40
0.0
 40
0.0
 40
0.0
 40
0.0357418176108838
 40
0.077064410475158
 40
0.1194966001470948
 40
0.1627081671573956
 40
0.206907498417864
 40
0.2558255771271257
 40
0.3058417790602682
 40
0.3615468205903392
 40
0.4186389206386314
 40
0.4786811564722894
 40
0.5404039298726253
 40
0.601470431026103
 40
0.6643260699269312
 40
0.7249602158739133
 40
0.7875709009743753
 40
0.8443443855211589
 40
0.9033595384232159
 40
0.9517514149993872
 40
1.0
 40
1.0
 40
1.0
 40
1.0
 10
48.52532140636804
 20
32.49388169592032
 30
0.0
 10
48.51997992395593
 20
32.49253587948581
 30
0.0
 10
48.50846293291669
 20
32.48963410903694
 30
0.0
 10
48.20971781439334
 20
32.41606261053629
 30
0.0
 10
47.71800303227419
 20
32.29907986291385
 30
0.0
 10
47.01930669338638
 20
32.14148397484004
 30
0.0
 10
46.11513783570065
 20
31.95285916382075
 30
0.0
 10
45.00322057574968
 20
31.74523730326671
 30
0.0
 10
43.65294707696859
 20
31.53057191050247
 30
0.0
 10
42.09994362941794
 20
31.33592148645215
 30
0.0
 10
40.34644404782337
 20
31.18639463040532
 30
0.0
 10
38.46501130259136
 20
31.10995412598532
 30
0.0
 10
36.52291422283663
 20
31.12453582665949
 30
0.0
 10
34.58714310771446
 20
31.23241407599887
 30
0.0
 10
32.75272775180785
 20
31.41978783788022
 30
0.0
 10
31.05012534488175
 20
31.66528356767038
 30
0.0
 10
29.60049436348305
 20
31.92754702653255
 30
0.0
 10
28.41451707874668
 20
32.17644126738436
 30
0.0
 10
27.61377055922534
 20
32.36179768148011
 30
0.0
 10
27.1332636041291
 20
32.47917625475271
 30
0.0
 10
27.08174840045777
 20
32.4920717701406
 30
0.0
 10
27.0560289901548
 20
32.4985099675598
 30
0.0
  0
SPLINE
  5
1DA
330
1F
100
AcDbEntity
  8
1
  6
SLD-Solid
370
    25
100
AcDbSpline
210
0.0
220
0.0
230
1.0
 70
     8
 71
     3
 72
    26
 73
    22
 74
     0
 42
0.000000001
 43
0.00000001
 40
0.0
 40
0.0
 40
0.0
 40
0.0
 40
0.0357418176108837
 40
0.0770644104751579
 40
0.1194966001470949
 40
0.1627081671573955
 40
0.2069074984178642
 40
0.2558255771271259
 40
0.3058417790602685
 40
0.3615468205903393
 40
0.4186389206386312
 40
0.4786811564722894
 40
0.5404039298726258
 40
0.6014704310261032
 40
0.664326069926931
 40
0.7249602158739136
 40
0.7875709009743754
 40
0.844344385521159
 40
0.9033595384232158
 40
0.9517514149993871
 40
1.0
 40
1.0
 40
1.0
 40
1.0
 10
81.42532140636801
 20
32.49388169592032
 30
0.0
 10
81.41997992395595
 20
32.49253587948581
 30
0.0
 10
81.40846293291673
 20
32.48963410903694
 30
0.0
 10
81.10971781439333
 20
32.41606261053629
 30
0.0
 10
80.61800303227415
 20
32.29907986291383
 30
0.0
 10
79.9193066933864
 20
32.14148397484004
 30
0.0
 10
79.0151378357006
 20
31.95285916382074
 30
0.0
 10
77.9032205757497
 20
31.74523730326673
 30
0.0
 10
76.55294707696855
 20
31.53057191050247
 30
0.0
 10
74.99994362941794
 20
31.33592148645215
 30
0.0
 10
73.24644404782332
 20
31.18639463040531
 30
0.0
 10
71.36501130259137
 20
31.10995412598535
 30
0.0
 10
69.42291422283661
 20
31.12453582665948
 30
0.0
 10
67.48714310771447
 20
31.23241407599887
 30
0.0
 10
65.6527277518078
 20
31.41978783788022
 30
0.0
 10
63.95012534488171
 20
31.66528356767036
 30
0.0
 10
62.50049436348306
 20
31.92754702653255
 30
0.0
 10
61.31451707874666
 20
32.17644126738436
 30
0.0
 10
60.51377055922539
 20
32.36179768148011
 30
0.0
 10
60.03326360412908
 20
32.47917625475274
 30
0.0
 10
59.98174840045775
 20
32.49207177014058
 30
0.0
 10
59.95602899015481
 20
32.4985099675598
 30
0.0
  0
SPLINE
  5
1DB
330
1F
100
AcDbEntity
  8
1
  6
SLD-Solid
370
    25
100
AcDbSpline
210
0.0
220
0.0
230
1.0
 70
     8
 71
     3
 72
    16
 73
    12
 74
     0
 42
0.000000001
 43
0.00000001
 40
0.0
 40
0.0
 40
0.0
 40
0.0
 40
0.2500000000000002
 40
0.2500000000000002
 40
0.5000000000000004
 40
0.5000000000000004
 40
0.7500000000000007
 40
0.7500000000000007
 40
0.8750000000000003
 40
0.8750000000000003
 40
1.0
 40
1.0
 40
1.0
 40
1.0
 10
12.28000000000003
 20
35.49787263615898
 30
0.0
 10
12.38938127142808
 20
35.44920071538316
 30
0.0
 10
12.48719790588469
 20
35.41256913935558
 30
0.0
 10
12.66235653858859
 20
35.35237067244713
 30
0.0
 10
12.73630362704298
 20
35.33005450148761
 30
0.0
 10
12.86322577731738
 20
35.29810085202674
 30
0.0
 10
12.91570572130095
 20
35.28773767542292
 30
0.0
 10
12.97658934509431
 20
35.2944386084759
 30
0.0
 10
12.99409980251968
 20
35.30029296727562
 30
0.0
 10
13.02084597296049
 20
35.33271449864373
 30
0.0
 10
13.03000000000003
 20
35.36068432142827
 30
0.0
 10
13.03
 20
35.41132408805677
 30
0.0
  0
SPLINE
  5
1DC
330
1F
100
AcDbEntity
  8
1
  6
SLD-Solid
370
    25
100
AcDbSpline
210
0.0
220
0.0
230
1.0
 70
     8
 71
     3
 72
    16
 73
    12
 74
     0
 42
0.000000001
 43
0.00000001
 40
0.0
 40
0.0
 40
0.0
 40
0.0
 40
0.1250000000000023
 40
0.1250000000000023
 40
0.2500000000000046
 40
0.2500000000000046
 40
0.5000000000000031
 40
0.5000000000000031
 40
0.7500000000000016
 40
0.7500000000000016
 40
1.0
 40
1.0
 40
1.0
 40
1.0
 10
9.200000000002262
 20
35.36831017815611
 30
0.0
 10
9.200000000002262
 20
35.31693147875154
 30
0.0
 10
9.209688078859523
 20
35.29149399689031
 30
0.0
 10
9.236073415531509
 20
35.26518486787036
 30
0.0
 10
9.253070624736889
 20
35.26193032552649
 30
0.0
 10
9.313034815209024
 20
35.26168910608326
 30
0.0
 10
9.363922455821433
 20
35.27477154515098
 30
0.0
 10
9.490054525543968
 20
35.31156519648358
 30
0.0
 10
9.56509243003771
 20
35.3362165395983
 30
0.0
 10
9.738924647265486
 20
35.39932894997411
 30
0.0
 10
9.839445946349972
 20
35.43834692831611
 30
0.0
 10
9.949999999999987
 20
35.48885481142474
 30
0.0
  0
SPLINE
  5
1DD
330
1F
100
AcDbEntity
  8
1
  6
SLD-Solid
370
    25
100
AcDbSpline
210
0.0
220
0.0
230
1.0
 70
     8
 71
     3
 72
    12
 73
     8
 74
     0
 42
0.000000001
 43
0.00000001
 40
0.0
 40
0.0
 40
0.0
 40
0.0
 40
0.25
 40
0.25
 40
0.5
 40
0.5
 40
1.0
 40
1.0
 40
1.0
 40
1.0
 10
9.949999999999987
 20
35.48885481142474
 30
0.0
 10
10.11915676939239
 20
35.56613601508451
 30
0.0
 10
10.30270770519948
 20
35.62476545355774
 30
0.0
 10
10.69826560395111
 20
35.70597605697655
 30
0.0
 10
10.90345647830329
 20
35.72681273192287
 30
0.0
 10
11.52590240230557
 20
35.72953904175431
 30
0.0
 10
11.93868796900775
 20
35.64974792445469
 30
0.0
 10
12.28000000000003
 20
35.49787263615898
 30
0.0
  0
SPLINE
  5
1DE
330
1F
100
AcDbEntity
  8
1
  6
SLD-Solid
370
    25
100
AcDbSpline
210
0.0
220
0.0
230
1.0
 70
     8
 71
     3
 72
    16
 73
    12
 74
     0
 42
0.000000001
 43
0.00000001
 40
0.0
 40
0.0
 40
0.0
 40
0.0
 40
0.2499999999999998
 40
0.2499999999999998
 40
0.4999999999999996
 40
0.4999999999999996
 40
0.7499999999999993
 40
0.7499999999999993
 40
0.8749999999999997
 40
0.8749999999999997
 40
1.0
 40
1.0
 40
1.0
 40
1.0
 10
9.949999999999987
 20
40.2901760724921
 30
0.0
 10
9.839257595210677
 20
40.32798470963448
 30
0.0
 10
9.740416734001458
 20
40.39081531012378
 30
0.0
 10
9.564708009184075
 20
40.54795546550073
 30
0.0
 10
9.4908304832661
 20
40.63949231484411
 30
0.0
 10
9.364658348120031
 20
40.84247699029049
 30
0.0
 10
9.312951425518149
 20
40.9532688081071
 30
0.0
 10
9.253206550793827
 20
41.13218036853984
 30
0.0
 10
9.236028623043971
 20
41.19470581500534
 30
0.0
 10
9.209723703057046
 20
41.32469951294971
 30
0.0
 10
9.200000000000014
 20
41.39783900363279
 30
0.0
 10
9.200000000000014
 20
41.45885414630702
 30
0.0
  0
SPLINE
  5
1DF
330
1F
100
AcDbEntity
  8
1
  6
SLD-Solid
370
    25
100
AcDbSpline
210
0.0
220
0.0
230
1.0
 70
     8
 71
     3
 72
    16
 73
    12
 74
     0
 42
0.000000001
 43
0.00000001
 40
0.0
 40
0.0
 40
0.0
 40
0.0
 40
0.1250000000000039
 40
0.1250000000000039
 40
0.2500000000000078
 40
0.2500000000000078
 40
0.5000000000000051
 40
0.5000000000000051
 40
0.7500000000000026
 40
0.7500000000000026
 40
1.0
 40
1.0
 40
1.0
 40
1.0
 10
13.02999999999832
 20
41.42895438114482
 30
0.0
 10
13.02999999999832
 20
41.36827713359742
 30
0.0
 10
13.02067456260444
 20
41.29860125514489
 30
0.0
 10
12.99367590047683
 20
41.16856540733182
 30
0.0
 10
12.97626449755165
 20
41.10738101936695
 30
0.0
 10
12.91545405813366
 20
40.93079740642488
 30
0.0
 10
12.86271449633693
 20
40.82130212611718
 30
0.0
 10
12.7363415295174
 20
40.62320356046917
 30
0.0
 10
12.66098841639572
 20
40.53226162144242
 30
0.0
 10
12.48671204537614
 20
40.3802749838428
 30
0.0
 10
12.38972674335261
 20
40.31995671599526
 30
0.0
 10
12.27999999999835
 20
40.28343379132449
 30
0.0
  0
SPLINE
  5
1E0
330
1F
100
AcDbEntity
  8
1
  6
SLD-Solid
370
    25
100
AcDbSpline
210
0.0
220
0.0
230
1.0
 70
     8
 71
     3
 72
    12
 73
     8
 74
     0
 42
0.000000001
 43
0.00000001
 40
0.0
 40
0.0
 40
0.0
 40
0.0
 40
0.25
 40
0.25
 40
0.5
 40
0.5
 40
1.0
 40
1.0
 40
1.0
 40
1.0
 10
12.27999999999835
 20
40.28343379132449
 30
0.0
 10
12.10934456477357
 20
40.22663054158939
 30
0.0
 10
11.92465326465338
 20
40.18318651206277
 30
0.0
 10
11.52752277837717
 20
40.12362389225036
 30
0.0
 10
11.32193513118616
 20
40.10880147711191
 30
0.0
 10
10.69948105299261
 20
40.11037023230932
 30
0.0
 10
10.28831449592005
 20
40.1746718982731
 30
0.0
 10
9.949999999999987
 20
40.2901760724921
 30
0.0
  0
SPLINE
  5
1E1
330
1F
100
AcDbEntity
  8
1
  6
SLD-Solid
370
    25
100
AcDbSpline
210
0.0
220
0.0
230
1.0
 70
     8
 71
     3
 72
    16
 73
    12
 74
     0
 42
0.000000001
 43
0.00000001
 40
0.0
 40
0.0
 40
0.0
 40
0.0
 40
0.1250000000000007
 40
0.1250000000000007
 40
0.2500000000000013
 40
0.2500000000000013
 40
0.5000000000000009
 40
0.5000000000000009
 40
0.7500000000000004
 40
0.7500000000000004
 40
1.0
 40
1.0
 40
1.0
 40
1.0
 10
9.199999999999985
 20
41.93454239124896
 30
0.0
 10
9.200000000002484
 20
41.8733547896372
 30
0.0
 10
9.20968807886123
 20
41.83111047963451
 30
0.0
 10
9.236073415534632
 20
41.77192904688972
 30
0.0
 10
9.25307062474047
 20
41.75174455463429
 30
0.0
 10
9.313034815213312
 20
41.70102846576505
 30
0.0
 10
9.36392245582579
 20
41.68155707128333
 30
0.0
 10
9.490054525547894
 20
41.65587219504386
 30
0.0
 10
9.565092430040917
 20
41.65088437918837
 30
0.0
 10
9.738924647266597
 20
41.661139619114
 30
0.0
 10
9.83944594634957
 20
41.67651281331739
 30
0.0
 10
9.949999999997711
 20
41.70913817421307
 30
0.0
  0
SPLINE
  5
1E2
330
1F
100
AcDbEntity
  8
1
  6
SLD-Solid
370
    25
100
AcDbSpline
210
0.0
220
0.0
230
1.0
 70
     8
 71
     3
 72
    12
 73
     8
 74
     0
 42
0.000000001
 43
0.00000001
 40
0.0
 40
0.0
 40
0.0
 40
0.0
 40
0.25
 40
0.25
 40
0.5
 40
0.5
 40
1.0
 40
1.0
 40
1.0
 40
1.0
 10
9.949999999997711
 20
41.70913817421307
 30
0.0
 10
10.11915676938994
 20
41.75905765221759
 30
0.0
 10
10.30270770519864
 20
41.7967364999886
 30
0.0
 10
10.69826560394986
 20
41.84886357628231
 30
0.0
 10
10.90345647830172
 20
41.86219397810192
 30
0.0
 10
11.52590240230296
 20
41.86393994691687
 30
0.0
 10
11.93868796900434
 20
41.81303425518006
 30
0.0
 10
12.27999999999607
 20
41.71496227396705
 30
0.0
  0
SPLINE
  5
1E3
330
1F
100
AcDbEntity
  8
1
  6
SLD-Solid
370
    25
100
AcDbSpline
210
0.0
220
0.0
230
1.0
 70
     8
 71
     3
 72
    16
 73
    12
 74
     0
 42
0.000000001
 43
0.00000001
 40
0.0
 40
0.0
 40
0.0
 40
0.0
 40
0.2500000000000007
 40
0.2500000000000007
 40
0.5000000000000013
 40
0.5000000000000013
 40
0.750000000000002
 40
0.750000000000002
 40
0.875000000000001
 40
0.875000000000001
 40
1.0
 40
1.0
 40
1.0
 40
1.0
 10
12.27999999999607
 20
41.71496227396705
 30
0.0
 10
12.38938127142412
 20
41.68353285741416
 30
0.0
 10
12.48719790588074
 20
41.66923447164879
 30
0.0
 10
12.66235653858464
 20
41.66075308180609
 30
0.0
 10
12.73630362703902
 20
41.66679667497375
 30
0.0
 10
12.86322577731343
 20
41.69542238628978
 30
0.0
 10
12.91570572129699
 20
41.71723646207172
 30
0.0
 10
12.97658934509036
 20
41.77277628648036
 30
0.0
 10
12.99409980251573
 20
41.79517110958681
 30
0.0
 10
13.02084597295654
 20
41.859343688956
 30
0.0
 10
13.02999999999605
 20
41.90265050045375
 30
0.0
 10
13.02999999999605
 20
41.96295809683837
 30
0.0
  0
SPLINE
  5
1E4
330
1F
100
AcDbEntity
  8
1
  6
SLD-Solid
370
    25
100
AcDbSpline
210
0.0
220
0.0
230
1.0
 70
     8
 71
     3
 72
    12
 73
     8
 74
     0
 42
0.000000001
 43
0.00000001
 40
0.0
 40
0.0
 40
0.0
 40
0.0
 40
0.5
 40
0.5
 40
0.75
 40
0.75
 40
1.0
 40
1.0
 40
1.0
 40
1.0
 10
9.199999999999985
 20
44.551021593225
 30
0.0
 10
9.199999999999985
 20
44.35104831812288
 30
0.0
 10
9.27600396681734
 20
44.15150826736529
 30
0.0
 10
9.4827590401535
 20
43.93116827137957
 30
0.0
 10
9.566857937314946
 20
43.87128621650867
 30
0.0
 10
9.749511247261145
 20
43.7908422871647
 30
0.0
 10
9.8501562428705
 20
43.76943596849255
 30
0.0
 10
9.950000000002401
 20
43.76943596849287
 30
0.0
  0
SPLINE
  5
1E5
330
1F
100
AcDbEntity
  8
1
  6
SLD-Solid
370
    25
100
AcDbSpline
210
0.0
220
0.0
230
1.0
 70
     8
 71
     3
 72
    10
 73
     6
 74
     0
 42
0.000000001
 43
0.00000001
 40
0.0
 40
0.0
 40
0.0
 40
0.0
 40
0.5
 40
0.5
 40
1.0
 40
1.0
 40
1.0
 40
1.0
 10
12.28000000000003
 20
43.76943596849289
 30
0.0
 10
12.48122846377885
 20
43.7694359684929
 30
0.0
 10
12.67900932610888
 20
43.85856672856716
 30
0.0
 10
12.95290221427666
 20
44.1502294699326
 30
0.0
 10
13.03
 20
44.34957328976746
 30
0.0
 10
13.03
 20
44.551021593225
 30
0.0
  0
SPLINE
  5
1E6
330
1F
100
AcDbEntity
  8
SK3
  6
SLD-Dashed
370
    18
100
AcDbSpline
210
0.0
220
0.0
230
1.0
 70
     8
 71
     3
 72
    30
 73
    26
 74
     0
 42
0.000000001
 43
0.00000001
 40
0.4999999999999934
 40
0.4999999999999934
 40
0.4999999999999934
 40
0.4999999999999934
 40
0.5624999999999941
 40
0.5624999999999941
 40
0.6249999999999949
 40
0.6249999999999949
 40
0.6874999999999956
 40
0.6874999999999956
 40
0.7499999999999962
 40
0.7499999999999962
 40
0.7812499999999968
 40
0.7812499999999968
 40
0.8124999999999972
 40
0.8124999999999972
 40
0.8437499999999977
 40
0.8437499999999977
 40
0.8749999999999981
 40
0.8749999999999981
 40
0.9062499999999986
 40
0.9062499999999986
 40
0.9374999999999991
 40
0.9374999999999991
 40
0.9687499999999996
 40
0.9687499999999996
 40
1.0
 40
1.0
 40
1.0
 40
1.0
 10
9.602846279599758
 20
-14.27915034605704
 30
0.0
 10
9.68645653869378
 20
-14.42125418637642
 30
0.0
 10
9.797407143447789
 20
-14.51131733768217
 30
0.0
 10
10.04010223607202
 20
-14.63242374926583
 30
0.0
 10
10.17571106347531
 20
-14.66434400040093
 30
0.0
 10
10.46843928875955
 20
-14.68785090664331
 30
0.0
 10
10.62555865364896
 20
-14.68003033606002
 30
0.0
 10
10.98145473780837
 20
-14.62436653420488
 30
0.0
 10
11.18157682258664
 20
-14.57632221838472
 30
0.0
 10
11.50801002825756
 20
-14.45860893436551
 30
0.0
 10
11.61873162334194
 20
-14.4124294466051
 30
0.0
 10
11.84220113938107
 20
-14.30063256215536
 30
0.0
 10
11.95412269444687
 20
-14.23490090158667
 30
0.0
 10
12.16107863552153
 20
-14.08747705033184
 30
0.0
 10
12.25901625186736
 20
-14.00366784802364
 30
0.0
 10
12.43052677631516
 20
-13.82249974419395
 30
0.0
 10
12.50593330594162
 20
-13.72350506925878
 30
0.0
 10
12.63000303324957
 20
-13.51367430078407
 30
0.0
 10
12.67841410243613
 20
-13.40398486856761
 30
0.0
 10
12.74789370637347
 20
-13.17359881812365
 30
0.0
 10
12.76810124630629
 20
-13.05468203931827
 30
0.0
 10
12.77891027826544
 20
-12.81644825424549
 30
0.0
 10
12.76940813581851
 20
-12.69449512908381
 30
0.0
 10
12.72129905847916
 20
-12.4581725963389
 30
0.0
 10
12.68301625646433
 20
-12.34304803310332
 30
0.0
 10
12.63040931107567
 20
-12.23233436389472
 30
0.0
  0
SPLINE
  5
1E7
330
1F
100
AcDbEntity
  8
SK3
  6
SLD-Dashed
370
    18
100
AcDbSpline
210
0.0
220
0.0
230
1.0
 70
     8
 71
     3
 72
    30
 73
    26
 74
     0
 42
0.000000001
 43
0.00000001
 40
0.0
 40
0.0
 40
0.0
 40
0.0
 40
0.0312499999999991
 40
0.0312499999999991
 40
0.0624999999999983
 40
0.0624999999999983
 40
0.0937499999999974
 40
0.0937499999999974
 40
0.1249999999999965
 40
0.1249999999999965
 40
0.187499999999996
 40
0.187499999999996
 40
0.2499999999999955
 40
0.2499999999999955
 40
0.312499999999995
 40
0.312499999999995
 40
0.3749999999999944
 40
0.3749999999999944
 40
0.4062499999999942
 40
0.4062499999999942
 40
0.4374999999999939
 40
0.4374999999999939
 40
0.4687499999999937
 40
0.4687499999999937
 40
0.4999999999999934
 40
0.4999999999999934
 40
0.4999999999999934
 40
0.4999999999999934
 10
12.63040931107567
 20
-12.23233436389472
 30
0.0
 10
12.57780236568703
 20
-12.12162069468613
 30
0.0
 10
12.51267206459311
 20
-12.01896209858507
 30
0.0
 10
12.35821503903349
 20
-11.83123217673028
 30
0.0
 10
12.2680065585952
 20
-11.74609765066668
 30
0.0
 10
12.07343499093627
 20
-11.60605794329099
 30
0.0
 10
11.96643370486065
 20
-11.54920121804522
 30
0.0
 10
11.74573264298215
 20
-11.46981719393692
 30
0.0
 10
11.63406552497762
 20
-11.44748668283024
 30
0.0
 10
11.29951801742689
 20
-11.42770686560524
 30
0.0
 10
11.09198428069953
 20
-11.47806879673264
 30
0.0
 10
10.72217844091648
 20
-11.64236243808865
 30
0.0
 10
10.55844908096597
 20
-11.75496051093638
 30
0.0
 10
10.25324958882709
 20
-12.02428585488717
 30
0.0
 10
10.11576882260311
 20
-12.17795893248199
 30
0.0
 10
9.86252561936532
 20
-12.52988094775974
 30
0.0
 10
9.746260896402042
 20
-12.72918710194008
 30
0.0
 10
9.60569266085047
 20
-13.06645756895029
 30
0.0
 10
9.565421636406112
 20
-13.18319961587418
 30
0.0
 10
9.503286004234612
 20
-13.42936776111862
 30
0.0
 10
9.482363995141323
 20
-13.55752069830021
 30
0.0
 10
9.47090841224374
 20
-13.80546799718781
 30
0.0
 10
9.480664817462667
 20
-13.92083957613648
 30
0.0
 10
9.525951505689648
 20
-14.12239475073261
 30
0.0
 10
9.561041150052768
 20
-14.20809842589735
 30
0.0
 10
9.602846279599758
 20
-14.27915034605704
 30
0.0
  0
SPLINE
  5
1E8
330
1F
100
AcDbEntity
  8
SK3
  6
SLD-Dashed
370
    18
100
AcDbSpline
210
0.0
220
0.0
230
1.0
 70
     8
 71
     3
 72
    26
 73
    22
 74
     0
 42
0.000000001
 43
0.00000001
 40
0.5000000000000062
 40
0.5000000000000062
 40
0.5000000000000062
 40
0.5000000000000062
 40
0.5625000000000058
 40
0.5625000000000058
 40
0.6250000000000051
 40
0.6250000000000051
 40
0.6562500000000046
 40
0.6562500000000046
 40
0.687500000000004
 40
0.687500000000004
 40
0.7187500000000034
 40
0.7187500000000034
 40
0.7500000000000029
 40
0.7500000000000029
 40
0.8125000000000022
 40
0.8125000000000022
 40
0.8750000000000014
 40
0.8750000000000014
 40
0.9375000000000008
 40
0.9375000000000008
 40
1.0
 40
1.0
 40
1.0
 40
1.0
 10
11.6386983177957
 20
-9.81939037133924
 30
0.0
 10
11.80317915771348
 20
-9.806594466981593
 30
0.0
 10
11.95081782962319
 20
-9.812432081454707
 30
0.0
 10
12.22616299685253
 20
-9.868839301599007
 30
0.0
 10
12.35236515469922
 20
-9.918953620877941
 30
0.0
 10
12.51874661426342
 20
-10.04837289060637
 30
0.0
 10
12.57051953396253
 20
-10.101150003397
 30
0.0
 10
12.66070184098388
 20
-10.23071744026809
 30
0.0
 10
12.70001796005849
 20
-10.3092153846078
 30
0.0
 10
12.75624339139549
 20
-10.4949325806605
 30
0.0
 10
12.77323165300569
 20
-10.60488156995158
 30
0.0
 10
12.77649462889752
 20
-10.84110300053569
 30
0.0
 10
12.76278670669287
 20
-10.9697704302333
 30
0.0
 10
12.68516730486993
 20
-11.34647137591013
 30
0.0
 10
12.58996305158962
 20
-11.58088814423497
 30
0.0
 10
12.37315603453731
 20
-11.98947715399205
 30
0.0
 10
12.24747178673947
 20
-12.17132846963893
 30
0.0
 10
11.97676737519453
 20
-12.48981349043032
 30
0.0
 10
11.83102686354771
 20
-12.62828009284685
 30
0.0
 10
11.50508373269932
 20
-12.86276351579441
 30
0.0
 10
11.32747339457478
 20
-12.95749122616767
 30
0.0
 10
11.125
 20
-13.01159523973387
 30
0.0
  0
SPLINE
  5
1E9
330
1F
100
AcDbEntity
  8
SK3
  6
SLD-Dashed
370
    18
100
AcDbSpline
210
0.0
220
0.0
230
1.0
 70
     8
 71
     3
 72
    34
 73
    30
 74
     0
 42
0.000000001
 43
0.00000001
 40
0.0
 40
0.0
 40
0.0
 40
0.0
 40
0.0312500000000005
 40
0.0312500000000005
 40
0.0625000000000011
 40
0.0625000000000011
 40
0.0937500000000016
 40
0.0937500000000016
 40
0.1250000000000022
 40
0.1250000000000022
 40
0.1562500000000027
 40
0.1562500000000027
 40
0.1875000000000032
 40
0.1875000000000032
 40
0.2187500000000038
 40
0.2187500000000038
 40
0.2500000000000043
 40
0.2500000000000043
 40
0.2812500000000049
 40
0.2812500000000049
 40
0.3125000000000054
 40
0.3125000000000054
 40
0.3750000000000063
 40
0.3750000000000063
 40
0.4062500000000066
 40
0.4062500000000066
 40
0.4375000000000068
 40
0.4375000000000068
 40
0.5000000000000062
 40
0.5000000000000062
 40
0.5000000000000062
 40
0.5000000000000062
 10
11.125
 20
-13.01159523973387
 30
0.0
 10
11.02376330271261
 20
-13.03864724651696
 30
0.0
 10
10.91875434041333
 20
-13.05441768585466
 30
0.0
 10
10.69982193729478
 20
-13.05649587060872
 30
0.0
 10
10.58565504429781
 20
-13.04203538439392
 30
0.0
 10
10.3643330690885
 20
-12.97958779527628
 30
0.0
 10
10.25386240054306
 20
-12.93066318687884
 30
0.0
 10
10.04998753866612
 20
-12.80335962284303
 30
0.0
 10
9.955887873021
 20
-12.72514830576758
 30
0.0
 10
9.789076352163557
 20
-12.54575166602605
 30
0.0
 10
9.718022202672067
 20
-12.44674722204856
 30
0.0
 10
9.600536001433193
 20
-12.23250861951093
 30
0.0
 10
9.555159683901222
 20
-12.11851015366411
 30
0.0
 10
9.493538953914305
 20
-11.88585378314764
 30
0.0
 10
9.476799814585949
 20
-11.76451266100636
 30
0.0
 10
9.473480888754688
 20
-11.52533259241783
 30
0.0
 10
9.486354225371821
 20
-11.40705029377199
 30
0.0
 10
9.541906609790429
 20
-11.17282024047878
 30
0.0
 10
9.583939125903774
 20
-11.06025657731945
 30
0.0
 10
9.694361385739564
 20
-10.84625731946299
 30
0.0
 10
9.764046986917323
 20
-10.74326010657129
 30
0.0
 10
10.00399120049175
 20
-10.46156575413967
 30
0.0
 10
10.21277179464263
 20
-10.30327029353937
 30
0.0
 10
10.54446991129009
 20
-10.1221917168868
 30
0.0
 10
10.65925898590057
 20
-10.07012567259635
 30
0.0
 10
10.87934718809658
 20
-9.984066675225902
 30
0.0
 10
10.98764418607851
 20
-9.948726825148176
 30
0.0
 10
11.29210738731387
 20
-9.863765363482685
 30
0.0
 10
11.47421747787791
 20
-9.832186275696895
 30
0.0
 10
11.6386983177957
 20
-9.81939037133924
 30
0.0
  0
SPLINE
  5
1EA
330
1F
100
AcDbEntity
  8
SK3
  6
SLD-Dashed
370
    18
100
AcDbSpline
210
0.0
220
0.0
230
1.0
 70
    24
 71
     2
 72
     6
 73
     3
 74
     0
 42
0.000000001
 43
0.00000001
 40
0.0
 40
0.0
 40
0.0
 40
0.2500000000000001
 40
0.2500000000000001
 40
0.2500000000000001
 10
19.05000000000001
 20
-35.10000000000002
 30
0.0
 10
19.06014612588487
 20
-35.10000000000002
 30
0.0
 10
19.06841751893205
 20
-35.10000000000002
 30
0.0
  0
SPLINE
  5
1EB
330
1F
100
AcDbEntity
  8
SK3
  6
SLD-Dashed
370
    18
100
AcDbSpline
210
0.0
220
0.0
230
1.0
 70
    24
 71
     3
 72
     8
 73
     4
 74
     0
 42
0.000000001
 43
0.00000001
 40
0.2500000000000001
 40
0.2500000000000001
 40
0.2500000000000001
 40
0.2500000000000001
 40
0.5000000000000002
 40
0.5000000000000002
 40
0.5000000000000002
 40
0.5000000000000002
 10
19.06841751893205
 20
-35.10000000000002
 30
0.0
 10
19.07668891197924
 20
-35.10000000000002
 30
0.0
 10
19.08301365815128
 20
-35.10000000000001
 30
0.0
 10
19.08310257944279
 20
-35.10000000000002
 30
0.0
  0
SPLINE
  5
1EC
330
1F
100
AcDbEntity
  8
SK3
  6
SLD-Dashed
370
    18
100
AcDbSpline
210
0.0
220
0.0
230
1.0
 70
    24
 71
     3
 72
     8
 73
     4
 74
     0
 42
0.000000001
 43
0.00000001
 40
0.5625000000000002
 40
0.5625000000000002
 40
0.5625000000000002
 40
0.5625000000000002
 40
0.6250000000000002
 40
0.6250000000000002
 40
0.6250000000000002
 40
0.6250000000000002
 10
19.08212261848564
 20
-35.10000000000002
 30
0.0
 10
19.0814521314895
 20
-35.10000000000002
 30
0.0
 10
19.08044324131379
 20
-35.10000000000002
 30
0.0
 10
19.07914646809408
 20
-35.10000000000002
 30
0.0
  0
SPLINE
  5
1ED
330
1F
100
AcDbEntity
  8
SK3
  6
SLD-Dashed
370
    18
100
AcDbSpline
210
0.0
220
0.0
230
1.0
 70
    24
 71
     3
 72
     8
 73
     4
 74
     0
 42
0.000000001
 43
0.00000001
 40
0.6250000000000002
 40
0.6250000000000002
 40
0.6250000000000002
 40
0.6250000000000002
 40
0.7500000000000002
 40
0.7500000000000002
 40
0.7500000000000002
 40
0.7500000000000002
 10
19.07914646809408
 20
-35.10000000000002
 30
0.0
 10
19.0765529216547
 20
-35.10000000000002
 30
0.0
 10
19.07277562660288
 20
-35.10000000000002
 30
0.0
 10
19.06861719477357
 20
-35.10000000000002
 30
0.0
  0
SPLINE
  5
1EE
330
1F
100
AcDbEntity
  8
SK3
  6
SLD-Dashed
370
    18
100
AcDbSpline
210
0.0
220
0.0
230
1.0
 70
    24
 71
     2
 72
     6
 73
     3
 74
     0
 42
0.000000001
 43
0.00000001
 40
0.7500000000000002
 40
0.7500000000000002
 40
0.7500000000000002
 40
1.0
 40
1.0
 40
1.0
 10
19.06861719477357
 20
-35.10000000000002
 30
0.0
 10
19.06030033111492
 20
-35.10000000000002
 30
0.0
 10
19.05000000000001
 20
-35.10000000000002
 30
0.0
  0
SPLINE
  5
1EF
330
1F
100
AcDbEntity
  8
1
  6
SLD-Dashed
370
    18
100
AcDbSpline
210
0.0
220
0.0
230
1.0
 70
    24
 71
     2
 72
     6
 73
     3
 74
     0
 42
0.000000001
 43
0.00000001
 40
0.0
 40
0.0
 40
0.0
 40
0.25
 40
0.25
 40
0.25
 10
3.199999999989211
 20
-35.09999999997149
 30
0.0
 10
3.178023089472792
 20
-35.09999999997996
 30
0.0
 10
3.159393676864672
 20
-35.09999999998713
 30
0.0
  0
SPLINE
  5
1F0
330
1F
100
AcDbEntity
  8
1
  6
SLD-Dashed
370
    18
100
AcDbSpline
210
0.0
220
0.0
230
1.0
 70
    24
 71
     3
 72
     8
 73
     4
 74
     0
 42
0.000000001
 43
0.00000001
 40
0.25
 40
0.25
 40
0.25
 40
0.25
 40
0.5
 40
0.5
 40
0.5
 40
0.5
 10
3.159393676864672
 20
-35.09999999998713
 30
0.0
 10
3.140764264251625
 20
-35.09999999999429
 30
0.0
 10
3.125935313376446
 20
-35.10000000000001
 30
0.0
 10
3.12592529748136
 20
-35.10000000000002
 30
0.0
  0
SPLINE
  5
1F1
330
1F
100
AcDbEntity
  8
1
  6
SLD-Dashed
370
    18
100
AcDbSpline
210
0.0
220
0.0
230
1.0
 70
    24
 71
     3
 72
     8
 73
     4
 74
     0
 42
0.000000001
 43
0.00000001
 40
0.5
 40
0.5
 40
0.5
 40
0.5
 40
0.75
 40
0.75
 40
0.75
 40
0.75
 10
3.12592529748136
 20
-35.10000000000002
 30
0.0
 10
3.125915281586261
 20
-35.10000000000002
 30
0.0
 10
3.140736475081146
 20
-35.09999999999431
 30
0.0
 10
3.15937402615353
 20
-35.09999999998713
 30
0.0
  0
SPLINE
  5
1F2
330
1F
100
AcDbEntity
  8
1
  6
SLD-Dashed
370
    18
100
AcDbSpline
210
0.0
220
0.0
230
1.0
 70
    24
 71
     2
 72
     6
 73
     3
 74
     0
 42
0.000000001
 43
0.00000001
 40
0.75
 40
0.75
 40
0.75
 40
1.0
 40
1.0
 40
1.0
 10
3.15937402615353
 20
-35.09999999998713
 30
0.0
 10
3.178011577220946
 20
-35.09999999997996
 30
0.0
 10
3.199999999989211
 20
-35.09999999997149
 30
0.0
  0
SPLINE
  5
1F3
330
1F
100
AcDbEntity
  8
SK3
  6
SLD-Dashed
370
    18
100
AcDbSpline
210
0.0
220
0.0
230
1.0
 70
     8
 71
     3
 72
    30
 73
    26
 74
     0
 42
0.000000001
 43
0.00000001
 40
0.5000000000000009
 40
0.5000000000000009
 40
0.5000000000000009
 40
0.5000000000000009
 40
0.5625000000000008
 40
0.5625000000000008
 40
0.6250000000000008
 40
0.6250000000000008
 40
0.6562500000000007
 40
0.6562500000000007
 40
0.6875000000000007
 40
0.6875000000000007
 40
0.7187500000000007
 40
0.7187500000000007
 40
0.7500000000000006
 40
0.7500000000000006
 40
0.7812500000000006
 40
0.7812500000000006
 40
0.8125000000000006
 40
0.8125000000000006
 40
0.8437500000000006
 40
0.8437500000000006
 40
0.8750000000000004
 40
0.8750000000000004
 40
0.9375000000000003
 40
0.9375000000000003
 40
1.0
 40
1.0
 40
1.0
 40
1.0
 10
11.1256340867126
 20
-2.20807613194434
 30
0.0
 10
10.91012831143848
 20
-2.207994055743387
 30
0.0
 10
10.69273190607926
 20
-2.250950739379323
 30
0.0
 10
10.29545710457802
 20
-2.413221511274828
 30
0.0
 10
10.11161887920198
 20
-2.533970605358128
 30
0.0
 10
9.88325685805247
 20
-2.756393500522321
 30
0.0
 10
9.81357030025859
 20
-2.838822643502575
 30
0.0
 10
9.693828420307707
 20
-3.01204482989216
 30
0.0
 10
9.643049505613192
 20
-3.103292515775132
 30
0.0
 10
9.559939885115277
 20
-3.294987142140791
 30
0.0
 10
9.528110569339097
 20
-3.394937637341208
 30
0.0
 10
9.485932078998186
 20
-3.595278526154801
 30
0.0
 10
9.475093311114847
 20
-3.696889173272912
 30
0.0
 10
9.474907881274753
 20
-3.901872321533148
 30
0.0
 10
9.48552400342549
 20
-4.002149034246304
 30
0.0
 10
9.527345716529704
 20
-4.198506717830002
 30
0.0
 10
9.559089732329287
 20
-4.295610098711405
 30
0.0
 10
9.641733638388356
 20
-4.479370670401488
 30
0.0
 10
9.692330936314553
 20
-4.566117382228375
 30
0.0
 10
9.81199406161258
 20
-4.729695673261661
 30
0.0
 10
9.881475262593503
 20
-4.806554854908302
 30
0.0
 10
10.10919445985291
 20
-5.012639596316038
 30
0.0
 10
10.29295795309709
 20
-5.12278188558836
 30
0.0
 10
10.68976853487481
 20
-5.270055084887787
 30
0.0
 10
10.90666257993485
 20
-5.309061659790642
 30
0.0
 10
11.125
 20
-5.309061659790657
 30
0.0
  0
SPLINE
  5
1F4
330
1F
100
AcDbEntity
  8
SK3
  6
SLD-Dashed
370
    18
100
AcDbSpline
210
0.0
220
0.0
230
1.0
 70
     8
 71
     3
 72
    34
 73
    30
 74
     0
 42
0.000000001
 43
0.00000001
 40
0.0
 40
0.0
 40
0.0
 40
0.0
 40
0.0312500000000002
 40
0.0312500000000002
 40
0.0625000000000004
 40
0.0625000000000004
 40
0.0937500000000006
 40
0.0937500000000006
 40
0.1250000000000007
 40
0.1250000000000007
 40
0.1875000000000009
 40
0.1875000000000009
 40
0.2500000000000012
 40
0.2500000000000012
 40
0.2812500000000011
 40
0.2812500000000011
 40
0.3125000000000011
 40
0.3125000000000011
 40
0.3437500000000011
 40
0.3437500000000011
 40
0.375000000000001
 40
0.375000000000001
 40
0.406250000000001
 40
0.406250000000001
 40
0.4375000000000009
 40
0.4375000000000009
 40
0.4687500000000009
 40
0.4687500000000009
 40
0.5000000000000009
 40
0.5000000000000009
 40
0.5000000000000009
 40
0.5000000000000009
 10
11.125
 20
-5.309061659790657
 30
0.0
 10
11.23416871003261
 20
-5.309061659790657
 30
0.0
 10
11.34148252556934
 20
-5.29953734962154
 30
0.0
 10
11.55256160023166
 20
-5.262182100287893
 30
0.0
 10
11.65743203047549
 20
-5.233886962156438
 30
0.0
 10
11.85717198594062
 20
-5.159939537795352
 30
0.0
 10
11.9518821704485
 20
-5.114630280030605
 30
0.0
 10
12.13112457505727
 20
-5.007215473783251
 30
0.0
 10
12.21587296426148
 20
-4.944611663283527
 30
0.0
 10
12.44381779984263
 20
-4.738598197540307
 30
0.0
 10
12.56670516675001
 20
-4.571329361139992
 30
0.0
 10
12.73138667216642
 20
-4.206060482656711
 30
0.0
 10
12.77487792035802
 20
-4.004112810281381
 30
0.0
 10
12.77506064455627
 20
-3.700306253597581
 30
0.0
 10
12.76431481439132
 20
-3.596867972028017
 30
0.0
 10
12.72215926890362
 20
-3.395807648785818
 30
0.0
 10
12.69097028794158
 20
-3.297550131697906
 30
0.0
 10
12.60821939488965
 20
-3.105767645319016
 30
0.0
 10
12.55662183160314
 20
-3.012826865172895
 30
0.0
 10
12.43728120518577
 20
-2.839925186415168
 30
0.0
 10
12.36897548289651
 20
-2.758757585038254
 30
0.0
 10
12.21525208496078
 20
-2.608656191484413
 30
0.0
 10
12.13209058330411
 20
-2.541870610032922
 30
0.0
 10
11.95357507686054
 20
-2.424499981749692
 30
0.0
 10
11.85705358084936
 20
-2.373501415354265
 30
0.0
 10
11.6574094418268
 20
-2.291755408436416
 30
0.0
 10
11.55456819584583
 20
-2.260806334720922
 30
0.0
 10
11.34284591554825
 20
-2.218868681349212
 30
0.0
 10
11.23338697434965
 20
-2.208117170044821
 30
0.0
 10
11.1256340867126
 20
-2.20807613194434
 30
0.0
  0
SPLINE
  5
1F5
330
1F
100
AcDbEntity
  8
1
  6
SLD-Dashed
370
    18
100
AcDbSpline
210
0.0
220
0.0
230
1.0
 70
     8
 71
     3
 72
    16
 73
    12
 74
     0
 42
0.000000001
 43
0.00000001
 40
0.0
 40
0.0
 40
0.0
 40
0.0
 40
0.1183101998448738
 40
0.2398616817231226
 40
0.3582046309939531
 40
0.4801983178454756
 40
0.5942312615655265
 40
0.7123833563754104
 40
0.8141589978134358
 40
0.9196085998471853
 40
1.0
 40
1.0
 40
1.0
 40
1.0
 10
70.70000000000002
 20
-31.27194513715712
 30
0.0
 10
71.28495898432566
 20
-31.27940986506765
 30
0.0
 10
72.47090276519472
 20
-31.29454382809515
 30
0.0
 10
74.19577991439438
 20
-31.41336939423116
 30
0.0
 10
75.8412941765326
 20
-31.59095784971761
 30
0.0
 10
77.3078041313525
 20
-31.80867201266872
 30
0.0
 10
78.57462421573702
 20
-32.03976921006853
 30
0.0
 10
79.53789336155113
 20
-32.24324033951128
 30
0.0
 10
80.20511437168817
 20
-32.39736539402371
 30
0.0
 10
80.57090792595744
 20
-32.48675133257637
 30
0.0
 10
80.59978983858626
 20
-32.49394669689439
 30
0.0
 10
80.61228362288578
 20
-32.49705927918426
 30
0.0
  0
SPLINE
  5
1F6
330
1F
100
AcDbEntity
  8
SK3
  6
SLD-Dashed
370
    18
100
AcDbSpline
210
0.0
220
0.0
230
1.0
 70
     8
 71
     2
 72
     6
 73
     3
 74
     0
 42
0.000000001
 43
0.00000001
 40
0.0
 40
0.0
 40
0.0
 40
0.0312499999999998
 40
0.0312499999999998
 40
0.0312499999999998
 10
29.30000000000002
 20
19.99999999999998
 30
0.0
 10
29.35648205031041
 20
19.97581037641343
 30
0.0
 10
29.4665412923312
 20
19.92979011511208
 30
0.0
  0
SPLINE
  5
1F7
330
1F
100
AcDbEntity
  8
SK3
  6
SLD-Dashed
370
    18
100
AcDbSpline
210
0.0
220
0.0
230
1.0
 70
     8
 71
     3
 72
     8
 73
     4
 74
     0
 42
0.000000001
 43
0.00000001
 40
0.0312499999999998
 40
0.0312499999999998
 40
0.0312499999999998
 40
0.0312499999999998
 40
0.0468749999999996
 40
0.0468749999999996
 40
0.0468749999999996
 40
0.0468749999999996
 10
29.4665412923312
 20
19.92979011511208
 30
0.0
 10
29.52157091334162
 20
19.90677998446142
 30
0.0
 10
29.59009993560685
 20
19.87830033241374
 30
0.0
 10
29.67238414060844
 20
19.84459975806598
 30
0.0
  0
SPLINE
  5
1F8
330
1F
100
AcDbEntity
  8
SK3
  6
SLD-Dashed
370
    18
100
AcDbSpline
210
0.0
220
0.0
230
1.0
 70
     8
 71
     3
 72
     8
 73
     4
 74
     0
 42
0.000000001
 43
0.00000001
 40
0.0468749999999996
 40
0.0468749999999996
 40
0.0468749999999996
 40
0.0468749999999996
 40
0.0624999999999995
 40
0.0624999999999995
 40
0.0624999999999995
 40
0.0624999999999995
 10
29.67238414060844
 20
19.84459975806598
 30
0.0
 10
29.75466834561008
 20
19.81089918371821
 30
0.0
 10
29.85054537113121
 20
19.77205431496806
 30
0.0
 10
29.95786090214855
 20
19.72939800475549
 30
0.0
  0
SPLINE
  5
1F9
330
1F
100
AcDbEntity
  8
SK3
  6
SLD-Dashed
370
    18
100
AcDbSpline
210
0.0
220
0.0
230
1.0
 70
     8
 71
     3
 72
     8
 73
     4
 74
     0
 42
0.000000001
 43
0.00000001
 40
0.0624999999999995
 40
0.0624999999999995
 40
0.0624999999999995
 40
0.0624999999999995
 40
0.0937499999999993
 40
0.0937499999999993
 40
0.0937499999999993
 40
0.0937499999999993
 10
29.95786090214855
 20
19.72939800475549
 30
0.0
 10
30.17249196418326
 20
19.64408538433036
 30
0.0
 10
30.43418977904425
 20
19.54284006110108
 30
0.0
 10
30.74258775589073
 20
19.43082776371875
 30
0.0
  0
SPLINE
  5
1FA
330
1F
100
AcDbEntity
  8
SK3
  6
SLD-Dashed
370
    18
100
AcDbSpline
210
0.0
220
0.0
230
1.0
 70
     8
 71
     3
 72
     8
 73
     4
 74
     0
 42
0.000000001
 43
0.00000001
 40
0.0937499999999993
 40
0.0937499999999993
 40
0.0937499999999993
 40
0.0937499999999993
 40
0.1093749999999991
 40
0.1093749999999991
 40
0.1093749999999991
 40
0.1093749999999991
 10
30.74258775589073
 20
19.43082776371875
 30
0.0
 10
30.89678674431395
 20
19.37482161502758
 30
0.0
 10
31.06342165484374
 20
19.31590913893471
 30
0.0
 10
31.23865617042951
 20
19.25619985484784
 30
0.0
  0
SPLINE
  5
1FB
330
1F
100
AcDbEntity
  8
SK3
  6
SLD-Dashed
370
    18
100
AcDbSpline
210
0.0
220
0.0
230
1.0
 70
     8
 71
     3
 72
     8
 73
     4
 74
     0
 42
0.000000001
 43
0.00000001
 40
0.1093749999999991
 40
0.1093749999999991
 40
0.1093749999999991
 40
0.1093749999999991
 40
0.124999999999999
 40
0.124999999999999
 40
0.124999999999999
 40
0.124999999999999
 10
31.23865617042951
 20
19.25619985484784
 30
0.0
 10
31.41389068601533
 20
19.19649057076096
 30
0.0
 10
31.59834750809803
 20
19.13574486200057
 30
0.0
 10
31.79194658662288
 20
19.07476620611618
 30
0.0
  0
SPLINE
  5
1FC
330
1F
100
AcDbEntity
  8
SK3
  6
SLD-Dashed
370
    18
100
AcDbSpline
210
0.0
220
0.0
230
1.0
 70
     8
 71
     3
 72
     8
 73
     4
 74
     0
 42
0.000000001
 43
0.00000001
 40
0.124999999999999
 40
0.124999999999999
 40
0.124999999999999
 40
0.124999999999999
 40
0.1406249999999988
 40
0.1406249999999988
 40
0.1406249999999988
 40
0.1406249999999988
 10
31.79194658662288
 20
19.07476620611618
 30
0.0
 10
31.98554566514772
 20
19.0137875502318
 30
0.0
 10
32.18828684227235
 20
18.95257256943928
 30
0.0
 10
32.40040249683373
 20
18.89194678153098
 30
0.0
  0
SPLINE
  5
1FD
330
1F
100
AcDbEntity
  8
SK3
  6
SLD-Dashed
370
    18
100
AcDbSpline
210
0.0
220
0.0
230
1.0
 70
     8
 71
     3
 72
     8
 73
     4
 74
     0
 42
0.000000001
 43
0.00000001
 40
0.1406249999999988
 40
0.1406249999999988
 40
0.1406249999999988
 40
0.1406249999999988
 40
0.1562499999999987
 40
0.1562499999999987
 40
0.1562499999999987
 40
0.1562499999999987
 10
32.40040249683373
 20
18.89194678153098
 30
0.0
 10
32.61251815139513
 20
18.83132099362268
 30
0.0
 10
32.83491617484163
 20
18.77105325201538
 30
0.0
 10
33.0651575984659
 20
18.71279595804338
 30
0.0
  0
SPLINE
  5
1FE
330
1F
100
AcDbEntity
  8
SK3
  6
SLD-Dashed
370
    18
100
AcDbSpline
210
0.0
220
0.0
230
1.0
 70
     8
 71
     3
 72
     8
 73
     4
 74
     0
 42
0.000000001
 43
0.00000001
 40
0.1562499999999987
 40
0.1562499999999987
 40
0.1562499999999987
 40
0.1562499999999987
 40
0.1874999999999987
 40
0.1874999999999987
 40
0.1874999999999987
 40
0.1874999999999987
 10
33.0651575984659
 20
18.71279595804338
 30
0.0
 10
33.52564044571443
 20
18.59628137009937
 30
0.0
 10
34.01028644283122
 20
18.48947261684498
 30
0.0
 10
34.51977860312888
 20
18.39863724335286
 30
0.0
  0
SPLINE
  5
1FF
330
1F
100
AcDbEntity
  8
SK3
  6
SLD-Dashed
370
    18
100
AcDbSpline
210
0.0
220
0.0
230
1.0
 70
     8
 71
     3
 72
     8
 73
     4
 74
     0
 42
0.000000001
 43
0.00000001
 40
0.1874999999999987
 40
0.1874999999999987
 40
0.1874999999999987
 40
0.1874999999999987
 40
0.2031249999999987
 40
0.2031249999999987
 40
0.2031249999999987
 40
0.2031249999999987
 10
34.51977860312888
 20
18.39863724335286
 30
0.0
 10
34.77452468327768
 20
18.35321955660678
 30
0.0
 10
35.03552740337076
 20
18.31179992576435
 30
0.0
 10
35.30316383026033
 20
18.27523435851152
 30
0.0
  0
SPLINE
  5
200
330
1F
100
AcDbEntity
  8
SK3
  6
SLD-Dashed
370
    18
100
AcDbSpline
210
0.0
220
0.0
230
1.0
 70
     8
 71
     3
 72
     8
 73
     4
 74
     0
 42
0.000000001
 43
0.00000001
 40
0.2031249999999987
 40
0.2031249999999987
 40
0.2031249999999987
 40
0.2031249999999987
 40
0.2187499999999987
 40
0.2187499999999987
 40
0.2187499999999987
 40
0.2187499999999987
 10
35.30316383026033
 20
18.27523435851152
 30
0.0
 10
35.5708002571499
 20
18.23866879125866
 30
0.0
 10
35.84585436214171
 20
18.20696981570793
 30
0.0
 10
36.12077255271326
 20
18.18157872187453
 30
0.0
  0
SPLINE
  5
201
330
1F
100
AcDbEntity
  8
SK3
  6
SLD-Dashed
370
    18
100
AcDbSpline
210
0.0
220
0.0
230
1.0
 70
     8
 71
     3
 72
     8
 73
     4
 74
     0
 42
0.000000001
 43
0.00000001
 40
0.2187499999999987
 40
0.2187499999999987
 40
0.2187499999999987
 40
0.2187499999999987
 40
0.2499999999999988
 40
0.2499999999999988
 40
0.2499999999999988
 40
0.2499999999999988
 10
36.12077255271326
 20
18.18157872187453
 30
0.0
 10
36.67060893385629
 20
18.13079653420776
 30
0.0
 10
37.22642311366342
 20
18.1042331578092
 30
0.0
 10
37.78832376640973
 20
18.10387075557134
 30
0.0
  0
SPLINE
  5
202
330
1F
100
AcDbEntity
  8
SK3
  6
SLD-Dashed
370
    18
100
AcDbSpline
210
0.0
220
0.0
230
1.0
 70
     8
 71
     3
 72
     8
 73
     4
 74
     0
 42
0.000000001
 43
0.00000001
 40
0.2499999999999988
 40
0.2499999999999988
 40
0.2499999999999988
 40
0.2499999999999988
 40
0.2656249999999986
 40
0.2656249999999986
 40
0.2656249999999986
 40
0.2656249999999986
 10
37.78832376640973
 20
18.10387075557134
 30
0.0
 10
38.06927409278282
 20
18.10368955445239
 30
0.0
 10
38.35335268940332
 20
18.11013503133097
 30
0.0
 10
38.63509172352752
 20
18.12311723150031
 30
0.0
  0
SPLINE
  5
203
330
1F
100
AcDbEntity
  8
SK3
  6
SLD-Dashed
370
    18
100
AcDbSpline
210
0.0
220
0.0
230
1.0
 70
     8
 71
     3
 72
     8
 73
     4
 74
     0
 42
0.000000001
 43
0.00000001
 40
0.2656249999999986
 40
0.2656249999999986
 40
0.2656249999999986
 40
0.2656249999999986
 40
0.2812499999999984
 40
0.2812499999999984
 40
0.2812499999999984
 40
0.2812499999999984
 10
38.63509172352752
 20
18.12311723150031
 30
0.0
 10
38.91683075765173
 20
18.13609943166964
 30
0.0
 10
39.19466106056346
 20
18.15545595350532
 30
0.0
 10
39.46876246633146
 20
18.18061517575894
 30
0.0
  0
SPLINE
  5
204
330
1F
100
AcDbEntity
  8
SK3
  6
SLD-Dashed
370
    18
100
AcDbSpline
210
0.0
220
0.0
230
1.0
 70
     8
 71
     3
 72
     8
 73
     4
 74
     0
 42
0.000000001
 43
0.00000001
 40
0.2812499999999984
 40
0.2812499999999984
 40
0.2812499999999984
 40
0.2812499999999984
 40
0.3124999999999981
 40
0.3124999999999981
 40
0.3124999999999981
 40
0.3124999999999981
 10
39.46876246633146
 20
18.18061517575894
 30
0.0
 10
40.01696527786749
 20
18.23093362026616
 30
0.0
 10
40.55203536564697
 20
18.30477747027819
 30
0.0
 10
41.06900668851107
 20
18.3966411262907
 30
0.0
  0
SPLINE
  5
205
330
1F
100
AcDbEntity
  8
SK3
  6
SLD-Dashed
370
    18
100
AcDbSpline
210
0.0
220
0.0
230
1.0
 70
     8
 71
     3
 72
     8
 73
     4
 74
     0
 42
0.000000001
 43
0.00000001
 40
0.3124999999999981
 40
0.3124999999999981
 40
0.3124999999999981
 40
0.3124999999999981
 40
0.3437499999999978
 40
0.3437499999999978
 40
0.3437499999999978
 40
0.3437499999999978
 10
41.06900668851107
 20
18.3966411262907
 30
0.0
 10
41.58597801137515
 20
18.4885047823032
 30
0.0
 10
42.07173463291769
 20
18.59575211072493
 30
0.0
 10
42.5289815337303
 20
18.71131385943708
 30
0.0
  0
SPLINE
  5
206
330
1F
100
AcDbEntity
  8
SK3
  6
SLD-Dashed
370
    18
100
AcDbSpline
210
0.0
220
0.0
230
1.0
 70
     8
 71
     3
 72
     8
 73
     4
 74
     0
 42
0.000000001
 43
0.00000001
 40
0.3437499999999978
 40
0.3437499999999978
 40
0.3437499999999978
 40
0.3437499999999978
 40
0.3749999999999976
 40
0.3749999999999976
 40
0.3749999999999976
 40
0.3749999999999976
 10
42.5289815337303
 20
18.71131385943708
 30
0.0
 10
42.98622843454292
 20
18.8268756081492
 30
0.0
 10
43.41785077624638
 20
18.95189861230548
 30
0.0
 10
43.80609217298953
 20
19.07414855741787
 30
0.0
  0
SPLINE
  5
207
330
1F
100
AcDbEntity
  8
SK3
  6
SLD-Dashed
370
    18
100
AcDbSpline
210
0.0
220
0.0
230
1.0
 70
     8
 71
     3
 72
     8
 73
     4
 74
     0
 42
0.000000001
 43
0.00000001
 40
0.3749999999999976
 40
0.3749999999999976
 40
0.3749999999999976
 40
0.3749999999999976
 40
0.4062499999999973
 40
0.4062499999999973
 40
0.4062499999999973
 40
0.4062499999999973
 10
43.80609217298953
 20
19.07414855741787
 30
0.0
 10
44.19433356973271
 20
19.19639850253024
 30
0.0
 10
44.54290181358361
 20
19.31667509684561
 30
0.0
 10
44.85168765192093
 20
19.42874928399289
 30
0.0
  0
SPLINE
  5
208
330
1F
100
AcDbEntity
  8
SK3
  6
SLD-Dashed
370
    18
100
AcDbSpline
210
0.0
220
0.0
230
1.0
 70
     8
 71
     3
 72
     8
 73
     4
 74
     0
 42
0.000000001
 43
0.00000001
 40
0.4062499999999973
 40
0.4062499999999973
 40
0.4062499999999973
 40
0.4062499999999973
 40
0.4218749999999972
 40
0.4218749999999972
 40
0.4218749999999972
 40
0.4218749999999972
 10
44.85168765192093
 20
19.42874928399289
 30
0.0
 10
45.00608057108963
 20
19.48478637756653
 30
0.0
 10
45.1509698718279
 20
19.53898543274876
 30
0.0
 10
45.2826349448377
 20
19.58927833580668
 30
0.0
  0
SPLINE
  5
209
330
1F
100
AcDbEntity
  8
SK3
  6
SLD-Dashed
370
    18
100
AcDbSpline
210
0.0
220
0.0
230
1.0
 70
     8
 71
     3
 72
     8
 73
     4
 74
     0
 42
0.000000001
 43
0.00000001
 40
0.4218749999999972
 40
0.4218749999999972
 40
0.4218749999999972
 40
0.4218749999999972
 40
0.437499999999997
 40
0.437499999999997
 40
0.437499999999997
 40
0.437499999999997
 10
45.2826349448377
 20
19.58927833580668
 30
0.0
 10
45.41430001784749
 20
19.63957123886462
 30
0.0
 10
45.53345914439258
 20
19.68620790201841
 30
0.0
 10
45.6402810383065
 20
19.72865952769292
 30
0.0
  0
SPLINE
  5
20A
330
1F
100
AcDbEntity
  8
SK3
  6
SLD-Dashed
370
    18
100
AcDbSpline
210
0.0
220
0.0
230
1.0
 70
     8
 71
     3
 72
     8
 73
     4
 74
     0
 42
0.000000001
 43
0.00000001
 40
0.437499999999997
 40
0.437499999999997
 40
0.437499999999997
 40
0.437499999999997
 40
0.4687499999999968
 40
0.4687499999999968
 40
0.4687499999999968
 40
0.4687499999999968
 10
45.6402810383065
 20
19.72865952769292
 30
0.0
 10
45.85392482613437
 20
19.81356277904193
 30
0.0
 10
46.01863502300435
 20
19.88178927470712
 30
0.0
 10
46.13098619999295
 20
19.92875638529592
 30
0.0
  0
SPLINE
  5
20B
330
1F
100
AcDbEntity
  8
SK3
  6
SLD-Dashed
370
    18
100
AcDbSpline
210
0.0
220
0.0
230
1.0
 70
     8
 71
     3
 72
     8
 73
     4
 74
     0
 42
0.000000001
 43
0.00000001
 40
0.4687499999999968
 40
0.4687499999999968
 40
0.4687499999999968
 40
0.4687499999999968
 40
0.4999999999999966
 40
0.4999999999999966
 40
0.4999999999999966
 40
0.4999999999999966
 10
46.13098619999295
 20
19.92875638529592
 30
0.0
 10
46.24333737698158
 20
19.9757234958847
 30
0.0
 10
46.29920760073477
 20
19.99966323058116
 30
0.0
 10
46.29999167345644
 20
19.99999646122039
 30
0.0
  0
SPLINE
  5
20C
330
1F
100
AcDbEntity
  8
SK3
  6
SLD-Dashed
370
    18
100
AcDbSpline
210
0.0
220
0.0
230
1.0
 70
     8
 71
     3
 72
     8
 73
     4
 74
     0
 42
0.000000001
 43
0.00000001
 40
0.5156249999999964
 40
0.5156249999999964
 40
0.5156249999999964
 40
0.5156249999999964
 40
0.5312499999999963
 40
0.5312499999999963
 40
0.5312499999999963
 40
0.5312499999999963
 10
46.2594000974321
 20
19.98277883599859
 30
0.0
 10
46.23183225254923
 20
19.97110841560301
 30
0.0
 10
46.18983160578702
 20
19.95336474708433
 30
0.0
 10
46.13468122543352
 20
19.93030133062703
 30
0.0
  0
SPLINE
  5
20D
330
1F
100
AcDbEntity
  8
SK3
  6
SLD-Dashed
370
    18
100
AcDbSpline
210
0.0
220
0.0
230
1.0
 70
     8
 71
     3
 72
     8
 73
     4
 74
     0
 42
0.000000001
 43
0.00000001
 40
0.5312499999999963
 40
0.5312499999999963
 40
0.5312499999999963
 40
0.5312499999999963
 40
0.5624999999999962
 40
0.5624999999999962
 40
0.5624999999999962
 40
0.5624999999999962
 10
46.13468122543352
 20
19.93030133062703
 30
0.0
 10
46.0243804647266
 20
19.88417449771244
 30
0.0
 10
45.86147494853721
 20
19.81662512718351
 30
0.0
 10
45.6469375352741
 20
19.73130580277172
 30
0.0
  0
SPLINE
  5
20E
330
1F
100
AcDbEntity
  8
SK3
  6
SLD-Dashed
370
    18
100
AcDbSpline
210
0.0
220
0.0
230
1.0
 70
     8
 71
     3
 72
     8
 73
     4
 74
     0
 42
0.000000001
 43
0.00000001
 40
0.5624999999999962
 40
0.5624999999999962
 40
0.5624999999999962
 40
0.5624999999999962
 40
0.5781249999999962
 40
0.5781249999999962
 40
0.5781249999999962
 40
0.5781249999999962
 10
45.6469375352741
 20
19.73130580277172
 30
0.0
 10
45.53966882864252
 20
19.68864614056582
 30
0.0
 10
45.41874820939745
 20
19.641296946331
 30
0.0
 10
45.28719497221775
 20
19.59102061026945
 30
0.0
  0
SPLINE
  5
20F
330
1F
100
AcDbEntity
  8
SK3
  6
SLD-Dashed
370
    18
100
AcDbSpline
210
0.0
220
0.0
230
1.0
 70
     8
 71
     3
 72
     8
 73
     4
 74
     0
 42
0.000000001
 43
0.00000001
 40
0.5781249999999962
 40
0.5781249999999962
 40
0.5781249999999962
 40
0.5781249999999962
 40
0.5937499999999962
 40
0.5937499999999962
 40
0.5937499999999962
 40
0.5937499999999962
 10
45.28719497221775
 20
19.59102061026945
 30
0.0
 10
45.15564173503808
 20
19.5407442742079
 30
0.0
 10
45.01311688565263
 20
19.48739774521266
 30
0.0
 10
44.85987125720331
 20
19.43172102949927
 30
0.0
  0
SPLINE
  5
210
330
1F
100
AcDbEntity
  8
SK3
  6
SLD-Dashed
370
    18
100
AcDbSpline
210
0.0
220
0.0
230
1.0
 70
     8
 71
     3
 72
     8
 73
     4
 74
     0
 42
0.000000001
 43
0.00000001
 40
0.5937499999999962
 40
0.5937499999999962
 40
0.5937499999999962
 40
0.5937499999999962
 40
0.6093749999999962
 40
0.6093749999999962
 40
0.6093749999999962
 40
0.6093749999999962
 10
44.85987125720331
 20
19.43172102949927
 30
0.0
 10
44.70662562875402
 20
19.37604431378589
 30
0.0
 10
44.54265841511279
 20
19.31803408781068
 30
0.0
 10
44.36785772719068
 20
19.25842036940251
 30
0.0
  0
SPLINE
  5
211
330
1F
100
AcDbEntity
  8
SK3
  6
SLD-Dashed
370
    18
100
AcDbSpline
210
0.0
220
0.0
230
1.0
 70
     8
 71
     3
 72
     8
 73
     4
 74
     0
 42
0.000000001
 43
0.00000001
 40
0.6093749999999962
 40
0.6093749999999962
 40
0.6093749999999962
 40
0.6093749999999962
 40
0.6249999999999961
 40
0.6249999999999961
 40
0.6249999999999961
 40
0.6249999999999961
 10
44.36785772719068
 20
19.25842036940251
 30
0.0
 10
44.1930570392686
 20
19.19880665099436
 30
0.0
 10
44.00644053990504
 20
19.13728134452184
 30
0.0
 10
43.81110554909565
 20
19.07572776914076
 30
0.0
  0
SPLINE
  5
212
330
1F
100
AcDbEntity
  8
SK3
  6
SLD-Dashed
370
    18
100
AcDbSpline
210
0.0
220
0.0
230
1.0
 70
     8
 71
     3
 72
     8
 73
     4
 74
     0
 42
0.000000001
 43
0.00000001
 40
0.6249999999999961
 40
0.6249999999999961
 40
0.6249999999999961
 40
0.6249999999999961
 40
0.6562499999999961
 40
0.6562499999999961
 40
0.6562499999999961
 40
0.6562499999999961
 10
43.81110554909565
 20
19.07572776914076
 30
0.0
 10
43.42043556747688
 20
18.95262061837858
 30
0.0
 10
42.99744028440428
 20
18.83000093622503
 30
0.0
 10
42.54160146915923
 20
18.71450732699987
 30
0.0
  0
SPLINE
  5
213
330
1F
100
AcDbEntity
  8
SK3
  6
SLD-Dashed
370
    18
100
AcDbSpline
210
0.0
220
0.0
230
1.0
 70
     8
 71
     3
 72
     8
 73
     4
 74
     0
 42
0.000000001
 43
0.00000001
 40
0.6562499999999961
 40
0.6562499999999961
 40
0.6562499999999961
 40
0.6562499999999961
 40
0.6718749999999961
 40
0.6718749999999961
 40
0.6718749999999961
 40
0.6718749999999961
 10
42.54160146915923
 20
18.71450732699987
 30
0.0
 10
42.31368206153668
 20
18.6567605223873
 30
0.0
 10
42.07748639087664
 20
18.60079890470751
 30
0.0
 10
41.83252434121895
 20
18.54754033726636
 30
0.0
  0
SPLINE
  5
214
330
1F
100
AcDbEntity
  8
SK3
  6
SLD-Dashed
370
    18
100
AcDbSpline
210
0.0
220
0.0
230
1.0
 70
     8
 71
     3
 72
     8
 73
     4
 74
     0
 42
0.000000001
 43
0.00000001
 40
0.6718749999999961
 40
0.6718749999999961
 40
0.6718749999999961
 40
0.6718749999999961
 40
0.6874999999999961
 40
0.6874999999999961
 40
0.6874999999999961
 40
0.6874999999999961
 10
41.83252434121895
 20
18.54754033726636
 30
0.0
 10
41.58756229156124
 20
18.49428176982521
 30
0.0
 10
41.33497336094785
 20
18.44404069445541
 30
0.0
 10
41.07908383000763
 20
18.3984344650358
 30
0.0
  0
SPLINE
  5
215
330
1F
100
AcDbEntity
  8
SK3
  6
SLD-Dashed
370
    18
100
AcDbSpline
210
0.0
220
0.0
230
1.0
 70
     8
 71
     3
 72
     8
 73
     4
 74
     0
 42
0.000000001
 43
0.00000001
 40
0.6874999999999961
 40
0.6874999999999961
 40
0.6874999999999961
 40
0.6874999999999961
 40
0.7187499999999963
 40
0.7187499999999963
 40
0.7187499999999963
 40
0.7187499999999963
 10
41.07908383000763
 20
18.3984344650358
 30
0.0
 10
40.56730476812717
 20
18.30722200619655
 30
0.0
 10
40.03752097249066
 20
18.23342501104998
 30
0.0
 10
39.48860274041827
 20
18.18244700844602
 30
0.0
  0
SPLINE
  5
216
330
1F
100
AcDbEntity
  8
SK3
  6
SLD-Dashed
370
    18
100
AcDbSpline
210
0.0
220
0.0
230
1.0
 70
     8
 71
     3
 72
     8
 73
     4
 74
     0
 42
0.000000001
 43
0.00000001
 40
0.7187499999999963
 40
0.7187499999999963
 40
0.7187499999999963
 40
0.7187499999999963
 40
0.7343749999999964
 40
0.7343749999999964
 40
0.7343749999999964
 40
0.7343749999999964
 10
39.48860274041827
 20
18.18244700844602
 30
0.0
 10
39.21414362438205
 20
18.15695800714403
 30
0.0
 10
38.93306786301215
 20
18.13710955048137
 30
0.0
 10
38.65150983020296
 20
18.12388117901163
 30
0.0
  0
SPLINE
  5
217
330
1F
100
AcDbEntity
  8
SK3
  6
SLD-Dashed
370
    18
100
AcDbSpline
210
0.0
220
0.0
230
1.0
 70
     8
 71
     3
 72
     8
 73
     4
 74
     0
 42
0.000000001
 43
0.00000001
 40
0.7343749999999964
 40
0.7343749999999964
 40
0.7343749999999964
 40
0.7343749999999964
 40
0.7499999999999966
 40
0.7499999999999966
 40
0.7499999999999966
 40
0.7499999999999966
 10
38.65150983020296
 20
18.12388117901163
 30
0.0
 10
38.36995179739377
 20
18.11065280754188
 30
0.0
 10
38.08901483215665
 20
18.10400353527395
 30
0.0
 10
37.80868362434367
 20
18.10386907280681
 30
0.0
  0
SPLINE
  5
218
330
1F
100
AcDbEntity
  8
SK3
  6
SLD-Dashed
370
    18
100
AcDbSpline
210
0.0
220
0.0
230
1.0
 70
     8
 71
     3
 72
     8
 73
     4
 74
     0
 42
0.000000001
 43
0.00000001
 40
0.7499999999999966
 40
0.7499999999999966
 40
0.7499999999999966
 40
0.7499999999999966
 40
0.7812499999999969
 40
0.7812499999999969
 40
0.7812499999999969
 40
0.7812499999999969
 10
37.80868362434367
 20
18.10386907280681
 30
0.0
 10
37.24802120871773
 20
18.10360014787252
 30
0.0
 10
36.68976772220886
 20
18.12943190234361
 30
0.0
 10
36.13397214311578
 20
18.180364375334
 30
0.0
  0
SPLINE
  5
219
330
1F
100
AcDbEntity
  8
SK3
  6
SLD-Dashed
370
    18
100
AcDbSpline
210
0.0
220
0.0
230
1.0
 70
     8
 71
     3
 72
     8
 73
     4
 74
     0
 42
0.000000001
 43
0.00000001
 40
0.7812499999999969
 40
0.7812499999999969
 40
0.7812499999999969
 40
0.7812499999999969
 40
0.8124999999999972
 40
0.8124999999999972
 40
0.8124999999999972
 40
0.8124999999999972
 10
36.13397214311578
 20
18.180364375334
 30
0.0
 10
35.57817656402273
 20
18.2312968483244
 30
0.0
 10
35.04512792004893
 20
18.30533008825098
 30
0.0
 10
34.53279008954721
 20
18.39632193127095
 30
0.0
  0
SPLINE
  5
21A
330
1F
100
AcDbEntity
  8
SK3
  6
SLD-Dashed
370
    18
100
AcDbSpline
210
0.0
220
0.0
230
1.0
 70
     8
 71
     3
 72
     8
 73
     4
 74
     0
 42
0.000000001
 43
0.00000001
 40
0.8124999999999972
 40
0.8124999999999972
 40
0.8124999999999972
 40
0.8124999999999972
 40
0.8437499999999976
 40
0.8437499999999976
 40
0.8437499999999976
 40
0.8437499999999976
 10
34.53279008954721
 20
18.39632193127095
 30
0.0
 10
34.02045225904548
 20
18.48731377429094
 30
0.0
 10
33.52507652757009
 20
18.59647719612575
 30
0.0
 10
33.0674733075913
 20
18.7122101552532
 30
0.0
  0
SPLINE
  5
21B
330
1F
100
AcDbEntity
  8
SK3
  6
SLD-Dashed
370
    18
100
AcDbSpline
210
0.0
220
0.0
230
1.0
 70
     8
 71
     3
 72
     8
 73
     4
 74
     0
 42
0.000000001
 43
0.00000001
 40
0.8437499999999976
 40
0.8437499999999976
 40
0.8437499999999976
 40
0.8437499999999976
 40
0.8749999999999978
 40
0.8749999999999978
 40
0.8749999999999978
 40
0.8749999999999978
 10
33.0674733075913
 20
18.7122101552532
 30
0.0
 10
32.60987008761254
 20
18.82794311438062
 30
0.0
 10
32.18606957547068
 20
18.95068804251523
 30
0.0
 10
31.79519899440758
 20
19.07374203235335
 30
0.0
  0
SPLINE
  5
21C
330
1F
100
AcDbEntity
  8
SK3
  6
SLD-Dashed
370
    18
100
AcDbSpline
210
0.0
220
0.0
230
1.0
 70
     8
 71
     3
 72
     8
 73
     4
 74
     0
 42
0.000000001
 43
0.00000001
 40
0.8749999999999978
 40
0.8749999999999978
 40
0.8749999999999978
 40
0.8749999999999978
 40
0.890624999999998
 40
0.890624999999998
 40
0.890624999999998
 40
0.890624999999998
 10
31.79519899440758
 20
19.07374203235335
 30
0.0
 10
31.59976370387601
 20
19.13526902727244
 30
0.0
 10
31.41263718216245
 20
19.19690920384286
 30
0.0
 10
31.23759689832767
 20
19.25656081622152
 30
0.0
  0
SPLINE
  5
21D
330
1F
100
AcDbEntity
  8
SK3
  6
SLD-Dashed
370
    18
100
AcDbSpline
210
0.0
220
0.0
230
1.0
 70
     8
 71
     3
 72
     8
 73
     4
 74
     0
 42
0.000000001
 43
0.00000001
 40
0.890624999999998
 40
0.890624999999998
 40
0.890624999999998
 40
0.890624999999998
 40
0.9062499999999982
 40
0.9062499999999982
 40
0.9062499999999982
 40
0.9062499999999982
 10
31.23759689832767
 20
19.25656081622152
 30
0.0
 10
31.06255661449289
 20
19.31621242860015
 30
0.0
 10
30.89854297932163
 20
19.37420295932885
 30
0.0
 10
30.74537111255152
 20
19.42981700221653
 30
0.0
  0
SPLINE
  5
21E
330
1F
100
AcDbEntity
  8
SK3
  6
SLD-Dashed
370
    18
100
AcDbSpline
210
0.0
220
0.0
230
1.0
 70
     8
 71
     3
 72
     8
 73
     4
 74
     0
 42
0.000000001
 43
0.00000001
 40
0.9062499999999982
 40
0.9062499999999982
 40
0.9062499999999982
 40
0.9062499999999982
 40
0.9374999999999988
 40
0.9374999999999988
 40
0.9374999999999988
 40
0.9374999999999988
 10
30.74537111255152
 20
19.42981700221653
 30
0.0
 10
30.43902737901122
 20
19.54104508799188
 30
0.0
 10
30.17485150603941
 20
19.64315173112181
 30
0.0
 10
29.9583180624079
 20
19.72921629488505
 30
0.0
  0
SPLINE
  5
21F
330
1F
100
AcDbEntity
  8
SK3
  6
SLD-Dashed
370
    18
100
AcDbSpline
210
0.0
220
0.0
230
1.0
 70
     8
 71
     3
 72
     8
 73
     4
 74
     0
 42
0.000000001
 43
0.00000001
 40
0.9374999999999988
 40
0.9374999999999988
 40
0.9374999999999988
 40
0.9374999999999988
 40
0.9687499999999993
 40
0.9687499999999993
 40
0.9687499999999993
 40
0.9687499999999993
 10
29.9583180624079
 20
19.72921629488505
 30
0.0
 10
29.74178461877636
 20
19.8152808586483
 30
0.0
 10
29.57874605506214
 20
19.8828805994771
 30
0.0
 10
29.46824943646487
 20
19.92907593073417
 30
0.0
  0
SPLINE
  5
220
330
1F
100
AcDbEntity
  8
SK3
  6
SLD-Dashed
370
    18
100
AcDbSpline
210
0.0
220
0.0
230
1.0
 70
     8
 71
     3
 72
     8
 73
     4
 74
     0
 42
0.000000001
 43
0.00000001
 40
0.9687499999999993
 40
0.9687499999999993
 40
0.9687499999999993
 40
0.9687499999999993
 40
0.9843749999999997
 40
0.9843749999999997
 40
0.9843749999999997
 40
0.9843749999999997
 10
29.46824943646487
 20
19.92907593073417
 30
0.0
 10
29.41300112716621
 20
19.95217359636268
 30
0.0
 10
29.37098688832718
 20
19.96991750995313
 30
0.0
 10
29.34270275468803
 20
19.98188871692465
 30
0.0
  0
SPLINE
  5
221
330
1F
100
AcDbEntity
  8
SK3
  6
SLD-Dashed
370
    18
100
AcDbSpline
210
0.0
220
0.0
230
1.0
 70
     8
 71
     2
 72
     6
 73
     3
 74
     0
 42
0.000000001
 43
0.00000001
 40
0.9843749999999997
 40
0.9843749999999997
 40
0.9843749999999997
 40
1.0
 40
1.0
 40
1.0
 10
29.34270275468803
 20
19.98188871692465
 30
0.0
 10
29.31441862104892
 20
19.99385992389618
 30
0.0
 10
29.30000000000002
 20
19.99999999999998
 30
0.0
  0
SPLINE
  5
222
330
1F
100
AcDbEntity
  8
SK3
  6
SLD-Dashed
370
    18
100
AcDbSpline
210
0.0
220
0.0
230
1.0
 70
     8
 71
     2
 72
     6
 73
     3
 74
     0
 42
0.000000001
 43
0.00000001
 40
0.0
 40
0.0
 40
0.0
 40
0.0312499999999998
 40
0.0312499999999998
 40
0.0312499999999998
 10
29.30000000000002
 20
19.99999999999998
 30
0.0
 10
29.35648205031041
 20
19.97581037641343
 30
0.0
 10
29.4665412923312
 20
19.92979011511208
 30
0.0
  0
SPLINE
  5
223
330
1F
100
AcDbEntity
  8
SK3
  6
SLD-Dashed
370
    18
100
AcDbSpline
210
0.0
220
0.0
230
1.0
 70
     8
 71
     3
 72
     8
 73
     4
 74
     0
 42
0.000000001
 43
0.00000001
 40
0.0312499999999998
 40
0.0312499999999998
 40
0.0312499999999998
 40
0.0312499999999998
 40
0.0468749999999996
 40
0.0468749999999996
 40
0.0468749999999996
 40
0.0468749999999996
 10
29.4665412923312
 20
19.92979011511208
 30
0.0
 10
29.52157091334162
 20
19.90677998446142
 30
0.0
 10
29.59009993560685
 20
19.87830033241374
 30
0.0
 10
29.67238414060844
 20
19.84459975806598
 30
0.0
  0
SPLINE
  5
224
330
1F
100
AcDbEntity
  8
SK3
  6
SLD-Dashed
370
    18
100
AcDbSpline
210
0.0
220
0.0
230
1.0
 70
     8
 71
     3
 72
     8
 73
     4
 74
     0
 42
0.000000001
 43
0.00000001
 40
0.0468749999999996
 40
0.0468749999999996
 40
0.0468749999999996
 40
0.0468749999999996
 40
0.0624999999999995
 40
0.0624999999999995
 40
0.0624999999999995
 40
0.0624999999999995
 10
29.67238414060844
 20
19.84459975806598
 30
0.0
 10
29.75466834561008
 20
19.81089918371821
 30
0.0
 10
29.85054537113121
 20
19.77205431496806
 30
0.0
 10
29.95786090214855
 20
19.72939800475549
 30
0.0
  0
SPLINE
  5
225
330
1F
100
AcDbEntity
  8
SK3
  6
SLD-Dashed
370
    18
100
AcDbSpline
210
0.0
220
0.0
230
1.0
 70
     8
 71
     3
 72
     8
 73
     4
 74
     0
 42
0.000000001
 43
0.00000001
 40
0.0624999999999995
 40
0.0624999999999995
 40
0.0624999999999995
 40
0.0624999999999995
 40
0.0937499999999993
 40
0.0937499999999993
 40
0.0937499999999993
 40
0.0937499999999993
 10
29.95786090214855
 20
19.72939800475549
 30
0.0
 10
30.17249196418326
 20
19.64408538433036
 30
0.0
 10
30.43418977904425
 20
19.54284006110108
 30
0.0
 10
30.74258775589073
 20
19.43082776371875
 30
0.0
  0
SPLINE
  5
226
330
1F
100
AcDbEntity
  8
SK3
  6
SLD-Dashed
370
    18
100
AcDbSpline
210
0.0
220
0.0
230
1.0
 70
     8
 71
     3
 72
     8
 73
     4
 74
     0
 42
0.000000001
 43
0.00000001
 40
0.0937499999999993
 40
0.0937499999999993
 40
0.0937499999999993
 40
0.0937499999999993
 40
0.1093749999999991
 40
0.1093749999999991
 40
0.1093749999999991
 40
0.1093749999999991
 10
30.74258775589073
 20
19.43082776371875
 30
0.0
 10
30.89678674431395
 20
19.37482161502758
 30
0.0
 10
31.06342165484374
 20
19.31590913893471
 30
0.0
 10
31.23865617042951
 20
19.25619985484784
 30
0.0
  0
SPLINE
  5
227
330
1F
100
AcDbEntity
  8
SK3
  6
SLD-Dashed
370
    18
100
AcDbSpline
210
0.0
220
0.0
230
1.0
 70
     8
 71
     3
 72
     8
 73
     4
 74
     0
 42
0.000000001
 43
0.00000001
 40
0.1093749999999991
 40
0.1093749999999991
 40
0.1093749999999991
 40
0.1093749999999991
 40
0.124999999999999
 40
0.124999999999999
 40
0.124999999999999
 40
0.124999999999999
 10
31.23865617042951
 20
19.25619985484784
 30
0.0
 10
31.41389068601533
 20
19.19649057076096
 30
0.0
 10
31.59834750809803
 20
19.13574486200057
 30
0.0
 10
31.79194658662288
 20
19.07476620611618
 30
0.0
  0
SPLINE
  5
228
330
1F
100
AcDbEntity
  8
SK3
  6
SLD-Dashed
370
    18
100
AcDbSpline
210
0.0
220
0.0
230
1.0
 70
     8
 71
     3
 72
     8
 73
     4
 74
     0
 42
0.000000001
 43
0.00000001
 40
0.124999999999999
 40
0.124999999999999
 40
0.124999999999999
 40
0.124999999999999
 40
0.1406249999999988
 40
0.1406249999999988
 40
0.1406249999999988
 40
0.1406249999999988
 10
31.79194658662288
 20
19.07476620611618
 30
0.0
 10
31.98554566514772
 20
19.0137875502318
 30
0.0
 10
32.18828684227235
 20
18.95257256943928
 30
0.0
 10
32.40040249683373
 20
18.89194678153098
 30
0.0
  0
SPLINE
  5
229
330
1F
100
AcDbEntity
  8
SK3
  6
SLD-Dashed
370
    18
100
AcDbSpline
210
0.0
220
0.0
230
1.0
 70
     8
 71
     3
 72
     8
 73
     4
 74
     0
 42
0.000000001
 43
0.00000001
 40
0.1406249999999988
 40
0.1406249999999988
 40
0.1406249999999988
 40
0.1406249999999988
 40
0.1562499999999987
 40
0.1562499999999987
 40
0.1562499999999987
 40
0.1562499999999987
 10
32.40040249683373
 20
18.89194678153098
 30
0.0
 10
32.61251815139513
 20
18.83132099362268
 30
0.0
 10
32.83491617484163
 20
18.77105325201538
 30
0.0
 10
33.0651575984659
 20
18.71279595804338
 30
0.0
  0
SPLINE
  5
22A
330
1F
100
AcDbEntity
  8
SK3
  6
SLD-Dashed
370
    18
100
AcDbSpline
210
0.0
220
0.0
230
1.0
 70
     8
 71
     3
 72
     8
 73
     4
 74
     0
 42
0.000000001
 43
0.00000001
 40
0.1562499999999987
 40
0.1562499999999987
 40
0.1562499999999987
 40
0.1562499999999987
 40
0.1874999999999987
 40
0.1874999999999987
 40
0.1874999999999987
 40
0.1874999999999987
 10
33.0651575984659
 20
18.71279595804338
 30
0.0
 10
33.52564044571443
 20
18.59628137009937
 30
0.0
 10
34.01028644283122
 20
18.48947261684498
 30
0.0
 10
34.51977860312888
 20
18.39863724335286
 30
0.0
  0
SPLINE
  5
22B
330
1F
100
AcDbEntity
  8
SK3
  6
SLD-Dashed
370
    18
100
AcDbSpline
210
0.0
220
0.0
230
1.0
 70
     8
 71
     3
 72
     8
 73
     4
 74
     0
 42
0.000000001
 43
0.00000001
 40
0.1874999999999987
 40
0.1874999999999987
 40
0.1874999999999987
 40
0.1874999999999987
 40
0.2031249999999987
 40
0.2031249999999987
 40
0.2031249999999987
 40
0.2031249999999987
 10
34.51977860312888
 20
18.39863724335286
 30
0.0
 10
34.77452468327768
 20
18.35321955660678
 30
0.0
 10
35.03552740337076
 20
18.31179992576435
 30
0.0
 10
35.30316383026033
 20
18.27523435851152
 30
0.0
  0
SPLINE
  5
22C
330
1F
100
AcDbEntity
  8
SK3
  6
SLD-Dashed
370
    18
100
AcDbSpline
210
0.0
220
0.0
230
1.0
 70
     8
 71
     3
 72
     8
 73
     4
 74
     0
 42
0.000000001
 43
0.00000001
 40
0.2031249999999987
 40
0.2031249999999987
 40
0.2031249999999987
 40
0.2031249999999987
 40
0.2187499999999987
 40
0.2187499999999987
 40
0.2187499999999987
 40
0.2187499999999987
 10
35.30316383026033
 20
18.27523435851152
 30
0.0
 10
35.5708002571499
 20
18.23866879125866
 30
0.0
 10
35.84585436214171
 20
18.20696981570793
 30
0.0
 10
36.12077255271326
 20
18.18157872187453
 30
0.0
  0
SPLINE
  5
22D
330
1F
100
AcDbEntity
  8
SK3
  6
SLD-Dashed
370
    18
100
AcDbSpline
210
0.0
220
0.0
230
1.0
 70
     8
 71
     3
 72
     8
 73
     4
 74
     0
 42
0.000000001
 43
0.00000001
 40
0.2187499999999987
 40
0.2187499999999987
 40
0.2187499999999987
 40
0.2187499999999987
 40
0.2499999999999988
 40
0.2499999999999988
 40
0.2499999999999988
 40
0.2499999999999988
 10
36.12077255271326
 20
18.18157872187453
 30
0.0
 10
36.67060893385629
 20
18.13079653420776
 30
0.0
 10
37.22642311366342
 20
18.1042331578092
 30
0.0
 10
37.78832376640973
 20
18.10387075557134
 30
0.0
  0
SPLINE
  5
22E
330
1F
100
AcDbEntity
  8
SK3
  6
SLD-Dashed
370
    18
100
AcDbSpline
210
0.0
220
0.0
230
1.0
 70
     8
 71
     3
 72
     8
 73
     4
 74
     0
 42
0.000000001
 43
0.00000001
 40
0.2499999999999988
 40
0.2499999999999988
 40
0.2499999999999988
 40
0.2499999999999988
 40
0.2656249999999986
 40
0.2656249999999986
 40
0.2656249999999986
 40
0.2656249999999986
 10
37.78832376640973
 20
18.10387075557134
 30
0.0
 10
38.06927409278282
 20
18.10368955445239
 30
0.0
 10
38.35335268940332
 20
18.11013503133097
 30
0.0
 10
38.63509172352752
 20
18.12311723150031
 30
0.0
  0
SPLINE
  5
22F
330
1F
100
AcDbEntity
  8
SK3
  6
SLD-Dashed
370
    18
100
AcDbSpline
210
0.0
220
0.0
230
1.0
 70
     8
 71
     3
 72
     8
 73
     4
 74
     0
 42
0.000000001
 43
0.00000001
 40
0.2656249999999986
 40
0.2656249999999986
 40
0.2656249999999986
 40
0.2656249999999986
 40
0.2812499999999984
 40
0.2812499999999984
 40
0.2812499999999984
 40
0.2812499999999984
 10
38.63509172352752
 20
18.12311723150031
 30
0.0
 10
38.91683075765173
 20
18.13609943166964
 30
0.0
 10
39.19466106056346
 20
18.15545595350532
 30
0.0
 10
39.46876246633146
 20
18.18061517575894
 30
0.0
  0
SPLINE
  5
230
330
1F
100
AcDbEntity
  8
SK3
  6
SLD-Dashed
370
    18
100
AcDbSpline
210
0.0
220
0.0
230
1.0
 70
     8
 71
     3
 72
     8
 73
     4
 74
     0
 42
0.000000001
 43
0.00000001
 40
0.2812499999999984
 40
0.2812499999999984
 40
0.2812499999999984
 40
0.2812499999999984
 40
0.3124999999999981
 40
0.3124999999999981
 40
0.3124999999999981
 40
0.3124999999999981
 10
39.46876246633146
 20
18.18061517575894
 30
0.0
 10
40.01696527786749
 20
18.23093362026616
 30
0.0
 10
40.55203536564697
 20
18.30477747027819
 30
0.0
 10
41.06900668851107
 20
18.3966411262907
 30
0.0
  0
SPLINE
  5
231
330
1F
100
AcDbEntity
  8
SK3
  6
SLD-Dashed
370
    18
100
AcDbSpline
210
0.0
220
0.0
230
1.0
 70
     8
 71
     3
 72
     8
 73
     4
 74
     0
 42
0.000000001
 43
0.00000001
 40
0.3124999999999981
 40
0.3124999999999981
 40
0.3124999999999981
 40
0.3124999999999981
 40
0.3437499999999978
 40
0.3437499999999978
 40
0.3437499999999978
 40
0.3437499999999978
 10
41.06900668851107
 20
18.3966411262907
 30
0.0
 10
41.58597801137515
 20
18.4885047823032
 30
0.0
 10
42.07173463291769
 20
18.59575211072493
 30
0.0
 10
42.5289815337303
 20
18.71131385943708
 30
0.0
  0
SPLINE
  5
232
330
1F
100
AcDbEntity
  8
SK3
  6
SLD-Dashed
370
    18
100
AcDbSpline
210
0.0
220
0.0
230
1.0
 70
     8
 71
     3
 72
     8
 73
     4
 74
     0
 42
0.000000001
 43
0.00000001
 40
0.3437499999999978
 40
0.3437499999999978
 40
0.3437499999999978
 40
0.3437499999999978
 40
0.3749999999999976
 40
0.3749999999999976
 40
0.3749999999999976
 40
0.3749999999999976
 10
42.5289815337303
 20
18.71131385943708
 30
0.0
 10
42.98622843454292
 20
18.8268756081492
 30
0.0
 10
43.41785077624638
 20
18.95189861230548
 30
0.0
 10
43.80609217298953
 20
19.07414855741787
 30
0.0
  0
SPLINE
  5
233
330
1F
100
AcDbEntity
  8
SK3
  6
SLD-Dashed
370
    18
100
AcDbSpline
210
0.0
220
0.0
230
1.0
 70
     8
 71
     3
 72
     8
 73
     4
 74
     0
 42
0.000000001
 43
0.00000001
 40
0.3749999999999976
 40
0.3749999999999976
 40
0.3749999999999976
 40
0.3749999999999976
 40
0.4062499999999973
 40
0.4062499999999973
 40
0.4062499999999973
 40
0.4062499999999973
 10
43.80609217298953
 20
19.07414855741787
 30
0.0
 10
44.19433356973271
 20
19.19639850253024
 30
0.0
 10
44.54290181358361
 20
19.31667509684561
 30
0.0
 10
44.85168765192093
 20
19.42874928399289
 30
0.0
  0
SPLINE
  5
234
330
1F
100
AcDbEntity
  8
SK3
  6
SLD-Dashed
370
    18
100
AcDbSpline
210
0.0
220
0.0
230
1.0
 70
     8
 71
     3
 72
     8
 73
     4
 74
     0
 42
0.000000001
 43
0.00000001
 40
0.4062499999999973
 40
0.4062499999999973
 40
0.4062499999999973
 40
0.4062499999999973
 40
0.4218749999999972
 40
0.4218749999999972
 40
0.4218749999999972
 40
0.4218749999999972
 10
44.85168765192093
 20
19.42874928399289
 30
0.0
 10
45.00608057108963
 20
19.48478637756653
 30
0.0
 10
45.1509698718279
 20
19.53898543274876
 30
0.0
 10
45.2826349448377
 20
19.58927833580668
 30
0.0
  0
SPLINE
  5
235
330
1F
100
AcDbEntity
  8
SK3
  6
SLD-Dashed
370
    18
100
AcDbSpline
210
0.0
220
0.0
230
1.0
 70
     8
 71
     3
 72
     8
 73
     4
 74
     0
 42
0.000000001
 43
0.00000001
 40
0.4218749999999972
 40
0.4218749999999972
 40
0.4218749999999972
 40
0.4218749999999972
 40
0.437499999999997
 40
0.437499999999997
 40
0.437499999999997
 40
0.437499999999997
 10
45.2826349448377
 20
19.58927833580668
 30
0.0
 10
45.41430001784749
 20
19.63957123886462
 30
0.0
 10
45.53345914439258
 20
19.68620790201841
 30
0.0
 10
45.6402810383065
 20
19.72865952769292
 30
0.0
  0
SPLINE
  5
236
330
1F
100
AcDbEntity
  8
SK3
  6
SLD-Dashed
370
    18
100
AcDbSpline
210
0.0
220
0.0
230
1.0
 70
     8
 71
     3
 72
     8
 73
     4
 74
     0
 42
0.000000001
 43
0.00000001
 40
0.437499999999997
 40
0.437499999999997
 40
0.437499999999997
 40
0.437499999999997
 40
0.4687499999999968
 40
0.4687499999999968
 40
0.4687499999999968
 40
0.4687499999999968
 10
45.6402810383065
 20
19.72865952769292
 30
0.0
 10
45.85392482613437
 20
19.81356277904193
 30
0.0
 10
46.01863502300435
 20
19.88178927470712
 30
0.0
 10
46.13098619999295
 20
19.92875638529592
 30
0.0
  0
SPLINE
  5
237
330
1F
100
AcDbEntity
  8
SK3
  6
SLD-Dashed
370
    18
100
AcDbSpline
210
0.0
220
0.0
230
1.0
 70
     8
 71
     3
 72
     8
 73
     4
 74
     0
 42
0.000000001
 43
0.00000001
 40
0.4687499999999968
 40
0.4687499999999968
 40
0.4687499999999968
 40
0.4687499999999968
 40
0.4999999999999966
 40
0.4999999999999966
 40
0.4999999999999966
 40
0.4999999999999966
 10
46.13098619999295
 20
19.92875638529592
 30
0.0
 10
46.24333737698158
 20
19.9757234958847
 30
0.0
 10
46.29920760073477
 20
19.99966323058116
 30
0.0
 10
46.29999167345644
 20
19.99999646122039
 30
0.0
  0
SPLINE
  5
238
330
1F
100
AcDbEntity
  8
SK3
  6
SLD-Dashed
370
    18
100
AcDbSpline
210
0.0
220
0.0
230
1.0
 70
     8
 71
     3
 72
     8
 73
     4
 74
     0
 42
0.000000001
 43
0.00000001
 40
0.5156249999999964
 40
0.5156249999999964
 40
0.5156249999999964
 40
0.5156249999999964
 40
0.5312499999999963
 40
0.5312499999999963
 40
0.5312499999999963
 40
0.5312499999999963
 10
46.2594000974321
 20
19.98277883599859
 30
0.0
 10
46.23183225254923
 20
19.97110841560301
 30
0.0
 10
46.18983160578702
 20
19.95336474708433
 30
0.0
 10
46.13468122543352
 20
19.93030133062703
 30
0.0
  0
SPLINE
  5
239
330
1F
100
AcDbEntity
  8
SK3
  6
SLD-Dashed
370
    18
100
AcDbSpline
210
0.0
220
0.0
230
1.0
 70
     8
 71
     3
 72
     8
 73
     4
 74
     0
 42
0.000000001
 43
0.00000001
 40
0.5312499999999963
 40
0.5312499999999963
 40
0.5312499999999963
 40
0.5312499999999963
 40
0.5624999999999962
 40
0.5624999999999962
 40
0.5624999999999962
 40
0.5624999999999962
 10
46.13468122543352
 20
19.93030133062703
 30
0.0
 10
46.0243804647266
 20
19.88417449771244
 30
0.0
 10
45.86147494853721
 20
19.81662512718351
 30
0.0
 10
45.6469375352741
 20
19.73130580277172
 30
0.0
  0
SPLINE
  5
23A
330
1F
100
AcDbEntity
  8
SK3
  6
SLD-Dashed
370
    18
100
AcDbSpline
210
0.0
220
0.0
230
1.0
 70
     8
 71
     3
 72
     8
 73
     4
 74
     0
 42
0.000000001
 43
0.00000001
 40
0.5624999999999962
 40
0.5624999999999962
 40
0.5624999999999962
 40
0.5624999999999962
 40
0.5781249999999962
 40
0.5781249999999962
 40
0.5781249999999962
 40
0.5781249999999962
 10
45.6469375352741
 20
19.73130580277172
 30
0.0
 10
45.53966882864252
 20
19.68864614056582
 30
0.0
 10
45.41874820939745
 20
19.641296946331
 30
0.0
 10
45.28719497221775
 20
19.59102061026945
 30
0.0
  0
SPLINE
  5
23B
330
1F
100
AcDbEntity
  8
SK3
  6
SLD-Dashed
370
    18
100
AcDbSpline
210
0.0
220
0.0
230
1.0
 70
     8
 71
     3
 72
     8
 73
     4
 74
     0
 42
0.000000001
 43
0.00000001
 40
0.5781249999999962
 40
0.5781249999999962
 40
0.5781249999999962
 40
0.5781249999999962
 40
0.5937499999999962
 40
0.5937499999999962
 40
0.5937499999999962
 40
0.5937499999999962
 10
45.28719497221775
 20
19.59102061026945
 30
0.0
 10
45.15564173503808
 20
19.5407442742079
 30
0.0
 10
45.01311688565263
 20
19.48739774521266
 30
0.0
 10
44.85987125720331
 20
19.43172102949927
 30
0.0
  0
SPLINE
  5
23C
330
1F
100
AcDbEntity
  8
SK3
  6
SLD-Dashed
370
    18
100
AcDbSpline
210
0.0
220
0.0
230
1.0
 70
     8
 71
     3
 72
     8
 73
     4
 74
     0
 42
0.000000001
 43
0.00000001
 40
0.5937499999999962
 40
0.5937499999999962
 40
0.5937499999999962
 40
0.5937499999999962
 40
0.6093749999999962
 40
0.6093749999999962
 40
0.6093749999999962
 40
0.6093749999999962
 10
44.85987125720331
 20
19.43172102949927
 30
0.0
 10
44.70662562875402
 20
19.37604431378589
 30
0.0
 10
44.54265841511279
 20
19.31803408781068
 30
0.0
 10
44.36785772719068
 20
19.25842036940251
 30
0.0
  0
SPLINE
  5
23D
330
1F
100
AcDbEntity
  8
SK3
  6
SLD-Dashed
370
    18
100
AcDbSpline
210
0.0
220
0.0
230
1.0
 70
     8
 71
     3
 72
     8
 73
     4
 74
     0
 42
0.000000001
 43
0.00000001
 40
0.6093749999999962
 40
0.6093749999999962
 40
0.6093749999999962
 40
0.6093749999999962
 40
0.6249999999999961
 40
0.6249999999999961
 40
0.6249999999999961
 40
0.6249999999999961
 10
44.36785772719068
 20
19.25842036940251
 30
0.0
 10
44.1930570392686
 20
19.19880665099436
 30
0.0
 10
44.00644053990504
 20
19.13728134452184
 30
0.0
 10
43.81110554909565
 20
19.07572776914076
 30
0.0
  0
SPLINE
  5
23E
330
1F
100
AcDbEntity
  8
SK3
  6
SLD-Dashed
370
    18
100
AcDbSpline
210
0.0
220
0.0
230
1.0
 70
     8
 71
     3
 72
     8
 73
     4
 74
     0
 42
0.000000001
 43
0.00000001
 40
0.6249999999999961
 40
0.6249999999999961
 40
0.6249999999999961
 40
0.6249999999999961
 40
0.6562499999999961
 40
0.6562499999999961
 40
0.6562499999999961
 40
0.6562499999999961
 10
43.81110554909565
 20
19.07572776914076
 30
0.0
 10
43.42043556747688
 20
18.95262061837858
 30
0.0
 10
42.99744028440428
 20
18.83000093622503
 30
0.0
 10
42.54160146915923
 20
18.71450732699987
 30
0.0
  0
SPLINE
  5
23F
330
1F
100
AcDbEntity
  8
SK3
  6
SLD-Dashed
370
    18
100
AcDbSpline
210
0.0
220
0.0
230
1.0
 70
     8
 71
     3
 72
     8
 73
     4
 74
     0
 42
0.000000001
 43
0.00000001
 40
0.6562499999999961
 40
0.6562499999999961
 40
0.6562499999999961
 40
0.6562499999999961
 40
0.6718749999999961
 40
0.6718749999999961
 40
0.6718749999999961
 40
0.6718749999999961
 10
42.54160146915923
 20
18.71450732699987
 30
0.0
 10
42.31368206153668
 20
18.6567605223873
 30
0.0
 10
42.07748639087664
 20
18.60079890470751
 30
0.0
 10
41.83252434121895
 20
18.54754033726636
 30
0.0
  0
SPLINE
  5
240
330
1F
100
AcDbEntity
  8
SK3
  6
SLD-Dashed
370
    18
100
AcDbSpline
210
0.0
220
0.0
230
1.0
 70
     8
 71
     3
 72
     8
 73
     4
 74
     0
 42
0.000000001
 43
0.00000001
 40
0.6718749999999961
 40
0.6718749999999961
 40
0.6718749999999961
 40
0.6718749999999961
 40
0.6874999999999961
 40
0.6874999999999961
 40
0.6874999999999961
 40
0.6874999999999961
 10
41.83252434121895
 20
18.54754033726636
 30
0.0
 10
41.58756229156124
 20
18.49428176982521
 30
0.0
 10
41.33497336094785
 20
18.44404069445541
 30
0.0
 10
41.07908383000763
 20
18.3984344650358
 30
0.0
  0
SPLINE
  5
241
330
1F
100
AcDbEntity
  8
SK3
  6
SLD-Dashed
370
    18
100
AcDbSpline
210
0.0
220
0.0
230
1.0
 70
     8
 71
     3
 72
     8
 73
     4
 74
     0
 42
0.000000001
 43
0.00000001
 40
0.6874999999999961
 40
0.6874999999999961
 40
0.6874999999999961
 40
0.6874999999999961
 40
0.7187499999999963
 40
0.7187499999999963
 40
0.7187499999999963
 40
0.7187499999999963
 10
41.07908383000763
 20
18.3984344650358
 30
0.0
 10
40.56730476812717
 20
18.30722200619655
 30
0.0
 10
40.03752097249066
 20
18.23342501104998
 30
0.0
 10
39.48860274041827
 20
18.18244700844602
 30
0.0
  0
SPLINE
  5
242
330
1F
100
AcDbEntity
  8
SK3
  6
SLD-Dashed
370
    18
100
AcDbSpline
210
0.0
220
0.0
230
1.0
 70
     8
 71
     3
 72
     8
 73
     4
 74
     0
 42
0.000000001
 43
0.00000001
 40
0.7187499999999963
 40
0.7187499999999963
 40
0.7187499999999963
 40
0.7187499999999963
 40
0.7343749999999964
 40
0.7343749999999964
 40
0.7343749999999964
 40
0.7343749999999964
 10
39.48860274041827
 20
18.18244700844602
 30
0.0
 10
39.21414362438205
 20
18.15695800714403
 30
0.0
 10
38.93306786301215
 20
18.13710955048137
 30
0.0
 10
38.65150983020296
 20
18.12388117901163
 30
0.0
  0
SPLINE
  5
243
330
1F
100
AcDbEntity
  8
SK3
  6
SLD-Dashed
370
    18
100
AcDbSpline
210
0.0
220
0.0
230
1.0
 70
     8
 71
     3
 72
     8
 73
     4
 74
     0
 42
0.000000001
 43
0.00000001
 40
0.7343749999999964
 40
0.7343749999999964
 40
0.7343749999999964
 40
0.7343749999999964
 40
0.7499999999999966
 40
0.7499999999999966
 40
0.7499999999999966
 40
0.7499999999999966
 10
38.65150983020296
 20
18.12388117901163
 30
0.0
 10
38.36995179739377
 20
18.11065280754188
 30
0.0
 10
38.08901483215665
 20
18.10400353527395
 30
0.0
 10
37.80868362434367
 20
18.10386907280681
 30
0.0
  0
SPLINE
  5
244
330
1F
100
AcDbEntity
  8
SK3
  6
SLD-Dashed
370
    18
100
AcDbSpline
210
0.0
220
0.0
230
1.0
 70
     8
 71
     3
 72
     8
 73
     4
 74
     0
 42
0.000000001
 43
0.00000001
 40
0.7499999999999966
 40
0.7499999999999966
 40
0.7499999999999966
 40
0.7499999999999966
 40
0.7812499999999969
 40
0.7812499999999969
 40
0.7812499999999969
 40
0.7812499999999969
 10
37.80868362434367
 20
18.10386907280681
 30
0.0
 10
37.24802120871773
 20
18.10360014787252
 30
0.0
 10
36.68976772220886
 20
18.12943190234361
 30
0.0
 10
36.13397214311578
 20
18.180364375334
 30
0.0
  0
SPLINE
  5
245
330
1F
100
AcDbEntity
  8
SK3
  6
SLD-Dashed
370
    18
100
AcDbSpline
210
0.0
220
0.0
230
1.0
 70
     8
 71
     3
 72
     8
 73
     4
 74
     0
 42
0.000000001
 43
0.00000001
 40
0.7812499999999969
 40
0.7812499999999969
 40
0.7812499999999969
 40
0.7812499999999969
 40
0.8124999999999972
 40
0.8124999999999972
 40
0.8124999999999972
 40
0.8124999999999972
 10
36.13397214311578
 20
18.180364375334
 30
0.0
 10
35.57817656402273
 20
18.2312968483244
 30
0.0
 10
35.04512792004893
 20
18.30533008825098
 30
0.0
 10
34.53279008954721
 20
18.39632193127095
 30
0.0
  0
SPLINE
  5
246
330
1F
100
AcDbEntity
  8
SK3
  6
SLD-Dashed
370
    18
100
AcDbSpline
210
0.0
220
0.0
230
1.0
 70
     8
 71
     3
 72
     8
 73
     4
 74
     0
 42
0.000000001
 43
0.00000001
 40
0.8124999999999972
 40
0.8124999999999972
 40
0.8124999999999972
 40
0.8124999999999972
 40
0.8437499999999976
 40
0.8437499999999976
 40
0.8437499999999976
 40
0.8437499999999976
 10
34.53279008954721
 20
18.39632193127095
 30
0.0
 10
34.02045225904548
 20
18.48731377429094
 30
0.0
 10
33.52507652757009
 20
18.59647719612575
 30
0.0
 10
33.0674733075913
 20
18.7122101552532
 30
0.0
  0
SPLINE
  5
247
330
1F
100
AcDbEntity
  8
SK3
  6
SLD-Dashed
370
    18
100
AcDbSpline
210
0.0
220
0.0
230
1.0
 70
     8
 71
     3
 72
     8
 73
     4
 74
     0
 42
0.000000001
 43
0.00000001
 40
0.8437499999999976
 40
0.8437499999999976
 40
0.8437499999999976
 40
0.8437499999999976
 40
0.8749999999999978
 40
0.8749999999999978
 40
0.8749999999999978
 40
0.8749999999999978
 10
33.0674733075913
 20
18.7122101552532
 30
0.0
 10
32.60987008761254
 20
18.82794311438062
 30
0.0
 10
32.18606957547068
 20
18.95068804251523
 30
0.0
 10
31.79519899440758
 20
19.07374203235335
 30
0.0
  0
SPLINE
  5
248
330
1F
100
AcDbEntity
  8
SK3
  6
SLD-Dashed
370
    18
100
AcDbSpline
210
0.0
220
0.0
230
1.0
 70
     8
 71
     3
 72
     8
 73
     4
 74
     0
 42
0.000000001
 43
0.00000001
 40
0.8749999999999978
 40
0.8749999999999978
 40
0.8749999999999978
 40
0.8749999999999978
 40
0.890624999999998
 40
0.890624999999998
 40
0.890624999999998
 40
0.890624999999998
 10
31.79519899440758
 20
19.07374203235335
 30
0.0
 10
31.59976370387601
 20
19.13526902727244
 30
0.0
 10
31.41263718216245
 20
19.19690920384286
 30
0.0
 10
31.23759689832767
 20
19.25656081622152
 30
0.0
  0
SPLINE
  5
249
330
1F
100
AcDbEntity
  8
SK3
  6
SLD-Dashed
370
    18
100
AcDbSpline
210
0.0
220
0.0
230
1.0
 70
     8
 71
     3
 72
     8
 73
     4
 74
     0
 42
0.000000001
 43
0.00000001
 40
0.890624999999998
 40
0.890624999999998
 40
0.890624999999998
 40
0.890624999999998
 40
0.9062499999999982
 40
0.9062499999999982
 40
0.9062499999999982
 40
0.9062499999999982
 10
31.23759689832767
 20
19.25656081622152
 30
0.0
 10
31.06255661449289
 20
19.31621242860015
 30
0.0
 10
30.89854297932163
 20
19.37420295932885
 30
0.0
 10
30.74537111255152
 20
19.42981700221653
 30
0.0
  0
SPLINE
  5
24A
330
1F
100
AcDbEntity
  8
SK3
  6
SLD-Dashed
370
    18
100
AcDbSpline
210
0.0
220
0.0
230
1.0
 70
     8
 71
     3
 72
     8
 73
     4
 74
     0
 42
0.000000001
 43
0.00000001
 40
0.9062499999999982
 40
0.9062499999999982
 40
0.9062499999999982
 40
0.9062499999999982
 40
0.9374999999999988
 40
0.9374999999999988
 40
0.9374999999999988
 40
0.9374999999999988
 10
30.74537111255152
 20
19.42981700221653
 30
0.0
 10
30.43902737901122
 20
19.54104508799188
 30
0.0
 10
30.17485150603941
 20
19.64315173112181
 30
0.0
 10
29.9583180624079
 20
19.72921629488505
 30
0.0
  0
SPLINE
  5
24B
330
1F
100
AcDbEntity
  8
SK3
  6
SLD-Dashed
370
    18
100
AcDbSpline
210
0.0
220
0.0
230
1.0
 70
     8
 71
     3
 72
     8
 73
     4
 74
     0
 42
0.000000001
 43
0.00000001
 40
0.9374999999999988
 40
0.9374999999999988
 40
0.9374999999999988
 40
0.9374999999999988
 40
0.9687499999999993
 40
0.9687499999999993
 40
0.9687499999999993
 40
0.9687499999999993
 10
29.9583180624079
 20
19.72921629488505
 30
0.0
 10
29.74178461877636
 20
19.8152808586483
 30
0.0
 10
29.57874605506214
 20
19.8828805994771
 30
0.0
 10
29.46824943646487
 20
19.92907593073417
 30
0.0
  0
SPLINE
  5
24C
330
1F
100
AcDbEntity
  8
SK3
  6
SLD-Dashed
370
    18
100
AcDbSpline
210
0.0
220
0.0
230
1.0
 70
     8
 71
     3
 72
     8
 73
     4
 74
     0
 42
0.000000001
 43
0.00000001
 40
0.9687499999999993
 40
0.9687499999999993
 40
0.9687499999999993
 40
0.9687499999999993
 40
0.9843749999999997
 40
0.9843749999999997
 40
0.9843749999999997
 40
0.9843749999999997
 10
29.46824943646487
 20
19.92907593073417
 30
0.0
 10
29.41300112716621
 20
19.95217359636268
 30
0.0
 10
29.37098688832718
 20
19.96991750995313
 30
0.0
 10
29.34270275468803
 20
19.98188871692465
 30
0.0
  0
SPLINE
  5
24D
330
1F
100
AcDbEntity
  8
SK3
  6
SLD-Dashed
370
    18
100
AcDbSpline
210
0.0
220
0.0
230
1.0
 70
     8
 71
     2
 72
     6
 73
     3
 74
     0
 42
0.000000001
 43
0.00000001
 40
0.9843749999999997
 40
0.9843749999999997
 40
0.9843749999999997
 40
1.0
 40
1.0
 40
1.0
 10
29.34270275468803
 20
19.98188871692465
 30
0.0
 10
29.31441862104892
 20
19.99385992389618
 30
0.0
 10
29.30000000000002
 20
19.99999999999998
 30
0.0
  0
SPLINE
  5
24E
330
1F
100
AcDbEntity
  8
SK3
  6
SLD-Dashed
370
    18
100
AcDbSpline
210
0.0
220
0.0
230
1.0
 70
     8
 71
     2
 72
     6
 73
     3
 74
     0
 42
0.000000001
 43
0.00000001
 40
0.0
 40
0.0
 40
0.0
 40
0.0312500000000007
 40
0.0312500000000007
 40
0.0312500000000007
 10
62.2
 20
19.99999999999998
 30
0.0
 10
62.2564820503104
 20
19.97581037641343
 30
0.0
 10
62.36654129233121
 20
19.92979011511208
 30
0.0
  0
SPLINE
  5
24F
330
1F
100
AcDbEntity
  8
SK3
  6
SLD-Dashed
370
    18
100
AcDbSpline
210
0.0
220
0.0
230
1.0
 70
     8
 71
     3
 72
     8
 73
     4
 74
     0
 42
0.000000001
 43
0.00000001
 40
0.0312500000000007
 40
0.0312500000000007
 40
0.0312500000000007
 40
0.0312500000000007
 40
0.0468750000000011
 40
0.0468750000000011
 40
0.0468750000000011
 40
0.0468750000000011
 10
62.36654129233121
 20
19.92979011511208
 30
0.0
 10
62.42157091334163
 20
19.90677998446142
 30
0.0
 10
62.49009993560684
 20
19.87830033241374
 30
0.0
 10
62.57238414060845
 20
19.84459975806598
 30
0.0
  0
SPLINE
  5
250
330
1F
100
AcDbEntity
  8
SK3
  6
SLD-Dashed
370
    18
100
AcDbSpline
210
0.0
220
0.0
230
1.0
 70
     8
 71
     3
 72
     8
 73
     4
 74
     0
 42
0.000000001
 43
0.00000001
 40
0.0468750000000011
 40
0.0468750000000011
 40
0.0468750000000011
 40
0.0468750000000011
 40
0.0625000000000016
 40
0.0625000000000016
 40
0.0625000000000016
 40
0.0625000000000016
 10
62.57238414060845
 20
19.84459975806598
 30
0.0
 10
62.65466834561006
 20
19.81089918371821
 30
0.0
 10
62.7505453711312
 20
19.77205431496806
 30
0.0
 10
62.85786090214857
 20
19.72939800475549
 30
0.0
  0
SPLINE
  5
251
330
1F
100
AcDbEntity
  8
SK3
  6
SLD-Dashed
370
    18
100
AcDbSpline
210
0.0
220
0.0
230
1.0
 70
     8
 71
     3
 72
     8
 73
     4
 74
     0
 42
0.000000001
 43
0.00000001
 40
0.0625000000000016
 40
0.0625000000000016
 40
0.0625000000000016
 40
0.0625000000000016
 40
0.0937500000000028
 40
0.0937500000000028
 40
0.0937500000000028
 40
0.0937500000000028
 10
62.85786090214857
 20
19.72939800475549
 30
0.0
 10
63.07249196418324
 20
19.64408538433034
 30
0.0
 10
63.33418977904423
 20
19.5428400611011
 30
0.0
 10
63.64258775589074
 20
19.43082776371876
 30
0.0
  0
SPLINE
  5
252
330
1F
100
AcDbEntity
  8
SK3
  6
SLD-Dashed
370
    18
100
AcDbSpline
210
0.0
220
0.0
230
1.0
 70
     8
 71
     3
 72
     8
 73
     4
 74
     0
 42
0.000000001
 43
0.00000001
 40
0.0937500000000028
 40
0.0937500000000028
 40
0.0937500000000028
 40
0.0937500000000028
 40
0.1093750000000035
 40
0.1093750000000035
 40
0.1093750000000035
 40
0.1093750000000035
 10
63.64258775589074
 20
19.43082776371876
 30
0.0
 10
63.79678674431394
 20
19.37482161502758
 30
0.0
 10
63.96342165484376
 20
19.31590913893471
 30
0.0
 10
64.13865617042951
 20
19.25619985484784
 30
0.0
  0
SPLINE
  5
253
330
1F
100
AcDbEntity
  8
SK3
  6
SLD-Dashed
370
    18
100
AcDbSpline
210
0.0
220
0.0
230
1.0
 70
     8
 71
     3
 72
     8
 73
     4
 74
     0
 42
0.000000001
 43
0.00000001
 40
0.1093750000000035
 40
0.1093750000000035
 40
0.1093750000000035
 40
0.1093750000000035
 40
0.1250000000000041
 40
0.1250000000000041
 40
0.1250000000000041
 40
0.1250000000000041
 10
64.13865617042951
 20
19.25619985484784
 30
0.0
 10
64.31389068601531
 20
19.19649057076096
 30
0.0
 10
64.49834750809805
 20
19.13574486200059
 30
0.0
 10
64.69194658662286
 20
19.07476620611618
 30
0.0
  0
SPLINE
  5
254
330
1F
100
AcDbEntity
  8
SK3
  6
SLD-Dashed
370
    18
100
AcDbSpline
210
0.0
220
0.0
230
1.0
 70
     8
 71
     3
 72
     8
 73
     4
 74
     0
 42
0.000000001
 43
0.00000001
 40
0.1250000000000041
 40
0.1250000000000041
 40
0.1250000000000041
 40
0.1250000000000041
 40
0.1406250000000047
 40
0.1406250000000047
 40
0.1406250000000047
 40
0.1406250000000047
 10
64.69194658662286
 20
19.07476620611618
 30
0.0
 10
64.8855456651477
 20
19.01378755023179
 30
0.0
 10
65.08828684227232
 20
18.95257256943928
 30
0.0
 10
65.30040249683375
 20
18.89194678153098
 30
0.0
  0
SPLINE
  5
255
330
1F
100
AcDbEntity
  8
SK3
  6
SLD-Dashed
370
    18
100
AcDbSpline
210
0.0
220
0.0
230
1.0
 70
     8
 71
     3
 72
     8
 73
     4
 74
     0
 42
0.000000001
 43
0.00000001
 40
0.1406250000000047
 40
0.1406250000000047
 40
0.1406250000000047
 40
0.1406250000000047
 40
0.1562500000000054
 40
0.1562500000000054
 40
0.1562500000000054
 40
0.1562500000000054
 10
65.30040249683375
 20
18.89194678153098
 30
0.0
 10
65.51251815139517
 20
18.83132099362266
 30
0.0
 10
65.73491617484159
 20
18.77105325201538
 30
0.0
 10
65.96515759846585
 20
18.71279595804338
 30
0.0
  0
SPLINE
  5
256
330
1F
100
AcDbEntity
  8
SK3
  6
SLD-Dashed
370
    18
100
AcDbSpline
210
0.0
220
0.0
230
1.0
 70
     8
 71
     3
 72
     8
 73
     4
 74
     0
 42
0.000000001
 43
0.00000001
 40
0.1562500000000054
 40
0.1562500000000054
 40
0.1562500000000054
 40
0.1562500000000054
 40
0.1875000000000072
 40
0.1875000000000072
 40
0.1875000000000072
 40
0.1875000000000072
 10
65.96515759846585
 20
18.71279595804338
 30
0.0
 10
66.42564044571445
 20
18.59628137009938
 30
0.0
 10
66.91028644283125
 20
18.48947261684499
 30
0.0
 10
67.41977860312886
 20
18.39863724335287
 30
0.0
  0
SPLINE
  5
257
330
1F
100
AcDbEntity
  8
SK3
  6
SLD-Dashed
370
    18
100
AcDbSpline
210
0.0
220
0.0
230
1.0
 70
     8
 71
     3
 72
     8
 73
     4
 74
     0
 42
0.000000001
 43
0.00000001
 40
0.1875000000000072
 40
0.1875000000000072
 40
0.1875000000000072
 40
0.1875000000000072
 40
0.2031250000000085
 40
0.2031250000000085
 40
0.2031250000000085
 40
0.2031250000000085
 10
67.41977860312886
 20
18.39863724335287
 30
0.0
 10
67.6745246832777
 20
18.3532195566068
 30
0.0
 10
67.93552740337077
 20
18.31179992576435
 30
0.0
 10
68.20316383026034
 20
18.27523435851152
 30
0.0
  0
SPLINE
  5
258
330
1F
100
AcDbEntity
  8
SK3
  6
SLD-Dashed
370
    18
100
AcDbSpline
210
0.0
220
0.0
230
1.0
 70
     8
 71
     3
 72
     8
 73
     4
 74
     0
 42
0.000000001
 43
0.00000001
 40
0.2031250000000085
 40
0.2031250000000085
 40
0.2031250000000085
 40
0.2031250000000085
 40
0.2187500000000098
 40
0.2187500000000098
 40
0.2187500000000098
 40
0.2187500000000098
 10
68.20316383026034
 20
18.27523435851152
 30
0.0
 10
68.47080025714993
 20
18.23866879125866
 30
0.0
 10
68.7458543621417
 20
18.20696981570791
 30
0.0
 10
69.02077255271324
 20
18.18157872187453
 30
0.0
  0
SPLINE
  5
259
330
1F
100
AcDbEntity
  8
SK3
  6
SLD-Dashed
370
    18
100
AcDbSpline
210
0.0
220
0.0
230
1.0
 70
     8
 71
     3
 72
     8
 73
     4
 74
     0
 42
0.000000001
 43
0.00000001
 40
0.2187500000000098
 40
0.2187500000000098
 40
0.2187500000000098
 40
0.2187500000000098
 40
0.2500000000000116
 40
0.2500000000000116
 40
0.2500000000000116
 40
0.2500000000000116
 10
69.02077255271324
 20
18.18157872187453
 30
0.0
 10
69.57060893385633
 20
18.13079653420775
 30
0.0
 10
70.12642311366338
 20
18.1042331578092
 30
0.0
 10
70.68832376640962
 20
18.10387075557131
 30
0.0
  0
SPLINE
  5
25A
330
1F
100
AcDbEntity
  8
SK3
  6
SLD-Dashed
370
    18
100
AcDbSpline
210
0.0
220
0.0
230
1.0
 70
     8
 71
     3
 72
     8
 73
     4
 74
     0
 42
0.000000001
 43
0.00000001
 40
0.2500000000000116
 40
0.2500000000000116
 40
0.2500000000000116
 40
0.2500000000000116
 40
0.2656250000000121
 40
0.2656250000000121
 40
0.2656250000000121
 40
0.2656250000000121
 10
70.68832376640962
 20
18.10387075557131
 30
0.0
 10
70.96927409278281
 20
18.10368955445237
 30
0.0
 10
71.2533526894033
 20
18.11013503133097
 30
0.0
 10
71.53509172352754
 20
18.12311723150032
 30
0.0
  0
SPLINE
  5
25B
330
1F
100
AcDbEntity
  8
SK3
  6
SLD-Dashed
370
    18
100
AcDbSpline
210
0.0
220
0.0
230
1.0
 70
     8
 71
     3
 72
     8
 73
     4
 74
     0
 42
0.000000001
 43
0.00000001
 40
0.2656250000000121
 40
0.2656250000000121
 40
0.2656250000000121
 40
0.2656250000000121
 40
0.2812500000000125
 40
0.2812500000000125
 40
0.2812500000000125
 40
0.2812500000000125
 10
71.53509172352754
 20
18.12311723150032
 30
0.0
 10
71.81683075765174
 20
18.13609943166965
 30
0.0
 10
72.09466106056342
 20
18.15545595350531
 30
0.0
 10
72.36876246633148
 20
18.18061517575894
 30
0.0
  0
SPLINE
  5
25C
330
1F
100
AcDbEntity
  8
SK3
  6
SLD-Dashed
370
    18
100
AcDbSpline
210
0.0
220
0.0
230
1.0
 70
     8
 71
     3
 72
     8
 73
     4
 74
     0
 42
0.000000001
 43
0.00000001
 40
0.2812500000000125
 40
0.2812500000000125
 40
0.2812500000000125
 40
0.2812500000000125
 40
0.3125000000000129
 40
0.3125000000000129
 40
0.3125000000000129
 40
0.3125000000000129
 10
72.36876246633148
 20
18.18061517575894
 30
0.0
 10
72.91696527786748
 20
18.23093362026616
 30
0.0
 10
73.45203536564698
 20
18.30477747027819
 30
0.0
 10
73.96900668851106
 20
18.3966411262907
 30
0.0
  0
SPLINE
  5
25D
330
1F
100
AcDbEntity
  8
SK3
  6
SLD-Dashed
370
    18
100
AcDbSpline
210
0.0
220
0.0
230
1.0
 70
     8
 71
     3
 72
     8
 73
     4
 74
     0
 42
0.000000001
 43
0.00000001
 40
0.3125000000000129
 40
0.3125000000000129
 40
0.3125000000000129
 40
0.3125000000000129
 40
0.3437500000000132
 40
0.3437500000000132
 40
0.3437500000000132
 40
0.3437500000000132
 10
73.96900668851106
 20
18.3966411262907
 30
0.0
 10
74.48597801137511
 20
18.48850478230319
 30
0.0
 10
74.97173463291767
 20
18.59575211072493
 30
0.0
 10
75.4289815337303
 20
18.71131385943706
 30
0.0
  0
SPLINE
  5
25E
330
1F
100
AcDbEntity
  8
SK3
  6
SLD-Dashed
370
    18
100
AcDbSpline
210
0.0
220
0.0
230
1.0
 70
     8
 71
     3
 72
     8
 73
     4
 74
     0
 42
0.000000001
 43
0.00000001
 40
0.3437500000000132
 40
0.3437500000000132
 40
0.3437500000000132
 40
0.3437500000000132
 40
0.3750000000000134
 40
0.3750000000000134
 40
0.3750000000000134
 40
0.3750000000000134
 10
75.4289815337303
 20
18.71131385943706
 30
0.0
 10
75.88622843454287
 20
18.82687560814918
 30
0.0
 10
76.31785077624633
 20
18.95189861230547
 30
0.0
 10
76.70609217298949
 20
19.07414855741787
 30
0.0
  0
SPLINE
  5
25F
330
1F
100
AcDbEntity
  8
SK3
  6
SLD-Dashed
370
    18
100
AcDbSpline
210
0.0
220
0.0
230
1.0
 70
     8
 71
     3
 72
     8
 73
     4
 74
     0
 42
0.000000001
 43
0.00000001
 40
0.3750000000000134
 40
0.3750000000000134
 40
0.3750000000000134
 40
0.3750000000000134
 40
0.4062500000000137
 40
0.4062500000000137
 40
0.4062500000000137
 40
0.4062500000000137
 10
76.70609217298949
 20
19.07414855741787
 30
0.0
 10
77.09433356973267
 20
19.19639850253024
 30
0.0
 10
77.44290181358357
 20
19.31667509684559
 30
0.0
 10
77.75168765192095
 20
19.42874928399289
 30
0.0
  0
SPLINE
  5
260
330
1F
100
AcDbEntity
  8
SK3
  6
SLD-Dashed
370
    18
100
AcDbSpline
210
0.0
220
0.0
230
1.0
 70
     8
 71
     3
 72
     8
 73
     4
 74
     0
 42
0.000000001
 43
0.00000001
 40
0.4062500000000137
 40
0.4062500000000137
 40
0.4062500000000137
 40
0.4062500000000137
 40
0.4218750000000137
 40
0.4218750000000137
 40
0.4218750000000137
 40
0.4218750000000137
 10
77.75168765192095
 20
19.42874928399289
 30
0.0
 10
77.90608057108963
 20
19.48478637756653
 30
0.0
 10
78.05096987182789
 20
19.53898543274876
 30
0.0
 10
78.18263494483769
 20
19.58927833580668
 30
0.0
  0
SPLINE
  5
261
330
1F
100
AcDbEntity
  8
SK3
  6
SLD-Dashed
370
    18
100
AcDbSpline
210
0.0
220
0.0
230
1.0
 70
     8
 71
     3
 72
     8
 73
     4
 74
     0
 42
0.000000001
 43
0.00000001
 40
0.4218750000000137
 40
0.4218750000000137
 40
0.4218750000000137
 40
0.4218750000000137
 40
0.4375000000000136
 40
0.4375000000000136
 40
0.4375000000000136
 40
0.4375000000000136
 10
78.18263494483769
 20
19.58927833580668
 30
0.0
 10
78.3143000178475
 20
19.63957123886462
 30
0.0
 10
78.43345914439259
 20
19.68620790201841
 30
0.0
 10
78.54028103830652
 20
19.72865952769292
 30
0.0
  0
SPLINE
  5
262
330
1F
100
AcDbEntity
  8
SK3
  6
SLD-Dashed
370
    18
100
AcDbSpline
210
0.0
220
0.0
230
1.0
 70
     8
 71
     3
 72
     8
 73
     4
 74
     0
 42
0.000000001
 43
0.00000001
 40
0.4375000000000136
 40
0.4375000000000136
 40
0.4375000000000136
 40
0.4375000000000136
 40
0.4687500000000134
 40
0.4687500000000134
 40
0.4687500000000134
 40
0.4687500000000134
 10
78.54028103830652
 20
19.72865952769292
 30
0.0
 10
78.75392482613434
 20
19.81356277904193
 30
0.0
 10
78.91863502300434
 20
19.88178927470711
 30
0.0
 10
79.03098619999297
 20
19.92875638529591
 30
0.0
  0
SPLINE
  5
263
330
1F
100
AcDbEntity
  8
SK3
  6
SLD-Dashed
370
    18
100
AcDbSpline
210
0.0
220
0.0
230
1.0
 70
     8
 71
     3
 72
     8
 73
     4
 74
     0
 42
0.000000001
 43
0.00000001
 40
0.4687500000000134
 40
0.4687500000000134
 40
0.4687500000000134
 40
0.4687500000000134
 40
0.5000000000000132
 40
0.5000000000000132
 40
0.5000000000000132
 40
0.5000000000000132
 10
79.03098619999297
 20
19.92875638529591
 30
0.0
 10
79.14333737698156
 20
19.9757234958847
 30
0.0
 10
79.19920760073482
 20
19.99966323058116
 30
0.0
 10
79.19999167345645
 20
19.99999646122041
 30
0.0
  0
SPLINE
  5
264
330
1F
100
AcDbEntity
  8
SK3
  6
SLD-Dashed
370
    18
100
AcDbSpline
210
0.0
220
0.0
230
1.0
 70
     8
 71
     3
 72
     8
 73
     4
 74
     0
 42
0.000000001
 43
0.00000001
 40
0.5156250000000131
 40
0.5156250000000131
 40
0.5156250000000131
 40
0.5156250000000131
 40
0.5312500000000131
 40
0.5312500000000131
 40
0.5312500000000131
 40
0.5312500000000131
 10
79.15940009743211
 20
19.9827788359986
 30
0.0
 10
79.13183225254922
 20
19.97110841560302
 30
0.0
 10
79.08983160578705
 20
19.95336474708433
 30
0.0
 10
79.03468122543356
 20
19.93030133062703
 30
0.0
  0
SPLINE
  5
265
330
1F
100
AcDbEntity
  8
SK3
  6
SLD-Dashed
370
    18
100
AcDbSpline
210
0.0
220
0.0
230
1.0
 70
     8
 71
     3
 72
     8
 73
     4
 74
     0
 42
0.000000001
 43
0.00000001
 40
0.5312500000000131
 40
0.5312500000000131
 40
0.5312500000000131
 40
0.5312500000000131
 40
0.5625000000000127
 40
0.5625000000000127
 40
0.5625000000000127
 40
0.5625000000000127
 10
79.03468122543356
 20
19.93030133062703
 30
0.0
 10
78.92438046472658
 20
19.88417449771244
 30
0.0
 10
78.76147494853727
 20
19.81662512718352
 30
0.0
 10
78.54693753527411
 20
19.73130580277172
 30
0.0
  0
SPLINE
  5
266
330
1F
100
AcDbEntity
  8
SK3
  6
SLD-Dashed
370
    18
100
AcDbSpline
210
0.0
220
0.0
230
1.0
 70
     8
 71
     3
 72
     8
 73
     4
 74
     0
 42
0.000000001
 43
0.00000001
 40
0.5625000000000127
 40
0.5625000000000127
 40
0.5625000000000127
 40
0.5625000000000127
 40
0.5781250000000125
 40
0.5781250000000125
 40
0.5781250000000125
 40
0.5781250000000125
 10
78.54693753527411
 20
19.73130580277172
 30
0.0
 10
78.43966882864254
 20
19.68864614056582
 30
0.0
 10
78.31874820939747
 20
19.641296946331
 30
0.0
 10
78.18719497221774
 20
19.59102061026944
 30
0.0
  0
SPLINE
  5
267
330
1F
100
AcDbEntity
  8
SK3
  6
SLD-Dashed
370
    18
100
AcDbSpline
210
0.0
220
0.0
230
1.0
 70
     8
 71
     3
 72
     8
 73
     4
 74
     0
 42
0.000000001
 43
0.00000001
 40
0.5781250000000125
 40
0.5781250000000125
 40
0.5781250000000125
 40
0.5781250000000125
 40
0.5937500000000123
 40
0.5937500000000123
 40
0.5937500000000123
 40
0.5937500000000123
 10
78.18719497221774
 20
19.59102061026944
 30
0.0
 10
78.05564173503807
 20
19.54074427420788
 30
0.0
 10
77.91311688565267
 20
19.48739774521266
 30
0.0
 10
77.75987125720334
 20
19.43172102949927
 30
0.0
  0
SPLINE
  5
268
330
1F
100
AcDbEntity
  8
SK3
  6
SLD-Dashed
370
    18
100
AcDbSpline
210
0.0
220
0.0
230
1.0
 70
     8
 71
     3
 72
     8
 73
     4
 74
     0
 42
0.000000001
 43
0.00000001
 40
0.5937500000000123
 40
0.5937500000000123
 40
0.5937500000000123
 40
0.5937500000000123
 40
0.6093750000000121
 40
0.6093750000000121
 40
0.6093750000000121
 40
0.6093750000000121
 10
77.75987125720334
 20
19.43172102949927
 30
0.0
 10
77.606625628754
 20
19.37604431378589
 30
0.0
 10
77.4426584151128
 20
19.31803408781068
 30
0.0
 10
77.26785772719072
 20
19.25842036940253
 30
0.0
  0
SPLINE
  5
269
330
1F
100
AcDbEntity
  8
SK3
  6
SLD-Dashed
370
    18
100
AcDbSpline
210
0.0
220
0.0
230
1.0
 70
     8
 71
     3
 72
     8
 73
     4
 74
     0
 42
0.000000001
 43
0.00000001
 40
0.6093750000000121
 40
0.6093750000000121
 40
0.6093750000000121
 40
0.6093750000000121
 40
0.6250000000000119
 40
0.6250000000000119
 40
0.6250000000000119
 40
0.6250000000000119
 10
77.26785772719072
 20
19.25842036940253
 30
0.0
 10
77.09305703926861
 20
19.19880665099437
 30
0.0
 10
76.90644053990506
 20
19.13728134452184
 30
0.0
 10
76.71110554909566
 20
19.07572776914074
 30
0.0
  0
SPLINE
  5
26A
330
1F
100
AcDbEntity
  8
SK3
  6
SLD-Dashed
370
    18
100
AcDbSpline
210
0.0
220
0.0
230
1.0
 70
     8
 71
     3
 72
     8
 73
     4
 74
     0
 42
0.000000001
 43
0.00000001
 40
0.6250000000000119
 40
0.6250000000000119
 40
0.6250000000000119
 40
0.6250000000000119
 40
0.6562500000000117
 40
0.6562500000000117
 40
0.6562500000000117
 40
0.6562500000000117
 10
76.71110554909566
 20
19.07572776914074
 30
0.0
 10
76.32043556747689
 20
18.9526206183786
 30
0.0
 10
75.89744028440428
 20
18.83000093622503
 30
0.0
 10
75.44160146915927
 20
18.7145073269999
 30
0.0
  0
SPLINE
  5
26B
330
1F
100
AcDbEntity
  8
SK3
  6
SLD-Dashed
370
    18
100
AcDbSpline
210
0.0
220
0.0
230
1.0
 70
     8
 71
     3
 72
     8
 73
     4
 74
     0
 42
0.000000001
 43
0.00000001
 40
0.6562500000000117
 40
0.6562500000000117
 40
0.6562500000000117
 40
0.6562500000000117
 40
0.6718750000000114
 40
0.6718750000000114
 40
0.6718750000000114
 40
0.6718750000000114
 10
75.44160146915927
 20
18.7145073269999
 30
0.0
 10
75.21368206153673
 20
18.65676052238732
 30
0.0
 10
74.97748639087662
 20
18.6007989047075
 30
0.0
 10
74.73252434121893
 20
18.54754033726636
 30
0.0
  0
SPLINE
  5
26C
330
1F
100
AcDbEntity
  8
SK3
  6
SLD-Dashed
370
    18
100
AcDbSpline
210
0.0
220
0.0
230
1.0
 70
     8
 71
     3
 72
     8
 73
     4
 74
     0
 42
0.000000001
 43
0.00000001
 40
0.6718750000000114
 40
0.6718750000000114
 40
0.6718750000000114
 40
0.6718750000000114
 40
0.6875000000000113
 40
0.6875000000000113
 40
0.6875000000000113
 40
0.6875000000000113
 10
74.73252434121893
 20
18.54754033726636
 30
0.0
 10
74.48756229156126
 20
18.49428176982521
 30
0.0
 10
74.23497336094789
 20
18.44404069445541
 30
0.0
 10
73.97908383000765
 20
18.3984344650358
 30
0.0
  0
SPLINE
  5
26D
330
1F
100
AcDbEntity
  8
SK3
  6
SLD-Dashed
370
    18
100
AcDbSpline
210
0.0
220
0.0
230
1.0
 70
     8
 71
     3
 72
     8
 73
     4
 74
     0
 42
0.000000001
 43
0.00000001
 40
0.6875000000000113
 40
0.6875000000000113
 40
0.6875000000000113
 40
0.6875000000000113
 40
0.7187500000000102
 40
0.7187500000000102
 40
0.7187500000000102
 40
0.7187500000000102
 10
73.97908383000765
 20
18.3984344650358
 30
0.0
 10
73.46730476812718
 20
18.30722200619655
 30
0.0
 10
72.9375209724907
 20
18.23342501105
 30
0.0
 10
72.38860274041825
 20
18.182447008446
 30
0.0
  0
SPLINE
  5
26E
330
1F
100
AcDbEntity
  8
SK3
  6
SLD-Dashed
370
    18
100
AcDbSpline
210
0.0
220
0.0
230
1.0
 70
     8
 71
     3
 72
     8
 73
     4
 74
     0
 42
0.000000001
 43
0.00000001
 40
0.7187500000000102
 40
0.7187500000000102
 40
0.7187500000000102
 40
0.7187500000000102
 40
0.7343750000000094
 40
0.7343750000000094
 40
0.7343750000000094
 40
0.7343750000000094
 10
72.38860274041825
 20
18.182447008446
 30
0.0
 10
72.11414362438204
 20
18.15695800714402
 30
0.0
 10
71.83306786301213
 20
18.13710955048137
 30
0.0
 10
71.55150983020297
 20
18.12388117901163
 30
0.0
  0
SPLINE
  5
26F
330
1F
100
AcDbEntity
  8
SK3
  6
SLD-Dashed
370
    18
100
AcDbSpline
210
0.0
220
0.0
230
1.0
 70
     8
 71
     3
 72
     8
 73
     4
 74
     0
 42
0.000000001
 43
0.00000001
 40
0.7343750000000094
 40
0.7343750000000094
 40
0.7343750000000094
 40
0.7343750000000094
 40
0.7500000000000085
 40
0.7500000000000085
 40
0.7500000000000085
 40
0.7500000000000085
 10
71.55150983020297
 20
18.12388117901163
 30
0.0
 10
71.26995179739379
 20
18.11065280754188
 30
0.0
 10
70.98901483215667
 20
18.10400353527395
 30
0.0
 10
70.7086836243437
 20
18.10386907280681
 30
0.0
  0
SPLINE
  5
270
330
1F
100
AcDbEntity
  8
SK3
  6
SLD-Dashed
370
    18
100
AcDbSpline
210
0.0
220
0.0
230
1.0
 70
     8
 71
     3
 72
     8
 73
     4
 74
     0
 42
0.000000001
 43
0.00000001
 40
0.7500000000000085
 40
0.7500000000000085
 40
0.7500000000000085
 40
0.7500000000000085
 40
0.7812500000000075
 40
0.7812500000000075
 40
0.7812500000000075
 40
0.7812500000000075
 10
70.7086836243437
 20
18.10386907280681
 30
0.0
 10
70.14802120871774
 20
18.10360014787251
 30
0.0
 10
69.58976772220888
 20
18.12943190234363
 30
0.0
 10
69.03397214311579
 20
18.18036437533403
 30
0.0
  0
SPLINE
  5
271
330
1F
100
AcDbEntity
  8
SK3
  6
SLD-Dashed
370
    18
100
AcDbSpline
210
0.0
220
0.0
230
1.0
 70
     8
 71
     3
 72
     8
 73
     4
 74
     0
 42
0.000000001
 43
0.00000001
 40
0.7812500000000075
 40
0.7812500000000075
 40
0.7812500000000075
 40
0.7812500000000075
 40
0.8125000000000064
 40
0.8125000000000064
 40
0.8125000000000064
 40
0.8125000000000064
 10
69.03397214311579
 20
18.18036437533403
 30
0.0
 10
68.47817656402272
 20
18.23129684832443
 30
0.0
 10
67.94512792004892
 20
18.30533008825098
 30
0.0
 10
67.43279008954723
 20
18.39632193127094
 30
0.0
  0
SPLINE
  5
272
330
1F
100
AcDbEntity
  8
SK3
  6
SLD-Dashed
370
    18
100
AcDbSpline
210
0.0
220
0.0
230
1.0
 70
     8
 71
     3
 72
     8
 73
     4
 74
     0
 42
0.000000001
 43
0.00000001
 40
0.8125000000000064
 40
0.8125000000000064
 40
0.8125000000000064
 40
0.8125000000000064
 40
0.8437500000000054
 40
0.8437500000000054
 40
0.8437500000000054
 40
0.8437500000000054
 10
67.43279008954723
 20
18.39632193127094
 30
0.0
 10
66.9204522590455
 20
18.48731377429092
 30
0.0
 10
66.42507652757007
 20
18.59647719612576
 30
0.0
 10
65.96747330759129
 20
18.7122101552532
 30
0.0
  0
SPLINE
  5
273
330
1F
100
AcDbEntity
  8
SK3
  6
SLD-Dashed
370
    18
100
AcDbSpline
210
0.0
220
0.0
230
1.0
 70
     8
 71
     3
 72
     8
 73
     4
 74
     0
 42
0.000000001
 43
0.00000001
 40
0.8437500000000054
 40
0.8437500000000054
 40
0.8437500000000054
 40
0.8437500000000054
 40
0.8750000000000043
 40
0.8750000000000043
 40
0.8750000000000043
 40
0.8750000000000043
 10
65.96747330759129
 20
18.7122101552532
 30
0.0
 10
65.5098700876125
 20
18.82794311438062
 30
0.0
 10
65.08606957547067
 20
18.95068804251523
 30
0.0
 10
64.6951989944075
 20
19.07374203235335
 30
0.0
  0
SPLINE
  5
274
330
1F
100
AcDbEntity
  8
SK3
  6
SLD-Dashed
370
    18
100
AcDbSpline
210
0.0
220
0.0
230
1.0
 70
     8
 71
     3
 72
     8
 73
     4
 74
     0
 42
0.000000001
 43
0.00000001
 40
0.8750000000000043
 40
0.8750000000000043
 40
0.8750000000000043
 40
0.8750000000000043
 40
0.8906250000000039
 40
0.8906250000000039
 40
0.8906250000000039
 40
0.8906250000000039
 10
64.6951989944075
 20
19.07374203235335
 30
0.0
 10
64.49976370387597
 20
19.13526902727243
 30
0.0
 10
64.31263718216249
 20
19.19690920384288
 30
0.0
 10
64.13759689832774
 20
19.25656081622153
 30
0.0
  0
SPLINE
  5
275
330
1F
100
AcDbEntity
  8
SK3
  6
SLD-Dashed
370
    18
100
AcDbSpline
210
0.0
220
0.0
230
1.0
 70
     8
 71
     3
 72
     8
 73
     4
 74
     0
 42
0.000000001
 43
0.00000001
 40
0.8906250000000039
 40
0.8906250000000039
 40
0.8906250000000039
 40
0.8906250000000039
 40
0.9062500000000033
 40
0.9062500000000033
 40
0.9062500000000033
 40
0.9062500000000033
 10
64.13759689832774
 20
19.25656081622153
 30
0.0
 10
63.96255661449296
 20
19.31621242860017
 30
0.0
 10
63.79854297932164
 20
19.37420295932887
 30
0.0
 10
63.6453711125515
 20
19.42981700221654
 30
0.0
  0
SPLINE
  5
276
330
1F
100
AcDbEntity
  8
SK3
  6
SLD-Dashed
370
    18
100
AcDbSpline
210
0.0
220
0.0
230
1.0
 70
     8
 71
     3
 72
     8
 73
     4
 74
     0
 42
0.000000001
 43
0.00000001
 40
0.9062500000000033
 40
0.9062500000000033
 40
0.9062500000000033
 40
0.9062500000000033
 40
0.9375000000000022
 40
0.9375000000000022
 40
0.9375000000000022
 40
0.9375000000000022
 10
63.6453711125515
 20
19.42981700221654
 30
0.0
 10
63.33902737901121
 20
19.54104508799188
 30
0.0
 10
63.07485150603942
 20
19.64315173112181
 30
0.0
 10
62.85831806240788
 20
19.72921629488505
 30
0.0
  0
SPLINE
  5
277
330
1F
100
AcDbEntity
  8
SK3
  6
SLD-Dashed
370
    18
100
AcDbSpline
210
0.0
220
0.0
230
1.0
 70
     8
 71
     3
 72
     8
 73
     4
 74
     0
 42
0.000000001
 43
0.00000001
 40
0.9375000000000022
 40
0.9375000000000022
 40
0.9375000000000022
 40
0.9375000000000022
 40
0.968750000000001
 40
0.968750000000001
 40
0.968750000000001
 40
0.968750000000001
 10
62.85831806240788
 20
19.72921629488505
 30
0.0
 10
62.64178461877634
 20
19.81528085864829
 30
0.0
 10
62.47874605506215
 20
19.8828805994771
 30
0.0
 10
62.36824943646488
 20
19.92907593073415
 30
0.0
  0
SPLINE
  5
278
330
1F
100
AcDbEntity
  8
SK3
  6
SLD-Dashed
370
    18
100
AcDbSpline
210
0.0
220
0.0
230
1.0
 70
     8
 71
     3
 72
     8
 73
     4
 74
     0
 42
0.000000001
 43
0.00000001
 40
0.968750000000001
 40
0.968750000000001
 40
0.968750000000001
 40
0.968750000000001
 40
0.9843750000000006
 40
0.9843750000000006
 40
0.9843750000000006
 40
0.9843750000000006
 10
62.36824943646488
 20
19.92907593073415
 30
0.0
 10
62.31300112716626
 20
19.95217359636266
 30
0.0
 10
62.27098688832717
 20
19.96991750995315
 30
0.0
 10
62.24270275468805
 20
19.98188871692467
 30
0.0
  0
SPLINE
  5
279
330
1F
100
AcDbEntity
  8
SK3
  6
SLD-Dashed
370
    18
100
AcDbSpline
210
0.0
220
0.0
230
1.0
 70
     8
 71
     2
 72
     6
 73
     3
 74
     0
 42
0.000000001
 43
0.00000001
 40
0.9843750000000006
 40
0.9843750000000006
 40
0.9843750000000006
 40
1.0
 40
1.0
 40
1.0
 10
62.24270275468805
 20
19.98188871692467
 30
0.0
 10
62.21441862104896
 20
19.99385992389619
 30
0.0
 10
62.2
 20
19.99999999999998
 30
0.0
  0
SPLINE
  5
27A
330
1F
100
AcDbEntity
  8
SK3
  6
SLD-Dashed
370
    18
100
AcDbSpline
210
0.0
220
0.0
230
1.0
 70
     8
 71
     3
 72
    18
 73
    14
 74
     0
 42
0.000000001
 43
0.00000001
 40
0.0
 40
0.0
 40
0.0
 40
0.0
 40
0.0502196103872393
 40
0.1000870260924269
 40
0.185508636894043
 40
0.250155080879186
 40
0.3746583157461185
 40
0.4998570853792876
 40
0.6242312608259408
 40
0.749432409948843
 40
0.8740366596180013
 40
0.9370350243166901
 40
1.0
 40
1.0
 40
1.0
 40
1.0
 10
3.699999999999974
 20
46.55608553132443
 30
0.0
 10
3.700143854852893
 20
46.56278755186001
 30
0.0
 10
3.700430555691602
 20
46.57614459105339
 30
0.0
 10
3.703274054818803
 20
46.60076085239341
 30
0.0
 10
3.708850025263314
 20
46.62692328764688
 30
0.0
 10
3.720514169271323
 20
46.66169890756612
 30
0.0
 10
3.739456592416629
 20
46.69941980690709
 30
0.0
 10
3.770128279112284
 20
46.73918434013717
 30
0.0
 10
3.808028636439613
 20
46.77229285140237
 30
0.0
 10
3.851698646431325
 20
46.79720148409477
 30
0.0
 10
3.891711812143372
 20
46.81006094110496
 30
0.0
 10
3.924780356068899
 20
46.81548545401083
 30
0.0
 10
3.941594937699494
 20
46.81599758847396
 30
0.0
 10
3.950000000000009
 20
46.81625358782998
 30
0.0
  0
SPLINE
  5
27B
330
1F
100
AcDbEntity
  8
SK3
  6
SLD-Dashed
370
    18
100
AcDbSpline
210
0.0
220
0.0
230
1.0
 70
     8
 71
     3
 72
    30
 73
    26
 74
     0
 42
0.000000001
 43
0.00000001
 40
0.4999999999999997
 40
0.4999999999999997
 40
0.4999999999999997
 40
0.4999999999999997
 40
0.5624999999999998
 40
0.5624999999999998
 40
0.6249999999999998
 40
0.6249999999999998
 40
0.6562499999999998
 40
0.6562499999999998
 40
0.6874999999999999
 40
0.6874999999999999
 40
0.7187499999999999
 40
0.7187499999999999
 40
0.75
 40
0.75
 40
0.78125
 40
0.78125
 40
0.8125000000000001
 40
0.8125000000000001
 40
0.8437500000000001
 40
0.8437500000000001
 40
0.8750000000000002
 40
0.8750000000000002
 40
0.9375000000000001
 40
0.9375000000000001
 40
1.0
 40
1.0
 40
1.0
 40
1.0
 10
11.12436591328741
 20
5.309061551556922
 30
0.0
 10
11.33987168856151
 20
5.309135121894126
 30
0.0
 10
11.55726809392076
 20
5.270777053767738
 30
0.0
 10
11.954542895422
 20
5.124082127907506
 30
0.0
 10
12.13838112079801
 20
5.014350511863997
 30
0.0
 10
12.36674314194752
 20
4.808404051991809
 30
0.0
 10
12.43642969974143
 20
4.731543474868129
 30
0.0
 10
12.55617157969231
 20
4.568463540703768
 30
0.0
 10
12.60695049438683
 20
4.48183647208606
 30
0.0
 10
12.69006011488474
 20
4.297948630822682
 30
0.0
 10
12.7218894306609
 20
4.201137306228612
 30
0.0
 10
12.76406792100183
 20
4.004999015154081
 30
0.0
 10
12.77490668888515
 20
3.904499034786582
 30
0.0
 10
12.77509211872524
 20
3.699534720125415
 30
0.0
 10
12.76447599657453
 20
3.598169916606789
 30
0.0
 10
12.72265428347032
 20
3.397643705646332
 30
0.0
 10
12.69091026767075
 20
3.297408274791233
 30
0.0
 10
12.60826636161166
 20
3.10587924991098
 30
0.0
 10
12.55766906368547
 20
3.014523490936137
 30
0.0
 10
12.43800593838744
 20
2.840798433450336
 30
0.0
 10
12.36852473740652
 20
2.758380635546148
 30
0.0
 10
12.14080554014711
 20
2.535838019871811
 30
0.0
 10
11.95704204690293
 20
2.41465353223478
 30
0.0
 10
11.56023146512521
 20
2.251755559321174
 30
0.0
 10
11.34333742006519
 20
2.20807601119713
 30
0.0
 10
11.125
 20
2.208076011197123
 30
0.0
  0
SPLINE
  5
27C
330
1F
100
AcDbEntity
  8
SK3
  6
SLD-Dashed
370
    18
100
AcDbSpline
210
0.0
220
0.0
230
1.0
 70
     8
 71
     3
 72
    34
 73
    30
 74
     0
 42
0.000000001
 43
0.00000001
 40
0.0
 40
0.0
 40
0.0
 40
0.0
 40
0.0312500000000001
 40
0.0312500000000001
 40
0.0625000000000001
 40
0.0625000000000001
 40
0.0937500000000002
 40
0.0937500000000002
 40
0.1250000000000002
 40
0.1250000000000002
 40
0.1875
 40
0.1875
 40
0.2499999999999997
 40
0.2499999999999997
 40
0.2812499999999997
 40
0.2812499999999997
 40
0.3124999999999997
 40
0.3124999999999997
 40
0.3437499999999997
 40
0.3437499999999997
 40
0.3749999999999997
 40
0.3749999999999997
 40
0.4062499999999997
 40
0.4062499999999997
 40
0.4374999999999997
 40
0.4374999999999997
 40
0.4687499999999997
 40
0.4687499999999997
 40
0.4999999999999997
 40
0.4999999999999997
 40
0.4999999999999997
 40
0.4999999999999997
 10
11.125
 20
2.20807601119713
 30
0.0
 10
11.01583128996742
 20
2.20807601119713
 30
0.0
 10
10.90851747443068
 20
2.218712438100928
 30
0.0
 10
10.69743839976837
 20
2.260296858835574
 30
0.0
 10
10.59256796952454
 20
2.291759353259947
 30
0.0
 10
10.3928280140594
 20
2.373555205373613
 30
0.0
 10
10.29811782955152
 20
2.423509628226156
 30
0.0
 10
10.11887542494276
 20
2.54111458390787
 30
0.0
 10
10.03412703573854
 20
2.609294845854239
 30
0.0
 10
9.806182200157387
 20
2.831771837438358
 30
0.0
 10
9.68329483325002
 20
3.01001655459264
 30
0.0
 10
9.518613327833602
 20
3.390759943898564
 30
0.0
 10
9.475122079642004
 20
3.597272475835467
 30
0.0
 10
9.474939355443745
 20
3.901097591317383
 30
0.0
 10
9.485685185608702
 20
4.003434499602339
 30
0.0
 10
9.5278407310964
 20
4.200293854804617
 30
0.0
 10
9.55902971205841
 20
4.295473899993262
 30
0.0
 10
9.641780605110368
 20
4.479477843829398
 30
0.0
 10
9.693378168396883
 20
4.567722017178373
 30
0.0
 10
9.812718794814254
 20
4.730510706064027
 30
0.0
 10
9.881024517103528
 20
4.806208116124387
 30
0.0
 10
10.03474791503922
 20
4.945204256680394
 30
0.0
 10
10.11790941669588
 20
5.006521730708584
 30
0.0
 10
10.29642492313948
 20
5.113728914877706
 30
0.0
 10
10.39294641915069
 20
5.159988239582878
 30
0.0
 10
10.59259055817322
 20
5.233890455420338
 30
0.0
 10
10.69543180415419
 20
5.261724005488279
 30
0.0
 10
10.90715408445177
 20
5.299397422676627
 30
0.0
 10
11.01661302565036
 20
5.309024766388316
 30
0.0
 10
11.12436591328741
 20
5.309061551556922
 30
0.0
  0
SPLINE
  5
27D
330
1F
100
AcDbEntity
  8
SK3
  6
SLD-Dashed
370
    18
100
AcDbSpline
210
0.0
220
0.0
230
1.0
 70
     8
 71
     3
 72
    34
 73
    30
 74
     0
 42
0.000000001
 43
0.00000001
 40
0.499999999999998
 40
0.499999999999998
 40
0.499999999999998
 40
0.499999999999998
 40
0.5312499999999979
 40
0.5312499999999979
 40
0.5624999999999978
 40
0.5624999999999978
 40
0.5937499999999976
 40
0.5937499999999976
 40
0.6249999999999974
 40
0.6249999999999974
 40
0.6562499999999973
 40
0.6562499999999973
 40
0.6874999999999972
 40
0.6874999999999972
 40
0.7499999999999969
 40
0.7499999999999969
 40
0.8124999999999973
 40
0.8124999999999973
 40
0.8437499999999978
 40
0.8437499999999978
 40
0.8749999999999982
 40
0.8749999999999982
 40
0.9062499999999987
 40
0.9062499999999987
 40
0.937499999999999
 40
0.937499999999999
 40
0.9687499999999994
 40
0.9687499999999994
 40
1.0
 40
1.0
 40
1.0
 40
1.0
 10
9.638805742161722
 20
10.95392502366161
 30
0.0
 10
9.693881160736314
 20
10.84705887039519
 30
0.0
 10
9.763179283156633
 20
10.74439645836095
 30
0.0
 10
9.923515798149985
 20
10.55592715127707
 30
0.0
 10
10.01390276352453
 20
10.47020735344791
 30
0.0
 10
10.21445694949211
 20
10.31296552728877
 30
0.0
 10
10.32267837600209
 20
10.24333508542226
 30
0.0
 10
10.5430752649812
 20
10.1228893595139
 30
0.0
 10
10.65791658596822
 20
10.0707037473172
 30
0.0
 10
10.87819871140988
 20
9.984463182040853
 30
0.0
 10
10.98608094611136
 20
9.94920527973782
 30
0.0
 10
11.18968749579594
 20
9.892304259468986
 30
0.0
 10
11.28527842069084
 20
9.870580048613798
 30
0.0
 10
11.55898297450221
 20
9.820769890309965
 30
0.0
 10
11.72337034356695
 20
9.80809678954872
 30
0.0
 10
12.02194861504764
 20
9.821477532699754
 30
0.0
 10
12.15920875119766
 20
9.847310188176708
 30
0.0
 10
12.34760730605759
 20
9.927824692744412
 30
0.0
 10
12.40688352391459
 20
9.96150374700336
 30
0.0
 10
12.51780294837553
 20
10.04749808647179
 30
0.0
 10
12.56969006353045
 20
10.10021829085829
 30
0.0
 10
12.65991931900842
 20
10.22933776798928
 30
0.0
 10
12.69929072119649
 20
10.30748393412818
 30
0.0
 10
12.75586568636477
 20
10.4930273204103
 30
0.0
 10
12.77303399215494
 20
10.60290348381504
 30
0.0
 10
12.77663319740259
 20
10.83901366027913
 30
0.0
 10
12.76306993948381
 20
10.9676677110813
 30
0.0
 10
12.71170841969953
 20
11.21837738140152
 30
0.0
 10
12.67469993892524
 20
11.34057418425333
 30
0.0
 10
12.63040931107559
 20
11.45745606890562
 30
0.0
  0
SPLINE
  5
27E
330
1F
100
AcDbEntity
  8
SK3
  6
SLD-Dashed
370
    18
100
AcDbSpline
210
0.0
220
0.0
230
1.0
 70
     8
 71
     3
 72
    26
 73
    22
 74
     0
 42
0.000000001
 43
0.00000001
 40
0.0
 40
0.0
 40
0.0
 40
0.0
 40
0.0624999999999995
 40
0.0624999999999995
 40
0.124999999999999
 40
0.124999999999999
 40
0.1874999999999986
 40
0.1874999999999986
 40
0.2499999999999981
 40
0.2499999999999981
 40
0.281249999999998
 40
0.281249999999998
 40
0.3124999999999979
 40
0.3124999999999979
 40
0.3749999999999981
 40
0.3749999999999981
 40
0.4374999999999984
 40
0.4374999999999984
 40
0.4687499999999982
 40
0.4687499999999982
 40
0.499999999999998
 40
0.499999999999998
 40
0.499999999999998
 40
0.499999999999998
 10
12.63040931107559
 20
11.45745606890562
 30
0.0
 10
12.54182805537629
 20
11.69121983821018
 30
0.0
 10
12.43200682775378
 20
11.89056157115176
 30
0.0
 10
12.18419932759159
 20
12.25514411813747
 30
0.0
 10
12.04834522926919
 20
12.41463399152624
 30
0.0
 10
11.7531401364613
 20
12.69173524411803
 30
0.0
 10
11.59091385222424
 20
12.81202758601128
 30
0.0
 10
11.23004729019513
 20
12.99241430793244
 30
0.0
 10
11.02728334192551
 20
13.05343833574646
 30
0.0
 10
10.69987000905186
 20
13.05646994226837
 30
0.0
 10
10.58531472788943
 20
13.04197607005519
 30
0.0
 10
10.36396153134629
 20
12.97944613660275
 30
0.0
 10
10.25449961952682
 20
12.93102694430324
 30
0.0
 10
9.947578697971318
 20
12.73948161914286
 30
0.0
 10
9.776646578307208
 20
12.55346040827496
 30
0.0
 10
9.542451961566195
 20
12.1267803099925
 30
0.0
 10
9.478612055377935
 20
11.88580640702581
 30
0.0
 10
9.473421112414282
 20
11.52565520755326
 30
0.0
 10
9.486345898652646
 20
11.40749361566878
 30
0.0
 10
9.541390615621022
 20
11.17459151908688
 30
0.0
 10
9.583730323587128
 20
11.06079117692802
 30
0.0
 10
9.638805742161722
 20
10.95392502366161
 30
0.0
  0
SPLINE
  5
27F
330
1F
100
AcDbEntity
  8
SK3
  6
SLD-Dashed
370
    18
100
AcDbSpline
210
0.0
220
0.0
230
1.0
 70
     8
 71
     3
 72
    18
 73
    14
 74
     0
 42
0.000000001
 43
0.00000001
 40
0.0
 40
0.0
 40
0.0
 40
0.0
 40
0.0501962867734933
 40
0.100030621443722
 40
0.1855667331187706
 40
0.2501823892320661
 40
0.3747066158220745
 40
0.4998232982189725
 40
0.6247294758455316
 40
0.7494251058857281
 40
0.8746331028690637
 40
0.9372230808189629
 40
1.0
 40
1.0
 40
1.0
 40
1.0
 10
3.949999999999989
 20
46.81625358782996
 30
0.0
 10
3.943300488172049
 20
46.81609127853698
 30
0.0
 10
3.929949772918059
 20
46.81576783032028
 30
0.0
 10
3.905360779048052
 20
46.81256776526224
 30
0.0
 10
3.879327985377789
 20
46.80630579793132
 30
0.0
 10
3.844998498051069
 20
46.7933155554719
 30
0.0
 10
3.808260602500884
 20
46.77247000397299
 30
0.0
 10
3.770344503827415
 20
46.73942242416843
 30
0.0
 10
3.739587180509231
 20
46.69961163074885
 30
0.0
 10
3.716933654940716
 20
46.6546887511002
 30
0.0
 10
3.705476597958083
 20
46.61434662644382
 30
0.0
 10
3.700675324942489
 20
46.5811984782934
 30
0.0
 10
3.700225331983622
 20
46.56446483112379
 30
0.0
 10
3.700000000000009
 20
46.55608553132446
 30
0.0
  0
SPLINE
  5
280
330
1F
100
AcDbEntity
  8
1
  6
SLD-Dashed
370
    18
100
AcDbSpline
210
0.0
220
0.0
230
1.0
 70
     8
 71
     3
 72
    10
 73
     6
 74
     0
 42
0.000000001
 43
0.00000001
 40
0.0
 40
0.0
 40
0.0
 40
0.0
 40
0.5
 40
0.5
 40
1.0
 40
1.0
 40
1.0
 40
1.0
 10
9.950000000001241
 20
43.76943596849409
 30
0.0
 10
9.748771536222423
 20
43.76943596849378
 30
0.0
 10
9.550990673892233
 20
43.85856672856774
 30
0.0
 10
9.277097785724045
 20
44.15022946993273
 30
0.0
 10
9.20000000000038
 20
44.34957328976746
 30
0.0
 10
9.199999999999985
 20
44.551021593225
 30
0.0
  0
SPLINE
  5
281
330
1F
100
AcDbEntity
  8
1
  6
SLD-Dashed
370
    18
100
AcDbSpline
210
0.0
220
0.0
230
1.0
 70
     8
 71
     3
 72
    12
 73
     8
 74
     0
 42
0.000000001
 43
0.00000001
 40
0.0
 40
0.0
 40
0.0
 40
0.0
 40
0.5000000000000048
 40
0.5000000000000048
 40
0.7500000000000023
 40
0.7500000000000023
 40
1.0
 40
1.0
 40
1.0
 40
1.0
 10
13.02999999999991
 20
44.55102159322491
 30
0.0
 10
13.02999999999989
 20
44.35104831812323
 30
0.0
 10
12.95399603318284
 20
44.15150826736609
 30
0.0
 10
12.74724095984754
 20
43.93116827138053
 30
0.0
 10
12.66314206268639
 20
43.87128621650957
 30
0.0
 10
12.48048875274074
 20
43.7908422871653
 30
0.0
 10
12.37984375713171
 20
43.76943596849289
 30
0.0
 10
12.28000000000003
 20
43.76943596849289
 30
0.0
  0
SPLINE
  5
282
330
1F
100
AcDbEntity
  8
1
  6
SLD-Dashed
370
    18
100
AcDbSpline
210
0.0
220
0.0
230
1.0
 70
     8
 71
     3
 72
     8
 73
     4
 74
     0
 42
0.000000001
 43
0.00000001
 40
0.0
 40
0.0
 40
0.0
 40
0.0
 40
1.0
 40
1.0
 40
1.0
 40
1.0
 10
14.63972339340268
 20
47.4754841997425
 30
0.0
 10
14.1022311018713
 20
46.5105074938454
 30
0.0
 10
13.56559777714787
 20
45.54504300562702
 30
0.0
 10
13.03
 20
44.57901066343646
 30
0.0
  0
SPLINE
  5
283
330
1F
100
AcDbEntity
  8
1
  6
SLD-Dashed
370
    18
100
AcDbSpline
210
0.0
220
0.0
230
1.0
 70
     8
 71
     3
 72
    12
 73
     8
 74
     0
 42
0.000000001
 43
0.00000001
 40
0.0
 40
0.0
 40
0.0
 40
0.0
 40
0.2499999999999983
 40
0.2499999999999983
 40
0.4999999999999967
 40
0.4999999999999967
 40
1.0
 40
1.0
 40
1.0
 40
1.0
 10
19.05000000000022
 20
46.6976348437475
 30
0.0
 10
19.05000000000018
 20
46.79851095846149
 30
0.0
 10
19.03137059366225
 20
46.89733966428928
 30
0.0
 10
18.95815575330315
 20
47.08411469648331
 30
0.0
 10
18.90402082648714
 20
47.16991322229985
 30
0.0
 10
18.69812814693775
 20
47.38753444472504
 30
0.0
 10
18.50197314321866
 20
47.47548419974257
 30
0.0
 10
18.30000000000001
 20
47.4754841997425
 30
0.0
  0
SPLINE
  5
284
330
1F
100
AcDbEntity
  8
1
  6
SLD-Dashed
370
    18
100
AcDbSpline
210
0.0
220
0.0
230
1.0
 70
     8
 71
     3
 72
     8
 73
     4
 74
     0
 42
0.000000001
 43
0.00000001
 40
0.0
 40
0.0
 40
0.0
 40
0.0
 40
1.0
 40
1.0
 40
1.0
 40
1.0
 10
9.200000000002012
 20
44.5790106634328
 30
0.0
 10
8.786353866861454
 20
45.32508460154088
 30
0.0
 10
8.372088490924037
 20
46.07082082932838
 30
0.0
 10
7.957289380062113
 20
46.81625358782998
 30
0.0
  0
SPLINE
  5
285
330
1F
100
AcDbEntity
  8
1
  6
SLD-Dashed
370
    18
100
AcDbSpline
210
0.0
220
0.0
230
1.0
 70
     8
 71
     3
 72
    12
 73
     8
 74
     0
 42
0.000000001
 43
0.00000001
 40
0.0
 40
0.0
 40
0.0
 40
0.0
 40
0.2499999999999967
 40
0.2499999999999967
 40
0.4999999999999933
 40
0.4999999999999933
 40
1.0
 40
1.0
 40
1.0
 40
1.0
 10
3.1999999999998
 20
-46.69763484374751
 30
0.0
 10
3.199999999999842
 20
-46.79851095846153
 30
0.0
 10
3.218629406337797
 20
-46.89733966428928
 30
0.0
 10
3.291844246696887
 20
-47.08411469648333
 30
0.0
 10
3.345979173512786
 20
-47.16991322229988
 30
0.0
 10
3.551871853062272
 20
-47.38753444472505
 30
0.0
 10
3.74802685678137
 20
-47.47548419974257
 30
0.0
 10
3.950000000000009
 20
-47.47548419974251
 30
0.0
  0
SPLINE
  5
286
330
1F
100
AcDbEntity
  8
1
  6
SLD-Dashed
370
    18
100
AcDbSpline
210
0.0
220
0.0
230
1.0
 70
     8
 71
     3
 72
    12
 73
     8
 74
     0
 42
0.000000001
 43
0.00000001
 40
0.0
 40
0.0
 40
0.0
 40
0.0
 40
0.2499999999999985
 40
0.2499999999999985
 40
0.499999999999997
 40
0.499999999999997
 40
1.0
 40
1.0
 40
1.0
 40
1.0
 10
18.30000000000035
 20
-47.47548419974282
 30
0.0
 10
18.40091596910977
 20
-47.47548419974277
 30
0.0
 10
18.5000215825229
 20
-47.45437693482728
 30
0.0
 10
18.6831522699248
 20
-47.37426897057841
 30
0.0
 10
18.76654490405295
 20
-47.31511647588049
 30
0.0
 10
18.97195148872762
 20
-47.09831987092239
 30
0.0
 10
19.05000000000009
 20
-46.89926900274106
 30
0.0
 10
19.05000000000001
 20
-46.69763484374773
 30
0.0
  0
SPLINE
  5
287
330
1F
100
AcDbEntity
  8
1
  6
SLD-Dashed
370
    18
100
AcDbSpline
210
0.0
220
0.0
230
1.0
 70
     8
 71
     3
 72
     8
 73
     4
 74
     0
 42
0.000000001
 43
0.00000001
 40
0.0
 40
0.0
 40
0.0
 40
0.0
 40
1.0
 40
1.0
 40
1.0
 40
1.0
 10
14.63972339340268
 20
-47.47548419974252
 30
0.0
 10
14.10222500453559
 20
-46.51049654710811
 30
0.0
 10
13.56559195163211
 20
-45.5450324984202
 30
0.0
 10
13.03
 20
-44.5790106634365
 30
0.0
  0
SPLINE
  5
288
330
1F
100
AcDbEntity
  8
1
  6
SLD-Dashed
370
    18
100
AcDbSpline
210
0.0
220
0.0
230
1.0
 70
     8
 71
     3
 72
    12
 73
     8
 74
     0
 42
0.000000001
 43
0.00000001
 40
0.0
 40
0.0
 40
0.0
 40
0.0
 40
0.5
 40
0.5
 40
0.75
 40
0.75
 40
1.0
 40
1.0
 40
1.0
 40
1.0
 10
13.03000000000027
 20
-44.5510215932253
 30
0.0
 10
13.03000000000034
 20
-44.35094747116187
 30
0.0
 10
12.95238692985022
 20
-44.14958800989087
 30
0.0
 10
12.74748896269969
 20
-43.93153570225751
 30
0.0
 10
12.6637277001479
 20
-43.87162606259757
 30
0.0
 10
12.48090790509572
 20
-43.79094541821723
 30
0.0
 10
12.3805733178244
 20
-43.76943596849288
 30
0.0
 10
12.28000000000003
 20
-43.7694359684929
 30
0.0
  0
SPLINE
  5
289
330
1F
100
AcDbEntity
  8
1
  6
SLD-Dashed
370
    18
100
AcDbSpline
210
0.0
220
0.0
230
1.0
 70
     8
 71
     3
 72
    12
 73
     8
 74
     0
 42
0.000000001
 43
0.00000001
 40
0.0
 40
0.0
 40
0.0
 40
0.0
 40
0.2500000000000039
 40
0.2500000000000039
 40
0.5000000000000078
 40
0.5000000000000078
 40
1.0
 40
1.0
 40
1.0
 40
1.0
 10
9.949999999999816
 20
-43.76943596849308
 30
0.0
 10
9.850030395358807
 20
-43.76943596849312
 30
0.0
 10
9.750114974766241
 20
-43.79051518316427
 30
0.0
 10
9.565507057761266
 20
-43.8719426284371
 30
0.0
 10
9.482715011846745
 20
-43.93126060501227
 30
0.0
 10
9.276579660402877
 20
-44.15080408372876
 30
0.0
 10
9.20000000000004
 20
-44.35163254795804
 30
0.0
 10
9.199999999999985
 20
-44.55102159322501
 30
0.0
  0
SPLINE
  5
28A
330
1F
100
AcDbEntity
  8
1
  6
SLD-Dashed
370
    18
100
AcDbSpline
210
0.0
220
0.0
230
1.0
 70
     8
 71
     3
 72
     8
 73
     4
 74
     0
 42
0.000000001
 43
0.00000001
 40
0.0
 40
0.0
 40
0.0
 40
0.0
 40
1.0
 40
1.0
 40
1.0
 40
1.0
 10
9.199999999999985
 20
-44.57901066343649
 30
0.0
 10
8.664408048367878
 20
-45.54503249842018
 30
0.0
 10
8.127774995464424
 20
-46.5104965471081
 30
0.0
 10
7.590276606597349
 20
-47.4754841997425
 30
0.0
  0
SPLINE
  5
28B
330
1F
100
AcDbEntity
  8
SK3
  6
SLD-Dashed
370
    18
100
AcDbSpline
210
0.0
220
0.0
230
1.0
 70
     8
 71
     3
 72
    34
 73
    30
 74
     0
 42
0.000000001
 43
0.00000001
 40
0.5000000000000003
 40
0.5000000000000003
 40
0.5000000000000003
 40
0.5000000000000003
 40
0.5625000000000013
 40
0.5625000000000013
 40
0.5937500000000011
 40
0.5937500000000011
 40
0.625000000000001
 40
0.625000000000001
 40
0.6562500000000009
 40
0.6562500000000009
 40
0.6875000000000008
 40
0.6875000000000008
 40
0.7187500000000007
 40
0.7187500000000007
 40
0.7500000000000004
 40
0.7500000000000004
 40
0.7812500000000003
 40
0.7812500000000003
 40
0.8125000000000002
 40
0.8125000000000002
 40
0.8437500000000001
 40
0.8437500000000001
 40
0.875
 40
0.875
 40
0.9062499999999999
 40
0.9062499999999999
 40
0.9374999999999997
 40
0.9374999999999997
 40
1.0
 40
1.0
 40
1.0
 40
1.0
 10
10.60808274902045
 20
14.67518531385662
 30
0.0
 10
10.77143994352721
 20
14.66271400222902
 30
0.0
 10
10.95396076821072
 20
14.63137977172278
 30
0.0
 10
11.25812245907616
 20
14.54691770596559
 30
0.0
 10
11.36641585866906
 20
14.51171888144386
 30
0.0
 10
11.58574352105282
 20
14.42634662926305
 30
0.0
 10
11.69715944869879
 20
14.37625545607604
 30
0.0
 10
11.9211718066789
 20
14.25483711630819
 30
0.0
 10
12.02893523597723
 20
14.18587333985281
 30
0.0
 10
12.22961030853029
 20
14.02983333564745
 30
0.0
 10
12.3226774283587
 20
13.94226901556094
 30
0.0
 10
12.48372543018653
 20
13.75415019217109
 30
0.0
 10
12.553660539161
 20
13.6513032309926
 30
0.0
 10
12.66489321927142
 20
13.43691773984445
 30
0.0
 10
12.70717730188428
 20
13.3243511389457
 30
0.0
 10
12.76326417564931
 20
13.08988167819452
 30
0.0
 10
12.7763551192606
 20
12.97149039057747
 30
0.0
 10
12.77342672652903
 20
12.73211084337569
 30
0.0
 10
12.75684979458239
 20
12.61060743991046
 30
0.0
 10
12.69552150102995
 20
12.37773497196913
 30
0.0
 10
12.65033349294085
 20
12.26373909474824
 30
0.0
 10
12.53298957942556
 20
12.04909612932803
 30
0.0
 10
12.4621453620085
 20
11.95022400081659
 30
0.0
 10
12.29651277322139
 20
11.77143410287177
 30
0.0
 10
12.20150676240368
 20
11.69219588739499
 30
0.0
 10
11.99926684334574
 20
11.5653302009384
 30
0.0
 10
11.88885801145315
 20
11.51587497169278
 30
0.0
 10
11.55399205333034
 20
11.42069275726625
 30
0.0
 10
11.32716468948124
 20
11.42871083881322
 30
0.0
 10
11.125
 20
11.48273236161756
 30
0.0
  0
SPLINE
  5
28C
330
1F
100
AcDbEntity
  8
SK3
  6
SLD-Dashed
370
    18
100
AcDbSpline
210
0.0
220
0.0
230
1.0
 70
     8
 71
     3
 72
    30
 73
    26
 74
     0
 42
0.000000001
 43
0.00000001
 40
0.0
 40
0.0
 40
0.0
 40
0.0
 40
0.0624999999999997
 40
0.0624999999999997
 40
0.1249999999999995
 40
0.1249999999999995
 40
0.1562499999999993
 40
0.1562499999999993
 40
0.1874999999999992
 40
0.1874999999999992
 40
0.2187499999999991
 40
0.2187499999999991
 40
0.2499999999999989
 40
0.2499999999999989
 40
0.2812499999999988
 40
0.2812499999999988
 40
0.3124999999999987
 40
0.3124999999999987
 40
0.3437499999999986
 40
0.3437499999999986
 40
0.3749999999999984
 40
0.3749999999999984
 40
0.4374999999999994
 40
0.4374999999999994
 40
0.5000000000000003
 40
0.5000000000000003
 40
0.5000000000000003
 40
0.5000000000000003
 10
11.125
 20
11.48273236161756
 30
0.0
 10
10.92283531051875
 20
11.53675388442191
 30
0.0
 10
10.74714710048234
 20
11.63024516394925
 30
0.0
 10
10.42066988662173
 20
11.8645443472223
 30
0.0
 10
10.27375737476434
 20
12.00407384287207
 30
0.0
 10
10.07148943268485
 20
12.2417783920363
 30
0.0
 10
10.00699015299672
 20
12.32609339770679
 30
0.0
 10
9.883509956371189
 20
12.5070100717513
 30
0.0
 10
9.824268573097845
 20
12.60415729348403
 30
0.0
 10
9.71515470609033
 20
12.8093465113155
 30
0.0
 10
9.664396735733465
 20
12.91903622889808
 30
0.0
 10
9.576981863499118
 20
13.14891853741636
 30
0.0
 10
9.540303532497477
 20
13.26831266228051
 30
0.0
 10
9.487704529938009
 20
13.52080982106194
 30
0.0
 10
9.473745253197983
 20
13.64846695671306
 30
0.0
 10
9.476438089560556
 20
13.88700257856811
 30
0.0
 10
9.493197896428024
 20
13.99682053671473
 30
0.0
 10
9.549353346861231
 20
14.18374939795268
 30
0.0
 10
9.58858947784802
 20
14.26231510462439
 30
0.0
 10
9.678480018824306
 20
14.39201189392007
 30
0.0
 10
9.730204466999195
 20
14.44496665500973
 30
0.0
 10
9.896348595184485
 20
14.57471258814563
 30
0.0
 10
10.02083275682619
 20
14.6245520934729
 30
0.0
 10
10.29708420272973
 20
14.68178062150163
 30
0.0
 10
10.44472555451369
 20
14.68765662548423
 30
0.0
 10
10.60808274902045
 20
14.67518531385662
 30
0.0
  0
DIMENSION
  5
28D
330
1F
100
AcDbEntity
  8
2
100
AcDbDimension
  2
_D
 10
90.0
 20
67.5111657488
 30
0.0
 11
33.2552080338
 21
67.5111657488
 31
0.0
 70
   160
  1
<>
 71
     2
 42
-1.0
  3
SLDDIMSTYLE0
100
AcDbAlignedDimension
 13
0.0
 23
34.925
 33
0.0
 14
90.0
 24
30.5
 34
0.0
100
AcDbRotatedDimension
  0
DIMENSION
  5
2A2
330
1F
100
AcDbEntity
  8
SK2
100
AcDbDimension
  2
_D_1
 10
90.0
 20
54.382856271
 30
0.0
 11
47.4521008411
 21
54.382856271
 31
0.0
 70
   160
  1
<>
 71
     2
 42
-1.0
  3
SLDDIMSTYLE0
100
AcDbAlignedDimension
 13
19.05
 23
46.6976348437
 33
0.0
 14
90.0
 24
30.5
 34
0.0
 50
0.0
100
AcDbRotatedDimension
  0
DIMENSION
  5
2B5
330
1F
100
AcDbEntity
  8
SK2
100
AcDbDimension
  2
_D_2
 10
19.05
 20
54.382856271
 30
0.0
 11
8.9831009761
 21
54.382856271
 31
0.0
 70
   160
  1
<>
 71
     2
 42
-1.0
  3
SLDDIMSTYLE1
100
AcDbAlignedDimension
 13
0.0
 23
34.925
 33
0.0
 14
19.05
 24
46.6976348437
 34
0.0
100
AcDbRotatedDimension
  0
DIMENSION
  5
2C0
330
1F
100
AcDbEntity
  8
SK2
100
AcDbDimension
  2
_D_3
 10
90.0
 20
40.6439277478
 30
0.0
 11
81.341457865
 21
40.6439277478
 31
0.0
 70
   160
  1
<>
 71
     2
 42
-1.0
  3
SLDDIMSTYLE0
100
AcDbAlignedDimension
 13
70.7
 23
32.25
 33
0.0
 14
90.0
 24
30.5
 34
0.0
100
AcDbRotatedDimension
  0
DIMENSION
  5
2D3
330
1F
100
AcDbEntity
  8
SK2
100
AcDbDimension
  2
_D_4
 10
70.7
 20
40.6439277478
 30
0.0
 11
56.0007674778
 21
40.6439277478
 31
0.0
 70
   160
  1
<>
 71
     2
 42
-1.0
  3
SLDDIMSTYLE0
100
AcDbAlignedDimension
 13
37.8
 23
32.25
 33
0.0
 14
70.7
 24
32.25
 34
0.0
100
AcDbRotatedDimension
  0
DIMENSION
  5
2E6
330
1F
100
AcDbEntity
  8
SK2
100
AcDbDimension
  2
_D_5
 10
107.1593500037
 20
-20.0
 30
0.0
 11
107.1593500037
 21
-0.7255125832
 31
0.0
 70
   160
  1
%%c<>
 71
     2
 42
-1.0
  3
SLDDIMSTYLE2
100
AcDbAlignedDimension
 13
83.6350528212
 23
20.0
 33
0.0
 14
88.0947441117
 24
-20.0
 34
0.0
 50
90.0
100
AcDbRotatedDimension
  0
DIMENSION
  5
2F9
330
1F
100
AcDbEntity
  8
SK2
100
AcDbDimension
  2
_D_6
 10
123.2150324016
 20
-30.5
 30
0.0
 11
123.2150324016
 21
-0.7255125832
 31
0.0
 70
   160
  1
%%c<>
 71
     2
 42
-1.0
  3
SLDDIMSTYLE0
100
AcDbAlignedDimension
 13
90.0
 23
30.5
 33
0.0
 14
90.0
 24
-30.5
 34
0.0
 50
90.0
100
AcDbRotatedDimension
  0
DIMENSION
  5
30B
330
1F
100
AcDbEntity
  8
SK2
100
AcDbDimension
  2
_D_7
 10
136.0495748369
 20
32.5
 30
0.0
 11
136.0495748369
 21
-0.7255125832
 31
0.0
 70
   160
  1
%%c<>
 71
     2
 42
-1.0
  3
SLDDIMSTYLE0
100
AcDbAlignedDimension
 13
88.0
 23
-32.5
 33
0.0
 14
88.0
 24
32.5
 34
0.0
 50
90.0
100
AcDbRotatedDimension
  0
DIMENSION
  5
31D
330
1F
100
AcDbEntity
  8
SK2
100
AcDbDimension
  2
_D_8
 10
90.0
 20
-68.4058769943
 30
0.0
 11
-1.721505907
 21
-68.4058769943
 31
0.0
 70
   160
  1
<>
 71
     2
 42
-1.0
  3
SLDDIMSTYLE2
100
AcDbAlignedDimension
 13
-101.6
 23
-18.2922326599
 33
0.0
 14
90.0
 24
-30.5
 34
0.0
100
AcDbRotatedDimension
  0
DIMENSION
  5
330
330
1F
100
AcDbEntity
  8
SK2
100
AcDbDimension
  2
_D_9
 10
90.0
 20
-58.6957140312
 30
0.0
 11
58.8694487034
 21
-58.6957140312
 31
0.0
 70
   160
  1
<>
 71
     2
 42
-1.0
  3
SLDDIMSTYLE0
100
AcDbAlignedDimension
 13
22.098
 23
-32.5
 33
0.0
 14
90.0
 24
-30.5
 34
0.0
 50
0.0
100
AcDbRotatedDimension
  0
DIMENSION
  5
343
330
1F
100
AcDbEntity
  8
SK2
100
AcDbDimension
  2
_D_10
 10
90.0
 20
-43.7047188256
 30
0.0
 11
81.341457865
 21
-43.7047188256
 31
0.0
 70
   160
  1
<>
 71
     2
 42
-1.0
  3
SLDDIMSTYLE3
100
AcDbAlignedDimension
 13
88.0
 23
-32.5
 33
0.0
 14
90.0
 24
-30.5
 34
0.0
100
AcDbRotatedDimension
  0
DIMENSION
  5
350
330
1F
100
AcDbEntity
  8
SK2
100
AcDbDimension
  2
_D_11
 10
-119.2034901261
 20
-47.4754841997
 30
0.0
 11
-119.2034901261
 21
-2.9489912199
 31
0.0
 70
   160
  1
%%c<>
 71
     2
 42
-1.0
  3
SLDDIMSTYLE1
100
AcDbAlignedDimension
 13
3.95
 23
47.2968145978
 33
0.0
 14
3.95
 24
-47.4754841997
 34
0.0
 50
90.0
100
AcDbRotatedDimension
  0
DIMENSION
  5
35B
330
1F
100
AcDbEntity
  8
SK2
100
AcDbDimension
  2
_D_12
 10
-109.7564128284
 20
-12.6999998465
 30
0.0
 11
-109.7564128284
 21
-0.7255125832
 31
0.0
 70
   160
  1
<>
 71
     2
 42
-1.0
  3
SLDDIMSTYLE1
100
AcDbAlignedDimension
 13
-94.967097044
 23
12.6999998465
 33
0.0
 14
-94.967097044
 24
-12.6999998465
 34
0.0
 50
90.0
100
AcDbRotatedDimension
  0
MTEXT
  5
366
330
1F
100
AcDbEntity
  8
SK6
 62
     5
100
AcDbMText
 10
-55.6195571603
 20
-37.4662079964
 30
0.0
 40
3.5
 41
0.0
 71
     1
 72
     1
  1
A3B27-50 40 090
  7
SLDTEXTSTYLE0
 73
     1
 44
1.0
  0
MTEXT
  5
367
330
1F
100
AcDbEntity
  8
SK6
 62
     5
100
AcDbMText
 10
-62.0702512147
 20
40.2938458999
 30
0.0
 40
3.5
 41
0.0
 71
     1
 72
     1
  1
ASME B5.50 CAT 50
  7
SLDTEXTSTYLE0
 73
     1
 44
1.0
  0
ENDSEC
  0
SECTION
  2
OBJECTS
  0
DICTIONARY
  5
C
330
0
100
AcDbDictionary
281
     1
  3
ACAD_GROUP
350
D
  3
ACAD_LAYOUT
350
1A
  3
ACAD_MLINESTYLE
350
17
  3
ACAD_PLOTSETTINGS
350
19
  3
ACAD_PLOTSTYLENAME
350
E
  3
ACAD_SCALELIST
350
47
  0
DICTIONARY
  5
D
102
{ACAD_REACTORS
330
C
102
}
330
C
100
AcDbDictionary
281
     1
  0
DICTIONARY
  5
1A
102
{ACAD_REACTORS
330
C
102
}
330
C
100
AcDbDictionary
281
     1
  3
Layout1
350
1E
  3
Layout2
350
26
  3
Model
350
22
  0
DICTIONARY
  5
17
102
{ACAD_REACTORS
330
C
102
}
330
C
100
AcDbDictionary
281
     1
  3
Standard
350
18
  0
DICTIONARY
  5
19
102
{ACAD_REACTORS
330
C
102
}
330
C
100
AcDbDictionary
281
     1
  0
ACDBDICTIONARYWDFLT
  5
E
102
{ACAD_REACTORS
330
C
102
}
330
C
100
AcDbDictionary
281
     1
  3
Normal
350
F
100
AcDbDictionaryWithDefault
340
F
  0
DICTIONARY
  5
47
102
{ACAD_REACTORS
330
C
102
}
330
C
100
AcDbDictionary
281
     1
  3
A0
350
48
  3
A1
350
49
  3
A2
350
4A
  3
A3
350
4B
  3
A4
350
4C
  3
A5
350
4D
  3
A6
350
4E
  3
A7
350
4F
  3
A8
350
50
  3
A9
350
51
  3
B0
350
52
  3
B1
350
53
  3
B2
350
54
  3
B3
350
55
  3
B4
350
56
  3
B5
350
57
  3
B6
350
58
  3
B7
350
59
  3
B8
350
5A
  3
B9
350
5B
  3
C0
350
5C
  3
C1
350
5D
  3
C2
350
5E
  3
C3
350
5F
  3
C4
350
60
  3
C5
350
61
  3
C6
350
62
  3
C7
350
63
  3
C8
350
64
  3
C9
350
65
  3
D0
350
66
  3
D1
350
67
  3
D2
350
68
  0
LAYOUT
  5
1E
102
{ACAD_REACTORS
330
1A
102
}
330
1A
100
AcDbPlotSettings
  1

  2
none_device
  4

  6

 40
0.0
 41
0.0
 42
0.0
 43
0.0
 44
0.0
 45
0.0
 46
0.0
 47
0.0
 48
0.0
 49
0.0
140
0.0
141
0.0
142
1.0
143
1.0
 70
   688
 72
     1
 73
     0
 74
     5
  7

 75
    16
147
1.0
148
0.0
149
0.0
100
AcDbLayout
  1
Layout1
 70
     1
 71
     1
 10
0.0
 20
0.0
 11
420.0
 21
297.0
 12
0.0
 22
0.0
 32
0.0
 14
1.0000000000E+20
 24
1.0000000000E+20
 34
1.0000000000E+20
 15
-1.0000000000E+20
 25
-1.0000000000E+20
 35
-1.0000000000E+20
146
0.0
 13
0.0
 23
0.0
 33
0.0
 16
1.0
 26
0.0
 36
0.0
 17
0.0
 27
1.0
 37
0.0
 76
     0
330
1B
  0
LAYOUT
  5
26
102
{ACAD_REACTORS
330
1A
102
}
330
1A
100
AcDbPlotSettings
  1

  2
none_device
  4

  6

 40
0.0
 41
0.0
 42
0.0
 43
0.0
 44
0.0
 45
0.0
 46
0.0
 47
0.0
 48
0.0
 49
0.0
140
0.0
141
0.0
142
1.0
143
1.0
 70
   688
 72
     1
 73
     0
 74
     5
  7

 75
    16
147
1.0
148
0.0
149
0.0
100
AcDbLayout
  1
Layout2
 70
     1
 71
     2
 10
0.0
 20
0.0
 11
0.0
 21
0.0
 12
0.0
 22
0.0
 32
0.0
 14
0.0
 24
0.0
 34
0.0
 15
0.0
 25
0.0
 35
0.0
146
0.0
 13
0.0
 23
0.0
 33
0.0
 16
1.0
 26
0.0
 36
0.0
 17
0.0
 27
1.0
 37
0.0
 76
     0
330
23
  0
LAYOUT
  5
22
102
{ACAD_REACTORS
330
1A
102
}
330
1A
100
AcDbPlotSettings
  1

  2
none_device
  4
Letter_(8.50_x_11.00_Inches)
  6

 40
6.35
 41
6.35
 42
6.35000508
 43
6.35000508
 44
215.9
 45
279.4
 46
0.0
 47
0.0
 48
0.0
 49
0.0
140
0.0
141
0.0
142
1.0
143
1.0
 70
  1712
 72
     1
 73
     0
 74
     0
  7

 75
     0
147
1.0
148
0.0
149
0.0
100
AcDbLayout
  1
Model
 70
     1
 71
     0
 10
0.0
 20
0.0
 11
297.0
 21
210.0
 12
0.0
 22
0.0
 32
0.0
 14
0.0
 24
0.0
 34
0.0
 15
297.0
 25
210.0
 35
0.0
146
0.0
 13
0.0
 23
0.0
 33
0.0
 16
1.0
 26
0.0
 36
0.0
 17
0.0
 27
1.0
 37
0.0
 76
     0
330
1F
331
29
  0
MLINESTYLE
  5
18
102
{ACAD_REACTORS
330
17
102
}
330
17
100
AcDbMlineStyle
  2
Standard
 70
     0
  3

 62
   256
 51
90.0
 52
90.0
 71
     2
 49
0.5
 62
   256
  6
BYLAYER
 49
-0.5
 62
   256
  6
BYLAYER
  0
ACDBPLACEHOLDER
  5
F
102
{ACAD_REACTORS
330
E
102
}
330
E
  0
SCALE
  5
48
102
{ACAD_REACTORS
330
47
102
}
330
47
100
AcDbScale
 70
     0
300
1:1
140
1.0
141
1.0
290
     1
  0
SCALE
  5
49
102
{ACAD_REACTORS
330
47
102
}
330
47
100
AcDbScale
 70
     0
300
1:2
140
1.0
141
2.0
290
     0
  0
SCALE
  5
4A
102
{ACAD_REACTORS
330
47
102
}
330
47
100
AcDbScale
 70
     0
300
1:4
140
1.0
141
4.0
290
     0
  0
SCALE
  5
4B
102
{ACAD_REACTORS
330
47
102
}
330
47
100
AcDbScale
 70
     0
300
1:5
140
1.0
141
5.0
290
     0
  0
SCALE
  5
4C
102
{ACAD_REACTORS
330
47
102
}
330
47
100
AcDbScale
 70
     0
300
1:8
140
1.0
141
8.0
290
     0
  0
SCALE
  5
4D
102
{ACAD_REACTORS
330
47
102
}
330
47
100
AcDbScale
 70
     0
300
1:10
140
1.0
141
10.0
290
     0
  0
SCALE
  5
4E
102
{ACAD_REACTORS
330
47
102
}
330
47
100
AcDbScale
 70
     0
300
1:16
140
1.0
141
16.0
290
     0
  0
SCALE
  5
4F
102
{ACAD_REACTORS
330
47
102
}
330
47
100
AcDbScale
 70
     0
300
1:20
140
1.0
141
20.0
290
     0
  0
SCALE
  5
50
102
{ACAD_REACTORS
330
47
102
}
330
47
100
AcDbScale
 70
     0
300
1:30
140
1.0
141
30.0
290
     0
  0
SCALE
  5
51
102
{ACAD_REACTORS
330
47
102
}
330
47
100
AcDbScale
 70
     0
300
1:40
140
1.0
141
40.0
290
     0
  0
SCALE
  5
52
102
{ACAD_REACTORS
330
47
102
}
330
47
100
AcDbScale
 70
     0
300
1:50
140
1.0
141
50.0
290
     0
  0
SCALE
  5
53
102
{ACAD_REACTORS
330
47
102
}
330
47
100
AcDbScale
 70
     0
300
1:100
140
1.0
141
100.0
290
     0
  0
SCALE
  5
54
102
{ACAD_REACTORS
330
47
102
}
330
47
100
AcDbScale
 70
     0
300
2:1
140
2.0
141
1.0
290
     0
  0
SCALE
  5
55
102
{ACAD_REACTORS
330
47
102
}
330
47
100
AcDbScale
 70
     0
300
4:1
140
4.0
141
1.0
290
     0
  0
SCALE
  5
56
102
{ACAD_REACTORS
330
47
102
}
330
47
100
AcDbScale
 70
     0
300
8:1
140
8.0
141
1.0
290
     0
  0
SCALE
  5
57
102
{ACAD_REACTORS
330
47
102
}
330
47
100
AcDbScale
 70
     0
300
10:1
140
10.0
141
1.0
290
     0
  0
SCALE
  5
58
102
{ACAD_REACTORS
330
47
102
}
330
47
100
AcDbScale
 70
     0
300
100:1
140
100.0
141
1.0
290
     0
  0
SCALE
  5
59
102
{ACAD_REACTORS
330
47
102
}
330
47
100
AcDbScale
 70
     0
300
1/128" = 1'-0"
140
0.0078125
141
12.0
290
     0
  0
SCALE
  5
5A
102
{ACAD_REACTORS
330
47
102
}
330
47
100
AcDbScale
 70
     0
300
1/64" = 1'-0"
140
0.015625
141
12.0
290
     0
  0
SCALE
  5
5B
102
{ACAD_REACTORS
330
47
102
}
330
47
100
AcDbScale
 70
     0
300
1/32" = 1'-0"
140
0.03125
141
12.0
290
     0
  0
SCALE
  5
5C
102
{ACAD_REACTORS
330
47
102
}
330
47
100
AcDbScale
 70
     0
300
1/16" = 1'-0"
140
0.0625
141
12.0
290
     0
  0
SCALE
  5
5D
102
{ACAD_REACTORS
330
47
102
}
330
47
100
AcDbScale
 70
     0
300
3/32" = 1'-0"
140
0.09375
141
12.0
290
     0
  0
SCALE
  5
5E
102
{ACAD_REACTORS
330
47
102
}
330
47
100
AcDbScale
 70
     0
300
1/8" = 1'-0"
140
0.125
141
12.0
290
     0
  0
SCALE
  5
5F
102
{ACAD_REACTORS
330
47
102
}
330
47
100
AcDbScale
 70
     0
300
3/16" = 1'-0"
140
0.1875
141
12.0
290
     0
  0
SCALE
  5
60
102
{ACAD_REACTORS
330
47
102
}
330
47
100
AcDbScale
 70
     0
300
1/4" = 1'-0"
140
0.25
141
12.0
290
     0
  0
SCALE
  5
61
102
{ACAD_REACTORS
330
47
102
}
330
47
100
AcDbScale
 70
     0
300
3/8" = 1'-0"
140
0.375
141
12.0
290
     0
  0
SCALE
  5
62
102
{ACAD_REACTORS
330
47
102
}
330
47
100
AcDbScale
 70
     0
300
1/2" = 1'-0"
140
0.5
141
12.0
290
     0
  0
SCALE
  5
63
102
{ACAD_REACTORS
330
47
102
}
330
47
100
AcDbScale
 70
     0
300
3/4" = 1'-0"
140
0.75
141
12.0
290
     0
  0
SCALE
  5
64
102
{ACAD_REACTORS
330
47
102
}
330
47
100
AcDbScale
 70
     0
300
1" = 1'-0"
140
1.0
141
12.0
290
     0
  0
SCALE
  5
65
102
{ACAD_REACTORS
330
47
102
}
330
47
100
AcDbScale
 70
     0
300
1-1/2" = 1'-0"
140
1.5
141
12.0
290
     0
  0
SCALE
  5
66
102
{ACAD_REACTORS
330
47
102
}
330
47
100
AcDbScale
 70
     0
300
3" = 1'-0"
140
3.0
141
12.0
290
     0
  0
SCALE
  5
67
102
{ACAD_REACTORS
330
47
102
}
330
47
100
AcDbScale
 70
     0
300
6" = 1'-0"
140
6.0
141
12.0
290
     0
  0
SCALE
  5
68
102
{ACAD_REACTORS
330
47
102
}
330
47
100
AcDbScale
 70
     0
300
1'-0" = 1'-0"
140
12.0
141
12.0
290
     0
  0
ENDSEC
  0
EOF
