  0
SECTION
  2
HEADER
  9
$ACADVER
  1
AC1015
  9
$ACADMAINTVER
 70
     6
  9
$DWGCODEPAGE
  3
ANSI_1250
  9
$INSBASE
 10
0.0
 20
0.0
 30
0.0
  9
$EXTMIN
 10
0.0
 20
0.0
 30
0.0
  9
$EXTMAX
 10
297.0
 20
210.0
 30
0.0
  9
$LIMMIN
 10
0.0
 20
0.0
  9
$LIMMAX
 10
297.0
 20
210.0
  9
$ORTHOMODE
 70
     0
  9
$REGENMODE
 70
     1
  9
$FILLMODE
 70
     1
  9
$QTEXTMODE
 70
     0
  9
$MIRRTEXT
 70
     1
  9
$LTSCALE
 40
1.0
  9
$ATTMODE
 70
     1
  9
$TEXTSIZE
 40
3.5
  9
$TRACEWID
 40
1.0
  9
$TEXTSTYLE
  7
Standard
  9
$CLAYER
  8
0
  9
$CELTYPE
  6
ByLayer
  9
$CECOLOR
 62
   256
  9
$CELTSCALE
 40
1.0
  9
$DISPSILH
 70
     0
  9
$DIMSCALE
 40
1.0
  9
$DIMASZ
 40
3.302
  9
$DIMEXO
 40
1.0
  9
$DIMDLI
 40
3.75
  9
$DIMRND
 40
0.0
  9
$DIMDLE
 40
0.0
  9
$DIMEXE
 40
1.0
  9
$DIMTP
 40
0.0
  9
$DIMTM
 40
0.0
  9
$DIMTXT
 40
3.5
  9
$DIMCEN
 40
2.5
  9
$DIMTSZ
 40
0.0
  9
$DIMTOL
 70
     0
  9
$DIMLIM
 70
     0
  9
$DIMTIH
 70
     1
  9
$DIMTOH
 70
     1
  9
$DIMSE1
 70
     0
  9
$DIMSE2
 70
     0
  9
$DIMTAD
 70
     1
  9
$DIMZIN
 70
     0
  9
$DIMBLK
  1

  9
$DIMASO
 70
     1
  9
$DIMSHO
 70
     1
  9
$DIMPOST
  1

  9
$DIMAPOST
  1

  9
$DIMALT
 70
     0
  9
$DIMALTD
 70
     3
  9
$DIMALTF
 40
0.0393700787
  9
$DIMLFAC
 40
1.0
  9
$DIMTOFL
 70
     1
  9
$DIMTVP
 40
0.0
  9
$DIMTIX
 70
     0
  9
$DIMSOXD
 70
     0
  9
$DIMSAH
 70
     0
  9
$DIMBLK1
  1

  9
$DIMBLK2
  1

  9
$DIMSTYLE
  2
ISO-25
  9
$DIMCLRD
 70
     0
  9
$DIMCLRE
 70
     0
  9
$DIMCLRT
 70
     0
  9
$DIMTFAC
 40
1.0
  9
$DIMGAP
 40
1.524
  9
$DIMJUST
 70
     0
  9
$DIMSD1
 70
     0
  9
$DIMSD2
 70
     0
  9
$DIMTOLJ
 70
     0
  9
$DIMTZIN
 70
     0
  9
$DIMALTZ
 70
     0
  9
$DIMALTTZ
 70
     0
  9
$DIMUPT
 70
     0
  9
$DIMDEC
 70
     2
  9
$DIMTDEC
 70
     2
  9
$DIMALTU
 70
     2
  9
$DIMALTTD
 70
     3
  9
$DIMTXSTY
  7
Standard
  9
$DIMAUNIT
 70
     0
  9
$DIMADEC
 70
     2
  9
$DIMALTRND
 40
0.0
  9
$DIMAZIN
 70
     0
  9
$DIMDSEP
 70
    44
  9
$DIMATFIT
 70
     3
  9
$DIMFRAC
 70
     0
  9
$DIMLDRBLK
  1

  9
$DIMLUNIT
 70
     2
  9
$DIMLWD
 70
    -2
  9
$DIMLWE
 70
    -2
  9
$DIMTMOVE
 70
     0
  9
$LUNITS
 70
     2
  9
$LUPREC
 70
     2
  9
$SKETCHINC
 40
1.0
  9
$FILLETRAD
 40
10.0
  9
$AUNITS
 70
     0
  9
$AUPREC
 70
     2
  9
$MENU
  1
.
  9
$ELEVATION
 40
0.0
  9
$PELEVATION
 40
0.0
  9
$THICKNESS
 40
0.0
  9
$LIMCHECK
 70
     0
  9
$CHAMFERA
 40
0.0
  9
$CHAMFERB
 40
0.0
  9
$CHAMFERC
 40
0.0
  9
$CHAMFERD
 40
0.0
  9
$SKPOLY
 70
     0
  9
$TDCREATE
 40
2459278.341106192
  9
$TDUCREATE
 40
2459278.299439525
  9
$TDUPDATE
 40
2459278.341107905
  9
$TDUUPDATE
 40
2459278.299441238
  9
$TDINDWG
 40
0.0000000116
  9
$TDUSRTIMER
 40
0.0000000116
  9
$USRTIMER
 70
     1
  9
$ANGBASE
 50
0.0
  9
$ANGDIR
 70
     0
  9
$PDMODE
 70
     0
  9
$PDSIZE
 40
-1.0
  9
$PLINEWID
 40
0.0
  9
$SPLFRAME
 70
     0
  9
$SPLINETYPE
 70
     6
  9
$SPLINESEGS
 70
     8
  9
$HANDSEED
  5
35A
  9
$SURFTAB1
 70
     6
  9
$SURFTAB2
 70
     6
  9
$SURFTYPE
 70
     6
  9
$SURFU
 70
     6
  9
$SURFV
 70
     6
  9
$UCSBASE
  2

  9
$UCSNAME
  2

  9
$UCSORG
 10
0.0
 20
0.0
 30
0.0
  9
$UCSXDIR
 10
1.0
 20
0.0
 30
0.0
  9
$UCSYDIR
 10
0.0
 20
1.0
 30
0.0
  9
$UCSORTHOREF
  2

  9
$UCSORTHOVIEW
 70
     0
  9
$UCSORGTOP
 10
0.0
 20
0.0
 30
0.0
  9
$UCSORGBOTTOM
 10
0.0
 20
0.0
 30
0.0
  9
$UCSORGLEFT
 10
0.0
 20
0.0
 30
0.0
  9
$UCSORGRIGHT
 10
0.0
 20
0.0
 30
0.0
  9
$UCSORGFRONT
 10
0.0
 20
0.0
 30
0.0
  9
$UCSORGBACK
 10
0.0
 20
0.0
 30
0.0
  9
$PUCSBASE
  2

  9
$PUCSNAME
  2

  9
$PUCSORG
 10
0.0
 20
0.0
 30
0.0
  9
$PUCSXDIR
 10
1.0
 20
0.0
 30
0.0
  9
$PUCSYDIR
 10
0.0
 20
1.0
 30
0.0
  9
$PUCSORTHOREF
  2

  9
$PUCSORTHOVIEW
 70
     0
  9
$PUCSORGTOP
 10
0.0
 20
0.0
 30
0.0
  9
$PUCSORGBOTTOM
 10
0.0
 20
0.0
 30
0.0
  9
$PUCSORGLEFT
 10
0.0
 20
0.0
 30
0.0
  9
$PUCSORGRIGHT
 10
0.0
 20
0.0
 30
0.0
  9
$PUCSORGFRONT
 10
0.0
 20
0.0
 30
0.0
  9
$PUCSORGBACK
 10
0.0
 20
0.0
 30
0.0
  9
$USERI1
 70
     0
  9
$USERI2
 70
     0
  9
$USERI3
 70
     0
  9
$USERI4
 70
     0
  9
$USERI5
 70
     0
  9
$USERR1
 40
0.0
  9
$USERR2
 40
0.0
  9
$USERR3
 40
0.0
  9
$USERR4
 40
0.0
  9
$USERR5
 40
0.0
  9
$WORLDVIEW
 70
     1
  9
$SHADEDGE
 70
     3
  9
$SHADEDIF
 70
    70
  9
$TILEMODE
 70
     1
  9
$MAXACTVP
 70
    64
  9
$PINSBASE
 10
0.0
 20
0.0
 30
0.0
  9
$PLIMCHECK
 70
     0
  9
$PEXTMIN
 10
1.0000000000E+20
 20
1.0000000000E+20
 30
1.0000000000E+20
  9
$PEXTMAX
 10
-1.0000000000E+20
 20
-1.0000000000E+20
 30
-1.0000000000E+20
  9
$PLIMMIN
 10
0.0
 20
0.0
  9
$PLIMMAX
 10
420.0
 20
297.0
  9
$UNITMODE
 70
     0
  9
$VISRETAIN
 70
     1
  9
$PLINEGEN
 70
     0
  9
$PSLTSCALE
 70
     1
  9
$TREEDEPTH
 70
  3020
  9
$CMLSTYLE
  2
Standard
  9
$CMLJUST
 70
     0
  9
$CMLSCALE
 40
20.0
  9
$PROXYGRAPHICS
 70
     1
  9
$MEASUREMENT
 70
     1
  9
$CELWEIGHT
370
    -1
  9
$ENDCAPS
280
     0
  9
$JOINSTYLE
280
     0
  9
$LWDISPLAY
290
     1
  9
$INSUNITS
 70
     4
  9
$HYPERLINKBASE
  1

  9
$STYLESHEET
  1

  9
$XEDIT
290
     1
  9
$CEPSNTYPE
380
     0
  9
$PSTYLEMODE
290
     1
  9
$FINGERPRINTGUID
  2
{D3FE595E-FC07-4E6A-9DB2-64589287240A}
  9
$VERSIONGUID
  2
{FAEB1C32-E019-11D5-929B-00C0DF256EC4}
  9
$EXTNAMES
290
     1
  9
$PSVPSCALE
 40
0.0
  9
$OLESTARTUP
290
     0
  0
ENDSEC
  0
SECTION
  2
CLASSES
  0
CLASS
  1
ACDBDICTIONARYWDFLT
  2
AcDbDictionaryWithDefault
  3
ObjectDBX Classes
 90
        0
280
     0
281
     0
  0
CLASS
  1
VISUALSTYLE
  2
AcDbVisualStyle
  3
ObjectDBX Classes
 90
     4095
280
     0
281
     0
  0
CLASS
  1
MATERIAL
  2
AcDbMaterial
  3
ObjectDBX Classes
 90
     1153
280
     0
281
     0
  0
CLASS
  1
SCALE
  2
AcDbScale
  3
ObjectDBX Classes
 90
     1153
280
     0
281
     0
  0
CLASS
  1
TABLESTYLE
  2
AcDbTableStyle
  3
ObjectDBX Classes
 90
     4095
280
     0
281
     0
  0
CLASS
  1
MLEADERSTYLE
  2
AcDbMLeaderStyle
  3
ACDB_MLEADERSTYLE_CLASS
 90
     4095
280
     0
281
     0
  0
CLASS
  1
SUN
  2
AcDbSun
  3
SCENEOE
 90
     1153
280
     0
281
     0
  0
CLASS
  1
ACDBPLACEHOLDER
  2
AcDbPlaceHolder
  3
ObjectDBX Classes
 90
        0
280
     0
281
     0
  0
CLASS
  1
LAYOUT
  2
AcDbLayout
  3
ObjectDBX Classes
 90
        0
280
     0
281
     0
  0
ENDSEC
  0
SECTION
  2
TABLES
  0
TABLE
  2
VPORT
  5
8
330
0
100
AcDbSymbolTable
 70
     1
  0
VPORT
  5
29
330
8
100
AcDbSymbolTableRecord
100
AcDbViewportTableRecord
  2
*Active
 70
     0
 10
0.0
 20
0.0
 11
1.0
 21
1.0
 12
148.5
 22
105.0
 13
0.0
 23
0.0
 14
10.0
 24
10.0
 15
10.0
 25
10.0
 16
0.0
 26
0.0
 36
1.0
 17
0.0
 27
0.0
 37
0.0
 40
210.0
 41
1.4142857143
 42
50.0
 43
0.0
 44
0.0
 50
0.0
 51
0.0
 71
     0
 72
  2000
 73
     1
 74
     3
 75
     0
 76
     0
 77
     0
 78
     0
281
     0
 65
     1
110
0.0
120
0.0
130
0.0
111
1.0
121
0.0
131
0.0
112
0.0
122
1.0
132
0.0
 79
     0
146
0.0
  0
ENDTAB
  0
TABLE
  2
LTYPE
  5
5
330
0
100
AcDbSymbolTable
 70
     8
  0
LTYPE
  5
14
330
5
100
AcDbSymbolTableRecord
100
AcDbLinetypeTableRecord
  2
ByBlock
 70
     0
  3

 72
    65
 73
     0
 40
0.0
  0
LTYPE
  5
15
330
5
100
AcDbSymbolTableRecord
100
AcDbLinetypeTableRecord
  2
ByLayer
 70
     0
  3

 72
    65
 73
     0
 40
0.0
  0
LTYPE
  5
16
330
5
100
AcDbSymbolTableRecord
100
AcDbLinetypeTableRecord
  2
Continuous
 70
     0
  3
Solid line
 72
    65
 73
     0
 40
0.0
  0
LTYPE
  5
6E
330
5
100
AcDbSymbolTableRecord
100
AcDbLinetypeTableRecord
  2
SLD-Solid
 70
     0
  3
SolidWorks Line Style
 72
    65
 73
     0
 40
0.0
  0
LTYPE
  5
6F
330
5
100
AcDbSymbolTableRecord
100
AcDbLinetypeTableRecord
  2
SLD-Dashed
 70
     0
  3
SolidWorks Line Style
 72
    65
 73
     2
 40
1.905
 49
1.27
 74
     0
 49
-0.635
 74
     0
  0
LTYPE
  5
70
330
5
100
AcDbSymbolTableRecord
100
AcDbLinetypeTableRecord
  2
SLD-Phantom
 70
     0
  3
SolidWorks Line Style
 72
    65
 73
     6
 40
12.7
 49
6.35
 74
     0
 49
-1.27
 74
     0
 49
1.27
 74
     0
 49
-1.27
 74
     0
 49
1.27
 74
     0
 49
-1.27
 74
     0
  0
LTYPE
  5
71
330
5
100
AcDbSymbolTableRecord
100
AcDbLinetypeTableRecord
  2
SLD-Chain
 70
     0
  3
SolidWorks Line Style
 72
    65
 73
     4
 40
10.16
 49
6.35
 74
     0
 49
-1.27
 74
     0
 49
1.27
 74
     0
 49
-1.27
 74
     0
  0
LTYPE
  5
72
330
5
100
AcDbSymbolTableRecord
100
AcDbLinetypeTableRecord
  2
SLD-Center
 70
     0
  3
SolidWorks Line Style
 72
    65
 73
     4
 40
19.05
 49
15.24
 74
     0
 49
-1.27
 74
     0
 49
1.27
 74
     0
 49
-1.27
 74
     0
  0
LTYPE
  5
73
330
5
100
AcDbSymbolTableRecord
100
AcDbLinetypeTableRecord
  2
SLD-Stitch
 70
     0
  3
SolidWorks Line Style
 72
    65
 73
     2
 40
0.635
 49
0.0
 74
     0
 49
-0.635
 74
     0
  0
LTYPE
  5
74
330
5
100
AcDbSymbolTableRecord
100
AcDbLinetypeTableRecord
  2
SLD-Thin-Thick-Chain
 70
     0
  3
SolidWorks Line Style
 72
    65
 73
     4
 40
10.16
 49
6.35
 74
     0
 49
-1.27
 74
     0
 49
1.27
 74
     0
 49
-1.27
 74
     0
  0
ENDTAB
  0
TABLE
  2
LAYER
  5
2
330
0
100
AcDbSymbolTable
 70
    14
  0
LAYER
  5
10
330
2
100
AcDbSymbolTableRecord
100
AcDbLayerTableRecord
  2
0
 70
     0
 62
     7
  6
Continuous
370
    -3
390
F
  0
LAYER
  5
75
330
2
100
AcDbSymbolTableRecord
100
AcDbLayerTableRecord
  2
SLD-0
 70
     0
 62
   179
  6
SLD-Solid
370
    -3
390
F
  0
LAYER
  5
76
330
2
100
AcDbSymbolTableRecord
100
AcDbLayerTableRecord
  2
80
 70
     0
 62
    -6
  6
SLD-Solid
290
     0
370
    -3
390
F
  0
LAYER
  5
77
330
2
100
AcDbSymbolTableRecord
100
AcDbLayerTableRecord
  2
81
 70
     0
 62
    -3
  6
SLD-Solid
290
     0
370
    -3
390
F
  0
LAYER
  5
78
330
2
100
AcDbSymbolTableRecord
100
AcDbLayerTableRecord
  2
1
 70
     0
 62
     4
  6
SLD-Solid
290
     0
370
    -3
390
F
  0
LAYER
  5
79
330
2
100
AcDbSymbolTableRecord
100
AcDbLayerTableRecord
  2
4
 70
     0
 62
    -2
  6
SLD-Chain
290
     0
370
    -3
390
F
  0
LAYER
  5
7A
330
2
100
AcDbSymbolTableRecord
100
AcDbLayerTableRecord
  2
2
 70
     0
 62
     7
  6
SLD-Solid
290
     0
370
    -3
390
F
  0
LAYER
  5
7B
330
2
100
AcDbSymbolTableRecord
100
AcDbLayerTableRecord
  2
SK3
 70
     0
 62
     1
  6
SLD-Dashed
290
     0
370
    -3
390
F
  0
LAYER
  5
7C
330
2
100
AcDbSymbolTableRecord
100
AcDbLayerTableRecord
  2
SK4
 70
     0
 62
     2
  6
SLD-Chain
290
     0
370
    -3
390
F
  0
LAYER
  5
7D
330
2
100
AcDbSymbolTableRecord
100
AcDbLayerTableRecord
  2
SK2
 70
     0
 62
     7
  6
SLD-Solid
290
     0
370
    -3
390
F
  0
LAYER
  5
7E
330
2
100
AcDbSymbolTableRecord
100
AcDbLayerTableRecord
  2
SK6
 70
     0
 62
     5
  6
SLD-Solid
290
     0
370
    -3
390
F
  0
LAYER
  5
7F
330
2
100
AcDbSymbolTableRecord
100
AcDbLayerTableRecord
  2
6
 70
     0
 62
     5
  6
SLD-Solid
370
    -3
390
F
  0
LAYER
  5
80
330
2
100
AcDbSymbolTableRecord
100
AcDbLayerTableRecord
  2
SK1
 70
     0
 62
     4
  6
SLD-Solid
370
    -3
390
F
  0
LAYER
  5
81
330
2
100
AcDbSymbolTableRecord
100
AcDbLayerTableRecord
  2
LAYER5
 70
     0
 62
   218
  6
SLD-Solid
370
    -3
390
F
  0
ENDTAB
  0
TABLE
  2
STYLE
  5
3
330
0
100
AcDbSymbolTable
 70
     3
  0
STYLE
  5
11
330
3
100
AcDbSymbolTableRecord
100
AcDbTextStyleTableRecord
  2
Standard
 70
     0
 40
0.0
 41
1.0
 50
0.0
 71
     0
 42
3.5
  3
txt
  4

  0
STYLE
  5
27F
330
3
100
AcDbSymbolTableRecord
100
AcDbTextStyleTableRecord
  2
SLDTEXTSTYLE0
 70
     0
 40
0.0
 41
0.75
 50
0.0
 71
     0
 42
3.5
  3
TXT
  4

  0
STYLE
  5
356
330
3
100
AcDbSymbolTableRecord
100
AcDbTextStyleTableRecord
  2
SLDTEXTSTYLE1
 70
     0
 40
0.0
 41
0.6666666667
 50
0.0
 71
     0
 42
3.5
  3
TXT
  4

  0
ENDTAB
  0
TABLE
  2
VIEW
  5
6
330
0
100
AcDbSymbolTable
 70
     0
  0
ENDTAB
  0
TABLE
  2
UCS
  5
7
330
0
100
AcDbSymbolTable
 70
     0
  0
ENDTAB
  0
TABLE
  2
APPID
  5
9
330
0
100
AcDbSymbolTable
 70
     1
  0
APPID
  5
12
330
9
100
AcDbSymbolTableRecord
100
AcDbRegAppTableRecord
  2
ACAD
 70
     0
  0
ENDTAB
  0
TABLE
  2
DIMSTYLE
  5
A
330
0
100
AcDbSymbolTable
 70
     6
100
AcDbDimStyleTable
  0
DIMSTYLE
105
27
330
A
100
AcDbSymbolTableRecord
100
AcDbDimStyleTableRecord
  2
ISO-25
 70
     0
 41
2.5
 42
0.625
 43
3.75
 44
1.25
 73
     0
 74
     0
 77
     1
 78
     8
140
2.5
141
2.5
143
0.0393700787
147
0.625
171
     3
172
     1
178
     0
271
     2
272
     2
274
     3
278
    44
283
     0
284
     8
340
11
  0
DIMSTYLE
105
280
102
{ACAD_REACTORS
330
27E
330
293
330
2A6
330
2B9
330
2EA
330
2FC
330
322
102
}
330
A
100
AcDbSymbolTableRecord
100
AcDbDimStyleTableRecord
  2
SLDDIMSTYLE0
 70
     0
 41
3.302
 44
0.0
 45
0.000000001
 73
     0
 74
     0
 77
     1
 78
    12
 79
     3
140
3.5
143
0.0393700787
147
0.875
148
0.000000001
170
     1
173
     1
178
     0
271
     2
272
     2
276
     2
284
    12
340
27F
  0
DIMSTYLE
105
2CD
102
{ACAD_REACTORS
330
2CC
330
342
330
34D
102
}
330
A
100
AcDbSymbolTableRecord
100
AcDbDimStyleTableRecord
  2
SLDDIMSTYLE1
 70
     0
 41
3.302
 44
0.0
 45
0.000000001
 73
     0
 74
     0
 77
     1
 78
    12
 79
     3
140
3.5
147
0.875
173
     1
178
     0
271
     2
272
     2
276
     2
284
    12
340
27F
  0
DIMSTYLE
105
2D8
102
{ACAD_REACTORS
330
2D7
102
}
330
A
100
AcDbSymbolTableRecord
100
AcDbDimStyleTableRecord
  2
SLDDIMSTYLE2
 70
     0
 41
3.302
 44
0.0
 45
0.000000001
 73
     0
 74
     0
 77
     1
 78
    12
 79
     3
140
3.5
143
0.0393700787
147
0.875
148
0.000000001
170
     1
171
     3
173
     1
178
     0
271
     2
272
     2
274
     3
276
     2
284
    12
340
27F
  0
DIMSTYLE
105
30F
102
{ACAD_REACTORS
330
30E
102
}
330
A
100
AcDbSymbolTableRecord
100
AcDbDimStyleTableRecord
  2
SLDDIMSTYLE3
 70
     0
 41
3.302
 44
0.0
 45
0.000000001
 73
     0
 74
     0
 77
     1
 78
    12
 79
     3
140
3.5
143
0.0393700787
147
0.875
148
0.000000001
170
     1
171
     3
173
     1
178
     0
271
     3
272
     2
274
     3
276
     2
284
    12
340
27F
  0
DIMSTYLE
105
336
102
{ACAD_REACTORS
330
335
102
}
330
A
100
AcDbSymbolTableRecord
100
AcDbDimStyleTableRecord
  2
SLDDIMSTYLE4
 70
     0
 41
3.302
 44
0.0
 45
0.000000001
 73
     0
 74
     0
 77
     1
 78
    12
 79
     3
140
3.5
147
0.875
172
     1
173
     1
178
     0
271
     2
272
     2
276
     2
284
    12
289
     0
340
27F
  0
ENDTAB
  0
TABLE
  2
BLOCK_RECORD
  5
1
330
0
100
AcDbSymbolTable
 70
    14
  0
BLOCK_RECORD
  5
1F
330
1
100
AcDbSymbolTableRecord
100
AcDbBlockTableRecord
  2
*Model_Space
340
22
  0
BLOCK_RECORD
  5
1B
330
1
100
AcDbSymbolTableRecord
100
AcDbBlockTableRecord
  2
*Paper_Space
340
1E
  0
BLOCK_RECORD
  5
23
330
1
100
AcDbSymbolTableRecord
100
AcDbBlockTableRecord
  2
*Paper_Space0
340
26
  0
BLOCK_RECORD
  5
281
330
1
100
AcDbSymbolTableRecord
100
AcDbBlockTableRecord
  2
_D
340
0
  0
BLOCK_RECORD
  5
294
330
1
100
AcDbSymbolTableRecord
100
AcDbBlockTableRecord
  2
_D_1
340
0
  0
BLOCK_RECORD
  5
2A7
330
1
100
AcDbSymbolTableRecord
100
AcDbBlockTableRecord
  2
_D_2
340
0
  0
BLOCK_RECORD
  5
2BA
330
1
100
AcDbSymbolTableRecord
100
AcDbBlockTableRecord
  2
_D_3
340
0
  0
BLOCK_RECORD
  5
2CE
330
1
100
AcDbSymbolTableRecord
100
AcDbBlockTableRecord
  2
_D_4
340
0
  0
BLOCK_RECORD
  5
2D9
330
1
100
AcDbSymbolTableRecord
100
AcDbBlockTableRecord
  2
_D_5
340
0
  0
BLOCK_RECORD
  5
2EB
330
1
100
AcDbSymbolTableRecord
100
AcDbBlockTableRecord
  2
_D_6
340
0
  0
BLOCK_RECORD
  5
2FD
330
1
100
AcDbSymbolTableRecord
100
AcDbBlockTableRecord
  2
_D_7
340
0
  0
BLOCK_RECORD
  5
310
330
1
100
AcDbSymbolTableRecord
100
AcDbBlockTableRecord
  2
_D_8
340
0
  0
BLOCK_RECORD
  5
323
330
1
100
AcDbSymbolTableRecord
100
AcDbBlockTableRecord
  2
_D_9
340
0
  0
BLOCK_RECORD
  5
337
330
1
100
AcDbSymbolTableRecord
100
AcDbBlockTableRecord
  2
_D_10
340
0
  0
BLOCK_RECORD
  5
343
330
1
100
AcDbSymbolTableRecord
100
AcDbBlockTableRecord
  2
_D_11
340
0
  0
BLOCK_RECORD
  5
34E
330
1
100
AcDbSymbolTableRecord
100
AcDbBlockTableRecord
  2
_D_12
340
0
  0
ENDTAB
  0
ENDSEC
  0
SECTION
  2
BLOCKS
  0
BLOCK
  5
20
330
1F
100
AcDbEntity
  8
0
100
AcDbBlockBegin
  2
*Model_Space
 70
     0
 10
0.0
 20
0.0
 30
0.0
  3
*Model_Space
  1

  0
ENDBLK
  5
21
330
1F
100
AcDbEntity
  8
0
100
AcDbBlockEnd
  0
BLOCK
  5
1C
330
1B
100
AcDbEntity
 67
     1
  8
0
100
AcDbBlockBegin
  2
*Paper_Space
 70
     0
 10
0.0
 20
0.0
 30
0.0
  3
*Paper_Space
  1

  0
ENDBLK
  5
1D
330
1B
100
AcDbEntity
 67
     1
  8
0
100
AcDbBlockEnd
  0
BLOCK
  5
24
330
23
100
AcDbEntity
  8
0
100
AcDbBlockBegin
  2
*Paper_Space0
 70
     0
 10
0.0
 20
0.0
 30
0.0
  3
*Paper_Space0
  1

  0
ENDBLK
  5
25
330
23
100
AcDbEntity
  8
0
100
AcDbBlockEnd
  0
BLOCK
  5
282
330
281
100
AcDbEntity
  8
0
100
AcDbBlockBegin
  2
_D
 70
     0
 10
0.0
 20
0.0
 30
0.0
  3
_D
  1

  0
SOLID
  5
284
330
281
100
AcDbEntity
  8
2
100
AcDbTrace
 10
0.0
 20
67.0509249634
 30
0.0
 11
3.302
 21
66.5429249634
 31
0.0
 12
3.302
 22
67.5589249634
 32
0.0
 13
3.302
 23
67.5589249634
 33
0.0
  0
SOLID
  5
285
330
281
100
AcDbEntity
  8
2
100
AcDbTrace
 10
90.0
 20
67.0509249634
 30
0.0
 11
86.698
 21
67.5589249634
 31
0.0
 12
86.698
 22
66.5429249634
 32
0.0
 13
86.698
 23
66.5429249634
 33
0.0
  0
LINE
  5
286
330
281
100
AcDbEntity
  8
2
100
AcDbLine
 10
30.5479845554
 20
77.8438066794
 30
0.0
 11
29.481578298
 21
77.8438066794
 31
0.0
  0
LINE
  5
287
330
281
100
AcDbEntity
  8
2
100
AcDbLine
 10
29.481578298
 20
77.8438066794
 30
0.0
 11
29.481578298
 21
72.2875566884
 31
0.0
  0
LINE
  5
288
330
281
100
AcDbEntity
  8
2
100
AcDbLine
 10
29.481578298
 20
72.2875566884
 30
0.0
 11
30.5479845554
 21
72.2875566884
 31
0.0
  0
LINE
  5
289
330
281
100
AcDbEntity
  8
2
100
AcDbLine
 10
39.5993736163
 20
77.8438066794
 30
0.0
 11
40.6657798738
 21
77.8438066794
 31
0.0
  0
LINE
  5
28A
330
281
100
AcDbEntity
  8
2
100
AcDbLine
 10
40.6657798738
 20
77.8438066794
 30
0.0
 11
40.6657798738
 21
72.2875566884
 31
0.0
  0
LINE
  5
28B
330
281
100
AcDbEntity
  8
2
100
AcDbLine
 10
40.6657798738
 20
72.2875566884
 30
0.0
 11
39.5993736163
 21
72.2875566884
 31
0.0
  0
LINE
  5
28C
330
281
100
AcDbEntity
  8
2
100
AcDbLine
 10
0.0
 20
35.925
 30
0.0
 11
0.0
 21
68.0509249634
 31
0.0
  0
LINE
  5
28D
330
281
100
AcDbEntity
  8
2
100
AcDbLine
 10
90.0
 20
25.0
 30
0.0
 11
90.0
 21
68.0509249634
 31
0.0
  0
LINE
  5
28E
330
281
100
AcDbEntity
  8
2
100
AcDbLine
 10
0.0
 20
67.0509249634
 30
0.0
 11
90.0
 21
67.0509249634
 31
0.0
  0
MTEXT
  5
28F
330
281
100
AcDbEntity
  8
2
100
AcDbMText
 10
28.4346164437
 20
71.6161342293
 30
0.0
 40
3.5
 41
0.0
 71
     1
 72
     1
  1

  7
SLDTEXTSTYLE0
 73
     1
 44
1.0
  0
MTEXT
  5
290
330
281
100
AcDbEntity
  8
2
100
AcDbMText
 10
30.5479845554
 20
76.799293603
 30
0.0
 40
3.5
 41
0.0
 71
     1
 72
     1
  1
3,54
  7
SLDTEXTSTYLE0
 73
     1
 44
1.0
  0
MTEXT
  5
291
330
281
100
AcDbEntity
  8
2
100
AcDbMText
 10
32.4875678923
 20
71.5626620526
 30
0.0
 40
3.5
 41
0.0
 71
     1
 72
     1
  1
90
  7
SLDTEXTSTYLE0
 73
     1
 44
1.0
  0
MTEXT
  5
292
330
281
100
AcDbEntity
  8
2
100
AcDbMText
 10
43.0446862476
 20
71.6161342293
 30
0.0
 40
3.5
 41
0.0
 71
     1
 72
     1
  1

  7
SLDTEXTSTYLE0
 73
     1
 44
1.0
  0
ENDBLK
  5
283
330
281
100
AcDbEntity
  8
0
100
AcDbBlockEnd
  0
BLOCK
  5
295
330
294
100
AcDbEntity
  8
0
100
AcDbBlockBegin
  2
_D_1
 70
     0
 10
0.0
 20
0.0
 30
0.0
  3
_D_1
  1

  0
SOLID
  5
297
330
294
100
AcDbEntity
  8
SK2
100
AcDbTrace
 10
19.05
 20
53.8580582288
 30
0.0
 11
22.352
 21
53.3500582288
 31
0.0
 12
22.352
 22
54.3660582288
 32
0.0
 13
22.352
 23
54.3660582288
 33
0.0
  0
SOLID
  5
298
330
294
100
AcDbEntity
  8
SK2
100
AcDbTrace
 10
90.0
 20
53.8580582288
 30
0.0
 11
86.698
 21
54.3660582288
 31
0.0
 12
86.698
 22
53.3500582288
 32
0.0
 13
86.698
 23
53.3500582288
 33
0.0
  0
LINE
  5
299
330
294
100
AcDbEntity
  8
SK2
100
AcDbLine
 10
47.3894279877
 20
64.6509399448
 30
0.0
 11
46.3230217303
 21
64.6509399448
 31
0.0
  0
LINE
  5
29A
330
294
100
AcDbEntity
  8
SK2
100
AcDbLine
 10
46.3230217303
 20
64.6509399448
 30
0.0
 11
46.3230217303
 21
59.0946899537
 31
0.0
  0
LINE
  5
29B
330
294
100
AcDbEntity
  8
SK2
100
AcDbLine
 10
46.3230217303
 20
59.0946899537
 30
0.0
 11
47.3894279877
 21
59.0946899537
 31
0.0
  0
LINE
  5
29C
330
294
100
AcDbEntity
  8
SK2
100
AcDbLine
 10
56.4408170486
 20
64.6509399448
 30
0.0
 11
57.5072233061
 21
64.6509399448
 31
0.0
  0
LINE
  5
29D
330
294
100
AcDbEntity
  8
SK2
100
AcDbLine
 10
57.5072233061
 20
64.6509399448
 30
0.0
 11
57.5072233061
 21
59.0946899537
 31
0.0
  0
LINE
  5
29E
330
294
100
AcDbEntity
  8
SK2
100
AcDbLine
 10
57.5072233061
 20
59.0946899537
 30
0.0
 11
56.4408170486
 21
59.0946899537
 31
0.0
  0
LINE
  5
29F
330
294
100
AcDbEntity
  8
SK2
100
AcDbLine
 10
19.05
 20
47.5560855313
 30
0.0
 11
19.05
 21
54.8580582288
 31
0.0
  0
LINE
  5
2A0
330
294
100
AcDbEntity
  8
SK2
100
AcDbLine
 10
90.0
 20
25.0
 30
0.0
 11
90.0
 21
54.8580582288
 31
0.0
  0
LINE
  5
2A1
330
294
100
AcDbEntity
  8
SK2
100
AcDbLine
 10
19.05
 20
53.8580582288
 30
0.0
 11
90.0
 21
53.8580582288
 31
0.0
  0
MTEXT
  5
2A2
330
294
100
AcDbEntity
  8
SK2
100
AcDbMText
 10
45.2760598761
 20
58.4232674946
 30
0.0
 40
3.5
 41
0.0
 71
     1
 72
     1
  1

  7
SLDTEXTSTYLE0
 73
     1
 44
1.0
  0
MTEXT
  5
2A3
330
294
100
AcDbEntity
  8
SK2
100
AcDbMText
 10
47.3894279877
 20
63.6064268683
 30
0.0
 40
3.5
 41
0.0
 71
     1
 72
     1
  1
2,79
  7
SLDTEXTSTYLE0
 73
     1
 44
1.0
  0
MTEXT
  5
2A4
330
294
100
AcDbEntity
  8
SK2
100
AcDbMText
 10
46.0963722745
 20
58.369795318
 30
0.0
 40
3.5
 41
0.0
 71
     1
 72
     1
  1
70,95
  7
SLDTEXTSTYLE0
 73
     1
 44
1.0
  0
MTEXT
  5
2A5
330
294
100
AcDbEntity
  8
SK2
100
AcDbMText
 10
59.8861296799
 20
58.4232674946
 30
0.0
 40
3.5
 41
0.0
 71
     1
 72
     1
  1

  7
SLDTEXTSTYLE0
 73
     1
 44
1.0
  0
ENDBLK
  5
296
330
294
100
AcDbEntity
  8
0
100
AcDbBlockEnd
  0
BLOCK
  5
2A8
330
2A7
100
AcDbEntity
  8
0
100
AcDbBlockBegin
  2
_D_2
 70
     0
 10
0.0
 20
0.0
 30
0.0
  3
_D_2
  1

  0
SOLID
  5
2AA
330
2A7
100
AcDbEntity
  8
SK2
100
AcDbTrace
 10
73.2
 20
35.0111057507
 30
0.0
 11
76.502
 21
34.5031057507
 31
0.0
 12
76.502
 22
35.5191057507
 32
0.0
 13
76.502
 23
35.5191057507
 33
0.0
  0
SOLID
  5
2AB
330
2A7
100
AcDbEntity
  8
SK2
100
AcDbTrace
 10
90.0
 20
35.0111057507
 30
0.0
 11
86.698
 21
35.5191057507
 31
0.0
 12
86.698
 22
34.5031057507
 32
0.0
 13
86.698
 23
34.5031057507
 33
0.0
  0
LINE
  5
2AC
330
2A7
100
AcDbEntity
  8
SK2
100
AcDbLine
 10
77.10962228
 20
45.8039874668
 30
0.0
 11
76.0432160226
 21
45.8039874668
 31
0.0
  0
LINE
  5
2AD
330
2A7
100
AcDbEntity
  8
SK2
100
AcDbLine
 10
76.0432160226
 20
45.8039874668
 30
0.0
 11
76.0432160226
 21
40.2477374757
 31
0.0
  0
LINE
  5
2AE
330
2A7
100
AcDbEntity
  8
SK2
100
AcDbLine
 10
76.0432160226
 20
40.2477374757
 30
0.0
 11
77.10962228
 21
40.2477374757
 31
0.0
  0
LINE
  5
2AF
330
2A7
100
AcDbEntity
  8
SK2
100
AcDbLine
 10
86.1610113409
 20
45.8039874668
 30
0.0
 11
87.2274175984
 21
45.8039874668
 31
0.0
  0
LINE
  5
2B0
330
2A7
100
AcDbEntity
  8
SK2
100
AcDbLine
 10
87.2274175984
 20
45.8039874668
 30
0.0
 11
87.2274175984
 21
40.2477374757
 31
0.0
  0
LINE
  5
2B1
330
2A7
100
AcDbEntity
  8
SK2
100
AcDbLine
 10
87.2274175984
 20
40.2477374757
 30
0.0
 11
86.1610113409
 21
40.2477374757
 31
0.0
  0
LINE
  5
2B2
330
2A7
100
AcDbEntity
  8
SK2
100
AcDbLine
 10
73.2
 20
26.9
 30
0.0
 11
73.2
 21
36.0111057507
 31
0.0
  0
LINE
  5
2B3
330
2A7
100
AcDbEntity
  8
SK2
100
AcDbLine
 10
90.0
 20
25.0
 30
0.0
 11
90.0
 21
36.0111057507
 31
0.0
  0
LINE
  5
2B4
330
2A7
100
AcDbEntity
  8
SK2
100
AcDbLine
 10
73.2
 20
35.0111057507
 30
0.0
 11
90.0
 21
35.0111057507
 31
0.0
  0
MTEXT
  5
2B5
330
2A7
100
AcDbEntity
  8
SK2
100
AcDbMText
 10
74.9962541683
 20
39.5763150166
 30
0.0
 40
3.5
 41
0.0
 71
     1
 72
     1
  1

  7
SLDTEXTSTYLE0
 73
     1
 44
1.0
  0
MTEXT
  5
2B6
330
2A7
100
AcDbEntity
  8
SK2
100
AcDbMText
 10
77.10962228
 20
44.7594743903
 30
0.0
 40
3.5
 41
0.0
 71
     1
 72
     1
  1
0,66
  7
SLDTEXTSTYLE0
 73
     1
 44
1.0
  0
MTEXT
  5
2B7
330
2A7
100
AcDbEntity
  8
SK2
100
AcDbMText
 10
77.10962228
 20
39.5228428399
 30
0.0
 40
3.5
 41
0.0
 71
     1
 72
     1
  1
16,8
  7
SLDTEXTSTYLE0
 73
     1
 44
1.0
  0
MTEXT
  5
2B8
330
2A7
100
AcDbEntity
  8
SK2
100
AcDbMText
 10
89.6063239722
 20
39.5763150166
 30
0.0
 40
3.5
 41
0.0
 71
     1
 72
     1
  1

  7
SLDTEXTSTYLE0
 73
     1
 44
1.0
  0
ENDBLK
  5
2A9
330
2A7
100
AcDbEntity
  8
0
100
AcDbBlockEnd
  0
BLOCK
  5
2BB
330
2BA
100
AcDbEntity
  8
0
100
AcDbBlockBegin
  2
_D_3
 70
     0
 10
0.0
 20
0.0
 30
0.0
  3
_D_3
  1

  0
SOLID
  5
2BD
330
2BA
100
AcDbEntity
  8
SK2
100
AcDbTrace
 10
73.2
 20
35.0111057507
 30
0.0
 11
69.898
 21
35.5191057507
 31
0.0
 12
69.898
 22
34.5031057507
 32
0.0
 13
69.898
 23
34.5031057507
 33
0.0
  0
SOLID
  5
2BE
330
2BA
100
AcDbEntity
  8
SK2
100
AcDbTrace
 10
44.8
 20
35.0111057507
 30
0.0
 11
48.102
 21
34.5031057507
 31
0.0
 12
48.102
 22
35.5191057507
 32
0.0
 13
48.102
 23
35.5191057507
 33
0.0
  0
LINE
  5
2BF
330
2BA
100
AcDbEntity
  8
SK2
100
AcDbLine
 10
54.6382558639
 20
45.8039874668
 30
0.0
 11
53.5718496064
 21
45.8039874668
 31
0.0
  0
LINE
  5
2C0
330
2BA
100
AcDbEntity
  8
SK2
100
AcDbLine
 10
53.5718496064
 20
45.8039874668
 30
0.0
 11
53.5718496064
 21
40.2477374757
 31
0.0
  0
LINE
  5
2C1
330
2BA
100
AcDbEntity
  8
SK2
100
AcDbLine
 10
53.5718496064
 20
40.2477374757
 30
0.0
 11
54.6382558639
 21
40.2477374757
 31
0.0
  0
LINE
  5
2C2
330
2BA
100
AcDbEntity
  8
SK2
100
AcDbLine
 10
63.6896449248
 20
45.8039874668
 30
0.0
 11
64.7560511822
 21
45.8039874668
 31
0.0
  0
LINE
  5
2C3
330
2BA
100
AcDbEntity
  8
SK2
100
AcDbLine
 10
64.7560511822
 20
45.8039874668
 30
0.0
 11
64.7560511822
 21
40.2477374757
 31
0.0
  0
LINE
  5
2C4
330
2BA
100
AcDbEntity
  8
SK2
100
AcDbLine
 10
64.7560511822
 20
40.2477374757
 30
0.0
 11
63.6896449248
 21
40.2477374757
 31
0.0
  0
LINE
  5
2C5
330
2BA
100
AcDbEntity
  8
SK2
100
AcDbLine
 10
73.2
 20
26.9
 30
0.0
 11
73.2
 21
36.0111057507
 31
0.0
  0
LINE
  5
2C6
330
2BA
100
AcDbEntity
  8
SK2
100
AcDbLine
 10
44.8
 20
26.9
 30
0.0
 11
44.8
 21
36.0111057507
 31
0.0
  0
LINE
  5
2C7
330
2BA
100
AcDbEntity
  8
SK2
100
AcDbLine
 10
73.2
 20
35.0111057507
 30
0.0
 11
44.8
 21
35.0111057507
 31
0.0
  0
MTEXT
  5
2C8
330
2BA
100
AcDbEntity
  8
SK2
100
AcDbMText
 10
52.5248877522
 20
39.5763150166
 30
0.0
 40
3.5
 41
0.0
 71
     1
 72
     1
  1

  7
SLDTEXTSTYLE0
 73
     1
 44
1.0
  0
MTEXT
  5
2C9
330
2BA
100
AcDbEntity
  8
SK2
100
AcDbMText
 10
54.6382558639
 20
44.7594743903
 30
0.0
 40
3.5
 41
0.0
 71
     1
 72
     1
  1
1,12
  7
SLDTEXTSTYLE0
 73
     1
 44
1.0
  0
MTEXT
  5
2CA
330
2BA
100
AcDbEntity
  8
SK2
100
AcDbMText
 10
54.6382558639
 20
39.5228428399
 30
0.0
 40
3.5
 41
0.0
 71
     1
 72
     1
  1
28,4
  7
SLDTEXTSTYLE0
 73
     1
 44
1.0
  0
MTEXT
  5
2CB
330
2BA
100
AcDbEntity
  8
SK2
100
AcDbMText
 10
67.1349575561
 20
39.5763150166
 30
0.0
 40
3.5
 41
0.0
 71
     1
 72
     1
  1

  7
SLDTEXTSTYLE0
 73
     1
 44
1.0
  0
ENDBLK
  5
2BC
330
2BA
100
AcDbEntity
  8
0
100
AcDbBlockEnd
  0
BLOCK
  5
2CF
330
2CE
100
AcDbEntity
  8
0
100
AcDbBlockBegin
  2
_D_4
 70
     0
 10
0.0
 20
0.0
 30
0.0
  3
_D_4
  1

  0
SOLID
  5
2D1
330
2CE
100
AcDbEntity
  8
SK2
100
AcDbTrace
 10
0.0
 20
53.8580582288
 30
0.0
 11
3.302
 21
53.3500582288
 31
0.0
 12
3.302
 22
54.3660582288
 32
0.0
 13
3.302
 23
54.3660582288
 33
0.0
  0
SOLID
  5
2D2
330
2CE
100
AcDbEntity
  8
SK2
100
AcDbTrace
 10
19.05
 20
53.8580582288
 30
0.0
 11
15.748
 21
54.3660582288
 31
0.0
 12
15.748
 22
53.3500582288
 32
0.0
 13
15.748
 23
53.3500582288
 33
0.0
  0
LINE
  5
2D3
330
2CE
100
AcDbEntity
  8
SK2
100
AcDbLine
 10
0.0
 20
35.925
 30
0.0
 11
0.0
 21
54.8580582288
 31
0.0
  0
LINE
  5
2D4
330
2CE
100
AcDbEntity
  8
SK2
100
AcDbLine
 10
19.05
 20
47.5560855313
 30
0.0
 11
19.05
 21
54.8580582288
 31
0.0
  0
LINE
  5
2D5
330
2CE
100
AcDbEntity
  8
SK2
100
AcDbLine
 10
0.0
 20
53.8580582288
 30
0.0
 11
19.05
 21
53.8580582288
 31
0.0
  0
MTEXT
  5
2D6
330
2CE
100
AcDbEntity
  8
SK2
100
AcDbMText
 10
5.019680627
 20
58.3697951433
 30
0.0
 40
3.5
 41
0.0
 71
     1
 72
     1
  1
19,05
  7
SLDTEXTSTYLE0
 73
     1
 44
1.0
  0
ENDBLK
  5
2D0
330
2CE
100
AcDbEntity
  8
0
100
AcDbBlockEnd
  0
BLOCK
  5
2DA
330
2D9
100
AcDbEntity
  8
0
100
AcDbBlockBegin
  2
_D_5
 70
     0
 10
0.0
 20
0.0
 30
0.0
  3
_D_5
  1

  0
SOLID
  5
2DC
330
2D9
100
AcDbEntity
  8
SK2
100
AcDbTrace
 10
105.9138995062
 20
-16.0
 30
0.0
 11
106.4218995062
 21
-12.698
 31
0.0
 12
105.4058995062
 22
-12.698
 32
0.0
 13
105.4058995062
 23
-12.698
 33
0.0
  0
SOLID
  5
2DD
330
2D9
100
AcDbEntity
  8
SK2
100
AcDbTrace
 10
105.9138995062
 20
16.0
 30
0.0
 11
105.4058995062
 21
12.698
 31
0.0
 12
106.4218995062
 22
12.698
 32
0.0
 13
106.4218995062
 23
12.698
 33
0.0
  0
LINE
  5
2DE
330
2D9
100
AcDbEntity
  8
SK2
100
AcDbLine
 10
95.1210177901
 20
-4.6098368126
 30
0.0
 11
95.1210177901
 21
-5.67624307
 31
0.0
  0
LINE
  5
2DF
330
2D9
100
AcDbEntity
  8
SK2
100
AcDbLine
 10
95.1210177901
 20
-5.67624307
 30
0.0
 11
100.6772677812
 21
-5.67624307
 31
0.0
  0
LINE
  5
2E0
330
2D9
100
AcDbEntity
  8
SK2
100
AcDbLine
 10
100.6772677812
 20
-5.67624307
 30
0.0
 11
100.6772677812
 21
-4.6098368126
 31
0.0
  0
LINE
  5
2E1
330
2D9
100
AcDbEntity
  8
SK2
100
AcDbLine
 10
95.1210177901
 20
7.0276636747
 30
0.0
 11
95.1210177901
 21
8.0940699321
 31
0.0
  0
LINE
  5
2E2
330
2D9
100
AcDbEntity
  8
SK2
100
AcDbLine
 10
95.1210177901
 20
8.0940699321
 30
0.0
 11
100.6772677812
 21
8.0940699321
 31
0.0
  0
LINE
  5
2E3
330
2D9
100
AcDbEntity
  8
SK2
100
AcDbLine
 10
100.6772677812
 20
8.0940699321
 30
0.0
 11
100.6772677812
 21
7.0276636747
 31
0.0
  0
LINE
  5
2E4
330
2D9
100
AcDbEntity
  8
SK2
100
AcDbLine
 10
89.0947441117
 20
-16.0
 30
0.0
 11
106.9138995062
 21
-16.0
 31
0.0
  0
LINE
  5
2E5
330
2D9
100
AcDbEntity
  8
SK2
100
AcDbLine
 10
89.0947441117
 20
16.0
 30
0.0
 11
106.9138995062
 21
16.0
 31
0.0
  0
LINE
  5
2E6
330
2D9
100
AcDbEntity
  8
SK2
100
AcDbLine
 10
105.9138995062
 20
-16.0
 30
0.0
 11
105.9138995062
 21
16.0
 31
0.0
  0
MTEXT
  5
2E7
330
2D9
100
AcDbEntity
  8
SK2
100
AcDbMText
 10
96.1655308666
 20
-4.6098368126
 30
0.0
 40
3.5
 41
0.0
 71
     1
 72
     1
  1
1,260
  7
SLDTEXTSTYLE0
 11
6.123233995736766E-17
 21
1.0
 31
0.0
 73
     1
 44
1.0
  0
MTEXT
  5
2E8
330
2D9
100
AcDbEntity
  8
SK2
100
AcDbMText
 10
101.402162417
 20
-4.0164171601
 30
0.0
 40
3.5
 41
0.0
 71
     1
 72
     1
  1
%%c
  7
SLDTEXTSTYLE0
 11
6.123233995736766E-17
 21
1.0
 31
0.0
 73
     1
 44
1.0
  0
MTEXT
  5
2E9
330
2D9
100
AcDbEntity
  8
SK2
100
AcDbMText
 10
101.402162417
 20
1.2620202382
 30
0.0
 40
3.5
 41
0.0
 71
     1
 72
     1
  1
32
  7
SLDTEXTSTYLE0
 11
6.123233995736766E-17
 21
1.0
 31
0.0
 73
     1
 44
1.0
  0
ENDBLK
  5
2DB
330
2D9
100
AcDbEntity
  8
0
100
AcDbBlockEnd
  0
BLOCK
  5
2EC
330
2EB
100
AcDbEntity
  8
0
100
AcDbBlockBegin
  2
_D_6
 70
     0
 10
0.0
 20
0.0
 30
0.0
  3
_D_6
  1

  0
SOLID
  5
2EE
330
2EB
100
AcDbEntity
  8
SK2
100
AcDbTrace
 10
120.2849202671
 20
24.0
 30
0.0
 11
119.7769202671
 21
20.698
 31
0.0
 12
120.7929202671
 22
20.698
 32
0.0
 13
120.7929202671
 23
20.698
 33
0.0
  0
SOLID
  5
2EF
330
2EB
100
AcDbEntity
  8
SK2
100
AcDbTrace
 10
120.2849202671
 20
-24.0
 30
0.0
 11
120.7929202671
 21
-20.698
 31
0.0
 12
119.7769202671
 22
-20.698
 32
0.0
 13
119.7769202671
 23
-20.698
 33
0.0
  0
LINE
  5
2F0
330
2EB
100
AcDbEntity
  8
SK2
100
AcDbLine
 10
109.492038551
 20
-3.3167815651
 30
0.0
 11
109.492038551
 21
-4.3831878225
 31
0.0
  0
LINE
  5
2F1
330
2EB
100
AcDbEntity
  8
SK2
100
AcDbLine
 10
109.492038551
 20
-4.3831878225
 30
0.0
 11
115.0482885421
 21
-4.3831878225
 31
0.0
  0
LINE
  5
2F2
330
2EB
100
AcDbEntity
  8
SK2
100
AcDbLine
 10
115.0482885421
 20
-4.3831878225
 30
0.0
 11
115.0482885421
 21
-3.3167815651
 31
0.0
  0
LINE
  5
2F3
330
2EB
100
AcDbEntity
  8
SK2
100
AcDbLine
 10
109.492038551
 20
5.7346074959
 30
0.0
 11
109.492038551
 21
6.8010137533
 31
0.0
  0
LINE
  5
2F4
330
2EB
100
AcDbEntity
  8
SK2
100
AcDbLine
 10
109.492038551
 20
6.8010137533
 30
0.0
 11
115.0482885421
 21
6.8010137533
 31
0.0
  0
LINE
  5
2F5
330
2EB
100
AcDbEntity
  8
SK2
100
AcDbLine
 10
115.0482885421
 20
6.8010137533
 30
0.0
 11
115.0482885421
 21
5.7346074959
 31
0.0
  0
LINE
  5
2F6
330
2EB
100
AcDbEntity
  8
SK2
100
AcDbLine
 10
91.0
 20
24.0
 30
0.0
 11
121.2849202671
 21
24.0
 31
0.0
  0
LINE
  5
2F7
330
2EB
100
AcDbEntity
  8
SK2
100
AcDbLine
 10
91.0
 20
-24.0
 30
0.0
 11
121.2849202671
 21
-24.0
 31
0.0
  0
LINE
  5
2F8
330
2EB
100
AcDbEntity
  8
SK2
100
AcDbLine
 10
120.2849202671
 20
24.0
 30
0.0
 11
120.2849202671
 21
-24.0
 31
0.0
  0
MTEXT
  5
2F9
330
2EB
100
AcDbEntity
  8
SK2
100
AcDbMText
 10
110.5365516275
 20
-3.3167815651
 30
0.0
 40
3.5
 41
0.0
 71
     1
 72
     1
  1
1,89
  7
SLDTEXTSTYLE0
 11
-7.044195017643634E-15
 21
1.0
 31
0.0
 73
     1
 44
1.0
  0
MTEXT
  5
2FA
330
2EB
100
AcDbEntity
  8
SK2
100
AcDbMText
 10
115.7731831778
 20
-4.0164171601
 30
0.0
 40
3.5
 41
0.0
 71
     1
 72
     1
  1
%%c
  7
SLDTEXTSTYLE0
 11
-7.044195017643634E-15
 21
1.0
 31
0.0
 73
     1
 44
1.0
  0
MTEXT
  5
2FB
330
2EB
100
AcDbEntity
  8
SK2
100
AcDbMText
 10
115.7731831778
 20
1.2620202382
 30
0.0
 40
3.5
 41
0.0
 71
     1
 72
     1
  1
48
  7
SLDTEXTSTYLE0
 11
-7.044195017643634E-15
 21
1.0
 31
0.0
 73
     1
 44
1.0
  0
ENDBLK
  5
2ED
330
2EB
100
AcDbEntity
  8
0
100
AcDbBlockEnd
  0
BLOCK
  5
2FE
330
2FD
100
AcDbEntity
  8
0
100
AcDbBlockBegin
  2
_D_7
 70
     0
 10
0.0
 20
0.0
 30
0.0
  3
_D_7
  1

  0
SOLID
  5
300
330
2FD
100
AcDbEntity
  8
SK2
100
AcDbTrace
 10
136.9879654261
 20
-26.0
 30
0.0
 11
137.4959654261
 21
-22.698
 31
0.0
 12
136.4799654261
 22
-22.698
 32
0.0
 13
136.4799654261
 23
-22.698
 33
0.0
  0
SOLID
  5
301
330
2FD
100
AcDbEntity
  8
SK2
100
AcDbTrace
 10
136.9879654261
 20
26.0
 30
0.0
 11
136.4799654261
 21
22.698
 31
0.0
 12
137.4959654261
 22
22.698
 32
0.0
 13
137.4959654261
 23
22.698
 33
0.0
  0
LINE
  5
302
330
2FD
100
AcDbEntity
  8
SK2
100
AcDbLine
 10
126.19508371
 20
-3.3167815651
 30
0.0
 11
126.19508371
 21
-4.3831878225
 31
0.0
  0
LINE
  5
303
330
2FD
100
AcDbEntity
  8
SK2
100
AcDbLine
 10
126.19508371
 20
-4.3831878225
 30
0.0
 11
131.7513337011
 21
-4.3831878225
 31
0.0
  0
LINE
  5
304
330
2FD
100
AcDbEntity
  8
SK2
100
AcDbLine
 10
131.7513337011
 20
-4.3831878225
 30
0.0
 11
131.7513337011
 21
-3.3167815651
 31
0.0
  0
LINE
  5
305
330
2FD
100
AcDbEntity
  8
SK2
100
AcDbLine
 10
126.19508371
 20
5.7346074959
 30
0.0
 11
126.19508371
 21
6.8010137533
 31
0.0
  0
LINE
  5
306
330
2FD
100
AcDbEntity
  8
SK2
100
AcDbLine
 10
126.19508371
 20
6.8010137533
 30
0.0
 11
131.7513337011
 21
6.8010137533
 31
0.0
  0
LINE
  5
307
330
2FD
100
AcDbEntity
  8
SK2
100
AcDbLine
 10
131.7513337011
 20
6.8010137533
 30
0.0
 11
131.7513337011
 21
5.7346074959
 31
0.0
  0
LINE
  5
308
330
2FD
100
AcDbEntity
  8
SK2
100
AcDbLine
 10
89.0
 20
-26.0
 30
0.0
 11
137.9879654261
 21
-26.0
 31
0.0
  0
LINE
  5
309
330
2FD
100
AcDbEntity
  8
SK2
100
AcDbLine
 10
89.0
 20
26.0
 30
0.0
 11
137.9879654261
 21
26.0
 31
0.0
  0
LINE
  5
30A
330
2FD
100
AcDbEntity
  8
SK2
100
AcDbLine
 10
136.9879654261
 20
-26.0
 30
0.0
 11
136.9879654261
 21
26.0
 31
0.0
  0
MTEXT
  5
30B
330
2FD
100
AcDbEntity
  8
SK2
100
AcDbMText
 10
127.2395967865
 20
-3.3167815651
 30
0.0
 40
3.5
 41
0.0
 71
     1
 72
     1
  1
2,05
  7
SLDTEXTSTYLE0
 11
6.123233995736766E-17
 21
1.0
 31
0.0
 73
     1
 44
1.0
  0
MTEXT
  5
30C
330
2FD
100
AcDbEntity
  8
SK2
100
AcDbMText
 10
132.4762283369
 20
-4.0164171601
 30
0.0
 40
3.5
 41
0.0
 71
     1
 72
     1
  1
%%c
  7
SLDTEXTSTYLE0
 11
6.123233995736766E-17
 21
1.0
 31
0.0
 73
     1
 44
1.0
  0
MTEXT
  5
30D
330
2FD
100
AcDbEntity
  8
SK2
100
AcDbMText
 10
132.4762283369
 20
1.2620202382
 30
0.0
 40
3.5
 41
0.0
 71
     1
 72
     1
  1
52
  7
SLDTEXTSTYLE0
 11
6.123233995736766E-17
 21
1.0
 31
0.0
 73
     1
 44
1.0
  0
ENDBLK
  5
2FF
330
2FD
100
AcDbEntity
  8
0
100
AcDbBlockEnd
  0
BLOCK
  5
311
330
310
100
AcDbEntity
  8
0
100
AcDbBlockBegin
  2
_D_8
 70
     0
 10
0.0
 20
0.0
 30
0.0
  3
_D_8
  1

  0
SOLID
  5
313
330
310
100
AcDbEntity
  8
SK2
100
AcDbTrace
 10
-101.6
 20
-64.3217854687
 30
0.0
 11
-98.298
 21
-64.8297854687
 31
0.0
 12
-98.298
 22
-63.8137854687
 32
0.0
 13
-98.298
 23
-63.8137854687
 33
0.0
  0
SOLID
  5
314
330
310
100
AcDbEntity
  8
SK2
100
AcDbTrace
 10
90.0
 20
-64.3217854687
 30
0.0
 11
86.698
 21
-63.8137854687
 31
0.0
 12
86.698
 22
-64.8297854687
 32
0.0
 13
86.698
 23
-64.8297854687
 33
0.0
  0
LINE
  5
315
330
310
100
AcDbEntity
  8
SK2
100
AcDbLine
 10
-16.4463257375
 20
-53.5289037527
 30
0.0
 11
-17.512731995
 21
-53.5289037527
 31
0.0
  0
LINE
  5
316
330
310
100
AcDbEntity
  8
SK2
100
AcDbLine
 10
-17.512731995
 20
-53.5289037527
 30
0.0
 11
-17.512731995
 21
-59.0851537438
 31
0.0
  0
LINE
  5
317
330
310
100
AcDbEntity
  8
SK2
100
AcDbLine
 10
-17.512731995
 20
-59.0851537438
 30
0.0
 11
-16.4463257375
 21
-59.0851537438
 31
0.0
  0
LINE
  5
318
330
310
100
AcDbEntity
  8
SK2
100
AcDbLine
 10
-4.8088252503
 20
-53.5289037527
 30
0.0
 11
-3.7424189928
 21
-53.5289037527
 31
0.0
  0
LINE
  5
319
330
310
100
AcDbEntity
  8
SK2
100
AcDbLine
 10
-3.7424189928
 20
-53.5289037527
 30
0.0
 11
-3.7424189928
 21
-59.0851537438
 31
0.0
  0
LINE
  5
31A
330
310
100
AcDbEntity
  8
SK2
100
AcDbLine
 10
-3.7424189928
 20
-59.0851537438
 30
0.0
 11
-4.8088252503
 21
-59.0851537438
 31
0.0
  0
LINE
  5
31B
330
310
100
AcDbEntity
  8
SK2
100
AcDbLine
 10
-101.6
 20
-19.2922326599
 30
0.0
 11
-101.6
 21
-65.3217854687
 31
0.0
  0
LINE
  5
31C
330
310
100
AcDbEntity
  8
SK2
100
AcDbLine
 10
90.0
 20
-25.0
 30
0.0
 11
90.0
 21
-65.3217854687
 31
0.0
  0
LINE
  5
31D
330
310
100
AcDbEntity
  8
SK2
100
AcDbLine
 10
-101.6
 20
-64.3217854687
 30
0.0
 11
90.0
 21
-64.3217854687
 31
0.0
  0
MTEXT
  5
31E
330
310
100
AcDbEntity
  8
SK2
100
AcDbMText
 10
-18.5596938492
 20
-59.7565762029
 30
0.0
 40
3.5
 41
0.0
 71
     1
 72
     1
  1

  7
SLDTEXTSTYLE0
 73
     1
 44
1.0
  0
MTEXT
  5
31F
330
310
100
AcDbEntity
  8
SK2
100
AcDbMText
 10
-16.4463257375
 20
-54.5734168292
 30
0.0
 40
3.5
 41
0.0
 71
     1
 72
     1
  1
7,543
  7
SLDTEXTSTYLE0
 73
     1
 44
1.0
  0
MTEXT
  5
320
330
310
100
AcDbEntity
  8
SK2
100
AcDbMText
 10
-16.4463262032
 20
-59.8100483795
 30
0.0
 40
3.5
 41
0.0
 71
     1
 72
     1
  1
191,6
  7
SLDTEXTSTYLE0
 73
     1
 44
1.0
  0
MTEXT
  5
321
330
310
100
AcDbEntity
  8
SK2
100
AcDbMText
 10
-1.3635135503
 20
-59.7565762029
 30
0.0
 40
3.5
 41
0.0
 71
     1
 72
     1
  1

  7
SLDTEXTSTYLE0
 73
     1
 44
1.0
  0
ENDBLK
  5
312
330
310
100
AcDbEntity
  8
0
100
AcDbBlockEnd
  0
BLOCK
  5
324
330
323
100
AcDbEntity
  8
0
100
AcDbBlockBegin
  2
_D_9
 70
     0
 10
0.0
 20
0.0
 30
0.0
  3
_D_9
  1

  0
SOLID
  5
326
330
323
100
AcDbEntity
  8
SK2
100
AcDbTrace
 10
31.5
 20
-49.040403184
 30
0.0
 11
34.802
 21
-49.548403184
 31
0.0
 12
34.802
 22
-48.532403184
 32
0.0
 13
34.802
 23
-48.532403184
 33
0.0
  0
SOLID
  5
327
330
323
100
AcDbEntity
  8
SK2
100
AcDbTrace
 10
90.0
 20
-49.040403184
 30
0.0
 11
86.698
 21
-48.532403184
 31
0.0
 12
86.698
 22
-49.548403184
 32
0.0
 13
86.698
 23
-49.548403184
 33
0.0
  0
LINE
  5
328
330
323
100
AcDbEntity
  8
SK2
100
AcDbLine
 10
59.9455497931
 20
-38.247521468
 30
0.0
 11
58.8791435357
 21
-38.247521468
 31
0.0
  0
LINE
  5
329
330
323
100
AcDbEntity
  8
SK2
100
AcDbLine
 10
58.8791435357
 20
-38.247521468
 30
0.0
 11
58.8791435357
 21
-43.803771459
 31
0.0
  0
LINE
  5
32A
330
323
100
AcDbEntity
  8
SK2
100
AcDbLine
 10
58.8791435357
 20
-43.803771459
 30
0.0
 11
59.9455497931
 21
-43.803771459
 31
0.0
  0
LINE
  5
32B
330
323
100
AcDbEntity
  8
SK2
100
AcDbLine
 10
68.996938854
 20
-38.247521468
 30
0.0
 11
70.0633451115
 21
-38.247521468
 31
0.0
  0
LINE
  5
32C
330
323
100
AcDbEntity
  8
SK2
100
AcDbLine
 10
70.0633451115
 20
-38.247521468
 30
0.0
 11
70.0633451115
 21
-43.803771459
 31
0.0
  0
LINE
  5
32D
330
323
100
AcDbEntity
  8
SK2
100
AcDbLine
 10
70.0633451115
 20
-43.803771459
 30
0.0
 11
68.996938854
 21
-43.803771459
 31
0.0
  0
LINE
  5
32E
330
323
100
AcDbEntity
  8
SK2
100
AcDbLine
 10
31.5
 20
-17.25
 30
0.0
 11
31.5
 21
-50.040403184
 31
0.0
  0
LINE
  5
32F
330
323
100
AcDbEntity
  8
SK2
100
AcDbLine
 10
90.0
 20
-25.0
 30
0.0
 11
90.0
 21
-50.040403184
 31
0.0
  0
LINE
  5
330
330
323
100
AcDbEntity
  8
SK2
100
AcDbLine
 10
31.5
 20
-49.040403184
 30
0.0
 11
90.0
 21
-49.040403184
 31
0.0
  0
MTEXT
  5
331
330
323
100
AcDbEntity
  8
SK2
100
AcDbMText
 10
57.8321816815
 20
-44.4751939181
 30
0.0
 40
3.5
 41
0.0
 71
     1
 72
     1
  1

  7
SLDTEXTSTYLE0
 73
     1
 44
1.0
  0
MTEXT
  5
332
330
323
100
AcDbEntity
  8
SK2
100
AcDbMText
 10
59.9455497931
 20
-39.2920345444
 30
0.0
 40
3.5
 41
0.0
 71
     1
 72
     1
  1
2,30
  7
SLDTEXTSTYLE0
 73
     1
 44
1.0
  0
MTEXT
  5
333
330
323
100
AcDbEntity
  8
SK2
100
AcDbMText
 10
59.9455497931
 20
-44.5286660948
 30
0.0
 40
3.5
 41
0.0
 71
     1
 72
     1
  1
58,5
  7
SLDTEXTSTYLE0
 73
     1
 44
1.0
  0
MTEXT
  5
334
330
323
100
AcDbEntity
  8
SK2
100
AcDbMText
 10
72.4422514854
 20
-44.4751939181
 30
0.0
 40
3.5
 41
0.0
 71
     1
 72
     1
  1

  7
SLDTEXTSTYLE0
 73
     1
 44
1.0
  0
ENDBLK
  5
325
330
323
100
AcDbEntity
  8
0
100
AcDbBlockEnd
  0
BLOCK
  5
338
330
337
100
AcDbEntity
  8
0
100
AcDbBlockBegin
  2
_D_10
 70
     0
 10
0.0
 20
0.0
 30
0.0
  3
_D_10
  1

  0
SOLID
  5
33A
330
337
100
AcDbEntity
  8
SK2
100
AcDbTrace
 10
88.0
 20
-37.765613217
 30
0.0
 11
84.698
 21
-37.257613217
 31
0.0
 12
84.698
 22
-38.273613217
 32
0.0
 13
84.698
 23
-38.273613217
 33
0.0
  0
SOLID
  5
33B
330
337
100
AcDbEntity
  8
SK2
100
AcDbTrace
 10
90.0
 20
-37.765613217
 30
0.0
 11
93.302
 21
-38.273613217
 31
0.0
 12
93.302
 22
-37.257613217
 32
0.0
 13
93.302
 23
-37.257613217
 33
0.0
  0
LINE
  5
33C
330
337
100
AcDbEntity
  8
SK2
100
AcDbLine
 10
88.0
 20
-27.0
 30
0.0
 11
88.0
 21
-38.765613217
 31
0.0
  0
LINE
  5
33D
330
337
100
AcDbEntity
  8
SK2
100
AcDbLine
 10
90.0
 20
-25.0
 30
0.0
 11
90.0
 21
-38.765613217
 31
0.0
  0
LINE
  5
33E
330
337
100
AcDbEntity
  8
SK2
100
AcDbLine
 10
88.0
 20
-37.765613217
 30
0.0
 11
80.3422608645
 21
-37.765613217
 31
0.0
  0
LINE
  5
33F
330
337
100
AcDbEntity
  8
SK2
100
AcDbLine
 10
88.0
 20
-37.765613217
 30
0.0
 11
90.0
 21
-37.765613217
 31
0.0
  0
LINE
  5
340
330
337
100
AcDbEntity
  8
SK2
100
AcDbLine
 10
90.0
 20
-37.765613217
 30
0.0
 11
96.35
 21
-37.765613217
 31
0.0
  0
MTEXT
  5
341
330
337
100
AcDbEntity
  8
SK2
100
AcDbMText
 10
80.3422608645
 20
-33.2538763024
 30
0.0
 40
3.5
 41
0.0
 71
     1
 72
     1
  1
2
  7
SLDTEXTSTYLE0
 73
     1
 44
1.0
  0
ENDBLK
  5
339
330
337
100
AcDbEntity
  8
0
100
AcDbBlockEnd
  0
BLOCK
  5
344
330
343
100
AcDbEntity
  8
0
100
AcDbBlockBegin
  2
_D_11
 70
     0
 10
0.0
 20
0.0
 30
0.0
  3
_D_11
  1

  0
SOLID
  5
346
330
343
100
AcDbEntity
  8
SK2
100
AcDbTrace
 10
-121.8684376176
 20
-47.4754841997
 30
0.0
 11
-121.3604376176
 21
-44.1734841997
 31
0.0
 12
-122.3764376176
 22
-44.1734841997
 32
0.0
 13
-122.3764376176
 23
-44.1734841997
 33
0.0
  0
SOLID
  5
347
330
343
100
AcDbEntity
  8
SK2
100
AcDbTrace
 10
-121.8684376176
 20
47.2968145978
 30
0.0
 11
-122.3764376176
 21
43.9948145978
 31
0.0
 12
-121.3604376176
 22
43.9948145978
 32
0.0
 13
-121.3604376176
 23
43.9948145978
 33
0.0
  0
LINE
  5
348
330
343
100
AcDbEntity
  8
SK2
100
AcDbLine
 10
2.95
 20
-47.4754841997
 30
0.0
 11
-122.8684376176
 21
-47.4754841997
 31
0.0
  0
LINE
  5
349
330
343
100
AcDbEntity
  8
SK2
100
AcDbLine
 10
2.95
 20
47.2968145978
 30
0.0
 11
-122.8684376176
 21
47.2968145978
 31
0.0
  0
LINE
  5
34A
330
343
100
AcDbEntity
  8
SK2
100
AcDbLine
 10
-121.8684376176
 20
-47.4754841997
 30
0.0
 11
-121.8684376176
 21
47.2968145978
 31
0.0
  0
MTEXT
  5
34B
330
343
100
AcDbEntity
  8
SK2
100
AcDbMText
 10
-126.3801747068
 20
-7.2490559774
 30
0.0
 40
3.5
 41
0.0
 71
     1
 72
     1
  1
%%c
  7
SLDTEXTSTYLE0
 11
6.123233995736766E-17
 21
1.0
 31
0.0
 73
     1
 44
1.0
  0
MTEXT
  5
34C
330
343
100
AcDbEntity
  8
SK2
100
AcDbMText
 10
-126.4336468835
 20
-1.9706185791
 30
0.0
 40
3.5
 41
0.0
 71
     1
 72
     1
  1
98,42
  7
SLDTEXTSTYLE0
 11
6.123233995736766E-17
 21
1.0
 31
0.0
 73
     1
 44
1.0
  0
ENDBLK
  5
345
330
343
100
AcDbEntity
  8
0
100
AcDbBlockEnd
  0
BLOCK
  5
34F
330
34E
100
AcDbEntity
  8
0
100
AcDbBlockBegin
  2
_D_12
 70
     0
 10
0.0
 20
0.0
 30
0.0
  3
_D_12
  1

  0
SOLID
  5
351
330
34E
100
AcDbEntity
  8
SK2
100
AcDbTrace
 10
-111.7526882317
 20
12.6999998465
 30
0.0
 11
-112.2606882317
 21
9.3979998465
 31
0.0
 12
-111.2446882317
 22
9.3979998465
 32
0.0
 13
-111.2446882317
 23
9.3979998465
 33
0.0
  0
SOLID
  5
352
330
34E
100
AcDbEntity
  8
SK2
100
AcDbTrace
 10
-111.7526882317
 20
-12.6999998465
 30
0.0
 11
-111.2446882317
 21
-9.3979998465
 31
0.0
 12
-112.2606882317
 22
-9.3979998465
 32
0.0
 13
-112.2606882317
 23
-9.3979998465
 33
0.0
  0
LINE
  5
353
330
34E
100
AcDbEntity
  8
SK2
100
AcDbLine
 10
-95.967097044
 20
12.6999998465
 30
0.0
 11
-112.7526882317
 21
12.6999998465
 31
0.0
  0
LINE
  5
354
330
34E
100
AcDbEntity
  8
SK2
100
AcDbLine
 10
-95.967097044
 20
-12.6999998465
 30
0.0
 11
-112.7526882317
 21
-12.6999998465
 31
0.0
  0
LINE
  5
355
330
34E
100
AcDbEntity
  8
SK2
100
AcDbLine
 10
-111.7526882317
 20
12.6999998465
 30
0.0
 11
-111.7526882317
 21
-12.6999998465
 31
0.0
  0
MTEXT
  5
357
330
34E
100
AcDbEntity
  8
SK2
100
AcDbMText
 10
-116.2644251463
 20
-9.2424765113
 30
0.0
 40
3.5
 41
0.0
 71
     1
 72
     1
  1
1 - 8 UNC
  7
SLDTEXTSTYLE1
 11
-7.044195017643634E-15
 21
1.0
 31
0.0
 73
     1
 44
1.0
  0
ENDBLK
  5
350
330
34E
100
AcDbEntity
  8
0
100
AcDbBlockEnd
  0
ENDSEC
  0
SECTION
  2
ENTITIES
  0
LINE
  5
82
330
1F
100
AcDbEntity
  8
1
  6
SLD-Solid
370
    25
100
AcDbLine
 10
1.7476022729
 20
-34.925
 30
0.0
 11
2.1330363037
 21
-34.7452691597
 31
0.0
  0
LINE
  5
83
330
1F
100
AcDbEntity
  8
1
  6
SLD-Solid
370
    25
100
AcDbLine
 10
2.1330363037
 20
34.7452691597
 30
0.0
 11
1.7476022729
 21
34.925
 31
0.0
  0
LINE
  5
84
330
1F
100
AcDbEntity
  8
1
  6
SLD-Solid
370
    25
100
AcDbLine
 10
1.7476022729
 20
34.925
 30
0.0
 11
0.0
 21
34.925
 31
0.0
  0
LINE
  5
85
330
1F
100
AcDbEntity
  8
1
  6
SLD-Solid
370
    25
100
AcDbLine
 10
0.0
 20
-34.925
 30
0.0
 11
1.7476022729
 21
-34.925
 31
0.0
  0
LINE
  5
86
330
1F
100
AcDbEntity
  8
SK1
  6
SLD-Solid
370
    25
100
AcDbLine
 10
0.0
 20
34.925
 30
0.0
 11
-99.8030472773
 21
20.3702515116
 31
0.0
  0
LINE
  5
87
330
1F
100
AcDbEntity
  8
SK1
  6
SLD-Solid
370
    25
100
AcDbLine
 10
-99.8030472773
 20
-20.3702515116
 30
0.0
 11
0.0
 21
-34.925
 31
0.0
  0
LINE
  5
88
330
1F
100
AcDbEntity
  8
1
  6
SLD-Solid
370
    25
100
AcDbLine
 10
36.2064993193
 20
26.0
 30
0.0
 11
22.098
 21
26.0
 31
0.0
  0
LINE
  5
89
330
1F
100
AcDbEntity
  8
1
  6
SLD-Solid
370
    25
100
AcDbLine
 10
64.6064993193
 20
26.0
 30
0.0
 11
53.3812681119
 21
26.0
 31
0.0
  0
LINE
  5
8A
330
1F
100
AcDbEntity
  8
1
  6
SLD-Solid
370
    25
100
AcDbLine
 10
88.0
 20
26.0
 30
0.0
 11
81.7812681119
 21
26.0
 31
0.0
  0
LINE
  5
8B
330
1F
100
AcDbEntity
  8
1
  6
SLD-Solid
370
    25
100
AcDbLine
 10
82.5273646332
 20
-26.0
 30
0.0
 11
88.0
 21
-26.0
 31
0.0
  0
LINE
  5
8C
330
1F
100
AcDbEntity
  8
1
  6
SLD-Solid
370
    25
100
AcDbLine
 10
54.1172380024
 20
-26.0
 30
0.0
 11
63.8827619976
 21
-26.0
 31
0.0
  0
LINE
  5
8D
330
1F
100
AcDbEntity
  8
1
  6
SLD-Solid
370
    25
100
AcDbLine
 10
22.098
 20
-26.0
 30
0.0
 11
35.4726353668
 21
-26.0
 31
0.0
  0
LINE
  5
8E
330
1F
100
AcDbEntity
  8
1
  6
SLD-Solid
370
    25
100
AcDbLine
 10
88.0
 20
-26.0
 30
0.0
 11
90.0
 21
-24.0
 31
0.0
  0
LINE
  5
8F
330
1F
100
AcDbEntity
  8
1
  6
SLD-Solid
370
    25
100
AcDbLine
 10
90.0
 20
24.0
 30
0.0
 11
88.0
 21
26.0
 31
0.0
  0
LINE
  5
90
330
1F
100
AcDbEntity
  8
1
  6
SLD-Solid
370
    25
100
AcDbLine
 10
3.95
 20
-47.4754841997
 30
0.0
 11
7.5902766066
 21
-47.4754841997
 31
0.0
  0
LINE
  5
91
330
1F
100
AcDbEntity
  8
1
  6
SLD-Solid
370
    25
100
AcDbLine
 10
3.95
 20
47.2968145978
 30
0.0
 11
3.95
 21
-47.4754841997
 31
0.0
  0
LINE
  5
92
330
1F
100
AcDbEntity
  8
1
  6
SLD-Solid
370
    25
100
AcDbLine
 10
7.5902766066
 20
47.2968145978
 30
0.0
 11
3.95
 21
47.2968145978
 31
0.0
  0
LINE
  5
93
330
1F
100
AcDbEntity
  8
1
  6
SLD-Solid
370
    25
100
AcDbLine
 10
7.5902766066
 20
47.2968145978
 30
0.0
 11
7.5902766066
 21
-47.4754841997
 31
0.0
  0
LINE
  5
94
330
1F
100
AcDbEntity
  8
1
  6
SLD-Solid
370
    25
100
AcDbLine
 10
14.6397233934
 20
-47.4754841997
 30
0.0
 11
18.3
 21
-47.4754841997
 31
0.0
  0
LINE
  5
95
330
1F
100
AcDbEntity
  8
1
  6
SLD-Solid
370
    25
100
AcDbLine
 10
14.6397233934
 20
47.2968145978
 30
0.0
 11
14.6397233934
 21
-47.4754841997
 31
0.0
  0
LINE
  5
96
330
1F
100
AcDbEntity
  8
1
  6
SLD-Solid
370
    25
100
AcDbLine
 10
18.3
 20
47.2968145978
 30
0.0
 11
14.6397233934
 21
47.2968145978
 31
0.0
  0
LINE
  5
97
330
1F
100
AcDbEntity
  8
1
  6
SLD-Solid
370
    25
100
AcDbLine
 10
18.3
 20
-47.4754841997
 30
0.0
 11
18.3
 21
47.2968145978
 31
0.0
  0
LINE
  5
98
330
1F
100
AcDbEntity
  8
1
  6
SLD-Solid
370
    25
100
AcDbLine
 10
3.2
 20
-46.6976348437
 30
0.0
 11
3.2
 21
46.5560855313
 31
0.0
  0
LINE
  5
99
330
1F
100
AcDbEntity
  8
1
  6
SLD-Solid
370
    25
100
AcDbLine
 10
19.05
 20
46.5560855313
 30
0.0
 11
19.05
 21
-46.6976348437
 31
0.0
  0
LINE
  5
9A
330
1F
100
AcDbEntity
  8
1
  6
SLD-Solid
370
    25
100
AcDbLine
 10
9.2
 20
44.5790106634
 30
0.0
 11
9.2
 21
41.9587011964
 31
0.0
  0
LINE
  5
9B
330
1F
100
AcDbEntity
  8
1
  6
SLD-Solid
370
    25
100
AcDbLine
 10
9.2
 20
41.4830129515
 30
0.0
 11
9.2
 21
35.3885961177
 31
0.0
  0
LINE
  5
9C
330
1F
100
AcDbEntity
  8
1
  6
SLD-Solid
370
    25
100
AcDbLine
 10
9.2
 20
34.676688935
 30
0.0
 11
9.2
 21
-44.5790106634
 31
0.0
  0
LINE
  5
9D
330
1F
100
AcDbEntity
  8
1
  6
SLD-Solid
370
    25
100
AcDbLine
 10
13.03
 20
44.5790106634
 30
0.0
 11
13.03
 21
41.9871173317
 31
0.0
  0
LINE
  5
9E
330
1F
100
AcDbEntity
  8
1
  6
SLD-Solid
370
    25
100
AcDbLine
 10
13.03
 20
34.6324292339
 30
0.0
 11
13.03
 21
-44.5790106634
 31
0.0
  0
LINE
  5
9F
330
1F
100
AcDbEntity
  8
1
  6
SLD-Solid
370
    25
100
AcDbLine
 10
13.03
 20
41.453113616
 30
0.0
 11
13.03
 21
35.4316103884
 31
0.0
  0
LINE
  5
A0
330
1F
100
AcDbEntity
  8
1
  6
SLD-Solid
370
    25
100
AcDbLine
 10
12.28
 20
33.3554707167
 30
0.0
 11
12.28
 21
-43.7694359685
 31
0.0
  0
LINE
  5
A1
330
1F
100
AcDbEntity
  8
1
  6
SLD-Solid
370
    25
100
AcDbLine
 10
9.95
 20
33.3652595305
 30
0.0
 11
9.95
 21
-43.7694359685
 31
0.0
  0
LINE
  5
A2
330
1F
100
AcDbEntity
  8
1
  6
SLD-Solid
370
    25
100
AcDbLine
 10
9.95
 20
-43.7694359685
 30
0.0
 11
12.28
 21
-43.7694359685
 31
0.0
  0
LINE
  5
A3
330
1F
100
AcDbEntity
  8
1
  6
SLD-Solid
370
    25
100
AcDbLine
 10
1.7476022729
 20
34.925
 30
0.0
 11
1.7476022729
 21
-34.925
 31
0.0
  0
LINE
  5
A4
330
1F
100
AcDbEntity
  8
1
  6
SLD-Solid
370
    25
100
AcDbLine
 10
0.0
 20
34.925
 30
0.0
 11
0.0
 21
-34.925
 31
0.0
  0
LINE
  5
A5
330
1F
100
AcDbEntity
  8
1
  6
SLD-Solid
370
    25
100
AcDbLine
 10
13.03
 20
35.4113240881
 30
0.0
 11
13.03
 21
35.4316103884
 31
0.0
  0
LINE
  5
A6
330
1F
100
AcDbEntity
  8
1
  6
SLD-Solid
370
    25
100
AcDbLine
 10
9.2
 20
35.3885961177
 30
0.0
 11
9.2
 21
35.3683101782
 31
0.0
  0
LINE
  5
A7
330
1F
100
AcDbEntity
  8
1
  6
SLD-Solid
370
    25
100
AcDbLine
 10
9.95
 20
40.2901760725
 30
0.0
 11
9.95
 21
35.4888548114
 31
0.0
  0
LINE
  5
A8
330
1F
100
AcDbEntity
  8
1
  6
SLD-Solid
370
    25
100
AcDbLine
 10
12.28
 20
40.2834337913
 30
0.0
 11
12.28
 21
35.4978726362
 31
0.0
  0
LINE
  5
A9
330
1F
100
AcDbEntity
  8
1
  6
SLD-Solid
370
    25
100
AcDbLine
 10
88.0
 20
26.0
 30
0.0
 11
88.0
 21
-26.0
 31
0.0
  0
LINE
  5
AA
330
1F
100
AcDbEntity
  8
1
  6
SLD-Solid
370
    25
100
AcDbLine
 10
90.0
 20
24.0
 30
0.0
 11
90.0
 21
-24.0
 31
0.0
  0
LINE
  5
AB
330
1F
100
AcDbEntity
  8
1
  6
SLD-Solid
370
    25
100
AcDbLine
 10
9.2
 20
41.9587011964
 30
0.0
 11
9.2
 21
41.9345423912
 31
0.0
  0
LINE
  5
AC
330
1F
100
AcDbEntity
  8
1
  6
SLD-Solid
370
    25
100
AcDbLine
 10
13.03
 20
41.9629580968
 30
0.0
 11
13.03
 21
41.9871173317
 31
0.0
  0
LINE
  5
AD
330
1F
100
AcDbEntity
  8
SK1
  6
SLD-Solid
370
    25
100
AcDbLine
 10
-101.6
 20
-18.2922326599
 30
0.0
 11
-101.6
 21
18.2922326599
 31
0.0
  0
LINE
  5
AE
330
1F
100
AcDbEntity
  8
1
  6
SLD-Solid
370
    25
100
AcDbLine
 10
9.95
 20
43.7694359685
 30
0.0
 11
9.95
 21
41.7091381742
 31
0.0
  0
LINE
  5
AF
330
1F
100
AcDbEntity
  8
1
  6
SLD-Solid
370
    25
100
AcDbLine
 10
12.28
 20
43.7694359685
 30
0.0
 11
12.28
 21
41.714962274
 31
0.0
  0
LINE
  5
B0
330
1F
100
AcDbEntity
  8
1
  6
SLD-Solid
370
    25
100
AcDbLine
 10
9.95
 20
43.7694359685
 30
0.0
 11
12.28
 21
43.7694359685
 31
0.0
  0
LINE
  5
B1
330
1F
100
AcDbEntity
  8
1
  6
SLD-Solid
370
    25
100
AcDbLine
 10
2.1330363037
 20
34.7452691597
 30
0.0
 11
2.1330363037
 21
-34.7452691597
 31
0.0
  0
LINE
  5
B2
330
1F
100
AcDbEntity
  8
SK1
  6
SLD-Solid
370
    25
100
AcDbLine
 10
-99.8030472773
 20
0.0
 30
0.0
 11
-99.8030472773
 21
-20.3702515116
 31
0.0
  0
LINE
  5
B3
330
1F
100
AcDbEntity
  8
SK1
  6
SLD-Solid
370
    25
100
AcDbLine
 10
-99.8030472773
 20
20.3702515116
 30
0.0
 11
-99.8030472773
 21
0.0
 31
0.0
  0
LINE
  5
B4
330
1F
100
AcDbEntity
  8
1
  6
SLD-Solid
370
    25
100
AcDbLine
 10
22.098
 20
0.0
 30
0.0
 11
22.098
 21
-26.0
 31
0.0
  0
LINE
  5
B5
330
1F
100
AcDbEntity
  8
1
  6
SLD-Solid
370
    25
100
AcDbLine
 10
22.098
 20
26.0
 30
0.0
 11
22.098
 21
0.0
 31
0.0
  0
LINE
  5
B6
330
1F
100
AcDbEntity
  8
SK3
  6
SLD-Dashed
370
    18
100
AcDbLine
 10
6.4723069743
 20
-13.9015950424
 30
0.0
 11
6.3142161927
 21
-13.2694985628
 31
0.0
  0
LINE
  5
B7
330
1F
100
AcDbEntity
  8
SK3
  6
SLD-Dashed
370
    18
100
AcDbLine
 10
6.3142161927
 20
-13.2694985628
 30
0.0
 11
6.0693777048
 21
-12.6771190298
 31
0.0
  0
LINE
  5
B8
330
1F
100
AcDbEntity
  8
SK3
  6
SLD-Dashed
370
    18
100
AcDbLine
 10
6.0693777048
 20
-12.6771190298
 30
0.0
 11
5.7531756131
 21
-12.1616778279
 31
0.0
  0
LINE
  5
B9
330
1F
100
AcDbEntity
  8
SK3
  6
SLD-Dashed
370
    18
100
AcDbLine
 10
5.7531756131
 20
-12.1616778279
 30
0.0
 11
5.3854780579
 21
-11.7555620236
 31
0.0
  0
LINE
  5
BA
330
1F
100
AcDbEntity
  8
SK3
  6
SLD-Dashed
370
    18
100
AcDbLine
 10
5.3854780579
 20
-11.7555620236
 30
0.0
 11
4.989388829
 21
-11.4842893664
 31
0.0
  0
LINE
  5
BB
330
1F
100
AcDbEntity
  8
SK3
  6
SLD-Dashed
370
    18
100
AcDbLine
 10
4.989388829
 20
-11.4842893664
 30
0.0
 11
4.5897956693
 21
-11.364904915
 31
0.0
  0
LINE
  5
BC
330
1F
100
AcDbEntity
  8
SK3
  6
SLD-Dashed
370
    18
100
AcDbLine
 10
4.5897956693
 20
-11.364904915
 30
0.0
 11
4.2118064866
 21
-11.4049100337
 31
0.0
  0
LINE
  5
BD
330
1F
100
AcDbEntity
  8
SK3
  6
SLD-Dashed
370
    18
100
AcDbLine
 10
4.2118064866
 20
-11.4049100337
 30
0.0
 11
3.8791717315
 21
-11.6017910536
 31
0.0
  0
LINE
  5
BE
330
1F
100
AcDbEntity
  8
SK3
  6
SLD-Dashed
370
    18
100
AcDbLine
 10
3.8791717315
 20
-11.6017910536
 30
0.0
 11
3.6127920689
 21
-11.9431772162
 31
0.0
  0
LINE
  5
BF
330
1F
100
AcDbEntity
  8
SK3
  6
SLD-Dashed
370
    18
100
AcDbLine
 10
3.6127920689
 20
-11.9431772162
 30
0.0
 11
3.4294051127
 21
-12.4076179734
 31
0.0
  0
LINE
  5
C0
330
1F
100
AcDbEntity
  8
SK3
  6
SLD-Dashed
370
    18
100
AcDbLine
 10
3.4294051127
 20
-12.4076179734
 30
0.0
 11
3.3405337399
 21
-12.9659308043
 31
0.0
  0
LINE
  5
C1
330
1F
100
AcDbEntity
  8
SK3
  6
SLD-Dashed
370
    18
100
AcDbLine
 10
3.3405337399
 20
-12.9659308043
 30
0.0
 11
3.3517620655
 21
-13.5830348604
 31
0.0
  0
LINE
  5
C2
330
1F
100
AcDbEntity
  8
SK3
  6
SLD-Dashed
370
    18
100
AcDbLine
 10
3.3517620655
 20
-13.5830348604
 30
0.0
 11
3.4623845728
 21
-14.2201552244
 31
0.0
  0
LINE
  5
C3
330
1F
100
AcDbEntity
  8
SK3
  6
SLD-Dashed
370
    18
100
AcDbLine
 10
3.4623845728
 20
-14.2201552244
 30
0.0
 11
3.6654504425
 21
-14.8372592805
 31
0.0
  0
LINE
  5
C4
330
1F
100
AcDbEntity
  8
SK3
  6
SLD-Dashed
370
    18
100
AcDbLine
 10
3.6654504425
 20
-14.8372592805
 30
0.0
 11
3.9482002994
 21
-15.3955721114
 31
0.0
  0
LINE
  5
C5
330
1F
100
AcDbEntity
  8
SK3
  6
SLD-Dashed
370
    18
100
AcDbLine
 10
3.9482002994
 20
-15.3955721114
 30
0.0
 11
4.2928679301
 21
-15.8600128686
 31
0.0
  0
LINE
  5
C6
330
1F
100
AcDbEntity
  8
SK3
  6
SLD-Dashed
370
    18
100
AcDbLine
 10
4.2928679301
 20
-15.8600128686
 30
0.0
 11
4.6777965997
 21
-16.2013990312
 31
0.0
  0
LINE
  5
C7
330
1F
100
AcDbEntity
  8
SK3
  6
SLD-Dashed
370
    18
100
AcDbLine
 10
4.6777965997
 20
-16.2013990312
 30
0.0
 11
5.0787998242
 21
-16.3982800511
 31
0.0
  0
LINE
  5
C8
330
1F
100
AcDbEntity
  8
SK3
  6
SLD-Dashed
370
    18
100
AcDbLine
 10
5.0787998242
 20
-16.3982800511
 30
0.0
 11
5.4706810962
 21
-16.4382851698
 31
0.0
  0
LINE
  5
C9
330
1F
100
AcDbEntity
  8
SK3
  6
SLD-Dashed
370
    18
100
AcDbLine
 10
5.4706810962
 20
-16.4382851698
 30
0.0
 11
5.8288170743
 21
-16.3189007184
 31
0.0
  0
LINE
  5
CA
330
1F
100
AcDbEntity
  8
SK3
  6
SLD-Dashed
370
    18
100
AcDbLine
 10
5.8288170743
 20
-16.3189007184
 30
0.0
 11
6.1307047577
 21
-16.0476280612
 31
0.0
  0
LINE
  5
CB
330
1F
100
AcDbEntity
  8
SK3
  6
SLD-Dashed
370
    18
100
AcDbLine
 10
6.1307047577
 20
-16.0476280612
 30
0.0
 11
6.3573754331
 21
-15.6415122569
 31
0.0
  0
LINE
  5
CC
330
1F
100
AcDbEntity
  8
SK3
  6
SLD-Dashed
370
    18
100
AcDbLine
 10
6.3573754331
 20
-15.6415122569
 30
0.0
 11
6.4945865482
 21
-15.126071055
 31
0.0
  0
LINE
  5
CD
330
1F
100
AcDbEntity
  8
SK3
  6
SLD-Dashed
370
    18
100
AcDbLine
 10
6.4945865482
 20
-15.126071055
 30
0.0
 11
6.5337166241
 21
-14.533691522
 31
0.0
  0
LINE
  5
CE
330
1F
100
AcDbEntity
  8
SK3
  6
SLD-Dashed
370
    18
100
AcDbLine
 10
6.5337166241
 20
-14.533691522
 30
0.0
 11
6.4723069743
 21
-13.9015950424
 31
0.0
  0
LINE
  5
CF
330
1F
100
AcDbEntity
  8
SK3
  6
SLD-Dashed
370
    18
100
AcDbLine
 10
6.4545594773
 20
-13.8826166832
 30
0.0
 11
6.5127856003
 21
-14.5025060877
 31
0.0
  0
LINE
  5
D0
330
1F
100
AcDbEntity
  8
SK3
  6
SLD-Dashed
370
    18
100
AcDbLine
 10
6.5127856003
 20
-14.5025060877
 30
0.0
 11
6.4682345259
 21
-15.0801510537
 31
0.0
  0
LINE
  5
D1
330
1F
100
AcDbEntity
  8
SK3
  6
SLD-Dashed
370
    18
100
AcDbLine
 10
6.4682345259
 20
-15.0801510537
 30
0.0
 11
6.3239423361
 21
-15.5761860314
 31
0.0
  0
LINE
  5
D2
330
1F
100
AcDbEntity
  8
SK3
  6
SLD-Dashed
370
    18
100
AcDbLine
 10
6.3239423361
 20
-15.5761860314
 30
0.0
 11
6.0897423053
 21
-15.9568070568
 31
0.0
  0
LINE
  5
D3
330
1F
100
AcDbEntity
  8
SK3
  6
SLD-Dashed
370
    18
100
AcDbLine
 10
6.0897423053
 20
-15.9568070568
 30
0.0
 11
5.7815947785
 21
-16.1960754359
 31
0.0
  0
LINE
  5
D4
330
1F
100
AcDbEntity
  8
SK3
  6
SLD-Dashed
370
    18
100
AcDbLine
 10
5.7815947785
 20
-16.1960754359
 30
0.0
 11
5.4204995004
 21
-16.2776854242
 31
0.0
  0
LINE
  5
D5
330
1F
100
AcDbEntity
  8
SK3
  6
SLD-Dashed
370
    18
100
AcDbLine
 10
5.4204995004
 20
-16.2776854242
 30
0.0
 11
5.0310645175
 21
-16.1960754359
 31
0.0
  0
LINE
  5
D6
330
1F
100
AcDbEntity
  8
SK3
  6
SLD-Dashed
370
    18
100
AcDbLine
 10
5.0310645175
 20
-16.1960754359
 30
0.0
 11
4.6398291803
 21
-15.9568070568
 31
0.0
  0
LINE
  5
D7
330
1F
100
AcDbEntity
  8
SK3
  6
SLD-Dashed
370
    18
100
AcDbLine
 10
4.6398291803
 20
-15.9568070568
 30
0.0
 11
4.2734555305
 21
-15.5761860314
 31
0.0
  0
LINE
  5
D8
330
1F
100
AcDbEntity
  8
SK3
  6
SLD-Dashed
370
    18
100
AcDbLine
 10
4.2734555305
 20
-15.5761860314
 30
0.0
 11
3.9569113269
 21
-15.0801510537
 31
0.0
  0
LINE
  5
D9
330
1F
100
AcDbEntity
  8
SK3
  6
SLD-Dashed
370
    18
100
AcDbLine
 10
3.9569113269
 20
-15.0801510537
 30
0.0
 11
3.7117685337
 21
-14.5025060877
 31
0.0
  0
LINE
  5
DA
330
1F
100
AcDbEntity
  8
SK3
  6
SLD-Dashed
370
    18
100
AcDbLine
 10
3.7117685337
 20
-14.5025060877
 30
0.0
 11
3.5547332273
 21
-13.8826166832
 31
0.0
  0
LINE
  5
DB
330
1F
100
AcDbEntity
  8
SK3
  6
SLD-Dashed
370
    18
100
AcDbLine
 10
3.5547332273
 20
-13.8826166832
 30
0.0
 11
3.4965071043
 21
-13.2627272786
 31
0.0
  0
LINE
  5
DC
330
1F
100
AcDbEntity
  8
SK3
  6
SLD-Dashed
370
    18
100
AcDbLine
 10
3.4965071043
 20
-13.2627272786
 30
0.0
 11
3.5410581787
 21
-12.6850823126
 31
0.0
  0
LINE
  5
DD
330
1F
100
AcDbEntity
  8
SK3
  6
SLD-Dashed
370
    18
100
AcDbLine
 10
3.5410581787
 20
-12.6850823126
 30
0.0
 11
3.6853503685
 21
-12.1890473349
 31
0.0
  0
LINE
  5
DE
330
1F
100
AcDbEntity
  8
SK3
  6
SLD-Dashed
370
    18
100
AcDbLine
 10
3.6853503685
 20
-12.1890473349
 30
0.0
 11
3.9195503993
 21
-11.8084263096
 31
0.0
  0
LINE
  5
DF
330
1F
100
AcDbEntity
  8
SK3
  6
SLD-Dashed
370
    18
100
AcDbLine
 10
3.9195503993
 20
-11.8084263096
 30
0.0
 11
4.2276979261
 21
-11.5691579304
 31
0.0
  0
LINE
  5
E0
330
1F
100
AcDbEntity
  8
SK3
  6
SLD-Dashed
370
    18
100
AcDbLine
 10
4.2276979261
 20
-11.5691579304
 30
0.0
 11
4.5887932042
 21
-11.4875479421
 31
0.0
  0
LINE
  5
E1
330
1F
100
AcDbEntity
  8
SK3
  6
SLD-Dashed
370
    18
100
AcDbLine
 10
4.5887932042
 20
-11.4875479421
 30
0.0
 11
4.9782281871
 21
-11.5691579304
 31
0.0
  0
LINE
  5
E2
330
1F
100
AcDbEntity
  8
SK3
  6
SLD-Dashed
370
    18
100
AcDbLine
 10
4.9782281871
 20
-11.5691579304
 30
0.0
 11
5.3694635243
 21
-11.8084263096
 31
0.0
  0
LINE
  5
E3
330
1F
100
AcDbEntity
  8
SK3
  6
SLD-Dashed
370
    18
100
AcDbLine
 10
5.3694635243
 20
-11.8084263096
 30
0.0
 11
5.7358371741
 21
-12.1890473349
 31
0.0
  0
LINE
  5
E4
330
1F
100
AcDbEntity
  8
SK3
  6
SLD-Dashed
370
    18
100
AcDbLine
 10
5.7358371741
 20
-12.1890473349
 30
0.0
 11
6.0523813778
 21
-12.6850823126
 31
0.0
  0
LINE
  5
E5
330
1F
100
AcDbEntity
  8
SK3
  6
SLD-Dashed
370
    18
100
AcDbLine
 10
6.0523813778
 20
-12.6850823126
 30
0.0
 11
6.2975241709
 21
-13.2627272786
 31
0.0
  0
LINE
  5
E6
330
1F
100
AcDbEntity
  8
SK3
  6
SLD-Dashed
370
    18
100
AcDbLine
 10
6.2975241709
 20
-13.2627272786
 30
0.0
 11
6.4545594773
 21
-13.8826166832
 31
0.0
  0
LINE
  5
E7
330
1F
100
AcDbEntity
  8
SK3
  6
SLD-Dashed
370
    18
100
AcDbLine
 10
17.1792841073
 20
-11.0168048658
 30
0.0
 11
17.022248801
 21
-10.3969154613
 31
0.0
  0
LINE
  5
E8
330
1F
100
AcDbEntity
  8
SK3
  6
SLD-Dashed
370
    18
100
AcDbLine
 10
17.022248801
 20
-10.3969154613
 30
0.0
 11
16.7771060078
 21
-9.8192704952
 31
0.0
  0
LINE
  5
E9
330
1F
100
AcDbEntity
  8
SK3
  6
SLD-Dashed
370
    18
100
AcDbLine
 10
16.7771060078
 20
-9.8192704952
 30
0.0
 11
16.4605618041
 21
-9.3232355176
 31
0.0
  0
LINE
  5
EA
330
1F
100
AcDbEntity
  8
SK3
  6
SLD-Dashed
370
    18
100
AcDbLine
 10
16.4605618041
 20
-9.3232355176
 30
0.0
 11
16.0941881543
 21
-8.9426144922
 31
0.0
  0
LINE
  5
EB
330
1F
100
AcDbEntity
  8
SK3
  6
SLD-Dashed
370
    18
100
AcDbLine
 10
16.0941881543
 20
-8.9426144922
 30
0.0
 11
15.7029528171
 21
-8.703346113
 31
0.0
  0
LINE
  5
EC
330
1F
100
AcDbEntity
  8
SK3
  6
SLD-Dashed
370
    18
100
AcDbLine
 10
15.7029528171
 20
-8.703346113
 30
0.0
 11
15.3135178342
 21
-8.6217361247
 31
0.0
  0
LINE
  5
ED
330
1F
100
AcDbEntity
  8
SK3
  6
SLD-Dashed
370
    18
100
AcDbLine
 10
15.3135178342
 20
-8.6217361247
 30
0.0
 11
14.9524225561
 21
-8.703346113
 31
0.0
  0
LINE
  5
EE
330
1F
100
AcDbEntity
  8
SK3
  6
SLD-Dashed
370
    18
100
AcDbLine
 10
14.9524225561
 20
-8.703346113
 30
0.0
 11
14.6442750293
 21
-8.9426144922
 31
0.0
  0
LINE
  5
EF
330
1F
100
AcDbEntity
  8
SK3
  6
SLD-Dashed
370
    18
100
AcDbLine
 10
14.6442750293
 20
-8.9426144922
 30
0.0
 11
14.4100749985
 21
-9.3232355176
 31
0.0
  0
LINE
  5
F0
330
1F
100
AcDbEntity
  8
SK3
  6
SLD-Dashed
370
    18
100
AcDbLine
 10
14.4100749985
 20
-9.3232355176
 30
0.0
 11
14.2657828088
 21
-9.8192704952
 31
0.0
  0
LINE
  5
F1
330
1F
100
AcDbEntity
  8
SK3
  6
SLD-Dashed
370
    18
100
AcDbLine
 10
14.2657828088
 20
-9.8192704952
 30
0.0
 11
14.2212317343
 21
-10.3969154613
 31
0.0
  0
LINE
  5
F2
330
1F
100
AcDbEntity
  8
SK3
  6
SLD-Dashed
370
    18
100
AcDbLine
 10
14.2212317343
 20
-10.3969154613
 30
0.0
 11
14.2794578574
 21
-11.0168048658
 31
0.0
  0
LINE
  5
F3
330
1F
100
AcDbEntity
  8
SK3
  6
SLD-Dashed
370
    18
100
AcDbLine
 10
14.2794578574
 20
-11.0168048658
 30
0.0
 11
14.4364931637
 21
-11.6366942703
 31
0.0
  0
LINE
  5
F4
330
1F
100
AcDbEntity
  8
SK3
  6
SLD-Dashed
370
    18
100
AcDbLine
 10
14.4364931637
 20
-11.6366942703
 30
0.0
 11
14.6816359569
 21
-12.2143392363
 31
0.0
  0
LINE
  5
F5
330
1F
100
AcDbEntity
  8
SK3
  6
SLD-Dashed
370
    18
100
AcDbLine
 10
14.6816359569
 20
-12.2143392363
 30
0.0
 11
14.9981801606
 21
-12.710374214
 31
0.0
  0
LINE
  5
F6
330
1F
100
AcDbEntity
  8
SK3
  6
SLD-Dashed
370
    18
100
AcDbLine
 10
14.9981801606
 20
-12.710374214
 30
0.0
 11
15.3645538104
 21
-13.0909952394
 31
0.0
  0
LINE
  5
F7
330
1F
100
AcDbEntity
  8
SK3
  6
SLD-Dashed
370
    18
100
AcDbLine
 10
15.3645538104
 20
-13.0909952394
 30
0.0
 11
15.7557891476
 21
-13.3302636185
 31
0.0
  0
LINE
  5
F8
330
1F
100
AcDbEntity
  8
SK3
  6
SLD-Dashed
370
    18
100
AcDbLine
 10
15.7557891476
 20
-13.3302636185
 30
0.0
 11
16.1452241305
 21
-13.4118736069
 31
0.0
  0
LINE
  5
F9
330
1F
100
AcDbEntity
  8
SK3
  6
SLD-Dashed
370
    18
100
AcDbLine
 10
16.1452241305
 20
-13.4118736069
 30
0.0
 11
16.5063194086
 21
-13.3302636185
 31
0.0
  0
LINE
  5
FA
330
1F
100
AcDbEntity
  8
SK3
  6
SLD-Dashed
370
    18
100
AcDbLine
 10
16.5063194086
 20
-13.3302636185
 30
0.0
 11
16.8144669354
 21
-13.0909952394
 31
0.0
  0
LINE
  5
FB
330
1F
100
AcDbEntity
  8
SK3
  6
SLD-Dashed
370
    18
100
AcDbLine
 10
16.8144669354
 20
-13.0909952394
 30
0.0
 11
17.0486669662
 21
-12.710374214
 31
0.0
  0
LINE
  5
FC
330
1F
100
AcDbEntity
  8
SK3
  6
SLD-Dashed
370
    18
100
AcDbLine
 10
17.0486669662
 20
-12.710374214
 30
0.0
 11
17.1929591559
 21
-12.2143392363
 31
0.0
  0
LINE
  5
FD
330
1F
100
AcDbEntity
  8
SK3
  6
SLD-Dashed
370
    18
100
AcDbLine
 10
17.1929591559
 20
-12.2143392363
 30
0.0
 11
17.2375102304
 21
-11.6366942703
 31
0.0
  0
LINE
  5
FE
330
1F
100
AcDbEntity
  8
SK3
  6
SLD-Dashed
370
    18
100
AcDbLine
 10
17.2375102304
 20
-11.6366942703
 30
0.0
 11
17.1792841073
 21
-11.0168048658
 31
0.0
  0
LINE
  5
FF
330
1F
100
AcDbEntity
  8
SK3
  6
SLD-Dashed
370
    18
100
AcDbLine
 10
88.0947441117
 20
-16.0
 30
0.0
 11
88.0947441117
 21
16.0
 31
0.0
  0
LINE
  5
100
330
1F
100
AcDbEntity
  8
SK3
  6
SLD-Dashed
370
    18
100
AcDbLine
 10
90.0
 20
-17.1
 30
0.0
 11
90.0
 21
17.1
 31
0.0
  0
LINE
  5
101
330
1F
100
AcDbEntity
  8
SK3
  6
SLD-Dashed
370
    18
100
AcDbLine
 10
31.5
 20
-16.25
 30
0.0
 11
31.5
 21
16.25
 31
0.0
  0
LINE
  5
102
330
1F
100
AcDbEntity
  8
SK3
  6
SLD-Dashed
370
    18
100
AcDbLine
 10
28.5
 20
-16.25
 30
0.0
 11
28.5
 21
16.25
 31
0.0
  0
LINE
  5
103
330
1F
100
AcDbEntity
  8
SK3
  6
SLD-Dashed
370
    18
100
AcDbLine
 10
31.5
 20
-15.9794641147
 30
0.0
 11
31.5
 21
15.9794641147
 31
0.0
  0
LINE
  5
104
330
1F
100
AcDbEntity
  8
SK3
  6
SLD-Dashed
370
    18
100
AcDbLine
 10
-99.7034043657
 20
-13.19
 30
0.0
 11
-99.7034043657
 21
13.19
 31
0.0
  0
LINE
  5
105
330
1F
100
AcDbEntity
  8
SK3
  6
SLD-Dashed
370
    18
100
AcDbLine
 10
-101.6
 20
-14.2799375549
 30
0.0
 11
-101.6
 21
14.2799375549
 31
0.0
  0
LINE
  5
106
330
1F
100
AcDbEntity
  8
SK3
  6
SLD-Dashed
370
    18
100
AcDbLine
 10
-95.25
 20
-13.19
 30
0.0
 11
-95.25
 21
13.19
 31
0.0
  0
LINE
  5
107
330
1F
100
AcDbEntity
  8
SK3
  6
SLD-Dashed
370
    18
100
AcDbLine
 10
-94.0505548158
 20
-11.1125
 30
0.0
 11
-94.0505548158
 21
11.1125
 31
0.0
  0
LINE
  5
108
330
1F
100
AcDbEntity
  8
SK3
  6
SLD-Dashed
370
    18
100
AcDbLine
 10
3.7
 20
37.875
 30
0.0
 11
3.7
 21
46.5560855313
 31
0.0
  0
LINE
  5
109
330
1F
100
AcDbEntity
  8
SK3
  6
SLD-Dashed
370
    18
100
AcDbLine
 10
18.55
 20
46.5560855313
 30
0.0
 11
18.55
 21
37.875
 31
0.0
  0
LINE
  5
10A
330
1F
100
AcDbEntity
  8
SK3
  6
SLD-Dashed
370
    18
100
AcDbLine
 10
14.2727106199
 20
46.8162535878
 30
0.0
 11
18.3
 21
46.8162535878
 31
0.0
  0
LINE
  5
10B
330
1F
100
AcDbEntity
  8
SK3
  6
SLD-Dashed
370
    18
100
AcDbLine
 10
3.95
 20
46.8162535878
 30
0.0
 11
7.9572893801
 21
46.8162535878
 31
0.0
  0
LINE
  5
10C
330
1F
100
AcDbEntity
  8
1
  6
SLD-Dashed
370
    18
100
AcDbLine
 10
13.03
 20
44.5510215932
 30
0.0
 11
13.03
 21
44.5790106634
 31
0.0
  0
LINE
  5
10D
330
1F
100
AcDbEntity
  8
1
  6
SLD-Dashed
370
    18
100
AcDbLine
 10
9.2
 20
44.5790106634
 30
0.0
 11
9.2
 21
44.5510215932
 31
0.0
  0
LINE
  5
10E
330
1F
100
AcDbEntity
  8
1
  6
SLD-Dashed
370
    18
100
AcDbLine
 10
9.2
 20
-44.5790106634
 30
0.0
 11
9.2
 21
-44.5510215932
 31
0.0
  0
LINE
  5
10F
330
1F
100
AcDbEntity
  8
1
  6
SLD-Dashed
370
    18
100
AcDbLine
 10
13.03
 20
-44.5510215932
 30
0.0
 11
13.03
 21
-44.5790106634
 31
0.0
  0
LINE
  5
110
330
1F
100
AcDbEntity
  8
SK3
  6
SLD-Dashed
370
    18
100
AcDbLine
 10
3.2
 20
-35.475
 30
0.0
 11
3.2
 21
-46.6976348437
 31
0.0
  0
LINE
  5
111
330
1F
100
AcDbEntity
  8
SK3
  6
SLD-Dashed
370
    18
100
AcDbLine
 10
19.05
 20
-46.6976348437
 30
0.0
 11
19.05
 21
-35.475
 31
0.0
  0
LINE
  5
112
330
1F
100
AcDbEntity
  8
SK3
  6
SLD-Dashed
370
    18
100
AcDbLine
 10
19.05
 20
-35.1
 30
0.0
 11
3.2
 21
-35.1
 31
0.0
  0
LINE
  5
113
330
1F
100
AcDbEntity
  8
SK3
  6
SLD-Dashed
370
    18
100
AcDbLine
 10
3.2
 20
-35.475
 30
0.0
 11
19.05
 21
-35.475
 31
0.0
  0
LINE
  5
114
330
1F
100
AcDbEntity
  8
SK3
  6
SLD-Dashed
370
    18
100
AcDbLine
 10
3.7
 20
37.5
 30
0.0
 11
18.55
 21
37.5
 31
0.0
  0
LINE
  5
115
330
1F
100
AcDbEntity
  8
SK3
  6
SLD-Dashed
370
    18
100
AcDbLine
 10
18.55
 20
37.875
 30
0.0
 11
3.7
 21
37.875
 31
0.0
  0
LINE
  5
116
330
1F
100
AcDbEntity
  8
SK3
  6
SLD-Dashed
370
    18
100
AcDbLine
 10
25.6963489221
 20
-11.1125
 30
0.0
 11
25.6963489221
 21
11.1125
 31
0.0
  0
LINE
  5
117
330
1F
100
AcDbEntity
  8
SK3
  6
SLD-Dashed
370
    18
100
AcDbLine
 10
26.5
 20
-12.45
 30
0.0
 11
26.5
 21
12.45
 31
0.0
  0
LINE
  5
118
330
1F
100
AcDbEntity
  8
SK3
  6
SLD-Dashed
370
    18
100
AcDbLine
 10
28.5
 20
-12.4449228007
 30
0.0
 11
28.5
 21
12.4449228007
 31
0.0
  0
LINE
  5
119
330
1F
100
AcDbEntity
  8
SK3
  6
SLD-Dashed
370
    18
100
AcDbLine
 10
51.3
 20
23.9
 30
0.0
 11
38.3
 21
23.9
 31
0.0
  0
LINE
  5
11A
330
1F
100
AcDbEntity
  8
SK3
  6
SLD-Dashed
370
    18
100
AcDbLine
 10
79.7
 20
23.9
 30
0.0
 11
66.7
 21
23.9
 31
0.0
  0
LINE
  5
11B
330
1F
100
AcDbEntity
  8
SK3
  6
SLD-Dashed
370
    18
100
AcDbLine
 10
16.1
 20
33.1
 30
0.0
 11
6.12012853
 21
33.1
 31
0.0
  0
LINE
  5
11C
330
1F
100
AcDbEntity
  8
SK3
  6
SLD-Dashed
370
    18
100
AcDbLine
 10
6.1
 20
37.5
 30
0.0
 11
16.07987147
 21
37.5
 31
0.0
  0
LINE
  5
11D
330
1F
100
AcDbEntity
  8
SK3
  6
SLD-Dashed
370
    18
100
AcDbLine
 10
6.4000000024
 20
32.8
 30
0.0
 11
15.8
 21
32.8
 31
0.0
  0
LINE
  5
11E
330
1F
100
AcDbEntity
  8
1
  6
SLD-Dashed
370
    18
100
AcDbLine
 10
12.28
 20
43.7694359685
 30
0.0
 11
9.95
 21
43.7694359685
 31
0.0
  0
LINE
  5
11F
330
1F
100
AcDbEntity
  8
1
  6
SLD-Dashed
370
    18
100
AcDbLine
 10
12.28
 20
-43.7694359685
 30
0.0
 11
9.95
 21
-43.7694359685
 31
0.0
  0
LINE
  5
120
330
1F
100
AcDbEntity
  8
1
  6
SLD-Dashed
370
    18
100
AcDbLine
 10
7.5902766066
 20
-47.4754841997
 30
0.0
 11
3.95
 21
-47.4754841997
 31
0.0
  0
LINE
  5
121
330
1F
100
AcDbEntity
  8
1
  6
SLD-Dashed
370
    18
100
AcDbLine
 10
18.3
 20
-47.4754841997
 30
0.0
 11
14.6397233934
 21
-47.4754841997
 31
0.0
  0
LINE
  5
122
330
1F
100
AcDbEntity
  8
SK3
  6
SLD-Dashed
370
    18
100
AcDbLine
 10
3.5547332273
 20
13.8826166832
 30
0.0
 11
3.4965071043
 21
13.2627272786
 31
0.0
  0
LINE
  5
123
330
1F
100
AcDbEntity
  8
SK3
  6
SLD-Dashed
370
    18
100
AcDbLine
 10
3.4965071043
 20
13.2627272786
 30
0.0
 11
3.5410581787
 21
12.6850823126
 31
0.0
  0
LINE
  5
124
330
1F
100
AcDbEntity
  8
SK3
  6
SLD-Dashed
370
    18
100
AcDbLine
 10
3.5410581787
 20
12.6850823126
 30
0.0
 11
3.6853503685
 21
12.1890473349
 31
0.0
  0
LINE
  5
125
330
1F
100
AcDbEntity
  8
SK3
  6
SLD-Dashed
370
    18
100
AcDbLine
 10
3.6853503685
 20
12.1890473349
 30
0.0
 11
3.9195503993
 21
11.8084263096
 31
0.0
  0
LINE
  5
126
330
1F
100
AcDbEntity
  8
SK3
  6
SLD-Dashed
370
    18
100
AcDbLine
 10
3.9195503993
 20
11.8084263096
 30
0.0
 11
4.2276979261
 21
11.5691579304
 31
0.0
  0
LINE
  5
127
330
1F
100
AcDbEntity
  8
SK3
  6
SLD-Dashed
370
    18
100
AcDbLine
 10
4.2276979261
 20
11.5691579304
 30
0.0
 11
4.5887932042
 21
11.4875479421
 31
0.0
  0
LINE
  5
128
330
1F
100
AcDbEntity
  8
SK3
  6
SLD-Dashed
370
    18
100
AcDbLine
 10
4.5887932042
 20
11.4875479421
 30
0.0
 11
4.9782281871
 21
11.5691579304
 31
0.0
  0
LINE
  5
129
330
1F
100
AcDbEntity
  8
SK3
  6
SLD-Dashed
370
    18
100
AcDbLine
 10
4.9782281871
 20
11.5691579304
 30
0.0
 11
5.3694635243
 21
11.8084263096
 31
0.0
  0
LINE
  5
12A
330
1F
100
AcDbEntity
  8
SK3
  6
SLD-Dashed
370
    18
100
AcDbLine
 10
5.3694635243
 20
11.8084263096
 30
0.0
 11
5.7358371741
 21
12.1890473349
 31
0.0
  0
LINE
  5
12B
330
1F
100
AcDbEntity
  8
SK3
  6
SLD-Dashed
370
    18
100
AcDbLine
 10
5.7358371741
 20
12.1890473349
 30
0.0
 11
6.0523813778
 21
12.6850823126
 31
0.0
  0
LINE
  5
12C
330
1F
100
AcDbEntity
  8
SK3
  6
SLD-Dashed
370
    18
100
AcDbLine
 10
6.0523813778
 20
12.6850823126
 30
0.0
 11
6.2975241709
 21
13.2627272786
 31
0.0
  0
LINE
  5
12D
330
1F
100
AcDbEntity
  8
SK3
  6
SLD-Dashed
370
    18
100
AcDbLine
 10
6.2975241709
 20
13.2627272786
 30
0.0
 11
6.4545594773
 21
13.8826166832
 31
0.0
  0
LINE
  5
12E
330
1F
100
AcDbEntity
  8
SK3
  6
SLD-Dashed
370
    18
100
AcDbLine
 10
6.4545594773
 20
13.8826166832
 30
0.0
 11
6.5127856003
 21
14.5025060877
 31
0.0
  0
LINE
  5
12F
330
1F
100
AcDbEntity
  8
SK3
  6
SLD-Dashed
370
    18
100
AcDbLine
 10
6.5127856003
 20
14.5025060877
 30
0.0
 11
6.4682345259
 21
15.0801510537
 31
0.0
  0
LINE
  5
130
330
1F
100
AcDbEntity
  8
SK3
  6
SLD-Dashed
370
    18
100
AcDbLine
 10
6.4682345259
 20
15.0801510537
 30
0.0
 11
6.3239423361
 21
15.5761860314
 31
0.0
  0
LINE
  5
131
330
1F
100
AcDbEntity
  8
SK3
  6
SLD-Dashed
370
    18
100
AcDbLine
 10
6.3239423361
 20
15.5761860314
 30
0.0
 11
6.0897423053
 21
15.9568070568
 31
0.0
  0
LINE
  5
132
330
1F
100
AcDbEntity
  8
SK3
  6
SLD-Dashed
370
    18
100
AcDbLine
 10
6.0897423053
 20
15.9568070568
 30
0.0
 11
5.7815947785
 21
16.1960754359
 31
0.0
  0
LINE
  5
133
330
1F
100
AcDbEntity
  8
SK3
  6
SLD-Dashed
370
    18
100
AcDbLine
 10
5.7815947785
 20
16.1960754359
 30
0.0
 11
5.4204995004
 21
16.2776854242
 31
0.0
  0
LINE
  5
134
330
1F
100
AcDbEntity
  8
SK3
  6
SLD-Dashed
370
    18
100
AcDbLine
 10
5.4204995004
 20
16.2776854242
 30
0.0
 11
5.0310645175
 21
16.1960754359
 31
0.0
  0
LINE
  5
135
330
1F
100
AcDbEntity
  8
SK3
  6
SLD-Dashed
370
    18
100
AcDbLine
 10
5.0310645175
 20
16.1960754359
 30
0.0
 11
4.6398291803
 21
15.9568070568
 31
0.0
  0
LINE
  5
136
330
1F
100
AcDbEntity
  8
SK3
  6
SLD-Dashed
370
    18
100
AcDbLine
 10
4.6398291803
 20
15.9568070568
 30
0.0
 11
4.2734555305
 21
15.5761860314
 31
0.0
  0
LINE
  5
137
330
1F
100
AcDbEntity
  8
SK3
  6
SLD-Dashed
370
    18
100
AcDbLine
 10
4.2734555305
 20
15.5761860314
 30
0.0
 11
3.9569113269
 21
15.0801510537
 31
0.0
  0
LINE
  5
138
330
1F
100
AcDbEntity
  8
SK3
  6
SLD-Dashed
370
    18
100
AcDbLine
 10
3.9569113269
 20
15.0801510537
 30
0.0
 11
3.7117685337
 21
14.5025060877
 31
0.0
  0
LINE
  5
139
330
1F
100
AcDbEntity
  8
SK3
  6
SLD-Dashed
370
    18
100
AcDbLine
 10
3.7117685337
 20
14.5025060877
 30
0.0
 11
3.5547332273
 21
13.8826166832
 31
0.0
  0
LINE
  5
13A
330
1F
100
AcDbEntity
  8
SK3
  6
SLD-Dashed
370
    18
100
AcDbLine
 10
14.2794578574
 20
11.0168048658
 30
0.0
 11
14.4364931637
 21
11.6366942703
 31
0.0
  0
LINE
  5
13B
330
1F
100
AcDbEntity
  8
SK3
  6
SLD-Dashed
370
    18
100
AcDbLine
 10
14.4364931637
 20
11.6366942703
 30
0.0
 11
14.6816359569
 21
12.2143392363
 31
0.0
  0
LINE
  5
13C
330
1F
100
AcDbEntity
  8
SK3
  6
SLD-Dashed
370
    18
100
AcDbLine
 10
14.6816359569
 20
12.2143392363
 30
0.0
 11
14.9981801606
 21
12.710374214
 31
0.0
  0
LINE
  5
13D
330
1F
100
AcDbEntity
  8
SK3
  6
SLD-Dashed
370
    18
100
AcDbLine
 10
14.9981801606
 20
12.710374214
 30
0.0
 11
15.3645538104
 21
13.0909952394
 31
0.0
  0
LINE
  5
13E
330
1F
100
AcDbEntity
  8
SK3
  6
SLD-Dashed
370
    18
100
AcDbLine
 10
15.3645538104
 20
13.0909952394
 30
0.0
 11
15.7557891476
 21
13.3302636185
 31
0.0
  0
LINE
  5
13F
330
1F
100
AcDbEntity
  8
SK3
  6
SLD-Dashed
370
    18
100
AcDbLine
 10
15.7557891476
 20
13.3302636185
 30
0.0
 11
16.1452241305
 21
13.4118736069
 31
0.0
  0
LINE
  5
140
330
1F
100
AcDbEntity
  8
SK3
  6
SLD-Dashed
370
    18
100
AcDbLine
 10
16.1452241305
 20
13.4118736069
 30
0.0
 11
16.5063194086
 21
13.3302636185
 31
0.0
  0
LINE
  5
141
330
1F
100
AcDbEntity
  8
SK3
  6
SLD-Dashed
370
    18
100
AcDbLine
 10
16.5063194086
 20
13.3302636185
 30
0.0
 11
16.8144669354
 21
13.0909952394
 31
0.0
  0
LINE
  5
142
330
1F
100
AcDbEntity
  8
SK3
  6
SLD-Dashed
370
    18
100
AcDbLine
 10
16.8144669354
 20
13.0909952394
 30
0.0
 11
17.0486669662
 21
12.710374214
 31
0.0
  0
LINE
  5
143
330
1F
100
AcDbEntity
  8
SK3
  6
SLD-Dashed
370
    18
100
AcDbLine
 10
17.0486669662
 20
12.710374214
 30
0.0
 11
17.1929591559
 21
12.2143392363
 31
0.0
  0
LINE
  5
144
330
1F
100
AcDbEntity
  8
SK3
  6
SLD-Dashed
370
    18
100
AcDbLine
 10
17.1929591559
 20
12.2143392363
 30
0.0
 11
17.2375102304
 21
11.6366942703
 31
0.0
  0
LINE
  5
145
330
1F
100
AcDbEntity
  8
SK3
  6
SLD-Dashed
370
    18
100
AcDbLine
 10
17.2375102304
 20
11.6366942703
 30
0.0
 11
17.1792841073
 21
11.0168048658
 31
0.0
  0
LINE
  5
146
330
1F
100
AcDbEntity
  8
SK3
  6
SLD-Dashed
370
    18
100
AcDbLine
 10
17.1792841073
 20
11.0168048658
 30
0.0
 11
17.022248801
 21
10.3969154613
 31
0.0
  0
LINE
  5
147
330
1F
100
AcDbEntity
  8
SK3
  6
SLD-Dashed
370
    18
100
AcDbLine
 10
17.022248801
 20
10.3969154613
 30
0.0
 11
16.7771060078
 21
9.8192704952
 31
0.0
  0
LINE
  5
148
330
1F
100
AcDbEntity
  8
SK3
  6
SLD-Dashed
370
    18
100
AcDbLine
 10
16.7771060078
 20
9.8192704952
 30
0.0
 11
16.4605618041
 21
9.3232355176
 31
0.0
  0
LINE
  5
149
330
1F
100
AcDbEntity
  8
SK3
  6
SLD-Dashed
370
    18
100
AcDbLine
 10
16.4605618041
 20
9.3232355176
 30
0.0
 11
16.0941881543
 21
8.9426144922
 31
0.0
  0
LINE
  5
14A
330
1F
100
AcDbEntity
  8
SK3
  6
SLD-Dashed
370
    18
100
AcDbLine
 10
16.0941881543
 20
8.9426144922
 30
0.0
 11
15.7029528171
 21
8.703346113
 31
0.0
  0
LINE
  5
14B
330
1F
100
AcDbEntity
  8
SK3
  6
SLD-Dashed
370
    18
100
AcDbLine
 10
15.7029528171
 20
8.703346113
 30
0.0
 11
15.3135178342
 21
8.6217361247
 31
0.0
  0
LINE
  5
14C
330
1F
100
AcDbEntity
  8
SK3
  6
SLD-Dashed
370
    18
100
AcDbLine
 10
15.3135178342
 20
8.6217361247
 30
0.0
 11
14.9524225561
 21
8.703346113
 31
0.0
  0
LINE
  5
14D
330
1F
100
AcDbEntity
  8
SK3
  6
SLD-Dashed
370
    18
100
AcDbLine
 10
14.9524225561
 20
8.703346113
 30
0.0
 11
14.6442750293
 21
8.9426144922
 31
0.0
  0
LINE
  5
14E
330
1F
100
AcDbEntity
  8
SK3
  6
SLD-Dashed
370
    18
100
AcDbLine
 10
14.6442750293
 20
8.9426144922
 30
0.0
 11
14.4100749985
 21
9.3232355176
 31
0.0
  0
LINE
  5
14F
330
1F
100
AcDbEntity
  8
SK3
  6
SLD-Dashed
370
    18
100
AcDbLine
 10
14.4100749985
 20
9.3232355176
 30
0.0
 11
14.2657828088
 21
9.8192704952
 31
0.0
  0
LINE
  5
150
330
1F
100
AcDbEntity
  8
SK3
  6
SLD-Dashed
370
    18
100
AcDbLine
 10
14.2657828088
 20
9.8192704952
 30
0.0
 11
14.2212317343
 21
10.3969154613
 31
0.0
  0
LINE
  5
151
330
1F
100
AcDbEntity
  8
SK3
  6
SLD-Dashed
370
    18
100
AcDbLine
 10
14.2212317343
 20
10.3969154613
 30
0.0
 11
14.2794578574
 21
11.0168048658
 31
0.0
  0
LINE
  5
152
330
1F
100
AcDbEntity
  8
SK3
  6
SLD-Dashed
370
    18
100
AcDbLine
 10
3.3949403416
 20
13.9015950424
 30
0.0
 11
3.5530311231
 21
14.533691522
 31
0.0
  0
LINE
  5
153
330
1F
100
AcDbEntity
  8
SK3
  6
SLD-Dashed
370
    18
100
AcDbLine
 10
3.5530311231
 20
14.533691522
 30
0.0
 11
3.7978696111
 21
15.126071055
 31
0.0
  0
LINE
  5
154
330
1F
100
AcDbEntity
  8
SK3
  6
SLD-Dashed
370
    18
100
AcDbLine
 10
3.7978696111
 20
15.126071055
 30
0.0
 11
4.1140717028
 21
15.6415122569
 31
0.0
  0
LINE
  5
155
330
1F
100
AcDbEntity
  8
SK3
  6
SLD-Dashed
370
    18
100
AcDbLine
 10
4.1140717028
 20
15.6415122569
 30
0.0
 11
4.481769258
 21
16.0476280612
 31
0.0
  0
LINE
  5
156
330
1F
100
AcDbEntity
  8
SK3
  6
SLD-Dashed
370
    18
100
AcDbLine
 10
4.481769258
 20
16.0476280612
 30
0.0
 11
4.8778584869
 21
16.3189007184
 31
0.0
  0
LINE
  5
157
330
1F
100
AcDbEntity
  8
SK3
  6
SLD-Dashed
370
    18
100
AcDbLine
 10
4.8778584869
 20
16.3189007184
 30
0.0
 11
5.2774516466
 21
16.4382851698
 31
0.0
  0
LINE
  5
158
330
1F
100
AcDbEntity
  8
SK3
  6
SLD-Dashed
370
    18
100
AcDbLine
 10
5.2774516466
 20
16.4382851698
 30
0.0
 11
5.6554408293
 21
16.3982800511
 31
0.0
  0
LINE
  5
159
330
1F
100
AcDbEntity
  8
SK3
  6
SLD-Dashed
370
    18
100
AcDbLine
 10
5.6554408293
 20
16.3982800511
 30
0.0
 11
5.9880755844
 21
16.2013990312
 31
0.0
  0
LINE
  5
15A
330
1F
100
AcDbEntity
  8
SK3
  6
SLD-Dashed
370
    18
100
AcDbLine
 10
5.9880755844
 20
16.2013990312
 30
0.0
 11
6.254455247
 21
15.8600128686
 31
0.0
  0
LINE
  5
15B
330
1F
100
AcDbEntity
  8
SK3
  6
SLD-Dashed
370
    18
100
AcDbLine
 10
6.254455247
 20
15.8600128686
 30
0.0
 11
6.4378422032
 21
15.3955721114
 31
0.0
  0
LINE
  5
15C
330
1F
100
AcDbEntity
  8
SK3
  6
SLD-Dashed
370
    18
100
AcDbLine
 10
6.4378422032
 20
15.3955721114
 30
0.0
 11
6.526713576
 21
14.8372592805
 31
0.0
  0
LINE
  5
15D
330
1F
100
AcDbEntity
  8
SK3
  6
SLD-Dashed
370
    18
100
AcDbLine
 10
6.526713576
 20
14.8372592805
 30
0.0
 11
6.5154852503
 21
14.2201552244
 31
0.0
  0
LINE
  5
15E
330
1F
100
AcDbEntity
  8
SK3
  6
SLD-Dashed
370
    18
100
AcDbLine
 10
6.5154852503
 20
14.2201552244
 30
0.0
 11
6.4048627431
 21
13.5830348604
 31
0.0
  0
LINE
  5
15F
330
1F
100
AcDbEntity
  8
SK3
  6
SLD-Dashed
370
    18
100
AcDbLine
 10
6.4048627431
 20
13.5830348604
 30
0.0
 11
6.2017968733
 21
12.9659308043
 31
0.0
  0
LINE
  5
160
330
1F
100
AcDbEntity
  8
SK3
  6
SLD-Dashed
370
    18
100
AcDbLine
 10
6.2017968733
 20
12.9659308043
 30
0.0
 11
5.9190470164
 21
12.4076179734
 31
0.0
  0
LINE
  5
161
330
1F
100
AcDbEntity
  8
SK3
  6
SLD-Dashed
370
    18
100
AcDbLine
 10
5.9190470164
 20
12.4076179734
 30
0.0
 11
5.5743793858
 21
11.9431772162
 31
0.0
  0
LINE
  5
162
330
1F
100
AcDbEntity
  8
SK3
  6
SLD-Dashed
370
    18
100
AcDbLine
 10
5.5743793858
 20
11.9431772162
 30
0.0
 11
5.1894507162
 21
11.6017910536
 31
0.0
  0
LINE
  5
163
330
1F
100
AcDbEntity
  8
SK3
  6
SLD-Dashed
370
    18
100
AcDbLine
 10
5.1894507162
 20
11.6017910536
 30
0.0
 11
4.7884474917
 21
11.4049100337
 31
0.0
  0
LINE
  5
164
330
1F
100
AcDbEntity
  8
SK3
  6
SLD-Dashed
370
    18
100
AcDbLine
 10
4.7884474917
 20
11.4049100337
 30
0.0
 11
4.3965662196
 21
11.364904915
 31
0.0
  0
LINE
  5
165
330
1F
100
AcDbEntity
  8
SK3
  6
SLD-Dashed
370
    18
100
AcDbLine
 10
4.3965662196
 20
11.364904915
 30
0.0
 11
4.0384302416
 21
11.4842893664
 31
0.0
  0
LINE
  5
166
330
1F
100
AcDbEntity
  8
SK3
  6
SLD-Dashed
370
    18
100
AcDbLine
 10
4.0384302416
 20
11.4842893664
 30
0.0
 11
3.7365425582
 21
11.7555620236
 31
0.0
  0
LINE
  5
167
330
1F
100
AcDbEntity
  8
SK3
  6
SLD-Dashed
370
    18
100
AcDbLine
 10
3.7365425582
 20
11.7555620236
 30
0.0
 11
3.5098718828
 21
12.1616778279
 31
0.0
  0
LINE
  5
168
330
1F
100
AcDbEntity
  8
SK3
  6
SLD-Dashed
370
    18
100
AcDbLine
 10
3.5098718828
 20
12.1616778279
 30
0.0
 11
3.3726607677
 21
12.6771190298
 31
0.0
  0
LINE
  5
169
330
1F
100
AcDbEntity
  8
SK3
  6
SLD-Dashed
370
    18
100
AcDbLine
 10
3.3726607677
 20
12.6771190298
 30
0.0
 11
3.3335306917
 21
13.2694985628
 31
0.0
  0
LINE
  5
16A
330
1F
100
AcDbEntity
  8
SK3
  6
SLD-Dashed
370
    18
100
AcDbLine
 10
3.3335306917
 20
13.2694985628
 30
0.0
 11
3.3949403416
 21
13.9015950424
 31
0.0
  0
LINE
  5
16B
330
1F
100
AcDbEntity
  8
SK3
  6
SLD-Dashed
370
    18
100
AcDbLine
 10
5.6371324082
 20
-16.2495686026
 30
0.0
 11
16.3618570383
 21
-13.3837567853
 31
0.0
  0
LINE
  5
16C
330
1F
100
AcDbEntity
  8
SK3
  6
SLD-Dashed
370
    18
100
AcDbLine
 10
15.0968849264
 20
-8.6498529463
 30
0.0
 11
4.3721602964
 21
-11.5156647637
 31
0.0
  0
LINE
  5
16D
330
1F
100
AcDbEntity
  8
SK3
  6
SLD-Dashed
370
    18
100
AcDbLine
 10
90.0
 20
17.1
 30
0.0
 11
88.0947441117
 21
16.0
 31
0.0
  0
LINE
  5
16E
330
1F
100
AcDbEntity
  8
SK3
  6
SLD-Dashed
370
    18
100
AcDbLine
 10
88.0947441117
 20
-16.0
 30
0.0
 11
90.0
 21
-17.1
 31
0.0
  0
LINE
  5
16F
330
1F
100
AcDbEntity
  8
SK3
  6
SLD-Dashed
370
    18
100
AcDbLine
 10
31.5
 20
16.25
 30
0.0
 11
28.5
 21
16.25
 31
0.0
  0
LINE
  5
170
330
1F
100
AcDbEntity
  8
SK3
  6
SLD-Dashed
370
    18
100
AcDbLine
 10
28.5
 20
-16.25
 30
0.0
 11
31.5
 21
-16.25
 31
0.0
  0
LINE
  5
171
330
1F
100
AcDbEntity
  8
SK3
  6
SLD-Dashed
370
    18
100
AcDbLine
 10
38.3
 20
16.0
 30
0.0
 11
31.5
 21
16.0
 31
0.0
  0
LINE
  5
172
330
1F
100
AcDbEntity
  8
SK3
  6
SLD-Dashed
370
    18
100
AcDbLine
 10
66.7
 20
16.0
 30
0.0
 11
51.2888321011
 21
16.0
 31
0.0
  0
LINE
  5
173
330
1F
100
AcDbEntity
  8
SK3
  6
SLD-Dashed
370
    18
100
AcDbLine
 10
88.0947441117
 20
16.0
 30
0.0
 11
79.6797749072
 21
16.0
 31
0.0
  0
LINE
  5
174
330
1F
100
AcDbEntity
  8
SK3
  6
SLD-Dashed
370
    18
100
AcDbLine
 10
31.5
 20
-16.0
 30
0.0
 11
88.0947441117
 21
-16.0
 31
0.0
  0
LINE
  5
175
330
1F
100
AcDbEntity
  8
SK3
  6
SLD-Dashed
370
    18
100
AcDbLine
 10
-101.6
 20
-14.285
 30
0.0
 11
-99.7034043657
 21
-13.19
 31
0.0
  0
LINE
  5
176
330
1F
100
AcDbEntity
  8
SK3
  6
SLD-Dashed
370
    18
100
AcDbLine
 10
-99.7034043657
 20
13.19
 30
0.0
 11
-101.6
 21
14.285
 31
0.0
  0
LINE
  5
177
330
1F
100
AcDbEntity
  8
SK3
  6
SLD-Dashed
370
    18
100
AcDbLine
 10
-95.25
 20
-13.19
 30
0.0
 11
-94.0505548158
 21
-11.1125
 31
0.0
  0
LINE
  5
178
330
1F
100
AcDbEntity
  8
SK3
  6
SLD-Dashed
370
    18
100
AcDbLine
 10
-94.0505548158
 20
11.1125
 30
0.0
 11
-95.25
 21
13.19
 31
0.0
  0
LINE
  5
179
330
1F
100
AcDbEntity
  8
SK3
  6
SLD-Dashed
370
    18
100
AcDbLine
 10
-99.7034043657
 20
-13.19
 30
0.0
 11
-95.25
 21
-13.19
 31
0.0
  0
LINE
  5
17A
330
1F
100
AcDbEntity
  8
SK3
  6
SLD-Dashed
370
    18
100
AcDbLine
 10
-95.25
 20
13.19
 30
0.0
 11
-99.7034043657
 21
13.19
 31
0.0
  0
LINE
  5
17B
330
1F
100
AcDbEntity
  8
SK3
  6
SLD-Dashed
370
    18
100
AcDbLine
 10
26.5
 20
12.45
 30
0.0
 11
25.6963489221
 21
11.1125
 31
0.0
  0
LINE
  5
17C
330
1F
100
AcDbEntity
  8
SK3
  6
SLD-Dashed
370
    18
100
AcDbLine
 10
25.6963489221
 20
-11.1125
 30
0.0
 11
26.5
 21
-12.45
 31
0.0
  0
LINE
  5
17D
330
1F
100
AcDbEntity
  8
SK3
  6
SLD-Dashed
370
    18
100
AcDbLine
 10
28.5
 20
12.45
 30
0.0
 11
26.5
 21
12.45
 31
0.0
  0
LINE
  5
17E
330
1F
100
AcDbEntity
  8
SK3
  6
SLD-Dashed
370
    18
100
AcDbLine
 10
26.5
 20
-12.45
 30
0.0
 11
28.5
 21
-12.45
 31
0.0
  0
LINE
  5
17F
330
1F
100
AcDbEntity
  8
SK3
  6
SLD-Dashed
370
    18
100
AcDbLine
 10
-94.0505548158
 20
-11.1125
 30
0.0
 11
25.6963489221
 21
-11.1125
 31
0.0
  0
LINE
  5
180
330
1F
100
AcDbEntity
  8
SK3
  6
SLD-Dashed
370
    18
100
AcDbLine
 10
25.6963489221
 20
11.1125
 30
0.0
 11
-94.0505548158
 21
11.1125
 31
0.0
  0
LINE
  5
181
330
1F
100
AcDbEntity
  8
SK3
  6
SLD-Dashed
370
    18
100
AcDbLine
 10
36.2
 20
26.0
 30
0.0
 11
38.3
 21
23.9
 31
0.0
  0
LINE
  5
182
330
1F
100
AcDbEntity
  8
SK3
  6
SLD-Dashed
370
    18
100
AcDbLine
 10
51.3
 20
23.9
 30
0.0
 11
53.4
 21
26.0
 31
0.0
  0
LINE
  5
183
330
1F
100
AcDbEntity
  8
SK3
  6
SLD-Dashed
370
    18
100
AcDbLine
 10
64.6
 20
26.0
 30
0.0
 11
66.7
 21
23.9
 31
0.0
  0
LINE
  5
184
330
1F
100
AcDbEntity
  8
SK3
  6
SLD-Dashed
370
    18
100
AcDbLine
 10
79.7
 20
23.9
 30
0.0
 11
81.8
 21
26.0
 31
0.0
  0
LINE
  5
185
330
1F
100
AcDbEntity
  8
SK3
  6
SLD-Dashed
370
    18
100
AcDbLine
 10
66.7
 20
23.9
 30
0.0
 11
66.7
 21
16.0
 31
0.0
  0
LINE
  5
186
330
1F
100
AcDbEntity
  8
SK3
  6
SLD-Dashed
370
    18
100
AcDbLine
 10
79.7
 20
15.9918015118
 30
0.0
 11
79.7
 21
23.9
 31
0.0
  0
LINE
  5
187
330
1F
100
AcDbEntity
  8
SK3
  6
SLD-Dashed
370
    18
100
AcDbLine
 10
38.3
 20
23.9
 30
0.0
 11
38.3
 21
16.0
 31
0.0
  0
LINE
  5
188
330
1F
100
AcDbEntity
  8
SK3
  6
SLD-Dashed
370
    18
100
AcDbLine
 10
51.3
 20
15.9954930306
 30
0.0
 11
51.3
 21
23.9
 31
0.0
  0
LINE
  5
189
330
1F
100
AcDbEntity
  8
SK3
  6
SLD-Dashed
370
    18
100
AcDbLine
 10
6.1
 20
37.5
 30
0.0
 11
6.1
 21
33.1
 31
0.0
  0
LINE
  5
18A
330
1F
100
AcDbEntity
  8
SK3
  6
SLD-Dashed
370
    18
100
AcDbLine
 10
16.1
 20
33.1
 30
0.0
 11
16.1
 21
37.5
 31
0.0
  0
LINE
  5
18B
330
1F
100
AcDbEntity
  8
SK3
  6
SLD-Dashed
370
    18
100
AcDbLine
 10
4.3721602964
 20
11.5156647637
 30
0.0
 11
15.0968849264
 21
8.6498529463
 31
0.0
  0
LINE
  5
18C
330
1F
100
AcDbEntity
  8
SK3
  6
SLD-Dashed
370
    18
100
AcDbLine
 10
16.3618570383
 20
13.3837567853
 30
0.0
 11
5.6371324082
 21
16.2495686026
 31
0.0
  0
LINE
  5
18D
330
1F
100
AcDbEntity
  8
SK3
  6
SLD-Solid
370
    18
100
AcDbLine
 10
-55.5999986827
 20
12.6999998465
 30
0.0
 11
-94.967097044
 21
12.6999998465
 31
0.0
  0
LINE
  5
18E
330
1F
100
AcDbEntity
  8
SK3
  6
SLD-Solid
370
    18
100
AcDbLine
 10
-94.967097044
 20
-12.6999998465
 30
0.0
 11
-55.5999986827
 21
-12.6999998465
 31
0.0
  0
LINE
  5
18F
330
1F
100
AcDbEntity
  8
SK3
  6
SLD-Solid
370
    18
100
AcDbLine
 10
-55.5999986827
 20
0.0
 30
0.0
 11
-55.5999986827
 21
-1.7293164274
 31
0.0
  0
LINE
  5
190
330
1F
100
AcDbEntity
  8
SK3
  6
SLD-Solid
370
    18
100
AcDbLine
 10
-55.5999986827
 20
-1.7293164274
 30
0.0
 11
-55.5999986827
 21
-3.4264191054
 31
0.0
  0
LINE
  5
191
330
1F
100
AcDbEntity
  8
SK3
  6
SLD-Solid
370
    18
100
AcDbLine
 10
-55.5999986827
 20
-3.4264191054
 30
0.0
 11
-55.5999986827
 21
-5.05969394
 31
0.0
  0
LINE
  5
192
330
1F
100
AcDbEntity
  8
SK3
  6
SLD-Solid
370
    18
100
AcDbLine
 10
-55.5999986827
 20
-5.05969394
 30
0.0
 11
-55.5999986827
 21
-6.5987161361
 31
0.0
  0
LINE
  5
193
330
1F
100
AcDbEntity
  8
SK3
  6
SLD-Solid
370
    18
100
AcDbLine
 10
-55.5999986827
 20
-6.5987161361
 30
0.0
 11
-55.5999986827
 21
-8.0148167908
 31
0.0
  0
LINE
  5
194
330
1F
100
AcDbEntity
  8
SK3
  6
SLD-Solid
370
    18
100
AcDbLine
 10
-55.5999986827
 20
-8.0148167908
 30
0.0
 11
-55.5999986827
 21
-9.281616658
 31
0.0
  0
LINE
  5
195
330
1F
100
AcDbEntity
  8
SK3
  6
SLD-Solid
370
    18
100
AcDbLine
 10
-55.5999986827
 20
-9.281616658
 30
0.0
 11
-55.5999986827
 21
-10.3755174205
 31
0.0
  0
LINE
  5
196
330
1F
100
AcDbEntity
  8
SK3
  6
SLD-Solid
370
    18
100
AcDbLine
 10
-55.5999986827
 20
-10.3755174205
 30
0.0
 11
-55.5999986827
 21
-11.2761426717
 31
0.0
  0
LINE
  5
197
330
1F
100
AcDbEntity
  8
SK3
  6
SLD-Solid
370
    18
100
AcDbLine
 10
-55.5999986827
 20
-11.2761426717
 30
0.0
 11
-55.5999986827
 21
-11.9667137042
 31
0.0
  0
LINE
  5
198
330
1F
100
AcDbEntity
  8
SK3
  6
SLD-Solid
370
    18
100
AcDbLine
 10
-55.5999986827
 20
-11.9667137042
 30
0.0
 11
-55.5999986827
 21
-12.4343680218
 31
0.0
  0
LINE
  5
199
330
1F
100
AcDbEntity
  8
SK3
  6
SLD-Solid
370
    18
100
AcDbLine
 10
-55.5999986827
 20
-12.4343680218
 30
0.0
 11
-55.5999986827
 21
-12.6703931019
 31
0.0
  0
LINE
  5
19A
330
1F
100
AcDbEntity
  8
SK3
  6
SLD-Solid
370
    18
100
AcDbLine
 10
-55.5999986827
 20
-12.6703931019
 30
0.0
 11
-55.5999986827
 21
-12.6999998465
 31
0.0
  0
LINE
  5
19B
330
1F
100
AcDbEntity
  8
SK3
  6
SLD-Solid
370
    18
100
AcDbLine
 10
-55.5999986827
 20
12.6999998465
 30
0.0
 11
-55.5999986827
 21
12.6703931019
 31
0.0
  0
LINE
  5
19C
330
1F
100
AcDbEntity
  8
SK3
  6
SLD-Solid
370
    18
100
AcDbLine
 10
-55.5999986827
 20
12.6703931019
 30
0.0
 11
-55.5999986827
 21
12.4343680218
 31
0.0
  0
LINE
  5
19D
330
1F
100
AcDbEntity
  8
SK3
  6
SLD-Solid
370
    18
100
AcDbLine
 10
-55.5999986827
 20
12.4343680218
 30
0.0
 11
-55.5999986827
 21
11.9667137042
 31
0.0
  0
LINE
  5
19E
330
1F
100
AcDbEntity
  8
SK3
  6
SLD-Solid
370
    18
100
AcDbLine
 10
-55.5999986827
 20
11.9667137042
 30
0.0
 11
-55.5999986827
 21
11.2761426717
 31
0.0
  0
LINE
  5
19F
330
1F
100
AcDbEntity
  8
SK3
  6
SLD-Solid
370
    18
100
AcDbLine
 10
-55.5999986827
 20
11.2761426717
 30
0.0
 11
-55.5999986827
 21
10.3755174205
 31
0.0
  0
LINE
  5
1A0
330
1F
100
AcDbEntity
  8
SK3
  6
SLD-Solid
370
    18
100
AcDbLine
 10
-55.5999986827
 20
10.3755174205
 30
0.0
 11
-55.5999986827
 21
9.281616658
 31
0.0
  0
LINE
  5
1A1
330
1F
100
AcDbEntity
  8
SK3
  6
SLD-Solid
370
    18
100
AcDbLine
 10
-55.5999986827
 20
9.281616658
 30
0.0
 11
-55.5999986827
 21
8.0148167908
 31
0.0
  0
LINE
  5
1A2
330
1F
100
AcDbEntity
  8
SK3
  6
SLD-Solid
370
    18
100
AcDbLine
 10
-55.5999986827
 20
8.0148167908
 30
0.0
 11
-55.5999986827
 21
6.5987161361
 31
0.0
  0
LINE
  5
1A3
330
1F
100
AcDbEntity
  8
SK3
  6
SLD-Solid
370
    18
100
AcDbLine
 10
-55.5999986827
 20
6.5987161361
 30
0.0
 11
-55.5999986827
 21
5.05969394
 31
0.0
  0
LINE
  5
1A4
330
1F
100
AcDbEntity
  8
SK3
  6
SLD-Solid
370
    18
100
AcDbLine
 10
-55.5999986827
 20
5.05969394
 30
0.0
 11
-55.5999986827
 21
3.4264191054
 31
0.0
  0
LINE
  5
1A5
330
1F
100
AcDbEntity
  8
SK3
  6
SLD-Solid
370
    18
100
AcDbLine
 10
-55.5999986827
 20
3.4264191054
 30
0.0
 11
-55.5999986827
 21
1.7293164274
 31
0.0
  0
LINE
  5
1A6
330
1F
100
AcDbEntity
  8
SK3
  6
SLD-Solid
370
    18
100
AcDbLine
 10
-55.5999986827
 20
1.7293164274
 30
0.0
 11
-55.5999986827
 21
0.0
 31
0.0
  0
LINE
  5
1A7
330
1F
100
AcDbEntity
  8
SK3
  6
SLD-Solid
370
    18
100
AcDbLine
 10
51.8000014126
 20
16.00000076
 30
0.0
 11
51.8000014126
 21
24.3999995291
 31
0.0
  0
LINE
  5
1A8
330
1F
100
AcDbEntity
  8
SK3
  6
SLD-Solid
370
    18
100
AcDbLine
 10
37.7999991179
 20
24.3999995291
 30
0.0
 11
37.7999991179
 21
15.9608814865
 31
0.0
  0
LINE
  5
1A9
330
1F
100
AcDbEntity
  8
SK3
  6
SLD-Solid
370
    18
100
AcDbLine
 10
51.8000014126
 20
16.00000076
 30
0.0
 11
51.4453612268
 21
15.8480536193
 31
0.0
  0
LINE
  5
1AA
330
1F
100
AcDbEntity
  8
SK3
  6
SLD-Solid
370
    18
100
AcDbLine
 10
80.2000015974
 20
16.00000076
 30
0.0
 11
80.2000015974
 21
24.3999995291
 31
0.0
  0
LINE
  5
1AB
330
1F
100
AcDbEntity
  8
SK3
  6
SLD-Solid
370
    18
100
AcDbLine
 10
66.2000030279
 20
24.3999995291
 30
0.0
 11
66.2000030279
 21
15.9608814865
 31
0.0
  0
LINE
  5
1AC
330
1F
100
AcDbEntity
  8
SK3
  6
SLD-Solid
370
    18
100
AcDbLine
 10
80.2000015974
 20
16.00000076
 30
0.0
 11
79.8453614116
 21
15.8480536193
 31
0.0
  0
LINE
  5
1AD
330
1F
100
AcDbEntity
  8
4
  6
SLD-Center
370
    18
100
AcDbLine
 10
92.0
 20
0.0
 30
0.0
 11
-0.1977027411
 21
0.0
 31
0.0
  0
LINE
  5
1AE
330
1F
100
AcDbEntity
  8
4
  6
SLD-Center
370
    18
100
AcDbLine
 10
44.8
 20
14.0
 30
0.0
 11
44.8
 21
25.9
 31
0.0
  0
LINE
  5
1AF
330
1F
100
AcDbEntity
  8
4
  6
SLD-Center
370
    18
100
AcDbLine
 10
73.2
 20
14.0
 30
0.0
 11
73.2
 21
25.9
 31
0.0
  0
LINE
  5
1B0
330
1F
100
AcDbEntity
  8
SK4
  6
SLD-Center
370
    18
100
AcDbLine
 10
-101.8030472773
 20
0.0
 30
0.0
 11
91.329485558
 21
0.0
 31
0.0
  0
LINE
  5
1B1
330
1F
100
AcDbEntity
  8
81
370
    18
100
AcDbLine
 10
90.0
 20
0.0
 30
0.0
 11
93.5355339059
 21
3.5355339059
 31
0.0
  0
LINE
  5
1B2
330
1F
100
AcDbEntity
  8
81
370
    18
100
AcDbLine
 10
90.0
 20
0.0
 30
0.0
 11
86.4644660941
 21
-3.5355339059
 31
0.0
  0
LINE
  5
1B3
330
1F
100
AcDbEntity
  8
81
370
    18
100
AcDbLine
 10
90.0
 20
0.0
 30
0.0
 11
86.4644660941
 21
3.5355339059
 31
0.0
  0
LINE
  5
1B4
330
1F
100
AcDbEntity
  8
81
100
AcDbLine
 10
90.0
 20
0.0
 30
0.0
 11
100.0
 21
0.0
 31
0.0
  0
LINE
  5
1B5
330
1F
100
AcDbEntity
  8
81
370
    18
100
AcDbLine
 10
90.0
 20
0.0
 30
0.0
 11
93.5355339059
 21
-3.5355339059
 31
0.0
  0
LINE
  5
1B6
330
1F
100
AcDbEntity
  8
80
370
    18
100
AcDbLine
 10
0.0
 20
0.0
 30
0.0
 11
-3.5355339059
 21
-3.5355339059
 31
0.0
  0
LINE
  5
1B7
330
1F
100
AcDbEntity
  8
80
370
    18
100
AcDbLine
 10
0.0
 20
0.0
 30
0.0
 11
3.5355339059
 21
3.5355339059
 31
0.0
  0
LINE
  5
1B8
330
1F
100
AcDbEntity
  8
80
370
    18
100
AcDbLine
 10
0.0
 20
0.0
 30
0.0
 11
-3.5355339059
 21
3.5355339059
 31
0.0
  0
LINE
  5
1B9
330
1F
100
AcDbEntity
  8
80
370
    18
100
AcDbLine
 10
0.0
 20
0.0
 30
0.0
 11
-10.0
 21
0.0
 31
0.0
  0
LINE
  5
1BA
330
1F
100
AcDbEntity
  8
80
370
    18
100
AcDbLine
 10
0.0
 20
0.0
 30
0.0
 11
3.5355339059
 21
-3.5355339059
 31
0.0
  0
ARC
  5
1BB
330
1F
100
AcDbEntity
  8
1
  6
SLD-Solid
370
    25
100
AcDbCircle
 10
2.45
 20
35.425
 30
0.0
 40
0.7500000000000009
100
AcDbArc
 50
245.0
 51
0.0
  0
ARC
  5
1BC
330
1F
100
AcDbEntity
  8
1
  6
SLD-Solid
370
    25
100
AcDbCircle
 10
2.45
 20
-35.425
 30
0.0
 40
0.750000000000003
100
AcDbArc
 50
25.5588788742
 51
115.0
  0
ARC
  5
1BD
330
1F
100
AcDbEntity
  8
1
  6
SLD-Solid
370
    25
100
AcDbCircle
 10
22.098
 20
-29.048
 30
0.0
 40
3.048000000000002
100
AcDbArc
 50
90.0
 51
180.0
  0
ARC
  5
1BE
330
1F
100
AcDbEntity
  8
1
  6
SLD-Solid
370
    25
100
AcDbCircle
 10
22.098
 20
29.048
 30
0.0
 40
3.048000000000009
100
AcDbArc
 50
180.0
 51
270.0
  0
ARC
  5
1BF
330
1F
100
AcDbEntity
  8
SK1
  6
SLD-Solid
370
    25
100
AcDbCircle
 10
-99.5
 20
18.2922326599
 30
0.0
 40
2.100000000000009
100
AcDbArc
 50
98.2972222222
 51
180.0
  0
ARC
  5
1C0
330
1F
100
AcDbEntity
  8
SK1
  6
SLD-Solid
370
    25
100
AcDbCircle
 10
-99.5
 20
-18.2922326599
 30
0.0
 40
2.100000000000009
100
AcDbArc
 50
180.0
 51
261.7027777778
  0
ARC
  5
1C1
330
1F
100
AcDbEntity
  8
1
370
    18
100
AcDbCircle
 10
44.7949366846
 20
-58.4989032103
 30
0.0
 40
33.80952545850394
100
AcDbArc
 50
73.994476367
 51
106.005523633
  0
ARC
  5
1C2
330
1F
100
AcDbEntity
  8
1
370
    18
100
AcDbCircle
 10
73.2145599746
 20
-59.7539949379
 30
0.0
 40
35.02020313696282
100
AcDbArc
 50
74.5779793371
 51
105.4542583997
  0
CIRCLE
  5
1C3
330
1F
100
AcDbEntity
  8
81
370
    18
100
AcDbCircle
 10
90.0
 20
0.0
 30
0.0
 40
2.499999999999984
  0
CIRCLE
  5
1C4
330
1F
100
AcDbEntity
  8
80
370
    18
100
AcDbCircle
 10
0.0
 20
0.0
 30
0.0
 40
2.500000000000009
  0
SPLINE
  5
1C5
330
1F
100
AcDbEntity
  8
1
  6
SLD-Solid
370
    25
100
AcDbSpline
210
0.0
220
0.0
230
1.0
 70
     8
 71
     3
 72
    12
 73
     8
 74
     0
 42
0.000000001
 43
0.00000001
 40
0.0
 40
0.0
 40
0.0
 40
0.0
 40
0.249999999999997
 40
0.249999999999997
 40
0.499999999999994
 40
0.499999999999994
 40
1.0
 40
1.0
 40
1.0
 40
1.0
 10
3.949999999999982
 20
-47.4754841997425
 30
0.0
 10
3.849084030890557
 20
-47.4754841997425
 30
0.0
 10
3.749978417477442
 20
-47.45437693482703
 30
0.0
 10
3.566847730075498
 20
-47.37426897057827
 30
0.0
 10
3.483455095947358
 20
-47.31511647588032
 30
0.0
 10
3.278048511272571
 20
-47.09831987092233
 30
0.0
 10
3.199999999999981
 20
-46.89926900274103
 30
0.0
 10
3.199999999999981
 20
-46.69763484374771
 30
0.0
  0
SPLINE
  5
1C6
330
1F
100
AcDbEntity
  8
1
  6
SLD-Solid
370
    25
100
AcDbSpline
210
0.0
220
0.0
230
1.0
 70
     8
 71
     3
 72
    17
 73
    13
 74
     0
 42
0.000000001
 43
0.00000001
 40
0.0
 40
0.0
 40
0.0
 40
0.0
 40
0.0631225276679342
 40
0.1266732404557587
 40
0.1906578598239172
 40
0.2550819704917586
 40
0.3779677562094053
 40
0.5065287291742404
 40
0.7536275741715814
 40
0.8770326867277843
 40
0.9293515934451574
 40
1.0
 40
1.0
 40
1.0
 40
1.0
 10
3.94999999999998
 20
47.29681459776456
 30
0.0
 10
3.925201491186288
 20
47.29611182214629
 30
0.0
 10
3.875436255446283
 20
47.29470150370422
 30
0.0
 10
3.80128071794805
 20
47.28327895415906
 30
0.0
 10
3.728120549120997
 20
47.26498746189469
 30
0.0
 10
3.635342933307232
 20
47.23149463841939
 30
0.0
 10
3.525682301867263
 20
47.17267397042566
 30
0.0
 10
3.374709300492317
 20
47.04854698610308
 30
0.0
 10
3.264271220664398
 20
46.88235514412624
 30
0.0
 10
3.217384189869016
 20
46.72497704380524
 30
0.0
 10
3.202376761222952
 20
46.63086119232327
 30
0.0
 10
3.200867255992013
 20
46.58337040934663
 30
0.0
 10
3.200000000000005
 20
46.55608553132451
 30
0.0
  0
SPLINE
  5
1C7
330
1F
100
AcDbEntity
  8
1
  6
SLD-Solid
370
    25
100
AcDbSpline
210
0.0
220
0.0
230
1.0
 70
     8
 71
     3
 72
    12
 73
     8
 74
     0
 42
0.000000001
 43
0.00000001
 40
0.0
 40
0.0
 40
0.0
 40
0.0
 40
0.2499999999999983
 40
0.2499999999999983
 40
0.4999999999999967
 40
0.4999999999999967
 40
1.0
 40
1.0
 40
1.0
 40
1.0
 10
19.05000000000021
 20
-46.69763484374748
 30
0.0
 10
19.05000000000017
 20
-46.79851095846148
 30
0.0
 10
19.03137059366226
 20
-46.89733966428926
 30
0.0
 10
18.95815575330314
 20
-47.0841146964833
 30
0.0
 10
18.90402082648727
 20
-47.16991322229983
 30
0.0
 10
18.69812814693778
 20
-47.38753444472502
 30
0.0
 10
18.50197314321866
 20
-47.47548419974255
 30
0.0
 10
18.30000000000001
 20
-47.4754841997425
 30
0.0
  0
SPLINE
  5
1C8
330
1F
100
AcDbEntity
  8
1
  6
SLD-Solid
370
    25
100
AcDbSpline
210
0.0
220
0.0
230
1.0
 70
     8
 71
     3
 72
    15
 73
    11
 74
     0
 42
0.000000001
 43
0.00000001
 40
0.0
 40
0.0
 40
0.0
 40
0.0
 40
0.0708675467256531
 40
0.1234206290198877
 40
0.2469923695819999
 40
0.4940839350895743
 40
0.6226370205415216
 40
0.745689656430239
 40
0.873671271585231
 40
1.0
 40
1.0
 40
1.0
 40
1.0
 10
19.04999999999998
 20
46.55608553132448
 30
0.0
 10
19.04912781744724
 20
46.58344641762339
 30
0.0
 10
19.04760885250136
 20
46.63109725292921
 30
0.0
 10
19.03252103265908
 20
46.72541301614141
 30
0.0
 10
18.98548435274774
 20
46.88286431586852
 30
0.0
 10
18.87493087107411
 20
47.04890219775875
 30
0.0
 10
18.72384724362421
 20
47.17307551099158
 30
0.0
 10
18.59213990197331
 20
47.24320117903742
 30
0.0
 10
18.44967423033336
 20
47.28829435245691
 30
0.0
 10
18.34967476169982
 20
47.2939868487637
 30
0.0
 10
18.3
 20
47.29681459776457
 30
0.0
  0
SPLINE
  5
1C9
330
1F
100
AcDbEntity
  8
1
  6
SLD-Solid
370
    25
100
AcDbSpline
210
0.0
220
0.0
230
1.0
 70
     8
 71
     3
 72
     8
 73
     4
 74
     0
 42
0.000000001
 43
0.00000001
 40
0.0
 40
0.0
 40
0.0
 40
0.0
 40
1.0
 40
1.0
 40
1.0
 40
1.0
 10
7.590276606597307
 20
-47.4754841997425
 30
0.0
 10
8.127774995464396
 20
-46.51049654710809
 30
0.0
 10
8.66440804836785
 20
-45.54503249842017
 30
0.0
 10
9.199999999999985
 20
-44.57901066343647
 30
0.0
  0
SPLINE
  5
1CA
330
1F
100
AcDbEntity
  8
1
  6
SLD-Solid
370
    25
100
AcDbSpline
210
0.0
220
0.0
230
1.0
 70
     8
 71
     3
 72
     8
 73
     4
 74
     0
 42
0.000000001
 43
0.00000001
 40
0.0000000000000097
 40
0.0000000000000097
 40
0.0000000000000097
 40
0.0000000000000097
 40
0.000879067901516
 40
0.000879067901516
 40
0.000879067901516
 40
0.000879067901516
 10
7.957289380062113
 20
46.81625358782996
 30
0.0
 10
7.83533486386081
 20
46.97654627942825
 30
0.0
 10
7.712991580674027
 20
47.13673210499549
 30
0.0
 10
7.590276606597289
 20
47.29681459776456
 30
0.0
  0
SPLINE
  5
1CB
330
1F
100
AcDbEntity
  8
1
  6
SLD-Solid
370
    25
100
AcDbSpline
210
0.0
220
0.0
230
1.0
 70
     8
 71
     3
 72
     8
 73
     4
 74
     0
 42
0.000000001
 43
0.00000001
 40
0.0
 40
0.0
 40
0.0
 40
0.0
 40
1.0
 40
1.0
 40
1.0
 40
1.0
 10
7.957289380055688
 20
46.81625358784152
 30
0.0
 10
8.372088490919097
 20
46.07082082933731
 30
0.0
 10
8.78635386685797
 20
45.32508460154718
 30
0.0
 10
9.199999999999985
 20
44.57901066343647
 30
0.0
  0
SPLINE
  5
1CC
330
1F
100
AcDbEntity
  8
1
  6
SLD-Solid
370
    25
100
AcDbSpline
210
0.0
220
0.0
230
1.0
 70
     8
 71
     3
 72
    14
 73
    10
 74
     0
 42
0.000000001
 43
0.00000001
 40
0.0
 40
0.0
 40
0.0
 40
0.0
 40
0.25
 40
0.25
 40
0.5
 40
0.5
 40
0.75
 40
0.75
 40
1.0
 40
1.0
 40
1.0
 40
1.0
 10
9.200000000002262
 20
41.48301295145395
 30
0.0
 10
9.176680646156898
 20
41.55645645104906
 30
0.0
 10
9.157956892055536
 20
41.6242930684383
 30
0.0
 10
9.131927678784708
 20
41.74600607925087
 30
0.0
 10
9.125045582368486
 20
41.79860573441294
 30
0.0
 10
9.124954879643779
 20
41.88147815789093
 30
0.0
 10
9.131870505305063
 20
41.91255410941323
 30
0.0
 10
9.157670888230413
 20
41.9512409197013
 30
0.0
 10
9.176601575159566
 20
41.95960923610543
 30
0.0
 10
9.199999999999985
 20
41.95870119642319
 30
0.0
  0
SPLINE
  5
1CD
330
1F
100
AcDbEntity
  8
1
  6
SLD-Solid
370
    25
100
AcDbSpline
210
0.0
220
0.0
230
1.0
 70
     8
 71
     3
 72
    14
 73
    10
 74
     0
 42
0.000000001
 43
0.00000001
 40
0.0
 40
0.0
 40
0.0
 40
0.0
 40
0.25
 40
0.25
 40
0.5
 40
0.5
 40
0.75
 40
0.75
 40
1.0
 40
1.0
 40
1.0
 40
1.0
 10
9.199999999999985
 20
34.67668893498511
 30
0.0
 10
9.176680646155248
 20
34.76218380134754
 30
0.0
 10
9.157956892054466
 20
34.84409122905372
 30
0.0
 10
9.131927678784734
 20
34.99897222909989
 30
0.0
 10
9.125045582368971
 20
35.07047900120374
 30
0.0
 10
9.124954879645056
 20
35.19440944821503
 30
0.0
 10
9.131870505306672
 20
35.24816533561761
 30
0.0
 10
9.157670888232467
 20
35.33309634836895
 30
0.0
 10
9.176601575161772
 20
35.365452809728
 30
0.0
 10
9.200000000002262
 20
35.38859611770597
 30
0.0
  0
SPLINE
  5
1CE
330
1F
100
AcDbEntity
  8
1
  6
SLD-Solid
370
    25
100
AcDbSpline
210
0.0
220
0.0
230
1.0
 70
     8
 71
     3
 72
    14
 73
    10
 74
     0
 42
0.000000001
 43
0.00000001
 40
0.0
 40
0.0
 40
0.0
 40
0.0
 40
0.25
 40
0.25
 40
0.5
 40
0.5
 40
0.75
 40
0.75
 40
1.0
 40
1.0
 40
1.0
 40
1.0
 10
13.02999999999607
 20
41.98711733167136
 30
0.0
 10
13.05904068228768
 20
41.99358445674419
 30
0.0
 10
13.08275209482984
 20
41.98923559020629
 30
0.0
 10
13.1160965832247
 20
41.95189511103384
 30
0.0
 10
13.12492140067509
 20
41.91935250781673
 30
0.0
 10
13.12507754967822
 20
41.82511380576851
 30
0.0
 10
13.11615053209061
 20
41.76334893396456
 30
0.0
 10
13.08319562521535
 20
41.62087672885571
 30
0.0
 10
13.05911019949625
 20
41.53942138186894
 30
0.0
 10
13.03
 20
41.45311361597066
 30
0.0
  0
SPLINE
  5
1CF
330
1F
100
AcDbEntity
  8
1
  6
SLD-Solid
370
    25
100
AcDbSpline
210
0.0
220
0.0
230
1.0
 70
     8
 71
     3
 72
     8
 73
     4
 74
     0
 42
0.000000001
 43
0.00000001
 40
0.0
 40
0.0
 40
0.0
 40
0.0
 40
1.0
 40
1.0
 40
1.0
 40
1.0
 10
13.02999999999997
 20
44.57901066343648
 30
0.0
 10
13.44364613314275
 20
45.32508460154331
 30
0.0
 10
13.85791150908239
 20
46.07082082932958
 30
0.0
 10
14.27271061994656
 20
46.81625358782992
 30
0.0
  0
SPLINE
  5
1D0
330
1F
100
AcDbEntity
  8
1
  6
SLD-Solid
370
    25
100
AcDbSpline
210
0.0
220
0.0
230
1.0
 70
     8
 71
     3
 72
     8
 73
     4
 74
     0
 42
0.000000001
 43
0.00000001
 40
0.0
 40
0.0
 40
0.0
 40
0.0
 40
0.0008790679015124
 40
0.0008790679015124
 40
0.0008790679015124
 40
0.0008790679015124
 10
14.63972339340265
 20
47.29681459776456
 30
0.0
 10
14.51700841932646
 20
47.13673210499614
 30
0.0
 10
14.39466513614737
 20
46.97654627942754
 30
0.0
 10
14.27271061994656
 20
46.81625358782992
 30
0.0
  0
SPLINE
  5
1D1
330
1F
100
AcDbEntity
  8
1
  6
SLD-Solid
370
    25
100
AcDbSpline
210
0.0
220
0.0
230
1.0
 70
     8
 71
     3
 72
     8
 73
     4
 74
     0
 42
0.000000001
 43
0.00000001
 40
0.0
 40
0.0
 40
0.0
 40
0.0
 40
1.0
 40
1.0
 40
1.0
 40
1.0
 10
13.02999999999997
 20
-44.57901066343648
 30
0.0
 10
13.56559195163211
 20
-45.54503249842018
 30
0.0
 10
14.10222500453556
 20
-46.5104965471081
 30
0.0
 10
14.63972339340265
 20
-47.4754841997425
 30
0.0
  0
SPLINE
  5
1D2
330
1F
100
AcDbEntity
  8
1
  6
SLD-Solid
370
    25
100
AcDbSpline
210
0.0
220
0.0
230
1.0
 70
     8
 71
     3
 72
    14
 73
    10
 74
     0
 42
0.000000001
 43
0.00000001
 40
0.0
 40
0.0
 40
0.0
 40
0.0
 40
0.25
 40
0.25
 40
0.5
 40
0.5
 40
0.75
 40
0.75
 40
1.0
 40
1.0
 40
1.0
 40
1.0
 10
13.03
 20
35.43161038841293
 30
0.0
 10
13.05904068229162
 20
35.41088512733873
 30
0.0
 10
13.08275209483374
 20
35.37953864703776
 30
0.0
 10
13.11609658322836
 20
35.28872072742525
 30
0.0
 10
13.12492140067852
 20
35.23076880196017
 30
0.0
 10
13.12507754968095
 20
35.0895690753786
 30
0.0
 10
13.11615053209288
 20
35.00648906177569
 30
0.0
 10
13.08319562521656
 20
34.82779421025375
 30
0.0
 10
13.05911019949688
 20
34.73111937885589
 30
0.0
 10
13.02999999999997
 20
34.63242923389118
 30
0.0
  0
SPLINE
  5
1D3
330
1F
100
AcDbEntity
  8
1
  6
SLD-Solid
370
    25
100
AcDbSpline
210
0.0
220
0.0
230
1.0
 70
     8
 71
     3
 72
    12
 73
     8
 74
     0
 42
0.000000001
 43
0.00000001
 40
0.0
 40
0.0
 40
0.0
 40
0.0
 40
0.2500000000000032
 40
0.2500000000000032
 40
0.5000000000000063
 40
0.5000000000000063
 40
1.0
 40
1.0
 40
1.0
 40
1.0
 10
12.28
 20
-43.76943596849289
 30
0.0
 10
12.37996960464105
 20
-43.76943596849289
 30
0.0
 10
12.47988502523367
 20
-43.79051518316404
 30
0.0
 10
12.66449294223869
 20
-43.87194262843689
 30
0.0
 10
12.74728498815324
 20
-43.93126060501207
 30
0.0
 10
12.95342033959712
 20
-44.15080408372863
 30
0.0
 10
13.03
 20
-44.35163254795798
 30
0.0
 10
13.03
 20
-44.551021593225
 30
0.0
  0
SPLINE
  5
1D4
330
1F
100
AcDbEntity
  8
1
  6
SLD-Solid
370
    25
100
AcDbSpline
210
0.0
220
0.0
230
1.0
 70
     8
 71
     3
 72
    16
 73
    12
 74
     0
 42
0.000000001
 43
0.00000001
 40
0.0
 40
0.0
 40
0.0
 40
0.0
 40
0.1250000000000001
 40
0.1250000000000001
 40
0.2500000000000003
 40
0.2500000000000003
 40
0.5000000000000002
 40
0.5000000000000002
 40
0.7500000000000001
 40
0.7500000000000001
 40
1.0
 40
1.0
 40
1.0
 40
1.0
 10
13.03
 20
34.61214293353757
 30
0.0
 10
13.03
 20
34.56119277402759
 30
0.0
 10
13.0206745626061
 20
34.49413963137994
 30
0.0
 10
12.99367590047851
 20
34.36331338142202
 30
0.0
 10
12.97626449755331
 20
34.29908556562462
 30
0.0
 10
12.91545405813531
 20
34.11096290842622
 30
0.0
 10
12.86271449633858
 20
33.99023971150844
 30
0.0
 10
12.73634152951908
 20
33.76817627154973
 30
0.0
 10
12.66098841639737
 20
33.66394234496747
 30
0.0
 10
12.48671204537782
 20
33.48358218869544
 30
0.0
 10
12.38972674335426
 20
33.40848998465463
 30
0.0
 10
12.28
 20
33.35547071674117
 30
0.0
  0
SPLINE
  5
1D5
330
1F
100
AcDbEntity
  8
1
  6
SLD-Solid
370
    25
100
AcDbSpline
210
0.0
220
0.0
230
1.0
 70
     8
 71
     3
 72
    12
 73
     8
 74
     0
 42
0.000000001
 43
0.00000001
 40
0.0
 40
0.0
 40
0.0
 40
0.0
 40
0.5
 40
0.5
 40
0.75
 40
0.75
 40
1.0
 40
1.0
 40
1.0
 40
1.0
 10
9.199999999999985
 20
-44.55102159322499
 30
0.0
 10
9.199999999999985
 20
-44.35094747116167
 30
0.0
 10
9.277613070150098
 20
-44.14958800989076
 30
0.0
 10
9.48251103730055
 20
-43.93153570225751
 30
0.0
 10
9.566272299852297
 20
-43.87162606259759
 30
0.0
 10
9.749092094904363
 20
-43.79094541821726
 30
0.0
 10
9.849426682175643
 20
-43.7694359684929
 30
0.0
 10
9.949999999999987
 20
-43.76943596849289
 30
0.0
  0
SPLINE
  5
1D6
330
1F
100
AcDbEntity
  8
1
  6
SLD-Solid
370
    25
100
AcDbSpline
210
0.0
220
0.0
230
1.0
 70
     8
 71
     3
 72
    16
 73
    12
 74
     0
 42
0.000000001
 43
0.00000001
 40
0.0
 40
0.0
 40
0.0
 40
0.0
 40
0.2499999999999967
 40
0.2499999999999967
 40
0.4999999999999934
 40
0.4999999999999934
 40
0.7499999999999902
 40
0.7499999999999902
 40
0.8749999999999951
 40
0.8749999999999951
 40
1.0
 40
1.0
 40
1.0
 40
1.0
 10
9.949999999999987
 20
33.36525953046025
 30
0.0
 10
9.839257595210649
 20
33.42015914282665
 30
0.0
 10
9.74041673400143
 20
33.49854219709403
 30
0.0
 10
9.564708009184047
 20
33.6855356989051
 30
0.0
 10
9.4908304832661
 20
33.79082769792041
 30
0.0
 10
9.364658348120003
 20
34.01955880125701
 30
0.0
 10
9.31295142551812
 20
34.14247439570438
 30
0.0
 10
9.253206550793827
 20
34.33488461785981
 30
0.0
 10
9.236028623043943
 20
34.4012196258066
 30
0.0
 10
9.20972370305702
 20
34.53368853253289
 30
0.0
 10
9.199999999999985
 20
34.60516910831216
 30
0.0
 10
9.199999999999985
 20
34.65640299543516
 30
0.0
  0
SPLINE
  5
1D7
330
1F
100
AcDbEntity
  8
1
  6
SLD-Solid
370
    25
100
AcDbSpline
210
0.0
220
0.0
230
1.0
 70
     8
 71
     3
 72
    12
 73
     8
 74
     0
 42
0.000000001
 43
0.00000001
 40
0.0
 40
0.0
 40
0.0
 40
0.0
 40
0.2500000000000006
 40
0.2500000000000006
 40
0.5000000000000011
 40
0.5000000000000011
 40
1.0
 40
1.0
 40
1.0
 40
1.0
 10
12.28
 20
33.35547071674117
 30
0.0
 10
12.10934456477525
 20
33.27301109054178
 30
0.0
 10
11.92465326465503
 20
33.21019284332252
 30
0.0
 10
11.52752277837882
 20
33.124142789094
 30
0.0
 10
11.32193513118782
 20
33.10278110396342
 30
0.0
 10
10.69948105299426
 20
33.10504385732295
 30
0.0
 10
10.28831449591978
 20
33.19754297491613
 30
0.0
 10
9.949999999999987
 20
33.36525953046025
 30
0.0
  0
SPLINE
  5
1D8
330
1F
100
AcDbEntity
  8
1
  6
SLD-Solid
370
    25
100
AcDbSpline
210
0.0
220
0.0
230
1.0
 70
     8
 71
     3
 72
    16
 73
    12
 74
     0
 42
0.000000001
 43
0.00000001
 40
0.0
 40
0.0
 40
0.0
 40
0.0
 40
0.1250000000000023
 40
0.1250000000000023
 40
0.2500000000000046
 40
0.2500000000000046
 40
0.5000000000000031
 40
0.5000000000000031
 40
0.7500000000000016
 40
0.7500000000000016
 40
1.0
 40
1.0
 40
1.0
 40
1.0
 10
9.200000000002262
 20
35.36831017815611
 30
0.0
 10
9.200000000002262
 20
35.31693147875156
 30
0.0
 10
9.209688078859523
 20
35.29149399689031
 30
0.0
 10
9.236073415531509
 20
35.26518486787037
 30
0.0
 10
9.253070624736889
 20
35.26193032552649
 30
0.0
 10
9.313034815209024
 20
35.26168910608327
 30
0.0
 10
9.363922455821433
 20
35.27477154515098
 30
0.0
 10
9.490054525543995
 20
35.31156519648361
 30
0.0
 10
9.565092430037739
 20
35.33621653959832
 30
0.0
 10
9.738924647265486
 20
35.39932894997411
 30
0.0
 10
9.83944594635
 20
35.43834692831611
 30
0.0
 10
9.949999999999987
 20
35.48885481142475
 30
0.0
  0
SPLINE
  5
1D9
330
1F
100
AcDbEntity
  8
1
  6
SLD-Solid
370
    25
100
AcDbSpline
210
0.0
220
0.0
230
1.0
 70
     8
 71
     3
 72
    12
 73
     8
 74
     0
 42
0.000000001
 43
0.00000001
 40
0.0
 40
0.0
 40
0.0
 40
0.0
 40
0.25
 40
0.25
 40
0.5
 40
0.5
 40
1.0
 40
1.0
 40
1.0
 40
1.0
 10
9.949999999999987
 20
35.48885481142475
 30
0.0
 10
10.11915676939236
 20
35.56613601508452
 30
0.0
 10
10.30270770519945
 20
35.62476545355776
 30
0.0
 10
10.69826560395108
 20
35.70597605697655
 30
0.0
 10
10.90345647830329
 20
35.72681273192288
 30
0.0
 10
11.52590240230554
 20
35.72953904175431
 30
0.0
 10
11.93868796900773
 20
35.64974792445469
 30
0.0
 10
12.28
 20
35.49787263615901
 30
0.0
  0
SPLINE
  5
1DA
330
1F
100
AcDbEntity
  8
1
  6
SLD-Solid
370
    25
100
AcDbSpline
210
0.0
220
0.0
230
1.0
 70
     8
 71
     3
 72
    16
 73
    12
 74
     0
 42
0.000000001
 43
0.00000001
 40
0.0
 40
0.0
 40
0.0
 40
0.0
 40
0.2500000000000002
 40
0.2500000000000002
 40
0.5000000000000004
 40
0.5000000000000004
 40
0.7500000000000007
 40
0.7500000000000007
 40
0.8750000000000003
 40
0.8750000000000003
 40
1.0
 40
1.0
 40
1.0
 40
1.0
 10
12.28
 20
35.49787263615901
 30
0.0
 10
12.38938127142805
 20
35.44920071538321
 30
0.0
 10
12.48719790588469
 20
35.4125691393556
 30
0.0
 10
12.66235653858859
 20
35.35237067244716
 30
0.0
 10
12.73630362704298
 20
35.33005450148762
 30
0.0
 10
12.86322577731736
 20
35.29810085202675
 30
0.0
 10
12.91570572130092
 20
35.28773767542292
 30
0.0
 10
12.97658934509431
 20
35.29443860847591
 30
0.0
 10
12.99409980251968
 20
35.30029296727562
 30
0.0
 10
13.02084597296049
 20
35.33271449864376
 30
0.0
 10
13.03
 20
35.36068432142828
 30
0.0
 10
13.03
 20
35.41132408805679
 30
0.0
  0
SPLINE
  5
1DB
330
1F
100
AcDbEntity
  8
1
  6
SLD-Solid
370
    25
100
AcDbSpline
210
0.0
220
0.0
230
1.0
 70
     8
 71
     3
 72
    16
 73
    12
 74
     0
 42
0.000000001
 43
0.00000001
 40
0.0
 40
0.0
 40
0.0
 40
0.0
 40
0.2499999999999998
 40
0.2499999999999998
 40
0.4999999999999996
 40
0.4999999999999996
 40
0.7499999999999993
 40
0.7499999999999993
 40
0.8749999999999997
 40
0.8749999999999997
 40
1.0
 40
1.0
 40
1.0
 40
1.0
 10
9.949999999999987
 20
40.29017607249212
 30
0.0
 10
9.839257595210649
 20
40.32798470963449
 30
0.0
 10
9.74041673400143
 20
40.39081531012379
 30
0.0
 10
9.564708009184047
 20
40.54795546550076
 30
0.0
 10
9.4908304832661
 20
40.63949231484413
 30
0.0
 10
9.364658348120003
 20
40.8424769902905
 30
0.0
 10
9.31295142551812
 20
40.95326880810712
 30
0.0
 10
9.253206550793827
 20
41.13218036853985
 30
0.0
 10
9.236028623043943
 20
41.19470581500534
 30
0.0
 10
9.20972370305702
 20
41.32469951294973
 30
0.0
 10
9.199999999999985
 20
41.3978390036328
 30
0.0
 10
9.199999999999985
 20
41.45885414630703
 30
0.0
  0
SPLINE
  5
1DC
330
1F
100
AcDbEntity
  8
1
  6
SLD-Solid
370
    25
100
AcDbSpline
210
0.0
220
0.0
230
1.0
 70
     8
 71
     3
 72
    16
 73
    12
 74
     0
 42
0.000000001
 43
0.00000001
 40
0.0
 40
0.0
 40
0.0
 40
0.0
 40
0.1250000000000039
 40
0.1250000000000039
 40
0.2500000000000078
 40
0.2500000000000078
 40
0.5000000000000051
 40
0.5000000000000051
 40
0.7500000000000026
 40
0.7500000000000026
 40
1.0
 40
1.0
 40
1.0
 40
1.0
 10
13.02999999999835
 20
41.42895438114485
 30
0.0
 10
13.02999999999835
 20
41.36827713359745
 30
0.0
 10
13.02067456260444
 20
41.29860125514492
 30
0.0
 10
12.99367590047686
 20
41.16856540733186
 30
0.0
 10
12.97626449755165
 20
41.10738101936697
 30
0.0
 10
12.91545405813366
 20
40.93079740642491
 30
0.0
 10
12.86271449633693
 20
40.8213021261172
 30
0.0
 10
12.73634152951743
 20
40.6232035604692
 30
0.0
 10
12.66098841639572
 20
40.53226162144244
 30
0.0
 10
12.48671204537617
 20
40.38027498384282
 30
0.0
 10
12.38972674335261
 20
40.31995671599527
 30
0.0
 10
12.27999999999835
 20
40.28343379132452
 30
0.0
  0
SPLINE
  5
1DD
330
1F
100
AcDbEntity
  8
1
  6
SLD-Solid
370
    25
100
AcDbSpline
210
0.0
220
0.0
230
1.0
 70
     8
 71
     3
 72
    12
 73
     8
 74
     0
 42
0.000000001
 43
0.00000001
 40
0.0
 40
0.0
 40
0.0
 40
0.0
 40
0.25
 40
0.25
 40
0.5
 40
0.5
 40
1.0
 40
1.0
 40
1.0
 40
1.0
 10
12.27999999999835
 20
40.28343379132452
 30
0.0
 10
12.1093445647736
 20
40.22663054158943
 30
0.0
 10
11.92465326465338
 20
40.1831865120628
 30
0.0
 10
11.52752277837717
 20
40.12362389225039
 30
0.0
 10
11.32193513118616
 20
40.10880147711192
 30
0.0
 10
10.69948105299261
 20
40.11037023230935
 30
0.0
 10
10.28831449592008
 20
40.17467189827313
 30
0.0
 10
9.949999999999987
 20
40.29017607249212
 30
0.0
  0
SPLINE
  5
1DE
330
1F
100
AcDbEntity
  8
1
  6
SLD-Solid
370
    25
100
AcDbSpline
210
0.0
220
0.0
230
1.0
 70
     8
 71
     3
 72
    26
 73
    22
 74
     0
 42
0.000000001
 43
0.00000001
 40
0.0
 40
0.0
 40
0.0
 40
0.0
 40
0.0364477969149012
 40
0.0777641848458628
 40
0.1201878812656764
 40
0.1634341888118983
 40
0.2076683380524979
 40
0.2566426432209779
 40
0.3067168009943845
 40
0.3624722236091899
 40
0.4196175240593528
 40
0.4796795379097975
 40
0.5414237003238559
 40
0.6024916466364268
 40
0.6653494337054761
 40
0.7259717685192759
 40
0.78857319598316
 40
0.8452915225746133
 40
0.9042518625835074
 40
0.9525728501201418
 40
1.0
 40
1.0
 40
1.0
 40
1.0
 10
53.3812681119413
 20
25.99535664736819
 30
0.0
 10
53.37610731959441
 20
25.99405847347919
 30
0.0
 10
53.36509637122483
 20
25.9912887193977
 30
0.0
 10
53.12257813649695
 20
25.93158783944714
 30
0.0
 10
52.72644242507813
 20
25.83741113499899
 30
0.0
 10
52.16495177013025
 20
25.7108985499729
 30
0.0
 10
51.43878254980694
 20
25.55963896610675
 30
0.0
 10
50.5463537296921
 20
25.39336445757393
 30
0.0
 10
49.46317262201217
 20
25.22171007477803
 30
0.0
 10
48.21801944584406
 20
25.06640241971698
 30
0.0
 10
46.81309009704532
 20
24.94758727750688
 30
0.0
 10
45.30658702755574
 20
24.88754257250805
 30
0.0
 10
43.75266205472813
 20
24.90045272240533
 30
0.0
 10
42.20468634368202
 20
24.98793668819734
 30
0.0
 10
40.73878508888507
 20
25.13874476391432
 30
0.0
 10
39.37914942002008
 20
25.3356726845003
 30
0.0
 10
38.2229362115235
 20
25.545482087038
 30
0.0
 10
37.27845874124885
 20
25.74408862510774
 30
0.0
 10
36.64274978142979
 20
25.89141911637475
 30
0.0
 10
36.26426127433285
 20
25.98393109570399
 30
0.0
 10
36.22563310243665
 20
25.9936026511662
 30
0.0
 10
36.20649931928913
 20
25.99839328545794
 30
0.0
  0
SPLINE
  5
1DF
330
1F
100
AcDbEntity
  8
1
  6
SLD-Solid
370
    25
100
AcDbSpline
210
0.0
220
0.0
230
1.0
 70
     8
 71
     3
 72
    26
 73
    22
 74
     0
 42
0.000000001
 43
0.00000001
 40
0.0
 40
0.0
 40
0.0
 40
0.0
 40
0.0364477969149011
 40
0.0777641848458627
 40
0.1201878812656762
 40
0.1634341888118983
 40
0.2076683380524978
 40
0.2566426432209773
 40
0.3067168009943839
 40
0.3624722236091892
 40
0.4196175240593524
 40
0.4796795379097979
 40
0.5414237003238555
 40
0.602491646636427
 40
0.6653494337054761
 40
0.7259717685192764
 40
0.7885731959831603
 40
0.8452915225746136
 40
0.9042518625835071
 40
0.9525728501201416
 40
1.0
 40
1.0
 40
1.0
 40
1.0
 10
81.78126811194133
 20
25.99535664736819
 30
0.0
 10
81.77610731959442
 20
25.99405847347919
 30
0.0
 10
81.76509637122481
 20
25.9912887193977
 30
0.0
 10
81.52257813649699
 20
25.93158783944715
 30
0.0
 10
81.12644242507814
 20
25.83741113499898
 30
0.0
 10
80.56495177013032
 20
25.71089854997292
 30
0.0
 10
79.83878254980687
 20
25.55963896610675
 30
0.0
 10
78.94635372969216
 20
25.39336445757395
 30
0.0
 10
77.86317262201217
 20
25.22171007477803
 30
0.0
 10
76.6180194458441
 20
25.06640241971698
 30
0.0
 10
75.21309009704532
 20
24.94758727750688
 30
0.0
 10
73.70658702755578
 20
24.88754257250803
 30
0.0
 10
72.15266205472811
 20
24.90045272240534
 30
0.0
 10
70.60468634368203
 20
24.98793668819733
 30
0.0
 10
69.13878508888507
 20
25.13874476391432
 30
0.0
 10
67.77914942002009
 20
25.33567268450028
 30
0.0
 10
66.62293621152348
 20
25.54548208703799
 30
0.0
 10
65.67845874124883
 20
25.74408862510774
 30
0.0
 10
65.04274978142979
 20
25.89141911637473
 30
0.0
 10
64.66426127433289
 20
25.98393109570399
 30
0.0
 10
64.62563310243664
 20
25.9936026511662
 30
0.0
 10
64.60649931928913
 20
25.99839328545794
 30
0.0
  0
SPLINE
  5
1E0
330
1F
100
AcDbEntity
  8
1
  6
SLD-Solid
370
    25
100
AcDbSpline
210
0.0
220
0.0
230
1.0
 70
     8
 71
     3
 72
    16
 73
    12
 74
     0
 42
0.000000001
 43
0.00000001
 40
0.0
 40
0.0
 40
0.0
 40
0.0
 40
0.1250000000000007
 40
0.1250000000000007
 40
0.2500000000000013
 40
0.2500000000000013
 40
0.5000000000000009
 40
0.5000000000000009
 40
0.7500000000000004
 40
0.7500000000000004
 40
1.0
 40
1.0
 40
1.0
 40
1.0
 10
9.199999999999985
 20
41.93454239124897
 30
0.0
 10
9.200000000002511
 20
41.87335478963723
 30
0.0
 10
9.209688078861259
 20
41.83111047963454
 30
0.0
 10
9.23607341553466
 20
41.77192904688973
 30
0.0
 10
9.25307062474047
 20
41.7517445546343
 30
0.0
 10
9.313034815213339
 20
41.70102846576505
 30
0.0
 10
9.363922455825819
 20
41.68155707128334
 30
0.0
 10
9.490054525547922
 20
41.65587219504388
 30
0.0
 10
9.565092430040917
 20
41.65088437918838
 30
0.0
 10
9.738924647266625
 20
41.66113961911402
 30
0.0
 10
9.839445946349597
 20
41.67651281331742
 30
0.0
 10
9.949999999997711
 20
41.7091381742131
 30
0.0
  0
SPLINE
  5
1E1
330
1F
100
AcDbEntity
  8
1
  6
SLD-Solid
370
    25
100
AcDbSpline
210
0.0
220
0.0
230
1.0
 70
     8
 71
     3
 72
    12
 73
     8
 74
     0
 42
0.000000001
 43
0.00000001
 40
0.0
 40
0.0
 40
0.0
 40
0.0
 40
0.25
 40
0.25
 40
0.5
 40
0.5
 40
1.0
 40
1.0
 40
1.0
 40
1.0
 10
9.949999999997711
 20
41.7091381742131
 30
0.0
 10
10.11915676938993
 20
41.75905765221763
 30
0.0
 10
10.30270770519864
 20
41.79673649998864
 30
0.0
 10
10.69826560394989
 20
41.84886357628232
 30
0.0
 10
10.90345647830175
 20
41.86219397810196
 30
0.0
 10
11.52590240230299
 20
41.86393994691689
 30
0.0
 10
11.93868796900437
 20
41.81303425518009
 30
0.0
 10
12.27999999999607
 20
41.71496227396707
 30
0.0
  0
SPLINE
  5
1E2
330
1F
100
AcDbEntity
  8
1
  6
SLD-Solid
370
    25
100
AcDbSpline
210
0.0
220
0.0
230
1.0
 70
     8
 71
     3
 72
    16
 73
    12
 74
     0
 42
0.000000001
 43
0.00000001
 40
0.0
 40
0.0
 40
0.0
 40
0.0
 40
0.2500000000000007
 40
0.2500000000000007
 40
0.5000000000000013
 40
0.5000000000000013
 40
0.750000000000002
 40
0.750000000000002
 40
0.875000000000001
 40
0.875000000000001
 40
1.0
 40
1.0
 40
1.0
 40
1.0
 10
12.27999999999607
 20
41.71496227396707
 30
0.0
 10
12.38938127142412
 20
41.68353285741419
 30
0.0
 10
12.48719790588076
 20
41.66923447164883
 30
0.0
 10
12.66235653858466
 20
41.66075308180612
 30
0.0
 10
12.73630362703905
 20
41.66679667497377
 30
0.0
 10
12.86322577731343
 20
41.69542238628982
 30
0.0
 10
12.91570572129699
 20
41.71723646207175
 30
0.0
 10
12.97658934509038
 20
41.77277628648039
 30
0.0
 10
12.99409980251576
 20
41.79517110958684
 30
0.0
 10
13.02084597295657
 20
41.85934368895602
 30
0.0
 10
13.02999999999607
 20
41.90265050045378
 30
0.0
 10
13.02999999999607
 20
41.96295809683838
 30
0.0
  0
SPLINE
  5
1E3
330
1F
100
AcDbEntity
  8
1
  6
SLD-Solid
370
    25
100
AcDbSpline
210
0.0
220
0.0
230
1.0
 70
     8
 71
     3
 72
    12
 73
     8
 74
     0
 42
0.000000001
 43
0.00000001
 40
0.0
 40
0.0
 40
0.0
 40
0.0
 40
0.5
 40
0.5
 40
0.75
 40
0.75
 40
1.0
 40
1.0
 40
1.0
 40
1.0
 10
9.199999999999985
 20
44.55102159322499
 30
0.0
 10
9.199999999999985
 20
44.35104831812288
 30
0.0
 10
9.27600396681734
 20
44.15150826736531
 30
0.0
 10
9.482759040153471
 20
43.93116827137958
 30
0.0
 10
9.566857937314918
 20
43.87128621650869
 30
0.0
 10
9.749511247261145
 20
43.79084228716471
 30
0.0
 10
9.850156242870472
 20
43.76943596849257
 30
0.0
 10
9.950000000002401
 20
43.76943596849289
 30
0.0
  0
SPLINE
  5
1E4
330
1F
100
AcDbEntity
  8
1
  6
SLD-Solid
370
    25
100
AcDbSpline
210
0.0
220
0.0
230
1.0
 70
     8
 71
     3
 72
    10
 73
     6
 74
     0
 42
0.000000001
 43
0.00000001
 40
0.0
 40
0.0
 40
0.0
 40
0.0
 40
0.5
 40
0.5
 40
1.0
 40
1.0
 40
1.0
 40
1.0
 10
12.28
 20
43.76943596849289
 30
0.0
 10
12.48122846377882
 20
43.76943596849291
 30
0.0
 10
12.67900932610885
 20
43.85856672856718
 30
0.0
 10
12.95290221427663
 20
44.15022946993261
 30
0.0
 10
13.03
 20
44.34957328976747
 30
0.0
 10
13.03
 20
44.55102159322499
 30
0.0
  0
SPLINE
  5
1E5
330
1F
100
AcDbEntity
  8
SK3
  6
SLD-Dashed
370
    18
100
AcDbSpline
210
0.0
220
0.0
230
1.0
 70
     8
 71
     3
 72
    30
 73
    26
 74
     0
 42
0.000000001
 43
0.00000001
 40
0.4999999999999934
 40
0.4999999999999934
 40
0.4999999999999934
 40
0.4999999999999934
 40
0.5624999999999941
 40
0.5624999999999941
 40
0.6249999999999949
 40
0.6249999999999949
 40
0.6874999999999956
 40
0.6874999999999956
 40
0.7499999999999962
 40
0.7499999999999962
 40
0.7812499999999968
 40
0.7812499999999968
 40
0.8124999999999972
 40
0.8124999999999972
 40
0.8437499999999977
 40
0.8437499999999977
 40
0.8749999999999981
 40
0.8749999999999981
 40
0.9062499999999986
 40
0.9062499999999986
 40
0.9374999999999991
 40
0.9374999999999991
 40
0.9687499999999996
 40
0.9687499999999996
 40
1.0
 40
1.0
 40
1.0
 40
1.0
 10
9.602846279599731
 20
-14.27915034605701
 30
0.0
 10
9.686456538693752
 20
-14.42125418637639
 30
0.0
 10
9.797407143447789
 20
-14.51131733768216
 30
0.0
 10
10.04010223607202
 20
-14.63242374926581
 30
0.0
 10
10.17571106347529
 20
-14.66434400040092
 30
0.0
 10
10.46843928875953
 20
-14.6878509066433
 30
0.0
 10
10.62555865364896
 20
-14.68003033606001
 30
0.0
 10
10.98145473780837
 20
-14.62436653420485
 30
0.0
 10
11.18157682258661
 20
-14.57632221838471
 30
0.0
 10
11.50801002825752
 20
-14.45860893436549
 30
0.0
 10
11.61873162334194
 20
-14.41242944660508
 30
0.0
 10
11.84220113938104
 20
-14.30063256215534
 30
0.0
 10
11.95412269444687
 20
-14.23490090158665
 30
0.0
 10
12.16107863552153
 20
-14.08747705033183
 30
0.0
 10
12.25901625186733
 20
-14.00366784802362
 30
0.0
 10
12.43052677631516
 20
-13.82249974419393
 30
0.0
 10
12.50593330594162
 20
-13.72350506925875
 30
0.0
 10
12.63000303324957
 20
-13.51367430078405
 30
0.0
 10
12.67841410243613
 20
-13.40398486856759
 30
0.0
 10
12.74789370637347
 20
-13.17359881812363
 30
0.0
 10
12.76810124630629
 20
-13.05468203931825
 30
0.0
 10
12.77891027826542
 20
-12.81644825424546
 30
0.0
 10
12.76940813581851
 20
-12.69449512908378
 30
0.0
 10
12.72129905847913
 20
-12.45817259633889
 30
0.0
 10
12.6830162564643
 20
-12.3430480331033
 30
0.0
 10
12.63040931107565
 20
-12.2323343638947
 30
0.0
  0
SPLINE
  5
1E6
330
1F
100
AcDbEntity
  8
SK3
  6
SLD-Dashed
370
    18
100
AcDbSpline
210
0.0
220
0.0
230
1.0
 70
     8
 71
     3
 72
    30
 73
    26
 74
     0
 42
0.000000001
 43
0.00000001
 40
0.0
 40
0.0
 40
0.0
 40
0.0
 40
0.0312499999999991
 40
0.0312499999999991
 40
0.0624999999999983
 40
0.0624999999999983
 40
0.0937499999999974
 40
0.0937499999999974
 40
0.1249999999999965
 40
0.1249999999999965
 40
0.187499999999996
 40
0.187499999999996
 40
0.2499999999999955
 40
0.2499999999999955
 40
0.312499999999995
 40
0.312499999999995
 40
0.3749999999999944
 40
0.3749999999999944
 40
0.4062499999999942
 40
0.4062499999999942
 40
0.4374999999999939
 40
0.4374999999999939
 40
0.4687499999999937
 40
0.4687499999999937
 40
0.4999999999999934
 40
0.4999999999999934
 40
0.4999999999999934
 40
0.4999999999999934
 10
12.63040931107567
 20
-12.23233436389469
 30
0.0
 10
12.57780236568701
 20
-12.12162069468611
 30
0.0
 10
12.51267206459308
 20
-12.01896209858504
 30
0.0
 10
12.35821503903349
 20
-11.83123217673026
 30
0.0
 10
12.26800655859517
 20
-11.74609765066665
 30
0.0
 10
12.07343499093624
 20
-11.60605794329096
 30
0.0
 10
11.96643370486065
 20
-11.54920121804519
 30
0.0
 10
11.74573264298212
 20
-11.46981719393689
 30
0.0
 10
11.63406552497759
 20
-11.44748668283022
 30
0.0
 10
11.29951801742689
 20
-11.42770686560522
 30
0.0
 10
11.0919842806995
 20
-11.47806879673262
 30
0.0
 10
10.72217844091648
 20
-11.64236243808863
 30
0.0
 10
10.55844908096594
 20
-11.75496051093635
 30
0.0
 10
10.25324958882706
 20
-12.02428585488715
 30
0.0
 10
10.11576882260311
 20
-12.17795893248197
 30
0.0
 10
9.862525619365293
 20
-12.52988094775973
 30
0.0
 10
9.746260896402015
 20
-12.72918710194006
 30
0.0
 10
9.60569266085047
 20
-13.06645756895027
 30
0.0
 10
9.565421636406112
 20
-13.18319961587416
 30
0.0
 10
9.503286004234612
 20
-13.4293677611186
 30
0.0
 10
9.482363995141297
 20
-13.5575206983002
 30
0.0
 10
9.47090841224371
 20
-13.80546799718778
 30
0.0
 10
9.480664817462667
 20
-13.92083957613646
 30
0.0
 10
9.525951505689648
 20
-14.12239475073259
 30
0.0
 10
9.561041150052741
 20
-14.20809842589733
 30
0.0
 10
9.602846279599731
 20
-14.27915034605701
 30
0.0
  0
SPLINE
  5
1E7
330
1F
100
AcDbEntity
  8
SK3
  6
SLD-Dashed
370
    18
100
AcDbSpline
210
0.0
220
0.0
230
1.0
 70
     8
 71
     3
 72
    26
 73
    22
 74
     0
 42
0.000000001
 43
0.00000001
 40
0.5000000000000062
 40
0.5000000000000062
 40
0.5000000000000062
 40
0.5000000000000062
 40
0.5625000000000058
 40
0.5625000000000058
 40
0.6250000000000051
 40
0.6250000000000051
 40
0.6562500000000046
 40
0.6562500000000046
 40
0.687500000000004
 40
0.687500000000004
 40
0.7187500000000034
 40
0.7187500000000034
 40
0.7500000000000029
 40
0.7500000000000029
 40
0.8125000000000022
 40
0.8125000000000022
 40
0.8750000000000014
 40
0.8750000000000014
 40
0.9375000000000008
 40
0.9375000000000008
 40
1.0
 40
1.0
 40
1.0
 40
1.0
 10
11.6386983177957
 20
-9.819390371339228
 30
0.0
 10
11.80317915771348
 20
-9.806594466981574
 30
0.0
 10
11.95081782962316
 20
-9.812432081454686
 30
0.0
 10
12.2261629968525
 20
-9.868839301598985
 30
0.0
 10
12.35236515469919
 20
-9.918953620877927
 30
0.0
 10
12.51874661426339
 20
-10.04837289060635
 30
0.0
 10
12.57051953396253
 20
-10.10115000339698
 30
0.0
 10
12.66070184098388
 20
-10.23071744026807
 30
0.0
 10
12.70001796005849
 20
-10.30921538460777
 30
0.0
 10
12.75624339139549
 20
-10.49493258066048
 30
0.0
 10
12.77323165300569
 20
-10.60488156995157
 30
0.0
 10
12.77649462889749
 20
-10.84110300053567
 30
0.0
 10
12.76278670669287
 20
-10.96977043023328
 30
0.0
 10
12.68516730486993
 20
-11.34647137591011
 30
0.0
 10
12.58996305158962
 20
-11.58088814423495
 30
0.0
 10
12.37315603453729
 20
-11.98947715399204
 30
0.0
 10
12.24747178673945
 20
-12.17132846963891
 30
0.0
 10
11.9767673751945
 20
-12.48981349043029
 30
0.0
 10
11.83102686354769
 20
-12.62828009284684
 30
0.0
 10
11.50508373269932
 20
-12.86276351579439
 30
0.0
 10
11.32747339457475
 20
-12.95749122616765
 30
0.0
 10
11.125
 20
-13.01159523973385
 30
0.0
  0
SPLINE
  5
1E8
330
1F
100
AcDbEntity
  8
SK3
  6
SLD-Dashed
370
    18
100
AcDbSpline
210
0.0
220
0.0
230
1.0
 70
     8
 71
     3
 72
    34
 73
    30
 74
     0
 42
0.000000001
 43
0.00000001
 40
0.0
 40
0.0
 40
0.0
 40
0.0
 40
0.0312500000000005
 40
0.0312500000000005
 40
0.0625000000000011
 40
0.0625000000000011
 40
0.0937500000000016
 40
0.0937500000000016
 40
0.1250000000000022
 40
0.1250000000000022
 40
0.1562500000000027
 40
0.1562500000000027
 40
0.1875000000000032
 40
0.1875000000000032
 40
0.2187500000000038
 40
0.2187500000000038
 40
0.2500000000000043
 40
0.2500000000000043
 40
0.2812500000000049
 40
0.2812500000000049
 40
0.3125000000000054
 40
0.3125000000000054
 40
0.3750000000000063
 40
0.3750000000000063
 40
0.4062500000000066
 40
0.4062500000000066
 40
0.4375000000000068
 40
0.4375000000000068
 40
0.5000000000000062
 40
0.5000000000000062
 40
0.5000000000000062
 40
0.5000000000000062
 10
11.125
 20
-13.01159523973385
 30
0.0
 10
11.02376330271261
 20
-13.03864724651694
 30
0.0
 10
10.91875434041333
 20
-13.05441768585464
 30
0.0
 10
10.69982193729478
 20
-13.05649587060871
 30
0.0
 10
10.58565504429781
 20
-13.04203538439391
 30
0.0
 10
10.3643330690885
 20
-12.97958779527626
 30
0.0
 10
10.25386240054303
 20
-12.93066318687882
 30
0.0
 10
10.04998753866609
 20
-12.80335962284301
 30
0.0
 10
9.955887873020972
 20
-12.72514830576756
 30
0.0
 10
9.789076352163557
 20
-12.54575166602603
 30
0.0
 10
9.718022202672039
 20
-12.44674722204855
 30
0.0
 10
9.600536001433166
 20
-12.2325086195109
 30
0.0
 10
9.555159683901193
 20
-12.11851015366411
 30
0.0
 10
9.493538953914305
 20
-11.88585378314761
 30
0.0
 10
9.476799814585949
 20
-11.76451266100634
 30
0.0
 10
9.47348088875466
 20
-11.52533259241781
 30
0.0
 10
9.486354225371793
 20
-11.40705029377196
 30
0.0
 10
9.541906609790429
 20
-11.17282024047875
 30
0.0
 10
9.583939125903774
 20
-11.06025657731944
 30
0.0
 10
9.694361385739564
 20
-10.84625731946298
 30
0.0
 10
9.764046986917323
 20
-10.74326010657126
 30
0.0
 10
10.00399120049172
 20
-10.46156575413965
 30
0.0
 10
10.21277179464263
 20
-10.30327029353934
 30
0.0
 10
10.54446991129006
 20
-10.12219171688677
 30
0.0
 10
10.65925898590057
 20
-10.07012567259634
 30
0.0
 10
10.87934718809654
 20
-9.984066675225876
 30
0.0
 10
10.98764418607851
 20
-9.948726825148157
 30
0.0
 10
11.29210738731384
 20
-9.863765363482663
 30
0.0
 10
11.47421747787791
 20
-9.832186275696875
 30
0.0
 10
11.6386983177957
 20
-9.819390371339228
 30
0.0
  0
SPLINE
  5
1E9
330
1F
100
AcDbEntity
  8
1
  6
SLD-Dashed
370
    18
100
AcDbSpline
210
0.0
220
0.0
230
1.0
 70
    24
 71
     2
 72
     6
 73
     3
 74
     0
 42
0.000000001
 43
0.00000001
 40
0.0
 40
0.0
 40
0.0
 40
0.25
 40
0.25
 40
0.25
 10
3.199999999989211
 20
-35.09999999999991
 30
0.0
 10
3.178023089472792
 20
-35.09999999999993
 30
0.0
 10
3.159393676864672
 20
-35.09999999999996
 30
0.0
  0
SPLINE
  5
1EA
330
1F
100
AcDbEntity
  8
1
  6
SLD-Dashed
370
    18
100
AcDbSpline
210
0.0
220
0.0
230
1.0
 70
    24
 71
     3
 72
     8
 73
     4
 74
     0
 42
0.000000001
 43
0.00000001
 40
0.25
 40
0.25
 40
0.25
 40
0.25
 40
0.5
 40
0.5
 40
0.5
 40
0.5
 10
3.159393676864672
 20
-35.09999999999996
 30
0.0
 10
3.140764264251625
 20
-35.09999999999998
 30
0.0
 10
3.125935313376432
 20
-35.10000000000001
 30
0.0
 10
3.125925297481333
 20
-35.1
 30
0.0
  0
SPLINE
  5
1EB
330
1F
100
AcDbEntity
  8
1
  6
SLD-Dashed
370
    18
100
AcDbSpline
210
0.0
220
0.0
230
1.0
 70
    24
 71
     3
 72
     8
 73
     4
 74
     0
 42
0.000000001
 43
0.00000001
 40
0.5
 40
0.5
 40
0.5
 40
0.5
 40
0.75
 40
0.75
 40
0.75
 40
0.75
 10
3.125925297481333
 20
-35.1
 30
0.0
 10
3.125915281586233
 20
-35.09999999999999
 30
0.0
 10
3.140736475081118
 20
-35.09999999999998
 30
0.0
 10
3.159374026153503
 20
-35.09999999999997
 30
0.0
  0
SPLINE
  5
1EC
330
1F
100
AcDbEntity
  8
1
  6
SLD-Dashed
370
    18
100
AcDbSpline
210
0.0
220
0.0
230
1.0
 70
    24
 71
     2
 72
     6
 73
     3
 74
     0
 42
0.000000001
 43
0.00000001
 40
0.75
 40
0.75
 40
0.75
 40
1.0
 40
1.0
 40
1.0
 10
3.159374026153503
 20
-35.09999999999997
 30
0.0
 10
3.178011577220932
 20
-35.09999999999994
 30
0.0
 10
3.199999999989211
 20
-35.09999999999991
 30
0.0
  0
SPLINE
  5
1ED
330
1F
100
AcDbEntity
  8
SK3
  6
SLD-Dashed
370
    18
100
AcDbSpline
210
0.0
220
0.0
230
1.0
 70
     8
 71
     3
 72
    30
 73
    26
 74
     0
 42
0.000000001
 43
0.00000001
 40
0.5000000000000009
 40
0.5000000000000009
 40
0.5000000000000009
 40
0.5000000000000009
 40
0.5625000000000008
 40
0.5625000000000008
 40
0.6250000000000008
 40
0.6250000000000008
 40
0.6562500000000007
 40
0.6562500000000007
 40
0.6875000000000007
 40
0.6875000000000007
 40
0.7187500000000007
 40
0.7187500000000007
 40
0.7500000000000006
 40
0.7500000000000006
 40
0.7812500000000006
 40
0.7812500000000006
 40
0.8125000000000006
 40
0.8125000000000006
 40
0.8437500000000006
 40
0.8437500000000006
 40
0.8750000000000004
 40
0.8750000000000004
 40
0.9375000000000003
 40
0.9375000000000003
 40
1.0
 40
1.0
 40
1.0
 40
1.0
 10
11.12563408671258
 20
-2.20807613194432
 30
0.0
 10
10.91012831143848
 20
-2.207994055743366
 30
0.0
 10
10.69273190607924
 20
-2.250950739379309
 30
0.0
 10
10.29545710457799
 20
-2.413221511274807
 30
0.0
 10
10.11161887920198
 20
-2.533970605358107
 30
0.0
 10
9.883256858052441
 20
-2.7563935005223
 30
0.0
 10
9.813570300258561
 20
-2.838822643502555
 30
0.0
 10
9.693828420307678
 20
-3.012044829892139
 30
0.0
 10
9.643049505613192
 20
-3.103292515775104
 30
0.0
 10
9.559939885115249
 20
-3.294987142140771
 30
0.0
 10
9.528110569339097
 20
-3.394937637341187
 30
0.0
 10
9.485932078998157
 20
-3.59527852615478
 30
0.0
 10
9.475093311114847
 20
-3.696889173272898
 30
0.0
 10
9.474907881274753
 20
-3.901872321533127
 30
0.0
 10
9.48552400342549
 20
-4.00214903424629
 30
0.0
 10
9.527345716529704
 20
-4.19850671782998
 30
0.0
 10
9.559089732329287
 20
-4.295610098711385
 30
0.0
 10
9.641733638388356
 20
-4.47937067040146
 30
0.0
 10
9.692330936314525
 20
-4.566117382228355
 30
0.0
 10
9.811994061612554
 20
-4.72969567326164
 30
0.0
 10
9.881475262593476
 20
-4.80655485490828
 30
0.0
 10
10.10919445985288
 20
-5.012639596316023
 30
0.0
 10
10.29295795309709
 20
-5.122781885588338
 30
0.0
 10
10.68976853487481
 20
-5.270055084887766
 30
0.0
 10
10.90666257993482
 20
-5.309061659790622
 30
0.0
 10
11.125
 20
-5.309061659790622
 30
0.0
  0
SPLINE
  5
1EE
330
1F
100
AcDbEntity
  8
SK3
  6
SLD-Dashed
370
    18
100
AcDbSpline
210
0.0
220
0.0
230
1.0
 70
     8
 71
     3
 72
    34
 73
    30
 74
     0
 42
0.000000001
 43
0.00000001
 40
0.0
 40
0.0
 40
0.0
 40
0.0
 40
0.0312500000000002
 40
0.0312500000000002
 40
0.0625000000000004
 40
0.0625000000000004
 40
0.0937500000000006
 40
0.0937500000000006
 40
0.1250000000000007
 40
0.1250000000000007
 40
0.1875000000000009
 40
0.1875000000000009
 40
0.2500000000000012
 40
0.2500000000000012
 40
0.2812500000000011
 40
0.2812500000000011
 40
0.3125000000000011
 40
0.3125000000000011
 40
0.3437500000000011
 40
0.3437500000000011
 40
0.375000000000001
 40
0.375000000000001
 40
0.406250000000001
 40
0.406250000000001
 40
0.4375000000000009
 40
0.4375000000000009
 40
0.4687500000000009
 40
0.4687500000000009
 40
0.5000000000000009
 40
0.5000000000000009
 40
0.5000000000000009
 40
0.5000000000000009
 10
11.125
 20
-5.309061659790622
 30
0.0
 10
11.23416871003258
 20
-5.309061659790622
 30
0.0
 10
11.34148252556931
 20
-5.299537349621519
 30
0.0
 10
11.55256160023162
 20
-5.262182100287872
 30
0.0
 10
11.65743203047546
 20
-5.233886962156417
 30
0.0
 10
11.85717198594062
 20
-5.159939537795331
 30
0.0
 10
11.95188217044847
 20
-5.114630280030584
 30
0.0
 10
12.13112457505727
 20
-5.007215473783237
 30
0.0
 10
12.21587296426148
 20
-4.944611663283513
 30
0.0
 10
12.44381779984263
 20
-4.738598197540286
 30
0.0
 10
12.56670516674999
 20
-4.571329361139978
 30
0.0
 10
12.73138667216639
 20
-4.20606048265669
 30
0.0
 10
12.77487792035802
 20
-4.004112810281367
 30
0.0
 10
12.77506064455625
 20
-3.70030625359756
 30
0.0
 10
12.76431481439132
 20
-3.596867972027996
 30
0.0
 10
12.72215926890362
 20
-3.395807648785797
 30
0.0
 10
12.69097028794158
 20
-3.297550131697885
 30
0.0
 10
12.60821939488965
 20
-3.105767645319002
 30
0.0
 10
12.55662183160311
 20
-3.012826865172874
 30
0.0
 10
12.43728120518577
 20
-2.839925186415154
 30
0.0
 10
12.36897548289648
 20
-2.758757585038234
 30
0.0
 10
12.21525208496078
 20
-2.608656191484392
 30
0.0
 10
12.13209058330411
 20
-2.541870610032901
 30
0.0
 10
11.95357507686054
 20
-2.424499981749671
 30
0.0
 10
11.85705358084933
 20
-2.373501415354251
 30
0.0
 10
11.65740944182678
 20
-2.291755408436395
 30
0.0
 10
11.5545681958458
 20
-2.260806334720908
 30
0.0
 10
11.34284591554822
 20
-2.218868681349191
 30
0.0
 10
11.23338697434963
 20
-2.2081171700448
 30
0.0
 10
11.12563408671258
 20
-2.20807613194432
 30
0.0
  0
SPLINE
  5
1EF
330
1F
100
AcDbEntity
  8
1
  6
SLD-Dashed
370
    18
100
AcDbSpline
210
0.0
220
0.0
230
1.0
 70
     8
 71
     3
 72
    17
 73
    13
 74
     0
 42
0.000000001
 43
0.00000001
 40
0.0
 40
0.0
 40
0.0
 40
0.0
 40
0.0674235784050986
 40
0.1218450006719952
 40
0.2469317320804586
 40
0.3688207101586604
 40
0.4945091993472731
 40
0.6110563702732213
 40
0.7321553057078957
 40
0.832088094703461
 40
0.9358858520813715
 40
1.0
 40
1.0
 40
1.0
 40
1.0
 10
73.20000010473979
 20
-24.7265306122449
 30
0.0
 10
73.50776066387252
 20
-24.73458857951153
 30
0.0
 10
74.06393235367861
 20
-24.74915059253786
 30
0.0
 10
75.19570741256618
 20
-24.76752030633841
 30
0.0
 10
76.53979911495637
 20
-24.87965565787288
 30
0.0
 10
78.1164246095448
 20
-25.06689749308881
 30
0.0
 10
79.51817329870217
 20
-25.30041139363953
 30
0.0
 10
80.72462758977639
 20
-25.54621500751558
 30
0.0
 10
81.62085393049412
 20
-25.75769528697537
 30
0.0
 10
82.21776561103317
 20
-25.91097779256678
 30
0.0
 10
82.51580209974193
 20
-25.99156962926441
 30
0.0
 10
82.52416963864017
 20
-25.99387463760035
 30
0.0
 10
82.527364633216
 20
-25.99475476367087
 30
0.0
  0
SPLINE
  5
1F0
330
1F
100
AcDbEntity
  8
1
  6
SLD-Dashed
370
    18
100
AcDbSpline
210
0.0
220
0.0
230
1.0
 70
     8
 71
     3
 72
    14
 73
    10
 74
     0
 42
0.000000001
 43
0.00000001
 40
0.0
 40
0.0
 40
0.0
 40
0.0
 40
0.1805099678792874
 40
0.1860312014191499
 40
0.3649308974253588
 40
0.5701908343485294
 40
0.7834760878025725
 40
0.9597678484572809
 40
1.0
 40
1.0
 40
1.0
 40
1.0
 10
50.54202884998089
 20
25.39716885154505
 30
0.0
 10
50.84972133976177
 20
25.45113173048992
 30
0.0
 10
51.16682517737293
 20
25.50674516458494
 30
0.0
 10
51.66214326910199
 20
25.6090690766897
 30
0.0
 10
52.2295112132176
 20
25.72275558019332
 30
0.0
 10
52.85938432994647
 20
25.86863981448114
 30
0.0
 10
53.2571168483979
 20
25.96430628683562
 30
0.0
 10
53.41810810887607
 20
26.00449249809687
 30
0.0
 10
53.3870407208446
 20
25.99678818096329
 30
0.0
 10
53.3812681119413
 20
25.99535664736819
 30
0.0
  0
SPLINE
  5
1F1
330
1F
100
AcDbEntity
  8
1
  6
SLD-Dashed
370
    18
100
AcDbSpline
210
0.0
220
0.0
230
1.0
 70
     8
 71
     3
 72
    14
 73
    10
 74
     0
 42
0.000000001
 43
0.00000001
 40
0.0
 40
0.0
 40
0.0
 40
0.0
 40
0.1805099678792888
 40
0.1860312014191655
 40
0.3649308974253599
 40
0.5701908343485304
 40
0.7834760878025718
 40
0.95976784845728
 40
1.0
 40
1.0
 40
1.0
 40
1.0
 10
78.94202884998086
 20
25.39716885154516
 30
0.0
 10
79.24972133976163
 20
25.45113173049003
 30
0.0
 10
79.5668251773727
 20
25.50674516458504
 30
0.0
 10
80.06214326910217
 20
25.60906907668974
 30
0.0
 10
80.62951121321746
 20
25.72275558019334
 30
0.0
 10
81.25938432994653
 20
25.86863981448117
 30
0.0
 10
81.6571168483979
 20
25.96430628683564
 30
0.0
 10
81.81810810887602
 20
26.00449249809685
 30
0.0
 10
81.78704072084462
 20
25.99678818096329
 30
0.0
 10
81.78126811194133
 20
25.99535664736819
 30
0.0
  0
SPLINE
  5
1F2
330
1F
100
AcDbEntity
  8
SK3
  6
SLD-Dashed
370
    18
100
AcDbSpline
210
0.0
220
0.0
230
1.0
 70
     8
 71
     2
 72
     6
 73
     3
 74
     0
 42
0.000000001
 43
0.00000001
 40
0.0
 40
0.0
 40
0.0
 40
0.03125
 40
0.03125
 40
0.03125
 10
38.29999999999998
 20
15.99999999999999
 30
0.0
 10
38.34309908003025
 20
15.98235393467429
 30
0.0
 10
38.42711899093224
 20
15.94878090500135
 30
0.0
  0
SPLINE
  5
1F3
330
1F
100
AcDbEntity
  8
SK3
  6
SLD-Dashed
370
    18
100
AcDbSpline
210
0.0
220
0.0
230
1.0
 70
     8
 71
     3
 72
     8
 73
     4
 74
     0
 42
0.000000001
 43
0.00000001
 40
0.03125
 40
0.03125
 40
0.03125
 40
0.03125
 40
0.046875
 40
0.046875
 40
0.046875
 40
0.046875
 10
38.42711899093224
 20
15.94878090500135
 30
0.0
 10
38.46912894638321
 20
15.9319943901649
 30
0.0
 10
38.52144902153628
 20
15.91121802964376
 30
0.0
 10
38.58427803042571
 20
15.88663588060885
 30
0.0
  0
SPLINE
  5
1F4
330
1F
100
AcDbEntity
  8
SK3
  6
SLD-Dashed
370
    18
100
AcDbSpline
210
0.0
220
0.0
230
1.0
 70
     8
 71
     3
 72
     8
 73
     4
 74
     0
 42
0.000000001
 43
0.00000001
 40
0.046875
 40
0.046875
 40
0.046875
 40
0.046875
 40
0.0625000000000001
 40
0.0625000000000001
 40
0.0625000000000001
 40
0.0625000000000001
 10
38.58427803042571
 20
15.88663588060885
 30
0.0
 10
38.64710703931512
 20
15.86205373157395
 30
0.0
 10
38.72037367265666
 20
15.8337013368278
 30
0.0
 10
38.80239375658723
 20
15.80257196316547
 30
0.0
  0
SPLINE
  5
1F5
330
1F
100
AcDbEntity
  8
SK3
  6
SLD-Dashed
370
    18
100
AcDbSpline
210
0.0
220
0.0
230
1.0
 70
     8
 71
     3
 72
     8
 73
     4
 74
     0
 42
0.000000001
 43
0.00000001
 40
0.0625000000000001
 40
0.0625000000000001
 40
0.0625000000000001
 40
0.0625000000000001
 40
0.09375
 40
0.09375
 40
0.09375
 40
0.09375
 10
38.80239375658723
 20
15.80257196316547
 30
0.0
 10
38.96643392444843
 20
15.7403132158408
 30
0.0
 10
39.16651407000479
 20
15.66643586456443
 30
0.0
 10
39.40235965592034
 20
15.58475284642127
 30
0.0
  0
SPLINE
  5
1F6
330
1F
100
AcDbEntity
  8
SK3
  6
SLD-Dashed
370
    18
100
AcDbSpline
210
0.0
220
0.0
230
1.0
 70
     8
 71
     3
 72
     8
 73
     4
 74
     0
 42
0.000000001
 43
0.00000001
 40
0.09375
 40
0.09375
 40
0.09375
 40
0.09375
 40
0.1093749999999999
 40
0.1093749999999999
 40
0.1093749999999999
 40
0.1093749999999999
 10
39.40235965592034
 20
15.58475284642127
 30
0.0
 10
39.52028244887812
 20
15.54391133734971
 30
0.0
 10
39.64780259082473
 20
15.50093657916941
 30
0.0
 10
39.78196797106948
 20
15.45738158432314
 30
0.0
  0
SPLINE
  5
1F7
330
1F
100
AcDbEntity
  8
SK3
  6
SLD-Dashed
370
    18
100
AcDbSpline
210
0.0
220
0.0
230
1.0
 70
     8
 71
     3
 72
     8
 73
     4
 74
     0
 42
0.000000001
 43
0.00000001
 40
0.1093749999999999
 40
0.1093749999999999
 40
0.1093749999999999
 40
0.1093749999999999
 40
0.1249999999999998
 40
0.1249999999999998
 40
0.1249999999999998
 40
0.1249999999999998
 10
39.78196797106948
 20
15.45738158432314
 30
0.0
 10
39.91613335131425
 20
15.41382658947688
 30
0.0
 10
40.05736024854867
 20
15.36953605523052
 30
0.0
 10
40.2055752275563
 20
15.3251015980203
 30
0.0
  0
SPLINE
  5
1F8
330
1F
100
AcDbEntity
  8
SK3
  6
SLD-Dashed
370
    18
100
AcDbSpline
210
0.0
220
0.0
230
1.0
 70
     8
 71
     3
 72
     8
 73
     4
 74
     0
 42
0.000000001
 43
0.00000001
 40
0.1249999999999998
 40
0.1249999999999998
 40
0.1249999999999998
 40
0.1249999999999998
 40
0.1562499999999998
 40
0.1562499999999998
 40
0.1562499999999998
 40
0.1562499999999998
 10
40.2055752275563
 20
15.3251015980203
 30
0.0
 10
40.50200518557154
 20
15.23623268359982
 30
0.0
 10
40.82737154310981
 20
15.14643571555891
 30
0.0
 10
41.18014680202156
 20
15.06165121010691
 30
0.0
  0
SPLINE
  5
1F9
330
1F
100
AcDbEntity
  8
SK3
  6
SLD-Dashed
370
    18
100
AcDbSpline
210
0.0
220
0.0
230
1.0
 70
     8
 71
     3
 72
     8
 73
     4
 74
     0
 42
0.000000001
 43
0.00000001
 40
0.1562499999999998
 40
0.1562499999999998
 40
0.1562499999999998
 40
0.1562499999999998
 40
0.1874999999999997
 40
0.1874999999999997
 40
0.1874999999999997
 40
0.1874999999999997
 10
41.18014680202156
 20
15.06165121010691
 30
0.0
 10
41.53292206093332
 20
14.97686670465492
 30
0.0
 10
41.90401923967582
 20
14.89929892595714
 30
0.0
 10
42.29380529373167
 20
14.83344234848159
 30
0.0
  0
SPLINE
  5
1FA
330
1F
100
AcDbEntity
  8
SK3
  6
SLD-Dashed
370
    18
100
AcDbSpline
210
0.0
220
0.0
230
1.0
 70
     8
 71
     3
 72
     8
 73
     4
 74
     0
 42
0.000000001
 43
0.00000001
 40
0.1874999999999997
 40
0.1874999999999997
 40
0.1874999999999997
 40
0.1874999999999997
 40
0.2031249999999998
 40
0.2031249999999998
 40
0.2031249999999998
 40
0.2031249999999998
 10
42.29380529373167
 20
14.83344234848159
 30
0.0
 10
42.4886983207596
 20
14.80051405974381
 30
0.0
 10
42.68829739383626
 20
14.77051591141276
 30
0.0
 10
42.89286467942746
 20
14.74405524714877
 30
0.0
  0
SPLINE
  5
1FB
330
1F
100
AcDbEntity
  8
SK3
  6
SLD-Dashed
370
    18
100
AcDbSpline
210
0.0
220
0.0
230
1.0
 70
     8
 71
     3
 72
     8
 73
     4
 74
     0
 42
0.000000001
 43
0.00000001
 40
0.2031249999999998
 40
0.2031249999999998
 40
0.2031249999999998
 40
0.2031249999999998
 40
0.21875
 40
0.21875
 40
0.21875
 40
0.21875
 10
42.89286467942746
 20
14.74405524714877
 30
0.0
 10
43.09743196501869
 20
14.71759458288478
 30
0.0
 10
43.307726607069
 20
14.69465987128928
 30
0.0
 10
43.51793686157141
 20
14.67629673626551
 30
0.0
  0
SPLINE
  5
1FC
330
1F
100
AcDbEntity
  8
SK3
  6
SLD-Dashed
370
    18
100
AcDbSpline
210
0.0
220
0.0
230
1.0
 70
     8
 71
     3
 72
     8
 73
     4
 74
     0
 42
0.000000001
 43
0.00000001
 40
0.21875
 40
0.21875
 40
0.21875
 40
0.21875
 40
0.2499999999999999
 40
0.2499999999999999
 40
0.2499999999999999
 40
0.2499999999999999
 10
43.51793686157141
 20
14.67629673626551
 30
0.0
 10
43.93835737057616
 20
14.63957046621792
 30
0.0
 10
44.36312011322985
 20
14.62042004482025
 30
0.0
 10
44.79228418416367
 20
14.62019355322677
 30
0.0
  0
SPLINE
  5
1FD
330
1F
100
AcDbEntity
  8
SK3
  6
SLD-Dashed
370
    18
100
AcDbSpline
210
0.0
220
0.0
230
1.0
 70
     8
 71
     3
 72
     8
 73
     4
 74
     0
 42
0.000000001
 43
0.00000001
 40
0.2499999999999999
 40
0.2499999999999999
 40
0.2499999999999999
 40
0.2499999999999999
 40
0.2812499999999997
 40
0.2812499999999997
 40
0.2812499999999997
 40
0.2812499999999997
 10
44.79228418416367
 20
14.62019355322677
 30
0.0
 10
45.22144825509747
 20
14.61996706163329
 30
0.0
 10
45.65716040007331
 20
14.63934837229798
 30
0.0
 10
46.07612386349208
 20
14.67577909737586
 30
0.0
  0
SPLINE
  5
1FE
330
1F
100
AcDbEntity
  8
SK3
  6
SLD-Dashed
370
    18
100
AcDbSpline
210
0.0
220
0.0
230
1.0
 70
     8
 71
     3
 72
     8
 73
     4
 74
     0
 42
0.000000001
 43
0.00000001
 40
0.2812499999999997
 40
0.2812499999999997
 40
0.2812499999999997
 40
0.2812499999999997
 40
0.3124999999999996
 40
0.3124999999999996
 40
0.3124999999999996
 40
0.3124999999999996
 10
46.07612386349208
 20
14.67577909737586
 30
0.0
 10
46.49508732691085
 20
14.71220982245372
 30
0.0
 10
46.90334382772773
 20
14.76556334335051
 30
0.0
 10
47.29912333662101
 20
14.83224923778062
 30
0.0
  0
SPLINE
  5
1FF
330
1F
100
AcDbEntity
  8
SK3
  6
SLD-Dashed
370
    18
100
AcDbSpline
210
0.0
220
0.0
230
1.0
 70
     8
 71
     3
 72
     8
 73
     4
 74
     0
 42
0.000000001
 43
0.00000001
 40
0.3124999999999996
 40
0.3124999999999996
 40
0.3124999999999996
 40
0.3124999999999996
 40
0.3437499999999995
 40
0.3437499999999995
 40
0.3437499999999995
 40
0.3437499999999995
 10
47.29912333662101
 20
14.83224923778062
 30
0.0
 10
47.69490284551431
 20
14.89893513221073
 30
0.0
 10
48.06667803807132
 20
14.97684462437975
 30
0.0
 10
48.41648676146543
 20
15.06084248957722
 30
0.0
  0
SPLINE
  5
200
330
1F
100
AcDbEntity
  8
SK3
  6
SLD-Dashed
370
    18
100
AcDbSpline
210
0.0
220
0.0
230
1.0
 70
     8
 71
     3
 72
     8
 73
     4
 74
     0
 42
0.000000001
 43
0.00000001
 40
0.3437499999999995
 40
0.3437499999999995
 40
0.3437499999999995
 40
0.3437499999999995
 40
0.3749999999999994
 40
0.3749999999999994
 40
0.3749999999999994
 40
0.3749999999999994
 10
48.41648676146543
 20
15.06084248957722
 30
0.0
 10
48.7662954848595
 20
15.1448403547747
 30
0.0
 10
49.0966905466147
 20
15.23584882790522
 30
0.0
 10
49.39401954493302
 20
15.32498011676448
 30
0.0
  0
SPLINE
  5
201
330
1F
100
AcDbEntity
  8
SK3
  6
SLD-Dashed
370
    18
100
AcDbSpline
210
0.0
220
0.0
230
1.0
 70
     8
 71
     3
 72
     8
 73
     4
 74
     0
 42
0.000000001
 43
0.00000001
 40
0.3749999999999994
 40
0.3749999999999994
 40
0.3749999999999994
 40
0.3749999999999994
 40
0.4062499999999992
 40
0.4062499999999992
 40
0.4062499999999992
 40
0.4062499999999992
 10
49.39401954493302
 20
15.32498011676448
 30
0.0
 10
49.69134854325136
 20
15.41411140562374
 30
0.0
 10
49.95796400927174
 20
15.5017933159767
 30
0.0
 10
50.19390001683005
 20
15.58345781242274
 30
0.0
  0
SPLINE
  5
202
330
1F
100
AcDbEntity
  8
SK3
  6
SLD-Dashed
370
    18
100
AcDbSpline
210
0.0
220
0.0
230
1.0
 70
     8
 71
     3
 72
     8
 73
     4
 74
     0
 42
0.000000001
 43
0.00000001
 40
0.4062499999999992
 40
0.4062499999999992
 40
0.4062499999999992
 40
0.4062499999999992
 40
0.4218749999999992
 40
0.4218749999999992
 40
0.4218749999999992
 40
0.4218749999999992
 10
50.19390001683005
 20
15.58345781242274
 30
0.0
 10
50.31186802060922
 20
15.62429006064576
 30
0.0
 10
50.42262129381022
 20
15.66381393793337
 30
0.0
 10
50.52337945258342
 20
15.70054369626269
 30
0.0
  0
SPLINE
  5
203
330
1F
100
AcDbEntity
  8
SK3
  6
SLD-Dashed
370
    18
100
AcDbSpline
210
0.0
220
0.0
230
1.0
 70
     8
 71
     3
 72
     8
 73
     4
 74
     0
 42
0.000000001
 43
0.00000001
 40
0.4218749999999992
 40
0.4218749999999992
 40
0.4218749999999992
 40
0.4218749999999992
 40
0.4374999999999991
 40
0.4374999999999991
 40
0.4374999999999991
 40
0.4374999999999991
 10
50.52337945258342
 20
15.70054369626269
 30
0.0
 10
50.62413761135659
 20
15.73727345459201
 30
0.0
 10
50.71524249664488
 20
15.77131549283923
 30
0.0
 10
50.79685531562269
 20
15.80228697614724
 30
0.0
  0
SPLINE
  5
204
330
1F
100
AcDbEntity
  8
SK3
  6
SLD-Dashed
370
    18
100
AcDbSpline
210
0.0
220
0.0
230
1.0
 70
     8
 71
     3
 72
     8
 73
     4
 74
     0
 42
0.000000001
 43
0.00000001
 40
0.4374999999999991
 40
0.4374999999999991
 40
0.4374999999999991
 40
0.4374999999999991
 40
0.4687499999999989
 40
0.4687499999999989
 40
0.4687499999999989
 40
0.4687499999999989
 10
50.79685531562269
 20
15.80228697614724
 30
0.0
 10
50.96008095357829
 20
15.8642299427632
 30
0.0
 10
51.08564955329453
 20
15.91393214074314
 30
0.0
 10
51.17122311482311
 20
15.94811850905479
 30
0.0
  0
SPLINE
  5
205
330
1F
100
AcDbEntity
  8
SK3
  6
SLD-Dashed
370
    18
100
AcDbSpline
210
0.0
220
0.0
230
1.0
 70
     8
 71
     3
 72
     8
 73
     4
 74
     0
 42
0.000000001
 43
0.00000001
 40
0.4687499999999989
 40
0.4687499999999989
 40
0.4687499999999989
 40
0.4687499999999989
 40
0.4999999999999988
 40
0.4999999999999988
 40
0.4999999999999988
 40
0.4999999999999988
 10
51.17122311482311
 20
15.94811850905479
 30
0.0
 10
51.25679667635166
 20
15.98230487736645
 30
0.0
 10
51.29951535738461
 20
15.99980311404076
 30
0.0
 10
51.2999959001322
 20
15.99999833442915
 30
0.0
  0
SPLINE
  5
206
330
1F
100
AcDbEntity
  8
SK3
  6
SLD-Dashed
370
    18
100
AcDbSpline
210
0.0
220
0.0
230
1.0
 70
     8
 71
     3
 72
     8
 73
     4
 74
     0
 42
0.000000001
 43
0.00000001
 40
0.5156249999999987
 40
0.5156249999999987
 40
0.5156249999999987
 40
0.5156249999999987
 40
0.5312499999999986
 40
0.5312499999999986
 40
0.5312499999999986
 40
0.5312499999999986
 10
51.26888260764231
 20
15.98738384450243
 30
0.0
 10
51.2478227079472
 20
15.97886249916027
 30
0.0
 10
51.2157273779614
 20
15.96590313220578
 30
0.0
 10
51.17354833965776
 20
15.94904757149953
 30
0.0
  0
SPLINE
  5
207
330
1F
100
AcDbEntity
  8
SK3
  6
SLD-Dashed
370
    18
100
AcDbSpline
210
0.0
220
0.0
230
1.0
 70
     8
 71
     3
 72
     8
 73
     4
 74
     0
 42
0.000000001
 43
0.00000001
 40
0.5312499999999986
 40
0.5312499999999986
 40
0.5312499999999986
 40
0.5312499999999986
 40
0.5624999999999986
 40
0.5624999999999986
 40
0.5624999999999986
 40
0.5624999999999986
 10
51.17354833965776
 20
15.94904757149953
 30
0.0
 10
51.08919026305048
 20
15.91533645008698
 30
0.0
 10
50.9646547832133
 20
15.86600138779929
 30
0.0
 10
50.80083164746438
 20
15.80379639394314
 30
0.0
  0
SPLINE
  5
208
330
1F
100
AcDbEntity
  8
SK3
  6
SLD-Dashed
370
    18
100
AcDbSpline
210
0.0
220
0.0
230
1.0
 70
     8
 71
     3
 72
     8
 73
     4
 74
     0
 42
0.000000001
 43
0.00000001
 40
0.5624999999999986
 40
0.5624999999999986
 40
0.5624999999999986
 40
0.5624999999999986
 40
0.5781249999999987
 40
0.5781249999999987
 40
0.5781249999999987
 40
0.5781249999999987
 10
50.80083164746438
 20
15.80379639394314
 30
0.0
 10
50.71892007958995
 20
15.77269389701507
 30
0.0
 10
50.6265346943347
 20
15.73816096753029
 30
0.0
 10
50.52581221337207
 20
15.70143068331038
 30
0.0
  0
SPLINE
  5
209
330
1F
100
AcDbEntity
  8
SK3
  6
SLD-Dashed
370
    18
100
AcDbSpline
210
0.0
220
0.0
230
1.0
 70
     8
 71
     3
 72
     8
 73
     4
 74
     0
 42
0.000000001
 43
0.00000001
 40
0.5781249999999987
 40
0.5781249999999987
 40
0.5781249999999987
 40
0.5781249999999987
 40
0.5937499999999988
 40
0.5937499999999988
 40
0.5937499999999988
 40
0.5937499999999988
 10
50.52581221337207
 20
15.70143068331038
 30
0.0
 10
50.42508973240939
 20
15.66470039909048
 30
0.0
 10
50.31598764798314
 20
15.62574855332943
 30
0.0
 10
50.19871851879093
 20
15.5851262954503
 30
0.0
  0
SPLINE
  5
20A
330
1F
100
AcDbEntity
  8
SK3
  6
SLD-Dashed
370
    18
100
AcDbSpline
210
0.0
220
0.0
230
1.0
 70
     8
 71
     3
 72
     8
 73
     4
 74
     0
 42
0.000000001
 43
0.00000001
 40
0.5937499999999988
 40
0.5937499999999988
 40
0.5937499999999988
 40
0.5937499999999988
 40
0.6249999999999993
 40
0.6249999999999993
 40
0.6249999999999993
 40
0.6249999999999993
 10
50.19871851879093
 20
15.5851262954503
 30
0.0
 10
49.96418026040647
 20
15.50388177969202
 30
0.0
 10
49.69607080185553
 20
15.41557053513534
 30
0.0
 10
49.3964557476127
 20
15.32571060146188
 30
0.0
  0
SPLINE
  5
20B
330
1F
100
AcDbEntity
  8
SK3
  6
SLD-Dashed
370
    18
100
AcDbSpline
210
0.0
220
0.0
230
1.0
 70
     8
 71
     3
 72
     8
 73
     4
 74
     0
 42
0.000000001
 43
0.00000001
 40
0.6249999999999993
 40
0.6249999999999993
 40
0.6249999999999993
 40
0.6249999999999993
 40
0.6562499999999999
 40
0.6562499999999999
 40
0.6562499999999999
 40
0.6562499999999999
 10
49.3964557476127
 20
15.32571060146188
 30
0.0
 10
49.09684069336981
 20
15.23585066778841
 30
0.0
 10
48.77271197385721
 20
15.14654533471065
 30
0.0
 10
48.42393378598822
 20
15.06263244208087
 30
0.0
  0
SPLINE
  5
20C
330
1F
100
AcDbEntity
  8
SK3
  6
SLD-Dashed
370
    18
100
AcDbSpline
210
0.0
220
0.0
230
1.0
 70
     8
 71
     3
 72
     8
 73
     4
 74
     0
 42
0.000000001
 43
0.00000001
 40
0.6562499999999999
 40
0.6562499999999999
 40
0.6562499999999999
 40
0.6562499999999999
 40
0.6718750000000001
 40
0.6718750000000001
 40
0.6718750000000001
 40
0.6718750000000001
 10
48.42393378598822
 20
15.06263244208087
 30
0.0
 10
48.24954469205372
 20
15.02067599576597
 30
0.0
 10
48.0689443023245
 20
14.9800689355488
 30
0.0
 10
47.88180414380736
 20
14.94146969949035
 30
0.0
  0
SPLINE
  5
20D
330
1F
100
AcDbEntity
  8
SK3
  6
SLD-Dashed
370
    18
100
AcDbSpline
210
0.0
220
0.0
230
1.0
 70
     8
 71
     3
 72
     8
 73
     4
 74
     0
 42
0.000000001
 43
0.00000001
 40
0.6718750000000001
 40
0.6718750000000001
 40
0.6718750000000001
 40
0.6718750000000001
 40
0.6875000000000003
 40
0.6875000000000003
 40
0.6875000000000003
 40
0.6875000000000003
 10
47.88180414380736
 20
14.94146969949035
 30
0.0
 10
47.69466398529021
 20
14.90287046343189
 30
0.0
 10
47.50084734022278
 20
14.86631216479144
 30
0.0
 10
47.30479899764803
 20
14.83320659933712
 30
0.0
  0
SPLINE
  5
20E
330
1F
100
AcDbEntity
  8
SK3
  6
SLD-Dashed
370
    18
100
AcDbSpline
210
0.0
220
0.0
230
1.0
 70
     8
 71
     3
 72
     8
 73
     4
 74
     0
 42
0.000000001
 43
0.00000001
 40
0.6875000000000003
 40
0.6875000000000003
 40
0.6875000000000003
 40
0.6875000000000003
 40
0.7187500000000003
 40
0.7187500000000003
 40
0.7187500000000003
 40
0.7187500000000003
 10
47.30479899764803
 20
14.83320659933712
 30
0.0
 10
46.91270231249845
 20
14.76699546842848
 30
0.0
 10
46.50744901764431
 20
14.71363774299079
 30
0.0
 10
46.08840282235094
 20
14.67685190470497
 30
0.0
  0
SPLINE
  5
20F
330
1F
100
AcDbEntity
  8
SK3
  6
SLD-Dashed
370
    18
100
AcDbSpline
210
0.0
220
0.0
230
1.0
 70
     8
 71
     3
 72
     8
 73
     4
 74
     0
 42
0.000000001
 43
0.00000001
 40
0.7187500000000003
 40
0.7187500000000003
 40
0.7187500000000003
 40
0.7187500000000003
 40
0.7500000000000002
 40
0.7500000000000002
 40
0.7500000000000002
 40
0.7500000000000002
 10
46.08840282235094
 20
14.67685190470497
 30
0.0
 10
45.66935662705751
 20
14.64006606641914
 30
0.0
 10
45.2333370479766
 20
14.62033223277709
 30
0.0
 10
44.80477384382797
 20
14.62019229660078
 30
0.0
  0
SPLINE
  5
210
330
1F
100
AcDbEntity
  8
SK3
  6
SLD-Dashed
370
    18
100
AcDbSpline
210
0.0
220
0.0
230
1.0
 70
     8
 71
     3
 72
     8
 73
     4
 74
     0
 42
0.000000001
 43
0.00000001
 40
0.7500000000000002
 40
0.7500000000000002
 40
0.7500000000000002
 40
0.7500000000000002
 40
0.7812500000000002
 40
0.7812500000000002
 40
0.7812500000000002
 40
0.7812500000000002
 10
44.80477384382797
 20
14.62019229660078
 30
0.0
 10
44.37621063967936
 20
14.62005236042447
 30
0.0
 10
43.95003830706798
 20
14.63879177427226
 30
0.0
 10
43.526289720803
 20
14.67556942252435
 30
0.0
  0
SPLINE
  5
211
330
1F
100
AcDbEntity
  8
SK3
  6
SLD-Dashed
370
    18
100
AcDbSpline
210
0.0
220
0.0
230
1.0
 70
     8
 71
     3
 72
     8
 73
     4
 74
     0
 42
0.000000001
 43
0.00000001
 40
0.7812500000000002
 40
0.7812500000000002
 40
0.7812500000000002
 40
0.7812500000000002
 40
0.8125000000000002
 40
0.8125000000000002
 40
0.8125000000000002
 40
0.8125000000000002
 10
43.526289720803
 20
14.67556942252435
 30
0.0
 10
43.10254113453796
 20
14.71234707077646
 30
0.0
 10
42.69312310669574
 20
14.76617613256388
 30
0.0
 10
42.30155808821853
 20
14.83213443798789
 30
0.0
  0
SPLINE
  5
212
330
1F
100
AcDbEntity
  8
SK3
  6
SLD-Dashed
370
    18
100
AcDbSpline
210
0.0
220
0.0
230
1.0
 70
     8
 71
     3
 72
     8
 73
     4
 74
     0
 42
0.000000001
 43
0.00000001
 40
0.8125000000000002
 40
0.8125000000000002
 40
0.8125000000000002
 40
0.8125000000000002
 40
0.8437500000000002
 40
0.8437500000000002
 40
0.8437500000000002
 40
0.8437500000000002
 10
42.30155808821853
 20
14.83213443798789
 30
0.0
 10
41.90999306974136
 20
14.8980927434119
 30
0.0
 10
41.53121383954716
 20
14.97728811065452
 30
0.0
 10
41.18064159768045
 20
15.06153230068046
 30
0.0
  0
SPLINE
  5
213
330
1F
100
AcDbEntity
  8
SK3
  6
SLD-Dashed
370
    18
100
AcDbSpline
210
0.0
220
0.0
230
1.0
 70
     8
 71
     3
 72
     8
 73
     4
 74
     0
 42
0.000000001
 43
0.00000001
 40
0.8437500000000002
 40
0.8437500000000002
 40
0.8437500000000002
 40
0.8437500000000002
 40
0.8750000000000002
 40
0.8750000000000002
 40
0.8750000000000002
 40
0.8750000000000002
 10
41.18064159768045
 20
15.06153230068046
 30
0.0
 10
40.83006935581373
 20
15.1457764907064
 30
0.0
 10
40.5058996510054
 20
15.23509625651526
 30
0.0
 10
40.2073252517125
 20
15.32457703636735
 30
0.0
  0
SPLINE
  5
214
330
1F
100
AcDbEntity
  8
SK3
  6
SLD-Dashed
370
    18
100
AcDbSpline
210
0.0
220
0.0
230
1.0
 70
     8
 71
     3
 72
     8
 73
     4
 74
     0
 42
0.000000001
 43
0.00000001
 40
0.8750000000000002
 40
0.8750000000000002
 40
0.8750000000000002
 40
0.8750000000000002
 40
0.8906250000000001
 40
0.8906250000000001
 40
0.8906250000000001
 40
0.8906250000000001
 10
40.2073252517125
 20
15.32457703636735
 30
0.0
 10
40.05803805206607
 20
15.36931742629339
 30
0.0
 10
39.91465568737154
 20
15.41429469426246
 30
0.0
 10
39.7804659975578
 20
15.45786924519915
 30
0.0
  0
SPLINE
  5
215
330
1F
100
AcDbEntity
  8
SK3
  6
SLD-Dashed
370
    18
100
AcDbSpline
210
0.0
220
0.0
230
1.0
 70
     8
 71
     3
 72
     8
 73
     4
 74
     0
 42
0.000000001
 43
0.00000001
 40
0.8906250000000001
 40
0.8906250000000001
 40
0.8906250000000001
 40
0.8906250000000001
 40
0.90625
 40
0.90625
 40
0.90625
 40
0.90625
 10
39.7804659975578
 20
15.45786924519915
 30
0.0
 10
39.64627630774403
 20
15.50144379613581
 30
0.0
 10
39.52069618371431
 20
15.54377588948805
 30
0.0
 10
39.40353956817394
 20
15.5843442336296
 30
0.0
  0
SPLINE
  5
216
330
1F
100
AcDbEntity
  8
SK3
  6
SLD-Dashed
370
    18
100
AcDbSpline
210
0.0
220
0.0
230
1.0
 70
     8
 71
     3
 72
     8
 73
     4
 74
     0
 42
0.000000001
 43
0.00000001
 40
0.90625
 40
0.90625
 40
0.90625
 40
0.90625
 40
0.9375
 40
0.9375
 40
0.9375
 40
0.9375
 10
39.40353956817394
 20
15.5843442336296
 30
0.0
 10
39.16922633709324
 20
15.66548092191266
 30
0.0
 10
38.96831883849708
 20
15.7396006533309
 30
0.0
 10
38.80270844785571
 20
15.8024525299531
 30
0.0
  0
SPLINE
  5
217
330
1F
100
AcDbEntity
  8
SK3
  6
SLD-Dashed
370
    18
100
AcDbSpline
210
0.0
220
0.0
230
1.0
 70
     8
 71
     3
 72
     8
 73
     4
 74
     0
 42
0.000000001
 43
0.00000001
 40
0.9375
 40
0.9375
 40
0.9375
 40
0.9375
 40
0.96875
 40
0.96875
 40
0.96875
 40
0.96875
 10
38.80270844785571
 20
15.8024525299531
 30
0.0
 10
38.63709805721432
 20
15.86530440657529
 30
0.0
 10
38.51227888960848
 20
15.91475661500046
 30
0.0
 10
38.42807388909722
 20
15.94839936679553
 30
0.0
  0
SPLINE
  5
218
330
1F
100
AcDbEntity
  8
SK3
  6
SLD-Dashed
370
    18
100
AcDbSpline
210
0.0
220
0.0
230
1.0
 70
     8
 71
     3
 72
     8
 73
     4
 74
     0
 42
0.000000001
 43
0.00000001
 40
0.96875
 40
0.96875
 40
0.96875
 40
0.96875
 40
0.984375
 40
0.984375
 40
0.984375
 40
0.984375
 10
38.42807388909722
 20
15.94839936679553
 30
0.0
 10
38.38597138884162
 20
15.96522074269308
 30
0.0
 10
38.35401168745459
 20
15.97812187055162
 30
0.0
 10
38.33250562568197
 20
15.98682218209222
 30
0.0
  0
SPLINE
  5
219
330
1F
100
AcDbEntity
  8
SK3
  6
SLD-Dashed
370
    18
100
AcDbSpline
210
0.0
220
0.0
230
1.0
 70
     8
 71
     2
 72
     6
 73
     3
 74
     0
 42
0.000000001
 43
0.00000001
 40
0.984375
 40
0.984375
 40
0.984375
 40
1.0
 40
1.0
 40
1.0
 10
38.33250562568195
 20
15.98682218209223
 30
0.0
 10
38.3109995639093
 20
15.99552249363281
 30
0.0
 10
38.29999999999998
 20
15.99999999999999
 30
0.0
  0
SPLINE
  5
21A
330
1F
100
AcDbEntity
  8
SK3
  6
SLD-Dashed
370
    18
100
AcDbSpline
210
0.0
220
0.0
230
1.0
 70
     8
 71
     2
 72
     6
 73
     3
 74
     0
 42
0.000000001
 43
0.00000001
 40
0.0
 40
0.0
 40
0.0
 40
0.03125
 40
0.03125
 40
0.03125
 10
38.29999999999998
 20
15.99999999999999
 30
0.0
 10
38.34309908003025
 20
15.98235393467429
 30
0.0
 10
38.42711899093224
 20
15.94878090500135
 30
0.0
  0
SPLINE
  5
21B
330
1F
100
AcDbEntity
  8
SK3
  6
SLD-Dashed
370
    18
100
AcDbSpline
210
0.0
220
0.0
230
1.0
 70
     8
 71
     3
 72
     8
 73
     4
 74
     0
 42
0.000000001
 43
0.00000001
 40
0.03125
 40
0.03125
 40
0.03125
 40
0.03125
 40
0.046875
 40
0.046875
 40
0.046875
 40
0.046875
 10
38.42711899093224
 20
15.94878090500135
 30
0.0
 10
38.46912894638321
 20
15.9319943901649
 30
0.0
 10
38.52144902153628
 20
15.91121802964376
 30
0.0
 10
38.58427803042571
 20
15.88663588060885
 30
0.0
  0
SPLINE
  5
21C
330
1F
100
AcDbEntity
  8
SK3
  6
SLD-Dashed
370
    18
100
AcDbSpline
210
0.0
220
0.0
230
1.0
 70
     8
 71
     3
 72
     8
 73
     4
 74
     0
 42
0.000000001
 43
0.00000001
 40
0.046875
 40
0.046875
 40
0.046875
 40
0.046875
 40
0.0625000000000001
 40
0.0625000000000001
 40
0.0625000000000001
 40
0.0625000000000001
 10
38.58427803042571
 20
15.88663588060885
 30
0.0
 10
38.64710703931512
 20
15.86205373157395
 30
0.0
 10
38.72037367265666
 20
15.8337013368278
 30
0.0
 10
38.80239375658723
 20
15.80257196316547
 30
0.0
  0
SPLINE
  5
21D
330
1F
100
AcDbEntity
  8
SK3
  6
SLD-Dashed
370
    18
100
AcDbSpline
210
0.0
220
0.0
230
1.0
 70
     8
 71
     3
 72
     8
 73
     4
 74
     0
 42
0.000000001
 43
0.00000001
 40
0.0625000000000001
 40
0.0625000000000001
 40
0.0625000000000001
 40
0.0625000000000001
 40
0.09375
 40
0.09375
 40
0.09375
 40
0.09375
 10
38.80239375658723
 20
15.80257196316547
 30
0.0
 10
38.96643392444843
 20
15.7403132158408
 30
0.0
 10
39.16651407000479
 20
15.66643586456443
 30
0.0
 10
39.40235965592034
 20
15.58475284642127
 30
0.0
  0
SPLINE
  5
21E
330
1F
100
AcDbEntity
  8
SK3
  6
SLD-Dashed
370
    18
100
AcDbSpline
210
0.0
220
0.0
230
1.0
 70
     8
 71
     3
 72
     8
 73
     4
 74
     0
 42
0.000000001
 43
0.00000001
 40
0.09375
 40
0.09375
 40
0.09375
 40
0.09375
 40
0.1093749999999999
 40
0.1093749999999999
 40
0.1093749999999999
 40
0.1093749999999999
 10
39.40235965592034
 20
15.58475284642127
 30
0.0
 10
39.52028244887812
 20
15.54391133734971
 30
0.0
 10
39.64780259082473
 20
15.50093657916941
 30
0.0
 10
39.78196797106948
 20
15.45738158432314
 30
0.0
  0
SPLINE
  5
21F
330
1F
100
AcDbEntity
  8
SK3
  6
SLD-Dashed
370
    18
100
AcDbSpline
210
0.0
220
0.0
230
1.0
 70
     8
 71
     3
 72
     8
 73
     4
 74
     0
 42
0.000000001
 43
0.00000001
 40
0.1093749999999999
 40
0.1093749999999999
 40
0.1093749999999999
 40
0.1093749999999999
 40
0.1249999999999998
 40
0.1249999999999998
 40
0.1249999999999998
 40
0.1249999999999998
 10
39.78196797106948
 20
15.45738158432314
 30
0.0
 10
39.91613335131425
 20
15.41382658947688
 30
0.0
 10
40.05736024854867
 20
15.36953605523052
 30
0.0
 10
40.2055752275563
 20
15.3251015980203
 30
0.0
  0
SPLINE
  5
220
330
1F
100
AcDbEntity
  8
SK3
  6
SLD-Dashed
370
    18
100
AcDbSpline
210
0.0
220
0.0
230
1.0
 70
     8
 71
     3
 72
     8
 73
     4
 74
     0
 42
0.000000001
 43
0.00000001
 40
0.1249999999999998
 40
0.1249999999999998
 40
0.1249999999999998
 40
0.1249999999999998
 40
0.1562499999999998
 40
0.1562499999999998
 40
0.1562499999999998
 40
0.1562499999999998
 10
40.2055752275563
 20
15.3251015980203
 30
0.0
 10
40.50200518557154
 20
15.23623268359982
 30
0.0
 10
40.82737154310981
 20
15.14643571555891
 30
0.0
 10
41.18014680202156
 20
15.06165121010691
 30
0.0
  0
SPLINE
  5
221
330
1F
100
AcDbEntity
  8
SK3
  6
SLD-Dashed
370
    18
100
AcDbSpline
210
0.0
220
0.0
230
1.0
 70
     8
 71
     3
 72
     8
 73
     4
 74
     0
 42
0.000000001
 43
0.00000001
 40
0.1562499999999998
 40
0.1562499999999998
 40
0.1562499999999998
 40
0.1562499999999998
 40
0.1874999999999997
 40
0.1874999999999997
 40
0.1874999999999997
 40
0.1874999999999997
 10
41.18014680202156
 20
15.06165121010691
 30
0.0
 10
41.53292206093332
 20
14.97686670465492
 30
0.0
 10
41.90401923967582
 20
14.89929892595714
 30
0.0
 10
42.29380529373167
 20
14.83344234848159
 30
0.0
  0
SPLINE
  5
222
330
1F
100
AcDbEntity
  8
SK3
  6
SLD-Dashed
370
    18
100
AcDbSpline
210
0.0
220
0.0
230
1.0
 70
     8
 71
     3
 72
     8
 73
     4
 74
     0
 42
0.000000001
 43
0.00000001
 40
0.1874999999999997
 40
0.1874999999999997
 40
0.1874999999999997
 40
0.1874999999999997
 40
0.2031249999999998
 40
0.2031249999999998
 40
0.2031249999999998
 40
0.2031249999999998
 10
42.29380529373167
 20
14.83344234848159
 30
0.0
 10
42.4886983207596
 20
14.80051405974381
 30
0.0
 10
42.68829739383626
 20
14.77051591141276
 30
0.0
 10
42.89286467942746
 20
14.74405524714877
 30
0.0
  0
SPLINE
  5
223
330
1F
100
AcDbEntity
  8
SK3
  6
SLD-Dashed
370
    18
100
AcDbSpline
210
0.0
220
0.0
230
1.0
 70
     8
 71
     3
 72
     8
 73
     4
 74
     0
 42
0.000000001
 43
0.00000001
 40
0.2031249999999998
 40
0.2031249999999998
 40
0.2031249999999998
 40
0.2031249999999998
 40
0.21875
 40
0.21875
 40
0.21875
 40
0.21875
 10
42.89286467942746
 20
14.74405524714877
 30
0.0
 10
43.09743196501869
 20
14.71759458288478
 30
0.0
 10
43.307726607069
 20
14.69465987128928
 30
0.0
 10
43.51793686157141
 20
14.67629673626551
 30
0.0
  0
SPLINE
  5
224
330
1F
100
AcDbEntity
  8
SK3
  6
SLD-Dashed
370
    18
100
AcDbSpline
210
0.0
220
0.0
230
1.0
 70
     8
 71
     3
 72
     8
 73
     4
 74
     0
 42
0.000000001
 43
0.00000001
 40
0.21875
 40
0.21875
 40
0.21875
 40
0.21875
 40
0.2499999999999999
 40
0.2499999999999999
 40
0.2499999999999999
 40
0.2499999999999999
 10
43.51793686157141
 20
14.67629673626551
 30
0.0
 10
43.93835737057616
 20
14.63957046621792
 30
0.0
 10
44.36312011322985
 20
14.62042004482025
 30
0.0
 10
44.79228418416367
 20
14.62019355322677
 30
0.0
  0
SPLINE
  5
225
330
1F
100
AcDbEntity
  8
SK3
  6
SLD-Dashed
370
    18
100
AcDbSpline
210
0.0
220
0.0
230
1.0
 70
     8
 71
     3
 72
     8
 73
     4
 74
     0
 42
0.000000001
 43
0.00000001
 40
0.2499999999999999
 40
0.2499999999999999
 40
0.2499999999999999
 40
0.2499999999999999
 40
0.2812499999999997
 40
0.2812499999999997
 40
0.2812499999999997
 40
0.2812499999999997
 10
44.79228418416367
 20
14.62019355322677
 30
0.0
 10
45.22144825509747
 20
14.61996706163329
 30
0.0
 10
45.65716040007331
 20
14.63934837229798
 30
0.0
 10
46.07612386349208
 20
14.67577909737586
 30
0.0
  0
SPLINE
  5
226
330
1F
100
AcDbEntity
  8
SK3
  6
SLD-Dashed
370
    18
100
AcDbSpline
210
0.0
220
0.0
230
1.0
 70
     8
 71
     3
 72
     8
 73
     4
 74
     0
 42
0.000000001
 43
0.00000001
 40
0.2812499999999997
 40
0.2812499999999997
 40
0.2812499999999997
 40
0.2812499999999997
 40
0.3124999999999996
 40
0.3124999999999996
 40
0.3124999999999996
 40
0.3124999999999996
 10
46.07612386349208
 20
14.67577909737586
 30
0.0
 10
46.49508732691085
 20
14.71220982245372
 30
0.0
 10
46.90334382772773
 20
14.76556334335051
 30
0.0
 10
47.29912333662101
 20
14.83224923778062
 30
0.0
  0
SPLINE
  5
227
330
1F
100
AcDbEntity
  8
SK3
  6
SLD-Dashed
370
    18
100
AcDbSpline
210
0.0
220
0.0
230
1.0
 70
     8
 71
     3
 72
     8
 73
     4
 74
     0
 42
0.000000001
 43
0.00000001
 40
0.3124999999999996
 40
0.3124999999999996
 40
0.3124999999999996
 40
0.3124999999999996
 40
0.3437499999999995
 40
0.3437499999999995
 40
0.3437499999999995
 40
0.3437499999999995
 10
47.29912333662101
 20
14.83224923778062
 30
0.0
 10
47.69490284551431
 20
14.89893513221073
 30
0.0
 10
48.06667803807132
 20
14.97684462437975
 30
0.0
 10
48.41648676146543
 20
15.06084248957722
 30
0.0
  0
SPLINE
  5
228
330
1F
100
AcDbEntity
  8
SK3
  6
SLD-Dashed
370
    18
100
AcDbSpline
210
0.0
220
0.0
230
1.0
 70
     8
 71
     3
 72
     8
 73
     4
 74
     0
 42
0.000000001
 43
0.00000001
 40
0.3437499999999995
 40
0.3437499999999995
 40
0.3437499999999995
 40
0.3437499999999995
 40
0.3749999999999994
 40
0.3749999999999994
 40
0.3749999999999994
 40
0.3749999999999994
 10
48.41648676146543
 20
15.06084248957722
 30
0.0
 10
48.7662954848595
 20
15.1448403547747
 30
0.0
 10
49.0966905466147
 20
15.23584882790522
 30
0.0
 10
49.39401954493302
 20
15.32498011676448
 30
0.0
  0
SPLINE
  5
229
330
1F
100
AcDbEntity
  8
SK3
  6
SLD-Dashed
370
    18
100
AcDbSpline
210
0.0
220
0.0
230
1.0
 70
     8
 71
     3
 72
     8
 73
     4
 74
     0
 42
0.000000001
 43
0.00000001
 40
0.3749999999999994
 40
0.3749999999999994
 40
0.3749999999999994
 40
0.3749999999999994
 40
0.4062499999999992
 40
0.4062499999999992
 40
0.4062499999999992
 40
0.4062499999999992
 10
49.39401954493302
 20
15.32498011676448
 30
0.0
 10
49.69134854325136
 20
15.41411140562374
 30
0.0
 10
49.95796400927174
 20
15.5017933159767
 30
0.0
 10
50.19390001683005
 20
15.58345781242274
 30
0.0
  0
SPLINE
  5
22A
330
1F
100
AcDbEntity
  8
SK3
  6
SLD-Dashed
370
    18
100
AcDbSpline
210
0.0
220
0.0
230
1.0
 70
     8
 71
     3
 72
     8
 73
     4
 74
     0
 42
0.000000001
 43
0.00000001
 40
0.4062499999999992
 40
0.4062499999999992
 40
0.4062499999999992
 40
0.4062499999999992
 40
0.4218749999999992
 40
0.4218749999999992
 40
0.4218749999999992
 40
0.4218749999999992
 10
50.19390001683005
 20
15.58345781242274
 30
0.0
 10
50.31186802060922
 20
15.62429006064576
 30
0.0
 10
50.42262129381022
 20
15.66381393793337
 30
0.0
 10
50.52337945258342
 20
15.70054369626269
 30
0.0
  0
SPLINE
  5
22B
330
1F
100
AcDbEntity
  8
SK3
  6
SLD-Dashed
370
    18
100
AcDbSpline
210
0.0
220
0.0
230
1.0
 70
     8
 71
     3
 72
     8
 73
     4
 74
     0
 42
0.000000001
 43
0.00000001
 40
0.4218749999999992
 40
0.4218749999999992
 40
0.4218749999999992
 40
0.4218749999999992
 40
0.4374999999999991
 40
0.4374999999999991
 40
0.4374999999999991
 40
0.4374999999999991
 10
50.52337945258342
 20
15.70054369626269
 30
0.0
 10
50.62413761135659
 20
15.73727345459201
 30
0.0
 10
50.71524249664488
 20
15.77131549283923
 30
0.0
 10
50.79685531562269
 20
15.80228697614724
 30
0.0
  0
SPLINE
  5
22C
330
1F
100
AcDbEntity
  8
SK3
  6
SLD-Dashed
370
    18
100
AcDbSpline
210
0.0
220
0.0
230
1.0
 70
     8
 71
     3
 72
     8
 73
     4
 74
     0
 42
0.000000001
 43
0.00000001
 40
0.4374999999999991
 40
0.4374999999999991
 40
0.4374999999999991
 40
0.4374999999999991
 40
0.4687499999999989
 40
0.4687499999999989
 40
0.4687499999999989
 40
0.4687499999999989
 10
50.79685531562269
 20
15.80228697614724
 30
0.0
 10
50.96008095357829
 20
15.8642299427632
 30
0.0
 10
51.08564955329453
 20
15.91393214074314
 30
0.0
 10
51.17122311482311
 20
15.94811850905479
 30
0.0
  0
SPLINE
  5
22D
330
1F
100
AcDbEntity
  8
SK3
  6
SLD-Dashed
370
    18
100
AcDbSpline
210
0.0
220
0.0
230
1.0
 70
     8
 71
     3
 72
     8
 73
     4
 74
     0
 42
0.000000001
 43
0.00000001
 40
0.4687499999999989
 40
0.4687499999999989
 40
0.4687499999999989
 40
0.4687499999999989
 40
0.4999999999999988
 40
0.4999999999999988
 40
0.4999999999999988
 40
0.4999999999999988
 10
51.17122311482311
 20
15.94811850905479
 30
0.0
 10
51.25679667635166
 20
15.98230487736645
 30
0.0
 10
51.29951535738461
 20
15.99980311404076
 30
0.0
 10
51.2999959001322
 20
15.99999833442915
 30
0.0
  0
SPLINE
  5
22E
330
1F
100
AcDbEntity
  8
SK3
  6
SLD-Dashed
370
    18
100
AcDbSpline
210
0.0
220
0.0
230
1.0
 70
     8
 71
     3
 72
     8
 73
     4
 74
     0
 42
0.000000001
 43
0.00000001
 40
0.5156249999999987
 40
0.5156249999999987
 40
0.5156249999999987
 40
0.5156249999999987
 40
0.5312499999999986
 40
0.5312499999999986
 40
0.5312499999999986
 40
0.5312499999999986
 10
51.26888260764231
 20
15.98738384450243
 30
0.0
 10
51.2478227079472
 20
15.97886249916027
 30
0.0
 10
51.2157273779614
 20
15.96590313220578
 30
0.0
 10
51.17354833965776
 20
15.94904757149953
 30
0.0
  0
SPLINE
  5
22F
330
1F
100
AcDbEntity
  8
SK3
  6
SLD-Dashed
370
    18
100
AcDbSpline
210
0.0
220
0.0
230
1.0
 70
     8
 71
     3
 72
     8
 73
     4
 74
     0
 42
0.000000001
 43
0.00000001
 40
0.5312499999999986
 40
0.5312499999999986
 40
0.5312499999999986
 40
0.5312499999999986
 40
0.5624999999999986
 40
0.5624999999999986
 40
0.5624999999999986
 40
0.5624999999999986
 10
51.17354833965776
 20
15.94904757149953
 30
0.0
 10
51.08919026305048
 20
15.91533645008698
 30
0.0
 10
50.9646547832133
 20
15.86600138779929
 30
0.0
 10
50.80083164746438
 20
15.80379639394314
 30
0.0
  0
SPLINE
  5
230
330
1F
100
AcDbEntity
  8
SK3
  6
SLD-Dashed
370
    18
100
AcDbSpline
210
0.0
220
0.0
230
1.0
 70
     8
 71
     3
 72
     8
 73
     4
 74
     0
 42
0.000000001
 43
0.00000001
 40
0.5624999999999986
 40
0.5624999999999986
 40
0.5624999999999986
 40
0.5624999999999986
 40
0.5781249999999987
 40
0.5781249999999987
 40
0.5781249999999987
 40
0.5781249999999987
 10
50.80083164746438
 20
15.80379639394314
 30
0.0
 10
50.71892007958995
 20
15.77269389701507
 30
0.0
 10
50.6265346943347
 20
15.73816096753029
 30
0.0
 10
50.52581221337207
 20
15.70143068331038
 30
0.0
  0
SPLINE
  5
231
330
1F
100
AcDbEntity
  8
SK3
  6
SLD-Dashed
370
    18
100
AcDbSpline
210
0.0
220
0.0
230
1.0
 70
     8
 71
     3
 72
     8
 73
     4
 74
     0
 42
0.000000001
 43
0.00000001
 40
0.5781249999999987
 40
0.5781249999999987
 40
0.5781249999999987
 40
0.5781249999999987
 40
0.5937499999999988
 40
0.5937499999999988
 40
0.5937499999999988
 40
0.5937499999999988
 10
50.52581221337207
 20
15.70143068331038
 30
0.0
 10
50.42508973240939
 20
15.66470039909048
 30
0.0
 10
50.31598764798314
 20
15.62574855332943
 30
0.0
 10
50.19871851879093
 20
15.5851262954503
 30
0.0
  0
SPLINE
  5
232
330
1F
100
AcDbEntity
  8
SK3
  6
SLD-Dashed
370
    18
100
AcDbSpline
210
0.0
220
0.0
230
1.0
 70
     8
 71
     3
 72
     8
 73
     4
 74
     0
 42
0.000000001
 43
0.00000001
 40
0.5937499999999988
 40
0.5937499999999988
 40
0.5937499999999988
 40
0.5937499999999988
 40
0.6249999999999993
 40
0.6249999999999993
 40
0.6249999999999993
 40
0.6249999999999993
 10
50.19871851879093
 20
15.5851262954503
 30
0.0
 10
49.96418026040647
 20
15.50388177969202
 30
0.0
 10
49.69607080185553
 20
15.41557053513534
 30
0.0
 10
49.3964557476127
 20
15.32571060146188
 30
0.0
  0
SPLINE
  5
233
330
1F
100
AcDbEntity
  8
SK3
  6
SLD-Dashed
370
    18
100
AcDbSpline
210
0.0
220
0.0
230
1.0
 70
     8
 71
     3
 72
     8
 73
     4
 74
     0
 42
0.000000001
 43
0.00000001
 40
0.6249999999999993
 40
0.6249999999999993
 40
0.6249999999999993
 40
0.6249999999999993
 40
0.6562499999999999
 40
0.6562499999999999
 40
0.6562499999999999
 40
0.6562499999999999
 10
49.3964557476127
 20
15.32571060146188
 30
0.0
 10
49.09684069336981
 20
15.23585066778841
 30
0.0
 10
48.77271197385721
 20
15.14654533471065
 30
0.0
 10
48.42393378598822
 20
15.06263244208087
 30
0.0
  0
SPLINE
  5
234
330
1F
100
AcDbEntity
  8
SK3
  6
SLD-Dashed
370
    18
100
AcDbSpline
210
0.0
220
0.0
230
1.0
 70
     8
 71
     3
 72
     8
 73
     4
 74
     0
 42
0.000000001
 43
0.00000001
 40
0.6562499999999999
 40
0.6562499999999999
 40
0.6562499999999999
 40
0.6562499999999999
 40
0.6718750000000001
 40
0.6718750000000001
 40
0.6718750000000001
 40
0.6718750000000001
 10
48.42393378598822
 20
15.06263244208087
 30
0.0
 10
48.24954469205372
 20
15.02067599576597
 30
0.0
 10
48.0689443023245
 20
14.9800689355488
 30
0.0
 10
47.88180414380736
 20
14.94146969949035
 30
0.0
  0
SPLINE
  5
235
330
1F
100
AcDbEntity
  8
SK3
  6
SLD-Dashed
370
    18
100
AcDbSpline
210
0.0
220
0.0
230
1.0
 70
     8
 71
     3
 72
     8
 73
     4
 74
     0
 42
0.000000001
 43
0.00000001
 40
0.6718750000000001
 40
0.6718750000000001
 40
0.6718750000000001
 40
0.6718750000000001
 40
0.6875000000000003
 40
0.6875000000000003
 40
0.6875000000000003
 40
0.6875000000000003
 10
47.88180414380736
 20
14.94146969949035
 30
0.0
 10
47.69466398529021
 20
14.90287046343189
 30
0.0
 10
47.50084734022278
 20
14.86631216479144
 30
0.0
 10
47.30479899764803
 20
14.83320659933712
 30
0.0
  0
SPLINE
  5
236
330
1F
100
AcDbEntity
  8
SK3
  6
SLD-Dashed
370
    18
100
AcDbSpline
210
0.0
220
0.0
230
1.0
 70
     8
 71
     3
 72
     8
 73
     4
 74
     0
 42
0.000000001
 43
0.00000001
 40
0.6875000000000003
 40
0.6875000000000003
 40
0.6875000000000003
 40
0.6875000000000003
 40
0.7187500000000003
 40
0.7187500000000003
 40
0.7187500000000003
 40
0.7187500000000003
 10
47.30479899764803
 20
14.83320659933712
 30
0.0
 10
46.91270231249845
 20
14.76699546842848
 30
0.0
 10
46.50744901764431
 20
14.71363774299079
 30
0.0
 10
46.08840282235094
 20
14.67685190470497
 30
0.0
  0
SPLINE
  5
237
330
1F
100
AcDbEntity
  8
SK3
  6
SLD-Dashed
370
    18
100
AcDbSpline
210
0.0
220
0.0
230
1.0
 70
     8
 71
     3
 72
     8
 73
     4
 74
     0
 42
0.000000001
 43
0.00000001
 40
0.7187500000000003
 40
0.7187500000000003
 40
0.7187500000000003
 40
0.7187500000000003
 40
0.7500000000000002
 40
0.7500000000000002
 40
0.7500000000000002
 40
0.7500000000000002
 10
46.08840282235094
 20
14.67685190470497
 30
0.0
 10
45.66935662705751
 20
14.64006606641914
 30
0.0
 10
45.2333370479766
 20
14.62033223277709
 30
0.0
 10
44.80477384382797
 20
14.62019229660078
 30
0.0
  0
SPLINE
  5
238
330
1F
100
AcDbEntity
  8
SK3
  6
SLD-Dashed
370
    18
100
AcDbSpline
210
0.0
220
0.0
230
1.0
 70
     8
 71
     3
 72
     8
 73
     4
 74
     0
 42
0.000000001
 43
0.00000001
 40
0.7500000000000002
 40
0.7500000000000002
 40
0.7500000000000002
 40
0.7500000000000002
 40
0.7812500000000002
 40
0.7812500000000002
 40
0.7812500000000002
 40
0.7812500000000002
 10
44.80477384382797
 20
14.62019229660078
 30
0.0
 10
44.37621063967936
 20
14.62005236042447
 30
0.0
 10
43.95003830706798
 20
14.63879177427226
 30
0.0
 10
43.526289720803
 20
14.67556942252435
 30
0.0
  0
SPLINE
  5
239
330
1F
100
AcDbEntity
  8
SK3
  6
SLD-Dashed
370
    18
100
AcDbSpline
210
0.0
220
0.0
230
1.0
 70
     8
 71
     3
 72
     8
 73
     4
 74
     0
 42
0.000000001
 43
0.00000001
 40
0.7812500000000002
 40
0.7812500000000002
 40
0.7812500000000002
 40
0.7812500000000002
 40
0.8125000000000002
 40
0.8125000000000002
 40
0.8125000000000002
 40
0.8125000000000002
 10
43.526289720803
 20
14.67556942252435
 30
0.0
 10
43.10254113453796
 20
14.71234707077646
 30
0.0
 10
42.69312310669574
 20
14.76617613256388
 30
0.0
 10
42.30155808821853
 20
14.83213443798789
 30
0.0
  0
SPLINE
  5
23A
330
1F
100
AcDbEntity
  8
SK3
  6
SLD-Dashed
370
    18
100
AcDbSpline
210
0.0
220
0.0
230
1.0
 70
     8
 71
     3
 72
     8
 73
     4
 74
     0
 42
0.000000001
 43
0.00000001
 40
0.8125000000000002
 40
0.8125000000000002
 40
0.8125000000000002
 40
0.8125000000000002
 40
0.8437500000000002
 40
0.8437500000000002
 40
0.8437500000000002
 40
0.8437500000000002
 10
42.30155808821853
 20
14.83213443798789
 30
0.0
 10
41.90999306974136
 20
14.8980927434119
 30
0.0
 10
41.53121383954716
 20
14.97728811065452
 30
0.0
 10
41.18064159768045
 20
15.06153230068046
 30
0.0
  0
SPLINE
  5
23B
330
1F
100
AcDbEntity
  8
SK3
  6
SLD-Dashed
370
    18
100
AcDbSpline
210
0.0
220
0.0
230
1.0
 70
     8
 71
     3
 72
     8
 73
     4
 74
     0
 42
0.000000001
 43
0.00000001
 40
0.8437500000000002
 40
0.8437500000000002
 40
0.8437500000000002
 40
0.8437500000000002
 40
0.8750000000000002
 40
0.8750000000000002
 40
0.8750000000000002
 40
0.8750000000000002
 10
41.18064159768045
 20
15.06153230068046
 30
0.0
 10
40.83006935581373
 20
15.1457764907064
 30
0.0
 10
40.5058996510054
 20
15.23509625651526
 30
0.0
 10
40.2073252517125
 20
15.32457703636735
 30
0.0
  0
SPLINE
  5
23C
330
1F
100
AcDbEntity
  8
SK3
  6
SLD-Dashed
370
    18
100
AcDbSpline
210
0.0
220
0.0
230
1.0
 70
     8
 71
     3
 72
     8
 73
     4
 74
     0
 42
0.000000001
 43
0.00000001
 40
0.8750000000000002
 40
0.8750000000000002
 40
0.8750000000000002
 40
0.8750000000000002
 40
0.8906250000000001
 40
0.8906250000000001
 40
0.8906250000000001
 40
0.8906250000000001
 10
40.2073252517125
 20
15.32457703636735
 30
0.0
 10
40.05803805206607
 20
15.36931742629339
 30
0.0
 10
39.91465568737154
 20
15.41429469426246
 30
0.0
 10
39.7804659975578
 20
15.45786924519915
 30
0.0
  0
SPLINE
  5
23D
330
1F
100
AcDbEntity
  8
SK3
  6
SLD-Dashed
370
    18
100
AcDbSpline
210
0.0
220
0.0
230
1.0
 70
     8
 71
     3
 72
     8
 73
     4
 74
     0
 42
0.000000001
 43
0.00000001
 40
0.8906250000000001
 40
0.8906250000000001
 40
0.8906250000000001
 40
0.8906250000000001
 40
0.90625
 40
0.90625
 40
0.90625
 40
0.90625
 10
39.7804659975578
 20
15.45786924519915
 30
0.0
 10
39.64627630774403
 20
15.50144379613581
 30
0.0
 10
39.52069618371431
 20
15.54377588948805
 30
0.0
 10
39.40353956817394
 20
15.5843442336296
 30
0.0
  0
SPLINE
  5
23E
330
1F
100
AcDbEntity
  8
SK3
  6
SLD-Dashed
370
    18
100
AcDbSpline
210
0.0
220
0.0
230
1.0
 70
     8
 71
     3
 72
     8
 73
     4
 74
     0
 42
0.000000001
 43
0.00000001
 40
0.90625
 40
0.90625
 40
0.90625
 40
0.90625
 40
0.9375
 40
0.9375
 40
0.9375
 40
0.9375
 10
39.40353956817394
 20
15.5843442336296
 30
0.0
 10
39.16922633709324
 20
15.66548092191266
 30
0.0
 10
38.96831883849708
 20
15.7396006533309
 30
0.0
 10
38.80270844785571
 20
15.8024525299531
 30
0.0
  0
SPLINE
  5
23F
330
1F
100
AcDbEntity
  8
SK3
  6
SLD-Dashed
370
    18
100
AcDbSpline
210
0.0
220
0.0
230
1.0
 70
     8
 71
     3
 72
     8
 73
     4
 74
     0
 42
0.000000001
 43
0.00000001
 40
0.9375
 40
0.9375
 40
0.9375
 40
0.9375
 40
0.96875
 40
0.96875
 40
0.96875
 40
0.96875
 10
38.80270844785571
 20
15.8024525299531
 30
0.0
 10
38.63709805721432
 20
15.86530440657529
 30
0.0
 10
38.51227888960848
 20
15.91475661500046
 30
0.0
 10
38.42807388909722
 20
15.94839936679553
 30
0.0
  0
SPLINE
  5
240
330
1F
100
AcDbEntity
  8
SK3
  6
SLD-Dashed
370
    18
100
AcDbSpline
210
0.0
220
0.0
230
1.0
 70
     8
 71
     3
 72
     8
 73
     4
 74
     0
 42
0.000000001
 43
0.00000001
 40
0.96875
 40
0.96875
 40
0.96875
 40
0.96875
 40
0.984375
 40
0.984375
 40
0.984375
 40
0.984375
 10
38.42807388909722
 20
15.94839936679553
 30
0.0
 10
38.38597138884162
 20
15.96522074269308
 30
0.0
 10
38.35401168745459
 20
15.97812187055162
 30
0.0
 10
38.33250562568197
 20
15.98682218209222
 30
0.0
  0
SPLINE
  5
241
330
1F
100
AcDbEntity
  8
SK3
  6
SLD-Dashed
370
    18
100
AcDbSpline
210
0.0
220
0.0
230
1.0
 70
     8
 71
     2
 72
     6
 73
     3
 74
     0
 42
0.000000001
 43
0.00000001
 40
0.984375
 40
0.984375
 40
0.984375
 40
1.0
 40
1.0
 40
1.0
 10
38.33250562568195
 20
15.98682218209223
 30
0.0
 10
38.3109995639093
 20
15.99552249363281
 30
0.0
 10
38.29999999999998
 20
15.99999999999999
 30
0.0
  0
SPLINE
  5
242
330
1F
100
AcDbEntity
  8
SK3
  6
SLD-Dashed
370
    18
100
AcDbSpline
210
0.0
220
0.0
230
1.0
 70
     8
 71
     2
 72
     6
 73
     3
 74
     0
 42
0.000000001
 43
0.00000001
 40
0.0
 40
0.0
 40
0.0
 40
0.0312499999999993
 40
0.0312499999999993
 40
0.0312499999999993
 10
66.69999999999999
 20
15.99999999999999
 30
0.0
 10
66.74309908003023
 20
15.98235393467429
 30
0.0
 10
66.82711899093228
 20
15.94878090500135
 30
0.0
  0
SPLINE
  5
243
330
1F
100
AcDbEntity
  8
SK3
  6
SLD-Dashed
370
    18
100
AcDbSpline
210
0.0
220
0.0
230
1.0
 70
     8
 71
     3
 72
     8
 73
     4
 74
     0
 42
0.000000001
 43
0.00000001
 40
0.0312499999999993
 40
0.0312499999999993
 40
0.0312499999999993
 40
0.0312499999999993
 40
0.046874999999999
 40
0.046874999999999
 40
0.046874999999999
 40
0.046874999999999
 10
66.82711899093228
 20
15.94878090500135
 30
0.0
 10
66.86912894638326
 20
15.9319943901649
 30
0.0
 10
66.92144902153632
 20
15.91121802964376
 30
0.0
 10
66.9842780304257
 20
15.88663588060884
 30
0.0
  0
SPLINE
  5
244
330
1F
100
AcDbEntity
  8
SK3
  6
SLD-Dashed
370
    18
100
AcDbSpline
210
0.0
220
0.0
230
1.0
 70
     8
 71
     3
 72
     8
 73
     4
 74
     0
 42
0.000000001
 43
0.00000001
 40
0.046874999999999
 40
0.046874999999999
 40
0.046874999999999
 40
0.046874999999999
 40
0.0624999999999987
 40
0.0624999999999987
 40
0.0624999999999987
 40
0.0624999999999987
 10
66.9842780304257
 20
15.88663588060884
 30
0.0
 10
67.04710703931511
 20
15.86205373157392
 30
0.0
 10
67.12037367265667
 20
15.8337013368278
 30
0.0
 10
67.20239375658724
 20
15.80257196316547
 30
0.0
  0
SPLINE
  5
245
330
1F
100
AcDbEntity
  8
SK3
  6
SLD-Dashed
370
    18
100
AcDbSpline
210
0.0
220
0.0
230
1.0
 70
     8
 71
     3
 72
     8
 73
     4
 74
     0
 42
0.000000001
 43
0.00000001
 40
0.0624999999999987
 40
0.0624999999999987
 40
0.0624999999999987
 40
0.0624999999999987
 40
0.0937499999999986
 40
0.0937499999999986
 40
0.0937499999999986
 40
0.0937499999999986
 10
67.20239375658724
 20
15.80257196316547
 30
0.0
 10
67.36643392444847
 20
15.7403132158408
 30
0.0
 10
67.56651407000477
 20
15.66643586456442
 30
0.0
 10
67.80235965592033
 20
15.58475284642127
 30
0.0
  0
SPLINE
  5
246
330
1F
100
AcDbEntity
  8
SK3
  6
SLD-Dashed
370
    18
100
AcDbSpline
210
0.0
220
0.0
230
1.0
 70
     8
 71
     3
 72
     8
 73
     4
 74
     0
 42
0.000000001
 43
0.00000001
 40
0.0937499999999986
 40
0.0937499999999986
 40
0.0937499999999986
 40
0.0937499999999986
 40
0.1093749999999984
 40
0.1093749999999984
 40
0.1093749999999984
 40
0.1093749999999984
 10
67.80235965592033
 20
15.58475284642127
 30
0.0
 10
67.9202824488781
 20
15.54391133734971
 30
0.0
 10
68.04780259082472
 20
15.50093657916941
 30
0.0
 10
68.18196797106945
 20
15.45738158432314
 30
0.0
  0
SPLINE
  5
247
330
1F
100
AcDbEntity
  8
SK3
  6
SLD-Dashed
370
    18
100
AcDbSpline
210
0.0
220
0.0
230
1.0
 70
     8
 71
     3
 72
     8
 73
     4
 74
     0
 42
0.000000001
 43
0.00000001
 40
0.1093749999999984
 40
0.1093749999999984
 40
0.1093749999999984
 40
0.1093749999999984
 40
0.1249999999999983
 40
0.1249999999999983
 40
0.1249999999999983
 40
0.1249999999999983
 10
68.18196797106945
 20
15.45738158432314
 30
0.0
 10
68.31613335131425
 20
15.41382658947688
 30
0.0
 10
68.45736024854868
 20
15.36953605523052
 30
0.0
 10
68.60557522755632
 20
15.3251015980203
 30
0.0
  0
SPLINE
  5
248
330
1F
100
AcDbEntity
  8
SK3
  6
SLD-Dashed
370
    18
100
AcDbSpline
210
0.0
220
0.0
230
1.0
 70
     8
 71
     3
 72
     8
 73
     4
 74
     0
 42
0.000000001
 43
0.00000001
 40
0.1249999999999983
 40
0.1249999999999983
 40
0.1249999999999983
 40
0.1249999999999983
 40
0.1562499999999981
 40
0.1562499999999981
 40
0.1562499999999981
 40
0.1562499999999981
 10
68.60557522755632
 20
15.3251015980203
 30
0.0
 10
68.90200518557154
 20
15.23623268359982
 30
0.0
 10
69.22737154310981
 20
15.14643571555891
 30
0.0
 10
69.58014680202157
 20
15.06165121010691
 30
0.0
  0
SPLINE
  5
249
330
1F
100
AcDbEntity
  8
SK3
  6
SLD-Dashed
370
    18
100
AcDbSpline
210
0.0
220
0.0
230
1.0
 70
     8
 71
     3
 72
     8
 73
     4
 74
     0
 42
0.000000001
 43
0.00000001
 40
0.1562499999999981
 40
0.1562499999999981
 40
0.1562499999999981
 40
0.1562499999999981
 40
0.1874999999999979
 40
0.1874999999999979
 40
0.1874999999999979
 40
0.1874999999999979
 10
69.58014680202157
 20
15.06165121010691
 30
0.0
 10
69.93292206093332
 20
14.97686670465492
 30
0.0
 10
70.30401923967591
 20
14.89929892595716
 30
0.0
 10
70.6938052937317
 20
14.83344234848161
 30
0.0
  0
SPLINE
  5
24A
330
1F
100
AcDbEntity
  8
SK3
  6
SLD-Dashed
370
    18
100
AcDbSpline
210
0.0
220
0.0
230
1.0
 70
     8
 71
     3
 72
     8
 73
     4
 74
     0
 42
0.000000001
 43
0.00000001
 40
0.1874999999999979
 40
0.1874999999999979
 40
0.1874999999999979
 40
0.1874999999999979
 40
0.2031249999999983
 40
0.2031249999999983
 40
0.2031249999999983
 40
0.2031249999999983
 10
70.6938052937317
 20
14.83344234848161
 30
0.0
 10
70.88869832075964
 20
14.80051405974382
 30
0.0
 10
71.08829739383624
 20
14.77051591141276
 30
0.0
 10
71.29286467942744
 20
14.74405524714877
 30
0.0
  0
SPLINE
  5
24B
330
1F
100
AcDbEntity
  8
SK3
  6
SLD-Dashed
370
    18
100
AcDbSpline
210
0.0
220
0.0
230
1.0
 70
     8
 71
     3
 72
     8
 73
     4
 74
     0
 42
0.000000001
 43
0.00000001
 40
0.2031249999999983
 40
0.2031249999999983
 40
0.2031249999999983
 40
0.2031249999999983
 40
0.2187499999999986
 40
0.2187499999999986
 40
0.2187499999999986
 40
0.2187499999999986
 10
71.29286467942744
 20
14.74405524714877
 30
0.0
 10
71.49743196501868
 20
14.71759458288478
 30
0.0
 10
71.70772660706895
 20
14.6946598712893
 30
0.0
 10
71.91793686157139
 20
14.67629673626551
 30
0.0
  0
SPLINE
  5
24C
330
1F
100
AcDbEntity
  8
SK3
  6
SLD-Dashed
370
    18
100
AcDbSpline
210
0.0
220
0.0
230
1.0
 70
     8
 71
     3
 72
     8
 73
     4
 74
     0
 42
0.000000001
 43
0.00000001
 40
0.2187499999999986
 40
0.2187499999999986
 40
0.2187499999999986
 40
0.2187499999999986
 40
0.2499999999999994
 40
0.2499999999999994
 40
0.2499999999999994
 40
0.2499999999999994
 10
71.91793686157139
 20
14.67629673626551
 30
0.0
 10
72.33835737057615
 20
14.63957046621792
 30
0.0
 10
72.76312011322989
 20
14.62042004482025
 30
0.0
 10
73.19228418416371
 20
14.62019355322677
 30
0.0
  0
SPLINE
  5
24D
330
1F
100
AcDbEntity
  8
SK3
  6
SLD-Dashed
370
    18
100
AcDbSpline
210
0.0
220
0.0
230
1.0
 70
     8
 71
     3
 72
     8
 73
     4
 74
     0
 42
0.000000001
 43
0.00000001
 40
0.2499999999999994
 40
0.2499999999999994
 40
0.2499999999999994
 40
0.2499999999999994
 40
0.2812500000000001
 40
0.2812500000000001
 40
0.2812500000000001
 40
0.2812500000000001
 10
73.19228418416371
 20
14.62019355322677
 30
0.0
 10
73.6214482550975
 20
14.61996706163329
 30
0.0
 10
74.05716040007331
 20
14.63934837229798
 30
0.0
 10
74.47612386349209
 20
14.67577909737586
 30
0.0
  0
SPLINE
  5
24E
330
1F
100
AcDbEntity
  8
SK3
  6
SLD-Dashed
370
    18
100
AcDbSpline
210
0.0
220
0.0
230
1.0
 70
     8
 71
     3
 72
     8
 73
     4
 74
     0
 42
0.000000001
 43
0.00000001
 40
0.2812500000000001
 40
0.2812500000000001
 40
0.2812500000000001
 40
0.2812500000000001
 40
0.3125000000000009
 40
0.3125000000000009
 40
0.3125000000000009
 40
0.3125000000000009
 10
74.47612386349209
 20
14.67577909737586
 30
0.0
 10
74.89508732691085
 20
14.71220982245372
 30
0.0
 10
75.30334382772769
 20
14.76556334335051
 30
0.0
 10
75.69912333662101
 20
14.83224923778062
 30
0.0
  0
SPLINE
  5
24F
330
1F
100
AcDbEntity
  8
SK3
  6
SLD-Dashed
370
    18
100
AcDbSpline
210
0.0
220
0.0
230
1.0
 70
     8
 71
     3
 72
     8
 73
     4
 74
     0
 42
0.000000001
 43
0.00000001
 40
0.3125000000000009
 40
0.3125000000000009
 40
0.3125000000000009
 40
0.3125000000000009
 40
0.3437500000000016
 40
0.3437500000000016
 40
0.3437500000000016
 40
0.3437500000000016
 10
75.69912333662101
 20
14.83224923778062
 30
0.0
 10
76.09490284551431
 20
14.89893513221072
 30
0.0
 10
76.46667803807134
 20
14.97684462437975
 30
0.0
 10
76.81648676146541
 20
15.06084248957722
 30
0.0
  0
SPLINE
  5
250
330
1F
100
AcDbEntity
  8
SK3
  6
SLD-Dashed
370
    18
100
AcDbSpline
210
0.0
220
0.0
230
1.0
 70
     8
 71
     3
 72
     8
 73
     4
 74
     0
 42
0.000000001
 43
0.00000001
 40
0.3437500000000016
 40
0.3437500000000016
 40
0.3437500000000016
 40
0.3437500000000016
 40
0.3750000000000024
 40
0.3750000000000024
 40
0.3750000000000024
 40
0.3750000000000024
 10
76.81648676146541
 20
15.06084248957722
 30
0.0
 10
77.16629548485948
 20
15.1448403547747
 30
0.0
 10
77.4966905466147
 20
15.23584882790522
 30
0.0
 10
77.79401954493304
 20
15.32498011676448
 30
0.0
  0
SPLINE
  5
251
330
1F
100
AcDbEntity
  8
SK3
  6
SLD-Dashed
370
    18
100
AcDbSpline
210
0.0
220
0.0
230
1.0
 70
     8
 71
     3
 72
     8
 73
     4
 74
     0
 42
0.000000001
 43
0.00000001
 40
0.3750000000000024
 40
0.3750000000000024
 40
0.3750000000000024
 40
0.3750000000000024
 40
0.4062500000000031
 40
0.4062500000000031
 40
0.4062500000000031
 40
0.4062500000000031
 10
77.79401954493304
 20
15.32498011676448
 30
0.0
 10
78.09134854325134
 20
15.41411140562374
 30
0.0
 10
78.35796400927187
 20
15.5017933159767
 30
0.0
 10
78.59390001683012
 20
15.58345781242274
 30
0.0
  0
SPLINE
  5
252
330
1F
100
AcDbEntity
  8
SK3
  6
SLD-Dashed
370
    18
100
AcDbSpline
210
0.0
220
0.0
230
1.0
 70
     8
 71
     3
 72
     8
 73
     4
 74
     0
 42
0.000000001
 43
0.00000001
 40
0.4062500000000031
 40
0.4062500000000031
 40
0.4062500000000031
 40
0.4062500000000031
 40
0.4218750000000032
 40
0.4218750000000032
 40
0.4218750000000032
 40
0.4218750000000032
 10
78.59390001683012
 20
15.58345781242274
 30
0.0
 10
78.71186802060923
 20
15.62429006064574
 30
0.0
 10
78.82262129381023
 20
15.66381393793337
 30
0.0
 10
78.92337945258346
 20
15.70054369626269
 30
0.0
  0
SPLINE
  5
253
330
1F
100
AcDbEntity
  8
SK3
  6
SLD-Dashed
370
    18
100
AcDbSpline
210
0.0
220
0.0
230
1.0
 70
     8
 71
     3
 72
     8
 73
     4
 74
     0
 42
0.000000001
 43
0.00000001
 40
0.4218750000000032
 40
0.4218750000000032
 40
0.4218750000000032
 40
0.4218750000000032
 40
0.4375000000000033
 40
0.4375000000000033
 40
0.4375000000000033
 40
0.4375000000000033
 10
78.92337945258346
 20
15.70054369626269
 30
0.0
 10
79.02413761135662
 20
15.73727345459201
 30
0.0
 10
79.11524249664492
 20
15.77131549283923
 30
0.0
 10
79.1968553156227
 20
15.80228697614722
 30
0.0
  0
SPLINE
  5
254
330
1F
100
AcDbEntity
  8
SK3
  6
SLD-Dashed
370
    18
100
AcDbSpline
210
0.0
220
0.0
230
1.0
 70
     8
 71
     3
 72
     8
 73
     4
 74
     0
 42
0.000000001
 43
0.00000001
 40
0.4375000000000033
 40
0.4375000000000033
 40
0.4375000000000033
 40
0.4375000000000033
 40
0.4687500000000029
 40
0.4687500000000029
 40
0.4687500000000029
 40
0.4687500000000029
 10
79.1968553156227
 20
15.80228697614722
 30
0.0
 10
79.3600809535783
 20
15.86422994276321
 30
0.0
 10
79.48564955329454
 20
15.91393214074315
 30
0.0
 10
79.5712231148231
 20
15.9481185090548
 30
0.0
  0
SPLINE
  5
255
330
1F
100
AcDbEntity
  8
SK3
  6
SLD-Dashed
370
    18
100
AcDbSpline
210
0.0
220
0.0
230
1.0
 70
     8
 71
     3
 72
     8
 73
     4
 74
     0
 42
0.000000001
 43
0.00000001
 40
0.4687500000000029
 40
0.4687500000000029
 40
0.4687500000000029
 40
0.4687500000000029
 40
0.5000000000000027
 40
0.5000000000000027
 40
0.5000000000000027
 40
0.5000000000000027
 10
79.5712231148231
 20
15.9481185090548
 30
0.0
 10
79.65679667635165
 20
15.98230487736645
 30
0.0
 10
79.69951535738467
 20
15.99980311404078
 30
0.0
 10
79.69999590013224
 20
15.99999833442916
 30
0.0
  0
SPLINE
  5
256
330
1F
100
AcDbEntity
  8
SK3
  6
SLD-Dashed
370
    18
100
AcDbSpline
210
0.0
220
0.0
230
1.0
 70
     8
 71
     3
 72
     8
 73
     4
 74
     0
 42
0.000000001
 43
0.00000001
 40
0.5156250000000026
 40
0.5156250000000026
 40
0.5156250000000026
 40
0.5156250000000026
 40
0.5312500000000023
 40
0.5312500000000023
 40
0.5312500000000023
 40
0.5312500000000023
 10
79.66888260764232
 20
15.98738384450244
 30
0.0
 10
79.64782270794721
 20
15.97886249916027
 30
0.0
 10
79.61572737796143
 20
15.96590313220578
 30
0.0
 10
79.57354833965779
 20
15.94904757149951
 30
0.0
  0
SPLINE
  5
257
330
1F
100
AcDbEntity
  8
SK3
  6
SLD-Dashed
370
    18
100
AcDbSpline
210
0.0
220
0.0
230
1.0
 70
     8
 71
     3
 72
     8
 73
     4
 74
     0
 42
0.000000001
 43
0.00000001
 40
0.5312500000000023
 40
0.5312500000000023
 40
0.5312500000000023
 40
0.5312500000000023
 40
0.562500000000002
 40
0.562500000000002
 40
0.562500000000002
 40
0.562500000000002
 10
79.57354833965779
 20
15.94904757149951
 30
0.0
 10
79.48919026305052
 20
15.91533645008698
 30
0.0
 10
79.36465478321334
 20
15.86600138779928
 30
0.0
 10
79.20083164746441
 20
15.80379639394314
 30
0.0
  0
SPLINE
  5
258
330
1F
100
AcDbEntity
  8
SK3
  6
SLD-Dashed
370
    18
100
AcDbSpline
210
0.0
220
0.0
230
1.0
 70
     8
 71
     3
 72
     8
 73
     4
 74
     0
 42
0.000000001
 43
0.00000001
 40
0.562500000000002
 40
0.562500000000002
 40
0.562500000000002
 40
0.562500000000002
 40
0.5781250000000017
 40
0.5781250000000017
 40
0.5781250000000017
 40
0.5781250000000017
 10
79.20083164746441
 20
15.80379639394314
 30
0.0
 10
79.11892007958993
 20
15.77269389701507
 30
0.0
 10
79.02653469433474
 20
15.73816096753029
 30
0.0
 10
78.92581221337211
 20
15.70143068331038
 30
0.0
  0
SPLINE
  5
259
330
1F
100
AcDbEntity
  8
SK3
  6
SLD-Dashed
370
    18
100
AcDbSpline
210
0.0
220
0.0
230
1.0
 70
     8
 71
     3
 72
     8
 73
     4
 74
     0
 42
0.000000001
 43
0.00000001
 40
0.5781250000000017
 40
0.5781250000000017
 40
0.5781250000000017
 40
0.5781250000000017
 40
0.5937500000000013
 40
0.5937500000000013
 40
0.5937500000000013
 40
0.5937500000000013
 10
78.92581221337211
 20
15.70143068331038
 30
0.0
 10
78.82508973240945
 20
15.66470039909049
 30
0.0
 10
78.71598764798313
 20
15.62574855332941
 30
0.0
 10
78.59871851879092
 20
15.58512629545027
 30
0.0
  0
SPLINE
  5
25A
330
1F
100
AcDbEntity
  8
SK3
  6
SLD-Dashed
370
    18
100
AcDbSpline
210
0.0
220
0.0
230
1.0
 70
     8
 71
     3
 72
     8
 73
     4
 74
     0
 42
0.000000001
 43
0.00000001
 40
0.5937500000000013
 40
0.5937500000000013
 40
0.5937500000000013
 40
0.5937500000000013
 40
0.6250000000000007
 40
0.6250000000000007
 40
0.6250000000000007
 40
0.6250000000000007
 10
78.59871851879092
 20
15.58512629545027
 30
0.0
 10
78.36418026040648
 20
15.50388177969202
 30
0.0
 10
78.09607080185549
 20
15.41557053513532
 30
0.0
 10
77.7964557476126
 20
15.32571060146187
 30
0.0
  0
SPLINE
  5
25B
330
1F
100
AcDbEntity
  8
SK3
  6
SLD-Dashed
370
    18
100
AcDbSpline
210
0.0
220
0.0
230
1.0
 70
     8
 71
     3
 72
     8
 73
     4
 74
     0
 42
0.000000001
 43
0.00000001
 40
0.6250000000000007
 40
0.6250000000000007
 40
0.6250000000000007
 40
0.6250000000000007
 40
0.65625
 40
0.65625
 40
0.65625
 40
0.65625
 10
77.7964557476126
 20
15.32571060146187
 30
0.0
 10
77.49684069336973
 20
15.23585066778841
 30
0.0
 10
77.17271197385733
 20
15.14654533471065
 30
0.0
 10
76.82393378598823
 20
15.06263244208086
 30
0.0
  0
SPLINE
  5
25C
330
1F
100
AcDbEntity
  8
SK3
  6
SLD-Dashed
370
    18
100
AcDbSpline
210
0.0
220
0.0
230
1.0
 70
     8
 71
     3
 72
     8
 73
     4
 74
     0
 42
0.000000001
 43
0.00000001
 40
0.65625
 40
0.65625
 40
0.65625
 40
0.65625
 40
0.6718750000000001
 40
0.6718750000000001
 40
0.6718750000000001
 40
0.6718750000000001
 10
76.82393378598823
 20
15.06263244208086
 30
0.0
 10
76.64954469205371
 20
15.02067599576596
 30
0.0
 10
76.46894430232452
 20
14.9800689355488
 30
0.0
 10
76.28180414380736
 20
14.94146969949035
 30
0.0
  0
SPLINE
  5
25D
330
1F
100
AcDbEntity
  8
SK3
  6
SLD-Dashed
370
    18
100
AcDbSpline
210
0.0
220
0.0
230
1.0
 70
     8
 71
     3
 72
     8
 73
     4
 74
     0
 42
0.000000001
 43
0.00000001
 40
0.6718750000000001
 40
0.6718750000000001
 40
0.6718750000000001
 40
0.6718750000000001
 40
0.6875000000000001
 40
0.6875000000000001
 40
0.6875000000000001
 40
0.6875000000000001
 10
76.28180414380736
 20
14.94146969949035
 30
0.0
 10
76.09466398529021
 20
14.90287046343189
 30
0.0
 10
75.90084734022281
 20
14.86631216479146
 30
0.0
 10
75.70479899764807
 20
14.83320659933714
 30
0.0
  0
SPLINE
  5
25E
330
1F
100
AcDbEntity
  8
SK3
  6
SLD-Dashed
370
    18
100
AcDbSpline
210
0.0
220
0.0
230
1.0
 70
     8
 71
     3
 72
     8
 73
     4
 74
     0
 42
0.000000001
 43
0.00000001
 40
0.6875000000000001
 40
0.6875000000000001
 40
0.6875000000000001
 40
0.6875000000000001
 40
0.7187500000000003
 40
0.7187500000000003
 40
0.7187500000000003
 40
0.7187500000000003
 10
75.70479899764807
 20
14.83320659933714
 30
0.0
 10
75.31270231249849
 20
14.76699546842848
 30
0.0
 10
74.90744901764431
 20
14.71363774299079
 30
0.0
 10
74.48840282235089
 20
14.67685190470497
 30
0.0
  0
SPLINE
  5
25F
330
1F
100
AcDbEntity
  8
SK3
  6
SLD-Dashed
370
    18
100
AcDbSpline
210
0.0
220
0.0
230
1.0
 70
     8
 71
     3
 72
     8
 73
     4
 74
     0
 42
0.000000001
 43
0.00000001
 40
0.7187500000000003
 40
0.7187500000000003
 40
0.7187500000000003
 40
0.7187500000000003
 40
0.7500000000000004
 40
0.7500000000000004
 40
0.7500000000000004
 40
0.7500000000000004
 10
74.48840282235089
 20
14.67685190470497
 30
0.0
 10
74.06935662705752
 20
14.64006606641913
 30
0.0
 10
73.63333704797658
 20
14.62033223277707
 30
0.0
 10
73.20477384382795
 20
14.62019229660075
 30
0.0
  0
SPLINE
  5
260
330
1F
100
AcDbEntity
  8
SK3
  6
SLD-Dashed
370
    18
100
AcDbSpline
210
0.0
220
0.0
230
1.0
 70
     8
 71
     3
 72
     8
 73
     4
 74
     0
 42
0.000000001
 43
0.00000001
 40
0.7500000000000004
 40
0.7500000000000004
 40
0.7500000000000004
 40
0.7500000000000004
 40
0.7812500000000006
 40
0.7812500000000006
 40
0.7812500000000006
 40
0.7812500000000006
 10
73.20477384382795
 20
14.62019229660075
 30
0.0
 10
72.77621063967932
 20
14.62005236042444
 30
0.0
 10
72.35003830706799
 20
14.63879177427225
 30
0.0
 10
71.92628972080298
 20
14.67556942252435
 30
0.0
  0
SPLINE
  5
261
330
1F
100
AcDbEntity
  8
SK3
  6
SLD-Dashed
370
    18
100
AcDbSpline
210
0.0
220
0.0
230
1.0
 70
     8
 71
     3
 72
     8
 73
     4
 74
     0
 42
0.000000001
 43
0.00000001
 40
0.7812500000000006
 40
0.7812500000000006
 40
0.7812500000000006
 40
0.7812500000000006
 40
0.8125000000000007
 40
0.8125000000000007
 40
0.8125000000000007
 40
0.8125000000000007
 10
71.92628972080298
 20
14.67556942252435
 30
0.0
 10
71.50254113453796
 20
14.71234707077646
 30
0.0
 10
71.09312310669577
 20
14.76617613256386
 30
0.0
 10
70.70155808821858
 20
14.83213443798788
 30
0.0
  0
SPLINE
  5
262
330
1F
100
AcDbEntity
  8
SK3
  6
SLD-Dashed
370
    18
100
AcDbSpline
210
0.0
220
0.0
230
1.0
 70
     8
 71
     3
 72
     8
 73
     4
 74
     0
 42
0.000000001
 43
0.00000001
 40
0.8125000000000007
 40
0.8125000000000007
 40
0.8125000000000007
 40
0.8125000000000007
 40
0.8437500000000009
 40
0.8437500000000009
 40
0.8437500000000009
 40
0.8437500000000009
 10
70.70155808821858
 20
14.83213443798788
 30
0.0
 10
70.30999306974134
 20
14.8980927434119
 30
0.0
 10
69.93121383954714
 20
14.97728811065452
 30
0.0
 10
69.58064159768043
 20
15.06153230068046
 30
0.0
  0
SPLINE
  5
263
330
1F
100
AcDbEntity
  8
SK3
  6
SLD-Dashed
370
    18
100
AcDbSpline
210
0.0
220
0.0
230
1.0
 70
     8
 71
     3
 72
     8
 73
     4
 74
     0
 42
0.000000001
 43
0.00000001
 40
0.8437500000000009
 40
0.8437500000000009
 40
0.8437500000000009
 40
0.8437500000000009
 40
0.875000000000001
 40
0.875000000000001
 40
0.875000000000001
 40
0.875000000000001
 10
69.58064159768043
 20
15.06153230068046
 30
0.0
 10
69.23006935581374
 20
15.1457764907064
 30
0.0
 10
68.90589965100538
 20
15.23509625651526
 30
0.0
 10
68.60732525171245
 20
15.32457703636735
 30
0.0
  0
SPLINE
  5
264
330
1F
100
AcDbEntity
  8
SK3
  6
SLD-Dashed
370
    18
100
AcDbSpline
210
0.0
220
0.0
230
1.0
 70
     8
 71
     3
 72
     8
 73
     4
 74
     0
 42
0.000000001
 43
0.00000001
 40
0.875000000000001
 40
0.875000000000001
 40
0.875000000000001
 40
0.875000000000001
 40
0.8906250000000011
 40
0.8906250000000011
 40
0.8906250000000011
 40
0.8906250000000011
 10
68.60732525171245
 20
15.32457703636735
 30
0.0
 10
68.45803805206602
 20
15.36931742629339
 30
0.0
 10
68.31465568737161
 20
15.41429469426247
 30
0.0
 10
68.1804659975578
 20
15.45786924519915
 30
0.0
  0
SPLINE
  5
265
330
1F
100
AcDbEntity
  8
SK3
  6
SLD-Dashed
370
    18
100
AcDbSpline
210
0.0
220
0.0
230
1.0
 70
     8
 71
     3
 72
     8
 73
     4
 74
     0
 42
0.000000001
 43
0.00000001
 40
0.8906250000000011
 40
0.8906250000000011
 40
0.8906250000000011
 40
0.8906250000000011
 40
0.9062500000000011
 40
0.9062500000000011
 40
0.9062500000000011
 40
0.9062500000000011
 10
68.1804659975578
 20
15.45786924519915
 30
0.0
 10
68.04627630774401
 20
15.50144379613581
 30
0.0
 10
67.92069618371427
 20
15.54377588948805
 30
0.0
 10
67.80353956817395
 20
15.5843442336296
 30
0.0
  0
SPLINE
  5
266
330
1F
100
AcDbEntity
  8
SK3
  6
SLD-Dashed
370
    18
100
AcDbSpline
210
0.0
220
0.0
230
1.0
 70
     8
 71
     3
 72
     8
 73
     4
 74
     0
 42
0.000000001
 43
0.00000001
 40
0.9062500000000011
 40
0.9062500000000011
 40
0.9062500000000011
 40
0.9062500000000011
 40
0.9375000000000007
 40
0.9375000000000007
 40
0.9375000000000007
 40
0.9375000000000007
 10
67.80353956817395
 20
15.5843442336296
 30
0.0
 10
67.56922633709328
 20
15.66548092191267
 30
0.0
 10
67.36831883849709
 20
15.7396006533309
 30
0.0
 10
67.20270844785576
 20
15.8024525299531
 30
0.0
  0
SPLINE
  5
267
330
1F
100
AcDbEntity
  8
SK3
  6
SLD-Dashed
370
    18
100
AcDbSpline
210
0.0
220
0.0
230
1.0
 70
     8
 71
     3
 72
     8
 73
     4
 74
     0
 42
0.000000001
 43
0.00000001
 40
0.9375000000000007
 40
0.9375000000000007
 40
0.9375000000000007
 40
0.9375000000000007
 40
0.9687500000000003
 40
0.9687500000000003
 40
0.9687500000000003
 40
0.9687500000000003
 10
67.20270844785576
 20
15.8024525299531
 30
0.0
 10
67.03709805721437
 20
15.86530440657528
 30
0.0
 10
66.91227888960849
 20
15.91475661500046
 30
0.0
 10
66.82807388909725
 20
15.94839936679555
 30
0.0
  0
SPLINE
  5
268
330
1F
100
AcDbEntity
  8
SK3
  6
SLD-Dashed
370
    18
100
AcDbSpline
210
0.0
220
0.0
230
1.0
 70
     8
 71
     3
 72
     8
 73
     4
 74
     0
 42
0.000000001
 43
0.00000001
 40
0.9687500000000003
 40
0.9687500000000003
 40
0.9687500000000003
 40
0.9687500000000003
 40
0.9843750000000001
 40
0.9843750000000001
 40
0.9843750000000001
 40
0.9843750000000001
 10
66.82807388909725
 20
15.94839936679555
 30
0.0
 10
66.78597138884163
 20
15.96522074269308
 30
0.0
 10
66.75401168745456
 20
15.97812187055161
 30
0.0
 10
66.73250562568195
 20
15.98682218209221
 30
0.0
  0
SPLINE
  5
269
330
1F
100
AcDbEntity
  8
SK3
  6
SLD-Dashed
370
    18
100
AcDbSpline
210
0.0
220
0.0
230
1.0
 70
     8
 71
     2
 72
     6
 73
     3
 74
     0
 42
0.000000001
 43
0.00000001
 40
0.9843750000000001
 40
0.9843750000000001
 40
0.9843750000000001
 40
1.0
 40
1.0
 40
1.0
 10
66.73250562568195
 20
15.98682218209221
 30
0.0
 10
66.71099956390933
 20
15.99552249363279
 30
0.0
 10
66.69999999999999
 20
15.99999999999999
 30
0.0
  0
SPLINE
  5
26A
330
1F
100
AcDbEntity
  8
SK3
  6
SLD-Dashed
370
    18
100
AcDbSpline
210
0.0
220
0.0
230
1.0
 70
     8
 71
     3
 72
    18
 73
    14
 74
     0
 42
0.000000001
 43
0.00000001
 40
0.0
 40
0.0
 40
0.0
 40
0.0
 40
0.0502196103872393
 40
0.1000870260924269
 40
0.185508636894043
 40
0.250155080879186
 40
0.3746583157461185
 40
0.4998570853792876
 40
0.6242312608259408
 40
0.749432409948843
 40
0.8740366596180013
 40
0.9370350243166901
 40
1.0
 40
1.0
 40
1.0
 40
1.0
 10
3.69999999999994
 20
46.55608553132445
 30
0.0
 10
3.700143854852873
 20
46.56278755186002
 30
0.0
 10
3.700430555691568
 20
46.57614459105338
 30
0.0
 10
3.703274054818768
 20
46.60076085239342
 30
0.0
 10
3.708850025263278
 20
46.62692328764687
 30
0.0
 10
3.720514169271286
 20
46.66169890756613
 30
0.0
 10
3.739456592416618
 20
46.69941980690709
 30
0.0
 10
3.770128279112245
 20
46.73918434013718
 30
0.0
 10
3.808028636439601
 20
46.77229285140238
 30
0.0
 10
3.851698646431299
 20
46.79720148409477
 30
0.0
 10
3.891711812143344
 20
46.81006094110495
 30
0.0
 10
3.924780356068871
 20
46.81548545401084
 30
0.0
 10
3.94159493769948
 20
46.81599758847396
 30
0.0
 10
3.949999999999982
 20
46.81625358782996
 30
0.0
  0
SPLINE
  5
26B
330
1F
100
AcDbEntity
  8
SK3
  6
SLD-Dashed
370
    18
100
AcDbSpline
210
0.0
220
0.0
230
1.0
 70
     8
 71
     3
 72
    18
 73
    14
 74
     0
 42
0.000000001
 43
0.00000001
 40
0.0
 40
0.0
 40
0.0
 40
0.0
 40
0.0501962867734845
 40
0.1000306214437268
 40
0.1855667331187732
 40
0.250182389232076
 40
0.3747066158220843
 40
0.4998232982189687
 40
0.6247294758455642
 40
0.7494251058857211
 40
0.8746331028690344
 40
0.9372230808189218
 40
1.0
 40
1.0
 40
1.0
 40
1.0
 10
18.3
 20
46.81625358782993
 30
0.0
 10
18.30669951182794
 20
46.81609127853696
 30
0.0
 10
18.32005022708192
 20
46.8157678303203
 30
0.0
 10
18.34463922095193
 20
46.81256776526217
 30
0.0
 10
18.3706720146222
 20
46.80630579793128
 30
0.0
 10
18.40500150194888
 20
46.79331555547188
 30
0.0
 10
18.44173939749908
 20
46.77247000397298
 30
0.0
 10
18.47965549617255
 20
46.7394224241684
 30
0.0
 10
18.51041281949075
 20
46.69961163074883
 30
0.0
 10
18.53306634505924
 20
46.65468875110019
 30
0.0
 10
18.54452340204188
 20
46.61434662644385
 30
0.0
 10
18.54932467505747
 20
46.58119847829339
 30
0.0
 10
18.54977466801634
 20
46.56446483112379
 30
0.0
 10
18.54999999999995
 20
46.55608553132448
 30
0.0
  0
SPLINE
  5
26C
330
1F
100
AcDbEntity
  8
SK3
  6
SLD-Dashed
370
    18
100
AcDbSpline
210
0.0
220
0.0
230
1.0
 70
     8
 71
     3
 72
    30
 73
    26
 74
     0
 42
0.000000001
 43
0.00000001
 40
0.4999999999999997
 40
0.4999999999999997
 40
0.4999999999999997
 40
0.4999999999999997
 40
0.5624999999999998
 40
0.5624999999999998
 40
0.6249999999999998
 40
0.6249999999999998
 40
0.6562499999999998
 40
0.6562499999999998
 40
0.6874999999999999
 40
0.6874999999999999
 40
0.7187499999999999
 40
0.7187499999999999
 40
0.75
 40
0.75
 40
0.78125
 40
0.78125
 40
0.8125000000000001
 40
0.8125000000000001
 40
0.8437500000000001
 40
0.8437500000000001
 40
0.8750000000000002
 40
0.8750000000000002
 40
0.9375000000000001
 40
0.9375000000000001
 40
1.0
 40
1.0
 40
1.0
 40
1.0
 10
11.12436591328741
 20
5.309061551556936
 30
0.0
 10
11.33987168856151
 20
5.30913512189414
 30
0.0
 10
11.55726809392073
 20
5.270777053767758
 30
0.0
 10
11.95454289542197
 20
5.124082127907527
 30
0.0
 10
12.13838112079801
 20
5.014350511864017
 30
0.0
 10
12.36674314194752
 20
4.808404051991837
 30
0.0
 10
12.4364296997414
 20
4.73154347486815
 30
0.0
 10
12.55617157969231
 20
4.568463540703789
 30
0.0
 10
12.6069504943868
 20
4.481836472086082
 30
0.0
 10
12.69006011488472
 20
4.297948630822702
 30
0.0
 10
12.7218894306609
 20
4.201137306228634
 30
0.0
 10
12.76406792100183
 20
4.004999015154103
 30
0.0
 10
12.77490668888515
 20
3.904499034786603
 30
0.0
 10
12.77509211872524
 20
3.699534720125436
 30
0.0
 10
12.7644759965745
 20
3.598169916606802
 30
0.0
 10
12.72265428347029
 20
3.397643705646352
 30
0.0
 10
12.69091026767072
 20
3.297408274791254
 30
0.0
 10
12.60826636161164
 20
3.105879249911001
 30
0.0
 10
12.55766906368547
 20
3.014523490936158
 30
0.0
 10
12.43800593838741
 20
2.840798433450357
 30
0.0
 10
12.36852473740649
 20
2.758380635546169
 30
0.0
 10
12.14080554014711
 20
2.535838019871832
 30
0.0
 10
11.9570420469029
 20
2.414653532234794
 30
0.0
 10
11.56023146512518
 20
2.251755559321195
 30
0.0
 10
11.34333742006514
 20
2.208076011197158
 30
0.0
 10
11.12499999999997
 20
2.208076011197137
 30
0.0
  0
SPLINE
  5
26D
330
1F
100
AcDbEntity
  8
SK3
  6
SLD-Dashed
370
    18
100
AcDbSpline
210
0.0
220
0.0
230
1.0
 70
     8
 71
     3
 72
    34
 73
    30
 74
     0
 42
0.000000001
 43
0.00000001
 40
0.0
 40
0.0
 40
0.0
 40
0.0
 40
0.0312500000000001
 40
0.0312500000000001
 40
0.0625000000000001
 40
0.0625000000000001
 40
0.0937500000000002
 40
0.0937500000000002
 40
0.1250000000000002
 40
0.1250000000000002
 40
0.1875
 40
0.1875
 40
0.2499999999999997
 40
0.2499999999999997
 40
0.2812499999999997
 40
0.2812499999999997
 40
0.3124999999999997
 40
0.3124999999999997
 40
0.3437499999999997
 40
0.3437499999999997
 40
0.3749999999999997
 40
0.3749999999999997
 40
0.4062499999999997
 40
0.4062499999999997
 40
0.4374999999999997
 40
0.4374999999999997
 40
0.4687499999999997
 40
0.4687499999999997
 40
0.4999999999999997
 40
0.4999999999999997
 40
0.4999999999999997
 40
0.4999999999999997
 10
11.12499999999997
 20
2.208076011197144
 30
0.0
 10
11.01583128996736
 20
2.208076011197144
 30
0.0
 10
10.90851747443063
 20
2.218712438100956
 30
0.0
 10
10.69743839976832
 20
2.260296858835602
 30
0.0
 10
10.59256796952451
 20
2.291759353259974
 30
0.0
 10
10.39282801405934
 20
2.373555205373641
 30
0.0
 10
10.29811782955147
 20
2.423509628226184
 30
0.0
 10
10.11887542494269
 20
2.541114583907905
 30
0.0
 10
10.03412703573849
 20
2.609294845854274
 30
0.0
 10
9.806182200157332
 20
2.831771837438393
 30
0.0
 10
9.683294833249978
 20
3.010016554592681
 30
0.0
 10
9.518613327833588
 20
3.390759943898598
 30
0.0
 10
9.47512207964199
 20
3.597272475835501
 30
0.0
 10
9.474939355443732
 20
3.901097591317418
 30
0.0
 10
9.485685185608661
 20
4.003434499602367
 30
0.0
 10
9.52784073109636
 20
4.200293854804644
 30
0.0
 10
9.559029712058395
 20
4.295473899993296
 30
0.0
 10
9.64178060511034
 20
4.479477843829432
 30
0.0
 10
9.693378168396883
 20
4.567722017178401
 30
0.0
 10
9.812718794814254
 20
4.730510706064055
 30
0.0
 10
9.881024517103501
 20
4.806208116124422
 30
0.0
 10
10.03474791503922
 20
4.945204256680421
 30
0.0
 10
10.11790941669588
 20
5.006521730708618
 30
0.0
 10
10.29642492313945
 20
5.113728914877734
 30
0.0
 10
10.39294641915066
 20
5.159988239582907
 30
0.0
 10
10.59259055817319
 20
5.233890455420366
 30
0.0
 10
10.69543180415419
 20
5.261724005488293
 30
0.0
 10
10.90715408445174
 20
5.299397422676655
 30
0.0
 10
11.01661302565036
 20
5.309024766388331
 30
0.0
 10
11.12436591328741
 20
5.309061551556936
 30
0.0
  0
SPLINE
  5
26E
330
1F
100
AcDbEntity
  8
SK3
  6
SLD-Dashed
370
    18
100
AcDbSpline
210
0.0
220
0.0
230
1.0
 70
     8
 71
     3
 72
    34
 73
    30
 74
     0
 42
0.000000001
 43
0.00000001
 40
0.499999999999998
 40
0.499999999999998
 40
0.499999999999998
 40
0.499999999999998
 40
0.5312499999999979
 40
0.5312499999999979
 40
0.5624999999999978
 40
0.5624999999999978
 40
0.5937499999999976
 40
0.5937499999999976
 40
0.6249999999999974
 40
0.6249999999999974
 40
0.6562499999999973
 40
0.6562499999999973
 40
0.6874999999999972
 40
0.6874999999999972
 40
0.7499999999999969
 40
0.7499999999999969
 40
0.8124999999999973
 40
0.8124999999999973
 40
0.8437499999999978
 40
0.8437499999999978
 40
0.8749999999999982
 40
0.8749999999999982
 40
0.9062499999999987
 40
0.9062499999999987
 40
0.937499999999999
 40
0.937499999999999
 40
0.9687499999999994
 40
0.9687499999999994
 40
1.0
 40
1.0
 40
1.0
 40
1.0
 10
9.638805742161694
 20
10.95392502366162
 30
0.0
 10
9.693881160736273
 20
10.84705887039521
 30
0.0
 10
9.763179283156633
 20
10.74439645836097
 30
0.0
 10
9.923515798149957
 20
10.55592715127708
 30
0.0
 10
10.01390276352453
 20
10.47020735344793
 30
0.0
 10
10.21445694949211
 20
10.31296552728879
 30
0.0
 10
10.32267837600206
 20
10.24333508542229
 30
0.0
 10
10.5430752649812
 20
10.12288935951392
 30
0.0
 10
10.65791658596822
 20
10.07070374731723
 30
0.0
 10
10.87819871140988
 20
9.984463182040875
 30
0.0
 10
10.98608094611136
 20
9.949205279737846
 30
0.0
 10
11.18968749579594
 20
9.892304259468993
 30
0.0
 10
11.28527842069084
 20
9.870580048613824
 30
0.0
 10
11.55898297450221
 20
9.820769890309993
 30
0.0
 10
11.72337034356695
 20
9.808096789548735
 30
0.0
 10
12.02194861504764
 20
9.821477532699776
 30
0.0
 10
12.15920875119764
 20
9.847310188176722
 30
0.0
 10
12.34760730605757
 20
9.92782469274444
 30
0.0
 10
12.40688352391456
 20
9.961503747003379
 30
0.0
 10
12.5178029483755
 20
10.04749808647181
 30
0.0
 10
12.56969006353042
 20
10.10021829085831
 30
0.0
 10
12.6599193190084
 20
10.22933776798929
 30
0.0
 10
12.69929072119647
 20
10.30748393412819
 30
0.0
 10
12.75586568636477
 20
10.49302732041031
 30
0.0
 10
12.77303399215492
 20
10.60290348381506
 30
0.0
 10
12.77663319740259
 20
10.83901366027915
 30
0.0
 10
12.76306993948378
 20
10.96766771108133
 30
0.0
 10
12.7117084196995
 20
11.21837738140154
 30
0.0
 10
12.67469993892521
 20
11.34057418425336
 30
0.0
 10
12.63040931107556
 20
11.45745606890564
 30
0.0
  0
SPLINE
  5
26F
330
1F
100
AcDbEntity
  8
SK3
  6
SLD-Dashed
370
    18
100
AcDbSpline
210
0.0
220
0.0
230
1.0
 70
     8
 71
     3
 72
    26
 73
    22
 74
     0
 42
0.000000001
 43
0.00000001
 40
0.0
 40
0.0
 40
0.0
 40
0.0
 40
0.0624999999999995
 40
0.0624999999999995
 40
0.124999999999999
 40
0.124999999999999
 40
0.1874999999999986
 40
0.1874999999999986
 40
0.2499999999999981
 40
0.2499999999999981
 40
0.281249999999998
 40
0.281249999999998
 40
0.3124999999999979
 40
0.3124999999999979
 40
0.3749999999999981
 40
0.3749999999999981
 40
0.4374999999999984
 40
0.4374999999999984
 40
0.4687499999999982
 40
0.4687499999999982
 40
0.499999999999998
 40
0.499999999999998
 40
0.499999999999998
 40
0.499999999999998
 10
12.63040931107556
 20
11.45745606890564
 30
0.0
 10
12.54182805537629
 20
11.69121983821021
 30
0.0
 10
12.43200682775375
 20
11.89056157115178
 30
0.0
 10
12.18419932759159
 20
12.25514411813748
 30
0.0
 10
12.04834522926919
 20
12.41463399152625
 30
0.0
 10
11.75314013646127
 20
12.69173524411806
 30
0.0
 10
11.59091385222424
 20
12.81202758601131
 30
0.0
 10
11.2300472901951
 20
12.99241430793247
 30
0.0
 10
11.02728334192551
 20
13.05343833574649
 30
0.0
 10
10.69987000905183
 20
13.05646994226838
 30
0.0
 10
10.58531472788943
 20
13.0419760700552
 30
0.0
 10
10.36396153134626
 20
12.97944613660278
 30
0.0
 10
10.25449961952679
 20
12.93102694430326
 30
0.0
 10
9.947578697971318
 20
12.7394816191429
 30
0.0
 10
9.77664657830718
 20
12.55346040827498
 30
0.0
 10
9.542451961566167
 20
12.12678030999253
 30
0.0
 10
9.478612055377909
 20
11.88580640702583
 30
0.0
 10
9.473421112414254
 20
11.52565520755326
 30
0.0
 10
9.486345898652617
 20
11.40749361566879
 30
0.0
 10
9.541390615621022
 20
11.1745915190869
 30
0.0
 10
9.5837303235871
 20
11.06079117692804
 30
0.0
 10
9.638805742161694
 20
10.95392502366162
 30
0.0
  0
SPLINE
  5
270
330
1F
100
AcDbEntity
  8
SK3
  6
SLD-Dashed
370
    18
100
AcDbSpline
210
0.0
220
0.0
230
1.0
 70
     8
 71
     3
 72
    18
 73
    14
 74
     0
 42
0.000000001
 43
0.00000001
 40
0.0
 40
0.0
 40
0.0
 40
0.0
 40
0.0501962867734933
 40
0.100030621443722
 40
0.1855667331187706
 40
0.2501823892320661
 40
0.3747066158220745
 40
0.4998232982189725
 40
0.6247294758455316
 40
0.7494251058857281
 40
0.8746331028690637
 40
0.9372230808189629
 40
1.0
 40
1.0
 40
1.0
 40
1.0
 10
3.949999999999974
 20
46.81625358782996
 30
0.0
 10
3.943300488172034
 20
46.81609127853699
 30
0.0
 10
3.929949772918058
 20
46.81576783032029
 30
0.0
 10
3.905360779048052
 20
46.81256776526226
 30
0.0
 10
3.879327985377802
 20
46.80630579793132
 30
0.0
 10
3.844998498051055
 20
46.79331555547191
 30
0.0
 10
3.808260602500884
 20
46.772470003973
 30
0.0
 10
3.770344503827428
 20
46.73942242416843
 30
0.0
 10
3.739587180509203
 20
46.69961163074888
 30
0.0
 10
3.716933654940702
 20
46.65468875110022
 30
0.0
 10
3.705476597958069
 20
46.61434662644385
 30
0.0
 10
3.700675324942489
 20
46.58119847829342
 30
0.0
 10
3.700225331983594
 20
46.56446483112381
 30
0.0
 10
3.699999999999981
 20
46.55608553132449
 30
0.0
  0
SPLINE
  5
271
330
1F
100
AcDbEntity
  8
SK3
  6
SLD-Dashed
370
    18
100
AcDbSpline
210
0.0
220
0.0
230
1.0
 70
     8
 71
     3
 72
    18
 73
    14
 74
     0
 42
0.000000001
 43
0.00000001
 40
0.0
 40
0.0
 40
0.0
 40
0.0
 40
0.0502196103872452
 40
0.1000870260924186
 40
0.1855086368940129
 40
0.2501550808791955
 40
0.3746583157461238
 40
0.4998570853792988
 40
0.6242312608259534
 40
0.7494324099488486
 40
0.874036659618012
 40
0.9370350243166857
 40
1.0
 40
1.0
 40
1.0
 40
1.0
 10
18.55000000000001
 20
46.55608553132442
 30
0.0
 10
18.54985614514709
 20
46.56278755186
 30
0.0
 10
18.54956944430838
 20
46.57614459105336
 30
0.0
 10
18.5467259451812
 20
46.60076085239338
 30
0.0
 10
18.54114997473664
 20
46.62692328764685
 30
0.0
 10
18.52948583072868
 20
46.66169890756606
 30
0.0
 10
18.51054340758335
 20
46.69941980690707
 30
0.0
 10
18.47987172088772
 20
46.73918434013715
 30
0.0
 10
18.44197136356038
 20
46.77229285140231
 30
0.0
 10
18.39830135356868
 20
46.79720148409474
 30
0.0
 10
18.35828818785666
 20
46.81006094110489
 30
0.0
 10
18.32521964393112
 20
46.81548545401077
 30
0.0
 10
18.30840506230055
 20
46.81599758847394
 30
0.0
 10
18.30000000000001
 20
46.81625358782992
 30
0.0
  0
SPLINE
  5
272
330
1F
100
AcDbEntity
  8
1
  6
SLD-Dashed
370
    18
100
AcDbSpline
210
0.0
220
0.0
230
1.0
 70
     8
 71
     3
 72
     8
 73
     4
 74
     0
 42
0.000000001
 43
0.00000001
 40
0.0
 40
0.0
 40
0.0
 40
0.0
 40
1.0
 40
1.0
 40
1.0
 40
1.0
 10
9.200000000002026
 20
44.5790106634328
 30
0.0
 10
8.786353866861468
 20
45.32508460154085
 30
0.0
 10
8.372088490924051
 20
46.07082082932838
 30
0.0
 10
7.957289380062113
 20
46.81625358782996
 30
0.0
  0
SPLINE
  5
273
330
1F
100
AcDbEntity
  8
1
  6
SLD-Dashed
370
    18
100
AcDbSpline
210
0.0
220
0.0
230
1.0
 70
     8
 71
     3
 72
    10
 73
     6
 74
     0
 42
0.000000001
 43
0.00000001
 40
0.0
 40
0.0
 40
0.0
 40
0.0
 40
0.5
 40
0.5
 40
1.0
 40
1.0
 40
1.0
 40
1.0
 10
9.95000000000124
 20
43.7694359684941
 30
0.0
 10
9.74877153622242
 20
43.76943596849377
 30
0.0
 10
9.550990673892246
 20
43.85856672856774
 30
0.0
 10
9.277097785724
 20
44.15022946993274
 30
0.0
 10
9.200000000000307
 20
44.34957328976747
 30
0.0
 10
9.199999999999985
 20
44.55102159322499
 30
0.0
  0
SPLINE
  5
274
330
1F
100
AcDbEntity
  8
1
  6
SLD-Dashed
370
    18
100
AcDbSpline
210
0.0
220
0.0
230
1.0
 70
     8
 71
     3
 72
    12
 73
     8
 74
     0
 42
0.000000001
 43
0.00000001
 40
0.0
 40
0.0
 40
0.0
 40
0.0
 40
0.5000000000000048
 40
0.5000000000000048
 40
0.7500000000000023
 40
0.7500000000000023
 40
1.0
 40
1.0
 40
1.0
 40
1.0
 10
13.02999999999993
 20
44.55102159322492
 30
0.0
 10
13.02999999999992
 20
44.35104831812322
 30
0.0
 10
12.95399603318284
 20
44.15150826736608
 30
0.0
 10
12.74724095984753
 20
43.93116827138053
 30
0.0
 10
12.66314206268637
 20
43.87128621650959
 30
0.0
 10
12.48048875274074
 20
43.79084228716533
 30
0.0
 10
12.37984375713168
 20
43.7694359684929
 30
0.0
 10
12.28
 20
43.76943596849289
 30
0.0
  0
SPLINE
  5
275
330
1F
100
AcDbEntity
  8
1
  6
SLD-Dashed
370
    18
100
AcDbSpline
210
0.0
220
0.0
230
1.0
 70
     8
 71
     3
 72
     8
 73
     4
 74
     0
 42
0.000000001
 43
0.00000001
 40
0.0
 40
0.0
 40
0.0
 40
0.0
 40
1.0
 40
1.0
 40
1.0
 40
1.0
 10
14.27271061995092
 20
46.81625358783776
 30
0.0
 10
13.85791150908529
 20
46.0708208293348
 30
0.0
 10
13.44364613314422
 20
45.32508460154593
 30
0.0
 10
13.02999999999997
 20
44.57901066343648
 30
0.0
  0
SPLINE
  5
276
330
1F
100
AcDbEntity
  8
1
  6
SLD-Dashed
370
    18
100
AcDbSpline
210
0.0
220
0.0
230
1.0
 70
     8
 71
     3
 72
    12
 73
     8
 74
     0
 42
0.000000001
 43
0.00000001
 40
0.0
 40
0.0
 40
0.0
 40
0.0
 40
0.2499999999999967
 40
0.2499999999999967
 40
0.4999999999999933
 40
0.4999999999999933
 40
1.0
 40
1.0
 40
1.0
 40
1.0
 10
3.199999999999759
 20
-46.69763484374749
 30
0.0
 10
3.1999999999998
 20
-46.7985109584615
 30
0.0
 10
3.218629406337756
 20
-46.89733966428926
 30
0.0
 10
3.291844246696832
 20
-47.0841146964833
 30
0.0
 10
3.345979173512731
 20
-47.16991322229985
 30
0.0
 10
3.55187185306223
 20
-47.38753444472503
 30
0.0
 10
3.748026856781328
 20
-47.47548419974255
 30
0.0
 10
3.949999999999982
 20
-47.4754841997425
 30
0.0
  0
SPLINE
  5
277
330
1F
100
AcDbEntity
  8
1
  6
SLD-Dashed
370
    18
100
AcDbSpline
210
0.0
220
0.0
230
1.0
 70
     8
 71
     3
 72
    12
 73
     8
 74
     0
 42
0.000000001
 43
0.00000001
 40
0.0
 40
0.0
 40
0.0
 40
0.0
 40
0.2499999999999985
 40
0.2499999999999985
 40
0.499999999999997
 40
0.499999999999997
 40
1.0
 40
1.0
 40
1.0
 40
1.0
 10
18.30000000000001
 20
-47.4754841997425
 30
0.0
 10
18.40091596910941
 20
-47.4754841997425
 30
0.0
 10
18.50002158252255
 20
-47.45437693482705
 30
0.0
 10
18.68315226992451
 20
-47.37426897057826
 30
0.0
 10
18.76654490405267
 20
-47.31511647588036
 30
0.0
 10
18.97195148872741
 20
-47.09831987092233
 30
0.0
 10
19.05
 20
-46.89926900274104
 30
0.0
 10
19.04999999999998
 20
-46.69763484374771
 30
0.0
  0
SPLINE
  5
278
330
1F
100
AcDbEntity
  8
1
  6
SLD-Dashed
370
    18
100
AcDbSpline
210
0.0
220
0.0
230
1.0
 70
     8
 71
     3
 72
     8
 73
     4
 74
     0
 42
0.000000001
 43
0.00000001
 40
0.0
 40
0.0
 40
0.0
 40
0.0
 40
1.0
 40
1.0
 40
1.0
 40
1.0
 10
14.63972339340265
 20
-47.4754841997425
 30
0.0
 10
14.10222500453556
 20
-46.5104965471081
 30
0.0
 10
13.56559195163211
 20
-45.54503249842018
 30
0.0
 10
13.02999999999997
 20
-44.57901066343648
 30
0.0
  0
SPLINE
  5
279
330
1F
100
AcDbEntity
  8
1
  6
SLD-Dashed
370
    18
100
AcDbSpline
210
0.0
220
0.0
230
1.0
 70
     8
 71
     3
 72
    12
 73
     8
 74
     0
 42
0.000000001
 43
0.00000001
 40
0.0
 40
0.0
 40
0.0
 40
0.0
 40
0.5
 40
0.5
 40
0.75
 40
0.75
 40
1.0
 40
1.0
 40
1.0
 40
1.0
 10
13.03000000000025
 20
-44.55102159322526
 30
0.0
 10
13.03000000000032
 20
-44.35094747116184
 30
0.0
 10
12.95238692985018
 20
-44.14958800989084
 30
0.0
 10
12.74748896269964
 20
-43.93153570225748
 30
0.0
 10
12.66372770014786
 20
-43.87162606259754
 30
0.0
 10
12.48090790509571
 20
-43.79094541821721
 30
0.0
 10
12.3805733178244
 20
-43.76943596849286
 30
0.0
 10
12.28
 20
-43.76943596849289
 30
0.0
  0
SPLINE
  5
27A
330
1F
100
AcDbEntity
  8
1
  6
SLD-Dashed
370
    18
100
AcDbSpline
210
0.0
220
0.0
230
1.0
 70
     8
 71
     3
 72
    12
 73
     8
 74
     0
 42
0.000000001
 43
0.00000001
 40
0.0
 40
0.0
 40
0.0
 40
0.0
 40
0.2500000000000039
 40
0.2500000000000039
 40
0.5000000000000078
 40
0.5000000000000078
 40
1.0
 40
1.0
 40
1.0
 40
1.0
 10
9.949999999999823
 20
-43.76943596849306
 30
0.0
 10
9.850030395358814
 20
-43.7694359684931
 30
0.0
 10
9.750114974766248
 20
-43.79051518316425
 30
0.0
 10
9.565507057761245
 20
-43.87194262843708
 30
0.0
 10
9.482715011846723
 20
-43.93126060501225
 30
0.0
 10
9.27657966040288
 20
-44.15080408372874
 30
0.0
 10
9.200000000000028
 20
-44.35163254795803
 30
0.0
 10
9.199999999999985
 20
-44.55102159322499
 30
0.0
  0
SPLINE
  5
27B
330
1F
100
AcDbEntity
  8
1
  6
SLD-Dashed
370
    18
100
AcDbSpline
210
0.0
220
0.0
230
1.0
 70
     8
 71
     3
 72
     8
 73
     4
 74
     0
 42
0.000000001
 43
0.00000001
 40
0.0
 40
0.0
 40
0.0
 40
0.0
 40
1.0
 40
1.0
 40
1.0
 40
1.0
 10
9.199999999999973
 20
-44.5790106634365
 30
0.0
 10
8.664408048367864
 20
-45.54503249842019
 30
0.0
 10
8.127774995464396
 20
-46.5104965471081
 30
0.0
 10
7.590276606597307
 20
-47.4754841997425
 30
0.0
  0
SPLINE
  5
27C
330
1F
100
AcDbEntity
  8
SK3
  6
SLD-Dashed
370
    18
100
AcDbSpline
210
0.0
220
0.0
230
1.0
 70
     8
 71
     3
 72
    34
 73
    30
 74
     0
 42
0.000000001
 43
0.00000001
 40
0.5000000000000003
 40
0.5000000000000003
 40
0.5000000000000003
 40
0.5000000000000003
 40
0.5625000000000013
 40
0.5625000000000013
 40
0.5937500000000011
 40
0.5937500000000011
 40
0.625000000000001
 40
0.625000000000001
 40
0.6562500000000009
 40
0.6562500000000009
 40
0.6875000000000008
 40
0.6875000000000008
 40
0.7187500000000007
 40
0.7187500000000007
 40
0.7500000000000004
 40
0.7500000000000004
 40
0.7812500000000003
 40
0.7812500000000003
 40
0.8125000000000002
 40
0.8125000000000002
 40
0.8437500000000001
 40
0.8437500000000001
 40
0.875
 40
0.875
 40
0.9062499999999999
 40
0.9062499999999999
 40
0.9374999999999997
 40
0.9374999999999997
 40
1.0
 40
1.0
 40
1.0
 40
1.0
 10
10.60808274902043
 20
14.67518531385664
 30
0.0
 10
10.77143994352718
 20
14.66271400222903
 30
0.0
 10
10.95396076821069
 20
14.63137977172278
 30
0.0
 10
11.25812245907613
 20
14.54691770596562
 30
0.0
 10
11.36641585866906
 20
14.51171888144389
 30
0.0
 10
11.58574352105282
 20
14.42634662926307
 30
0.0
 10
11.69715944869876
 20
14.37625545607606
 30
0.0
 10
11.92117180667887
 20
14.25483711630821
 30
0.0
 10
12.0289352359772
 20
14.18587333985283
 30
0.0
 10
12.22961030853029
 20
14.02983333564747
 30
0.0
 10
12.32267742835867
 20
13.94226901556095
 30
0.0
 10
12.4837254301865
 20
13.75415019217113
 30
0.0
 10
12.55366053916097
 20
13.65130323099262
 30
0.0
 10
12.66489321927142
 20
13.43691773984448
 30
0.0
 10
12.70717730188428
 20
13.32435113894572
 30
0.0
 10
12.76326417564931
 20
13.08988167819453
 30
0.0
 10
12.77635511926058
 20
12.97149039057749
 30
0.0
 10
12.77342672652903
 20
12.7321108433757
 30
0.0
 10
12.75684979458239
 20
12.61060743991049
 30
0.0
 10
12.69552150102995
 20
12.37773497196915
 30
0.0
 10
12.65033349294085
 20
12.26373909474827
 30
0.0
 10
12.53298957942556
 20
12.04909612932805
 30
0.0
 10
12.46214536200847
 20
11.95022400081662
 30
0.0
 10
12.29651277322136
 20
11.7714341028718
 30
0.0
 10
12.20150676240366
 20
11.69219588739501
 30
0.0
 10
11.99926684334574
 20
11.56533020093842
 30
0.0
 10
11.88885801145312
 20
11.51587497169281
 30
0.0
 10
11.55399205333031
 20
11.42069275726626
 30
0.0
 10
11.32716468948121
 20
11.42871083881322
 30
0.0
 10
11.125
 20
11.48273236161757
 30
0.0
  0
SPLINE
  5
27D
330
1F
100
AcDbEntity
  8
SK3
  6
SLD-Dashed
370
    18
100
AcDbSpline
210
0.0
220
0.0
230
1.0
 70
     8
 71
     3
 72
    30
 73
    26
 74
     0
 42
0.000000001
 43
0.00000001
 40
0.0
 40
0.0
 40
0.0
 40
0.0
 40
0.0624999999999997
 40
0.0624999999999997
 40
0.1249999999999995
 40
0.1249999999999995
 40
0.1562499999999993
 40
0.1562499999999993
 40
0.1874999999999992
 40
0.1874999999999992
 40
0.2187499999999991
 40
0.2187499999999991
 40
0.2499999999999989
 40
0.2499999999999989
 40
0.2812499999999988
 40
0.2812499999999988
 40
0.3124999999999987
 40
0.3124999999999987
 40
0.3437499999999986
 40
0.3437499999999986
 40
0.3749999999999984
 40
0.3749999999999984
 40
0.4374999999999994
 40
0.4374999999999994
 40
0.5000000000000003
 40
0.5000000000000003
 40
0.5000000000000003
 40
0.5000000000000003
 10
11.125
 20
11.48273236161759
 30
0.0
 10
10.92283531051878
 20
11.53675388442193
 30
0.0
 10
10.74714710048237
 20
11.63024516394926
 30
0.0
 10
10.42066988662174
 20
11.86454434722231
 30
0.0
 10
10.27375737476433
 20
12.00407384287208
 30
0.0
 10
10.07148943268484
 20
12.2417783920363
 30
0.0
 10
10.00699015299671
 20
12.32609339770682
 30
0.0
 10
9.883509956371203
 20
12.50701007175131
 30
0.0
 10
9.82426857309783
 20
12.60415729348405
 30
0.0
 10
9.715154706090342
 20
12.80934651131552
 30
0.0
 10
9.664396735733439
 20
12.9190362288981
 30
0.0
 10
9.576981863499132
 20
13.14891853741637
 30
0.0
 10
9.540303532497491
 20
13.26831266228051
 30
0.0
 10
9.487704529937982
 20
13.52080982106195
 30
0.0
 10
9.473745253197954
 20
13.64846695671307
 30
0.0
 10
9.476438089560556
 20
13.88700257856812
 30
0.0
 10
9.493197896427997
 20
13.99682053671474
 30
0.0
 10
9.549353346861203
 20
14.1837493979527
 30
0.0
 10
9.58858947784802
 20
14.26231510462441
 30
0.0
 10
9.678480018824306
 20
14.39201189392007
 30
0.0
 10
9.730204466999167
 20
14.44496665500976
 30
0.0
 10
9.896348595184456
 20
14.57471258814563
 30
0.0
 10
10.02083275682616
 20
14.62455209347293
 30
0.0
 10
10.29708420272973
 20
14.68178062150165
 30
0.0
 10
10.44472555451369
 20
14.68765662548424
 30
0.0
 10
10.60808274902043
 20
14.67518531385664
 30
0.0
  0
DIMENSION
  5
27E
330
1F
100
AcDbEntity
  8
2
100
AcDbDimension
  2
_D
 10
90.0
 20
67.0509249634
 30
0.0
 11
35.0736787366
 21
67.0509249634
 31
0.0
 70
   160
  1
<>
 71
     2
 42
-1.0
  3
SLDDIMSTYLE0
100
AcDbAlignedDimension
 13
0.0
 23
34.925
 33
0.0
 14
90.0
 24
24.0
 34
0.0
100
AcDbRotatedDimension
  0
DIMENSION
  5
293
330
1F
100
AcDbEntity
  8
SK2
100
AcDbDimension
  2
_D_1
 10
90.0
 20
53.8580582288
 30
0.0
 11
51.9151221689
 21
53.8580582288
 31
0.0
 70
   160
  1
<>
 71
     2
 42
-1.0
  3
SLDDIMSTYLE0
100
AcDbAlignedDimension
 13
19.05
 23
46.5560855313
 33
0.0
 14
90.0
 24
24.0
 34
0.0
 50
0.0
100
AcDbRotatedDimension
  0
DIMENSION
  5
2A6
330
1F
100
AcDbEntity
  8
SK2
100
AcDbDimension
  2
_D_2
 10
90.0
 20
35.0111057507
 30
0.0
 11
81.6353164612
 21
35.0111057507
 31
0.0
 70
   160
  1
<>
 71
     2
 42
-1.0
  3
SLDDIMSTYLE0
100
AcDbAlignedDimension
 13
73.2
 23
25.9
 33
0.0
 14
90.0
 24
24.0
 34
0.0
100
AcDbRotatedDimension
  0
DIMENSION
  5
2B9
330
1F
100
AcDbEntity
  8
SK2
100
AcDbDimension
  2
_D_3
 10
44.8
 20
35.0111057507
 30
0.0
 11
59.1639500451
 21
35.0111057507
 31
0.0
 70
   160
  1
<>
 71
     2
 42
-1.0
  3
SLDDIMSTYLE0
100
AcDbAlignedDimension
 13
73.2
 23
25.9
 33
0.0
 14
44.8
 24
25.9
 34
0.0
100
AcDbRotatedDimension
  0
DIMENSION
  5
2CC
330
1F
100
AcDbEntity
  8
SK2
100
AcDbDimension
  2
_D_4
 10
19.05
 20
53.8580582288
 30
0.0
 11
10.8384308706
 21
53.8580582288
 31
0.0
 70
   160
  1
<>
 71
     2
 42
-1.0
  3
SLDDIMSTYLE1
100
AcDbAlignedDimension
 13
0.0
 23
34.925
 33
0.0
 14
19.05
 24
46.5560855313
 34
0.0
100
AcDbRotatedDimension
  0
DIMENSION
  5
2D7
330
1F
100
AcDbEntity
  8
SK2
100
AcDbDimension
  2
_D_5
 10
105.9138995062
 20
16.0
 30
0.0
 11
105.9138995062
 21
1.2089129654
 31
0.0
 70
   160
  1
%%c<>
 71
     2
 42
-1.0
  3
SLDDIMSTYLE2
100
AcDbAlignedDimension
 13
88.0947441117
 23
-16.0
 33
0.0
 14
88.0947441117
 24
16.0
 34
0.0
 50
90.0
100
AcDbRotatedDimension
  0
DIMENSION
  5
2EA
330
1F
100
AcDbEntity
  8
SK2
100
AcDbDimension
  2
_D_6
 10
120.2849202671
 20
-24.0
 30
0.0
 11
120.2849202671
 21
1.2089129654
 31
0.0
 70
   160
  1
%%c<>
 71
     2
 42
-1.0
  3
SLDDIMSTYLE0
100
AcDbAlignedDimension
 13
90.0
 23
24.0
 33
0.0
 14
90.0
 24
-24.0
 34
0.0
 50
90.0
100
AcDbRotatedDimension
  0
DIMENSION
  5
2FC
330
1F
100
AcDbEntity
  8
SK2
100
AcDbDimension
  2
_D_7
 10
136.9879654261
 20
26.0
 30
0.0
 11
136.9879654261
 21
1.2089129654
 31
0.0
 70
   160
  1
%%c<>
 71
     2
 42
-1.0
  3
SLDDIMSTYLE0
100
AcDbAlignedDimension
 13
88.0
 23
-26.0
 33
0.0
 14
88.0
 24
26.0
 34
0.0
 50
90.0
100
AcDbRotatedDimension
  0
DIMENSION
  5
30E
330
1F
100
AcDbEntity
  8
SK2
100
AcDbDimension
  2
_D_8
 10
90.0
 20
-64.3217854687
 30
0.0
 11
-10.6275758432
 21
-64.3217854687
 31
0.0
 70
   160
  1
<>
 71
     2
 42
-1.0
  3
SLDDIMSTYLE3
100
AcDbAlignedDimension
 13
-101.6
 23
-18.2922326599
 33
0.0
 14
90.0
 24
-24.0
 34
0.0
100
AcDbRotatedDimension
  0
DIMENSION
  5
322
330
1F
100
AcDbEntity
  8
SK2
100
AcDbDimension
  2
_D_9
 10
90.0
 20
-49.040403184
 30
0.0
 11
64.4712439743
 21
-49.040403184
 31
0.0
 70
   160
  1
<>
 71
     2
 42
-1.0
  3
SLDDIMSTYLE0
100
AcDbAlignedDimension
 13
31.5
 23
-16.25
 33
0.0
 14
90.0
 24
-24.0
 34
0.0
100
AcDbRotatedDimension
  0
DIMENSION
  5
335
330
1F
100
AcDbEntity
  8
SK2
100
AcDbDimension
  2
_D_10
 10
90.0
 20
-37.765613217
 30
0.0
 11
81.6353164612
 21
-37.765613217
 31
0.0
 70
   160
  1
<>
 71
     2
 42
-1.0
  3
SLDDIMSTYLE4
100
AcDbAlignedDimension
 13
88.0
 23
-26.0
 33
0.0
 14
90.0
 24
-24.0
 34
0.0
100
AcDbRotatedDimension
  0
DIMENSION
  5
342
330
1F
100
AcDbEntity
  8
SK2
100
AcDbDimension
  2
_D_11
 10
-121.8684376176
 20
47.2968145978
 30
0.0
 11
-121.8684376176
 21
1.2089129654
 31
0.0
 70
   160
  1
%%c<>
 71
     2
 42
-1.0
  3
SLDDIMSTYLE1
100
AcDbAlignedDimension
 13
3.95
 23
-47.4754841997
 33
0.0
 14
3.95
 24
47.2968145978
 34
0.0
 50
90.0
100
AcDbRotatedDimension
  0
DIMENSION
  5
34D
330
1F
100
AcDbEntity
  8
SK2
100
AcDbDimension
  2
_D_12
 10
-111.7526882317
 20
-12.6999998465
 30
0.0
 11
-111.7526882317
 21
1.2089129654
 31
0.0
 70
   160
  1
<>
 71
     2
 42
-1.0
  3
SLDDIMSTYLE1
100
AcDbAlignedDimension
 13
-94.967097044
 23
12.6999998465
 33
0.0
 14
-94.967097044
 24
-12.6999998465
 34
0.0
 50
90.0
100
AcDbRotatedDimension
  0
MTEXT
  5
358
330
1F
100
AcDbEntity
  8
SK6
 62
     5
100
AcDbMText
 10
-52.134900401
 20
-37.1552190735
 30
0.0
 40
3.5
 41
0.0
 71
     1
 72
     1
  1
A3B27-50 32 090
  7
SLDTEXTSTYLE0
 73
     1
 44
1.0
  0
MTEXT
  5
359
330
1F
100
AcDbEntity
  8
SK6
 62
     5
100
AcDbMText
 10
-62.7078902495
 20
41.1842109268
 30
0.0
 40
3.5
 41
0.0
 71
     1
 72
     1
  1
ASME B5.50 CAT 50
  7
SLDTEXTSTYLE0
 73
     1
 44
1.0
  0
ENDSEC
  0
SECTION
  2
OBJECTS
  0
DICTIONARY
  5
C
330
0
100
AcDbDictionary
281
     1
  3
ACAD_GROUP
350
D
  3
ACAD_LAYOUT
350
1A
  3
ACAD_MLINESTYLE
350
17
  3
ACAD_PLOTSETTINGS
350
19
  3
ACAD_PLOTSTYLENAME
350
E
  3
ACAD_SCALELIST
350
47
  0
DICTIONARY
  5
D
102
{ACAD_REACTORS
330
C
102
}
330
C
100
AcDbDictionary
281
     1
  0
DICTIONARY
  5
1A
102
{ACAD_REACTORS
330
C
102
}
330
C
100
AcDbDictionary
281
     1
  3
Layout1
350
1E
  3
Layout2
350
26
  3
Model
350
22
  0
DICTIONARY
  5
17
102
{ACAD_REACTORS
330
C
102
}
330
C
100
AcDbDictionary
281
     1
  3
Standard
350
18
  0
DICTIONARY
  5
19
102
{ACAD_REACTORS
330
C
102
}
330
C
100
AcDbDictionary
281
     1
  0
ACDBDICTIONARYWDFLT
  5
E
102
{ACAD_REACTORS
330
C
102
}
330
C
100
AcDbDictionary
281
     1
  3
Normal
350
F
100
AcDbDictionaryWithDefault
340
F
  0
DICTIONARY
  5
47
102
{ACAD_REACTORS
330
C
102
}
330
C
100
AcDbDictionary
281
     1
  3
A0
350
48
  3
A1
350
49
  3
A2
350
4A
  3
A3
350
4B
  3
A4
350
4C
  3
A5
350
4D
  3
A6
350
4E
  3
A7
350
4F
  3
A8
350
50
  3
A9
350
51
  3
B0
350
52
  3
B1
350
53
  3
B2
350
54
  3
B3
350
55
  3
B4
350
56
  3
B5
350
57
  3
B6
350
58
  3
B7
350
59
  3
B8
350
5A
  3
B9
350
5B
  3
C0
350
5C
  3
C1
350
5D
  3
C2
350
5E
  3
C3
350
5F
  3
C4
350
60
  3
C5
350
61
  3
C6
350
62
  3
C7
350
63
  3
C8
350
64
  3
C9
350
65
  3
D0
350
66
  3
D1
350
67
  3
D2
350
68
  0
LAYOUT
  5
1E
102
{ACAD_REACTORS
330
1A
102
}
330
1A
100
AcDbPlotSettings
  1

  2
none_device
  4

  6

 40
0.0
 41
0.0
 42
0.0
 43
0.0
 44
0.0
 45
0.0
 46
0.0
 47
0.0
 48
0.0
 49
0.0
140
0.0
141
0.0
142
1.0
143
1.0
 70
   688
 72
     1
 73
     0
 74
     5
  7

 75
    16
147
1.0
148
0.0
149
0.0
100
AcDbLayout
  1
Layout1
 70
     1
 71
     1
 10
0.0
 20
0.0
 11
420.0
 21
297.0
 12
0.0
 22
0.0
 32
0.0
 14
1.0000000000E+20
 24
1.0000000000E+20
 34
1.0000000000E+20
 15
-1.0000000000E+20
 25
-1.0000000000E+20
 35
-1.0000000000E+20
146
0.0
 13
0.0
 23
0.0
 33
0.0
 16
1.0
 26
0.0
 36
0.0
 17
0.0
 27
1.0
 37
0.0
 76
     0
330
1B
  0
LAYOUT
  5
26
102
{ACAD_REACTORS
330
1A
102
}
330
1A
100
AcDbPlotSettings
  1

  2
none_device
  4

  6

 40
0.0
 41
0.0
 42
0.0
 43
0.0
 44
0.0
 45
0.0
 46
0.0
 47
0.0
 48
0.0
 49
0.0
140
0.0
141
0.0
142
1.0
143
1.0
 70
   688
 72
     1
 73
     0
 74
     5
  7

 75
    16
147
1.0
148
0.0
149
0.0
100
AcDbLayout
  1
Layout2
 70
     1
 71
     2
 10
0.0
 20
0.0
 11
0.0
 21
0.0
 12
0.0
 22
0.0
 32
0.0
 14
0.0
 24
0.0
 34
0.0
 15
0.0
 25
0.0
 35
0.0
146
0.0
 13
0.0
 23
0.0
 33
0.0
 16
1.0
 26
0.0
 36
0.0
 17
0.0
 27
1.0
 37
0.0
 76
     0
330
23
  0
LAYOUT
  5
22
102
{ACAD_REACTORS
330
1A
102
}
330
1A
100
AcDbPlotSettings
  1

  2
none_device
  4
Letter_(8.50_x_11.00_Inches)
  6

 40
6.35
 41
6.35
 42
6.35000508
 43
6.35000508
 44
215.9
 45
279.4
 46
0.0
 47
0.0
 48
0.0
 49
0.0
140
0.0
141
0.0
142
1.0
143
1.0
 70
  1712
 72
     1
 73
     0
 74
     0
  7

 75
     0
147
1.0
148
0.0
149
0.0
100
AcDbLayout
  1
Model
 70
     1
 71
     0
 10
0.0
 20
0.0
 11
297.0
 21
210.0
 12
0.0
 22
0.0
 32
0.0
 14
0.0
 24
0.0
 34
0.0
 15
297.0
 25
210.0
 35
0.0
146
0.0
 13
0.0
 23
0.0
 33
0.0
 16
1.0
 26
0.0
 36
0.0
 17
0.0
 27
1.0
 37
0.0
 76
     0
330
1F
331
29
  0
MLINESTYLE
  5
18
102
{ACAD_REACTORS
330
17
102
}
330
17
100
AcDbMlineStyle
  2
Standard
 70
     0
  3

 62
   256
 51
90.0
 52
90.0
 71
     2
 49
0.5
 62
   256
  6
BYLAYER
 49
-0.5
 62
   256
  6
BYLAYER
  0
ACDBPLACEHOLDER
  5
F
102
{ACAD_REACTORS
330
E
102
}
330
E
  0
SCALE
  5
48
102
{ACAD_REACTORS
330
47
102
}
330
47
100
AcDbScale
 70
     0
300
1:1
140
1.0
141
1.0
290
     1
  0
SCALE
  5
49
102
{ACAD_REACTORS
330
47
102
}
330
47
100
AcDbScale
 70
     0
300
1:2
140
1.0
141
2.0
290
     0
  0
SCALE
  5
4A
102
{ACAD_REACTORS
330
47
102
}
330
47
100
AcDbScale
 70
     0
300
1:4
140
1.0
141
4.0
290
     0
  0
SCALE
  5
4B
102
{ACAD_REACTORS
330
47
102
}
330
47
100
AcDbScale
 70
     0
300
1:5
140
1.0
141
5.0
290
     0
  0
SCALE
  5
4C
102
{ACAD_REACTORS
330
47
102
}
330
47
100
AcDbScale
 70
     0
300
1:8
140
1.0
141
8.0
290
     0
  0
SCALE
  5
4D
102
{ACAD_REACTORS
330
47
102
}
330
47
100
AcDbScale
 70
     0
300
1:10
140
1.0
141
10.0
290
     0
  0
SCALE
  5
4E
102
{ACAD_REACTORS
330
47
102
}
330
47
100
AcDbScale
 70
     0
300
1:16
140
1.0
141
16.0
290
     0
  0
SCALE
  5
4F
102
{ACAD_REACTORS
330
47
102
}
330
47
100
AcDbScale
 70
     0
300
1:20
140
1.0
141
20.0
290
     0
  0
SCALE
  5
50
102
{ACAD_REACTORS
330
47
102
}
330
47
100
AcDbScale
 70
     0
300
1:30
140
1.0
141
30.0
290
     0
  0
SCALE
  5
51
102
{ACAD_REACTORS
330
47
102
}
330
47
100
AcDbScale
 70
     0
300
1:40
140
1.0
141
40.0
290
     0
  0
SCALE
  5
52
102
{ACAD_REACTORS
330
47
102
}
330
47
100
AcDbScale
 70
     0
300
1:50
140
1.0
141
50.0
290
     0
  0
SCALE
  5
53
102
{ACAD_REACTORS
330
47
102
}
330
47
100
AcDbScale
 70
     0
300
1:100
140
1.0
141
100.0
290
     0
  0
SCALE
  5
54
102
{ACAD_REACTORS
330
47
102
}
330
47
100
AcDbScale
 70
     0
300
2:1
140
2.0
141
1.0
290
     0
  0
SCALE
  5
55
102
{ACAD_REACTORS
330
47
102
}
330
47
100
AcDbScale
 70
     0
300
4:1
140
4.0
141
1.0
290
     0
  0
SCALE
  5
56
102
{ACAD_REACTORS
330
47
102
}
330
47
100
AcDbScale
 70
     0
300
8:1
140
8.0
141
1.0
290
     0
  0
SCALE
  5
57
102
{ACAD_REACTORS
330
47
102
}
330
47
100
AcDbScale
 70
     0
300
10:1
140
10.0
141
1.0
290
     0
  0
SCALE
  5
58
102
{ACAD_REACTORS
330
47
102
}
330
47
100
AcDbScale
 70
     0
300
100:1
140
100.0
141
1.0
290
     0
  0
SCALE
  5
59
102
{ACAD_REACTORS
330
47
102
}
330
47
100
AcDbScale
 70
     0
300
1/128" = 1'-0"
140
0.0078125
141
12.0
290
     0
  0
SCALE
  5
5A
102
{ACAD_REACTORS
330
47
102
}
330
47
100
AcDbScale
 70
     0
300
1/64" = 1'-0"
140
0.015625
141
12.0
290
     0
  0
SCALE
  5
5B
102
{ACAD_REACTORS
330
47
102
}
330
47
100
AcDbScale
 70
     0
300
1/32" = 1'-0"
140
0.03125
141
12.0
290
     0
  0
SCALE
  5
5C
102
{ACAD_REACTORS
330
47
102
}
330
47
100
AcDbScale
 70
     0
300
1/16" = 1'-0"
140
0.0625
141
12.0
290
     0
  0
SCALE
  5
5D
102
{ACAD_REACTORS
330
47
102
}
330
47
100
AcDbScale
 70
     0
300
3/32" = 1'-0"
140
0.09375
141
12.0
290
     0
  0
SCALE
  5
5E
102
{ACAD_REACTORS
330
47
102
}
330
47
100
AcDbScale
 70
     0
300
1/8" = 1'-0"
140
0.125
141
12.0
290
     0
  0
SCALE
  5
5F
102
{ACAD_REACTORS
330
47
102
}
330
47
100
AcDbScale
 70
     0
300
3/16" = 1'-0"
140
0.1875
141
12.0
290
     0
  0
SCALE
  5
60
102
{ACAD_REACTORS
330
47
102
}
330
47
100
AcDbScale
 70
     0
300
1/4" = 1'-0"
140
0.25
141
12.0
290
     0
  0
SCALE
  5
61
102
{ACAD_REACTORS
330
47
102
}
330
47
100
AcDbScale
 70
     0
300
3/8" = 1'-0"
140
0.375
141
12.0
290
     0
  0
SCALE
  5
62
102
{ACAD_REACTORS
330
47
102
}
330
47
100
AcDbScale
 70
     0
300
1/2" = 1'-0"
140
0.5
141
12.0
290
     0
  0
SCALE
  5
63
102
{ACAD_REACTORS
330
47
102
}
330
47
100
AcDbScale
 70
     0
300
3/4" = 1'-0"
140
0.75
141
12.0
290
     0
  0
SCALE
  5
64
102
{ACAD_REACTORS
330
47
102
}
330
47
100
AcDbScale
 70
     0
300
1" = 1'-0"
140
1.0
141
12.0
290
     0
  0
SCALE
  5
65
102
{ACAD_REACTORS
330
47
102
}
330
47
100
AcDbScale
 70
     0
300
1-1/2" = 1'-0"
140
1.5
141
12.0
290
     0
  0
SCALE
  5
66
102
{ACAD_REACTORS
330
47
102
}
330
47
100
AcDbScale
 70
     0
300
3" = 1'-0"
140
3.0
141
12.0
290
     0
  0
SCALE
  5
67
102
{ACAD_REACTORS
330
47
102
}
330
47
100
AcDbScale
 70
     0
300
6" = 1'-0"
140
6.0
141
12.0
290
     0
  0
SCALE
  5
68
102
{ACAD_REACTORS
330
47
102
}
330
47
100
AcDbScale
 70
     0
300
1'-0" = 1'-0"
140
12.0
141
12.0
290
     0
  0
ENDSEC
  0
EOF
