  0
SECTION
  2
HEADER
  9
$ACADVER
  1
AC1015
  9
$ACADMAINTVER
 70
     6
  9
$DWGCODEPAGE
  3
ANSI_1250
  9
$INSBASE
 10
0.0
 20
0.0
 30
0.0
  9
$EXTMIN
 10
0.0
 20
0.0
 30
0.0
  9
$EXTMAX
 10
297.0
 20
210.0
 30
0.0
  9
$LIMMIN
 10
0.0
 20
0.0
  9
$LIMMAX
 10
297.0
 20
210.0
  9
$ORTHOMODE
 70
     0
  9
$REGENMODE
 70
     1
  9
$FILLMODE
 70
     1
  9
$QTEXTMODE
 70
     0
  9
$MIRRTEXT
 70
     1
  9
$LTSCALE
 40
1.0
  9
$ATTMODE
 70
     1
  9
$TEXTSIZE
 40
3.5
  9
$TRACEWID
 40
1.0
  9
$TEXTSTYLE
  7
Standard
  9
$CLAYER
  8
0
  9
$CELTYPE
  6
ByLayer
  9
$CECOLOR
 62
   256
  9
$CELTSCALE
 40
1.0
  9
$DISPSILH
 70
     0
  9
$DIMSCALE
 40
1.0
  9
$DIMASZ
 40
3.302
  9
$DIMEXO
 40
1.0
  9
$DIMDLI
 40
3.75
  9
$DIMRND
 40
0.0
  9
$DIMDLE
 40
0.0
  9
$DIMEXE
 40
1.0
  9
$DIMTP
 40
0.0
  9
$DIMTM
 40
0.0
  9
$DIMTXT
 40
3.5
  9
$DIMCEN
 40
2.5
  9
$DIMTSZ
 40
0.0
  9
$DIMTOL
 70
     0
  9
$DIMLIM
 70
     0
  9
$DIMTIH
 70
     1
  9
$DIMTOH
 70
     1
  9
$DIMSE1
 70
     0
  9
$DIMSE2
 70
     0
  9
$DIMTAD
 70
     1
  9
$DIMZIN
 70
     0
  9
$DIMBLK
  1

  9
$DIMASO
 70
     1
  9
$DIMSHO
 70
     1
  9
$DIMPOST
  1

  9
$DIMAPOST
  1

  9
$DIMALT
 70
     0
  9
$DIMALTD
 70
     3
  9
$DIMALTF
 40
0.0393700787
  9
$DIMLFAC
 40
1.0
  9
$DIMTOFL
 70
     1
  9
$DIMTVP
 40
0.0
  9
$DIMTIX
 70
     0
  9
$DIMSOXD
 70
     0
  9
$DIMSAH
 70
     0
  9
$DIMBLK1
  1

  9
$DIMBLK2
  1

  9
$DIMSTYLE
  2
ISO-25
  9
$DIMCLRD
 70
     0
  9
$DIMCLRE
 70
     0
  9
$DIMCLRT
 70
     0
  9
$DIMTFAC
 40
1.0
  9
$DIMGAP
 40
1.524
  9
$DIMJUST
 70
     0
  9
$DIMSD1
 70
     0
  9
$DIMSD2
 70
     0
  9
$DIMTOLJ
 70
     0
  9
$DIMTZIN
 70
     0
  9
$DIMALTZ
 70
     0
  9
$DIMALTTZ
 70
     0
  9
$DIMUPT
 70
     0
  9
$DIMDEC
 70
     2
  9
$DIMTDEC
 70
     2
  9
$DIMALTU
 70
     2
  9
$DIMALTTD
 70
     3
  9
$DIMTXSTY
  7
Standard
  9
$DIMAUNIT
 70
     0
  9
$DIMADEC
 70
     2
  9
$DIMALTRND
 40
0.0
  9
$DIMAZIN
 70
     0
  9
$DIMDSEP
 70
    44
  9
$DIMATFIT
 70
     3
  9
$DIMFRAC
 70
     0
  9
$DIMLDRBLK
  1

  9
$DIMLUNIT
 70
     2
  9
$DIMLWD
 70
    -2
  9
$DIMLWE
 70
    -2
  9
$DIMTMOVE
 70
     0
  9
$LUNITS
 70
     2
  9
$LUPREC
 70
     2
  9
$SKETCHINC
 40
1.0
  9
$FILLETRAD
 40
10.0
  9
$AUNITS
 70
     0
  9
$AUPREC
 70
     2
  9
$MENU
  1
.
  9
$ELEVATION
 40
0.0
  9
$PELEVATION
 40
0.0
  9
$THICKNESS
 40
0.0
  9
$LIMCHECK
 70
     0
  9
$CHAMFERA
 40
0.0
  9
$CHAMFERB
 40
0.0
  9
$CHAMFERC
 40
0.0
  9
$CHAMFERD
 40
0.0
  9
$SKPOLY
 70
     0
  9
$TDCREATE
 40
2459278.340889329
  9
$TDUCREATE
 40
2459278.299222662
  9
$TDUPDATE
 40
2459278.340891297
  9
$TDUUPDATE
 40
2459278.29922463
  9
$TDINDWG
 40
0.0000000116
  9
$TDUSRTIMER
 40
0.0000000116
  9
$USRTIMER
 70
     1
  9
$ANGBASE
 50
0.0
  9
$ANGDIR
 70
     0
  9
$PDMODE
 70
     0
  9
$PDSIZE
 40
-1.0
  9
$PLINEWID
 40
0.0
  9
$SPLFRAME
 70
     0
  9
$SPLINETYPE
 70
     6
  9
$SPLINESEGS
 70
     8
  9
$HANDSEED
  5
37D
  9
$SURFTAB1
 70
     6
  9
$SURFTAB2
 70
     6
  9
$SURFTYPE
 70
     6
  9
$SURFU
 70
     6
  9
$SURFV
 70
     6
  9
$UCSBASE
  2

  9
$UCSNAME
  2

  9
$UCSORG
 10
0.0
 20
0.0
 30
0.0
  9
$UCSXDIR
 10
1.0
 20
0.0
 30
0.0
  9
$UCSYDIR
 10
0.0
 20
1.0
 30
0.0
  9
$UCSORTHOREF
  2

  9
$UCSORTHOVIEW
 70
     0
  9
$UCSORGTOP
 10
0.0
 20
0.0
 30
0.0
  9
$UCSORGBOTTOM
 10
0.0
 20
0.0
 30
0.0
  9
$UCSORGLEFT
 10
0.0
 20
0.0
 30
0.0
  9
$UCSORGRIGHT
 10
0.0
 20
0.0
 30
0.0
  9
$UCSORGFRONT
 10
0.0
 20
0.0
 30
0.0
  9
$UCSORGBACK
 10
0.0
 20
0.0
 30
0.0
  9
$PUCSBASE
  2

  9
$PUCSNAME
  2

  9
$PUCSORG
 10
0.0
 20
0.0
 30
0.0
  9
$PUCSXDIR
 10
1.0
 20
0.0
 30
0.0
  9
$PUCSYDIR
 10
0.0
 20
1.0
 30
0.0
  9
$PUCSORTHOREF
  2

  9
$PUCSORTHOVIEW
 70
     0
  9
$PUCSORGTOP
 10
0.0
 20
0.0
 30
0.0
  9
$PUCSORGBOTTOM
 10
0.0
 20
0.0
 30
0.0
  9
$PUCSORGLEFT
 10
0.0
 20
0.0
 30
0.0
  9
$PUCSORGRIGHT
 10
0.0
 20
0.0
 30
0.0
  9
$PUCSORGFRONT
 10
0.0
 20
0.0
 30
0.0
  9
$PUCSORGBACK
 10
0.0
 20
0.0
 30
0.0
  9
$USERI1
 70
     0
  9
$USERI2
 70
     0
  9
$USERI3
 70
     0
  9
$USERI4
 70
     0
  9
$USERI5
 70
     0
  9
$USERR1
 40
0.0
  9
$USERR2
 40
0.0
  9
$USERR3
 40
0.0
  9
$USERR4
 40
0.0
  9
$USERR5
 40
0.0
  9
$WORLDVIEW
 70
     1
  9
$SHADEDGE
 70
     3
  9
$SHADEDIF
 70
    70
  9
$TILEMODE
 70
     1
  9
$MAXACTVP
 70
    64
  9
$PINSBASE
 10
0.0
 20
0.0
 30
0.0
  9
$PLIMCHECK
 70
     0
  9
$PEXTMIN
 10
1.0000000000E+20
 20
1.0000000000E+20
 30
1.0000000000E+20
  9
$PEXTMAX
 10
-1.0000000000E+20
 20
-1.0000000000E+20
 30
-1.0000000000E+20
  9
$PLIMMIN
 10
0.0
 20
0.0
  9
$PLIMMAX
 10
420.0
 20
297.0
  9
$UNITMODE
 70
     0
  9
$VISRETAIN
 70
     1
  9
$PLINEGEN
 70
     0
  9
$PSLTSCALE
 70
     1
  9
$TREEDEPTH
 70
  3020
  9
$CMLSTYLE
  2
Standard
  9
$CMLJUST
 70
     0
  9
$CMLSCALE
 40
20.0
  9
$PROXYGRAPHICS
 70
     1
  9
$MEASUREMENT
 70
     1
  9
$CELWEIGHT
370
    -1
  9
$ENDCAPS
280
     0
  9
$JOINSTYLE
280
     0
  9
$LWDISPLAY
290
     1
  9
$INSUNITS
 70
     4
  9
$HYPERLINKBASE
  1

  9
$STYLESHEET
  1

  9
$XEDIT
290
     1
  9
$CEPSNTYPE
380
     0
  9
$PSTYLEMODE
290
     1
  9
$FINGERPRINTGUID
  2
{2736046C-0020-4290-93B8-4767DBBE2ED4}
  9
$VERSIONGUID
  2
{FAEB1C32-E019-11D5-929B-00C0DF256EC4}
  9
$EXTNAMES
290
     1
  9
$PSVPSCALE
 40
0.0
  9
$OLESTARTUP
290
     0
  0
ENDSEC
  0
SECTION
  2
CLASSES
  0
CLASS
  1
ACDBDICTIONARYWDFLT
  2
AcDbDictionaryWithDefault
  3
ObjectDBX Classes
 90
        0
280
     0
281
     0
  0
CLASS
  1
VISUALSTYLE
  2
AcDbVisualStyle
  3
ObjectDBX Classes
 90
     4095
280
     0
281
     0
  0
CLASS
  1
MATERIAL
  2
AcDbMaterial
  3
ObjectDBX Classes
 90
     1153
280
     0
281
     0
  0
CLASS
  1
SCALE
  2
AcDbScale
  3
ObjectDBX Classes
 90
     1153
280
     0
281
     0
  0
CLASS
  1
TABLESTYLE
  2
AcDbTableStyle
  3
ObjectDBX Classes
 90
     4095
280
     0
281
     0
  0
CLASS
  1
MLEADERSTYLE
  2
AcDbMLeaderStyle
  3
ACDB_MLEADERSTYLE_CLASS
 90
     4095
280
     0
281
     0
  0
CLASS
  1
SUN
  2
AcDbSun
  3
SCENEOE
 90
     1153
280
     0
281
     0
  0
CLASS
  1
ACDBPLACEHOLDER
  2
AcDbPlaceHolder
  3
ObjectDBX Classes
 90
        0
280
     0
281
     0
  0
CLASS
  1
LAYOUT
  2
AcDbLayout
  3
ObjectDBX Classes
 90
        0
280
     0
281
     0
  0
ENDSEC
  0
SECTION
  2
TABLES
  0
TABLE
  2
VPORT
  5
8
330
0
100
AcDbSymbolTable
 70
     1
  0
VPORT
  5
29
330
8
100
AcDbSymbolTableRecord
100
AcDbViewportTableRecord
  2
*Active
 70
     0
 10
0.0
 20
0.0
 11
1.0
 21
1.0
 12
148.5
 22
105.0
 13
0.0
 23
0.0
 14
10.0
 24
10.0
 15
10.0
 25
10.0
 16
0.0
 26
0.0
 36
1.0
 17
0.0
 27
0.0
 37
0.0
 40
210.0
 41
1.4142857143
 42
50.0
 43
0.0
 44
0.0
 50
0.0
 51
0.0
 71
     0
 72
  2000
 73
     1
 74
     3
 75
     0
 76
     0
 77
     0
 78
     0
281
     0
 65
     1
110
0.0
120
0.0
130
0.0
111
1.0
121
0.0
131
0.0
112
0.0
122
1.0
132
0.0
 79
     0
146
0.0
  0
ENDTAB
  0
TABLE
  2
LTYPE
  5
5
330
0
100
AcDbSymbolTable
 70
     8
  0
LTYPE
  5
14
330
5
100
AcDbSymbolTableRecord
100
AcDbLinetypeTableRecord
  2
ByBlock
 70
     0
  3

 72
    65
 73
     0
 40
0.0
  0
LTYPE
  5
15
330
5
100
AcDbSymbolTableRecord
100
AcDbLinetypeTableRecord
  2
ByLayer
 70
     0
  3

 72
    65
 73
     0
 40
0.0
  0
LTYPE
  5
16
330
5
100
AcDbSymbolTableRecord
100
AcDbLinetypeTableRecord
  2
Continuous
 70
     0
  3
Solid line
 72
    65
 73
     0
 40
0.0
  0
LTYPE
  5
6E
330
5
100
AcDbSymbolTableRecord
100
AcDbLinetypeTableRecord
  2
SLD-Solid
 70
     0
  3
SolidWorks Line Style
 72
    65
 73
     0
 40
0.0
  0
LTYPE
  5
6F
330
5
100
AcDbSymbolTableRecord
100
AcDbLinetypeTableRecord
  2
SLD-Dashed
 70
     0
  3
SolidWorks Line Style
 72
    65
 73
     2
 40
1.905
 49
1.27
 74
     0
 49
-0.635
 74
     0
  0
LTYPE
  5
70
330
5
100
AcDbSymbolTableRecord
100
AcDbLinetypeTableRecord
  2
SLD-Phantom
 70
     0
  3
SolidWorks Line Style
 72
    65
 73
     6
 40
12.7
 49
6.35
 74
     0
 49
-1.27
 74
     0
 49
1.27
 74
     0
 49
-1.27
 74
     0
 49
1.27
 74
     0
 49
-1.27
 74
     0
  0
LTYPE
  5
71
330
5
100
AcDbSymbolTableRecord
100
AcDbLinetypeTableRecord
  2
SLD-Chain
 70
     0
  3
SolidWorks Line Style
 72
    65
 73
     4
 40
10.16
 49
6.35
 74
     0
 49
-1.27
 74
     0
 49
1.27
 74
     0
 49
-1.27
 74
     0
  0
LTYPE
  5
72
330
5
100
AcDbSymbolTableRecord
100
AcDbLinetypeTableRecord
  2
SLD-Center
 70
     0
  3
SolidWorks Line Style
 72
    65
 73
     4
 40
19.05
 49
15.24
 74
     0
 49
-1.27
 74
     0
 49
1.27
 74
     0
 49
-1.27
 74
     0
  0
LTYPE
  5
73
330
5
100
AcDbSymbolTableRecord
100
AcDbLinetypeTableRecord
  2
SLD-Stitch
 70
     0
  3
SolidWorks Line Style
 72
    65
 73
     2
 40
0.635
 49
0.0
 74
     0
 49
-0.635
 74
     0
  0
LTYPE
  5
74
330
5
100
AcDbSymbolTableRecord
100
AcDbLinetypeTableRecord
  2
SLD-Thin-Thick-Chain
 70
     0
  3
SolidWorks Line Style
 72
    65
 73
     4
 40
10.16
 49
6.35
 74
     0
 49
-1.27
 74
     0
 49
1.27
 74
     0
 49
-1.27
 74
     0
  0
ENDTAB
  0
TABLE
  2
LAYER
  5
2
330
0
100
AcDbSymbolTable
 70
    14
  0
LAYER
  5
10
330
2
100
AcDbSymbolTableRecord
100
AcDbLayerTableRecord
  2
0
 70
     0
 62
     7
  6
Continuous
370
    -3
390
F
  0
LAYER
  5
75
330
2
100
AcDbSymbolTableRecord
100
AcDbLayerTableRecord
  2
SLD-0
 70
     0
 62
   179
  6
SLD-Solid
370
    -3
390
F
  0
LAYER
  5
76
330
2
100
AcDbSymbolTableRecord
100
AcDbLayerTableRecord
  2
80
 70
     0
 62
    -6
  6
SLD-Solid
290
     0
370
    -3
390
F
  0
LAYER
  5
77
330
2
100
AcDbSymbolTableRecord
100
AcDbLayerTableRecord
  2
81
 70
     0
 62
    -3
  6
SLD-Solid
290
     0
370
    -3
390
F
  0
LAYER
  5
78
330
2
100
AcDbSymbolTableRecord
100
AcDbLayerTableRecord
  2
1
 70
     0
 62
     4
  6
SLD-Solid
290
     0
370
    -3
390
F
  0
LAYER
  5
79
330
2
100
AcDbSymbolTableRecord
100
AcDbLayerTableRecord
  2
4
 70
     0
 62
    -2
  6
SLD-Chain
290
     0
370
    -3
390
F
  0
LAYER
  5
7A
330
2
100
AcDbSymbolTableRecord
100
AcDbLayerTableRecord
  2
2
 70
     0
 62
     7
  6
SLD-Solid
290
     0
370
    -3
390
F
  0
LAYER
  5
7B
330
2
100
AcDbSymbolTableRecord
100
AcDbLayerTableRecord
  2
SK3
 70
     0
 62
     1
  6
SLD-Dashed
290
     0
370
    -3
390
F
  0
LAYER
  5
7C
330
2
100
AcDbSymbolTableRecord
100
AcDbLayerTableRecord
  2
SK4
 70
     0
 62
     2
  6
SLD-Chain
290
     0
370
    -3
390
F
  0
LAYER
  5
7D
330
2
100
AcDbSymbolTableRecord
100
AcDbLayerTableRecord
  2
SK2
 70
     0
 62
     7
  6
SLD-Solid
290
     0
370
    -3
390
F
  0
LAYER
  5
7E
330
2
100
AcDbSymbolTableRecord
100
AcDbLayerTableRecord
  2
SK6
 70
     0
 62
     5
  6
SLD-Solid
290
     0
370
    -3
390
F
  0
LAYER
  5
7F
330
2
100
AcDbSymbolTableRecord
100
AcDbLayerTableRecord
  2
6
 70
     0
 62
     5
  6
SLD-Solid
370
    -3
390
F
  0
LAYER
  5
80
330
2
100
AcDbSymbolTableRecord
100
AcDbLayerTableRecord
  2
SK1
 70
     0
 62
     4
  6
SLD-Solid
370
    -3
390
F
  0
LAYER
  5
81
330
2
100
AcDbSymbolTableRecord
100
AcDbLayerTableRecord
  2
LAYER5
 70
     0
 62
   218
  6
SLD-Solid
370
    -3
390
F
  0
ENDTAB
  0
TABLE
  2
STYLE
  5
3
330
0
100
AcDbSymbolTable
 70
     3
  0
STYLE
  5
11
330
3
100
AcDbSymbolTableRecord
100
AcDbTextStyleTableRecord
  2
Standard
 70
     0
 40
0.0
 41
1.0
 50
0.0
 71
     0
 42
3.5
  3
txt
  4

  0
STYLE
  5
2A0
330
3
100
AcDbSymbolTableRecord
100
AcDbTextStyleTableRecord
  2
SLDTEXTSTYLE0
 70
     0
 40
0.0
 41
0.75
 50
0.0
 71
     0
 42
3.5
  3
TXT
  4

  0
STYLE
  5
379
330
3
100
AcDbSymbolTableRecord
100
AcDbTextStyleTableRecord
  2
SLDTEXTSTYLE1
 70
     0
 40
0.0
 41
0.6666666667
 50
0.0
 71
     0
 42
3.5
  3
TXT
  4

  0
ENDTAB
  0
TABLE
  2
VIEW
  5
6
330
0
100
AcDbSymbolTable
 70
     0
  0
ENDTAB
  0
TABLE
  2
UCS
  5
7
330
0
100
AcDbSymbolTable
 70
     0
  0
ENDTAB
  0
TABLE
  2
APPID
  5
9
330
0
100
AcDbSymbolTable
 70
     1
  0
APPID
  5
12
330
9
100
AcDbSymbolTableRecord
100
AcDbRegAppTableRecord
  2
ACAD
 70
     0
  0
ENDTAB
  0
TABLE
  2
DIMSTYLE
  5
A
330
0
100
AcDbSymbolTable
 70
     6
100
AcDbDimStyleTable
  0
DIMSTYLE
105
27
330
A
100
AcDbSymbolTableRecord
100
AcDbDimStyleTableRecord
  2
ISO-25
 70
     0
 41
2.5
 42
0.625
 43
3.75
 44
1.25
 73
     0
 74
     0
 77
     1
 78
     8
140
2.5
141
2.5
143
0.0393700787
147
0.625
171
     3
172
     1
178
     0
271
     2
272
     2
274
     3
278
    44
283
     0
284
     8
340
11
  0
DIMSTYLE
105
2A1
102
{ACAD_REACTORS
330
29F
330
2B4
330
2D2
330
2E5
330
30D
330
31F
330
345
102
}
330
A
100
AcDbSymbolTableRecord
100
AcDbDimStyleTableRecord
  2
SLDDIMSTYLE0
 70
     0
 41
3.302
 44
0.0
 45
0.000000001
 73
     0
 74
     0
 77
     1
 78
    12
 79
     3
140
3.5
143
0.0393700787
147
0.875
148
0.000000001
170
     1
173
     1
178
     0
271
     2
272
     2
276
     2
284
    12
340
2A0
  0
DIMSTYLE
105
2C8
102
{ACAD_REACTORS
330
2C7
330
365
330
370
102
}
330
A
100
AcDbSymbolTableRecord
100
AcDbDimStyleTableRecord
  2
SLDDIMSTYLE1
 70
     0
 41
3.302
 44
0.0
 45
0.000000001
 73
     0
 74
     0
 77
     1
 78
    12
 79
     3
140
3.5
147
0.875
173
     1
178
     0
271
     2
272
     2
276
     2
284
    12
340
2A0
  0
DIMSTYLE
105
2F9
102
{ACAD_REACTORS
330
2F8
102
}
330
A
100
AcDbSymbolTableRecord
100
AcDbDimStyleTableRecord
  2
SLDDIMSTYLE2
 70
     0
 41
3.302
 44
0.0
 45
0.000000001
 73
     0
 74
     0
 77
     1
 78
    12
 79
     3
140
3.5
143
0.0393700787
147
0.875
148
0.000000001
170
     1
171
     3
172
     1
173
     1
178
     0
271
     2
272
     2
274
     3
276
     2
284
    12
289
     0
340
2A0
  0
DIMSTYLE
105
332
102
{ACAD_REACTORS
330
331
102
}
330
A
100
AcDbSymbolTableRecord
100
AcDbDimStyleTableRecord
  2
SLDDIMSTYLE3
 70
     0
 41
3.302
 44
0.0
 45
0.000000001
 73
     0
 74
     0
 77
     1
 78
    12
 79
     3
140
3.5
143
0.0393700787
147
0.875
148
0.000000001
170
     1
171
     3
173
     1
178
     0
271
     2
272
     2
274
     3
276
     2
284
    12
340
2A0
  0
DIMSTYLE
105
359
102
{ACAD_REACTORS
330
358
102
}
330
A
100
AcDbSymbolTableRecord
100
AcDbDimStyleTableRecord
  2
SLDDIMSTYLE4
 70
     0
 41
3.302
 44
0.0
 45
0.000000001
 73
     0
 74
     0
 77
     1
 78
    12
 79
     3
140
3.5
147
0.875
172
     1
173
     1
178
     0
271
     2
272
     2
276
     2
284
    12
289
     0
340
2A0
  0
ENDTAB
  0
TABLE
  2
BLOCK_RECORD
  5
1
330
0
100
AcDbSymbolTable
 70
    14
  0
BLOCK_RECORD
  5
1F
330
1
100
AcDbSymbolTableRecord
100
AcDbBlockTableRecord
  2
*Model_Space
340
22
  0
BLOCK_RECORD
  5
1B
330
1
100
AcDbSymbolTableRecord
100
AcDbBlockTableRecord
  2
*Paper_Space
340
1E
  0
BLOCK_RECORD
  5
23
330
1
100
AcDbSymbolTableRecord
100
AcDbBlockTableRecord
  2
*Paper_Space0
340
26
  0
BLOCK_RECORD
  5
2A2
330
1
100
AcDbSymbolTableRecord
100
AcDbBlockTableRecord
  2
_D
340
0
  0
BLOCK_RECORD
  5
2B5
330
1
100
AcDbSymbolTableRecord
100
AcDbBlockTableRecord
  2
_D_1
340
0
  0
BLOCK_RECORD
  5
2C9
330
1
100
AcDbSymbolTableRecord
100
AcDbBlockTableRecord
  2
_D_2
340
0
  0
BLOCK_RECORD
  5
2D3
330
1
100
AcDbSymbolTableRecord
100
AcDbBlockTableRecord
  2
_D_3
340
0
  0
BLOCK_RECORD
  5
2E6
330
1
100
AcDbSymbolTableRecord
100
AcDbBlockTableRecord
  2
_D_4
340
0
  0
BLOCK_RECORD
  5
2FA
330
1
100
AcDbSymbolTableRecord
100
AcDbBlockTableRecord
  2
_D_5
340
0
  0
BLOCK_RECORD
  5
30E
330
1
100
AcDbSymbolTableRecord
100
AcDbBlockTableRecord
  2
_D_6
340
0
  0
BLOCK_RECORD
  5
320
330
1
100
AcDbSymbolTableRecord
100
AcDbBlockTableRecord
  2
_D_7
340
0
  0
BLOCK_RECORD
  5
333
330
1
100
AcDbSymbolTableRecord
100
AcDbBlockTableRecord
  2
_D_8
340
0
  0
BLOCK_RECORD
  5
346
330
1
100
AcDbSymbolTableRecord
100
AcDbBlockTableRecord
  2
_D_9
340
0
  0
BLOCK_RECORD
  5
35A
330
1
100
AcDbSymbolTableRecord
100
AcDbBlockTableRecord
  2
_D_10
340
0
  0
BLOCK_RECORD
  5
366
330
1
100
AcDbSymbolTableRecord
100
AcDbBlockTableRecord
  2
_D_11
340
0
  0
BLOCK_RECORD
  5
371
330
1
100
AcDbSymbolTableRecord
100
AcDbBlockTableRecord
  2
_D_12
340
0
  0
ENDTAB
  0
ENDSEC
  0
SECTION
  2
BLOCKS
  0
BLOCK
  5
20
330
1F
100
AcDbEntity
  8
0
100
AcDbBlockBegin
  2
*Model_Space
 70
     0
 10
0.0
 20
0.0
 30
0.0
  3
*Model_Space
  1

  0
ENDBLK
  5
21
330
1F
100
AcDbEntity
  8
0
100
AcDbBlockEnd
  0
BLOCK
  5
1C
330
1B
100
AcDbEntity
 67
     1
  8
0
100
AcDbBlockBegin
  2
*Paper_Space
 70
     0
 10
0.0
 20
0.0
 30
0.0
  3
*Paper_Space
  1

  0
ENDBLK
  5
1D
330
1B
100
AcDbEntity
 67
     1
  8
0
100
AcDbBlockEnd
  0
BLOCK
  5
24
330
23
100
AcDbEntity
  8
0
100
AcDbBlockBegin
  2
*Paper_Space0
 70
     0
 10
0.0
 20
0.0
 30
0.0
  3
*Paper_Space0
  1

  0
ENDBLK
  5
25
330
23
100
AcDbEntity
  8
0
100
AcDbBlockEnd
  0
BLOCK
  5
2A3
330
2A2
100
AcDbEntity
  8
0
100
AcDbBlockBegin
  2
_D
 70
     0
 10
0.0
 20
0.0
 30
0.0
  3
_D
  1

  0
SOLID
  5
2A5
330
2A2
100
AcDbEntity
  8
2
100
AcDbTrace
 10
0.0
 20
65.9213882753
 30
0.0
 11
3.302
 21
65.4133882753
 31
0.0
 12
3.302
 22
66.4293882753
 32
0.0
 13
3.302
 23
66.4293882753
 33
0.0
  0
SOLID
  5
2A6
330
2A2
100
AcDbEntity
  8
2
100
AcDbTrace
 10
85.0
 20
65.9213882753
 30
0.0
 11
81.698
 21
66.4293882753
 31
0.0
 12
81.698
 22
65.4133882753
 32
0.0
 13
81.698
 23
65.4133882753
 33
0.0
  0
LINE
  5
2A7
330
2A2
100
AcDbEntity
  8
2
100
AcDbLine
 10
26.2324221082
 20
76.7142699914
 30
0.0
 11
25.1660158508
 21
76.7142699914
 31
0.0
  0
LINE
  5
2A8
330
2A2
100
AcDbEntity
  8
2
100
AcDbLine
 10
25.1660158508
 20
76.7142699914
 30
0.0
 11
25.1660158508
 21
71.1580200003
 31
0.0
  0
LINE
  5
2A9
330
2A2
100
AcDbEntity
  8
2
100
AcDbLine
 10
25.1660158508
 20
71.1580200003
 30
0.0
 11
26.2324221082
 21
71.1580200003
 31
0.0
  0
LINE
  5
2AA
330
2A2
100
AcDbEntity
  8
2
100
AcDbLine
 10
35.2838111691
 20
76.7142699914
 30
0.0
 11
36.3502174266
 21
76.7142699914
 31
0.0
  0
LINE
  5
2AB
330
2A2
100
AcDbEntity
  8
2
100
AcDbLine
 10
36.3502174266
 20
76.7142699914
 30
0.0
 11
36.3502174266
 21
71.1580200003
 31
0.0
  0
LINE
  5
2AC
330
2A2
100
AcDbEntity
  8
2
100
AcDbLine
 10
36.3502174266
 20
71.1580200003
 30
0.0
 11
35.2838111691
 21
71.1580200003
 31
0.0
  0
LINE
  5
2AD
330
2A2
100
AcDbEntity
  8
2
100
AcDbLine
 10
0.0
 20
35.925
 30
0.0
 11
0.0
 21
66.9213882753
 31
0.0
  0
LINE
  5
2AE
330
2A2
100
AcDbEntity
  8
2
100
AcDbLine
 10
85.0
 20
21.5
 30
0.0
 11
85.0
 21
66.9213882753
 31
0.0
  0
LINE
  5
2AF
330
2A2
100
AcDbEntity
  8
2
100
AcDbLine
 10
0.0
 20
65.9213882753
 30
0.0
 11
85.0
 21
65.9213882753
 31
0.0
  0
MTEXT
  5
2B0
330
2A2
100
AcDbEntity
  8
2
100
AcDbMText
 10
24.1190539966
 20
70.4865975412
 30
0.0
 40
3.5
 41
0.0
 71
     1
 72
     1
  1

  7
SLDTEXTSTYLE0
 73
     1
 44
1.0
  0
MTEXT
  5
2B1
330
2A2
100
AcDbEntity
  8
2
100
AcDbMText
 10
26.2324221082
 20
75.6697569149
 30
0.0
 40
3.5
 41
0.0
 71
     1
 72
     1
  1
3,35
  7
SLDTEXTSTYLE0
 73
     1
 44
1.0
  0
MTEXT
  5
2B2
330
2A2
100
AcDbEntity
  8
2
100
AcDbMText
 10
28.1720054452
 20
70.4331253645
 30
0.0
 40
3.5
 41
0.0
 71
     1
 72
     1
  1
85
  7
SLDTEXTSTYLE0
 73
     1
 44
1.0
  0
MTEXT
  5
2B3
330
2A2
100
AcDbEntity
  8
2
100
AcDbMText
 10
38.7291238005
 20
70.4865975412
 30
0.0
 40
3.5
 41
0.0
 71
     1
 72
     1
  1

  7
SLDTEXTSTYLE0
 73
     1
 44
1.0
  0
ENDBLK
  5
2A4
330
2A2
100
AcDbEntity
  8
0
100
AcDbBlockEnd
  0
BLOCK
  5
2B6
330
2B5
100
AcDbEntity
  8
0
100
AcDbBlockBegin
  2
_D_1
 70
     0
 10
0.0
 20
0.0
 30
0.0
  3
_D_1
  1

  0
SOLID
  5
2B8
330
2B5
100
AcDbEntity
  8
SK2
100
AcDbTrace
 10
19.05
 20
52.5226390564
 30
0.0
 11
22.352
 21
52.0146390564
 31
0.0
 12
22.352
 22
53.0306390564
 32
0.0
 13
22.352
 23
53.0306390564
 33
0.0
  0
SOLID
  5
2B9
330
2B5
100
AcDbEntity
  8
SK2
100
AcDbTrace
 10
85.0
 20
52.5226390564
 30
0.0
 11
81.698
 21
53.0306390564
 31
0.0
 12
81.698
 22
52.0146390564
 32
0.0
 13
81.698
 23
52.0146390564
 33
0.0
  0
LINE
  5
2BA
330
2B5
100
AcDbEntity
  8
SK2
100
AcDbLine
 10
50.7967956763
 20
63.3155207724
 30
0.0
 11
49.7303894189
 21
63.3155207724
 31
0.0
  0
LINE
  5
2BB
330
2B5
100
AcDbEntity
  8
SK2
100
AcDbLine
 10
49.7303894189
 20
63.3155207724
 30
0.0
 11
49.7303894189
 21
57.7592707813
 31
0.0
  0
LINE
  5
2BC
330
2B5
100
AcDbEntity
  8
SK2
100
AcDbLine
 10
49.7303894189
 20
57.7592707813
 30
0.0
 11
50.7967956763
 21
57.7592707813
 31
0.0
  0
LINE
  5
2BD
330
2B5
100
AcDbEntity
  8
SK2
100
AcDbLine
 10
59.8481847373
 20
63.3155207724
 30
0.0
 11
60.9145909947
 21
63.3155207724
 31
0.0
  0
LINE
  5
2BE
330
2B5
100
AcDbEntity
  8
SK2
100
AcDbLine
 10
60.9145909947
 20
63.3155207724
 30
0.0
 11
60.9145909947
 21
57.7592707813
 31
0.0
  0
LINE
  5
2BF
330
2B5
100
AcDbEntity
  8
SK2
100
AcDbLine
 10
60.9145909947
 20
57.7592707813
 30
0.0
 11
59.8481847373
 21
57.7592707813
 31
0.0
  0
LINE
  5
2C0
330
2B5
100
AcDbEntity
  8
SK2
100
AcDbLine
 10
19.05
 20
47.5560855313
 30
0.0
 11
19.05
 21
53.5226390564
 31
0.0
  0
LINE
  5
2C1
330
2B5
100
AcDbEntity
  8
SK2
100
AcDbLine
 10
85.0
 20
21.5
 30
0.0
 11
85.0
 21
53.5226390564
 31
0.0
  0
LINE
  5
2C2
330
2B5
100
AcDbEntity
  8
SK2
100
AcDbLine
 10
19.05
 20
52.5226390564
 30
0.0
 11
85.0
 21
52.5226390564
 31
0.0
  0
MTEXT
  5
2C3
330
2B5
100
AcDbEntity
  8
SK2
100
AcDbMText
 10
48.6834275647
 20
57.0878483222
 30
0.0
 40
3.5
 41
0.0
 71
     1
 72
     1
  1

  7
SLDTEXTSTYLE0
 73
     1
 44
1.0
  0
MTEXT
  5
2C4
330
2B5
100
AcDbEntity
  8
SK2
100
AcDbMText
 10
50.7967956763
 20
62.2710076959
 30
0.0
 40
3.5
 41
0.0
 71
     1
 72
     1
  1
2,60
  7
SLDTEXTSTYLE0
 73
     1
 44
1.0
  0
MTEXT
  5
2C5
330
2B5
100
AcDbEntity
  8
SK2
100
AcDbMText
 10
49.5037399632
 20
57.0343761456
 30
0.0
 40
3.5
 41
0.0
 71
     1
 72
     1
  1
65,95
  7
SLDTEXTSTYLE0
 73
     1
 44
1.0
  0
MTEXT
  5
2C6
330
2B5
100
AcDbEntity
  8
SK2
100
AcDbMText
 10
63.2934973686
 20
57.0878483222
 30
0.0
 40
3.5
 41
0.0
 71
     1
 72
     1
  1

  7
SLDTEXTSTYLE0
 73
     1
 44
1.0
  0
ENDBLK
  5
2B7
330
2B5
100
AcDbEntity
  8
0
100
AcDbBlockEnd
  0
BLOCK
  5
2CA
330
2C9
100
AcDbEntity
  8
0
100
AcDbBlockBegin
  2
_D_2
 70
     0
 10
0.0
 20
0.0
 30
0.0
  3
_D_2
  1

  0
SOLID
  5
2CC
330
2C9
100
AcDbEntity
  8
SK2
100
AcDbTrace
 10
0.0
 20
52.5226390564
 30
0.0
 11
3.302
 21
52.0146390564
 31
0.0
 12
3.302
 22
53.0306390564
 32
0.0
 13
3.302
 23
53.0306390564
 33
0.0
  0
SOLID
  5
2CD
330
2C9
100
AcDbEntity
  8
SK2
100
AcDbTrace
 10
19.05
 20
52.5226390564
 30
0.0
 11
15.748
 21
53.0306390564
 31
0.0
 12
15.748
 22
52.0146390564
 32
0.0
 13
15.748
 23
52.0146390564
 33
0.0
  0
LINE
  5
2CE
330
2C9
100
AcDbEntity
  8
SK2
100
AcDbLine
 10
0.0
 20
35.925
 30
0.0
 11
0.0
 21
53.5226390564
 31
0.0
  0
LINE
  5
2CF
330
2C9
100
AcDbEntity
  8
SK2
100
AcDbLine
 10
19.05
 20
47.5560855313
 30
0.0
 11
19.05
 21
53.5226390564
 31
0.0
  0
LINE
  5
2D0
330
2C9
100
AcDbEntity
  8
SK2
100
AcDbLine
 10
0.0
 20
52.5226390564
 30
0.0
 11
19.05
 21
52.5226390564
 31
0.0
  0
MTEXT
  5
2D1
330
2C9
100
AcDbEntity
  8
SK2
100
AcDbMText
 10
4.5785216444
 20
57.0343759709
 30
0.0
 40
3.5
 41
0.0
 71
     1
 72
     1
  1
19,05
  7
SLDTEXTSTYLE0
 73
     1
 44
1.0
  0
ENDBLK
  5
2CB
330
2C9
100
AcDbEntity
  8
0
100
AcDbBlockEnd
  0
BLOCK
  5
2D4
330
2D3
100
AcDbEntity
  8
0
100
AcDbBlockBegin
  2
_D_3
 70
     0
 10
0.0
 20
0.0
 30
0.0
  3
_D_3
  1

  0
SOLID
  5
2D6
330
2D3
100
AcDbEntity
  8
SK2
100
AcDbTrace
 10
85.0
 20
31.5049932227
 30
0.0
 11
81.698
 21
32.0129932227
 31
0.0
 12
81.698
 22
30.9969932227
 32
0.0
 13
81.698
 23
30.9969932227
 33
0.0
  0
SOLID
  5
2D7
330
2D3
100
AcDbEntity
  8
SK2
100
AcDbTrace
 10
68.2
 20
31.5049932227
 30
0.0
 11
71.502
 21
30.9969932227
 31
0.0
 12
71.502
 22
32.0129932227
 32
0.0
 13
71.502
 23
32.0129932227
 33
0.0
  0
LINE
  5
2D8
330
2D3
100
AcDbEntity
  8
SK2
100
AcDbLine
 10
71.81444151
 20
42.2978749387
 30
0.0
 11
70.7480352526
 21
42.2978749387
 31
0.0
  0
LINE
  5
2D9
330
2D3
100
AcDbEntity
  8
SK2
100
AcDbLine
 10
70.7480352526
 20
42.2978749387
 30
0.0
 11
70.7480352526
 21
36.7416249477
 31
0.0
  0
LINE
  5
2DA
330
2D3
100
AcDbEntity
  8
SK2
100
AcDbLine
 10
70.7480352526
 20
36.7416249477
 30
0.0
 11
71.81444151
 21
36.7416249477
 31
0.0
  0
LINE
  5
2DB
330
2D3
100
AcDbEntity
  8
SK2
100
AcDbLine
 10
80.8658305709
 20
42.2978749387
 30
0.0
 11
81.9322368284
 21
42.2978749387
 31
0.0
  0
LINE
  5
2DC
330
2D3
100
AcDbEntity
  8
SK2
100
AcDbLine
 10
81.9322368284
 20
42.2978749387
 30
0.0
 11
81.9322368284
 21
36.7416249477
 31
0.0
  0
LINE
  5
2DD
330
2D3
100
AcDbEntity
  8
SK2
100
AcDbLine
 10
81.9322368284
 20
36.7416249477
 30
0.0
 11
80.8658305709
 21
36.7416249477
 31
0.0
  0
LINE
  5
2DE
330
2D3
100
AcDbEntity
  8
SK2
100
AcDbLine
 10
85.0
 20
21.5
 30
0.0
 11
85.0
 21
32.5049932227
 31
0.0
  0
LINE
  5
2DF
330
2D3
100
AcDbEntity
  8
SK2
100
AcDbLine
 10
68.2
 20
23.6
 30
0.0
 11
68.2
 21
32.5049932227
 31
0.0
  0
LINE
  5
2E0
330
2D3
100
AcDbEntity
  8
SK2
100
AcDbLine
 10
85.0
 20
31.5049932227
 30
0.0
 11
68.2
 21
31.5049932227
 31
0.0
  0
MTEXT
  5
2E1
330
2D3
100
AcDbEntity
  8
SK2
100
AcDbMText
 10
69.7010733984
 20
36.0702024885
 30
0.0
 40
3.5
 41
0.0
 71
     1
 72
     1
  1

  7
SLDTEXTSTYLE0
 73
     1
 44
1.0
  0
MTEXT
  5
2E2
330
2D3
100
AcDbEntity
  8
SK2
100
AcDbMText
 10
71.81444151
 20
41.2533618622
 30
0.0
 40
3.5
 41
0.0
 71
     1
 72
     1
  1
0,66
  7
SLDTEXTSTYLE0
 73
     1
 44
1.0
  0
MTEXT
  5
2E3
330
2D3
100
AcDbEntity
  8
SK2
100
AcDbMText
 10
71.81444151
 20
36.0167303119
 30
0.0
 40
3.5
 41
0.0
 71
     1
 72
     1
  1
16,8
  7
SLDTEXTSTYLE0
 73
     1
 44
1.0
  0
MTEXT
  5
2E4
330
2D3
100
AcDbEntity
  8
SK2
100
AcDbMText
 10
84.3111432023
 20
36.0702024885
 30
0.0
 40
3.5
 41
0.0
 71
     1
 72
     1
  1

  7
SLDTEXTSTYLE0
 73
     1
 44
1.0
  0
ENDBLK
  5
2D5
330
2D3
100
AcDbEntity
  8
0
100
AcDbBlockEnd
  0
BLOCK
  5
2E7
330
2E6
100
AcDbEntity
  8
0
100
AcDbBlockBegin
  2
_D_4
 70
     0
 10
0.0
 20
0.0
 30
0.0
  3
_D_4
  1

  0
SOLID
  5
2E9
330
2E6
100
AcDbEntity
  8
SK2
100
AcDbTrace
 10
43.8
 20
31.5049932227
 30
0.0
 11
47.102
 21
30.9969932227
 31
0.0
 12
47.102
 22
32.0129932227
 32
0.0
 13
47.102
 23
32.0129932227
 33
0.0
  0
SOLID
  5
2EA
330
2E6
100
AcDbEntity
  8
SK2
100
AcDbTrace
 10
68.2
 20
31.5049932227
 30
0.0
 11
64.898
 21
32.0129932227
 31
0.0
 12
64.898
 22
30.9969932227
 32
0.0
 13
64.898
 23
30.9969932227
 33
0.0
  0
LINE
  5
2EB
330
2E6
100
AcDbEntity
  8
SK2
100
AcDbLine
 10
49.0891119524
 20
42.2978749387
 30
0.0
 11
48.0227056949
 21
42.2978749387
 31
0.0
  0
LINE
  5
2EC
330
2E6
100
AcDbEntity
  8
SK2
100
AcDbLine
 10
48.0227056949
 20
42.2978749387
 30
0.0
 11
48.0227056949
 21
36.7416249477
 31
0.0
  0
LINE
  5
2ED
330
2E6
100
AcDbEntity
  8
SK2
100
AcDbLine
 10
48.0227056949
 20
36.7416249477
 30
0.0
 11
49.0891119524
 21
36.7416249477
 31
0.0
  0
LINE
  5
2EE
330
2E6
100
AcDbEntity
  8
SK2
100
AcDbLine
 10
58.1405010133
 20
42.2978749387
 30
0.0
 11
59.2069072707
 21
42.2978749387
 31
0.0
  0
LINE
  5
2EF
330
2E6
100
AcDbEntity
  8
SK2
100
AcDbLine
 10
59.2069072707
 20
42.2978749387
 30
0.0
 11
59.2069072707
 21
36.7416249477
 31
0.0
  0
LINE
  5
2F0
330
2E6
100
AcDbEntity
  8
SK2
100
AcDbLine
 10
59.2069072707
 20
36.7416249477
 30
0.0
 11
58.1405010133
 21
36.7416249477
 31
0.0
  0
LINE
  5
2F1
330
2E6
100
AcDbEntity
  8
SK2
100
AcDbLine
 10
43.8
 20
23.6
 30
0.0
 11
43.8
 21
32.5049932227
 31
0.0
  0
LINE
  5
2F2
330
2E6
100
AcDbEntity
  8
SK2
100
AcDbLine
 10
68.2
 20
23.6
 30
0.0
 11
68.2
 21
32.5049932227
 31
0.0
  0
LINE
  5
2F3
330
2E6
100
AcDbEntity
  8
SK2
100
AcDbLine
 10
43.8
 20
31.5049932227
 30
0.0
 11
68.2
 21
31.5049932227
 31
0.0
  0
MTEXT
  5
2F4
330
2E6
100
AcDbEntity
  8
SK2
100
AcDbMText
 10
46.9757438407
 20
36.0702024885
 30
0.0
 40
3.5
 41
0.0
 71
     1
 72
     1
  1

  7
SLDTEXTSTYLE0
 73
     1
 44
1.0
  0
MTEXT
  5
2F5
330
2E6
100
AcDbEntity
  8
SK2
100
AcDbMText
 10
49.0891119524
 20
41.2533618622
 30
0.0
 40
3.5
 41
0.0
 71
     1
 72
     1
  1
0,96
  7
SLDTEXTSTYLE0
 73
     1
 44
1.0
  0
MTEXT
  5
2F6
330
2E6
100
AcDbEntity
  8
SK2
100
AcDbMText
 10
49.0891119524
 20
36.0167303119
 30
0.0
 40
3.5
 41
0.0
 71
     1
 72
     1
  1
24,4
  7
SLDTEXTSTYLE0
 73
     1
 44
1.0
  0
MTEXT
  5
2F7
330
2E6
100
AcDbEntity
  8
SK2
100
AcDbMText
 10
61.5858136446
 20
36.0702024885
 30
0.0
 40
3.5
 41
0.0
 71
     1
 72
     1
  1

  7
SLDTEXTSTYLE0
 73
     1
 44
1.0
  0
ENDBLK
  5
2E8
330
2E6
100
AcDbEntity
  8
0
100
AcDbBlockEnd
  0
BLOCK
  5
2FB
330
2FA
100
AcDbEntity
  8
0
100
AcDbBlockBegin
  2
_D_5
 70
     0
 10
0.0
 20
0.0
 30
0.0
  3
_D_5
  1

  0
SOLID
  5
2FD
330
2FA
100
AcDbEntity
  8
SK2
100
AcDbTrace
 10
99.5409077208
 20
12.5
 30
0.0
 11
100.0489077208
 21
15.802
 31
0.0
 12
99.0329077208
 22
15.802
 32
0.0
 13
99.0329077208
 23
15.802
 33
0.0
  0
SOLID
  5
2FE
330
2FA
100
AcDbEntity
  8
SK2
100
AcDbTrace
 10
99.5409077208
 20
-12.5
 30
0.0
 11
99.0329077208
 21
-15.802
 31
0.0
 12
100.0489077208
 22
-15.802
 32
0.0
 13
100.0489077208
 23
-15.802
 33
0.0
  0
LINE
  5
2FF
330
2FA
100
AcDbEntity
  8
SK2
100
AcDbLine
 10
88.7480260048
 20
-6.5404547169
 30
0.0
 11
88.7480260048
 21
-7.6068609743
 31
0.0
  0
LINE
  5
300
330
2FA
100
AcDbEntity
  8
SK2
100
AcDbLine
 10
88.7480260048
 20
-7.6068609743
 30
0.0
 11
94.3042759958
 21
-7.6068609743
 31
0.0
  0
LINE
  5
301
330
2FA
100
AcDbEntity
  8
SK2
100
AcDbLine
 10
94.3042759958
 20
-7.6068609743
 30
0.0
 11
94.3042759958
 21
-6.5404547169
 31
0.0
  0
LINE
  5
302
330
2FA
100
AcDbEntity
  8
SK2
100
AcDbLine
 10
88.7480260048
 20
5.0970457704
 30
0.0
 11
88.7480260048
 21
6.1634520278
 31
0.0
  0
LINE
  5
303
330
2FA
100
AcDbEntity
  8
SK2
100
AcDbLine
 10
88.7480260048
 20
6.1634520278
 30
0.0
 11
94.3042759958
 21
6.1634520278
 31
0.0
  0
LINE
  5
304
330
2FA
100
AcDbEntity
  8
SK2
100
AcDbLine
 10
94.3042759958
 20
6.1634520278
 30
0.0
 11
94.3042759958
 21
5.0970457704
 31
0.0
  0
LINE
  5
305
330
2FA
100
AcDbEntity
  8
SK2
100
AcDbLine
 10
84.0947441117
 20
12.5
 30
0.0
 11
100.5409077208
 21
12.5
 31
0.0
  0
LINE
  5
306
330
2FA
100
AcDbEntity
  8
SK2
100
AcDbLine
 10
84.0947441117
 20
-12.5
 30
0.0
 11
100.5409077208
 21
-12.5
 31
0.0
  0
LINE
  5
307
330
2FA
100
AcDbEntity
  8
SK2
100
AcDbLine
 10
99.5409077208
 20
12.5
 30
0.0
 11
99.5409077208
 21
18.85
 31
0.0
  0
LINE
  5
308
330
2FA
100
AcDbEntity
  8
SK2
100
AcDbLine
 10
99.5409077208
 20
12.5
 30
0.0
 11
99.5409077208
 21
-12.5
 31
0.0
  0
LINE
  5
309
330
2FA
100
AcDbEntity
  8
SK2
100
AcDbLine
 10
99.5409077208
 20
-12.5
 30
0.0
 11
99.5409077208
 21
-18.85
 31
0.0
  0
MTEXT
  5
30A
330
2FA
100
AcDbEntity
  8
SK2
100
AcDbMText
 10
89.7925390813
 20
-6.5404547169
 30
0.0
 40
3.5
 41
0.0
 71
     1
 72
     1
  1
0,984
  7
SLDTEXTSTYLE0
 11
-7.932373437343760E-15
 21
1.0
 31
0.0
 73
     1
 44
1.0
  0
MTEXT
  5
30B
330
2FA
100
AcDbEntity
  8
SK2
100
AcDbMText
 10
95.0291706316
 20
-5.9470350645
 30
0.0
 40
3.5
 41
0.0
 71
     1
 72
     1
  1
%%c
  7
SLDTEXTSTYLE0
 11
-7.932373437343760E-15
 21
1.0
 31
0.0
 73
     1
 44
1.0
  0
MTEXT
  5
30C
330
2FA
100
AcDbEntity
  8
SK2
100
AcDbMText
 10
95.0291706316
 20
-0.6685976661
 30
0.0
 40
3.5
 41
0.0
 71
     1
 72
     1
  1
25
  7
SLDTEXTSTYLE0
 11
-7.932373437343760E-15
 21
1.0
 31
0.0
 73
     1
 44
1.0
  0
ENDBLK
  5
2FC
330
2FA
100
AcDbEntity
  8
0
100
AcDbBlockEnd
  0
BLOCK
  5
30F
330
30E
100
AcDbEntity
  8
0
100
AcDbBlockBegin
  2
_D_6
 70
     0
 10
0.0
 20
0.0
 30
0.0
  3
_D_6
  1

  0
SOLID
  5
311
330
30E
100
AcDbEntity
  8
SK2
100
AcDbTrace
 10
113.8363919565
 20
20.5
 30
0.0
 11
113.3283919565
 21
17.198
 31
0.0
 12
114.3443919565
 22
17.198
 32
0.0
 13
114.3443919565
 23
17.198
 33
0.0
  0
SOLID
  5
312
330
30E
100
AcDbEntity
  8
SK2
100
AcDbTrace
 10
113.8363919565
 20
-20.5
 30
0.0
 11
114.3443919565
 21
-17.198
 31
0.0
 12
113.3283919565
 22
-17.198
 32
0.0
 13
113.3283919565
 23
-17.198
 33
0.0
  0
LINE
  5
313
330
30E
100
AcDbEntity
  8
SK2
100
AcDbLine
 10
103.0435102405
 20
-5.2473994694
 30
0.0
 11
103.0435102405
 21
-6.3138057268
 31
0.0
  0
LINE
  5
314
330
30E
100
AcDbEntity
  8
SK2
100
AcDbLine
 10
103.0435102405
 20
-6.3138057268
 30
0.0
 11
108.5997602316
 21
-6.3138057268
 31
0.0
  0
LINE
  5
315
330
30E
100
AcDbEntity
  8
SK2
100
AcDbLine
 10
108.5997602316
 20
-6.3138057268
 30
0.0
 11
108.5997602316
 21
-5.2473994694
 31
0.0
  0
LINE
  5
316
330
30E
100
AcDbEntity
  8
SK2
100
AcDbLine
 10
103.0435102405
 20
3.8039895915
 30
0.0
 11
103.0435102405
 21
4.870395849
 31
0.0
  0
LINE
  5
317
330
30E
100
AcDbEntity
  8
SK2
100
AcDbLine
 10
103.0435102405
 20
4.870395849
 30
0.0
 11
108.5997602316
 21
4.870395849
 31
0.0
  0
LINE
  5
318
330
30E
100
AcDbEntity
  8
SK2
100
AcDbLine
 10
108.5997602316
 20
4.870395849
 30
0.0
 11
108.5997602316
 21
3.8039895915
 31
0.0
  0
LINE
  5
319
330
30E
100
AcDbEntity
  8
SK2
100
AcDbLine
 10
86.0
 20
20.5
 30
0.0
 11
114.8363919565
 21
20.5
 31
0.0
  0
LINE
  5
31A
330
30E
100
AcDbEntity
  8
SK2
100
AcDbLine
 10
86.0
 20
-20.5
 30
0.0
 11
114.8363919565
 21
-20.5
 31
0.0
  0
LINE
  5
31B
330
30E
100
AcDbEntity
  8
SK2
100
AcDbLine
 10
113.8363919565
 20
20.5
 30
0.0
 11
113.8363919565
 21
-20.5
 31
0.0
  0
MTEXT
  5
31C
330
30E
100
AcDbEntity
  8
SK2
100
AcDbMText
 10
104.088023317
 20
-5.2473994694
 30
0.0
 40
3.5
 41
0.0
 71
     1
 72
     1
  1
1,61
  7
SLDTEXTSTYLE0
 11
-7.044195017643634E-15
 21
1.0
 31
0.0
 73
     1
 44
1.0
  0
MTEXT
  5
31D
330
30E
100
AcDbEntity
  8
SK2
100
AcDbMText
 10
109.3246548673
 20
-5.9470350645
 30
0.0
 40
3.5
 41
0.0
 71
     1
 72
     1
  1
%%c
  7
SLDTEXTSTYLE0
 11
-7.044195017643634E-15
 21
1.0
 31
0.0
 73
     1
 44
1.0
  0
MTEXT
  5
31E
330
30E
100
AcDbEntity
  8
SK2
100
AcDbMText
 10
109.3246548673
 20
-0.6685976661
 30
0.0
 40
3.5
 41
0.0
 71
     1
 72
     1
  1
41
  7
SLDTEXTSTYLE0
 11
-7.044195017643634E-15
 21
1.0
 31
0.0
 73
     1
 44
1.0
  0
ENDBLK
  5
310
330
30E
100
AcDbEntity
  8
0
100
AcDbBlockEnd
  0
BLOCK
  5
321
330
320
100
AcDbEntity
  8
0
100
AcDbBlockBegin
  2
_D_7
 70
     0
 10
0.0
 20
0.0
 30
0.0
  3
_D_7
  1

  0
SOLID
  5
323
330
320
100
AcDbEntity
  8
SK2
100
AcDbTrace
 10
126.5032767224
 20
22.5
 30
0.0
 11
125.9952767224
 21
19.198
 31
0.0
 12
127.0112767224
 22
19.198
 32
0.0
 13
127.0112767224
 23
19.198
 33
0.0
  0
SOLID
  5
324
330
320
100
AcDbEntity
  8
SK2
100
AcDbTrace
 10
126.5032767224
 20
-22.5
 30
0.0
 11
127.0112767224
 21
-19.198
 31
0.0
 12
125.9952767224
 22
-19.198
 32
0.0
 13
125.9952767224
 23
-19.198
 33
0.0
  0
LINE
  5
325
330
320
100
AcDbEntity
  8
SK2
100
AcDbLine
 10
115.7103950063
 20
-5.2473994694
 30
0.0
 11
115.7103950063
 21
-6.3138057268
 31
0.0
  0
LINE
  5
326
330
320
100
AcDbEntity
  8
SK2
100
AcDbLine
 10
115.7103950063
 20
-6.3138057268
 30
0.0
 11
121.2666449974
 21
-6.3138057268
 31
0.0
  0
LINE
  5
327
330
320
100
AcDbEntity
  8
SK2
100
AcDbLine
 10
121.2666449974
 20
-6.3138057268
 30
0.0
 11
121.2666449974
 21
-5.2473994694
 31
0.0
  0
LINE
  5
328
330
320
100
AcDbEntity
  8
SK2
100
AcDbLine
 10
115.7103950063
 20
3.8039895915
 30
0.0
 11
115.7103950063
 21
4.870395849
 31
0.0
  0
LINE
  5
329
330
320
100
AcDbEntity
  8
SK2
100
AcDbLine
 10
115.7103950063
 20
4.870395849
 30
0.0
 11
121.2666449974
 21
4.870395849
 31
0.0
  0
LINE
  5
32A
330
320
100
AcDbEntity
  8
SK2
100
AcDbLine
 10
121.2666449974
 20
4.870395849
 30
0.0
 11
121.2666449974
 21
3.8039895915
 31
0.0
  0
LINE
  5
32B
330
320
100
AcDbEntity
  8
SK2
100
AcDbLine
 10
84.0
 20
22.5
 30
0.0
 11
127.5032767224
 21
22.5
 31
0.0
  0
LINE
  5
32C
330
320
100
AcDbEntity
  8
SK2
100
AcDbLine
 10
84.0
 20
-22.5
 30
0.0
 11
127.5032767224
 21
-22.5
 31
0.0
  0
LINE
  5
32D
330
320
100
AcDbEntity
  8
SK2
100
AcDbLine
 10
126.5032767224
 20
22.5
 30
0.0
 11
126.5032767224
 21
-22.5
 31
0.0
  0
MTEXT
  5
32E
330
320
100
AcDbEntity
  8
SK2
100
AcDbMText
 10
116.7549080828
 20
-5.2473994694
 30
0.0
 40
3.5
 41
0.0
 71
     1
 72
     1
  1
1,77
  7
SLDTEXTSTYLE0
 11
-7.044195017643634E-15
 21
1.0
 31
0.0
 73
     1
 44
1.0
  0
MTEXT
  5
32F
330
320
100
AcDbEntity
  8
SK2
100
AcDbMText
 10
121.9915396332
 20
-5.9470350645
 30
0.0
 40
3.5
 41
0.0
 71
     1
 72
     1
  1
%%c
  7
SLDTEXTSTYLE0
 11
-7.044195017643634E-15
 21
1.0
 31
0.0
 73
     1
 44
1.0
  0
MTEXT
  5
330
330
320
100
AcDbEntity
  8
SK2
100
AcDbMText
 10
121.9915396332
 20
-0.6685976661
 30
0.0
 40
3.5
 41
0.0
 71
     1
 72
     1
  1
45
  7
SLDTEXTSTYLE0
 11
-7.044195017643634E-15
 21
1.0
 31
0.0
 73
     1
 44
1.0
  0
ENDBLK
  5
322
330
320
100
AcDbEntity
  8
0
100
AcDbBlockEnd
  0
BLOCK
  5
334
330
333
100
AcDbEntity
  8
0
100
AcDbBlockBegin
  2
_D_8
 70
     0
 10
0.0
 20
0.0
 30
0.0
  3
_D_8
  1

  0
SOLID
  5
336
330
333
100
AcDbEntity
  8
SK2
100
AcDbTrace
 10
-101.6
 20
-63.360395844
 30
0.0
 11
-98.298
 21
-63.868395844
 31
0.0
 12
-98.298
 22
-62.852395844
 32
0.0
 13
-98.298
 23
-62.852395844
 33
0.0
  0
SOLID
  5
337
330
333
100
AcDbEntity
  8
SK2
100
AcDbTrace
 10
85.0
 20
-63.360395844
 30
0.0
 11
81.698
 21
-62.852395844
 31
0.0
 12
81.698
 22
-63.868395844
 32
0.0
 13
81.698
 23
-63.868395844
 33
0.0
  0
LINE
  5
338
330
333
100
AcDbEntity
  8
SK2
100
AcDbLine
 10
-19.8349187198
 20
-52.5675141279
 30
0.0
 11
-20.9013249773
 21
-52.5675141279
 31
0.0
  0
LINE
  5
339
330
333
100
AcDbEntity
  8
SK2
100
AcDbLine
 10
-20.9013249773
 20
-52.5675141279
 30
0.0
 11
-20.9013249773
 21
-58.123764119
 31
0.0
  0
LINE
  5
33A
330
333
100
AcDbEntity
  8
SK2
100
AcDbLine
 10
-20.9013249773
 20
-58.123764119
 30
0.0
 11
-19.8349187198
 21
-58.123764119
 31
0.0
  0
LINE
  5
33B
330
333
100
AcDbEntity
  8
SK2
100
AcDbLine
 10
-8.1974182326
 20
-52.5675141279
 30
0.0
 11
-7.1310119751
 21
-52.5675141279
 31
0.0
  0
LINE
  5
33C
330
333
100
AcDbEntity
  8
SK2
100
AcDbLine
 10
-7.1310119751
 20
-52.5675141279
 30
0.0
 11
-7.1310119751
 21
-58.123764119
 31
0.0
  0
LINE
  5
33D
330
333
100
AcDbEntity
  8
SK2
100
AcDbLine
 10
-7.1310119751
 20
-58.123764119
 30
0.0
 11
-8.1974182326
 21
-58.123764119
 31
0.0
  0
LINE
  5
33E
330
333
100
AcDbEntity
  8
SK2
100
AcDbLine
 10
-101.6
 20
-19.2922326599
 30
0.0
 11
-101.6
 21
-64.360395844
 31
0.0
  0
LINE
  5
33F
330
333
100
AcDbEntity
  8
SK2
100
AcDbLine
 10
85.0
 20
-21.5
 30
0.0
 11
85.0
 21
-64.360395844
 31
0.0
  0
LINE
  5
340
330
333
100
AcDbEntity
  8
SK2
100
AcDbLine
 10
-101.6
 20
-63.360395844
 30
0.0
 11
85.0
 21
-63.360395844
 31
0.0
  0
MTEXT
  5
341
330
333
100
AcDbEntity
  8
SK2
100
AcDbMText
 10
-21.9482868315
 20
-58.7951865781
 30
0.0
 40
3.5
 41
0.0
 71
     1
 72
     1
  1

  7
SLDTEXTSTYLE0
 73
     1
 44
1.0
  0
MTEXT
  5
342
330
333
100
AcDbEntity
  8
SK2
100
AcDbMText
 10
-19.8349187198
 20
-53.6120272044
 30
0.0
 40
3.5
 41
0.0
 71
     1
 72
     1
  1
7,346
  7
SLDTEXTSTYLE0
 73
     1
 44
1.0
  0
MTEXT
  5
343
330
333
100
AcDbEntity
  8
SK2
100
AcDbMText
 10
-19.8349191855
 20
-58.8486587548
 30
0.0
 40
3.5
 41
0.0
 71
     1
 72
     1
  1
186,6
  7
SLDTEXTSTYLE0
 73
     1
 44
1.0
  0
MTEXT
  5
344
330
333
100
AcDbEntity
  8
SK2
100
AcDbMText
 10
-4.7521065326
 20
-58.7951865781
 30
0.0
 40
3.5
 41
0.0
 71
     1
 72
     1
  1

  7
SLDTEXTSTYLE0
 73
     1
 44
1.0
  0
ENDBLK
  5
335
330
333
100
AcDbEntity
  8
0
100
AcDbBlockEnd
  0
BLOCK
  5
347
330
346
100
AcDbEntity
  8
0
100
AcDbBlockBegin
  2
_D_9
 70
     0
 10
0.0
 20
0.0
 30
0.0
  3
_D_9
  1

  0
SOLID
  5
349
330
346
100
AcDbEntity
  8
SK2
100
AcDbTrace
 10
30.5
 20
-46.7687275284
 30
0.0
 11
33.802
 21
-47.2767275284
 31
0.0
 12
33.802
 22
-46.2607275284
 32
0.0
 13
33.802
 23
-46.2607275284
 33
0.0
  0
SOLID
  5
34A
330
346
100
AcDbEntity
  8
SK2
100
AcDbTrace
 10
85.0
 20
-46.7687275284
 30
0.0
 11
81.698
 21
-46.2607275284
 31
0.0
 12
81.698
 22
-47.2767275284
 32
0.0
 13
81.698
 23
-47.2767275284
 33
0.0
  0
LINE
  5
34B
330
346
100
AcDbEntity
  8
SK2
100
AcDbLine
 10
53.3428159889
 20
-35.9758458124
 30
0.0
 11
52.2764097315
 21
-35.9758458124
 31
0.0
  0
LINE
  5
34C
330
346
100
AcDbEntity
  8
SK2
100
AcDbLine
 10
52.2764097315
 20
-35.9758458124
 30
0.0
 11
52.2764097315
 21
-41.5320958034
 31
0.0
  0
LINE
  5
34D
330
346
100
AcDbEntity
  8
SK2
100
AcDbLine
 10
52.2764097315
 20
-41.5320958034
 30
0.0
 11
53.3428159889
 21
-41.5320958034
 31
0.0
  0
LINE
  5
34E
330
346
100
AcDbEntity
  8
SK2
100
AcDbLine
 10
62.3942050499
 20
-35.9758458124
 30
0.0
 11
63.4606113073
 21
-35.9758458124
 31
0.0
  0
LINE
  5
34F
330
346
100
AcDbEntity
  8
SK2
100
AcDbLine
 10
63.4606113073
 20
-35.9758458124
 30
0.0
 11
63.4606113073
 21
-41.5320958034
 31
0.0
  0
LINE
  5
350
330
346
100
AcDbEntity
  8
SK2
100
AcDbLine
 10
63.4606113073
 20
-41.5320958034
 30
0.0
 11
62.3942050499
 21
-41.5320958034
 31
0.0
  0
LINE
  5
351
330
346
100
AcDbEntity
  8
SK2
100
AcDbLine
 10
30.5
 20
-13.75
 30
0.0
 11
30.5
 21
-47.7687275284
 31
0.0
  0
LINE
  5
352
330
346
100
AcDbEntity
  8
SK2
100
AcDbLine
 10
85.0
 20
-21.5
 30
0.0
 11
85.0
 21
-47.7687275284
 31
0.0
  0
LINE
  5
353
330
346
100
AcDbEntity
  8
SK2
100
AcDbLine
 10
30.5
 20
-46.7687275284
 30
0.0
 11
85.0
 21
-46.7687275284
 31
0.0
  0
MTEXT
  5
354
330
346
100
AcDbEntity
  8
SK2
100
AcDbMText
 10
51.2294478773
 20
-42.2035182626
 30
0.0
 40
3.5
 41
0.0
 71
     1
 72
     1
  1

  7
SLDTEXTSTYLE0
 73
     1
 44
1.0
  0
MTEXT
  5
355
330
346
100
AcDbEntity
  8
SK2
100
AcDbMText
 10
53.3428159889
 20
-37.0203588889
 30
0.0
 40
3.5
 41
0.0
 71
     1
 72
     1
  1
2,15
  7
SLDTEXTSTYLE0
 73
     1
 44
1.0
  0
MTEXT
  5
356
330
346
100
AcDbEntity
  8
SK2
100
AcDbMText
 10
53.3428159889
 20
-42.2569904392
 30
0.0
 40
3.5
 41
0.0
 71
     1
 72
     1
  1
54,5
  7
SLDTEXTSTYLE0
 73
     1
 44
1.0
  0
MTEXT
  5
357
330
346
100
AcDbEntity
  8
SK2
100
AcDbMText
 10
65.8395176812
 20
-42.2035182626
 30
0.0
 40
3.5
 41
0.0
 71
     1
 72
     1
  1

  7
SLDTEXTSTYLE0
 73
     1
 44
1.0
  0
ENDBLK
  5
348
330
346
100
AcDbEntity
  8
0
100
AcDbBlockEnd
  0
BLOCK
  5
35B
330
35A
100
AcDbEntity
  8
0
100
AcDbBlockBegin
  2
_D_10
 70
     0
 10
0.0
 20
0.0
 30
0.0
  3
_D_10
  1

  0
SOLID
  5
35D
330
35A
100
AcDbEntity
  8
SK2
100
AcDbTrace
 10
83.0
 20
-35.2267687779
 30
0.0
 11
79.698
 21
-34.7187687779
 31
0.0
 12
79.698
 22
-35.7347687779
 32
0.0
 13
79.698
 23
-35.7347687779
 33
0.0
  0
SOLID
  5
35E
330
35A
100
AcDbEntity
  8
SK2
100
AcDbTrace
 10
85.0
 20
-35.2267687779
 30
0.0
 11
88.302
 21
-35.7347687779
 31
0.0
 12
88.302
 22
-34.7187687779
 32
0.0
 13
88.302
 23
-34.7187687779
 33
0.0
  0
LINE
  5
35F
330
35A
100
AcDbEntity
  8
SK2
100
AcDbLine
 10
83.0
 20
-23.5
 30
0.0
 11
83.0
 21
-36.2267687779
 31
0.0
  0
LINE
  5
360
330
35A
100
AcDbEntity
  8
SK2
100
AcDbLine
 10
85.0
 20
-21.5
 30
0.0
 11
85.0
 21
-36.2267687779
 31
0.0
  0
LINE
  5
361
330
35A
100
AcDbEntity
  8
SK2
100
AcDbLine
 10
83.0
 20
-35.2267687779
 30
0.0
 11
75.0470800945
 21
-35.2267687779
 31
0.0
  0
LINE
  5
362
330
35A
100
AcDbEntity
  8
SK2
100
AcDbLine
 10
83.0
 20
-35.2267687779
 30
0.0
 11
85.0
 21
-35.2267687779
 31
0.0
  0
LINE
  5
363
330
35A
100
AcDbEntity
  8
SK2
100
AcDbLine
 10
85.0
 20
-35.2267687779
 30
0.0
 11
91.35
 21
-35.2267687779
 31
0.0
  0
MTEXT
  5
364
330
35A
100
AcDbEntity
  8
SK2
100
AcDbMText
 10
75.0470800945
 20
-30.7150318634
 30
0.0
 40
3.5
 41
0.0
 71
     1
 72
     1
  1
2
  7
SLDTEXTSTYLE0
 73
     1
 44
1.0
  0
ENDBLK
  5
35C
330
35A
100
AcDbEntity
  8
0
100
AcDbBlockEnd
  0
BLOCK
  5
367
330
366
100
AcDbEntity
  8
0
100
AcDbBlockBegin
  2
_D_11
 70
     0
 10
0.0
 20
0.0
 30
0.0
  3
_D_11
  1

  0
SOLID
  5
369
330
366
100
AcDbEntity
  8
SK2
100
AcDbTrace
 10
-119.8229704266
 20
47.2968145978
 30
0.0
 11
-120.3309704266
 21
43.9948145978
 31
0.0
 12
-119.3149704266
 22
43.9948145978
 32
0.0
 13
-119.3149704266
 23
43.9948145978
 33
0.0
  0
SOLID
  5
36A
330
366
100
AcDbEntity
  8
SK2
100
AcDbTrace
 10
-119.8229704266
 20
-47.4754841997
 30
0.0
 11
-119.3149704266
 21
-44.1734841997
 31
0.0
 12
-120.3309704266
 22
-44.1734841997
 32
0.0
 13
-120.3309704266
 23
-44.1734841997
 33
0.0
  0
LINE
  5
36B
330
366
100
AcDbEntity
  8
SK2
100
AcDbLine
 10
4.7701383033
 20
47.2968145978
 30
0.0
 11
-120.8229704266
 21
47.2968145978
 31
0.0
  0
LINE
  5
36C
330
366
100
AcDbEntity
  8
SK2
100
AcDbLine
 10
2.95
 20
-47.4754841997
 30
0.0
 11
-120.8229704266
 21
-47.4754841997
 31
0.0
  0
LINE
  5
36D
330
366
100
AcDbEntity
  8
SK2
100
AcDbLine
 10
-119.8229704266
 20
47.2968145978
 30
0.0
 11
-119.8229704266
 21
-47.4754841997
 31
0.0
  0
MTEXT
  5
36E
330
366
100
AcDbEntity
  8
SK2
100
AcDbMText
 10
-124.3347075158
 20
-9.1796738817
 30
0.0
 40
3.5
 41
0.0
 71
     1
 72
     1
  1
%%c
  7
SLDTEXTSTYLE0
 11
-7.044195017643634E-15
 21
1.0
 31
0.0
 73
     1
 44
1.0
  0
MTEXT
  5
36F
330
366
100
AcDbEntity
  8
SK2
100
AcDbMText
 10
-124.3881796925
 20
-3.9012364834
 30
0.0
 40
3.5
 41
0.0
 71
     1
 72
     1
  1
98,42
  7
SLDTEXTSTYLE0
 11
-7.044195017643634E-15
 21
1.0
 31
0.0
 73
     1
 44
1.0
  0
ENDBLK
  5
368
330
366
100
AcDbEntity
  8
0
100
AcDbBlockEnd
  0
BLOCK
  5
372
330
371
100
AcDbEntity
  8
0
100
AcDbBlockBegin
  2
_D_12
 70
     0
 10
0.0
 20
0.0
 30
0.0
  3
_D_12
  1

  0
SOLID
  5
374
330
371
100
AcDbEntity
  8
SK2
100
AcDbTrace
 10
-109.8144128505
 20
-12.6999998465
 30
0.0
 11
-109.3064128505
 21
-9.3979998465
 31
0.0
 12
-110.3224128505
 22
-9.3979998465
 32
0.0
 13
-110.3224128505
 23
-9.3979998465
 33
0.0
  0
SOLID
  5
375
330
371
100
AcDbEntity
  8
SK2
100
AcDbTrace
 10
-109.8144128505
 20
12.6999998465
 30
0.0
 11
-110.3224128505
 21
9.3979998465
 31
0.0
 12
-109.3064128505
 22
9.3979998465
 32
0.0
 13
-109.3064128505
 23
9.3979998465
 33
0.0
  0
LINE
  5
376
330
371
100
AcDbEntity
  8
SK2
100
AcDbLine
 10
-95.967097044
 20
-12.6999998465
 30
0.0
 11
-110.8144128505
 21
-12.6999998465
 31
0.0
  0
LINE
  5
377
330
371
100
AcDbEntity
  8
SK2
100
AcDbLine
 10
-95.967097044
 20
12.6999998465
 30
0.0
 11
-110.8144128505
 21
12.6999998465
 31
0.0
  0
LINE
  5
378
330
371
100
AcDbEntity
  8
SK2
100
AcDbLine
 10
-109.8144128505
 20
-12.6999998465
 30
0.0
 11
-109.8144128505
 21
12.6999998465
 31
0.0
  0
MTEXT
  5
37A
330
371
100
AcDbEntity
  8
SK2
100
AcDbMText
 10
-114.326149765
 20
-11.1730944156
 30
0.0
 40
3.5
 41
0.0
 71
     1
 72
     1
  1
1 - 8 UNC
  7
SLDTEXTSTYLE1
 11
6.123233995736766E-17
 21
1.0
 31
0.0
 73
     1
 44
1.0
  0
ENDBLK
  5
373
330
371
100
AcDbEntity
  8
0
100
AcDbBlockEnd
  0
ENDSEC
  0
SECTION
  2
ENTITIES
  0
LINE
  5
82
330
1F
100
AcDbEntity
  8
1
  6
SLD-Solid
370
    25
100
AcDbLine
 10
1.7476022729
 20
34.925
 30
0.0
 11
0.0
 21
34.925
 31
0.0
  0
LINE
  5
83
330
1F
100
AcDbEntity
  8
1
  6
SLD-Solid
370
    25
100
AcDbLine
 10
0.0
 20
-34.925
 30
0.0
 11
1.7476022729
 21
-34.925
 31
0.0
  0
LINE
  5
84
330
1F
100
AcDbEntity
  8
1
  6
SLD-Solid
370
    25
100
AcDbLine
 10
1.7476022729
 20
-34.925
 30
0.0
 11
2.1330363037
 21
-34.7452691597
 31
0.0
  0
LINE
  5
85
330
1F
100
AcDbEntity
  8
1
  6
SLD-Solid
370
    25
100
AcDbLine
 10
2.1330363037
 20
34.7452691597
 30
0.0
 11
1.7476022729
 21
34.925
 31
0.0
  0
LINE
  5
86
330
1F
100
AcDbEntity
  8
SK1
  6
SLD-Solid
370
    25
100
AcDbLine
 10
0.0
 20
34.925
 30
0.0
 11
-99.8030472773
 21
20.3702515116
 31
0.0
  0
LINE
  5
87
330
1F
100
AcDbEntity
  8
SK1
  6
SLD-Solid
370
    25
100
AcDbLine
 10
-99.8030472773
 20
-20.3702515116
 30
0.0
 11
0.0
 21
-34.925
 31
0.0
  0
LINE
  5
88
330
1F
100
AcDbEntity
  8
1
  6
SLD-Solid
370
    25
100
AcDbLine
 10
35.4110403762
 20
22.5
 30
0.0
 11
22.098
 21
22.5
 31
0.0
  0
LINE
  5
89
330
1F
100
AcDbEntity
  8
1
  6
SLD-Solid
370
    25
100
AcDbLine
 10
59.8110403762
 20
22.5
 30
0.0
 11
52.1750968121
 21
22.5
 31
0.0
  0
LINE
  5
8A
330
1F
100
AcDbEntity
  8
1
  6
SLD-Solid
370
    25
100
AcDbLine
 10
83.0
 20
22.5
 30
0.0
 11
76.5750968121
 21
22.5
 31
0.0
  0
LINE
  5
8B
330
1F
100
AcDbEntity
  8
1
  6
SLD-Solid
370
    25
100
AcDbLine
 10
77.2605850642
 20
-22.5
 30
0.0
 11
83.0
 21
-22.5
 31
0.0
  0
LINE
  5
8C
330
1F
100
AcDbEntity
  8
1
  6
SLD-Solid
370
    25
100
AcDbLine
 10
52.8499690396
 20
-22.5
 30
0.0
 11
59.1500309604
 21
-22.5
 31
0.0
  0
LINE
  5
8D
330
1F
100
AcDbEntity
  8
1
  6
SLD-Solid
370
    25
100
AcDbLine
 10
22.098
 20
-22.5
 30
0.0
 11
34.7394149358
 21
-22.5
 31
0.0
  0
LINE
  5
8E
330
1F
100
AcDbEntity
  8
1
  6
SLD-Solid
370
    25
100
AcDbLine
 10
83.0
 20
-22.5
 30
0.0
 11
85.0
 21
-20.5
 31
0.0
  0
LINE
  5
8F
330
1F
100
AcDbEntity
  8
1
  6
SLD-Solid
370
    25
100
AcDbLine
 10
85.0
 20
20.5
 30
0.0
 11
83.0
 21
22.5
 31
0.0
  0
LINE
  5
90
330
1F
100
AcDbEntity
  8
1
  6
SLD-Solid
370
    25
100
AcDbLine
 10
3.95
 20
-47.4754841997
 30
0.0
 11
7.5902766066
 21
-47.4754841997
 31
0.0
  0
LINE
  5
91
330
1F
100
AcDbEntity
  8
1
  6
SLD-Solid
370
    25
100
AcDbLine
 10
3.95
 20
47.2968145978
 30
0.0
 11
3.95
 21
-47.4754841997
 31
0.0
  0
LINE
  5
92
330
1F
100
AcDbEntity
  8
1
  6
SLD-Solid
370
    25
100
AcDbLine
 10
7.5902766066
 20
47.2968145978
 30
0.0
 11
3.95
 21
47.2968145978
 31
0.0
  0
LINE
  5
93
330
1F
100
AcDbEntity
  8
1
  6
SLD-Solid
370
    25
100
AcDbLine
 10
7.5902766066
 20
47.2968145978
 30
0.0
 11
7.5902766066
 21
-47.4754841997
 31
0.0
  0
LINE
  5
94
330
1F
100
AcDbEntity
  8
1
  6
SLD-Solid
370
    25
100
AcDbLine
 10
18.3
 20
-47.4754841997
 30
0.0
 11
18.3
 21
47.2968145978
 31
0.0
  0
LINE
  5
95
330
1F
100
AcDbEntity
  8
1
  6
SLD-Solid
370
    25
100
AcDbLine
 10
19.05
 20
46.5560855313
 30
0.0
 11
19.05
 21
-46.6976348437
 31
0.0
  0
LINE
  5
96
330
1F
100
AcDbEntity
  8
1
  6
SLD-Solid
370
    25
100
AcDbLine
 10
14.6397233934
 20
-47.4754841997
 30
0.0
 11
18.3
 21
-47.4754841997
 31
0.0
  0
LINE
  5
97
330
1F
100
AcDbEntity
  8
1
  6
SLD-Solid
370
    25
100
AcDbLine
 10
14.6397233934
 20
47.2968145978
 30
0.0
 11
14.6397233934
 21
-47.4754841997
 31
0.0
  0
LINE
  5
98
330
1F
100
AcDbEntity
  8
1
  6
SLD-Solid
370
    25
100
AcDbLine
 10
18.3
 20
47.2968145978
 30
0.0
 11
14.6397233934
 21
47.2968145978
 31
0.0
  0
LINE
  5
99
330
1F
100
AcDbEntity
  8
1
  6
SLD-Solid
370
    25
100
AcDbLine
 10
3.2
 20
-46.6976348437
 30
0.0
 11
3.2
 21
46.5560855313
 31
0.0
  0
LINE
  5
9A
330
1F
100
AcDbEntity
  8
1
  6
SLD-Solid
370
    25
100
AcDbLine
 10
13.03
 20
44.5790106634
 30
0.0
 11
13.03
 21
41.9871173317
 31
0.0
  0
LINE
  5
9B
330
1F
100
AcDbEntity
  8
1
  6
SLD-Solid
370
    25
100
AcDbLine
 10
13.03
 20
34.6324292339
 30
0.0
 11
13.03
 21
-44.5790106634
 31
0.0
  0
LINE
  5
9C
330
1F
100
AcDbEntity
  8
1
  6
SLD-Solid
370
    25
100
AcDbLine
 10
13.03
 20
41.453113616
 30
0.0
 11
13.03
 21
35.4316103884
 31
0.0
  0
LINE
  5
9D
330
1F
100
AcDbEntity
  8
1
  6
SLD-Solid
370
    25
100
AcDbLine
 10
9.2
 20
44.5790106634
 30
0.0
 11
9.2
 21
41.9587011964
 31
0.0
  0
LINE
  5
9E
330
1F
100
AcDbEntity
  8
1
  6
SLD-Solid
370
    25
100
AcDbLine
 10
9.2
 20
41.4830129515
 30
0.0
 11
9.2
 21
35.3885961177
 31
0.0
  0
LINE
  5
9F
330
1F
100
AcDbEntity
  8
1
  6
SLD-Solid
370
    25
100
AcDbLine
 10
9.2
 20
34.676688935
 30
0.0
 11
9.2
 21
-44.5790106634
 31
0.0
  0
LINE
  5
A0
330
1F
100
AcDbEntity
  8
1
  6
SLD-Solid
370
    25
100
AcDbLine
 10
12.28
 20
33.3554707167
 30
0.0
 11
12.28
 21
-43.7694359685
 31
0.0
  0
LINE
  5
A1
330
1F
100
AcDbEntity
  8
1
  6
SLD-Solid
370
    25
100
AcDbLine
 10
9.95
 20
33.3652595305
 30
0.0
 11
9.95
 21
-43.7694359685
 31
0.0
  0
LINE
  5
A2
330
1F
100
AcDbEntity
  8
1
  6
SLD-Solid
370
    25
100
AcDbLine
 10
9.95
 20
-43.7694359685
 30
0.0
 11
12.28
 21
-43.7694359685
 31
0.0
  0
LINE
  5
A3
330
1F
100
AcDbEntity
  8
1
  6
SLD-Solid
370
    25
100
AcDbLine
 10
0.0
 20
34.925
 30
0.0
 11
0.0
 21
-34.925
 31
0.0
  0
LINE
  5
A4
330
1F
100
AcDbEntity
  8
1
  6
SLD-Solid
370
    25
100
AcDbLine
 10
1.7476022729
 20
34.925
 30
0.0
 11
1.7476022729
 21
-34.925
 31
0.0
  0
LINE
  5
A5
330
1F
100
AcDbEntity
  8
1
  6
SLD-Solid
370
    25
100
AcDbLine
 10
9.2
 20
35.3885961177
 30
0.0
 11
9.2
 21
35.3683101781
 31
0.0
  0
LINE
  5
A6
330
1F
100
AcDbEntity
  8
1
  6
SLD-Solid
370
    25
100
AcDbLine
 10
13.03
 20
35.4113240881
 30
0.0
 11
13.03
 21
35.4316103884
 31
0.0
  0
LINE
  5
A7
330
1F
100
AcDbEntity
  8
1
  6
SLD-Solid
370
    25
100
AcDbLine
 10
9.95
 20
40.2901760725
 30
0.0
 11
9.95
 21
35.4888548114
 31
0.0
  0
LINE
  5
A8
330
1F
100
AcDbEntity
  8
1
  6
SLD-Solid
370
    25
100
AcDbLine
 10
12.28
 20
40.2834337913
 30
0.0
 11
12.28
 21
35.4978726362
 31
0.0
  0
LINE
  5
A9
330
1F
100
AcDbEntity
  8
1
  6
SLD-Solid
370
    25
100
AcDbLine
 10
83.0
 20
22.5
 30
0.0
 11
83.0
 21
-22.5
 31
0.0
  0
LINE
  5
AA
330
1F
100
AcDbEntity
  8
1
  6
SLD-Solid
370
    25
100
AcDbLine
 10
85.0
 20
20.5
 30
0.0
 11
85.0
 21
-20.5
 31
0.0
  0
LINE
  5
AB
330
1F
100
AcDbEntity
  8
1
  6
SLD-Solid
370
    25
100
AcDbLine
 10
9.2
 20
41.9587011964
 30
0.0
 11
9.2
 21
41.9345423912
 31
0.0
  0
LINE
  5
AC
330
1F
100
AcDbEntity
  8
1
  6
SLD-Solid
370
    25
100
AcDbLine
 10
13.03
 20
41.9629580968
 30
0.0
 11
13.03
 21
41.9871173317
 31
0.0
  0
LINE
  5
AD
330
1F
100
AcDbEntity
  8
SK1
  6
SLD-Solid
370
    25
100
AcDbLine
 10
-101.6
 20
-18.2922326599
 30
0.0
 11
-101.6
 21
18.2922326599
 31
0.0
  0
LINE
  5
AE
330
1F
100
AcDbEntity
  8
1
  6
SLD-Solid
370
    25
100
AcDbLine
 10
9.95
 20
43.7694359685
 30
0.0
 11
9.95
 21
41.7091381742
 31
0.0
  0
LINE
  5
AF
330
1F
100
AcDbEntity
  8
1
  6
SLD-Solid
370
    25
100
AcDbLine
 10
12.28
 20
43.7694359685
 30
0.0
 11
12.28
 21
41.714962274
 31
0.0
  0
LINE
  5
B0
330
1F
100
AcDbEntity
  8
1
  6
SLD-Solid
370
    25
100
AcDbLine
 10
9.95
 20
43.7694359685
 30
0.0
 11
12.28
 21
43.7694359685
 31
0.0
  0
LINE
  5
B1
330
1F
100
AcDbEntity
  8
1
  6
SLD-Solid
370
    25
100
AcDbLine
 10
2.1330363037
 20
34.7452691597
 30
0.0
 11
2.1330363037
 21
-34.7452691597
 31
0.0
  0
LINE
  5
B2
330
1F
100
AcDbEntity
  8
SK1
  6
SLD-Solid
370
    25
100
AcDbLine
 10
-99.8030472773
 20
0.0
 30
0.0
 11
-99.8030472773
 21
-20.3702515116
 31
0.0
  0
LINE
  5
B3
330
1F
100
AcDbEntity
  8
SK1
  6
SLD-Solid
370
    25
100
AcDbLine
 10
-99.8030472773
 20
20.3702515116
 30
0.0
 11
-99.8030472773
 21
0.0
 31
0.0
  0
LINE
  5
B4
330
1F
100
AcDbEntity
  8
1
  6
SLD-Solid
370
    25
100
AcDbLine
 10
22.098
 20
0.0
 30
0.0
 11
22.098
 21
-22.5
 31
0.0
  0
LINE
  5
B5
330
1F
100
AcDbEntity
  8
1
  6
SLD-Solid
370
    25
100
AcDbLine
 10
22.098
 20
22.5
 30
0.0
 11
22.098
 21
0.0
 31
0.0
  0
LINE
  5
B6
330
1F
100
AcDbEntity
  8
SK3
  6
SLD-Dashed
370
    18
100
AcDbLine
 10
6.4723069743
 20
-13.9015950424
 30
0.0
 11
6.3142161927
 21
-13.2694985628
 31
0.0
  0
LINE
  5
B7
330
1F
100
AcDbEntity
  8
SK3
  6
SLD-Dashed
370
    18
100
AcDbLine
 10
6.3142161927
 20
-13.2694985628
 30
0.0
 11
6.0693777048
 21
-12.6771190298
 31
0.0
  0
LINE
  5
B8
330
1F
100
AcDbEntity
  8
SK3
  6
SLD-Dashed
370
    18
100
AcDbLine
 10
6.0693777048
 20
-12.6771190298
 30
0.0
 11
5.7531756131
 21
-12.1616778279
 31
0.0
  0
LINE
  5
B9
330
1F
100
AcDbEntity
  8
SK3
  6
SLD-Dashed
370
    18
100
AcDbLine
 10
5.7531756131
 20
-12.1616778279
 30
0.0
 11
5.3854780579
 21
-11.7555620236
 31
0.0
  0
LINE
  5
BA
330
1F
100
AcDbEntity
  8
SK3
  6
SLD-Dashed
370
    18
100
AcDbLine
 10
5.3854780579
 20
-11.7555620236
 30
0.0
 11
4.989388829
 21
-11.4842893664
 31
0.0
  0
LINE
  5
BB
330
1F
100
AcDbEntity
  8
SK3
  6
SLD-Dashed
370
    18
100
AcDbLine
 10
4.989388829
 20
-11.4842893664
 30
0.0
 11
4.5897956693
 21
-11.364904915
 31
0.0
  0
LINE
  5
BC
330
1F
100
AcDbEntity
  8
SK3
  6
SLD-Dashed
370
    18
100
AcDbLine
 10
4.5897956693
 20
-11.364904915
 30
0.0
 11
4.2118064866
 21
-11.4049100337
 31
0.0
  0
LINE
  5
BD
330
1F
100
AcDbEntity
  8
SK3
  6
SLD-Dashed
370
    18
100
AcDbLine
 10
4.2118064866
 20
-11.4049100337
 30
0.0
 11
3.8791717315
 21
-11.6017910536
 31
0.0
  0
LINE
  5
BE
330
1F
100
AcDbEntity
  8
SK3
  6
SLD-Dashed
370
    18
100
AcDbLine
 10
3.8791717315
 20
-11.6017910536
 30
0.0
 11
3.6127920689
 21
-11.9431772162
 31
0.0
  0
LINE
  5
BF
330
1F
100
AcDbEntity
  8
SK3
  6
SLD-Dashed
370
    18
100
AcDbLine
 10
3.6127920689
 20
-11.9431772162
 30
0.0
 11
3.4294051127
 21
-12.4076179734
 31
0.0
  0
LINE
  5
C0
330
1F
100
AcDbEntity
  8
SK3
  6
SLD-Dashed
370
    18
100
AcDbLine
 10
3.4294051127
 20
-12.4076179734
 30
0.0
 11
3.3405337399
 21
-12.9659308043
 31
0.0
  0
LINE
  5
C1
330
1F
100
AcDbEntity
  8
SK3
  6
SLD-Dashed
370
    18
100
AcDbLine
 10
3.3405337399
 20
-12.9659308043
 30
0.0
 11
3.3517620655
 21
-13.5830348604
 31
0.0
  0
LINE
  5
C2
330
1F
100
AcDbEntity
  8
SK3
  6
SLD-Dashed
370
    18
100
AcDbLine
 10
3.3517620655
 20
-13.5830348604
 30
0.0
 11
3.4623845728
 21
-14.2201552244
 31
0.0
  0
LINE
  5
C3
330
1F
100
AcDbEntity
  8
SK3
  6
SLD-Dashed
370
    18
100
AcDbLine
 10
3.4623845728
 20
-14.2201552244
 30
0.0
 11
3.6654504425
 21
-14.8372592805
 31
0.0
  0
LINE
  5
C4
330
1F
100
AcDbEntity
  8
SK3
  6
SLD-Dashed
370
    18
100
AcDbLine
 10
3.6654504425
 20
-14.8372592805
 30
0.0
 11
3.9482002994
 21
-15.3955721114
 31
0.0
  0
LINE
  5
C5
330
1F
100
AcDbEntity
  8
SK3
  6
SLD-Dashed
370
    18
100
AcDbLine
 10
3.9482002994
 20
-15.3955721114
 30
0.0
 11
4.2928679301
 21
-15.8600128686
 31
0.0
  0
LINE
  5
C6
330
1F
100
AcDbEntity
  8
SK3
  6
SLD-Dashed
370
    18
100
AcDbLine
 10
4.2928679301
 20
-15.8600128686
 30
0.0
 11
4.6777965997
 21
-16.2013990312
 31
0.0
  0
LINE
  5
C7
330
1F
100
AcDbEntity
  8
SK3
  6
SLD-Dashed
370
    18
100
AcDbLine
 10
4.6777965997
 20
-16.2013990312
 30
0.0
 11
5.0787998242
 21
-16.3982800511
 31
0.0
  0
LINE
  5
C8
330
1F
100
AcDbEntity
  8
SK3
  6
SLD-Dashed
370
    18
100
AcDbLine
 10
5.0787998242
 20
-16.3982800511
 30
0.0
 11
5.4706810962
 21
-16.4382851698
 31
0.0
  0
LINE
  5
C9
330
1F
100
AcDbEntity
  8
SK3
  6
SLD-Dashed
370
    18
100
AcDbLine
 10
5.4706810962
 20
-16.4382851698
 30
0.0
 11
5.8288170743
 21
-16.3189007184
 31
0.0
  0
LINE
  5
CA
330
1F
100
AcDbEntity
  8
SK3
  6
SLD-Dashed
370
    18
100
AcDbLine
 10
5.8288170743
 20
-16.3189007184
 30
0.0
 11
6.1307047577
 21
-16.0476280612
 31
0.0
  0
LINE
  5
CB
330
1F
100
AcDbEntity
  8
SK3
  6
SLD-Dashed
370
    18
100
AcDbLine
 10
6.1307047577
 20
-16.0476280612
 30
0.0
 11
6.3573754331
 21
-15.6415122569
 31
0.0
  0
LINE
  5
CC
330
1F
100
AcDbEntity
  8
SK3
  6
SLD-Dashed
370
    18
100
AcDbLine
 10
6.3573754331
 20
-15.6415122569
 30
0.0
 11
6.4945865482
 21
-15.126071055
 31
0.0
  0
LINE
  5
CD
330
1F
100
AcDbEntity
  8
SK3
  6
SLD-Dashed
370
    18
100
AcDbLine
 10
6.4945865482
 20
-15.126071055
 30
0.0
 11
6.5337166241
 21
-14.533691522
 31
0.0
  0
LINE
  5
CE
330
1F
100
AcDbEntity
  8
SK3
  6
SLD-Dashed
370
    18
100
AcDbLine
 10
6.5337166241
 20
-14.533691522
 30
0.0
 11
6.4723069743
 21
-13.9015950424
 31
0.0
  0
LINE
  5
CF
330
1F
100
AcDbEntity
  8
SK3
  6
SLD-Dashed
370
    18
100
AcDbLine
 10
6.4545594773
 20
-13.8826166832
 30
0.0
 11
6.5127856003
 21
-14.5025060877
 31
0.0
  0
LINE
  5
D0
330
1F
100
AcDbEntity
  8
SK3
  6
SLD-Dashed
370
    18
100
AcDbLine
 10
6.5127856003
 20
-14.5025060877
 30
0.0
 11
6.4682345259
 21
-15.0801510537
 31
0.0
  0
LINE
  5
D1
330
1F
100
AcDbEntity
  8
SK3
  6
SLD-Dashed
370
    18
100
AcDbLine
 10
6.4682345259
 20
-15.0801510537
 30
0.0
 11
6.3239423361
 21
-15.5761860314
 31
0.0
  0
LINE
  5
D2
330
1F
100
AcDbEntity
  8
SK3
  6
SLD-Dashed
370
    18
100
AcDbLine
 10
6.3239423361
 20
-15.5761860314
 30
0.0
 11
6.0897423053
 21
-15.9568070568
 31
0.0
  0
LINE
  5
D3
330
1F
100
AcDbEntity
  8
SK3
  6
SLD-Dashed
370
    18
100
AcDbLine
 10
6.0897423053
 20
-15.9568070568
 30
0.0
 11
5.7815947785
 21
-16.1960754359
 31
0.0
  0
LINE
  5
D4
330
1F
100
AcDbEntity
  8
SK3
  6
SLD-Dashed
370
    18
100
AcDbLine
 10
5.7815947785
 20
-16.1960754359
 30
0.0
 11
5.4204995004
 21
-16.2776854242
 31
0.0
  0
LINE
  5
D5
330
1F
100
AcDbEntity
  8
SK3
  6
SLD-Dashed
370
    18
100
AcDbLine
 10
5.4204995004
 20
-16.2776854242
 30
0.0
 11
5.0310645175
 21
-16.1960754359
 31
0.0
  0
LINE
  5
D6
330
1F
100
AcDbEntity
  8
SK3
  6
SLD-Dashed
370
    18
100
AcDbLine
 10
5.0310645175
 20
-16.1960754359
 30
0.0
 11
4.6398291803
 21
-15.9568070568
 31
0.0
  0
LINE
  5
D7
330
1F
100
AcDbEntity
  8
SK3
  6
SLD-Dashed
370
    18
100
AcDbLine
 10
4.6398291803
 20
-15.9568070568
 30
0.0
 11
4.2734555305
 21
-15.5761860314
 31
0.0
  0
LINE
  5
D8
330
1F
100
AcDbEntity
  8
SK3
  6
SLD-Dashed
370
    18
100
AcDbLine
 10
4.2734555305
 20
-15.5761860314
 30
0.0
 11
3.9569113269
 21
-15.0801510537
 31
0.0
  0
LINE
  5
D9
330
1F
100
AcDbEntity
  8
SK3
  6
SLD-Dashed
370
    18
100
AcDbLine
 10
3.9569113269
 20
-15.0801510537
 30
0.0
 11
3.7117685337
 21
-14.5025060877
 31
0.0
  0
LINE
  5
DA
330
1F
100
AcDbEntity
  8
SK3
  6
SLD-Dashed
370
    18
100
AcDbLine
 10
3.7117685337
 20
-14.5025060877
 30
0.0
 11
3.5547332273
 21
-13.8826166832
 31
0.0
  0
LINE
  5
DB
330
1F
100
AcDbEntity
  8
SK3
  6
SLD-Dashed
370
    18
100
AcDbLine
 10
3.5547332273
 20
-13.8826166832
 30
0.0
 11
3.4965071043
 21
-13.2627272786
 31
0.0
  0
LINE
  5
DC
330
1F
100
AcDbEntity
  8
SK3
  6
SLD-Dashed
370
    18
100
AcDbLine
 10
3.4965071043
 20
-13.2627272786
 30
0.0
 11
3.5410581787
 21
-12.6850823126
 31
0.0
  0
LINE
  5
DD
330
1F
100
AcDbEntity
  8
SK3
  6
SLD-Dashed
370
    18
100
AcDbLine
 10
3.5410581787
 20
-12.6850823126
 30
0.0
 11
3.6853503685
 21
-12.1890473349
 31
0.0
  0
LINE
  5
DE
330
1F
100
AcDbEntity
  8
SK3
  6
SLD-Dashed
370
    18
100
AcDbLine
 10
3.6853503685
 20
-12.1890473349
 30
0.0
 11
3.9195503993
 21
-11.8084263096
 31
0.0
  0
LINE
  5
DF
330
1F
100
AcDbEntity
  8
SK3
  6
SLD-Dashed
370
    18
100
AcDbLine
 10
3.9195503993
 20
-11.8084263096
 30
0.0
 11
4.2276979261
 21
-11.5691579304
 31
0.0
  0
LINE
  5
E0
330
1F
100
AcDbEntity
  8
SK3
  6
SLD-Dashed
370
    18
100
AcDbLine
 10
4.2276979261
 20
-11.5691579304
 30
0.0
 11
4.5887932042
 21
-11.4875479421
 31
0.0
  0
LINE
  5
E1
330
1F
100
AcDbEntity
  8
SK3
  6
SLD-Dashed
370
    18
100
AcDbLine
 10
4.5887932042
 20
-11.4875479421
 30
0.0
 11
4.9782281871
 21
-11.5691579304
 31
0.0
  0
LINE
  5
E2
330
1F
100
AcDbEntity
  8
SK3
  6
SLD-Dashed
370
    18
100
AcDbLine
 10
4.9782281871
 20
-11.5691579304
 30
0.0
 11
5.3694635243
 21
-11.8084263096
 31
0.0
  0
LINE
  5
E3
330
1F
100
AcDbEntity
  8
SK3
  6
SLD-Dashed
370
    18
100
AcDbLine
 10
5.3694635243
 20
-11.8084263096
 30
0.0
 11
5.7358371741
 21
-12.1890473349
 31
0.0
  0
LINE
  5
E4
330
1F
100
AcDbEntity
  8
SK3
  6
SLD-Dashed
370
    18
100
AcDbLine
 10
5.7358371741
 20
-12.1890473349
 30
0.0
 11
6.0523813778
 21
-12.6850823126
 31
0.0
  0
LINE
  5
E5
330
1F
100
AcDbEntity
  8
SK3
  6
SLD-Dashed
370
    18
100
AcDbLine
 10
6.0523813778
 20
-12.6850823126
 30
0.0
 11
6.2975241709
 21
-13.2627272786
 31
0.0
  0
LINE
  5
E6
330
1F
100
AcDbEntity
  8
SK3
  6
SLD-Dashed
370
    18
100
AcDbLine
 10
6.2975241709
 20
-13.2627272786
 30
0.0
 11
6.4545594773
 21
-13.8826166832
 31
0.0
  0
LINE
  5
E7
330
1F
100
AcDbEntity
  8
SK3
  6
SLD-Dashed
370
    18
100
AcDbLine
 10
17.1792841073
 20
-11.0168048658
 30
0.0
 11
17.022248801
 21
-10.3969154613
 31
0.0
  0
LINE
  5
E8
330
1F
100
AcDbEntity
  8
SK3
  6
SLD-Dashed
370
    18
100
AcDbLine
 10
17.022248801
 20
-10.3969154613
 30
0.0
 11
16.7771060078
 21
-9.8192704952
 31
0.0
  0
LINE
  5
E9
330
1F
100
AcDbEntity
  8
SK3
  6
SLD-Dashed
370
    18
100
AcDbLine
 10
16.7771060078
 20
-9.8192704952
 30
0.0
 11
16.4605618041
 21
-9.3232355176
 31
0.0
  0
LINE
  5
EA
330
1F
100
AcDbEntity
  8
SK3
  6
SLD-Dashed
370
    18
100
AcDbLine
 10
16.4605618041
 20
-9.3232355176
 30
0.0
 11
16.0941881543
 21
-8.9426144922
 31
0.0
  0
LINE
  5
EB
330
1F
100
AcDbEntity
  8
SK3
  6
SLD-Dashed
370
    18
100
AcDbLine
 10
16.0941881543
 20
-8.9426144922
 30
0.0
 11
15.7029528171
 21
-8.703346113
 31
0.0
  0
LINE
  5
EC
330
1F
100
AcDbEntity
  8
SK3
  6
SLD-Dashed
370
    18
100
AcDbLine
 10
15.7029528171
 20
-8.703346113
 30
0.0
 11
15.3135178342
 21
-8.6217361247
 31
0.0
  0
LINE
  5
ED
330
1F
100
AcDbEntity
  8
SK3
  6
SLD-Dashed
370
    18
100
AcDbLine
 10
15.3135178342
 20
-8.6217361247
 30
0.0
 11
14.9524225561
 21
-8.703346113
 31
0.0
  0
LINE
  5
EE
330
1F
100
AcDbEntity
  8
SK3
  6
SLD-Dashed
370
    18
100
AcDbLine
 10
14.9524225561
 20
-8.703346113
 30
0.0
 11
14.6442750293
 21
-8.9426144922
 31
0.0
  0
LINE
  5
EF
330
1F
100
AcDbEntity
  8
SK3
  6
SLD-Dashed
370
    18
100
AcDbLine
 10
14.6442750293
 20
-8.9426144922
 30
0.0
 11
14.4100749985
 21
-9.3232355176
 31
0.0
  0
LINE
  5
F0
330
1F
100
AcDbEntity
  8
SK3
  6
SLD-Dashed
370
    18
100
AcDbLine
 10
14.4100749985
 20
-9.3232355176
 30
0.0
 11
14.2657828088
 21
-9.8192704952
 31
0.0
  0
LINE
  5
F1
330
1F
100
AcDbEntity
  8
SK3
  6
SLD-Dashed
370
    18
100
AcDbLine
 10
14.2657828088
 20
-9.8192704952
 30
0.0
 11
14.2212317343
 21
-10.3969154613
 31
0.0
  0
LINE
  5
F2
330
1F
100
AcDbEntity
  8
SK3
  6
SLD-Dashed
370
    18
100
AcDbLine
 10
14.2212317343
 20
-10.3969154613
 30
0.0
 11
14.2794578574
 21
-11.0168048658
 31
0.0
  0
LINE
  5
F3
330
1F
100
AcDbEntity
  8
SK3
  6
SLD-Dashed
370
    18
100
AcDbLine
 10
14.2794578574
 20
-11.0168048658
 30
0.0
 11
14.4364931637
 21
-11.6366942703
 31
0.0
  0
LINE
  5
F4
330
1F
100
AcDbEntity
  8
SK3
  6
SLD-Dashed
370
    18
100
AcDbLine
 10
14.4364931637
 20
-11.6366942703
 30
0.0
 11
14.6816359569
 21
-12.2143392363
 31
0.0
  0
LINE
  5
F5
330
1F
100
AcDbEntity
  8
SK3
  6
SLD-Dashed
370
    18
100
AcDbLine
 10
14.6816359569
 20
-12.2143392363
 30
0.0
 11
14.9981801606
 21
-12.710374214
 31
0.0
  0
LINE
  5
F6
330
1F
100
AcDbEntity
  8
SK3
  6
SLD-Dashed
370
    18
100
AcDbLine
 10
14.9981801606
 20
-12.710374214
 30
0.0
 11
15.3645538104
 21
-13.0909952394
 31
0.0
  0
LINE
  5
F7
330
1F
100
AcDbEntity
  8
SK3
  6
SLD-Dashed
370
    18
100
AcDbLine
 10
15.3645538104
 20
-13.0909952394
 30
0.0
 11
15.7557891476
 21
-13.3302636185
 31
0.0
  0
LINE
  5
F8
330
1F
100
AcDbEntity
  8
SK3
  6
SLD-Dashed
370
    18
100
AcDbLine
 10
15.7557891476
 20
-13.3302636185
 30
0.0
 11
16.1452241305
 21
-13.4118736069
 31
0.0
  0
LINE
  5
F9
330
1F
100
AcDbEntity
  8
SK3
  6
SLD-Dashed
370
    18
100
AcDbLine
 10
16.1452241305
 20
-13.4118736069
 30
0.0
 11
16.5063194086
 21
-13.3302636185
 31
0.0
  0
LINE
  5
FA
330
1F
100
AcDbEntity
  8
SK3
  6
SLD-Dashed
370
    18
100
AcDbLine
 10
16.5063194086
 20
-13.3302636185
 30
0.0
 11
16.8144669354
 21
-13.0909952394
 31
0.0
  0
LINE
  5
FB
330
1F
100
AcDbEntity
  8
SK3
  6
SLD-Dashed
370
    18
100
AcDbLine
 10
16.8144669354
 20
-13.0909952394
 30
0.0
 11
17.0486669662
 21
-12.710374214
 31
0.0
  0
LINE
  5
FC
330
1F
100
AcDbEntity
  8
SK3
  6
SLD-Dashed
370
    18
100
AcDbLine
 10
17.0486669662
 20
-12.710374214
 30
0.0
 11
17.1929591559
 21
-12.2143392363
 31
0.0
  0
LINE
  5
FD
330
1F
100
AcDbEntity
  8
SK3
  6
SLD-Dashed
370
    18
100
AcDbLine
 10
17.1929591559
 20
-12.2143392363
 30
0.0
 11
17.2375102304
 21
-11.6366942703
 31
0.0
  0
LINE
  5
FE
330
1F
100
AcDbEntity
  8
SK3
  6
SLD-Dashed
370
    18
100
AcDbLine
 10
17.2375102304
 20
-11.6366942703
 30
0.0
 11
17.1792841073
 21
-11.0168048658
 31
0.0
  0
LINE
  5
FF
330
1F
100
AcDbEntity
  8
SK3
  6
SLD-Dashed
370
    18
100
AcDbLine
 10
-99.7034043657
 20
-13.19
 30
0.0
 11
-99.7034043657
 21
13.19
 31
0.0
  0
LINE
  5
100
330
1F
100
AcDbEntity
  8
SK3
  6
SLD-Dashed
370
    18
100
AcDbLine
 10
-101.6
 20
-14.2799375549
 30
0.0
 11
-101.6
 21
14.2799375549
 31
0.0
  0
LINE
  5
101
330
1F
100
AcDbEntity
  8
SK3
  6
SLD-Dashed
370
    18
100
AcDbLine
 10
83.0947441117
 20
-12.5
 30
0.0
 11
83.0947441117
 21
12.5
 31
0.0
  0
LINE
  5
102
330
1F
100
AcDbEntity
  8
SK3
  6
SLD-Dashed
370
    18
100
AcDbLine
 10
85.0
 20
-13.5800544284
 30
0.0
 11
85.0
 21
13.5800544284
 31
0.0
  0
LINE
  5
103
330
1F
100
AcDbEntity
  8
SK3
  6
SLD-Dashed
370
    18
100
AcDbLine
 10
-95.25
 20
-13.19
 30
0.0
 11
-95.25
 21
13.19
 31
0.0
  0
LINE
  5
104
330
1F
100
AcDbEntity
  8
SK3
  6
SLD-Dashed
370
    18
100
AcDbLine
 10
-94.0505548158
 20
-11.1125
 30
0.0
 11
-94.0505548158
 21
11.1125
 31
0.0
  0
LINE
  5
105
330
1F
100
AcDbEntity
  8
SK3
  6
SLD-Dashed
370
    18
100
AcDbLine
 10
3.7
 20
37.875
 30
0.0
 11
3.7
 21
46.5560855313
 31
0.0
  0
LINE
  5
106
330
1F
100
AcDbEntity
  8
SK3
  6
SLD-Dashed
370
    18
100
AcDbLine
 10
18.55
 20
46.5560855313
 30
0.0
 11
18.55
 21
37.875
 31
0.0
  0
LINE
  5
107
330
1F
100
AcDbEntity
  8
SK3
  6
SLD-Dashed
370
    18
100
AcDbLine
 10
14.2727106199
 20
46.8162535878
 30
0.0
 11
18.3
 21
46.8162535878
 31
0.0
  0
LINE
  5
108
330
1F
100
AcDbEntity
  8
SK3
  6
SLD-Dashed
370
    18
100
AcDbLine
 10
3.95
 20
46.8162535878
 30
0.0
 11
7.9572893801
 21
46.8162535878
 31
0.0
  0
LINE
  5
109
330
1F
100
AcDbEntity
  8
1
  6
SLD-Dashed
370
    18
100
AcDbLine
 10
13.03
 20
44.5510215932
 30
0.0
 11
13.03
 21
44.5790106634
 31
0.0
  0
LINE
  5
10A
330
1F
100
AcDbEntity
  8
1
  6
SLD-Dashed
370
    18
100
AcDbLine
 10
9.2
 20
44.5790106634
 30
0.0
 11
9.2
 21
44.5510215932
 31
0.0
  0
LINE
  5
10B
330
1F
100
AcDbEntity
  8
1
  6
SLD-Dashed
370
    18
100
AcDbLine
 10
9.2
 20
-44.5790106634
 30
0.0
 11
9.2
 21
-44.5510215932
 31
0.0
  0
LINE
  5
10C
330
1F
100
AcDbEntity
  8
1
  6
SLD-Dashed
370
    18
100
AcDbLine
 10
13.03
 20
-44.5510215932
 30
0.0
 11
13.03
 21
-44.5790106634
 31
0.0
  0
LINE
  5
10D
330
1F
100
AcDbEntity
  8
SK3
  6
SLD-Dashed
370
    18
100
AcDbLine
 10
19.05
 20
-46.6976348437
 30
0.0
 11
19.05
 21
-35.475
 31
0.0
  0
LINE
  5
10E
330
1F
100
AcDbEntity
  8
SK3
  6
SLD-Dashed
370
    18
100
AcDbLine
 10
3.2
 20
-35.475
 30
0.0
 11
3.2
 21
-46.6976348437
 31
0.0
  0
LINE
  5
10F
330
1F
100
AcDbEntity
  8
SK3
  6
SLD-Dashed
370
    18
100
AcDbLine
 10
19.05
 20
-35.1
 30
0.0
 11
3.2
 21
-35.1
 31
0.0
  0
LINE
  5
110
330
1F
100
AcDbEntity
  8
SK3
  6
SLD-Dashed
370
    18
100
AcDbLine
 10
3.2
 20
-35.475
 30
0.0
 11
19.05
 21
-35.475
 31
0.0
  0
LINE
  5
111
330
1F
100
AcDbEntity
  8
SK3
  6
SLD-Dashed
370
    18
100
AcDbLine
 10
3.7
 20
37.5
 30
0.0
 11
18.55
 21
37.5
 31
0.0
  0
LINE
  5
112
330
1F
100
AcDbEntity
  8
SK3
  6
SLD-Dashed
370
    18
100
AcDbLine
 10
18.55
 20
37.875
 30
0.0
 11
3.7
 21
37.875
 31
0.0
  0
LINE
  5
113
330
1F
100
AcDbEntity
  8
SK3
  6
SLD-Dashed
370
    18
100
AcDbLine
 10
30.5
 20
-12.75
 30
0.0
 11
30.5
 21
12.75
 31
0.0
  0
LINE
  5
114
330
1F
100
AcDbEntity
  8
SK3
  6
SLD-Dashed
370
    18
100
AcDbLine
 10
27.5
 20
-12.75
 30
0.0
 11
27.5
 21
12.75
 31
0.0
  0
LINE
  5
115
330
1F
100
AcDbEntity
  8
SK3
  6
SLD-Dashed
370
    18
100
AcDbLine
 10
30.5
 20
-12.4949024104
 30
0.0
 11
30.5
 21
12.4949024104
 31
0.0
  0
LINE
  5
116
330
1F
100
AcDbEntity
  8
SK3
  6
SLD-Dashed
370
    18
100
AcDbLine
 10
-11.6
 20
-11.1125
 30
0.0
 11
-11.6
 21
11.1125
 31
0.0
  0
LINE
  5
117
330
1F
100
AcDbEntity
  8
SK3
  6
SLD-Dashed
370
    18
100
AcDbLine
 10
-7.9272394662
 20
5.0
 30
0.0
 11
-7.9272394662
 21
-5.0
 31
0.0
  0
LINE
  5
118
330
1F
100
AcDbEntity
  8
SK3
  6
SLD-Dashed
370
    18
100
AcDbLine
 10
25.5
 20
-9.35
 30
0.0
 11
25.5
 21
9.35
 31
0.0
  0
LINE
  5
119
330
1F
100
AcDbEntity
  8
SK3
  6
SLD-Dashed
370
    18
100
AcDbLine
 10
22.8862563072
 20
5.0
 30
0.0
 11
22.8862563072
 21
-5.0
 31
0.0
  0
LINE
  5
11A
330
1F
100
AcDbEntity
  8
SK3
  6
SLD-Dashed
370
    18
100
AcDbLine
 10
27.5
 20
-9.35
 30
0.0
 11
27.5
 21
9.35
 31
0.0
  0
LINE
  5
11B
330
1F
100
AcDbEntity
  8
SK3
  6
SLD-Dashed
370
    18
100
AcDbLine
 10
74.7
 20
20.6
 30
0.0
 11
61.7
 21
20.6
 31
0.0
  0
LINE
  5
11C
330
1F
100
AcDbEntity
  8
SK3
  6
SLD-Dashed
370
    18
100
AcDbLine
 10
50.3
 20
20.6
 30
0.0
 11
37.3
 21
20.6
 31
0.0
  0
LINE
  5
11D
330
1F
100
AcDbEntity
  8
SK3
  6
SLD-Dashed
370
    18
100
AcDbLine
 10
16.1
 20
33.1
 30
0.0
 11
6.12012853
 21
33.1
 31
0.0
  0
LINE
  5
11E
330
1F
100
AcDbEntity
  8
SK3
  6
SLD-Dashed
370
    18
100
AcDbLine
 10
6.1
 20
37.5
 30
0.0
 11
16.07987147
 21
37.5
 31
0.0
  0
LINE
  5
11F
330
1F
100
AcDbEntity
  8
SK3
  6
SLD-Dashed
370
    18
100
AcDbLine
 10
6.4
 20
32.8
 30
0.0
 11
15.8
 21
32.8
 31
0.0
  0
LINE
  5
120
330
1F
100
AcDbEntity
  8
1
  6
SLD-Dashed
370
    18
100
AcDbLine
 10
12.28
 20
43.7694359685
 30
0.0
 11
9.95
 21
43.7694359685
 31
0.0
  0
LINE
  5
121
330
1F
100
AcDbEntity
  8
1
  6
SLD-Dashed
370
    18
100
AcDbLine
 10
12.28
 20
-43.7694359685
 30
0.0
 11
9.95
 21
-43.7694359685
 31
0.0
  0
LINE
  5
122
330
1F
100
AcDbEntity
  8
1
  6
SLD-Dashed
370
    18
100
AcDbLine
 10
7.5902766066
 20
-47.4754841997
 30
0.0
 11
3.95
 21
-47.4754841997
 31
0.0
  0
LINE
  5
123
330
1F
100
AcDbEntity
  8
1
  6
SLD-Dashed
370
    18
100
AcDbLine
 10
18.3
 20
-47.4754841997
 30
0.0
 11
14.6397233934
 21
-47.4754841997
 31
0.0
  0
LINE
  5
124
330
1F
100
AcDbEntity
  8
SK3
  6
SLD-Dashed
370
    18
100
AcDbLine
 10
3.5547332273
 20
13.8826166832
 30
0.0
 11
3.4965071043
 21
13.2627272786
 31
0.0
  0
LINE
  5
125
330
1F
100
AcDbEntity
  8
SK3
  6
SLD-Dashed
370
    18
100
AcDbLine
 10
3.4965071043
 20
13.2627272786
 30
0.0
 11
3.5410581787
 21
12.6850823126
 31
0.0
  0
LINE
  5
126
330
1F
100
AcDbEntity
  8
SK3
  6
SLD-Dashed
370
    18
100
AcDbLine
 10
3.5410581787
 20
12.6850823126
 30
0.0
 11
3.6853503685
 21
12.1890473349
 31
0.0
  0
LINE
  5
127
330
1F
100
AcDbEntity
  8
SK3
  6
SLD-Dashed
370
    18
100
AcDbLine
 10
3.6853503685
 20
12.1890473349
 30
0.0
 11
3.9195503993
 21
11.8084263096
 31
0.0
  0
LINE
  5
128
330
1F
100
AcDbEntity
  8
SK3
  6
SLD-Dashed
370
    18
100
AcDbLine
 10
3.9195503993
 20
11.8084263096
 30
0.0
 11
4.2276979261
 21
11.5691579304
 31
0.0
  0
LINE
  5
129
330
1F
100
AcDbEntity
  8
SK3
  6
SLD-Dashed
370
    18
100
AcDbLine
 10
4.2276979261
 20
11.5691579304
 30
0.0
 11
4.5887932042
 21
11.4875479421
 31
0.0
  0
LINE
  5
12A
330
1F
100
AcDbEntity
  8
SK3
  6
SLD-Dashed
370
    18
100
AcDbLine
 10
4.5887932042
 20
11.4875479421
 30
0.0
 11
4.9782281871
 21
11.5691579304
 31
0.0
  0
LINE
  5
12B
330
1F
100
AcDbEntity
  8
SK3
  6
SLD-Dashed
370
    18
100
AcDbLine
 10
4.9782281871
 20
11.5691579304
 30
0.0
 11
5.3694635243
 21
11.8084263096
 31
0.0
  0
LINE
  5
12C
330
1F
100
AcDbEntity
  8
SK3
  6
SLD-Dashed
370
    18
100
AcDbLine
 10
5.3694635243
 20
11.8084263096
 30
0.0
 11
5.7358371741
 21
12.1890473349
 31
0.0
  0
LINE
  5
12D
330
1F
100
AcDbEntity
  8
SK3
  6
SLD-Dashed
370
    18
100
AcDbLine
 10
5.7358371741
 20
12.1890473349
 30
0.0
 11
6.0523813778
 21
12.6850823126
 31
0.0
  0
LINE
  5
12E
330
1F
100
AcDbEntity
  8
SK3
  6
SLD-Dashed
370
    18
100
AcDbLine
 10
6.0523813778
 20
12.6850823126
 30
0.0
 11
6.2975241709
 21
13.2627272786
 31
0.0
  0
LINE
  5
12F
330
1F
100
AcDbEntity
  8
SK3
  6
SLD-Dashed
370
    18
100
AcDbLine
 10
6.2975241709
 20
13.2627272786
 30
0.0
 11
6.4545594773
 21
13.8826166832
 31
0.0
  0
LINE
  5
130
330
1F
100
AcDbEntity
  8
SK3
  6
SLD-Dashed
370
    18
100
AcDbLine
 10
6.4545594773
 20
13.8826166832
 30
0.0
 11
6.5127856003
 21
14.5025060877
 31
0.0
  0
LINE
  5
131
330
1F
100
AcDbEntity
  8
SK3
  6
SLD-Dashed
370
    18
100
AcDbLine
 10
6.5127856003
 20
14.5025060877
 30
0.0
 11
6.4682345259
 21
15.0801510537
 31
0.0
  0
LINE
  5
132
330
1F
100
AcDbEntity
  8
SK3
  6
SLD-Dashed
370
    18
100
AcDbLine
 10
6.4682345259
 20
15.0801510537
 30
0.0
 11
6.3239423361
 21
15.5761860314
 31
0.0
  0
LINE
  5
133
330
1F
100
AcDbEntity
  8
SK3
  6
SLD-Dashed
370
    18
100
AcDbLine
 10
6.3239423361
 20
15.5761860314
 30
0.0
 11
6.0897423053
 21
15.9568070568
 31
0.0
  0
LINE
  5
134
330
1F
100
AcDbEntity
  8
SK3
  6
SLD-Dashed
370
    18
100
AcDbLine
 10
6.0897423053
 20
15.9568070568
 30
0.0
 11
5.7815947785
 21
16.1960754359
 31
0.0
  0
LINE
  5
135
330
1F
100
AcDbEntity
  8
SK3
  6
SLD-Dashed
370
    18
100
AcDbLine
 10
5.7815947785
 20
16.1960754359
 30
0.0
 11
5.4204995004
 21
16.2776854242
 31
0.0
  0
LINE
  5
136
330
1F
100
AcDbEntity
  8
SK3
  6
SLD-Dashed
370
    18
100
AcDbLine
 10
5.4204995004
 20
16.2776854242
 30
0.0
 11
5.0310645175
 21
16.1960754359
 31
0.0
  0
LINE
  5
137
330
1F
100
AcDbEntity
  8
SK3
  6
SLD-Dashed
370
    18
100
AcDbLine
 10
5.0310645175
 20
16.1960754359
 30
0.0
 11
4.6398291803
 21
15.9568070568
 31
0.0
  0
LINE
  5
138
330
1F
100
AcDbEntity
  8
SK3
  6
SLD-Dashed
370
    18
100
AcDbLine
 10
4.6398291803
 20
15.9568070568
 30
0.0
 11
4.2734555305
 21
15.5761860314
 31
0.0
  0
LINE
  5
139
330
1F
100
AcDbEntity
  8
SK3
  6
SLD-Dashed
370
    18
100
AcDbLine
 10
4.2734555305
 20
15.5761860314
 30
0.0
 11
3.9569113269
 21
15.0801510537
 31
0.0
  0
LINE
  5
13A
330
1F
100
AcDbEntity
  8
SK3
  6
SLD-Dashed
370
    18
100
AcDbLine
 10
3.9569113269
 20
15.0801510537
 30
0.0
 11
3.7117685337
 21
14.5025060877
 31
0.0
  0
LINE
  5
13B
330
1F
100
AcDbEntity
  8
SK3
  6
SLD-Dashed
370
    18
100
AcDbLine
 10
3.7117685337
 20
14.5025060877
 30
0.0
 11
3.5547332273
 21
13.8826166832
 31
0.0
  0
LINE
  5
13C
330
1F
100
AcDbEntity
  8
SK3
  6
SLD-Dashed
370
    18
100
AcDbLine
 10
14.2794578574
 20
11.0168048658
 30
0.0
 11
14.4364931637
 21
11.6366942703
 31
0.0
  0
LINE
  5
13D
330
1F
100
AcDbEntity
  8
SK3
  6
SLD-Dashed
370
    18
100
AcDbLine
 10
14.4364931637
 20
11.6366942703
 30
0.0
 11
14.6816359569
 21
12.2143392363
 31
0.0
  0
LINE
  5
13E
330
1F
100
AcDbEntity
  8
SK3
  6
SLD-Dashed
370
    18
100
AcDbLine
 10
14.6816359569
 20
12.2143392363
 30
0.0
 11
14.9981801606
 21
12.710374214
 31
0.0
  0
LINE
  5
13F
330
1F
100
AcDbEntity
  8
SK3
  6
SLD-Dashed
370
    18
100
AcDbLine
 10
14.9981801606
 20
12.710374214
 30
0.0
 11
15.3645538104
 21
13.0909952394
 31
0.0
  0
LINE
  5
140
330
1F
100
AcDbEntity
  8
SK3
  6
SLD-Dashed
370
    18
100
AcDbLine
 10
15.3645538104
 20
13.0909952394
 30
0.0
 11
15.7557891476
 21
13.3302636185
 31
0.0
  0
LINE
  5
141
330
1F
100
AcDbEntity
  8
SK3
  6
SLD-Dashed
370
    18
100
AcDbLine
 10
15.7557891476
 20
13.3302636185
 30
0.0
 11
16.1452241305
 21
13.4118736069
 31
0.0
  0
LINE
  5
142
330
1F
100
AcDbEntity
  8
SK3
  6
SLD-Dashed
370
    18
100
AcDbLine
 10
16.1452241305
 20
13.4118736069
 30
0.0
 11
16.5063194086
 21
13.3302636185
 31
0.0
  0
LINE
  5
143
330
1F
100
AcDbEntity
  8
SK3
  6
SLD-Dashed
370
    18
100
AcDbLine
 10
16.5063194086
 20
13.3302636185
 30
0.0
 11
16.8144669354
 21
13.0909952394
 31
0.0
  0
LINE
  5
144
330
1F
100
AcDbEntity
  8
SK3
  6
SLD-Dashed
370
    18
100
AcDbLine
 10
16.8144669354
 20
13.0909952394
 30
0.0
 11
17.0486669662
 21
12.710374214
 31
0.0
  0
LINE
  5
145
330
1F
100
AcDbEntity
  8
SK3
  6
SLD-Dashed
370
    18
100
AcDbLine
 10
17.0486669662
 20
12.710374214
 30
0.0
 11
17.1929591559
 21
12.2143392363
 31
0.0
  0
LINE
  5
146
330
1F
100
AcDbEntity
  8
SK3
  6
SLD-Dashed
370
    18
100
AcDbLine
 10
17.1929591559
 20
12.2143392363
 30
0.0
 11
17.2375102304
 21
11.6366942703
 31
0.0
  0
LINE
  5
147
330
1F
100
AcDbEntity
  8
SK3
  6
SLD-Dashed
370
    18
100
AcDbLine
 10
17.2375102304
 20
11.6366942703
 30
0.0
 11
17.1792841073
 21
11.0168048658
 31
0.0
  0
LINE
  5
148
330
1F
100
AcDbEntity
  8
SK3
  6
SLD-Dashed
370
    18
100
AcDbLine
 10
17.1792841073
 20
11.0168048658
 30
0.0
 11
17.022248801
 21
10.3969154613
 31
0.0
  0
LINE
  5
149
330
1F
100
AcDbEntity
  8
SK3
  6
SLD-Dashed
370
    18
100
AcDbLine
 10
17.022248801
 20
10.3969154613
 30
0.0
 11
16.7771060078
 21
9.8192704952
 31
0.0
  0
LINE
  5
14A
330
1F
100
AcDbEntity
  8
SK3
  6
SLD-Dashed
370
    18
100
AcDbLine
 10
16.7771060078
 20
9.8192704952
 30
0.0
 11
16.4605618041
 21
9.3232355176
 31
0.0
  0
LINE
  5
14B
330
1F
100
AcDbEntity
  8
SK3
  6
SLD-Dashed
370
    18
100
AcDbLine
 10
16.4605618041
 20
9.3232355176
 30
0.0
 11
16.0941881543
 21
8.9426144922
 31
0.0
  0
LINE
  5
14C
330
1F
100
AcDbEntity
  8
SK3
  6
SLD-Dashed
370
    18
100
AcDbLine
 10
16.0941881543
 20
8.9426144922
 30
0.0
 11
15.7029528171
 21
8.703346113
 31
0.0
  0
LINE
  5
14D
330
1F
100
AcDbEntity
  8
SK3
  6
SLD-Dashed
370
    18
100
AcDbLine
 10
15.7029528171
 20
8.703346113
 30
0.0
 11
15.3135178342
 21
8.6217361247
 31
0.0
  0
LINE
  5
14E
330
1F
100
AcDbEntity
  8
SK3
  6
SLD-Dashed
370
    18
100
AcDbLine
 10
15.3135178342
 20
8.6217361247
 30
0.0
 11
14.9524225561
 21
8.703346113
 31
0.0
  0
LINE
  5
14F
330
1F
100
AcDbEntity
  8
SK3
  6
SLD-Dashed
370
    18
100
AcDbLine
 10
14.9524225561
 20
8.703346113
 30
0.0
 11
14.6442750293
 21
8.9426144922
 31
0.0
  0
LINE
  5
150
330
1F
100
AcDbEntity
  8
SK3
  6
SLD-Dashed
370
    18
100
AcDbLine
 10
14.6442750293
 20
8.9426144922
 30
0.0
 11
14.4100749985
 21
9.3232355176
 31
0.0
  0
LINE
  5
151
330
1F
100
AcDbEntity
  8
SK3
  6
SLD-Dashed
370
    18
100
AcDbLine
 10
14.4100749985
 20
9.3232355176
 30
0.0
 11
14.2657828088
 21
9.8192704952
 31
0.0
  0
LINE
  5
152
330
1F
100
AcDbEntity
  8
SK3
  6
SLD-Dashed
370
    18
100
AcDbLine
 10
14.2657828088
 20
9.8192704952
 30
0.0
 11
14.2212317343
 21
10.3969154613
 31
0.0
  0
LINE
  5
153
330
1F
100
AcDbEntity
  8
SK3
  6
SLD-Dashed
370
    18
100
AcDbLine
 10
14.2212317343
 20
10.3969154613
 30
0.0
 11
14.2794578574
 21
11.0168048658
 31
0.0
  0
LINE
  5
154
330
1F
100
AcDbEntity
  8
SK3
  6
SLD-Dashed
370
    18
100
AcDbLine
 10
3.3949403416
 20
13.9015950424
 30
0.0
 11
3.5530311231
 21
14.533691522
 31
0.0
  0
LINE
  5
155
330
1F
100
AcDbEntity
  8
SK3
  6
SLD-Dashed
370
    18
100
AcDbLine
 10
3.5530311231
 20
14.533691522
 30
0.0
 11
3.7978696111
 21
15.126071055
 31
0.0
  0
LINE
  5
156
330
1F
100
AcDbEntity
  8
SK3
  6
SLD-Dashed
370
    18
100
AcDbLine
 10
3.7978696111
 20
15.126071055
 30
0.0
 11
4.1140717028
 21
15.6415122569
 31
0.0
  0
LINE
  5
157
330
1F
100
AcDbEntity
  8
SK3
  6
SLD-Dashed
370
    18
100
AcDbLine
 10
4.1140717028
 20
15.6415122569
 30
0.0
 11
4.481769258
 21
16.0476280612
 31
0.0
  0
LINE
  5
158
330
1F
100
AcDbEntity
  8
SK3
  6
SLD-Dashed
370
    18
100
AcDbLine
 10
4.481769258
 20
16.0476280612
 30
0.0
 11
4.8778584869
 21
16.3189007184
 31
0.0
  0
LINE
  5
159
330
1F
100
AcDbEntity
  8
SK3
  6
SLD-Dashed
370
    18
100
AcDbLine
 10
4.8778584869
 20
16.3189007184
 30
0.0
 11
5.2774516466
 21
16.4382851698
 31
0.0
  0
LINE
  5
15A
330
1F
100
AcDbEntity
  8
SK3
  6
SLD-Dashed
370
    18
100
AcDbLine
 10
5.2774516466
 20
16.4382851698
 30
0.0
 11
5.6554408293
 21
16.3982800511
 31
0.0
  0
LINE
  5
15B
330
1F
100
AcDbEntity
  8
SK3
  6
SLD-Dashed
370
    18
100
AcDbLine
 10
5.6554408293
 20
16.3982800511
 30
0.0
 11
5.9880755844
 21
16.2013990312
 31
0.0
  0
LINE
  5
15C
330
1F
100
AcDbEntity
  8
SK3
  6
SLD-Dashed
370
    18
100
AcDbLine
 10
5.9880755844
 20
16.2013990312
 30
0.0
 11
6.254455247
 21
15.8600128686
 31
0.0
  0
LINE
  5
15D
330
1F
100
AcDbEntity
  8
SK3
  6
SLD-Dashed
370
    18
100
AcDbLine
 10
6.254455247
 20
15.8600128686
 30
0.0
 11
6.4378422032
 21
15.3955721114
 31
0.0
  0
LINE
  5
15E
330
1F
100
AcDbEntity
  8
SK3
  6
SLD-Dashed
370
    18
100
AcDbLine
 10
6.4378422032
 20
15.3955721114
 30
0.0
 11
6.526713576
 21
14.8372592805
 31
0.0
  0
LINE
  5
15F
330
1F
100
AcDbEntity
  8
SK3
  6
SLD-Dashed
370
    18
100
AcDbLine
 10
6.526713576
 20
14.8372592805
 30
0.0
 11
6.5154852503
 21
14.2201552244
 31
0.0
  0
LINE
  5
160
330
1F
100
AcDbEntity
  8
SK3
  6
SLD-Dashed
370
    18
100
AcDbLine
 10
6.5154852503
 20
14.2201552244
 30
0.0
 11
6.4048627431
 21
13.5830348604
 31
0.0
  0
LINE
  5
161
330
1F
100
AcDbEntity
  8
SK3
  6
SLD-Dashed
370
    18
100
AcDbLine
 10
6.4048627431
 20
13.5830348604
 30
0.0
 11
6.2017968733
 21
12.9659308043
 31
0.0
  0
LINE
  5
162
330
1F
100
AcDbEntity
  8
SK3
  6
SLD-Dashed
370
    18
100
AcDbLine
 10
6.2017968733
 20
12.9659308043
 30
0.0
 11
5.9190470164
 21
12.4076179734
 31
0.0
  0
LINE
  5
163
330
1F
100
AcDbEntity
  8
SK3
  6
SLD-Dashed
370
    18
100
AcDbLine
 10
5.9190470164
 20
12.4076179734
 30
0.0
 11
5.5743793858
 21
11.9431772162
 31
0.0
  0
LINE
  5
164
330
1F
100
AcDbEntity
  8
SK3
  6
SLD-Dashed
370
    18
100
AcDbLine
 10
5.5743793858
 20
11.9431772162
 30
0.0
 11
5.1894507162
 21
11.6017910536
 31
0.0
  0
LINE
  5
165
330
1F
100
AcDbEntity
  8
SK3
  6
SLD-Dashed
370
    18
100
AcDbLine
 10
5.1894507162
 20
11.6017910536
 30
0.0
 11
4.7884474917
 21
11.4049100337
 31
0.0
  0
LINE
  5
166
330
1F
100
AcDbEntity
  8
SK3
  6
SLD-Dashed
370
    18
100
AcDbLine
 10
4.7884474917
 20
11.4049100337
 30
0.0
 11
4.3965662196
 21
11.364904915
 31
0.0
  0
LINE
  5
167
330
1F
100
AcDbEntity
  8
SK3
  6
SLD-Dashed
370
    18
100
AcDbLine
 10
4.3965662196
 20
11.364904915
 30
0.0
 11
4.0384302416
 21
11.4842893664
 31
0.0
  0
LINE
  5
168
330
1F
100
AcDbEntity
  8
SK3
  6
SLD-Dashed
370
    18
100
AcDbLine
 10
4.0384302416
 20
11.4842893664
 30
0.0
 11
3.7365425582
 21
11.7555620236
 31
0.0
  0
LINE
  5
169
330
1F
100
AcDbEntity
  8
SK3
  6
SLD-Dashed
370
    18
100
AcDbLine
 10
3.7365425582
 20
11.7555620236
 30
0.0
 11
3.5098718828
 21
12.1616778279
 31
0.0
  0
LINE
  5
16A
330
1F
100
AcDbEntity
  8
SK3
  6
SLD-Dashed
370
    18
100
AcDbLine
 10
3.5098718828
 20
12.1616778279
 30
0.0
 11
3.3726607677
 21
12.6771190298
 31
0.0
  0
LINE
  5
16B
330
1F
100
AcDbEntity
  8
SK3
  6
SLD-Dashed
370
    18
100
AcDbLine
 10
3.3726607677
 20
12.6771190298
 30
0.0
 11
3.3335306917
 21
13.2694985628
 31
0.0
  0
LINE
  5
16C
330
1F
100
AcDbEntity
  8
SK3
  6
SLD-Dashed
370
    18
100
AcDbLine
 10
3.3335306917
 20
13.2694985628
 30
0.0
 11
3.3949403416
 21
13.9015950424
 31
0.0
  0
LINE
  5
16D
330
1F
100
AcDbEntity
  8
SK3
  6
SLD-Dashed
370
    18
100
AcDbLine
 10
5.6371324082
 20
-16.2495686026
 30
0.0
 11
16.3618570383
 21
-13.3837567853
 31
0.0
  0
LINE
  5
16E
330
1F
100
AcDbEntity
  8
SK3
  6
SLD-Dashed
370
    18
100
AcDbLine
 10
15.0968849264
 20
-8.6498529463
 30
0.0
 11
4.3721602964
 21
-11.5156647637
 31
0.0
  0
LINE
  5
16F
330
1F
100
AcDbEntity
  8
SK3
  6
SLD-Dashed
370
    18
100
AcDbLine
 10
-101.6
 20
-14.285
 30
0.0
 11
-99.7034043657
 21
-13.19
 31
0.0
  0
LINE
  5
170
330
1F
100
AcDbEntity
  8
SK3
  6
SLD-Dashed
370
    18
100
AcDbLine
 10
-99.7034043657
 20
13.19
 30
0.0
 11
-101.6
 21
14.285
 31
0.0
  0
LINE
  5
171
330
1F
100
AcDbEntity
  8
SK3
  6
SLD-Dashed
370
    18
100
AcDbLine
 10
85.0
 20
13.6
 30
0.0
 11
83.0947441117
 21
12.5
 31
0.0
  0
LINE
  5
172
330
1F
100
AcDbEntity
  8
SK3
  6
SLD-Dashed
370
    18
100
AcDbLine
 10
83.0947441117
 20
-12.5
 30
0.0
 11
85.0
 21
-13.6
 31
0.0
  0
LINE
  5
173
330
1F
100
AcDbEntity
  8
SK3
  6
SLD-Dashed
370
    18
100
AcDbLine
 10
-95.25
 20
-13.19
 30
0.0
 11
-94.0505548158
 21
-11.1125
 31
0.0
  0
LINE
  5
174
330
1F
100
AcDbEntity
  8
SK3
  6
SLD-Dashed
370
    18
100
AcDbLine
 10
-94.0505548158
 20
11.1125
 30
0.0
 11
-95.25
 21
13.19
 31
0.0
  0
LINE
  5
175
330
1F
100
AcDbEntity
  8
SK3
  6
SLD-Dashed
370
    18
100
AcDbLine
 10
-99.7034043657
 20
-13.19
 30
0.0
 11
-95.25
 21
-13.19
 31
0.0
  0
LINE
  5
176
330
1F
100
AcDbEntity
  8
SK3
  6
SLD-Dashed
370
    18
100
AcDbLine
 10
-95.25
 20
13.19
 30
0.0
 11
-99.7034043657
 21
13.19
 31
0.0
  0
LINE
  5
177
330
1F
100
AcDbEntity
  8
SK3
  6
SLD-Dashed
370
    18
100
AcDbLine
 10
30.5
 20
12.75
 30
0.0
 11
27.5
 21
12.75
 31
0.0
  0
LINE
  5
178
330
1F
100
AcDbEntity
  8
SK3
  6
SLD-Dashed
370
    18
100
AcDbLine
 10
27.5
 20
-12.75
 30
0.0
 11
30.5
 21
-12.75
 31
0.0
  0
LINE
  5
179
330
1F
100
AcDbEntity
  8
SK3
  6
SLD-Dashed
370
    18
100
AcDbLine
 10
37.3
 20
12.5
 30
0.0
 11
30.5
 21
12.5
 31
0.0
  0
LINE
  5
17A
330
1F
100
AcDbEntity
  8
SK3
  6
SLD-Dashed
370
    18
100
AcDbLine
 10
61.7
 20
12.5
 30
0.0
 11
50.2773026607
 21
12.5
 31
0.0
  0
LINE
  5
17B
330
1F
100
AcDbEntity
  8
SK3
  6
SLD-Dashed
370
    18
100
AcDbLine
 10
83.0947441117
 20
12.5
 30
0.0
 11
74.6963897756
 21
12.5
 31
0.0
  0
LINE
  5
17C
330
1F
100
AcDbEntity
  8
SK3
  6
SLD-Dashed
370
    18
100
AcDbLine
 10
30.5
 20
-12.5
 30
0.0
 11
83.0947441117
 21
-12.5
 31
0.0
  0
LINE
  5
17D
330
1F
100
AcDbEntity
  8
SK3
  6
SLD-Dashed
370
    18
100
AcDbLine
 10
-94.0505548158
 20
-11.1125
 30
0.0
 11
-11.6
 21
-11.1125
 31
0.0
  0
LINE
  5
17E
330
1F
100
AcDbEntity
  8
SK3
  6
SLD-Dashed
370
    18
100
AcDbLine
 10
-11.6
 20
11.1125
 30
0.0
 11
-94.0505548158
 21
11.1125
 31
0.0
  0
LINE
  5
17F
330
1F
100
AcDbEntity
  8
SK3
  6
SLD-Dashed
370
    18
100
AcDbLine
 10
-11.6
 20
-11.1125
 30
0.0
 11
-7.9272394662
 21
-5.0
 31
0.0
  0
LINE
  5
180
330
1F
100
AcDbEntity
  8
SK3
  6
SLD-Dashed
370
    18
100
AcDbLine
 10
-7.9272394662
 20
5.0
 30
0.0
 11
-11.6
 21
11.1125
 31
0.0
  0
LINE
  5
181
330
1F
100
AcDbEntity
  8
SK3
  6
SLD-Dashed
370
    18
100
AcDbLine
 10
25.5
 20
9.35
 30
0.0
 11
22.8862563072
 21
5.0
 31
0.0
  0
LINE
  5
182
330
1F
100
AcDbEntity
  8
SK3
  6
SLD-Dashed
370
    18
100
AcDbLine
 10
22.8862563072
 20
-5.0
 30
0.0
 11
25.5
 21
-9.35
 31
0.0
  0
LINE
  5
183
330
1F
100
AcDbEntity
  8
SK3
  6
SLD-Dashed
370
    18
100
AcDbLine
 10
27.5
 20
9.35
 30
0.0
 11
25.5
 21
9.35
 31
0.0
  0
LINE
  5
184
330
1F
100
AcDbEntity
  8
SK3
  6
SLD-Dashed
370
    18
100
AcDbLine
 10
25.5
 20
-9.35
 30
0.0
 11
27.5
 21
-9.35
 31
0.0
  0
LINE
  5
185
330
1F
100
AcDbEntity
  8
SK3
  6
SLD-Dashed
370
    18
100
AcDbLine
 10
59.8
 20
22.5
 30
0.0
 11
61.7
 21
20.6
 31
0.0
  0
LINE
  5
186
330
1F
100
AcDbEntity
  8
SK3
  6
SLD-Dashed
370
    18
100
AcDbLine
 10
74.7
 20
20.6
 30
0.0
 11
76.6
 21
22.5
 31
0.0
  0
LINE
  5
187
330
1F
100
AcDbEntity
  8
SK3
  6
SLD-Dashed
370
    18
100
AcDbLine
 10
35.4
 20
22.5
 30
0.0
 11
37.3
 21
20.6
 31
0.0
  0
LINE
  5
188
330
1F
100
AcDbEntity
  8
SK3
  6
SLD-Dashed
370
    18
100
AcDbLine
 10
50.3
 20
20.6
 30
0.0
 11
52.2
 21
22.5
 31
0.0
  0
LINE
  5
189
330
1F
100
AcDbEntity
  8
SK3
  6
SLD-Dashed
370
    18
100
AcDbLine
 10
61.7
 20
20.6
 30
0.0
 11
61.7
 21
12.5
 31
0.0
  0
LINE
  5
18A
330
1F
100
AcDbEntity
  8
SK3
  6
SLD-Dashed
370
    18
100
AcDbLine
 10
74.7
 20
12.4981386177
 30
0.0
 11
74.7
 21
20.6
 31
0.0
  0
LINE
  5
18B
330
1F
100
AcDbEntity
  8
SK3
  6
SLD-Dashed
370
    18
100
AcDbLine
 10
37.3
 20
20.6
 30
0.0
 11
37.3
 21
12.5
 31
0.0
  0
LINE
  5
18C
330
1F
100
AcDbEntity
  8
SK3
  6
SLD-Dashed
370
    18
100
AcDbLine
 10
50.3
 20
12.488213377
 30
0.0
 11
50.3
 21
20.6
 31
0.0
  0
LINE
  5
18D
330
1F
100
AcDbEntity
  8
SK3
  6
SLD-Dashed
370
    18
100
AcDbLine
 10
6.1
 20
37.5
 30
0.0
 11
6.1
 21
33.1
 31
0.0
  0
LINE
  5
18E
330
1F
100
AcDbEntity
  8
SK3
  6
SLD-Dashed
370
    18
100
AcDbLine
 10
16.1
 20
33.1
 30
0.0
 11
16.1
 21
37.5
 31
0.0
  0
LINE
  5
18F
330
1F
100
AcDbEntity
  8
SK3
  6
SLD-Dashed
370
    18
100
AcDbLine
 10
22.8862563072
 20
5.0
 30
0.0
 11
-7.9272394662
 21
5.0
 31
0.0
  0
LINE
  5
190
330
1F
100
AcDbEntity
  8
SK3
  6
SLD-Dashed
370
    18
100
AcDbLine
 10
-7.9272394662
 20
-5.0
 30
0.0
 11
22.8862563072
 21
-5.0
 31
0.0
  0
LINE
  5
191
330
1F
100
AcDbEntity
  8
SK3
  6
SLD-Dashed
370
    18
100
AcDbLine
 10
4.3721602964
 20
11.5156647637
 30
0.0
 11
15.0968849264
 21
8.6498529463
 31
0.0
  0
LINE
  5
192
330
1F
100
AcDbEntity
  8
SK3
  6
SLD-Dashed
370
    18
100
AcDbLine
 10
16.3618570383
 20
13.3837567853
 30
0.0
 11
5.6371324082
 21
16.2495686026
 31
0.0
  0
LINE
  5
193
330
1F
100
AcDbEntity
  8
SK3
  6
SLD-Solid
370
    18
100
AcDbLine
 10
-55.5999986827
 20
12.6999998465
 30
0.0
 11
-94.967097044
 21
12.6999998465
 31
0.0
  0
LINE
  5
194
330
1F
100
AcDbEntity
  8
SK3
  6
SLD-Solid
370
    18
100
AcDbLine
 10
-94.967097044
 20
-12.6999998465
 30
0.0
 11
-55.5999986827
 21
-12.6999998465
 31
0.0
  0
LINE
  5
195
330
1F
100
AcDbEntity
  8
SK3
  6
SLD-Solid
370
    18
100
AcDbLine
 10
-55.5999986827
 20
0.0
 30
0.0
 11
-55.5999986827
 21
-1.7293164274
 31
0.0
  0
LINE
  5
196
330
1F
100
AcDbEntity
  8
SK3
  6
SLD-Solid
370
    18
100
AcDbLine
 10
-55.5999986827
 20
0.0
 30
0.0
 11
-55.5999986827
 21
-1.7293164274
 31
0.0
  0
LINE
  5
197
330
1F
100
AcDbEntity
  8
SK3
  6
SLD-Solid
370
    18
100
AcDbLine
 10
-55.5999986827
 20
-1.7293164274
 30
0.0
 11
-55.5999986827
 21
-3.4264191054
 31
0.0
  0
LINE
  5
198
330
1F
100
AcDbEntity
  8
SK3
  6
SLD-Solid
370
    18
100
AcDbLine
 10
-55.5999986827
 20
-3.4264191054
 30
0.0
 11
-55.5999986827
 21
-5.05969394
 31
0.0
  0
LINE
  5
199
330
1F
100
AcDbEntity
  8
SK3
  6
SLD-Solid
370
    18
100
AcDbLine
 10
-55.5999986827
 20
-5.05969394
 30
0.0
 11
-55.5999986827
 21
-6.5987161361
 31
0.0
  0
LINE
  5
19A
330
1F
100
AcDbEntity
  8
SK3
  6
SLD-Solid
370
    18
100
AcDbLine
 10
-55.5999986827
 20
-6.5987161361
 30
0.0
 11
-55.5999986827
 21
-8.0148167908
 31
0.0
  0
LINE
  5
19B
330
1F
100
AcDbEntity
  8
SK3
  6
SLD-Solid
370
    18
100
AcDbLine
 10
-55.5999986827
 20
-8.0148167908
 30
0.0
 11
-55.5999986827
 21
-9.281616658
 31
0.0
  0
LINE
  5
19C
330
1F
100
AcDbEntity
  8
SK3
  6
SLD-Solid
370
    18
100
AcDbLine
 10
-55.5999986827
 20
-9.281616658
 30
0.0
 11
-55.5999986827
 21
-10.3755174205
 31
0.0
  0
LINE
  5
19D
330
1F
100
AcDbEntity
  8
SK3
  6
SLD-Solid
370
    18
100
AcDbLine
 10
-55.5999986827
 20
-10.3755174205
 30
0.0
 11
-55.5999986827
 21
-11.2761426717
 31
0.0
  0
LINE
  5
19E
330
1F
100
AcDbEntity
  8
SK3
  6
SLD-Solid
370
    18
100
AcDbLine
 10
-55.5999986827
 20
-11.2761426717
 30
0.0
 11
-55.5999986827
 21
-11.9667137042
 31
0.0
  0
LINE
  5
19F
330
1F
100
AcDbEntity
  8
SK3
  6
SLD-Solid
370
    18
100
AcDbLine
 10
-55.5999986827
 20
-11.9667137042
 30
0.0
 11
-55.5999986827
 21
-12.4343680218
 31
0.0
  0
LINE
  5
1A0
330
1F
100
AcDbEntity
  8
SK3
  6
SLD-Solid
370
    18
100
AcDbLine
 10
-55.5999986827
 20
-12.4343680218
 30
0.0
 11
-55.5999986827
 21
-12.6703931019
 31
0.0
  0
LINE
  5
1A1
330
1F
100
AcDbEntity
  8
SK3
  6
SLD-Solid
370
    18
100
AcDbLine
 10
-55.5999986827
 20
-12.6703931019
 30
0.0
 11
-55.5999986827
 21
-12.6999998465
 31
0.0
  0
LINE
  5
1A2
330
1F
100
AcDbEntity
  8
SK3
  6
SLD-Solid
370
    18
100
AcDbLine
 10
-55.5999986827
 20
12.6999998465
 30
0.0
 11
-55.5999986827
 21
12.6703931019
 31
0.0
  0
LINE
  5
1A3
330
1F
100
AcDbEntity
  8
SK3
  6
SLD-Solid
370
    18
100
AcDbLine
 10
-55.5999986827
 20
12.6703931019
 30
0.0
 11
-55.5999986827
 21
12.4343680218
 31
0.0
  0
LINE
  5
1A4
330
1F
100
AcDbEntity
  8
SK3
  6
SLD-Solid
370
    18
100
AcDbLine
 10
-55.5999986827
 20
12.4343680218
 30
0.0
 11
-55.5999986827
 21
11.9667137042
 31
0.0
  0
LINE
  5
1A5
330
1F
100
AcDbEntity
  8
SK3
  6
SLD-Solid
370
    18
100
AcDbLine
 10
-55.5999986827
 20
11.9667137042
 30
0.0
 11
-55.5999986827
 21
11.2761426717
 31
0.0
  0
LINE
  5
1A6
330
1F
100
AcDbEntity
  8
SK3
  6
SLD-Solid
370
    18
100
AcDbLine
 10
-55.5999986827
 20
11.2761426717
 30
0.0
 11
-55.5999986827
 21
10.3755174205
 31
0.0
  0
LINE
  5
1A7
330
1F
100
AcDbEntity
  8
SK3
  6
SLD-Solid
370
    18
100
AcDbLine
 10
-55.5999986827
 20
10.3755174205
 30
0.0
 11
-55.5999986827
 21
9.281616658
 31
0.0
  0
LINE
  5
1A8
330
1F
100
AcDbEntity
  8
SK3
  6
SLD-Solid
370
    18
100
AcDbLine
 10
-55.5999986827
 20
9.281616658
 30
0.0
 11
-55.5999986827
 21
8.0148167908
 31
0.0
  0
LINE
  5
1A9
330
1F
100
AcDbEntity
  8
SK3
  6
SLD-Solid
370
    18
100
AcDbLine
 10
-55.5999986827
 20
8.0148167908
 30
0.0
 11
-55.5999986827
 21
6.5987161361
 31
0.0
  0
LINE
  5
1AA
330
1F
100
AcDbEntity
  8
SK3
  6
SLD-Solid
370
    18
100
AcDbLine
 10
-55.5999986827
 20
6.5987161361
 30
0.0
 11
-55.5999986827
 21
5.05969394
 31
0.0
  0
LINE
  5
1AB
330
1F
100
AcDbEntity
  8
SK3
  6
SLD-Solid
370
    18
100
AcDbLine
 10
-55.5999986827
 20
5.05969394
 30
0.0
 11
-55.5999986827
 21
3.4264191054
 31
0.0
  0
LINE
  5
1AC
330
1F
100
AcDbEntity
  8
SK3
  6
SLD-Solid
370
    18
100
AcDbLine
 10
-55.5999986827
 20
3.4264191054
 30
0.0
 11
-55.5999986827
 21
1.7293164274
 31
0.0
  0
LINE
  5
1AD
330
1F
100
AcDbEntity
  8
SK3
  6
SLD-Solid
370
    18
100
AcDbLine
 10
-55.5999986827
 20
1.7293164274
 30
0.0
 11
-55.5999986827
 21
0.0
 31
0.0
  0
LINE
  5
1AE
330
1F
100
AcDbEntity
  8
SK3
  6
SLD-Solid
370
    18
100
AcDbLine
 10
-55.5999986827
 20
-1.7293164274
 30
0.0
 11
-55.5999986827
 21
-3.4264191054
 31
0.0
  0
LINE
  5
1AF
330
1F
100
AcDbEntity
  8
SK3
  6
SLD-Solid
370
    18
100
AcDbLine
 10
-55.5999986827
 20
-3.4264191054
 30
0.0
 11
-55.5999986827
 21
-5.05969394
 31
0.0
  0
LINE
  5
1B0
330
1F
100
AcDbEntity
  8
SK3
  6
SLD-Solid
370
    18
100
AcDbLine
 10
-55.5999986827
 20
-5.05969394
 30
0.0
 11
-55.5999986827
 21
-6.5987161361
 31
0.0
  0
LINE
  5
1B1
330
1F
100
AcDbEntity
  8
SK3
  6
SLD-Solid
370
    18
100
AcDbLine
 10
-55.5999986827
 20
-6.5987161361
 30
0.0
 11
-55.5999986827
 21
-8.0148167908
 31
0.0
  0
LINE
  5
1B2
330
1F
100
AcDbEntity
  8
SK3
  6
SLD-Solid
370
    18
100
AcDbLine
 10
-55.5999986827
 20
-8.0148167908
 30
0.0
 11
-55.5999986827
 21
-9.281616658
 31
0.0
  0
LINE
  5
1B3
330
1F
100
AcDbEntity
  8
SK3
  6
SLD-Solid
370
    18
100
AcDbLine
 10
-55.5999986827
 20
-9.281616658
 30
0.0
 11
-55.5999986827
 21
-10.3755174205
 31
0.0
  0
LINE
  5
1B4
330
1F
100
AcDbEntity
  8
SK3
  6
SLD-Solid
370
    18
100
AcDbLine
 10
-55.5999986827
 20
-10.3755174205
 30
0.0
 11
-55.5999986827
 21
-11.2761426717
 31
0.0
  0
LINE
  5
1B5
330
1F
100
AcDbEntity
  8
SK3
  6
SLD-Solid
370
    18
100
AcDbLine
 10
-55.5999986827
 20
-11.2761426717
 30
0.0
 11
-55.5999986827
 21
-11.9667137042
 31
0.0
  0
LINE
  5
1B6
330
1F
100
AcDbEntity
  8
SK3
  6
SLD-Solid
370
    18
100
AcDbLine
 10
-55.5999986827
 20
-11.9667137042
 30
0.0
 11
-55.5999986827
 21
-12.4343680218
 31
0.0
  0
LINE
  5
1B7
330
1F
100
AcDbEntity
  8
SK3
  6
SLD-Solid
370
    18
100
AcDbLine
 10
-55.5999986827
 20
-12.4343680218
 30
0.0
 11
-55.5999986827
 21
-12.6703931019
 31
0.0
  0
LINE
  5
1B8
330
1F
100
AcDbEntity
  8
SK3
  6
SLD-Solid
370
    18
100
AcDbLine
 10
-55.5999986827
 20
-12.6703931019
 30
0.0
 11
-55.5999986827
 21
-12.6999998465
 31
0.0
  0
LINE
  5
1B9
330
1F
100
AcDbEntity
  8
SK3
  6
SLD-Solid
370
    18
100
AcDbLine
 10
-55.5999986827
 20
12.6999998465
 30
0.0
 11
-55.5999986827
 21
12.6703931019
 31
0.0
  0
LINE
  5
1BA
330
1F
100
AcDbEntity
  8
SK3
  6
SLD-Solid
370
    18
100
AcDbLine
 10
-55.5999986827
 20
12.6703931019
 30
0.0
 11
-55.5999986827
 21
12.4343680218
 31
0.0
  0
LINE
  5
1BB
330
1F
100
AcDbEntity
  8
SK3
  6
SLD-Solid
370
    18
100
AcDbLine
 10
-55.5999986827
 20
12.4343680218
 30
0.0
 11
-55.5999986827
 21
11.9667137042
 31
0.0
  0
LINE
  5
1BC
330
1F
100
AcDbEntity
  8
SK3
  6
SLD-Solid
370
    18
100
AcDbLine
 10
-55.5999986827
 20
11.9667137042
 30
0.0
 11
-55.5999986827
 21
11.2761426717
 31
0.0
  0
LINE
  5
1BD
330
1F
100
AcDbEntity
  8
SK3
  6
SLD-Solid
370
    18
100
AcDbLine
 10
-55.5999986827
 20
11.2761426717
 30
0.0
 11
-55.5999986827
 21
10.3755174205
 31
0.0
  0
LINE
  5
1BE
330
1F
100
AcDbEntity
  8
SK3
  6
SLD-Solid
370
    18
100
AcDbLine
 10
-55.5999986827
 20
10.3755174205
 30
0.0
 11
-55.5999986827
 21
9.281616658
 31
0.0
  0
LINE
  5
1BF
330
1F
100
AcDbEntity
  8
SK3
  6
SLD-Solid
370
    18
100
AcDbLine
 10
-55.5999986827
 20
9.281616658
 30
0.0
 11
-55.5999986827
 21
8.0148167908
 31
0.0
  0
LINE
  5
1C0
330
1F
100
AcDbEntity
  8
SK3
  6
SLD-Solid
370
    18
100
AcDbLine
 10
-55.5999986827
 20
8.0148167908
 30
0.0
 11
-55.5999986827
 21
6.5987161361
 31
0.0
  0
LINE
  5
1C1
330
1F
100
AcDbEntity
  8
SK3
  6
SLD-Solid
370
    18
100
AcDbLine
 10
-55.5999986827
 20
6.5987161361
 30
0.0
 11
-55.5999986827
 21
5.05969394
 31
0.0
  0
LINE
  5
1C2
330
1F
100
AcDbEntity
  8
SK3
  6
SLD-Solid
370
    18
100
AcDbLine
 10
-55.5999986827
 20
5.05969394
 30
0.0
 11
-55.5999986827
 21
3.4264191054
 31
0.0
  0
LINE
  5
1C3
330
1F
100
AcDbEntity
  8
SK3
  6
SLD-Solid
370
    18
100
AcDbLine
 10
-55.5999986827
 20
3.4264191054
 30
0.0
 11
-55.5999986827
 21
1.7293164274
 31
0.0
  0
LINE
  5
1C4
330
1F
100
AcDbEntity
  8
SK3
  6
SLD-Solid
370
    18
100
AcDbLine
 10
-55.5999986827
 20
1.7293164274
 30
0.0
 11
-55.5999986827
 21
0.0
 31
0.0
  0
LINE
  5
1C5
330
1F
100
AcDbEntity
  8
SK3
  6
SLD-Solid
370
    18
100
AcDbLine
 10
50.7999993861
 20
12.451489456
 30
0.0
 11
50.7999993861
 21
21.099999547
 31
0.0
  0
LINE
  5
1C6
330
1F
100
AcDbEntity
  8
SK3
  6
SLD-Solid
370
    18
100
AcDbLine
 10
36.8000008166
 20
21.099999547
 30
0.0
 11
36.8000008166
 21
12.451489456
 31
0.0
  0
LINE
  5
1C7
330
1F
100
AcDbEntity
  8
SK3
  6
SLD-Solid
370
    18
100
AcDbLine
 10
50.7129915059
 20
12.451489456
 30
0.0
 11
50.6974793971
 21
12.4428793788
 31
0.0
  0
LINE
  5
1C8
330
1F
100
AcDbEntity
  8
SK3
  6
SLD-Solid
370
    18
100
AcDbLine
 10
75.1999989152
 20
12.451489456
 30
0.0
 11
75.1999989152
 21
21.099999547
 31
0.0
  0
LINE
  5
1C9
330
1F
100
AcDbEntity
  8
SK3
  6
SLD-Solid
370
    18
100
AcDbLine
 10
61.2000003457
 20
21.099999547
 30
0.0
 11
61.2000003457
 21
12.451489456
 31
0.0
  0
LINE
  5
1CA
330
1F
100
AcDbEntity
  8
SK3
  6
SLD-Solid
370
    18
100
AcDbLine
 10
75.112991035
 20
12.451489456
 30
0.0
 11
75.0974789262
 21
12.4428793788
 31
0.0
  0
LINE
  5
1CB
330
1F
100
AcDbEntity
  8
4
  6
SLD-Center
370
    18
100
AcDbLine
 10
87.0
 20
0.0
 30
0.0
 11
-0.2348191737
 21
0.0
 31
0.0
  0
LINE
  5
1CC
330
1F
100
AcDbEntity
  8
4
  6
SLD-Center
370
    18
100
AcDbLine
 10
43.8
 20
10.5
 30
0.0
 11
43.8
 21
22.6
 31
0.0
  0
LINE
  5
1CD
330
1F
100
AcDbEntity
  8
4
  6
SLD-Center
370
    18
100
AcDbLine
 10
68.2
 20
10.5
 30
0.0
 11
68.2
 21
22.6
 31
0.0
  0
LINE
  5
1CE
330
1F
100
AcDbEntity
  8
SK4
  6
SLD-Center
370
    18
100
AcDbLine
 10
-101.8030472773
 20
0.0
 30
0.0
 11
84.1240154943
 21
0.0
 31
0.0
  0
LINE
  5
1CF
330
1F
100
AcDbEntity
  8
81
370
    18
100
AcDbLine
 10
85.0
 20
0.0
 30
0.0
 11
88.5355339059
 21
3.5355339059
 31
0.0
  0
LINE
  5
1D0
330
1F
100
AcDbEntity
  8
81
370
    18
100
AcDbLine
 10
85.0
 20
0.0
 30
0.0
 11
81.4644660941
 21
-3.5355339059
 31
0.0
  0
LINE
  5
1D1
330
1F
100
AcDbEntity
  8
81
370
    18
100
AcDbLine
 10
85.0
 20
0.0
 30
0.0
 11
81.4644660941
 21
3.5355339059
 31
0.0
  0
LINE
  5
1D2
330
1F
100
AcDbEntity
  8
81
100
AcDbLine
 10
85.0
 20
0.0
 30
0.0
 11
95.0
 21
0.0
 31
0.0
  0
LINE
  5
1D3
330
1F
100
AcDbEntity
  8
81
370
    18
100
AcDbLine
 10
85.0
 20
0.0
 30
0.0
 11
88.5355339059
 21
-3.5355339059
 31
0.0
  0
LINE
  5
1D4
330
1F
100
AcDbEntity
  8
80
370
    18
100
AcDbLine
 10
0.0
 20
0.0
 30
0.0
 11
-3.5355339059
 21
-3.5355339059
 31
0.0
  0
LINE
  5
1D5
330
1F
100
AcDbEntity
  8
80
370
    18
100
AcDbLine
 10
0.0
 20
0.0
 30
0.0
 11
3.5355339059
 21
3.5355339059
 31
0.0
  0
LINE
  5
1D6
330
1F
100
AcDbEntity
  8
80
370
    18
100
AcDbLine
 10
0.0
 20
0.0
 30
0.0
 11
-3.5355339059
 21
3.5355339059
 31
0.0
  0
LINE
  5
1D7
330
1F
100
AcDbEntity
  8
80
370
    18
100
AcDbLine
 10
0.0
 20
0.0
 30
0.0
 11
-10.0
 21
0.0
 31
0.0
  0
LINE
  5
1D8
330
1F
100
AcDbEntity
  8
80
370
    18
100
AcDbLine
 10
0.0
 20
0.0
 30
0.0
 11
3.5355339059
 21
-3.5355339059
 31
0.0
  0
ARC
  5
1D9
330
1F
100
AcDbEntity
  8
1
  6
SLD-Solid
370
    25
100
AcDbCircle
 10
2.45
 20
35.425
 30
0.0
 40
0.7500000000000009
100
AcDbArc
 50
245.0
 51
0.0
  0
ARC
  5
1DA
330
1F
100
AcDbEntity
  8
1
  6
SLD-Solid
370
    25
100
AcDbCircle
 10
2.45
 20
-35.425
 30
0.0
 40
0.7500000000000134
100
AcDbArc
 50
25.5696302698
 51
115.0
  0
ARC
  5
1DB
330
1F
100
AcDbEntity
  8
1
  6
SLD-Solid
370
    25
100
AcDbCircle
 10
22.098
 20
-25.548
 30
0.0
 40
3.048000000000002
100
AcDbArc
 50
90.0
 51
180.0
  0
ARC
  5
1DC
330
1F
100
AcDbEntity
  8
1
  6
SLD-Solid
370
    25
100
AcDbCircle
 10
22.098
 20
25.548
 30
0.0
 40
3.047999999999995
100
AcDbArc
 50
180.0
 51
270.0
  0
ARC
  5
1DD
330
1F
100
AcDbEntity
  8
SK1
  6
SLD-Solid
370
    25
100
AcDbCircle
 10
-99.5
 20
18.2922326599
 30
0.0
 40
2.100000000000009
100
AcDbArc
 50
98.2972222222
 51
180.0
  0
ARC
  5
1DE
330
1F
100
AcDbEntity
  8
SK1
  6
SLD-Solid
370
    25
100
AcDbCircle
 10
-99.5
 20
-18.2922326599
 30
0.0
 40
2.100000000000009
100
AcDbArc
 50
180.0
 51
261.7027777778
  0
ARC
  5
1DF
330
1F
100
AcDbEntity
  8
1
370
    18
100
AcDbCircle
 10
43.8003047069
 20
51.7543555202
 30
0.0
 40
30.43636308630552
100
AcDbArc
 50
254.0002630268
 51
286.0201653688
  0
ARC
  5
1E0
330
1F
100
AcDbEntity
  8
1
370
    18
100
AcDbCircle
 10
68.2002951505
 20
51.8079613525
 30
0.0
 40
30.48789333814458
100
AcDbArc
 50
254.0280478938
 51
285.9923805018
  0
ARC
  5
1E1
330
1F
100
AcDbEntity
  8
1
370
    18
100
AcDbCircle
 10
43.8049044265
 20
-52.1487175066
 30
0.0
 40
31.00370219008322
100
AcDbArc
 50
73.037757917
 51
107.0017087533
  0
ARC
  5
1E2
330
1F
100
AcDbEntity
  8
1
370
    18
100
AcDbCircle
 10
68.1947367241
 20
-53.1906374102
 30
0.0
 40
32.00163793891883
100
AcDbArc
 50
73.5431444924
 51
106.4173888373
  0
CIRCLE
  5
1E3
330
1F
100
AcDbEntity
  8
81
370
    18
100
AcDbCircle
 10
85.0
 20
0.0
 30
0.0
 40
2.499999999999998
  0
CIRCLE
  5
1E4
330
1F
100
AcDbEntity
  8
80
370
    18
100
AcDbCircle
 10
0.0
 20
0.0
 30
0.0
 40
2.500000000000009
  0
SPLINE
  5
1E5
330
1F
100
AcDbEntity
  8
1
  6
SLD-Solid
370
    25
100
AcDbSpline
210
0.0
220
0.0
230
1.0
 70
     8
 71
     3
 72
    12
 73
     8
 74
     0
 42
0.000000001
 43
0.00000001
 40
0.0
 40
0.0
 40
0.0
 40
0.0
 40
0.2499999999999983
 40
0.2499999999999983
 40
0.4999999999999967
 40
0.4999999999999967
 40
1.0
 40
1.0
 40
1.0
 40
1.0
 10
19.04999999999998
 20
-46.69763484374771
 30
0.0
 10
19.04999999999999
 20
-46.79851095846171
 30
0.0
 10
19.0313705936621
 20
-46.8973396642895
 30
0.0
 10
18.95815575330306
 20
-47.08411469648356
 30
0.0
 10
18.90402082648719
 20
-47.16991322230012
 30
0.0
 10
18.69812814693782
 20
-47.38753444472539
 30
0.0
 10
18.50197314321875
 20
-47.47548419974299
 30
0.0
 10
18.30000000000009
 20
-47.47548419974303
 30
0.0
  0
SPLINE
  5
1E6
330
1F
100
AcDbEntity
  8
1
  6
SLD-Solid
370
    25
100
AcDbSpline
210
0.0
220
0.0
230
1.0
 70
     8
 71
     3
 72
    15
 73
    11
 74
     0
 42
0.000000001
 43
0.00000001
 40
0.0
 40
0.0
 40
0.0
 40
0.0
 40
0.070867546718904
 40
0.1234206290198622
 40
0.2469923695819581
 40
0.4940839350894875
 40
0.6226370203369791
 40
0.7456896564301834
 40
0.8736712713987574
 40
1.0
 40
1.0
 40
1.0
 40
1.0
 10
19.04999999999998
 20
46.5560855313245
 30
0.0
 10
19.04912781744741
 20
46.5834464176208
 30
0.0
 10
19.04760885250163
 20
46.63109725292662
 30
0.0
 10
19.03252103265979
 20
46.72541301613892
 30
0.0
 10
18.98548435274784
 20
46.8828643158683
 30
0.0
 10
18.87493087111873
 20
47.04890219769221
 30
0.0
 10
18.72384724369282
 20
47.17307551094381
 30
0.0
 10
18.59213990211467
 20
47.24320117897886
 30
0.0
 10
18.44967423040803
 20
47.28829435244317
 30
0.0
 10
18.34967476177361
 20
47.29398684875639
 30
0.0
 10
18.30000000000005
 20
47.29681459776462
 30
0.0
  0
SPLINE
  5
1E7
330
1F
100
AcDbEntity
  8
1
  6
SLD-Solid
370
    25
100
AcDbSpline
210
0.0
220
0.0
230
1.0
 70
     8
 71
     3
 72
    12
 73
     8
 74
     0
 42
0.000000001
 43
0.00000001
 40
0.0
 40
0.0
 40
0.0
 40
0.0
 40
0.249999999999997
 40
0.249999999999997
 40
0.499999999999994
 40
0.499999999999994
 40
1.0
 40
1.0
 40
1.0
 40
1.0
 10
3.949999999999982
 20
-47.47548419974249
 30
0.0
 10
3.84908403089057
 20
-47.4754841997425
 30
0.0
 10
3.749978417477442
 20
-47.45437693482702
 30
0.0
 10
3.566847730075498
 20
-47.37426897057826
 30
0.0
 10
3.48345509594733
 20
-47.31511647588032
 30
0.0
 10
3.278048511272571
 20
-47.09831987092232
 30
0.0
 10
3.199999999999981
 20
-46.89926900274102
 30
0.0
 10
3.199999999999981
 20
-46.69763484374771
 30
0.0
  0
SPLINE
  5
1E8
330
1F
100
AcDbEntity
  8
1
  6
SLD-Solid
370
    25
100
AcDbSpline
210
0.0
220
0.0
230
1.0
 70
     8
 71
     3
 72
    17
 73
    13
 74
     0
 42
0.000000001
 43
0.00000001
 40
0.0
 40
0.0
 40
0.0
 40
0.0
 40
0.0631225276679373
 40
0.1266732404557616
 40
0.190657859823915
 40
0.2550819704917502
 40
0.37796775618313
 40
0.5065287291742231
 40
0.753627574171531
 40
0.8770326867277551
 40
0.929351593520063
 40
0.9999999999999999
 40
0.9999999999999999
 40
0.9999999999999999
 40
0.9999999999999999
 10
3.949999999999924
 20
47.29681459776457
 30
0.0
 10
3.925201491186246
 20
47.29611182214632
 30
0.0
 10
3.87543625544623
 20
47.29470150370427
 30
0.0
 10
3.801280717947969
 20
47.28327895415905
 30
0.0
 10
3.728120549120916
 20
47.26498746189474
 30
0.0
 10
3.635342933316841
 20
47.23149463842289
 30
0.0
 10
3.525682301876083
 20
47.17267397043142
 30
0.0
 10
3.374709300497924
 20
47.04854698611182
 30
0.0
 10
3.264271220664394
 20
46.88235514412619
 30
0.0
 10
3.217384189860665
 20
46.72497704377734
 30
0.0
 10
3.202376761219879
 20
46.63086119229418
 30
0.0
 10
3.20086725599029
 20
46.58337040931761
 30
0.0
 10
3.19999999999999
 20
46.55608553132448
 30
0.0
  0
SPLINE
  5
1E9
330
1F
100
AcDbEntity
  8
1
  6
SLD-Solid
370
    25
100
AcDbSpline
210
0.0
220
0.0
230
1.0
 70
     8
 71
     3
 72
    14
 73
    10
 74
     0
 42
0.000000001
 43
0.00000001
 40
0.0
 40
0.0
 40
0.0
 40
0.0
 40
0.25
 40
0.25
 40
0.5
 40
0.5
 40
0.75
 40
0.75
 40
1.0
 40
1.0
 40
1.0
 40
1.0
 10
13.02999999999607
 20
41.98711733167136
 30
0.0
 10
13.05904068228765
 20
41.99358445674419
 30
0.0
 10
13.08275209482984
 20
41.9892355902063
 30
0.0
 10
13.1160965832247
 20
41.95189511103385
 30
0.0
 10
13.12492140067509
 20
41.91935250781673
 30
0.0
 10
13.12507754967822
 20
41.8251138057685
 30
0.0
 10
13.11615053209061
 20
41.76334893396455
 30
0.0
 10
13.08319562521535
 20
41.6208767288557
 30
0.0
 10
13.05911019949627
 20
41.53942138186895
 30
0.0
 10
13.03
 20
41.45311361597065
 30
0.0
  0
SPLINE
  5
1EA
330
1F
100
AcDbEntity
  8
1
  6
SLD-Solid
370
    25
100
AcDbSpline
210
0.0
220
0.0
230
1.0
 70
     8
 71
     3
 72
     8
 73
     4
 74
     0
 42
0.000000001
 43
0.00000001
 40
0.0
 40
0.0
 40
0.0
 40
0.0
 40
1.0
 40
1.0
 40
1.0
 40
1.0
 10
13.02999999999997
 20
44.57901066343648
 30
0.0
 10
13.44364613314278
 20
45.32508460154333
 30
0.0
 10
13.85791150908241
 20
46.07082082932959
 30
0.0
 10
14.27271061994656
 20
46.81625358782996
 30
0.0
  0
SPLINE
  5
1EB
330
1F
100
AcDbEntity
  8
1
  6
SLD-Solid
370
    25
100
AcDbSpline
210
0.0
220
0.0
230
1.0
 70
     8
 71
     3
 72
     8
 73
     4
 74
     0
 42
0.000000001
 43
0.00000001
 40
0.0
 40
0.0
 40
0.0
 40
0.0
 40
0.0008790679015123
 40
0.0008790679015123
 40
0.0008790679015123
 40
0.0008790679015123
 10
14.63972339340265
 20
47.29681459776457
 30
0.0
 10
14.51700841932646
 20
47.13673210499615
 30
0.0
 10
14.39466513614737
 20
46.97654627942757
 30
0.0
 10
14.27271061994656
 20
46.81625358782996
 30
0.0
  0
SPLINE
  5
1EC
330
1F
100
AcDbEntity
  8
1
  6
SLD-Solid
370
    25
100
AcDbSpline
210
0.0
220
0.0
230
1.0
 70
     8
 71
     3
 72
     8
 73
     4
 74
     0
 42
0.000000001
 43
0.00000001
 40
0.0
 40
0.0
 40
0.0
 40
0.0
 40
1.0
 40
1.0
 40
1.0
 40
1.0
 10
13.02999999999997
 20
-44.57901066343647
 30
0.0
 10
13.56559195163208
 20
-45.54503249842017
 30
0.0
 10
14.10222500453556
 20
-46.51049654710809
 30
0.0
 10
14.63972339340265
 20
-47.4754841997425
 30
0.0
  0
SPLINE
  5
1ED
330
1F
100
AcDbEntity
  8
1
  6
SLD-Solid
370
    25
100
AcDbSpline
210
0.0
220
0.0
230
1.0
 70
     8
 71
     3
 72
    14
 73
    10
 74
     0
 42
0.000000001
 43
0.00000001
 40
0.0
 40
0.0
 40
0.0
 40
0.0
 40
0.25
 40
0.25
 40
0.5
 40
0.5
 40
0.75
 40
0.75
 40
1.0
 40
1.0
 40
1.0
 40
1.0
 10
13.03
 20
35.43161038841291
 30
0.0
 10
13.05904068229162
 20
35.4108851273387
 30
0.0
 10
13.08275209483375
 20
35.37953864703776
 30
0.0
 10
13.11609658322836
 20
35.28872072742523
 30
0.0
 10
13.12492140067852
 20
35.23076880196019
 30
0.0
 10
13.12507754968095
 20
35.08956907537858
 30
0.0
 10
13.11615053209289
 20
35.00648906177567
 30
0.0
 10
13.08319562521658
 20
34.8277942102537
 30
0.0
 10
13.0591101994969
 20
34.73111937885587
 30
0.0
 10
13.02999999999997
 20
34.63242923389117
 30
0.0
  0
SPLINE
  5
1EE
330
1F
100
AcDbEntity
  8
1
  6
SLD-Solid
370
    25
100
AcDbSpline
210
0.0
220
0.0
230
1.0
 70
     8
 71
     3
 72
     8
 73
     4
 74
     0
 42
0.000000001
 43
0.00000001
 40
0.0
 40
0.0
 40
0.0
 40
0.0
 40
1.0
 40
1.0
 40
1.0
 40
1.0
 10
7.590276606597307
 20
-47.47548419974249
 30
0.0
 10
8.127774995464396
 20
-46.51049654710808
 30
0.0
 10
8.66440804836785
 20
-45.54503249842016
 30
0.0
 10
9.199999999999985
 20
-44.57901066343646
 30
0.0
  0
SPLINE
  5
1EF
330
1F
100
AcDbEntity
  8
1
  6
SLD-Solid
370
    25
100
AcDbSpline
210
0.0
220
0.0
230
1.0
 70
     8
 71
     3
 72
     8
 73
     4
 74
     0
 42
0.000000001
 43
0.00000001
 40
0.0000000000000098
 40
0.0000000000000098
 40
0.0000000000000098
 40
0.0000000000000098
 40
0.000879067901516
 40
0.000879067901516
 40
0.000879067901516
 40
0.000879067901516
 10
7.957289380062141
 20
46.81625358782994
 30
0.0
 10
7.835334863860838
 20
46.97654627942823
 30
0.0
 10
7.712991580674053
 20
47.13673210499547
 30
0.0
 10
7.590276606597368
 20
47.29681459776455
 30
0.0
  0
SPLINE
  5
1F0
330
1F
100
AcDbEntity
  8
1
  6
SLD-Solid
370
    25
100
AcDbSpline
210
0.0
220
0.0
230
1.0
 70
     8
 71
     3
 72
     8
 73
     4
 74
     0
 42
0.000000001
 43
0.00000001
 40
0.0
 40
0.0
 40
0.0
 40
0.0
 40
1.0
 40
1.0
 40
1.0
 40
1.0
 10
7.957289380055729
 20
46.81625358784149
 30
0.0
 10
8.372088490919097
 20
46.07082082933728
 30
0.0
 10
8.78635386685797
 20
45.32508460154716
 30
0.0
 10
9.199999999999985
 20
44.57901066343646
 30
0.0
  0
SPLINE
  5
1F1
330
1F
100
AcDbEntity
  8
1
  6
SLD-Solid
370
    25
100
AcDbSpline
210
0.0
220
0.0
230
1.0
 70
     8
 71
     3
 72
    14
 73
    10
 74
     0
 42
0.000000001
 43
0.00000001
 40
0.0
 40
0.0
 40
0.0
 40
0.0
 40
0.25
 40
0.25
 40
0.5
 40
0.5
 40
0.75
 40
0.75
 40
1.0
 40
1.0
 40
1.0
 40
1.0
 10
9.200000000002262
 20
41.48301295145394
 30
0.0
 10
9.176680646156898
 20
41.55645645104907
 30
0.0
 10
9.157956892055536
 20
41.62429306843829
 30
0.0
 10
9.131927678784708
 20
41.74600607925087
 30
0.0
 10
9.125045582368486
 20
41.79860573441294
 30
0.0
 10
9.12495487964375
 20
41.88147815789094
 30
0.0
 10
9.131870505305034
 20
41.91255410941324
 30
0.0
 10
9.157670888230413
 20
41.9512409197013
 30
0.0
 10
9.176601575159566
 20
41.95960923610542
 30
0.0
 10
9.199999999999985
 20
41.9587011964232
 30
0.0
  0
SPLINE
  5
1F2
330
1F
100
AcDbEntity
  8
1
  6
SLD-Solid
370
    25
100
AcDbSpline
210
0.0
220
0.0
230
1.0
 70
     8
 71
     3
 72
    14
 73
    10
 74
     0
 42
0.000000001
 43
0.00000001
 40
0.0
 40
0.0
 40
0.0
 40
0.0
 40
0.25
 40
0.25
 40
0.5
 40
0.5
 40
0.75
 40
0.75
 40
1.0
 40
1.0
 40
1.0
 40
1.0
 10
9.199999999999985
 20
34.67668893498512
 30
0.0
 10
9.176680646155248
 20
34.76218380134753
 30
0.0
 10
9.157956892054466
 20
34.8440912290537
 30
0.0
 10
9.131927678784708
 20
34.99897222909988
 30
0.0
 10
9.125045582368971
 20
35.07047900120375
 30
0.0
 10
9.124954879645028
 20
35.19440944821505
 30
0.0
 10
9.131870505306644
 20
35.24816533561763
 30
0.0
 10
9.157670888232467
 20
35.33309634836897
 30
0.0
 10
9.176601575161772
 20
35.36545280972801
 30
0.0
 10
9.200000000002262
 20
35.38859611770602
 30
0.0
  0
SPLINE
  5
1F3
330
1F
100
AcDbEntity
  8
1
  6
SLD-Solid
370
    25
100
AcDbSpline
210
0.0
220
0.0
230
1.0
 70
     8
 71
     3
 72
    12
 73
     8
 74
     0
 42
0.000000001
 43
0.00000001
 40
0.0
 40
0.0
 40
0.0
 40
0.0
 40
0.2500000000000032
 40
0.2500000000000032
 40
0.5000000000000063
 40
0.5000000000000063
 40
1.0
 40
1.0
 40
1.0
 40
1.0
 10
12.28
 20
-43.76943596849288
 30
0.0
 10
12.37996960464105
 20
-43.76943596849288
 30
0.0
 10
12.47988502523367
 20
-43.79051518316403
 30
0.0
 10
12.66449294223866
 20
-43.87194262843688
 30
0.0
 10
12.74728498815324
 20
-43.93126060501206
 30
0.0
 10
12.95342033959712
 20
-44.15080408372862
 30
0.0
 10
13.03
 20
-44.35163254795798
 30
0.0
 10
13.03
 20
-44.55102159322499
 30
0.0
  0
SPLINE
  5
1F4
330
1F
100
AcDbEntity
  8
1
  6
SLD-Solid
370
    25
100
AcDbSpline
210
0.0
220
0.0
230
1.0
 70
     8
 71
     3
 72
    16
 73
    12
 74
     0
 42
0.000000001
 43
0.00000001
 40
0.0
 40
0.0
 40
0.0
 40
0.0
 40
0.1250000000000001
 40
0.1250000000000001
 40
0.2500000000000003
 40
0.2500000000000003
 40
0.5000000000000002
 40
0.5000000000000002
 40
0.7500000000000001
 40
0.7500000000000001
 40
1.0
 40
1.0
 40
1.0
 40
1.0
 10
13.03
 20
34.61214293353756
 30
0.0
 10
13.03
 20
34.56119277402758
 30
0.0
 10
13.02067456260607
 20
34.49413963137994
 30
0.0
 10
12.99367590047851
 20
34.36331338142201
 30
0.0
 10
12.97626449755331
 20
34.29908556562461
 30
0.0
 10
12.91545405813531
 20
34.11096290842622
 30
0.0
 10
12.86271449633858
 20
33.99023971150844
 30
0.0
 10
12.73634152951908
 20
33.76817627154974
 30
0.0
 10
12.66098841639737
 20
33.66394234496747
 30
0.0
 10
12.4867120453778
 20
33.48358218869543
 30
0.0
 10
12.38972674335426
 20
33.40848998465462
 30
0.0
 10
12.28
 20
33.35547071674117
 30
0.0
  0
SPLINE
  5
1F5
330
1F
100
AcDbEntity
  8
1
  6
SLD-Solid
370
    25
100
AcDbSpline
210
0.0
220
0.0
230
1.0
 70
     8
 71
     3
 72
    12
 73
     8
 74
     0
 42
0.000000001
 43
0.00000001
 40
0.0
 40
0.0
 40
0.0
 40
0.0
 40
0.5
 40
0.5
 40
0.75
 40
0.75
 40
1.0
 40
1.0
 40
1.0
 40
1.0
 10
9.199999999999985
 20
-44.55102159322499
 30
0.0
 10
9.199999999999985
 20
-44.35094747116167
 30
0.0
 10
9.277613070150098
 20
-44.14958800989076
 30
0.0
 10
9.48251103730055
 20
-43.93153570225751
 30
0.0
 10
9.566272299852269
 20
-43.87162606259758
 30
0.0
 10
9.749092094904363
 20
-43.79094541821726
 30
0.0
 10
9.849426682175643
 20
-43.76943596849289
 30
0.0
 10
9.949999999999987
 20
-43.76943596849289
 30
0.0
  0
SPLINE
  5
1F6
330
1F
100
AcDbEntity
  8
1
  6
SLD-Solid
370
    25
100
AcDbSpline
210
0.0
220
0.0
230
1.0
 70
     8
 71
     3
 72
    16
 73
    12
 74
     0
 42
0.000000001
 43
0.00000001
 40
0.0
 40
0.0
 40
0.0
 40
0.0
 40
0.2499999999999967
 40
0.2499999999999967
 40
0.4999999999999934
 40
0.4999999999999934
 40
0.7499999999999902
 40
0.7499999999999902
 40
0.8749999999999951
 40
0.8749999999999951
 40
1.0
 40
1.0
 40
1.0
 40
1.0
 10
9.949999999999987
 20
33.36525953046025
 30
0.0
 10
9.83925759521062
 20
33.42015914282664
 30
0.0
 10
9.74041673400143
 20
33.49854219709404
 30
0.0
 10
9.564708009184047
 20
33.68553569890511
 30
0.0
 10
9.490830483266114
 20
33.79082769792043
 30
0.0
 10
9.364658348120003
 20
34.01955880125701
 30
0.0
 10
9.31295142551812
 20
34.14247439570438
 30
0.0
 10
9.253206550793799
 20
34.3348846178598
 30
0.0
 10
9.236028623043916
 20
34.40121962580661
 30
0.0
 10
9.20972370305702
 20
34.53368853253289
 30
0.0
 10
9.199999999999985
 20
34.60516910831215
 30
0.0
 10
9.199999999999985
 20
34.65640299543515
 30
0.0
  0
SPLINE
  5
1F7
330
1F
100
AcDbEntity
  8
1
  6
SLD-Solid
370
    25
100
AcDbSpline
210
0.0
220
0.0
230
1.0
 70
     8
 71
     3
 72
    12
 73
     8
 74
     0
 42
0.000000001
 43
0.00000001
 40
0.0
 40
0.0
 40
0.0
 40
0.0
 40
0.2500000000000006
 40
0.2500000000000006
 40
0.5000000000000011
 40
0.5000000000000011
 40
1.0
 40
1.0
 40
1.0
 40
1.0
 10
12.28
 20
33.35547071674117
 30
0.0
 10
12.10934456477525
 20
33.27301109054177
 30
0.0
 10
11.92465326465503
 20
33.21019284332252
 30
0.0
 10
11.52752277837882
 20
33.12414278909399
 30
0.0
 10
11.32193513118782
 20
33.10278110396342
 30
0.0
 10
10.69948105299426
 20
33.10504385732295
 30
0.0
 10
10.28831449591978
 20
33.19754297491612
 30
0.0
 10
9.949999999999987
 20
33.36525953046025
 30
0.0
  0
SPLINE
  5
1F8
330
1F
100
AcDbEntity
  8
1
  6
SLD-Solid
370
    25
100
AcDbSpline
210
0.0
220
0.0
230
1.0
 70
     8
 71
     3
 72
    16
 73
    12
 74
     0
 42
0.000000001
 43
0.00000001
 40
0.0
 40
0.0
 40
0.0
 40
0.0
 40
0.125
 40
0.125
 40
0.25
 40
0.25
 40
0.5
 40
0.5
 40
0.75
 40
0.75
 40
1.0
 40
1.0
 40
1.0
 40
1.0
 10
9.200000000002262
 20
35.36831017813519
 30
0.0
 10
9.20000000000476
 20
35.31693147873785
 30
0.0
 10
9.209688078863506
 20
35.29149399688278
 30
0.0
 10
9.236073415536936
 20
35.26518486786851
 30
0.0
 10
9.253070624742746
 20
35.26193032552568
 30
0.0
 10
9.313034815215616
 20
35.26168910608486
 30
0.0
 10
9.363922455828094
 20
35.2747715451527
 30
0.0
 10
9.490054525550171
 20
35.3115651964856
 30
0.0
 10
9.565092430043192
 20
35.33621653960019
 30
0.0
 10
9.7389246472689
 20
35.39932894997544
 30
0.0
 10
9.839445946351875
 20
35.43834692831699
 30
0.0
 10
9.949999999999987
 20
35.48885481142476
 30
0.0
  0
SPLINE
  5
1F9
330
1F
100
AcDbEntity
  8
1
  6
SLD-Solid
370
    25
100
AcDbSpline
210
0.0
220
0.0
230
1.0
 70
     8
 71
     3
 72
    12
 73
     8
 74
     0
 42
0.000000001
 43
0.00000001
 40
0.0
 40
0.0
 40
0.0
 40
0.0
 40
0.25
 40
0.25
 40
0.5
 40
0.5
 40
1.0
 40
1.0
 40
1.0
 40
1.0
 10
9.949999999999987
 20
35.48885481142476
 30
0.0
 10
10.11915676939236
 20
35.56613601508453
 30
0.0
 10
10.30270770519945
 20
35.62476545355778
 30
0.0
 10
10.69826560395108
 20
35.70597605697657
 30
0.0
 10
10.90345647830326
 20
35.72681273192289
 30
0.0
 10
11.52590240230554
 20
35.72953904175433
 30
0.0
 10
11.9386879690077
 20
35.64974792445473
 30
0.0
 10
12.28
 20
35.49787263615902
 30
0.0
  0
SPLINE
  5
1FA
330
1F
100
AcDbEntity
  8
1
  6
SLD-Solid
370
    25
100
AcDbSpline
210
0.0
220
0.0
230
1.0
 70
     8
 71
     3
 72
    16
 73
    12
 74
     0
 42
0.000000001
 43
0.00000001
 40
0.0
 40
0.0
 40
0.0
 40
0.0
 40
0.2499999999999999
 40
0.2499999999999999
 40
0.4999999999999998
 40
0.4999999999999998
 40
0.7499999999999997
 40
0.7499999999999997
 40
0.8749999999999998
 40
0.8749999999999998
 40
1.0
 40
1.0
 40
1.0
 40
1.0
 10
12.28
 20
35.49787263615902
 30
0.0
 10
12.38938127142805
 20
35.44920071538321
 30
0.0
 10
12.48719790588467
 20
35.4125691393556
 30
0.0
 10
12.66235653858856
 20
35.35237067244715
 30
0.0
 10
12.73630362704298
 20
35.33005450148764
 30
0.0
 10
12.86322577731736
 20
35.29810085202677
 30
0.0
 10
12.91570572130092
 20
35.28773767542297
 30
0.0
 10
12.97658934509431
 20
35.29443860847595
 30
0.0
 10
12.99409980251966
 20
35.30029296727563
 30
0.0
 10
13.02084597296049
 20
35.33271449864375
 30
0.0
 10
13.03
 20
35.36068432142832
 30
0.0
 10
13.03
 20
35.41132408805679
 30
0.0
  0
SPLINE
  5
1FB
330
1F
100
AcDbEntity
  8
1
  6
SLD-Solid
370
    25
100
AcDbSpline
210
0.0
220
0.0
230
1.0
 70
     8
 71
     3
 72
    16
 73
    12
 74
     0
 42
0.000000001
 43
0.00000001
 40
0.0
 40
0.0
 40
0.0
 40
0.0
 40
0.2499999999999998
 40
0.2499999999999998
 40
0.4999999999999996
 40
0.4999999999999996
 40
0.7499999999999993
 40
0.7499999999999993
 40
0.8749999999999997
 40
0.8749999999999997
 40
1.0
 40
1.0
 40
1.0
 40
1.0
 10
9.949999999999987
 20
40.29017607249212
 30
0.0
 10
9.839257595210649
 20
40.32798470963449
 30
0.0
 10
9.74041673400143
 20
40.39081531012378
 30
0.0
 10
9.564708009184047
 20
40.54795546550075
 30
0.0
 10
9.490830483266114
 20
40.63949231484413
 30
0.0
 10
9.364658348120003
 20
40.84247699029049
 30
0.0
 10
9.31295142551812
 20
40.95326880810711
 30
0.0
 10
9.253206550793799
 20
41.13218036853986
 30
0.0
 10
9.236028623043943
 20
41.19470581500534
 30
0.0
 10
9.20972370305702
 20
41.32469951294973
 30
0.0
 10
9.199999999999985
 20
41.3978390036328
 30
0.0
 10
9.199999999999985
 20
41.45885414630704
 30
0.0
  0
SPLINE
  5
1FC
330
1F
100
AcDbEntity
  8
1
  6
SLD-Solid
370
    25
100
AcDbSpline
210
0.0
220
0.0
230
1.0
 70
     8
 71
     3
 72
    16
 73
    12
 74
     0
 42
0.000000001
 43
0.00000001
 40
0.0
 40
0.0
 40
0.0
 40
0.0
 40
0.1250000000000039
 40
0.1250000000000039
 40
0.2500000000000078
 40
0.2500000000000078
 40
0.5000000000000051
 40
0.5000000000000051
 40
0.7500000000000026
 40
0.7500000000000026
 40
1.0
 40
1.0
 40
1.0
 40
1.0
 10
13.02999999999835
 20
41.42895438114486
 30
0.0
 10
13.02999999999835
 20
41.36827713359745
 30
0.0
 10
13.02067456260444
 20
41.29860125514492
 30
0.0
 10
12.99367590047686
 20
41.16856540733185
 30
0.0
 10
12.97626449755165
 20
41.10738101936696
 30
0.0
 10
12.91545405813366
 20
40.9307974064249
 30
0.0
 10
12.86271449633693
 20
40.82130212611719
 30
0.0
 10
12.73634152951743
 20
40.62320356046919
 30
0.0
 10
12.66098841639572
 20
40.53226162144244
 30
0.0
 10
12.48671204537614
 20
40.38027498384282
 30
0.0
 10
12.38972674335261
 20
40.31995671599528
 30
0.0
 10
12.27999999999835
 20
40.28343379132451
 30
0.0
  0
SPLINE
  5
1FD
330
1F
100
AcDbEntity
  8
1
  6
SLD-Solid
370
    25
100
AcDbSpline
210
0.0
220
0.0
230
1.0
 70
     8
 71
     3
 72
    12
 73
     8
 74
     0
 42
0.000000001
 43
0.00000001
 40
0.0
 40
0.0
 40
0.0
 40
0.0
 40
0.25
 40
0.25
 40
0.5
 40
0.5
 40
1.0
 40
1.0
 40
1.0
 40
1.0
 10
12.27999999999835
 20
40.28343379132451
 30
0.0
 10
12.1093445647736
 20
40.22663054158942
 30
0.0
 10
11.92465326465338
 20
40.18318651206279
 30
0.0
 10
11.52752277837717
 20
40.12362389225039
 30
0.0
 10
11.32193513118616
 20
40.10880147711193
 30
0.0
 10
10.69948105299261
 20
40.11037023230934
 30
0.0
 10
10.28831449592008
 20
40.17467189827312
 30
0.0
 10
9.949999999999987
 20
40.29017607249212
 30
0.0
  0
SPLINE
  5
1FE
330
1F
100
AcDbEntity
  8
1
  6
SLD-Solid
370
    25
100
AcDbSpline
210
0.0
220
0.0
230
1.0
 70
     8
 71
     3
 72
    16
 73
    12
 74
     0
 42
0.000000001
 43
0.00000001
 40
0.0
 40
0.0
 40
0.0
 40
0.0
 40
0.1250000000000007
 40
0.1250000000000007
 40
0.2500000000000013
 40
0.2500000000000013
 40
0.5000000000000009
 40
0.5000000000000009
 40
0.7500000000000004
 40
0.7500000000000004
 40
1.0
 40
1.0
 40
1.0
 40
1.0
 10
9.199999999999985
 20
41.93454239124897
 30
0.0
 10
9.200000000002511
 20
41.87335478963722
 30
0.0
 10
9.20968807886123
 20
41.83111047963453
 30
0.0
 10
9.23607341553466
 20
41.77192904688972
 30
0.0
 10
9.25307062474047
 20
41.75174455463429
 30
0.0
 10
9.313034815213339
 20
41.70102846576504
 30
0.0
 10
9.363922455825819
 20
41.68155707128334
 30
0.0
 10
9.490054525547922
 20
41.65587219504387
 30
0.0
 10
9.565092430040917
 20
41.65088437918839
 30
0.0
 10
9.738924647266625
 20
41.66113961911401
 30
0.0
 10
9.839445946349597
 20
41.67651281331742
 30
0.0
 10
9.949999999997711
 20
41.70913817421309
 30
0.0
  0
SPLINE
  5
1FF
330
1F
100
AcDbEntity
  8
1
  6
SLD-Solid
370
    25
100
AcDbSpline
210
0.0
220
0.0
230
1.0
 70
     8
 71
     3
 72
    12
 73
     8
 74
     0
 42
0.000000001
 43
0.00000001
 40
0.0
 40
0.0
 40
0.0
 40
0.0
 40
0.25
 40
0.25
 40
0.5
 40
0.5
 40
1.0
 40
1.0
 40
1.0
 40
1.0
 10
9.949999999997711
 20
41.70913817421309
 30
0.0
 10
10.11915676938994
 20
41.75905765221763
 30
0.0
 10
10.30270770519864
 20
41.79673649998863
 30
0.0
 10
10.69826560394989
 20
41.84886357628231
 30
0.0
 10
10.90345647830172
 20
41.86219397810195
 30
0.0
 10
11.52590240230299
 20
41.86393994691689
 30
0.0
 10
11.93868796900434
 20
41.81303425518009
 30
0.0
 10
12.27999999999607
 20
41.71496227396708
 30
0.0
  0
SPLINE
  5
200
330
1F
100
AcDbEntity
  8
1
  6
SLD-Solid
370
    25
100
AcDbSpline
210
0.0
220
0.0
230
1.0
 70
     8
 71
     3
 72
    16
 73
    12
 74
     0
 42
0.000000001
 43
0.00000001
 40
0.0
 40
0.0
 40
0.0
 40
0.0
 40
0.2500000000000007
 40
0.2500000000000007
 40
0.5000000000000013
 40
0.5000000000000013
 40
0.750000000000002
 40
0.750000000000002
 40
0.875000000000001
 40
0.875000000000001
 40
1.0
 40
1.0
 40
1.0
 40
1.0
 10
12.27999999999607
 20
41.71496227396708
 30
0.0
 10
12.38938127142412
 20
41.68353285741418
 30
0.0
 10
12.48719790588074
 20
41.66923447164883
 30
0.0
 10
12.66235653858464
 20
41.66075308180613
 30
0.0
 10
12.73630362703905
 20
41.66679667497376
 30
0.0
 10
12.86322577731343
 20
41.69542238628981
 30
0.0
 10
12.91570572129699
 20
41.71723646207176
 30
0.0
 10
12.97658934509038
 20
41.77277628648038
 30
0.0
 10
12.99409980251576
 20
41.79517110958683
 30
0.0
 10
13.02084597295657
 20
41.85934368895602
 30
0.0
 10
13.02999999999607
 20
41.90265050045377
 30
0.0
 10
13.02999999999607
 20
41.96295809683838
 30
0.0
  0
SPLINE
  5
201
330
1F
100
AcDbEntity
  8
1
  6
SLD-Solid
370
    25
100
AcDbSpline
210
0.0
220
0.0
230
1.0
 70
     8
 71
     3
 72
    12
 73
     8
 74
     0
 42
0.000000001
 43
0.00000001
 40
0.0
 40
0.0
 40
0.0
 40
0.0
 40
0.5
 40
0.5
 40
0.75
 40
0.75
 40
1.0
 40
1.0
 40
1.0
 40
1.0
 10
9.199999999999985
 20
44.55102159322499
 30
0.0
 10
9.199999999999985
 20
44.35104831812288
 30
0.0
 10
9.27600396681734
 20
44.1515082673653
 30
0.0
 10
9.482759040153471
 20
43.93116827137958
 30
0.0
 10
9.566857937314918
 20
43.87128621650869
 30
0.0
 10
9.74951124726116
 20
43.79084228716471
 30
0.0
 10
9.850156242870472
 20
43.76943596849256
 30
0.0
 10
9.950000000002401
 20
43.76943596849289
 30
0.0
  0
SPLINE
  5
202
330
1F
100
AcDbEntity
  8
1
  6
SLD-Solid
370
    25
100
AcDbSpline
210
0.0
220
0.0
230
1.0
 70
     8
 71
     3
 72
    10
 73
     6
 74
     0
 42
0.000000001
 43
0.00000001
 40
0.0
 40
0.0
 40
0.0
 40
0.0
 40
0.5
 40
0.5
 40
1.0
 40
1.0
 40
1.0
 40
1.0
 10
12.28
 20
43.76943596849289
 30
0.0
 10
12.48122846377882
 20
43.76943596849292
 30
0.0
 10
12.67900932610885
 20
43.85856672856717
 30
0.0
 10
12.95290221427663
 20
44.1502294699326
 30
0.0
 10
13.03
 20
44.34957328976746
 30
0.0
 10
13.03
 20
44.55102159322499
 30
0.0
  0
SPLINE
  5
203
330
1F
100
AcDbEntity
  8
SK3
  6
SLD-Dashed
370
    18
100
AcDbSpline
210
0.0
220
0.0
230
1.0
 70
     8
 71
     3
 72
    30
 73
    26
 74
     0
 42
0.000000001
 43
0.00000001
 40
0.4999999999999934
 40
0.4999999999999934
 40
0.4999999999999934
 40
0.4999999999999934
 40
0.5624999999999941
 40
0.5624999999999941
 40
0.6249999999999949
 40
0.6249999999999949
 40
0.6874999999999956
 40
0.6874999999999956
 40
0.7499999999999962
 40
0.7499999999999962
 40
0.7812499999999968
 40
0.7812499999999968
 40
0.8124999999999972
 40
0.8124999999999972
 40
0.8437499999999977
 40
0.8437499999999977
 40
0.8749999999999981
 40
0.8749999999999981
 40
0.9062499999999986
 40
0.9062499999999986
 40
0.9374999999999991
 40
0.9374999999999991
 40
0.9687499999999996
 40
0.9687499999999996
 40
1.0
 40
1.0
 40
1.0
 40
1.0
 10
9.602846279599731
 20
-14.27915034605702
 30
0.0
 10
9.686456538693752
 20
-14.42125418637639
 30
0.0
 10
9.797407143447803
 20
-14.51131733768215
 30
0.0
 10
10.04010223607202
 20
-14.63242374926581
 30
0.0
 10
10.17571106347529
 20
-14.66434400040091
 30
0.0
 10
10.46843928875953
 20
-14.68785090664329
 30
0.0
 10
10.62555865364893
 20
-14.68003033606
 30
0.0
 10
10.98145473780834
 20
-14.62436653420485
 30
0.0
 10
11.18157682258661
 20
-14.5763222183847
 30
0.0
 10
11.50801002825753
 20
-14.45860893436549
 30
0.0
 10
11.61873162334194
 20
-14.41242944660508
 30
0.0
 10
11.84220113938104
 20
-14.30063256215534
 30
0.0
 10
11.95412269444687
 20
-14.23490090158664
 30
0.0
 10
12.1610786355215
 20
-14.08747705033182
 30
0.0
 10
12.25901625186733
 20
-14.00366784802362
 30
0.0
 10
12.43052677631516
 20
-13.82249974419393
 30
0.0
 10
12.50593330594162
 20
-13.72350506925875
 30
0.0
 10
12.63000303324957
 20
-13.51367430078405
 30
0.0
 10
12.67841410243613
 20
-13.40398486856759
 30
0.0
 10
12.74789370637344
 20
-13.17359881812363
 30
0.0
 10
12.76810124630629
 20
-13.05468203931825
 30
0.0
 10
12.77891027826542
 20
-12.81644825424546
 30
0.0
 10
12.76940813581851
 20
-12.69449512908378
 30
0.0
 10
12.72129905847913
 20
-12.45817259633888
 30
0.0
 10
12.6830162564643
 20
-12.34304803310329
 30
0.0
 10
12.63040931107565
 20
-12.23233436389469
 30
0.0
  0
SPLINE
  5
204
330
1F
100
AcDbEntity
  8
SK3
  6
SLD-Dashed
370
    18
100
AcDbSpline
210
0.0
220
0.0
230
1.0
 70
     8
 71
     3
 72
    30
 73
    26
 74
     0
 42
0.000000001
 43
0.00000001
 40
0.0
 40
0.0
 40
0.0
 40
0.0
 40
0.0312499999999991
 40
0.0312499999999991
 40
0.0624999999999983
 40
0.0624999999999983
 40
0.0937499999999974
 40
0.0937499999999974
 40
0.1249999999999965
 40
0.1249999999999965
 40
0.187499999999996
 40
0.187499999999996
 40
0.2499999999999955
 40
0.2499999999999955
 40
0.312499999999995
 40
0.312499999999995
 40
0.3749999999999944
 40
0.3749999999999944
 40
0.4062499999999942
 40
0.4062499999999942
 40
0.4374999999999939
 40
0.4374999999999939
 40
0.4687499999999937
 40
0.4687499999999937
 40
0.4999999999999934
 40
0.4999999999999934
 40
0.4999999999999934
 40
0.4999999999999934
 10
12.63040931107566
 20
-12.23233436389468
 30
0.0
 10
12.57780236568699
 20
-12.12162069468609
 30
0.0
 10
12.51267206459307
 20
-12.01896209858503
 30
0.0
 10
12.35821503903345
 20
-11.83123217673025
 30
0.0
 10
12.26800655859515
 20
-11.74609765066664
 30
0.0
 10
12.07343499093623
 20
-11.60605794329095
 30
0.0
 10
11.96643370486064
 20
-11.54920121804518
 30
0.0
 10
11.74573264298211
 20
-11.46981719393688
 30
0.0
 10
11.63406552497757
 20
-11.4474866828302
 30
0.0
 10
11.29951801742687
 20
-11.42770686560521
 30
0.0
 10
11.09198428069949
 20
-11.4780687967326
 30
0.0
 10
10.72217844091647
 20
-11.64236243808862
 30
0.0
 10
10.55844908096593
 20
-11.75496051093634
 30
0.0
 10
10.25324958882705
 20
-12.02428585488714
 30
0.0
 10
10.11576882260309
 20
-12.17795893248196
 30
0.0
 10
9.862525619365279
 20
-12.52988094775971
 30
0.0
 10
9.746260896402001
 20
-12.72918710194006
 30
0.0
 10
9.605692660850456
 20
-13.06645756895027
 30
0.0
 10
9.565421636406098
 20
-13.18319961587416
 30
0.0
 10
9.503286004234598
 20
-13.42936776111859
 30
0.0
 10
9.482363995141283
 20
-13.55752069830019
 30
0.0
 10
9.470908412243698
 20
-13.80546799718778
 30
0.0
 10
9.480664817462653
 20
-13.92083957613645
 30
0.0
 10
9.525951505689633
 20
-14.12239475073259
 30
0.0
 10
9.561041150052727
 20
-14.20809842589733
 30
0.0
 10
9.602846279599731
 20
-14.27915034605702
 30
0.0
  0
SPLINE
  5
205
330
1F
100
AcDbEntity
  8
SK3
  6
SLD-Dashed
370
    18
100
AcDbSpline
210
0.0
220
0.0
230
1.0
 70
     8
 71
     3
 72
    26
 73
    22
 74
     0
 42
0.000000001
 43
0.00000001
 40
0.5000000000000062
 40
0.5000000000000062
 40
0.5000000000000062
 40
0.5000000000000062
 40
0.5625000000000058
 40
0.5625000000000058
 40
0.6250000000000051
 40
0.6250000000000051
 40
0.6562500000000046
 40
0.6562500000000046
 40
0.687500000000004
 40
0.687500000000004
 40
0.7187500000000034
 40
0.7187500000000034
 40
0.7500000000000029
 40
0.7500000000000029
 40
0.8125000000000022
 40
0.8125000000000022
 40
0.8750000000000014
 40
0.8750000000000014
 40
0.9375000000000008
 40
0.9375000000000008
 40
1.0
 40
1.0
 40
1.0
 40
1.0
 10
11.6386983177957
 20
-9.819390371339221
 30
0.0
 10
11.80317915771348
 20
-9.806594466981567
 30
0.0
 10
11.95081782962316
 20
-9.812432081454679
 30
0.0
 10
12.2261629968525
 20
-9.86883930159898
 30
0.0
 10
12.35236515469919
 20
-9.91895362087792
 30
0.0
 10
12.51874661426339
 20
-10.04837289060634
 30
0.0
 10
12.57051953396254
 20
-10.10115000339697
 30
0.0
 10
12.66070184098388
 20
-10.23071744026807
 30
0.0
 10
12.70001796005849
 20
-10.30921538460777
 30
0.0
 10
12.75624339139549
 20
-10.49493258066048
 30
0.0
 10
12.77323165300569
 20
-10.60488156995156
 30
0.0
 10
12.77649462889749
 20
-10.84110300053567
 30
0.0
 10
12.76278670669288
 20
-10.96977043023327
 30
0.0
 10
12.68516730486993
 20
-11.34647137591011
 30
0.0
 10
12.58996305158962
 20
-11.58088814423494
 30
0.0
 10
12.37315603453729
 20
-11.98947715399203
 30
0.0
 10
12.24747178673945
 20
-12.17132846963891
 30
0.0
 10
11.9767673751945
 20
-12.48981349043029
 30
0.0
 10
11.83102686354769
 20
-12.62828009284683
 30
0.0
 10
11.50508373269932
 20
-12.86276351579439
 30
0.0
 10
11.32747339457475
 20
-12.95749122616765
 30
0.0
 10
11.125
 20
-13.01159523973384
 30
0.0
  0
SPLINE
  5
206
330
1F
100
AcDbEntity
  8
SK3
  6
SLD-Dashed
370
    18
100
AcDbSpline
210
0.0
220
0.0
230
1.0
 70
     8
 71
     3
 72
    34
 73
    30
 74
     0
 42
0.000000001
 43
0.00000001
 40
0.0
 40
0.0
 40
0.0
 40
0.0
 40
0.0312500000000005
 40
0.0312500000000005
 40
0.0625000000000011
 40
0.0625000000000011
 40
0.0937500000000016
 40
0.0937500000000016
 40
0.1250000000000022
 40
0.1250000000000022
 40
0.1562500000000027
 40
0.1562500000000027
 40
0.1875000000000032
 40
0.1875000000000032
 40
0.2187500000000038
 40
0.2187500000000038
 40
0.2500000000000043
 40
0.2500000000000043
 40
0.2812500000000049
 40
0.2812500000000049
 40
0.3125000000000054
 40
0.3125000000000054
 40
0.3750000000000063
 40
0.3750000000000063
 40
0.4062500000000066
 40
0.4062500000000066
 40
0.4375000000000068
 40
0.4375000000000068
 40
0.5000000000000062
 40
0.5000000000000062
 40
0.5000000000000062
 40
0.5000000000000062
 10
11.125
 20
-13.01159523973385
 30
0.0
 10
11.02376330271264
 20
-13.03864724651695
 30
0.0
 10
10.91875434041333
 20
-13.05441768585464
 30
0.0
 10
10.69982193729478
 20
-13.05649587060871
 30
0.0
 10
10.58565504429784
 20
-13.04203538439391
 30
0.0
 10
10.36433306908853
 20
-12.97958779527628
 30
0.0
 10
10.25386240054306
 20
-12.93066318687883
 30
0.0
 10
10.04998753866612
 20
-12.80335962284303
 30
0.0
 10
9.955887873021
 20
-12.72514830576758
 30
0.0
 10
9.789076352163557
 20
-12.54575166602604
 30
0.0
 10
9.718022202672053
 20
-12.44674722204855
 30
0.0
 10
9.60053600143318
 20
-12.23250861951092
 30
0.0
 10
9.555159683901207
 20
-12.11851015366411
 30
0.0
 10
9.49353895391429
 20
-11.88585378314762
 30
0.0
 10
9.476799814585963
 20
-11.76451266100637
 30
0.0
 10
9.473480888754674
 20
-11.52533259241783
 30
0.0
 10
9.486354225371807
 20
-11.40705029377197
 30
0.0
 10
9.541906609790443
 20
-11.17282024047877
 30
0.0
 10
9.5839391259038
 20
-11.06025657731945
 30
0.0
 10
9.69436138573955
 20
-10.84625731946299
 30
0.0
 10
9.764046986917323
 20
-10.74326010657127
 30
0.0
 10
10.00399120049172
 20
-10.46156575413966
 30
0.0
 10
10.21277179464264
 20
-10.30327029353935
 30
0.0
 10
10.54446991129006
 20
-10.12219171688677
 30
0.0
 10
10.65925898590055
 20
-10.07012567259634
 30
0.0
 10
10.87934718809655
 20
-9.984066675225876
 30
0.0
 10
10.98764418607851
 20
-9.948726825148157
 30
0.0
 10
11.29210738731384
 20
-9.863765363482656
 30
0.0
 10
11.47421747787791
 20
-9.832186275696868
 30
0.0
 10
11.6386983177957
 20
-9.819390371339221
 30
0.0
  0
SPLINE
  5
207
330
1F
100
AcDbEntity
  8
1
  6
SLD-Dashed
370
    18
100
AcDbSpline
210
0.0
220
0.0
230
1.0
 70
    24
 71
     2
 72
     6
 73
     3
 74
     0
 42
0.000000001
 43
0.00000001
 40
0.0
 40
0.0
 40
0.0
 40
0.25
 40
0.25
 40
0.25
 10
3.199999999989184
 20
-35.09999999995728
 30
0.0
 10
3.178023089472779
 20
-35.09999999996995
 30
0.0
 10
3.159393676864644
 20
-35.09999999998069
 30
0.0
  0
SPLINE
  5
208
330
1F
100
AcDbEntity
  8
1
  6
SLD-Dashed
370
    18
100
AcDbSpline
210
0.0
220
0.0
230
1.0
 70
    24
 71
     3
 72
     8
 73
     4
 74
     0
 42
0.000000001
 43
0.00000001
 40
0.25
 40
0.25
 40
0.25
 40
0.25
 40
0.5
 40
0.5
 40
0.5
 40
0.5
 10
3.159393676864644
 20
-35.09999999998069
 30
0.0
 10
3.140764264251597
 20
-35.09999999999143
 30
0.0
 10
3.125935313376432
 20
-35.09999999999998
 30
0.0
 10
3.125925297481333
 20
-35.09999999999999
 30
0.0
  0
SPLINE
  5
209
330
1F
100
AcDbEntity
  8
1
  6
SLD-Dashed
370
    18
100
AcDbSpline
210
0.0
220
0.0
230
1.0
 70
    24
 71
     3
 72
     8
 73
     4
 74
     0
 42
0.000000001
 43
0.00000001
 40
0.5
 40
0.5
 40
0.5
 40
0.5
 40
0.75
 40
0.75
 40
0.75
 40
0.75
 10
3.125925297481333
 20
-35.09999999999999
 30
0.0
 10
3.125915281586233
 20
-35.1
 30
0.0
 10
3.140736475081118
 20
-35.09999999999145
 30
0.0
 10
3.159374026153503
 20
-35.0999999999807
 30
0.0
  0
SPLINE
  5
20A
330
1F
100
AcDbEntity
  8
1
  6
SLD-Dashed
370
    18
100
AcDbSpline
210
0.0
220
0.0
230
1.0
 70
    24
 71
     2
 72
     6
 73
     3
 74
     0
 42
0.000000001
 43
0.00000001
 40
0.75
 40
0.75
 40
0.75
 40
1.0
 40
1.0
 40
1.0
 10
3.159374026153503
 20
-35.0999999999807
 30
0.0
 10
3.178011577220918
 20
-35.09999999996995
 30
0.0
 10
3.199999999989184
 20
-35.09999999995728
 30
0.0
  0
SPLINE
  5
20B
330
1F
100
AcDbEntity
  8
SK3
  6
SLD-Dashed
370
    18
100
AcDbSpline
210
0.0
220
0.0
230
1.0
 70
     8
 71
     3
 72
    32
 73
    28
 74
     0
 42
0.000000001
 43
0.00000001
 40
0.5000000000000026
 40
0.5000000000000026
 40
0.5000000000000026
 40
0.5000000000000026
 40
0.5625000000000028
 40
0.5625000000000028
 40
0.5937500000000027
 40
0.5937500000000027
 40
0.6250000000000024
 40
0.6250000000000024
 40
0.6875000000000021
 40
0.6875000000000021
 40
0.7187500000000021
 40
0.7187500000000021
 40
0.750000000000002
 40
0.750000000000002
 40
0.781250000000002
 40
0.781250000000002
 40
0.8125000000000019
 40
0.8125000000000019
 40
0.8750000000000017
 40
0.8750000000000017
 40
0.9062500000000012
 40
0.9062500000000012
 40
0.9375000000000009
 40
0.9375000000000009
 40
0.9687500000000004
 40
0.9687500000000004
 40
1.0
 40
1.0
 40
1.0
 40
1.0
 10
11.12431461685409
 20
-0.0638097948020833
 30
0.0
 10
11.34069274895011
 20
-0.0637145888093896
 30
0.0
 10
11.55914288015782
 20
-0.1102005975929729
 30
0.0
 10
11.85772139836519
 20
-0.2403769293620392
 30
0.0
 10
11.9542055966175
 20
-0.2944938494407398
 30
0.0
 10
12.13238437602439
 20
-0.4182909770915136
 30
0.0
 10
12.21502546681367
 20
-0.4882181728011331
 30
0.0
 10
12.44370339250059
 20
-0.7216917961019655
 30
0.0
 10
12.56469010118175
 20
-0.902970547420584
 30
0.0
 10
12.69001780712341
 20
-1.198989528052356
 30
0.0
 10
12.72144007044161
 20
-1.299353408348337
 30
0.0
 10
12.76397504205766
 20
-1.503119164360238
 30
0.0
 10
12.77499086428841
 20
-1.607791869896229
 30
0.0
 10
12.77500912407896
 20
-1.812149189288514
 30
0.0
 10
12.76437402207824
 20
-1.912119289449024
 30
0.0
 10
12.72182237019839
 20
-2.107778512687016
 30
0.0
 10
12.68970542486823
 20
-2.20299243126159
 30
0.0
 10
12.56562231522755
 20
-2.470130071118404
 30
0.0
 10
12.44300633514496
 20
-2.629504822633223
 30
0.0
 10
12.21615142711203
 20
-2.824074953769621
 30
0.0
 10
12.13191723344732
 20
-2.882799187163797
 30
0.0
 10
11.95357457251771
 20
-2.98332171487848
 30
0.0
 10
11.85926232799145
 20
-3.025580251938033
 30
0.0
 10
11.65992970039482
 20
-3.094539313287209
 30
0.0
 10
11.55469669660916
 20
-3.121008652787513
 30
0.0
 10
11.34275223062138
 20
-3.155898014973749
 30
0.0
 10
11.23484284401988
 20
-3.164795292611898
 30
0.0
 10
11.12499999999997
 20
-3.164795292611898
 30
0.0
  0
SPLINE
  5
20C
330
1F
100
AcDbEntity
  8
SK3
  6
SLD-Dashed
370
    18
100
AcDbSpline
210
0.0
220
0.0
230
1.0
 70
     8
 71
     3
 72
    34
 73
    30
 74
     0
 42
0.000000001
 43
0.00000001
 40
0.0
 40
0.0
 40
0.0
 40
0.0
 40
0.0312500000000001
 40
0.0312500000000001
 40
0.0625000000000001
 40
0.0625000000000001
 40
0.0937500000000002
 40
0.0937500000000002
 40
0.1250000000000003
 40
0.1250000000000003
 40
0.1875000000000008
 40
0.1875000000000008
 40
0.2187500000000011
 40
0.2187500000000011
 40
0.2500000000000013
 40
0.2500000000000013
 40
0.2812500000000016
 40
0.2812500000000016
 40
0.3125000000000019
 40
0.3125000000000019
 40
0.3750000000000021
 40
0.3750000000000021
 40
0.4062500000000022
 40
0.4062500000000022
 40
0.4375000000000023
 40
0.4375000000000023
 40
0.4687500000000024
 40
0.4687500000000024
 40
0.5000000000000026
 40
0.5000000000000026
 40
0.5000000000000026
 40
0.5000000000000026
 10
11.12499999999997
 20
-3.164795292611898
 30
0.0
 10
11.01515715598009
 20
-3.164795292611898
 30
0.0
 10
10.90731638102116
 20
-3.155904092189306
 30
0.0
 10
10.69541970957993
 20
-3.121033027836943
 30
0.0
 10
10.59023957759678
 20
-3.094588705749961
 30
0.0
 10
10.39084967822865
 20
-3.025628156735641
 30
0.0
 10
10.29640496755757
 20
-2.983328453868006
 30
0.0
 10
10.11766012072021
 20
-2.882542647044642
 30
0.0
 10
10.0336941566224
 20
-2.823948271079971
 30
0.0
 10
9.807154372458452
 20
-2.629631137783167
 30
0.0
 10
9.684476989650332
 20
-2.470160421179736
 30
0.0
 10
9.560578774888334
 20
-2.203695633854343
 30
0.0
 10
9.528452756869143
 20
-2.108727247931534
 30
0.0
 10
9.48574098939034
 20
-1.912961592150118
 30
0.0
 10
9.475072364745984
 20
-1.813073215143388
 30
0.0
 10
9.47492836194272
 20
-1.609186072572113
 30
0.0
 10
9.485831361723166
 20
-1.504401102705555
 30
0.0
 10
9.528311200365916
 20
-1.300194116426762
 30
0.0
 10
9.559734146631763
 20
-1.199687678545655
 30
0.0
 10
9.685010383075134
 20
-0.9034545065980462
 30
0.0
 10
9.80668050813238
 20
-0.721322825841364
 30
0.0
 10
10.03464723431525
 20
-0.4885408551656492
 30
0.0
 10
10.11713289168989
 20
-0.4186734887184906
 30
0.0
 10
10.29528380534657
 20
-0.2948017573575837
 30
0.0
 10
10.39177131110006
 20
-0.2406571053396173
 30
0.0
 10
10.59034694865994
 20
-0.1539631561283186
 30
0.0
 10
10.69325322426625
 20
-0.1206690588499079
 30
0.0
 10
10.90670565507451
 20
-0.0753534708468825
 30
0.0
 10
11.01612555080607
 20
-0.0638573977984336
 30
0.0
 10
11.12431461685409
 20
-0.0638097948020833
 30
0.0
  0
SPLINE
  5
20D
330
1F
100
AcDbEntity
  8
SK3
  6
SLD-Dashed
370
    18
100
AcDbSpline
210
0.0
220
0.0
230
1.0
 70
     8
 71
     3
 72
    18
 73
    14
 74
     0
 42
0.000000001
 43
0.00000001
 40
0.0
 40
0.0
 40
0.0
 40
0.0
 40
0.0501962867734974
 40
0.1000306214437302
 40
0.1855667331187636
 40
0.250182389232072
 40
0.3747066158220824
 40
0.4998232982189783
 40
0.6247294758455333
 40
0.7494251058857277
 40
0.8746331028690638
 40
0.9372230808189287
 40
1.0
 40
1.0
 40
1.0
 40
1.0
 10
18.3
 20
46.81625358782997
 30
0.0
 10
18.30669951182794
 20
46.81609127853699
 30
0.0
 10
18.32005022708191
 20
46.8157678303203
 30
0.0
 10
18.34463922095192
 20
46.81256776526223
 30
0.0
 10
18.37067201462217
 20
46.80630579793129
 30
0.0
 10
18.40500150194892
 20
46.79331555547191
 30
0.0
 10
18.44173939749909
 20
46.77247000397297
 30
0.0
 10
18.47965549617256
 20
46.73942242416845
 30
0.0
 10
18.51041281949079
 20
46.69961163074884
 30
0.0
 10
18.53306634505928
 20
46.65468875110024
 30
0.0
 10
18.54452340204191
 20
46.61434662644387
 30
0.0
 10
18.54932467505747
 20
46.58119847829342
 30
0.0
 10
18.54977466801637
 20
46.56446483112381
 30
0.0
 10
18.54999999999998
 20
46.55608553132448
 30
0.0
  0
SPLINE
  5
20E
330
1F
100
AcDbEntity
  8
SK3
  6
SLD-Dashed
370
    18
100
AcDbSpline
210
0.0
220
0.0
230
1.0
 70
     8
 71
     3
 72
    18
 73
    14
 74
     0
 42
0.000000001
 43
0.00000001
 40
0.0
 40
0.0
 40
0.0
 40
0.0
 40
0.0502196103872103
 40
0.1000870260924036
 40
0.1855086368940136
 40
0.2501550808791957
 40
0.3746583157461303
 40
0.4998570853792911
 40
0.6242312608259597
 40
0.7494324099488388
 40
0.874036659617996
 40
0.9370350243166863
 40
1.0
 40
1.0
 40
1.0
 40
1.0
 10
3.699999999999956
 20
46.55608553132443
 30
0.0
 10
3.700143854852902
 20
46.56278755186001
 30
0.0
 10
3.700430555691598
 20
46.57614459105336
 30
0.0
 10
3.703274054818785
 20
46.60076085239339
 30
0.0
 10
3.708850025263339
 20
46.62692328764685
 30
0.0
 10
3.720514169271306
 20
46.66169890756608
 30
0.0
 10
3.73945659241664
 20
46.69941980690709
 30
0.0
 10
3.770128279112283
 20
46.73918434013714
 30
0.0
 10
3.808028636439612
 20
46.77229285140233
 30
0.0
 10
3.851698646431311
 20
46.79720148409474
 30
0.0
 10
3.891711812143344
 20
46.81006094110494
 30
0.0
 10
3.924780356068871
 20
46.81548545401076
 30
0.0
 10
3.94159493769948
 20
46.81599758847392
 30
0.0
 10
3.949999999999982
 20
46.81625358782994
 30
0.0
  0
SPLINE
  5
20F
330
1F
100
AcDbEntity
  8
SK3
  6
SLD-Dashed
370
    18
100
AcDbSpline
210
0.0
220
0.0
230
1.0
 70
     8
 71
     2
 72
     6
 73
     3
 74
     0
 42
0.000000001
 43
0.00000001
 40
0.0
 40
0.0
 40
0.0
 40
0.0312499999999994
 40
0.0312499999999994
 40
0.0312499999999994
 10
37.30000000000003
 20
12.5
 30
0.0
 10
37.34375184602992
 20
12.4770913389727
 30
0.0
 10
37.42878424728424
 20
12.43351881679733
 30
0.0
  0
SPLINE
  5
210
330
1F
100
AcDbEntity
  8
SK3
  6
SLD-Dashed
370
    18
100
AcDbSpline
210
0.0
220
0.0
230
1.0
 70
     8
 71
     3
 72
     8
 73
     4
 74
     0
 42
0.000000001
 43
0.00000001
 40
0.0312499999999994
 40
0.0312499999999994
 40
0.0312499999999994
 40
0.0312499999999994
 40
0.0624999999999989
 40
0.0624999999999989
 40
0.0624999999999989
 40
0.0624999999999989
 10
37.42878424728424
 20
12.43351881679733
 30
0.0
 10
37.51381664853859
 20
12.38994629462196
 30
0.0
 10
37.6424703418953
 20
12.32455034245713
 30
0.0
 10
37.80718102131237
 20
12.24393234673074
 30
0.0
  0
SPLINE
  5
211
330
1F
100
AcDbEntity
  8
SK3
  6
SLD-Dashed
370
    18
100
AcDbSpline
210
0.0
220
0.0
230
1.0
 70
     8
 71
     3
 72
     8
 73
     4
 74
     0
 42
0.000000001
 43
0.00000001
 40
0.0624999999999989
 40
0.0624999999999989
 40
0.0624999999999989
 40
0.0624999999999989
 40
0.0937499999999983
 40
0.0937499999999983
 40
0.0937499999999983
 40
0.0937499999999983
 10
37.80718102131237
 20
12.24393234673074
 30
0.0
 10
37.9718917007294
 20
12.16331435100434
 30
0.0
 10
38.17232390284592
 20
12.06757773367421
 30
0.0
 10
38.40813055369122
 20
11.96128154196022
 30
0.0
  0
SPLINE
  5
212
330
1F
100
AcDbEntity
  8
SK3
  6
SLD-Dashed
370
    18
100
AcDbSpline
210
0.0
220
0.0
230
1.0
 70
     8
 71
     3
 72
     8
 73
     4
 74
     0
 42
0.000000001
 43
0.00000001
 40
0.0937499999999983
 40
0.0937499999999983
 40
0.0937499999999983
 40
0.0937499999999983
 40
0.109374999999998
 40
0.109374999999998
 40
0.109374999999998
 40
0.109374999999998
 10
38.40813055369122
 20
11.96128154196022
 30
0.0
 10
38.52603387911385
 20
11.90813344610322
 30
0.0
 10
38.6527221327827
 20
11.85242393063373
 30
0.0
 10
38.78583074477568
 20
11.79584220477863
 30
0.0
  0
SPLINE
  5
213
330
1F
100
AcDbEntity
  8
SK3
  6
SLD-Dashed
370
    18
100
AcDbSpline
210
0.0
220
0.0
230
1.0
 70
     8
 71
     3
 72
     8
 73
     4
 74
     0
 42
0.000000001
 43
0.00000001
 40
0.109374999999998
 40
0.109374999999998
 40
0.109374999999998
 40
0.109374999999998
 40
0.1249999999999977
 40
0.1249999999999977
 40
0.1249999999999977
 40
0.1249999999999977
 10
38.78583074477568
 20
11.79584220477863
 30
0.0
 10
38.91893935676868
 20
11.73926047892354
 30
0.0
 10
39.05903347847717
 20
11.6815456900817
 30
0.0
 10
39.20611514596786
 20
11.62341507699463
 30
0.0
  0
SPLINE
  5
214
330
1F
100
AcDbEntity
  8
SK3
  6
SLD-Dashed
370
    18
100
AcDbSpline
210
0.0
220
0.0
230
1.0
 70
     8
 71
     3
 72
     8
 73
     4
 74
     0
 42
0.000000001
 43
0.00000001
 40
0.1249999999999977
 40
0.1249999999999977
 40
0.1249999999999977
 40
0.1249999999999977
 40
0.1406249999999974
 40
0.1406249999999974
 40
0.1406249999999974
 40
0.1406249999999974
 10
39.20611514596786
 20
11.62341507699463
 30
0.0
 10
39.35319681345856
 20
11.56528446390755
 30
0.0
 10
39.5072651267212
 20
11.50673447314942
 30
0.0
 10
39.66858280213697
 20
11.44851990707963
 30
0.0
  0
SPLINE
  5
215
330
1F
100
AcDbEntity
  8
SK3
  6
SLD-Dashed
370
    18
100
AcDbSpline
210
0.0
220
0.0
230
1.0
 70
     8
 71
     3
 72
     8
 73
     4
 74
     0
 42
0.000000001
 43
0.00000001
 40
0.1406249999999974
 40
0.1406249999999974
 40
0.1406249999999974
 40
0.1406249999999974
 40
0.1562499999999971
 40
0.1562499999999971
 40
0.1562499999999971
 40
0.1562499999999971
 10
39.66858280213697
 20
11.44851990707963
 30
0.0
 10
39.82990047755275
 20
11.39030534100985
 30
0.0
 10
39.99939348590781
 20
11.33214074521722
 30
0.0
 10
40.17355819624757
 20
11.27612877524921
 30
0.0
  0
SPLINE
  5
216
330
1F
100
AcDbEntity
  8
SK3
  6
SLD-Dashed
370
    18
100
AcDbSpline
210
0.0
220
0.0
230
1.0
 70
     8
 71
     3
 72
     8
 73
     4
 74
     0
 42
0.000000001
 43
0.00000001
 40
0.1562499999999971
 40
0.1562499999999971
 40
0.1562499999999971
 40
0.1562499999999971
 40
0.1874999999999968
 40
0.1874999999999968
 40
0.1874999999999968
 40
0.1874999999999968
 10
40.17355819624757
 20
11.27612877524921
 30
0.0
 10
40.52188761692712
 20
11.16410483531321
 30
0.0
 10
40.88953123344871
 20
11.06019367443201
 30
0.0
 10
41.27801498587158
 20
10.97088913495568
 30
0.0
  0
SPLINE
  5
217
330
1F
100
AcDbEntity
  8
SK3
  6
SLD-Dashed
370
    18
100
AcDbSpline
210
0.0
220
0.0
230
1.0
 70
     8
 71
     3
 72
     8
 73
     4
 74
     0
 42
0.000000001
 43
0.00000001
 40
0.1874999999999968
 40
0.1874999999999968
 40
0.1874999999999968
 40
0.1874999999999968
 40
0.2031249999999968
 40
0.2031249999999968
 40
0.2031249999999968
 40
0.2031249999999968
 10
41.27801498587158
 20
10.97088913495568
 30
0.0
 10
41.472256862083
 20
10.92623686521752
 30
0.0
 10
41.6717486596134
 20
10.88524993667247
 30
0.0
 10
41.87695759936194
 20
10.84887515250553
 30
0.0
  0
SPLINE
  5
218
330
1F
100
AcDbEntity
  8
SK3
  6
SLD-Dashed
370
    18
100
AcDbSpline
210
0.0
220
0.0
230
1.0
 70
     8
 71
     3
 72
     8
 73
     4
 74
     0
 42
0.000000001
 43
0.00000001
 40
0.2031249999999968
 40
0.2031249999999968
 40
0.2031249999999968
 40
0.2031249999999968
 40
0.2187499999999967
 40
0.2187499999999967
 40
0.2187499999999967
 40
0.2187499999999967
 10
41.87695759936194
 20
10.84887515250553
 30
0.0
 10
42.08216653911045
 20
10.81250036833859
 30
0.0
 10
42.29222654095368
 20
10.78099300082782
 30
0.0
 10
42.50249816678703
 20
10.75562694626358
 30
0.0
  0
SPLINE
  5
219
330
1F
100
AcDbEntity
  8
SK3
  6
SLD-Dashed
370
    18
100
AcDbSpline
210
0.0
220
0.0
230
1.0
 70
     8
 71
     3
 72
     8
 73
     4
 74
     0
 42
0.000000001
 43
0.00000001
 40
0.2187499999999967
 40
0.2187499999999967
 40
0.2187499999999967
 40
0.2187499999999967
 40
0.2499999999999965
 40
0.2499999999999965
 40
0.2499999999999965
 40
0.2499999999999965
 10
42.50249816678703
 20
10.75562694626358
 30
0.0
 10
42.92304141845374
 20
10.70489483713511
 30
0.0
 10
43.34960791658224
 20
10.67780253889703
 30
0.0
 10
43.78248950908495
 20
10.67709261069193
 30
0.0
  0
SPLINE
  5
21A
330
1F
100
AcDbEntity
  8
SK3
  6
SLD-Dashed
370
    18
100
AcDbSpline
210
0.0
220
0.0
230
1.0
 70
     8
 71
     3
 72
     8
 73
     4
 74
     0
 42
0.000000001
 43
0.00000001
 40
0.2499999999999965
 40
0.2499999999999965
 40
0.2499999999999965
 40
0.2499999999999965
 40
0.2656249999999964
 40
0.2656249999999964
 40
0.2656249999999964
 40
0.2656249999999964
 10
43.78248950908495
 20
10.67709261069193
 30
0.0
 10
43.9989303053363
 20
10.67673764658938
 30
0.0
 10
44.21851719288769
 20
10.6830959395677
 30
0.0
 10
44.43480999916885
 20
10.69593304649224
 30
0.0
  0
SPLINE
  5
21B
330
1F
100
AcDbEntity
  8
SK3
  6
SLD-Dashed
370
    18
100
AcDbSpline
210
0.0
220
0.0
230
1.0
 70
     8
 71
     3
 72
     8
 73
     4
 74
     0
 42
0.000000001
 43
0.00000001
 40
0.2656249999999964
 40
0.2656249999999964
 40
0.2656249999999964
 40
0.2656249999999964
 40
0.2812499999999963
 40
0.2812499999999963
 40
0.2812499999999963
 40
0.2812499999999963
 10
44.43480999916885
 20
10.69593304649224
 30
0.0
 10
44.65110280545004
 20
10.7087701534168
 30
0.0
 10
44.86437819376549
 20
10.7279657294104
 30
0.0
 10
45.07479331078476
 20
10.75291114002258
 30
0.0
  0
SPLINE
  5
21C
330
1F
100
AcDbEntity
  8
SK3
  6
SLD-Dashed
370
    18
100
AcDbSpline
210
0.0
220
0.0
230
1.0
 70
     8
 71
     3
 72
     8
 73
     4
 74
     0
 42
0.000000001
 43
0.00000001
 40
0.2812499999999963
 40
0.2812499999999963
 40
0.2812499999999963
 40
0.2812499999999963
 40
0.2968749999999962
 40
0.2968749999999962
 40
0.2968749999999962
 40
0.2968749999999962
 10
45.07479331078476
 20
10.75291114002258
 30
0.0
 10
45.28520842780406
 20
10.77785655063476
 30
0.0
 10
45.49276290198295
 20
10.80855195727663
 30
0.0
 10
45.69754272990345
 20
10.84438418776324
 30
0.0
  0
SPLINE
  5
21D
330
1F
100
AcDbEntity
  8
SK3
  6
SLD-Dashed
370
    18
100
AcDbSpline
210
0.0
220
0.0
230
1.0
 70
     8
 71
     3
 72
     8
 73
     4
 74
     0
 42
0.000000001
 43
0.00000001
 40
0.2968749999999962
 40
0.2968749999999962
 40
0.2968749999999962
 40
0.2968749999999962
 40
0.3124999999999961
 40
0.3124999999999961
 40
0.3124999999999961
 40
0.3124999999999961
 10
45.69754272990345
 20
10.84438418776324
 30
0.0
 10
45.90232255782401
 20
10.88021641824987
 30
0.0
 10
46.10530703394999
 20
10.92143875097548
 30
0.0
 10
46.3018434282701
 20
10.96627651208825
 30
0.0
  0
SPLINE
  5
21E
330
1F
100
AcDbEntity
  8
SK3
  6
SLD-Dashed
370
    18
100
AcDbSpline
210
0.0
220
0.0
230
1.0
 70
     8
 71
     3
 72
     8
 73
     4
 74
     0
 42
0.000000001
 43
0.00000001
 40
0.3124999999999961
 40
0.3124999999999961
 40
0.3124999999999961
 40
0.3124999999999961
 40
0.3437499999999958
 40
0.3437499999999958
 40
0.3437499999999958
 40
0.3437499999999958
 10
46.3018434282701
 20
10.96627651208825
 30
0.0
 10
46.69491621691041
 20
11.05595203431382
 30
0.0
 10
47.06477848352711
 20
11.16017537876463
 30
0.0
 10
47.41374943477877
 20
11.27205327246832
 30
0.0
  0
SPLINE
  5
21F
330
1F
100
AcDbEntity
  8
SK3
  6
SLD-Dashed
370
    18
100
AcDbSpline
210
0.0
220
0.0
230
1.0
 70
     8
 71
     3
 72
     8
 73
     4
 74
     0
 42
0.000000001
 43
0.00000001
 40
0.3437499999999958
 40
0.3437499999999958
 40
0.3437499999999958
 40
0.3437499999999958
 40
0.3593749999999957
 40
0.3593749999999957
 40
0.3593749999999957
 40
0.3593749999999957
 10
47.41374943477877
 20
11.27205327246832
 30
0.0
 10
47.58823491040459
 20
11.32799221932017
 30
0.0
 10
47.75815141303963
 20
11.38613677785403
 30
0.0
 10
47.92018472812337
 20
11.44447125007797
 30
0.0
  0
SPLINE
  5
220
330
1F
100
AcDbEntity
  8
SK3
  6
SLD-Dashed
370
    18
100
AcDbSpline
210
0.0
220
0.0
230
1.0
 70
     8
 71
     3
 72
     8
 73
     4
 74
     0
 42
0.000000001
 43
0.00000001
 40
0.3593749999999957
 40
0.3593749999999957
 40
0.3593749999999957
 40
0.3593749999999957
 40
0.3749999999999956
 40
0.3749999999999956
 40
0.3749999999999956
 40
0.3749999999999956
 10
47.92018472812337
 20
11.44447125007797
 30
0.0
 10
48.08221804320711
 20
11.5028057223019
 30
0.0
 10
48.23680273917516
 20
11.56143854454671
 30
0.0
 10
48.38425244241881
 20
11.61961145890099
 30
0.0
  0
SPLINE
  5
221
330
1F
100
AcDbEntity
  8
SK3
  6
SLD-Dashed
370
    18
100
AcDbSpline
210
0.0
220
0.0
230
1.0
 70
     8
 71
     3
 72
     8
 73
     4
 74
     0
 42
0.000000001
 43
0.00000001
 40
0.3749999999999956
 40
0.3749999999999956
 40
0.3749999999999956
 40
0.3749999999999956
 40
0.4062499999999954
 40
0.4062499999999954
 40
0.4062499999999954
 40
0.4062499999999954
 10
48.38425244241881
 20
11.61961145890099
 30
0.0
 10
48.67915184890612
 20
11.73595728760954
 30
0.0
 10
48.94577157532854
 20
11.85048260515994
 30
0.0
 10
49.18341406686791
 20
11.9574724342292
 30
0.0
  0
SPLINE
  5
222
330
1F
100
AcDbEntity
  8
SK3
  6
SLD-Dashed
370
    18
100
AcDbSpline
210
0.0
220
0.0
230
1.0
 70
     8
 71
     3
 72
     8
 73
     4
 74
     0
 42
0.000000001
 43
0.00000001
 40
0.4062499999999954
 40
0.4062499999999954
 40
0.4062499999999954
 40
0.4062499999999954
 40
0.4374999999999952
 40
0.4374999999999952
 40
0.4374999999999952
 40
0.4374999999999952
 10
49.18341406686791
 20
11.9574724342292
 30
0.0
 10
49.42105655840726
 20
12.06446226329846
 30
0.0
 10
49.62198651999972
 20
12.16038251484257
 30
0.0
 10
49.78663167083566
 20
12.24090514472901
 30
0.0
  0
SPLINE
  5
223
330
1F
100
AcDbEntity
  8
SK3
  6
SLD-Dashed
370
    18
100
AcDbSpline
210
0.0
220
0.0
230
1.0
 70
     8
 71
     3
 72
     8
 73
     4
 74
     0
 42
0.000000001
 43
0.00000001
 40
0.4374999999999952
 40
0.4374999999999952
 40
0.4374999999999952
 40
0.4374999999999952
 40
0.4531249999999951
 40
0.4531249999999951
 40
0.4531249999999951
 40
0.4531249999999951
 10
49.78663167083566
 20
12.24090514472901
 30
0.0
 10
49.86895424625365
 20
12.28116645967223
 30
0.0
 10
49.9421629235477
 20
12.31759429177075
 30
0.0
 10
50.00589667312544
 20
12.34962159410198
 30
0.0
  0
SPLINE
  5
224
330
1F
100
AcDbEntity
  8
SK3
  6
SLD-Dashed
370
    18
100
AcDbSpline
210
0.0
220
0.0
230
1.0
 70
     8
 71
     3
 72
     8
 73
     4
 74
     0
 42
0.000000001
 43
0.00000001
 40
0.4531249999999951
 40
0.4531249999999951
 40
0.4531249999999951
 40
0.4531249999999951
 40
0.468749999999995
 40
0.468749999999995
 40
0.468749999999995
 40
0.468749999999995
 10
50.00589667312544
 20
12.34962159410198
 30
0.0
 10
50.06963042270323
 20
12.38164889643319
 30
0.0
 10
50.12414173349655
 20
12.40940671083662
 30
0.0
 10
50.16760972746218
 20
12.43167139371335
 30
0.0
  0
SPLINE
  5
225
330
1F
100
AcDbEntity
  8
SK3
  6
SLD-Dashed
370
    18
100
AcDbSpline
210
0.0
220
0.0
230
1.0
 70
     8
 71
     3
 72
     8
 73
     4
 74
     0
 42
0.000000001
 43
0.00000001
 40
0.468749999999995
 40
0.468749999999995
 40
0.468749999999995
 40
0.468749999999995
 40
0.4999999999999948
 40
0.4999999999999948
 40
0.4999999999999948
 40
0.4999999999999948
 10
50.16760972746218
 20
12.43167139371335
 30
0.0
 10
50.25454571539342
 20
12.47620075946681
 30
0.0
 10
50.29857759821999
 20
12.4992603538292
 30
0.0
 10
50.29996642252757
 20
12.49998253974725
 30
0.0
  0
SPLINE
  5
226
330
1F
100
AcDbEntity
  8
SK3
  6
SLD-Dashed
370
    18
100
AcDbSpline
210
0.0
220
0.0
230
1.0
 70
     8
 71
     3
 72
     8
 73
     4
 74
     0
 42
0.000000001
 43
0.00000001
 40
0.5312499999999946
 40
0.5312499999999946
 40
0.5312499999999946
 40
0.5312499999999946
 40
0.5624999999999943
 40
0.5624999999999943
 40
0.5624999999999943
 40
0.5624999999999943
 10
50.1740898482628
 20
12.43499181317491
 30
0.0
 10
50.08975549368136
 20
12.3917626127481
 30
0.0
 10
49.96450711414388
 20
12.32802959304029
 30
0.0
 10
49.79894367036464
 20
12.24693125481679
 30
0.0
  0
SPLINE
  5
227
330
1F
100
AcDbEntity
  8
SK3
  6
SLD-Dashed
370
    18
100
AcDbSpline
210
0.0
220
0.0
230
1.0
 70
     8
 71
     3
 72
     8
 73
     4
 74
     0
 42
0.000000001
 43
0.00000001
 40
0.5624999999999943
 40
0.5624999999999943
 40
0.5624999999999943
 40
0.5624999999999943
 40
0.5937499999999942
 40
0.5937499999999942
 40
0.5937499999999942
 40
0.5937499999999942
 10
49.79894367036464
 20
12.24693125481679
 30
0.0
 10
49.63338022658542
 20
12.16583291659329
 30
0.0
 10
49.43264724316037
 20
12.06992579451734
 30
0.0
 10
49.19864995297857
 20
11.96433956868474
 30
0.0
  0
SPLINE
  5
228
330
1F
100
AcDbEntity
  8
SK3
  6
SLD-Dashed
370
    18
100
AcDbSpline
210
0.0
220
0.0
230
1.0
 70
     8
 71
     3
 72
     8
 73
     4
 74
     0
 42
0.000000001
 43
0.00000001
 40
0.5937499999999942
 40
0.5937499999999942
 40
0.5937499999999942
 40
0.5937499999999942
 40
0.6249999999999941
 40
0.6249999999999941
 40
0.6249999999999941
 40
0.6249999999999941
 10
49.19864995297857
 20
11.96433956868474
 30
0.0
 10
48.96465266279676
 20
11.85875334285214
 30
0.0
 10
48.69461629778671
 20
11.74240232714294
 30
0.0
 10
48.39990772958166
 20
11.62579679508743
 30
0.0
  0
SPLINE
  5
229
330
1F
100
AcDbEntity
  8
SK3
  6
SLD-Dashed
370
    18
100
AcDbSpline
210
0.0
220
0.0
230
1.0
 70
     8
 71
     3
 72
     8
 73
     4
 74
     0
 42
0.000000001
 43
0.00000001
 40
0.6249999999999941
 40
0.6249999999999941
 40
0.6249999999999941
 40
0.6249999999999941
 40
0.656249999999994
 40
0.656249999999994
 40
0.656249999999994
 40
0.656249999999994
 10
48.39990772958166
 20
11.62579679508743
 30
0.0
 10
48.10519916137662
 20
11.50919126303192
 30
0.0
 10
47.7846538853835
 20
11.39160929352982
 30
0.0
 10
47.43635358647502
 20
11.2793203432596
 30
0.0
  0
SPLINE
  5
22A
330
1F
100
AcDbEntity
  8
SK3
  6
SLD-Dashed
370
    18
100
AcDbSpline
210
0.0
220
0.0
230
1.0
 70
     8
 71
     3
 72
     8
 73
     4
 74
     0
 42
0.000000001
 43
0.00000001
 40
0.656249999999994
 40
0.656249999999994
 40
0.656249999999994
 40
0.656249999999994
 40
0.6718749999999939
 40
0.6718749999999939
 40
0.6718749999999939
 40
0.6718749999999939
 10
47.43635358647502
 20
11.2793203432596
 30
0.0
 10
47.26220343702078
 20
11.22317586812448
 30
0.0
 10
47.08031624430789
 20
11.16820362294005
 30
0.0
 10
46.89493491207186
 20
11.11659219859942
 30
0.0
  0
SPLINE
  5
22B
330
1F
100
AcDbEntity
  8
SK3
  6
SLD-Dashed
370
    18
100
AcDbSpline
210
0.0
220
0.0
230
1.0
 70
     8
 71
     3
 72
     8
 73
     4
 74
     0
 42
0.000000001
 43
0.00000001
 40
0.6718749999999939
 40
0.6718749999999939
 40
0.6718749999999939
 40
0.6718749999999939
 40
0.6874999999999939
 40
0.6874999999999939
 40
0.6874999999999939
 40
0.6874999999999939
 10
46.89493491207186
 20
11.11659219859942
 30
0.0
 10
46.70955357983589
 20
11.06498077425879
 30
0.0
 10
46.51990272693649
 20
11.01645189379415
 30
0.0
 10
46.32585601774195
 20
10.97177964700181
 30
0.0
  0
SPLINE
  5
22C
330
1F
100
AcDbEntity
  8
SK3
  6
SLD-Dashed
370
    18
100
AcDbSpline
210
0.0
220
0.0
230
1.0
 70
     8
 71
     3
 72
     8
 73
     4
 74
     0
 42
0.000000001
 43
0.00000001
 40
0.6874999999999939
 40
0.6874999999999939
 40
0.6874999999999939
 40
0.6874999999999939
 40
0.7187499999999941
 40
0.7187499999999941
 40
0.7187499999999941
 40
0.7187499999999941
 10
46.32585601774195
 20
10.97177964700181
 30
0.0
 10
45.93776259935281
 20
10.88243515341711
 30
0.0
 10
45.53224492077471
 20
10.80842918541077
 30
0.0
 10
45.10656376431349
 20
10.75672389113977
 30
0.0
  0
SPLINE
  5
22D
330
1F
100
AcDbEntity
  8
SK3
  6
SLD-Dashed
370
    18
100
AcDbSpline
210
0.0
220
0.0
230
1.0
 70
     8
 71
     3
 72
     8
 73
     4
 74
     0
 42
0.000000001
 43
0.00000001
 40
0.7187499999999941
 40
0.7187499999999941
 40
0.7187499999999941
 40
0.7187499999999941
 40
0.7499999999999942
 40
0.7499999999999942
 40
0.7499999999999942
 40
0.7499999999999942
 10
45.10656376431349
 20
10.75672389113977
 30
0.0
 10
44.68088260785225
 20
10.70501859686877
 30
0.0
 10
44.24994934635221
 20
10.67786209354648
 30
0.0
 10
43.81900142180287
 20
10.67709515992204
 30
0.0
  0
SPLINE
  5
22E
330
1F
100
AcDbEntity
  8
SK3
  6
SLD-Dashed
370
    18
100
AcDbSpline
210
0.0
220
0.0
230
1.0
 70
     8
 71
     3
 72
     8
 73
     4
 74
     0
 42
0.000000001
 43
0.00000001
 40
0.7499999999999942
 40
0.7499999999999942
 40
0.7499999999999942
 40
0.7499999999999942
 40
0.7656249999999947
 40
0.7656249999999947
 40
0.7656249999999947
 40
0.7656249999999947
 10
43.81900142180287
 20
10.67709515992204
 30
0.0
 10
43.60352745952822
 20
10.67671169310982
 30
0.0
 10
43.3876246900606
 20
10.68285597723108
 30
0.0
 10
43.17128400726219
 20
10.69557309355251
 30
0.0
  0
SPLINE
  5
22F
330
1F
100
AcDbEntity
  8
SK3
  6
SLD-Dashed
370
    18
100
AcDbSpline
210
0.0
220
0.0
230
1.0
 70
     8
 71
     3
 72
     8
 73
     4
 74
     0
 42
0.000000001
 43
0.00000001
 40
0.7656249999999947
 40
0.7656249999999947
 40
0.7656249999999947
 40
0.7656249999999947
 40
0.781249999999995
 40
0.781249999999995
 40
0.781249999999995
 40
0.781249999999995
 10
43.17128400726219
 20
10.69557309355251
 30
0.0
 10
42.95494332446376
 20
10.70829020987395
 30
0.0
 10
42.73791851629952
 20
10.72771308645857
 30
0.0
 10
42.52621603462123
 20
10.752791525481
 30
0.0
  0
SPLINE
  5
230
330
1F
100
AcDbEntity
  8
SK3
  6
SLD-Dashed
370
    18
100
AcDbSpline
210
0.0
220
0.0
230
1.0
 70
     8
 71
     3
 72
     8
 73
     4
 74
     0
 42
0.000000001
 43
0.00000001
 40
0.781249999999995
 40
0.781249999999995
 40
0.781249999999995
 40
0.781249999999995
 40
0.8124999999999957
 40
0.8124999999999957
 40
0.8124999999999957
 40
0.8124999999999957
 10
42.52621603462123
 20
10.752791525481
 30
0.0
 10
42.10281107126468
 20
10.80294840352587
 30
0.0
 10
41.69459134578529
 20
10.87590735403148
 30
0.0
 10
41.30030315581351
 20
10.96578699012689
 30
0.0
  0
SPLINE
  5
231
330
1F
100
AcDbEntity
  8
SK3
  6
SLD-Dashed
370
    18
100
AcDbSpline
210
0.0
220
0.0
230
1.0
 70
     8
 71
     3
 72
     8
 73
     4
 74
     0
 42
0.000000001
 43
0.00000001
 40
0.8124999999999957
 40
0.8124999999999957
 40
0.8124999999999957
 40
0.8124999999999957
 40
0.8281249999999961
 40
0.8281249999999961
 40
0.8281249999999961
 40
0.8281249999999961
 10
41.30030315581351
 20
10.96578699012689
 30
0.0
 10
41.10315906082762
 20
11.0107268081746
 30
0.0
 10
40.91006614154865
 20
11.05982795251386
 30
0.0
 10
40.72412872736536
 20
11.11129983781461
 30
0.0
  0
SPLINE
  5
232
330
1F
100
AcDbEntity
  8
SK3
  6
SLD-Dashed
370
    18
100
AcDbSpline
210
0.0
220
0.0
230
1.0
 70
     8
 71
     3
 72
     8
 73
     4
 74
     0
 42
0.000000001
 43
0.00000001
 40
0.8281249999999961
 40
0.8281249999999961
 40
0.8281249999999961
 40
0.8281249999999961
 40
0.8437499999999964
 40
0.8437499999999964
 40
0.8437499999999964
 40
0.8437499999999964
 10
40.72412872736536
 20
11.11129983781461
 30
0.0
 10
40.53819131318207
 20
11.16277172311538
 30
0.0
 10
40.35840358633949
 20
11.21683713220546
 30
0.0
 10
40.18443817573527
 20
11.27263444386807
 30
0.0
  0
SPLINE
  5
233
330
1F
100
AcDbEntity
  8
SK3
  6
SLD-Dashed
370
    18
100
AcDbSpline
210
0.0
220
0.0
230
1.0
 70
     8
 71
     3
 72
     8
 73
     4
 74
     0
 42
0.000000001
 43
0.00000001
 40
0.8437499999999964
 40
0.8437499999999964
 40
0.8437499999999964
 40
0.8437499999999964
 40
0.8593749999999969
 40
0.8593749999999969
 40
0.8593749999999969
 40
0.8593749999999969
 10
40.18443817573527
 20
11.27263444386807
 30
0.0
 10
40.01047276513103
 20
11.32843175553068
 30
0.0
 10
39.84233084309147
 20
11.3859642017446
 30
0.0
 10
39.67989971818523
 20
11.44444084838618
 30
0.0
  0
SPLINE
  5
234
330
1F
100
AcDbEntity
  8
SK3
  6
SLD-Dashed
370
    18
100
AcDbSpline
210
0.0
220
0.0
230
1.0
 70
     8
 71
     3
 72
     8
 73
     4
 74
     0
 42
0.000000001
 43
0.00000001
 40
0.8593749999999969
 40
0.8593749999999969
 40
0.8593749999999969
 40
0.8593749999999969
 40
0.8749999999999972
 40
0.8749999999999972
 40
0.8749999999999972
 40
0.8749999999999972
 10
39.67989971818523
 20
11.44444084838618
 30
0.0
 10
39.51746859327901
 20
11.50291749502777
 30
0.0
 10
39.36074253776747
 20
11.56237325354581
 30
0.0
 10
39.2125787993905
 20
11.62086198488742
 30
0.0
  0
SPLINE
  5
235
330
1F
100
AcDbEntity
  8
SK3
  6
SLD-Dashed
370
    18
100
AcDbSpline
210
0.0
220
0.0
230
1.0
 70
     8
 71
     3
 72
     8
 73
     4
 74
     0
 42
0.000000001
 43
0.00000001
 40
0.8749999999999972
 40
0.8749999999999972
 40
0.8749999999999972
 40
0.8749999999999972
 40
0.9062499999999979
 40
0.9062499999999979
 40
0.9062499999999979
 40
0.9062499999999979
 10
39.2125787993905
 20
11.62086198488742
 30
0.0
 10
38.91625132263657
 20
11.73783944757065
 30
0.0
 10
38.65062501341307
 20
11.85208355562192
 30
0.0
 10
38.41522146538559
 20
11.95808679793069
 30
0.0
  0
SPLINE
  5
236
330
1F
100
AcDbEntity
  8
SK3
  6
SLD-Dashed
370
    18
100
AcDbSpline
210
0.0
220
0.0
230
1.0
 70
     8
 71
     3
 72
     8
 73
     4
 74
     0
 42
0.000000001
 43
0.00000001
 40
0.9062499999999979
 40
0.9062499999999979
 40
0.9062499999999979
 40
0.9062499999999979
 40
0.9374999999999986
 40
0.9374999999999986
 40
0.9374999999999986
 40
0.9374999999999986
 10
38.41522146538559
 20
11.95808679793069
 30
0.0
 10
38.17981791735811
 20
12.06409004023946
 30
0.0
 10
37.97427786308888
 20
12.16217169850693
 30
0.0
 10
37.80963264312789
 20
12.24273258183316
 30
0.0
  0
SPLINE
  5
237
330
1F
100
AcDbEntity
  8
SK3
  6
SLD-Dashed
370
    18
100
AcDbSpline
210
0.0
220
0.0
230
1.0
 70
     8
 71
     3
 72
     8
 73
     4
 74
     0
 42
0.000000001
 43
0.00000001
 40
0.9374999999999986
 40
0.9374999999999986
 40
0.9374999999999986
 40
0.9374999999999986
 40
0.9687499999999992
 40
0.9687499999999992
 40
0.9687499999999992
 40
0.9687499999999992
 10
37.80963264312789
 20
12.24273258183316
 30
0.0
 10
37.64498742316691
 20
12.32329346515939
 30
0.0
 10
37.51822714935613
 20
12.3877008571101
 30
0.0
 10
37.43158020750376
 20
12.43208633550531
 30
0.0
  0
SPLINE
  5
238
330
1F
100
AcDbEntity
  8
SK3
  6
SLD-Dashed
370
    18
100
AcDbSpline
210
0.0
220
0.0
230
1.0
 70
     8
 71
     2
 72
     6
 73
     3
 74
     0
 42
0.000000001
 43
0.00000001
 40
0.9687499999999992
 40
0.9687499999999992
 40
0.9687499999999992
 40
1.0
 40
1.0
 40
1.0
 10
37.43158020750379
 20
12.43208633550529
 30
0.0
 10
37.34493326565141
 20
12.47647181390052
 30
0.0
 10
37.30000000000003
 20
12.5
 30
0.0
  0
SPLINE
  5
239
330
1F
100
AcDbEntity
  8
SK3
  6
SLD-Dashed
370
    18
100
AcDbSpline
210
0.0
220
0.0
230
1.0
 70
     8
 71
     2
 72
     6
 73
     3
 74
     0
 42
0.000000001
 43
0.00000001
 40
0.0
 40
0.0
 40
0.0
 40
0.0312499999999994
 40
0.0312499999999994
 40
0.0312499999999994
 10
37.30000000000003
 20
12.5
 30
0.0
 10
37.34375184602992
 20
12.4770913389727
 30
0.0
 10
37.42878424728424
 20
12.43351881679733
 30
0.0
  0
SPLINE
  5
23A
330
1F
100
AcDbEntity
  8
SK3
  6
SLD-Dashed
370
    18
100
AcDbSpline
210
0.0
220
0.0
230
1.0
 70
     8
 71
     3
 72
     8
 73
     4
 74
     0
 42
0.000000001
 43
0.00000001
 40
0.0312499999999994
 40
0.0312499999999994
 40
0.0312499999999994
 40
0.0312499999999994
 40
0.0624999999999989
 40
0.0624999999999989
 40
0.0624999999999989
 40
0.0624999999999989
 10
37.42878424728424
 20
12.43351881679733
 30
0.0
 10
37.51381664853859
 20
12.38994629462196
 30
0.0
 10
37.6424703418953
 20
12.32455034245713
 30
0.0
 10
37.80718102131237
 20
12.24393234673074
 30
0.0
  0
SPLINE
  5
23B
330
1F
100
AcDbEntity
  8
SK3
  6
SLD-Dashed
370
    18
100
AcDbSpline
210
0.0
220
0.0
230
1.0
 70
     8
 71
     3
 72
     8
 73
     4
 74
     0
 42
0.000000001
 43
0.00000001
 40
0.0624999999999989
 40
0.0624999999999989
 40
0.0624999999999989
 40
0.0624999999999989
 40
0.0937499999999983
 40
0.0937499999999983
 40
0.0937499999999983
 40
0.0937499999999983
 10
37.80718102131237
 20
12.24393234673074
 30
0.0
 10
37.9718917007294
 20
12.16331435100434
 30
0.0
 10
38.17232390284592
 20
12.06757773367421
 30
0.0
 10
38.40813055369122
 20
11.96128154196022
 30
0.0
  0
SPLINE
  5
23C
330
1F
100
AcDbEntity
  8
SK3
  6
SLD-Dashed
370
    18
100
AcDbSpline
210
0.0
220
0.0
230
1.0
 70
     8
 71
     3
 72
     8
 73
     4
 74
     0
 42
0.000000001
 43
0.00000001
 40
0.0937499999999983
 40
0.0937499999999983
 40
0.0937499999999983
 40
0.0937499999999983
 40
0.109374999999998
 40
0.109374999999998
 40
0.109374999999998
 40
0.109374999999998
 10
38.40813055369122
 20
11.96128154196022
 30
0.0
 10
38.52603387911385
 20
11.90813344610322
 30
0.0
 10
38.6527221327827
 20
11.85242393063373
 30
0.0
 10
38.78583074477568
 20
11.79584220477863
 30
0.0
  0
SPLINE
  5
23D
330
1F
100
AcDbEntity
  8
SK3
  6
SLD-Dashed
370
    18
100
AcDbSpline
210
0.0
220
0.0
230
1.0
 70
     8
 71
     3
 72
     8
 73
     4
 74
     0
 42
0.000000001
 43
0.00000001
 40
0.109374999999998
 40
0.109374999999998
 40
0.109374999999998
 40
0.109374999999998
 40
0.1249999999999977
 40
0.1249999999999977
 40
0.1249999999999977
 40
0.1249999999999977
 10
38.78583074477568
 20
11.79584220477863
 30
0.0
 10
38.91893935676868
 20
11.73926047892354
 30
0.0
 10
39.05903347847717
 20
11.6815456900817
 30
0.0
 10
39.20611514596786
 20
11.62341507699463
 30
0.0
  0
SPLINE
  5
23E
330
1F
100
AcDbEntity
  8
SK3
  6
SLD-Dashed
370
    18
100
AcDbSpline
210
0.0
220
0.0
230
1.0
 70
     8
 71
     3
 72
     8
 73
     4
 74
     0
 42
0.000000001
 43
0.00000001
 40
0.1249999999999977
 40
0.1249999999999977
 40
0.1249999999999977
 40
0.1249999999999977
 40
0.1406249999999974
 40
0.1406249999999974
 40
0.1406249999999974
 40
0.1406249999999974
 10
39.20611514596786
 20
11.62341507699463
 30
0.0
 10
39.35319681345856
 20
11.56528446390755
 30
0.0
 10
39.5072651267212
 20
11.50673447314942
 30
0.0
 10
39.66858280213697
 20
11.44851990707963
 30
0.0
  0
SPLINE
  5
23F
330
1F
100
AcDbEntity
  8
SK3
  6
SLD-Dashed
370
    18
100
AcDbSpline
210
0.0
220
0.0
230
1.0
 70
     8
 71
     3
 72
     8
 73
     4
 74
     0
 42
0.000000001
 43
0.00000001
 40
0.1406249999999974
 40
0.1406249999999974
 40
0.1406249999999974
 40
0.1406249999999974
 40
0.1562499999999971
 40
0.1562499999999971
 40
0.1562499999999971
 40
0.1562499999999971
 10
39.66858280213697
 20
11.44851990707963
 30
0.0
 10
39.82990047755275
 20
11.39030534100985
 30
0.0
 10
39.99939348590781
 20
11.33214074521722
 30
0.0
 10
40.17355819624757
 20
11.27612877524921
 30
0.0
  0
SPLINE
  5
240
330
1F
100
AcDbEntity
  8
SK3
  6
SLD-Dashed
370
    18
100
AcDbSpline
210
0.0
220
0.0
230
1.0
 70
     8
 71
     3
 72
     8
 73
     4
 74
     0
 42
0.000000001
 43
0.00000001
 40
0.1562499999999971
 40
0.1562499999999971
 40
0.1562499999999971
 40
0.1562499999999971
 40
0.1874999999999968
 40
0.1874999999999968
 40
0.1874999999999968
 40
0.1874999999999968
 10
40.17355819624757
 20
11.27612877524921
 30
0.0
 10
40.52188761692712
 20
11.16410483531321
 30
0.0
 10
40.88953123344871
 20
11.06019367443201
 30
0.0
 10
41.27801498587158
 20
10.97088913495568
 30
0.0
  0
SPLINE
  5
241
330
1F
100
AcDbEntity
  8
SK3
  6
SLD-Dashed
370
    18
100
AcDbSpline
210
0.0
220
0.0
230
1.0
 70
     8
 71
     3
 72
     8
 73
     4
 74
     0
 42
0.000000001
 43
0.00000001
 40
0.1874999999999968
 40
0.1874999999999968
 40
0.1874999999999968
 40
0.1874999999999968
 40
0.2031249999999968
 40
0.2031249999999968
 40
0.2031249999999968
 40
0.2031249999999968
 10
41.27801498587158
 20
10.97088913495568
 30
0.0
 10
41.472256862083
 20
10.92623686521752
 30
0.0
 10
41.6717486596134
 20
10.88524993667247
 30
0.0
 10
41.87695759936194
 20
10.84887515250553
 30
0.0
  0
SPLINE
  5
242
330
1F
100
AcDbEntity
  8
SK3
  6
SLD-Dashed
370
    18
100
AcDbSpline
210
0.0
220
0.0
230
1.0
 70
     8
 71
     3
 72
     8
 73
     4
 74
     0
 42
0.000000001
 43
0.00000001
 40
0.2031249999999968
 40
0.2031249999999968
 40
0.2031249999999968
 40
0.2031249999999968
 40
0.2187499999999967
 40
0.2187499999999967
 40
0.2187499999999967
 40
0.2187499999999967
 10
41.87695759936194
 20
10.84887515250553
 30
0.0
 10
42.08216653911045
 20
10.81250036833859
 30
0.0
 10
42.29222654095368
 20
10.78099300082782
 30
0.0
 10
42.50249816678703
 20
10.75562694626358
 30
0.0
  0
SPLINE
  5
243
330
1F
100
AcDbEntity
  8
SK3
  6
SLD-Dashed
370
    18
100
AcDbSpline
210
0.0
220
0.0
230
1.0
 70
     8
 71
     3
 72
     8
 73
     4
 74
     0
 42
0.000000001
 43
0.00000001
 40
0.2187499999999967
 40
0.2187499999999967
 40
0.2187499999999967
 40
0.2187499999999967
 40
0.2499999999999965
 40
0.2499999999999965
 40
0.2499999999999965
 40
0.2499999999999965
 10
42.50249816678703
 20
10.75562694626358
 30
0.0
 10
42.92304141845374
 20
10.70489483713511
 30
0.0
 10
43.34960791658224
 20
10.67780253889703
 30
0.0
 10
43.78248950908495
 20
10.67709261069193
 30
0.0
  0
SPLINE
  5
244
330
1F
100
AcDbEntity
  8
SK3
  6
SLD-Dashed
370
    18
100
AcDbSpline
210
0.0
220
0.0
230
1.0
 70
     8
 71
     3
 72
     8
 73
     4
 74
     0
 42
0.000000001
 43
0.00000001
 40
0.2499999999999965
 40
0.2499999999999965
 40
0.2499999999999965
 40
0.2499999999999965
 40
0.2656249999999964
 40
0.2656249999999964
 40
0.2656249999999964
 40
0.2656249999999964
 10
43.78248950908495
 20
10.67709261069193
 30
0.0
 10
43.9989303053363
 20
10.67673764658938
 30
0.0
 10
44.21851719288769
 20
10.6830959395677
 30
0.0
 10
44.43480999916885
 20
10.69593304649224
 30
0.0
  0
SPLINE
  5
245
330
1F
100
AcDbEntity
  8
SK3
  6
SLD-Dashed
370
    18
100
AcDbSpline
210
0.0
220
0.0
230
1.0
 70
     8
 71
     3
 72
     8
 73
     4
 74
     0
 42
0.000000001
 43
0.00000001
 40
0.2656249999999964
 40
0.2656249999999964
 40
0.2656249999999964
 40
0.2656249999999964
 40
0.2812499999999963
 40
0.2812499999999963
 40
0.2812499999999963
 40
0.2812499999999963
 10
44.43480999916885
 20
10.69593304649224
 30
0.0
 10
44.65110280545004
 20
10.7087701534168
 30
0.0
 10
44.86437819376549
 20
10.7279657294104
 30
0.0
 10
45.07479331078476
 20
10.75291114002258
 30
0.0
  0
SPLINE
  5
246
330
1F
100
AcDbEntity
  8
SK3
  6
SLD-Dashed
370
    18
100
AcDbSpline
210
0.0
220
0.0
230
1.0
 70
     8
 71
     3
 72
     8
 73
     4
 74
     0
 42
0.000000001
 43
0.00000001
 40
0.2812499999999963
 40
0.2812499999999963
 40
0.2812499999999963
 40
0.2812499999999963
 40
0.2968749999999962
 40
0.2968749999999962
 40
0.2968749999999962
 40
0.2968749999999962
 10
45.07479331078476
 20
10.75291114002258
 30
0.0
 10
45.28520842780406
 20
10.77785655063476
 30
0.0
 10
45.49276290198295
 20
10.80855195727663
 30
0.0
 10
45.69754272990345
 20
10.84438418776324
 30
0.0
  0
SPLINE
  5
247
330
1F
100
AcDbEntity
  8
SK3
  6
SLD-Dashed
370
    18
100
AcDbSpline
210
0.0
220
0.0
230
1.0
 70
     8
 71
     3
 72
     8
 73
     4
 74
     0
 42
0.000000001
 43
0.00000001
 40
0.2968749999999962
 40
0.2968749999999962
 40
0.2968749999999962
 40
0.2968749999999962
 40
0.3124999999999961
 40
0.3124999999999961
 40
0.3124999999999961
 40
0.3124999999999961
 10
45.69754272990345
 20
10.84438418776324
 30
0.0
 10
45.90232255782401
 20
10.88021641824987
 30
0.0
 10
46.10530703394999
 20
10.92143875097548
 30
0.0
 10
46.3018434282701
 20
10.96627651208825
 30
0.0
  0
SPLINE
  5
248
330
1F
100
AcDbEntity
  8
SK3
  6
SLD-Dashed
370
    18
100
AcDbSpline
210
0.0
220
0.0
230
1.0
 70
     8
 71
     3
 72
     8
 73
     4
 74
     0
 42
0.000000001
 43
0.00000001
 40
0.3124999999999961
 40
0.3124999999999961
 40
0.3124999999999961
 40
0.3124999999999961
 40
0.3437499999999958
 40
0.3437499999999958
 40
0.3437499999999958
 40
0.3437499999999958
 10
46.3018434282701
 20
10.96627651208825
 30
0.0
 10
46.69491621691041
 20
11.05595203431382
 30
0.0
 10
47.06477848352711
 20
11.16017537876463
 30
0.0
 10
47.41374943477877
 20
11.27205327246832
 30
0.0
  0
SPLINE
  5
249
330
1F
100
AcDbEntity
  8
SK3
  6
SLD-Dashed
370
    18
100
AcDbSpline
210
0.0
220
0.0
230
1.0
 70
     8
 71
     3
 72
     8
 73
     4
 74
     0
 42
0.000000001
 43
0.00000001
 40
0.3437499999999958
 40
0.3437499999999958
 40
0.3437499999999958
 40
0.3437499999999958
 40
0.3593749999999957
 40
0.3593749999999957
 40
0.3593749999999957
 40
0.3593749999999957
 10
47.41374943477877
 20
11.27205327246832
 30
0.0
 10
47.58823491040459
 20
11.32799221932017
 30
0.0
 10
47.75815141303963
 20
11.38613677785403
 30
0.0
 10
47.92018472812337
 20
11.44447125007797
 30
0.0
  0
SPLINE
  5
24A
330
1F
100
AcDbEntity
  8
SK3
  6
SLD-Dashed
370
    18
100
AcDbSpline
210
0.0
220
0.0
230
1.0
 70
     8
 71
     3
 72
     8
 73
     4
 74
     0
 42
0.000000001
 43
0.00000001
 40
0.3593749999999957
 40
0.3593749999999957
 40
0.3593749999999957
 40
0.3593749999999957
 40
0.3749999999999956
 40
0.3749999999999956
 40
0.3749999999999956
 40
0.3749999999999956
 10
47.92018472812337
 20
11.44447125007797
 30
0.0
 10
48.08221804320711
 20
11.5028057223019
 30
0.0
 10
48.23680273917516
 20
11.56143854454671
 30
0.0
 10
48.38425244241881
 20
11.61961145890099
 30
0.0
  0
SPLINE
  5
24B
330
1F
100
AcDbEntity
  8
SK3
  6
SLD-Dashed
370
    18
100
AcDbSpline
210
0.0
220
0.0
230
1.0
 70
     8
 71
     3
 72
     8
 73
     4
 74
     0
 42
0.000000001
 43
0.00000001
 40
0.3749999999999956
 40
0.3749999999999956
 40
0.3749999999999956
 40
0.3749999999999956
 40
0.4062499999999954
 40
0.4062499999999954
 40
0.4062499999999954
 40
0.4062499999999954
 10
48.38425244241881
 20
11.61961145890099
 30
0.0
 10
48.67915184890612
 20
11.73595728760954
 30
0.0
 10
48.94577157532854
 20
11.85048260515994
 30
0.0
 10
49.18341406686791
 20
11.9574724342292
 30
0.0
  0
SPLINE
  5
24C
330
1F
100
AcDbEntity
  8
SK3
  6
SLD-Dashed
370
    18
100
AcDbSpline
210
0.0
220
0.0
230
1.0
 70
     8
 71
     3
 72
     8
 73
     4
 74
     0
 42
0.000000001
 43
0.00000001
 40
0.4062499999999954
 40
0.4062499999999954
 40
0.4062499999999954
 40
0.4062499999999954
 40
0.4374999999999952
 40
0.4374999999999952
 40
0.4374999999999952
 40
0.4374999999999952
 10
49.18341406686791
 20
11.9574724342292
 30
0.0
 10
49.42105655840726
 20
12.06446226329846
 30
0.0
 10
49.62198651999972
 20
12.16038251484257
 30
0.0
 10
49.78663167083566
 20
12.24090514472901
 30
0.0
  0
SPLINE
  5
24D
330
1F
100
AcDbEntity
  8
SK3
  6
SLD-Dashed
370
    18
100
AcDbSpline
210
0.0
220
0.0
230
1.0
 70
     8
 71
     3
 72
     8
 73
     4
 74
     0
 42
0.000000001
 43
0.00000001
 40
0.4374999999999952
 40
0.4374999999999952
 40
0.4374999999999952
 40
0.4374999999999952
 40
0.4531249999999951
 40
0.4531249999999951
 40
0.4531249999999951
 40
0.4531249999999951
 10
49.78663167083566
 20
12.24090514472901
 30
0.0
 10
49.86895424625365
 20
12.28116645967223
 30
0.0
 10
49.9421629235477
 20
12.31759429177075
 30
0.0
 10
50.00589667312544
 20
12.34962159410198
 30
0.0
  0
SPLINE
  5
24E
330
1F
100
AcDbEntity
  8
SK3
  6
SLD-Dashed
370
    18
100
AcDbSpline
210
0.0
220
0.0
230
1.0
 70
     8
 71
     3
 72
     8
 73
     4
 74
     0
 42
0.000000001
 43
0.00000001
 40
0.4531249999999951
 40
0.4531249999999951
 40
0.4531249999999951
 40
0.4531249999999951
 40
0.468749999999995
 40
0.468749999999995
 40
0.468749999999995
 40
0.468749999999995
 10
50.00589667312544
 20
12.34962159410198
 30
0.0
 10
50.06963042270323
 20
12.38164889643319
 30
0.0
 10
50.12414173349655
 20
12.40940671083662
 30
0.0
 10
50.16760972746218
 20
12.43167139371335
 30
0.0
  0
SPLINE
  5
24F
330
1F
100
AcDbEntity
  8
SK3
  6
SLD-Dashed
370
    18
100
AcDbSpline
210
0.0
220
0.0
230
1.0
 70
     8
 71
     3
 72
     8
 73
     4
 74
     0
 42
0.000000001
 43
0.00000001
 40
0.468749999999995
 40
0.468749999999995
 40
0.468749999999995
 40
0.468749999999995
 40
0.4999999999999948
 40
0.4999999999999948
 40
0.4999999999999948
 40
0.4999999999999948
 10
50.16760972746218
 20
12.43167139371335
 30
0.0
 10
50.25454571539342
 20
12.47620075946681
 30
0.0
 10
50.29857759821999
 20
12.4992603538292
 30
0.0
 10
50.29996642252757
 20
12.49998253974725
 30
0.0
  0
SPLINE
  5
250
330
1F
100
AcDbEntity
  8
SK3
  6
SLD-Dashed
370
    18
100
AcDbSpline
210
0.0
220
0.0
230
1.0
 70
     8
 71
     3
 72
     8
 73
     4
 74
     0
 42
0.000000001
 43
0.00000001
 40
0.5312499999999946
 40
0.5312499999999946
 40
0.5312499999999946
 40
0.5312499999999946
 40
0.5624999999999943
 40
0.5624999999999943
 40
0.5624999999999943
 40
0.5624999999999943
 10
50.1740898482628
 20
12.43499181317491
 30
0.0
 10
50.08975549368136
 20
12.3917626127481
 30
0.0
 10
49.96450711414388
 20
12.32802959304029
 30
0.0
 10
49.79894367036464
 20
12.24693125481679
 30
0.0
  0
SPLINE
  5
251
330
1F
100
AcDbEntity
  8
SK3
  6
SLD-Dashed
370
    18
100
AcDbSpline
210
0.0
220
0.0
230
1.0
 70
     8
 71
     3
 72
     8
 73
     4
 74
     0
 42
0.000000001
 43
0.00000001
 40
0.5624999999999943
 40
0.5624999999999943
 40
0.5624999999999943
 40
0.5624999999999943
 40
0.5937499999999942
 40
0.5937499999999942
 40
0.5937499999999942
 40
0.5937499999999942
 10
49.79894367036464
 20
12.24693125481679
 30
0.0
 10
49.63338022658542
 20
12.16583291659329
 30
0.0
 10
49.43264724316037
 20
12.06992579451734
 30
0.0
 10
49.19864995297857
 20
11.96433956868474
 30
0.0
  0
SPLINE
  5
252
330
1F
100
AcDbEntity
  8
SK3
  6
SLD-Dashed
370
    18
100
AcDbSpline
210
0.0
220
0.0
230
1.0
 70
     8
 71
     3
 72
     8
 73
     4
 74
     0
 42
0.000000001
 43
0.00000001
 40
0.5937499999999942
 40
0.5937499999999942
 40
0.5937499999999942
 40
0.5937499999999942
 40
0.6249999999999941
 40
0.6249999999999941
 40
0.6249999999999941
 40
0.6249999999999941
 10
49.19864995297857
 20
11.96433956868474
 30
0.0
 10
48.96465266279676
 20
11.85875334285214
 30
0.0
 10
48.69461629778671
 20
11.74240232714294
 30
0.0
 10
48.39990772958166
 20
11.62579679508743
 30
0.0
  0
SPLINE
  5
253
330
1F
100
AcDbEntity
  8
SK3
  6
SLD-Dashed
370
    18
100
AcDbSpline
210
0.0
220
0.0
230
1.0
 70
     8
 71
     3
 72
     8
 73
     4
 74
     0
 42
0.000000001
 43
0.00000001
 40
0.6249999999999941
 40
0.6249999999999941
 40
0.6249999999999941
 40
0.6249999999999941
 40
0.656249999999994
 40
0.656249999999994
 40
0.656249999999994
 40
0.656249999999994
 10
48.39990772958166
 20
11.62579679508743
 30
0.0
 10
48.10519916137662
 20
11.50919126303192
 30
0.0
 10
47.7846538853835
 20
11.39160929352982
 30
0.0
 10
47.43635358647502
 20
11.2793203432596
 30
0.0
  0
SPLINE
  5
254
330
1F
100
AcDbEntity
  8
SK3
  6
SLD-Dashed
370
    18
100
AcDbSpline
210
0.0
220
0.0
230
1.0
 70
     8
 71
     3
 72
     8
 73
     4
 74
     0
 42
0.000000001
 43
0.00000001
 40
0.656249999999994
 40
0.656249999999994
 40
0.656249999999994
 40
0.656249999999994
 40
0.6718749999999939
 40
0.6718749999999939
 40
0.6718749999999939
 40
0.6718749999999939
 10
47.43635358647502
 20
11.2793203432596
 30
0.0
 10
47.26220343702078
 20
11.22317586812448
 30
0.0
 10
47.08031624430789
 20
11.16820362294005
 30
0.0
 10
46.89493491207186
 20
11.11659219859942
 30
0.0
  0
SPLINE
  5
255
330
1F
100
AcDbEntity
  8
SK3
  6
SLD-Dashed
370
    18
100
AcDbSpline
210
0.0
220
0.0
230
1.0
 70
     8
 71
     3
 72
     8
 73
     4
 74
     0
 42
0.000000001
 43
0.00000001
 40
0.6718749999999939
 40
0.6718749999999939
 40
0.6718749999999939
 40
0.6718749999999939
 40
0.6874999999999939
 40
0.6874999999999939
 40
0.6874999999999939
 40
0.6874999999999939
 10
46.89493491207186
 20
11.11659219859942
 30
0.0
 10
46.70955357983589
 20
11.06498077425879
 30
0.0
 10
46.51990272693649
 20
11.01645189379415
 30
0.0
 10
46.32585601774195
 20
10.97177964700181
 30
0.0
  0
SPLINE
  5
256
330
1F
100
AcDbEntity
  8
SK3
  6
SLD-Dashed
370
    18
100
AcDbSpline
210
0.0
220
0.0
230
1.0
 70
     8
 71
     3
 72
     8
 73
     4
 74
     0
 42
0.000000001
 43
0.00000001
 40
0.6874999999999939
 40
0.6874999999999939
 40
0.6874999999999939
 40
0.6874999999999939
 40
0.7187499999999941
 40
0.7187499999999941
 40
0.7187499999999941
 40
0.7187499999999941
 10
46.32585601774195
 20
10.97177964700181
 30
0.0
 10
45.93776259935281
 20
10.88243515341711
 30
0.0
 10
45.53224492077471
 20
10.80842918541077
 30
0.0
 10
45.10656376431349
 20
10.75672389113977
 30
0.0
  0
SPLINE
  5
257
330
1F
100
AcDbEntity
  8
SK3
  6
SLD-Dashed
370
    18
100
AcDbSpline
210
0.0
220
0.0
230
1.0
 70
     8
 71
     3
 72
     8
 73
     4
 74
     0
 42
0.000000001
 43
0.00000001
 40
0.7187499999999941
 40
0.7187499999999941
 40
0.7187499999999941
 40
0.7187499999999941
 40
0.7499999999999942
 40
0.7499999999999942
 40
0.7499999999999942
 40
0.7499999999999942
 10
45.10656376431349
 20
10.75672389113977
 30
0.0
 10
44.68088260785225
 20
10.70501859686877
 30
0.0
 10
44.24994934635221
 20
10.67786209354648
 30
0.0
 10
43.81900142180287
 20
10.67709515992204
 30
0.0
  0
SPLINE
  5
258
330
1F
100
AcDbEntity
  8
SK3
  6
SLD-Dashed
370
    18
100
AcDbSpline
210
0.0
220
0.0
230
1.0
 70
     8
 71
     3
 72
     8
 73
     4
 74
     0
 42
0.000000001
 43
0.00000001
 40
0.7499999999999942
 40
0.7499999999999942
 40
0.7499999999999942
 40
0.7499999999999942
 40
0.7656249999999947
 40
0.7656249999999947
 40
0.7656249999999947
 40
0.7656249999999947
 10
43.81900142180287
 20
10.67709515992204
 30
0.0
 10
43.60352745952822
 20
10.67671169310982
 30
0.0
 10
43.3876246900606
 20
10.68285597723108
 30
0.0
 10
43.17128400726219
 20
10.69557309355251
 30
0.0
  0
SPLINE
  5
259
330
1F
100
AcDbEntity
  8
SK3
  6
SLD-Dashed
370
    18
100
AcDbSpline
210
0.0
220
0.0
230
1.0
 70
     8
 71
     3
 72
     8
 73
     4
 74
     0
 42
0.000000001
 43
0.00000001
 40
0.7656249999999947
 40
0.7656249999999947
 40
0.7656249999999947
 40
0.7656249999999947
 40
0.781249999999995
 40
0.781249999999995
 40
0.781249999999995
 40
0.781249999999995
 10
43.17128400726219
 20
10.69557309355251
 30
0.0
 10
42.95494332446376
 20
10.70829020987395
 30
0.0
 10
42.73791851629952
 20
10.72771308645857
 30
0.0
 10
42.52621603462123
 20
10.752791525481
 30
0.0
  0
SPLINE
  5
25A
330
1F
100
AcDbEntity
  8
SK3
  6
SLD-Dashed
370
    18
100
AcDbSpline
210
0.0
220
0.0
230
1.0
 70
     8
 71
     3
 72
     8
 73
     4
 74
     0
 42
0.000000001
 43
0.00000001
 40
0.781249999999995
 40
0.781249999999995
 40
0.781249999999995
 40
0.781249999999995
 40
0.8124999999999957
 40
0.8124999999999957
 40
0.8124999999999957
 40
0.8124999999999957
 10
42.52621603462123
 20
10.752791525481
 30
0.0
 10
42.10281107126468
 20
10.80294840352587
 30
0.0
 10
41.69459134578529
 20
10.87590735403148
 30
0.0
 10
41.30030315581351
 20
10.96578699012689
 30
0.0
  0
SPLINE
  5
25B
330
1F
100
AcDbEntity
  8
SK3
  6
SLD-Dashed
370
    18
100
AcDbSpline
210
0.0
220
0.0
230
1.0
 70
     8
 71
     3
 72
     8
 73
     4
 74
     0
 42
0.000000001
 43
0.00000001
 40
0.8124999999999957
 40
0.8124999999999957
 40
0.8124999999999957
 40
0.8124999999999957
 40
0.8281249999999961
 40
0.8281249999999961
 40
0.8281249999999961
 40
0.8281249999999961
 10
41.30030315581351
 20
10.96578699012689
 30
0.0
 10
41.10315906082762
 20
11.0107268081746
 30
0.0
 10
40.91006614154865
 20
11.05982795251386
 30
0.0
 10
40.72412872736536
 20
11.11129983781461
 30
0.0
  0
SPLINE
  5
25C
330
1F
100
AcDbEntity
  8
SK3
  6
SLD-Dashed
370
    18
100
AcDbSpline
210
0.0
220
0.0
230
1.0
 70
     8
 71
     3
 72
     8
 73
     4
 74
     0
 42
0.000000001
 43
0.00000001
 40
0.8281249999999961
 40
0.8281249999999961
 40
0.8281249999999961
 40
0.8281249999999961
 40
0.8437499999999964
 40
0.8437499999999964
 40
0.8437499999999964
 40
0.8437499999999964
 10
40.72412872736536
 20
11.11129983781461
 30
0.0
 10
40.53819131318207
 20
11.16277172311538
 30
0.0
 10
40.35840358633949
 20
11.21683713220546
 30
0.0
 10
40.18443817573527
 20
11.27263444386807
 30
0.0
  0
SPLINE
  5
25D
330
1F
100
AcDbEntity
  8
SK3
  6
SLD-Dashed
370
    18
100
AcDbSpline
210
0.0
220
0.0
230
1.0
 70
     8
 71
     3
 72
     8
 73
     4
 74
     0
 42
0.000000001
 43
0.00000001
 40
0.8437499999999964
 40
0.8437499999999964
 40
0.8437499999999964
 40
0.8437499999999964
 40
0.8593749999999969
 40
0.8593749999999969
 40
0.8593749999999969
 40
0.8593749999999969
 10
40.18443817573527
 20
11.27263444386807
 30
0.0
 10
40.01047276513103
 20
11.32843175553068
 30
0.0
 10
39.84233084309147
 20
11.3859642017446
 30
0.0
 10
39.67989971818523
 20
11.44444084838618
 30
0.0
  0
SPLINE
  5
25E
330
1F
100
AcDbEntity
  8
SK3
  6
SLD-Dashed
370
    18
100
AcDbSpline
210
0.0
220
0.0
230
1.0
 70
     8
 71
     3
 72
     8
 73
     4
 74
     0
 42
0.000000001
 43
0.00000001
 40
0.8593749999999969
 40
0.8593749999999969
 40
0.8593749999999969
 40
0.8593749999999969
 40
0.8749999999999972
 40
0.8749999999999972
 40
0.8749999999999972
 40
0.8749999999999972
 10
39.67989971818523
 20
11.44444084838618
 30
0.0
 10
39.51746859327901
 20
11.50291749502777
 30
0.0
 10
39.36074253776747
 20
11.56237325354581
 30
0.0
 10
39.2125787993905
 20
11.62086198488742
 30
0.0
  0
SPLINE
  5
25F
330
1F
100
AcDbEntity
  8
SK3
  6
SLD-Dashed
370
    18
100
AcDbSpline
210
0.0
220
0.0
230
1.0
 70
     8
 71
     3
 72
     8
 73
     4
 74
     0
 42
0.000000001
 43
0.00000001
 40
0.8749999999999972
 40
0.8749999999999972
 40
0.8749999999999972
 40
0.8749999999999972
 40
0.9062499999999979
 40
0.9062499999999979
 40
0.9062499999999979
 40
0.9062499999999979
 10
39.2125787993905
 20
11.62086198488742
 30
0.0
 10
38.91625132263657
 20
11.73783944757065
 30
0.0
 10
38.65062501341307
 20
11.85208355562192
 30
0.0
 10
38.41522146538559
 20
11.95808679793069
 30
0.0
  0
SPLINE
  5
260
330
1F
100
AcDbEntity
  8
SK3
  6
SLD-Dashed
370
    18
100
AcDbSpline
210
0.0
220
0.0
230
1.0
 70
     8
 71
     3
 72
     8
 73
     4
 74
     0
 42
0.000000001
 43
0.00000001
 40
0.9062499999999979
 40
0.9062499999999979
 40
0.9062499999999979
 40
0.9062499999999979
 40
0.9374999999999986
 40
0.9374999999999986
 40
0.9374999999999986
 40
0.9374999999999986
 10
38.41522146538559
 20
11.95808679793069
 30
0.0
 10
38.17981791735811
 20
12.06409004023946
 30
0.0
 10
37.97427786308888
 20
12.16217169850693
 30
0.0
 10
37.80963264312789
 20
12.24273258183316
 30
0.0
  0
SPLINE
  5
261
330
1F
100
AcDbEntity
  8
SK3
  6
SLD-Dashed
370
    18
100
AcDbSpline
210
0.0
220
0.0
230
1.0
 70
     8
 71
     3
 72
     8
 73
     4
 74
     0
 42
0.000000001
 43
0.00000001
 40
0.9374999999999986
 40
0.9374999999999986
 40
0.9374999999999986
 40
0.9374999999999986
 40
0.9687499999999992
 40
0.9687499999999992
 40
0.9687499999999992
 40
0.9687499999999992
 10
37.80963264312789
 20
12.24273258183316
 30
0.0
 10
37.64498742316691
 20
12.32329346515939
 30
0.0
 10
37.51822714935613
 20
12.3877008571101
 30
0.0
 10
37.43158020750376
 20
12.43208633550531
 30
0.0
  0
SPLINE
  5
262
330
1F
100
AcDbEntity
  8
SK3
  6
SLD-Dashed
370
    18
100
AcDbSpline
210
0.0
220
0.0
230
1.0
 70
     8
 71
     2
 72
     6
 73
     3
 74
     0
 42
0.000000001
 43
0.00000001
 40
0.9687499999999992
 40
0.9687499999999992
 40
0.9687499999999992
 40
1.0
 40
1.0
 40
1.0
 10
37.43158020750379
 20
12.43208633550529
 30
0.0
 10
37.34493326565141
 20
12.47647181390052
 30
0.0
 10
37.30000000000003
 20
12.5
 30
0.0
  0
SPLINE
  5
263
330
1F
100
AcDbEntity
  8
SK3
  6
SLD-Dashed
370
    18
100
AcDbSpline
210
0.0
220
0.0
230
1.0
 70
     8
 71
     2
 72
     6
 73
     3
 74
     0
 42
0.000000001
 43
0.00000001
 40
0.0
 40
0.0
 40
0.0
 40
0.0312500000000008
 40
0.0312500000000008
 40
0.0312500000000008
 10
61.69999999999997
 20
12.5
 30
0.0
 10
61.7437518460299
 20
12.4770913389727
 30
0.0
 10
61.82878424728422
 20
12.43351881679733
 30
0.0
  0
SPLINE
  5
264
330
1F
100
AcDbEntity
  8
SK3
  6
SLD-Dashed
370
    18
100
AcDbSpline
210
0.0
220
0.0
230
1.0
 70
     8
 71
     3
 72
     8
 73
     4
 74
     0
 42
0.000000001
 43
0.00000001
 40
0.0312500000000008
 40
0.0312500000000008
 40
0.0312500000000008
 40
0.0312500000000008
 40
0.0625000000000015
 40
0.0625000000000015
 40
0.0625000000000015
 40
0.0625000000000015
 10
61.82878424728422
 20
12.43351881679733
 30
0.0
 10
61.91381664853854
 20
12.38994629462196
 30
0.0
 10
62.0424703418953
 20
12.32455034245713
 30
0.0
 10
62.20718102131232
 20
12.24393234673073
 30
0.0
  0
SPLINE
  5
265
330
1F
100
AcDbEntity
  8
SK3
  6
SLD-Dashed
370
    18
100
AcDbSpline
210
0.0
220
0.0
230
1.0
 70
     8
 71
     3
 72
     8
 73
     4
 74
     0
 42
0.000000001
 43
0.00000001
 40
0.0625000000000015
 40
0.0625000000000015
 40
0.0625000000000015
 40
0.0625000000000015
 40
0.0937500000000023
 40
0.0937500000000023
 40
0.0937500000000023
 40
0.0937500000000023
 10
62.20718102131232
 20
12.24393234673073
 30
0.0
 10
62.37189170072941
 20
12.16331435100435
 30
0.0
 10
62.57232390284587
 20
12.06757773367421
 30
0.0
 10
62.80813055369119
 20
11.96128154196023
 30
0.0
  0
SPLINE
  5
266
330
1F
100
AcDbEntity
  8
SK3
  6
SLD-Dashed
370
    18
100
AcDbSpline
210
0.0
220
0.0
230
1.0
 70
     8
 71
     3
 72
     8
 73
     4
 74
     0
 42
0.000000001
 43
0.00000001
 40
0.0937500000000023
 40
0.0937500000000023
 40
0.0937500000000023
 40
0.0937500000000023
 40
0.1093750000000029
 40
0.1093750000000029
 40
0.1093750000000029
 40
0.1093750000000029
 10
62.80813055369119
 20
11.96128154196023
 30
0.0
 10
62.92603387911386
 20
11.90813344610322
 30
0.0
 10
63.05272213278268
 20
11.85242393063373
 30
0.0
 10
63.18583074477569
 20
11.79584220477863
 30
0.0
  0
SPLINE
  5
267
330
1F
100
AcDbEntity
  8
SK3
  6
SLD-Dashed
370
    18
100
AcDbSpline
210
0.0
220
0.0
230
1.0
 70
     8
 71
     3
 72
     8
 73
     4
 74
     0
 42
0.000000001
 43
0.00000001
 40
0.1093750000000029
 40
0.1093750000000029
 40
0.1093750000000029
 40
0.1093750000000029
 40
0.1250000000000035
 40
0.1250000000000035
 40
0.1250000000000035
 40
0.1250000000000035
 10
63.18583074477569
 20
11.79584220477863
 30
0.0
 10
63.31893935676866
 20
11.73926047892354
 30
0.0
 10
63.45903347847717
 20
11.6815456900817
 30
0.0
 10
63.60611514596784
 20
11.62341507699462
 30
0.0
  0
SPLINE
  5
268
330
1F
100
AcDbEntity
  8
SK3
  6
SLD-Dashed
370
    18
100
AcDbSpline
210
0.0
220
0.0
230
1.0
 70
     8
 71
     3
 72
     8
 73
     4
 74
     0
 42
0.000000001
 43
0.00000001
 40
0.1250000000000035
 40
0.1250000000000035
 40
0.1250000000000035
 40
0.1250000000000035
 40
0.1406250000000042
 40
0.1406250000000042
 40
0.1406250000000042
 40
0.1406250000000042
 10
63.60611514596784
 20
11.62341507699462
 30
0.0
 10
63.75319681345851
 20
11.56528446390755
 30
0.0
 10
63.90726512672121
 20
11.50673447314942
 30
0.0
 10
64.06858280213696
 20
11.44851990707963
 30
0.0
  0
SPLINE
  5
269
330
1F
100
AcDbEntity
  8
SK3
  6
SLD-Dashed
370
    18
100
AcDbSpline
210
0.0
220
0.0
230
1.0
 70
     8
 71
     3
 72
     8
 73
     4
 74
     0
 42
0.000000001
 43
0.00000001
 40
0.1406250000000042
 40
0.1406250000000042
 40
0.1406250000000042
 40
0.1406250000000042
 40
0.1562500000000048
 40
0.1562500000000048
 40
0.1562500000000048
 40
0.1562500000000048
 10
64.06858280213696
 20
11.44851990707963
 30
0.0
 10
64.2299004775527
 20
11.39030534100985
 30
0.0
 10
64.39939348590775
 20
11.33214074521723
 30
0.0
 10
64.57355819624755
 20
11.27612877524922
 30
0.0
  0
SPLINE
  5
26A
330
1F
100
AcDbEntity
  8
SK3
  6
SLD-Dashed
370
    18
100
AcDbSpline
210
0.0
220
0.0
230
1.0
 70
     8
 71
     3
 72
     8
 73
     4
 74
     0
 42
0.000000001
 43
0.00000001
 40
0.1562500000000048
 40
0.1562500000000048
 40
0.1562500000000048
 40
0.1562500000000048
 40
0.1875000000000061
 40
0.1875000000000061
 40
0.1875000000000061
 40
0.1875000000000061
 10
64.57355819624755
 20
11.27612877524922
 30
0.0
 10
64.92188761692705
 20
11.16410483531321
 30
0.0
 10
65.28953123344868
 20
11.06019367443201
 30
0.0
 10
65.67801498587153
 20
10.97088913495568
 30
0.0
  0
SPLINE
  5
26B
330
1F
100
AcDbEntity
  8
SK3
  6
SLD-Dashed
370
    18
100
AcDbSpline
210
0.0
220
0.0
230
1.0
 70
     8
 71
     3
 72
     8
 73
     4
 74
     0
 42
0.000000001
 43
0.00000001
 40
0.1875000000000061
 40
0.1875000000000061
 40
0.1875000000000061
 40
0.1875000000000061
 40
0.2031250000000062
 40
0.2031250000000062
 40
0.2031250000000062
 40
0.2031250000000062
 10
65.67801498587153
 20
10.97088913495568
 30
0.0
 10
65.87225686208295
 20
10.92623686521752
 30
0.0
 10
66.07174865961338
 20
10.88524993667247
 30
0.0
 10
66.27695759936195
 20
10.84887515250553
 30
0.0
  0
SPLINE
  5
26C
330
1F
100
AcDbEntity
  8
SK3
  6
SLD-Dashed
370
    18
100
AcDbSpline
210
0.0
220
0.0
230
1.0
 70
     8
 71
     3
 72
     8
 73
     4
 74
     0
 42
0.000000001
 43
0.00000001
 40
0.2031250000000062
 40
0.2031250000000062
 40
0.2031250000000062
 40
0.2031250000000062
 40
0.2187500000000064
 40
0.2187500000000064
 40
0.2187500000000064
 40
0.2187500000000064
 10
66.27695759936195
 20
10.84887515250553
 30
0.0
 10
66.4821665391105
 20
10.81250036833859
 30
0.0
 10
66.69222654095367
 20
10.78099300082781
 30
0.0
 10
66.90249816678698
 20
10.75562694626357
 30
0.0
  0
SPLINE
  5
26D
330
1F
100
AcDbEntity
  8
SK3
  6
SLD-Dashed
370
    18
100
AcDbSpline
210
0.0
220
0.0
230
1.0
 70
     8
 71
     3
 72
     8
 73
     4
 74
     0
 42
0.000000001
 43
0.00000001
 40
0.2187500000000064
 40
0.2187500000000064
 40
0.2187500000000064
 40
0.2187500000000064
 40
0.2500000000000078
 40
0.2500000000000078
 40
0.2500000000000078
 40
0.2500000000000078
 10
66.90249816678698
 20
10.75562694626357
 30
0.0
 10
67.32304141845366
 20
10.70489483713511
 30
0.0
 10
67.74960791658225
 20
10.67780253889702
 30
0.0
 10
68.18248950908496
 20
10.67709261069193
 30
0.0
  0
SPLINE
  5
26E
330
1F
100
AcDbEntity
  8
SK3
  6
SLD-Dashed
370
    18
100
AcDbSpline
210
0.0
220
0.0
230
1.0
 70
     8
 71
     3
 72
     8
 73
     4
 74
     0
 42
0.000000001
 43
0.00000001
 40
0.2500000000000078
 40
0.2500000000000078
 40
0.2500000000000078
 40
0.2500000000000078
 40
0.265625000000008
 40
0.265625000000008
 40
0.265625000000008
 40
0.265625000000008
 10
68.18248950908496
 20
10.67709261069193
 30
0.0
 10
68.39893030533628
 20
10.67673764658938
 30
0.0
 10
68.61851719288767
 20
10.6830959395677
 30
0.0
 10
68.83480999916885
 20
10.69593304649224
 30
0.0
  0
SPLINE
  5
26F
330
1F
100
AcDbEntity
  8
SK3
  6
SLD-Dashed
370
    18
100
AcDbSpline
210
0.0
220
0.0
230
1.0
 70
     8
 71
     3
 72
     8
 73
     4
 74
     0
 42
0.000000001
 43
0.00000001
 40
0.265625000000008
 40
0.265625000000008
 40
0.265625000000008
 40
0.265625000000008
 40
0.2812500000000082
 40
0.2812500000000082
 40
0.2812500000000082
 40
0.2812500000000082
 10
68.83480999916885
 20
10.69593304649224
 30
0.0
 10
69.05110280545001
 20
10.7087701534168
 30
0.0
 10
69.26437819376547
 20
10.7279657294104
 30
0.0
 10
69.47479331078473
 20
10.75291114002258
 30
0.0
  0
SPLINE
  5
270
330
1F
100
AcDbEntity
  8
SK3
  6
SLD-Dashed
370
    18
100
AcDbSpline
210
0.0
220
0.0
230
1.0
 70
     8
 71
     3
 72
     8
 73
     4
 74
     0
 42
0.000000001
 43
0.00000001
 40
0.2812500000000082
 40
0.2812500000000082
 40
0.2812500000000082
 40
0.2812500000000082
 40
0.2968750000000084
 40
0.2968750000000084
 40
0.2968750000000084
 40
0.2968750000000084
 10
69.47479331078473
 20
10.75291114002258
 30
0.0
 10
69.68520842780401
 20
10.77785655063476
 30
0.0
 10
69.89276290198296
 20
10.80855195727662
 30
0.0
 10
70.09754272990345
 20
10.84438418776324
 30
0.0
  0
SPLINE
  5
271
330
1F
100
AcDbEntity
  8
SK3
  6
SLD-Dashed
370
    18
100
AcDbSpline
210
0.0
220
0.0
230
1.0
 70
     8
 71
     3
 72
     8
 73
     4
 74
     0
 42
0.000000001
 43
0.00000001
 40
0.2968750000000084
 40
0.2968750000000084
 40
0.2968750000000084
 40
0.2968750000000084
 40
0.3125000000000086
 40
0.3125000000000086
 40
0.3125000000000086
 40
0.3125000000000086
 10
70.09754272990345
 20
10.84438418776324
 30
0.0
 10
70.30232255782398
 20
10.88021641824987
 30
0.0
 10
70.50530703394998
 20
10.92143875097547
 30
0.0
 10
70.7018434282701
 20
10.96627651208824
 30
0.0
  0
SPLINE
  5
272
330
1F
100
AcDbEntity
  8
SK3
  6
SLD-Dashed
370
    18
100
AcDbSpline
210
0.0
220
0.0
230
1.0
 70
     8
 71
     3
 72
     8
 73
     4
 74
     0
 42
0.000000001
 43
0.00000001
 40
0.3125000000000086
 40
0.3125000000000086
 40
0.3125000000000086
 40
0.3125000000000086
 40
0.343750000000008
 40
0.343750000000008
 40
0.343750000000008
 40
0.343750000000008
 10
70.7018434282701
 20
10.96627651208824
 30
0.0
 10
71.09491621691042
 20
11.05595203431382
 30
0.0
 10
71.46477848352714
 20
11.16017537876462
 30
0.0
 10
71.81374943477879
 20
11.27205327246832
 30
0.0
  0
SPLINE
  5
273
330
1F
100
AcDbEntity
  8
SK3
  6
SLD-Dashed
370
    18
100
AcDbSpline
210
0.0
220
0.0
230
1.0
 70
     8
 71
     3
 72
     8
 73
     4
 74
     0
 42
0.000000001
 43
0.00000001
 40
0.343750000000008
 40
0.343750000000008
 40
0.343750000000008
 40
0.343750000000008
 40
0.3593750000000078
 40
0.3593750000000078
 40
0.3593750000000078
 40
0.3593750000000078
 10
71.81374943477879
 20
11.27205327246832
 30
0.0
 10
71.9882349104046
 20
11.32799221932018
 30
0.0
 10
72.15815141303958
 20
11.38613677785403
 30
0.0
 10
72.32018472812341
 20
11.44447125007797
 30
0.0
  0
SPLINE
  5
274
330
1F
100
AcDbEntity
  8
SK3
  6
SLD-Dashed
370
    18
100
AcDbSpline
210
0.0
220
0.0
230
1.0
 70
     8
 71
     3
 72
     8
 73
     4
 74
     0
 42
0.000000001
 43
0.00000001
 40
0.3593750000000078
 40
0.3593750000000078
 40
0.3593750000000078
 40
0.3593750000000078
 40
0.3750000000000074
 40
0.3750000000000074
 40
0.3750000000000074
 40
0.3750000000000074
 10
72.32018472812341
 20
11.44447125007797
 30
0.0
 10
72.48221804320717
 20
11.5028057223019
 30
0.0
 10
72.6368027391752
 20
11.56143854454671
 30
0.0
 10
72.78425244241882
 20
11.61961145890099
 30
0.0
  0
SPLINE
  5
275
330
1F
100
AcDbEntity
  8
SK3
  6
SLD-Dashed
370
    18
100
AcDbSpline
210
0.0
220
0.0
230
1.0
 70
     8
 71
     3
 72
     8
 73
     4
 74
     0
 42
0.000000001
 43
0.00000001
 40
0.3750000000000074
 40
0.3750000000000074
 40
0.3750000000000074
 40
0.3750000000000074
 40
0.4062500000000069
 40
0.4062500000000069
 40
0.4062500000000069
 40
0.4062500000000069
 10
72.78425244241882
 20
11.61961145890099
 30
0.0
 10
73.07915184890612
 20
11.73595728760954
 30
0.0
 10
73.34577157532857
 20
11.85048260515995
 30
0.0
 10
73.58341406686795
 20
11.9574724342292
 30
0.0
  0
SPLINE
  5
276
330
1F
100
AcDbEntity
  8
SK3
  6
SLD-Dashed
370
    18
100
AcDbSpline
210
0.0
220
0.0
230
1.0
 70
     8
 71
     3
 72
     8
 73
     4
 74
     0
 42
0.000000001
 43
0.00000001
 40
0.4062500000000069
 40
0.4062500000000069
 40
0.4062500000000069
 40
0.4062500000000069
 40
0.4375000000000065
 40
0.4375000000000065
 40
0.4375000000000065
 40
0.4375000000000065
 10
73.58341406686795
 20
11.9574724342292
 30
0.0
 10
73.82105655840729
 20
12.06446226329846
 30
0.0
 10
74.02198651999977
 20
12.16038251484258
 30
0.0
 10
74.1866316708357
 20
12.24090514472902
 30
0.0
  0
SPLINE
  5
277
330
1F
100
AcDbEntity
  8
SK3
  6
SLD-Dashed
370
    18
100
AcDbSpline
210
0.0
220
0.0
230
1.0
 70
     8
 71
     3
 72
     8
 73
     4
 74
     0
 42
0.000000001
 43
0.00000001
 40
0.4375000000000065
 40
0.4375000000000065
 40
0.4375000000000065
 40
0.4375000000000065
 40
0.4531250000000063
 40
0.4531250000000063
 40
0.4531250000000063
 40
0.4531250000000063
 10
74.1866316708357
 20
12.24090514472902
 30
0.0
 10
74.26895424625366
 20
12.28116645967223
 30
0.0
 10
74.3421629235477
 20
12.31759429177075
 30
0.0
 10
74.40589667312544
 20
12.34962159410197
 30
0.0
  0
SPLINE
  5
278
330
1F
100
AcDbEntity
  8
SK3
  6
SLD-Dashed
370
    18
100
AcDbSpline
210
0.0
220
0.0
230
1.0
 70
     8
 71
     3
 72
     8
 73
     4
 74
     0
 42
0.000000001
 43
0.00000001
 40
0.4531250000000063
 40
0.4531250000000063
 40
0.4531250000000063
 40
0.4531250000000063
 40
0.468750000000006
 40
0.468750000000006
 40
0.468750000000006
 40
0.468750000000006
 10
74.40589667312544
 20
12.34962159410197
 30
0.0
 10
74.46963042270325
 20
12.38164889643319
 30
0.0
 10
74.5241417334965
 20
12.40940671083662
 30
0.0
 10
74.5676097274621
 20
12.43167139371335
 30
0.0
  0
SPLINE
  5
279
330
1F
100
AcDbEntity
  8
SK3
  6
SLD-Dashed
370
    18
100
AcDbSpline
210
0.0
220
0.0
230
1.0
 70
     8
 71
     3
 72
     8
 73
     4
 74
     0
 42
0.000000001
 43
0.00000001
 40
0.468750000000006
 40
0.468750000000006
 40
0.468750000000006
 40
0.468750000000006
 40
0.5000000000000053
 40
0.5000000000000053
 40
0.5000000000000053
 40
0.5000000000000053
 10
74.5676097274621
 20
12.43167139371335
 30
0.0
 10
74.6545457153934
 20
12.47620075946681
 30
0.0
 10
74.69857759821998
 20
12.4992603538292
 30
0.0
 10
74.69996642252758
 20
12.49998253974724
 30
0.0
  0
SPLINE
  5
27A
330
1F
100
AcDbEntity
  8
SK3
  6
SLD-Dashed
370
    18
100
AcDbSpline
210
0.0
220
0.0
230
1.0
 70
     8
 71
     3
 72
     8
 73
     4
 74
     0
 42
0.000000001
 43
0.00000001
 40
0.5312500000000047
 40
0.5312500000000047
 40
0.5312500000000047
 40
0.5312500000000047
 40
0.562500000000004
 40
0.562500000000004
 40
0.562500000000004
 40
0.562500000000004
 10
74.5740898482628
 20
12.43499181317491
 30
0.0
 10
74.48975549368136
 20
12.3917626127481
 30
0.0
 10
74.36450711414389
 20
12.3280295930403
 30
0.0
 10
74.19894367036464
 20
12.24693125481679
 30
0.0
  0
SPLINE
  5
27B
330
1F
100
AcDbEntity
  8
SK3
  6
SLD-Dashed
370
    18
100
AcDbSpline
210
0.0
220
0.0
230
1.0
 70
     8
 71
     3
 72
     8
 73
     4
 74
     0
 42
0.000000001
 43
0.00000001
 40
0.562500000000004
 40
0.562500000000004
 40
0.562500000000004
 40
0.562500000000004
 40
0.5937500000000032
 40
0.5937500000000032
 40
0.5937500000000032
 40
0.5937500000000032
 10
74.19894367036464
 20
12.24693125481679
 30
0.0
 10
74.03338022658542
 20
12.16583291659329
 30
0.0
 10
73.83264724316032
 20
12.06992579451734
 30
0.0
 10
73.59864995297852
 20
11.96433956868474
 30
0.0
  0
SPLINE
  5
27C
330
1F
100
AcDbEntity
  8
SK3
  6
SLD-Dashed
370
    18
100
AcDbSpline
210
0.0
220
0.0
230
1.0
 70
     8
 71
     3
 72
     8
 73
     4
 74
     0
 42
0.000000001
 43
0.00000001
 40
0.5937500000000032
 40
0.5937500000000032
 40
0.5937500000000032
 40
0.5937500000000032
 40
0.6250000000000026
 40
0.6250000000000026
 40
0.6250000000000026
 40
0.6250000000000026
 10
73.59864995297852
 20
11.96433956868474
 30
0.0
 10
73.36465266279671
 20
11.85875334285214
 30
0.0
 10
73.09461629778671
 20
11.74240232714294
 30
0.0
 10
72.79990772958168
 20
11.62579679508743
 30
0.0
  0
SPLINE
  5
27D
330
1F
100
AcDbEntity
  8
SK3
  6
SLD-Dashed
370
    18
100
AcDbSpline
210
0.0
220
0.0
230
1.0
 70
     8
 71
     3
 72
     8
 73
     4
 74
     0
 42
0.000000001
 43
0.00000001
 40
0.6250000000000026
 40
0.6250000000000026
 40
0.6250000000000026
 40
0.6250000000000026
 40
0.6562500000000019
 40
0.6562500000000019
 40
0.6562500000000019
 40
0.6562500000000019
 10
72.79990772958168
 20
11.62579679508743
 30
0.0
 10
72.50519916137662
 20
11.50919126303192
 30
0.0
 10
72.18465388538348
 20
11.39160929352982
 30
0.0
 10
71.83635358647503
 20
11.2793203432596
 30
0.0
  0
SPLINE
  5
27E
330
1F
100
AcDbEntity
  8
SK3
  6
SLD-Dashed
370
    18
100
AcDbSpline
210
0.0
220
0.0
230
1.0
 70
     8
 71
     3
 72
     8
 73
     4
 74
     0
 42
0.000000001
 43
0.00000001
 40
0.6562500000000019
 40
0.6562500000000019
 40
0.6562500000000019
 40
0.6562500000000019
 40
0.6718750000000011
 40
0.6718750000000011
 40
0.6718750000000011
 40
0.6718750000000011
 10
71.83635358647503
 20
11.2793203432596
 30
0.0
 10
71.66220343702082
 20
11.22317586812449
 30
0.0
 10
71.48031624430787
 20
11.16820362294005
 30
0.0
 10
71.29493491207184
 20
11.11659219859942
 30
0.0
  0
SPLINE
  5
27F
330
1F
100
AcDbEntity
  8
SK3
  6
SLD-Dashed
370
    18
100
AcDbSpline
210
0.0
220
0.0
230
1.0
 70
     8
 71
     3
 72
     8
 73
     4
 74
     0
 42
0.000000001
 43
0.00000001
 40
0.6718750000000011
 40
0.6718750000000011
 40
0.6718750000000011
 40
0.6718750000000011
 40
0.6875000000000004
 40
0.6875000000000004
 40
0.6875000000000004
 40
0.6875000000000004
 10
71.29493491207184
 20
11.11659219859942
 30
0.0
 10
71.10955357983586
 20
11.06498077425879
 30
0.0
 10
70.91990272693646
 20
11.01645189379415
 30
0.0
 10
70.72585601774189
 20
10.97177964700181
 30
0.0
  0
SPLINE
  5
280
330
1F
100
AcDbEntity
  8
SK3
  6
SLD-Dashed
370
    18
100
AcDbSpline
210
0.0
220
0.0
230
1.0
 70
     8
 71
     3
 72
     8
 73
     4
 74
     0
 42
0.000000001
 43
0.00000001
 40
0.6875000000000004
 40
0.6875000000000004
 40
0.6875000000000004
 40
0.6875000000000004
 40
0.7187499999999999
 40
0.7187499999999999
 40
0.7187499999999999
 40
0.7187499999999999
 10
70.72585601774189
 20
10.97177964700181
 30
0.0
 10
70.33776259935274
 20
10.88243515341715
 30
0.0
 10
69.93224492077461
 20
10.80842918541083
 30
0.0
 10
69.50656376431341
 20
10.75672389113987
 30
0.0
  0
SPLINE
  5
281
330
1F
100
AcDbEntity
  8
SK3
  6
SLD-Dashed
370
    18
100
AcDbSpline
210
0.0
220
0.0
230
1.0
 70
     8
 71
     3
 72
     8
 73
     4
 74
     0
 42
0.000000001
 43
0.00000001
 40
0.7187499999999999
 40
0.7187499999999999
 40
0.7187499999999999
 40
0.7187499999999999
 40
0.7499999999999992
 40
0.7499999999999992
 40
0.7499999999999992
 40
0.7499999999999992
 10
69.50656376431341
 20
10.75672389113987
 30
0.0
 10
69.08088260785223
 20
10.70501859686884
 30
0.0
 10
68.64994934635209
 20
10.67786209354652
 30
0.0
 10
68.21900142180283
 20
10.67709515992204
 30
0.0
  0
SPLINE
  5
282
330
1F
100
AcDbEntity
  8
SK3
  6
SLD-Dashed
370
    18
100
AcDbSpline
210
0.0
220
0.0
230
1.0
 70
     8
 71
     3
 72
     8
 73
     4
 74
     0
 42
0.000000001
 43
0.00000001
 40
0.7499999999999992
 40
0.7499999999999992
 40
0.7499999999999992
 40
0.7499999999999992
 40
0.765624999999999
 40
0.765624999999999
 40
0.765624999999999
 40
0.765624999999999
 10
68.21900142180283
 20
10.67709515992204
 30
0.0
 10
68.00352745952819
 20
10.67671169310982
 30
0.0
 10
67.78762469006057
 20
10.68285597723106
 30
0.0
 10
67.57128400726216
 20
10.69557309355251
 30
0.0
  0
SPLINE
  5
283
330
1F
100
AcDbEntity
  8
SK3
  6
SLD-Dashed
370
    18
100
AcDbSpline
210
0.0
220
0.0
230
1.0
 70
     8
 71
     3
 72
     8
 73
     4
 74
     0
 42
0.000000001
 43
0.00000001
 40
0.765624999999999
 40
0.765624999999999
 40
0.765624999999999
 40
0.765624999999999
 40
0.7812499999999987
 40
0.7812499999999987
 40
0.7812499999999987
 40
0.7812499999999987
 10
67.57128400726218
 20
10.69557309355251
 30
0.0
 10
67.3549433244637
 20
10.70829020987395
 30
0.0
 10
67.1379185162995
 20
10.72771308645857
 30
0.0
 10
66.9262160346212
 20
10.752791525481
 30
0.0
  0
SPLINE
  5
284
330
1F
100
AcDbEntity
  8
SK3
  6
SLD-Dashed
370
    18
100
AcDbSpline
210
0.0
220
0.0
230
1.0
 70
     8
 71
     3
 72
     8
 73
     4
 74
     0
 42
0.000000001
 43
0.00000001
 40
0.7812499999999987
 40
0.7812499999999987
 40
0.7812499999999987
 40
0.7812499999999987
 40
0.8124999999999981
 40
0.8124999999999981
 40
0.8124999999999981
 40
0.8124999999999981
 10
66.9262160346212
 20
10.752791525481
 30
0.0
 10
66.50281107126469
 20
10.80294840352587
 30
0.0
 10
66.0945913457853
 20
10.87590735403148
 30
0.0
 10
65.70030315581346
 20
10.96578699012689
 30
0.0
  0
SPLINE
  5
285
330
1F
100
AcDbEntity
  8
SK3
  6
SLD-Dashed
370
    18
100
AcDbSpline
210
0.0
220
0.0
230
1.0
 70
     8
 71
     3
 72
     8
 73
     4
 74
     0
 42
0.000000001
 43
0.00000001
 40
0.8124999999999981
 40
0.8124999999999981
 40
0.8124999999999981
 40
0.8124999999999981
 40
0.8281249999999983
 40
0.8281249999999983
 40
0.8281249999999983
 40
0.8281249999999983
 10
65.70030315581344
 20
10.96578699012689
 30
0.0
 10
65.50315906082753
 20
11.01072680817461
 30
0.0
 10
65.31006614154859
 20
11.05982795251386
 30
0.0
 10
65.12412872736532
 20
11.11129983781463
 30
0.0
  0
SPLINE
  5
286
330
1F
100
AcDbEntity
  8
SK3
  6
SLD-Dashed
370
    18
100
AcDbSpline
210
0.0
220
0.0
230
1.0
 70
     8
 71
     3
 72
     8
 73
     4
 74
     0
 42
0.000000001
 43
0.00000001
 40
0.8281249999999983
 40
0.8281249999999983
 40
0.8281249999999983
 40
0.8281249999999983
 40
0.8437499999999984
 40
0.8437499999999984
 40
0.8437499999999984
 40
0.8437499999999984
 10
65.12412872736532
 20
11.11129983781463
 30
0.0
 10
64.93819131318206
 20
11.16277172311539
 30
0.0
 10
64.75840358633943
 20
11.21683713220547
 30
0.0
 10
64.58443817573524
 20
11.27263444386808
 30
0.0
  0
SPLINE
  5
287
330
1F
100
AcDbEntity
  8
SK3
  6
SLD-Dashed
370
    18
100
AcDbSpline
210
0.0
220
0.0
230
1.0
 70
     8
 71
     3
 72
     8
 73
     4
 74
     0
 42
0.000000001
 43
0.00000001
 40
0.8437499999999984
 40
0.8437499999999984
 40
0.8437499999999984
 40
0.8437499999999984
 40
0.8593749999999986
 40
0.8593749999999986
 40
0.8593749999999986
 40
0.8593749999999986
 10
64.58443817573526
 20
11.27263444386808
 30
0.0
 10
64.410472765131
 20
11.32843175553069
 30
0.0
 10
64.24233084309147
 20
11.38596420174461
 30
0.0
 10
64.0798997181852
 20
11.44444084838618
 30
0.0
  0
SPLINE
  5
288
330
1F
100
AcDbEntity
  8
SK3
  6
SLD-Dashed
370
    18
100
AcDbSpline
210
0.0
220
0.0
230
1.0
 70
     8
 71
     3
 72
     8
 73
     4
 74
     0
 42
0.000000001
 43
0.00000001
 40
0.8593749999999986
 40
0.8593749999999986
 40
0.8593749999999986
 40
0.8593749999999986
 40
0.8749999999999988
 40
0.8749999999999988
 40
0.8749999999999988
 40
0.8749999999999988
 10
64.07989971818519
 20
11.44444084838619
 30
0.0
 10
63.91746859327895
 20
11.50291749502778
 30
0.0
 10
63.76074253776743
 20
11.56237325354581
 30
0.0
 10
63.61257879939049
 20
11.62086198488742
 30
0.0
  0
SPLINE
  5
289
330
1F
100
AcDbEntity
  8
SK3
  6
SLD-Dashed
370
    18
100
AcDbSpline
210
0.0
220
0.0
230
1.0
 70
     8
 71
     3
 72
     8
 73
     4
 74
     0
 42
0.000000001
 43
0.00000001
 40
0.8749999999999988
 40
0.8749999999999988
 40
0.8749999999999988
 40
0.8749999999999988
 40
0.9062499999999991
 40
0.9062499999999991
 40
0.9062499999999991
 40
0.9062499999999991
 10
63.61257879939049
 20
11.62086198488742
 30
0.0
 10
63.31625132263653
 20
11.73783944757066
 30
0.0
 10
63.05062501341309
 20
11.85208355562193
 30
0.0
 10
62.81522146538556
 20
11.9580867979307
 30
0.0
  0
SPLINE
  5
28A
330
1F
100
AcDbEntity
  8
SK3
  6
SLD-Dashed
370
    18
100
AcDbSpline
210
0.0
220
0.0
230
1.0
 70
     8
 71
     3
 72
     8
 73
     4
 74
     0
 42
0.000000001
 43
0.00000001
 40
0.9062499999999991
 40
0.9062499999999991
 40
0.9062499999999991
 40
0.9062499999999991
 40
0.9374999999999993
 40
0.9374999999999993
 40
0.9374999999999993
 40
0.9374999999999993
 10
62.81522146538556
 20
11.9580867979307
 30
0.0
 10
62.57981791735805
 20
12.06409004023948
 30
0.0
 10
62.37427786308888
 20
12.16217169850694
 30
0.0
 10
62.20963264312789
 20
12.24273258183317
 30
0.0
  0
SPLINE
  5
28B
330
1F
100
AcDbEntity
  8
SK3
  6
SLD-Dashed
370
    18
100
AcDbSpline
210
0.0
220
0.0
230
1.0
 70
     8
 71
     3
 72
     8
 73
     4
 74
     0
 42
0.000000001
 43
0.00000001
 40
0.9374999999999993
 40
0.9374999999999993
 40
0.9374999999999993
 40
0.9374999999999993
 40
0.9687499999999997
 40
0.9687499999999997
 40
0.9687499999999997
 40
0.9687499999999997
 10
62.20963264312789
 20
12.24273258183317
 30
0.0
 10
62.04498742316686
 20
12.3232934651594
 30
0.0
 10
61.91822714935613
 20
12.38770085711011
 30
0.0
 10
61.83158020750379
 20
12.43208633550533
 30
0.0
  0
SPLINE
  5
28C
330
1F
100
AcDbEntity
  8
SK3
  6
SLD-Dashed
370
    18
100
AcDbSpline
210
0.0
220
0.0
230
1.0
 70
     8
 71
     2
 72
     6
 73
     3
 74
     0
 42
0.000000001
 43
0.00000001
 40
0.9687499999999997
 40
0.9687499999999997
 40
0.9687499999999997
 40
1.0
 40
1.0
 40
1.0
 10
61.83158020750379
 20
12.43208633550533
 30
0.0
 10
61.74493326565139
 20
12.47647181390053
 30
0.0
 10
61.69999999999997
 20
12.5
 30
0.0
  0
SPLINE
  5
28D
330
1F
100
AcDbEntity
  8
SK3
  6
SLD-Dashed
370
    18
100
AcDbSpline
210
0.0
220
0.0
230
1.0
 70
     8
 71
     3
 72
    32
 73
    28
 74
     0
 42
0.000000001
 43
0.00000001
 40
0.5000000000000027
 40
0.5000000000000027
 40
0.5000000000000027
 40
0.5000000000000027
 40
0.5625000000000027
 40
0.5625000000000027
 40
0.5937500000000024
 40
0.5937500000000024
 40
0.6250000000000022
 40
0.6250000000000022
 40
0.6875000000000019
 40
0.6875000000000019
 40
0.7187500000000017
 40
0.7187500000000017
 40
0.7500000000000014
 40
0.7500000000000014
 40
0.7812500000000012
 40
0.7812500000000012
 40
0.812500000000001
 40
0.812500000000001
 40
0.8750000000000004
 40
0.8750000000000004
 40
0.9062500000000004
 40
0.9062500000000004
 40
0.9375000000000003
 40
0.9375000000000003
 40
0.9687500000000002
 40
0.9687500000000002
 40
1.0
 40
1.0
 40
1.0
 40
1.0
 10
11.1256853831459
 20
3.164795175867895
 30
0.0
 10
10.90930725104985
 20
3.164868888949721
 30
0.0
 10
10.69085711984218
 20
3.129223735228677
 30
0.0
 10
10.39227860163479
 20
3.026203748506672
 30
0.0
 10
10.29579440338251
 20
2.98301110650874
 30
0.0
 10
10.11761562397558
 20
2.882490537233704
 30
0.0
 10
10.03497453318633
 20
2.82497948187501
 30
0.0
 10
9.806296607499377
 20
2.629028727721361
 30
0.0
 10
9.685309898818245
 20
2.472051589998518
 30
0.0
 10
9.559982192876557
 20
2.20236254621041
 30
0.0
 10
9.528559929558353
 20
2.108905456397456
 30
0.0
 10
9.486024957942332
 20
1.914573275935576
 30
0.0
 10
9.47500913571156
 20
1.81240750112615
 30
0.0
 10
9.474990875921005
 20
1.60805430357653
 30
0.0
 10
9.485625977921755
 20
1.505662667210805
 30
0.0
 10
9.528177629801599
 20
1.300564129759263
 30
0.0
 10
9.560294575131758
 20
1.198294545144009
 30
0.0
 10
9.684377684772413
 20
0.90508685566109
 30
0.0
 10
9.806993664855046
 20
0.7211117348669971
 30
0.0
 10
10.03384857288793
 20
0.4893022765049965
 30
0.0
 10
10.11808276655267
 20
0.4179146106539078
 30
0.0
 10
10.29642542748228
 20
0.2941075388318906
 30
0.0
 10
10.39073767200853
 20
0.2411604132373374
 30
0.0
 10
10.59007029960514
 20
0.1540322334411814
 30
0.0
 10
10.6953033033908
 20
0.1201415292548316
 30
0.0
 10
10.90724776937858
 20
0.0753318181066706
 30
0.0
 10
11.01515715598006
 20
0.0638096440184269
 30
0.0
 10
11.12499999999997
 20
0.0638096440184269
 30
0.0
  0
SPLINE
  5
28E
330
1F
100
AcDbEntity
  8
SK3
  6
SLD-Dashed
370
    18
100
AcDbSpline
210
0.0
220
0.0
230
1.0
 70
     8
 71
     3
 72
    34
 73
    30
 74
     0
 42
0.000000001
 43
0.00000001
 40
0.0
 40
0.0
 40
0.0
 40
0.0
 40
0.0312500000000001
 40
0.0312500000000001
 40
0.0625000000000002
 40
0.0625000000000002
 40
0.0937500000000004
 40
0.0937500000000004
 40
0.1250000000000005
 40
0.1250000000000005
 40
0.1875000000000008
 40
0.1875000000000008
 40
0.2187500000000009
 40
0.2187500000000009
 40
0.250000000000001
 40
0.250000000000001
 40
0.2812500000000011
 40
0.2812500000000011
 40
0.3125000000000012
 40
0.3125000000000012
 40
0.3750000000000017
 40
0.3750000000000017
 40
0.4062500000000019
 40
0.4062500000000019
 40
0.4375000000000022
 40
0.4375000000000022
 40
0.4687500000000024
 40
0.4687500000000024
 40
0.5000000000000027
 40
0.5000000000000027
 40
0.5000000000000027
 40
0.5000000000000027
 10
11.12499999999997
 20
0.0638096440184269
 30
0.0
 10
11.23484284401988
 20
0.0638096440184269
 30
0.0
 10
11.34268361897881
 20
0.0753239405347703
 30
0.0
 10
11.55458029042003
 20
0.1201102957820929
 30
0.0
 10
11.65976042240319
 20
0.1539693909202583
 30
0.0
 10
11.85915032177132
 20
0.2411003223040317
 30
0.0
 10
11.95359503244242
 20
0.2941007602278306
 30
0.0
 10
12.13233987927978
 20
0.4182290493176394
 30
0.0
 10
12.2163058433776
 20
0.4894538131780396
 30
0.0
 10
12.44284562754151
 20
0.7209600276563768
 30
0.0
 10
12.56552301034966
 20
0.9050379409593634
 30
0.0
 10
12.68942122511163
 20
1.197530486659319
 30
0.0
 10
12.72154724313085
 20
1.299554875949772
 30
0.0
 10
12.76425901060967
 20
1.504794342566146
 30
0.0
 10
12.77492763525398
 20
1.60711188298393
 30
0.0
 10
12.77507163805726
 20
1.811031531776037
 30
0.0
 10
12.76416863827683
 20
1.913334853432334
 30
0.0
 10
12.72168879963405
 20
2.108119339170683
 30
0.0
 10
12.69026585336823
 20
2.201717895136464
 30
0.0
 10
12.56498961692483
 20
2.471627793472389
 30
0.0
 10
12.44331949186761
 20
2.629336524130936
 30
0.0
 10
12.21535276568474
 20
2.824709596062305
 30
0.0
 10
12.13286710831007
 20
2.882177168638256
 30
0.0
 10
11.95471619465342
 20
2.982763854045771
 30
0.0
 10
11.85822868889991
 20
3.02598019671943
 30
0.0
 10
11.65965305134002
 20
3.094592381840448
 30
0.0
 10
11.55674677573375
 20
3.12059710696351
 30
0.0
 10
11.34329434492548
 20
3.155881951346286
 30
0.0
 10
11.23387444919391
 20
3.164758319326978
 30
0.0
 10
11.1256853831459
 20
3.164795175867895
 30
0.0
  0
SPLINE
  5
28F
330
1F
100
AcDbEntity
  8
SK3
  6
SLD-Dashed
370
    18
100
AcDbSpline
210
0.0
220
0.0
230
1.0
 70
     8
 71
     3
 72
    34
 73
    30
 74
     0
 42
0.000000001
 43
0.00000001
 40
0.499999999999998
 40
0.499999999999998
 40
0.499999999999998
 40
0.499999999999998
 40
0.5312499999999979
 40
0.5312499999999979
 40
0.5624999999999978
 40
0.5624999999999978
 40
0.5937499999999976
 40
0.5937499999999976
 40
0.6249999999999974
 40
0.6249999999999974
 40
0.6562499999999973
 40
0.6562499999999973
 40
0.6874999999999972
 40
0.6874999999999972
 40
0.7499999999999969
 40
0.7499999999999969
 40
0.8124999999999973
 40
0.8124999999999973
 40
0.8437499999999978
 40
0.8437499999999978
 40
0.8749999999999982
 40
0.8749999999999982
 40
0.9062499999999987
 40
0.9062499999999987
 40
0.937499999999999
 40
0.937499999999999
 40
0.9687499999999994
 40
0.9687499999999994
 40
1.0
 40
1.0
 40
1.0
 40
1.0
 10
9.638805742161694
 20
10.95392502366163
 30
0.0
 10
9.693881160736288
 20
10.84705887039521
 30
0.0
 10
9.763179283156633
 20
10.74439645836097
 30
0.0
 10
9.923515798149957
 20
10.55592715127709
 30
0.0
 10
10.01390276352453
 20
10.47020735344793
 30
0.0
 10
10.21445694949211
 20
10.31296552728879
 30
0.0
 10
10.32267837600206
 20
10.24333508542229
 30
0.0
 10
10.54307526498122
 20
10.12288935951392
 30
0.0
 10
10.65791658596822
 20
10.07070374731722
 30
0.0
 10
10.87819871140988
 20
9.984463182040875
 30
0.0
 10
10.98608094611134
 20
9.949205279737846
 30
0.0
 10
11.18968749579594
 20
9.892304259469006
 30
0.0
 10
11.28527842069081
 20
9.870580048613839
 30
0.0
 10
11.55898297450218
 20
9.820769890309986
 30
0.0
 10
11.72337034356692
 20
9.808096789548749
 30
0.0
 10
12.02194861504761
 20
9.821477532699783
 30
0.0
 10
12.15920875119764
 20
9.847310188176737
 30
0.0
 10
12.34760730605757
 20
9.92782469274444
 30
0.0
 10
12.40688352391456
 20
9.961503747003379
 30
0.0
 10
12.5178029483755
 20
10.04749808647182
 30
0.0
 10
12.56969006353042
 20
10.10021829085831
 30
0.0
 10
12.6599193190084
 20
10.2293377679893
 30
0.0
 10
12.69929072119647
 20
10.30748393412819
 30
0.0
 10
12.75586568636479
 20
10.49302732041032
 30
0.0
 10
12.77303399215492
 20
10.60290348381507
 30
0.0
 10
12.77663319740259
 20
10.83901366027916
 30
0.0
 10
12.76306993948378
 20
10.96766771108133
 30
0.0
 10
12.71170841969947
 20
11.21837738140154
 30
0.0
 10
12.67469993892521
 20
11.34057418425336
 30
0.0
 10
12.63040931107556
 20
11.45745606890564
 30
0.0
  0
SPLINE
  5
290
330
1F
100
AcDbEntity
  8
SK3
  6
SLD-Dashed
370
    18
100
AcDbSpline
210
0.0
220
0.0
230
1.0
 70
     8
 71
     3
 72
    26
 73
    22
 74
     0
 42
0.000000001
 43
0.00000001
 40
0.0
 40
0.0
 40
0.0
 40
0.0
 40
0.0624999999999995
 40
0.0624999999999995
 40
0.124999999999999
 40
0.124999999999999
 40
0.1874999999999986
 40
0.1874999999999986
 40
0.2499999999999981
 40
0.2499999999999981
 40
0.281249999999998
 40
0.281249999999998
 40
0.3124999999999979
 40
0.3124999999999979
 40
0.3749999999999981
 40
0.3749999999999981
 40
0.4374999999999984
 40
0.4374999999999984
 40
0.4687499999999982
 40
0.4687499999999982
 40
0.499999999999998
 40
0.499999999999998
 40
0.499999999999998
 40
0.499999999999998
 10
12.63040931107556
 20
11.45745606890564
 30
0.0
 10
12.54182805537629
 20
11.6912198382102
 30
0.0
 10
12.43200682775375
 20
11.89056157115179
 30
0.0
 10
12.18419932759159
 20
12.2551441181375
 30
0.0
 10
12.04834522926919
 20
12.41463399152627
 30
0.0
 10
11.75314013646127
 20
12.69173524411806
 30
0.0
 10
11.59091385222424
 20
12.81202758601132
 30
0.0
 10
11.2300472901951
 20
12.99241430793247
 30
0.0
 10
11.02728334192551
 20
13.05343833574649
 30
0.0
 10
10.69987000905183
 20
13.05646994226839
 30
0.0
 10
10.58531472788943
 20
13.04197607005521
 30
0.0
 10
10.36396153134626
 20
12.97944613660278
 30
0.0
 10
10.25449961952679
 20
12.93102694430327
 30
0.0
 10
9.94757869797129
 20
12.73948161914289
 30
0.0
 10
9.77664657830718
 20
12.55346040827499
 30
0.0
 10
9.542451961566167
 20
12.12678030999253
 30
0.0
 10
9.478612055377909
 20
11.88580640702584
 30
0.0
 10
9.473421112414254
 20
11.52565520755328
 30
0.0
 10
9.486345898652617
 20
11.40749361566881
 30
0.0
 10
9.541390615621022
 20
11.1745915190869
 30
0.0
 10
9.5837303235871
 20
11.06079117692806
 30
0.0
 10
9.638805742161694
 20
10.95392502366163
 30
0.0
  0
SPLINE
  5
291
330
1F
100
AcDbEntity
  8
SK3
  6
SLD-Dashed
370
    18
100
AcDbSpline
210
0.0
220
0.0
230
1.0
 70
     8
 71
     3
 72
    18
 73
    14
 74
     0
 42
0.000000001
 43
0.00000001
 40
0.0
 40
0.0
 40
0.0
 40
0.0
 40
0.0501962867734932
 40
0.1000306214437242
 40
0.185566733118763
 40
0.2501823892320759
 40
0.3747066158220738
 40
0.499823298218966
 40
0.6247294758455325
 40
0.7494251058857301
 40
0.8746331028690641
 40
0.9372230808189376
 40
1.0
 40
1.0
 40
1.0
 40
1.0
 10
3.949999999999967
 20
46.81625358782993
 30
0.0
 10
3.943300488172027
 20
46.81609127853696
 30
0.0
 10
3.929949772918051
 20
46.81576783032027
 30
0.0
 10
3.905360779048045
 20
46.81256776526219
 30
0.0
 10
3.879327985377767
 20
46.80630579793129
 30
0.0
 10
3.844998498051075
 20
46.79331555547186
 30
0.0
 10
3.808260602500877
 20
46.77247000397297
 30
0.0
 10
3.770344503827419
 20
46.73942242416842
 30
0.0
 10
3.739587180509221
 20
46.69961163074884
 30
0.0
 10
3.716933654940719
 20
46.65468875110018
 30
0.0
 10
3.705476597958085
 20
46.61434662644387
 30
0.0
 10
3.700675324942476
 20
46.58119847829342
 30
0.0
 10
3.700225331983622
 20
46.56446483112381
 30
0.0
 10
3.700000000000009
 20
46.55608553132448
 30
0.0
  0
SPLINE
  5
292
330
1F
100
AcDbEntity
  8
1
  6
SLD-Dashed
370
    18
100
AcDbSpline
210
0.0
220
0.0
230
1.0
 70
     8
 71
     3
 72
     8
 73
     4
 74
     0
 42
0.000000001
 43
0.00000001
 40
0.0
 40
0.0
 40
0.0
 40
0.0
 40
1.0
 40
1.0
 40
1.0
 40
1.0
 10
9.200000000002026
 20
44.5790106634328
 30
0.0
 10
8.78635386686144
 20
45.32508460154086
 30
0.0
 10
8.372088490924066
 20
46.07082082932835
 30
0.0
 10
7.957289380062141
 20
46.81625358782994
 30
0.0
  0
SPLINE
  5
293
330
1F
100
AcDbEntity
  8
1
  6
SLD-Dashed
370
    18
100
AcDbSpline
210
0.0
220
0.0
230
1.0
 70
     8
 71
     3
 72
    10
 73
     6
 74
     0
 42
0.000000001
 43
0.00000001
 40
0.0
 40
0.0
 40
0.0
 40
0.0
 40
0.5
 40
0.5
 40
1.0
 40
1.0
 40
1.0
 40
1.0
 10
9.95000000000124
 20
43.76943596849411
 30
0.0
 10
9.74877153622242
 20
43.76943596849377
 30
0.0
 10
9.550990673892246
 20
43.85856672856773
 30
0.0
 10
9.277097785724
 20
44.15022946993273
 30
0.0
 10
9.200000000000307
 20
44.34957328976746
 30
0.0
 10
9.199999999999985
 20
44.55102159322499
 30
0.0
  0
SPLINE
  5
294
330
1F
100
AcDbEntity
  8
1
  6
SLD-Dashed
370
    18
100
AcDbSpline
210
0.0
220
0.0
230
1.0
 70
     8
 71
     3
 72
    12
 73
     8
 74
     0
 42
0.000000001
 43
0.00000001
 40
0.0
 40
0.0
 40
0.0
 40
0.0
 40
0.5000000000000048
 40
0.5000000000000048
 40
0.7500000000000023
 40
0.7500000000000023
 40
1.0
 40
1.0
 40
1.0
 40
1.0
 10
13.02999999999992
 20
44.55102159322491
 30
0.0
 10
13.02999999999992
 20
44.35104831812321
 30
0.0
 10
12.95399603318283
 20
44.15150826736607
 30
0.0
 10
12.74724095984753
 20
43.93116827138052
 30
0.0
 10
12.66314206268636
 20
43.87128621650958
 30
0.0
 10
12.48048875274074
 20
43.79084228716532
 30
0.0
 10
12.37984375713168
 20
43.76943596849291
 30
0.0
 10
12.28
 20
43.76943596849289
 30
0.0
  0
SPLINE
  5
295
330
1F
100
AcDbEntity
  8
1
  6
SLD-Dashed
370
    18
100
AcDbSpline
210
0.0
220
0.0
230
1.0
 70
     8
 71
     3
 72
     8
 73
     4
 74
     0
 42
0.000000001
 43
0.00000001
 40
0.0
 40
0.0
 40
0.0
 40
0.0
 40
1.0
 40
1.0
 40
1.0
 40
1.0
 10
14.27271061995092
 20
46.81625358783779
 30
0.0
 10
13.85791150908532
 20
46.07082082933482
 30
0.0
 10
13.44364613314419
 20
45.32508460154595
 30
0.0
 10
13.02999999999997
 20
44.57901066343648
 30
0.0
  0
SPLINE
  5
296
330
1F
100
AcDbEntity
  8
SK3
  6
SLD-Dashed
370
    18
100
AcDbSpline
210
0.0
220
0.0
230
1.0
 70
     8
 71
     3
 72
    18
 73
    14
 74
     0
 42
0.000000001
 43
0.00000001
 40
0.0
 40
0.0
 40
0.0
 40
0.0
 40
0.0502196103872228
 40
0.1000870260924098
 40
0.1855086368940469
 40
0.2501550808791907
 40
0.3746583157461306
 40
0.4998570853792907
 40
0.6242312608259453
 40
0.7494324099488449
 40
0.8740366596180048
 40
0.9370350243166926
 40
1.0
 40
1.0
 40
1.0
 40
1.0
 10
18.55000000000006
 20
46.55608553132441
 30
0.0
 10
18.54985614514714
 20
46.56278755186
 30
0.0
 10
18.54956944430843
 20
46.57614459105336
 30
0.0
 10
18.54672594518124
 20
46.60076085239336
 30
0.0
 10
18.54114997473673
 20
46.62692328764687
 30
0.0
 10
18.5294858307287
 20
46.66169890756606
 30
0.0
 10
18.51054340758339
 20
46.69941980690709
 30
0.0
 10
18.47987172088775
 20
46.73918434013713
 30
0.0
 10
18.44197136356042
 20
46.77229285140237
 30
0.0
 10
18.39830135356868
 20
46.79720148409475
 30
0.0
 10
18.35828818785666
 20
46.81006094110496
 30
0.0
 10
18.32521964393112
 20
46.8154854540108
 30
0.0
 10
18.30840506230053
 20
46.81599758847395
 30
0.0
 10
18.30000000000001
 20
46.81625358782996
 30
0.0
  0
SPLINE
  5
297
330
1F
100
AcDbEntity
  8
1
  6
SLD-Dashed
370
    18
100
AcDbSpline
210
0.0
220
0.0
230
1.0
 70
     8
 71
     3
 72
    12
 73
     8
 74
     0
 42
0.000000001
 43
0.00000001
 40
0.0
 40
0.0
 40
0.0
 40
0.0
 40
0.2499999999999967
 40
0.2499999999999967
 40
0.4999999999999933
 40
0.4999999999999933
 40
1.0
 40
1.0
 40
1.0
 40
1.0
 10
3.199999999999772
 20
-46.69763484374749
 30
0.0
 10
3.199999999999814
 20
-46.79851095846151
 30
0.0
 10
3.21862940633777
 20
-46.89733966428926
 30
0.0
 10
3.29184424669686
 20
-47.0841146964833
 30
0.0
 10
3.345979173512759
 20
-47.16991322229985
 30
0.0
 10
3.551871853062244
 20
-47.38753444472503
 30
0.0
 10
3.748026856781355
 20
-47.47548419974255
 30
0.0
 10
3.949999999999982
 20
-47.47548419974249
 30
0.0
  0
SPLINE
  5
298
330
1F
100
AcDbEntity
  8
1
  6
SLD-Dashed
370
    18
100
AcDbSpline
210
0.0
220
0.0
230
1.0
 70
     8
 71
     3
 72
    12
 73
     8
 74
     0
 42
0.000000001
 43
0.00000001
 40
0.0
 40
0.0
 40
0.0
 40
0.0
 40
0.2499999999999985
 40
0.2499999999999985
 40
0.499999999999997
 40
0.499999999999997
 40
1.0
 40
1.0
 40
1.0
 40
1.0
 10
18.30000000000032
 20
-47.47548419974279
 30
0.0
 10
18.40091596910971
 20
-47.47548419974275
 30
0.0
 10
18.50002158252284
 20
-47.45437693482727
 30
0.0
 10
18.68315226992477
 20
-47.37426897057839
 30
0.0
 10
18.7665449040529
 20
-47.31511647588047
 30
0.0
 10
18.97195148872756
 20
-47.09831987092237
 30
0.0
 10
19.05000000000007
 20
-46.89926900274104
 30
0.0
 10
19.04999999999998
 20
-46.69763484374771
 30
0.0
  0
SPLINE
  5
299
330
1F
100
AcDbEntity
  8
1
  6
SLD-Dashed
370
    18
100
AcDbSpline
210
0.0
220
0.0
230
1.0
 70
     8
 71
     3
 72
     8
 73
     4
 74
     0
 42
0.000000001
 43
0.00000001
 40
0.0
 40
0.0
 40
0.0
 40
0.0
 40
1.0
 40
1.0
 40
1.0
 40
1.0
 10
14.63972339340265
 20
-47.4754841997425
 30
0.0
 10
14.10222500453556
 20
-46.51049654710809
 30
0.0
 10
13.56559195163208
 20
-45.54503249842018
 30
0.0
 10
13.02999999999997
 20
-44.57901066343648
 30
0.0
  0
SPLINE
  5
29A
330
1F
100
AcDbEntity
  8
1
  6
SLD-Dashed
370
    18
100
AcDbSpline
210
0.0
220
0.0
230
1.0
 70
     8
 71
     3
 72
    12
 73
     8
 74
     0
 42
0.000000001
 43
0.00000001
 40
0.0
 40
0.0
 40
0.0
 40
0.0
 40
0.5
 40
0.5
 40
0.75
 40
0.75
 40
1.0
 40
1.0
 40
1.0
 40
1.0
 10
13.03000000000026
 20
-44.55102159322526
 30
0.0
 10
13.0300000000003
 20
-44.35094747116183
 30
0.0
 10
12.95238692985019
 20
-44.14958800989083
 30
0.0
 10
12.74748896269966
 20
-43.93153570225748
 30
0.0
 10
12.66372770014787
 20
-43.87162606259754
 30
0.0
 10
12.48090790509572
 20
-43.79094541821721
 30
0.0
 10
12.3805733178244
 20
-43.76943596849285
 30
0.0
 10
12.28
 20
-43.76943596849288
 30
0.0
  0
SPLINE
  5
29B
330
1F
100
AcDbEntity
  8
1
  6
SLD-Dashed
370
    18
100
AcDbSpline
210
0.0
220
0.0
230
1.0
 70
     8
 71
     3
 72
    12
 73
     8
 74
     0
 42
0.000000001
 43
0.00000001
 40
0.0
 40
0.0
 40
0.0
 40
0.0
 40
0.2500000000000039
 40
0.2500000000000039
 40
0.5000000000000078
 40
0.5000000000000078
 40
1.0
 40
1.0
 40
1.0
 40
1.0
 10
9.94999999999983
 20
-43.76943596849304
 30
0.0
 10
9.850030395358822
 20
-43.76943596849308
 30
0.0
 10
9.750114974766257
 20
-43.79051518316423
 30
0.0
 10
9.565507057761254
 20
-43.87194262843706
 30
0.0
 10
9.482715011846732
 20
-43.93126060501223
 30
0.0
 10
9.27657966040289
 20
-44.15080408372874
 30
0.0
 10
9.20000000000004
 20
-44.35163254795802
 30
0.0
 10
9.199999999999985
 20
-44.55102159322499
 30
0.0
  0
SPLINE
  5
29C
330
1F
100
AcDbEntity
  8
1
  6
SLD-Dashed
370
    18
100
AcDbSpline
210
0.0
220
0.0
230
1.0
 70
     8
 71
     3
 72
     8
 73
     4
 74
     0
 42
0.000000001
 43
0.00000001
 40
0.0
 40
0.0
 40
0.0
 40
0.0
 40
1.0
 40
1.0
 40
1.0
 40
1.0
 10
9.199999999999973
 20
-44.57901066343649
 30
0.0
 10
8.664408048367864
 20
-45.54503249842018
 30
0.0
 10
8.127774995464396
 20
-46.51049654710809
 30
0.0
 10
7.590276606597307
 20
-47.47548419974249
 30
0.0
  0
SPLINE
  5
29D
330
1F
100
AcDbEntity
  8
SK3
  6
SLD-Dashed
370
    18
100
AcDbSpline
210
0.0
220
0.0
230
1.0
 70
     8
 71
     3
 72
    34
 73
    30
 74
     0
 42
0.000000001
 43
0.00000001
 40
0.5000000000000003
 40
0.5000000000000003
 40
0.5000000000000003
 40
0.5000000000000003
 40
0.5625000000000013
 40
0.5625000000000013
 40
0.5937500000000011
 40
0.5937500000000011
 40
0.625000000000001
 40
0.625000000000001
 40
0.6562500000000009
 40
0.6562500000000009
 40
0.6875000000000008
 40
0.6875000000000008
 40
0.7187500000000007
 40
0.7187500000000007
 40
0.7500000000000004
 40
0.7500000000000004
 40
0.7812500000000003
 40
0.7812500000000003
 40
0.8125000000000002
 40
0.8125000000000002
 40
0.8437500000000001
 40
0.8437500000000001
 40
0.875
 40
0.875
 40
0.9062499999999999
 40
0.9062499999999999
 40
0.9374999999999997
 40
0.9374999999999997
 40
1.0
 40
1.0
 40
1.0
 40
1.0
 10
10.60808274902043
 20
14.67518531385664
 30
0.0
 10
10.77143994352718
 20
14.66271400222904
 30
0.0
 10
10.95396076821069
 20
14.63137977172279
 30
0.0
 10
11.25812245907613
 20
14.54691770596563
 30
0.0
 10
11.36641585866906
 20
14.5117188814439
 30
0.0
 10
11.58574352105282
 20
14.42634662926308
 30
0.0
 10
11.69715944869876
 20
14.37625545607606
 30
0.0
 10
11.92117180667887
 20
14.25483711630821
 30
0.0
 10
12.0289352359772
 20
14.18587333985284
 30
0.0
 10
12.22961030853029
 20
14.02983333564748
 30
0.0
 10
12.32267742835867
 20
13.94226901556096
 30
0.0
 10
12.4837254301865
 20
13.75415019217113
 30
0.0
 10
12.55366053916097
 20
13.65130323099263
 30
0.0
 10
12.66489321927142
 20
13.43691773984448
 30
0.0
 10
12.70717730188425
 20
13.32435113894572
 30
0.0
 10
12.76326417564931
 20
13.08988167819453
 30
0.0
 10
12.77635511926058
 20
12.97149039057749
 30
0.0
 10
12.77342672652903
 20
12.73211084337571
 30
0.0
 10
12.75684979458236
 20
12.61060743991048
 30
0.0
 10
12.69552150102995
 20
12.37773497196915
 30
0.0
 10
12.65033349294083
 20
12.26373909474827
 30
0.0
 10
12.53298957942556
 20
12.04909612932805
 30
0.0
 10
12.46214536200847
 20
11.95022400081662
 30
0.0
 10
12.29651277322136
 20
11.77143410287179
 30
0.0
 10
12.20150676240366
 20
11.69219588739501
 30
0.0
 10
11.99926684334574
 20
11.56533020093842
 30
0.0
 10
11.88885801145312
 20
11.5158749716928
 30
0.0
 10
11.55399205333031
 20
11.42069275726627
 30
0.0
 10
11.32716468948121
 20
11.42871083881324
 30
0.0
 10
11.125
 20
11.48273236161759
 30
0.0
  0
SPLINE
  5
29E
330
1F
100
AcDbEntity
  8
SK3
  6
SLD-Dashed
370
    18
100
AcDbSpline
210
0.0
220
0.0
230
1.0
 70
     8
 71
     3
 72
    30
 73
    26
 74
     0
 42
0.000000001
 43
0.00000001
 40
0.0
 40
0.0
 40
0.0
 40
0.0
 40
0.0624999999999997
 40
0.0624999999999997
 40
0.1249999999999995
 40
0.1249999999999995
 40
0.1562499999999993
 40
0.1562499999999993
 40
0.1874999999999992
 40
0.1874999999999992
 40
0.2187499999999991
 40
0.2187499999999991
 40
0.2499999999999989
 40
0.2499999999999989
 40
0.2812499999999988
 40
0.2812499999999988
 40
0.3124999999999987
 40
0.3124999999999987
 40
0.3437499999999986
 40
0.3437499999999986
 40
0.3749999999999984
 40
0.3749999999999984
 40
0.4374999999999994
 40
0.4374999999999994
 40
0.5000000000000003
 40
0.5000000000000003
 40
0.5000000000000003
 40
0.5000000000000003
 10
11.125
 20
11.48273236161759
 30
0.0
 10
10.92283531051878
 20
11.53675388442193
 30
0.0
 10
10.74714710048237
 20
11.63024516394928
 30
0.0
 10
10.42066988662174
 20
11.86454434722232
 30
0.0
 10
10.27375737476433
 20
12.0040738428721
 30
0.0
 10
10.07148943268484
 20
12.24177839203631
 30
0.0
 10
10.00699015299671
 20
12.32609339770682
 30
0.0
 10
9.883509956371203
 20
12.50701007175133
 30
0.0
 10
9.82426857309783
 20
12.60415729348405
 30
0.0
 10
9.715154706090342
 20
12.80934651131552
 30
0.0
 10
9.664396735733453
 20
12.91903622889809
 30
0.0
 10
9.576981863499132
 20
13.14891853741638
 30
0.0
 10
9.540303532497491
 20
13.26831266228053
 30
0.0
 10
9.487704529937982
 20
13.52080982106196
 30
0.0
 10
9.473745253197954
 20
13.64846695671307
 30
0.0
 10
9.476438089560556
 20
13.88700257856813
 30
0.0
 10
9.493197896427997
 20
13.99682053671475
 30
0.0
 10
9.549353346861203
 20
14.1837493979527
 30
0.0
 10
9.58858947784802
 20
14.26231510462441
 30
0.0
 10
9.678480018824306
 20
14.39201189392008
 30
0.0
 10
9.730204466999167
 20
14.44496665500975
 30
0.0
 10
9.896348595184456
 20
14.57471258814564
 30
0.0
 10
10.02083275682616
 20
14.62455209347293
 30
0.0
 10
10.29708420272973
 20
14.68178062150165
 30
0.0
 10
10.44472555451369
 20
14.68765662548425
 30
0.0
 10
10.60808274902043
 20
14.67518531385664
 30
0.0
  0
DIMENSION
  5
29F
330
1F
100
AcDbEntity
  8
2
100
AcDbDimension
  2
_D
 10
85.0
 20
65.9213882753
 30
0.0
 11
30.7581162894
 21
65.9213882753
 31
0.0
 70
   160
  1
<>
 71
     2
 42
-1.0
  3
SLDDIMSTYLE0
100
AcDbAlignedDimension
 13
0.0
 23
34.925
 33
0.0
 14
85.0
 24
20.5
 34
0.0
100
AcDbRotatedDimension
  0
DIMENSION
  5
2B4
330
1F
100
AcDbEntity
  8
SK2
100
AcDbDimension
  2
_D_1
 10
85.0
 20
52.5226390564
 30
0.0
 11
55.3224898576
 21
52.5226390564
 31
0.0
 70
   160
  1
<>
 71
     2
 42
-1.0
  3
SLDDIMSTYLE0
100
AcDbAlignedDimension
 13
19.05
 23
46.5560855313
 33
0.0
 14
85.0
 24
20.5
 34
0.0
 50
0.0
100
AcDbRotatedDimension
  0
DIMENSION
  5
2C7
330
1F
100
AcDbEntity
  8
SK2
100
AcDbDimension
  2
_D_2
 10
19.05
 20
52.5226390564
 30
0.0
 11
10.3972718881
 21
52.5226390564
 31
0.0
 70
   160
  1
<>
 71
     2
 42
-1.0
  3
SLDDIMSTYLE1
100
AcDbAlignedDimension
 13
0.0
 23
34.925
 33
0.0
 14
19.05
 24
46.5560855313
 34
0.0
100
AcDbRotatedDimension
  0
DIMENSION
  5
2D2
330
1F
100
AcDbEntity
  8
SK2
100
AcDbDimension
  2
_D_3
 10
68.2
 20
31.5049932227
 30
0.0
 11
76.3401356912
 21
31.5049932227
 31
0.0
 70
   160
  1
<>
 71
     2
 42
-1.0
  3
SLDDIMSTYLE0
100
AcDbAlignedDimension
 13
85.0
 23
20.5
 33
0.0
 14
68.2
 24
22.6
 34
0.0
100
AcDbRotatedDimension
  0
DIMENSION
  5
2E5
330
1F
100
AcDbEntity
  8
SK2
100
AcDbDimension
  2
_D_4
 10
68.2
 20
31.5049932227
 30
0.0
 11
53.6148061336
 21
31.5049932227
 31
0.0
 70
   160
  1
<>
 71
     2
 42
-1.0
  3
SLDDIMSTYLE0
100
AcDbAlignedDimension
 13
43.8
 23
22.6
 33
0.0
 14
68.2
 24
22.6
 34
0.0
100
AcDbRotatedDimension
  0
DIMENSION
  5
2F8
330
1F
100
AcDbEntity
  8
SK2
100
AcDbDimension
  2
_D_5
 10
99.5409077208
 20
-12.5
 30
0.0
 11
99.5409077208
 21
-0.7217049389
 31
0.0
 70
   160
  1
%%c<>
 71
     2
 42
-1.0
  3
SLDDIMSTYLE2
100
AcDbAlignedDimension
 13
83.0947441117
 23
12.5
 33
0.0
 14
83.0947441117
 24
-12.5
 34
0.0
 50
90.0
100
AcDbRotatedDimension
  0
DIMENSION
  5
30D
330
1F
100
AcDbEntity
  8
SK2
100
AcDbDimension
  2
_D_6
 10
113.8363919565
 20
-20.5
 30
0.0
 11
113.8363919565
 21
-0.7217049389
 31
0.0
 70
   160
  1
%%c<>
 71
     2
 42
-1.0
  3
SLDDIMSTYLE0
100
AcDbAlignedDimension
 13
85.0
 23
20.5
 33
0.0
 14
85.0
 24
-20.5
 34
0.0
 50
90.0
100
AcDbRotatedDimension
  0
DIMENSION
  5
31F
330
1F
100
AcDbEntity
  8
SK2
100
AcDbDimension
  2
_D_7
 10
126.5032767224
 20
-22.5
 30
0.0
 11
126.5032767224
 21
-0.7217049389
 31
0.0
 70
   160
  1
%%c<>
 71
     2
 42
-1.0
  3
SLDDIMSTYLE0
100
AcDbAlignedDimension
 13
83.0
 23
22.5
 33
0.0
 14
83.0
 24
-22.5
 34
0.0
 50
90.0
100
AcDbRotatedDimension
  0
DIMENSION
  5
331
330
1F
100
AcDbEntity
  8
SK2
100
AcDbDimension
  2
_D_8
 10
85.0
 20
-63.360395844
 30
0.0
 11
-14.0161688254
 21
-63.360395844
 31
0.0
 70
   160
  1
<>
 71
     2
 42
-1.0
  3
SLDDIMSTYLE3
100
AcDbAlignedDimension
 13
-101.6
 23
-18.2922326599
 33
0.0
 14
85.0
 24
-20.5
 34
0.0
 50
0.0
100
AcDbRotatedDimension
  0
DIMENSION
  5
345
330
1F
100
AcDbEntity
  8
SK2
100
AcDbDimension
  2
_D_9
 10
85.0
 20
-46.7687275284
 30
0.0
 11
57.8685101702
 21
-46.7687275284
 31
0.0
 70
   160
  1
<>
 71
     2
 42
-1.0
  3
SLDDIMSTYLE0
100
AcDbAlignedDimension
 13
30.5
 23
-12.75
 33
0.0
 14
85.0
 24
-20.5
 34
0.0
 50
0.0
100
AcDbRotatedDimension
  0
DIMENSION
  5
358
330
1F
100
AcDbEntity
  8
SK2
100
AcDbDimension
  2
_D_10
 10
85.0
 20
-35.2267687779
 30
0.0
 11
76.3401356912
 21
-35.2267687779
 31
0.0
 70
   160
  1
<>
 71
     2
 42
-1.0
  3
SLDDIMSTYLE4
100
AcDbAlignedDimension
 13
83.0
 23
-22.5
 33
0.0
 14
85.0
 24
-20.5
 34
0.0
100
AcDbRotatedDimension
  0
DIMENSION
  5
365
330
1F
100
AcDbEntity
  8
SK2
100
AcDbDimension
  2
_D_11
 10
-119.8229704266
 20
-47.4754841997
 30
0.0
 11
-119.8229704266
 21
-0.7217049389
 31
0.0
 70
   160
  1
%%c<>
 71
     2
 42
-1.0
  3
SLDDIMSTYLE1
100
AcDbAlignedDimension
 13
5.7701383033
 23
47.2968145978
 33
0.0
 14
3.95
 24
-47.4754841997
 34
0.0
 50
90.0
100
AcDbRotatedDimension
  0
DIMENSION
  5
370
330
1F
100
AcDbEntity
  8
SK2
100
AcDbDimension
  2
_D_12
 10
-109.8144128505
 20
12.6999998465
 30
0.0
 11
-109.8144128505
 21
-0.7217049389
 31
0.0
 70
   160
  1
<>
 71
     2
 42
-1.0
  3
SLDDIMSTYLE1
100
AcDbAlignedDimension
 13
-94.967097044
 23
-12.6999998465
 33
0.0
 14
-94.967097044
 24
12.6999998465
 34
0.0
 50
90.0
100
AcDbRotatedDimension
  0
MTEXT
  5
37B
330
1F
100
AcDbEntity
  8
SK6
 62
     5
100
AcDbMText
 10
-59.8567297496
 20
-35.8730746402
 30
0.0
 40
3.5
 41
0.0
 71
     1
 72
     1
  1
A3B27-50 25 085
  7
SLDTEXTSTYLE0
 73
     1
 44
1.0
  0
MTEXT
  5
37C
330
1F
100
AcDbEntity
  8
SK6
 62
     5
100
AcDbMText
 10
-61.2755321221
 20
40.7957657419
 30
0.0
 40
3.5
 41
0.0
 71
     1
 72
     1
  1
ASME B5.50 CAT 50
  7
SLDTEXTSTYLE0
 73
     1
 44
1.0
  0
ENDSEC
  0
SECTION
  2
OBJECTS
  0
DICTIONARY
  5
C
330
0
100
AcDbDictionary
281
     1
  3
ACAD_GROUP
350
D
  3
ACAD_LAYOUT
350
1A
  3
ACAD_MLINESTYLE
350
17
  3
ACAD_PLOTSETTINGS
350
19
  3
ACAD_PLOTSTYLENAME
350
E
  3
ACAD_SCALELIST
350
47
  0
DICTIONARY
  5
D
102
{ACAD_REACTORS
330
C
102
}
330
C
100
AcDbDictionary
281
     1
  0
DICTIONARY
  5
1A
102
{ACAD_REACTORS
330
C
102
}
330
C
100
AcDbDictionary
281
     1
  3
Layout1
350
1E
  3
Layout2
350
26
  3
Model
350
22
  0
DICTIONARY
  5
17
102
{ACAD_REACTORS
330
C
102
}
330
C
100
AcDbDictionary
281
     1
  3
Standard
350
18
  0
DICTIONARY
  5
19
102
{ACAD_REACTORS
330
C
102
}
330
C
100
AcDbDictionary
281
     1
  0
ACDBDICTIONARYWDFLT
  5
E
102
{ACAD_REACTORS
330
C
102
}
330
C
100
AcDbDictionary
281
     1
  3
Normal
350
F
100
AcDbDictionaryWithDefault
340
F
  0
DICTIONARY
  5
47
102
{ACAD_REACTORS
330
C
102
}
330
C
100
AcDbDictionary
281
     1
  3
A0
350
48
  3
A1
350
49
  3
A2
350
4A
  3
A3
350
4B
  3
A4
350
4C
  3
A5
350
4D
  3
A6
350
4E
  3
A7
350
4F
  3
A8
350
50
  3
A9
350
51
  3
B0
350
52
  3
B1
350
53
  3
B2
350
54
  3
B3
350
55
  3
B4
350
56
  3
B5
350
57
  3
B6
350
58
  3
B7
350
59
  3
B8
350
5A
  3
B9
350
5B
  3
C0
350
5C
  3
C1
350
5D
  3
C2
350
5E
  3
C3
350
5F
  3
C4
350
60
  3
C5
350
61
  3
C6
350
62
  3
C7
350
63
  3
C8
350
64
  3
C9
350
65
  3
D0
350
66
  3
D1
350
67
  3
D2
350
68
  0
LAYOUT
  5
1E
102
{ACAD_REACTORS
330
1A
102
}
330
1A
100
AcDbPlotSettings
  1

  2
none_device
  4

  6

 40
0.0
 41
0.0
 42
0.0
 43
0.0
 44
0.0
 45
0.0
 46
0.0
 47
0.0
 48
0.0
 49
0.0
140
0.0
141
0.0
142
1.0
143
1.0
 70
   688
 72
     1
 73
     0
 74
     5
  7

 75
    16
147
1.0
148
0.0
149
0.0
100
AcDbLayout
  1
Layout1
 70
     1
 71
     1
 10
0.0
 20
0.0
 11
420.0
 21
297.0
 12
0.0
 22
0.0
 32
0.0
 14
1.0000000000E+20
 24
1.0000000000E+20
 34
1.0000000000E+20
 15
-1.0000000000E+20
 25
-1.0000000000E+20
 35
-1.0000000000E+20
146
0.0
 13
0.0
 23
0.0
 33
0.0
 16
1.0
 26
0.0
 36
0.0
 17
0.0
 27
1.0
 37
0.0
 76
     0
330
1B
  0
LAYOUT
  5
26
102
{ACAD_REACTORS
330
1A
102
}
330
1A
100
AcDbPlotSettings
  1

  2
none_device
  4

  6

 40
0.0
 41
0.0
 42
0.0
 43
0.0
 44
0.0
 45
0.0
 46
0.0
 47
0.0
 48
0.0
 49
0.0
140
0.0
141
0.0
142
1.0
143
1.0
 70
   688
 72
     1
 73
     0
 74
     5
  7

 75
    16
147
1.0
148
0.0
149
0.0
100
AcDbLayout
  1
Layout2
 70
     1
 71
     2
 10
0.0
 20
0.0
 11
0.0
 21
0.0
 12
0.0
 22
0.0
 32
0.0
 14
0.0
 24
0.0
 34
0.0
 15
0.0
 25
0.0
 35
0.0
146
0.0
 13
0.0
 23
0.0
 33
0.0
 16
1.0
 26
0.0
 36
0.0
 17
0.0
 27
1.0
 37
0.0
 76
     0
330
23
  0
LAYOUT
  5
22
102
{ACAD_REACTORS
330
1A
102
}
330
1A
100
AcDbPlotSettings
  1

  2
none_device
  4
Letter_(8.50_x_11.00_Inches)
  6

 40
6.35
 41
6.35
 42
6.35000508
 43
6.35000508
 44
215.9
 45
279.4
 46
0.0
 47
0.0
 48
0.0
 49
0.0
140
0.0
141
0.0
142
1.0
143
1.0
 70
  1712
 72
     1
 73
     0
 74
     0
  7

 75
     0
147
1.0
148
0.0
149
0.0
100
AcDbLayout
  1
Model
 70
     1
 71
     0
 10
0.0
 20
0.0
 11
297.0
 21
210.0
 12
0.0
 22
0.0
 32
0.0
 14
0.0
 24
0.0
 34
0.0
 15
297.0
 25
210.0
 35
0.0
146
0.0
 13
0.0
 23
0.0
 33
0.0
 16
1.0
 26
0.0
 36
0.0
 17
0.0
 27
1.0
 37
0.0
 76
     0
330
1F
331
29
  0
MLINESTYLE
  5
18
102
{ACAD_REACTORS
330
17
102
}
330
17
100
AcDbMlineStyle
  2
Standard
 70
     0
  3

 62
   256
 51
90.0
 52
90.0
 71
     2
 49
0.5
 62
   256
  6
BYLAYER
 49
-0.5
 62
   256
  6
BYLAYER
  0
ACDBPLACEHOLDER
  5
F
102
{ACAD_REACTORS
330
E
102
}
330
E
  0
SCALE
  5
48
102
{ACAD_REACTORS
330
47
102
}
330
47
100
AcDbScale
 70
     0
300
1:1
140
1.0
141
1.0
290
     1
  0
SCALE
  5
49
102
{ACAD_REACTORS
330
47
102
}
330
47
100
AcDbScale
 70
     0
300
1:2
140
1.0
141
2.0
290
     0
  0
SCALE
  5
4A
102
{ACAD_REACTORS
330
47
102
}
330
47
100
AcDbScale
 70
     0
300
1:4
140
1.0
141
4.0
290
     0
  0
SCALE
  5
4B
102
{ACAD_REACTORS
330
47
102
}
330
47
100
AcDbScale
 70
     0
300
1:5
140
1.0
141
5.0
290
     0
  0
SCALE
  5
4C
102
{ACAD_REACTORS
330
47
102
}
330
47
100
AcDbScale
 70
     0
300
1:8
140
1.0
141
8.0
290
     0
  0
SCALE
  5
4D
102
{ACAD_REACTORS
330
47
102
}
330
47
100
AcDbScale
 70
     0
300
1:10
140
1.0
141
10.0
290
     0
  0
SCALE
  5
4E
102
{ACAD_REACTORS
330
47
102
}
330
47
100
AcDbScale
 70
     0
300
1:16
140
1.0
141
16.0
290
     0
  0
SCALE
  5
4F
102
{ACAD_REACTORS
330
47
102
}
330
47
100
AcDbScale
 70
     0
300
1:20
140
1.0
141
20.0
290
     0
  0
SCALE
  5
50
102
{ACAD_REACTORS
330
47
102
}
330
47
100
AcDbScale
 70
     0
300
1:30
140
1.0
141
30.0
290
     0
  0
SCALE
  5
51
102
{ACAD_REACTORS
330
47
102
}
330
47
100
AcDbScale
 70
     0
300
1:40
140
1.0
141
40.0
290
     0
  0
SCALE
  5
52
102
{ACAD_REACTORS
330
47
102
}
330
47
100
AcDbScale
 70
     0
300
1:50
140
1.0
141
50.0
290
     0
  0
SCALE
  5
53
102
{ACAD_REACTORS
330
47
102
}
330
47
100
AcDbScale
 70
     0
300
1:100
140
1.0
141
100.0
290
     0
  0
SCALE
  5
54
102
{ACAD_REACTORS
330
47
102
}
330
47
100
AcDbScale
 70
     0
300
2:1
140
2.0
141
1.0
290
     0
  0
SCALE
  5
55
102
{ACAD_REACTORS
330
47
102
}
330
47
100
AcDbScale
 70
     0
300
4:1
140
4.0
141
1.0
290
     0
  0
SCALE
  5
56
102
{ACAD_REACTORS
330
47
102
}
330
47
100
AcDbScale
 70
     0
300
8:1
140
8.0
141
1.0
290
     0
  0
SCALE
  5
57
102
{ACAD_REACTORS
330
47
102
}
330
47
100
AcDbScale
 70
     0
300
10:1
140
10.0
141
1.0
290
     0
  0
SCALE
  5
58
102
{ACAD_REACTORS
330
47
102
}
330
47
100
AcDbScale
 70
     0
300
100:1
140
100.0
141
1.0
290
     0
  0
SCALE
  5
59
102
{ACAD_REACTORS
330
47
102
}
330
47
100
AcDbScale
 70
     0
300
1/128" = 1'-0"
140
0.0078125
141
12.0
290
     0
  0
SCALE
  5
5A
102
{ACAD_REACTORS
330
47
102
}
330
47
100
AcDbScale
 70
     0
300
1/64" = 1'-0"
140
0.015625
141
12.0
290
     0
  0
SCALE
  5
5B
102
{ACAD_REACTORS
330
47
102
}
330
47
100
AcDbScale
 70
     0
300
1/32" = 1'-0"
140
0.03125
141
12.0
290
     0
  0
SCALE
  5
5C
102
{ACAD_REACTORS
330
47
102
}
330
47
100
AcDbScale
 70
     0
300
1/16" = 1'-0"
140
0.0625
141
12.0
290
     0
  0
SCALE
  5
5D
102
{ACAD_REACTORS
330
47
102
}
330
47
100
AcDbScale
 70
     0
300
3/32" = 1'-0"
140
0.09375
141
12.0
290
     0
  0
SCALE
  5
5E
102
{ACAD_REACTORS
330
47
102
}
330
47
100
AcDbScale
 70
     0
300
1/8" = 1'-0"
140
0.125
141
12.0
290
     0
  0
SCALE
  5
5F
102
{ACAD_REACTORS
330
47
102
}
330
47
100
AcDbScale
 70
     0
300
3/16" = 1'-0"
140
0.1875
141
12.0
290
     0
  0
SCALE
  5
60
102
{ACAD_REACTORS
330
47
102
}
330
47
100
AcDbScale
 70
     0
300
1/4" = 1'-0"
140
0.25
141
12.0
290
     0
  0
SCALE
  5
61
102
{ACAD_REACTORS
330
47
102
}
330
47
100
AcDbScale
 70
     0
300
3/8" = 1'-0"
140
0.375
141
12.0
290
     0
  0
SCALE
  5
62
102
{ACAD_REACTORS
330
47
102
}
330
47
100
AcDbScale
 70
     0
300
1/2" = 1'-0"
140
0.5
141
12.0
290
     0
  0
SCALE
  5
63
102
{ACAD_REACTORS
330
47
102
}
330
47
100
AcDbScale
 70
     0
300
3/4" = 1'-0"
140
0.75
141
12.0
290
     0
  0
SCALE
  5
64
102
{ACAD_REACTORS
330
47
102
}
330
47
100
AcDbScale
 70
     0
300
1" = 1'-0"
140
1.0
141
12.0
290
     0
  0
SCALE
  5
65
102
{ACAD_REACTORS
330
47
102
}
330
47
100
AcDbScale
 70
     0
300
1-1/2" = 1'-0"
140
1.5
141
12.0
290
     0
  0
SCALE
  5
66
102
{ACAD_REACTORS
330
47
102
}
330
47
100
AcDbScale
 70
     0
300
3" = 1'-0"
140
3.0
141
12.0
290
     0
  0
SCALE
  5
67
102
{ACAD_REACTORS
330
47
102
}
330
47
100
AcDbScale
 70
     0
300
6" = 1'-0"
140
6.0
141
12.0
290
     0
  0
SCALE
  5
68
102
{ACAD_REACTORS
330
47
102
}
330
47
100
AcDbScale
 70
     0
300
1'-0" = 1'-0"
140
12.0
141
12.0
290
     0
  0
ENDSEC
  0
EOF
