  0
SECTION
  2
HEADER
  9
$ACADVER
  1
AC1015
  9
$ACADMAINTVER
 70
     6
  9
$DWGCODEPAGE
  3
ANSI_1250
  9
$INSBASE
 10
0.0
 20
0.0
 30
0.0
  9
$EXTMIN
 10
0.0
 20
0.0
 30
0.0
  9
$EXTMAX
 10
297.0
 20
210.0
 30
0.0
  9
$LIMMIN
 10
0.0
 20
0.0
  9
$LIMMAX
 10
297.0
 20
210.0
  9
$ORTHOMODE
 70
     0
  9
$REGENMODE
 70
     1
  9
$FILLMODE
 70
     1
  9
$QTEXTMODE
 70
     0
  9
$MIRRTEXT
 70
     1
  9
$LTSCALE
 40
1.0
  9
$ATTMODE
 70
     1
  9
$TEXTSIZE
 40
3.5
  9
$TRACEWID
 40
1.0
  9
$TEXTSTYLE
  7
Standard
  9
$CLAYER
  8
0
  9
$CELTYPE
  6
ByLayer
  9
$CECOLOR
 62
   256
  9
$CELTSCALE
 40
1.0
  9
$DISPSILH
 70
     0
  9
$DIMSCALE
 40
1.0
  9
$DIMASZ
 40
3.302
  9
$DIMEXO
 40
1.0
  9
$DIMDLI
 40
3.75
  9
$DIMRND
 40
0.0
  9
$DIMDLE
 40
0.0
  9
$DIMEXE
 40
1.0
  9
$DIMTP
 40
0.0
  9
$DIMTM
 40
0.0
  9
$DIMTXT
 40
3.5
  9
$DIMCEN
 40
2.5
  9
$DIMTSZ
 40
0.0
  9
$DIMTOL
 70
     0
  9
$DIMLIM
 70
     0
  9
$DIMTIH
 70
     1
  9
$DIMTOH
 70
     1
  9
$DIMSE1
 70
     0
  9
$DIMSE2
 70
     0
  9
$DIMTAD
 70
     1
  9
$DIMZIN
 70
     0
  9
$DIMBLK
  1

  9
$DIMASO
 70
     1
  9
$DIMSHO
 70
     1
  9
$DIMPOST
  1

  9
$DIMAPOST
  1

  9
$DIMALT
 70
     0
  9
$DIMALTD
 70
     3
  9
$DIMALTF
 40
0.0393700787
  9
$DIMLFAC
 40
1.0
  9
$DIMTOFL
 70
     1
  9
$DIMTVP
 40
0.0
  9
$DIMTIX
 70
     0
  9
$DIMSOXD
 70
     0
  9
$DIMSAH
 70
     0
  9
$DIMBLK1
  1

  9
$DIMBLK2
  1

  9
$DIMSTYLE
  2
ISO-25
  9
$DIMCLRD
 70
     0
  9
$DIMCLRE
 70
     0
  9
$DIMCLRT
 70
     0
  9
$DIMTFAC
 40
1.0
  9
$DIMGAP
 40
1.524
  9
$DIMJUST
 70
     0
  9
$DIMSD1
 70
     0
  9
$DIMSD2
 70
     0
  9
$DIMTOLJ
 70
     0
  9
$DIMTZIN
 70
     0
  9
$DIMALTZ
 70
     0
  9
$DIMALTTZ
 70
     0
  9
$DIMUPT
 70
     0
  9
$DIMDEC
 70
     2
  9
$DIMTDEC
 70
     2
  9
$DIMALTU
 70
     2
  9
$DIMALTTD
 70
     3
  9
$DIMTXSTY
  7
Standard
  9
$DIMAUNIT
 70
     0
  9
$DIMADEC
 70
     2
  9
$DIMALTRND
 40
0.0
  9
$DIMAZIN
 70
     0
  9
$DIMDSEP
 70
    44
  9
$DIMATFIT
 70
     3
  9
$DIMFRAC
 70
     0
  9
$DIMLDRBLK
  1

  9
$DIMLUNIT
 70
     2
  9
$DIMLWD
 70
    -2
  9
$DIMLWE
 70
    -2
  9
$DIMTMOVE
 70
     0
  9
$LUNITS
 70
     2
  9
$LUPREC
 70
     2
  9
$SKETCHINC
 40
1.0
  9
$FILLETRAD
 40
10.0
  9
$AUNITS
 70
     0
  9
$AUPREC
 70
     2
  9
$MENU
  1
.
  9
$ELEVATION
 40
0.0
  9
$PELEVATION
 40
0.0
  9
$THICKNESS
 40
0.0
  9
$LIMCHECK
 70
     0
  9
$CHAMFERA
 40
0.0
  9
$CHAMFERB
 40
0.0
  9
$CHAMFERC
 40
0.0
  9
$CHAMFERD
 40
0.0
  9
$SKPOLY
 70
     0
  9
$TDCREATE
 40
2459278.340539595
  9
$TDUCREATE
 40
2459278.298872928
  9
$TDUPDATE
 40
2459278.340541308
  9
$TDUUPDATE
 40
2459278.298874641
  9
$TDINDWG
 40
0.0000000116
  9
$TDUSRTIMER
 40
0.0000000116
  9
$USRTIMER
 70
     1
  9
$ANGBASE
 50
0.0
  9
$ANGDIR
 70
     0
  9
$PDMODE
 70
     0
  9
$PDSIZE
 40
-1.0
  9
$PLINEWID
 40
0.0
  9
$SPLFRAME
 70
     0
  9
$SPLINETYPE
 70
     6
  9
$SPLINESEGS
 70
     8
  9
$HANDSEED
  5
34D
  9
$SURFTAB1
 70
     6
  9
$SURFTAB2
 70
     6
  9
$SURFTYPE
 70
     6
  9
$SURFU
 70
     6
  9
$SURFV
 70
     6
  9
$UCSBASE
  2

  9
$UCSNAME
  2

  9
$UCSORG
 10
0.0
 20
0.0
 30
0.0
  9
$UCSXDIR
 10
1.0
 20
0.0
 30
0.0
  9
$UCSYDIR
 10
0.0
 20
1.0
 30
0.0
  9
$UCSORTHOREF
  2

  9
$UCSORTHOVIEW
 70
     0
  9
$UCSORGTOP
 10
0.0
 20
0.0
 30
0.0
  9
$UCSORGBOTTOM
 10
0.0
 20
0.0
 30
0.0
  9
$UCSORGLEFT
 10
0.0
 20
0.0
 30
0.0
  9
$UCSORGRIGHT
 10
0.0
 20
0.0
 30
0.0
  9
$UCSORGFRONT
 10
0.0
 20
0.0
 30
0.0
  9
$UCSORGBACK
 10
0.0
 20
0.0
 30
0.0
  9
$PUCSBASE
  2

  9
$PUCSNAME
  2

  9
$PUCSORG
 10
0.0
 20
0.0
 30
0.0
  9
$PUCSXDIR
 10
1.0
 20
0.0
 30
0.0
  9
$PUCSYDIR
 10
0.0
 20
1.0
 30
0.0
  9
$PUCSORTHOREF
  2

  9
$PUCSORTHOVIEW
 70
     0
  9
$PUCSORGTOP
 10
0.0
 20
0.0
 30
0.0
  9
$PUCSORGBOTTOM
 10
0.0
 20
0.0
 30
0.0
  9
$PUCSORGLEFT
 10
0.0
 20
0.0
 30
0.0
  9
$PUCSORGRIGHT
 10
0.0
 20
0.0
 30
0.0
  9
$PUCSORGFRONT
 10
0.0
 20
0.0
 30
0.0
  9
$PUCSORGBACK
 10
0.0
 20
0.0
 30
0.0
  9
$USERI1
 70
     0
  9
$USERI2
 70
     0
  9
$USERI3
 70
     0
  9
$USERI4
 70
     0
  9
$USERI5
 70
     0
  9
$USERR1
 40
0.0
  9
$USERR2
 40
0.0
  9
$USERR3
 40
0.0
  9
$USERR4
 40
0.0
  9
$USERR5
 40
0.0
  9
$WORLDVIEW
 70
     1
  9
$SHADEDGE
 70
     3
  9
$SHADEDIF
 70
    70
  9
$TILEMODE
 70
     1
  9
$MAXACTVP
 70
    64
  9
$PINSBASE
 10
0.0
 20
0.0
 30
0.0
  9
$PLIMCHECK
 70
     0
  9
$PEXTMIN
 10
1.0000000000E+20
 20
1.0000000000E+20
 30
1.0000000000E+20
  9
$PEXTMAX
 10
-1.0000000000E+20
 20
-1.0000000000E+20
 30
-1.0000000000E+20
  9
$PLIMMIN
 10
0.0
 20
0.0
  9
$PLIMMAX
 10
420.0
 20
297.0
  9
$UNITMODE
 70
     0
  9
$VISRETAIN
 70
     1
  9
$PLINEGEN
 70
     0
  9
$PSLTSCALE
 70
     1
  9
$TREEDEPTH
 70
  3020
  9
$CMLSTYLE
  2
Standard
  9
$CMLJUST
 70
     0
  9
$CMLSCALE
 40
20.0
  9
$PROXYGRAPHICS
 70
     1
  9
$MEASUREMENT
 70
     1
  9
$CELWEIGHT
370
    -1
  9
$ENDCAPS
280
     0
  9
$JOINSTYLE
280
     0
  9
$LWDISPLAY
290
     1
  9
$INSUNITS
 70
     4
  9
$HYPERLINKBASE
  1

  9
$STYLESHEET
  1

  9
$XEDIT
290
     1
  9
$CEPSNTYPE
380
     0
  9
$PSTYLEMODE
290
     1
  9
$FINGERPRINTGUID
  2
{D462F165-B45B-4B18-B7D1-AD7DEED84A99}
  9
$VERSIONGUID
  2
{FAEB1C32-E019-11D5-929B-00C0DF256EC4}
  9
$EXTNAMES
290
     1
  9
$PSVPSCALE
 40
0.0
  9
$OLESTARTUP
290
     0
  0
ENDSEC
  0
SECTION
  2
CLASSES
  0
CLASS
  1
ACDBDICTIONARYWDFLT
  2
AcDbDictionaryWithDefault
  3
ObjectDBX Classes
 90
        0
280
     0
281
     0
  0
CLASS
  1
VISUALSTYLE
  2
AcDbVisualStyle
  3
ObjectDBX Classes
 90
     4095
280
     0
281
     0
  0
CLASS
  1
MATERIAL
  2
AcDbMaterial
  3
ObjectDBX Classes
 90
     1153
280
     0
281
     0
  0
CLASS
  1
SCALE
  2
AcDbScale
  3
ObjectDBX Classes
 90
     1153
280
     0
281
     0
  0
CLASS
  1
TABLESTYLE
  2
AcDbTableStyle
  3
ObjectDBX Classes
 90
     4095
280
     0
281
     0
  0
CLASS
  1
MLEADERSTYLE
  2
AcDbMLeaderStyle
  3
ACDB_MLEADERSTYLE_CLASS
 90
     4095
280
     0
281
     0
  0
CLASS
  1
SUN
  2
AcDbSun
  3
SCENEOE
 90
     1153
280
     0
281
     0
  0
CLASS
  1
ACDBPLACEHOLDER
  2
AcDbPlaceHolder
  3
ObjectDBX Classes
 90
        0
280
     0
281
     0
  0
CLASS
  1
LAYOUT
  2
AcDbLayout
  3
ObjectDBX Classes
 90
        0
280
     0
281
     0
  0
ENDSEC
  0
SECTION
  2
TABLES
  0
TABLE
  2
VPORT
  5
8
330
0
100
AcDbSymbolTable
 70
     1
  0
VPORT
  5
29
330
8
100
AcDbSymbolTableRecord
100
AcDbViewportTableRecord
  2
*Active
 70
     0
 10
0.0
 20
0.0
 11
1.0
 21
1.0
 12
148.5
 22
105.0
 13
0.0
 23
0.0
 14
10.0
 24
10.0
 15
10.0
 25
10.0
 16
0.0
 26
0.0
 36
1.0
 17
0.0
 27
0.0
 37
0.0
 40
210.0
 41
1.4142857143
 42
50.0
 43
0.0
 44
0.0
 50
0.0
 51
0.0
 71
     0
 72
  2000
 73
     1
 74
     3
 75
     0
 76
     0
 77
     0
 78
     0
281
     0
 65
     1
110
0.0
120
0.0
130
0.0
111
1.0
121
0.0
131
0.0
112
0.0
122
1.0
132
0.0
 79
     0
146
0.0
  0
ENDTAB
  0
TABLE
  2
LTYPE
  5
5
330
0
100
AcDbSymbolTable
 70
     8
  0
LTYPE
  5
14
330
5
100
AcDbSymbolTableRecord
100
AcDbLinetypeTableRecord
  2
ByBlock
 70
     0
  3

 72
    65
 73
     0
 40
0.0
  0
LTYPE
  5
15
330
5
100
AcDbSymbolTableRecord
100
AcDbLinetypeTableRecord
  2
ByLayer
 70
     0
  3

 72
    65
 73
     0
 40
0.0
  0
LTYPE
  5
16
330
5
100
AcDbSymbolTableRecord
100
AcDbLinetypeTableRecord
  2
Continuous
 70
     0
  3
Solid line
 72
    65
 73
     0
 40
0.0
  0
LTYPE
  5
6E
330
5
100
AcDbSymbolTableRecord
100
AcDbLinetypeTableRecord
  2
SLD-Solid
 70
     0
  3
SolidWorks Line Style
 72
    65
 73
     0
 40
0.0
  0
LTYPE
  5
6F
330
5
100
AcDbSymbolTableRecord
100
AcDbLinetypeTableRecord
  2
SLD-Dashed
 70
     0
  3
SolidWorks Line Style
 72
    65
 73
     2
 40
1.905
 49
1.27
 74
     0
 49
-0.635
 74
     0
  0
LTYPE
  5
70
330
5
100
AcDbSymbolTableRecord
100
AcDbLinetypeTableRecord
  2
SLD-Phantom
 70
     0
  3
SolidWorks Line Style
 72
    65
 73
     6
 40
12.7
 49
6.35
 74
     0
 49
-1.27
 74
     0
 49
1.27
 74
     0
 49
-1.27
 74
     0
 49
1.27
 74
     0
 49
-1.27
 74
     0
  0
LTYPE
  5
71
330
5
100
AcDbSymbolTableRecord
100
AcDbLinetypeTableRecord
  2
SLD-Chain
 70
     0
  3
SolidWorks Line Style
 72
    65
 73
     4
 40
10.16
 49
6.35
 74
     0
 49
-1.27
 74
     0
 49
1.27
 74
     0
 49
-1.27
 74
     0
  0
LTYPE
  5
72
330
5
100
AcDbSymbolTableRecord
100
AcDbLinetypeTableRecord
  2
SLD-Center
 70
     0
  3
SolidWorks Line Style
 72
    65
 73
     4
 40
19.05
 49
15.24
 74
     0
 49
-1.27
 74
     0
 49
1.27
 74
     0
 49
-1.27
 74
     0
  0
LTYPE
  5
73
330
5
100
AcDbSymbolTableRecord
100
AcDbLinetypeTableRecord
  2
SLD-Stitch
 70
     0
  3
SolidWorks Line Style
 72
    65
 73
     2
 40
0.635
 49
0.0
 74
     0
 49
-0.635
 74
     0
  0
LTYPE
  5
74
330
5
100
AcDbSymbolTableRecord
100
AcDbLinetypeTableRecord
  2
SLD-Thin-Thick-Chain
 70
     0
  3
SolidWorks Line Style
 72
    65
 73
     4
 40
10.16
 49
6.35
 74
     0
 49
-1.27
 74
     0
 49
1.27
 74
     0
 49
-1.27
 74
     0
  0
ENDTAB
  0
TABLE
  2
LAYER
  5
2
330
0
100
AcDbSymbolTable
 70
    14
  0
LAYER
  5
10
330
2
100
AcDbSymbolTableRecord
100
AcDbLayerTableRecord
  2
0
 70
     0
 62
     7
  6
Continuous
370
    -3
390
F
  0
LAYER
  5
75
330
2
100
AcDbSymbolTableRecord
100
AcDbLayerTableRecord
  2
SLD-0
 70
     0
 62
   179
  6
SLD-Solid
370
    -3
390
F
  0
LAYER
  5
76
330
2
100
AcDbSymbolTableRecord
100
AcDbLayerTableRecord
  2
80
 70
     0
 62
    -6
  6
SLD-Solid
290
     0
370
    -3
390
F
  0
LAYER
  5
77
330
2
100
AcDbSymbolTableRecord
100
AcDbLayerTableRecord
  2
81
 70
     0
 62
    -3
  6
SLD-Solid
290
     0
370
    -3
390
F
  0
LAYER
  5
78
330
2
100
AcDbSymbolTableRecord
100
AcDbLayerTableRecord
  2
1
 70
     0
 62
     4
  6
SLD-Solid
290
     0
370
    -3
390
F
  0
LAYER
  5
79
330
2
100
AcDbSymbolTableRecord
100
AcDbLayerTableRecord
  2
4
 70
     0
 62
    -2
  6
SLD-Chain
290
     0
370
    -3
390
F
  0
LAYER
  5
7A
330
2
100
AcDbSymbolTableRecord
100
AcDbLayerTableRecord
  2
2
 70
     0
 62
     7
  6
SLD-Solid
290
     0
370
    -3
390
F
  0
LAYER
  5
7B
330
2
100
AcDbSymbolTableRecord
100
AcDbLayerTableRecord
  2
SK3
 70
     0
 62
     1
  6
SLD-Dashed
290
     0
370
    -3
390
F
  0
LAYER
  5
7C
330
2
100
AcDbSymbolTableRecord
100
AcDbLayerTableRecord
  2
SK4
 70
     0
 62
     2
  6
SLD-Chain
290
     0
370
    -3
390
F
  0
LAYER
  5
7D
330
2
100
AcDbSymbolTableRecord
100
AcDbLayerTableRecord
  2
SK2
 70
     0
 62
     7
  6
SLD-Solid
290
     0
370
    -3
390
F
  0
LAYER
  5
7E
330
2
100
AcDbSymbolTableRecord
100
AcDbLayerTableRecord
  2
SK6
 70
     0
 62
     5
  6
SLD-Solid
290
     0
370
    -3
390
F
  0
LAYER
  5
7F
330
2
100
AcDbSymbolTableRecord
100
AcDbLayerTableRecord
  2
6
 70
     0
 62
     5
  6
SLD-Solid
370
    -3
390
F
  0
LAYER
  5
80
330
2
100
AcDbSymbolTableRecord
100
AcDbLayerTableRecord
  2
SK1
 70
     0
 62
     4
  6
SLD-Solid
370
    -3
390
F
  0
LAYER
  5
81
330
2
100
AcDbSymbolTableRecord
100
AcDbLayerTableRecord
  2
LAYER5
 70
     0
 62
   218
  6
SLD-Solid
370
    -3
390
F
  0
ENDTAB
  0
TABLE
  2
STYLE
  5
3
330
0
100
AcDbSymbolTable
 70
     3
  0
STYLE
  5
11
330
3
100
AcDbSymbolTableRecord
100
AcDbTextStyleTableRecord
  2
Standard
 70
     0
 40
0.0
 41
1.0
 50
0.0
 71
     0
 42
3.5
  3
txt
  4

  0
STYLE
  5
270
330
3
100
AcDbSymbolTableRecord
100
AcDbTextStyleTableRecord
  2
SLDTEXTSTYLE0
 70
     0
 40
0.0
 41
0.75
 50
0.0
 71
     0
 42
3.5
  3
TXT
  4

  0
STYLE
  5
349
330
3
100
AcDbSymbolTableRecord
100
AcDbTextStyleTableRecord
  2
SLDTEXTSTYLE1
 70
     0
 40
0.0
 41
0.6666666667
 50
0.0
 71
     0
 42
3.5
  3
TXT
  4

  0
ENDTAB
  0
TABLE
  2
VIEW
  5
6
330
0
100
AcDbSymbolTable
 70
     0
  0
ENDTAB
  0
TABLE
  2
UCS
  5
7
330
0
100
AcDbSymbolTable
 70
     0
  0
ENDTAB
  0
TABLE
  2
APPID
  5
9
330
0
100
AcDbSymbolTable
 70
     1
  0
APPID
  5
12
330
9
100
AcDbSymbolTableRecord
100
AcDbRegAppTableRecord
  2
ACAD
 70
     0
  0
ENDTAB
  0
TABLE
  2
DIMSTYLE
  5
A
330
0
100
AcDbSymbolTable
 70
     6
100
AcDbDimStyleTable
  0
DIMSTYLE
105
27
330
A
100
AcDbSymbolTableRecord
100
AcDbDimStyleTableRecord
  2
ISO-25
 70
     0
 41
2.5
 42
0.625
 43
3.75
 44
1.25
 73
     0
 74
     0
 77
     1
 78
     8
140
2.5
141
2.5
143
0.0393700787
147
0.625
171
     3
172
     1
178
     0
271
     2
272
     2
274
     3
278
    44
283
     0
284
     8
340
11
  0
DIMSTYLE
105
271
102
{ACAD_REACTORS
330
26F
330
284
330
297
330
2AA
330
2DD
330
2EF
330
315
102
}
330
A
100
AcDbSymbolTableRecord
100
AcDbDimStyleTableRecord
  2
SLDDIMSTYLE0
 70
     0
 41
3.302
 44
0.0
 45
0.000000001
 73
     0
 74
     0
 77
     1
 78
    12
 79
     3
140
3.5
143
0.0393700787
147
0.875
148
0.000000001
170
     1
173
     1
178
     0
271
     2
272
     2
276
     2
284
    12
340
270
  0
DIMSTYLE
105
2BE
102
{ACAD_REACTORS
330
2BD
330
335
330
340
102
}
330
A
100
AcDbSymbolTableRecord
100
AcDbDimStyleTableRecord
  2
SLDDIMSTYLE1
 70
     0
 41
3.302
 44
0.0
 45
0.000000001
 73
     0
 74
     0
 77
     1
 78
    12
 79
     3
140
3.5
147
0.875
173
     1
178
     0
271
     2
272
     2
276
     2
284
    12
340
270
  0
DIMSTYLE
105
2C9
102
{ACAD_REACTORS
330
2C8
102
}
330
A
100
AcDbSymbolTableRecord
100
AcDbDimStyleTableRecord
  2
SLDDIMSTYLE2
 70
     0
 41
3.302
 44
0.0
 45
0.000000001
 73
     0
 74
     0
 77
     1
 78
    12
 79
     3
140
3.5
143
0.0393700787
147
0.875
148
0.000000001
170
     1
171
     3
172
     1
173
     1
178
     0
271
     2
272
     2
274
     3
276
     2
284
    12
289
     0
340
270
  0
DIMSTYLE
105
302
102
{ACAD_REACTORS
330
301
102
}
330
A
100
AcDbSymbolTableRecord
100
AcDbDimStyleTableRecord
  2
SLDDIMSTYLE3
 70
     0
 41
3.302
 44
0.0
 45
0.000000001
 73
     0
 74
     0
 77
     1
 78
    12
 79
     3
140
3.5
143
0.0393700787
147
0.875
148
0.000000001
170
     1
171
     3
173
     1
178
     0
271
     3
272
     2
274
     3
276
     2
284
    12
340
270
  0
DIMSTYLE
105
329
102
{ACAD_REACTORS
330
328
102
}
330
A
100
AcDbSymbolTableRecord
100
AcDbDimStyleTableRecord
  2
SLDDIMSTYLE4
 70
     0
 41
3.302
 44
0.0
 45
0.000000001
 73
     0
 74
     0
 77
     1
 78
    12
 79
     3
140
3.5
147
0.875
172
     1
173
     1
178
     0
271
     2
272
     2
276
     2
284
    12
289
     0
340
270
  0
ENDTAB
  0
TABLE
  2
BLOCK_RECORD
  5
1
330
0
100
AcDbSymbolTable
 70
    14
  0
BLOCK_RECORD
  5
1F
330
1
100
AcDbSymbolTableRecord
100
AcDbBlockTableRecord
  2
*Model_Space
340
22
  0
BLOCK_RECORD
  5
1B
330
1
100
AcDbSymbolTableRecord
100
AcDbBlockTableRecord
  2
*Paper_Space
340
1E
  0
BLOCK_RECORD
  5
23
330
1
100
AcDbSymbolTableRecord
100
AcDbBlockTableRecord
  2
*Paper_Space0
340
26
  0
BLOCK_RECORD
  5
272
330
1
100
AcDbSymbolTableRecord
100
AcDbBlockTableRecord
  2
_D
340
0
  0
BLOCK_RECORD
  5
285
330
1
100
AcDbSymbolTableRecord
100
AcDbBlockTableRecord
  2
_D_1
340
0
  0
BLOCK_RECORD
  5
298
330
1
100
AcDbSymbolTableRecord
100
AcDbBlockTableRecord
  2
_D_2
340
0
  0
BLOCK_RECORD
  5
2AB
330
1
100
AcDbSymbolTableRecord
100
AcDbBlockTableRecord
  2
_D_3
340
0
  0
BLOCK_RECORD
  5
2BF
330
1
100
AcDbSymbolTableRecord
100
AcDbBlockTableRecord
  2
_D_4
340
0
  0
BLOCK_RECORD
  5
2CA
330
1
100
AcDbSymbolTableRecord
100
AcDbBlockTableRecord
  2
_D_5
340
0
  0
BLOCK_RECORD
  5
2DE
330
1
100
AcDbSymbolTableRecord
100
AcDbBlockTableRecord
  2
_D_6
340
0
  0
BLOCK_RECORD
  5
2F0
330
1
100
AcDbSymbolTableRecord
100
AcDbBlockTableRecord
  2
_D_7
340
0
  0
BLOCK_RECORD
  5
303
330
1
100
AcDbSymbolTableRecord
100
AcDbBlockTableRecord
  2
_D_8
340
0
  0
BLOCK_RECORD
  5
316
330
1
100
AcDbSymbolTableRecord
100
AcDbBlockTableRecord
  2
_D_9
340
0
  0
BLOCK_RECORD
  5
32A
330
1
100
AcDbSymbolTableRecord
100
AcDbBlockTableRecord
  2
_D_10
340
0
  0
BLOCK_RECORD
  5
336
330
1
100
AcDbSymbolTableRecord
100
AcDbBlockTableRecord
  2
_D_11
340
0
  0
BLOCK_RECORD
  5
341
330
1
100
AcDbSymbolTableRecord
100
AcDbBlockTableRecord
  2
_D_12
340
0
  0
ENDTAB
  0
ENDSEC
  0
SECTION
  2
BLOCKS
  0
BLOCK
  5
20
330
1F
100
AcDbEntity
  8
0
100
AcDbBlockBegin
  2
*Model_Space
 70
     0
 10
0.0
 20
0.0
 30
0.0
  3
*Model_Space
  1

  0
ENDBLK
  5
21
330
1F
100
AcDbEntity
  8
0
100
AcDbBlockEnd
  0
BLOCK
  5
1C
330
1B
100
AcDbEntity
 67
     1
  8
0
100
AcDbBlockBegin
  2
*Paper_Space
 70
     0
 10
0.0
 20
0.0
 30
0.0
  3
*Paper_Space
  1

  0
ENDBLK
  5
1D
330
1B
100
AcDbEntity
 67
     1
  8
0
100
AcDbBlockEnd
  0
BLOCK
  5
24
330
23
100
AcDbEntity
  8
0
100
AcDbBlockBegin
  2
*Paper_Space0
 70
     0
 10
0.0
 20
0.0
 30
0.0
  3
*Paper_Space0
  1

  0
ENDBLK
  5
25
330
23
100
AcDbEntity
  8
0
100
AcDbBlockEnd
  0
BLOCK
  5
273
330
272
100
AcDbEntity
  8
0
100
AcDbBlockBegin
  2
_D
 70
     0
 10
0.0
 20
0.0
 30
0.0
  3
_D
  1

  0
SOLID
  5
275
330
272
100
AcDbEntity
  8
2
100
AcDbTrace
 10
0.0
 20
66.0873211661
 30
0.0
 11
3.302
 21
65.5793211661
 31
0.0
 12
3.302
 22
66.5953211661
 32
0.0
 13
3.302
 23
66.5953211661
 33
0.0
  0
SOLID
  5
276
330
272
100
AcDbEntity
  8
2
100
AcDbTrace
 10
80.0
 20
66.0873211661
 30
0.0
 11
76.698
 21
66.5953211661
 31
0.0
 12
76.698
 22
65.5793211661
 32
0.0
 13
76.698
 23
65.5793211661
 33
0.0
  0
LINE
  5
277
330
272
100
AcDbEntity
  8
2
100
AcDbLine
 10
30.7521522961
 20
76.8802028822
 30
0.0
 11
29.6857460387
 21
76.8802028822
 31
0.0
  0
LINE
  5
278
330
272
100
AcDbEntity
  8
2
100
AcDbLine
 10
29.6857460387
 20
76.8802028822
 30
0.0
 11
29.6857460387
 21
71.3239528911
 31
0.0
  0
LINE
  5
279
330
272
100
AcDbEntity
  8
2
100
AcDbLine
 10
29.6857460387
 20
71.3239528911
 30
0.0
 11
30.7521522961
 21
71.3239528911
 31
0.0
  0
LINE
  5
27A
330
272
100
AcDbEntity
  8
2
100
AcDbLine
 10
39.803541357
 20
76.8802028822
 30
0.0
 11
40.8699476145
 21
76.8802028822
 31
0.0
  0
LINE
  5
27B
330
272
100
AcDbEntity
  8
2
100
AcDbLine
 10
40.8699476145
 20
76.8802028822
 30
0.0
 11
40.8699476145
 21
71.3239528911
 31
0.0
  0
LINE
  5
27C
330
272
100
AcDbEntity
  8
2
100
AcDbLine
 10
40.8699476145
 20
71.3239528911
 30
0.0
 11
39.803541357
 21
71.3239528911
 31
0.0
  0
LINE
  5
27D
330
272
100
AcDbEntity
  8
2
100
AcDbLine
 10
0.0
 20
35.925
 30
0.0
 11
0.0
 21
67.0873211661
 31
0.0
  0
LINE
  5
27E
330
272
100
AcDbEntity
  8
2
100
AcDbLine
 10
80.0
 20
19.0
 30
0.0
 11
80.0
 21
67.0873211661
 31
0.0
  0
LINE
  5
27F
330
272
100
AcDbEntity
  8
2
100
AcDbLine
 10
0.0
 20
66.0873211661
 30
0.0
 11
80.0
 21
66.0873211661
 31
0.0
  0
MTEXT
  5
280
330
272
100
AcDbEntity
  8
2
100
AcDbMText
 10
28.6387841845
 20
70.652530432
 30
0.0
 40
3.5
 41
0.0
 71
     1
 72
     1
  1

  7
SLDTEXTSTYLE0
 73
     1
 44
1.0
  0
MTEXT
  5
281
330
272
100
AcDbEntity
  8
2
100
AcDbMText
 10
30.7521522961
 20
75.8356898057
 30
0.0
 40
3.5
 41
0.0
 71
     1
 72
     1
  1
3,15
  7
SLDTEXTSTYLE0
 73
     1
 44
1.0
  0
MTEXT
  5
282
330
272
100
AcDbEntity
  8
2
100
AcDbMText
 10
32.6917356331
 20
70.5990582553
 30
0.0
 40
3.5
 41
0.0
 71
     1
 72
     1
  1
80
  7
SLDTEXTSTYLE0
 73
     1
 44
1.0
  0
MTEXT
  5
283
330
272
100
AcDbEntity
  8
2
100
AcDbMText
 10
43.2488539884
 20
70.652530432
 30
0.0
 40
3.5
 41
0.0
 71
     1
 72
     1
  1

  7
SLDTEXTSTYLE0
 73
     1
 44
1.0
  0
ENDBLK
  5
274
330
272
100
AcDbEntity
  8
0
100
AcDbBlockEnd
  0
BLOCK
  5
286
330
285
100
AcDbEntity
  8
0
100
AcDbBlockBegin
  2
_D_1
 70
     0
 10
0.0
 20
0.0
 30
0.0
  3
_D_1
  1

  0
SOLID
  5
288
330
285
100
AcDbEntity
  8
SK2
100
AcDbTrace
 10
19.05
 20
53.6673048475
 30
0.0
 11
22.352
 21
53.1593048475
 31
0.0
 12
22.352
 22
54.1753048475
 32
0.0
 13
22.352
 23
54.1753048475
 33
0.0
  0
SOLID
  5
289
330
285
100
AcDbEntity
  8
SK2
100
AcDbTrace
 10
80.0
 20
53.6673048475
 30
0.0
 11
76.698
 21
54.1753048475
 31
0.0
 12
76.698
 22
53.1593048475
 32
0.0
 13
76.698
 23
53.1593048475
 33
0.0
  0
LINE
  5
28A
330
285
100
AcDbEntity
  8
SK2
100
AcDbLine
 10
50.9517392758
 20
64.4601865636
 30
0.0
 11
49.8853330184
 21
64.4601865636
 31
0.0
  0
LINE
  5
28B
330
285
100
AcDbEntity
  8
SK2
100
AcDbLine
 10
49.8853330184
 20
64.4601865636
 30
0.0
 11
49.8853330184
 21
58.9039365725
 31
0.0
  0
LINE
  5
28C
330
285
100
AcDbEntity
  8
SK2
100
AcDbLine
 10
49.8853330184
 20
58.9039365725
 30
0.0
 11
50.9517392758
 21
58.9039365725
 31
0.0
  0
LINE
  5
28D
330
285
100
AcDbEntity
  8
SK2
100
AcDbLine
 10
60.0031283368
 20
64.4601865636
 30
0.0
 11
61.0695345942
 21
64.4601865636
 31
0.0
  0
LINE
  5
28E
330
285
100
AcDbEntity
  8
SK2
100
AcDbLine
 10
61.0695345942
 20
64.4601865636
 30
0.0
 11
61.0695345942
 21
58.9039365725
 31
0.0
  0
LINE
  5
28F
330
285
100
AcDbEntity
  8
SK2
100
AcDbLine
 10
61.0695345942
 20
58.9039365725
 30
0.0
 11
60.0031283368
 21
58.9039365725
 31
0.0
  0
LINE
  5
290
330
285
100
AcDbEntity
  8
SK2
100
AcDbLine
 10
19.05
 20
47.5560855313
 30
0.0
 11
19.05
 21
54.6673048475
 31
0.0
  0
LINE
  5
291
330
285
100
AcDbEntity
  8
SK2
100
AcDbLine
 10
80.0
 20
19.0
 30
0.0
 11
80.0
 21
54.6673048475
 31
0.0
  0
LINE
  5
292
330
285
100
AcDbEntity
  8
SK2
100
AcDbLine
 10
19.05
 20
53.6673048475
 30
0.0
 11
80.0
 21
53.6673048475
 31
0.0
  0
MTEXT
  5
293
330
285
100
AcDbEntity
  8
SK2
100
AcDbMText
 10
48.8383711642
 20
58.2325141134
 30
0.0
 40
3.5
 41
0.0
 71
     1
 72
     1
  1

  7
SLDTEXTSTYLE0
 73
     1
 44
1.0
  0
MTEXT
  5
294
330
285
100
AcDbEntity
  8
SK2
100
AcDbMText
 10
50.9517392758
 20
63.4156734871
 30
0.0
 40
3.5
 41
0.0
 71
     1
 72
     1
  1
2,40
  7
SLDTEXTSTYLE0
 73
     1
 44
1.0
  0
MTEXT
  5
295
330
285
100
AcDbEntity
  8
SK2
100
AcDbMText
 10
49.6586835627
 20
58.1790419367
 30
0.0
 40
3.5
 41
0.0
 71
     1
 72
     1
  1
60,95
  7
SLDTEXTSTYLE0
 73
     1
 44
1.0
  0
MTEXT
  5
296
330
285
100
AcDbEntity
  8
SK2
100
AcDbMText
 10
63.4484409681
 20
58.2325141134
 30
0.0
 40
3.5
 41
0.0
 71
     1
 72
     1
  1

  7
SLDTEXTSTYLE0
 73
     1
 44
1.0
  0
ENDBLK
  5
287
330
285
100
AcDbEntity
  8
0
100
AcDbBlockEnd
  0
BLOCK
  5
299
330
298
100
AcDbEntity
  8
0
100
AcDbBlockBegin
  2
_D_2
 70
     0
 10
0.0
 20
0.0
 30
0.0
  3
_D_2
  1

  0
SOLID
  5
29B
330
298
100
AcDbEntity
  8
SK2
100
AcDbTrace
 10
65.2
 20
29.2367232977
 30
0.0
 11
68.502
 21
28.7287232977
 31
0.0
 12
68.502
 22
29.7447232977
 32
0.0
 13
68.502
 23
29.7447232977
 33
0.0
  0
SOLID
  5
29C
330
298
100
AcDbEntity
  8
SK2
100
AcDbTrace
 10
80.0
 20
29.2367232977
 30
0.0
 11
76.698
 21
29.7447232977
 31
0.0
 12
76.698
 22
28.7287232977
 32
0.0
 13
76.698
 23
28.7287232977
 33
0.0
  0
LINE
  5
29D
330
298
100
AcDbEntity
  8
SK2
100
AcDbLine
 10
68.694619731
 20
40.0296050138
 30
0.0
 11
67.6282134736
 21
40.0296050138
 31
0.0
  0
LINE
  5
29E
330
298
100
AcDbEntity
  8
SK2
100
AcDbLine
 10
67.6282134736
 20
40.0296050138
 30
0.0
 11
67.6282134736
 21
34.4733550227
 31
0.0
  0
LINE
  5
29F
330
298
100
AcDbEntity
  8
SK2
100
AcDbLine
 10
67.6282134736
 20
34.4733550227
 30
0.0
 11
68.694619731
 21
34.4733550227
 31
0.0
  0
LINE
  5
2A0
330
298
100
AcDbEntity
  8
SK2
100
AcDbLine
 10
77.7460087919
 20
40.0296050138
 30
0.0
 11
78.8124150494
 21
40.0296050138
 31
0.0
  0
LINE
  5
2A1
330
298
100
AcDbEntity
  8
SK2
100
AcDbLine
 10
78.8124150494
 20
40.0296050138
 30
0.0
 11
78.8124150494
 21
34.4733550227
 31
0.0
  0
LINE
  5
2A2
330
298
100
AcDbEntity
  8
SK2
100
AcDbLine
 10
78.8124150494
 20
34.4733550227
 30
0.0
 11
77.7460087919
 21
34.4733550227
 31
0.0
  0
LINE
  5
2A3
330
298
100
AcDbEntity
  8
SK2
100
AcDbLine
 10
65.2
 20
21.45
 30
0.0
 11
65.2
 21
30.2367232977
 31
0.0
  0
LINE
  5
2A4
330
298
100
AcDbEntity
  8
SK2
100
AcDbLine
 10
80.0
 20
19.0
 30
0.0
 11
80.0
 21
30.2367232977
 31
0.0
  0
LINE
  5
2A5
330
298
100
AcDbEntity
  8
SK2
100
AcDbLine
 10
65.2
 20
29.2367232977
 30
0.0
 11
80.0
 21
29.2367232977
 31
0.0
  0
MTEXT
  5
2A6
330
298
100
AcDbEntity
  8
SK2
100
AcDbMText
 10
66.5812516193
 20
33.8019325636
 30
0.0
 40
3.5
 41
0.0
 71
     1
 72
     1
  1

  7
SLDTEXTSTYLE0
 73
     1
 44
1.0
  0
MTEXT
  5
2A7
330
298
100
AcDbEntity
  8
SK2
100
AcDbMText
 10
68.694619731
 20
38.9850919373
 30
0.0
 40
3.5
 41
0.0
 71
     1
 72
     1
  1
0,58
  7
SLDTEXTSTYLE0
 73
     1
 44
1.0
  0
MTEXT
  5
2A8
330
298
100
AcDbEntity
  8
SK2
100
AcDbMText
 10
68.694619731
 20
33.7484603869
 30
0.0
 40
3.5
 41
0.0
 71
     1
 72
     1
  1
14,8
  7
SLDTEXTSTYLE0
 73
     1
 44
1.0
  0
MTEXT
  5
2A9
330
298
100
AcDbEntity
  8
SK2
100
AcDbMText
 10
81.1913214232
 20
33.8019325636
 30
0.0
 40
3.5
 41
0.0
 71
     1
 72
     1
  1

  7
SLDTEXTSTYLE0
 73
     1
 44
1.0
  0
ENDBLK
  5
29A
330
298
100
AcDbEntity
  8
0
100
AcDbBlockEnd
  0
BLOCK
  5
2AC
330
2AB
100
AcDbEntity
  8
0
100
AcDbBlockBegin
  2
_D_3
 70
     0
 10
0.0
 20
0.0
 30
0.0
  3
_D_3
  1

  0
SOLID
  5
2AE
330
2AB
100
AcDbEntity
  8
SK2
100
AcDbTrace
 10
42.8
 20
29.2367232977
 30
0.0
 11
46.102
 21
28.7287232977
 31
0.0
 12
46.102
 22
29.7447232977
 32
0.0
 13
46.102
 23
29.7447232977
 33
0.0
  0
SOLID
  5
2AF
330
2AB
100
AcDbEntity
  8
SK2
100
AcDbTrace
 10
65.2
 20
29.2367232977
 30
0.0
 11
61.898
 21
29.7447232977
 31
0.0
 12
61.898
 22
28.7287232977
 32
0.0
 13
61.898
 23
28.7287232977
 33
0.0
  0
LINE
  5
2B0
330
2AB
100
AcDbEntity
  8
SK2
100
AcDbLine
 10
48.3585490555
 20
40.0296050138
 30
0.0
 11
47.292142798
 21
40.0296050138
 31
0.0
  0
LINE
  5
2B1
330
2AB
100
AcDbEntity
  8
SK2
100
AcDbLine
 10
47.292142798
 20
40.0296050138
 30
0.0
 11
47.292142798
 21
34.4733550227
 31
0.0
  0
LINE
  5
2B2
330
2AB
100
AcDbEntity
  8
SK2
100
AcDbLine
 10
47.292142798
 20
34.4733550227
 30
0.0
 11
48.3585490555
 21
34.4733550227
 31
0.0
  0
LINE
  5
2B3
330
2AB
100
AcDbEntity
  8
SK2
100
AcDbLine
 10
57.4099381164
 20
40.0296050138
 30
0.0
 11
58.4763443738
 21
40.0296050138
 31
0.0
  0
LINE
  5
2B4
330
2AB
100
AcDbEntity
  8
SK2
100
AcDbLine
 10
58.4763443738
 20
40.0296050138
 30
0.0
 11
58.4763443738
 21
34.4733550227
 31
0.0
  0
LINE
  5
2B5
330
2AB
100
AcDbEntity
  8
SK2
100
AcDbLine
 10
58.4763443738
 20
34.4733550227
 30
0.0
 11
57.4099381164
 21
34.4733550227
 31
0.0
  0
LINE
  5
2B6
330
2AB
100
AcDbEntity
  8
SK2
100
AcDbLine
 10
42.8
 20
21.45
 30
0.0
 11
42.8
 21
30.2367232977
 31
0.0
  0
LINE
  5
2B7
330
2AB
100
AcDbEntity
  8
SK2
100
AcDbLine
 10
65.2
 20
21.45
 30
0.0
 11
65.2
 21
30.2367232977
 31
0.0
  0
LINE
  5
2B8
330
2AB
100
AcDbEntity
  8
SK2
100
AcDbLine
 10
42.8
 20
29.2367232977
 30
0.0
 11
65.2
 21
29.2367232977
 31
0.0
  0
MTEXT
  5
2B9
330
2AB
100
AcDbEntity
  8
SK2
100
AcDbMText
 10
46.2451809438
 20
33.8019325636
 30
0.0
 40
3.5
 41
0.0
 71
     1
 72
     1
  1

  7
SLDTEXTSTYLE0
 73
     1
 44
1.0
  0
MTEXT
  5
2BA
330
2AB
100
AcDbEntity
  8
SK2
100
AcDbMText
 10
48.3585490555
 20
38.9850919373
 30
0.0
 40
3.5
 41
0.0
 71
     1
 72
     1
  1
0,88
  7
SLDTEXTSTYLE0
 73
     1
 44
1.0
  0
MTEXT
  5
2BB
330
2AB
100
AcDbEntity
  8
SK2
100
AcDbMText
 10
48.3585490555
 20
33.7484603869
 30
0.0
 40
3.5
 41
0.0
 71
     1
 72
     1
  1
22,4
  7
SLDTEXTSTYLE0
 73
     1
 44
1.0
  0
MTEXT
  5
2BC
330
2AB
100
AcDbEntity
  8
SK2
100
AcDbMText
 10
60.8552507477
 20
33.8019325636
 30
0.0
 40
3.5
 41
0.0
 71
     1
 72
     1
  1

  7
SLDTEXTSTYLE0
 73
     1
 44
1.0
  0
ENDBLK
  5
2AD
330
2AB
100
AcDbEntity
  8
0
100
AcDbBlockEnd
  0
BLOCK
  5
2C0
330
2BF
100
AcDbEntity
  8
0
100
AcDbBlockBegin
  2
_D_4
 70
     0
 10
0.0
 20
0.0
 30
0.0
  3
_D_4
  1

  0
SOLID
  5
2C2
330
2BF
100
AcDbEntity
  8
SK2
100
AcDbTrace
 10
0.0
 20
53.6673048475
 30
0.0
 11
3.302
 21
53.1593048475
 31
0.0
 12
3.302
 22
54.1753048475
 32
0.0
 13
3.302
 23
54.1753048475
 33
0.0
  0
SOLID
  5
2C3
330
2BF
100
AcDbEntity
  8
SK2
100
AcDbTrace
 10
19.05
 20
53.6673048475
 30
0.0
 11
15.748
 21
54.1753048475
 31
0.0
 12
15.748
 22
53.1593048475
 32
0.0
 13
15.748
 23
53.1593048475
 33
0.0
  0
LINE
  5
2C4
330
2BF
100
AcDbEntity
  8
SK2
100
AcDbLine
 10
0.0
 20
35.925
 30
0.0
 11
0.0
 21
54.6673048475
 31
0.0
  0
LINE
  5
2C5
330
2BF
100
AcDbEntity
  8
SK2
100
AcDbLine
 10
19.05
 20
47.5560855313
 30
0.0
 11
19.05
 21
54.6673048475
 31
0.0
  0
LINE
  5
2C6
330
2BF
100
AcDbEntity
  8
SK2
100
AcDbLine
 10
0.0
 20
53.6673048475
 30
0.0
 11
19.05
 21
53.6673048475
 31
0.0
  0
MTEXT
  5
2C7
330
2BF
100
AcDbEntity
  8
SK2
100
AcDbMText
 10
5.4379657713
 20
58.1790417621
 30
0.0
 40
3.5
 41
0.0
 71
     1
 72
     1
  1
19,05
  7
SLDTEXTSTYLE0
 73
     1
 44
1.0
  0
ENDBLK
  5
2C1
330
2BF
100
AcDbEntity
  8
0
100
AcDbBlockEnd
  0
BLOCK
  5
2CB
330
2CA
100
AcDbEntity
  8
0
100
AcDbBlockBegin
  2
_D_5
 70
     0
 10
0.0
 20
0.0
 30
0.0
  3
_D_5
  1

  0
SOLID
  5
2CD
330
2CA
100
AcDbEntity
  8
SK2
100
AcDbTrace
 10
94.9182977628
 20
10.0
 30
0.0
 11
95.4262977628
 21
13.302
 31
0.0
 12
94.4102977628
 22
13.302
 32
0.0
 13
94.4102977628
 23
13.302
 33
0.0
  0
SOLID
  5
2CE
330
2CA
100
AcDbEntity
  8
SK2
100
AcDbTrace
 10
94.9182977628
 20
-10.0
 30
0.0
 11
94.4102977628
 21
-13.302
 31
0.0
 12
95.4262977628
 22
-13.302
 32
0.0
 13
95.4262977628
 23
-13.302
 33
0.0
  0
LINE
  5
2CF
330
2CA
100
AcDbEntity
  8
SK2
100
AcDbLine
 10
84.1254160468
 20
-5.7235778219
 30
0.0
 11
84.1254160468
 21
-6.7899840793
 31
0.0
  0
LINE
  5
2D0
330
2CA
100
AcDbEntity
  8
SK2
100
AcDbLine
 10
84.1254160468
 20
-6.7899840793
 30
0.0
 11
89.6816660379
 21
-6.7899840793
 31
0.0
  0
LINE
  5
2D1
330
2CA
100
AcDbEntity
  8
SK2
100
AcDbLine
 10
89.6816660379
 20
-6.7899840793
 30
0.0
 11
89.6816660379
 21
-5.7235778219
 31
0.0
  0
LINE
  5
2D2
330
2CA
100
AcDbEntity
  8
SK2
100
AcDbLine
 10
84.1254160468
 20
5.9139226654
 30
0.0
 11
84.1254160468
 21
6.9803289228
 31
0.0
  0
LINE
  5
2D3
330
2CA
100
AcDbEntity
  8
SK2
100
AcDbLine
 10
84.1254160468
 20
6.9803289228
 30
0.0
 11
89.6816660379
 21
6.9803289228
 31
0.0
  0
LINE
  5
2D4
330
2CA
100
AcDbEntity
  8
SK2
100
AcDbLine
 10
89.6816660379
 20
6.9803289228
 30
0.0
 11
89.6816660379
 21
5.9139226654
 31
0.0
  0
LINE
  5
2D5
330
2CA
100
AcDbEntity
  8
SK2
100
AcDbLine
 10
79.0947441117
 20
10.0
 30
0.0
 11
95.9182977628
 21
10.0
 31
0.0
  0
LINE
  5
2D6
330
2CA
100
AcDbEntity
  8
SK2
100
AcDbLine
 10
79.0947441117
 20
-10.0
 30
0.0
 11
95.9182977628
 21
-10.0
 31
0.0
  0
LINE
  5
2D7
330
2CA
100
AcDbEntity
  8
SK2
100
AcDbLine
 10
94.9182977628
 20
10.0
 30
0.0
 11
94.9182977628
 21
16.35
 31
0.0
  0
LINE
  5
2D8
330
2CA
100
AcDbEntity
  8
SK2
100
AcDbLine
 10
94.9182977628
 20
10.0
 30
0.0
 11
94.9182977628
 21
-10.0
 31
0.0
  0
LINE
  5
2D9
330
2CA
100
AcDbEntity
  8
SK2
100
AcDbLine
 10
94.9182977628
 20
-10.0
 30
0.0
 11
94.9182977628
 21
-16.35
 31
0.0
  0
MTEXT
  5
2DA
330
2CA
100
AcDbEntity
  8
SK2
100
AcDbMText
 10
85.1699291233
 20
-5.7235778219
 30
0.0
 40
3.5
 41
0.0
 71
     1
 72
     1
  1
0,787
  7
SLDTEXTSTYLE0
 11
-7.044195017643634E-15
 21
1.0
 31
0.0
 73
     1
 44
1.0
  0
MTEXT
  5
2DB
330
2CA
100
AcDbEntity
  8
SK2
100
AcDbMText
 10
90.4065606736
 20
-5.1301581695
 30
0.0
 40
3.5
 41
0.0
 71
     1
 72
     1
  1
%%c
  7
SLDTEXTSTYLE0
 11
-7.044195017643634E-15
 21
1.0
 31
0.0
 73
     1
 44
1.0
  0
MTEXT
  5
2DC
330
2CA
100
AcDbEntity
  8
SK2
100
AcDbMText
 10
90.4065606736
 20
0.1482792289
 30
0.0
 40
3.5
 41
0.0
 71
     1
 72
     1
  1
20
  7
SLDTEXTSTYLE0
 11
-7.044195017643634E-15
 21
1.0
 31
0.0
 73
     1
 44
1.0
  0
ENDBLK
  5
2CC
330
2CA
100
AcDbEntity
  8
0
100
AcDbBlockEnd
  0
BLOCK
  5
2DF
330
2DE
100
AcDbEntity
  8
0
100
AcDbBlockBegin
  2
_D_6
 70
     0
 10
0.0
 20
0.0
 30
0.0
  3
_D_6
  1

  0
SOLID
  5
2E1
330
2DE
100
AcDbEntity
  8
SK2
100
AcDbTrace
 10
107.6793835706
 20
18.0
 30
0.0
 11
107.1713835706
 21
14.698
 31
0.0
 12
108.1873835706
 22
14.698
 32
0.0
 13
108.1873835706
 23
14.698
 33
0.0
  0
SOLID
  5
2E2
330
2DE
100
AcDbEntity
  8
SK2
100
AcDbTrace
 10
107.6793835706
 20
-18.0
 30
0.0
 11
108.1873835706
 21
-14.698
 31
0.0
 12
107.1713835706
 22
-14.698
 32
0.0
 13
107.1713835706
 23
-14.698
 33
0.0
  0
LINE
  5
2E3
330
2DE
100
AcDbEntity
  8
SK2
100
AcDbLine
 10
96.8865018546
 20
-4.4305225744
 30
0.0
 11
96.8865018546
 21
-5.4969288318
 31
0.0
  0
LINE
  5
2E4
330
2DE
100
AcDbEntity
  8
SK2
100
AcDbLine
 10
96.8865018546
 20
-5.4969288318
 30
0.0
 11
102.4427518457
 21
-5.4969288318
 31
0.0
  0
LINE
  5
2E5
330
2DE
100
AcDbEntity
  8
SK2
100
AcDbLine
 10
102.4427518457
 20
-5.4969288318
 30
0.0
 11
102.4427518457
 21
-4.4305225744
 31
0.0
  0
LINE
  5
2E6
330
2DE
100
AcDbEntity
  8
SK2
100
AcDbLine
 10
96.8865018546
 20
4.6208664865
 30
0.0
 11
96.8865018546
 21
5.687272744
 31
0.0
  0
LINE
  5
2E7
330
2DE
100
AcDbEntity
  8
SK2
100
AcDbLine
 10
96.8865018546
 20
5.687272744
 30
0.0
 11
102.4427518457
 21
5.687272744
 31
0.0
  0
LINE
  5
2E8
330
2DE
100
AcDbEntity
  8
SK2
100
AcDbLine
 10
102.4427518457
 20
5.687272744
 30
0.0
 11
102.4427518457
 21
4.6208664865
 31
0.0
  0
LINE
  5
2E9
330
2DE
100
AcDbEntity
  8
SK2
100
AcDbLine
 10
81.0
 20
18.0
 30
0.0
 11
108.6793835706
 21
18.0
 31
0.0
  0
LINE
  5
2EA
330
2DE
100
AcDbEntity
  8
SK2
100
AcDbLine
 10
81.0
 20
-18.0
 30
0.0
 11
108.6793835706
 21
-18.0
 31
0.0
  0
LINE
  5
2EB
330
2DE
100
AcDbEntity
  8
SK2
100
AcDbLine
 10
107.6793835706
 20
18.0
 30
0.0
 11
107.6793835706
 21
-18.0
 31
0.0
  0
MTEXT
  5
2EC
330
2DE
100
AcDbEntity
  8
SK2
100
AcDbMText
 10
97.9310149311
 20
-4.4305225744
 30
0.0
 40
3.5
 41
0.0
 71
     1
 72
     1
  1
1,42
  7
SLDTEXTSTYLE0
 11
-7.044195017643634E-15
 21
1.0
 31
0.0
 73
     1
 44
1.0
  0
MTEXT
  5
2ED
330
2DE
100
AcDbEntity
  8
SK2
100
AcDbMText
 10
103.1676464814
 20
-5.1301581695
 30
0.0
 40
3.5
 41
0.0
 71
     1
 72
     1
  1
%%c
  7
SLDTEXTSTYLE0
 11
-7.044195017643634E-15
 21
1.0
 31
0.0
 73
     1
 44
1.0
  0
MTEXT
  5
2EE
330
2DE
100
AcDbEntity
  8
SK2
100
AcDbMText
 10
103.1676464814
 20
0.1482792289
 30
0.0
 40
3.5
 41
0.0
 71
     1
 72
     1
  1
36
  7
SLDTEXTSTYLE0
 11
-7.044195017643634E-15
 21
1.0
 31
0.0
 73
     1
 44
1.0
  0
ENDBLK
  5
2E0
330
2DE
100
AcDbEntity
  8
0
100
AcDbBlockEnd
  0
BLOCK
  5
2F1
330
2F0
100
AcDbEntity
  8
0
100
AcDbBlockBegin
  2
_D_7
 70
     0
 10
0.0
 20
0.0
 30
0.0
  3
_D_7
  1

  0
SOLID
  5
2F3
330
2F0
100
AcDbEntity
  8
SK2
100
AcDbTrace
 10
122.5605278176
 20
20.0
 30
0.0
 11
122.0525278176
 21
16.698
 31
0.0
 12
123.0685278176
 22
16.698
 32
0.0
 13
123.0685278176
 23
16.698
 33
0.0
  0
SOLID
  5
2F4
330
2F0
100
AcDbEntity
  8
SK2
100
AcDbTrace
 10
122.5605278176
 20
-20.0
 30
0.0
 11
123.0685278176
 21
-16.698
 31
0.0
 12
122.0525278176
 22
-16.698
 32
0.0
 13
122.0525278176
 23
-16.698
 33
0.0
  0
LINE
  5
2F5
330
2F0
100
AcDbEntity
  8
SK2
100
AcDbLine
 10
111.7676461016
 20
-4.4305225744
 30
0.0
 11
111.7676461016
 21
-5.4969288318
 31
0.0
  0
LINE
  5
2F6
330
2F0
100
AcDbEntity
  8
SK2
100
AcDbLine
 10
111.7676461016
 20
-5.4969288318
 30
0.0
 11
117.3238960926
 21
-5.4969288318
 31
0.0
  0
LINE
  5
2F7
330
2F0
100
AcDbEntity
  8
SK2
100
AcDbLine
 10
117.3238960926
 20
-5.4969288318
 30
0.0
 11
117.3238960926
 21
-4.4305225744
 31
0.0
  0
LINE
  5
2F8
330
2F0
100
AcDbEntity
  8
SK2
100
AcDbLine
 10
111.7676461016
 20
4.6208664865
 30
0.0
 11
111.7676461016
 21
5.687272744
 31
0.0
  0
LINE
  5
2F9
330
2F0
100
AcDbEntity
  8
SK2
100
AcDbLine
 10
111.7676461016
 20
5.687272744
 30
0.0
 11
117.3238960926
 21
5.687272744
 31
0.0
  0
LINE
  5
2FA
330
2F0
100
AcDbEntity
  8
SK2
100
AcDbLine
 10
117.3238960926
 20
5.687272744
 30
0.0
 11
117.3238960926
 21
4.6208664865
 31
0.0
  0
LINE
  5
2FB
330
2F0
100
AcDbEntity
  8
SK2
100
AcDbLine
 10
79.0
 20
20.0
 30
0.0
 11
123.5605278176
 21
20.0
 31
0.0
  0
LINE
  5
2FC
330
2F0
100
AcDbEntity
  8
SK2
100
AcDbLine
 10
79.0
 20
-20.0
 30
0.0
 11
123.5605278176
 21
-20.0
 31
0.0
  0
LINE
  5
2FD
330
2F0
100
AcDbEntity
  8
SK2
100
AcDbLine
 10
122.5605278176
 20
20.0
 30
0.0
 11
122.5605278176
 21
-20.0
 31
0.0
  0
MTEXT
  5
2FE
330
2F0
100
AcDbEntity
  8
SK2
100
AcDbMText
 10
112.8121591781
 20
-4.4305225744
 30
0.0
 40
3.5
 41
0.0
 71
     1
 72
     1
  1
1,57
  7
SLDTEXTSTYLE0
 11
-7.044195017643634E-15
 21
1.0
 31
0.0
 73
     1
 44
1.0
  0
MTEXT
  5
2FF
330
2F0
100
AcDbEntity
  8
SK2
100
AcDbMText
 10
118.0487907284
 20
-5.1301581695
 30
0.0
 40
3.5
 41
0.0
 71
     1
 72
     1
  1
%%c
  7
SLDTEXTSTYLE0
 11
-7.044195017643634E-15
 21
1.0
 31
0.0
 73
     1
 44
1.0
  0
MTEXT
  5
300
330
2F0
100
AcDbEntity
  8
SK2
100
AcDbMText
 10
118.0487907284
 20
0.1482792289
 30
0.0
 40
3.5
 41
0.0
 71
     1
 72
     1
  1
40
  7
SLDTEXTSTYLE0
 11
-7.044195017643634E-15
 21
1.0
 31
0.0
 73
     1
 44
1.0
  0
ENDBLK
  5
2F2
330
2F0
100
AcDbEntity
  8
0
100
AcDbBlockEnd
  0
BLOCK
  5
304
330
303
100
AcDbEntity
  8
0
100
AcDbBlockBegin
  2
_D_8
 70
     0
 10
0.0
 20
0.0
 30
0.0
  3
_D_8
  1

  0
SOLID
  5
306
330
303
100
AcDbEntity
  8
SK2
100
AcDbTrace
 10
-101.6
 20
-66.2111870835
 30
0.0
 11
-98.298
 21
-66.7191870835
 31
0.0
 12
-98.298
 22
-65.7031870835
 32
0.0
 13
-98.298
 23
-65.7031870835
 33
0.0
  0
SOLID
  5
307
330
303
100
AcDbEntity
  8
SK2
100
AcDbTrace
 10
80.0
 20
-66.2111870835
 30
0.0
 11
76.698
 21
-65.7031870835
 31
0.0
 12
76.698
 22
-66.7191870835
 32
0.0
 13
76.698
 23
-66.7191870835
 33
0.0
  0
LINE
  5
308
330
303
100
AcDbEntity
  8
SK2
100
AcDbLine
 10
-11.8958062076
 20
-55.4183053675
 30
0.0
 11
-12.9622124651
 21
-55.4183053675
 31
0.0
  0
LINE
  5
309
330
303
100
AcDbEntity
  8
SK2
100
AcDbLine
 10
-12.9622124651
 20
-55.4183053675
 30
0.0
 11
-12.9622124651
 21
-60.9745553585
 31
0.0
  0
LINE
  5
30A
330
303
100
AcDbEntity
  8
SK2
100
AcDbLine
 10
-12.9622124651
 20
-60.9745553585
 30
0.0
 11
-11.8958062076
 21
-60.9745553585
 31
0.0
  0
LINE
  5
30B
330
303
100
AcDbEntity
  8
SK2
100
AcDbLine
 10
-0.2583057204
 20
-55.4183053675
 30
0.0
 11
0.8081005371
 21
-55.4183053675
 31
0.0
  0
LINE
  5
30C
330
303
100
AcDbEntity
  8
SK2
100
AcDbLine
 10
0.8081005371
 20
-55.4183053675
 30
0.0
 11
0.8081005371
 21
-60.9745553585
 31
0.0
  0
LINE
  5
30D
330
303
100
AcDbEntity
  8
SK2
100
AcDbLine
 10
0.8081005371
 20
-60.9745553585
 30
0.0
 11
-0.2583057204
 21
-60.9745553585
 31
0.0
  0
LINE
  5
30E
330
303
100
AcDbEntity
  8
SK2
100
AcDbLine
 10
-101.6
 20
-19.2922326599
 30
0.0
 11
-101.6
 21
-67.2111870835
 31
0.0
  0
LINE
  5
30F
330
303
100
AcDbEntity
  8
SK2
100
AcDbLine
 10
80.0
 20
-19.0
 30
0.0
 11
80.0
 21
-67.2111870835
 31
0.0
  0
LINE
  5
310
330
303
100
AcDbEntity
  8
SK2
100
AcDbLine
 10
-101.6
 20
-66.2111870835
 30
0.0
 11
80.0
 21
-66.2111870835
 31
0.0
  0
MTEXT
  5
311
330
303
100
AcDbEntity
  8
SK2
100
AcDbMText
 10
-14.0091743193
 20
-61.6459778177
 30
0.0
 40
3.5
 41
0.0
 71
     1
 72
     1
  1

  7
SLDTEXTSTYLE0
 73
     1
 44
1.0
  0
MTEXT
  5
312
330
303
100
AcDbEntity
  8
SK2
100
AcDbMText
 10
-11.8958062076
 20
-56.462818444
 30
0.0
 40
3.5
 41
0.0
 71
     1
 72
     1
  1
7,150
  7
SLDTEXTSTYLE0
 73
     1
 44
1.0
  0
MTEXT
  5
313
330
303
100
AcDbEntity
  8
SK2
100
AcDbMText
 10
-11.8958066733
 20
-61.6994499943
 30
0.0
 40
3.5
 41
0.0
 71
     1
 72
     1
  1
181,6
  7
SLDTEXTSTYLE0
 73
     1
 44
1.0
  0
MTEXT
  5
314
330
303
100
AcDbEntity
  8
SK2
100
AcDbMText
 10
3.1870059796
 20
-61.6459778177
 30
0.0
 40
3.5
 41
0.0
 71
     1
 72
     1
  1

  7
SLDTEXTSTYLE0
 73
     1
 44
1.0
  0
ENDBLK
  5
305
330
303
100
AcDbEntity
  8
0
100
AcDbBlockEnd
  0
BLOCK
  5
317
330
316
100
AcDbEntity
  8
0
100
AcDbBlockBegin
  2
_D_9
 70
     0
 10
0.0
 20
0.0
 30
0.0
  3
_D_9
  1

  0
SOLID
  5
319
330
316
100
AcDbEntity
  8
SK2
100
AcDbTrace
 10
31.5
 20
-43.6827502412
 30
0.0
 11
34.802
 21
-44.1907502412
 31
0.0
 12
34.802
 22
-43.1747502412
 32
0.0
 13
34.802
 23
-43.1747502412
 33
0.0
  0
SOLID
  5
31A
330
316
100
AcDbEntity
  8
SK2
100
AcDbTrace
 10
80.0
 20
-43.6827502412
 30
0.0
 11
76.698
 21
-43.1747502412
 31
0.0
 12
76.698
 22
-44.1907502412
 32
0.0
 13
76.698
 23
-44.1907502412
 33
0.0
  0
LINE
  5
31B
330
316
100
AcDbEntity
  8
SK2
100
AcDbLine
 10
50.9517392758
 20
-32.8898685251
 30
0.0
 11
49.8853330184
 21
-32.8898685251
 31
0.0
  0
LINE
  5
31C
330
316
100
AcDbEntity
  8
SK2
100
AcDbLine
 10
49.8853330184
 20
-32.8898685251
 30
0.0
 11
49.8853330184
 21
-38.4461185162
 31
0.0
  0
LINE
  5
31D
330
316
100
AcDbEntity
  8
SK2
100
AcDbLine
 10
49.8853330184
 20
-38.4461185162
 30
0.0
 11
50.9517392758
 21
-38.4461185162
 31
0.0
  0
LINE
  5
31E
330
316
100
AcDbEntity
  8
SK2
100
AcDbLine
 10
60.0031283368
 20
-32.8898685251
 30
0.0
 11
61.0695345942
 21
-32.8898685251
 31
0.0
  0
LINE
  5
31F
330
316
100
AcDbEntity
  8
SK2
100
AcDbLine
 10
61.0695345942
 20
-32.8898685251
 30
0.0
 11
61.0695345942
 21
-38.4461185162
 31
0.0
  0
LINE
  5
320
330
316
100
AcDbEntity
  8
SK2
100
AcDbLine
 10
61.0695345942
 20
-38.4461185162
 30
0.0
 11
60.0031283368
 21
-38.4461185162
 31
0.0
  0
LINE
  5
321
330
316
100
AcDbEntity
  8
SK2
100
AcDbLine
 10
31.5
 20
-11.25
 30
0.0
 11
31.5
 21
-44.6827502412
 31
0.0
  0
LINE
  5
322
330
316
100
AcDbEntity
  8
SK2
100
AcDbLine
 10
80.0
 20
-19.0
 30
0.0
 11
80.0
 21
-44.6827502412
 31
0.0
  0
LINE
  5
323
330
316
100
AcDbEntity
  8
SK2
100
AcDbLine
 10
31.5
 20
-43.6827502412
 30
0.0
 11
80.0
 21
-43.6827502412
 31
0.0
  0
MTEXT
  5
324
330
316
100
AcDbEntity
  8
SK2
100
AcDbMText
 10
48.8383711642
 20
-39.1175409753
 30
0.0
 40
3.5
 41
0.0
 71
     1
 72
     1
  1

  7
SLDTEXTSTYLE0
 73
     1
 44
1.0
  0
MTEXT
  5
325
330
316
100
AcDbEntity
  8
SK2
100
AcDbMText
 10
50.9517392758
 20
-33.9343816016
 30
0.0
 40
3.5
 41
0.0
 71
     1
 72
     1
  1
1,91
  7
SLDTEXTSTYLE0
 73
     1
 44
1.0
  0
MTEXT
  5
326
330
316
100
AcDbEntity
  8
SK2
100
AcDbMText
 10
50.9517392758
 20
-39.171013152
 30
0.0
 40
3.5
 41
0.0
 71
     1
 72
     1
  1
48,5
  7
SLDTEXTSTYLE0
 73
     1
 44
1.0
  0
MTEXT
  5
327
330
316
100
AcDbEntity
  8
SK2
100
AcDbMText
 10
63.4484409681
 20
-39.1175409753
 30
0.0
 40
3.5
 41
0.0
 71
     1
 72
     1
  1

  7
SLDTEXTSTYLE0
 73
     1
 44
1.0
  0
ENDBLK
  5
318
330
316
100
AcDbEntity
  8
0
100
AcDbBlockEnd
  0
BLOCK
  5
32B
330
32A
100
AcDbEntity
  8
0
100
AcDbBlockBegin
  2
_D_10
 70
     0
 10
0.0
 20
0.0
 30
0.0
  3
_D_10
  1

  0
SOLID
  5
32D
330
32A
100
AcDbEntity
  8
SK2
100
AcDbTrace
 10
78.0
 20
-31.962396189
 30
0.0
 11
74.698
 21
-31.454396189
 31
0.0
 12
74.698
 22
-32.470396189
 32
0.0
 13
74.698
 23
-32.470396189
 33
0.0
  0
SOLID
  5
32E
330
32A
100
AcDbEntity
  8
SK2
100
AcDbTrace
 10
80.0
 20
-31.962396189
 30
0.0
 11
83.302
 21
-32.470396189
 31
0.0
 12
83.302
 22
-31.454396189
 32
0.0
 13
83.302
 23
-31.454396189
 33
0.0
  0
LINE
  5
32F
330
32A
100
AcDbEntity
  8
SK2
100
AcDbLine
 10
78.0
 20
-21.0
 30
0.0
 11
78.0
 21
-32.962396189
 31
0.0
  0
LINE
  5
330
330
32A
100
AcDbEntity
  8
SK2
100
AcDbLine
 10
80.0
 20
-19.0
 30
0.0
 11
80.0
 21
-32.962396189
 31
0.0
  0
LINE
  5
331
330
32A
100
AcDbEntity
  8
SK2
100
AcDbLine
 10
78.0
 20
-31.962396189
 30
0.0
 11
69.6716804239
 21
-31.962396189
 31
0.0
  0
LINE
  5
332
330
32A
100
AcDbEntity
  8
SK2
100
AcDbLine
 10
78.0
 20
-31.962396189
 30
0.0
 11
80.0
 21
-31.962396189
 31
0.0
  0
LINE
  5
333
330
32A
100
AcDbEntity
  8
SK2
100
AcDbLine
 10
80.0
 20
-31.962396189
 30
0.0
 11
86.35
 21
-31.962396189
 31
0.0
  0
MTEXT
  5
334
330
32A
100
AcDbEntity
  8
SK2
100
AcDbMText
 10
69.6716804239
 20
-27.4506592744
 30
0.0
 40
3.5
 41
0.0
 71
     1
 72
     1
  1
2
  7
SLDTEXTSTYLE0
 73
     1
 44
1.0
  0
ENDBLK
  5
32C
330
32A
100
AcDbEntity
  8
0
100
AcDbBlockEnd
  0
BLOCK
  5
337
330
336
100
AcDbEntity
  8
0
100
AcDbBlockBegin
  2
_D_11
 70
     0
 10
0.0
 20
0.0
 30
0.0
  3
_D_11
  1

  0
SOLID
  5
339
330
336
100
AcDbEntity
  8
SK2
100
AcDbTrace
 10
-120.4985996012
 20
-47.4754841997
 30
0.0
 11
-119.9905996012
 21
-44.1734841997
 31
0.0
 12
-121.0065996012
 22
-44.1734841997
 32
0.0
 13
-121.0065996012
 23
-44.1734841997
 33
0.0
  0
SOLID
  5
33A
330
336
100
AcDbEntity
  8
SK2
100
AcDbTrace
 10
-120.4985996012
 20
47.2968145978
 30
0.0
 11
-121.0065996012
 21
43.9948145978
 31
0.0
 12
-119.9905996012
 22
43.9948145978
 32
0.0
 13
-119.9905996012
 23
43.9948145978
 33
0.0
  0
LINE
  5
33B
330
336
100
AcDbEntity
  8
SK2
100
AcDbLine
 10
2.95
 20
-47.4754841997
 30
0.0
 11
-121.4985996012
 21
-47.4754841997
 31
0.0
  0
LINE
  5
33C
330
336
100
AcDbEntity
  8
SK2
100
AcDbLine
 10
2.95
 20
47.2968145978
 30
0.0
 11
-121.4985996012
 21
47.2968145978
 31
0.0
  0
LINE
  5
33D
330
336
100
AcDbEntity
  8
SK2
100
AcDbLine
 10
-120.4985996012
 20
-47.4754841997
 30
0.0
 11
-120.4985996012
 21
47.2968145978
 31
0.0
  0
MTEXT
  5
33E
330
336
100
AcDbEntity
  8
SK2
100
AcDbMText
 10
-125.0103366904
 20
-8.3627969867
 30
0.0
 40
3.5
 41
0.0
 71
     1
 72
     1
  1
%%c
  7
SLDTEXTSTYLE0
 11
6.123233995736766E-17
 21
1.0
 31
0.0
 73
     1
 44
1.0
  0
MTEXT
  5
33F
330
336
100
AcDbEntity
  8
SK2
100
AcDbMText
 10
-125.0638088671
 20
-3.0843595884
 30
0.0
 40
3.5
 41
0.0
 71
     1
 72
     1
  1
98,42
  7
SLDTEXTSTYLE0
 11
6.123233995736766E-17
 21
1.0
 31
0.0
 73
     1
 44
1.0
  0
ENDBLK
  5
338
330
336
100
AcDbEntity
  8
0
100
AcDbBlockEnd
  0
BLOCK
  5
342
330
341
100
AcDbEntity
  8
0
100
AcDbBlockBegin
  2
_D_12
 70
     0
 10
0.0
 20
0.0
 30
0.0
  3
_D_12
  1

  0
SOLID
  5
344
330
341
100
AcDbEntity
  8
SK2
100
AcDbTrace
 10
-109.4894390853
 20
12.6999998465
 30
0.0
 11
-109.9974390853
 21
9.3979998465
 31
0.0
 12
-108.9814390853
 22
9.3979998465
 32
0.0
 13
-108.9814390853
 23
9.3979998465
 33
0.0
  0
SOLID
  5
345
330
341
100
AcDbEntity
  8
SK2
100
AcDbTrace
 10
-109.4894390853
 20
-12.6999998465
 30
0.0
 11
-108.9814390853
 21
-9.3979998465
 31
0.0
 12
-109.9974390853
 22
-9.3979998465
 32
0.0
 13
-109.9974390853
 23
-9.3979998465
 33
0.0
  0
LINE
  5
346
330
341
100
AcDbEntity
  8
SK2
100
AcDbLine
 10
-95.967097044
 20
12.6999998465
 30
0.0
 11
-110.4894390853
 21
12.6999998465
 31
0.0
  0
LINE
  5
347
330
341
100
AcDbEntity
  8
SK2
100
AcDbLine
 10
-95.967097044
 20
-12.6999998465
 30
0.0
 11
-110.4894390853
 21
-12.6999998465
 31
0.0
  0
LINE
  5
348
330
341
100
AcDbEntity
  8
SK2
100
AcDbLine
 10
-109.4894390853
 20
12.6999998465
 30
0.0
 11
-109.4894390853
 21
-12.6999998465
 31
0.0
  0
MTEXT
  5
34A
330
341
100
AcDbEntity
  8
SK2
100
AcDbMText
 10
-114.0011759999
 20
-10.3562175206
 30
0.0
 40
3.5
 41
0.0
 71
     1
 72
     1
  1
1 - 8 UNC
  7
SLDTEXTSTYLE1
 11
-7.044195017643634E-15
 21
1.0
 31
0.0
 73
     1
 44
1.0
  0
ENDBLK
  5
343
330
341
100
AcDbEntity
  8
0
100
AcDbBlockEnd
  0
ENDSEC
  0
SECTION
  2
ENTITIES
  0
LINE
  5
82
330
1F
100
AcDbEntity
  8
1
  6
SLD-Solid
370
    25
100
AcDbLine
 10
1.7476022729
 20
34.925
 30
0.0
 11
0.0
 21
34.925
 31
0.0
  0
LINE
  5
83
330
1F
100
AcDbEntity
  8
1
  6
SLD-Solid
370
    25
100
AcDbLine
 10
0.0
 20
-34.925
 30
0.0
 11
1.7476022729
 21
-34.925
 31
0.0
  0
LINE
  5
84
330
1F
100
AcDbEntity
  8
1
  6
SLD-Solid
370
    25
100
AcDbLine
 10
1.7476022729
 20
-34.925
 30
0.0
 11
2.1330363037
 21
-34.7452691597
 31
0.0
  0
LINE
  5
85
330
1F
100
AcDbEntity
  8
1
  6
SLD-Solid
370
    25
100
AcDbLine
 10
2.1330363037
 20
34.7452691597
 30
0.0
 11
1.7476022729
 21
34.925
 31
0.0
  0
LINE
  5
86
330
1F
100
AcDbEntity
  8
SK1
  6
SLD-Solid
370
    25
100
AcDbLine
 10
0.0
 20
34.925
 30
0.0
 11
-99.8030472773
 21
20.3702515116
 31
0.0
  0
LINE
  5
87
330
1F
100
AcDbEntity
  8
SK1
  6
SLD-Solid
370
    25
100
AcDbLine
 10
-99.8030472773
 20
-20.3702515116
 30
0.0
 11
0.0
 21
-34.925
 31
0.0
  0
LINE
  5
88
330
1F
100
AcDbEntity
  8
1
  6
SLD-Solid
370
    25
100
AcDbLine
 10
36.7525732258
 20
20.0
 30
0.0
 11
22.098
 21
20.0
 31
0.0
  0
LINE
  5
89
330
1F
100
AcDbEntity
  8
1
  6
SLD-Solid
370
    25
100
AcDbLine
 10
59.1525732258
 20
20.0
 30
0.0
 11
48.834911337
 21
20.0
 31
0.0
  0
LINE
  5
8A
330
1F
100
AcDbEntity
  8
1
  6
SLD-Solid
370
    25
100
AcDbLine
 10
78.0
 20
20.0
 30
0.0
 11
71.234911337
 21
20.0
 31
0.0
  0
LINE
  5
8B
330
1F
100
AcDbEntity
  8
1
  6
SLD-Solid
370
    25
100
AcDbLine
 10
72.2653394088
 20
-20.0
 30
0.0
 11
78.0
 21
-20.0
 31
0.0
  0
LINE
  5
8C
330
1F
100
AcDbEntity
  8
1
  6
SLD-Solid
370
    25
100
AcDbLine
 10
49.8552650386
 20
-20.0
 30
0.0
 11
58.1447349614
 21
-20.0
 31
0.0
  0
LINE
  5
8D
330
1F
100
AcDbEntity
  8
1
  6
SLD-Solid
370
    25
100
AcDbLine
 10
22.098
 20
-20.0
 30
0.0
 11
35.7346605912
 21
-20.0
 31
0.0
  0
LINE
  5
8E
330
1F
100
AcDbEntity
  8
1
  6
SLD-Solid
370
    25
100
AcDbLine
 10
78.0
 20
-20.0
 30
0.0
 11
80.0
 21
-18.0
 31
0.0
  0
LINE
  5
8F
330
1F
100
AcDbEntity
  8
1
  6
SLD-Solid
370
    25
100
AcDbLine
 10
80.0
 20
18.0
 30
0.0
 11
78.0
 21
20.0
 31
0.0
  0
LINE
  5
90
330
1F
100
AcDbEntity
  8
1
  6
SLD-Solid
370
    25
100
AcDbLine
 10
3.95
 20
-47.4754841997
 30
0.0
 11
7.5902766066
 21
-47.4754841997
 31
0.0
  0
LINE
  5
91
330
1F
100
AcDbEntity
  8
1
  6
SLD-Solid
370
    25
100
AcDbLine
 10
3.95
 20
47.2968145978
 30
0.0
 11
3.95
 21
-47.4754841997
 31
0.0
  0
LINE
  5
92
330
1F
100
AcDbEntity
  8
1
  6
SLD-Solid
370
    25
100
AcDbLine
 10
7.5902766066
 20
47.2968145978
 30
0.0
 11
3.95
 21
47.2968145978
 31
0.0
  0
LINE
  5
93
330
1F
100
AcDbEntity
  8
1
  6
SLD-Solid
370
    25
100
AcDbLine
 10
7.5902766066
 20
47.2968145978
 30
0.0
 11
7.5902766066
 21
-47.4754841997
 31
0.0
  0
LINE
  5
94
330
1F
100
AcDbEntity
  8
1
  6
SLD-Solid
370
    25
100
AcDbLine
 10
18.3
 20
-47.4754841997
 30
0.0
 11
18.3
 21
47.2968145978
 31
0.0
  0
LINE
  5
95
330
1F
100
AcDbEntity
  8
1
  6
SLD-Solid
370
    25
100
AcDbLine
 10
19.05
 20
46.5560855313
 30
0.0
 11
19.05
 21
-46.6976348437
 31
0.0
  0
LINE
  5
96
330
1F
100
AcDbEntity
  8
1
  6
SLD-Solid
370
    25
100
AcDbLine
 10
14.6397233934
 20
-47.4754841997
 30
0.0
 11
18.3
 21
-47.4754841997
 31
0.0
  0
LINE
  5
97
330
1F
100
AcDbEntity
  8
1
  6
SLD-Solid
370
    25
100
AcDbLine
 10
14.6397233934
 20
47.2968145978
 30
0.0
 11
14.6397233934
 21
-47.4754841997
 31
0.0
  0
LINE
  5
98
330
1F
100
AcDbEntity
  8
1
  6
SLD-Solid
370
    25
100
AcDbLine
 10
18.3
 20
47.2968145978
 30
0.0
 11
14.6397233934
 21
47.2968145978
 31
0.0
  0
LINE
  5
99
330
1F
100
AcDbEntity
  8
1
  6
SLD-Solid
370
    25
100
AcDbLine
 10
3.2
 20
-46.6976348437
 30
0.0
 11
3.2
 21
46.5560855313
 31
0.0
  0
LINE
  5
9A
330
1F
100
AcDbEntity
  8
1
  6
SLD-Solid
370
    25
100
AcDbLine
 10
13.03
 20
44.5790106634
 30
0.0
 11
13.03
 21
41.9871173317
 31
0.0
  0
LINE
  5
9B
330
1F
100
AcDbEntity
  8
1
  6
SLD-Solid
370
    25
100
AcDbLine
 10
13.03
 20
34.6324292339
 30
0.0
 11
13.03
 21
-44.5790106634
 31
0.0
  0
LINE
  5
9C
330
1F
100
AcDbEntity
  8
1
  6
SLD-Solid
370
    25
100
AcDbLine
 10
13.03
 20
41.453113616
 30
0.0
 11
13.03
 21
35.4316103884
 31
0.0
  0
LINE
  5
9D
330
1F
100
AcDbEntity
  8
1
  6
SLD-Solid
370
    25
100
AcDbLine
 10
9.2
 20
44.5790106634
 30
0.0
 11
9.2
 21
41.9587011964
 31
0.0
  0
LINE
  5
9E
330
1F
100
AcDbEntity
  8
1
  6
SLD-Solid
370
    25
100
AcDbLine
 10
9.2
 20
41.4830129515
 30
0.0
 11
9.2
 21
35.3885961177
 31
0.0
  0
LINE
  5
9F
330
1F
100
AcDbEntity
  8
1
  6
SLD-Solid
370
    25
100
AcDbLine
 10
9.2
 20
34.676688935
 30
0.0
 11
9.2
 21
-44.5790106634
 31
0.0
  0
LINE
  5
A0
330
1F
100
AcDbEntity
  8
1
  6
SLD-Solid
370
    25
100
AcDbLine
 10
12.28
 20
33.3554707167
 30
0.0
 11
12.28
 21
-43.7694359685
 31
0.0
  0
LINE
  5
A1
330
1F
100
AcDbEntity
  8
1
  6
SLD-Solid
370
    25
100
AcDbLine
 10
9.95
 20
33.3652595305
 30
0.0
 11
9.95
 21
-43.7694359685
 31
0.0
  0
LINE
  5
A2
330
1F
100
AcDbEntity
  8
1
  6
SLD-Solid
370
    25
100
AcDbLine
 10
9.95
 20
-43.7694359685
 30
0.0
 11
12.28
 21
-43.7694359685
 31
0.0
  0
LINE
  5
A3
330
1F
100
AcDbEntity
  8
1
  6
SLD-Solid
370
    25
100
AcDbLine
 10
0.0
 20
34.925
 30
0.0
 11
0.0
 21
-34.925
 31
0.0
  0
LINE
  5
A4
330
1F
100
AcDbEntity
  8
1
  6
SLD-Solid
370
    25
100
AcDbLine
 10
1.7476022729
 20
34.925
 30
0.0
 11
1.7476022729
 21
-34.925
 31
0.0
  0
LINE
  5
A5
330
1F
100
AcDbEntity
  8
1
  6
SLD-Solid
370
    25
100
AcDbLine
 10
9.2
 20
35.3885961177
 30
0.0
 11
9.2
 21
35.3683101782
 31
0.0
  0
LINE
  5
A6
330
1F
100
AcDbEntity
  8
1
  6
SLD-Solid
370
    25
100
AcDbLine
 10
13.03
 20
35.4113240881
 30
0.0
 11
13.03
 21
35.4316103884
 31
0.0
  0
LINE
  5
A7
330
1F
100
AcDbEntity
  8
1
  6
SLD-Solid
370
    25
100
AcDbLine
 10
9.95
 20
40.2901760725
 30
0.0
 11
9.95
 21
35.4888548114
 31
0.0
  0
LINE
  5
A8
330
1F
100
AcDbEntity
  8
1
  6
SLD-Solid
370
    25
100
AcDbLine
 10
12.28
 20
40.2834337913
 30
0.0
 11
12.28
 21
35.4978726362
 31
0.0
  0
LINE
  5
A9
330
1F
100
AcDbEntity
  8
1
  6
SLD-Solid
370
    25
100
AcDbLine
 10
9.2
 20
41.9587011964
 30
0.0
 11
9.2
 21
41.9345423913
 31
0.0
  0
LINE
  5
AA
330
1F
100
AcDbEntity
  8
1
  6
SLD-Solid
370
    25
100
AcDbLine
 10
13.03
 20
41.9629580968
 30
0.0
 11
13.03
 21
41.9871173317
 31
0.0
  0
LINE
  5
AB
330
1F
100
AcDbEntity
  8
SK1
  6
SLD-Solid
370
    25
100
AcDbLine
 10
-101.6
 20
-18.2922326599
 30
0.0
 11
-101.6
 21
18.2922326599
 31
0.0
  0
LINE
  5
AC
330
1F
100
AcDbEntity
  8
1
  6
SLD-Solid
370
    25
100
AcDbLine
 10
78.0
 20
20.0
 30
0.0
 11
78.0
 21
-20.0
 31
0.0
  0
LINE
  5
AD
330
1F
100
AcDbEntity
  8
1
  6
SLD-Solid
370
    25
100
AcDbLine
 10
80.0
 20
18.0
 30
0.0
 11
80.0
 21
-18.0
 31
0.0
  0
LINE
  5
AE
330
1F
100
AcDbEntity
  8
1
  6
SLD-Solid
370
    25
100
AcDbLine
 10
9.95
 20
43.7694359685
 30
0.0
 11
9.95
 21
41.7091381742
 31
0.0
  0
LINE
  5
AF
330
1F
100
AcDbEntity
  8
1
  6
SLD-Solid
370
    25
100
AcDbLine
 10
12.28
 20
43.7694359685
 30
0.0
 11
12.28
 21
41.714962274
 31
0.0
  0
LINE
  5
B0
330
1F
100
AcDbEntity
  8
1
  6
SLD-Solid
370
    25
100
AcDbLine
 10
9.95
 20
43.7694359685
 30
0.0
 11
12.28
 21
43.7694359685
 31
0.0
  0
LINE
  5
B1
330
1F
100
AcDbEntity
  8
1
  6
SLD-Solid
370
    25
100
AcDbLine
 10
2.1330363037
 20
34.7452691597
 30
0.0
 11
2.1330363037
 21
-34.7452691597
 31
0.0
  0
LINE
  5
B2
330
1F
100
AcDbEntity
  8
SK1
  6
SLD-Solid
370
    25
100
AcDbLine
 10
-99.8030472773
 20
0.0
 30
0.0
 11
-99.8030472773
 21
-20.3702515116
 31
0.0
  0
LINE
  5
B3
330
1F
100
AcDbEntity
  8
SK1
  6
SLD-Solid
370
    25
100
AcDbLine
 10
-99.8030472773
 20
20.3702515116
 30
0.0
 11
-99.8030472773
 21
0.0
 31
0.0
  0
LINE
  5
B4
330
1F
100
AcDbEntity
  8
1
  6
SLD-Solid
370
    25
100
AcDbLine
 10
22.098
 20
0.0
 30
0.0
 11
22.098
 21
-20.0
 31
0.0
  0
LINE
  5
B5
330
1F
100
AcDbEntity
  8
1
  6
SLD-Solid
370
    25
100
AcDbLine
 10
22.098
 20
20.0
 30
0.0
 11
22.098
 21
0.0
 31
0.0
  0
LINE
  5
B6
330
1F
100
AcDbEntity
  8
SK3
  6
SLD-Dashed
370
    18
100
AcDbLine
 10
6.4723069743
 20
-13.9015950424
 30
0.0
 11
6.3142161927
 21
-13.2694985628
 31
0.0
  0
LINE
  5
B7
330
1F
100
AcDbEntity
  8
SK3
  6
SLD-Dashed
370
    18
100
AcDbLine
 10
6.3142161927
 20
-13.2694985628
 30
0.0
 11
6.0693777048
 21
-12.6771190298
 31
0.0
  0
LINE
  5
B8
330
1F
100
AcDbEntity
  8
SK3
  6
SLD-Dashed
370
    18
100
AcDbLine
 10
6.0693777048
 20
-12.6771190298
 30
0.0
 11
5.7531756131
 21
-12.1616778279
 31
0.0
  0
LINE
  5
B9
330
1F
100
AcDbEntity
  8
SK3
  6
SLD-Dashed
370
    18
100
AcDbLine
 10
5.7531756131
 20
-12.1616778279
 30
0.0
 11
5.3854780579
 21
-11.7555620236
 31
0.0
  0
LINE
  5
BA
330
1F
100
AcDbEntity
  8
SK3
  6
SLD-Dashed
370
    18
100
AcDbLine
 10
5.3854780579
 20
-11.7555620236
 30
0.0
 11
4.989388829
 21
-11.4842893664
 31
0.0
  0
LINE
  5
BB
330
1F
100
AcDbEntity
  8
SK3
  6
SLD-Dashed
370
    18
100
AcDbLine
 10
4.989388829
 20
-11.4842893664
 30
0.0
 11
4.5897956693
 21
-11.364904915
 31
0.0
  0
LINE
  5
BC
330
1F
100
AcDbEntity
  8
SK3
  6
SLD-Dashed
370
    18
100
AcDbLine
 10
4.5897956693
 20
-11.364904915
 30
0.0
 11
4.2118064866
 21
-11.4049100337
 31
0.0
  0
LINE
  5
BD
330
1F
100
AcDbEntity
  8
SK3
  6
SLD-Dashed
370
    18
100
AcDbLine
 10
4.2118064866
 20
-11.4049100337
 30
0.0
 11
3.8791717315
 21
-11.6017910536
 31
0.0
  0
LINE
  5
BE
330
1F
100
AcDbEntity
  8
SK3
  6
SLD-Dashed
370
    18
100
AcDbLine
 10
3.8791717315
 20
-11.6017910536
 30
0.0
 11
3.6127920689
 21
-11.9431772162
 31
0.0
  0
LINE
  5
BF
330
1F
100
AcDbEntity
  8
SK3
  6
SLD-Dashed
370
    18
100
AcDbLine
 10
3.6127920689
 20
-11.9431772162
 30
0.0
 11
3.4294051127
 21
-12.4076179734
 31
0.0
  0
LINE
  5
C0
330
1F
100
AcDbEntity
  8
SK3
  6
SLD-Dashed
370
    18
100
AcDbLine
 10
3.4294051127
 20
-12.4076179734
 30
0.0
 11
3.3405337399
 21
-12.9659308043
 31
0.0
  0
LINE
  5
C1
330
1F
100
AcDbEntity
  8
SK3
  6
SLD-Dashed
370
    18
100
AcDbLine
 10
3.3405337399
 20
-12.9659308043
 30
0.0
 11
3.3517620655
 21
-13.5830348604
 31
0.0
  0
LINE
  5
C2
330
1F
100
AcDbEntity
  8
SK3
  6
SLD-Dashed
370
    18
100
AcDbLine
 10
3.3517620655
 20
-13.5830348604
 30
0.0
 11
3.4623845728
 21
-14.2201552244
 31
0.0
  0
LINE
  5
C3
330
1F
100
AcDbEntity
  8
SK3
  6
SLD-Dashed
370
    18
100
AcDbLine
 10
3.4623845728
 20
-14.2201552244
 30
0.0
 11
3.6654504425
 21
-14.8372592805
 31
0.0
  0
LINE
  5
C4
330
1F
100
AcDbEntity
  8
SK3
  6
SLD-Dashed
370
    18
100
AcDbLine
 10
3.6654504425
 20
-14.8372592805
 30
0.0
 11
3.9482002994
 21
-15.3955721114
 31
0.0
  0
LINE
  5
C5
330
1F
100
AcDbEntity
  8
SK3
  6
SLD-Dashed
370
    18
100
AcDbLine
 10
3.9482002994
 20
-15.3955721114
 30
0.0
 11
4.2928679301
 21
-15.8600128686
 31
0.0
  0
LINE
  5
C6
330
1F
100
AcDbEntity
  8
SK3
  6
SLD-Dashed
370
    18
100
AcDbLine
 10
4.2928679301
 20
-15.8600128686
 30
0.0
 11
4.6777965997
 21
-16.2013990312
 31
0.0
  0
LINE
  5
C7
330
1F
100
AcDbEntity
  8
SK3
  6
SLD-Dashed
370
    18
100
AcDbLine
 10
4.6777965997
 20
-16.2013990312
 30
0.0
 11
5.0787998242
 21
-16.3982800511
 31
0.0
  0
LINE
  5
C8
330
1F
100
AcDbEntity
  8
SK3
  6
SLD-Dashed
370
    18
100
AcDbLine
 10
5.0787998242
 20
-16.3982800511
 30
0.0
 11
5.4706810962
 21
-16.4382851698
 31
0.0
  0
LINE
  5
C9
330
1F
100
AcDbEntity
  8
SK3
  6
SLD-Dashed
370
    18
100
AcDbLine
 10
5.4706810962
 20
-16.4382851698
 30
0.0
 11
5.8288170743
 21
-16.3189007184
 31
0.0
  0
LINE
  5
CA
330
1F
100
AcDbEntity
  8
SK3
  6
SLD-Dashed
370
    18
100
AcDbLine
 10
5.8288170743
 20
-16.3189007184
 30
0.0
 11
6.1307047577
 21
-16.0476280612
 31
0.0
  0
LINE
  5
CB
330
1F
100
AcDbEntity
  8
SK3
  6
SLD-Dashed
370
    18
100
AcDbLine
 10
6.1307047577
 20
-16.0476280612
 30
0.0
 11
6.3573754331
 21
-15.6415122569
 31
0.0
  0
LINE
  5
CC
330
1F
100
AcDbEntity
  8
SK3
  6
SLD-Dashed
370
    18
100
AcDbLine
 10
6.3573754331
 20
-15.6415122569
 30
0.0
 11
6.4945865482
 21
-15.126071055
 31
0.0
  0
LINE
  5
CD
330
1F
100
AcDbEntity
  8
SK3
  6
SLD-Dashed
370
    18
100
AcDbLine
 10
6.4945865482
 20
-15.126071055
 30
0.0
 11
6.5337166241
 21
-14.533691522
 31
0.0
  0
LINE
  5
CE
330
1F
100
AcDbEntity
  8
SK3
  6
SLD-Dashed
370
    18
100
AcDbLine
 10
6.5337166241
 20
-14.533691522
 30
0.0
 11
6.4723069743
 21
-13.9015950424
 31
0.0
  0
LINE
  5
CF
330
1F
100
AcDbEntity
  8
SK3
  6
SLD-Dashed
370
    18
100
AcDbLine
 10
6.4545594773
 20
-13.8826166832
 30
0.0
 11
6.5127856003
 21
-14.5025060877
 31
0.0
  0
LINE
  5
D0
330
1F
100
AcDbEntity
  8
SK3
  6
SLD-Dashed
370
    18
100
AcDbLine
 10
6.5127856003
 20
-14.5025060877
 30
0.0
 11
6.4682345259
 21
-15.0801510537
 31
0.0
  0
LINE
  5
D1
330
1F
100
AcDbEntity
  8
SK3
  6
SLD-Dashed
370
    18
100
AcDbLine
 10
6.4682345259
 20
-15.0801510537
 30
0.0
 11
6.3239423361
 21
-15.5761860314
 31
0.0
  0
LINE
  5
D2
330
1F
100
AcDbEntity
  8
SK3
  6
SLD-Dashed
370
    18
100
AcDbLine
 10
6.3239423361
 20
-15.5761860314
 30
0.0
 11
6.0897423053
 21
-15.9568070568
 31
0.0
  0
LINE
  5
D3
330
1F
100
AcDbEntity
  8
SK3
  6
SLD-Dashed
370
    18
100
AcDbLine
 10
6.0897423053
 20
-15.9568070568
 30
0.0
 11
5.7815947785
 21
-16.1960754359
 31
0.0
  0
LINE
  5
D4
330
1F
100
AcDbEntity
  8
SK3
  6
SLD-Dashed
370
    18
100
AcDbLine
 10
5.7815947785
 20
-16.1960754359
 30
0.0
 11
5.4204995004
 21
-16.2776854242
 31
0.0
  0
LINE
  5
D5
330
1F
100
AcDbEntity
  8
SK3
  6
SLD-Dashed
370
    18
100
AcDbLine
 10
5.4204995004
 20
-16.2776854242
 30
0.0
 11
5.0310645175
 21
-16.1960754359
 31
0.0
  0
LINE
  5
D6
330
1F
100
AcDbEntity
  8
SK3
  6
SLD-Dashed
370
    18
100
AcDbLine
 10
5.0310645175
 20
-16.1960754359
 30
0.0
 11
4.6398291803
 21
-15.9568070568
 31
0.0
  0
LINE
  5
D7
330
1F
100
AcDbEntity
  8
SK3
  6
SLD-Dashed
370
    18
100
AcDbLine
 10
4.6398291803
 20
-15.9568070568
 30
0.0
 11
4.2734555305
 21
-15.5761860314
 31
0.0
  0
LINE
  5
D8
330
1F
100
AcDbEntity
  8
SK3
  6
SLD-Dashed
370
    18
100
AcDbLine
 10
4.2734555305
 20
-15.5761860314
 30
0.0
 11
3.9569113269
 21
-15.0801510537
 31
0.0
  0
LINE
  5
D9
330
1F
100
AcDbEntity
  8
SK3
  6
SLD-Dashed
370
    18
100
AcDbLine
 10
3.9569113269
 20
-15.0801510537
 30
0.0
 11
3.7117685337
 21
-14.5025060877
 31
0.0
  0
LINE
  5
DA
330
1F
100
AcDbEntity
  8
SK3
  6
SLD-Dashed
370
    18
100
AcDbLine
 10
3.7117685337
 20
-14.5025060877
 30
0.0
 11
3.5547332273
 21
-13.8826166832
 31
0.0
  0
LINE
  5
DB
330
1F
100
AcDbEntity
  8
SK3
  6
SLD-Dashed
370
    18
100
AcDbLine
 10
3.5547332273
 20
-13.8826166832
 30
0.0
 11
3.4965071043
 21
-13.2627272786
 31
0.0
  0
LINE
  5
DC
330
1F
100
AcDbEntity
  8
SK3
  6
SLD-Dashed
370
    18
100
AcDbLine
 10
3.4965071043
 20
-13.2627272786
 30
0.0
 11
3.5410581787
 21
-12.6850823126
 31
0.0
  0
LINE
  5
DD
330
1F
100
AcDbEntity
  8
SK3
  6
SLD-Dashed
370
    18
100
AcDbLine
 10
3.5410581787
 20
-12.6850823126
 30
0.0
 11
3.6853503685
 21
-12.1890473349
 31
0.0
  0
LINE
  5
DE
330
1F
100
AcDbEntity
  8
SK3
  6
SLD-Dashed
370
    18
100
AcDbLine
 10
3.6853503685
 20
-12.1890473349
 30
0.0
 11
3.9195503993
 21
-11.8084263096
 31
0.0
  0
LINE
  5
DF
330
1F
100
AcDbEntity
  8
SK3
  6
SLD-Dashed
370
    18
100
AcDbLine
 10
3.9195503993
 20
-11.8084263096
 30
0.0
 11
4.2276979261
 21
-11.5691579304
 31
0.0
  0
LINE
  5
E0
330
1F
100
AcDbEntity
  8
SK3
  6
SLD-Dashed
370
    18
100
AcDbLine
 10
4.2276979261
 20
-11.5691579304
 30
0.0
 11
4.5887932042
 21
-11.4875479421
 31
0.0
  0
LINE
  5
E1
330
1F
100
AcDbEntity
  8
SK3
  6
SLD-Dashed
370
    18
100
AcDbLine
 10
4.5887932042
 20
-11.4875479421
 30
0.0
 11
4.9782281871
 21
-11.5691579304
 31
0.0
  0
LINE
  5
E2
330
1F
100
AcDbEntity
  8
SK3
  6
SLD-Dashed
370
    18
100
AcDbLine
 10
4.9782281871
 20
-11.5691579304
 30
0.0
 11
5.3694635243
 21
-11.8084263096
 31
0.0
  0
LINE
  5
E3
330
1F
100
AcDbEntity
  8
SK3
  6
SLD-Dashed
370
    18
100
AcDbLine
 10
5.3694635243
 20
-11.8084263096
 30
0.0
 11
5.7358371741
 21
-12.1890473349
 31
0.0
  0
LINE
  5
E4
330
1F
100
AcDbEntity
  8
SK3
  6
SLD-Dashed
370
    18
100
AcDbLine
 10
5.7358371741
 20
-12.1890473349
 30
0.0
 11
6.0523813778
 21
-12.6850823126
 31
0.0
  0
LINE
  5
E5
330
1F
100
AcDbEntity
  8
SK3
  6
SLD-Dashed
370
    18
100
AcDbLine
 10
6.0523813778
 20
-12.6850823126
 30
0.0
 11
6.2975241709
 21
-13.2627272786
 31
0.0
  0
LINE
  5
E6
330
1F
100
AcDbEntity
  8
SK3
  6
SLD-Dashed
370
    18
100
AcDbLine
 10
6.2975241709
 20
-13.2627272786
 30
0.0
 11
6.4545594773
 21
-13.8826166832
 31
0.0
  0
LINE
  5
E7
330
1F
100
AcDbEntity
  8
SK3
  6
SLD-Dashed
370
    18
100
AcDbLine
 10
17.1792841073
 20
-11.0168048658
 30
0.0
 11
17.022248801
 21
-10.3969154613
 31
0.0
  0
LINE
  5
E8
330
1F
100
AcDbEntity
  8
SK3
  6
SLD-Dashed
370
    18
100
AcDbLine
 10
17.022248801
 20
-10.3969154613
 30
0.0
 11
16.7771060078
 21
-9.8192704952
 31
0.0
  0
LINE
  5
E9
330
1F
100
AcDbEntity
  8
SK3
  6
SLD-Dashed
370
    18
100
AcDbLine
 10
16.7771060078
 20
-9.8192704952
 30
0.0
 11
16.4605618041
 21
-9.3232355176
 31
0.0
  0
LINE
  5
EA
330
1F
100
AcDbEntity
  8
SK3
  6
SLD-Dashed
370
    18
100
AcDbLine
 10
16.4605618041
 20
-9.3232355176
 30
0.0
 11
16.0941881543
 21
-8.9426144922
 31
0.0
  0
LINE
  5
EB
330
1F
100
AcDbEntity
  8
SK3
  6
SLD-Dashed
370
    18
100
AcDbLine
 10
16.0941881543
 20
-8.9426144922
 30
0.0
 11
15.7029528171
 21
-8.703346113
 31
0.0
  0
LINE
  5
EC
330
1F
100
AcDbEntity
  8
SK3
  6
SLD-Dashed
370
    18
100
AcDbLine
 10
15.7029528171
 20
-8.703346113
 30
0.0
 11
15.3135178342
 21
-8.6217361247
 31
0.0
  0
LINE
  5
ED
330
1F
100
AcDbEntity
  8
SK3
  6
SLD-Dashed
370
    18
100
AcDbLine
 10
15.3135178342
 20
-8.6217361247
 30
0.0
 11
14.9524225561
 21
-8.703346113
 31
0.0
  0
LINE
  5
EE
330
1F
100
AcDbEntity
  8
SK3
  6
SLD-Dashed
370
    18
100
AcDbLine
 10
14.9524225561
 20
-8.703346113
 30
0.0
 11
14.6442750293
 21
-8.9426144922
 31
0.0
  0
LINE
  5
EF
330
1F
100
AcDbEntity
  8
SK3
  6
SLD-Dashed
370
    18
100
AcDbLine
 10
14.6442750293
 20
-8.9426144922
 30
0.0
 11
14.4100749985
 21
-9.3232355176
 31
0.0
  0
LINE
  5
F0
330
1F
100
AcDbEntity
  8
SK3
  6
SLD-Dashed
370
    18
100
AcDbLine
 10
14.4100749985
 20
-9.3232355176
 30
0.0
 11
14.2657828088
 21
-9.8192704952
 31
0.0
  0
LINE
  5
F1
330
1F
100
AcDbEntity
  8
SK3
  6
SLD-Dashed
370
    18
100
AcDbLine
 10
14.2657828088
 20
-9.8192704952
 30
0.0
 11
14.2212317343
 21
-10.3969154613
 31
0.0
  0
LINE
  5
F2
330
1F
100
AcDbEntity
  8
SK3
  6
SLD-Dashed
370
    18
100
AcDbLine
 10
14.2212317343
 20
-10.3969154613
 30
0.0
 11
14.2794578574
 21
-11.0168048658
 31
0.0
  0
LINE
  5
F3
330
1F
100
AcDbEntity
  8
SK3
  6
SLD-Dashed
370
    18
100
AcDbLine
 10
14.2794578574
 20
-11.0168048658
 30
0.0
 11
14.4364931637
 21
-11.6366942703
 31
0.0
  0
LINE
  5
F4
330
1F
100
AcDbEntity
  8
SK3
  6
SLD-Dashed
370
    18
100
AcDbLine
 10
14.4364931637
 20
-11.6366942703
 30
0.0
 11
14.6816359569
 21
-12.2143392363
 31
0.0
  0
LINE
  5
F5
330
1F
100
AcDbEntity
  8
SK3
  6
SLD-Dashed
370
    18
100
AcDbLine
 10
14.6816359569
 20
-12.2143392363
 30
0.0
 11
14.9981801606
 21
-12.710374214
 31
0.0
  0
LINE
  5
F6
330
1F
100
AcDbEntity
  8
SK3
  6
SLD-Dashed
370
    18
100
AcDbLine
 10
14.9981801606
 20
-12.710374214
 30
0.0
 11
15.3645538104
 21
-13.0909952394
 31
0.0
  0
LINE
  5
F7
330
1F
100
AcDbEntity
  8
SK3
  6
SLD-Dashed
370
    18
100
AcDbLine
 10
15.3645538104
 20
-13.0909952394
 30
0.0
 11
15.7557891476
 21
-13.3302636185
 31
0.0
  0
LINE
  5
F8
330
1F
100
AcDbEntity
  8
SK3
  6
SLD-Dashed
370
    18
100
AcDbLine
 10
15.7557891476
 20
-13.3302636185
 30
0.0
 11
16.1452241305
 21
-13.4118736069
 31
0.0
  0
LINE
  5
F9
330
1F
100
AcDbEntity
  8
SK3
  6
SLD-Dashed
370
    18
100
AcDbLine
 10
16.1452241305
 20
-13.4118736069
 30
0.0
 11
16.5063194086
 21
-13.3302636185
 31
0.0
  0
LINE
  5
FA
330
1F
100
AcDbEntity
  8
SK3
  6
SLD-Dashed
370
    18
100
AcDbLine
 10
16.5063194086
 20
-13.3302636185
 30
0.0
 11
16.8144669354
 21
-13.0909952394
 31
0.0
  0
LINE
  5
FB
330
1F
100
AcDbEntity
  8
SK3
  6
SLD-Dashed
370
    18
100
AcDbLine
 10
16.8144669354
 20
-13.0909952394
 30
0.0
 11
17.0486669662
 21
-12.710374214
 31
0.0
  0
LINE
  5
FC
330
1F
100
AcDbEntity
  8
SK3
  6
SLD-Dashed
370
    18
100
AcDbLine
 10
17.0486669662
 20
-12.710374214
 30
0.0
 11
17.1929591559
 21
-12.2143392363
 31
0.0
  0
LINE
  5
FD
330
1F
100
AcDbEntity
  8
SK3
  6
SLD-Dashed
370
    18
100
AcDbLine
 10
17.1929591559
 20
-12.2143392363
 30
0.0
 11
17.2375102304
 21
-11.6366942703
 31
0.0
  0
LINE
  5
FE
330
1F
100
AcDbEntity
  8
SK3
  6
SLD-Dashed
370
    18
100
AcDbLine
 10
17.2375102304
 20
-11.6366942703
 30
0.0
 11
17.1792841073
 21
-11.0168048658
 31
0.0
  0
LINE
  5
FF
330
1F
100
AcDbEntity
  8
SK3
  6
SLD-Dashed
370
    18
100
AcDbLine
 10
-99.7034043657
 20
-13.19
 30
0.0
 11
-99.7034043657
 21
13.19
 31
0.0
  0
LINE
  5
100
330
1F
100
AcDbEntity
  8
SK3
  6
SLD-Dashed
370
    18
100
AcDbLine
 10
-101.6
 20
-14.285
 30
0.0
 11
-101.6
 21
14.285
 31
0.0
  0
LINE
  5
101
330
1F
100
AcDbEntity
  8
SK3
  6
SLD-Dashed
370
    18
100
AcDbLine
 10
-95.25
 20
-13.19
 30
0.0
 11
-95.25
 21
13.19
 31
0.0
  0
LINE
  5
102
330
1F
100
AcDbEntity
  8
SK3
  6
SLD-Dashed
370
    18
100
AcDbLine
 10
-94.0505548158
 20
-11.1125
 30
0.0
 11
-94.0505548158
 21
11.1125
 31
0.0
  0
LINE
  5
103
330
1F
100
AcDbEntity
  8
SK3
  6
SLD-Dashed
370
    18
100
AcDbLine
 10
3.7
 20
37.875
 30
0.0
 11
3.7
 21
46.5560855313
 31
0.0
  0
LINE
  5
104
330
1F
100
AcDbEntity
  8
SK3
  6
SLD-Dashed
370
    18
100
AcDbLine
 10
18.55
 20
46.5560855313
 30
0.0
 11
18.55
 21
37.875
 31
0.0
  0
LINE
  5
105
330
1F
100
AcDbEntity
  8
SK3
  6
SLD-Dashed
370
    18
100
AcDbLine
 10
14.2727106199
 20
46.8162535878
 30
0.0
 11
18.3
 21
46.8162535878
 31
0.0
  0
LINE
  5
106
330
1F
100
AcDbEntity
  8
SK3
  6
SLD-Dashed
370
    18
100
AcDbLine
 10
3.95
 20
46.8162535878
 30
0.0
 11
7.9572893801
 21
46.8162535878
 31
0.0
  0
LINE
  5
107
330
1F
100
AcDbEntity
  8
1
  6
SLD-Dashed
370
    18
100
AcDbLine
 10
13.03
 20
44.5510215932
 30
0.0
 11
13.03
 21
44.5790106634
 31
0.0
  0
LINE
  5
108
330
1F
100
AcDbEntity
  8
1
  6
SLD-Dashed
370
    18
100
AcDbLine
 10
9.2
 20
44.5790106634
 30
0.0
 11
9.2
 21
44.5510215932
 31
0.0
  0
LINE
  5
109
330
1F
100
AcDbEntity
  8
1
  6
SLD-Dashed
370
    18
100
AcDbLine
 10
9.2
 20
-44.5790106634
 30
0.0
 11
9.2
 21
-44.5510215932
 31
0.0
  0
LINE
  5
10A
330
1F
100
AcDbEntity
  8
1
  6
SLD-Dashed
370
    18
100
AcDbLine
 10
13.03
 20
-44.5510215932
 30
0.0
 11
13.03
 21
-44.5790106634
 31
0.0
  0
LINE
  5
10B
330
1F
100
AcDbEntity
  8
SK3
  6
SLD-Dashed
370
    18
100
AcDbLine
 10
19.05
 20
-46.6976348437
 30
0.0
 11
19.05
 21
-35.475
 31
0.0
  0
LINE
  5
10C
330
1F
100
AcDbEntity
  8
SK3
  6
SLD-Dashed
370
    18
100
AcDbLine
 10
3.2
 20
-35.475
 30
0.0
 11
3.2
 21
-46.6976348437
 31
0.0
  0
LINE
  5
10D
330
1F
100
AcDbEntity
  8
SK3
  6
SLD-Dashed
370
    18
100
AcDbLine
 10
19.05
 20
-35.1
 30
0.0
 11
3.2
 21
-35.1
 31
0.0
  0
LINE
  5
10E
330
1F
100
AcDbEntity
  8
SK3
  6
SLD-Dashed
370
    18
100
AcDbLine
 10
3.2
 20
-35.475
 30
0.0
 11
19.05
 21
-35.475
 31
0.0
  0
LINE
  5
10F
330
1F
100
AcDbEntity
  8
SK3
  6
SLD-Dashed
370
    18
100
AcDbLine
 10
3.7
 20
37.5
 30
0.0
 11
18.55
 21
37.5
 31
0.0
  0
LINE
  5
110
330
1F
100
AcDbEntity
  8
SK3
  6
SLD-Dashed
370
    18
100
AcDbLine
 10
18.55
 20
37.875
 30
0.0
 11
3.7
 21
37.875
 31
0.0
  0
LINE
  5
111
330
1F
100
AcDbEntity
  8
SK3
  6
SLD-Dashed
370
    18
100
AcDbLine
 10
-11.6
 20
-11.1125
 30
0.0
 11
-11.6
 21
11.1125
 31
0.0
  0
LINE
  5
112
330
1F
100
AcDbEntity
  8
SK3
  6
SLD-Dashed
370
    18
100
AcDbLine
 10
-7.9272394662
 20
5.0
 30
0.0
 11
-7.9272394662
 21
-5.0
 31
0.0
  0
LINE
  5
113
330
1F
100
AcDbEntity
  8
SK3
  6
SLD-Dashed
370
    18
100
AcDbLine
 10
78.0947441117
 20
-10.0
 30
0.0
 11
78.0947441117
 21
10.0
 31
0.0
  0
LINE
  5
114
330
1F
100
AcDbEntity
  8
SK3
  6
SLD-Dashed
370
    18
100
AcDbLine
 10
80.0
 20
-11.0951252852
 30
0.0
 11
80.0
 21
11.0951252852
 31
0.0
  0
LINE
  5
115
330
1F
100
AcDbEntity
  8
SK3
  6
SLD-Dashed
370
    18
100
AcDbLine
 10
31.5
 20
-10.25
 30
0.0
 11
31.5
 21
10.25
 31
0.0
  0
LINE
  5
116
330
1F
100
AcDbEntity
  8
SK3
  6
SLD-Dashed
370
    18
100
AcDbLine
 10
28.5
 20
-10.25
 30
0.0
 11
28.5
 21
10.25
 31
0.0
  0
LINE
  5
117
330
1F
100
AcDbEntity
  8
SK3
  6
SLD-Dashed
370
    18
100
AcDbLine
 10
31.5
 20
-9.9802672843
 30
0.0
 11
31.5
 21
9.9802672843
 31
0.0
  0
LINE
  5
118
330
1F
100
AcDbEntity
  8
SK3
  6
SLD-Dashed
370
    18
100
AcDbLine
 10
26.5
 20
-7.25
 30
0.0
 11
26.5
 21
7.25
 31
0.0
  0
LINE
  5
119
330
1F
100
AcDbEntity
  8
SK3
  6
SLD-Dashed
370
    18
100
AcDbLine
 10
28.5
 20
-7.2297275296
 30
0.0
 11
28.5
 21
7.2297275296
 31
0.0
  0
LINE
  5
11A
330
1F
100
AcDbEntity
  8
SK3
  6
SLD-Dashed
370
    18
100
AcDbLine
 10
25.1480636072
 20
5.0
 30
0.0
 11
25.1480636072
 21
-5.0
 31
0.0
  0
LINE
  5
11B
330
1F
100
AcDbEntity
  8
SK3
  6
SLD-Dashed
370
    18
100
AcDbLine
 10
47.3
 20
18.45
 30
0.0
 11
38.3
 21
18.45
 31
0.0
  0
LINE
  5
11C
330
1F
100
AcDbEntity
  8
SK3
  6
SLD-Dashed
370
    18
100
AcDbLine
 10
69.7
 20
18.45
 30
0.0
 11
60.7
 21
18.45
 31
0.0
  0
LINE
  5
11D
330
1F
100
AcDbEntity
  8
SK3
  6
SLD-Dashed
370
    18
100
AcDbLine
 10
16.1
 20
33.1
 30
0.0
 11
6.12012853
 21
33.1
 31
0.0
  0
LINE
  5
11E
330
1F
100
AcDbEntity
  8
SK3
  6
SLD-Dashed
370
    18
100
AcDbLine
 10
6.1
 20
37.5
 30
0.0
 11
16.07987147
 21
37.5
 31
0.0
  0
LINE
  5
11F
330
1F
100
AcDbEntity
  8
SK3
  6
SLD-Dashed
370
    18
100
AcDbLine
 10
6.4
 20
32.8
 30
0.0
 11
15.8
 21
32.8
 31
0.0
  0
LINE
  5
120
330
1F
100
AcDbEntity
  8
1
  6
SLD-Dashed
370
    18
100
AcDbLine
 10
12.28
 20
43.7694359685
 30
0.0
 11
9.95
 21
43.7694359685
 31
0.0
  0
LINE
  5
121
330
1F
100
AcDbEntity
  8
1
  6
SLD-Dashed
370
    18
100
AcDbLine
 10
12.28
 20
-43.7694359685
 30
0.0
 11
9.95
 21
-43.7694359685
 31
0.0
  0
LINE
  5
122
330
1F
100
AcDbEntity
  8
1
  6
SLD-Dashed
370
    18
100
AcDbLine
 10
7.5902766066
 20
-47.4754841997
 30
0.0
 11
3.95
 21
-47.4754841997
 31
0.0
  0
LINE
  5
123
330
1F
100
AcDbEntity
  8
1
  6
SLD-Dashed
370
    18
100
AcDbLine
 10
18.3
 20
-47.4754841997
 30
0.0
 11
14.6397233934
 21
-47.4754841997
 31
0.0
  0
LINE
  5
124
330
1F
100
AcDbEntity
  8
SK3
  6
SLD-Dashed
370
    18
100
AcDbLine
 10
3.5547332273
 20
13.8826166832
 30
0.0
 11
3.4965071043
 21
13.2627272786
 31
0.0
  0
LINE
  5
125
330
1F
100
AcDbEntity
  8
SK3
  6
SLD-Dashed
370
    18
100
AcDbLine
 10
3.4965071043
 20
13.2627272786
 30
0.0
 11
3.5410581787
 21
12.6850823126
 31
0.0
  0
LINE
  5
126
330
1F
100
AcDbEntity
  8
SK3
  6
SLD-Dashed
370
    18
100
AcDbLine
 10
3.5410581787
 20
12.6850823126
 30
0.0
 11
3.6853503685
 21
12.1890473349
 31
0.0
  0
LINE
  5
127
330
1F
100
AcDbEntity
  8
SK3
  6
SLD-Dashed
370
    18
100
AcDbLine
 10
3.6853503685
 20
12.1890473349
 30
0.0
 11
3.9195503993
 21
11.8084263096
 31
0.0
  0
LINE
  5
128
330
1F
100
AcDbEntity
  8
SK3
  6
SLD-Dashed
370
    18
100
AcDbLine
 10
3.9195503993
 20
11.8084263096
 30
0.0
 11
4.2276979261
 21
11.5691579304
 31
0.0
  0
LINE
  5
129
330
1F
100
AcDbEntity
  8
SK3
  6
SLD-Dashed
370
    18
100
AcDbLine
 10
4.2276979261
 20
11.5691579304
 30
0.0
 11
4.5887932042
 21
11.4875479421
 31
0.0
  0
LINE
  5
12A
330
1F
100
AcDbEntity
  8
SK3
  6
SLD-Dashed
370
    18
100
AcDbLine
 10
4.5887932042
 20
11.4875479421
 30
0.0
 11
4.9782281871
 21
11.5691579304
 31
0.0
  0
LINE
  5
12B
330
1F
100
AcDbEntity
  8
SK3
  6
SLD-Dashed
370
    18
100
AcDbLine
 10
4.9782281871
 20
11.5691579304
 30
0.0
 11
5.3694635243
 21
11.8084263096
 31
0.0
  0
LINE
  5
12C
330
1F
100
AcDbEntity
  8
SK3
  6
SLD-Dashed
370
    18
100
AcDbLine
 10
5.3694635243
 20
11.8084263096
 30
0.0
 11
5.7358371741
 21
12.1890473349
 31
0.0
  0
LINE
  5
12D
330
1F
100
AcDbEntity
  8
SK3
  6
SLD-Dashed
370
    18
100
AcDbLine
 10
5.7358371741
 20
12.1890473349
 30
0.0
 11
6.0523813778
 21
12.6850823126
 31
0.0
  0
LINE
  5
12E
330
1F
100
AcDbEntity
  8
SK3
  6
SLD-Dashed
370
    18
100
AcDbLine
 10
6.0523813778
 20
12.6850823126
 30
0.0
 11
6.2975241709
 21
13.2627272786
 31
0.0
  0
LINE
  5
12F
330
1F
100
AcDbEntity
  8
SK3
  6
SLD-Dashed
370
    18
100
AcDbLine
 10
6.2975241709
 20
13.2627272786
 30
0.0
 11
6.4545594773
 21
13.8826166832
 31
0.0
  0
LINE
  5
130
330
1F
100
AcDbEntity
  8
SK3
  6
SLD-Dashed
370
    18
100
AcDbLine
 10
6.4545594773
 20
13.8826166832
 30
0.0
 11
6.5127856003
 21
14.5025060877
 31
0.0
  0
LINE
  5
131
330
1F
100
AcDbEntity
  8
SK3
  6
SLD-Dashed
370
    18
100
AcDbLine
 10
6.5127856003
 20
14.5025060877
 30
0.0
 11
6.4682345259
 21
15.0801510537
 31
0.0
  0
LINE
  5
132
330
1F
100
AcDbEntity
  8
SK3
  6
SLD-Dashed
370
    18
100
AcDbLine
 10
6.4682345259
 20
15.0801510537
 30
0.0
 11
6.3239423361
 21
15.5761860314
 31
0.0
  0
LINE
  5
133
330
1F
100
AcDbEntity
  8
SK3
  6
SLD-Dashed
370
    18
100
AcDbLine
 10
6.3239423361
 20
15.5761860314
 30
0.0
 11
6.0897423053
 21
15.9568070568
 31
0.0
  0
LINE
  5
134
330
1F
100
AcDbEntity
  8
SK3
  6
SLD-Dashed
370
    18
100
AcDbLine
 10
6.0897423053
 20
15.9568070568
 30
0.0
 11
5.7815947785
 21
16.1960754359
 31
0.0
  0
LINE
  5
135
330
1F
100
AcDbEntity
  8
SK3
  6
SLD-Dashed
370
    18
100
AcDbLine
 10
5.7815947785
 20
16.1960754359
 30
0.0
 11
5.4204995004
 21
16.2776854242
 31
0.0
  0
LINE
  5
136
330
1F
100
AcDbEntity
  8
SK3
  6
SLD-Dashed
370
    18
100
AcDbLine
 10
5.4204995004
 20
16.2776854242
 30
0.0
 11
5.0310645175
 21
16.1960754359
 31
0.0
  0
LINE
  5
137
330
1F
100
AcDbEntity
  8
SK3
  6
SLD-Dashed
370
    18
100
AcDbLine
 10
5.0310645175
 20
16.1960754359
 30
0.0
 11
4.6398291803
 21
15.9568070568
 31
0.0
  0
LINE
  5
138
330
1F
100
AcDbEntity
  8
SK3
  6
SLD-Dashed
370
    18
100
AcDbLine
 10
4.6398291803
 20
15.9568070568
 30
0.0
 11
4.2734555305
 21
15.5761860314
 31
0.0
  0
LINE
  5
139
330
1F
100
AcDbEntity
  8
SK3
  6
SLD-Dashed
370
    18
100
AcDbLine
 10
4.2734555305
 20
15.5761860314
 30
0.0
 11
3.9569113269
 21
15.0801510537
 31
0.0
  0
LINE
  5
13A
330
1F
100
AcDbEntity
  8
SK3
  6
SLD-Dashed
370
    18
100
AcDbLine
 10
3.9569113269
 20
15.0801510537
 30
0.0
 11
3.7117685337
 21
14.5025060877
 31
0.0
  0
LINE
  5
13B
330
1F
100
AcDbEntity
  8
SK3
  6
SLD-Dashed
370
    18
100
AcDbLine
 10
3.7117685337
 20
14.5025060877
 30
0.0
 11
3.5547332273
 21
13.8826166832
 31
0.0
  0
LINE
  5
13C
330
1F
100
AcDbEntity
  8
SK3
  6
SLD-Dashed
370
    18
100
AcDbLine
 10
14.2794578574
 20
11.0168048658
 30
0.0
 11
14.4364931637
 21
11.6366942703
 31
0.0
  0
LINE
  5
13D
330
1F
100
AcDbEntity
  8
SK3
  6
SLD-Dashed
370
    18
100
AcDbLine
 10
14.4364931637
 20
11.6366942703
 30
0.0
 11
14.6816359569
 21
12.2143392363
 31
0.0
  0
LINE
  5
13E
330
1F
100
AcDbEntity
  8
SK3
  6
SLD-Dashed
370
    18
100
AcDbLine
 10
14.6816359569
 20
12.2143392363
 30
0.0
 11
14.9981801606
 21
12.710374214
 31
0.0
  0
LINE
  5
13F
330
1F
100
AcDbEntity
  8
SK3
  6
SLD-Dashed
370
    18
100
AcDbLine
 10
14.9981801606
 20
12.710374214
 30
0.0
 11
15.3645538104
 21
13.0909952394
 31
0.0
  0
LINE
  5
140
330
1F
100
AcDbEntity
  8
SK3
  6
SLD-Dashed
370
    18
100
AcDbLine
 10
15.3645538104
 20
13.0909952394
 30
0.0
 11
15.7557891476
 21
13.3302636185
 31
0.0
  0
LINE
  5
141
330
1F
100
AcDbEntity
  8
SK3
  6
SLD-Dashed
370
    18
100
AcDbLine
 10
15.7557891476
 20
13.3302636185
 30
0.0
 11
16.1452241305
 21
13.4118736069
 31
0.0
  0
LINE
  5
142
330
1F
100
AcDbEntity
  8
SK3
  6
SLD-Dashed
370
    18
100
AcDbLine
 10
16.1452241305
 20
13.4118736069
 30
0.0
 11
16.5063194086
 21
13.3302636185
 31
0.0
  0
LINE
  5
143
330
1F
100
AcDbEntity
  8
SK3
  6
SLD-Dashed
370
    18
100
AcDbLine
 10
16.5063194086
 20
13.3302636185
 30
0.0
 11
16.8144669354
 21
13.0909952394
 31
0.0
  0
LINE
  5
144
330
1F
100
AcDbEntity
  8
SK3
  6
SLD-Dashed
370
    18
100
AcDbLine
 10
16.8144669354
 20
13.0909952394
 30
0.0
 11
17.0486669662
 21
12.710374214
 31
0.0
  0
LINE
  5
145
330
1F
100
AcDbEntity
  8
SK3
  6
SLD-Dashed
370
    18
100
AcDbLine
 10
17.0486669662
 20
12.710374214
 30
0.0
 11
17.1929591559
 21
12.2143392363
 31
0.0
  0
LINE
  5
146
330
1F
100
AcDbEntity
  8
SK3
  6
SLD-Dashed
370
    18
100
AcDbLine
 10
17.1929591559
 20
12.2143392363
 30
0.0
 11
17.2375102304
 21
11.6366942703
 31
0.0
  0
LINE
  5
147
330
1F
100
AcDbEntity
  8
SK3
  6
SLD-Dashed
370
    18
100
AcDbLine
 10
17.2375102304
 20
11.6366942703
 30
0.0
 11
17.1792841073
 21
11.0168048658
 31
0.0
  0
LINE
  5
148
330
1F
100
AcDbEntity
  8
SK3
  6
SLD-Dashed
370
    18
100
AcDbLine
 10
17.1792841073
 20
11.0168048658
 30
0.0
 11
17.022248801
 21
10.3969154613
 31
0.0
  0
LINE
  5
149
330
1F
100
AcDbEntity
  8
SK3
  6
SLD-Dashed
370
    18
100
AcDbLine
 10
17.022248801
 20
10.3969154613
 30
0.0
 11
16.7771060078
 21
9.8192704952
 31
0.0
  0
LINE
  5
14A
330
1F
100
AcDbEntity
  8
SK3
  6
SLD-Dashed
370
    18
100
AcDbLine
 10
16.7771060078
 20
9.8192704952
 30
0.0
 11
16.4605618041
 21
9.3232355176
 31
0.0
  0
LINE
  5
14B
330
1F
100
AcDbEntity
  8
SK3
  6
SLD-Dashed
370
    18
100
AcDbLine
 10
16.4605618041
 20
9.3232355176
 30
0.0
 11
16.0941881543
 21
8.9426144922
 31
0.0
  0
LINE
  5
14C
330
1F
100
AcDbEntity
  8
SK3
  6
SLD-Dashed
370
    18
100
AcDbLine
 10
16.0941881543
 20
8.9426144922
 30
0.0
 11
15.7029528171
 21
8.703346113
 31
0.0
  0
LINE
  5
14D
330
1F
100
AcDbEntity
  8
SK3
  6
SLD-Dashed
370
    18
100
AcDbLine
 10
15.7029528171
 20
8.703346113
 30
0.0
 11
15.3135178342
 21
8.6217361247
 31
0.0
  0
LINE
  5
14E
330
1F
100
AcDbEntity
  8
SK3
  6
SLD-Dashed
370
    18
100
AcDbLine
 10
15.3135178342
 20
8.6217361247
 30
0.0
 11
14.9524225561
 21
8.703346113
 31
0.0
  0
LINE
  5
14F
330
1F
100
AcDbEntity
  8
SK3
  6
SLD-Dashed
370
    18
100
AcDbLine
 10
14.9524225561
 20
8.703346113
 30
0.0
 11
14.6442750293
 21
8.9426144922
 31
0.0
  0
LINE
  5
150
330
1F
100
AcDbEntity
  8
SK3
  6
SLD-Dashed
370
    18
100
AcDbLine
 10
14.6442750293
 20
8.9426144922
 30
0.0
 11
14.4100749985
 21
9.3232355176
 31
0.0
  0
LINE
  5
151
330
1F
100
AcDbEntity
  8
SK3
  6
SLD-Dashed
370
    18
100
AcDbLine
 10
14.4100749985
 20
9.3232355176
 30
0.0
 11
14.2657828088
 21
9.8192704952
 31
0.0
  0
LINE
  5
152
330
1F
100
AcDbEntity
  8
SK3
  6
SLD-Dashed
370
    18
100
AcDbLine
 10
14.2657828088
 20
9.8192704952
 30
0.0
 11
14.2212317343
 21
10.3969154613
 31
0.0
  0
LINE
  5
153
330
1F
100
AcDbEntity
  8
SK3
  6
SLD-Dashed
370
    18
100
AcDbLine
 10
14.2212317343
 20
10.3969154613
 30
0.0
 11
14.2794578574
 21
11.0168048658
 31
0.0
  0
LINE
  5
154
330
1F
100
AcDbEntity
  8
SK3
  6
SLD-Dashed
370
    18
100
AcDbLine
 10
3.3949403416
 20
13.9015950424
 30
0.0
 11
3.5530311231
 21
14.533691522
 31
0.0
  0
LINE
  5
155
330
1F
100
AcDbEntity
  8
SK3
  6
SLD-Dashed
370
    18
100
AcDbLine
 10
3.5530311231
 20
14.533691522
 30
0.0
 11
3.7978696111
 21
15.126071055
 31
0.0
  0
LINE
  5
156
330
1F
100
AcDbEntity
  8
SK3
  6
SLD-Dashed
370
    18
100
AcDbLine
 10
3.7978696111
 20
15.126071055
 30
0.0
 11
4.1140717028
 21
15.6415122569
 31
0.0
  0
LINE
  5
157
330
1F
100
AcDbEntity
  8
SK3
  6
SLD-Dashed
370
    18
100
AcDbLine
 10
4.1140717028
 20
15.6415122569
 30
0.0
 11
4.481769258
 21
16.0476280612
 31
0.0
  0
LINE
  5
158
330
1F
100
AcDbEntity
  8
SK3
  6
SLD-Dashed
370
    18
100
AcDbLine
 10
4.481769258
 20
16.0476280612
 30
0.0
 11
4.8778584869
 21
16.3189007184
 31
0.0
  0
LINE
  5
159
330
1F
100
AcDbEntity
  8
SK3
  6
SLD-Dashed
370
    18
100
AcDbLine
 10
4.8778584869
 20
16.3189007184
 30
0.0
 11
5.2774516466
 21
16.4382851698
 31
0.0
  0
LINE
  5
15A
330
1F
100
AcDbEntity
  8
SK3
  6
SLD-Dashed
370
    18
100
AcDbLine
 10
5.2774516466
 20
16.4382851698
 30
0.0
 11
5.6554408293
 21
16.3982800511
 31
0.0
  0
LINE
  5
15B
330
1F
100
AcDbEntity
  8
SK3
  6
SLD-Dashed
370
    18
100
AcDbLine
 10
5.6554408293
 20
16.3982800511
 30
0.0
 11
5.9880755844
 21
16.2013990312
 31
0.0
  0
LINE
  5
15C
330
1F
100
AcDbEntity
  8
SK3
  6
SLD-Dashed
370
    18
100
AcDbLine
 10
5.9880755844
 20
16.2013990312
 30
0.0
 11
6.254455247
 21
15.8600128686
 31
0.0
  0
LINE
  5
15D
330
1F
100
AcDbEntity
  8
SK3
  6
SLD-Dashed
370
    18
100
AcDbLine
 10
6.254455247
 20
15.8600128686
 30
0.0
 11
6.4378422032
 21
15.3955721114
 31
0.0
  0
LINE
  5
15E
330
1F
100
AcDbEntity
  8
SK3
  6
SLD-Dashed
370
    18
100
AcDbLine
 10
6.4378422032
 20
15.3955721114
 30
0.0
 11
6.526713576
 21
14.8372592805
 31
0.0
  0
LINE
  5
15F
330
1F
100
AcDbEntity
  8
SK3
  6
SLD-Dashed
370
    18
100
AcDbLine
 10
6.526713576
 20
14.8372592805
 30
0.0
 11
6.5154852503
 21
14.2201552244
 31
0.0
  0
LINE
  5
160
330
1F
100
AcDbEntity
  8
SK3
  6
SLD-Dashed
370
    18
100
AcDbLine
 10
6.5154852503
 20
14.2201552244
 30
0.0
 11
6.4048627431
 21
13.5830348604
 31
0.0
  0
LINE
  5
161
330
1F
100
AcDbEntity
  8
SK3
  6
SLD-Dashed
370
    18
100
AcDbLine
 10
6.4048627431
 20
13.5830348604
 30
0.0
 11
6.2017968733
 21
12.9659308043
 31
0.0
  0
LINE
  5
162
330
1F
100
AcDbEntity
  8
SK3
  6
SLD-Dashed
370
    18
100
AcDbLine
 10
6.2017968733
 20
12.9659308043
 30
0.0
 11
5.9190470164
 21
12.4076179734
 31
0.0
  0
LINE
  5
163
330
1F
100
AcDbEntity
  8
SK3
  6
SLD-Dashed
370
    18
100
AcDbLine
 10
5.9190470164
 20
12.4076179734
 30
0.0
 11
5.5743793858
 21
11.9431772162
 31
0.0
  0
LINE
  5
164
330
1F
100
AcDbEntity
  8
SK3
  6
SLD-Dashed
370
    18
100
AcDbLine
 10
5.5743793858
 20
11.9431772162
 30
0.0
 11
5.1894507162
 21
11.6017910536
 31
0.0
  0
LINE
  5
165
330
1F
100
AcDbEntity
  8
SK3
  6
SLD-Dashed
370
    18
100
AcDbLine
 10
5.1894507162
 20
11.6017910536
 30
0.0
 11
4.7884474917
 21
11.4049100337
 31
0.0
  0
LINE
  5
166
330
1F
100
AcDbEntity
  8
SK3
  6
SLD-Dashed
370
    18
100
AcDbLine
 10
4.7884474917
 20
11.4049100337
 30
0.0
 11
4.3965662196
 21
11.364904915
 31
0.0
  0
LINE
  5
167
330
1F
100
AcDbEntity
  8
SK3
  6
SLD-Dashed
370
    18
100
AcDbLine
 10
4.3965662196
 20
11.364904915
 30
0.0
 11
4.0384302416
 21
11.4842893664
 31
0.0
  0
LINE
  5
168
330
1F
100
AcDbEntity
  8
SK3
  6
SLD-Dashed
370
    18
100
AcDbLine
 10
4.0384302416
 20
11.4842893664
 30
0.0
 11
3.7365425582
 21
11.7555620236
 31
0.0
  0
LINE
  5
169
330
1F
100
AcDbEntity
  8
SK3
  6
SLD-Dashed
370
    18
100
AcDbLine
 10
3.7365425582
 20
11.7555620236
 30
0.0
 11
3.5098718828
 21
12.1616778279
 31
0.0
  0
LINE
  5
16A
330
1F
100
AcDbEntity
  8
SK3
  6
SLD-Dashed
370
    18
100
AcDbLine
 10
3.5098718828
 20
12.1616778279
 30
0.0
 11
3.3726607677
 21
12.6771190298
 31
0.0
  0
LINE
  5
16B
330
1F
100
AcDbEntity
  8
SK3
  6
SLD-Dashed
370
    18
100
AcDbLine
 10
3.3726607677
 20
12.6771190298
 30
0.0
 11
3.3335306917
 21
13.2694985628
 31
0.0
  0
LINE
  5
16C
330
1F
100
AcDbEntity
  8
SK3
  6
SLD-Dashed
370
    18
100
AcDbLine
 10
3.3335306917
 20
13.2694985628
 30
0.0
 11
3.3949403416
 21
13.9015950424
 31
0.0
  0
LINE
  5
16D
330
1F
100
AcDbEntity
  8
SK3
  6
SLD-Dashed
370
    18
100
AcDbLine
 10
5.6371324082
 20
-16.2495686026
 30
0.0
 11
16.3618570383
 21
-13.3837567853
 31
0.0
  0
LINE
  5
16E
330
1F
100
AcDbEntity
  8
SK3
  6
SLD-Dashed
370
    18
100
AcDbLine
 10
15.0968849264
 20
-8.6498529463
 30
0.0
 11
4.3721602964
 21
-11.5156647637
 31
0.0
  0
LINE
  5
16F
330
1F
100
AcDbEntity
  8
SK3
  6
SLD-Dashed
370
    18
100
AcDbLine
 10
-101.6
 20
-14.285
 30
0.0
 11
-99.7034043657
 21
-13.19
 31
0.0
  0
LINE
  5
170
330
1F
100
AcDbEntity
  8
SK3
  6
SLD-Dashed
370
    18
100
AcDbLine
 10
-99.7034043657
 20
13.19
 30
0.0
 11
-101.6
 21
14.285
 31
0.0
  0
LINE
  5
171
330
1F
100
AcDbEntity
  8
SK3
  6
SLD-Dashed
370
    18
100
AcDbLine
 10
-95.25
 20
-13.19
 30
0.0
 11
-94.0505548158
 21
-11.1125
 31
0.0
  0
LINE
  5
172
330
1F
100
AcDbEntity
  8
SK3
  6
SLD-Dashed
370
    18
100
AcDbLine
 10
-94.0505548158
 20
11.1125
 30
0.0
 11
-95.25
 21
13.19
 31
0.0
  0
LINE
  5
173
330
1F
100
AcDbEntity
  8
SK3
  6
SLD-Dashed
370
    18
100
AcDbLine
 10
-99.7034043657
 20
-13.19
 30
0.0
 11
-95.25
 21
-13.19
 31
0.0
  0
LINE
  5
174
330
1F
100
AcDbEntity
  8
SK3
  6
SLD-Dashed
370
    18
100
AcDbLine
 10
-95.25
 20
13.19
 30
0.0
 11
-99.7034043657
 21
13.19
 31
0.0
  0
LINE
  5
175
330
1F
100
AcDbEntity
  8
SK3
  6
SLD-Dashed
370
    18
100
AcDbLine
 10
-94.0505548158
 20
-11.1125
 30
0.0
 11
-11.6
 21
-11.1125
 31
0.0
  0
LINE
  5
176
330
1F
100
AcDbEntity
  8
SK3
  6
SLD-Dashed
370
    18
100
AcDbLine
 10
-11.6
 20
11.1125
 30
0.0
 11
-94.0505548158
 21
11.1125
 31
0.0
  0
LINE
  5
177
330
1F
100
AcDbEntity
  8
SK3
  6
SLD-Dashed
370
    18
100
AcDbLine
 10
-11.6
 20
-11.1125
 30
0.0
 11
-7.9272394662
 21
-5.0
 31
0.0
  0
LINE
  5
178
330
1F
100
AcDbEntity
  8
SK3
  6
SLD-Dashed
370
    18
100
AcDbLine
 10
-7.9272394662
 20
5.0
 30
0.0
 11
-11.6
 21
11.1125
 31
0.0
  0
LINE
  5
179
330
1F
100
AcDbEntity
  8
SK3
  6
SLD-Dashed
370
    18
100
AcDbLine
 10
80.0
 20
11.1
 30
0.0
 11
78.0947441117
 21
10.0
 31
0.0
  0
LINE
  5
17A
330
1F
100
AcDbEntity
  8
SK3
  6
SLD-Dashed
370
    18
100
AcDbLine
 10
78.0947441117
 20
-10.0
 30
0.0
 11
80.0
 21
-11.1
 31
0.0
  0
LINE
  5
17B
330
1F
100
AcDbEntity
  8
SK3
  6
SLD-Dashed
370
    18
100
AcDbLine
 10
31.5
 20
10.25
 30
0.0
 11
28.5
 21
10.25
 31
0.0
  0
LINE
  5
17C
330
1F
100
AcDbEntity
  8
SK3
  6
SLD-Dashed
370
    18
100
AcDbLine
 10
28.5
 20
-10.25
 30
0.0
 11
31.5
 21
-10.25
 31
0.0
  0
LINE
  5
17D
330
1F
100
AcDbEntity
  8
SK3
  6
SLD-Dashed
370
    18
100
AcDbLine
 10
38.3
 20
10.0
 30
0.0
 11
31.5
 21
10.0
 31
0.0
  0
LINE
  5
17E
330
1F
100
AcDbEntity
  8
SK3
  6
SLD-Dashed
370
    18
100
AcDbLine
 10
60.7
 20
10.0
 30
0.0
 11
47.288047428
 21
10.0
 31
0.0
  0
LINE
  5
17F
330
1F
100
AcDbEntity
  8
SK3
  6
SLD-Dashed
370
    18
100
AcDbLine
 10
78.0947441117
 20
10.0
 30
0.0
 11
69.6887389095
 21
10.0
 31
0.0
  0
LINE
  5
180
330
1F
100
AcDbEntity
  8
SK3
  6
SLD-Dashed
370
    18
100
AcDbLine
 10
31.5
 20
-10.0
 30
0.0
 11
78.0947441117
 21
-10.0
 31
0.0
  0
LINE
  5
181
330
1F
100
AcDbEntity
  8
SK3
  6
SLD-Dashed
370
    18
100
AcDbLine
 10
28.5
 20
7.25
 30
0.0
 11
26.5
 21
7.25
 31
0.0
  0
LINE
  5
182
330
1F
100
AcDbEntity
  8
SK3
  6
SLD-Dashed
370
    18
100
AcDbLine
 10
26.5
 20
-7.25
 30
0.0
 11
28.5
 21
-7.25
 31
0.0
  0
LINE
  5
183
330
1F
100
AcDbEntity
  8
SK3
  6
SLD-Dashed
370
    18
100
AcDbLine
 10
26.5
 20
7.25
 30
0.0
 11
25.1480636072
 21
5.0
 31
0.0
  0
LINE
  5
184
330
1F
100
AcDbEntity
  8
SK3
  6
SLD-Dashed
370
    18
100
AcDbLine
 10
25.1480636072
 20
-5.0
 30
0.0
 11
26.5
 21
-7.25
 31
0.0
  0
LINE
  5
185
330
1F
100
AcDbEntity
  8
SK3
  6
SLD-Dashed
370
    18
100
AcDbLine
 10
36.75
 20
20.0
 30
0.0
 11
38.3
 21
18.45
 31
0.0
  0
LINE
  5
186
330
1F
100
AcDbEntity
  8
SK3
  6
SLD-Dashed
370
    18
100
AcDbLine
 10
47.3
 20
18.45
 30
0.0
 11
48.85
 21
20.0
 31
0.0
  0
LINE
  5
187
330
1F
100
AcDbEntity
  8
SK3
  6
SLD-Dashed
370
    18
100
AcDbLine
 10
59.15
 20
20.0
 30
0.0
 11
60.7
 21
18.45
 31
0.0
  0
LINE
  5
188
330
1F
100
AcDbEntity
  8
SK3
  6
SLD-Dashed
370
    18
100
AcDbLine
 10
69.7
 20
18.45
 30
0.0
 11
71.25
 21
20.0
 31
0.0
  0
LINE
  5
189
330
1F
100
AcDbEntity
  8
SK3
  6
SLD-Dashed
370
    18
100
AcDbLine
 10
6.1
 20
37.5
 30
0.0
 11
6.1
 21
33.1
 31
0.0
  0
LINE
  5
18A
330
1F
100
AcDbEntity
  8
SK3
  6
SLD-Dashed
370
    18
100
AcDbLine
 10
16.1
 20
33.1
 30
0.0
 11
16.1
 21
37.5
 31
0.0
  0
LINE
  5
18B
330
1F
100
AcDbEntity
  8
SK3
  6
SLD-Dashed
370
    18
100
AcDbLine
 10
25.1480636072
 20
5.0
 30
0.0
 11
-7.9272394662
 21
5.0
 31
0.0
  0
LINE
  5
18C
330
1F
100
AcDbEntity
  8
SK3
  6
SLD-Dashed
370
    18
100
AcDbLine
 10
-7.9272394662
 20
-5.0
 30
0.0
 11
25.1480636072
 21
-5.0
 31
0.0
  0
LINE
  5
18D
330
1F
100
AcDbEntity
  8
SK3
  6
SLD-Dashed
370
    18
100
AcDbLine
 10
38.3
 20
18.45
 30
0.0
 11
38.3
 21
10.0
 31
0.0
  0
LINE
  5
18E
330
1F
100
AcDbEntity
  8
SK3
  6
SLD-Dashed
370
    18
100
AcDbLine
 10
47.3
 20
9.9946412573
 30
0.0
 11
47.3
 21
18.45
 31
0.0
  0
LINE
  5
18F
330
1F
100
AcDbEntity
  8
SK3
  6
SLD-Dashed
370
    18
100
AcDbLine
 10
60.7
 20
18.45
 30
0.0
 11
60.7
 21
10.0
 31
0.0
  0
LINE
  5
190
330
1F
100
AcDbEntity
  8
SK3
  6
SLD-Dashed
370
    18
100
AcDbLine
 10
69.7
 20
9.9949516371
 30
0.0
 11
69.7
 21
18.45
 31
0.0
  0
LINE
  5
191
330
1F
100
AcDbEntity
  8
SK3
  6
SLD-Dashed
370
    18
100
AcDbLine
 10
4.3721602964
 20
11.5156647637
 30
0.0
 11
15.0968849264
 21
8.6498529463
 31
0.0
  0
LINE
  5
192
330
1F
100
AcDbEntity
  8
SK3
  6
SLD-Dashed
370
    18
100
AcDbLine
 10
16.3618570383
 20
13.3837567853
 30
0.0
 11
5.6371324082
 21
16.2495686026
 31
0.0
  0
LINE
  5
193
330
1F
100
AcDbEntity
  8
SK3
  6
SLD-Solid
370
    18
100
AcDbLine
 10
-55.5999986827
 20
12.6999998465
 30
0.0
 11
-94.967097044
 21
12.6999998465
 31
0.0
  0
LINE
  5
194
330
1F
100
AcDbEntity
  8
SK3
  6
SLD-Solid
370
    18
100
AcDbLine
 10
-94.967097044
 20
-12.6999998465
 30
0.0
 11
-55.5999986827
 21
-12.6999998465
 31
0.0
  0
LINE
  5
195
330
1F
100
AcDbEntity
  8
SK3
  6
SLD-Solid
370
    18
100
AcDbLine
 10
-55.5999986827
 20
0.0
 30
0.0
 11
-55.5999986827
 21
-1.7293164274
 31
0.0
  0
LINE
  5
196
330
1F
100
AcDbEntity
  8
SK3
  6
SLD-Solid
370
    18
100
AcDbLine
 10
-55.6000150566
 20
-1.7293164274
 30
0.0
 11
-55.5999986827
 21
-3.4264191054
 31
0.0
  0
LINE
  5
197
330
1F
100
AcDbEntity
  8
SK3
  6
SLD-Solid
370
    18
100
AcDbLine
 10
-55.5999986827
 20
-3.4264191054
 30
0.0
 11
-55.5999986827
 21
-5.05969394
 31
0.0
  0
LINE
  5
198
330
1F
100
AcDbEntity
  8
SK3
  6
SLD-Solid
370
    18
100
AcDbLine
 10
-55.5999986827
 20
-5.05969394
 30
0.0
 11
-55.5999986827
 21
-6.5987161361
 31
0.0
  0
LINE
  5
199
330
1F
100
AcDbEntity
  8
SK3
  6
SLD-Solid
370
    18
100
AcDbLine
 10
-55.5999986827
 20
-6.5987161361
 30
0.0
 11
-55.5999986827
 21
-8.0148167908
 31
0.0
  0
LINE
  5
19A
330
1F
100
AcDbEntity
  8
SK3
  6
SLD-Solid
370
    18
100
AcDbLine
 10
-55.5999986827
 20
-8.0148167908
 30
0.0
 11
-55.5999986827
 21
-9.281616658
 31
0.0
  0
LINE
  5
19B
330
1F
100
AcDbEntity
  8
SK3
  6
SLD-Solid
370
    18
100
AcDbLine
 10
-55.5999986827
 20
-9.281616658
 30
0.0
 11
-55.5999986827
 21
-10.3755174205
 31
0.0
  0
LINE
  5
19C
330
1F
100
AcDbEntity
  8
SK3
  6
SLD-Solid
370
    18
100
AcDbLine
 10
-55.5999986827
 20
-10.3755174205
 30
0.0
 11
-55.5999986827
 21
-11.2761426717
 31
0.0
  0
LINE
  5
19D
330
1F
100
AcDbEntity
  8
SK3
  6
SLD-Solid
370
    18
100
AcDbLine
 10
-55.5999986827
 20
-11.2761426717
 30
0.0
 11
-55.5999986827
 21
-11.9667137042
 31
0.0
  0
LINE
  5
19E
330
1F
100
AcDbEntity
  8
SK3
  6
SLD-Solid
370
    18
100
AcDbLine
 10
-55.5999986827
 20
-11.9667137042
 30
0.0
 11
-55.5999986827
 21
-12.4343680218
 31
0.0
  0
LINE
  5
19F
330
1F
100
AcDbEntity
  8
SK3
  6
SLD-Solid
370
    18
100
AcDbLine
 10
-55.5999986827
 20
-12.4343680218
 30
0.0
 11
-55.5999986827
 21
-12.6703931019
 31
0.0
  0
LINE
  5
1A0
330
1F
100
AcDbEntity
  8
SK3
  6
SLD-Solid
370
    18
100
AcDbLine
 10
-55.5999986827
 20
-12.6703931019
 30
0.0
 11
-55.5999986827
 21
-12.6999998465
 31
0.0
  0
LINE
  5
1A1
330
1F
100
AcDbEntity
  8
SK3
  6
SLD-Solid
370
    18
100
AcDbLine
 10
-55.6000150566
 20
12.6999998465
 30
0.0
 11
-55.5999986827
 21
12.6703931019
 31
0.0
  0
LINE
  5
1A2
330
1F
100
AcDbEntity
  8
SK3
  6
SLD-Solid
370
    18
100
AcDbLine
 10
-55.5999986827
 20
12.6703931019
 30
0.0
 11
-55.5999986827
 21
12.4343680218
 31
0.0
  0
LINE
  5
1A3
330
1F
100
AcDbEntity
  8
SK3
  6
SLD-Solid
370
    18
100
AcDbLine
 10
-55.5999986827
 20
12.4343680218
 30
0.0
 11
-55.5999986827
 21
11.9667137042
 31
0.0
  0
LINE
  5
1A4
330
1F
100
AcDbEntity
  8
SK3
  6
SLD-Solid
370
    18
100
AcDbLine
 10
-55.5999986827
 20
11.9667137042
 30
0.0
 11
-55.5999986827
 21
11.2761426717
 31
0.0
  0
LINE
  5
1A5
330
1F
100
AcDbEntity
  8
SK3
  6
SLD-Solid
370
    18
100
AcDbLine
 10
-55.5999986827
 20
11.2761426717
 30
0.0
 11
-55.5999986827
 21
10.3755174205
 31
0.0
  0
LINE
  5
1A6
330
1F
100
AcDbEntity
  8
SK3
  6
SLD-Solid
370
    18
100
AcDbLine
 10
-55.5999986827
 20
10.3755174205
 30
0.0
 11
-55.5999986827
 21
9.281616658
 31
0.0
  0
LINE
  5
1A7
330
1F
100
AcDbEntity
  8
SK3
  6
SLD-Solid
370
    18
100
AcDbLine
 10
-55.5999986827
 20
9.281616658
 30
0.0
 11
-55.5999986827
 21
8.0148167908
 31
0.0
  0
LINE
  5
1A8
330
1F
100
AcDbEntity
  8
SK3
  6
SLD-Solid
370
    18
100
AcDbLine
 10
-55.5999986827
 20
8.0148167908
 30
0.0
 11
-55.5999986827
 21
6.5987161361
 31
0.0
  0
LINE
  5
1A9
330
1F
100
AcDbEntity
  8
SK3
  6
SLD-Solid
370
    18
100
AcDbLine
 10
-55.5999986827
 20
6.5987161361
 30
0.0
 11
-55.5999986827
 21
5.05969394
 31
0.0
  0
LINE
  5
1AA
330
1F
100
AcDbEntity
  8
SK3
  6
SLD-Solid
370
    18
100
AcDbLine
 10
-55.5999986827
 20
5.05969394
 30
0.0
 11
-55.5999986827
 21
3.4264191054
 31
0.0
  0
LINE
  5
1AB
330
1F
100
AcDbEntity
  8
SK3
  6
SLD-Solid
370
    18
100
AcDbLine
 10
-55.5999986827
 20
3.4264191054
 30
0.0
 11
-55.5999986827
 21
1.7293164274
 31
0.0
  0
LINE
  5
1AC
330
1F
100
AcDbEntity
  8
SK3
  6
SLD-Solid
370
    18
100
AcDbLine
 10
-55.5999986827
 20
1.7293164274
 30
0.0
 11
-55.5999986827
 21
0.0
 31
0.0
  0
LINE
  5
1AD
330
1F
100
AcDbEntity
  8
SK3
  6
SLD-Solid
370
    18
100
AcDbLine
 10
47.800000757
 20
9.9768415093
 30
0.0
 11
47.800000757
 21
18.9500004053
 31
0.0
  0
LINE
  5
1AE
330
1F
100
AcDbEntity
  8
SK3
  6
SLD-Solid
370
    18
100
AcDbLine
 10
37.7999991179
 20
18.9500004053
 30
0.0
 11
37.7999991179
 21
9.9768415093
 31
0.0
  0
LINE
  5
1AF
330
1F
100
AcDbEntity
  8
SK3
  6
SLD-Solid
370
    18
100
AcDbLine
 10
47.7533116937
 20
9.9768415093
 30
0.0
 11
47.6638711989
 21
9.9326344207
 31
0.0
  0
LINE
  5
1B0
330
1F
100
AcDbEntity
  8
SK3
  6
SLD-Solid
370
    18
100
AcDbLine
 10
70.2000036836
 20
9.9768415093
 30
0.0
 11
70.2000036836
 21
18.9500004053
 31
0.0
  0
LINE
  5
1B1
330
1F
100
AcDbEntity
  8
SK3
  6
SLD-Solid
370
    18
100
AcDbLine
 10
60.1999983191
 20
18.9500004053
 30
0.0
 11
60.1999983191
 21
9.9768415093
 31
0.0
  0
LINE
  5
1B2
330
1F
100
AcDbEntity
  8
SK3
  6
SLD-Solid
370
    18
100
AcDbLine
 10
70.153310895
 20
9.9768415093
 30
0.0
 11
70.0638666749
 21
9.9326344207
 31
0.0
  0
LINE
  5
1B3
330
1F
100
AcDbEntity
  8
4
  6
SLD-Center
370
    18
100
AcDbLine
 10
82.0
 20
0.0
 30
0.0
 11
-0.302533459
 21
0.0
 31
0.0
  0
LINE
  5
1B4
330
1F
100
AcDbEntity
  8
4
  6
SLD-Center
370
    18
100
AcDbLine
 10
42.8
 20
8.0
 30
0.0
 11
42.8
 21
20.45
 31
0.0
  0
LINE
  5
1B5
330
1F
100
AcDbEntity
  8
4
  6
SLD-Center
370
    18
100
AcDbLine
 10
65.2
 20
8.0
 30
0.0
 11
65.2
 21
20.45
 31
0.0
  0
LINE
  5
1B6
330
1F
100
AcDbEntity
  8
SK4
  6
SLD-Center
370
    18
100
AcDbLine
 10
-101.8030472773
 20
0.0
 30
0.0
 11
81.2363282373
 21
0.0
 31
0.0
  0
LINE
  5
1B7
330
1F
100
AcDbEntity
  8
81
370
    18
100
AcDbLine
 10
80.0
 20
0.0
 30
0.0
 11
83.5355339059
 21
3.5355339059
 31
0.0
  0
LINE
  5
1B8
330
1F
100
AcDbEntity
  8
81
370
    18
100
AcDbLine
 10
80.0
 20
0.0
 30
0.0
 11
76.4644660941
 21
-3.5355339059
 31
0.0
  0
LINE
  5
1B9
330
1F
100
AcDbEntity
  8
81
370
    18
100
AcDbLine
 10
80.0
 20
0.0
 30
0.0
 11
76.4644660941
 21
3.5355339059
 31
0.0
  0
LINE
  5
1BA
330
1F
100
AcDbEntity
  8
81
100
AcDbLine
 10
80.0
 20
0.0
 30
0.0
 11
90.0
 21
0.0
 31
0.0
  0
LINE
  5
1BB
330
1F
100
AcDbEntity
  8
81
370
    18
100
AcDbLine
 10
80.0
 20
0.0
 30
0.0
 11
83.5355339059
 21
-3.5355339059
 31
0.0
  0
LINE
  5
1BC
330
1F
100
AcDbEntity
  8
80
370
    18
100
AcDbLine
 10
0.0
 20
0.0
 30
0.0
 11
-3.5355339059
 21
-3.5355339059
 31
0.0
  0
LINE
  5
1BD
330
1F
100
AcDbEntity
  8
80
370
    18
100
AcDbLine
 10
0.0
 20
0.0
 30
0.0
 11
3.5355339059
 21
3.5355339059
 31
0.0
  0
LINE
  5
1BE
330
1F
100
AcDbEntity
  8
80
370
    18
100
AcDbLine
 10
0.0
 20
0.0
 30
0.0
 11
-3.5355339059
 21
3.5355339059
 31
0.0
  0
LINE
  5
1BF
330
1F
100
AcDbEntity
  8
80
370
    18
100
AcDbLine
 10
0.0
 20
0.0
 30
0.0
 11
-10.0
 21
0.0
 31
0.0
  0
LINE
  5
1C0
330
1F
100
AcDbEntity
  8
80
370
    18
100
AcDbLine
 10
0.0
 20
0.0
 30
0.0
 11
3.5355339059
 21
-3.5355339059
 31
0.0
  0
ARC
  5
1C1
330
1F
100
AcDbEntity
  8
1
  6
SLD-Solid
370
    25
100
AcDbCircle
 10
2.45
 20
35.425
 30
0.0
 40
0.7500000000000147
100
AcDbArc
 50
245.0
 51
0.0
  0
ARC
  5
1C2
330
1F
100
AcDbEntity
  8
1
  6
SLD-Solid
370
    25
100
AcDbCircle
 10
2.45
 20
-35.425
 30
0.0
 40
0.7500000000000105
100
AcDbArc
 50
25.5803064248
 51
115.0
  0
ARC
  5
1C3
330
1F
100
AcDbEntity
  8
1
  6
SLD-Solid
370
    25
100
AcDbCircle
 10
22.098
 20
-23.048
 30
0.0
 40
3.048000000000002
100
AcDbArc
 50
90.0
 51
180.0
  0
ARC
  5
1C4
330
1F
100
AcDbEntity
  8
1
  6
SLD-Solid
370
    25
100
AcDbCircle
 10
22.098
 20
23.048
 30
0.0
 40
3.047999999999995
100
AcDbArc
 50
180.0
 51
270.0
  0
ARC
  5
1C5
330
1F
100
AcDbEntity
  8
SK1
  6
SLD-Solid
370
    25
100
AcDbCircle
 10
-99.5
 20
18.2922326599
 30
0.0
 40
2.100000000000009
100
AcDbArc
 50
98.2972222222
 51
180.0
  0
ARC
  5
1C6
330
1F
100
AcDbEntity
  8
SK1
  6
SLD-Solid
370
    25
100
AcDbCircle
 10
-99.5
 20
-18.2922326599
 30
0.0
 40
2.100000000000009
100
AcDbArc
 50
180.0
 51
261.7027777778
  0
ARC
  5
1C7
330
1F
100
AcDbEntity
  8
1
370
    18
100
AcDbCircle
 10
42.7949628149
 20
-43.2007032209
 30
0.0
 40
24.25119579386939
100
AcDbArc
 50
73.0742530042
 51
106.9257469958
  0
ARC
  5
1C8
330
1F
100
AcDbEntity
  8
1
370
    18
100
AcDbCircle
 10
65.2001235032
 20
-43.2414517258
 30
0.0
 40
24.29198097035055
100
AcDbArc
 50
73.0914120537
 51
106.8843630855
  0
CIRCLE
  5
1C9
330
1F
100
AcDbEntity
  8
81
370
    18
100
AcDbCircle
 10
80.0
 20
0.0
 30
0.0
 40
2.499999999999984
  0
CIRCLE
  5
1CA
330
1F
100
AcDbEntity
  8
80
370
    18
100
AcDbCircle
 10
0.0
 20
0.0
 30
0.0
 40
2.500000000000009
  0
SPLINE
  5
1CB
330
1F
100
AcDbEntity
  8
1
  6
SLD-Solid
370
    25
100
AcDbSpline
210
0.0
220
0.0
230
1.0
 70
     8
 71
     3
 72
    12
 73
     8
 74
     0
 42
0.000000001
 43
0.00000001
 40
0.0
 40
0.0
 40
0.0
 40
0.0
 40
0.2499999999999983
 40
0.2499999999999983
 40
0.4999999999999967
 40
0.4999999999999967
 40
1.0
 40
1.0
 40
1.0
 40
1.0
 10
19.05
 20
-46.69763484374771
 30
0.0
 10
19.05
 20
-46.79851095846172
 30
0.0
 10
19.03137059366211
 20
-46.8973396642895
 30
0.0
 10
18.95815575330309
 20
-47.08411469648357
 30
0.0
 10
18.90402082648723
 20
-47.16991322230012
 30
0.0
 10
18.69812814693782
 20
-47.3875344447254
 30
0.0
 10
18.50197314321876
 20
-47.47548419974301
 30
0.0
 10
18.30000000000011
 20
-47.47548419974304
 30
0.0
  0
SPLINE
  5
1CC
330
1F
100
AcDbEntity
  8
1
  6
SLD-Solid
370
    25
100
AcDbSpline
210
0.0
220
0.0
230
1.0
 70
     8
 71
     3
 72
    15
 73
    11
 74
     0
 42
0.000000001
 43
0.00000001
 40
0.0
 40
0.0
 40
0.0
 40
0.0
 40
0.0708675467256531
 40
0.1234206290198877
 40
0.2469923695819999
 40
0.4940839350895743
 40
0.6226370205415216
 40
0.745689656430239
 40
0.873671271585231
 40
1.0
 40
1.0
 40
1.0
 40
1.0
 10
19.05
 20
46.55608553132448
 30
0.0
 10
19.04912781744729
 20
46.58344641762339
 30
0.0
 10
19.04760885250138
 20
46.63109725292921
 30
0.0
 10
19.03252103265911
 20
46.72541301614141
 30
0.0
 10
18.98548435274776
 20
46.88286431586852
 30
0.0
 10
18.87493087107416
 20
47.04890219775876
 30
0.0
 10
18.72384724362425
 20
47.17307551099159
 30
0.0
 10
18.59213990197338
 20
47.24320117903743
 30
0.0
 10
18.44967423033344
 20
47.28829435245695
 30
0.0
 10
18.34967476169988
 20
47.29398684876374
 30
0.0
 10
18.30000000000005
 20
47.29681459776462
 30
0.0
  0
SPLINE
  5
1CD
330
1F
100
AcDbEntity
  8
1
  6
SLD-Solid
370
    25
100
AcDbSpline
210
0.0
220
0.0
230
1.0
 70
     8
 71
     3
 72
    12
 73
     8
 74
     0
 42
0.000000001
 43
0.00000001
 40
0.0
 40
0.0
 40
0.0
 40
0.0
 40
0.249999999999997
 40
0.249999999999997
 40
0.499999999999994
 40
0.499999999999994
 40
1.0
 40
1.0
 40
1.0
 40
1.0
 10
3.950000000000009
 20
-47.4754841997425
 30
0.0
 10
3.849084030890612
 20
-47.4754841997425
 30
0.0
 10
3.749978417477457
 20
-47.45437693482703
 30
0.0
 10
3.566847730075526
 20
-47.37426897057827
 30
0.0
 10
3.483455095947358
 20
-47.31511647588032
 30
0.0
 10
3.278048511272585
 20
-47.09831987092233
 30
0.0
 10
3.200000000000008
 20
-46.89926900274103
 30
0.0
 10
3.200000000000008
 20
-46.69763484374771
 30
0.0
  0
SPLINE
  5
1CE
330
1F
100
AcDbEntity
  8
1
  6
SLD-Solid
370
    25
100
AcDbSpline
210
0.0
220
0.0
230
1.0
 70
     8
 71
     3
 72
    17
 73
    13
 74
     0
 42
0.000000001
 43
0.00000001
 40
0.0
 40
0.0
 40
0.0
 40
0.0
 40
0.0631225276679342
 40
0.1266732404557587
 40
0.1906578598239172
 40
0.2550819704917586
 40
0.3779677562094053
 40
0.5065287291742404
 40
0.7536275741715814
 40
0.8770326867277843
 40
0.9293515934451574
 40
1.0
 40
1.0
 40
1.0
 40
1.0
 10
3.950000000000009
 20
47.29681459776457
 30
0.0
 10
3.925201491186317
 20
47.29611182214629
 30
0.0
 10
3.875436255446299
 20
47.29470150370423
 30
0.0
 10
3.80128071794808
 20
47.28327895415906
 30
0.0
 10
3.728120549121013
 20
47.2649874618947
 30
0.0
 10
3.635342933307261
 20
47.23149463841939
 30
0.0
 10
3.525682301867306
 20
47.17267397042567
 30
0.0
 10
3.374709300492345
 20
47.04854698610308
 30
0.0
 10
3.264271220664425
 20
46.88235514412626
 30
0.0
 10
3.217384189869056
 20
46.72497704380525
 30
0.0
 10
3.202376761222977
 20
46.63086119232328
 30
0.0
 10
3.200867255992024
 20
46.58337040934664
 30
0.0
 10
3.200000000000044
 20
46.55608553132452
 30
0.0
  0
SPLINE
  5
1CF
330
1F
100
AcDbEntity
  8
1
  6
SLD-Solid
370
    25
100
AcDbSpline
210
0.0
220
0.0
230
1.0
 70
     8
 71
     3
 72
    14
 73
    10
 74
     0
 42
0.000000001
 43
0.00000001
 40
0.0
 40
0.0
 40
0.0
 40
0.0
 40
0.25
 40
0.25
 40
0.5
 40
0.5
 40
0.75
 40
0.75
 40
1.0
 40
1.0
 40
1.0
 40
1.0
 10
13.02999999999831
 20
41.98711733167756
 30
0.0
 10
13.05904068228991
 20
41.99358445675028
 30
0.0
 10
13.08275209483208
 20
41.98923559021229
 30
0.0
 10
13.1160965832268
 20
41.9518951110397
 30
0.0
 10
13.12492140067705
 20
41.91935250782256
 30
0.0
 10
13.12507754967977
 20
41.82511380577433
 30
0.0
 10
13.11615053209193
 20
41.76334893397041
 30
0.0
 10
13.08319562521609
 20
41.6208767288617
 30
0.0
 10
13.0591101994967
 20
41.53942138187503
 30
0.0
 10
13.03000000000003
 20
41.45311361597686
 30
0.0
  0
SPLINE
  5
1D0
330
1F
100
AcDbEntity
  8
1
  6
SLD-Solid
370
    25
100
AcDbSpline
210
0.0
220
0.0
230
1.0
 70
     8
 71
     3
 72
     8
 73
     4
 74
     0
 42
0.000000001
 43
0.00000001
 40
0.0
 40
0.0
 40
0.0
 40
0.0
 40
1.0
 40
1.0
 40
1.0
 40
1.0
 10
13.02999999999999
 20
44.57901066343648
 30
0.0
 10
13.44364613314278
 20
45.32508460154331
 30
0.0
 10
13.85791150908241
 20
46.07082082932958
 30
0.0
 10
14.27271061994656
 20
46.81625358782992
 30
0.0
  0
SPLINE
  5
1D1
330
1F
100
AcDbEntity
  8
1
  6
SLD-Solid
370
    25
100
AcDbSpline
210
0.0
220
0.0
230
1.0
 70
     8
 71
     3
 72
     8
 73
     4
 74
     0
 42
0.000000001
 43
0.00000001
 40
0.0
 40
0.0
 40
0.0
 40
0.0
 40
0.0008790679015124
 40
0.0008790679015124
 40
0.0008790679015124
 40
0.0008790679015124
 10
14.63972339340268
 20
47.29681459776456
 30
0.0
 10
14.51700841932646
 20
47.13673210499613
 30
0.0
 10
14.39466513614739
 20
46.97654627942754
 30
0.0
 10
14.27271061994656
 20
46.81625358782992
 30
0.0
  0
SPLINE
  5
1D2
330
1F
100
AcDbEntity
  8
1
  6
SLD-Solid
370
    25
100
AcDbSpline
210
0.0
220
0.0
230
1.0
 70
     8
 71
     3
 72
     8
 73
     4
 74
     0
 42
0.000000001
 43
0.00000001
 40
0.0
 40
0.0
 40
0.0
 40
0.0
 40
1.0
 40
1.0
 40
1.0
 40
1.0
 10
13.02999999999999
 20
-44.57901066343648
 30
0.0
 10
13.56559195163211
 20
-45.54503249842018
 30
0.0
 10
14.10222500453559
 20
-46.5104965471081
 30
0.0
 10
14.63972339340268
 20
-47.4754841997425
 30
0.0
  0
SPLINE
  5
1D3
330
1F
100
AcDbEntity
  8
1
  6
SLD-Solid
370
    25
100
AcDbSpline
210
0.0
220
0.0
230
1.0
 70
     8
 71
     3
 72
    14
 73
    10
 74
     0
 42
0.000000001
 43
0.00000001
 40
0.0
 40
0.0
 40
0.0
 40
0.0
 40
0.25
 40
0.25
 40
0.5
 40
0.5
 40
0.75
 40
0.75
 40
1.0
 40
1.0
 40
1.0
 40
1.0
 10
13.03000000000003
 20
35.43161038841291
 30
0.0
 10
13.05904068229166
 20
35.41088512733869
 30
0.0
 10
13.08275209483381
 20
35.37953864703776
 30
0.0
 10
13.11609658322841
 20
35.28872072742524
 30
0.0
 10
13.12492140067854
 20
35.23076880196018
 30
0.0
 10
13.12507754968096
 20
35.08956907537858
 30
0.0
 10
13.11615053209291
 20
35.00648906177567
 30
0.0
 10
13.08319562521661
 20
34.82779421025371
 30
0.0
 10
13.0591101994969
 20
34.73111937885586
 30
0.0
 10
13.02999999999999
 20
34.63242923389116
 30
0.0
  0
SPLINE
  5
1D4
330
1F
100
AcDbEntity
  8
1
  6
SLD-Solid
370
    25
100
AcDbSpline
210
0.0
220
0.0
230
1.0
 70
     8
 71
     3
 72
     8
 73
     4
 74
     0
 42
0.000000001
 43
0.00000001
 40
0.0
 40
0.0
 40
0.0
 40
0.0
 40
1.0
 40
1.0
 40
1.0
 40
1.0
 10
7.590276606597335
 20
-47.4754841997425
 30
0.0
 10
8.127774995464424
 20
-46.51049654710809
 30
0.0
 10
8.664408048367891
 20
-45.54503249842017
 30
0.0
 10
9.199999999999985
 20
-44.57901066343647
 30
0.0
  0
SPLINE
  5
1D5
330
1F
100
AcDbEntity
  8
1
  6
SLD-Solid
370
    25
100
AcDbSpline
210
0.0
220
0.0
230
1.0
 70
     8
 71
     3
 72
     8
 73
     4
 74
     0
 42
0.000000001
 43
0.00000001
 40
0.0000000000000097
 40
0.0000000000000097
 40
0.0000000000000097
 40
0.0000000000000097
 40
0.000879067901516
 40
0.000879067901516
 40
0.000879067901516
 40
0.000879067901516
 10
7.957289380062127
 20
46.81625358782996
 30
0.0
 10
7.835334863860815
 20
46.97654627942825
 30
0.0
 10
7.712991580674039
 20
47.1367321049955
 30
0.0
 10
7.590276606597335
 20
47.29681459776457
 30
0.0
  0
SPLINE
  5
1D6
330
1F
100
AcDbEntity
  8
1
  6
SLD-Solid
370
    25
100
AcDbSpline
210
0.0
220
0.0
230
1.0
 70
     8
 71
     3
 72
     8
 73
     4
 74
     0
 42
0.000000001
 43
0.00000001
 40
0.0
 40
0.0
 40
0.0
 40
0.0
 40
1.0
 40
1.0
 40
1.0
 40
1.0
 10
7.957289380055702
 20
46.81625358784152
 30
0.0
 10
8.372088490919111
 20
46.07082082933731
 30
0.0
 10
8.78635386685797
 20
45.32508460154718
 30
0.0
 10
9.199999999999985
 20
44.57901066343647
 30
0.0
  0
SPLINE
  5
1D7
330
1F
100
AcDbEntity
  8
1
  6
SLD-Solid
370
    25
100
AcDbSpline
210
0.0
220
0.0
230
1.0
 70
     8
 71
     3
 72
    14
 73
    10
 74
     0
 42
0.000000001
 43
0.00000001
 40
0.0
 40
0.0
 40
0.0
 40
0.0
 40
0.25
 40
0.25
 40
0.5
 40
0.5
 40
0.75
 40
0.75
 40
1.0
 40
1.0
 40
1.0
 40
1.0
 10
9.200000000000083
 20
41.48301295145395
 30
0.0
 10
9.176680646155082
 20
41.55645645104917
 30
0.0
 10
9.157956892053999
 20
41.62429306843848
 30
0.0
 10
9.131927678783715
 20
41.74600607925119
 30
0.0
 10
9.125045582367758
 20
41.7986057344133
 30
0.0
 10
9.1249548796434
 20
41.88147815789128
 30
0.0
 10
9.131870505304839
 20
41.91255410941356
 30
0.0
 10
9.157670888230356
 20
41.95124091970149
 30
0.0
 10
9.176601575159566
 20
41.95960923610554
 30
0.0
 10
9.199999999999985
 20
41.95870119642319
 30
0.0
  0
SPLINE
  5
1D8
330
1F
100
AcDbEntity
  8
1
  6
SLD-Solid
370
    25
100
AcDbSpline
210
0.0
220
0.0
230
1.0
 70
     8
 71
     3
 72
    14
 73
    10
 74
     0
 42
0.000000001
 43
0.00000001
 40
0.0
 40
0.0
 40
0.0
 40
0.0
 40
0.25
 40
0.25
 40
0.5
 40
0.5
 40
0.75
 40
0.75
 40
1.0
 40
1.0
 40
1.0
 40
1.0
 10
9.199999999999985
 20
34.67668893498511
 30
0.0
 10
9.176680646154997
 20
34.76218380134748
 30
0.0
 10
9.157956892053967
 20
34.8440912290536
 30
0.0
 10
9.13192767878375
 20
34.99897222909968
 30
0.0
 10
9.125045582367791
 20
35.07047900120353
 30
0.0
 10
9.124954879643473
 20
35.19440944821481
 30
0.0
 10
9.13187050530491
 20
35.24816533561743
 30
0.0
 10
9.157670888230468
 20
35.33309634836886
 30
0.0
 10
9.176601575159648
 20
35.36545280972796
 30
0.0
 10
9.200000000000083
 20
35.38859611770602
 30
0.0
  0
SPLINE
  5
1D9
330
1F
100
AcDbEntity
  8
1
  6
SLD-Solid
370
    25
100
AcDbSpline
210
0.0
220
0.0
230
1.0
 70
     8
 71
     3
 72
    12
 73
     8
 74
     0
 42
0.000000001
 43
0.00000001
 40
0.0
 40
0.0
 40
0.0
 40
0.0
 40
0.2500000000000032
 40
0.2500000000000032
 40
0.5000000000000063
 40
0.5000000000000063
 40
1.0
 40
1.0
 40
1.0
 40
1.0
 10
12.28000000000001
 20
-43.76943596849289
 30
0.0
 10
12.37996960464108
 20
-43.76943596849289
 30
0.0
 10
12.47988502523367
 20
-43.79051518316404
 30
0.0
 10
12.66449294223869
 20
-43.87194262843689
 30
0.0
 10
12.74728498815325
 20
-43.93126060501207
 30
0.0
 10
12.95342033959715
 20
-44.15080408372863
 30
0.0
 10
13.03
 20
-44.35163254795798
 30
0.0
 10
13.03
 20
-44.551021593225
 30
0.0
  0
SPLINE
  5
1DA
330
1F
100
AcDbEntity
  8
1
  6
SLD-Solid
370
    25
100
AcDbSpline
210
0.0
220
0.0
230
1.0
 70
     8
 71
     3
 72
    16
 73
    12
 74
     0
 42
0.000000001
 43
0.00000001
 40
0.0
 40
0.0
 40
0.0
 40
0.0
 40
0.1250000000000046
 40
0.1250000000000046
 40
0.2500000000000093
 40
0.2500000000000093
 40
0.5000000000000062
 40
0.5000000000000062
 40
0.7500000000000031
 40
0.7500000000000031
 40
1.0
 40
1.0
 40
1.0
 40
1.0
 10
13.03000000000007
 20
34.6121429335377
 30
0.0
 10
13.03000000000007
 20
34.56209057487058
 30
0.0
 10
13.02065294411484
 20
34.49418168319002
 30
0.0
 10
12.99398048511276
 20
34.36464403352252
 30
0.0
 10
12.97642696334998
 20
34.29963512189943
 30
0.0
 10
12.91552537677518
 20
34.1110900887947
 30
0.0
 10
12.86339286421971
 20
33.99146656597637
 30
0.0
 10
12.7358950871924
 20
33.76735702152853
 30
0.0
 10
12.66177247937998
 20
33.66488016959316
 30
0.0
 10
12.48717620991972
 20
33.48393706595338
 30
0.0
 10
12.38852389941562
 20
33.40790877807638
 30
0.0
 10
12.28000000000015
 20
33.35547071674117
 30
0.0
  0
SPLINE
  5
1DB
330
1F
100
AcDbEntity
  8
1
  6
SLD-Solid
370
    25
100
AcDbSpline
210
0.0
220
0.0
230
1.0
 70
     8
 71
     3
 72
    12
 73
     8
 74
     0
 42
0.000000001
 43
0.00000001
 40
0.0
 40
0.0
 40
0.0
 40
0.0
 40
0.5
 40
0.5
 40
0.75
 40
0.75
 40
1.0
 40
1.0
 40
1.0
 40
1.0
 10
9.199999999999985
 20
-44.55102159322499
 30
0.0
 10
9.199999999999985
 20
-44.35094747116167
 30
0.0
 10
9.277613070150112
 20
-44.14958800989076
 30
0.0
 10
9.482511037300565
 20
-43.93153570225751
 30
0.0
 10
9.566272299852297
 20
-43.87162606259759
 30
0.0
 10
9.749092094904377
 20
-43.79094541821726
 30
0.0
 10
9.849426682175643
 20
-43.7694359684929
 30
0.0
 10
9.949999999999987
 20
-43.76943596849289
 30
0.0
  0
SPLINE
  5
1DC
330
1F
100
AcDbEntity
  8
1
  6
SLD-Solid
370
    25
100
AcDbSpline
210
0.0
220
0.0
230
1.0
 70
     8
 71
     3
 72
    16
 73
    12
 74
     0
 42
0.000000001
 43
0.00000001
 40
0.0
 40
0.0
 40
0.0
 40
0.0
 40
0.2499999999999969
 40
0.2499999999999969
 40
0.4999999999999939
 40
0.4999999999999939
 40
0.7499999999999909
 40
0.7499999999999909
 40
0.8749999999999954
 40
0.8749999999999954
 40
1.0
 40
1.0
 40
1.0
 40
1.0
 10
9.949999999999987
 20
33.36525953046014
 30
0.0
 10
9.840115197249421
 20
33.41973399385513
 30
0.0
 10
9.740114634528327
 20
33.49888204034021
 30
0.0
 10
9.565186575114861
 20
33.68500807425349
 30
0.0
 10
9.491074608996161
 20
33.79034376219429
 30
0.0
 10
9.364150836068175
 20
34.02052030270347
 30
0.0
 10
9.313098047975089
 20
34.1421969869826
 30
0.0
 10
9.253526192128506
 20
34.33375876751867
 30
0.0
 10
9.236261752998825
 20
34.40012850280863
 30
0.0
 10
9.209647219000583
 20
34.53399128948844
 30
0.0
 10
9.200000000000014
 20
34.60475446881948
 30
0.0
 10
9.200000000000014
 20
34.65640299543512
 30
0.0
  0
SPLINE
  5
1DD
330
1F
100
AcDbEntity
  8
1
  6
SLD-Solid
370
    25
100
AcDbSpline
210
0.0
220
0.0
230
1.0
 70
     8
 71
     3
 72
    12
 73
     8
 74
     0
 42
0.000000001
 43
0.00000001
 40
0.0
 40
0.0
 40
0.0
 40
0.0
 40
0.25
 40
0.25
 40
0.5
 40
0.5
 40
1.0
 40
1.0
 40
1.0
 40
1.0
 10
12.28000000000015
 20
33.35547071674117
 30
0.0
 10
12.1093445647754
 20
33.27301109054176
 30
0.0
 10
11.92465326465514
 20
33.21019284332249
 30
0.0
 10
11.52752277837891
 20
33.12414278909393
 30
0.0
 10
11.32193513118791
 20
33.10278110396334
 30
0.0
 10
10.69948105299433
 20
33.10504385732283
 30
0.0
 10
10.28831449591981
 20
33.19754297491603
 30
0.0
 10
9.949999999999987
 20
33.36525953046014
 30
0.0
  0
SPLINE
  5
1DE
330
1F
100
AcDbEntity
  8
1
  6
SLD-Solid
370
    25
100
AcDbSpline
210
0.0
220
0.0
230
1.0
 70
     8
 71
     3
 72
    16
 73
    12
 74
     0
 42
0.000000001
 43
0.00000001
 40
0.0
 40
0.0
 40
0.0
 40
0.0
 40
0.125
 40
0.125
 40
0.25
 40
0.25
 40
0.5
 40
0.5
 40
0.75
 40
0.75
 40
1.0
 40
1.0
 40
1.0
 40
1.0
 10
9.200000000000083
 20
35.36831017815612
 30
0.0
 10
9.200000000000083
 20
35.31637419223154
 30
0.0
 10
9.209653399712234
 20
35.29145106668647
 30
0.0
 10
9.236312882941924
 20
35.26502419973843
 30
0.0
 10
9.253245568984047
 20
35.26191874349171
 30
0.0
 10
9.312936770244612
 20
35.26171132606326
 30
0.0
 10
9.364625487604695
 20
35.27496925509706
 30
0.0
 10
9.489800989275112
 20
35.31149863419939
 30
0.0
 10
9.564994697034049
 20
35.33617423114892
 30
0.0
 10
9.739627160863753
 20
35.39959085682597
 30
0.0
 10
9.839685084682124
 20
35.43845618139891
 30
0.0
 10
9.949999999999932
 20
35.48885481142718
 30
0.0
  0
SPLINE
  5
1DF
330
1F
100
AcDbEntity
  8
1
  6
SLD-Solid
370
    25
100
AcDbSpline
210
0.0
220
0.0
230
1.0
 70
     8
 71
     3
 72
    12
 73
     8
 74
     0
 42
0.000000001
 43
0.00000001
 40
0.0
 40
0.0
 40
0.0
 40
0.0
 40
0.2499999999999994
 40
0.2499999999999994
 40
0.4999999999999989
 40
0.4999999999999989
 40
1.0
 40
1.0
 40
1.0
 40
1.0
 10
9.949999999999932
 20
35.48885481142718
 30
0.0
 10
10.11915676939233
 20
35.56613601508698
 30
0.0
 10
10.30270770519942
 20
35.62476545356024
 30
0.0
 10
10.69826560395108
 20
35.70597605697907
 30
0.0
 10
10.90345647830329
 20
35.7268127319254
 30
0.0
 10
11.52590240230562
 20
35.72953904175682
 30
0.0
 10
11.93868796900778
 20
35.64974792445722
 30
0.0
 10
12.2800000000001
 20
35.49787263616149
 30
0.0
  0
SPLINE
  5
1E0
330
1F
100
AcDbEntity
  8
1
  6
SLD-Solid
370
    25
100
AcDbSpline
210
0.0
220
0.0
230
1.0
 70
     8
 71
     3
 72
    16
 73
    12
 74
     0
 42
0.000000001
 43
0.00000001
 40
0.0
 40
0.0
 40
0.0
 40
0.0
 40
0.2500000000000018
 40
0.2500000000000018
 40
0.5000000000000037
 40
0.5000000000000037
 40
0.7500000000000056
 40
0.7500000000000056
 40
0.8750000000000028
 40
0.8750000000000028
 40
1.0
 40
1.0
 40
1.0
 40
1.0
 10
12.2800000000001
 20
35.49787263616149
 30
0.0
 10
12.3885397831457
 20
35.44957515655355
 30
0.0
 10
12.48748427188258
 20
35.41247399379461
 30
0.0
 10
12.66182611876369
 20
35.35254969893805
 30
0.0
 10
12.73596354499192
 20
35.33014005380283
 30
0.0
 10
12.86356884435587
 20
35.29801454822601
 30
0.0
 10
12.91541979328982
 20
35.28785227470992
 30
0.0
 10
12.97600089482361
 20
35.29430212593838
 30
0.0
 10
12.99363960592952
 20
35.30002273764809
 30
0.0
 10
13.02061187691302
 20
35.33215045104405
 30
0.0
 10
13.03000000000003
 20
35.36105294416014
 30
0.0
 10
13.03000000000003
 20
35.41132408806017
 30
0.0
  0
SPLINE
  5
1E1
330
1F
100
AcDbEntity
  8
1
  6
SLD-Solid
370
    25
100
AcDbSpline
210
0.0
220
0.0
230
1.0
 70
     8
 71
     3
 72
    16
 73
    12
 74
     0
 42
0.000000001
 43
0.00000001
 40
0.0
 40
0.0
 40
0.0
 40
0.0
 40
0.2500000000000006
 40
0.2500000000000006
 40
0.5000000000000012
 40
0.5000000000000012
 40
0.7500000000000018
 40
0.7500000000000018
 40
0.8750000000000009
 40
0.8750000000000009
 40
1.0
 40
1.0
 40
1.0
 40
1.0
 10
9.949999999999932
 20
40.29017607249196
 30
0.0
 10
9.840115197249366
 20
40.32769191515911
 30
0.0
 10
9.740114634528272
 20
40.39110305640844
 30
0.0
 10
9.565186575114792
 20
40.54750991912181
 30
0.0
 10
9.491074608996119
 20
40.63905997016499
 30
0.0
 10
9.364150836068147
 20
40.84333315092833
 30
0.0
 10
9.31309804797506
 20
40.95302853274268
 30
0.0
 10
9.253526192128463
 20
41.13112475441035
 30
0.0
 10
9.236261752998798
 20
41.19364638304932
 30
0.0
 10
9.209647219000555
 20
41.3249853760435
 30
0.0
 10
9.2
 20
41.39734520374324
 30
0.0
 10
9.2
 20
41.45885414630703
 30
0.0
  0
SPLINE
  5
1E2
330
1F
100
AcDbEntity
  8
1
  6
SLD-Solid
370
    25
100
AcDbSpline
210
0.0
220
0.0
230
1.0
 70
     8
 71
     3
 72
    16
 73
    12
 74
     0
 42
0.000000001
 43
0.00000001
 40
0.0
 40
0.0
 40
0.0
 40
0.0
 40
0.1249999999999948
 40
0.1249999999999948
 40
0.2499999999999896
 40
0.2499999999999896
 40
0.499999999999993
 40
0.499999999999993
 40
0.7499999999999964
 40
0.7499999999999964
 40
1.0
 40
1.0
 40
1.0
 40
1.0
 10
13.02999999999825
 20
41.42895438114486
 30
0.0
 10
13.02999999999827
 20
41.36934633700163
 30
0.0
 10
13.02065294411302
 20
41.29866354917701
 30
0.0
 10
12.99398048511093
 20
41.16986773975707
 30
0.0
 10
12.97642696334815
 20
41.10790162405089
 30
0.0
 10
12.91552537677335
 20
40.93090731801533
 30
0.0
 10
12.86339286421788
 20
40.82239922313002
 30
0.0
 10
12.73589508719056
 20
40.62247008442405
 30
0.0
 10
12.66177247937814
 20
40.53306728339818
 30
0.0
 10
12.48717620991788
 20
40.38055877071123
 30
0.0
 10
12.38852389941378
 20
40.31955634524482
 30
0.0
 10
12.27999999999829
 20
40.28343379132437
 30
0.0
  0
SPLINE
  5
1E3
330
1F
100
AcDbEntity
  8
1
  6
SLD-Solid
370
    25
100
AcDbSpline
210
0.0
220
0.0
230
1.0
 70
     8
 71
     3
 72
    12
 73
     8
 74
     0
 42
0.000000001
 43
0.00000001
 40
0.0
 40
0.0
 40
0.0
 40
0.0
 40
0.25
 40
0.25
 40
0.5
 40
0.5
 40
1.0
 40
1.0
 40
1.0
 40
1.0
 10
12.27999999999829
 20
40.28343379132437
 30
0.0
 10
12.10934456477354
 20
40.22663054158925
 30
0.0
 10
11.92465326465332
 20
40.18318651206265
 30
0.0
 10
11.52752277837708
 20
40.12362389225024
 30
0.0
 10
11.32193513118607
 20
40.10880147711178
 30
0.0
 10
10.6994810529925
 20
40.11037023230919
 30
0.0
 10
10.28831449592002
 20
40.17467189827297
 30
0.0
 10
9.949999999999932
 20
40.29017607249196
 30
0.0
  0
SPLINE
  5
1E4
330
1F
100
AcDbEntity
  8
1
  6
SLD-Solid
370
    25
100
AcDbSpline
210
0.0
220
0.0
230
1.0
 70
     8
 71
     3
 72
    16
 73
    12
 74
     0
 42
0.000000001
 43
0.00000001
 40
0.0
 40
0.0
 40
0.0
 40
0.0
 40
0.1250000000000012
 40
0.1250000000000012
 40
0.2500000000000024
 40
0.2500000000000024
 40
0.5000000000000017
 40
0.5000000000000017
 40
0.7500000000000009
 40
0.7500000000000009
 40
1.0
 40
1.0
 40
1.0
 40
1.0
 10
9.199999999999985
 20
41.93454239127637
 30
0.0
 10
9.199999999999985
 20
41.87269110945758
 30
0.0
 10
9.209653399712137
 20
41.8310880616862
 30
0.0
 10
9.236312882941842
 20
41.77149290519164
 30
0.0
 10
9.253245568983965
 20
41.75157832991431
 30
0.0
 10
9.31293677024453
 20
41.70114802861768
 30
0.0
 10
9.364625487604627
 20
41.6813888205381
 30
0.0
 10
9.489800989275087
 20
41.65594900314563
 30
0.0
 10
9.564994697034022
 20
41.65085588902674
 30
0.0
 10
9.739627160863755
 20
41.66120386718119
 30
0.0
 10
9.839685084682152
 20
41.67658338490401
 30
0.0
 10
9.949999999999974
 20
41.70913817421916
 30
0.0
  0
SPLINE
  5
1E5
330
1F
100
AcDbEntity
  8
1
  6
SLD-Solid
370
    25
100
AcDbSpline
210
0.0
220
0.0
230
1.0
 70
     8
 71
     3
 72
    12
 73
     8
 74
     0
 42
0.000000001
 43
0.00000001
 40
0.0
 40
0.0
 40
0.0
 40
0.0
 40
0.25
 40
0.25
 40
0.5
 40
0.5
 40
1.0
 40
1.0
 40
1.0
 40
1.0
 10
9.949999999999974
 20
41.70913817421916
 30
0.0
 10
10.11915676939222
 20
41.75905765222368
 30
0.0
 10
10.30270770520092
 20
41.79673649999469
 30
0.0
 10
10.69826560395214
 20
41.84886357628837
 30
0.0
 10
10.903456478304
 20
41.862193978108
 30
0.0
 10
11.52590240230525
 20
41.86393994692294
 30
0.0
 10
11.93868796900662
 20
41.81303425518614
 30
0.0
 10
12.27999999999833
 20
41.71496227397312
 30
0.0
  0
SPLINE
  5
1E6
330
1F
100
AcDbEntity
  8
1
  6
SLD-Solid
370
    25
100
AcDbSpline
210
0.0
220
0.0
230
1.0
 70
     8
 71
     3
 72
    16
 73
    12
 74
     0
 42
0.000000001
 43
0.00000001
 40
0.0
 40
0.0
 40
0.0
 40
0.0
 40
0.2499999999999985
 40
0.2499999999999985
 40
0.499999999999997
 40
0.499999999999997
 40
0.7499999999999956
 40
0.7499999999999956
 40
0.8749999999999978
 40
0.8749999999999978
 40
1.0
 40
1.0
 40
1.0
 40
1.0
 10
12.27999999999833
 20
41.71496227397312
 30
0.0
 10
12.38853978314393
 20
41.68377464914023
 30
0.0
 10
12.48748427188083
 20
41.66923008568144
 30
0.0
 10
12.66182611876196
 20
41.66076929842517
 30
0.0
 10
12.7359635449902
 20
41.666719795111
 30
0.0
 10
12.86356884435416
 20
41.69549993939819
 30
0.0
 10
12.91541979328811
 20
41.71720177720051
 30
0.0
 10
12.9760008948219
 20
41.7721284505567
 30
0.0
 10
12.99363960592779
 20
41.79443053801537
 30
0.0
 10
13.02061187691131
 20
41.85842770796561
 30
0.0
 10
13.02999999999831
 20
41.90308949835108
 30
0.0
 10
13.02999999999831
 20
41.96295809684517
 30
0.0
  0
SPLINE
  5
1E7
330
1F
100
AcDbEntity
  8
1
  6
SLD-Solid
370
    25
100
AcDbSpline
210
0.0
220
0.0
230
1.0
 70
     8
 71
     3
 72
    26
 73
    22
 74
     0
 42
0.000000001
 43
0.00000001
 40
0.0
 40
0.0
 40
0.0
 40
0.0
 40
0.0349836626058004
 40
0.0771744514405939
 40
0.1205081783053207
 40
0.1644140881969311
 40
0.2093425851225857
 40
0.2585653454559764
 40
0.3089143303000437
 40
0.36442797084637
 40
0.421335971916261
 40
0.4809263698766233
 40
0.5421815014306752
 40
0.6028432504470216
 40
0.6652875315848835
 40
0.7254220781402512
 40
0.7875168690081059
 40
0.843860604878733
 40
0.9023740493119224
 40
0.9510352989217724
 40
1.0
 40
1.0
 40
1.0
 40
1.0
 10
48.83491133703311
 20
19.99650417492899
 30
0.0
 10
48.83283944474634
 20
19.99601409686479
 30
0.0
 10
48.82826882123914
 20
19.99493297776659
 30
0.0
 10
48.66086129534097
 20
19.9563951711959
 30
0.0
 10
48.38036470230212
 20
19.89407337665793
 30
0.0
 10
47.97977427749314
 20
19.8098402069931
 30
0.0
 10
47.46238842385713
 20
19.70949249868346
 30
0.0
 10
46.82701140547596
 20
19.5995985518812
 30
0.0
 10
46.05990600862444
 20
19.48716285641811
 30
0.0
 10
45.18050520416794
 20
19.38617866919851
 30
0.0
 10
44.19269061698736
 20
19.30971119685284
 30
0.0
 10
43.13529121442971
 20
19.27167559616527
 30
0.0
 10
42.0460387706551
 20
19.28090067295302
 30
0.0
 10
40.96098699097975
 20
19.33836629246692
 30
0.0
 10
39.93412270174673
 20
19.43679579505681
 30
0.0
 10
38.98301859167241
 20
19.56497556921847
 30
0.0
 10
38.17508182827642
 20
19.70139316055326
 30
0.0
 10
37.5154784176634
 20
19.83054147280005
 30
0.0
 10
37.0683300713259
 20
19.92711562089056
 30
0.0
 10
36.7976430568589
 20
19.98886465376346
 30
0.0
 10
36.76762760191538
 20
19.99588489221745
 30
0.0
 10
36.75257322581274
 20
19.99940592197414
 30
0.0
  0
SPLINE
  5
1E8
330
1F
100
AcDbEntity
  8
1
  6
SLD-Solid
370
    25
100
AcDbSpline
210
0.0
220
0.0
230
1.0
 70
     8
 71
     3
 72
    26
 73
    22
 74
     0
 42
0.000000001
 43
0.00000001
 40
0.0
 40
0.0
 40
0.0
 40
0.0
 40
0.0349836626058005
 40
0.0771744514405939
 40
0.1205081783053207
 40
0.164414088196931
 40
0.209342585122586
 40
0.2585653454559762
 40
0.3089143303000439
 40
0.3644279708463699
 40
0.4213359719162602
 40
0.4809263698766236
 40
0.5421815014306743
 40
0.6028432504470207
 40
0.6652875315848833
 40
0.7254220781402511
 40
0.7875168690081058
 40
0.8438606048787328
 40
0.9023740493119222
 40
0.9510352989217723
 40
1.0
 40
1.0
 40
1.0
 40
1.0
 10
71.23491133703314
 20
19.99650417492899
 30
0.0
 10
71.23283944474635
 20
19.99601409686479
 30
0.0
 10
71.22826882123911
 20
19.99493297776659
 30
0.0
 10
71.06086129534094
 20
19.95639517119589
 30
0.0
 10
70.7803647023021
 20
19.89407337665793
 30
0.0
 10
70.37977427749314
 20
19.8098402069931
 30
0.0
 10
69.86238842385711
 20
19.70949249868344
 30
0.0
 10
69.22701140547599
 20
19.59959855188121
 30
0.0
 10
68.45990600862439
 20
19.4871628564181
 30
0.0
 10
67.58050520416798
 20
19.38617866919853
 30
0.0
 10
66.59269061698735
 20
19.30971119685284
 30
0.0
 10
65.53529121442975
 20
19.27167559616527
 30
0.0
 10
64.44603877065511
 20
19.28090067295302
 30
0.0
 10
63.3609869909798
 20
19.33836629246692
 30
0.0
 10
62.33412270174674
 20
19.43679579505682
 30
0.0
 10
61.38301859167239
 20
19.56497556921847
 30
0.0
 10
60.57508182827648
 20
19.70139316055326
 30
0.0
 10
59.91547841766337
 20
19.83054147280005
 30
0.0
 10
59.4683300713259
 20
19.92711562089056
 30
0.0
 10
59.1976430568589
 20
19.98886465376346
 30
0.0
 10
59.16762760191538
 20
19.99588489221745
 30
0.0
 10
59.15257322581274
 20
19.99940592197414
 30
0.0
  0
SPLINE
  5
1E9
330
1F
100
AcDbEntity
  8
1
  6
SLD-Solid
370
    25
100
AcDbSpline
210
0.0
220
0.0
230
1.0
 70
     8
 71
     3
 72
    12
 73
     8
 74
     0
 42
0.000000001
 43
0.00000001
 40
0.0
 40
0.0
 40
0.0
 40
0.0
 40
0.5
 40
0.5
 40
0.75
 40
0.75
 40
1.0
 40
1.0
 40
1.0
 40
1.0
 10
9.199999999999985
 20
44.55102159322499
 30
0.0
 10
9.199999999999985
 20
44.35104831812288
 30
0.0
 10
9.27600396681734
 20
44.15150826736531
 30
0.0
 10
9.4827590401535
 20
43.93116827137958
 30
0.0
 10
9.566857937314932
 20
43.87128621650869
 30
0.0
 10
9.74951124726116
 20
43.79084228716471
 30
0.0
 10
9.8501562428705
 20
43.76943596849257
 30
0.0
 10
9.950000000002401
 20
43.76943596849289
 30
0.0
  0
SPLINE
  5
1EA
330
1F
100
AcDbEntity
  8
1
  6
SLD-Solid
370
    25
100
AcDbSpline
210
0.0
220
0.0
230
1.0
 70
     8
 71
     3
 72
    10
 73
     6
 74
     0
 42
0.000000001
 43
0.00000001
 40
0.0
 40
0.0
 40
0.0
 40
0.0
 40
0.5
 40
0.5
 40
1.0
 40
1.0
 40
1.0
 40
1.0
 10
12.28000000000001
 20
43.76943596849289
 30
0.0
 10
12.48122846377883
 20
43.76943596849291
 30
0.0
 10
12.67900932610887
 20
43.85856672856718
 30
0.0
 10
12.95290221427664
 20
44.1502294699326
 30
0.0
 10
13.03
 20
44.34957328976747
 30
0.0
 10
13.03
 20
44.55102159322499
 30
0.0
  0
SPLINE
  5
1EB
330
1F
100
AcDbEntity
  8
SK3
  6
SLD-Dashed
370
    18
100
AcDbSpline
210
0.0
220
0.0
230
1.0
 70
     8
 71
     3
 72
    30
 73
    26
 74
     0
 42
0.000000001
 43
0.00000001
 40
0.4999999999999934
 40
0.4999999999999934
 40
0.4999999999999934
 40
0.4999999999999934
 40
0.5624999999999941
 40
0.5624999999999941
 40
0.6249999999999949
 40
0.6249999999999949
 40
0.6874999999999956
 40
0.6874999999999956
 40
0.7499999999999962
 40
0.7499999999999962
 40
0.7812499999999968
 40
0.7812499999999968
 40
0.8124999999999972
 40
0.8124999999999972
 40
0.8437499999999977
 40
0.8437499999999977
 40
0.8749999999999981
 40
0.8749999999999981
 40
0.9062499999999986
 40
0.9062499999999986
 40
0.9374999999999991
 40
0.9374999999999991
 40
0.9687499999999996
 40
0.9687499999999996
 40
1.0
 40
1.0
 40
1.0
 40
1.0
 10
9.602846279599758
 20
-14.27915034605701
 30
0.0
 10
9.68645653869378
 20
-14.42125418637639
 30
0.0
 10
9.797407143447817
 20
-14.51131733768216
 30
0.0
 10
10.04010223607202
 20
-14.63242374926581
 30
0.0
 10
10.1757110634753
 20
-14.66434400040092
 30
0.0
 10
10.46843928875954
 20
-14.6878509066433
 30
0.0
 10
10.62555865364896
 20
-14.68003033606001
 30
0.0
 10
10.98145473780837
 20
-14.62436653420486
 30
0.0
 10
11.18157682258662
 20
-14.57632221838471
 30
0.0
 10
11.50801002825756
 20
-14.45860893436549
 30
0.0
 10
11.61873162334194
 20
-14.41242944660508
 30
0.0
 10
11.84220113938106
 20
-14.30063256215534
 30
0.0
 10
11.95412269444689
 20
-14.23490090158665
 30
0.0
 10
12.16107863552153
 20
-14.08747705033183
 30
0.0
 10
12.25901625186734
 20
-14.00366784802362
 30
0.0
 10
12.43052677631516
 20
-13.82249974419393
 30
0.0
 10
12.50593330594163
 20
-13.72350506925875
 30
0.0
 10
12.63000303324958
 20
-13.51367430078405
 30
0.0
 10
12.67841410243614
 20
-13.40398486856759
 30
0.0
 10
12.74789370637347
 20
-13.17359881812363
 30
0.0
 10
12.76810124630629
 20
-13.05468203931825
 30
0.0
 10
12.77891027826543
 20
-12.81644825424547
 30
0.0
 10
12.76940813581851
 20
-12.69449512908379
 30
0.0
 10
12.72129905847914
 20
-12.45817259633889
 30
0.0
 10
12.68301625646431
 20
-12.3430480331033
 30
0.0
 10
12.63040931107566
 20
-12.2323343638947
 30
0.0
  0
SPLINE
  5
1EC
330
1F
100
AcDbEntity
  8
SK3
  6
SLD-Dashed
370
    18
100
AcDbSpline
210
0.0
220
0.0
230
1.0
 70
     8
 71
     3
 72
    30
 73
    26
 74
     0
 42
0.000000001
 43
0.00000001
 40
0.0
 40
0.0
 40
0.0
 40
0.0
 40
0.0312499999999991
 40
0.0312499999999991
 40
0.0624999999999983
 40
0.0624999999999983
 40
0.0937499999999974
 40
0.0937499999999974
 40
0.1249999999999965
 40
0.1249999999999965
 40
0.187499999999996
 40
0.187499999999996
 40
0.2499999999999955
 40
0.2499999999999955
 40
0.312499999999995
 40
0.312499999999995
 40
0.3749999999999944
 40
0.3749999999999944
 40
0.4062499999999942
 40
0.4062499999999942
 40
0.4374999999999939
 40
0.4374999999999939
 40
0.4687499999999937
 40
0.4687499999999937
 40
0.4999999999999934
 40
0.4999999999999934
 40
0.4999999999999934
 40
0.4999999999999934
 10
12.63040931107567
 20
-12.2323343638947
 30
0.0
 10
12.57780236568702
 20
-12.12162069468611
 30
0.0
 10
12.51267206459308
 20
-12.01896209858504
 30
0.0
 10
12.35821503903348
 20
-11.83123217673026
 30
0.0
 10
12.26800655859518
 20
-11.74609765066665
 30
0.0
 10
12.07343499093626
 20
-11.60605794329096
 30
0.0
 10
11.96643370486065
 20
-11.54920121804519
 30
0.0
 10
11.74573264298212
 20
-11.46981719393689
 30
0.0
 10
11.63406552497759
 20
-11.44748668283021
 30
0.0
 10
11.29951801742687
 20
-11.42770686560521
 30
0.0
 10
11.0919842806995
 20
-11.47806879673261
 30
0.0
 10
10.72217844091648
 20
-11.64236243808863
 30
0.0
 10
10.55844908096594
 20
-11.75496051093636
 30
0.0
 10
10.25324958882706
 20
-12.02428585488716
 30
0.0
 10
10.11576882260311
 20
-12.17795893248197
 30
0.0
 10
9.862525619365305
 20
-12.52988094775973
 30
0.0
 10
9.746260896402015
 20
-12.72918710194006
 30
0.0
 10
9.60569266085047
 20
-13.06645756895028
 30
0.0
 10
9.565421636406098
 20
-13.18319961587416
 30
0.0
 10
9.503286004234612
 20
-13.4293677611186
 30
0.0
 10
9.482363995141311
 20
-13.55752069830019
 30
0.0
 10
9.470908412243725
 20
-13.80546799718779
 30
0.0
 10
9.480664817462667
 20
-13.92083957613646
 30
0.0
 10
9.525951505689648
 20
-14.1223947507326
 30
0.0
 10
9.561041150052754
 20
-14.20809842589733
 30
0.0
 10
9.602846279599758
 20
-14.27915034605701
 30
0.0
  0
SPLINE
  5
1ED
330
1F
100
AcDbEntity
  8
SK3
  6
SLD-Dashed
370
    18
100
AcDbSpline
210
0.0
220
0.0
230
1.0
 70
     8
 71
     3
 72
    26
 73
    22
 74
     0
 42
0.000000001
 43
0.00000001
 40
0.5000000000000062
 40
0.5000000000000062
 40
0.5000000000000062
 40
0.5000000000000062
 40
0.5625000000000058
 40
0.5625000000000058
 40
0.6250000000000051
 40
0.6250000000000051
 40
0.6562500000000046
 40
0.6562500000000046
 40
0.687500000000004
 40
0.687500000000004
 40
0.7187500000000034
 40
0.7187500000000034
 40
0.7500000000000029
 40
0.7500000000000029
 40
0.8125000000000022
 40
0.8125000000000022
 40
0.8750000000000014
 40
0.8750000000000014
 40
0.9375000000000008
 40
0.9375000000000008
 40
1.0
 40
1.0
 40
1.0
 40
1.0
 10
11.6386983177957
 20
-9.819390371339228
 30
0.0
 10
11.80317915771348
 20
-9.806594466981574
 30
0.0
 10
11.95081782962318
 20
-9.812432081454686
 30
0.0
 10
12.22616299685252
 20
-9.868839301598985
 30
0.0
 10
12.3523651546992
 20
-9.918953620877927
 30
0.0
 10
12.5187466142634
 20
-10.04837289060635
 30
0.0
 10
12.57051953396256
 20
-10.10115000339698
 30
0.0
 10
12.66070184098386
 20
-10.23071744026807
 30
0.0
 10
12.70001796005849
 20
-10.30921538460777
 30
0.0
 10
12.75624339139549
 20
-10.49493258066049
 30
0.0
 10
12.7732316530057
 20
-10.60488156995157
 30
0.0
 10
12.7764946288975
 20
-10.84110300053567
 30
0.0
 10
12.76278670669288
 20
-10.96977043023328
 30
0.0
 10
12.68516730486993
 20
-11.34647137591011
 30
0.0
 10
12.58996305158962
 20
-11.58088814423495
 30
0.0
 10
12.3731560345373
 20
-11.98947715399204
 30
0.0
 10
12.24747178673946
 20
-12.17132846963891
 30
0.0
 10
11.97676737519451
 20
-12.4898134904303
 30
0.0
 10
11.8310268635477
 20
-12.62828009284684
 30
0.0
 10
11.50508373269932
 20
-12.86276351579439
 30
0.0
 10
11.32747339457477
 20
-12.95749122616765
 30
0.0
 10
11.125
 20
-13.01159523973385
 30
0.0
  0
SPLINE
  5
1EE
330
1F
100
AcDbEntity
  8
SK3
  6
SLD-Dashed
370
    18
100
AcDbSpline
210
0.0
220
0.0
230
1.0
 70
     8
 71
     3
 72
    34
 73
    30
 74
     0
 42
0.000000001
 43
0.00000001
 40
0.0
 40
0.0
 40
0.0
 40
0.0
 40
0.0312500000000005
 40
0.0312500000000005
 40
0.0625000000000011
 40
0.0625000000000011
 40
0.0937500000000016
 40
0.0937500000000016
 40
0.1250000000000022
 40
0.1250000000000022
 40
0.1562500000000027
 40
0.1562500000000027
 40
0.1875000000000032
 40
0.1875000000000032
 40
0.2187500000000038
 40
0.2187500000000038
 40
0.2500000000000043
 40
0.2500000000000043
 40
0.2812500000000049
 40
0.2812500000000049
 40
0.3125000000000054
 40
0.3125000000000054
 40
0.3750000000000063
 40
0.3750000000000063
 40
0.4062500000000066
 40
0.4062500000000066
 40
0.4375000000000068
 40
0.4375000000000068
 40
0.5000000000000062
 40
0.5000000000000062
 40
0.5000000000000062
 40
0.5000000000000062
 10
11.125
 20
-13.01159523973386
 30
0.0
 10
11.02376330271263
 20
-13.03864724651695
 30
0.0
 10
10.91875434041334
 20
-13.05441768585464
 30
0.0
 10
10.6998219372948
 20
-13.05649587060871
 30
0.0
 10
10.58565504429784
 20
-13.04203538439391
 30
0.0
 10
10.36433306908852
 20
-12.97958779527628
 30
0.0
 10
10.25386240054307
 20
-12.93066318687883
 30
0.0
 10
10.04998753866614
 20
-12.80335962284303
 30
0.0
 10
9.955887873021
 20
-12.72514830576757
 30
0.0
 10
9.789076352163569
 20
-12.54575166602605
 30
0.0
 10
9.71802220267208
 20
-12.44674722204856
 30
0.0
 10
9.600536001433193
 20
-12.23250861951093
 30
0.0
 10
9.555159683901222
 20
-12.11851015366411
 30
0.0
 10
9.49353895391432
 20
-11.88585378314763
 30
0.0
 10
9.476799814585963
 20
-11.76451266100636
 30
0.0
 10
9.473480888754688
 20
-11.52533259241783
 30
0.0
 10
9.486354225371821
 20
-11.40705029377198
 30
0.0
 10
9.541906609790443
 20
-11.17282024047877
 30
0.0
 10
9.5839391259038
 20
-11.06025657731945
 30
0.0
 10
9.694361385739578
 20
-10.84625731946299
 30
0.0
 10
9.764046986917352
 20
-10.74326010657128
 30
0.0
 10
10.00399120049177
 20
-10.46156575413966
 30
0.0
 10
10.21277179464265
 20
-10.30327029353936
 30
0.0
 10
10.5444699112901
 20
-10.12219171688678
 30
0.0
 10
10.65925898590059
 20
-10.07012567259635
 30
0.0
 10
10.87934718809659
 20
-9.98406667522589
 30
0.0
 10
10.98764418607852
 20
-9.948726825148164
 30
0.0
 10
11.29210738731386
 20
-9.86376536348267
 30
0.0
 10
11.47421747787791
 20
-9.832186275696882
 30
0.0
 10
11.6386983177957
 20
-9.819390371339228
 30
0.0
  0
SPLINE
  5
1EF
330
1F
100
AcDbEntity
  8
1
  6
SLD-Dashed
370
    18
100
AcDbSpline
210
0.0
220
0.0
230
1.0
 70
    24
 71
     2
 72
     6
 73
     3
 74
     0
 42
0.000000001
 43
0.00000001
 40
0.0
 40
0.0
 40
0.0
 40
0.25
 40
0.25
 40
0.25
 10
3.200000000017633
 20
-35.09999999999991
 30
0.0
 10
3.178023089485824
 20
-35.09999999999646
 30
0.0
 10
3.159393676864672
 20
-35.09999999999354
 30
0.0
  0
SPLINE
  5
1F0
330
1F
100
AcDbEntity
  8
1
  6
SLD-Dashed
370
    18
100
AcDbSpline
210
0.0
220
0.0
230
1.0
 70
    24
 71
     3
 72
     8
 73
     4
 74
     0
 42
0.000000001
 43
0.00000001
 40
0.25
 40
0.25
 40
0.25
 40
0.25
 40
0.5
 40
0.5
 40
0.5
 40
0.5
 10
3.159393676864672
 20
-35.09999999999354
 30
0.0
 10
3.140764264251625
 20
-35.09999999999712
 30
0.0
 10
3.125935313376446
 20
-35.09999999999999
 30
0.0
 10
3.125925297481347
 20
-35.1
 30
0.0
  0
SPLINE
  5
1F1
330
1F
100
AcDbEntity
  8
1
  6
SLD-Dashed
370
    18
100
AcDbSpline
210
0.0
220
0.0
230
1.0
 70
    24
 71
     3
 72
     8
 73
     4
 74
     0
 42
0.000000001
 43
0.00000001
 40
0.5
 40
0.5
 40
0.5
 40
0.5
 40
0.75
 40
0.75
 40
0.75
 40
0.75
 10
3.125925297481347
 20
-35.1
 30
0.0
 10
3.125915281586247
 20
-35.1
 30
0.0
 10
3.140736475081146
 20
-35.09999999999714
 30
0.0
 10
3.159374026153516
 20
-35.09999999999354
 30
0.0
  0
SPLINE
  5
1F2
330
1F
100
AcDbEntity
  8
1
  6
SLD-Dashed
370
    18
100
AcDbSpline
210
0.0
220
0.0
230
1.0
 70
    24
 71
     2
 72
     6
 73
     3
 74
     0
 42
0.000000001
 43
0.00000001
 40
0.75
 40
0.75
 40
0.75
 40
1.0
 40
1.0
 40
1.0
 10
3.159374026153294
 20
-35.09999999999354
 30
0.0
 10
3.178011577233755
 20
-35.09999999999646
 30
0.0
 10
3.200000000017411
 20
-35.09999999999991
 30
0.0
  0
SPLINE
  5
1F3
330
1F
100
AcDbEntity
  8
SK3
  6
SLD-Dashed
370
    18
100
AcDbSpline
210
0.0
220
0.0
230
1.0
 70
     8
 71
     3
 72
    32
 73
    28
 74
     0
 42
0.000000001
 43
0.00000001
 40
0.4999999999999987
 40
0.4999999999999987
 40
0.4999999999999987
 40
0.4999999999999987
 40
0.5624999999999983
 40
0.5624999999999983
 40
0.5937499999999984
 40
0.5937499999999984
 40
0.6249999999999984
 40
0.6249999999999984
 40
0.6874999999999986
 40
0.6874999999999986
 40
0.7187499999999987
 40
0.7187499999999987
 40
0.7499999999999987
 40
0.7499999999999987
 40
0.7812499999999987
 40
0.7812499999999987
 40
0.8124999999999987
 40
0.8124999999999987
 40
0.874999999999999
 40
0.874999999999999
 40
0.9062499999999992
 40
0.9062499999999992
 40
0.9374999999999994
 40
0.9374999999999994
 40
0.9687499999999998
 40
0.9687499999999998
 40
1.0
 40
1.0
 40
1.0
 40
1.0
 10
11.12431461685409
 20
-0.0638097948021041
 30
0.0
 10
11.34069274895014
 20
-0.0637145888093965
 30
0.0
 10
11.55914288015783
 20
-0.1102005975929868
 30
0.0
 10
11.85772139836523
 20
-0.2403769293620531
 30
0.0
 10
11.95420559661751
 20
-0.2944938494407537
 30
0.0
 10
12.1323843760244
 20
-0.4182909770915205
 30
0.0
 10
12.21502546681367
 20
-0.488218172801147
 30
0.0
 10
12.44370339250062
 20
-0.7216917961019795
 30
0.0
 10
12.56469010118177
 20
-0.9029705474205909
 30
0.0
 10
12.69001780712342
 20
-1.198989528052363
 30
0.0
 10
12.72144007044164
 20
-1.299353408348344
 30
0.0
 10
12.76397504205767
 20
-1.503119164360245
 30
0.0
 10
12.77499086428845
 20
-1.607791869896236
 30
0.0
 10
12.77500912407897
 20
-1.812149189288521
 30
0.0
 10
12.76437402207825
 20
-1.912119289449038
 30
0.0
 10
12.72182237019839
 20
-2.107778512687022
 30
0.0
 10
12.68970542486822
 20
-2.202992431261604
 30
0.0
 10
12.56562231522758
 20
-2.470130071118411
 30
0.0
 10
12.44300633514497
 20
-2.629504822633244
 30
0.0
 10
12.21615142711205
 20
-2.824074953769629
 30
0.0
 10
12.13191723344732
 20
-2.882799187163804
 30
0.0
 10
11.95357457251772
 20
-2.983321714878494
 30
0.0
 10
11.85926232799148
 20
-3.025580251938047
 30
0.0
 10
11.65992970039484
 20
-3.094539313287216
 30
0.0
 10
11.55469669660919
 20
-3.121008652787527
 30
0.0
 10
11.34275223062142
 20
-3.155898014973756
 30
0.0
 10
11.23484284401992
 20
-3.164795292611905
 30
0.0
 10
11.12500000000001
 20
-3.164795292611905
 30
0.0
  0
SPLINE
  5
1F4
330
1F
100
AcDbEntity
  8
SK3
  6
SLD-Dashed
370
    18
100
AcDbSpline
210
0.0
220
0.0
230
1.0
 70
     8
 71
     3
 72
    34
 73
    30
 74
     0
 42
0.000000001
 43
0.00000001
 40
0.0
 40
0.0
 40
0.0
 40
0.0
 40
0.0312499999999998
 40
0.0312499999999998
 40
0.0624999999999996
 40
0.0624999999999996
 40
0.0937499999999994
 40
0.0937499999999994
 40
0.1249999999999992
 40
0.1249999999999992
 40
0.1874999999999989
 40
0.1874999999999989
 40
0.2187499999999987
 40
0.2187499999999987
 40
0.2499999999999986
 40
0.2499999999999986
 40
0.2812499999999985
 40
0.2812499999999985
 40
0.3124999999999984
 40
0.3124999999999984
 40
0.3749999999999983
 40
0.3749999999999983
 40
0.4062499999999983
 40
0.4062499999999983
 40
0.4374999999999984
 40
0.4374999999999984
 40
0.4687499999999985
 40
0.4687499999999985
 40
0.4999999999999987
 40
0.4999999999999987
 40
0.4999999999999987
 40
0.4999999999999987
 10
11.12500000000001
 20
-3.164795292611905
 30
0.0
 10
11.0151571559801
 20
-3.164795292611905
 30
0.0
 10
10.90731638102119
 20
-3.155904092189313
 30
0.0
 10
10.69541970957995
 20
-3.12103302783695
 30
0.0
 10
10.59023957759679
 20
-3.094588705749968
 30
0.0
 10
10.39084967822866
 20
-3.025628156735648
 30
0.0
 10
10.29640496755759
 20
-2.983328453868013
 30
0.0
 10
10.11766012072023
 20
-2.882542647044649
 30
0.0
 10
10.03369415662242
 20
-2.823948271079985
 30
0.0
 10
9.807154372458479
 20
-2.629631137783174
 30
0.0
 10
9.68447698965036
 20
-2.470160421179757
 30
0.0
 10
9.560578774888363
 20
-2.20369563385435
 30
0.0
 10
9.528452756869143
 20
-2.108727247931555
 30
0.0
 10
9.485740989390354
 20
-1.912961592150132
 30
0.0
 10
9.475072364745998
 20
-1.813073215143395
 30
0.0
 10
9.474928361942748
 20
-1.609186072572127
 30
0.0
 10
9.485831361723179
 20
-1.504401102705562
 30
0.0
 10
9.52831120036593
 20
-1.300194116426776
 30
0.0
 10
9.559734146631776
 20
-1.199687678545669
 30
0.0
 10
9.685010383075163
 20
-0.9034545065980601
 30
0.0
 10
9.80668050813238
 20
-0.7213228258413779
 30
0.0
 10
10.03464723431525
 20
-0.4885408551656631
 30
0.0
 10
10.1171328916899
 20
-0.4186734887185115
 30
0.0
 10
10.29528380534658
 20
-0.2948017573575976
 30
0.0
 10
10.39177131110007
 20
-0.2406571053396242
 30
0.0
 10
10.59034694865996
 20
-0.1539631561283325
 30
0.0
 10
10.69325322426625
 20
-0.1206690588499149
 30
0.0
 10
10.90670565507452
 20
-0.0753534708468895
 30
0.0
 10
11.01612555080608
 20
-0.0638573977984475
 30
0.0
 10
11.12431461685409
 20
-0.0638097948021041
 30
0.0
  0
SPLINE
  5
1F5
330
1F
100
AcDbEntity
  8
SK3
  6
SLD-Dashed
370
    18
100
AcDbSpline
210
0.0
220
0.0
230
1.0
 70
     8
 71
     3
 72
    18
 73
    14
 74
     0
 42
0.000000001
 43
0.00000001
 40
0.0
 40
0.0
 40
0.0
 40
0.0
 40
0.0502196103872393
 40
0.1000870260924269
 40
0.185508636894043
 40
0.250155080879186
 40
0.3746583157461185
 40
0.4998570853792876
 40
0.6242312608259408
 40
0.749432409948843
 40
0.8740366596180013
 40
0.9370350243166901
 40
1.0
 40
1.0
 40
1.0
 40
1.0
 10
3.699999999999968
 20
46.55608553132445
 30
0.0
 10
3.700143854852887
 20
46.56278755186002
 30
0.0
 10
3.700430555691582
 20
46.57614459105338
 30
0.0
 10
3.703274054818796
 20
46.60076085239342
 30
0.0
 10
3.708850025263292
 20
46.62692328764687
 30
0.0
 10
3.720514169271314
 20
46.66169890756613
 30
0.0
 10
3.739456592416632
 20
46.69941980690709
 30
0.0
 10
3.770128279112259
 20
46.73918434013718
 30
0.0
 10
3.808028636439601
 20
46.77229285140238
 30
0.0
 10
3.851698646431299
 20
46.79720148409477
 30
0.0
 10
3.891711812143359
 20
46.81006094110495
 30
0.0
 10
3.924780356068899
 20
46.81548545401084
 30
0.0
 10
3.941594937699494
 20
46.81599758847396
 30
0.0
 10
3.950000000000009
 20
46.81625358782996
 30
0.0
  0
SPLINE
  5
1F6
330
1F
100
AcDbEntity
  8
SK3
  6
SLD-Dashed
370
    18
100
AcDbSpline
210
0.0
220
0.0
230
1.0
 70
     8
 71
     3
 72
    18
 73
    14
 74
     0
 42
0.000000001
 43
0.00000001
 40
0.0
 40
0.0
 40
0.0
 40
0.0
 40
0.0501962867734845
 40
0.1000306214437268
 40
0.1855667331187732
 40
0.250182389232076
 40
0.3747066158220843
 40
0.4998232982189687
 40
0.6247294758455642
 40
0.7494251058857211
 40
0.8746331028690344
 40
0.9372230808189218
 40
1.0
 40
1.0
 40
1.0
 40
1.0
 10
18.30000000000001
 20
46.81625358782992
 30
0.0
 10
18.30669951182796
 20
46.81609127853697
 30
0.0
 10
18.32005022708195
 20
46.8157678303203
 30
0.0
 10
18.34463922095193
 20
46.81256776526218
 30
0.0
 10
18.37067201462221
 20
46.80630579793127
 30
0.0
 10
18.40500150194893
 20
46.79331555547189
 30
0.0
 10
18.44173939749909
 20
46.77247000397298
 30
0.0
 10
18.47965549617257
 20
46.7394224241684
 30
0.0
 10
18.51041281949079
 20
46.69961163074881
 30
0.0
 10
18.53306634505926
 20
46.65468875110019
 30
0.0
 10
18.54452340204192
 20
46.61434662644383
 30
0.0
 10
18.54932467505749
 20
46.58119847829339
 30
0.0
 10
18.54977466801634
 20
46.56446483112377
 30
0.0
 10
18.54999999999997
 20
46.55608553132448
 30
0.0
  0
SPLINE
  5
1F7
330
1F
100
AcDbEntity
  8
SK3
  6
SLD-Dashed
370
    18
100
AcDbSpline
210
0.0
220
0.0
230
1.0
 70
     8
 71
     2
 72
     6
 73
     3
 74
     0
 42
0.000000001
 43
0.00000001
 40
0.0
 40
0.0
 40
0.0
 40
0.03125
 40
0.03125
 40
0.03125
 10
38.29999999999998
 20
9.999999999999988
 30
0.0
 10
38.32999399426443
 20
9.986401324136557
 30
0.0
 10
38.38840214371405
 20
9.960531895716544
 30
0.0
  0
SPLINE
  5
1F8
330
1F
100
AcDbEntity
  8
SK3
  6
SLD-Dashed
370
    18
100
AcDbSpline
210
0.0
220
0.0
230
1.0
 70
     8
 71
     3
 72
     8
 73
     4
 74
     0
 42
0.000000001
 43
0.00000001
 40
0.03125
 40
0.03125
 40
0.03125
 40
0.03125
 40
0.0624999999999999
 40
0.0624999999999999
 40
0.0624999999999999
 40
0.0624999999999999
 10
38.38840214371405
 20
9.960531895716544
 30
0.0
 10
38.44681029316366
 20
9.934662467296532
 30
0.0
 10
38.5352293785507
 20
9.895839236677604
 30
0.0
 10
38.64894812018599
 20
9.84790494008283
 30
0.0
  0
SPLINE
  5
1F9
330
1F
100
AcDbEntity
  8
SK3
  6
SLD-Dashed
370
    18
100
AcDbSpline
210
0.0
220
0.0
230
1.0
 70
     8
 71
     3
 72
     8
 73
     4
 74
     0
 42
0.000000001
 43
0.00000001
 40
0.0624999999999999
 40
0.0624999999999999
 40
0.0624999999999999
 40
0.0624999999999999
 40
0.0937499999999999
 40
0.0937499999999999
 40
0.0937499999999999
 40
0.0937499999999999
 10
38.64894812018599
 20
9.84790494008283
 30
0.0
 10
38.76266686182122
 20
9.799970643488052
 30
0.0
 10
38.90125708518355
 20
9.743075060252785
 30
0.0
 10
39.06451705767647
 20
9.680074008621524
 30
0.0
  0
SPLINE
  5
1FA
330
1F
100
AcDbEntity
  8
SK3
  6
SLD-Dashed
370
    18
100
AcDbSpline
210
0.0
220
0.0
230
1.0
 70
     8
 71
     3
 72
     8
 73
     4
 74
     0
 42
0.000000001
 43
0.00000001
 40
0.0937499999999999
 40
0.0937499999999999
 40
0.0937499999999999
 40
0.0937499999999999
 40
0.1249999999999998
 40
0.1249999999999998
 40
0.1249999999999998
 40
0.1249999999999998
 10
39.06451705767647
 20
9.680074008621524
 30
0.0
 10
39.22777703016941
 20
9.617072956990254
 30
0.0
 10
39.41465141027894
 20
9.548477079026139
 30
0.0
 10
39.61931175665684
 20
9.479808948567543
 30
0.0
  0
SPLINE
  5
1FB
330
1F
100
AcDbEntity
  8
SK3
  6
SLD-Dashed
370
    18
100
AcDbSpline
210
0.0
220
0.0
230
1.0
 70
     8
 71
     3
 72
     8
 73
     4
 74
     0
 42
0.000000001
 43
0.00000001
 40
0.1249999999999998
 40
0.1249999999999998
 40
0.1249999999999998
 40
0.1249999999999998
 40
0.1562499999999998
 40
0.1562499999999998
 40
0.1562499999999998
 40
0.1562499999999998
 10
39.61931175665684
 20
9.479808948567543
 30
0.0
 10
39.82397210303473
 20
9.411140818108954
 30
0.0
 10
40.04924986133704
 20
9.341403698474554
 30
0.0
 10
40.29240481328713
 20
9.275668904204455
 30
0.0
  0
SPLINE
  5
1FC
330
1F
100
AcDbEntity
  8
SK3
  6
SLD-Dashed
370
    18
100
AcDbSpline
210
0.0
220
0.0
230
1.0
 70
     8
 71
     3
 72
     8
 73
     4
 74
     0
 42
0.000000001
 43
0.00000001
 40
0.1562499999999998
 40
0.1562499999999998
 40
0.1562499999999998
 40
0.1562499999999998
 40
0.1874999999999997
 40
0.1874999999999997
 40
0.1874999999999997
 40
0.1874999999999997
 10
40.29240481328713
 20
9.275668904204455
 30
0.0
 10
40.53555976523726
 20
9.20993410993435
 30
0.0
 10
40.79165501408907
 20
9.149505118940388
 30
0.0
 10
41.0612095295288
 20
9.097988365578479
 30
0.0
  0
SPLINE
  5
1FD
330
1F
100
AcDbEntity
  8
SK3
  6
SLD-Dashed
370
    18
100
AcDbSpline
210
0.0
220
0.0
230
1.0
 70
     8
 71
     3
 72
     8
 73
     4
 74
     0
 42
0.000000001
 43
0.00000001
 40
0.1874999999999997
 40
0.1874999999999997
 40
0.1874999999999997
 40
0.1874999999999997
 40
0.2031249999999997
 40
0.2031249999999997
 40
0.2031249999999997
 40
0.2031249999999997
 10
41.0612095295288
 20
9.097988365578479
 30
0.0
 10
41.19598678724867
 20
9.07222998889752
 30
0.0
 10
41.33415346771876
 20
9.04870355986552
 30
0.0
 10
41.47593621128992
 20
9.027909221772948
 30
0.0
  0
SPLINE
  5
1FE
330
1F
100
AcDbEntity
  8
SK3
  6
SLD-Dashed
370
    18
100
AcDbSpline
210
0.0
220
0.0
230
1.0
 70
     8
 71
     3
 72
     8
 73
     4
 74
     0
 42
0.000000001
 43
0.00000001
 40
0.2031249999999997
 40
0.2031249999999997
 40
0.2031249999999997
 40
0.2031249999999997
 40
0.2187499999999997
 40
0.2187499999999997
 40
0.2187499999999997
 40
0.2187499999999997
 10
41.47593621128992
 20
9.027909221772948
 30
0.0
 10
41.61771895486108
 20
9.007114883680382
 30
0.0
 10
41.7633475730464
 20
8.989086106806363
 30
0.0
 10
41.90890890582185
 20
8.974633326109954
 30
0.0
  0
SPLINE
  5
1FF
330
1F
100
AcDbEntity
  8
SK3
  6
SLD-Dashed
370
    18
100
AcDbSpline
210
0.0
220
0.0
230
1.0
 70
     8
 71
     3
 72
     8
 73
     4
 74
     0
 42
0.000000001
 43
0.00000001
 40
0.2187499999999997
 40
0.2187499999999997
 40
0.2187499999999997
 40
0.2187499999999997
 40
0.2499999999999997
 40
0.2499999999999997
 40
0.2499999999999997
 40
0.2499999999999997
 10
41.90890890582185
 20
8.974633326109954
 30
0.0
 10
42.20003157137275
 20
8.945727764717152
 30
0.0
 10
42.49454883734602
 20
8.930537420717865
 30
0.0
 10
42.79254523297119
 20
8.930288661266848
 30
0.0
  0
SPLINE
  5
200
330
1F
100
AcDbEntity
  8
SK3
  6
SLD-Dashed
370
    18
100
AcDbSpline
210
0.0
220
0.0
230
1.0
 70
     8
 71
     3
 72
     8
 73
     4
 74
     0
 42
0.000000001
 43
0.00000001
 40
0.2499999999999997
 40
0.2499999999999997
 40
0.2499999999999997
 40
0.2499999999999997
 40
0.2812499999999997
 40
0.2812499999999997
 40
0.2812499999999997
 40
0.2812499999999997
 10
42.79254523297119
 20
8.930288661266848
 30
0.0
 10
43.09054162859635
 20
8.930039901815832
 30
0.0
 10
43.3928957906348
 20
8.94527613088543
 30
0.0
 10
43.68337469841219
 20
8.973870450245801
 30
0.0
  0
SPLINE
  5
201
330
1F
100
AcDbEntity
  8
SK3
  6
SLD-Dashed
370
    18
100
AcDbSpline
210
0.0
220
0.0
230
1.0
 70
     8
 71
     3
 72
     8
 73
     4
 74
     0
 42
0.000000001
 43
0.00000001
 40
0.2812499999999997
 40
0.2812499999999997
 40
0.2812499999999997
 40
0.2812499999999997
 40
0.3124999999999997
 40
0.3124999999999997
 40
0.3124999999999997
 40
0.3124999999999997
 10
43.68337469841219
 20
8.973870450245801
 30
0.0
 10
43.97385360618961
 20
9.002464769606172
 30
0.0
 10
44.25793158845759
 20
9.044533688061705
 30
0.0
 10
44.5312075764307
 20
9.096542182208088
 30
0.0
  0
SPLINE
  5
202
330
1F
100
AcDbEntity
  8
SK3
  6
SLD-Dashed
370
    18
100
AcDbSpline
210
0.0
220
0.0
230
1.0
 70
     8
 71
     3
 72
     8
 73
     4
 74
     0
 42
0.000000001
 43
0.00000001
 40
0.3124999999999997
 40
0.3124999999999997
 40
0.3124999999999997
 40
0.3124999999999997
 40
0.3437499999999997
 40
0.3437499999999997
 40
0.3437499999999997
 40
0.3437499999999997
 10
44.5312075764307
 20
9.096542182208088
 30
0.0
 10
44.80448356440384
 20
9.148550676354464
 30
0.0
 10
45.06135750544368
 20
9.209205613470814
 30
0.0
 10
45.30329566121774
 20
9.274507489213185
 30
0.0
  0
SPLINE
  5
203
330
1F
100
AcDbEntity
  8
SK3
  6
SLD-Dashed
370
    18
100
AcDbSpline
210
0.0
220
0.0
230
1.0
 70
     8
 71
     3
 72
     8
 73
     4
 74
     0
 42
0.000000001
 43
0.00000001
 40
0.3437499999999997
 40
0.3437499999999997
 40
0.3437499999999997
 40
0.3437499999999997
 40
0.3749999999999997
 40
0.3749999999999997
 40
0.3749999999999997
 40
0.3749999999999997
 10
45.30329566121774
 20
9.274507489213185
 30
0.0
 10
45.54523381699177
 20
9.33980936495555
 30
0.0
 10
45.77332014581778
 20
9.410275203645165
 30
0.0
 10
45.97846682017234
 20
9.479063842328335
 30
0.0
  0
SPLINE
  5
204
330
1F
100
AcDbEntity
  8
SK3
  6
SLD-Dashed
370
    18
100
AcDbSpline
210
0.0
220
0.0
230
1.0
 70
     8
 71
     3
 72
     8
 73
     4
 74
     0
 42
0.000000001
 43
0.00000001
 40
0.3749999999999997
 40
0.3749999999999997
 40
0.3749999999999997
 40
0.3749999999999997
 40
0.4062499999999997
 40
0.4062499999999997
 40
0.4062499999999997
 40
0.4062499999999997
 10
45.97846682017234
 20
9.479063842328335
 30
0.0
 10
46.1836134945269
 20
9.547852481011503
 30
0.0
 10
46.36811471510268
 20
9.615541182315127
 30
0.0
 10
46.53180239778273
 20
9.678654303987546
 30
0.0
  0
SPLINE
  5
205
330
1F
100
AcDbEntity
  8
SK3
  6
SLD-Dashed
370
    18
100
AcDbSpline
210
0.0
220
0.0
230
1.0
 70
     8
 71
     3
 72
     8
 73
     4
 74
     0
 42
0.000000001
 43
0.00000001
 40
0.4062499999999997
 40
0.4062499999999997
 40
0.4062499999999997
 40
0.4062499999999997
 40
0.4374999999999997
 40
0.4374999999999997
 40
0.4374999999999997
 40
0.4374999999999997
 10
46.53180239778273
 20
9.678654303987546
 30
0.0
 10
46.69549008046281
 20
9.741767425659978
 30
0.0
 10
46.83608372496453
 20
9.799460133689708
 30
0.0
 10
46.94935855433344
 20
9.847191295614198
 30
0.0
  0
SPLINE
  5
206
330
1F
100
AcDbEntity
  8
SK3
  6
SLD-Dashed
370
    18
100
AcDbSpline
210
0.0
220
0.0
230
1.0
 70
     8
 71
     3
 72
     8
 73
     4
 74
     0
 42
0.000000001
 43
0.00000001
 40
0.4374999999999997
 40
0.4374999999999997
 40
0.4374999999999997
 40
0.4374999999999997
 40
0.4687499999999997
 40
0.4687499999999997
 40
0.4687499999999997
 40
0.4687499999999997
 10
46.94935855433344
 20
9.847191295614198
 30
0.0
 10
47.06263338370231
 20
9.894922457538687
 30
0.0
 10
47.15032049126566
 20
9.933399202760686
 30
0.0
 10
47.21005517669022
 20
9.959848726835766
 30
0.0
  0
SPLINE
  5
207
330
1F
100
AcDbEntity
  8
SK3
  6
SLD-Dashed
370
    18
100
AcDbSpline
210
0.0
220
0.0
230
1.0
 70
     8
 71
     3
 72
     8
 73
     4
 74
     0
 42
0.000000001
 43
0.00000001
 40
0.4687499999999997
 40
0.4687499999999997
 40
0.4687499999999997
 40
0.4687499999999997
 40
0.4999999999999997
 40
0.4999999999999997
 40
0.4999999999999997
 40
0.4999999999999997
 10
47.21005517669022
 20
9.959848726835766
 30
0.0
 10
47.26978986211478
 20
9.986298250910838
 30
0.0
 10
47.29945495637819
 20
9.999754730688315
 30
0.0
 10
47.29999263105178
 20
9.999996683975457
 30
0.0
  0
SPLINE
  5
208
330
1F
100
AcDbEntity
  8
SK3
  6
SLD-Dashed
370
    18
100
AcDbSpline
210
0.0
220
0.0
230
1.0
 70
     8
 71
     3
 72
     8
 73
     4
 74
     0
 42
0.000000001
 43
0.00000001
 40
0.4999999999999997
 40
0.4999999999999997
 40
0.4999999999999997
 40
0.4999999999999997
 40
0.5312499999999997
 40
0.5312499999999997
 40
0.5312499999999997
 40
0.5312499999999997
 10
47.29999263105178
 20
9.999996683975457
 30
0.0
 10
47.30053030572537
 20
10.00023863726261
 30
0.0
 10
47.27091809648676
 20
9.986809732863936
 30
0.0
 10
47.21253201571729
 20
9.960945677481126
 30
0.0
  0
SPLINE
  5
209
330
1F
100
AcDbEntity
  8
SK3
  6
SLD-Dashed
370
    18
100
AcDbSpline
210
0.0
220
0.0
230
1.0
 70
     8
 71
     3
 72
     8
 73
     4
 74
     0
 42
0.000000001
 43
0.00000001
 40
0.5312499999999997
 40
0.5312499999999997
 40
0.5312499999999997
 40
0.5312499999999997
 40
0.5624999999999996
 40
0.5624999999999996
 40
0.5624999999999996
 40
0.5624999999999996
 10
47.21253201571729
 20
9.960945677481126
 30
0.0
 10
47.15414593494785
 20
9.93508162209831
 30
0.0
 10
47.06785243499848
 20
9.89716687822051
 30
0.0
 10
46.95402335245774
 20
9.849157832665885
 30
0.0
  0
SPLINE
  5
20A
330
1F
100
AcDbEntity
  8
SK3
  6
SLD-Dashed
370
    18
100
AcDbSpline
210
0.0
220
0.0
230
1.0
 70
     8
 71
     3
 72
     8
 73
     4
 74
     0
 42
0.000000001
 43
0.00000001
 40
0.5624999999999996
 40
0.5624999999999996
 40
0.5624999999999996
 40
0.5624999999999996
 40
0.5937499999999996
 40
0.5937499999999996
 40
0.5937499999999996
 40
0.5937499999999996
 10
46.95402335245774
 20
9.849157832665885
 30
0.0
 10
46.84019426991695
 20
9.801148787111268
 30
0.0
 10
46.69972915213854
 20
9.74348592337624
 30
0.0
 10
46.53759361166351
 20
9.680888699181898
 30
0.0
  0
SPLINE
  5
20B
330
1F
100
AcDbEntity
  8
SK3
  6
SLD-Dashed
370
    18
100
AcDbSpline
210
0.0
220
0.0
230
1.0
 70
     8
 71
     3
 72
     8
 73
     4
 74
     0
 42
0.000000001
 43
0.00000001
 40
0.5937499999999996
 40
0.5937499999999996
 40
0.5937499999999996
 40
0.5937499999999996
 40
0.6249999999999994
 40
0.6249999999999994
 40
0.6249999999999994
 40
0.6249999999999994
 10
46.53759361166351
 20
9.680888699181898
 30
0.0
 10
46.37545807118845
 20
9.61829147498755
 30
0.0
 10
46.18878686240357
 20
9.54967057035374
 30
0.0
 10
45.98274548910991
 20
9.480499398684076
 30
0.0
  0
SPLINE
  5
20C
330
1F
100
AcDbEntity
  8
SK3
  6
SLD-Dashed
370
    18
100
AcDbSpline
210
0.0
220
0.0
230
1.0
 70
     8
 71
     3
 72
     8
 73
     4
 74
     0
 42
0.000000001
 43
0.00000001
 40
0.6249999999999994
 40
0.6249999999999994
 40
0.6249999999999994
 40
0.6249999999999994
 40
0.6562499999999996
 40
0.6562499999999996
 40
0.6562499999999996
 40
0.6562499999999996
 10
45.98274548910991
 20
9.480499398684076
 30
0.0
 10
45.77670411581619
 20
9.41132822701441
 30
0.0
 10
45.55335334149358
 20
9.342218585225568
 30
0.0
 10
45.31216381254449
 20
9.276905034603843
 30
0.0
  0
SPLINE
  5
20D
330
1F
100
AcDbEntity
  8
SK3
  6
SLD-Dashed
370
    18
100
AcDbSpline
210
0.0
220
0.0
230
1.0
 70
     8
 71
     3
 72
     8
 73
     4
 74
     0
 42
0.000000001
 43
0.00000001
 40
0.6562499999999996
 40
0.6562499999999996
 40
0.6562499999999996
 40
0.6562499999999996
 40
0.6874999999999996
 40
0.6874999999999996
 40
0.6874999999999996
 40
0.6874999999999996
 10
45.31216381254449
 20
9.276905034603843
 30
0.0
 10
45.07097428359544
 20
9.21159148398211
 30
0.0
 10
44.80911353699313
 20
9.149653217777116
 30
0.0
 10
44.53883290898813
 20
9.09799647644359
 30
0.0
  0
SPLINE
  5
20E
330
1F
100
AcDbEntity
  8
SK3
  6
SLD-Dashed
370
    18
100
AcDbSpline
210
0.0
220
0.0
230
1.0
 70
     8
 71
     3
 72
     8
 73
     4
 74
     0
 42
0.000000001
 43
0.00000001
 40
0.6874999999999996
 40
0.6874999999999996
 40
0.6874999999999996
 40
0.6874999999999996
 40
0.7187499999999997
 40
0.7187499999999997
 40
0.7187499999999997
 40
0.7187499999999997
 10
44.53883290898813
 20
9.09799647644359
 30
0.0
 10
44.26855228098309
 20
9.046339735110049
 30
0.0
 10
43.98813758613224
 20
9.004310384950802
 30
0.0
 10
43.69673911394242
 20
8.975195877443234
 30
0.0
  0
SPLINE
  5
20F
330
1F
100
AcDbEntity
  8
SK3
  6
SLD-Dashed
370
    18
100
AcDbSpline
210
0.0
220
0.0
230
1.0
 70
     8
 71
     3
 72
     8
 73
     4
 74
     0
 42
0.000000001
 43
0.00000001
 40
0.7187499999999997
 40
0.7187499999999997
 40
0.7187499999999997
 40
0.7187499999999997
 40
0.7343749999999997
 40
0.7343749999999997
 40
0.7343749999999997
 40
0.7343749999999997
 10
43.69673911394242
 20
8.975195877443234
 30
0.0
 10
43.5510398778475
 20
8.960638623689455
 30
0.0
 10
43.40157542261061
 20
8.94928930554404
 30
0.0
 10
43.25267701378716
 20
8.941751309380672
 30
0.0
  0
SPLINE
  5
210
330
1F
100
AcDbEntity
  8
SK3
  6
SLD-Dashed
370
    18
100
AcDbSpline
210
0.0
220
0.0
230
1.0
 70
     8
 71
     3
 72
     8
 73
     4
 74
     0
 42
0.000000001
 43
0.00000001
 40
0.7343749999999997
 40
0.7343749999999997
 40
0.7343749999999997
 40
0.7343749999999997
 40
0.7499999999999996
 40
0.7499999999999996
 40
0.7499999999999996
 40
0.7499999999999996
 10
43.25267701378716
 20
8.941751309380672
 30
0.0
 10
43.10377860496364
 20
8.93421331321731
 30
0.0
 10
42.95506540289731
 20
8.93039661480724
 30
0.0
 10
42.80653394755818
 20
8.930287940065007
 30
0.0
  0
SPLINE
  5
211
330
1F
100
AcDbEntity
  8
SK3
  6
SLD-Dashed
370
    18
100
AcDbSpline
210
0.0
220
0.0
230
1.0
 70
     8
 71
     3
 72
     8
 73
     4
 74
     0
 42
0.000000001
 43
0.00000001
 40
0.7499999999999996
 40
0.7499999999999996
 40
0.7499999999999996
 40
0.7499999999999996
 40
0.7812499999999997
 40
0.7812499999999997
 40
0.7812499999999997
 40
0.7812499999999997
 10
42.80653394755818
 20
8.930287940065007
 30
0.0
 10
42.50947103688002
 20
8.930070590580542
 30
0.0
 10
42.21156216141003
 20
8.944873874520324
 30
0.0
 10
41.91775125497679
 20
8.973759682992112
 30
0.0
  0
SPLINE
  5
212
330
1F
100
AcDbEntity
  8
SK3
  6
SLD-Dashed
370
    18
100
AcDbSpline
210
0.0
220
0.0
230
1.0
 70
     8
 71
     3
 72
     8
 73
     4
 74
     0
 42
0.000000001
 43
0.00000001
 40
0.7812499999999997
 40
0.7812499999999997
 40
0.7812499999999997
 40
0.7812499999999997
 40
0.8124999999999998
 40
0.8124999999999998
 40
0.8124999999999998
 40
0.8124999999999998
 10
41.91775125497679
 20
8.973759682992112
 30
0.0
 10
41.62394034854356
 20
9.002645491463914
 30
0.0
 10
41.34178265465463
 20
9.044630195953903
 30
0.0
 10
41.07025266621911
 20
9.09626438922715
 30
0.0
  0
SPLINE
  5
213
330
1F
100
AcDbEntity
  8
SK3
  6
SLD-Dashed
370
    18
100
AcDbSpline
210
0.0
220
0.0
230
1.0
 70
     8
 71
     3
 72
     8
 73
     4
 74
     0
 42
0.000000001
 43
0.00000001
 40
0.8124999999999998
 40
0.8124999999999998
 40
0.8124999999999998
 40
0.8124999999999998
 40
0.8437499999999998
 40
0.8437499999999998
 40
0.8437499999999998
 40
0.8437499999999998
 10
41.07025266621911
 20
9.09626438922715
 30
0.0
 10
40.79872267778364
 20
9.147898582500384
 30
0.0
 10
40.53678285499065
 20
9.20966731664686
 30
0.0
 10
40.29503358000289
 20
9.274958585638684
 30
0.0
  0
SPLINE
  5
214
330
1F
100
AcDbEntity
  8
SK3
  6
SLD-Dashed
370
    18
100
AcDbSpline
210
0.0
220
0.0
230
1.0
 70
     8
 71
     3
 72
     8
 73
     4
 74
     0
 42
0.000000001
 43
0.00000001
 40
0.8437499999999998
 40
0.8437499999999998
 40
0.8437499999999998
 40
0.8437499999999998
 40
0.8749999999999999
 40
0.8749999999999999
 40
0.8749999999999999
 40
0.8749999999999999
 10
40.29503358000289
 20
9.274958585638684
 30
0.0
 10
40.05328430501515
 20
9.340249854630507
 30
0.0
 10
39.82892076508843
 20
9.40952516821325
 30
0.0
 10
39.62160396489842
 20
9.479040107307775
 30
0.0
  0
SPLINE
  5
215
330
1F
100
AcDbEntity
  8
SK3
  6
SLD-Dashed
370
    18
100
AcDbSpline
210
0.0
220
0.0
230
1.0
 70
     8
 71
     3
 72
     8
 73
     4
 74
     0
 42
0.000000001
 43
0.00000001
 40
0.8749999999999999
 40
0.8749999999999999
 40
0.8749999999999999
 40
0.8749999999999999
 40
0.9062499999999999
 40
0.9062499999999999
 40
0.9062499999999999
 40
0.9062499999999999
 10
39.62160396489842
 20
9.479040107307775
 30
0.0
 10
39.41428716470838
 20
9.548555046402285
 30
0.0
 10
39.22915454397022
 20
9.616576067180006
 30
0.0
 10
39.06693054677976
 20
9.679142913634752
 30
0.0
  0
SPLINE
  5
216
330
1F
100
AcDbEntity
  8
SK3
  6
SLD-Dashed
370
    18
100
AcDbSpline
210
0.0
220
0.0
230
1.0
 70
     8
 71
     3
 72
     8
 73
     4
 74
     0
 42
0.000000001
 43
0.00000001
 40
0.9062499999999999
 40
0.9062499999999999
 40
0.9062499999999999
 40
0.9062499999999999
 40
0.9375
 40
0.9375
 40
0.9375
 40
0.9375
 10
39.06693054677976
 20
9.679142913634752
 30
0.0
 10
38.9047065495893
 20
9.741709760089513
 30
0.0
 10
38.76368934566624
 20
9.799543532140277
 30
0.0
 10
38.64935401807054
 20
9.847733854410713
 30
0.0
  0
SPLINE
  5
217
330
1F
100
AcDbEntity
  8
SK3
  6
SLD-Dashed
370
    18
100
AcDbSpline
210
0.0
220
0.0
230
1.0
 70
     8
 71
     3
 72
     8
 73
     4
 74
     0
 42
0.000000001
 43
0.00000001
 40
0.9375
 40
0.9375
 40
0.9375
 40
0.9375
 40
0.96875
 40
0.96875
 40
0.96875
 40
0.96875
 10
38.64935401807054
 20
9.847733854410713
 30
0.0
 10
38.53501869047485
 20
9.895924176681156
 30
0.0
 10
38.44844778873516
 20
9.933943118279235
 30
0.0
 10
38.38963443619439
 20
9.959986164970424
 30
0.0
  0
SPLINE
  5
218
330
1F
100
AcDbEntity
  8
SK3
  6
SLD-Dashed
370
    18
100
AcDbSpline
210
0.0
220
0.0
230
1.0
 70
     8
 71
     2
 72
     6
 73
     3
 74
     0
 42
0.000000001
 43
0.00000001
 40
0.96875
 40
0.96875
 40
0.96875
 40
1.0
 40
1.0
 40
1.0
 10
38.38963443619439
 20
9.959986164970424
 30
0.0
 10
38.3308210836536
 20
9.98602921166161
 30
0.0
 10
38.29999999999998
 20
9.999999999999988
 30
0.0
  0
SPLINE
  5
219
330
1F
100
AcDbEntity
  8
SK3
  6
SLD-Dashed
370
    18
100
AcDbSpline
210
0.0
220
0.0
230
1.0
 70
     8
 71
     2
 72
     6
 73
     3
 74
     0
 42
0.000000001
 43
0.00000001
 40
0.0
 40
0.0
 40
0.0
 40
0.03125
 40
0.03125
 40
0.03125
 10
38.29999999999998
 20
9.999999999999988
 30
0.0
 10
38.32999399426443
 20
9.986401324136557
 30
0.0
 10
38.38840214371405
 20
9.960531895716544
 30
0.0
  0
SPLINE
  5
21A
330
1F
100
AcDbEntity
  8
SK3
  6
SLD-Dashed
370
    18
100
AcDbSpline
210
0.0
220
0.0
230
1.0
 70
     8
 71
     3
 72
     8
 73
     4
 74
     0
 42
0.000000001
 43
0.00000001
 40
0.03125
 40
0.03125
 40
0.03125
 40
0.03125
 40
0.0624999999999999
 40
0.0624999999999999
 40
0.0624999999999999
 40
0.0624999999999999
 10
38.38840214371405
 20
9.960531895716544
 30
0.0
 10
38.44681029316366
 20
9.934662467296532
 30
0.0
 10
38.5352293785507
 20
9.895839236677604
 30
0.0
 10
38.64894812018599
 20
9.84790494008283
 30
0.0
  0
SPLINE
  5
21B
330
1F
100
AcDbEntity
  8
SK3
  6
SLD-Dashed
370
    18
100
AcDbSpline
210
0.0
220
0.0
230
1.0
 70
     8
 71
     3
 72
     8
 73
     4
 74
     0
 42
0.000000001
 43
0.00000001
 40
0.0624999999999999
 40
0.0624999999999999
 40
0.0624999999999999
 40
0.0624999999999999
 40
0.0937499999999999
 40
0.0937499999999999
 40
0.0937499999999999
 40
0.0937499999999999
 10
38.64894812018599
 20
9.84790494008283
 30
0.0
 10
38.76266686182122
 20
9.799970643488052
 30
0.0
 10
38.90125708518355
 20
9.743075060252785
 30
0.0
 10
39.06451705767647
 20
9.680074008621524
 30
0.0
  0
SPLINE
  5
21C
330
1F
100
AcDbEntity
  8
SK3
  6
SLD-Dashed
370
    18
100
AcDbSpline
210
0.0
220
0.0
230
1.0
 70
     8
 71
     3
 72
     8
 73
     4
 74
     0
 42
0.000000001
 43
0.00000001
 40
0.0937499999999999
 40
0.0937499999999999
 40
0.0937499999999999
 40
0.0937499999999999
 40
0.1249999999999998
 40
0.1249999999999998
 40
0.1249999999999998
 40
0.1249999999999998
 10
39.06451705767647
 20
9.680074008621524
 30
0.0
 10
39.22777703016941
 20
9.617072956990254
 30
0.0
 10
39.41465141027894
 20
9.548477079026139
 30
0.0
 10
39.61931175665684
 20
9.479808948567543
 30
0.0
  0
SPLINE
  5
21D
330
1F
100
AcDbEntity
  8
SK3
  6
SLD-Dashed
370
    18
100
AcDbSpline
210
0.0
220
0.0
230
1.0
 70
     8
 71
     3
 72
     8
 73
     4
 74
     0
 42
0.000000001
 43
0.00000001
 40
0.1249999999999998
 40
0.1249999999999998
 40
0.1249999999999998
 40
0.1249999999999998
 40
0.1562499999999998
 40
0.1562499999999998
 40
0.1562499999999998
 40
0.1562499999999998
 10
39.61931175665684
 20
9.479808948567543
 30
0.0
 10
39.82397210303473
 20
9.411140818108954
 30
0.0
 10
40.04924986133704
 20
9.341403698474554
 30
0.0
 10
40.29240481328713
 20
9.275668904204455
 30
0.0
  0
SPLINE
  5
21E
330
1F
100
AcDbEntity
  8
SK3
  6
SLD-Dashed
370
    18
100
AcDbSpline
210
0.0
220
0.0
230
1.0
 70
     8
 71
     3
 72
     8
 73
     4
 74
     0
 42
0.000000001
 43
0.00000001
 40
0.1562499999999998
 40
0.1562499999999998
 40
0.1562499999999998
 40
0.1562499999999998
 40
0.1874999999999997
 40
0.1874999999999997
 40
0.1874999999999997
 40
0.1874999999999997
 10
40.29240481328713
 20
9.275668904204455
 30
0.0
 10
40.53555976523726
 20
9.20993410993435
 30
0.0
 10
40.79165501408907
 20
9.149505118940388
 30
0.0
 10
41.0612095295288
 20
9.097988365578479
 30
0.0
  0
SPLINE
  5
21F
330
1F
100
AcDbEntity
  8
SK3
  6
SLD-Dashed
370
    18
100
AcDbSpline
210
0.0
220
0.0
230
1.0
 70
     8
 71
     3
 72
     8
 73
     4
 74
     0
 42
0.000000001
 43
0.00000001
 40
0.1874999999999997
 40
0.1874999999999997
 40
0.1874999999999997
 40
0.1874999999999997
 40
0.2031249999999997
 40
0.2031249999999997
 40
0.2031249999999997
 40
0.2031249999999997
 10
41.0612095295288
 20
9.097988365578479
 30
0.0
 10
41.19598678724867
 20
9.07222998889752
 30
0.0
 10
41.33415346771876
 20
9.04870355986552
 30
0.0
 10
41.47593621128992
 20
9.027909221772948
 30
0.0
  0
SPLINE
  5
220
330
1F
100
AcDbEntity
  8
SK3
  6
SLD-Dashed
370
    18
100
AcDbSpline
210
0.0
220
0.0
230
1.0
 70
     8
 71
     3
 72
     8
 73
     4
 74
     0
 42
0.000000001
 43
0.00000001
 40
0.2031249999999997
 40
0.2031249999999997
 40
0.2031249999999997
 40
0.2031249999999997
 40
0.2187499999999997
 40
0.2187499999999997
 40
0.2187499999999997
 40
0.2187499999999997
 10
41.47593621128992
 20
9.027909221772948
 30
0.0
 10
41.61771895486108
 20
9.007114883680382
 30
0.0
 10
41.7633475730464
 20
8.989086106806363
 30
0.0
 10
41.90890890582185
 20
8.974633326109954
 30
0.0
  0
SPLINE
  5
221
330
1F
100
AcDbEntity
  8
SK3
  6
SLD-Dashed
370
    18
100
AcDbSpline
210
0.0
220
0.0
230
1.0
 70
     8
 71
     3
 72
     8
 73
     4
 74
     0
 42
0.000000001
 43
0.00000001
 40
0.2187499999999997
 40
0.2187499999999997
 40
0.2187499999999997
 40
0.2187499999999997
 40
0.2499999999999997
 40
0.2499999999999997
 40
0.2499999999999997
 40
0.2499999999999997
 10
41.90890890582185
 20
8.974633326109954
 30
0.0
 10
42.20003157137275
 20
8.945727764717152
 30
0.0
 10
42.49454883734602
 20
8.930537420717865
 30
0.0
 10
42.79254523297119
 20
8.930288661266848
 30
0.0
  0
SPLINE
  5
222
330
1F
100
AcDbEntity
  8
SK3
  6
SLD-Dashed
370
    18
100
AcDbSpline
210
0.0
220
0.0
230
1.0
 70
     8
 71
     3
 72
     8
 73
     4
 74
     0
 42
0.000000001
 43
0.00000001
 40
0.2499999999999997
 40
0.2499999999999997
 40
0.2499999999999997
 40
0.2499999999999997
 40
0.2812499999999997
 40
0.2812499999999997
 40
0.2812499999999997
 40
0.2812499999999997
 10
42.79254523297119
 20
8.930288661266848
 30
0.0
 10
43.09054162859635
 20
8.930039901815832
 30
0.0
 10
43.3928957906348
 20
8.94527613088543
 30
0.0
 10
43.68337469841219
 20
8.973870450245801
 30
0.0
  0
SPLINE
  5
223
330
1F
100
AcDbEntity
  8
SK3
  6
SLD-Dashed
370
    18
100
AcDbSpline
210
0.0
220
0.0
230
1.0
 70
     8
 71
     3
 72
     8
 73
     4
 74
     0
 42
0.000000001
 43
0.00000001
 40
0.2812499999999997
 40
0.2812499999999997
 40
0.2812499999999997
 40
0.2812499999999997
 40
0.3124999999999997
 40
0.3124999999999997
 40
0.3124999999999997
 40
0.3124999999999997
 10
43.68337469841219
 20
8.973870450245801
 30
0.0
 10
43.97385360618961
 20
9.002464769606172
 30
0.0
 10
44.25793158845759
 20
9.044533688061705
 30
0.0
 10
44.5312075764307
 20
9.096542182208088
 30
0.0
  0
SPLINE
  5
224
330
1F
100
AcDbEntity
  8
SK3
  6
SLD-Dashed
370
    18
100
AcDbSpline
210
0.0
220
0.0
230
1.0
 70
     8
 71
     3
 72
     8
 73
     4
 74
     0
 42
0.000000001
 43
0.00000001
 40
0.3124999999999997
 40
0.3124999999999997
 40
0.3124999999999997
 40
0.3124999999999997
 40
0.3437499999999997
 40
0.3437499999999997
 40
0.3437499999999997
 40
0.3437499999999997
 10
44.5312075764307
 20
9.096542182208088
 30
0.0
 10
44.80448356440384
 20
9.148550676354464
 30
0.0
 10
45.06135750544368
 20
9.209205613470814
 30
0.0
 10
45.30329566121774
 20
9.274507489213185
 30
0.0
  0
SPLINE
  5
225
330
1F
100
AcDbEntity
  8
SK3
  6
SLD-Dashed
370
    18
100
AcDbSpline
210
0.0
220
0.0
230
1.0
 70
     8
 71
     3
 72
     8
 73
     4
 74
     0
 42
0.000000001
 43
0.00000001
 40
0.3437499999999997
 40
0.3437499999999997
 40
0.3437499999999997
 40
0.3437499999999997
 40
0.3749999999999997
 40
0.3749999999999997
 40
0.3749999999999997
 40
0.3749999999999997
 10
45.30329566121774
 20
9.274507489213185
 30
0.0
 10
45.54523381699177
 20
9.33980936495555
 30
0.0
 10
45.77332014581778
 20
9.410275203645165
 30
0.0
 10
45.97846682017234
 20
9.479063842328335
 30
0.0
  0
SPLINE
  5
226
330
1F
100
AcDbEntity
  8
SK3
  6
SLD-Dashed
370
    18
100
AcDbSpline
210
0.0
220
0.0
230
1.0
 70
     8
 71
     3
 72
     8
 73
     4
 74
     0
 42
0.000000001
 43
0.00000001
 40
0.3749999999999997
 40
0.3749999999999997
 40
0.3749999999999997
 40
0.3749999999999997
 40
0.4062499999999997
 40
0.4062499999999997
 40
0.4062499999999997
 40
0.4062499999999997
 10
45.97846682017234
 20
9.479063842328335
 30
0.0
 10
46.1836134945269
 20
9.547852481011503
 30
0.0
 10
46.36811471510268
 20
9.615541182315127
 30
0.0
 10
46.53180239778273
 20
9.678654303987546
 30
0.0
  0
SPLINE
  5
227
330
1F
100
AcDbEntity
  8
SK3
  6
SLD-Dashed
370
    18
100
AcDbSpline
210
0.0
220
0.0
230
1.0
 70
     8
 71
     3
 72
     8
 73
     4
 74
     0
 42
0.000000001
 43
0.00000001
 40
0.4062499999999997
 40
0.4062499999999997
 40
0.4062499999999997
 40
0.4062499999999997
 40
0.4374999999999997
 40
0.4374999999999997
 40
0.4374999999999997
 40
0.4374999999999997
 10
46.53180239778273
 20
9.678654303987546
 30
0.0
 10
46.69549008046281
 20
9.741767425659978
 30
0.0
 10
46.83608372496453
 20
9.799460133689708
 30
0.0
 10
46.94935855433344
 20
9.847191295614198
 30
0.0
  0
SPLINE
  5
228
330
1F
100
AcDbEntity
  8
SK3
  6
SLD-Dashed
370
    18
100
AcDbSpline
210
0.0
220
0.0
230
1.0
 70
     8
 71
     3
 72
     8
 73
     4
 74
     0
 42
0.000000001
 43
0.00000001
 40
0.4374999999999997
 40
0.4374999999999997
 40
0.4374999999999997
 40
0.4374999999999997
 40
0.4687499999999997
 40
0.4687499999999997
 40
0.4687499999999997
 40
0.4687499999999997
 10
46.94935855433344
 20
9.847191295614198
 30
0.0
 10
47.06263338370231
 20
9.894922457538687
 30
0.0
 10
47.15032049126566
 20
9.933399202760686
 30
0.0
 10
47.21005517669022
 20
9.959848726835766
 30
0.0
  0
SPLINE
  5
229
330
1F
100
AcDbEntity
  8
SK3
  6
SLD-Dashed
370
    18
100
AcDbSpline
210
0.0
220
0.0
230
1.0
 70
     8
 71
     3
 72
     8
 73
     4
 74
     0
 42
0.000000001
 43
0.00000001
 40
0.4687499999999997
 40
0.4687499999999997
 40
0.4687499999999997
 40
0.4687499999999997
 40
0.4999999999999997
 40
0.4999999999999997
 40
0.4999999999999997
 40
0.4999999999999997
 10
47.21005517669022
 20
9.959848726835766
 30
0.0
 10
47.26978986211478
 20
9.986298250910838
 30
0.0
 10
47.29945495637819
 20
9.999754730688315
 30
0.0
 10
47.29999263105178
 20
9.999996683975457
 30
0.0
  0
SPLINE
  5
22A
330
1F
100
AcDbEntity
  8
SK3
  6
SLD-Dashed
370
    18
100
AcDbSpline
210
0.0
220
0.0
230
1.0
 70
     8
 71
     3
 72
     8
 73
     4
 74
     0
 42
0.000000001
 43
0.00000001
 40
0.4999999999999997
 40
0.4999999999999997
 40
0.4999999999999997
 40
0.4999999999999997
 40
0.5312499999999997
 40
0.5312499999999997
 40
0.5312499999999997
 40
0.5312499999999997
 10
47.29999263105178
 20
9.999996683975457
 30
0.0
 10
47.30053030572537
 20
10.00023863726261
 30
0.0
 10
47.27091809648676
 20
9.986809732863936
 30
0.0
 10
47.21253201571729
 20
9.960945677481126
 30
0.0
  0
SPLINE
  5
22B
330
1F
100
AcDbEntity
  8
SK3
  6
SLD-Dashed
370
    18
100
AcDbSpline
210
0.0
220
0.0
230
1.0
 70
     8
 71
     3
 72
     8
 73
     4
 74
     0
 42
0.000000001
 43
0.00000001
 40
0.5312499999999997
 40
0.5312499999999997
 40
0.5312499999999997
 40
0.5312499999999997
 40
0.5624999999999996
 40
0.5624999999999996
 40
0.5624999999999996
 40
0.5624999999999996
 10
47.21253201571729
 20
9.960945677481126
 30
0.0
 10
47.15414593494785
 20
9.93508162209831
 30
0.0
 10
47.06785243499848
 20
9.89716687822051
 30
0.0
 10
46.95402335245774
 20
9.849157832665885
 30
0.0
  0
SPLINE
  5
22C
330
1F
100
AcDbEntity
  8
SK3
  6
SLD-Dashed
370
    18
100
AcDbSpline
210
0.0
220
0.0
230
1.0
 70
     8
 71
     3
 72
     8
 73
     4
 74
     0
 42
0.000000001
 43
0.00000001
 40
0.5624999999999996
 40
0.5624999999999996
 40
0.5624999999999996
 40
0.5624999999999996
 40
0.5937499999999996
 40
0.5937499999999996
 40
0.5937499999999996
 40
0.5937499999999996
 10
46.95402335245774
 20
9.849157832665885
 30
0.0
 10
46.84019426991695
 20
9.801148787111268
 30
0.0
 10
46.69972915213854
 20
9.74348592337624
 30
0.0
 10
46.53759361166351
 20
9.680888699181898
 30
0.0
  0
SPLINE
  5
22D
330
1F
100
AcDbEntity
  8
SK3
  6
SLD-Dashed
370
    18
100
AcDbSpline
210
0.0
220
0.0
230
1.0
 70
     8
 71
     3
 72
     8
 73
     4
 74
     0
 42
0.000000001
 43
0.00000001
 40
0.5937499999999996
 40
0.5937499999999996
 40
0.5937499999999996
 40
0.5937499999999996
 40
0.6249999999999994
 40
0.6249999999999994
 40
0.6249999999999994
 40
0.6249999999999994
 10
46.53759361166351
 20
9.680888699181898
 30
0.0
 10
46.37545807118845
 20
9.61829147498755
 30
0.0
 10
46.18878686240357
 20
9.54967057035374
 30
0.0
 10
45.98274548910991
 20
9.480499398684076
 30
0.0
  0
SPLINE
  5
22E
330
1F
100
AcDbEntity
  8
SK3
  6
SLD-Dashed
370
    18
100
AcDbSpline
210
0.0
220
0.0
230
1.0
 70
     8
 71
     3
 72
     8
 73
     4
 74
     0
 42
0.000000001
 43
0.00000001
 40
0.6249999999999994
 40
0.6249999999999994
 40
0.6249999999999994
 40
0.6249999999999994
 40
0.6562499999999996
 40
0.6562499999999996
 40
0.6562499999999996
 40
0.6562499999999996
 10
45.98274548910991
 20
9.480499398684076
 30
0.0
 10
45.77670411581619
 20
9.41132822701441
 30
0.0
 10
45.55335334149358
 20
9.342218585225568
 30
0.0
 10
45.31216381254449
 20
9.276905034603843
 30
0.0
  0
SPLINE
  5
22F
330
1F
100
AcDbEntity
  8
SK3
  6
SLD-Dashed
370
    18
100
AcDbSpline
210
0.0
220
0.0
230
1.0
 70
     8
 71
     3
 72
     8
 73
     4
 74
     0
 42
0.000000001
 43
0.00000001
 40
0.6562499999999996
 40
0.6562499999999996
 40
0.6562499999999996
 40
0.6562499999999996
 40
0.6874999999999996
 40
0.6874999999999996
 40
0.6874999999999996
 40
0.6874999999999996
 10
45.31216381254449
 20
9.276905034603843
 30
0.0
 10
45.07097428359544
 20
9.21159148398211
 30
0.0
 10
44.80911353699313
 20
9.149653217777116
 30
0.0
 10
44.53883290898813
 20
9.09799647644359
 30
0.0
  0
SPLINE
  5
230
330
1F
100
AcDbEntity
  8
SK3
  6
SLD-Dashed
370
    18
100
AcDbSpline
210
0.0
220
0.0
230
1.0
 70
     8
 71
     3
 72
     8
 73
     4
 74
     0
 42
0.000000001
 43
0.00000001
 40
0.6874999999999996
 40
0.6874999999999996
 40
0.6874999999999996
 40
0.6874999999999996
 40
0.7187499999999997
 40
0.7187499999999997
 40
0.7187499999999997
 40
0.7187499999999997
 10
44.53883290898813
 20
9.09799647644359
 30
0.0
 10
44.26855228098309
 20
9.046339735110049
 30
0.0
 10
43.98813758613224
 20
9.004310384950802
 30
0.0
 10
43.69673911394242
 20
8.975195877443234
 30
0.0
  0
SPLINE
  5
231
330
1F
100
AcDbEntity
  8
SK3
  6
SLD-Dashed
370
    18
100
AcDbSpline
210
0.0
220
0.0
230
1.0
 70
     8
 71
     3
 72
     8
 73
     4
 74
     0
 42
0.000000001
 43
0.00000001
 40
0.7187499999999997
 40
0.7187499999999997
 40
0.7187499999999997
 40
0.7187499999999997
 40
0.7343749999999997
 40
0.7343749999999997
 40
0.7343749999999997
 40
0.7343749999999997
 10
43.69673911394242
 20
8.975195877443234
 30
0.0
 10
43.5510398778475
 20
8.960638623689455
 30
0.0
 10
43.40157542261061
 20
8.94928930554404
 30
0.0
 10
43.25267701378716
 20
8.941751309380672
 30
0.0
  0
SPLINE
  5
232
330
1F
100
AcDbEntity
  8
SK3
  6
SLD-Dashed
370
    18
100
AcDbSpline
210
0.0
220
0.0
230
1.0
 70
     8
 71
     3
 72
     8
 73
     4
 74
     0
 42
0.000000001
 43
0.00000001
 40
0.7343749999999997
 40
0.7343749999999997
 40
0.7343749999999997
 40
0.7343749999999997
 40
0.7499999999999996
 40
0.7499999999999996
 40
0.7499999999999996
 40
0.7499999999999996
 10
43.25267701378716
 20
8.941751309380672
 30
0.0
 10
43.10377860496364
 20
8.93421331321731
 30
0.0
 10
42.95506540289731
 20
8.93039661480724
 30
0.0
 10
42.80653394755818
 20
8.930287940065007
 30
0.0
  0
SPLINE
  5
233
330
1F
100
AcDbEntity
  8
SK3
  6
SLD-Dashed
370
    18
100
AcDbSpline
210
0.0
220
0.0
230
1.0
 70
     8
 71
     3
 72
     8
 73
     4
 74
     0
 42
0.000000001
 43
0.00000001
 40
0.7499999999999996
 40
0.7499999999999996
 40
0.7499999999999996
 40
0.7499999999999996
 40
0.7812499999999997
 40
0.7812499999999997
 40
0.7812499999999997
 40
0.7812499999999997
 10
42.80653394755818
 20
8.930287940065007
 30
0.0
 10
42.50947103688002
 20
8.930070590580542
 30
0.0
 10
42.21156216141003
 20
8.944873874520324
 30
0.0
 10
41.91775125497679
 20
8.973759682992112
 30
0.0
  0
SPLINE
  5
234
330
1F
100
AcDbEntity
  8
SK3
  6
SLD-Dashed
370
    18
100
AcDbSpline
210
0.0
220
0.0
230
1.0
 70
     8
 71
     3
 72
     8
 73
     4
 74
     0
 42
0.000000001
 43
0.00000001
 40
0.7812499999999997
 40
0.7812499999999997
 40
0.7812499999999997
 40
0.7812499999999997
 40
0.8124999999999998
 40
0.8124999999999998
 40
0.8124999999999998
 40
0.8124999999999998
 10
41.91775125497679
 20
8.973759682992112
 30
0.0
 10
41.62394034854356
 20
9.002645491463914
 30
0.0
 10
41.34178265465463
 20
9.044630195953903
 30
0.0
 10
41.07025266621911
 20
9.09626438922715
 30
0.0
  0
SPLINE
  5
235
330
1F
100
AcDbEntity
  8
SK3
  6
SLD-Dashed
370
    18
100
AcDbSpline
210
0.0
220
0.0
230
1.0
 70
     8
 71
     3
 72
     8
 73
     4
 74
     0
 42
0.000000001
 43
0.00000001
 40
0.8124999999999998
 40
0.8124999999999998
 40
0.8124999999999998
 40
0.8124999999999998
 40
0.8437499999999998
 40
0.8437499999999998
 40
0.8437499999999998
 40
0.8437499999999998
 10
41.07025266621911
 20
9.09626438922715
 30
0.0
 10
40.79872267778364
 20
9.147898582500384
 30
0.0
 10
40.53678285499065
 20
9.20966731664686
 30
0.0
 10
40.29503358000289
 20
9.274958585638684
 30
0.0
  0
SPLINE
  5
236
330
1F
100
AcDbEntity
  8
SK3
  6
SLD-Dashed
370
    18
100
AcDbSpline
210
0.0
220
0.0
230
1.0
 70
     8
 71
     3
 72
     8
 73
     4
 74
     0
 42
0.000000001
 43
0.00000001
 40
0.8437499999999998
 40
0.8437499999999998
 40
0.8437499999999998
 40
0.8437499999999998
 40
0.8749999999999999
 40
0.8749999999999999
 40
0.8749999999999999
 40
0.8749999999999999
 10
40.29503358000289
 20
9.274958585638684
 30
0.0
 10
40.05328430501515
 20
9.340249854630507
 30
0.0
 10
39.82892076508843
 20
9.40952516821325
 30
0.0
 10
39.62160396489842
 20
9.479040107307775
 30
0.0
  0
SPLINE
  5
237
330
1F
100
AcDbEntity
  8
SK3
  6
SLD-Dashed
370
    18
100
AcDbSpline
210
0.0
220
0.0
230
1.0
 70
     8
 71
     3
 72
     8
 73
     4
 74
     0
 42
0.000000001
 43
0.00000001
 40
0.8749999999999999
 40
0.8749999999999999
 40
0.8749999999999999
 40
0.8749999999999999
 40
0.9062499999999999
 40
0.9062499999999999
 40
0.9062499999999999
 40
0.9062499999999999
 10
39.62160396489842
 20
9.479040107307775
 30
0.0
 10
39.41428716470838
 20
9.548555046402285
 30
0.0
 10
39.22915454397022
 20
9.616576067180006
 30
0.0
 10
39.06693054677976
 20
9.679142913634752
 30
0.0
  0
SPLINE
  5
238
330
1F
100
AcDbEntity
  8
SK3
  6
SLD-Dashed
370
    18
100
AcDbSpline
210
0.0
220
0.0
230
1.0
 70
     8
 71
     3
 72
     8
 73
     4
 74
     0
 42
0.000000001
 43
0.00000001
 40
0.9062499999999999
 40
0.9062499999999999
 40
0.9062499999999999
 40
0.9062499999999999
 40
0.9375
 40
0.9375
 40
0.9375
 40
0.9375
 10
39.06693054677976
 20
9.679142913634752
 30
0.0
 10
38.9047065495893
 20
9.741709760089513
 30
0.0
 10
38.76368934566624
 20
9.799543532140277
 30
0.0
 10
38.64935401807054
 20
9.847733854410713
 30
0.0
  0
SPLINE
  5
239
330
1F
100
AcDbEntity
  8
SK3
  6
SLD-Dashed
370
    18
100
AcDbSpline
210
0.0
220
0.0
230
1.0
 70
     8
 71
     3
 72
     8
 73
     4
 74
     0
 42
0.000000001
 43
0.00000001
 40
0.9375
 40
0.9375
 40
0.9375
 40
0.9375
 40
0.96875
 40
0.96875
 40
0.96875
 40
0.96875
 10
38.64935401807054
 20
9.847733854410713
 30
0.0
 10
38.53501869047485
 20
9.895924176681156
 30
0.0
 10
38.44844778873516
 20
9.933943118279235
 30
0.0
 10
38.38963443619439
 20
9.959986164970424
 30
0.0
  0
SPLINE
  5
23A
330
1F
100
AcDbEntity
  8
SK3
  6
SLD-Dashed
370
    18
100
AcDbSpline
210
0.0
220
0.0
230
1.0
 70
     8
 71
     2
 72
     6
 73
     3
 74
     0
 42
0.000000001
 43
0.00000001
 40
0.96875
 40
0.96875
 40
0.96875
 40
1.0
 40
1.0
 40
1.0
 10
38.38963443619439
 20
9.959986164970424
 30
0.0
 10
38.3308210836536
 20
9.98602921166161
 30
0.0
 10
38.29999999999998
 20
9.999999999999988
 30
0.0
  0
SPLINE
  5
23B
330
1F
100
AcDbEntity
  8
SK3
  6
SLD-Dashed
370
    18
100
AcDbSpline
210
0.0
220
0.0
230
1.0
 70
     8
 71
     2
 72
     6
 73
     3
 74
     0
 42
0.000000001
 43
0.00000001
 40
0.0
 40
0.0
 40
0.0
 40
0.0312500000000001
 40
0.0312500000000001
 40
0.0312500000000001
 10
60.69999999999997
 20
9.999999999999988
 30
0.0
 10
60.7299939942644
 20
9.98640132413655
 30
0.0
 10
60.78840214371403
 20
9.960531895716537
 30
0.0
  0
SPLINE
  5
23C
330
1F
100
AcDbEntity
  8
SK3
  6
SLD-Dashed
370
    18
100
AcDbSpline
210
0.0
220
0.0
230
1.0
 70
     8
 71
     3
 72
     8
 73
     4
 74
     0
 42
0.000000001
 43
0.00000001
 40
0.0312500000000001
 40
0.0312500000000001
 40
0.0312500000000001
 40
0.0312500000000001
 40
0.0625000000000002
 40
0.0625000000000002
 40
0.0625000000000002
 40
0.0625000000000002
 10
60.78840214371403
 20
9.960531895716537
 30
0.0
 10
60.84681029316364
 20
9.934662467296532
 30
0.0
 10
60.93522937855067
 20
9.895839236677611
 30
0.0
 10
61.04894812018591
 20
9.84790494008283
 30
0.0
  0
SPLINE
  5
23D
330
1F
100
AcDbEntity
  8
SK3
  6
SLD-Dashed
370
    18
100
AcDbSpline
210
0.0
220
0.0
230
1.0
 70
     8
 71
     3
 72
     8
 73
     4
 74
     0
 42
0.000000001
 43
0.00000001
 40
0.0625000000000002
 40
0.0625000000000002
 40
0.0625000000000002
 40
0.0625000000000002
 40
0.0937500000000003
 40
0.0937500000000003
 40
0.0937500000000003
 40
0.0937500000000003
 10
61.04894812018591
 20
9.84790494008283
 30
0.0
 10
61.16266686182117
 20
9.799970643488052
 30
0.0
 10
61.30125708518352
 20
9.743075060252785
 30
0.0
 10
61.46451705767647
 20
9.680074008621524
 30
0.0
  0
SPLINE
  5
23E
330
1F
100
AcDbEntity
  8
SK3
  6
SLD-Dashed
370
    18
100
AcDbSpline
210
0.0
220
0.0
230
1.0
 70
     8
 71
     3
 72
     8
 73
     4
 74
     0
 42
0.000000001
 43
0.00000001
 40
0.0937500000000003
 40
0.0937500000000003
 40
0.0937500000000003
 40
0.0937500000000003
 40
0.1250000000000004
 40
0.1250000000000004
 40
0.1250000000000004
 40
0.1250000000000004
 10
61.46451705767647
 20
9.680074008621524
 30
0.0
 10
61.62777703016942
 20
9.617072956990254
 30
0.0
 10
61.81465141027892
 20
9.548477079026139
 30
0.0
 10
62.01931175665684
 20
9.479808948567543
 30
0.0
  0
SPLINE
  5
23F
330
1F
100
AcDbEntity
  8
SK3
  6
SLD-Dashed
370
    18
100
AcDbSpline
210
0.0
220
0.0
230
1.0
 70
     8
 71
     3
 72
     8
 73
     4
 74
     0
 42
0.000000001
 43
0.00000001
 40
0.1250000000000004
 40
0.1250000000000004
 40
0.1250000000000004
 40
0.1250000000000004
 40
0.1562500000000005
 40
0.1562500000000005
 40
0.1562500000000005
 40
0.1562500000000005
 10
62.01931175665684
 20
9.479808948567543
 30
0.0
 10
62.22397210303476
 20
9.411140818108954
 30
0.0
 10
62.44924986133704
 20
9.341403698474547
 30
0.0
 10
62.69240481328714
 20
9.27566890420444
 30
0.0
  0
SPLINE
  5
240
330
1F
100
AcDbEntity
  8
SK3
  6
SLD-Dashed
370
    18
100
AcDbSpline
210
0.0
220
0.0
230
1.0
 70
     8
 71
     3
 72
     8
 73
     4
 74
     0
 42
0.000000001
 43
0.00000001
 40
0.1562500000000005
 40
0.1562500000000005
 40
0.1562500000000005
 40
0.1562500000000005
 40
0.1875000000000006
 40
0.1875000000000006
 40
0.1875000000000006
 40
0.1875000000000006
 10
62.69240481328714
 20
9.27566890420444
 30
0.0
 10
62.93555976523724
 20
9.209934109934343
 30
0.0
 10
63.19165501408902
 20
9.149505118940388
 30
0.0
 10
63.46120952952877
 20
9.097988365578486
 30
0.0
  0
SPLINE
  5
241
330
1F
100
AcDbEntity
  8
SK3
  6
SLD-Dashed
370
    18
100
AcDbSpline
210
0.0
220
0.0
230
1.0
 70
     8
 71
     3
 72
     8
 73
     4
 74
     0
 42
0.000000001
 43
0.00000001
 40
0.1875000000000006
 40
0.1875000000000006
 40
0.1875000000000006
 40
0.1875000000000006
 40
0.2031250000000006
 40
0.2031250000000006
 40
0.2031250000000006
 40
0.2031250000000006
 10
63.46120952952877
 20
9.097988365578486
 30
0.0
 10
63.59598678724865
 20
9.07222998889752
 30
0.0
 10
63.73415346771874
 20
9.04870355986552
 30
0.0
 10
63.87593621128993
 20
9.027909221772948
 30
0.0
  0
SPLINE
  5
242
330
1F
100
AcDbEntity
  8
SK3
  6
SLD-Dashed
370
    18
100
AcDbSpline
210
0.0
220
0.0
230
1.0
 70
     8
 71
     3
 72
     8
 73
     4
 74
     0
 42
0.000000001
 43
0.00000001
 40
0.2031250000000006
 40
0.2031250000000006
 40
0.2031250000000006
 40
0.2031250000000006
 40
0.2187500000000007
 40
0.2187500000000007
 40
0.2187500000000007
 40
0.2187500000000007
 10
63.87593621128993
 20
9.027909221772948
 30
0.0
 10
64.01771895486114
 20
9.007114883680382
 30
0.0
 10
64.1633475730464
 20
8.989086106806363
 30
0.0
 10
64.30890890582184
 20
8.974633326109954
 30
0.0
  0
SPLINE
  5
243
330
1F
100
AcDbEntity
  8
SK3
  6
SLD-Dashed
370
    18
100
AcDbSpline
210
0.0
220
0.0
230
1.0
 70
     8
 71
     3
 72
     8
 73
     4
 74
     0
 42
0.000000001
 43
0.00000001
 40
0.2187500000000007
 40
0.2187500000000007
 40
0.2187500000000007
 40
0.2187500000000007
 40
0.2500000000000008
 40
0.2500000000000008
 40
0.2500000000000008
 40
0.2500000000000008
 10
64.30890890582184
 20
8.974633326109954
 30
0.0
 10
64.60003157137274
 20
8.945727764717043
 30
0.0
 10
64.89454883734601
 20
8.930537420717679
 30
0.0
 10
65.19254523297117
 20
8.930288661266564
 30
0.0
  0
SPLINE
  5
244
330
1F
100
AcDbEntity
  8
SK3
  6
SLD-Dashed
370
    18
100
AcDbSpline
210
0.0
220
0.0
230
1.0
 70
     8
 71
     3
 72
     8
 73
     4
 74
     0
 42
0.000000001
 43
0.00000001
 40
0.2500000000000008
 40
0.2500000000000008
 40
0.2500000000000008
 40
0.2500000000000008
 40
0.2812500000000009
 40
0.2812500000000009
 40
0.2812500000000009
 40
0.2812500000000009
 10
65.19254523297117
 20
8.930288661266564
 30
0.0
 10
65.4905416285963
 20
8.930039901815649
 30
0.0
 10
65.79289579063487
 20
8.945276130885322
 30
0.0
 10
66.08337469841221
 20
8.973870450245794
 30
0.0
  0
SPLINE
  5
245
330
1F
100
AcDbEntity
  8
SK3
  6
SLD-Dashed
370
    18
100
AcDbSpline
210
0.0
220
0.0
230
1.0
 70
     8
 71
     3
 72
     8
 73
     4
 74
     0
 42
0.000000001
 43
0.00000001
 40
0.2812500000000009
 40
0.2812500000000009
 40
0.2812500000000009
 40
0.2812500000000009
 40
0.3125000000000011
 40
0.3125000000000011
 40
0.3125000000000011
 40
0.3125000000000011
 10
66.08337469841221
 20
8.973870450245794
 30
0.0
 10
66.37385360618961
 20
9.002464769606172
 30
0.0
 10
66.65793158845756
 20
9.044533688061705
 30
0.0
 10
66.93120757643071
 20
9.096542182208081
 30
0.0
  0
SPLINE
  5
246
330
1F
100
AcDbEntity
  8
SK3
  6
SLD-Dashed
370
    18
100
AcDbSpline
210
0.0
220
0.0
230
1.0
 70
     8
 71
     3
 72
     8
 73
     4
 74
     0
 42
0.000000001
 43
0.00000001
 40
0.3125000000000011
 40
0.3125000000000011
 40
0.3125000000000011
 40
0.3125000000000011
 40
0.3437500000000013
 40
0.3437500000000013
 40
0.3437500000000013
 40
0.3437500000000013
 10
66.93120757643072
 20
9.096542182208088
 30
0.0
 10
67.20448356440387
 20
9.148550676354466
 30
0.0
 10
67.46135750544369
 20
9.209205613470816
 30
0.0
 10
67.70329566121777
 20
9.274507489213189
 30
0.0
  0
SPLINE
  5
247
330
1F
100
AcDbEntity
  8
SK3
  6
SLD-Dashed
370
    18
100
AcDbSpline
210
0.0
220
0.0
230
1.0
 70
     8
 71
     3
 72
     8
 73
     4
 74
     0
 42
0.000000001
 43
0.00000001
 40
0.3437500000000013
 40
0.3437500000000013
 40
0.3437500000000013
 40
0.3437500000000013
 40
0.3750000000000014
 40
0.3750000000000014
 40
0.3750000000000014
 40
0.3750000000000014
 10
67.70329566121774
 20
9.27450748921318
 30
0.0
 10
67.94523381699177
 20
9.339809364955553
 30
0.0
 10
68.17332014581778
 20
9.410275203645163
 30
0.0
 10
68.37846682017238
 20
9.479063842328335
 30
0.0
  0
SPLINE
  5
248
330
1F
100
AcDbEntity
  8
SK3
  6
SLD-Dashed
370
    18
100
AcDbSpline
210
0.0
220
0.0
230
1.0
 70
     8
 71
     3
 72
     8
 73
     4
 74
     0
 42
0.000000001
 43
0.00000001
 40
0.3750000000000014
 40
0.3750000000000014
 40
0.3750000000000014
 40
0.3750000000000014
 40
0.4062500000000016
 40
0.4062500000000016
 40
0.4062500000000016
 40
0.4062500000000016
 10
68.37846682017238
 20
9.479063842328335
 30
0.0
 10
68.58361349452693
 20
9.54785248101151
 30
0.0
 10
68.76811471510268
 20
9.615541182315127
 30
0.0
 10
68.93180239778273
 20
9.678654303987551
 30
0.0
  0
SPLINE
  5
249
330
1F
100
AcDbEntity
  8
SK3
  6
SLD-Dashed
370
    18
100
AcDbSpline
210
0.0
220
0.0
230
1.0
 70
     8
 71
     3
 72
     8
 73
     4
 74
     0
 42
0.000000001
 43
0.00000001
 40
0.4062500000000016
 40
0.4062500000000016
 40
0.4062500000000016
 40
0.4062500000000016
 40
0.4375000000000018
 40
0.4375000000000018
 40
0.4375000000000018
 40
0.4375000000000018
 10
68.93180239778273
 20
9.678654303987551
 30
0.0
 10
69.09549008046278
 20
9.741767425659985
 30
0.0
 10
69.23608372496456
 20
9.799460133689701
 30
0.0
 10
69.34935855433343
 20
9.847191295614198
 30
0.0
  0
SPLINE
  5
24A
330
1F
100
AcDbEntity
  8
SK3
  6
SLD-Dashed
370
    18
100
AcDbSpline
210
0.0
220
0.0
230
1.0
 70
     8
 71
     3
 72
     8
 73
     4
 74
     0
 42
0.000000001
 43
0.00000001
 40
0.4375000000000018
 40
0.4375000000000018
 40
0.4375000000000018
 40
0.4375000000000018
 40
0.4687500000000019
 40
0.4687500000000019
 40
0.4687500000000019
 40
0.4687500000000019
 10
69.34935855433343
 20
9.847191295614198
 30
0.0
 10
69.46263338370231
 20
9.894922457538687
 30
0.0
 10
69.55032049126564
 20
9.933399202760686
 30
0.0
 10
69.6100551766902
 20
9.959848726835766
 30
0.0
  0
SPLINE
  5
24B
330
1F
100
AcDbEntity
  8
SK3
  6
SLD-Dashed
370
    18
100
AcDbSpline
210
0.0
220
0.0
230
1.0
 70
     8
 71
     3
 72
     8
 73
     4
 74
     0
 42
0.000000001
 43
0.00000001
 40
0.4687500000000019
 40
0.4687500000000019
 40
0.4687500000000019
 40
0.4687500000000019
 40
0.5000000000000021
 40
0.5000000000000021
 40
0.5000000000000021
 40
0.5000000000000021
 10
69.6100551766902
 20
9.959848726835766
 30
0.0
 10
69.66978986211478
 20
9.986298250910838
 30
0.0
 10
69.69945495637819
 20
9.999754730688313
 30
0.0
 10
69.69999263105181
 20
9.999996683975455
 30
0.0
  0
SPLINE
  5
24C
330
1F
100
AcDbEntity
  8
SK3
  6
SLD-Dashed
370
    18
100
AcDbSpline
210
0.0
220
0.0
230
1.0
 70
     8
 71
     3
 72
     8
 73
     4
 74
     0
 42
0.000000001
 43
0.00000001
 40
0.5000000000000021
 40
0.5000000000000021
 40
0.5000000000000021
 40
0.5000000000000021
 40
0.5312500000000022
 40
0.5312500000000022
 40
0.5312500000000022
 40
0.5312500000000022
 10
69.69999263105181
 20
9.999996683975455
 30
0.0
 10
69.7005303057254
 20
10.00023863726261
 30
0.0
 10
69.67091809648676
 20
9.986809732863932
 30
0.0
 10
69.61253201571729
 20
9.96094567748112
 30
0.0
  0
SPLINE
  5
24D
330
1F
100
AcDbEntity
  8
SK3
  6
SLD-Dashed
370
    18
100
AcDbSpline
210
0.0
220
0.0
230
1.0
 70
     8
 71
     3
 72
     8
 73
     4
 74
     0
 42
0.000000001
 43
0.00000001
 40
0.5312500000000022
 40
0.5312500000000022
 40
0.5312500000000022
 40
0.5312500000000022
 40
0.5625000000000023
 40
0.5625000000000023
 40
0.5625000000000023
 40
0.5625000000000023
 10
69.61253201571729
 20
9.96094567748112
 30
0.0
 10
69.55414593494785
 20
9.93508162209831
 30
0.0
 10
69.46785243499845
 20
9.897166878220498
 30
0.0
 10
69.35402335245772
 20
9.84915783266587
 30
0.0
  0
SPLINE
  5
24E
330
1F
100
AcDbEntity
  8
SK3
  6
SLD-Dashed
370
    18
100
AcDbSpline
210
0.0
220
0.0
230
1.0
 70
     8
 71
     3
 72
     8
 73
     4
 74
     0
 42
0.000000001
 43
0.00000001
 40
0.5625000000000023
 40
0.5625000000000023
 40
0.5625000000000023
 40
0.5625000000000023
 40
0.5937500000000024
 40
0.5937500000000024
 40
0.5937500000000024
 40
0.5937500000000024
 10
69.35402335245774
 20
9.849157832665881
 30
0.0
 10
69.24019426991698
 20
9.801148787111265
 30
0.0
 10
69.09972915213858
 20
9.743485923376234
 30
0.0
 10
68.93759361166352
 20
9.680888699181898
 30
0.0
  0
SPLINE
  5
24F
330
1F
100
AcDbEntity
  8
SK3
  6
SLD-Dashed
370
    18
100
AcDbSpline
210
0.0
220
0.0
230
1.0
 70
     8
 71
     3
 72
     8
 73
     4
 74
     0
 42
0.000000001
 43
0.00000001
 40
0.5937500000000024
 40
0.5937500000000024
 40
0.5937500000000024
 40
0.5937500000000024
 40
0.6250000000000026
 40
0.6250000000000026
 40
0.6250000000000026
 40
0.6250000000000026
 10
68.93759361166349
 20
9.680888699181889
 30
0.0
 10
68.77545807118842
 20
9.61829147498754
 30
0.0
 10
68.58878686240355
 20
9.549670570353722
 30
0.0
 10
68.38274548910987
 20
9.48049939868406
 30
0.0
  0
SPLINE
  5
250
330
1F
100
AcDbEntity
  8
SK3
  6
SLD-Dashed
370
    18
100
AcDbSpline
210
0.0
220
0.0
230
1.0
 70
     8
 71
     3
 72
     8
 73
     4
 74
     0
 42
0.000000001
 43
0.00000001
 40
0.6250000000000026
 40
0.6250000000000026
 40
0.6250000000000026
 40
0.6250000000000026
 40
0.6562500000000027
 40
0.6562500000000027
 40
0.6562500000000027
 40
0.6562500000000027
 10
68.38274548910987
 20
9.48049939868406
 30
0.0
 10
68.1767041158162
 20
9.411328227014403
 30
0.0
 10
67.95335334149364
 20
9.34221858522556
 30
0.0
 10
67.71216381254449
 20
9.276905034603836
 30
0.0
  0
SPLINE
  5
251
330
1F
100
AcDbEntity
  8
SK3
  6
SLD-Dashed
370
    18
100
AcDbSpline
210
0.0
220
0.0
230
1.0
 70
     8
 71
     3
 72
     8
 73
     4
 74
     0
 42
0.000000001
 43
0.00000001
 40
0.6562500000000027
 40
0.6562500000000027
 40
0.6562500000000027
 40
0.6562500000000027
 40
0.6875000000000028
 40
0.6875000000000028
 40
0.6875000000000028
 40
0.6875000000000028
 10
67.71216381254449
 20
9.276905034603836
 30
0.0
 10
67.47097428359541
 20
9.211591483982103
 30
0.0
 10
67.20911353699307
 20
9.149653217777116
 30
0.0
 10
66.9388329089881
 20
9.097996476443583
 30
0.0
  0
SPLINE
  5
252
330
1F
100
AcDbEntity
  8
SK3
  6
SLD-Dashed
370
    18
100
AcDbSpline
210
0.0
220
0.0
230
1.0
 70
     8
 71
     3
 72
     8
 73
     4
 74
     0
 42
0.000000001
 43
0.00000001
 40
0.6875000000000028
 40
0.6875000000000028
 40
0.6875000000000028
 40
0.6875000000000028
 40
0.7187500000000029
 40
0.7187500000000029
 40
0.7187500000000029
 40
0.7187500000000029
 10
66.93883290898813
 20
9.097996476443587
 30
0.0
 10
66.66855228098318
 20
9.046339735110053
 30
0.0
 10
66.38813758613225
 20
9.004310384950804
 30
0.0
 10
66.0967391139424
 20
8.975195877443234
 30
0.0
  0
SPLINE
  5
253
330
1F
100
AcDbEntity
  8
SK3
  6
SLD-Dashed
370
    18
100
AcDbSpline
210
0.0
220
0.0
230
1.0
 70
     8
 71
     3
 72
     8
 73
     4
 74
     0
 42
0.000000001
 43
0.00000001
 40
0.7187500000000029
 40
0.7187500000000029
 40
0.7187500000000029
 40
0.7187500000000029
 40
0.7343750000000022
 40
0.7343750000000022
 40
0.7343750000000022
 40
0.7343750000000022
 10
66.09673911394238
 20
8.975195877443232
 30
0.0
 10
65.95103987784748
 20
8.960638623689455
 30
0.0
 10
65.80157542261061
 20
8.949289305544047
 30
0.0
 10
65.65267701378713
 20
8.94175130938068
 30
0.0
  0
SPLINE
  5
254
330
1F
100
AcDbEntity
  8
SK3
  6
SLD-Dashed
370
    18
100
AcDbSpline
210
0.0
220
0.0
230
1.0
 70
     8
 71
     3
 72
     8
 73
     4
 74
     0
 42
0.000000001
 43
0.00000001
 40
0.7343750000000022
 40
0.7343750000000022
 40
0.7343750000000022
 40
0.7343750000000022
 40
0.7500000000000017
 40
0.7500000000000017
 40
0.7500000000000017
 40
0.7500000000000017
 10
65.65267701378714
 20
8.94175130938068
 30
0.0
 10
65.50377860496364
 20
8.934213313217317
 30
0.0
 10
65.35506540289731
 20
8.930396614807238
 30
0.0
 10
65.20653394755824
 20
8.930287940065012
 30
0.0
  0
SPLINE
  5
255
330
1F
100
AcDbEntity
  8
SK3
  6
SLD-Dashed
370
    18
100
AcDbSpline
210
0.0
220
0.0
230
1.0
 70
     8
 71
     3
 72
     8
 73
     4
 74
     0
 42
0.000000001
 43
0.00000001
 40
0.7500000000000017
 40
0.7500000000000017
 40
0.7500000000000017
 40
0.7500000000000017
 40
0.7812500000000019
 40
0.7812500000000019
 40
0.7812500000000019
 40
0.7812500000000019
 10
65.20653394755824
 20
8.930287940065012
 30
0.0
 10
64.90947103688002
 20
8.930070590580545
 30
0.0
 10
64.61156216141006
 20
8.944873874520331
 30
0.0
 10
64.3177512549768
 20
8.973759682992126
 30
0.0
  0
SPLINE
  5
256
330
1F
100
AcDbEntity
  8
SK3
  6
SLD-Dashed
370
    18
100
AcDbSpline
210
0.0
220
0.0
230
1.0
 70
     8
 71
     3
 72
     8
 73
     4
 74
     0
 42
0.000000001
 43
0.00000001
 40
0.7812500000000019
 40
0.7812500000000019
 40
0.7812500000000019
 40
0.7812500000000019
 40
0.8125000000000021
 40
0.8125000000000021
 40
0.8125000000000021
 40
0.8125000000000021
 10
64.3177512549768
 20
8.973759682992126
 30
0.0
 10
64.02394034854353
 20
9.002645491463921
 30
0.0
 10
63.74178265465466
 20
9.044630195953903
 30
0.0
 10
63.47025266621914
 20
9.09626438922715
 30
0.0
  0
SPLINE
  5
257
330
1F
100
AcDbEntity
  8
SK3
  6
SLD-Dashed
370
    18
100
AcDbSpline
210
0.0
220
0.0
230
1.0
 70
     8
 71
     3
 72
     8
 73
     4
 74
     0
 42
0.000000001
 43
0.00000001
 40
0.8125000000000021
 40
0.8125000000000021
 40
0.8125000000000021
 40
0.8125000000000021
 40
0.8437500000000023
 40
0.8437500000000023
 40
0.8437500000000023
 40
0.8437500000000023
 10
63.47025266621914
 20
9.09626438922715
 30
0.0
 10
63.19872267778368
 20
9.147898582500384
 30
0.0
 10
62.93678285499069
 20
9.20966731664686
 30
0.0
 10
62.69503358000294
 20
9.27495858563869
 30
0.0
  0
SPLINE
  5
258
330
1F
100
AcDbEntity
  8
SK3
  6
SLD-Dashed
370
    18
100
AcDbSpline
210
0.0
220
0.0
230
1.0
 70
     8
 71
     3
 72
     8
 73
     4
 74
     0
 42
0.000000001
 43
0.00000001
 40
0.8437500000000023
 40
0.8437500000000023
 40
0.8437500000000023
 40
0.8437500000000023
 40
0.8750000000000019
 40
0.8750000000000019
 40
0.8750000000000019
 40
0.8750000000000019
 10
62.69503358000294
 20
9.274958585638691
 30
0.0
 10
62.4532843050152
 20
9.340249854630507
 30
0.0
 10
62.2289207650884
 20
9.40952516821326
 30
0.0
 10
62.02160396489835
 20
9.479040107307776
 30
0.0
  0
SPLINE
  5
259
330
1F
100
AcDbEntity
  8
SK3
  6
SLD-Dashed
370
    18
100
AcDbSpline
210
0.0
220
0.0
230
1.0
 70
     8
 71
     3
 72
     8
 73
     4
 74
     0
 42
0.000000001
 43
0.00000001
 40
0.8750000000000019
 40
0.8750000000000019
 40
0.8750000000000019
 40
0.8750000000000019
 40
0.9062500000000014
 40
0.9062500000000014
 40
0.9062500000000014
 40
0.9062500000000014
 10
62.02160396489835
 20
9.479040107307776
 30
0.0
 10
61.81428716470832
 20
9.548555046402287
 30
0.0
 10
61.62915454397019
 20
9.616576067180008
 30
0.0
 10
61.46693054677973
 20
9.679142913634752
 30
0.0
  0
SPLINE
  5
25A
330
1F
100
AcDbEntity
  8
SK3
  6
SLD-Dashed
370
    18
100
AcDbSpline
210
0.0
220
0.0
230
1.0
 70
     8
 71
     3
 72
     8
 73
     4
 74
     0
 42
0.000000001
 43
0.00000001
 40
0.9062500000000014
 40
0.9062500000000014
 40
0.9062500000000014
 40
0.9062500000000014
 40
0.937500000000001
 40
0.937500000000001
 40
0.937500000000001
 40
0.937500000000001
 10
61.46693054677973
 20
9.679142913634752
 30
0.0
 10
61.30470654958927
 20
9.741709760089512
 30
0.0
 10
61.16368934566626
 20
9.799543532140287
 30
0.0
 10
61.04935401807057
 20
9.847733854410727
 30
0.0
  0
SPLINE
  5
25B
330
1F
100
AcDbEntity
  8
SK3
  6
SLD-Dashed
370
    18
100
AcDbSpline
210
0.0
220
0.0
230
1.0
 70
     8
 71
     3
 72
     8
 73
     4
 74
     0
 42
0.000000001
 43
0.00000001
 40
0.937500000000001
 40
0.937500000000001
 40
0.937500000000001
 40
0.937500000000001
 40
0.9687500000000006
 40
0.9687500000000006
 40
0.9687500000000006
 40
0.9687500000000006
 10
61.04935401807057
 20
9.847733854410727
 30
0.0
 10
60.93501869047488
 20
9.895924176681163
 30
0.0
 10
60.84844778873516
 20
9.933943118279242
 30
0.0
 10
60.78963443619434
 20
9.95998616497043
 30
0.0
  0
SPLINE
  5
25C
330
1F
100
AcDbEntity
  8
SK3
  6
SLD-Dashed
370
    18
100
AcDbSpline
210
0.0
220
0.0
230
1.0
 70
     8
 71
     2
 72
     6
 73
     3
 74
     0
 42
0.000000001
 43
0.00000001
 40
0.9687500000000006
 40
0.9687500000000006
 40
0.9687500000000006
 40
1.0
 40
1.0
 40
1.0
 10
60.78963443619434
 20
9.95998616497043
 30
0.0
 10
60.73082108365355
 20
9.986029211661606
 30
0.0
 10
60.69999999999997
 20
9.999999999999988
 30
0.0
  0
SPLINE
  5
25D
330
1F
100
AcDbEntity
  8
SK3
  6
SLD-Dashed
370
    18
100
AcDbSpline
210
0.0
220
0.0
230
1.0
 70
     8
 71
     3
 72
    32
 73
    28
 74
     0
 42
0.000000001
 43
0.00000001
 40
0.4999999999999989
 40
0.4999999999999989
 40
0.4999999999999989
 40
0.4999999999999989
 40
0.5624999999999988
 40
0.5624999999999988
 40
0.5937499999999989
 40
0.5937499999999989
 40
0.624999999999999
 40
0.624999999999999
 40
0.6874999999999992
 40
0.6874999999999992
 40
0.7187499999999993
 40
0.7187499999999993
 40
0.7499999999999993
 40
0.7499999999999993
 40
0.7812499999999994
 40
0.7812499999999994
 40
0.8124999999999996
 40
0.8124999999999996
 40
0.875
 40
0.875
 40
0.90625
 40
0.90625
 40
0.9375
 40
0.9375
 40
0.96875
 40
0.96875
 40
1.0
 40
1.0
 40
1.0
 40
1.0
 10
11.12568538314593
 20
3.164795175867888
 30
0.0
 10
10.90930725104987
 20
3.164868888949714
 30
0.0
 10
10.69085711984218
 20
3.129223735228663
 30
0.0
 10
10.3922786016348
 20
3.026203748506664
 30
0.0
 10
10.29579440338252
 20
2.983011106508733
 30
0.0
 10
10.1176156239756
 20
2.882490537233696
 30
0.0
 10
10.03497453318633
 20
2.824979481874997
 30
0.0
 10
9.806296607499391
 20
2.629028727721354
 30
0.0
 10
9.685309898818245
 20
2.472051589998511
 30
0.0
 10
9.559982192876584
 20
2.202362546210403
 30
0.0
 10
9.528559929558366
 20
2.108905456397456
 30
0.0
 10
9.486024957942332
 20
1.914573275935569
 30
0.0
 10
9.47500913571156
 20
1.812407501126143
 30
0.0
 10
9.474990875921034
 20
1.608054303576523
 30
0.0
 10
9.485625977921755
 20
1.505662667210798
 30
0.0
 10
9.528177629801613
 20
1.300564129759256
 30
0.0
 10
9.560294575131786
 20
1.198294545143995
 30
0.0
 10
9.684377684772413
 20
0.905086855661083
 30
0.0
 10
9.80699366485506
 20
0.7211117348669971
 30
0.0
 10
10.03384857288794
 20
0.4893022765049895
 30
0.0
 10
10.11808276655268
 20
0.4179146106539078
 30
0.0
 10
10.2964254274823
 20
0.2941075388318906
 30
0.0
 10
10.39073767200854
 20
0.2411604132373235
 30
0.0
 10
10.59007029960515
 20
0.1540322334411745
 30
0.0
 10
10.69530330339082
 20
0.1201415292548247
 30
0.0
 10
10.9072477693786
 20
0.0753318181066637
 30
0.0
 10
11.0151571559801
 20
0.0638096440184199
 30
0.0
 10
11.12500000000001
 20
0.0638096440184199
 30
0.0
  0
SPLINE
  5
25E
330
1F
100
AcDbEntity
  8
SK3
  6
SLD-Dashed
370
    18
100
AcDbSpline
210
0.0
220
0.0
230
1.0
 70
     8
 71
     3
 72
    34
 73
    30
 74
     0
 42
0.000000001
 43
0.00000001
 40
0.0
 40
0.0
 40
0.0
 40
0.0
 40
0.0312499999999999
 40
0.0312499999999999
 40
0.0624999999999998
 40
0.0624999999999998
 40
0.0937499999999996
 40
0.0937499999999996
 40
0.1249999999999995
 40
0.1249999999999995
 40
0.1874999999999993
 40
0.1874999999999993
 40
0.2187499999999993
 40
0.2187499999999993
 40
0.2499999999999993
 40
0.2499999999999993
 40
0.2812499999999993
 40
0.2812499999999993
 40
0.3124999999999993
 40
0.3124999999999993
 40
0.3749999999999991
 40
0.3749999999999991
 40
0.4062499999999991
 40
0.4062499999999991
 40
0.437499999999999
 40
0.437499999999999
 40
0.4687499999999989
 40
0.4687499999999989
 40
0.4999999999999989
 40
0.4999999999999989
 40
0.4999999999999989
 40
0.4999999999999989
 10
11.12500000000001
 20
0.0638096440184269
 30
0.0
 10
11.23484284401991
 20
0.0638096440184199
 30
0.0
 10
11.34268361897882
 20
0.0753239405347633
 30
0.0
 10
11.55458029042004
 20
0.120110295782086
 30
0.0
 10
11.65976042240321
 20
0.1539693909202444
 30
0.0
 10
11.85915032177135
 20
0.2411003223040248
 30
0.0
 10
11.95359503244242
 20
0.2941007602278237
 30
0.0
 10
12.13233987927979
 20
0.4182290493176324
 30
0.0
 10
12.21630584337762
 20
0.4894538131780327
 30
0.0
 10
12.44284562754153
 20
0.7209600276563699
 30
0.0
 10
12.56552301034966
 20
0.9050379409593565
 30
0.0
 10
12.68942122511164
 20
1.197530486659312
 30
0.0
 10
12.72154724313086
 20
1.299554875949772
 30
0.0
 10
12.76425901060968
 20
1.504794342566139
 30
0.0
 10
12.77492763525401
 20
1.607111882983923
 30
0.0
 10
12.77507163805729
 20
1.811031531776024
 30
0.0
 10
12.76416863827683
 20
1.913334853432327
 30
0.0
 10
12.72168879963408
 20
2.108119339170676
 30
0.0
 10
12.69026585336823
 20
2.20171789513645
 30
0.0
 10
12.56498961692484
 20
2.471627793472382
 30
0.0
 10
12.44331949186761
 20
2.629336524130929
 30
0.0
 10
12.21535276568475
 20
2.824709596062291
 30
0.0
 10
12.1328671083101
 20
2.882177168638249
 30
0.0
 10
11.95471619465344
 20
2.98276385404575
 30
0.0
 10
11.85822868889993
 20
3.025980196719416
 30
0.0
 10
11.65965305134005
 20
3.094592381840434
 30
0.0
 10
11.55674677573376
 20
3.120597106963503
 30
0.0
 10
11.34329434492548
 20
3.155881951346279
 30
0.0
 10
11.23387444919394
 20
3.164758319326971
 30
0.0
 10
11.12568538314593
 20
3.164795175867888
 30
0.0
  0
SPLINE
  5
25F
330
1F
100
AcDbEntity
  8
SK3
  6
SLD-Dashed
370
    18
100
AcDbSpline
210
0.0
220
0.0
230
1.0
 70
     8
 71
     3
 72
    34
 73
    30
 74
     0
 42
0.000000001
 43
0.00000001
 40
0.499999999999998
 40
0.499999999999998
 40
0.499999999999998
 40
0.499999999999998
 40
0.5312499999999979
 40
0.5312499999999979
 40
0.5624999999999978
 40
0.5624999999999978
 40
0.5937499999999976
 40
0.5937499999999976
 40
0.6249999999999974
 40
0.6249999999999974
 40
0.6562499999999973
 40
0.6562499999999973
 40
0.6874999999999972
 40
0.6874999999999972
 40
0.7499999999999969
 40
0.7499999999999969
 40
0.8124999999999973
 40
0.8124999999999973
 40
0.8437499999999978
 40
0.8437499999999978
 40
0.8749999999999982
 40
0.8749999999999982
 40
0.9062499999999987
 40
0.9062499999999987
 40
0.937499999999999
 40
0.937499999999999
 40
0.9687499999999994
 40
0.9687499999999994
 40
1.0
 40
1.0
 40
1.0
 40
1.0
 10
9.638805742161722
 20
10.95392502366162
 30
0.0
 10
9.693881160736314
 20
10.84705887039521
 30
0.0
 10
9.763179283156633
 20
10.74439645836096
 30
0.0
 10
9.923515798149985
 20
10.55592715127708
 30
0.0
 10
10.01390276352453
 20
10.47020735344793
 30
0.0
 10
10.21445694949212
 20
10.31296552728878
 30
0.0
 10
10.32267837600209
 20
10.24333508542229
 30
0.0
 10
10.54307526498122
 20
10.12288935951391
 30
0.0
 10
10.65791658596822
 20
10.07070374731722
 30
0.0
 10
10.87819871140988
 20
9.984463182040868
 30
0.0
 10
10.98608094611136
 20
9.94920527973784
 30
0.0
 10
11.18968749579594
 20
9.892304259468993
 30
0.0
 10
11.28527842069084
 20
9.870580048613832
 30
0.0
 10
11.55898297450221
 20
9.820769890309979
 30
0.0
 10
11.72337034356695
 20
9.808096789548735
 30
0.0
 10
12.02194861504764
 20
9.821477532699776
 30
0.0
 10
12.15920875119765
 20
9.84731018817673
 30
0.0
 10
12.34760730605758
 20
9.927824692744434
 30
0.0
 10
12.40688352391457
 20
9.961503747003372
 30
0.0
 10
12.51780294837551
 20
10.0474980864718
 30
0.0
 10
12.56969006353044
 20
10.1002182908583
 30
0.0
 10
12.65991931900841
 20
10.22933776798929
 30
0.0
 10
12.69929072119649
 20
10.30748393412818
 30
0.0
 10
12.7558656863648
 20
10.49302732041031
 30
0.0
 10
12.77303399215493
 20
10.60290348381506
 30
0.0
 10
12.77663319740259
 20
10.83901366027915
 30
0.0
 10
12.7630699394838
 20
10.96766771108133
 30
0.0
 10
12.71170841969951
 20
11.21837738140154
 30
0.0
 10
12.67469993892523
 20
11.34057418425335
 30
0.0
 10
12.63040931107558
 20
11.45745606890564
 30
0.0
  0
SPLINE
  5
260
330
1F
100
AcDbEntity
  8
SK3
  6
SLD-Dashed
370
    18
100
AcDbSpline
210
0.0
220
0.0
230
1.0
 70
     8
 71
     3
 72
    26
 73
    22
 74
     0
 42
0.000000001
 43
0.00000001
 40
0.0
 40
0.0
 40
0.0
 40
0.0
 40
0.0624999999999995
 40
0.0624999999999995
 40
0.124999999999999
 40
0.124999999999999
 40
0.1874999999999986
 40
0.1874999999999986
 40
0.2499999999999981
 40
0.2499999999999981
 40
0.281249999999998
 40
0.281249999999998
 40
0.3124999999999979
 40
0.3124999999999979
 40
0.3749999999999981
 40
0.3749999999999981
 40
0.4374999999999984
 40
0.4374999999999984
 40
0.4687499999999982
 40
0.4687499999999982
 40
0.499999999999998
 40
0.499999999999998
 40
0.499999999999998
 40
0.499999999999998
 10
12.63040931107558
 20
11.45745606890564
 30
0.0
 10
12.54182805537631
 20
11.69121983821019
 30
0.0
 10
12.43200682775376
 20
11.89056157115178
 30
0.0
 10
12.18419932759159
 20
12.25514411813749
 30
0.0
 10
12.04834522926919
 20
12.41463399152625
 30
0.0
 10
11.75314013646128
 20
12.69173524411806
 30
0.0
 10
11.59091385222424
 20
12.81202758601131
 30
0.0
 10
11.23004729019511
 20
12.99241430793247
 30
0.0
 10
11.02728334192553
 20
13.05343833574648
 30
0.0
 10
10.69987000905186
 20
13.05646994226838
 30
0.0
 10
10.58531472788943
 20
13.0419760700552
 30
0.0
 10
10.36396153134628
 20
12.97944613660278
 30
0.0
 10
10.25449961952681
 20
12.93102694430326
 30
0.0
 10
9.947578697971318
 20
12.73948161914289
 30
0.0
 10
9.776646578307194
 20
12.55346040827497
 30
0.0
 10
9.542451961566181
 20
12.12678030999252
 30
0.0
 10
9.478612055377923
 20
11.88580640702583
 30
0.0
 10
9.473421112414268
 20
11.52565520755327
 30
0.0
 10
9.486345898652631
 20
11.40749361566879
 30
0.0
 10
9.541390615621022
 20
11.1745915190869
 30
0.0
 10
9.583730323587114
 20
11.06079117692804
 30
0.0
 10
9.638805742161722
 20
10.95392502366162
 30
0.0
  0
SPLINE
  5
261
330
1F
100
AcDbEntity
  8
SK3
  6
SLD-Dashed
370
    18
100
AcDbSpline
210
0.0
220
0.0
230
1.0
 70
     8
 71
     3
 72
    18
 73
    14
 74
     0
 42
0.000000001
 43
0.00000001
 40
0.0
 40
0.0
 40
0.0
 40
0.0
 40
0.0501962867734933
 40
0.100030621443722
 40
0.1855667331187706
 40
0.2501823892320661
 40
0.3747066158220745
 40
0.4998232982189725
 40
0.6247294758455316
 40
0.7494251058857281
 40
0.8746331028690637
 40
0.9372230808189629
 40
1.0
 40
1.0
 40
1.0
 40
1.0
 10
3.950000000000002
 20
46.81625358782996
 30
0.0
 10
3.943300488172048
 20
46.81609127853699
 30
0.0
 10
3.929949772918072
 20
46.81576783032028
 30
0.0
 10
3.905360779048066
 20
46.81256776526226
 30
0.0
 10
3.879327985377802
 20
46.80630579793131
 30
0.0
 10
3.844998498051082
 20
46.79331555547191
 30
0.0
 10
3.808260602500898
 20
46.772470003973
 30
0.0
 10
3.770344503827428
 20
46.73942242416843
 30
0.0
 10
3.739587180509217
 20
46.69961163074886
 30
0.0
 10
3.716933654940716
 20
46.65468875110022
 30
0.0
 10
3.705476597958083
 20
46.61434662644383
 30
0.0
 10
3.700675324942489
 20
46.58119847829342
 30
0.0
 10
3.700225331983622
 20
46.5644648311238
 30
0.0
 10
3.700000000000009
 20
46.55608553132449
 30
0.0
  0
SPLINE
  5
262
330
1F
100
AcDbEntity
  8
1
  6
SLD-Dashed
370
    18
100
AcDbSpline
210
0.0
220
0.0
230
1.0
 70
     8
 71
     3
 72
     8
 73
     4
 74
     0
 42
0.000000001
 43
0.00000001
 40
0.0
 40
0.0
 40
0.0
 40
0.0
 40
1.0
 40
1.0
 40
1.0
 40
1.0
 10
9.20000000000204
 20
44.57901066343278
 30
0.0
 10
8.786353866861482
 20
45.32508460154084
 30
0.0
 10
8.372088490924066
 20
46.07082082932836
 30
0.0
 10
7.957289380062127
 20
46.81625358782996
 30
0.0
  0
SPLINE
  5
263
330
1F
100
AcDbEntity
  8
1
  6
SLD-Dashed
370
    18
100
AcDbSpline
210
0.0
220
0.0
230
1.0
 70
     8
 71
     3
 72
    10
 73
     6
 74
     0
 42
0.000000001
 43
0.00000001
 40
0.0
 40
0.0
 40
0.0
 40
0.0
 40
0.5
 40
0.5
 40
1.0
 40
1.0
 40
1.0
 40
1.0
 10
9.950000000001234
 20
43.7694359684941
 30
0.0
 10
9.748771536222415
 20
43.76943596849377
 30
0.0
 10
9.550990673892214
 20
43.85856672856774
 30
0.0
 10
9.277097785723997
 20
44.15022946993273
 30
0.0
 10
9.200000000000305
 20
44.34957328976747
 30
0.0
 10
9.199999999999985
 20
44.55102159322499
 30
0.0
  0
SPLINE
  5
264
330
1F
100
AcDbEntity
  8
1
  6
SLD-Dashed
370
    18
100
AcDbSpline
210
0.0
220
0.0
230
1.0
 70
     8
 71
     3
 72
    12
 73
     8
 74
     0
 42
0.000000001
 43
0.00000001
 40
0.0
 40
0.0
 40
0.0
 40
0.0
 40
0.5000000000000048
 40
0.5000000000000048
 40
0.7500000000000023
 40
0.7500000000000023
 40
1.0
 40
1.0
 40
1.0
 40
1.0
 10
13.02999999999992
 20
44.5510215932249
 30
0.0
 10
13.02999999999991
 20
44.3510483181232
 30
0.0
 10
12.95399603318286
 20
44.15150826736608
 30
0.0
 10
12.74724095984753
 20
43.9311682713805
 30
0.0
 10
12.66314206268637
 20
43.87128621650957
 30
0.0
 10
12.48048875274076
 20
43.79084228716531
 30
0.0
 10
12.37984375713169
 20
43.76943596849289
 30
0.0
 10
12.28000000000001
 20
43.76943596849289
 30
0.0
  0
SPLINE
  5
265
330
1F
100
AcDbEntity
  8
1
  6
SLD-Dashed
370
    18
100
AcDbSpline
210
0.0
220
0.0
230
1.0
 70
     8
 71
     3
 72
     8
 73
     4
 74
     0
 42
0.000000001
 43
0.00000001
 40
0.0
 40
0.0
 40
0.0
 40
0.0
 40
1.0
 40
1.0
 40
1.0
 40
1.0
 10
14.27271061995092
 20
46.81625358783777
 30
0.0
 10
13.8579115090853
 20
46.07082082933481
 30
0.0
 10
13.44364613314421
 20
45.32508460154595
 30
0.0
 10
13.02999999999999
 20
44.57901066343648
 30
0.0
  0
SPLINE
  5
266
330
1F
100
AcDbEntity
  8
SK3
  6
SLD-Dashed
370
    18
100
AcDbSpline
210
0.0
220
0.0
230
1.0
 70
     8
 71
     3
 72
    18
 73
    14
 74
     0
 42
0.000000001
 43
0.00000001
 40
0.0
 40
0.0
 40
0.0
 40
0.0
 40
0.0502196103872452
 40
0.1000870260924186
 40
0.1855086368940129
 40
0.2501550808791955
 40
0.3746583157461238
 40
0.4998570853792988
 40
0.6242312608259534
 40
0.7494324099488486
 40
0.874036659618012
 40
0.9370350243166857
 40
1.0
 40
1.0
 40
1.0
 40
1.0
 10
18.55000000000003
 20
46.55608553132441
 30
0.0
 10
18.54985614514713
 20
46.56278755186
 30
0.0
 10
18.5495694443084
 20
46.57614459105334
 30
0.0
 10
18.54672594518125
 20
46.60076085239337
 30
0.0
 10
18.5411499747367
 20
46.62692328764684
 30
0.0
 10
18.52948583072871
 20
46.66169890756606
 30
0.0
 10
18.51054340758336
 20
46.69941980690707
 30
0.0
 10
18.47987172088776
 20
46.73918434013716
 30
0.0
 10
18.44197136356041
 20
46.7722928514023
 30
0.0
 10
18.39830135356869
 20
46.79720148409473
 30
0.0
 10
18.35828818785666
 20
46.81006094110489
 30
0.0
 10
18.32521964393112
 20
46.81548545401076
 30
0.0
 10
18.30840506230055
 20
46.81599758847393
 30
0.0
 10
18.30000000000001
 20
46.81625358782992
 30
0.0
  0
SPLINE
  5
267
330
1F
100
AcDbEntity
  8
1
  6
SLD-Dashed
370
    18
100
AcDbSpline
210
0.0
220
0.0
230
1.0
 70
     8
 71
     3
 72
    12
 73
     8
 74
     0
 42
0.000000001
 43
0.00000001
 40
0.0
 40
0.0
 40
0.0
 40
0.0
 40
0.2499999999999967
 40
0.2499999999999967
 40
0.4999999999999933
 40
0.4999999999999933
 40
1.0
 40
1.0
 40
1.0
 40
1.0
 10
3.1999999999998
 20
-46.69763484374749
 30
0.0
 10
3.199999999999842
 20
-46.79851095846151
 30
0.0
 10
3.218629406337783
 20
-46.89733966428926
 30
0.0
 10
3.291844246696887
 20
-47.08411469648331
 30
0.0
 10
3.345979173512772
 20
-47.16991322229986
 30
0.0
 10
3.551871853062272
 20
-47.38753444472503
 30
0.0
 10
3.74802685678137
 20
-47.47548419974255
 30
0.0
 10
3.950000000000009
 20
-47.4754841997425
 30
0.0
  0
SPLINE
  5
268
330
1F
100
AcDbEntity
  8
1
  6
SLD-Dashed
370
    18
100
AcDbSpline
210
0.0
220
0.0
230
1.0
 70
     8
 71
     3
 72
    12
 73
     8
 74
     0
 42
0.000000001
 43
0.00000001
 40
0.0
 40
0.0
 40
0.0
 40
0.0
 40
0.2499999999999985
 40
0.2499999999999985
 40
0.499999999999997
 40
0.499999999999997
 40
1.0
 40
1.0
 40
1.0
 40
1.0
 10
18.30000000000033
 20
-47.47548419974279
 30
0.0
 10
18.40091596910974
 20
-47.47548419974275
 30
0.0
 10
18.50002158252287
 20
-47.45437693482727
 30
0.0
 10
18.68315226992479
 20
-47.3742689705784
 30
0.0
 10
18.76654490405292
 20
-47.31511647588047
 30
0.0
 10
18.97195148872759
 20
-47.09831987092237
 30
0.0
 10
19.05000000000008
 20
-46.89926900274104
 30
0.0
 10
19.05
 20
-46.69763484374771
 30
0.0
  0
SPLINE
  5
269
330
1F
100
AcDbEntity
  8
1
  6
SLD-Dashed
370
    18
100
AcDbSpline
210
0.0
220
0.0
230
1.0
 70
     8
 71
     3
 72
     8
 73
     4
 74
     0
 42
0.000000001
 43
0.00000001
 40
0.0
 40
0.0
 40
0.0
 40
0.0
 40
1.0
 40
1.0
 40
1.0
 40
1.0
 10
14.63972339340268
 20
-47.4754841997425
 30
0.0
 10
14.10222500453559
 20
-46.5104965471081
 30
0.0
 10
13.56559195163211
 20
-45.54503249842018
 30
0.0
 10
13.02999999999999
 20
-44.57901066343648
 30
0.0
  0
SPLINE
  5
26A
330
1F
100
AcDbEntity
  8
1
  6
SLD-Dashed
370
    18
100
AcDbSpline
210
0.0
220
0.0
230
1.0
 70
     8
 71
     3
 72
    12
 73
     8
 74
     0
 42
0.000000001
 43
0.00000001
 40
0.0
 40
0.0
 40
0.0
 40
0.0
 40
0.5
 40
0.5
 40
0.75
 40
0.75
 40
1.0
 40
1.0
 40
1.0
 40
1.0
 10
13.03000000000026
 20
-44.55102159322527
 30
0.0
 10
13.03000000000033
 20
-44.35094747116185
 30
0.0
 10
12.95238692985022
 20
-44.14958800989084
 30
0.0
 10
12.74748896269967
 20
-43.93153570225749
 30
0.0
 10
12.66372770014787
 20
-43.87162606259755
 30
0.0
 10
12.48090790509571
 20
-43.79094541821721
 30
0.0
 10
12.3805733178244
 20
-43.76943596849286
 30
0.0
 10
12.28000000000001
 20
-43.76943596849289
 30
0.0
  0
SPLINE
  5
26B
330
1F
100
AcDbEntity
  8
1
  6
SLD-Dashed
370
    18
100
AcDbSpline
210
0.0
220
0.0
230
1.0
 70
     8
 71
     3
 72
    12
 73
     8
 74
     0
 42
0.000000001
 43
0.00000001
 40
0.0
 40
0.0
 40
0.0
 40
0.0
 40
0.2500000000000039
 40
0.2500000000000039
 40
0.5000000000000078
 40
0.5000000000000078
 40
1.0
 40
1.0
 40
1.0
 40
1.0
 10
9.94999999999983
 20
-43.76943596849305
 30
0.0
 10
9.850030395358793
 20
-43.76943596849308
 30
0.0
 10
9.750114974766243
 20
-43.79051518316424
 30
0.0
 10
9.565507057761268
 20
-43.87194262843707
 30
0.0
 10
9.482715011846732
 20
-43.93126060501224
 30
0.0
 10
9.27657966040289
 20
-44.15080408372874
 30
0.0
 10
9.20000000000004
 20
-44.35163254795803
 30
0.0
 10
9.199999999999985
 20
-44.55102159322499
 30
0.0
  0
SPLINE
  5
26C
330
1F
100
AcDbEntity
  8
1
  6
SLD-Dashed
370
    18
100
AcDbSpline
210
0.0
220
0.0
230
1.0
 70
     8
 71
     3
 72
     8
 73
     4
 74
     0
 42
0.000000001
 43
0.00000001
 40
0.0
 40
0.0
 40
0.0
 40
0.0
 40
1.0
 40
1.0
 40
1.0
 40
1.0
 10
9.199999999999985
 20
-44.57901066343648
 30
0.0
 10
8.664408048367891
 20
-45.54503249842017
 30
0.0
 10
8.127774995464424
 20
-46.51049654710808
 30
0.0
 10
7.590276606597349
 20
-47.47548419974248
 30
0.0
  0
SPLINE
  5
26D
330
1F
100
AcDbEntity
  8
SK3
  6
SLD-Dashed
370
    18
100
AcDbSpline
210
0.0
220
0.0
230
1.0
 70
     8
 71
     3
 72
    34
 73
    30
 74
     0
 42
0.000000001
 43
0.00000001
 40
0.5000000000000003
 40
0.5000000000000003
 40
0.5000000000000003
 40
0.5000000000000003
 40
0.5625000000000013
 40
0.5625000000000013
 40
0.5937500000000011
 40
0.5937500000000011
 40
0.625000000000001
 40
0.625000000000001
 40
0.6562500000000009
 40
0.6562500000000009
 40
0.6875000000000008
 40
0.6875000000000008
 40
0.7187500000000007
 40
0.7187500000000007
 40
0.7500000000000004
 40
0.7500000000000004
 40
0.7812500000000003
 40
0.7812500000000003
 40
0.8125000000000002
 40
0.8125000000000002
 40
0.8437500000000001
 40
0.8437500000000001
 40
0.875
 40
0.875
 40
0.9062499999999999
 40
0.9062499999999999
 40
0.9374999999999997
 40
0.9374999999999997
 40
1.0
 40
1.0
 40
1.0
 40
1.0
 10
10.60808274902045
 20
14.67518531385664
 30
0.0
 10
10.7714399435272
 20
14.66271400222903
 30
0.0
 10
10.9539607682107
 20
14.63137977172278
 30
0.0
 10
11.25812245907615
 20
14.54691770596561
 30
0.0
 10
11.36641585866904
 20
14.51171888144388
 30
0.0
 10
11.58574352105282
 20
14.42634662926307
 30
0.0
 10
11.69715944869877
 20
14.37625545607606
 30
0.0
 10
11.92117180667888
 20
14.25483711630821
 30
0.0
 10
12.02893523597722
 20
14.18587333985283
 30
0.0
 10
12.2296103085303
 20
14.02983333564747
 30
0.0
 10
12.32267742835869
 20
13.94226901556095
 30
0.0
 10
12.48372543018653
 20
13.75415019217112
 30
0.0
 10
12.55366053916099
 20
13.65130323099262
 30
0.0
 10
12.66489321927142
 20
13.43691773984447
 30
0.0
 10
12.70717730188428
 20
13.32435113894571
 30
0.0
 10
12.76326417564931
 20
13.08988167819453
 30
0.0
 10
12.7763551192606
 20
12.97149039057748
 30
0.0
 10
12.77342672652903
 20
12.7321108433757
 30
0.0
 10
12.75684979458239
 20
12.61060743991047
 30
0.0
 10
12.69552150102995
 20
12.37773497196915
 30
0.0
 10
12.65033349294085
 20
12.26373909474826
 30
0.0
 10
12.53298957942556
 20
12.04909612932804
 30
0.0
 10
12.46214536200849
 20
11.95022400081661
 30
0.0
 10
12.29651277322139
 20
11.77143410287179
 30
0.0
 10
12.20150676240367
 20
11.69219588739501
 30
0.0
 10
11.99926684334574
 20
11.56533020093841
 30
0.0
 10
11.88885801145315
 20
11.5158749716928
 30
0.0
 10
11.55399205333034
 20
11.42069275726626
 30
0.0
 10
11.32716468948122
 20
11.42871083881323
 30
0.0
 10
11.12500000000001
 20
11.48273236161758
 30
0.0
  0
SPLINE
  5
26E
330
1F
100
AcDbEntity
  8
SK3
  6
SLD-Dashed
370
    18
100
AcDbSpline
210
0.0
220
0.0
230
1.0
 70
     8
 71
     3
 72
    30
 73
    26
 74
     0
 42
0.000000001
 43
0.00000001
 40
0.0
 40
0.0
 40
0.0
 40
0.0
 40
0.0624999999999997
 40
0.0624999999999997
 40
0.1249999999999995
 40
0.1249999999999995
 40
0.1562499999999993
 40
0.1562499999999993
 40
0.1874999999999992
 40
0.1874999999999992
 40
0.2187499999999991
 40
0.2187499999999991
 40
0.2499999999999989
 40
0.2499999999999989
 40
0.2812499999999988
 40
0.2812499999999988
 40
0.3124999999999987
 40
0.3124999999999987
 40
0.3437499999999986
 40
0.3437499999999986
 40
0.3749999999999984
 40
0.3749999999999984
 40
0.4374999999999994
 40
0.4374999999999994
 40
0.5000000000000003
 40
0.5000000000000003
 40
0.5000000000000003
 40
0.5000000000000003
 10
11.12500000000001
 20
11.48273236161759
 30
0.0
 10
10.9228353105188
 20
11.53675388442192
 30
0.0
 10
10.74714710048239
 20
11.63024516394926
 30
0.0
 10
10.42066988662176
 20
11.86454434722232
 30
0.0
 10
10.27375737476435
 20
12.00407384287209
 30
0.0
 10
10.07148943268485
 20
12.24177839203631
 30
0.0
 10
10.00699015299672
 20
12.32609339770681
 30
0.0
 10
9.883509956371217
 20
12.50701007175132
 30
0.0
 10
9.824268573097857
 20
12.60415729348404
 30
0.0
 10
9.71515470609033
 20
12.80934651131551
 30
0.0
 10
9.66439673573348
 20
12.91903622889808
 30
0.0
 10
9.576981863499146
 20
13.14891853741636
 30
0.0
 10
9.540303532497491
 20
13.26831266228052
 30
0.0
 10
9.487704529937997
 20
13.52080982106195
 30
0.0
 10
9.473745253197983
 20
13.64846695671307
 30
0.0
 10
9.476438089560556
 20
13.88700257856812
 30
0.0
 10
9.49319789642801
 20
13.99682053671473
 30
0.0
 10
9.549353346861217
 20
14.18374939795269
 30
0.0
 10
9.58858947784802
 20
14.2623151046244
 30
0.0
 10
9.67848001882432
 20
14.39201189392007
 30
0.0
 10
9.730204466999181
 20
14.44496665500975
 30
0.0
 10
9.89634859518447
 20
14.57471258814563
 30
0.0
 10
10.02083275682618
 20
14.62455209347292
 30
0.0
 10
10.29708420272973
 20
14.68178062150165
 30
0.0
 10
10.4447255545137
 20
14.68765662548424
 30
0.0
 10
10.60808274902045
 20
14.67518531385664
 30
0.0
  0
DIMENSION
  5
26F
330
1F
100
AcDbEntity
  8
2
100
AcDbDimension
  2
_D
 10
80.0
 20
66.0873211661
 30
0.0
 11
35.2778464773
 21
66.0873211661
 31
0.0
 70
   160
  1
<>
 71
     2
 42
-1.0
  3
SLDDIMSTYLE0
100
AcDbAlignedDimension
 13
0.0
 23
34.925
 33
0.0
 14
80.0
 24
18.0
 34
0.0
100
AcDbRotatedDimension
  0
DIMENSION
  5
284
330
1F
100
AcDbEntity
  8
SK2
100
AcDbDimension
  2
_D_1
 10
80.0
 20
53.6673048475
 30
0.0
 11
55.4774334571
 21
53.6673048475
 31
0.0
 70
   160
  1
<>
 71
     2
 42
-1.0
  3
SLDDIMSTYLE0
100
AcDbAlignedDimension
 13
19.05
 23
46.5560855313
 33
0.0
 14
80.0
 24
18.0
 34
0.0
 50
0.0
100
AcDbRotatedDimension
  0
DIMENSION
  5
297
330
1F
100
AcDbEntity
  8
SK2
100
AcDbDimension
  2
_D_2
 10
80.0
 20
29.2367232977
 30
0.0
 11
73.2203139122
 21
29.2367232977
 31
0.0
 70
   160
  1
<>
 71
     2
 42
-1.0
  3
SLDDIMSTYLE0
100
AcDbAlignedDimension
 13
65.2
 23
20.45
 33
0.0
 14
80.0
 24
18.0
 34
0.0
100
AcDbRotatedDimension
  0
DIMENSION
  5
2AA
330
1F
100
AcDbEntity
  8
SK2
100
AcDbDimension
  2
_D_3
 10
65.2
 20
29.2367232977
 30
0.0
 11
52.8842432367
 21
29.2367232977
 31
0.0
 70
   160
  1
<>
 71
     2
 42
-1.0
  3
SLDDIMSTYLE0
100
AcDbAlignedDimension
 13
42.8
 23
20.45
 33
0.0
 14
65.2
 24
20.45
 34
0.0
100
AcDbRotatedDimension
  0
DIMENSION
  5
2BD
330
1F
100
AcDbEntity
  8
SK2
100
AcDbDimension
  2
_D_4
 10
19.05
 20
53.6673048475
 30
0.0
 11
11.256716015
 21
53.6673048475
 31
0.0
 70
   160
  1
<>
 71
     2
 42
-1.0
  3
SLDDIMSTYLE1
100
AcDbAlignedDimension
 13
0.0
 23
34.925
 33
0.0
 14
19.05
 24
46.5560855313
 34
0.0
100
AcDbRotatedDimension
  0
DIMENSION
  5
2C8
330
1F
100
AcDbEntity
  8
SK2
100
AcDbDimension
  2
_D_5
 10
94.9182977628
 20
-10.0
 30
0.0
 11
94.9182977628
 21
0.0951719561
 31
0.0
 70
   160
  1
%%c<>
 71
     2
 42
-1.0
  3
SLDDIMSTYLE2
100
AcDbAlignedDimension
 13
78.0947441117
 23
10.0
 33
0.0
 14
78.0947441117
 24
-10.0
 34
0.0
 50
90.0
100
AcDbRotatedDimension
  0
DIMENSION
  5
2DD
330
1F
100
AcDbEntity
  8
SK2
100
AcDbDimension
  2
_D_6
 10
107.6793835706
 20
-18.0
 30
0.0
 11
107.6793835706
 21
0.0951719561
 31
0.0
 70
   160
  1
%%c<>
 71
     2
 42
-1.0
  3
SLDDIMSTYLE0
100
AcDbAlignedDimension
 13
80.0
 23
18.0
 33
0.0
 14
80.0
 24
-18.0
 34
0.0
 50
90.0
100
AcDbRotatedDimension
  0
DIMENSION
  5
2EF
330
1F
100
AcDbEntity
  8
SK2
100
AcDbDimension
  2
_D_7
 10
122.5605278176
 20
-20.0
 30
0.0
 11
122.5605278176
 21
0.0951719561
 31
0.0
 70
   160
  1
%%c<>
 71
     2
 42
-1.0
  3
SLDDIMSTYLE0
100
AcDbAlignedDimension
 13
78.0
 23
20.0
 33
0.0
 14
78.0
 24
-20.0
 34
0.0
 50
90.0
100
AcDbRotatedDimension
  0
DIMENSION
  5
301
330
1F
100
AcDbEntity
  8
SK2
100
AcDbDimension
  2
_D_8
 10
80.0
 20
-66.2111870835
 30
0.0
 11
-6.0770563132
 21
-66.2111870835
 31
0.0
 70
   160
  1
<>
 71
     2
 42
-1.0
  3
SLDDIMSTYLE3
100
AcDbAlignedDimension
 13
-101.6
 23
-18.2922326599
 33
0.0
 14
80.0
 24
-18.0
 34
0.0
100
AcDbRotatedDimension
  0
DIMENSION
  5
315
330
1F
100
AcDbEntity
  8
SK2
100
AcDbDimension
  2
_D_9
 10
80.0
 20
-43.6827502412
 30
0.0
 11
55.4774334571
 21
-43.6827502412
 31
0.0
 70
   160
  1
<>
 71
     2
 42
-1.0
  3
SLDDIMSTYLE0
100
AcDbAlignedDimension
 13
31.5
 23
-10.25
 33
0.0
 14
80.0
 24
-18.0
 34
0.0
100
AcDbRotatedDimension
  0
DIMENSION
  5
328
330
1F
100
AcDbEntity
  8
SK2
100
AcDbDimension
  2
_D_10
 10
80.0
 20
-31.962396189
 30
0.0
 11
70.9647360207
 21
-31.962396189
 31
0.0
 70
   160
  1
<>
 71
     2
 42
-1.0
  3
SLDDIMSTYLE4
100
AcDbAlignedDimension
 13
78.0
 23
-20.0
 33
0.0
 14
80.0
 24
-18.0
 34
0.0
100
AcDbRotatedDimension
  0
DIMENSION
  5
335
330
1F
100
AcDbEntity
  8
SK2
100
AcDbDimension
  2
_D_11
 10
-120.4985996012
 20
47.2968145978
 30
0.0
 11
-120.4985996012
 21
0.0951719561
 31
0.0
 70
   160
  1
%%c<>
 71
     2
 42
-1.0
  3
SLDDIMSTYLE1
100
AcDbAlignedDimension
 13
3.95
 23
-47.4754841997
 33
0.0
 14
3.95
 24
47.2968145978
 34
0.0
 50
90.0
100
AcDbRotatedDimension
  0
DIMENSION
  5
340
330
1F
100
AcDbEntity
  8
SK2
100
AcDbDimension
  2
_D_12
 10
-109.4894390853
 20
-12.6999998465
 30
0.0
 11
-109.4894390853
 21
0.0951719561
 31
0.0
 70
   160
  1
<>
 71
     2
 42
-1.0
  3
SLDDIMSTYLE1
100
AcDbAlignedDimension
 13
-94.967097044
 23
12.6999998465
 33
0.0
 14
-94.967097044
 24
-12.6999998465
 34
0.0
 50
90.0
100
AcDbRotatedDimension
  0
MTEXT
  5
34B
330
1F
100
AcDbEntity
  8
SK6
 62
     5
100
AcDbMText
 10
-53.8409744493
 20
-37.0205990514
 30
0.0
 40
3.5
 41
0.0
 71
     1
 72
     1
  1
A3B27-50 20 080
  7
SLDTEXTSTYLE0
 73
     1
 44
1.0
  0
MTEXT
  5
34C
330
1F
100
AcDbEntity
  8
SK6
 62
     5
100
AcDbMText
 10
-56.6336830251
 20
41.1462120887
 30
0.0
 40
3.5
 41
0.0
 71
     1
 72
     1
  1
ASME B5.50 CAT 50
  7
SLDTEXTSTYLE0
 73
     1
 44
1.0
  0
ENDSEC
  0
SECTION
  2
OBJECTS
  0
DICTIONARY
  5
C
330
0
100
AcDbDictionary
281
     1
  3
ACAD_GROUP
350
D
  3
ACAD_LAYOUT
350
1A
  3
ACAD_MLINESTYLE
350
17
  3
ACAD_PLOTSETTINGS
350
19
  3
ACAD_PLOTSTYLENAME
350
E
  3
ACAD_SCALELIST
350
47
  0
DICTIONARY
  5
D
102
{ACAD_REACTORS
330
C
102
}
330
C
100
AcDbDictionary
281
     1
  0
DICTIONARY
  5
1A
102
{ACAD_REACTORS
330
C
102
}
330
C
100
AcDbDictionary
281
     1
  3
Layout1
350
1E
  3
Layout2
350
26
  3
Model
350
22
  0
DICTIONARY
  5
17
102
{ACAD_REACTORS
330
C
102
}
330
C
100
AcDbDictionary
281
     1
  3
Standard
350
18
  0
DICTIONARY
  5
19
102
{ACAD_REACTORS
330
C
102
}
330
C
100
AcDbDictionary
281
     1
  0
ACDBDICTIONARYWDFLT
  5
E
102
{ACAD_REACTORS
330
C
102
}
330
C
100
AcDbDictionary
281
     1
  3
Normal
350
F
100
AcDbDictionaryWithDefault
340
F
  0
DICTIONARY
  5
47
102
{ACAD_REACTORS
330
C
102
}
330
C
100
AcDbDictionary
281
     1
  3
A0
350
48
  3
A1
350
49
  3
A2
350
4A
  3
A3
350
4B
  3
A4
350
4C
  3
A5
350
4D
  3
A6
350
4E
  3
A7
350
4F
  3
A8
350
50
  3
A9
350
51
  3
B0
350
52
  3
B1
350
53
  3
B2
350
54
  3
B3
350
55
  3
B4
350
56
  3
B5
350
57
  3
B6
350
58
  3
B7
350
59
  3
B8
350
5A
  3
B9
350
5B
  3
C0
350
5C
  3
C1
350
5D
  3
C2
350
5E
  3
C3
350
5F
  3
C4
350
60
  3
C5
350
61
  3
C6
350
62
  3
C7
350
63
  3
C8
350
64
  3
C9
350
65
  3
D0
350
66
  3
D1
350
67
  3
D2
350
68
  0
LAYOUT
  5
1E
102
{ACAD_REACTORS
330
1A
102
}
330
1A
100
AcDbPlotSettings
  1

  2
none_device
  4

  6

 40
0.0
 41
0.0
 42
0.0
 43
0.0
 44
0.0
 45
0.0
 46
0.0
 47
0.0
 48
0.0
 49
0.0
140
0.0
141
0.0
142
1.0
143
1.0
 70
   688
 72
     1
 73
     0
 74
     5
  7

 75
    16
147
1.0
148
0.0
149
0.0
100
AcDbLayout
  1
Layout1
 70
     1
 71
     1
 10
0.0
 20
0.0
 11
420.0
 21
297.0
 12
0.0
 22
0.0
 32
0.0
 14
1.0000000000E+20
 24
1.0000000000E+20
 34
1.0000000000E+20
 15
-1.0000000000E+20
 25
-1.0000000000E+20
 35
-1.0000000000E+20
146
0.0
 13
0.0
 23
0.0
 33
0.0
 16
1.0
 26
0.0
 36
0.0
 17
0.0
 27
1.0
 37
0.0
 76
     0
330
1B
  0
LAYOUT
  5
26
102
{ACAD_REACTORS
330
1A
102
}
330
1A
100
AcDbPlotSettings
  1

  2
none_device
  4

  6

 40
0.0
 41
0.0
 42
0.0
 43
0.0
 44
0.0
 45
0.0
 46
0.0
 47
0.0
 48
0.0
 49
0.0
140
0.0
141
0.0
142
1.0
143
1.0
 70
   688
 72
     1
 73
     0
 74
     5
  7

 75
    16
147
1.0
148
0.0
149
0.0
100
AcDbLayout
  1
Layout2
 70
     1
 71
     2
 10
0.0
 20
0.0
 11
0.0
 21
0.0
 12
0.0
 22
0.0
 32
0.0
 14
0.0
 24
0.0
 34
0.0
 15
0.0
 25
0.0
 35
0.0
146
0.0
 13
0.0
 23
0.0
 33
0.0
 16
1.0
 26
0.0
 36
0.0
 17
0.0
 27
1.0
 37
0.0
 76
     0
330
23
  0
LAYOUT
  5
22
102
{ACAD_REACTORS
330
1A
102
}
330
1A
100
AcDbPlotSettings
  1

  2
none_device
  4
Letter_(8.50_x_11.00_Inches)
  6

 40
6.35
 41
6.35
 42
6.35000508
 43
6.35000508
 44
215.9
 45
279.4
 46
0.0
 47
0.0
 48
0.0
 49
0.0
140
0.0
141
0.0
142
1.0
143
1.0
 70
  1712
 72
     1
 73
     0
 74
     0
  7

 75
     0
147
1.0
148
0.0
149
0.0
100
AcDbLayout
  1
Model
 70
     1
 71
     0
 10
0.0
 20
0.0
 11
297.0
 21
210.0
 12
0.0
 22
0.0
 32
0.0
 14
0.0
 24
0.0
 34
0.0
 15
297.0
 25
210.0
 35
0.0
146
0.0
 13
0.0
 23
0.0
 33
0.0
 16
1.0
 26
0.0
 36
0.0
 17
0.0
 27
1.0
 37
0.0
 76
     0
330
1F
331
29
  0
MLINESTYLE
  5
18
102
{ACAD_REACTORS
330
17
102
}
330
17
100
AcDbMlineStyle
  2
Standard
 70
     0
  3

 62
   256
 51
90.0
 52
90.0
 71
     2
 49
0.5
 62
   256
  6
BYLAYER
 49
-0.5
 62
   256
  6
BYLAYER
  0
ACDBPLACEHOLDER
  5
F
102
{ACAD_REACTORS
330
E
102
}
330
E
  0
SCALE
  5
48
102
{ACAD_REACTORS
330
47
102
}
330
47
100
AcDbScale
 70
     0
300
1:1
140
1.0
141
1.0
290
     1
  0
SCALE
  5
49
102
{ACAD_REACTORS
330
47
102
}
330
47
100
AcDbScale
 70
     0
300
1:2
140
1.0
141
2.0
290
     0
  0
SCALE
  5
4A
102
{ACAD_REACTORS
330
47
102
}
330
47
100
AcDbScale
 70
     0
300
1:4
140
1.0
141
4.0
290
     0
  0
SCALE
  5
4B
102
{ACAD_REACTORS
330
47
102
}
330
47
100
AcDbScale
 70
     0
300
1:5
140
1.0
141
5.0
290
     0
  0
SCALE
  5
4C
102
{ACAD_REACTORS
330
47
102
}
330
47
100
AcDbScale
 70
     0
300
1:8
140
1.0
141
8.0
290
     0
  0
SCALE
  5
4D
102
{ACAD_REACTORS
330
47
102
}
330
47
100
AcDbScale
 70
     0
300
1:10
140
1.0
141
10.0
290
     0
  0
SCALE
  5
4E
102
{ACAD_REACTORS
330
47
102
}
330
47
100
AcDbScale
 70
     0
300
1:16
140
1.0
141
16.0
290
     0
  0
SCALE
  5
4F
102
{ACAD_REACTORS
330
47
102
}
330
47
100
AcDbScale
 70
     0
300
1:20
140
1.0
141
20.0
290
     0
  0
SCALE
  5
50
102
{ACAD_REACTORS
330
47
102
}
330
47
100
AcDbScale
 70
     0
300
1:30
140
1.0
141
30.0
290
     0
  0
SCALE
  5
51
102
{ACAD_REACTORS
330
47
102
}
330
47
100
AcDbScale
 70
     0
300
1:40
140
1.0
141
40.0
290
     0
  0
SCALE
  5
52
102
{ACAD_REACTORS
330
47
102
}
330
47
100
AcDbScale
 70
     0
300
1:50
140
1.0
141
50.0
290
     0
  0
SCALE
  5
53
102
{ACAD_REACTORS
330
47
102
}
330
47
100
AcDbScale
 70
     0
300
1:100
140
1.0
141
100.0
290
     0
  0
SCALE
  5
54
102
{ACAD_REACTORS
330
47
102
}
330
47
100
AcDbScale
 70
     0
300
2:1
140
2.0
141
1.0
290
     0
  0
SCALE
  5
55
102
{ACAD_REACTORS
330
47
102
}
330
47
100
AcDbScale
 70
     0
300
4:1
140
4.0
141
1.0
290
     0
  0
SCALE
  5
56
102
{ACAD_REACTORS
330
47
102
}
330
47
100
AcDbScale
 70
     0
300
8:1
140
8.0
141
1.0
290
     0
  0
SCALE
  5
57
102
{ACAD_REACTORS
330
47
102
}
330
47
100
AcDbScale
 70
     0
300
10:1
140
10.0
141
1.0
290
     0
  0
SCALE
  5
58
102
{ACAD_REACTORS
330
47
102
}
330
47
100
AcDbScale
 70
     0
300
100:1
140
100.0
141
1.0
290
     0
  0
SCALE
  5
59
102
{ACAD_REACTORS
330
47
102
}
330
47
100
AcDbScale
 70
     0
300
1/128" = 1'-0"
140
0.0078125
141
12.0
290
     0
  0
SCALE
  5
5A
102
{ACAD_REACTORS
330
47
102
}
330
47
100
AcDbScale
 70
     0
300
1/64" = 1'-0"
140
0.015625
141
12.0
290
     0
  0
SCALE
  5
5B
102
{ACAD_REACTORS
330
47
102
}
330
47
100
AcDbScale
 70
     0
300
1/32" = 1'-0"
140
0.03125
141
12.0
290
     0
  0
SCALE
  5
5C
102
{ACAD_REACTORS
330
47
102
}
330
47
100
AcDbScale
 70
     0
300
1/16" = 1'-0"
140
0.0625
141
12.0
290
     0
  0
SCALE
  5
5D
102
{ACAD_REACTORS
330
47
102
}
330
47
100
AcDbScale
 70
     0
300
3/32" = 1'-0"
140
0.09375
141
12.0
290
     0
  0
SCALE
  5
5E
102
{ACAD_REACTORS
330
47
102
}
330
47
100
AcDbScale
 70
     0
300
1/8" = 1'-0"
140
0.125
141
12.0
290
     0
  0
SCALE
  5
5F
102
{ACAD_REACTORS
330
47
102
}
330
47
100
AcDbScale
 70
     0
300
3/16" = 1'-0"
140
0.1875
141
12.0
290
     0
  0
SCALE
  5
60
102
{ACAD_REACTORS
330
47
102
}
330
47
100
AcDbScale
 70
     0
300
1/4" = 1'-0"
140
0.25
141
12.0
290
     0
  0
SCALE
  5
61
102
{ACAD_REACTORS
330
47
102
}
330
47
100
AcDbScale
 70
     0
300
3/8" = 1'-0"
140
0.375
141
12.0
290
     0
  0
SCALE
  5
62
102
{ACAD_REACTORS
330
47
102
}
330
47
100
AcDbScale
 70
     0
300
1/2" = 1'-0"
140
0.5
141
12.0
290
     0
  0
SCALE
  5
63
102
{ACAD_REACTORS
330
47
102
}
330
47
100
AcDbScale
 70
     0
300
3/4" = 1'-0"
140
0.75
141
12.0
290
     0
  0
SCALE
  5
64
102
{ACAD_REACTORS
330
47
102
}
330
47
100
AcDbScale
 70
     0
300
1" = 1'-0"
140
1.0
141
12.0
290
     0
  0
SCALE
  5
65
102
{ACAD_REACTORS
330
47
102
}
330
47
100
AcDbScale
 70
     0
300
1-1/2" = 1'-0"
140
1.5
141
12.0
290
     0
  0
SCALE
  5
66
102
{ACAD_REACTORS
330
47
102
}
330
47
100
AcDbScale
 70
     0
300
3" = 1'-0"
140
3.0
141
12.0
290
     0
  0
SCALE
  5
67
102
{ACAD_REACTORS
330
47
102
}
330
47
100
AcDbScale
 70
     0
300
6" = 1'-0"
140
6.0
141
12.0
290
     0
  0
SCALE
  5
68
102
{ACAD_REACTORS
330
47
102
}
330
47
100
AcDbScale
 70
     0
300
1'-0" = 1'-0"
140
12.0
141
12.0
290
     0
  0
ENDSEC
  0
EOF
