  0
SECTION
  2
HEADER
  9
$ACADVER
  1
AC1015
  9
$ACADMAINTVER
 70
     6
  9
$DWGCODEPAGE
  3
ANSI_1250
  9
$INSBASE
 10
0.0
 20
0.0
 30
0.0
  9
$EXTMIN
 10
0.0
 20
0.0
 30
0.0
  9
$EXTMAX
 10
297.0
 20
210.0
 30
0.0
  9
$LIMMIN
 10
0.0
 20
0.0
  9
$LIMMAX
 10
297.0
 20
210.0
  9
$ORTHOMODE
 70
     0
  9
$REGENMODE
 70
     1
  9
$FILLMODE
 70
     1
  9
$QTEXTMODE
 70
     0
  9
$MIRRTEXT
 70
     1
  9
$LTSCALE
 40
1.0
  9
$ATTMODE
 70
     1
  9
$TEXTSIZE
 40
3.5
  9
$TRACEWID
 40
1.0
  9
$TEXTSTYLE
  7
Standard
  9
$CLAYER
  8
0
  9
$CELTYPE
  6
ByLayer
  9
$CECOLOR
 62
   256
  9
$CELTSCALE
 40
1.0
  9
$DISPSILH
 70
     0
  9
$DIMSCALE
 40
1.0
  9
$DIMASZ
 40
3.302
  9
$DIMEXO
 40
1.0
  9
$DIMDLI
 40
3.75
  9
$DIMRND
 40
0.0
  9
$DIMDLE
 40
0.0
  9
$DIMEXE
 40
1.0
  9
$DIMTP
 40
0.0
  9
$DIMTM
 40
0.0
  9
$DIMTXT
 40
3.5
  9
$DIMCEN
 40
2.5
  9
$DIMTSZ
 40
0.0
  9
$DIMTOL
 70
     0
  9
$DIMLIM
 70
     0
  9
$DIMTIH
 70
     1
  9
$DIMTOH
 70
     1
  9
$DIMSE1
 70
     0
  9
$DIMSE2
 70
     0
  9
$DIMTAD
 70
     1
  9
$DIMZIN
 70
     0
  9
$DIMBLK
  1

  9
$DIMASO
 70
     1
  9
$DIMSHO
 70
     1
  9
$DIMPOST
  1

  9
$DIMAPOST
  1

  9
$DIMALT
 70
     0
  9
$DIMALTD
 70
     3
  9
$DIMALTF
 40
0.0393700787
  9
$DIMLFAC
 40
1.0
  9
$DIMTOFL
 70
     1
  9
$DIMTVP
 40
0.0
  9
$DIMTIX
 70
     0
  9
$DIMSOXD
 70
     0
  9
$DIMSAH
 70
     0
  9
$DIMBLK1
  1

  9
$DIMBLK2
  1

  9
$DIMSTYLE
  2
ISO-25
  9
$DIMCLRD
 70
     0
  9
$DIMCLRE
 70
     0
  9
$DIMCLRT
 70
     0
  9
$DIMTFAC
 40
1.0
  9
$DIMGAP
 40
1.524
  9
$DIMJUST
 70
     0
  9
$DIMSD1
 70
     0
  9
$DIMSD2
 70
     0
  9
$DIMTOLJ
 70
     0
  9
$DIMTZIN
 70
     0
  9
$DIMALTZ
 70
     0
  9
$DIMALTTZ
 70
     0
  9
$DIMUPT
 70
     0
  9
$DIMDEC
 70
     2
  9
$DIMTDEC
 70
     2
  9
$DIMALTU
 70
     2
  9
$DIMALTTD
 70
     3
  9
$DIMTXSTY
  7
Standard
  9
$DIMAUNIT
 70
     0
  9
$DIMADEC
 70
     2
  9
$DIMALTRND
 40
0.0
  9
$DIMAZIN
 70
     0
  9
$DIMDSEP
 70
    44
  9
$DIMATFIT
 70
     3
  9
$DIMFRAC
 70
     0
  9
$DIMLDRBLK
  1

  9
$DIMLUNIT
 70
     2
  9
$DIMLWD
 70
    -2
  9
$DIMLWE
 70
    -2
  9
$DIMTMOVE
 70
     0
  9
$LUNITS
 70
     2
  9
$LUPREC
 70
     2
  9
$SKETCHINC
 40
1.0
  9
$FILLETRAD
 40
10.0
  9
$AUNITS
 70
     0
  9
$AUPREC
 70
     2
  9
$MENU
  1
.
  9
$ELEVATION
 40
0.0
  9
$PELEVATION
 40
0.0
  9
$THICKNESS
 40
0.0
  9
$LIMCHECK
 70
     0
  9
$CHAMFERA
 40
0.0
  9
$CHAMFERB
 40
0.0
  9
$CHAMFERC
 40
0.0
  9
$CHAMFERD
 40
0.0
  9
$SKPOLY
 70
     0
  9
$TDCREATE
 40
2459290.487673414
  9
$TDUCREATE
 40
2459290.446006748
  9
$TDUPDATE
 40
2459290.487674572
  9
$TDUUPDATE
 40
2459290.446007905
  9
$TDINDWG
 40
0.0000000116
  9
$TDUSRTIMER
 40
0.0000000116
  9
$USRTIMER
 70
     1
  9
$ANGBASE
 50
0.0
  9
$ANGDIR
 70
     0
  9
$PDMODE
 70
     0
  9
$PDSIZE
 40
-1.0
  9
$PLINEWID
 40
0.0
  9
$SPLFRAME
 70
     0
  9
$SPLINETYPE
 70
     6
  9
$SPLINESEGS
 70
     8
  9
$HANDSEED
  5
2C5
  9
$SURFTAB1
 70
     6
  9
$SURFTAB2
 70
     6
  9
$SURFTYPE
 70
     6
  9
$SURFU
 70
     6
  9
$SURFV
 70
     6
  9
$UCSBASE
  2

  9
$UCSNAME
  2

  9
$UCSORG
 10
0.0
 20
0.0
 30
0.0
  9
$UCSXDIR
 10
1.0
 20
0.0
 30
0.0
  9
$UCSYDIR
 10
0.0
 20
1.0
 30
0.0
  9
$UCSORTHOREF
  2

  9
$UCSORTHOVIEW
 70
     0
  9
$UCSORGTOP
 10
0.0
 20
0.0
 30
0.0
  9
$UCSORGBOTTOM
 10
0.0
 20
0.0
 30
0.0
  9
$UCSORGLEFT
 10
0.0
 20
0.0
 30
0.0
  9
$UCSORGRIGHT
 10
0.0
 20
0.0
 30
0.0
  9
$UCSORGFRONT
 10
0.0
 20
0.0
 30
0.0
  9
$UCSORGBACK
 10
0.0
 20
0.0
 30
0.0
  9
$PUCSBASE
  2

  9
$PUCSNAME
  2

  9
$PUCSORG
 10
0.0
 20
0.0
 30
0.0
  9
$PUCSXDIR
 10
1.0
 20
0.0
 30
0.0
  9
$PUCSYDIR
 10
0.0
 20
1.0
 30
0.0
  9
$PUCSORTHOREF
  2

  9
$PUCSORTHOVIEW
 70
     0
  9
$PUCSORGTOP
 10
0.0
 20
0.0
 30
0.0
  9
$PUCSORGBOTTOM
 10
0.0
 20
0.0
 30
0.0
  9
$PUCSORGLEFT
 10
0.0
 20
0.0
 30
0.0
  9
$PUCSORGRIGHT
 10
0.0
 20
0.0
 30
0.0
  9
$PUCSORGFRONT
 10
0.0
 20
0.0
 30
0.0
  9
$PUCSORGBACK
 10
0.0
 20
0.0
 30
0.0
  9
$USERI1
 70
     0
  9
$USERI2
 70
     0
  9
$USERI3
 70
     0
  9
$USERI4
 70
     0
  9
$USERI5
 70
     0
  9
$USERR1
 40
0.0
  9
$USERR2
 40
0.0
  9
$USERR3
 40
0.0
  9
$USERR4
 40
0.0
  9
$USERR5
 40
0.0
  9
$WORLDVIEW
 70
     1
  9
$SHADEDGE
 70
     3
  9
$SHADEDIF
 70
    70
  9
$TILEMODE
 70
     1
  9
$MAXACTVP
 70
    64
  9
$PINSBASE
 10
0.0
 20
0.0
 30
0.0
  9
$PLIMCHECK
 70
     0
  9
$PEXTMIN
 10
1.0000000000E+20
 20
1.0000000000E+20
 30
1.0000000000E+20
  9
$PEXTMAX
 10
-1.0000000000E+20
 20
-1.0000000000E+20
 30
-1.0000000000E+20
  9
$PLIMMIN
 10
0.0
 20
0.0
  9
$PLIMMAX
 10
420.0
 20
297.0
  9
$UNITMODE
 70
     0
  9
$VISRETAIN
 70
     1
  9
$PLINEGEN
 70
     0
  9
$PSLTSCALE
 70
     1
  9
$TREEDEPTH
 70
  3020
  9
$CMLSTYLE
  2
Standard
  9
$CMLJUST
 70
     0
  9
$CMLSCALE
 40
20.0
  9
$PROXYGRAPHICS
 70
     1
  9
$MEASUREMENT
 70
     1
  9
$CELWEIGHT
370
    -1
  9
$ENDCAPS
280
     0
  9
$JOINSTYLE
280
     0
  9
$LWDISPLAY
290
     1
  9
$INSUNITS
 70
     4
  9
$HYPERLINKBASE
  1

  9
$STYLESHEET
  1

  9
$XEDIT
290
     1
  9
$CEPSNTYPE
380
     0
  9
$PSTYLEMODE
290
     1
  9
$FINGERPRINTGUID
  2
{553B3A8C-AA08-4661-BDAA-6D53D6749BA9}
  9
$VERSIONGUID
  2
{FAEB1C32-E019-11D5-929B-00C0DF256EC4}
  9
$EXTNAMES
290
     1
  9
$PSVPSCALE
 40
0.0
  9
$OLESTARTUP
290
     0
  0
ENDSEC
  0
SECTION
  2
CLASSES
  0
CLASS
  1
ACDBDICTIONARYWDFLT
  2
AcDbDictionaryWithDefault
  3
ObjectDBX Classes
 90
        0
280
     0
281
     0
  0
CLASS
  1
VISUALSTYLE
  2
AcDbVisualStyle
  3
ObjectDBX Classes
 90
     4095
280
     0
281
     0
  0
CLASS
  1
MATERIAL
  2
AcDbMaterial
  3
ObjectDBX Classes
 90
     1153
280
     0
281
     0
  0
CLASS
  1
SCALE
  2
AcDbScale
  3
ObjectDBX Classes
 90
     1153
280
     0
281
     0
  0
CLASS
  1
TABLESTYLE
  2
AcDbTableStyle
  3
ObjectDBX Classes
 90
     4095
280
     0
281
     0
  0
CLASS
  1
MLEADERSTYLE
  2
AcDbMLeaderStyle
  3
ACDB_MLEADERSTYLE_CLASS
 90
     4095
280
     0
281
     0
  0
CLASS
  1
SUN
  2
AcDbSun
  3
SCENEOE
 90
     1153
280
     0
281
     0
  0
CLASS
  1
ACDBPLACEHOLDER
  2
AcDbPlaceHolder
  3
ObjectDBX Classes
 90
        0
280
     0
281
     0
  0
CLASS
  1
LAYOUT
  2
AcDbLayout
  3
ObjectDBX Classes
 90
        0
280
     0
281
     0
  0
ENDSEC
  0
SECTION
  2
TABLES
  0
TABLE
  2
VPORT
  5
8
330
0
100
AcDbSymbolTable
 70
     1
  0
VPORT
  5
29
330
8
100
AcDbSymbolTableRecord
100
AcDbViewportTableRecord
  2
*Active
 70
     0
 10
0.0
 20
0.0
 11
1.0
 21
1.0
 12
148.5
 22
105.0
 13
0.0
 23
0.0
 14
10.0
 24
10.0
 15
10.0
 25
10.0
 16
0.0
 26
0.0
 36
1.0
 17
0.0
 27
0.0
 37
0.0
 40
210.0
 41
1.4142857143
 42
50.0
 43
0.0
 44
0.0
 50
0.0
 51
0.0
 71
     0
 72
  2000
 73
     1
 74
     3
 75
     0
 76
     0
 77
     0
 78
     0
281
     0
 65
     1
110
0.0
120
0.0
130
0.0
111
1.0
121
0.0
131
0.0
112
0.0
122
1.0
132
0.0
 79
     0
146
0.0
  0
ENDTAB
  0
TABLE
  2
LTYPE
  5
5
330
0
100
AcDbSymbolTable
 70
     8
  0
LTYPE
  5
14
330
5
100
AcDbSymbolTableRecord
100
AcDbLinetypeTableRecord
  2
ByBlock
 70
     0
  3

 72
    65
 73
     0
 40
0.0
  0
LTYPE
  5
15
330
5
100
AcDbSymbolTableRecord
100
AcDbLinetypeTableRecord
  2
ByLayer
 70
     0
  3

 72
    65
 73
     0
 40
0.0
  0
LTYPE
  5
16
330
5
100
AcDbSymbolTableRecord
100
AcDbLinetypeTableRecord
  2
Continuous
 70
     0
  3
Solid line
 72
    65
 73
     0
 40
0.0
  0
LTYPE
  5
6E
330
5
100
AcDbSymbolTableRecord
100
AcDbLinetypeTableRecord
  2
SLD-Solid
 70
     0
  3
SolidWorks Line Style
 72
    65
 73
     0
 40
0.0
  0
LTYPE
  5
6F
330
5
100
AcDbSymbolTableRecord
100
AcDbLinetypeTableRecord
  2
SLD-Dashed
 70
     0
  3
SolidWorks Line Style
 72
    65
 73
     2
 40
1.905
 49
1.27
 74
     0
 49
-0.635
 74
     0
  0
LTYPE
  5
70
330
5
100
AcDbSymbolTableRecord
100
AcDbLinetypeTableRecord
  2
SLD-Phantom
 70
     0
  3
SolidWorks Line Style
 72
    65
 73
     6
 40
12.7
 49
6.35
 74
     0
 49
-1.27
 74
     0
 49
1.27
 74
     0
 49
-1.27
 74
     0
 49
1.27
 74
     0
 49
-1.27
 74
     0
  0
LTYPE
  5
71
330
5
100
AcDbSymbolTableRecord
100
AcDbLinetypeTableRecord
  2
SLD-Chain
 70
     0
  3
SolidWorks Line Style
 72
    65
 73
     4
 40
10.16
 49
6.35
 74
     0
 49
-1.27
 74
     0
 49
1.27
 74
     0
 49
-1.27
 74
     0
  0
LTYPE
  5
72
330
5
100
AcDbSymbolTableRecord
100
AcDbLinetypeTableRecord
  2
SLD-Center
 70
     0
  3
SolidWorks Line Style
 72
    65
 73
     4
 40
19.05
 49
15.24
 74
     0
 49
-1.27
 74
     0
 49
1.27
 74
     0
 49
-1.27
 74
     0
  0
LTYPE
  5
73
330
5
100
AcDbSymbolTableRecord
100
AcDbLinetypeTableRecord
  2
SLD-Stitch
 70
     0
  3
SolidWorks Line Style
 72
    65
 73
     2
 40
0.635
 49
0.0
 74
     0
 49
-0.635
 74
     0
  0
LTYPE
  5
74
330
5
100
AcDbSymbolTableRecord
100
AcDbLinetypeTableRecord
  2
SLD-Thin-Thick-Chain
 70
     0
  3
SolidWorks Line Style
 72
    65
 73
     4
 40
10.16
 49
6.35
 74
     0
 49
-1.27
 74
     0
 49
1.27
 74
     0
 49
-1.27
 74
     0
  0
ENDTAB
  0
TABLE
  2
LAYER
  5
2
330
0
100
AcDbSymbolTable
 70
    12
  0
LAYER
  5
10
330
2
100
AcDbSymbolTableRecord
100
AcDbLayerTableRecord
  2
0
 70
     0
 62
     7
  6
Continuous
370
    -3
390
F
  0
LAYER
  5
75
330
2
100
AcDbSymbolTableRecord
100
AcDbLayerTableRecord
  2
SLD-0
 70
     0
 62
   179
  6
SLD-Solid
370
    -3
390
F
  0
LAYER
  5
76
330
2
100
AcDbSymbolTableRecord
100
AcDbLayerTableRecord
  2
80
 70
     0
 62
    -6
  6
SLD-Solid
290
     0
370
    -3
390
F
  0
LAYER
  5
77
330
2
100
AcDbSymbolTableRecord
100
AcDbLayerTableRecord
  2
81
 70
     0
 62
    -3
  6
SLD-Solid
290
     0
370
    -3
390
F
  0
LAYER
  5
78
330
2
100
AcDbSymbolTableRecord
100
AcDbLayerTableRecord
  2
1
 70
     0
 62
     4
  6
SLD-Solid
290
     0
370
    -3
390
F
  0
LAYER
  5
79
330
2
100
AcDbSymbolTableRecord
100
AcDbLayerTableRecord
  2
4
 70
     0
 62
    -2
  6
SLD-Chain
290
     0
370
    -3
390
F
  0
LAYER
  5
7A
330
2
100
AcDbSymbolTableRecord
100
AcDbLayerTableRecord
  2
2
 70
     0
 62
     7
  6
SLD-Solid
290
     0
370
    -3
390
F
  0
LAYER
  5
7B
330
2
100
AcDbSymbolTableRecord
100
AcDbLayerTableRecord
  2
SK3
 70
     0
 62
     1
  6
SLD-Dashed
290
     0
370
    -3
390
F
  0
LAYER
  5
7C
330
2
100
AcDbSymbolTableRecord
100
AcDbLayerTableRecord
  2
SK4
 70
     0
 62
     2
  6
SLD-Chain
290
     0
370
    -3
390
F
  0
LAYER
  5
7D
330
2
100
AcDbSymbolTableRecord
100
AcDbLayerTableRecord
  2
SK2
 70
     0
 62
     7
  6
SLD-Solid
290
     0
370
    -3
390
F
  0
LAYER
  5
7E
330
2
100
AcDbSymbolTableRecord
100
AcDbLayerTableRecord
  2
SK6
 70
     0
 62
     5
  6
SLD-Solid
290
     0
370
    -3
390
F
  0
LAYER
  5
7F
330
2
100
AcDbSymbolTableRecord
100
AcDbLayerTableRecord
  2
SK1
 70
     0
 62
     4
  6
SLD-Solid
370
    -3
390
F
  0
ENDTAB
  0
TABLE
  2
STYLE
  5
3
330
0
100
AcDbSymbolTable
 70
     2
  0
STYLE
  5
11
330
3
100
AcDbSymbolTableRecord
100
AcDbTextStyleTableRecord
  2
Standard
 70
     0
 40
0.0
 41
1.0
 50
0.0
 71
     0
 42
3.5
  3
txt
  4

  0
STYLE
  5
23A
330
3
100
AcDbSymbolTableRecord
100
AcDbTextStyleTableRecord
  2
SLDTEXTSTYLE0
 70
     0
 40
0.0
 41
0.75
 50
0.0
 71
     0
 42
3.5
  3
TXT
  4

  0
ENDTAB
  0
TABLE
  2
VIEW
  5
6
330
0
100
AcDbSymbolTable
 70
     0
  0
ENDTAB
  0
TABLE
  2
UCS
  5
7
330
0
100
AcDbSymbolTable
 70
     0
  0
ENDTAB
  0
TABLE
  2
APPID
  5
9
330
0
100
AcDbSymbolTable
 70
     1
  0
APPID
  5
12
330
9
100
AcDbSymbolTableRecord
100
AcDbRegAppTableRecord
  2
ACAD
 70
     0
  0
ENDTAB
  0
TABLE
  2
DIMSTYLE
  5
A
330
0
100
AcDbSymbolTable
 70
     2
100
AcDbDimStyleTable
  0
DIMSTYLE
105
27
330
A
100
AcDbSymbolTableRecord
100
AcDbDimStyleTableRecord
  2
ISO-25
 70
     0
 41
2.5
 42
0.625
 43
3.75
 44
1.25
 73
     0
 74
     0
 77
     1
 78
     8
140
2.5
141
2.5
143
0.0393700787
147
0.625
171
     3
172
     1
178
     0
271
     2
272
     2
274
     3
278
    44
283
     0
284
     8
340
11
  0
DIMSTYLE
105
23B
102
{ACAD_REACTORS
330
239
330
245
330
24F
330
259
330
263
330
26E
330
279
330
284
330
28E
330
298
330
2A2
330
2AD
330
2B8
102
}
330
A
100
AcDbSymbolTableRecord
100
AcDbDimStyleTableRecord
  2
SLDDIMSTYLE0
 70
     0
 41
3.302
 44
0.0
 45
0.000000001
 73
     0
 74
     0
 77
     1
 78
    12
 79
     3
140
3.5
147
0.875
173
     1
178
     0
271
     2
272
     2
276
     2
284
    12
340
23A
  0
ENDTAB
  0
TABLE
  2
BLOCK_RECORD
  5
1
330
0
100
AcDbSymbolTable
 70
    16
  0
BLOCK_RECORD
  5
1F
330
1
100
AcDbSymbolTableRecord
100
AcDbBlockTableRecord
  2
*Model_Space
340
22
  0
BLOCK_RECORD
  5
1B
330
1
100
AcDbSymbolTableRecord
100
AcDbBlockTableRecord
  2
*Paper_Space
340
1E
  0
BLOCK_RECORD
  5
23
330
1
100
AcDbSymbolTableRecord
100
AcDbBlockTableRecord
  2
*Paper_Space0
340
26
  0
BLOCK_RECORD
  5
80
330
1
100
AcDbSymbolTableRecord
100
AcDbBlockTableRecord
  2
Block11
340
0
102
{BLKREFS
331
238
102
}
  0
BLOCK_RECORD
  5
89
330
1
100
AcDbSymbolTableRecord
100
AcDbBlockTableRecord
  2
Block12
340
0
102
{BLKREFS
331
237
102
}
  0
BLOCK_RECORD
  5
23C
330
1
100
AcDbSymbolTableRecord
100
AcDbBlockTableRecord
  2
_D
340
0
  0
BLOCK_RECORD
  5
246
330
1
100
AcDbSymbolTableRecord
100
AcDbBlockTableRecord
  2
_D_1
340
0
  0
BLOCK_RECORD
  5
250
330
1
100
AcDbSymbolTableRecord
100
AcDbBlockTableRecord
  2
_D_2
340
0
  0
BLOCK_RECORD
  5
25A
330
1
100
AcDbSymbolTableRecord
100
AcDbBlockTableRecord
  2
_D_3
340
0
  0
BLOCK_RECORD
  5
264
330
1
100
AcDbSymbolTableRecord
100
AcDbBlockTableRecord
  2
_D_4
340
0
  0
BLOCK_RECORD
  5
26F
330
1
100
AcDbSymbolTableRecord
100
AcDbBlockTableRecord
  2
_D_5
340
0
  0
BLOCK_RECORD
  5
27A
330
1
100
AcDbSymbolTableRecord
100
AcDbBlockTableRecord
  2
_D_6
340
0
  0
BLOCK_RECORD
  5
285
330
1
100
AcDbSymbolTableRecord
100
AcDbBlockTableRecord
  2
_D_7
340
0
  0
BLOCK_RECORD
  5
28F
330
1
100
AcDbSymbolTableRecord
100
AcDbBlockTableRecord
  2
_D_8
340
0
  0
BLOCK_RECORD
  5
299
330
1
100
AcDbSymbolTableRecord
100
AcDbBlockTableRecord
  2
_D_9
340
0
  0
BLOCK_RECORD
  5
2A3
330
1
100
AcDbSymbolTableRecord
100
AcDbBlockTableRecord
  2
_D_10
340
0
  0
BLOCK_RECORD
  5
2AE
330
1
100
AcDbSymbolTableRecord
100
AcDbBlockTableRecord
  2
_D_11
340
0
  0
BLOCK_RECORD
  5
2B9
330
1
100
AcDbSymbolTableRecord
100
AcDbBlockTableRecord
  2
_D_12
340
0
  0
ENDTAB
  0
ENDSEC
  0
SECTION
  2
BLOCKS
  0
BLOCK
  5
20
330
1F
100
AcDbEntity
  8
0
100
AcDbBlockBegin
  2
*Model_Space
 70
     0
 10
0.0
 20
0.0
 30
0.0
  3
*Model_Space
  1

  0
ENDBLK
  5
21
330
1F
100
AcDbEntity
  8
0
100
AcDbBlockEnd
  0
BLOCK
  5
1C
330
1B
100
AcDbEntity
 67
     1
  8
0
100
AcDbBlockBegin
  2
*Paper_Space
 70
     0
 10
0.0
 20
0.0
 30
0.0
  3
*Paper_Space
  1

  0
ENDBLK
  5
1D
330
1B
100
AcDbEntity
 67
     1
  8
0
100
AcDbBlockEnd
  0
BLOCK
  5
24
330
23
100
AcDbEntity
  8
0
100
AcDbBlockBegin
  2
*Paper_Space0
 70
     0
 10
0.0
 20
0.0
 30
0.0
  3
*Paper_Space0
  1

  0
ENDBLK
  5
25
330
23
100
AcDbEntity
  8
0
100
AcDbBlockEnd
  0
BLOCK
  5
81
330
80
100
AcDbEntity
  8
0
100
AcDbBlockBegin
  2
Block11
 70
     0
 10
0.0
 20
0.0
 30
0.0
  3
Block11
  1

  0
CIRCLE
  5
83
330
80
100
AcDbEntity
  8
81
370
    18
100
AcDbCircle
 10
91.6264826505
 20
130.2676275275
 30
0.0
 40
2.499999999999981
  0
LINE
  5
84
330
80
100
AcDbEntity
  8
81
370
    18
100
AcDbLine
 10
91.6264826505
 20
130.2676275275
 30
0.0
 11
95.1620165565
 21
133.8031614334
 31
0.0
  0
LINE
  5
85
330
80
100
AcDbEntity
  8
81
370
    18
100
AcDbLine
 10
91.6264826505
 20
130.2676275275
 30
0.0
 11
88.0909487446
 21
126.7320936216
 31
0.0
  0
LINE
  5
86
330
80
100
AcDbEntity
  8
81
370
    18
100
AcDbLine
 10
91.6264826505
 20
130.2676275275
 30
0.0
 11
88.0909487446
 21
133.8031614334
 31
0.0
  0
LINE
  5
87
330
80
100
AcDbEntity
  8
81
100
AcDbLine
 10
91.6264826505
 20
130.2676275275
 30
0.0
 11
101.6264826505
 21
130.2676275275
 31
0.0
  0
LINE
  5
88
330
80
100
AcDbEntity
  8
81
370
    18
100
AcDbLine
 10
91.6264826505
 20
130.2676275275
 30
0.0
 11
95.1620165565
 21
126.7320936216
 31
0.0
  0
ENDBLK
  5
82
330
80
100
AcDbEntity
  8
0
100
AcDbBlockEnd
  0
BLOCK
  5
8A
330
89
100
AcDbEntity
  8
0
100
AcDbBlockBegin
  2
Block12
 70
     0
 10
0.0
 20
0.0
 30
0.0
  3
Block12
  1

  0
CIRCLE
  5
8C
330
89
100
AcDbEntity
  8
80
370
    18
100
AcDbCircle
 10
61.7273641656
 20
130.3356800267
 30
0.0
 40
2.500000000000004
  0
LINE
  5
8D
330
89
100
AcDbEntity
  8
80
370
    18
100
AcDbLine
 10
61.7273641656
 20
130.3356800267
 30
0.0
 11
65.2628980715
 21
133.8712139326
 31
0.0
  0
LINE
  5
8E
330
89
100
AcDbEntity
  8
80
370
    18
100
AcDbLine
 10
61.7273641656
 20
130.3356800267
 30
0.0
 11
58.1918302597
 21
126.8001461208
 31
0.0
  0
LINE
  5
8F
330
89
100
AcDbEntity
  8
80
370
    18
100
AcDbLine
 10
61.7273641656
 20
130.3356800267
 30
0.0
 11
58.1918302597
 21
133.8712139326
 31
0.0
  0
LINE
  5
90
330
89
100
AcDbEntity
  8
80
370
    18
100
AcDbLine
 10
61.7273641656
 20
130.3356800267
 30
0.0
 11
51.7273641656
 21
130.3356800267
 31
0.0
  0
LINE
  5
91
330
89
100
AcDbEntity
  8
80
370
    18
100
AcDbLine
 10
61.7273641656
 20
130.3356800267
 30
0.0
 11
65.2628980715
 21
126.8001461208
 31
0.0
  0
ENDBLK
  5
8B
330
89
100
AcDbEntity
  8
0
100
AcDbBlockEnd
  0
BLOCK
  5
23D
330
23C
100
AcDbEntity
  8
0
100
AcDbBlockBegin
  2
_D
 70
     0
 10
0.0
 20
0.0
 30
0.0
  3
_D
  1

  0
SOLID
  5
23F
330
23C
100
AcDbEntity
  8
SK2
100
AcDbTrace
 10
0.0
 20
58.6450266264
 30
0.0
 11
3.302
 21
58.1370266264
 31
0.0
 12
3.302
 22
59.1530266264
 32
0.0
 13
3.302
 23
59.1530266264
 33
0.0
  0
SOLID
  5
240
330
23C
100
AcDbEntity
  8
SK2
100
AcDbTrace
 10
37.9999999933
 20
58.6450266264
 30
0.0
 11
34.6979999933
 21
59.1530266264
 31
0.0
 12
34.6979999933
 22
58.1370266264
 32
0.0
 13
34.6979999933
 23
58.1370266264
 33
0.0
  0
LINE
  5
241
330
23C
100
AcDbEntity
  8
SK2
100
AcDbLine
 10
0.0
 20
35.925
 30
0.0
 11
0.0
 21
59.6450266264
 31
0.0
  0
LINE
  5
242
330
23C
100
AcDbEntity
  8
SK2
100
AcDbLine
 10
37.9999999933
 20
50.2286823296
 30
0.0
 11
37.9999999933
 21
59.6450266264
 31
0.0
  0
LINE
  5
243
330
23C
100
AcDbEntity
  8
SK2
100
AcDbLine
 10
0.0
 20
58.6450266264
 30
0.0
 11
37.9999999933
 21
58.6450266264
 31
0.0
  0
MTEXT
  5
244
330
23C
100
AcDbEntity
  8
SK2
100
AcDbMText
 10
16.412212165
 20
63.156763541
 30
0.0
 40
3.5
 41
0.0
 71
     1
 72
     1
  1
38
  7
SLDTEXTSTYLE0
 73
     1
 44
1.0
  0
ENDBLK
  5
23E
330
23C
100
AcDbEntity
  8
0
100
AcDbBlockEnd
  0
BLOCK
  5
247
330
246
100
AcDbEntity
  8
0
100
AcDbBlockBegin
  2
_D_1
 70
     0
 10
0.0
 20
0.0
 30
0.0
  3
_D_1
  1

  0
SOLID
  5
249
330
246
100
AcDbEntity
  8
SK2
100
AcDbTrace
 10
37.9999999933
 20
58.6450266264
 30
0.0
 11
41.3019999933
 21
58.1370266264
 31
0.0
 12
41.3019999933
 22
59.1530266264
 32
0.0
 13
41.3019999933
 23
59.1530266264
 33
0.0
  0
SOLID
  5
24A
330
246
100
AcDbEntity
  8
SK2
100
AcDbTrace
 10
115.0
 20
58.6450266264
 30
0.0
 11
111.698
 21
59.1530266264
 31
0.0
 12
111.698
 22
58.1370266264
 32
0.0
 13
111.698
 23
58.1370266264
 33
0.0
  0
LINE
  5
24B
330
246
100
AcDbEntity
  8
SK2
100
AcDbLine
 10
37.9999999933
 20
50.2286823296
 30
0.0
 11
37.9999999933
 21
59.6450266264
 31
0.0
  0
LINE
  5
24C
330
246
100
AcDbEntity
  8
SK2
100
AcDbLine
 10
115.0
 20
31.3397459622
 30
0.0
 11
115.0
 21
59.6450266264
 31
0.0
  0
LINE
  5
24D
330
246
100
AcDbEntity
  8
SK2
100
AcDbLine
 10
37.9999999933
 20
58.6450266264
 30
0.0
 11
115.0
 21
58.6450266264
 31
0.0
  0
MTEXT
  5
24E
330
246
100
AcDbEntity
  8
SK2
100
AcDbMText
 10
72.0786737888
 20
63.156763541
 30
0.0
 40
3.5
 41
0.0
 71
     1
 72
     1
  1
77
  7
SLDTEXTSTYLE0
 73
     1
 44
1.0
  0
ENDBLK
  5
248
330
246
100
AcDbEntity
  8
0
100
AcDbBlockEnd
  0
BLOCK
  5
251
330
250
100
AcDbEntity
  8
0
100
AcDbBlockBegin
  2
_D_2
 70
     0
 10
0.0
 20
0.0
 30
0.0
  3
_D_2
  1

  0
SOLID
  5
253
330
250
100
AcDbEntity
  8
2
100
AcDbTrace
 10
0.0
 20
68.0174410835
 30
0.0
 11
3.302
 21
67.5094410835
 31
0.0
 12
3.302
 22
68.5254410835
 32
0.0
 13
3.302
 23
68.5254410835
 33
0.0
  0
SOLID
  5
254
330
250
100
AcDbEntity
  8
2
100
AcDbTrace
 10
115.0
 20
68.0174410835
 30
0.0
 11
111.698
 21
68.5254410835
 31
0.0
 12
111.698
 22
67.5094410835
 32
0.0
 13
111.698
 23
67.5094410835
 33
0.0
  0
LINE
  5
255
330
250
100
AcDbEntity
  8
2
100
AcDbLine
 10
0.0
 20
35.925
 30
0.0
 11
0.0
 21
69.0174410835
 31
0.0
  0
LINE
  5
256
330
250
100
AcDbEntity
  8
2
100
AcDbLine
 10
115.0
 20
31.3397459622
 30
0.0
 11
115.0
 21
69.0174410835
 31
0.0
  0
LINE
  5
257
330
250
100
AcDbEntity
  8
2
100
AcDbLine
 10
0.0
 20
68.0174410835
 30
0.0
 11
115.0
 21
68.0174410835
 31
0.0
  0
MTEXT
  5
258
330
250
100
AcDbEntity
  8
2
100
AcDbMText
 10
52.4668082332
 20
72.5291779981
 30
0.0
 40
3.5
 41
0.0
 71
     1
 72
     1
  1
115
  7
SLDTEXTSTYLE0
 73
     1
 44
1.0
  0
ENDBLK
  5
252
330
250
100
AcDbEntity
  8
0
100
AcDbBlockEnd
  0
BLOCK
  5
25B
330
25A
100
AcDbEntity
  8
0
100
AcDbBlockBegin
  2
_D_3
 70
     0
 10
0.0
 20
0.0
 30
0.0
  3
_D_3
  1

  0
SOLID
  5
25D
330
25A
100
AcDbEntity
  8
SK2
100
AcDbTrace
 10
115.0
 20
48.4205744914
 30
0.0
 11
111.698
 21
48.9285744914
 31
0.0
 12
111.698
 22
47.9125744914
 32
0.0
 13
111.698
 23
47.9125744914
 33
0.0
  0
SOLID
  5
25E
330
25A
100
AcDbEntity
  8
SK2
100
AcDbTrace
 10
100.0
 20
48.4205744914
 30
0.0
 11
103.302
 21
47.9125744914
 31
0.0
 12
103.302
 22
48.9285744914
 32
0.0
 13
103.302
 23
48.9285744914
 33
0.0
  0
LINE
  5
25F
330
25A
100
AcDbEntity
  8
SK2
100
AcDbLine
 10
115.0
 20
31.3397459622
 30
0.0
 11
115.0
 21
49.4205744914
 31
0.0
  0
LINE
  5
260
330
25A
100
AcDbEntity
  8
SK2
100
AcDbLine
 10
100.0
 20
40.0
 30
0.0
 11
100.0
 21
49.4205744914
 31
0.0
  0
LINE
  5
261
330
25A
100
AcDbEntity
  8
SK2
100
AcDbLine
 10
115.0
 20
48.4205744914
 30
0.0
 11
100.0
 21
48.4205744914
 31
0.0
  0
MTEXT
  5
262
330
25A
100
AcDbEntity
  8
SK2
100
AcDbMText
 10
104.0300867106
 20
52.932311406
 30
0.0
 40
3.5
 41
0.0
 71
     1
 72
     1
  1
15
  7
SLDTEXTSTYLE0
 73
     1
 44
1.0
  0
ENDBLK
  5
25C
330
25A
100
AcDbEntity
  8
0
100
AcDbBlockEnd
  0
BLOCK
  5
265
330
264
100
AcDbEntity
  8
0
100
AcDbBlockBegin
  2
_D_4
 70
     0
 10
0.0
 20
0.0
 30
0.0
  3
_D_4
  1

  0
SOLID
  5
267
330
264
100
AcDbEntity
  8
SK2
100
AcDbTrace
 10
152.2209302112
 20
39.0
 30
0.0
 11
151.7129302112
 21
35.698
 31
0.0
 12
152.7289302112
 22
35.698
 32
0.0
 13
152.7289302112
 23
35.698
 33
0.0
  0
SOLID
  5
268
330
264
100
AcDbEntity
  8
SK2
100
AcDbTrace
 10
152.2209302112
 20
-39.0
 30
0.0
 11
152.7289302112
 21
-35.698
 31
0.0
 12
151.7129302112
 22
-35.698
 32
0.0
 13
151.7129302112
 23
-35.698
 33
0.0
  0
LINE
  5
269
330
264
100
AcDbEntity
  8
SK2
100
AcDbLine
 10
101.0
 20
39.0
 30
0.0
 11
153.2209302112
 21
39.0
 31
0.0
  0
LINE
  5
26A
330
264
100
AcDbEntity
  8
SK2
100
AcDbLine
 10
101.0
 20
-39.0
 30
0.0
 11
153.2209302112
 21
-39.0
 31
0.0
  0
LINE
  5
26B
330
264
100
AcDbEntity
  8
SK2
100
AcDbLine
 10
152.2209302112
 20
39.0
 30
0.0
 11
152.2209302112
 21
-39.0
 31
0.0
  0
MTEXT
  5
26C
330
264
100
AcDbEntity
  8
SK2
100
AcDbMText
 10
147.709193122
 20
-5.5281693996
 30
0.0
 40
3.5
 41
0.0
 71
     1
 72
     1
  1
%%c
  7
SLDTEXTSTYLE0
 11
-7.044195017643634E-15
 21
1.0
 31
0.0
 73
     1
 44
1.0
  0
MTEXT
  5
26D
330
264
100
AcDbEntity
  8
SK2
100
AcDbMText
 10
147.6557209453
 20
-0.2497320013
 30
0.0
 40
3.5
 41
0.0
 71
     1
 72
     1
  1
78
  7
SLDTEXTSTYLE0
 11
-7.044195017643634E-15
 21
1.0
 31
0.0
 73
     1
 44
1.0
  0
ENDBLK
  5
266
330
264
100
AcDbEntity
  8
0
100
AcDbBlockEnd
  0
BLOCK
  5
270
330
26F
100
AcDbEntity
  8
0
100
AcDbBlockBegin
  2
_D_5
 70
     0
 10
0.0
 20
0.0
 30
0.0
  3
_D_5
  1

  0
SOLID
  5
272
330
26F
100
AcDbEntity
  8
SK2
100
AcDbTrace
 10
140.8984728491
 20
30.3397459622
 30
0.0
 11
140.3904728491
 21
27.0377459622
 31
0.0
 12
141.4064728491
 22
27.0377459622
 32
0.0
 13
141.4064728491
 23
27.0377459622
 33
0.0
  0
SOLID
  5
273
330
26F
100
AcDbEntity
  8
SK2
100
AcDbTrace
 10
140.8984728491
 20
-30.3397459622
 30
0.0
 11
141.4064728491
 21
-27.0377459622
 31
0.0
 12
140.3904728491
 22
-27.0377459622
 32
0.0
 13
140.3904728491
 23
-27.0377459622
 33
0.0
  0
LINE
  5
274
330
26F
100
AcDbEntity
  8
SK2
100
AcDbLine
 10
116.0
 20
30.3397459622
 30
0.0
 11
141.8984728491
 21
30.3397459622
 31
0.0
  0
LINE
  5
275
330
26F
100
AcDbEntity
  8
SK2
100
AcDbLine
 10
116.0
 20
-30.3397459622
 30
0.0
 11
141.8984728491
 21
-30.3397459622
 31
0.0
  0
LINE
  5
276
330
26F
100
AcDbEntity
  8
SK2
100
AcDbLine
 10
140.8984728491
 20
30.3397459622
 30
0.0
 11
140.8984728491
 21
-30.3397459622
 31
0.0
  0
MTEXT
  5
277
330
26F
100
AcDbEntity
  8
SK2
100
AcDbMText
 10
136.3867357599
 20
-9.4250680471
 30
0.0
 40
3.5
 41
0.0
 71
     1
 72
     1
  1
%%c
  7
SLDTEXTSTYLE0
 11
-7.044195017643634E-15
 21
1.0
 31
0.0
 73
     1
 44
1.0
  0
MTEXT
  5
278
330
26F
100
AcDbEntity
  8
SK2
100
AcDbMText
 10
136.3332635833
 20
-4.1466306487
 30
0.0
 40
3.5
 41
0.0
 71
     1
 72
     1
  1
60,68
  7
SLDTEXTSTYLE0
 11
-7.044195017643634E-15
 21
1.0
 31
0.0
 73
     1
 44
1.0
  0
ENDBLK
  5
271
330
26F
100
AcDbEntity
  8
0
100
AcDbBlockEnd
  0
BLOCK
  5
27B
330
27A
100
AcDbEntity
  8
0
100
AcDbBlockBegin
  2
_D_6
 70
     0
 10
0.0
 20
0.0
 30
0.0
  3
_D_6
  1

  0
SOLID
  5
27D
330
27A
100
AcDbEntity
  8
SK2
100
AcDbTrace
 10
130.4362581211
 20
-20.0
 30
0.0
 11
130.9442581211
 21
-16.698
 31
0.0
 12
129.9282581211
 22
-16.698
 32
0.0
 13
129.9282581211
 23
-16.698
 33
0.0
  0
SOLID
  5
27E
330
27A
100
AcDbEntity
  8
SK2
100
AcDbTrace
 10
130.4362581211
 20
20.0
 30
0.0
 11
129.9282581211
 21
16.698
 31
0.0
 12
130.9442581211
 22
16.698
 32
0.0
 13
130.9442581211
 23
16.698
 33
0.0
  0
LINE
  5
27F
330
27A
100
AcDbEntity
  8
SK2
100
AcDbLine
 10
114.0
 20
-20.0
 30
0.0
 11
131.4362581211
 21
-20.0
 31
0.0
  0
LINE
  5
280
330
27A
100
AcDbEntity
  8
SK2
100
AcDbLine
 10
114.0
 20
20.0
 30
0.0
 11
131.4362581211
 21
20.0
 31
0.0
  0
LINE
  5
281
330
27A
100
AcDbEntity
  8
SK2
100
AcDbLine
 10
130.4362581211
 20
-20.0
 30
0.0
 11
130.4362581211
 21
20.0
 31
0.0
  0
MTEXT
  5
282
330
27A
100
AcDbEntity
  8
SK2
100
AcDbMText
 10
125.9245210319
 20
-5.5281693996
 30
0.0
 40
3.5
 41
0.0
 71
     1
 72
     1
  1
%%c
  7
SLDTEXTSTYLE0
 11
6.123233995736766E-17
 21
1.0
 31
0.0
 73
     1
 44
1.0
  0
MTEXT
  5
283
330
27A
100
AcDbEntity
  8
SK2
100
AcDbMText
 10
125.8710488553
 20
-0.2497320013
 30
0.0
 40
3.5
 41
0.0
 71
     1
 72
     1
  1
40
  7
SLDTEXTSTYLE0
 11
6.123233995736766E-17
 21
1.0
 31
0.0
 73
     1
 44
1.0
  0
ENDBLK
  5
27C
330
27A
100
AcDbEntity
  8
0
100
AcDbBlockEnd
  0
BLOCK
  5
286
330
285
100
AcDbEntity
  8
0
100
AcDbBlockBegin
  2
_D_7
 70
     0
 10
0.0
 20
0.0
 30
0.0
  3
_D_7
  1

  0
SOLID
  5
288
330
285
100
AcDbEntity
  8
SK2
100
AcDbTrace
 10
115.0
 20
-49.5841115023
 30
0.0
 11
111.698
 21
-49.0761115023
 31
0.0
 12
111.698
 22
-50.0921115023
 32
0.0
 13
111.698
 23
-50.0921115023
 33
0.0
  0
SOLID
  5
289
330
285
100
AcDbEntity
  8
SK2
100
AcDbTrace
 10
85.0
 20
-49.5841115023
 30
0.0
 11
88.302
 21
-50.0921115023
 31
0.0
 12
88.302
 22
-49.0761115023
 32
0.0
 13
88.302
 23
-49.0761115023
 33
0.0
  0
LINE
  5
28A
330
285
100
AcDbEntity
  8
SK2
100
AcDbLine
 10
115.0
 20
-31.3397459622
 30
0.0
 11
115.0
 21
-50.5841115023
 31
0.0
  0
LINE
  5
28B
330
285
100
AcDbEntity
  8
SK2
100
AcDbLine
 10
85.0
 20
-39.8
 30
0.0
 11
85.0
 21
-50.5841115023
 31
0.0
  0
LINE
  5
28C
330
285
100
AcDbEntity
  8
SK2
100
AcDbLine
 10
115.0
 20
-49.5841115023
 30
0.0
 11
85.0
 21
-49.5841115023
 31
0.0
  0
MTEXT
  5
28D
330
285
100
AcDbEntity
  8
SK2
100
AcDbMText
 10
97.9780110171
 20
-45.0723745877
 30
0.0
 40
3.5
 41
0.0
 71
     1
 72
     1
  1
30
  7
SLDTEXTSTYLE0
 73
     1
 44
1.0
  0
ENDBLK
  5
287
330
285
100
AcDbEntity
  8
0
100
AcDbBlockEnd
  0
BLOCK
  5
290
330
28F
100
AcDbEntity
  8
0
100
AcDbBlockBegin
  2
_D_8
 70
     0
 10
0.0
 20
0.0
 30
0.0
  3
_D_8
  1

  0
SOLID
  5
292
330
28F
100
AcDbEntity
  8
SK2
100
AcDbTrace
 10
85.0
 20
-49.5841115023
 30
0.0
 11
81.698
 21
-49.0761115023
 31
0.0
 12
81.698
 22
-50.0921115023
 32
0.0
 13
81.698
 23
-50.0921115023
 33
0.0
  0
SOLID
  5
293
330
28F
100
AcDbEntity
  8
SK2
100
AcDbTrace
 10
53.0
 20
-49.5841115023
 30
0.0
 11
56.302
 21
-50.0921115023
 31
0.0
 12
56.302
 22
-49.0761115023
 32
0.0
 13
56.302
 23
-49.0761115023
 33
0.0
  0
LINE
  5
294
330
28F
100
AcDbEntity
  8
SK2
100
AcDbLine
 10
85.0
 20
-39.8
 30
0.0
 11
85.0
 21
-50.5841115023
 31
0.0
  0
LINE
  5
295
330
28F
100
AcDbEntity
  8
SK2
100
AcDbLine
 10
53.0
 20
-39.8
 30
0.0
 11
53.0
 21
-50.5841115023
 31
0.0
  0
LINE
  5
296
330
28F
100
AcDbEntity
  8
SK2
100
AcDbLine
 10
85.0
 20
-49.5841115023
 30
0.0
 11
53.0
 21
-49.5841115023
 31
0.0
  0
MTEXT
  5
297
330
28F
100
AcDbEntity
  8
SK2
100
AcDbMText
 10
66.3715867167
 20
-45.0723745877
 30
0.0
 40
3.5
 41
0.0
 71
     1
 72
     1
  1
32
  7
SLDTEXTSTYLE0
 73
     1
 44
1.0
  0
ENDBLK
  5
291
330
28F
100
AcDbEntity
  8
0
100
AcDbBlockEnd
  0
BLOCK
  5
29A
330
299
100
AcDbEntity
  8
0
100
AcDbBlockBegin
  2
_D_9
 70
     0
 10
0.0
 20
0.0
 30
0.0
  3
_D_9
  1

  0
SOLID
  5
29C
330
299
100
AcDbEntity
  8
SK2
100
AcDbTrace
 10
115.0
 20
-59.4548580572
 30
0.0
 11
111.698
 21
-58.9468580572
 31
0.0
 12
111.698
 22
-59.9628580572
 32
0.0
 13
111.698
 23
-59.9628580572
 33
0.0
  0
SOLID
  5
29D
330
299
100
AcDbEntity
  8
SK2
100
AcDbTrace
 10
45.0
 20
-59.4548580572
 30
0.0
 11
48.302
 21
-59.9628580572
 31
0.0
 12
48.302
 22
-58.9468580572
 32
0.0
 13
48.302
 23
-58.9468580572
 33
0.0
  0
LINE
  5
29E
330
299
100
AcDbEntity
  8
SK2
100
AcDbLine
 10
115.0
 20
-31.3397459622
 30
0.0
 11
115.0
 21
-60.4548580572
 31
0.0
  0
LINE
  5
29F
330
299
100
AcDbEntity
  8
SK2
100
AcDbLine
 10
45.0
 20
-20.5703857908
 30
0.0
 11
45.0
 21
-60.4548580572
 31
0.0
  0
LINE
  5
2A0
330
299
100
AcDbEntity
  8
SK2
100
AcDbLine
 10
115.0
 20
-59.4548580572
 30
0.0
 11
45.0
 21
-59.4548580572
 31
0.0
  0
MTEXT
  5
2A1
330
299
100
AcDbEntity
  8
SK2
100
AcDbMText
 10
77.0629463388
 20
-54.9431211426
 30
0.0
 40
3.5
 41
0.0
 71
     1
 72
     1
  1
70
  7
SLDTEXTSTYLE0
 73
     1
 44
1.0
  0
ENDBLK
  5
29B
330
299
100
AcDbEntity
  8
0
100
AcDbBlockEnd
  0
BLOCK
  5
2A4
330
2A3
100
AcDbEntity
  8
0
100
AcDbBlockBegin
  2
_D_10
 70
     0
 10
0.0
 20
0.0
 30
0.0
  3
_D_10
  1

  0
SOLID
  5
2A6
330
2A3
100
AcDbEntity
  8
SK2
100
AcDbTrace
 10
-129.1325837143
 20
49.978682327
 30
0.0
 11
-129.6405837143
 21
46.676682327
 31
0.0
 12
-128.6245837143
 22
46.676682327
 32
0.0
 13
-128.6245837143
 23
46.676682327
 33
0.0
  0
SOLID
  5
2A7
330
2A3
100
AcDbEntity
  8
SK2
100
AcDbTrace
 10
-129.1325837143
 20
-49.978682327
 30
0.0
 11
-128.6245837143
 21
-46.676682327
 31
0.0
 12
-129.6405837143
 22
-46.676682327
 32
0.0
 13
-129.6405837143
 23
-46.676682327
 33
0.0
  0
LINE
  5
2A8
330
2A3
100
AcDbEntity
  8
SK2
100
AcDbLine
 10
2.75
 20
49.978682327
 30
0.0
 11
-130.1325837143
 21
49.978682327
 31
0.0
  0
LINE
  5
2A9
330
2A3
100
AcDbEntity
  8
SK2
100
AcDbLine
 10
2.75
 20
-49.978682327
 30
0.0
 11
-130.1325837143
 21
-49.978682327
 31
0.0
  0
LINE
  5
2AA
330
2A3
100
AcDbEntity
  8
SK2
100
AcDbLine
 10
-129.1325837143
 20
49.978682327
 30
0.0
 11
-129.1325837143
 21
-49.978682327
 31
0.0
  0
MTEXT
  5
2AB
330
2A3
100
AcDbEntity
  8
SK2
100
AcDbMText
 10
-133.6443208035
 20
-6.8212251128
 30
0.0
 40
3.5
 41
0.0
 71
     1
 72
     1
  1
%%c
  7
SLDTEXTSTYLE0
 11
-7.044195017643634E-15
 21
1.0
 31
0.0
 73
     1
 44
1.0
  0
MTEXT
  5
2AC
330
2A3
100
AcDbEntity
  8
SK2
100
AcDbMText
 10
-133.6977929802
 20
-1.5427877144
 30
0.0
 40
3.5
 41
0.0
 71
     1
 72
     1
  1
100
  7
SLDTEXTSTYLE0
 11
-7.044195017643634E-15
 21
1.0
 31
0.0
 73
     1
 44
1.0
  0
ENDBLK
  5
2A5
330
2A3
100
AcDbEntity
  8
0
100
AcDbBlockEnd
  0
BLOCK
  5
2AF
330
2AE
100
AcDbEntity
  8
0
100
AcDbBlockBegin
  2
_D_11
 70
     0
 10
0.0
 20
0.0
 30
0.0
  3
_D_11
  1

  0
SOLID
  5
2B1
330
2AE
100
AcDbEntity
  8
SK2
100
AcDbTrace
 10
-119.4443482521
 20
34.925
 30
0.0
 11
-119.9523482521
 21
31.623
 31
0.0
 12
-118.9363482521
 22
31.623
 32
0.0
 13
-118.9363482521
 23
31.623
 33
0.0
  0
SOLID
  5
2B2
330
2AE
100
AcDbEntity
  8
SK2
100
AcDbTrace
 10
-119.4443482521
 20
-34.925
 30
0.0
 11
-118.9363482521
 21
-31.623
 31
0.0
 12
-119.9523482521
 22
-31.623
 32
0.0
 13
-119.9523482521
 23
-31.623
 33
0.0
  0
LINE
  5
2B3
330
2AE
100
AcDbEntity
  8
SK2
100
AcDbLine
 10
-1.0
 20
34.925
 30
0.0
 11
-120.4443482521
 21
34.925
 31
0.0
  0
LINE
  5
2B4
330
2AE
100
AcDbEntity
  8
SK2
100
AcDbLine
 10
-1.0
 20
-34.925
 30
0.0
 11
-120.4443482521
 21
-34.925
 31
0.0
  0
LINE
  5
2B5
330
2AE
100
AcDbEntity
  8
SK2
100
AcDbLine
 10
-119.4443482521
 20
34.925
 30
0.0
 11
-119.4443482521
 21
-34.925
 31
0.0
  0
MTEXT
  5
2B6
330
2AE
100
AcDbEntity
  8
SK2
100
AcDbMText
 10
-123.9560853413
 20
-8.7608082169
 30
0.0
 40
3.5
 41
0.0
 71
     1
 72
     1
  1
%%c
  7
SLDTEXTSTYLE0
 11
-7.044195017643634E-15
 21
1.0
 31
0.0
 73
     1
 44
1.0
  0
MTEXT
  5
2B7
330
2AE
100
AcDbEntity
  8
SK2
100
AcDbMText
 10
-124.009557518
 20
-3.4823708185
 30
0.0
 40
3.5
 41
0.0
 71
     1
 72
     1
  1
69,85
  7
SLDTEXTSTYLE0
 11
-7.044195017643634E-15
 21
1.0
 31
0.0
 73
     1
 44
1.0
  0
ENDBLK
  5
2B0
330
2AE
100
AcDbEntity
  8
0
100
AcDbBlockEnd
  0
BLOCK
  5
2BA
330
2B9
100
AcDbEntity
  8
0
100
AcDbBlockBegin
  2
_D_12
 70
     0
 10
0.0
 20
0.0
 30
0.0
  3
_D_12
  1

  0
SOLID
  5
2BC
330
2B9
100
AcDbEntity
  8
SK2
100
AcDbTrace
 10
-109.9602710086
 20
-12.0
 30
0.0
 11
-109.4522710086
 21
-8.698
 31
0.0
 12
-110.4682710086
 22
-8.698
 32
0.0
 13
-110.4682710086
 23
-8.698
 33
0.0
  0
SOLID
  5
2BD
330
2B9
100
AcDbEntity
  8
SK2
100
AcDbTrace
 10
-109.9602710086
 20
12.0
 30
0.0
 11
-110.4682710086
 21
8.698
 31
0.0
 12
-109.4522710086
 22
8.698
 32
0.0
 13
-109.4522710086
 23
8.698
 33
0.0
  0
LINE
  5
2BE
330
2B9
100
AcDbEntity
  8
SK2
100
AcDbLine
 10
-89.1169872981
 20
-12.0
 30
0.0
 11
-110.9602710086
 21
-12.0
 31
0.0
  0
LINE
  5
2BF
330
2B9
100
AcDbEntity
  8
SK2
100
AcDbLine
 10
-89.1169872981
 20
12.0
 30
0.0
 11
-110.9602710086
 21
12.0
 31
0.0
  0
LINE
  5
2C0
330
2B9
100
AcDbEntity
  8
SK2
100
AcDbLine
 10
-109.9602710086
 20
-12.0
 30
0.0
 11
-109.9602710086
 21
12.0
 31
0.0
  0
MTEXT
  5
2C1
330
2B9
100
AcDbEntity
  8
SK2
100
AcDbMText
 10
-114.4720079231
 20
-5.0327006677
 30
0.0
 40
3.5
 41
0.0
 71
     1
 72
     1
  1
M
  7
SLDTEXTSTYLE0
 11
3.613946018757869E-15
 21
1.0
 31
0.0
 73
     1
 44
1.0
  0
MTEXT
  5
2C2
330
2B9
100
AcDbEntity
  8
SK2
100
AcDbMText
 10
-114.4720079231
 20
-0.7452007332
 30
0.0
 40
3.5
 41
0.0
 71
     1
 72
     1
  1
24
  7
SLDTEXTSTYLE0
 11
3.613946018757869E-15
 21
1.0
 31
0.0
 73
     1
 44
1.0
  0
ENDBLK
  5
2BB
330
2B9
100
AcDbEntity
  8
0
100
AcDbBlockEnd
  0
ENDSEC
  0
SECTION
  2
ENTITIES
  0
LINE
  5
92
330
1F
100
AcDbEntity
  8
1
  6
SLD-Solid
370
    25
100
AcDbLine
 10
37.2500000057
 20
49.978682327
 30
0.0
 11
30.7300000057
 21
49.978682327
 31
0.0
  0
LINE
  5
93
330
1F
100
AcDbEntity
  8
1
  6
SLD-Solid
370
    25
100
AcDbLine
 10
30.7299999933
 20
-49.9786823243
 30
0.0
 11
37.2499999933
 21
-49.9786823243
 31
0.0
  0
LINE
  5
94
330
1F
100
AcDbEntity
  8
1
  6
SLD-Solid
370
    25
100
AcDbLine
 10
30.7300000057
 20
49.978682327
 30
0.0
 11
26.7050000062
 21
43.0071778284
 31
0.0
  0
LINE
  5
95
330
1F
100
AcDbEntity
  8
1
  6
SLD-Solid
370
    25
100
AcDbLine
 10
26.7049999933
 20
-43.0071778238
 30
0.0
 11
30.7299999933
 21
-49.9786823243
 31
0.0
  0
LINE
  5
96
330
1F
100
AcDbEntity
  8
1
  6
SLD-Solid
370
    25
100
AcDbLine
 10
3.75
 20
-49.978682327
 30
0.0
 11
15.68
 21
-49.978682327
 31
0.0
  0
LINE
  5
97
330
1F
100
AcDbEntity
  8
1
  6
SLD-Solid
370
    25
100
AcDbLine
 10
15.68
 20
49.978682327
 30
0.0
 11
3.75
 21
49.978682327
 31
0.0
  0
LINE
  5
98
330
1F
100
AcDbEntity
  8
1
  6
SLD-Solid
370
    25
100
AcDbLine
 10
15.68
 20
-49.978682327
 30
0.0
 11
19.705
 21
-43.0071778265
 31
0.0
  0
LINE
  5
99
330
1F
100
AcDbEntity
  8
1
  6
SLD-Solid
370
    25
100
AcDbLine
 10
19.705
 20
43.0071778265
 30
0.0
 11
15.68
 21
49.978682327
 31
0.0
  0
LINE
  5
9A
330
1F
100
AcDbEntity
  8
1
  6
SLD-Solid
370
    25
100
AcDbLine
 10
20.08
 20
-42.5
 30
0.0
 11
26.33
 21
-42.5
 31
0.0
  0
LINE
  5
9B
330
1F
100
AcDbEntity
  8
1
  6
SLD-Solid
370
    25
100
AcDbLine
 10
26.33
 20
42.5
 30
0.0
 11
20.08
 21
42.5
 31
0.0
  0
LINE
  5
9C
330
1F
100
AcDbEntity
  8
1
  6
SLD-Solid
370
    25
100
AcDbLine
 10
100.0
 20
-39.0
 30
0.0
 11
115.0
 21
-30.3397459622
 31
0.0
  0
LINE
  5
9D
330
1F
100
AcDbEntity
  8
1
  6
SLD-Solid
370
    25
100
AcDbLine
 10
115.0
 20
30.3397459622
 30
0.0
 11
100.0
 21
39.0
 31
0.0
  0
LINE
  5
9E
330
1F
100
AcDbEntity
  8
1
  6
SLD-Solid
370
    25
100
AcDbLine
 10
41.6382178517
 20
39.0
 30
0.0
 11
41.0
 21
39.0
 31
0.0
  0
LINE
  5
9F
330
1F
100
AcDbEntity
  8
1
  6
SLD-Solid
370
    25
100
AcDbLine
 10
73.6211809497
 20
39.0
 30
0.0
 11
64.3897980665
 21
39.0
 31
0.0
  0
LINE
  5
A0
330
1F
100
AcDbEntity
  8
1
  6
SLD-Solid
370
    25
100
AcDbLine
 10
100.0
 20
39.0
 30
0.0
 11
96.3752176482
 21
39.0
 31
0.0
  0
LINE
  5
A1
330
1F
100
AcDbEntity
  8
1
  6
SLD-Solid
370
    25
100
AcDbLine
 10
96.1
 20
-39.0
 30
0.0
 11
100.0
 21
-39.0
 31
0.0
  0
LINE
  5
A2
330
1F
100
AcDbEntity
  8
1
  6
SLD-Solid
370
    25
100
AcDbLine
 10
64.1
 20
-39.0
 30
0.0
 11
73.9359868519
 21
-39.0
 31
0.0
  0
LINE
  5
A3
330
1F
100
AcDbEntity
  8
1
  6
SLD-Solid
370
    25
100
AcDbLine
 10
41.0
 20
-39.0
 30
0.0
 11
41.9149529737
 21
-39.0
 31
0.0
  0
LINE
  5
A4
330
1F
100
AcDbEntity
  8
SK1
  6
SLD-Solid
370
    25
100
AcDbLine
 10
0.0
 20
34.925
 30
0.0
 11
-100.944317822
 21
20.2028150506
 31
0.0
  0
LINE
  5
A5
330
1F
100
AcDbEntity
  8
SK1
  6
SLD-Solid
370
    25
100
AcDbLine
 10
-100.944317822
 20
-20.2028150506
 30
0.0
 11
0.0
 21
-34.925
 31
0.0
  0
LINE
  5
A6
330
1F
100
AcDbEntity
  8
1
  6
SLD-Solid
370
    25
100
AcDbLine
 10
0.2
 20
34.925
 30
0.0
 11
0.0
 21
34.925
 31
0.0
  0
LINE
  5
A7
330
1F
100
AcDbEntity
  8
1
  6
SLD-Solid
370
    25
100
AcDbLine
 10
0.0
 20
-34.925
 30
0.0
 11
0.2
 21
-34.925
 31
0.0
  0
LINE
  5
A8
330
1F
100
AcDbEntity
  8
1
  6
SLD-Solid
370
    25
100
AcDbLine
 10
0.2
 20
-34.925
 30
0.0
 11
0.3290707856
 21
-34.8504809472
 31
0.0
  0
LINE
  5
A9
330
1F
100
AcDbEntity
  8
1
  6
SLD-Solid
370
    25
100
AcDbLine
 10
0.3290707856
 20
34.8504809472
 30
0.0
 11
0.2
 21
34.925
 31
0.0
  0
LINE
  5
AA
330
1F
100
AcDbEntity
  8
1
  6
SLD-Solid
370
    25
100
AcDbLine
 10
2.25
 20
34.75
 30
0.0
 11
0.7040707856
 21
34.75
 31
0.0
  0
LINE
  5
AB
330
1F
100
AcDbEntity
  8
1
  6
SLD-Solid
370
    25
100
AcDbLine
 10
0.7040707856
 20
-34.75
 30
0.0
 11
2.25
 21
-34.75
 31
0.0
  0
LINE
  5
AC
330
1F
100
AcDbEntity
  8
1
  6
SLD-Solid
370
    25
100
AcDbLine
 10
30.7300000057
 20
49.978682327
 30
0.0
 11
30.7300000057
 21
10.3017892946
 31
0.0
  0
LINE
  5
AD
330
1F
100
AcDbEntity
  8
1
  6
SLD-Solid
370
    25
100
AcDbLine
 10
30.7299999932
 20
-10.3017892815
 30
0.0
 11
30.7299999933
 21
-49.9786823243
 31
0.0
  0
LINE
  5
AE
330
1F
100
AcDbEntity
  8
1
  6
SLD-Solid
370
    25
100
AcDbLine
 10
37.9999999933
 20
-49.2286823243
 30
0.0
 11
37.9999999933
 21
49.2286823296
 31
0.0
  0
LINE
  5
AF
330
1F
100
AcDbEntity
  8
1
  6
SLD-Solid
370
    25
100
AcDbLine
 10
26.7050000062
 20
43.0071778284
 30
0.0
 11
26.7050000062
 21
11.846897275
 31
0.0
  0
LINE
  5
B0
330
1F
100
AcDbEntity
  8
1
  6
SLD-Solid
370
    25
100
AcDbLine
 10
26.7049999933
 20
-11.8468972705
 30
0.0
 11
26.7049999933
 21
-43.0071778238
 31
0.0
  0
LINE
  5
B1
330
1F
100
AcDbEntity
  8
1
  6
SLD-Solid
370
    25
100
AcDbLine
 10
3.75
 20
-12.9
 30
0.0
 11
16.2300196942
 21
-12.9
 31
0.0
  0
LINE
  5
B2
330
1F
100
AcDbEntity
  8
1
  6
SLD-Solid
370
    25
100
AcDbLine
 10
15.68
 20
-13.8579580341
 30
0.0
 11
3.75
 21
-13.8579580341
 31
0.0
  0
LINE
  5
B3
330
1F
100
AcDbEntity
  8
1
  6
SLD-Solid
370
    25
100
AcDbLine
 10
3.0
 20
-13.65
 30
0.0
 11
3.75
 21
-12.9
 31
0.0
  0
LINE
  5
B4
330
1F
100
AcDbEntity
  8
1
  6
SLD-Solid
370
    25
100
AcDbLine
 10
15.68
 20
-13.8579580341
 30
0.0
 11
15.68
 21
-49.978682327
 31
0.0
  0
LINE
  5
B5
330
1F
100
AcDbEntity
  8
1
  6
SLD-Solid
370
    25
100
AcDbLine
 10
3.0
 20
-49.228682327
 30
0.0
 11
3.0
 21
-13.65
 31
0.0
  0
LINE
  5
B6
330
1F
100
AcDbEntity
  8
1
  6
SLD-Solid
370
    25
100
AcDbLine
 10
3.0
 20
13.65
 30
0.0
 11
3.0
 21
49.228682327
 31
0.0
  0
LINE
  5
B7
330
1F
100
AcDbEntity
  8
1
  6
SLD-Solid
370
    25
100
AcDbLine
 10
3.75
 20
12.9
 30
0.0
 11
3.0
 21
13.65
 31
0.0
  0
LINE
  5
B8
330
1F
100
AcDbEntity
  8
1
  6
SLD-Solid
370
    25
100
AcDbLine
 10
16.2300196942
 20
12.9
 30
0.0
 11
3.75
 21
12.9
 31
0.0
  0
LINE
  5
B9
330
1F
100
AcDbEntity
  8
1
  6
SLD-Solid
370
    25
100
AcDbLine
 10
3.75
 20
13.8579580341
 30
0.0
 11
15.68
 21
13.8579580341
 31
0.0
  0
LINE
  5
BA
330
1F
100
AcDbEntity
  8
1
  6
SLD-Solid
370
    25
100
AcDbLine
 10
15.68
 20
49.978682327
 30
0.0
 11
15.68
 21
13.8579580341
 31
0.0
  0
LINE
  5
BB
330
1F
100
AcDbEntity
  8
1
  6
SLD-Solid
370
    25
100
AcDbLine
 10
19.705
 20
-12.9
 30
0.0
 11
19.705
 21
-43.0071778265
 31
0.0
  0
LINE
  5
BC
330
1F
100
AcDbEntity
  8
1
  6
SLD-Solid
370
    25
100
AcDbLine
 10
19.705
 20
43.0071778265
 30
0.0
 11
19.705
 21
12.9
 31
0.0
  0
LINE
  5
BD
330
1F
100
AcDbEntity
  8
1
  6
SLD-Solid
370
    25
100
AcDbLine
 10
21.5999999933
 20
-12.8999999973
 30
0.0
 11
20.08
 21
-12.8999999973
 31
0.0
  0
LINE
  5
BE
330
1F
100
AcDbEntity
  8
1
  6
SLD-Solid
370
    25
100
AcDbLine
 10
20.08
 20
12.9000000019
 30
0.0
 11
21.6000000062
 21
12.9000000019
 31
0.0
  0
LINE
  5
BF
330
1F
100
AcDbEntity
  8
1
  6
SLD-Solid
370
    25
100
AcDbLine
 10
100.0
 20
39.0
 30
0.0
 11
100.0
 21
-39.0
 31
0.0
  0
LINE
  5
C0
330
1F
100
AcDbEntity
  8
1
  6
SLD-Solid
370
    25
100
AcDbLine
 10
115.0
 20
30.3397459622
 30
0.0
 11
115.0
 21
-30.3397459622
 31
0.0
  0
LINE
  5
C1
330
1F
100
AcDbEntity
  8
1
  6
SLD-Solid
370
    25
100
AcDbLine
 10
3.0
 20
11.4643398282
 30
0.0
 11
3.0
 21
13.65
 31
0.0
  0
LINE
  5
C2
330
1F
100
AcDbEntity
  8
1
  6
SLD-Solid
370
    25
100
AcDbLine
 10
3.0
 20
-13.65
 30
0.0
 11
3.0
 21
-11.4643398282
 31
0.0
  0
LINE
  5
C3
330
1F
100
AcDbEntity
  8
1
  6
SLD-Solid
370
    25
100
AcDbLine
 10
3.0
 20
3.7629775444
 30
0.0
 11
3.0
 21
11.4643398282
 31
0.0
  0
LINE
  5
C4
330
1F
100
AcDbEntity
  8
1
  6
SLD-Solid
370
    25
100
AcDbLine
 10
3.0
 20
-11.4643398282
 30
0.0
 11
3.0
 21
-3.7629775444
 31
0.0
  0
LINE
  5
C5
330
1F
100
AcDbEntity
  8
1
  6
SLD-Solid
370
    25
100
AcDbLine
 10
0.0
 20
34.925
 30
0.0
 11
0.0
 21
-34.925
 31
0.0
  0
LINE
  5
C6
330
1F
100
AcDbEntity
  8
SK1
  6
SLD-Solid
370
    25
100
AcDbLine
 10
-101.8
 20
-19.2132836634
 30
0.0
 11
-101.8
 21
19.2132836634
 31
0.0
  0
LINE
  5
C7
330
1F
100
AcDbEntity
  8
SK3
  6
SLD-Dashed
370
    18
100
AcDbLine
 10
113.0
 20
-20.0
 30
0.0
 11
113.0
 21
20.0
 31
0.0
  0
LINE
  5
C8
330
1F
100
AcDbEntity
  8
SK3
  6
SLD-Dashed
370
    18
100
AcDbLine
 10
40.25
 20
20.25
 30
0.0
 11
40.25
 21
-20.2277430526
 31
0.0
  0
LINE
  5
C9
330
1F
100
AcDbEntity
  8
SK3
  6
SLD-Dashed
370
    18
100
AcDbLine
 10
40.0
 20
20.0
 30
0.0
 11
40.0
 21
-20.0
 31
0.0
  0
LINE
  5
CA
330
1F
100
AcDbEntity
  8
SK3
  6
SLD-Dashed
370
    18
100
AcDbLine
 10
44.75
 20
-19.9279953834
 30
0.0
 11
44.75
 21
20.22760745
 31
0.0
  0
LINE
  5
CB
330
1F
100
AcDbEntity
  8
SK3
  6
SLD-Dashed
370
    18
100
AcDbLine
 10
45.0
 20
20.0
 30
0.0
 11
45.0
 21
-19.5703857908
 31
0.0
  0
LINE
  5
CC
330
1F
100
AcDbEntity
  8
SK3
  6
SLD-Dashed
370
    18
100
AcDbLine
 10
11.1
 20
43.7958995207
 30
0.0
 11
10.5104896512
 21
43.76550953
 31
0.0
  0
LINE
  5
CD
330
1F
100
AcDbEntity
  8
SK3
  6
SLD-Dashed
370
    18
100
AcDbLine
 10
10.5104896512
 20
43.76550953
 30
0.0
 11
9.9733598839
 21
43.677039842
 31
0.0
  0
LINE
  5
CE
330
1F
100
AcDbEntity
  8
SK3
  6
SLD-Dashed
370
    18
100
AcDbLine
 10
9.9733598839
 20
43.677039842
 30
0.0
 11
9.5363370351
 21
43.5383513768
 31
0.0
  0
LINE
  5
CF
330
1F
100
AcDbEntity
  8
SK3
  6
SLD-Dashed
370
    18
100
AcDbLine
 10
9.5363370351
 20
43.5383513768
 30
0.0
 11
9.2382525027
 21
43.3617672131
 31
0.0
  0
LINE
  5
D0
330
1F
100
AcDbEntity
  8
SK3
  6
SLD-Dashed
370
    18
100
AcDbLine
 10
9.2382525027
 20
43.3617672131
 30
0.0
 11
9.1055924056
 21
43.1629776287
 31
0.0
  0
LINE
  5
D1
330
1F
100
AcDbEntity
  8
SK3
  6
SLD-Dashed
370
    18
100
AcDbLine
 10
9.1055924056
 20
43.1629776287
 30
0.0
 11
9.1501441756
 21
42.9596459506
 31
0.0
  0
LINE
  5
D2
330
1F
100
AcDbEntity
  8
SK3
  6
SLD-Dashed
370
    18
100
AcDbLine
 10
9.1501441756
 20
42.9596459506
 30
0.0
 11
9.3679491924
 21
42.7698390907
 31
0.0
  0
LINE
  5
D3
330
1F
100
AcDbEntity
  8
SK3
  6
SLD-Dashed
370
    18
100
AcDbLine
 10
9.3679491924
 20
42.7698390907
 30
0.0
 11
9.7396545245
 21
42.6104222215
 31
0.0
  0
LINE
  5
D4
330
1F
100
AcDbEntity
  8
SK3
  6
SLD-Dashed
370
    18
100
AcDbLine
 10
9.7396545245
 20
42.6104222215
 30
0.0
 11
10.2322325218
 21
42.4955602314
 31
0.0
  0
LINE
  5
D5
330
1F
100
AcDbEntity
  8
SK3
  6
SLD-Dashed
370
    18
100
AcDbLine
 10
10.2322325218
 20
42.4955602314
 30
0.0
 11
10.8019154676
 21
42.4354591122
 31
0.0
  0
LINE
  5
D6
330
1F
100
AcDbEntity
  8
SK3
  6
SLD-Dashed
370
    18
100
AcDbLine
 10
10.8019154676
 20
42.4354591122
 30
0.0
 11
11.3980845324
 21
42.4354591122
 31
0.0
  0
LINE
  5
D7
330
1F
100
AcDbEntity
  8
SK3
  6
SLD-Dashed
370
    18
100
AcDbLine
 10
11.3980845324
 20
42.4354591122
 30
0.0
 11
11.9677674782
 21
42.4955602314
 31
0.0
  0
LINE
  5
D8
330
1F
100
AcDbEntity
  8
SK3
  6
SLD-Dashed
370
    18
100
AcDbLine
 10
11.9677674782
 20
42.4955602314
 30
0.0
 11
12.4603454755
 21
42.6104222215
 31
0.0
  0
LINE
  5
D9
330
1F
100
AcDbEntity
  8
SK3
  6
SLD-Dashed
370
    18
100
AcDbLine
 10
12.4603454755
 20
42.6104222215
 30
0.0
 11
12.8320508076
 21
42.7698390907
 31
0.0
  0
LINE
  5
DA
330
1F
100
AcDbEntity
  8
SK3
  6
SLD-Dashed
370
    18
100
AcDbLine
 10
12.8320508076
 20
42.7698390907
 30
0.0
 11
13.0498558244
 21
42.9596459506
 31
0.0
  0
LINE
  5
DB
330
1F
100
AcDbEntity
  8
SK3
  6
SLD-Dashed
370
    18
100
AcDbLine
 10
13.0498558244
 20
42.9596459506
 30
0.0
 11
13.0944075944
 21
43.1629776287
 31
0.0
  0
LINE
  5
DC
330
1F
100
AcDbEntity
  8
SK3
  6
SLD-Dashed
370
    18
100
AcDbLine
 10
13.0944075944
 20
43.1629776287
 30
0.0
 11
12.9617474973
 21
43.3617672131
 31
0.0
  0
LINE
  5
DD
330
1F
100
AcDbEntity
  8
SK3
  6
SLD-Dashed
370
    18
100
AcDbLine
 10
12.9617474973
 20
43.3617672131
 30
0.0
 11
12.6636629649
 21
43.5383513768
 31
0.0
  0
LINE
  5
DE
330
1F
100
AcDbEntity
  8
SK3
  6
SLD-Dashed
370
    18
100
AcDbLine
 10
12.6636629649
 20
43.5383513768
 30
0.0
 11
12.2266401161
 21
43.677039842
 31
0.0
  0
LINE
  5
DF
330
1F
100
AcDbEntity
  8
SK3
  6
SLD-Dashed
370
    18
100
AcDbLine
 10
12.2266401161
 20
43.677039842
 30
0.0
 11
11.6895103488
 21
43.76550953
 31
0.0
  0
LINE
  5
E0
330
1F
100
AcDbEntity
  8
SK3
  6
SLD-Dashed
370
    18
100
AcDbLine
 10
11.6895103488
 20
43.76550953
 30
0.0
 11
11.1
 21
43.7958995207
 31
0.0
  0
LINE
  5
E1
330
1F
100
AcDbEntity
  8
SK3
  6
SLD-Dashed
370
    18
100
AcDbLine
 10
11.1
 20
43.4863063449
 30
0.0
 11
10.5642458758
 21
43.4557292135
 31
0.0
  0
LINE
  5
E2
330
1F
100
AcDbEntity
  8
SK3
  6
SLD-Dashed
370
    18
100
AcDbLine
 10
10.5642458758
 20
43.4557292135
 30
0.0
 11
10.0865490241
 21
43.3673113261
 31
0.0
  0
LINE
  5
E3
330
1F
100
AcDbEntity
  8
SK3
  6
SLD-Dashed
370
    18
100
AcDbLine
 10
10.0865490241
 20
43.3673113261
 30
0.0
 11
9.7186753109
 21
43.2306341326
 31
0.0
  0
LINE
  5
E4
330
1F
100
AcDbEntity
  8
SK3
  6
SLD-Dashed
370
    18
100
AcDbLine
 10
9.7186753109
 20
43.2306341326
 30
0.0
 11
9.5004895612
 21
43.0605087278
 31
0.0
  0
LINE
  5
E5
330
1F
100
AcDbEntity
  8
SK3
  6
SLD-Dashed
370
    18
100
AcDbLine
 10
9.5004895612
 20
43.0605087278
 30
0.0
 11
9.4556355865
 21
42.8753708391
 31
0.0
  0
LINE
  5
E6
330
1F
100
AcDbEntity
  8
SK3
  6
SLD-Dashed
370
    18
100
AcDbLine
 10
9.4556355865
 20
42.8753708391
 30
0.0
 11
9.588974011
 21
42.6952830293
 31
0.0
  0
LINE
  5
E7
330
1F
100
AcDbEntity
  8
SK3
  6
SLD-Dashed
370
    18
100
AcDbLine
 10
9.588974011
 20
42.6952830293
 30
0.0
 11
9.8860555474
 21
42.539760607
 31
0.0
  0
LINE
  5
E8
330
1F
100
AcDbEntity
  8
SK3
  6
SLD-Dashed
370
    18
100
AcDbLine
 10
9.8860555474
 20
42.539760607
 30
0.0
 11
10.3146868015
 21
42.4256568399
 31
0.0
  0
LINE
  5
E9
330
1F
100
AcDbEntity
  8
SK3
  6
SLD-Dashed
370
    18
100
AcDbLine
 10
10.3146868015
 20
42.4256568399
 30
0.0
 11
10.828418926
 21
42.3653366417
 31
0.0
  0
LINE
  5
EA
330
1F
100
AcDbEntity
  8
SK3
  6
SLD-Dashed
370
    18
100
AcDbLine
 10
10.828418926
 20
42.3653366417
 30
0.0
 11
11.371581074
 21
42.3653366417
 31
0.0
  0
LINE
  5
EB
330
1F
100
AcDbEntity
  8
SK3
  6
SLD-Dashed
370
    18
100
AcDbLine
 10
11.371581074
 20
42.3653366417
 30
0.0
 11
11.8853131985
 21
42.4256568399
 31
0.0
  0
LINE
  5
EC
330
1F
100
AcDbEntity
  8
SK3
  6
SLD-Dashed
370
    18
100
AcDbLine
 10
11.8853131985
 20
42.4256568399
 30
0.0
 11
12.3139444526
 21
42.539760607
 31
0.0
  0
LINE
  5
ED
330
1F
100
AcDbEntity
  8
SK3
  6
SLD-Dashed
370
    18
100
AcDbLine
 10
12.3139444526
 20
42.539760607
 30
0.0
 11
12.611025989
 21
42.6952830293
 31
0.0
  0
LINE
  5
EE
330
1F
100
AcDbEntity
  8
SK3
  6
SLD-Dashed
370
    18
100
AcDbLine
 10
12.611025989
 20
42.6952830293
 30
0.0
 11
12.7443644135
 21
42.8753708391
 31
0.0
  0
LINE
  5
EF
330
1F
100
AcDbEntity
  8
SK3
  6
SLD-Dashed
370
    18
100
AcDbLine
 10
12.7443644135
 20
42.8753708391
 30
0.0
 11
12.6995104388
 21
43.0605087278
 31
0.0
  0
LINE
  5
F0
330
1F
100
AcDbEntity
  8
SK3
  6
SLD-Dashed
370
    18
100
AcDbLine
 10
12.6995104388
 20
43.0605087278
 30
0.0
 11
12.4813246891
 21
43.2306341326
 31
0.0
  0
LINE
  5
F1
330
1F
100
AcDbEntity
  8
SK3
  6
SLD-Dashed
370
    18
100
AcDbLine
 10
12.4813246891
 20
43.2306341326
 30
0.0
 11
12.1134509759
 21
43.3673113261
 31
0.0
  0
LINE
  5
F2
330
1F
100
AcDbEntity
  8
SK3
  6
SLD-Dashed
370
    18
100
AcDbLine
 10
12.1134509759
 20
43.3673113261
 30
0.0
 11
11.6357541242
 21
43.4557292135
 31
0.0
  0
LINE
  5
F3
330
1F
100
AcDbEntity
  8
SK3
  6
SLD-Dashed
370
    18
100
AcDbLine
 10
11.6357541242
 20
43.4557292135
 30
0.0
 11
11.1
 21
43.4863063449
 31
0.0
  0
LINE
  5
F4
330
1F
100
AcDbEntity
  8
SK3
  6
SLD-Dashed
370
    18
100
AcDbLine
 10
9.6039384425
 20
37.6510244886
 30
0.0
 11
9.4883859037
 21
37.7155051163
 31
0.0
  0
LINE
  5
F5
330
1F
100
AcDbEntity
  8
SK3
  6
SLD-Dashed
370
    18
100
AcDbLine
 10
9.4883859037
 20
37.7155051163
 30
0.0
 11
9.4510251871
 21
37.6716120846
 31
0.0
  0
LINE
  5
F6
330
1F
100
AcDbEntity
  8
SK3
  6
SLD-Dashed
370
    18
100
AcDbLine
 10
9.4510251871
 20
37.6716120846
 30
0.0
 11
9.4683049732
 21
37.5413753617
 31
0.0
  0
LINE
  5
F7
330
1F
100
AcDbEntity
  8
SK3
  6
SLD-Dashed
370
    18
100
AcDbLine
 10
9.4683049732
 20
37.5413753617
 30
0.0
 11
9.5321185428
 21
37.3521608151
 31
0.0
  0
LINE
  5
F8
330
1F
100
AcDbEntity
  8
SK3
  6
SLD-Dashed
370
    18
100
AcDbLine
 10
9.5321185428
 20
37.3521608151
 30
0.0
 11
9.7109914129
 21
36.9572232263
 31
0.0
  0
LINE
  5
F9
330
1F
100
AcDbEntity
  8
SK3
  6
SLD-Dashed
370
    18
100
AcDbLine
 10
9.7109914129
 20
36.9572232263
 30
0.0
 11
10.1362287949
 21
36.2162854985
 31
0.0
  0
LINE
  5
FA
330
1F
100
AcDbEntity
  8
SK3
  6
SLD-Dashed
370
    18
100
AcDbLine
 10
10.1362287949
 20
36.2162854985
 30
0.0
 11
10.882255187
 21
35.2960293739
 31
0.0
  0
LINE
  5
FB
330
1F
100
AcDbEntity
  8
SK3
  6
SLD-Dashed
370
    18
100
AcDbLine
 10
10.882255187
 20
35.2960293739
 30
0.0
 11
11.3166645362
 21
34.9768973214
 31
0.0
  0
LINE
  5
FC
330
1F
100
AcDbEntity
  8
SK3
  6
SLD-Dashed
370
    18
100
AcDbLine
 10
11.3166645362
 20
34.9768973214
 30
0.0
 11
11.8034084809
 21
34.810282363
 31
0.0
  0
LINE
  5
FD
330
1F
100
AcDbEntity
  8
SK3
  6
SLD-Dashed
370
    18
100
AcDbLine
 10
11.8034084809
 20
34.810282363
 30
0.0
 11
12.1971344444
 21
34.8184039859
 31
0.0
  0
LINE
  5
FE
330
1F
100
AcDbEntity
  8
SK3
  6
SLD-Dashed
370
    18
100
AcDbLine
 10
12.1971344444
 20
34.8184039859
 30
0.0
 11
12.5018110505
 21
34.9245493855
 31
0.0
  0
LINE
  5
FF
330
1F
100
AcDbEntity
  8
SK3
  6
SLD-Dashed
370
    18
100
AcDbLine
 10
12.5018110505
 20
34.9245493855
 30
0.0
 11
12.7051006403
 21
35.0969646428
 31
0.0
  0
LINE
  5
100
330
1F
100
AcDbEntity
  8
SK3
  6
SLD-Dashed
370
    18
100
AcDbLine
 10
12.7051006403
 20
35.0969646428
 30
0.0
 11
12.7412641999
 21
35.2879442037
 31
0.0
  0
LINE
  5
101
330
1F
100
AcDbEntity
  8
SK3
  6
SLD-Dashed
370
    18
100
AcDbLine
 10
12.7412641999
 20
35.2879442037
 30
0.0
 11
12.5931133743
 21
35.4633189362
 31
0.0
  0
LINE
  5
102
330
1F
100
AcDbEntity
  8
SK3
  6
SLD-Dashed
370
    18
100
AcDbLine
 10
12.5931133743
 20
35.4633189362
 30
0.0
 11
12.2764819223
 21
35.6276304465
 31
0.0
  0
LINE
  5
103
330
1F
100
AcDbEntity
  8
SK3
  6
SLD-Dashed
370
    18
100
AcDbLine
 10
12.2764819223
 20
35.6276304465
 30
0.0
 11
11.8432412473
 21
35.8129767597
 31
0.0
  0
LINE
  5
104
330
1F
100
AcDbEntity
  8
SK3
  6
SLD-Dashed
370
    18
100
AcDbLine
 10
11.8432412473
 20
35.8129767597
 30
0.0
 11
11.4174985696
 21
36.0336380552
 31
0.0
  0
LINE
  5
105
330
1F
100
AcDbEntity
  8
SK3
  6
SLD-Dashed
370
    18
100
AcDbLine
 10
11.4174985696
 20
36.0336380552
 30
0.0
 11
11.1
 21
36.2443456783
 31
0.0
  0
LINE
  5
106
330
1F
100
AcDbEntity
  8
SK3
  6
SLD-Dashed
370
    18
100
AcDbLine
 10
3.1949403416
 20
36.0985003391
 30
0.0
 11
3.3615900545
 21
36.0860566456
 31
0.0
  0
LINE
  5
107
330
1F
100
AcDbEntity
  8
SK3
  6
SLD-Dashed
370
    18
100
AcDbLine
 10
3.3615900545
 20
36.0860566456
 30
0.0
 11
3.6217415901
 21
36.2172875115
 31
0.0
  0
LINE
  5
108
330
1F
100
AcDbEntity
  8
SK3
  6
SLD-Dashed
370
    18
100
AcDbLine
 10
3.6217415901
 20
36.2172875115
 30
0.0
 11
3.9576660511
 21
36.4832497703
 31
0.0
  0
LINE
  5
109
330
1F
100
AcDbEntity
  8
SK3
  6
SLD-Dashed
370
    18
100
AcDbLine
 10
3.9576660511
 20
36.4832497703
 30
0.0
 11
4.3464707407
 21
36.8658185335
 31
0.0
  0
LINE
  5
10A
330
1F
100
AcDbEntity
  8
SK3
  6
SLD-Dashed
370
    18
100
AcDbLine
 10
4.3464707407
 20
36.8658185335
 30
0.0
 11
4.7616592619
 21
37.3389223722
 31
0.0
  0
LINE
  5
10B
330
1F
100
AcDbEntity
  8
SK3
  6
SLD-Dashed
370
    18
100
AcDbLine
 10
4.7616592619
 20
37.3389223722
 30
0.0
 11
5.1749372029
 21
37.8703200416
 31
0.0
  0
LINE
  5
10C
330
1F
100
AcDbEntity
  8
SK3
  6
SLD-Dashed
370
    18
100
AcDbLine
 10
5.1749372029
 20
37.8703200416
 30
0.0
 11
5.5581403551
 21
38.4237976687
 31
0.0
  0
LINE
  5
10D
330
1F
100
AcDbEntity
  8
SK3
  6
SLD-Dashed
370
    18
100
AcDbLine
 10
5.5581403551
 20
38.4237976687
 30
0.0
 11
5.8851540571
 21
38.9616366678
 31
0.0
  0
LINE
  5
10E
330
1F
100
AcDbEntity
  8
SK3
  6
SLD-Dashed
370
    18
100
AcDbLine
 10
5.8851540571
 20
38.9616366678
 30
0.0
 11
6.1336928653
 21
39.4471842001
 31
0.0
  0
LINE
  5
10F
330
1F
100
AcDbEntity
  8
SK3
  6
SLD-Dashed
370
    18
100
AcDbLine
 10
6.1336928653
 20
39.4471842001
 30
0.0
 11
6.2868192707
 21
39.8473510035
 31
0.0
  0
LINE
  5
110
330
1F
100
AcDbEntity
  8
SK3
  6
SLD-Dashed
370
    18
100
AcDbLine
 10
6.2868192707
 20
39.8473510035
 30
0.0
 11
6.3340979619
 21
40.1348663718
 31
0.0
  0
LINE
  5
111
330
1F
100
AcDbEntity
  8
SK3
  6
SLD-Dashed
370
    18
100
AcDbLine
 10
6.3340979619
 20
40.1348663718
 30
0.0
 11
6.2723069743
 21
40.2901366077
 31
0.0
  0
LINE
  5
112
330
1F
100
AcDbEntity
  8
SK3
  6
SLD-Dashed
370
    18
100
AcDbLine
 10
6.2723069743
 20
40.2901366077
 30
0.0
 11
6.1056572614
 21
40.3025803013
 31
0.0
  0
LINE
  5
113
330
1F
100
AcDbEntity
  8
SK3
  6
SLD-Dashed
370
    18
100
AcDbLine
 10
6.1056572614
 20
40.3025803013
 30
0.0
 11
5.8455057258
 21
40.1713494354
 31
0.0
  0
LINE
  5
114
330
1F
100
AcDbEntity
  8
SK3
  6
SLD-Dashed
370
    18
100
AcDbLine
 10
5.8455057258
 20
40.1713494354
 30
0.0
 11
5.5095812647
 21
39.9053871766
 31
0.0
  0
LINE
  5
115
330
1F
100
AcDbEntity
  8
SK3
  6
SLD-Dashed
370
    18
100
AcDbLine
 10
5.5095812647
 20
39.9053871766
 30
0.0
 11
5.1207765751
 21
39.5228184133
 31
0.0
  0
LINE
  5
116
330
1F
100
AcDbEntity
  8
SK3
  6
SLD-Dashed
370
    18
100
AcDbLine
 10
5.1207765751
 20
39.5228184133
 30
0.0
 11
4.705588054
 21
39.0497145746
 31
0.0
  0
LINE
  5
117
330
1F
100
AcDbEntity
  8
SK3
  6
SLD-Dashed
370
    18
100
AcDbLine
 10
4.705588054
 20
39.0497145746
 30
0.0
 11
4.292310113
 21
38.5183169052
 31
0.0
  0
LINE
  5
118
330
1F
100
AcDbEntity
  8
SK3
  6
SLD-Dashed
370
    18
100
AcDbLine
 10
4.292310113
 20
38.5183169052
 30
0.0
 11
3.9091069607
 21
37.9648392782
 31
0.0
  0
LINE
  5
119
330
1F
100
AcDbEntity
  8
SK3
  6
SLD-Dashed
370
    18
100
AcDbLine
 10
3.9091069607
 20
37.9648392782
 30
0.0
 11
3.5820932588
 21
37.427000279
 31
0.0
  0
LINE
  5
11A
330
1F
100
AcDbEntity
  8
SK3
  6
SLD-Dashed
370
    18
100
AcDbLine
 10
3.5820932588
 20
37.427000279
 30
0.0
 11
3.3335544506
 21
36.9414527468
 31
0.0
  0
LINE
  5
11B
330
1F
100
AcDbEntity
  8
SK3
  6
SLD-Dashed
370
    18
100
AcDbLine
 10
3.3335544506
 20
36.9414527468
 30
0.0
 11
3.1804280451
 21
36.5412859433
 31
0.0
  0
LINE
  5
11C
330
1F
100
AcDbEntity
  8
SK3
  6
SLD-Dashed
370
    18
100
AcDbLine
 10
3.1804280451
 20
36.5412859433
 30
0.0
 11
3.1331493539
 21
36.253770575
 31
0.0
  0
LINE
  5
11D
330
1F
100
AcDbEntity
  8
SK3
  6
SLD-Dashed
370
    18
100
AcDbLine
 10
3.1331493539
 20
36.253770575
 30
0.0
 11
3.1949403416
 21
36.0985003391
 31
0.0
  0
LINE
  5
11E
330
1F
100
AcDbEntity
  8
SK3
  6
SLD-Dashed
370
    18
100
AcDbLine
 10
3.2837105329
 20
36.2194129238
 30
0.0
 11
3.4496730814
 21
36.2102771479
 31
0.0
  0
LINE
  5
11F
330
1F
100
AcDbEntity
  8
SK3
  6
SLD-Dashed
370
    18
100
AcDbLine
 10
3.4496730814
 20
36.2102771479
 30
0.0
 11
3.7108603704
 21
36.3482886407
 31
0.0
  0
LINE
  5
120
330
1F
100
AcDbEntity
  8
SK3
  6
SLD-Dashed
370
    18
100
AcDbLine
 10
3.7108603704
 20
36.3482886407
 30
0.0
 11
4.0479013336
 21
36.6232117212
 31
0.0
  0
LINE
  5
121
330
1F
100
AcDbEntity
  8
SK3
  6
SLD-Dashed
370
    18
100
AcDbLine
 10
4.0479013336
 20
36.6232117212
 30
0.0
 11
4.4357991846
 21
37.0146566022
 31
0.0
  0
LINE
  5
122
330
1F
100
AcDbEntity
  8
SK3
  6
SLD-Dashed
370
    18
100
AcDbLine
 10
4.4357991846
 20
37.0146566022
 30
0.0
 11
4.8457853144
 21
37.4935916076
 31
0.0
  0
LINE
  5
123
330
1F
100
AcDbEntity
  8
SK3
  6
SLD-Dashed
370
    18
100
AcDbLine
 10
4.8457853144
 20
37.4935916076
 30
0.0
 11
5.2474529272
 21
38.024496319
 31
0.0
  0
LINE
  5
124
330
1F
100
AcDbEntity
  8
SK3
  6
SLD-Dashed
370
    18
100
AcDbLine
 10
5.2474529272
 20
38.024496319
 30
0.0
 11
5.6110121737
 21
38.5679959627
 31
0.0
  0
LINE
  5
125
330
1F
100
AcDbEntity
  8
SK3
  6
SLD-Dashed
370
    18
100
AcDbLine
 10
5.6110121737
 20
38.5679959627
 30
0.0
 11
5.9094995278
 21
39.0837816565
 31
0.0
  0
LINE
  5
126
330
1F
100
AcDbEntity
  8
SK3
  6
SLD-Dashed
370
    18
100
AcDbLine
 10
5.9094995278
 20
39.0837816565
 30
0.0
 11
6.1207775479
 21
39.533599935
 31
0.0
  0
LINE
  5
127
330
1F
100
AcDbEntity
  8
SK3
  6
SLD-Dashed
370
    18
100
AcDbLine
 10
6.1207775479
 20
39.533599935
 30
0.0
 11
6.2291767098
 21
39.8840898343
 31
0.0
  0
LINE
  5
128
330
1F
100
AcDbEntity
  8
SK3
  6
SLD-Dashed
370
    18
100
AcDbLine
 10
6.2291767098
 20
39.8840898343
 30
0.0
 11
6.2266575435
 21
40.109257122
 31
0.0
  0
LINE
  5
129
330
1F
100
AcDbEntity
  8
SK3
  6
SLD-Dashed
370
    18
100
AcDbLine
 10
6.2266575435
 20
40.109257122
 30
0.0
 11
6.1134068841
 21
40.1924021704
 31
0.0
  0
LINE
  5
12A
330
1F
100
AcDbEntity
  8
SK3
  6
SLD-Dashed
370
    18
100
AcDbLine
 10
6.1134068841
 20
40.1924021704
 30
0.0
 11
5.8978240149
 21
40.1273584916
 31
0.0
  0
LINE
  5
12B
330
1F
100
AcDbEntity
  8
SK3
  6
SLD-Dashed
370
    18
100
AcDbLine
 10
5.8978240149
 20
40.1273584916
 30
0.0
 11
5.5958977311
 21
39.9189500777
 31
0.0
  0
LINE
  5
12C
330
1F
100
AcDbEntity
  8
SK3
  6
SLD-Dashed
370
    18
100
AcDbLine
 10
5.5958977311
 20
39.9189500777
 30
0.0
 11
5.230020524
 21
39.5826336274
 31
0.0
  0
LINE
  5
12D
330
1F
100
AcDbEntity
  8
SK3
  6
SLD-Dashed
370
    18
100
AcDbLine
 10
5.230020524
 20
39.5826336274
 30
0.0
 11
4.8273278321
 21
39.1433521933
 31
0.0
  0
LINE
  5
12E
330
1F
100
AcDbEntity
  8
SK3
  6
SLD-Dashed
370
    18
100
AcDbLine
 10
4.8273278321
 20
39.1433521933
 30
0.0
 11
4.4176855303
 21
38.6336852696
 31
0.0
  0
LINE
  5
12F
330
1F
100
AcDbEntity
  8
SK3
  6
SLD-Dashed
370
    18
100
AcDbLine
 10
4.4176855303
 20
38.6336852696
 30
0.0
 11
4.0314749141
 21
38.0914325207
 31
0.0
  0
LINE
  5
130
330
1F
100
AcDbEntity
  8
SK3
  6
SLD-Dashed
370
    18
100
AcDbLine
 10
4.0314749141
 20
38.0914325207
 30
0.0
 11
3.6973394581
 21
37.5568103522
 31
0.0
  0
LINE
  5
131
330
1F
100
AcDbEntity
  8
SK3
  6
SLD-Dashed
370
    18
100
AcDbLine
 10
3.6973394581
 20
37.5568103522
 30
0.0
 11
3.4400604606
 21
37.0694692447
 31
0.0
  0
LINE
  5
132
330
1F
100
AcDbEntity
  8
SK3
  6
SLD-Dashed
370
    18
100
AcDbLine
 10
3.4400604606
 20
37.0694692447
 30
0.0
 11
3.2787191277
 21
36.6655530586
 31
0.0
  0
LINE
  5
133
330
1F
100
AcDbEntity
  8
SK3
  6
SLD-Dashed
370
    18
100
AcDbLine
 10
3.2787191277
 20
36.6655530586
 30
0.0
 11
3.2252814081
 21
36.3750184097
 31
0.0
  0
LINE
  5
134
330
1F
100
AcDbEntity
  8
SK3
  6
SLD-Dashed
370
    18
100
AcDbLine
 10
3.2252814081
 20
36.3750184097
 30
0.0
 11
3.2837105329
 21
36.2194129238
 31
0.0
  0
LINE
  5
135
330
1F
100
AcDbEntity
  8
SK3
  6
SLD-Dashed
370
    18
100
AcDbLine
 10
14.0794578574
 20
28.2935170536
 30
0.0
 11
14.2454204058
 21
28.2843812778
 31
0.0
  0
LINE
  5
136
330
1F
100
AcDbEntity
  8
SK3
  6
SLD-Dashed
370
    18
100
AcDbLine
 10
14.2454204058
 20
28.2843812778
 30
0.0
 11
14.5066076948
 21
28.4223927706
 31
0.0
  0
LINE
  5
137
330
1F
100
AcDbEntity
  8
SK3
  6
SLD-Dashed
370
    18
100
AcDbLine
 10
14.5066076948
 20
28.4223927706
 30
0.0
 11
14.843648658
 21
28.6973158511
 31
0.0
  0
LINE
  5
138
330
1F
100
AcDbEntity
  8
SK3
  6
SLD-Dashed
370
    18
100
AcDbLine
 10
14.843648658
 20
28.6973158511
 30
0.0
 11
15.231546509
 21
29.0887607321
 31
0.0
  0
LINE
  5
139
330
1F
100
AcDbEntity
  8
SK3
  6
SLD-Dashed
370
    18
100
AcDbLine
 10
15.231546509
 20
29.0887607321
 30
0.0
 11
15.6415326388
 21
29.5676957374
 31
0.0
  0
LINE
  5
13A
330
1F
100
AcDbEntity
  8
SK3
  6
SLD-Dashed
370
    18
100
AcDbLine
 10
15.6415326388
 20
29.5676957374
 30
0.0
 11
16.0432002516
 21
30.0986004488
 31
0.0
  0
LINE
  5
13B
330
1F
100
AcDbEntity
  8
SK3
  6
SLD-Dashed
370
    18
100
AcDbLine
 10
16.0432002516
 20
30.0986004488
 30
0.0
 11
16.4067594981
 21
30.6421000925
 31
0.0
  0
LINE
  5
13C
330
1F
100
AcDbEntity
  8
SK3
  6
SLD-Dashed
370
    18
100
AcDbLine
 10
16.4067594981
 20
30.6421000925
 30
0.0
 11
16.7052468522
 21
31.1578857863
 31
0.0
  0
LINE
  5
13D
330
1F
100
AcDbEntity
  8
SK3
  6
SLD-Dashed
370
    18
100
AcDbLine
 10
16.7052468522
 20
31.1578857863
 30
0.0
 11
16.9165248723
 21
31.6077040649
 31
0.0
  0
LINE
  5
13E
330
1F
100
AcDbEntity
  8
SK3
  6
SLD-Dashed
370
    18
100
AcDbLine
 10
16.9165248723
 20
31.6077040649
 30
0.0
 11
17.0249240342
 21
31.9581939642
 31
0.0
  0
LINE
  5
13F
330
1F
100
AcDbEntity
  8
SK3
  6
SLD-Dashed
370
    18
100
AcDbLine
 10
17.0249240342
 20
31.9581939642
 30
0.0
 11
17.0224048679
 21
32.1833612519
 31
0.0
  0
LINE
  5
140
330
1F
100
AcDbEntity
  8
SK3
  6
SLD-Dashed
370
    18
100
AcDbLine
 10
17.0224048679
 20
32.1833612519
 30
0.0
 11
16.9091542086
 21
32.2665063002
 31
0.0
  0
LINE
  5
141
330
1F
100
AcDbEntity
  8
SK3
  6
SLD-Dashed
370
    18
100
AcDbLine
 10
16.9091542086
 20
32.2665063002
 30
0.0
 11
16.6935713394
 21
32.2014626214
 31
0.0
  0
LINE
  5
142
330
1F
100
AcDbEntity
  8
SK3
  6
SLD-Dashed
370
    18
100
AcDbLine
 10
16.6935713394
 20
32.2014626214
 30
0.0
 11
16.3916450556
 21
31.9930542076
 31
0.0
  0
LINE
  5
143
330
1F
100
AcDbEntity
  8
SK3
  6
SLD-Dashed
370
    18
100
AcDbLine
 10
16.3916450556
 20
31.9930542076
 30
0.0
 11
16.0257678484
 21
31.6567377573
 31
0.0
  0
LINE
  5
144
330
1F
100
AcDbEntity
  8
SK3
  6
SLD-Dashed
370
    18
100
AcDbLine
 10
16.0257678484
 20
31.6567377573
 30
0.0
 11
15.6230751565
 21
31.2174563231
 31
0.0
  0
LINE
  5
145
330
1F
100
AcDbEntity
  8
SK3
  6
SLD-Dashed
370
    18
100
AcDbLine
 10
15.6230751565
 20
31.2174563231
 30
0.0
 11
15.2134328547
 21
30.7077893995
 31
0.0
  0
LINE
  5
146
330
1F
100
AcDbEntity
  8
SK3
  6
SLD-Dashed
370
    18
100
AcDbLine
 10
15.2134328547
 20
30.7077893995
 30
0.0
 11
14.8272222385
 21
30.1655366506
 31
0.0
  0
LINE
  5
147
330
1F
100
AcDbEntity
  8
SK3
  6
SLD-Dashed
370
    18
100
AcDbLine
 10
14.8272222385
 20
30.1655366506
 30
0.0
 11
14.4930867825
 21
29.6309144821
 31
0.0
  0
LINE
  5
148
330
1F
100
AcDbEntity
  8
SK3
  6
SLD-Dashed
370
    18
100
AcDbLine
 10
14.4930867825
 20
29.6309144821
 30
0.0
 11
14.235807785
 21
29.1435733746
 31
0.0
  0
LINE
  5
149
330
1F
100
AcDbEntity
  8
SK3
  6
SLD-Dashed
370
    18
100
AcDbLine
 10
14.235807785
 20
29.1435733746
 30
0.0
 11
14.0744664521
 21
28.7396571885
 31
0.0
  0
LINE
  5
14A
330
1F
100
AcDbEntity
  8
SK3
  6
SLD-Dashed
370
    18
100
AcDbLine
 10
14.0744664521
 20
28.7396571885
 30
0.0
 11
14.0210287325
 21
28.4491225396
 31
0.0
  0
LINE
  5
14B
330
1F
100
AcDbEntity
  8
SK3
  6
SLD-Dashed
370
    18
100
AcDbLine
 10
14.0210287325
 20
28.4491225396
 30
0.0
 11
14.0794578574
 21
28.2935170536
 31
0.0
  0
LINE
  5
14C
330
1F
100
AcDbEntity
  8
SK3
  6
SLD-Dashed
370
    18
100
AcDbLine
 10
-100.05
 20
12.5075
 30
0.0
 11
-100.05
 21
-12.5075
 31
0.0
  0
LINE
  5
14D
330
1F
100
AcDbEntity
  8
SK3
  6
SLD-Dashed
370
    18
100
AcDbLine
 10
-88.55
 20
12.75
 30
0.0
 11
-88.55
 21
-12.75
 31
0.0
  0
LINE
  5
14E
330
1F
100
AcDbEntity
  8
SK3
  6
SLD-Dashed
370
    18
100
AcDbLine
 10
-91.55
 20
12.75
 30
0.0
 11
-91.55
 21
-12.75
 31
0.0
  0
LINE
  5
14F
330
1F
100
AcDbEntity
  8
SK3
  6
SLD-Dashed
370
    18
100
AcDbLine
 10
-91.9700223208
 20
12.5075
 30
0.0
 11
-91.9700223208
 21
-12.5075
 31
0.0
  0
LINE
  5
150
330
1F
100
AcDbEntity
  8
SK3
  6
SLD-Dashed
370
    18
100
AcDbLine
 10
-87.2509618943
 20
10.5
 30
0.0
 11
-87.2509618943
 21
-10.5
 31
0.0
  0
LINE
  5
151
330
1F
100
AcDbEntity
  8
SK3
  6
SLD-Dashed
370
    18
100
AcDbLine
 10
96.1
 20
-36.8
 30
0.0
 11
73.9
 21
-36.8
 31
0.0
  0
LINE
  5
152
330
1F
100
AcDbEntity
  8
SK3
  6
SLD-Dashed
370
    18
100
AcDbLine
 10
64.1
 20
-36.8
 30
0.0
 11
41.9
 21
-36.8
 31
0.0
  0
LINE
  5
153
330
1F
100
AcDbEntity
  8
SK3
  6
SLD-Dashed
370
    18
100
AcDbLine
 10
16.9792841073
 20
-32.2433281529
 30
0.0
 11
16.8133215589
 21
-32.2524639288
 31
0.0
  0
LINE
  5
154
330
1F
100
AcDbEntity
  8
SK3
  6
SLD-Dashed
370
    18
100
AcDbLine
 10
16.8133215589
 20
-32.2524639288
 30
0.0
 11
16.5521342699
 21
-32.114452436
 31
0.0
  0
LINE
  5
155
330
1F
100
AcDbEntity
  8
SK3
  6
SLD-Dashed
370
    18
100
AcDbLine
 10
16.5521342699
 20
-32.114452436
 30
0.0
 11
16.2150933067
 21
-31.8395293555
 31
0.0
  0
LINE
  5
156
330
1F
100
AcDbEntity
  8
SK3
  6
SLD-Dashed
370
    18
100
AcDbLine
 10
16.2150933067
 20
-31.8395293555
 30
0.0
 11
15.8271954557
 21
-31.4480844745
 31
0.0
  0
LINE
  5
157
330
1F
100
AcDbEntity
  8
SK3
  6
SLD-Dashed
370
    18
100
AcDbLine
 10
15.8271954557
 20
-31.4480844745
 30
0.0
 11
15.4172093259
 21
-30.9691494691
 31
0.0
  0
LINE
  5
158
330
1F
100
AcDbEntity
  8
SK3
  6
SLD-Dashed
370
    18
100
AcDbLine
 10
15.4172093259
 20
-30.9691494691
 30
0.0
 11
15.0155417131
 21
-30.4382447577
 31
0.0
  0
LINE
  5
159
330
1F
100
AcDbEntity
  8
SK3
  6
SLD-Dashed
370
    18
100
AcDbLine
 10
15.0155417131
 20
-30.4382447577
 30
0.0
 11
14.6519824665
 21
-29.894745114
 31
0.0
  0
LINE
  5
15A
330
1F
100
AcDbEntity
  8
SK3
  6
SLD-Dashed
370
    18
100
AcDbLine
 10
14.6519824665
 20
-29.894745114
 30
0.0
 11
14.3534951125
 21
-29.3789594202
 31
0.0
  0
LINE
  5
15B
330
1F
100
AcDbEntity
  8
SK3
  6
SLD-Dashed
370
    18
100
AcDbLine
 10
14.3534951125
 20
-29.3789594202
 30
0.0
 11
14.1422170924
 21
-28.9291411417
 31
0.0
  0
LINE
  5
15C
330
1F
100
AcDbEntity
  8
SK3
  6
SLD-Dashed
370
    18
100
AcDbLine
 10
14.1422170924
 20
-28.9291411417
 30
0.0
 11
14.0338179305
 21
-28.5786512424
 31
0.0
  0
LINE
  5
15D
330
1F
100
AcDbEntity
  8
SK3
  6
SLD-Dashed
370
    18
100
AcDbLine
 10
14.0338179305
 20
-28.5786512424
 30
0.0
 11
14.0363370967
 21
-28.3534839547
 31
0.0
  0
LINE
  5
15E
330
1F
100
AcDbEntity
  8
SK3
  6
SLD-Dashed
370
    18
100
AcDbLine
 10
14.0363370967
 20
-28.3534839547
 30
0.0
 11
14.1495877561
 21
-28.2703389063
 31
0.0
  0
LINE
  5
15F
330
1F
100
AcDbEntity
  8
SK3
  6
SLD-Dashed
370
    18
100
AcDbLine
 10
14.1495877561
 20
-28.2703389063
 30
0.0
 11
14.3651706253
 21
-28.3353825851
 31
0.0
  0
LINE
  5
160
330
1F
100
AcDbEntity
  8
SK3
  6
SLD-Dashed
370
    18
100
AcDbLine
 10
14.3651706253
 20
-28.3353825851
 30
0.0
 11
14.6670969091
 21
-28.543790999
 31
0.0
  0
LINE
  5
161
330
1F
100
AcDbEntity
  8
SK3
  6
SLD-Dashed
370
    18
100
AcDbLine
 10
14.6670969091
 20
-28.543790999
 30
0.0
 11
15.0329741163
 21
-28.8801074493
 31
0.0
  0
LINE
  5
162
330
1F
100
AcDbEntity
  8
SK3
  6
SLD-Dashed
370
    18
100
AcDbLine
 10
15.0329741163
 20
-28.8801074493
 30
0.0
 11
15.4356668082
 21
-29.3193888835
 31
0.0
  0
LINE
  5
163
330
1F
100
AcDbEntity
  8
SK3
  6
SLD-Dashed
370
    18
100
AcDbLine
 10
15.4356668082
 20
-29.3193888835
 30
0.0
 11
15.84530911
 21
-29.8290558071
 31
0.0
  0
LINE
  5
164
330
1F
100
AcDbEntity
  8
SK3
  6
SLD-Dashed
370
    18
100
AcDbLine
 10
15.84530911
 20
-29.8290558071
 30
0.0
 11
16.2315197262
 21
-30.371308556
 31
0.0
  0
LINE
  5
165
330
1F
100
AcDbEntity
  8
SK3
  6
SLD-Dashed
370
    18
100
AcDbLine
 10
16.2315197262
 20
-30.371308556
 30
0.0
 11
16.5656551822
 21
-30.9059307245
 31
0.0
  0
LINE
  5
166
330
1F
100
AcDbEntity
  8
SK3
  6
SLD-Dashed
370
    18
100
AcDbLine
 10
16.5656551822
 20
-30.9059307245
 30
0.0
 11
16.8229341797
 21
-31.393271832
 31
0.0
  0
LINE
  5
167
330
1F
100
AcDbEntity
  8
SK3
  6
SLD-Dashed
370
    18
100
AcDbLine
 10
16.8229341797
 20
-31.393271832
 30
0.0
 11
16.9842755126
 21
-31.7971880181
 31
0.0
  0
LINE
  5
168
330
1F
100
AcDbEntity
  8
SK3
  6
SLD-Dashed
370
    18
100
AcDbLine
 10
16.9842755126
 20
-31.7971880181
 30
0.0
 11
17.0377132322
 21
-32.087722667
 31
0.0
  0
LINE
  5
169
330
1F
100
AcDbEntity
  8
SK3
  6
SLD-Dashed
370
    18
100
AcDbLine
 10
17.0377132322
 20
-32.087722667
 30
0.0
 11
16.9792841073
 21
-32.2433281529
 31
0.0
  0
LINE
  5
16A
330
1F
100
AcDbEntity
  8
SK3
  6
SLD-Dashed
370
    18
100
AcDbLine
 10
6.1835367829
 20
-40.1692240231
 30
0.0
 11
6.0175742345
 21
-40.178359799
 31
0.0
  0
LINE
  5
16B
330
1F
100
AcDbEntity
  8
SK3
  6
SLD-Dashed
370
    18
100
AcDbLine
 10
6.0175742345
 20
-40.178359799
 30
0.0
 11
5.7563869455
 21
-40.0403483061
 31
0.0
  0
LINE
  5
16C
330
1F
100
AcDbEntity
  8
SK3
  6
SLD-Dashed
370
    18
100
AcDbLine
 10
5.7563869455
 20
-40.0403483061
 30
0.0
 11
5.4193459823
 21
-39.7654252256
 31
0.0
  0
LINE
  5
16D
330
1F
100
AcDbEntity
  8
SK3
  6
SLD-Dashed
370
    18
100
AcDbLine
 10
5.4193459823
 20
-39.7654252256
 30
0.0
 11
5.0314481312
 21
-39.3739803447
 31
0.0
  0
LINE
  5
16E
330
1F
100
AcDbEntity
  8
SK3
  6
SLD-Dashed
370
    18
100
AcDbLine
 10
5.0314481312
 20
-39.3739803447
 30
0.0
 11
4.6214620015
 21
-38.8950453393
 31
0.0
  0
LINE
  5
16F
330
1F
100
AcDbEntity
  8
SK3
  6
SLD-Dashed
370
    18
100
AcDbLine
 10
4.6214620015
 20
-38.8950453393
 30
0.0
 11
4.2197943887
 21
-38.3641406279
 31
0.0
  0
LINE
  5
170
330
1F
100
AcDbEntity
  8
SK3
  6
SLD-Dashed
370
    18
100
AcDbLine
 10
4.2197943887
 20
-38.3641406279
 30
0.0
 11
3.8562351421
 21
-37.8206409842
 31
0.0
  0
LINE
  5
171
330
1F
100
AcDbEntity
  8
SK3
  6
SLD-Dashed
370
    18
100
AcDbLine
 10
3.8562351421
 20
-37.8206409842
 30
0.0
 11
3.557747788
 21
-37.3048552904
 31
0.0
  0
LINE
  5
172
330
1F
100
AcDbEntity
  8
SK3
  6
SLD-Dashed
370
    18
100
AcDbLine
 10
3.557747788
 20
-37.3048552904
 30
0.0
 11
3.3464697679
 21
-36.8550370119
 31
0.0
  0
LINE
  5
173
330
1F
100
AcDbEntity
  8
SK3
  6
SLD-Dashed
370
    18
100
AcDbLine
 10
3.3464697679
 20
-36.8550370119
 30
0.0
 11
3.2380706061
 21
-36.5045471125
 31
0.0
  0
LINE
  5
174
330
1F
100
AcDbEntity
  8
SK3
  6
SLD-Dashed
370
    18
100
AcDbLine
 10
3.2380706061
 20
-36.5045471125
 30
0.0
 11
3.2405897723
 21
-36.2793798248
 31
0.0
  0
LINE
  5
175
330
1F
100
AcDbEntity
  8
SK3
  6
SLD-Dashed
370
    18
100
AcDbLine
 10
3.2405897723
 20
-36.2793798248
 30
0.0
 11
3.3538404317
 21
-36.1962347765
 31
0.0
  0
LINE
  5
176
330
1F
100
AcDbEntity
  8
SK3
  6
SLD-Dashed
370
    18
100
AcDbLine
 10
3.3538404317
 20
-36.1962347765
 30
0.0
 11
3.5694233009
 21
-36.2612784553
 31
0.0
  0
LINE
  5
177
330
1F
100
AcDbEntity
  8
SK3
  6
SLD-Dashed
370
    18
100
AcDbLine
 10
3.5694233009
 20
-36.2612784553
 30
0.0
 11
3.8713495847
 21
-36.4696868691
 31
0.0
  0
LINE
  5
178
330
1F
100
AcDbEntity
  8
SK3
  6
SLD-Dashed
370
    18
100
AcDbLine
 10
3.8713495847
 20
-36.4696868691
 30
0.0
 11
4.2372267919
 21
-36.8060033194
 31
0.0
  0
LINE
  5
179
330
1F
100
AcDbEntity
  8
SK3
  6
SLD-Dashed
370
    18
100
AcDbLine
 10
4.2372267919
 20
-36.8060033194
 30
0.0
 11
4.6399194838
 21
-37.2452847536
 31
0.0
  0
LINE
  5
17A
330
1F
100
AcDbEntity
  8
SK3
  6
SLD-Dashed
370
    18
100
AcDbLine
 10
4.6399194838
 20
-37.2452847536
 30
0.0
 11
5.0495617856
 21
-37.7549516772
 31
0.0
  0
LINE
  5
17B
330
1F
100
AcDbEntity
  8
SK3
  6
SLD-Dashed
370
    18
100
AcDbLine
 10
5.0495617856
 20
-37.7549516772
 30
0.0
 11
5.4357724018
 21
-38.2972044261
 31
0.0
  0
LINE
  5
17C
330
1F
100
AcDbEntity
  8
SK3
  6
SLD-Dashed
370
    18
100
AcDbLine
 10
5.4357724018
 20
-38.2972044261
 30
0.0
 11
5.7699078577
 21
-38.8318265946
 31
0.0
  0
LINE
  5
17D
330
1F
100
AcDbEntity
  8
SK3
  6
SLD-Dashed
370
    18
100
AcDbLine
 10
5.7699078577
 20
-38.8318265946
 30
0.0
 11
6.0271868553
 21
-39.3191677021
 31
0.0
  0
LINE
  5
17E
330
1F
100
AcDbEntity
  8
SK3
  6
SLD-Dashed
370
    18
100
AcDbLine
 10
6.0271868553
 20
-39.3191677021
 30
0.0
 11
6.1885281882
 21
-39.7230838882
 31
0.0
  0
LINE
  5
17F
330
1F
100
AcDbEntity
  8
SK3
  6
SLD-Dashed
370
    18
100
AcDbLine
 10
6.1885281882
 20
-39.7230838882
 30
0.0
 11
6.2419659078
 21
-40.0136185371
 31
0.0
  0
LINE
  5
180
330
1F
100
AcDbEntity
  8
SK3
  6
SLD-Dashed
370
    18
100
AcDbLine
 10
6.2419659078
 20
-40.0136185371
 30
0.0
 11
6.1835367829
 21
-40.1692240231
 31
0.0
  0
LINE
  5
181
330
1F
100
AcDbEntity
  8
SK3
  6
SLD-Dashed
370
    18
100
AcDbLine
 10
11.1
 20
-39.8624815174
 30
0.0
 11
10.5642458758
 21
-39.8930586487
 31
0.0
  0
LINE
  5
182
330
1F
100
AcDbEntity
  8
SK3
  6
SLD-Dashed
370
    18
100
AcDbLine
 10
10.5642458758
 20
-39.8930586487
 30
0.0
 11
10.0865490241
 21
-39.9814765361
 31
0.0
  0
LINE
  5
183
330
1F
100
AcDbEntity
  8
SK3
  6
SLD-Dashed
370
    18
100
AcDbLine
 10
10.0865490241
 20
-39.9814765361
 30
0.0
 11
9.7186753109
 21
-40.1181537296
 31
0.0
  0
LINE
  5
184
330
1F
100
AcDbEntity
  8
SK3
  6
SLD-Dashed
370
    18
100
AcDbLine
 10
9.7186753109
 20
-40.1181537296
 30
0.0
 11
9.5004895612
 21
-40.2882791344
 31
0.0
  0
LINE
  5
185
330
1F
100
AcDbEntity
  8
SK3
  6
SLD-Dashed
370
    18
100
AcDbLine
 10
9.5004895612
 20
-40.2882791344
 30
0.0
 11
9.4556355865
 21
-40.4734170231
 31
0.0
  0
LINE
  5
186
330
1F
100
AcDbEntity
  8
SK3
  6
SLD-Dashed
370
    18
100
AcDbLine
 10
9.4556355865
 20
-40.4734170231
 30
0.0
 11
9.588974011
 21
-40.6535048329
 31
0.0
  0
LINE
  5
187
330
1F
100
AcDbEntity
  8
SK3
  6
SLD-Dashed
370
    18
100
AcDbLine
 10
9.588974011
 20
-40.6535048329
 30
0.0
 11
9.8860555474
 21
-40.8090272552
 31
0.0
  0
LINE
  5
188
330
1F
100
AcDbEntity
  8
SK3
  6
SLD-Dashed
370
    18
100
AcDbLine
 10
9.8860555474
 20
-40.8090272552
 30
0.0
 11
10.3146868015
 21
-40.9231310223
 31
0.0
  0
LINE
  5
189
330
1F
100
AcDbEntity
  8
SK3
  6
SLD-Dashed
370
    18
100
AcDbLine
 10
10.3146868015
 20
-40.9231310223
 30
0.0
 11
10.828418926
 21
-40.9834512205
 31
0.0
  0
LINE
  5
18A
330
1F
100
AcDbEntity
  8
SK3
  6
SLD-Dashed
370
    18
100
AcDbLine
 10
10.828418926
 20
-40.9834512205
 30
0.0
 11
11.371581074
 21
-40.9834512205
 31
0.0
  0
LINE
  5
18B
330
1F
100
AcDbEntity
  8
SK3
  6
SLD-Dashed
370
    18
100
AcDbLine
 10
11.371581074
 20
-40.9834512205
 30
0.0
 11
11.8853131985
 21
-40.9231310223
 31
0.0
  0
LINE
  5
18C
330
1F
100
AcDbEntity
  8
SK3
  6
SLD-Dashed
370
    18
100
AcDbLine
 10
11.8853131985
 20
-40.9231310223
 30
0.0
 11
12.3139444526
 21
-40.8090272552
 31
0.0
  0
LINE
  5
18D
330
1F
100
AcDbEntity
  8
SK3
  6
SLD-Dashed
370
    18
100
AcDbLine
 10
12.3139444526
 20
-40.8090272552
 30
0.0
 11
12.611025989
 21
-40.6535048329
 31
0.0
  0
LINE
  5
18E
330
1F
100
AcDbEntity
  8
SK3
  6
SLD-Dashed
370
    18
100
AcDbLine
 10
12.611025989
 20
-40.6535048329
 30
0.0
 11
12.7443644135
 21
-40.4734170231
 31
0.0
  0
LINE
  5
18F
330
1F
100
AcDbEntity
  8
SK3
  6
SLD-Dashed
370
    18
100
AcDbLine
 10
12.7443644135
 20
-40.4734170231
 30
0.0
 11
12.6995104388
 21
-40.2882791344
 31
0.0
  0
LINE
  5
190
330
1F
100
AcDbEntity
  8
SK3
  6
SLD-Dashed
370
    18
100
AcDbLine
 10
12.6995104388
 20
-40.2882791344
 30
0.0
 11
12.4813246891
 21
-40.1181537296
 31
0.0
  0
LINE
  5
191
330
1F
100
AcDbEntity
  8
SK3
  6
SLD-Dashed
370
    18
100
AcDbLine
 10
12.4813246891
 20
-40.1181537296
 30
0.0
 11
12.1134509759
 21
-39.9814765361
 31
0.0
  0
LINE
  5
192
330
1F
100
AcDbEntity
  8
SK3
  6
SLD-Dashed
370
    18
100
AcDbLine
 10
12.1134509759
 20
-39.9814765361
 30
0.0
 11
11.6357541242
 21
-39.8930586487
 31
0.0
  0
LINE
  5
193
330
1F
100
AcDbEntity
  8
SK3
  6
SLD-Dashed
370
    18
100
AcDbLine
 10
11.6357541242
 20
-39.8930586487
 30
0.0
 11
11.1
 21
-39.8624815174
 31
0.0
  0
LINE
  5
194
330
1F
100
AcDbEntity
  8
SK3
  6
SLD-Dashed
370
    18
100
AcDbLine
 10
6.2723069743
 20
-40.2901366077
 30
0.0
 11
6.1056572614
 21
-40.3025803013
 31
0.0
  0
LINE
  5
195
330
1F
100
AcDbEntity
  8
SK3
  6
SLD-Dashed
370
    18
100
AcDbLine
 10
6.1056572614
 20
-40.3025803013
 30
0.0
 11
5.8455057258
 21
-40.1713494354
 31
0.0
  0
LINE
  5
196
330
1F
100
AcDbEntity
  8
SK3
  6
SLD-Dashed
370
    18
100
AcDbLine
 10
5.8455057258
 20
-40.1713494354
 30
0.0
 11
5.5095812647
 21
-39.9053871766
 31
0.0
  0
LINE
  5
197
330
1F
100
AcDbEntity
  8
SK3
  6
SLD-Dashed
370
    18
100
AcDbLine
 10
5.5095812647
 20
-39.9053871766
 30
0.0
 11
5.1207765751
 21
-39.5228184133
 31
0.0
  0
LINE
  5
198
330
1F
100
AcDbEntity
  8
SK3
  6
SLD-Dashed
370
    18
100
AcDbLine
 10
5.1207765751
 20
-39.5228184133
 30
0.0
 11
4.705588054
 21
-39.0497145746
 31
0.0
  0
LINE
  5
199
330
1F
100
AcDbEntity
  8
SK3
  6
SLD-Dashed
370
    18
100
AcDbLine
 10
4.705588054
 20
-39.0497145746
 30
0.0
 11
4.292310113
 21
-38.5183169052
 31
0.0
  0
LINE
  5
19A
330
1F
100
AcDbEntity
  8
SK3
  6
SLD-Dashed
370
    18
100
AcDbLine
 10
4.292310113
 20
-38.5183169052
 30
0.0
 11
3.9091069607
 21
-37.9648392782
 31
0.0
  0
LINE
  5
19B
330
1F
100
AcDbEntity
  8
SK3
  6
SLD-Dashed
370
    18
100
AcDbLine
 10
3.9091069607
 20
-37.9648392782
 30
0.0
 11
3.5820932588
 21
-37.427000279
 31
0.0
  0
LINE
  5
19C
330
1F
100
AcDbEntity
  8
SK3
  6
SLD-Dashed
370
    18
100
AcDbLine
 10
3.5820932588
 20
-37.427000279
 30
0.0
 11
3.3335544506
 21
-36.9414527468
 31
0.0
  0
LINE
  5
19D
330
1F
100
AcDbEntity
  8
SK3
  6
SLD-Dashed
370
    18
100
AcDbLine
 10
3.3335544506
 20
-36.9414527468
 30
0.0
 11
3.1804280451
 21
-36.5412859433
 31
0.0
  0
LINE
  5
19E
330
1F
100
AcDbEntity
  8
SK3
  6
SLD-Dashed
370
    18
100
AcDbLine
 10
3.1804280451
 20
-36.5412859433
 30
0.0
 11
3.1331493539
 21
-36.253770575
 31
0.0
  0
LINE
  5
19F
330
1F
100
AcDbEntity
  8
SK3
  6
SLD-Dashed
370
    18
100
AcDbLine
 10
3.1331493539
 20
-36.253770575
 30
0.0
 11
3.1949403416
 21
-36.0985003391
 31
0.0
  0
LINE
  5
1A0
330
1F
100
AcDbEntity
  8
SK3
  6
SLD-Dashed
370
    18
100
AcDbLine
 10
3.1949403416
 20
-36.0985003391
 30
0.0
 11
3.3615900545
 21
-36.0860566456
 31
0.0
  0
LINE
  5
1A1
330
1F
100
AcDbEntity
  8
SK3
  6
SLD-Dashed
370
    18
100
AcDbLine
 10
3.3615900545
 20
-36.0860566456
 30
0.0
 11
3.6217415901
 21
-36.2172875115
 31
0.0
  0
LINE
  5
1A2
330
1F
100
AcDbEntity
  8
SK3
  6
SLD-Dashed
370
    18
100
AcDbLine
 10
3.6217415901
 20
-36.2172875115
 30
0.0
 11
3.9576660511
 21
-36.4832497703
 31
0.0
  0
LINE
  5
1A3
330
1F
100
AcDbEntity
  8
SK3
  6
SLD-Dashed
370
    18
100
AcDbLine
 10
3.9576660511
 20
-36.4832497703
 30
0.0
 11
4.3464707407
 21
-36.8658185335
 31
0.0
  0
LINE
  5
1A4
330
1F
100
AcDbEntity
  8
SK3
  6
SLD-Dashed
370
    18
100
AcDbLine
 10
4.3464707407
 20
-36.8658185335
 30
0.0
 11
4.7616592619
 21
-37.3389223722
 31
0.0
  0
LINE
  5
1A5
330
1F
100
AcDbEntity
  8
SK3
  6
SLD-Dashed
370
    18
100
AcDbLine
 10
4.7616592619
 20
-37.3389223722
 30
0.0
 11
5.1749372029
 21
-37.8703200416
 31
0.0
  0
LINE
  5
1A6
330
1F
100
AcDbEntity
  8
SK3
  6
SLD-Dashed
370
    18
100
AcDbLine
 10
5.1749372029
 20
-37.8703200416
 30
0.0
 11
5.5581403551
 21
-38.4237976687
 31
0.0
  0
LINE
  5
1A7
330
1F
100
AcDbEntity
  8
SK3
  6
SLD-Dashed
370
    18
100
AcDbLine
 10
5.5581403551
 20
-38.4237976687
 30
0.0
 11
5.8851540571
 21
-38.9616366678
 31
0.0
  0
LINE
  5
1A8
330
1F
100
AcDbEntity
  8
SK3
  6
SLD-Dashed
370
    18
100
AcDbLine
 10
5.8851540571
 20
-38.9616366678
 30
0.0
 11
6.1336928653
 21
-39.4471842001
 31
0.0
  0
LINE
  5
1A9
330
1F
100
AcDbEntity
  8
SK3
  6
SLD-Dashed
370
    18
100
AcDbLine
 10
6.1336928653
 20
-39.4471842001
 30
0.0
 11
6.2868192707
 21
-39.8473510035
 31
0.0
  0
LINE
  5
1AA
330
1F
100
AcDbEntity
  8
SK3
  6
SLD-Dashed
370
    18
100
AcDbLine
 10
6.2868192707
 20
-39.8473510035
 30
0.0
 11
6.3340979619
 21
-40.1348663718
 31
0.0
  0
LINE
  5
1AB
330
1F
100
AcDbEntity
  8
SK3
  6
SLD-Dashed
370
    18
100
AcDbLine
 10
6.3340979619
 20
-40.1348663718
 30
0.0
 11
6.2723069743
 21
-40.2901366077
 31
0.0
  0
LINE
  5
1AC
330
1F
100
AcDbEntity
  8
1
  6
SLD-Dashed
370
    18
100
AcDbLine
 10
25.1483347965
 20
-12.4023917117
 30
0.0
 11
26.1744030428
 21
-12.0617095306
 31
0.0
  0
LINE
  5
1AD
330
1F
100
AcDbEntity
  8
1
  6
SLD-Dashed
370
    18
100
AcDbLine
 10
26.1744030428
 20
-12.0617095306
 30
0.0
 11
27.1666918131
 21
-11.6370933767
 31
0.0
  0
LINE
  5
1AE
330
1F
100
AcDbEntity
  8
SK3
  6
SLD-Dashed
370
    18
100
AcDbLine
 10
115.0
 20
21.1547005384
 30
0.0
 11
113.0
 21
20.0
 31
0.0
  0
LINE
  5
1AF
330
1F
100
AcDbEntity
  8
SK3
  6
SLD-Dashed
370
    18
100
AcDbLine
 10
113.0
 20
-20.0
 30
0.0
 11
115.0
 21
-21.1547005384
 31
0.0
  0
LINE
  5
1B0
330
1F
100
AcDbEntity
  8
SK3
  6
SLD-Dashed
370
    18
100
AcDbLine
 10
44.75
 20
20.25
 30
0.0
 11
40.25
 21
20.25
 31
0.0
  0
LINE
  5
1B1
330
1F
100
AcDbEntity
  8
SK3
  6
SLD-Dashed
370
    18
100
AcDbLine
 10
40.25
 20
-20.25
 30
0.0
 11
44.025087683
 21
-20.25
 31
0.0
  0
LINE
  5
1B2
330
1F
100
AcDbEntity
  8
SK3
  6
SLD-Dashed
370
    18
100
AcDbLine
 10
113.0
 20
20.0
 30
0.0
 11
45.0
 21
20.0
 31
0.0
  0
LINE
  5
1B3
330
1F
100
AcDbEntity
  8
SK3
  6
SLD-Dashed
370
    18
100
AcDbLine
 10
94.0
 20
-20.0
 30
0.0
 11
113.0
 21
-20.0
 31
0.0
  0
LINE
  5
1B4
330
1F
100
AcDbEntity
  8
SK3
  6
SLD-Dashed
370
    18
100
AcDbLine
 10
61.9949732313
 20
-20.0
 30
0.0
 11
76.0173279202
 21
-20.0
 31
0.0
  0
LINE
  5
1B5
330
1F
100
AcDbEntity
  8
SK3
  6
SLD-Dashed
370
    18
100
AcDbLine
 10
9.1
 20
46.9644866781
 30
0.0
 11
9.1
 21
43.111859234
 31
0.0
  0
LINE
  5
1B6
330
1F
100
AcDbEntity
  8
SK3
  6
SLD-Dashed
370
    18
100
AcDbLine
 10
13.1
 20
43.111859234
 30
0.0
 11
13.1
 21
46.9636476284
 31
0.0
  0
LINE
  5
1B7
330
1F
100
AcDbEntity
  8
SK3
  6
SLD-Dashed
370
    18
100
AcDbLine
 10
9.5474833261
 20
42.680630019
 30
0.0
 11
9.819173744
 21
42.566209006
 31
0.0
  0
LINE
  5
1B8
330
1F
100
AcDbEntity
  8
SK3
  6
SLD-Dashed
370
    18
100
AcDbLine
 10
12.380826256
 20
42.566209006
 30
0.0
 11
12.6525166739
 21
42.680630019
 31
0.0
  0
LINE
  5
1B9
330
1F
100
AcDbEntity
  8
SK3
  6
SLD-Dashed
370
    18
100
AcDbLine
 10
9.45
 20
42.9219731084
 30
0.0
 11
9.45
 21
37.6466575959
 31
0.0
  0
LINE
  5
1BA
330
1F
100
AcDbEntity
  8
SK3
  6
SLD-Dashed
370
    18
100
AcDbLine
 10
12.75
 20
35.2292695596
 30
0.0
 11
12.75
 21
42.9219731084
 31
0.0
  0
LINE
  5
1BB
330
1F
100
AcDbEntity
  8
SK3
  6
SLD-Dashed
370
    18
100
AcDbLine
 10
3.0
 20
36.2416193657
 30
0.0
 11
3.1949403416
 21
36.0985003391
 31
0.0
  0
LINE
  5
1BC
330
1F
100
AcDbEntity
  8
SK3
  6
SLD-Dashed
370
    18
100
AcDbLine
 10
6.2723069743
 20
40.2901366077
 30
0.0
 11
3.0
 21
42.6925607803
 31
0.0
  0
LINE
  5
1BD
330
1F
100
AcDbEntity
  8
SK3
  6
SLD-Dashed
370
    18
100
AcDbLine
 10
12.6054093111
 20
29.3757168249
 30
0.0
 11
14.0794578574
 21
28.2935170536
 31
0.0
  0
LINE
  5
1BE
330
1F
100
AcDbEntity
  8
SK3
  6
SLD-Dashed
370
    18
100
AcDbLine
 10
3.2837105329
 20
36.2194129238
 30
0.0
 11
9.5991218742
 21
31.5828378759
 31
0.0
  0
LINE
  5
1BF
330
1F
100
AcDbEntity
  8
SK3
  6
SLD-Dashed
370
    18
100
AcDbLine
 10
9.6073492409
 20
37.6555693213
 30
0.0
 11
6.1835367829
 21
40.1692240231
 31
0.0
  0
LINE
  5
1C0
330
1F
100
AcDbEntity
  8
SK3
  6
SLD-Dashed
370
    18
100
AcDbLine
 10
16.9792841073
 20
32.2433281529
 30
0.0
 11
12.6024732478
 21
35.4566441072
 31
0.0
  0
LINE
  5
1C1
330
1F
100
AcDbEntity
  8
SK3
  6
SLD-Dashed
370
    18
100
AcDbLine
 10
-101.8
 20
-13.5178629711
 30
0.0
 11
-100.05
 21
-12.5075
 31
0.0
  0
LINE
  5
1C2
330
1F
100
AcDbEntity
  8
SK3
  6
SLD-Dashed
370
    18
100
AcDbLine
 10
-100.05
 20
12.5075
 30
0.0
 11
-101.8
 21
13.5178629711
 31
0.0
  0
LINE
  5
1C3
330
1F
100
AcDbEntity
  8
SK3
  6
SLD-Dashed
370
    18
100
AcDbLine
 10
14.3249003637
 20
28.3153293831
 30
0.0
 11
16.6894083239
 21
29.4167599163
 31
0.0
  0
LINE
  5
1C4
330
1F
100
AcDbEntity
  8
SK3
  6
SLD-Dashed
370
    18
100
AcDbLine
 10
16.6894083239
 20
29.4167599163
 30
0.0
 11
17.0319937976
 21
32.0026219208
 31
0.0
  0
LINE
  5
1C5
330
1F
100
AcDbEntity
  8
SK3
  6
SLD-Dashed
370
    18
100
AcDbLine
 10
9.45
 20
31.8109690343
 30
0.0
 11
9.45
 21
9.8663980169
 31
0.0
  0
LINE
  5
1C6
330
1F
100
AcDbEntity
  8
SK3
  6
SLD-Dashed
370
    18
100
AcDbLine
 10
12.75
 20
9.8637305233
 30
0.0
 11
12.75
 21
29.3998867967
 31
0.0
  0
LINE
  5
1C7
330
1F
100
AcDbEntity
  8
SK3
  6
SLD-Dashed
370
    18
100
AcDbLine
 10
-88.55
 20
12.75
 30
0.0
 11
-91.55
 21
12.75
 31
0.0
  0
LINE
  5
1C8
330
1F
100
AcDbEntity
  8
SK3
  6
SLD-Dashed
370
    18
100
AcDbLine
 10
-91.55
 20
-12.75
 30
0.0
 11
-88.55
 21
-12.75
 31
0.0
  0
LINE
  5
1C9
330
1F
100
AcDbEntity
  8
SK3
  6
SLD-Dashed
370
    18
100
AcDbLine
 10
-91.55
 20
12.75
 30
0.0
 11
-91.9700223208
 21
12.5075
 31
0.0
  0
LINE
  5
1CA
330
1F
100
AcDbEntity
  8
SK3
  6
SLD-Dashed
370
    18
100
AcDbLine
 10
-91.9700223208
 20
-12.5075
 30
0.0
 11
-91.55
 21
-12.75
 31
0.0
  0
LINE
  5
1CB
330
1F
100
AcDbEntity
  8
SK3
  6
SLD-Dashed
370
    18
100
AcDbLine
 10
-88.55
 20
-12.75
 30
0.0
 11
-87.2509618943
 21
-10.5
 31
0.0
  0
LINE
  5
1CC
330
1F
100
AcDbEntity
  8
SK3
  6
SLD-Dashed
370
    18
100
AcDbLine
 10
-87.2509618943
 20
10.5
 30
0.0
 11
-88.55
 21
12.75
 31
0.0
  0
LINE
  5
1CD
330
1F
100
AcDbEntity
  8
SK3
  6
SLD-Dashed
370
    18
100
AcDbLine
 10
-91.9700223208
 20
12.5075
 30
0.0
 11
-100.05
 21
12.5075
 31
0.0
  0
LINE
  5
1CE
330
1F
100
AcDbEntity
  8
SK3
  6
SLD-Dashed
370
    18
100
AcDbLine
 10
-100.05
 20
-12.5075
 30
0.0
 11
-91.9700223208
 21
-12.5075
 31
0.0
  0
LINE
  5
1CF
330
1F
100
AcDbEntity
  8
SK3
  6
SLD-Dashed
370
    18
100
AcDbLine
 10
96.1
 20
-39.0
 30
0.0
 11
96.1
 21
-36.8
 31
0.0
  0
LINE
  5
1D0
330
1F
100
AcDbEntity
  8
SK3
  6
SLD-Dashed
370
    18
100
AcDbLine
 10
73.9
 20
-36.8
 30
0.0
 11
73.9
 21
-39.0
 31
0.0
  0
LINE
  5
1D1
330
1F
100
AcDbEntity
  8
SK3
  6
SLD-Dashed
370
    18
100
AcDbLine
 10
64.1
 20
-39.0
 30
0.0
 11
64.1
 21
-36.8
 31
0.0
  0
LINE
  5
1D2
330
1F
100
AcDbEntity
  8
SK3
  6
SLD-Dashed
370
    18
100
AcDbLine
 10
41.9
 20
-36.8
 30
0.0
 11
41.9
 21
-39.0
 31
0.0
  0
LINE
  5
1D3
330
1F
100
AcDbEntity
  8
SK3
  6
SLD-Dashed
370
    18
100
AcDbLine
 10
-87.2509618943
 20
-10.5
 30
0.0
 11
-38.8
 21
-10.5
 31
0.0
  0
LINE
  5
1D4
330
1F
100
AcDbEntity
  8
SK3
  6
SLD-Dashed
370
    18
100
AcDbLine
 10
-38.8
 20
10.5
 30
0.0
 11
-87.2509618943
 21
10.5
 31
0.0
  0
LINE
  5
1D5
330
1F
100
AcDbEntity
  8
SK3
  6
SLD-Dashed
370
    18
100
AcDbLine
 10
-38.799969957
 20
-10.49995
 30
0.0
 11
40.0
 21
-10.49995
 31
0.0
  0
LINE
  5
1D6
330
1F
100
AcDbEntity
  8
SK3
  6
SLD-Dashed
370
    18
100
AcDbLine
 10
40.0
 20
10.49995
 30
0.0
 11
-38.799969957
 21
10.49995
 31
0.0
  0
LINE
  5
1D7
330
1F
100
AcDbEntity
  8
SK3
  6
SLD-Dashed
370
    18
100
AcDbLine
 10
94.0
 20
-36.8
 30
0.0
 11
94.0
 21
-20.0
 31
0.0
  0
LINE
  5
1D8
330
1F
100
AcDbEntity
  8
SK3
  6
SLD-Dashed
370
    18
100
AcDbLine
 10
76.0
 20
-19.9922084306
 30
0.0
 11
76.0
 21
-36.8
 31
0.0
  0
LINE
  5
1D9
330
1F
100
AcDbEntity
  8
SK3
  6
SLD-Dashed
370
    18
100
AcDbLine
 10
62.0
 20
-36.8
 30
0.0
 11
62.0
 21
-19.9977559437
 31
0.0
  0
LINE
  5
1DA
330
1F
100
AcDbEntity
  8
SK3
  6
SLD-Dashed
370
    18
100
AcDbLine
 10
44.0
 20
-20.2388702692
 30
0.0
 11
44.0
 21
-36.8
 31
0.0
  0
LINE
  5
1DB
330
1F
100
AcDbEntity
  8
SK3
  6
SLD-Dashed
370
    18
100
AcDbLine
 10
9.45
 20
-9.8637305233
 30
0.0
 11
9.45
 21
-31.8102711461
 31
0.0
  0
LINE
  5
1DC
330
1F
100
AcDbEntity
  8
SK3
  6
SLD-Dashed
370
    18
100
AcDbLine
 10
12.75
 20
-29.3998151041
 30
0.0
 11
12.75
 21
-9.8663980169
 31
0.0
  0
LINE
  5
1DD
330
1F
100
AcDbEntity
  8
SK3
  6
SLD-Dashed
370
    18
100
AcDbLine
 10
17.0319937976
 20
-32.0026219208
 30
0.0
 11
16.6894083239
 21
-29.4167599163
 31
0.0
  0
LINE
  5
1DE
330
1F
100
AcDbEntity
  8
SK3
  6
SLD-Dashed
370
    18
100
AcDbLine
 10
16.6894083239
 20
-29.4167599163
 30
0.0
 11
14.3249003637
 21
-28.3153293831
 31
0.0
  0
LINE
  5
1DF
330
1F
100
AcDbEntity
  8
SK3
  6
SLD-Dashed
370
    18
100
AcDbLine
 10
12.6054093111
 20
-35.4544885425
 30
0.0
 11
16.9792841073
 21
-32.2433281529
 31
0.0
  0
LINE
  5
1E0
330
1F
100
AcDbEntity
  8
SK3
  6
SLD-Dashed
370
    18
100
AcDbLine
 10
6.1835367829
 20
-40.1692240231
 30
0.0
 11
9.595714242
 21
-37.6641113691
 31
0.0
  0
LINE
  5
1E1
330
1F
100
AcDbEntity
  8
SK3
  6
SLD-Dashed
370
    18
100
AcDbLine
 10
9.5950152182
 20
-31.5858528527
 30
0.0
 11
3.2837105329
 21
-36.2194129238
 31
0.0
  0
LINE
  5
1E2
330
1F
100
AcDbEntity
  8
SK3
  6
SLD-Dashed
370
    18
100
AcDbLine
 10
14.0794578574
 20
-28.2935170536
 30
0.0
 11
12.6050928918
 21
-29.37594913
 31
0.0
  0
LINE
  5
1E3
330
1F
100
AcDbEntity
  8
SK3
  6
SLD-Dashed
370
    18
100
AcDbLine
 10
9.45
 20
-37.6463211517
 30
0.0
 11
9.45
 21
-40.4268147538
 31
0.0
  0
LINE
  5
1E4
330
1F
100
AcDbEntity
  8
SK3
  6
SLD-Dashed
370
    18
100
AcDbLine
 10
12.75
 20
-40.4268147538
 30
0.0
 11
12.75
 21
-35.2304163594
 31
0.0
  0
LINE
  5
1E5
330
1F
100
AcDbEntity
  8
SK3
  6
SLD-Dashed
370
    18
100
AcDbLine
 10
3.0
 20
-42.6925607803
 30
0.0
 11
6.2723069743
 21
-40.2901366077
 31
0.0
  0
LINE
  5
1E6
330
1F
100
AcDbEntity
  8
SK3
  6
SLD-Dashed
370
    18
100
AcDbLine
 10
3.1949403416
 20
-36.0985003391
 30
0.0
 11
3.0
 21
-36.2416193657
 31
0.0
  0
LINE
  5
1E7
330
1F
100
AcDbEntity
  8
SK3
  6
SLD-Dashed
370
    18
100
AcDbLine
 10
9.7871669195
 20
-40.7686585921
 30
0.0
 11
11.1
 21
-41.3584448321
 31
0.0
  0
LINE
  5
1E8
330
1F
100
AcDbEntity
  8
SK3
  6
SLD-Dashed
370
    18
100
AcDbLine
 10
11.1
 20
-41.3584448321
 30
0.0
 11
12.4128330805
 21
-40.7686585921
 31
0.0
  0
LINE
  5
1E9
330
1F
100
AcDbEntity
  8
SK3
  6
SLD-Solid
370
    18
100
AcDbLine
 10
-88.1169872981
 20
12.0
 30
0.0
 11
-55.8
 21
12.0
 31
0.0
  0
LINE
  5
1EA
330
1F
100
AcDbEntity
  8
SK3
  6
SLD-Solid
370
    18
100
AcDbLine
 10
-88.1169872981
 20
-12.0
 30
0.0
 11
-55.8
 21
-12.0
 31
0.0
  0
LINE
  5
1EB
330
1F
100
AcDbEntity
  8
SK3
  6
SLD-Dashed
370
    18
100
AcDbLine
 10
-55.8
 20
-12.0
 30
0.0
 11
-55.8
 21
12.0
 31
0.0
  0
LINE
  5
1EC
330
1F
100
AcDbEntity
  8
SK3
  6
SLD-Solid
370
    18
100
AcDbLine
 10
43.0
 20
-36.8
 30
0.0
 11
43.0
 21
-20.25
 31
0.0
  0
LINE
  5
1ED
330
1F
100
AcDbEntity
  8
SK3
  6
SLD-Solid
370
    18
100
AcDbLine
 10
63.0
 20
-36.8
 30
0.0
 11
63.0
 21
-20.0
 31
0.0
  0
LINE
  5
1EE
330
1F
100
AcDbEntity
  8
SK3
  6
SLD-Solid
370
    18
100
AcDbLine
 10
75.0
 20
-36.8
 30
0.0
 11
75.0
 21
-20.0
 31
0.0
  0
LINE
  5
1EF
330
1F
100
AcDbEntity
  8
SK3
  6
SLD-Solid
370
    18
100
AcDbLine
 10
95.0
 20
-36.8
 30
0.0
 11
95.0
 21
-20.0
 31
0.0
  0
LINE
  5
1F0
330
1F
100
AcDbEntity
  8
4
  6
SLD-Center
370
    18
100
AcDbLine
 10
117.0
 20
0.0
 30
0.0
 11
0.5991781708
 21
0.0
 31
0.0
  0
LINE
  5
1F1
330
1F
100
AcDbEntity
  8
4
  6
SLD-Center
370
    18
100
AcDbLine
 10
85.0
 20
-38.8
 30
0.0
 11
85.0
 21
-18.0
 31
0.0
  0
LINE
  5
1F2
330
1F
100
AcDbEntity
  8
4
  6
SLD-Center
370
    18
100
AcDbLine
 10
53.0
 20
-18.125
 30
0.0
 11
53.0
 21
-38.8
 31
0.0
  0
LINE
  5
1F3
330
1F
100
AcDbEntity
  8
SK4
  6
SLD-Center
370
    18
100
AcDbLine
 10
116.9708887702
 20
0.0
 30
0.0
 11
-105.3333054483
 21
0.0
 31
0.0
  0
ARC
  5
1F4
330
1F
100
AcDbEntity
  8
1
  6
SLD-Solid
370
    25
100
AcDbCircle
 10
37.2499999933
 20
-49.2286823243
 30
0.0
 40
0.75
100
AcDbArc
 50
270.0
 51
0.0
  0
ARC
  5
1F5
330
1F
100
AcDbEntity
  8
1
  6
SLD-Solid
370
    25
100
AcDbCircle
 10
37.2499999933
 20
49.228682327
 30
0.0
 40
0.7500000000000001
100
AcDbArc
 50
0.0000002032
 51
89.99999905
  0
ARC
  5
1F6
330
1F
100
AcDbEntity
  8
1
  6
SLD-Solid
370
    25
100
AcDbCircle
 10
3.75
 20
-49.228682327
 30
0.0
 40
0.7500000000000009
100
AcDbArc
 50
180.0
 51
270.0
  0
ARC
  5
1F7
330
1F
100
AcDbEntity
  8
1
  6
SLD-Solid
370
    25
100
AcDbCircle
 10
3.75
 20
49.228682327
 30
0.0
 40
0.7500000000000009
100
AcDbArc
 50
90.0
 51
180.0
  0
ARC
  5
1F8
330
1F
100
AcDbEntity
  8
1
  6
SLD-Solid
370
    25
100
AcDbCircle
 10
41.0
 20
-42.0
 30
0.0
 40
3.0
100
AcDbArc
 50
90.0
 51
180.0
  0
ARC
  5
1F9
330
1F
100
AcDbEntity
  8
1
  6
SLD-Solid
370
    25
100
AcDbCircle
 10
41.0
 20
42.0
 30
0.0
 40
3.0
100
AcDbArc
 50
180.0
 51
270.0
  0
ARC
  5
1FA
330
1F
100
AcDbEntity
  8
1
  6
SLD-Solid
370
    25
100
AcDbCircle
 10
26.33
 20
42.875
 30
0.0
 40
0.3750000000000142
100
AcDbArc
 50
270.0
 51
0.0
  0
ARC
  5
1FB
330
1F
100
AcDbEntity
  8
1
  6
SLD-Solid
370
    25
100
AcDbCircle
 10
26.33
 20
-42.875
 30
0.0
 40
0.3750000000000142
100
AcDbArc
 50
0.0
 51
90.0
  0
ARC
  5
1FC
330
1F
100
AcDbEntity
  8
1
  6
SLD-Solid
370
    25
100
AcDbCircle
 10
20.08
 20
42.875
 30
0.0
 40
0.3750000000000391
100
AcDbArc
 50
180.0
 51
270.0
  0
ARC
  5
1FD
330
1F
100
AcDbEntity
  8
1
  6
SLD-Solid
370
    25
100
AcDbCircle
 10
20.08
 20
-42.875
 30
0.0
 40
0.3750000000000391
100
AcDbArc
 50
90.0
 51
180.0
  0
ARC
  5
1FE
330
1F
100
AcDbEntity
  8
1
  6
SLD-Solid
370
    25
100
AcDbCircle
 10
2.25
 20
35.5
 30
0.0
 40
0.7500000000000009
100
AcDbArc
 50
270.0
 51
0.0
  0
ARC
  5
1FF
330
1F
100
AcDbEntity
  8
1
  6
SLD-Solid
370
    25
100
AcDbCircle
 10
2.25
 20
-35.5
 30
0.0
 40
0.7500000000000009
100
AcDbArc
 50
0.0
 51
90.0
  0
ARC
  5
200
330
1F
100
AcDbEntity
  8
1
  6
SLD-Solid
370
    25
100
AcDbCircle
 10
0.7040707856
 20
35.5
 30
0.0
 40
0.7500000000000071
100
AcDbArc
 50
240.0
 51
270.0
  0
ARC
  5
201
330
1F
100
AcDbEntity
  8
1
  6
SLD-Solid
370
    25
100
AcDbCircle
 10
0.7040707856
 20
-35.5
 30
0.0
 40
0.7500000000000194
100
AcDbArc
 50
90.0
 51
120.0
  0
ARC
  5
202
330
1F
100
AcDbEntity
  8
SK1
  6
SLD-Solid
370
    25
100
AcDbCircle
 10
-100.8
 20
19.2132836634
 30
0.0
 40
1.000000000000012
100
AcDbArc
 50
98.2977777778
 51
180.0
  0
ARC
  5
203
330
1F
100
AcDbEntity
  8
SK1
  6
SLD-Solid
370
    25
100
AcDbCircle
 10
-100.8
 20
-19.2132836634
 30
0.0
 40
1.000000000000002
100
AcDbArc
 50
180.0
 51
261.7022222222
  0
ARC
  5
204
330
1F
100
AcDbEntity
  8
1
  6
SLD-Solid
370
    25
100
AcDbCircle
 10
85.0004463985
 20
-77.0356965316
 30
0.0
 40
39.62214407115695
100
AcDbArc
 50
73.7317314721
 51
106.2154110526
  0
CIRCLE
  5
205
330
1F
100
AcDbEntity
  8
1
  6
SLD-Solid
370
    25
100
AcDbCircle
 10
20.5
 20
0.0
 30
0.0
 40
4.999999999999979
  0
ARC
  5
206
330
1F
100
AcDbEntity
  8
SK3
  6
SLD-Dashed
370
    18
100
AcDbCircle
 10
-13.0340771489
 20
-3.8562104817
 30
0.0
 40
36.16935859829633
100
AcDbArc
 50
311.8553261018
 51
315.0647145104
  0
ARC
  5
207
330
1F
100
AcDbEntity
  8
1
  6
SLD-Dashed
370
    18
100
AcDbCircle
 10
21.6
 20
0.0
 30
0.0
 40
12.9
100
AcDbArc
 50
310.9621866974
 51
322.1594360256
  0
ARC
  5
208
330
1F
100
AcDbEntity
  8
1
  6
SLD-Dashed
370
    18
100
AcDbCircle
 10
21.6
 20
0.0
 30
0.0
 40
12.9
100
AcDbArc
 50
45.9342104706
 51
69.9001866496
  0
ARC
  5
209
330
1F
100
AcDbEntity
  8
SK3
  6
SLD-Dashed
370
    18
100
AcDbCircle
 10
40.25
 20
20.0
 30
0.0
 40
0.25
100
AcDbArc
 50
90.0
 51
180.0
  0
ARC
  5
20A
330
1F
100
AcDbEntity
  8
SK3
  6
SLD-Dashed
370
    18
100
AcDbCircle
 10
40.25
 20
-20.0
 30
0.0
 40
0.2500000000000071
100
AcDbArc
 50
180.0
 51
270.0
  0
ARC
  5
20B
330
1F
100
AcDbEntity
  8
SK3
  6
SLD-Dashed
370
    18
100
AcDbCircle
 10
44.75
 20
20.0
 30
0.0
 40
0.25
100
AcDbArc
 50
360.0
 51
90.0
  0
ARC
  5
20C
330
1F
100
AcDbEntity
  8
SK3
  6
SLD-Dashed
370
    18
100
AcDbCircle
 10
85.0
 20
44.15
 30
0.0
 40
12.50000000000001
100
AcDbArc
 50
204.3670869184
 51
335.6238643031
  0
ARC
  5
20D
330
1F
100
AcDbEntity
  8
SK3
  6
SLD-Dashed
370
    18
100
AcDbCircle
 10
53.0
 20
44.15
 30
0.0
 40
12.50000000000002
100
AcDbArc
 50
204.4128533116
 51
335.6667379956
  0
ARC
  5
20E
330
1F
100
AcDbEntity
  8
1
370
    25
100
AcDbCircle
 10
84.9803703166
 20
82.8052923209
 30
0.0
 40
45.26307745861917
100
AcDbArc
 50
255.4556574278
 51
284.5809191643
  0
ARC
  5
20F
330
1F
100
AcDbEntity
  8
1
370
    25
100
AcDbCircle
 10
53.0010441398
 20
82.8169132846
 30
0.0
 40
45.27325422213664
100
AcDbArc
 50
255.4642993949
 51
284.5692803957
  0
ARC
  5
210
330
1F
100
AcDbEntity
  8
1
370
    25
100
AcDbCircle
 10
53.0
 20
-76.1448918152
 30
0.0
 40
38.76793762842577
100
AcDbArc
 50
73.3622878858
 51
106.6377121142
  0
SPLINE
  5
211
330
1F
100
AcDbEntity
  8
1
  6
SLD-Solid
370
    25
100
AcDbSpline
210
0.0
220
0.0
230
1.0
 70
     8
 71
     3
 72
    31
 73
    27
 74
     0
 42
0.000000001
 43
0.00000001
 40
0.0
 40
0.0
 40
0.0
 40
0.0
 40
0.0156299919262081
 40
0.0312611152786608
 40
0.0469036958200385
 40
0.0625680366519801
 40
0.0936299720171298
 40
0.1247049179464533
 40
0.1558339923669052
 40
0.1869705556223911
 40
0.2497987770515931
 40
0.3121643376928171
 40
0.3743966664431188
 40
0.4372018282094901
 40
0.5000178682537288
 40
0.5624441380575671
 40
0.625206209638837
 40
0.6880556331759473
 40
0.75040227889127
 40
0.8129367420855246
 40
0.8442931371643932
 40
0.8756529736403065
 40
0.9067355150595049
 40
0.9377975042399352
 40
0.9689206191698585
 40
0.9999999999999999
 40
0.9999999999999999
 40
0.9999999999999999
 40
0.9999999999999999
 10
30.73000000571753
 20
10.30178929461888
 30
0.0
 10
30.81802134537233
 20
10.22015632907945
 30
0.0
 10
30.99407039638409
 20
10.056884488741
 30
0.0
 10
31.24994221856726
 20
9.803254608604464
 30
0.0
 10
31.49973199209751
 20
9.543289241804795
 30
0.0
 10
31.82233278154704
 20
9.189095771491573
 30
0.0
 10
32.20754148047007
 20
8.731716259257679
 30
0.0
 10
32.64038082701391
 20
8.15992907058774
 30
0.0
 10
33.04368278685089
 20
7.565647907045745
 30
0.0
 10
33.54253700989308
 20
6.741702230894889
 30
0.0
 10
34.08553770399449
 20
5.663359812700115
 30
0.0
 10
34.60000747093979
 20
4.307495301453162
 30
0.0
 10
34.97274499240298
 20
2.903179756704045
 30
0.0
 10
35.19930273774087
 20
1.462162433434402
 30
0.0
 10
35.2752115240632
 20
0.0026667713353135
 30
0.0
 10
35.19971876803028
 20
-1.456473360368651
 30
0.0
 10
34.97385380792754
 20
-2.899053879083485
 30
0.0
 10
34.60019116325159
 20
-4.307643948850331
 30
0.0
 10
34.0844514824243
 20
-5.665530632651613
 30
0.0
 10
33.54169256886357
 20
-6.743160098569678
 30
0.0
 10
33.04219515161784
 20
-7.568140719642901
 30
0.0
 10
32.63663444550554
 20
-8.165137557450693
 30
0.0
 10
32.20245486992203
 20
-8.738244579573056
 30
0.0
 10
31.74000865788377
 20
-9.285860440652154
 30
0.0
 10
31.251740389433
 20
-9.81060641527664
 30
0.0
 10
30.90383192133313
 20
-10.1381384211613
 30
0.0
 10
30.72999999317679
 20
-10.30178928147751
 30
0.0
  0
SPLINE
  5
212
330
1F
100
AcDbEntity
  8
1
  6
SLD-Solid
370
    25
100
AcDbSpline
210
0.0
220
0.0
230
1.0
 70
     8
 71
     3
 72
     9
 73
     5
 74
     0
 42
0.000000001
 43
0.00000001
 40
0.0
 40
0.0
 40
0.0
 40
0.0
 40
0.502463782689666
 40
1.0
 40
1.0
 40
1.0
 40
1.0
 10
30.72999999317679
 20
-10.30178928147751
 30
0.0
 10
30.64643751663466
 20
-10.18210438561979
 30
0.0
 10
30.48013204463668
 20
-9.943908320587921
 30
0.0
 10
30.31472976597097
 20
-9.704898026464816
 30
0.0
 10
30.2324361419091
 20
-9.585981748828575
 30
0.0
  0
SPLINE
  5
213
330
1F
100
AcDbEntity
  8
1
  6
SLD-Solid
370
    25
100
AcDbSpline
210
0.0
220
0.0
230
1.0
 70
     8
 71
     3
 72
    30
 73
    26
 74
     0
 42
0.000000001
 43
0.00000001
 40
0.0
 40
0.0
 40
0.0
 40
0.0
 40
0.0114576246446465
 40
0.0313181038198636
 40
0.0625127256569072
 40
0.0936688899329193
 40
0.1248686720375143
 40
0.1876770117080823
 40
0.2502254852174576
 40
0.3125016583140347
 40
0.3752092577078525
 40
0.4377772188893653
 40
0.4999846765354564
 40
0.4999998180742476
 40
0.5625938520323128
 40
0.6252041603643153
 40
0.6872935440916716
 40
0.7495853764248788
 40
0.8124273759707002
 40
0.8747822710141547
 40
0.9059170529110827
 40
0.9371264788214122
 40
0.9684944127008306
 40
0.9885412915580628
 40
1.0
 40
1.0
 40
1.0
 40
1.0
 10
30.2324361419091
 20
-9.585981748828575
 30
0.0
 10
30.29311654580246
 20
-9.530703432535113
 30
0.0
 10
30.45897947532765
 20
-9.379606490336492
 30
0.0
 10
30.78052842759181
 20
-9.067780700096499
 30
0.0
 10
31.18643382033044
 20
-8.640701991387493
 30
0.0
 10
31.62231483228696
 20
-8.130967435659054
 30
0.0
 10
32.16960418355626
 20
-7.419422369869387
 30
0.0
 10
32.78399172221126
 20
-6.475982346037065
 30
0.0
 10
33.39917866535038
 20
-5.272261863729165
 30
0.0
 10
33.88628644089055
 20
-4.008627570960329
 30
0.0
 10
34.23918025732321
 20
-2.697813378526516
 30
0.0
 10
34.45250638078147
 20
-1.355488058538239
 30
0.0
 10
34.49999425119137
 20
-0.4508112828832539
 30
0.0
 10
34.50000578181621
 20
0.4532823723629592
 30
0.0
 10
34.45208045788507
 20
1.361080916076701
 30
0.0
 10
34.23808113506456
 20
2.701902899031251
 30
0.0
 10
33.88602974632097
 20
4.008678231796993
 30
0.0
 10
33.40013787223166
 20
5.270404056143978
 30
0.0
 10
32.78549210771213
 20
6.473269307888961
 30
0.0
 10
32.17219804172268
 20
7.415451392236664
 30
0.0
 10
31.62739023333978
 20
8.124704266018856
 30
0.0
 10
31.19108359434135
 20
8.635604119260648
 30
0.0
 10
30.78333228220305
 20
9.065016585891136
 30
0.0
 10
30.45997722922829
 20
9.378695940140215
 30
0.0
 10
30.29312205130398
 20
9.530697996682699
 30
0.0
 10
30.2324361539834
 20
9.585981754193895
 30
0.0
  0
SPLINE
  5
214
330
1F
100
AcDbEntity
  8
1
  6
SLD-Solid
370
    25
100
AcDbSpline
210
0.0
220
0.0
230
1.0
 70
     8
 71
     3
 72
     9
 73
     5
 74
     0
 42
0.000000001
 43
0.00000001
 40
0.0
 40
0.0
 40
0.0
 40
0.0
 40
0.497536220713517
 40
1.0
 40
1.0
 40
1.0
 40
1.0
 10
30.2324361539834
 20
9.585981754193895
 30
0.0
 10
30.31472977862591
 20
9.704898034107478
 30
0.0
 10
30.48013205732732
 20
9.94390833117298
 30
0.0
 10
30.64643752960226
 20
10.18210439844579
 30
0.0
 10
30.73000000571753
 20
10.30178929461888
 30
0.0
  0
SPLINE
  5
215
330
1F
100
AcDbEntity
  8
1
  6
SLD-Solid
370
    25
100
AcDbSpline
210
0.0
220
0.0
230
1.0
 70
     8
 71
     3
 72
    10
 73
     6
 74
     0
 42
0.000000001
 43
0.00000001
 40
0.0
 40
0.0
 40
0.0
 40
0.0
 40
0.5
 40
0.5
 40
1.0
 40
1.0
 40
1.0
 40
1.0
 10
26.70500000624356
 20
11.84689727503205
 30
0.0
 10
27.31223561896783
 20
11.58523063511028
 30
0.0
 10
27.91047593330405
 20
11.27265781630688
 30
0.0
 10
29.08730088918267
 20
10.52783197790762
 30
0.0
 10
29.66595732304149
 20
10.09611128119668
 30
0.0
 10
30.2324361539834
 20
9.585981754193895
 30
0.0
  0
SPLINE
  5
216
330
1F
100
AcDbEntity
  8
1
  6
SLD-Solid
370
    25
100
AcDbSpline
210
0.0
220
0.0
230
1.0
 70
     8
 71
     3
 72
    10
 73
     6
 74
     0
 42
0.000000001
 43
0.00000001
 40
0.0
 40
0.0
 40
0.0
 40
0.0
 40
0.5
 40
0.5
 40
1.0
 40
1.0
 40
1.0
 40
1.0
 10
30.2324361419091
 20
-9.585981748828575
 30
0.0
 10
29.6659573108323
 20
-10.09611127604786
 30
0.0
 10
29.08730087683035
 20
-10.52783197292093
 30
0.0
 10
27.91047592065486
 20
-11.27265781157777
 30
0.0
 10
27.31223560616473
 20
-11.58523063047574
 30
0.0
 10
26.70499999328195
 20
-11.84689727046583
 30
0.0
  0
SPLINE
  5
217
330
1F
100
AcDbEntity
  8
1
  6
SLD-Solid
370
    25
100
AcDbSpline
210
0.0
220
0.0
230
1.0
 70
     8
 71
     3
 72
     8
 73
     4
 74
     0
 42
0.000000001
 43
0.00000001
 40
0.0
 40
0.0
 40
0.0
 40
0.0
 40
0.0013188854064183
 40
0.0013188854064183
 40
0.0013188854064183
 40
0.0013188854064183
 10
16.23001969424184
 20
-12.90000000000001
 30
0.0
 10
16.04753937863331
 20
-13.21963364267906
 30
0.0
 10
15.86418062995506
 20
-13.5389478252874
 30
0.0
 10
15.67999999999998
 20
-13.85795803413959
 30
0.0
  0
SPLINE
  5
218
330
1F
100
AcDbEntity
  8
1
  6
SLD-Solid
370
    25
100
AcDbSpline
210
0.0
220
0.0
230
1.0
 70
     8
 71
     3
 72
    10
 73
     6
 74
     0
 42
0.000000001
 43
0.00000001
 40
0.0
 40
0.0
 40
0.0
 40
0.0
 40
0.5
 40
0.5
 40
1.0
 40
1.0
 40
1.0
 40
1.0
 10
3.750000000000004
 20
-13.85795803413965
 30
0.0
 10
3.553650459150639
 20
-13.85795803413965
 30
0.0
 10
3.358510005927531
 20
-13.8355457528812
 30
0.0
 10
3.08082982229263
 20
-13.75855131940354
 30
0.0
 10
2.999999999999989
 20
-13.70444328602566
 30
0.0
 10
2.999999999999989
 20
-13.64999999999998
 30
0.0
  0
SPLINE
  5
219
330
1F
100
AcDbEntity
  8
1
  6
SLD-Solid
370
    25
100
AcDbSpline
210
0.0
220
0.0
230
1.0
 70
     8
 71
     3
 72
    10
 73
     6
 74
     0
 42
0.000000001
 43
0.00000001
 40
0.0
 40
0.0
 40
0.0
 40
0.0
 40
0.5
 40
0.5
 40
1.0
 40
1.0
 40
1.0
 40
1.0
 10
2.999999999999975
 20
13.65000000000001
 30
0.0
 10
2.999999999999975
 20
13.70444328602569
 30
0.0
 10
3.080829822292616
 20
13.75855131940355
 30
0.0
 10
3.358510005927504
 20
13.83554575288121
 30
0.0
 10
3.553650459150612
 20
13.85795803413965
 30
0.0
 10
3.749999999999962
 20
13.85795803413965
 30
0.0
  0
SPLINE
  5
21A
330
1F
100
AcDbEntity
  8
1
  6
SLD-Solid
370
    25
100
AcDbSpline
210
0.0
220
0.0
230
1.0
 70
     8
 71
     3
 72
     8
 73
     4
 74
     0
 42
0.000000001
 43
0.00000001
 40
0.0
 40
0.0
 40
0.0
 40
0.0
 40
0.0013188854064184
 40
0.0013188854064184
 40
0.0013188854064184
 40
0.0013188854064184
 10
15.67999999999999
 20
13.85795803413965
 30
0.0
 10
15.86418062995557
 20
13.53894782528661
 30
0.0
 10
16.04753937863428
 20
13.21963364267738
 30
0.0
 10
16.2300196942433
 20
12.89999999999747
 30
0.0
  0
SPLINE
  5
21B
330
1F
100
AcDbEntity
  8
1
  6
SLD-Solid
370
    25
100
AcDbSpline
210
0.0
220
0.0
230
1.0
 70
     8
 71
     3
 72
    32
 73
    28
 74
     0
 42
0.000000001
 43
0.00000001
 40
0.5000000000000063
 40
0.5000000000000063
 40
0.5000000000000063
 40
0.5000000000000063
 40
0.5625000000000063
 40
0.5625000000000063
 40
0.6250000000000062
 40
0.6250000000000062
 40
0.6562500000000057
 40
0.6562500000000057
 40
0.6875000000000051
 40
0.6875000000000051
 40
0.7187500000000046
 40
0.7187500000000046
 40
0.750000000000004
 40
0.750000000000004
 40
0.7812500000000036
 40
0.7812500000000036
 40
0.812500000000003
 40
0.812500000000003
 40
0.8437500000000024
 40
0.8437500000000024
 40
0.8750000000000019
 40
0.8750000000000019
 40
0.9062500000000013
 40
0.9062500000000013
 40
0.9375000000000008
 40
0.9375000000000008
 40
1.0
 40
1.0
 40
1.0
 40
1.0
 10
11.1007114624939
 20
46.24293993692538
 30
0.0
 10
10.83966036263012
 20
46.24290468071933
 30
0.0
 10
10.57654432887646
 20
46.26283130064549
 30
0.0
 10
10.09503969318679
 20
46.3378480575818
 30
0.0
 10
9.87173679775892
 20
46.39368621299568
 30
0.0
 10
9.594869119672236
 20
46.49555476197274
 30
0.0
 10
9.51035580802792
 20
46.53319066240618
 30
0.0
 10
9.364898225395837
 20
46.61211139901827
 30
0.0
 10
9.30339116057434
 20
46.65344765224852
 30
0.0
 10
9.202887905830876
 20
46.73965007660369
 30
0.0
 10
9.164237099226009
 20
46.78455822929223
 30
0.0
 10
9.113189380564435
 20
46.87388294420761
 30
0.0
 10
9.10013437108692
 20
46.91878509458411
 30
0.0
 10
9.099867672658357
 20
47.00902982582041
 30
0.0
 10
9.112745529051406
 20
47.05316763831313
 30
0.0
 10
9.163318778191181
 20
47.1387265703648
 30
0.0
 10
9.201564549821587
 20
47.18069771324019
 30
0.0
 10
9.301851471514244
 20
47.2601835783914
 30
0.0
 10
9.363213060780042
 20
47.29742937389354
 30
0.0
 10
9.508037288393695
 20
47.36723524195035
 30
0.0
 10
9.592426282887992
 20
47.39998657776513
 30
0.0
 10
9.776893191111718
 20
47.45826780616675
 30
0.0
 10
9.877477150479347
 20
47.48415678629294
 30
0.0
 10
10.09565052704872
 20
47.52959536402749
 30
0.0
 10
10.21229123388058
 20
47.54884237695548
 30
0.0
 10
10.57316681370772
 20
47.59491735537485
 30
0.0
 10
10.83571231733925
 20
47.61102046218485
 30
0.0
 10
11.09999999999999
 20
47.61102046218485
 30
0.0
  0
SPLINE
  5
21C
330
1F
100
AcDbEntity
  8
1
  6
SLD-Solid
370
    25
100
AcDbSpline
210
0.0
220
0.0
230
1.0
 70
     8
 71
     3
 72
    34
 73
    30
 74
     0
 42
0.000000001
 43
0.00000001
 40
0.0
 40
0.0
 40
0.0
 40
0.0
 40
0.0312500000000007
 40
0.0312500000000007
 40
0.0625000000000013
 40
0.0625000000000013
 40
0.093750000000002
 40
0.093750000000002
 40
0.1250000000000027
 40
0.1250000000000027
 40
0.1875000000000038
 40
0.1875000000000038
 40
0.250000000000005
 40
0.250000000000005
 40
0.2812500000000052
 40
0.2812500000000052
 40
0.3125000000000053
 40
0.3125000000000053
 40
0.3437500000000055
 40
0.3437500000000055
 40
0.3750000000000057
 40
0.3750000000000057
 40
0.4062500000000059
 40
0.4062500000000059
 40
0.4375000000000061
 40
0.4375000000000061
 40
0.4687500000000062
 40
0.4687500000000062
 40
0.5000000000000063
 40
0.5000000000000063
 40
0.5000000000000063
 40
0.5000000000000063
 10
11.09999999999999
 20
47.61102046218485
 30
0.0
 10
11.23214384133037
 20
47.61102046218486
 30
0.0
 10
11.36207683011829
 20
47.60707775994187
 30
0.0
 10
11.61770274340576
 20
47.5915758354741
 30
0.0
 10
11.74472034796743
 20
47.57982745159403
 30
0.0
 10
11.98691872226754
 20
47.5489813390642
 30
0.0
 10
12.10178825693579
 20
47.53003810633189
 30
0.0
 10
12.31918389765138
 20
47.48494043179044
 30
0.0
 10
12.42210399098248
 20
47.45854159182394
 30
0.0
 10
12.69882146131233
 20
47.37124279569228
 30
0.0
 10
12.84782549231939
 20
47.29985068225716
 30
0.0
 10
13.04732370421202
 20
47.14216623040051
 30
0.0
 10
13.09986054057426
 20
47.05418872376664
 30
0.0
 10
13.10006930284496
 20
46.92035145215262
 30
0.0
 10
13.08708888085484
 20
46.87454231371452
 30
0.0
 10
13.03607100299478
 20
46.78492686228009
 30
0.0
 10
12.99832227536032
 20
46.74090637299761
 30
0.0
 10
12.89820560779051
 20
46.65460492149248
 30
0.0
 10
12.83559212600231
 20
46.61244003049264
 30
0.0
 10
12.69084705245925
 20
46.53378144217986
 30
0.0
 10
12.60821628179984
 20
46.49678850176285
 30
0.0
 10
12.42162673177075
 20
46.42794131645882
 30
0.0
 10
12.32044387441547
 20
46.39713531384615
 30
0.0
 10
12.10388934784859
 20
46.34304900107738
 30
0.0
 10
11.98703949363667
 20
46.31952416888133
 30
0.0
 10
11.74469982813359
 20
46.28167360529467
 30
0.0
 10
11.62003428466962
 20
46.26734814958859
 30
0.0
 10
11.3637919846324
 20
46.24794534725473
 30
0.0
 10
11.2312370124258
 20
46.24295756502841
 30
0.0
 10
11.1007114624939
 20
46.24293993692538
 30
0.0
  0
SPLINE
  5
21D
330
1F
100
AcDbEntity
  8
1
  6
SLD-Solid
370
    25
100
AcDbSpline
210
0.0
220
0.0
230
1.0
 70
    24
 71
     3
 72
     8
 73
     4
 74
     0
 42
0.000000001
 43
0.00000001
 40
0.0
 40
0.0
 40
0.0
 40
0.0
 40
1.0
 40
1.0
 40
1.0
 40
1.0
 10
19.70499999999999
 20
-12.9
 30
0.0
 10
18.55198828581107
 20
-12.90000000000001
 30
0.0
 10
17.39299087975338
 20
-12.90000000000001
 30
0.0
 10
16.23001969424184
 20
-12.90000000000001
 30
0.0
  0
SPLINE
  5
21E
330
1F
100
AcDbEntity
  8
1
  6
SLD-Solid
370
    25
100
AcDbSpline
210
0.0
220
0.0
230
1.0
 70
    24
 71
     3
 72
     8
 73
     4
 74
     0
 42
0.000000001
 43
0.00000001
 40
0.0
 40
0.0
 40
0.0
 40
0.0
 40
1.0
 40
1.0
 40
1.0
 40
1.0
 10
16.2300196942433
 20
12.89999999999747
 30
0.0
 10
17.39299174097825
 20
12.89999999999747
 30
0.0
 10
18.55200333802483
 20
12.89999999999746
 30
0.0
 10
19.70500000000139
 20
12.89999999999745
 30
0.0
  0
SPLINE
  5
21F
330
1F
100
AcDbEntity
  8
1
  6
SLD-Solid
370
    25
100
AcDbSpline
210
0.0
220
0.0
230
1.0
 70
     8
 71
     3
 72
    10
 73
     6
 74
     0
 42
0.000000001
 43
0.00000001
 40
0.0
 40
0.0
 40
0.0
 40
0.0
 40
0.5
 40
0.5
 40
1.0
 40
1.0
 40
1.0
 40
1.0
 10
26.32999999328232
 20
-12.00154573111921
 30
0.0
 10
25.57238485256465
 20
-12.30013390426663
 30
0.0
 10
24.79922683048573
 20
-12.52272939616342
 30
0.0
 10
23.2227558456672
 20
-12.82265445714625
 30
0.0
 10
22.41944728680791
 20
-12.89999999733973
 30
0.0
 10
21.59999999328231
 20
-12.89999999733974
 30
0.0
  0
SPLINE
  5
220
330
1F
100
AcDbEntity
  8
1
  6
SLD-Solid
370
    25
100
AcDbSpline
210
0.0
220
0.0
230
1.0
 70
     8
 71
     3
 72
    10
 73
     6
 74
     0
 42
0.000000001
 43
0.00000001
 40
0.0
 40
0.0
 40
0.0
 40
0.0
 40
0.5
 40
0.5
 40
1.0
 40
1.0
 40
1.0
 40
1.0
 10
21.60000000624361
 20
12.90000000190594
 30
0.0
 10
22.41944729976918
 20
12.90000000190594
 30
0.0
 10
23.22275585862847
 20
12.82265446171246
 30
0.0
 10
24.799226843447
 20
12.52272940072963
 30
0.0
 10
25.57238486552595
 20
12.30013390883285
 30
0.0
 10
26.33000000624362
 20
12.00154573568541
 30
0.0
  0
SPLINE
  5
221
330
1F
100
AcDbEntity
  8
1
  6
SLD-Solid
370
    25
100
AcDbSpline
210
0.0
220
0.0
230
1.0
 70
     8
 71
     3
 72
     8
 73
     4
 74
     0
 42
0.000000001
 43
0.00000001
 40
0.0
 40
0.0
 40
0.0
 40
0.0
 40
0.5
 40
0.5
 40
0.5
 40
0.5
 10
26.33000000624362
 20
12.00154573568541
 30
0.0
 10
26.43105475233186
 20
11.96171845346692
 30
0.0
 10
26.52423862347293
 20
11.92339812800253
 30
0.0
 10
26.59292328081341
 20
11.89456671004035
 30
0.0
  0
SPLINE
  5
222
330
1F
100
AcDbEntity
  8
1
  6
SLD-Solid
370
    25
100
AcDbSpline
210
0.0
220
0.0
230
1.0
 70
     8
 71
     2
 72
     6
 73
     3
 74
     0
 42
0.000000001
 43
0.00000001
 40
0.5
 40
0.5
 40
0.5
 40
1.0
 40
1.0
 40
1.0
 10
26.59292328081341
 20
11.89456671004035
 30
0.0
 10
26.66160793815391
 20
11.86573529207818
 30
0.0
 10
26.70500000624356
 20
11.84689727503205
 30
0.0
  0
SPLINE
  5
223
330
1F
100
AcDbEntity
  8
1
  6
SLD-Solid
370
    25
100
AcDbSpline
210
0.0
220
0.0
230
1.0
 70
     8
 71
     2
 72
     6
 73
     3
 74
     0
 42
0.000000001
 43
0.00000001
 40
0.0
 40
0.0
 40
0.0
 40
0.5
 40
0.5
 40
0.5
 10
26.70499999328195
 20
-11.84689727046583
 30
0.0
 10
26.66092466349772
 20
-11.86602408952802
 30
0.0
 10
26.59262757436741
 20
-11.89469082293868
 30
0.0
  0
SPLINE
  5
224
330
1F
100
AcDbEntity
  8
1
  6
SLD-Solid
370
    25
100
AcDbSpline
210
0.0
220
0.0
230
1.0
 70
     8
 71
     3
 72
     8
 73
     4
 74
     0
 42
0.000000001
 43
0.00000001
 40
0.5
 40
0.5
 40
0.5
 40
0.5
 40
1.0
 40
1.0
 40
1.0
 40
1.0
 10
26.59262757436741
 20
-11.89469082293868
 30
0.0
 10
26.52433048523713
 20
-11.92335755634934
 30
0.0
 10
26.43081087043357
 20
-11.96181456152635
 30
0.0
 10
26.32999999328232
 20
-12.00154573111921
 30
0.0
  0
SPLINE
  5
225
330
1F
100
AcDbEntity
  8
1
  6
SLD-Solid
370
    25
100
AcDbSpline
210
0.0
220
0.0
230
1.0
 70
    24
 71
     2
 72
     6
 73
     3
 74
     0
 42
0.000000001
 43
0.00000001
 40
0.0
 40
0.0
 40
0.0
 40
0.5
 40
0.5
 40
0.5
 10
19.70500000000139
 20
12.89999999999745
 30
0.0
 10
19.74338373915201
 20
12.89999999999745
 30
0.0
 10
19.81143937167107
 20
12.89999999999745
 30
0.0
  0
SPLINE
  5
226
330
1F
100
AcDbEntity
  8
1
  6
SLD-Solid
370
    25
100
AcDbSpline
210
0.0
220
0.0
230
1.0
 70
    24
 71
     3
 72
     8
 73
     4
 74
     0
 42
0.000000001
 43
0.00000001
 40
0.5
 40
0.5
 40
0.5
 40
0.5
 40
1.0
 40
1.0
 40
1.0
 40
1.0
 10
19.81143937167107
 20
12.89999999999745
 30
0.0
 10
19.87949500419021
 20
12.90000000048108
 30
0.0
 10
19.97908463495472
 20
12.90000000118879
 30
0.0
 10
20.08000000000141
 20
12.90000000190594
 30
0.0
  0
SPLINE
  5
227
330
1F
100
AcDbEntity
  8
1
  6
SLD-Solid
370
    25
100
AcDbSpline
210
0.0
220
0.0
230
1.0
 70
    24
 71
     3
 72
     8
 73
     4
 74
     0
 42
0.000000001
 43
0.00000001
 40
0.0
 40
0.0
 40
0.0
 40
0.0
 40
0.5
 40
0.5
 40
0.5
 40
0.5
 10
20.08
 20
-12.89999999733974
 30
0.0
 10
19.97988956666459
 20
-12.89999999833144
 30
0.0
 10
19.87972107531742
 20
-12.89999999932371
 30
0.0
 10
19.81145023067703
 20
-12.9
 30
0.0
  0
SPLINE
  5
228
330
1F
100
AcDbEntity
  8
1
  6
SLD-Solid
370
    25
100
AcDbSpline
210
0.0
220
0.0
230
1.0
 70
    24
 71
     2
 72
     6
 73
     3
 74
     0
 42
0.000000001
 43
0.00000001
 40
0.5
 40
0.5
 40
0.5
 40
1.0
 40
1.0
 40
1.0
 10
19.81145023067703
 20
-12.9
 30
0.0
 10
19.74317938603663
 20
-12.9
 30
0.0
 10
19.70499999999999
 20
-12.9
 30
0.0
  0
SPLINE
  5
229
330
1F
100
AcDbEntity
  8
1
  6
SLD-Solid
370
    25
100
AcDbSpline
210
0.0
220
0.0
230
1.0
 70
     8
 71
     3
 72
    14
 73
    10
 74
     0
 42
0.000000001
 43
0.00000001
 40
0.0
 40
0.0
 40
0.0
 40
0.0
 40
0.2500000000000001
 40
0.2500000000000001
 40
0.5
 40
0.5
 40
0.75
 40
0.75
 40
1.0
 40
1.0
 40
1.0
 40
1.0
 10
2.999999999999989
 20
-3.762977544445739
 30
0.0
 10
2.999999999999989
 20
-3.135929825443077
 30
0.0
 10
2.99167831325807
 20
-2.5087375385364
 30
0.0
 10
2.978060621190687
 20
-1.2544055281557
 30
0.0
 10
2.972842150110344
 20
-0.627275587815071
 30
0.0
 10
2.972841079462663
 20
0.627057791034058
 30
0.0
 10
2.978059537048008
 20
1.254301409576046
 30
0.0
 10
2.991678476802817
 20
2.5087568601194
 30
0.0
 10
2.999999999999989
 20
3.136051595231435
 30
0.0
 10
2.999999999999989
 20
3.762977544445725
 30
0.0
  0
SPLINE
  5
22A
330
1F
100
AcDbEntity
  8
1
  6
SLD-Dashed
370
    18
100
AcDbSpline
210
0.0
220
0.0
230
1.0
 70
     8
 71
     3
 72
    31
 73
    27
 74
     0
 42
0.000000001
 43
0.00000001
 40
0.0
 40
0.0
 40
0.0
 40
0.0
 40
0.0155398018584853
 40
0.0310809192630735
 40
0.0466335010157181
 40
0.0622076735028131
 40
0.0932675544730678
 40
0.1243522097125104
 40
0.1557099215512425
 40
0.1870684468948733
 40
0.2496029157489495
 40
0.311949567092921
 40
0.3747989962963943
 40
0.4375610735445558
 40
0.4999873489797572
 40
0.562803394691127
 40
0.6256085621204363
 40
0.6878408964855849
 40
0.750206462762735
 40
0.8130346898668581
 40
0.8441691394704145
 40
0.8753003331849272
 40
0.9063731694800667
 40
0.9374372200973873
 40
0.9687404587451564
 40
1.0
 40
1.0
 40
1.0
 40
1.0
 10
30.72999999317679
 20
-10.30178928147752
 30
0.0
 10
30.81751693180966
 20
-10.22063125536973
 30
0.0
 10
30.99255821795803
 20
-10.05830833259521
 30
0.0
 10
31.24701472777931
 20
-9.806199724256164
 30
0.0
 10
31.49546285806777
 20
-9.547824047557969
 30
0.0
 10
31.81730805287687
 20
-9.194838018002631
 30
0.0
 10
32.20237189013549
 20
-8.738168862168674
 30
0.0
 10
32.6366351395639
 20
-8.165187925769452
 30
0.0
 10
33.04218110110395
 20
-7.568148238741461
 30
0.0
 10
33.54168818898033
 20
-6.74317838760869
 30
0.0
 10
34.08445048208856
 20
-5.665529414221132
 30
0.0
 10
34.60019145357222
 20
-4.307644281857974
 30
0.0
 10
34.97385375297239
 20
-2.899053792236775
 30
0.0
 10
35.19971880548502
 20
-1.456473386799405
 30
0.0
 10
35.27521154365819
 20
0.0026667840329619
 30
0.0
 10
35.19930273880421
 20
1.462162409226343
 30
0.0
 10
34.97274508318201
 20
2.903179847409634
 30
0.0
 10
34.60000721780433
 20
4.307494978716325
 30
0.0
 10
34.08553873055382
 20
5.663361038384454
 30
0.0
 10
33.54254137621894
 20
6.74168401762109
 30
0.0
 10
33.04369673605646
 20
7.565640391692267
 30
0.0
 10
32.64038026641141
 20
8.159878936232198
 30
0.0
 10
32.20762441098397
 20
8.73179201077337
 30
0.0
 10
31.74464026656497
 20
9.280690991840409
 30
0.0
 10
31.25472218575311
 20
9.807714719363329
 30
0.0
 10
30.90482593660264
 20
10.13717447399159
 30
0.0
 10
30.73000000571753
 20
10.30178929461887
 30
0.0
  0
SPLINE
  5
22B
330
1F
100
AcDbEntity
  8
SK3
  6
SLD-Dashed
370
    18
100
AcDbSpline
210
0.0
220
0.0
230
1.0
 70
     8
 71
     3
 72
    14
 73
    10
 74
     0
 42
0.000000001
 43
0.00000001
 40
0.0
 40
0.0
 40
0.0
 40
0.0
 40
0.1250000000000024
 40
0.1250000000000024
 40
0.2500000000000047
 40
0.2500000000000047
 40
0.4999999999999999
 40
0.4999999999999999
 40
1.0
 40
1.0
 40
1.0
 40
1.0
 10
44.99999999999996
 20
-19.57038579078093
 30
0.0
 10
44.99999999999996
 20
-19.60092497303537
 30
0.0
 10
44.99462951906929
 20
-19.63040388558181
 30
0.0
 10
44.979910981637
 20
-19.68169920367938
 30
0.0
 10
44.97051019094499
 20
-19.70425215289321
 30
0.0
 10
44.94026437293271
 20
-19.76471321760345
 30
0.0
 10
44.91708379004938
 20
-19.79633668215819
 30
0.0
 10
44.84683522848449
 20
-19.87534330032056
 30
0.0
 10
44.79764359921533
 20
-19.90827138777169
 30
0.0
 10
44.74999999999969
 20
-19.92799538338522
 30
0.0
  0
SPLINE
  5
22C
330
1F
100
AcDbEntity
  8
SK3
  6
SLD-Dashed
370
    18
100
AcDbSpline
210
0.0
220
0.0
230
1.0
 70
     8
 71
     3
 72
    24
 73
    20
 74
     0
 42
0.000000001
 43
0.00000001
 40
0.0
 40
0.0
 40
0.0
 40
0.0
 40
0.0543220110962498
 40
0.1131512961440026
 40
0.1699592846084125
 40
0.2282088306410695
 40
0.2891237452587402
 40
0.3516007616250671
 40
0.4161863833645564
 40
0.4828112882950811
 40
0.5442735020705367
 40
0.6079108318712668
 40
0.6636891366573857
 40
0.7210532019980815
 40
0.7777439165061298
 40
0.8358007701153624
 40
0.8980845619339375
 40
0.9620362636240971
 40
1.0
 40
1.0
 40
1.0
 40
1.0
 10
61.99497323129189
 20
-19.99774721926168
 30
0.0
 10
61.97818779980648
 20
-19.990154897702
 30
0.0
 10
61.94322419498806
 20
-19.97434029496758
 30
0.0
 10
61.61949635309334
 20
-19.83046602777238
 30
0.0
 10
61.1019314779037
 20
-19.6097235972196
 30
0.0
 10
60.38505528167342
 20
-19.3222954027291
 30
0.0
 10
59.4656331193721
 20
-18.98679608053713
 30
0.0
 10
58.34242828258014
 20
-18.63034791821049
 30
0.0
 10
57.02740263077975
 20
-18.29186184756357
 30
0.0
 10
55.58574453863309
 20
-18.02659734327682
 30
0.0
 10
54.06217440363218
 20
-17.87066518545108
 30
0.0
 10
52.58675904800385
 20
-17.84542295659601
 30
0.0
 10
51.16134839660825
 20
-17.93823805544329
 30
0.0
 10
49.84363412894722
 20
-18.12253057316548
 30
0.0
 10
48.59419338510727
 20
-18.38368592658642
 30
0.0
 10
47.4215543320727
 20
-18.70111758832991
 30
0.0
 10
46.34963629616053
 20
-19.05066654968437
 30
0.0
 10
45.54013670342373
 20
-19.35228414936264
 30
0.0
 10
45.14659514182527
 20
-19.51119218136061
 30
0.0
 10
44.99999999999997
 20
-19.57038579078093
 30
0.0
  0
SPLINE
  5
22D
330
1F
100
AcDbEntity
  8
SK3
  6
SLD-Dashed
370
    18
100
AcDbSpline
210
0.0
220
0.0
230
1.0
 70
     8
 71
     3
 72
    14
 73
    10
 74
     0
 42
0.000000001
 43
0.00000001
 40
0.0
 40
0.0
 40
0.0
 40
0.0
 40
0.25
 40
0.25
 40
0.5
 40
0.5
 40
0.75
 40
0.75
 40
1.0
 40
1.0
 40
1.0
 40
1.0
 10
11.09999999999999
 20
36.24434567831251
 30
0.0
 10
10.93010255201388
 20
36.36907900532319
 30
0.0
 10
10.7791322394814
 20
36.49899170200795
 30
0.0
 10
10.49714438169092
 20
36.7609928674993
 30
0.0
 10
10.36679773006396
 20
36.8928035839154
 30
0.0
 10
10.12677721550008
 20
37.14140646422412
 30
0.0
 10
10.01579455691602
 20
37.25974951232747
 30
0.0
 10
9.809048307797205
 20
37.4734189335295
 30
0.0
 10
9.713680237640451
 20
37.56868891722047
 30
0.0
 10
9.633636251301771
 20
37.63445251731464
 30
0.0
  0
SPLINE
  5
22E
330
1F
100
AcDbEntity
  8
SK3
  6
SLD-Dashed
370
    18
100
AcDbSpline
210
0.0
220
0.0
230
1.0
 70
     8
 71
     3
 72
    34
 73
    30
 74
     0
 42
0.000000001
 43
0.00000001
 40
0.5000000000000002
 40
0.5000000000000002
 40
0.5000000000000002
 40
0.5000000000000002
 40
0.5312500000000003
 40
0.5312500000000003
 40
0.5625000000000004
 40
0.5625000000000004
 40
0.5937500000000006
 40
0.5937500000000006
 40
0.6250000000000007
 40
0.6250000000000007
 40
0.6562500000000008
 40
0.6562500000000008
 40
0.6875000000000009
 40
0.6875000000000009
 40
0.7500000000000007
 40
0.7500000000000007
 40
0.8125000000000013
 40
0.8125000000000013
 40
0.8437500000000011
 40
0.8437500000000011
 40
0.8750000000000009
 40
0.8750000000000009
 40
0.9062500000000007
 40
0.9062500000000007
 40
0.9375000000000004
 40
0.9375000000000004
 40
0.9687500000000002
 40
0.9687500000000002
 40
1.0
 40
1.0
 40
1.0
 40
1.0
 10
9.613805742161711
 20
32.06281097659473
 30
0.0
 10
9.668881160736303
 20
32.10309805177791
 30
0.0
 10
9.738179283156637
 20
32.14073483518614
 30
0.0
 10
9.898515798149973
 20
32.20110344536893
 30
0.0
 10
9.988902763524516
 20
32.22393554112017
 30
0.0
 10
10.1894569494921
 20
32.24641795601577
 30
0.0
 10
10.29767837600208
 20
32.24530201799808
 30
0.0
 10
10.51807526498122
 20
32.21214772693891
 30
0.0
 10
10.63291658596821
 20
32.17923875118971
 30
0.0
 10
10.85319871140987
 20
32.0850030547948
 30
0.0
 10
10.96108094611135
 20
32.02309673503585
 30
0.0
 10
11.16468749579592
 20
31.88015690790774
 30
0.0
 10
11.26027842069081
 20
31.79975923962912
 30
0.0
 10
11.5339829745022
 20
31.53947932429289
 30
0.0
 10
11.69837034356694
 20
31.34149906618454
 30
0.0
 10
11.99694861504762
 20
30.93451949723768
 30
0.0
 10
12.13420875119764
 20
30.72108106609182
 30
0.0
 10
12.32260730605757
 20
30.39792759977521
 30
0.0
 10
12.38188352391457
 20
30.29060318554873
 30
0.0
 10
12.4928029483755
 20
30.0781022259803
 30
0.0
 10
12.54469006353043
 20
29.97232875561899
 30
0.0
 10
12.63491931900841
 20
29.77290420087406
 30
0.0
 10
12.67429072119647
 20
29.67687735577868
 30
0.0
 10
12.73086568636479
 20
29.51167662882574
 30
0.0
 10
12.74803399215492
 20
29.44172730744222
 30
0.0
 10
12.75163319740259
 20
29.34952447988205
 30
0.0
 10
12.7380699394838
 20
29.32639093213393
 30
0.0
 10
12.68670841969949
 20
29.32396546256975
 30
0.0
 10
12.64969993892519
 20
29.34320004830024
 30
0.0
 10
12.60540931107557
 20
29.37571682493555
 30
0.0
  0
SPLINE
  5
22F
330
1F
100
AcDbEntity
  8
SK3
  6
SLD-Dashed
370
    18
100
AcDbSpline
210
0.0
220
0.0
230
1.0
 70
     8
 71
     3
 72
    26
 73
    22
 74
     0
 42
0.000000001
 43
0.00000001
 40
0.0
 40
0.0
 40
0.0
 40
0.0
 40
0.0625
 40
0.0625
 40
0.125
 40
0.125
 40
0.1874999999999999
 40
0.1874999999999999
 40
0.2499999999999999
 40
0.2499999999999999
 40
0.2812500000000003
 40
0.2812500000000003
 40
0.3125000000000007
 40
0.3125000000000007
 40
0.3750000000000003
 40
0.3750000000000003
 40
0.4375
 40
0.4375
 40
0.4687500000000001
 40
0.4687500000000001
 40
0.5000000000000002
 40
0.5000000000000002
 40
0.5000000000000002
 40
0.5000000000000002
 10
12.60540931107555
 20
29.37571682493556
 30
0.0
 10
12.51682805537631
 20
29.44075037820622
 30
0.0
 10
12.40700682775375
 20
29.5505161196287
 30
0.0
 10
12.15919932759159
 20
29.80687692943999
 30
0.0
 10
12.02334522926919
 20
29.95248630818571
 30
0.0
 10
11.72814013646128
 20
30.25403810358308
 30
0.0
 10
11.56591385222425
 20
30.41343063102241
 30
0.0
 10
11.20504729019511
 20
30.72369135776141
 30
0.0
 10
11.00228334192552
 20
30.87603903040809
 30
0.0
 10
10.67487000905186
 20
31.07115716362111
 30
0.0
 10
10.56031472788943
 20
31.13155590588754
 30
0.0
 10
10.33896153134628
 20
31.23732451856055
 30
0.0
 10
10.22949961952678
 20
31.28426500057825
 30
0.0
 10
9.922578697971293
 20
31.41303027982767
 30
0.0
 10
9.751646578307183
 20
31.48319067939763
 30
0.0
 10
9.517451961566156
 20
31.63426232662331
 30
0.0
 10
9.453612055377924
 20
31.71535651469055
 30
0.0
 10
9.448421112414257
 20
31.84603582485066
 30
0.0
 10
9.461345898652635
 20
31.89014951197766
 30
0.0
 10
9.516390615621011
 20
31.9785612869524
 30
0.0
 10
9.558730323587103
 20
32.02252390141155
 30
0.0
 10
9.613805742161711
 20
32.06281097659473
 30
0.0
  0
SPLINE
  5
230
330
1F
100
AcDbEntity
  8
SK3
  6
SLD-Dashed
370
    18
100
AcDbSpline
210
0.0
220
0.0
230
1.0
 70
     8
 71
     3
 72
    28
 73
    24
 74
     0
 42
0.000000001
 43
0.00000001
 40
0.500000000000002
 40
0.500000000000002
 40
0.500000000000002
 40
0.500000000000002
 40
0.5625000000000017
 40
0.5625000000000017
 40
0.6250000000000013
 40
0.6250000000000013
 40
0.6562500000000013
 40
0.6562500000000013
 40
0.6875000000000012
 40
0.6875000000000012
 40
0.7500000000000011
 40
0.7500000000000011
 40
0.7812500000000011
 40
0.7812500000000011
 40
0.8125000000000011
 40
0.8125000000000011
 40
0.8437500000000011
 40
0.8437500000000011
 40
0.8750000000000011
 40
0.8750000000000011
 40
0.9375000000000007
 40
0.9375000000000007
 40
1.0
 40
1.0
 40
1.0
 40
1.0
 10
11.10063994677772
 20
9.179805819705136
 30
0.0
 10
10.88511437826824
 20
9.179764731078524
 30
0.0
 10
10.66767832081875
 20
9.20126512292447
 30
0.0
 10
10.27039433374753
 20
9.280173808064243
 30
0.0
 10
10.08661083741963
 20
9.338138102846443
 30
0.0
 10
9.858251824686013
 20
9.440065379806322
 30
0.0
 10
9.788576404990243
 20
9.477149305158452
 30
0.0
 10
9.668865269254923
 20
9.553080163044104
 30
0.0
 10
9.618080695444439
 20
9.592168311290665
 30
0.0
 10
9.49337627265548
 20
9.711752477283794
 30
0.0
 10
9.450181111457997
 20
9.791639621509377
 30
0.0
 10
9.44991029235731
 20
9.903567596435028
 30
0.0
 10
9.460525364944738
 20
9.93868264375513
 30
0.0
 10
9.502361606435237
 20
10.00486157884361
 30
0.0
 10
9.534127008594059
 20
10.03623086510929
 30
0.0
 10
9.616761891656514
 20
10.09321537097385
 30
0.0
 10
9.667357839890714
 20
10.11892320032905
 30
0.0
 10
9.787049538608954
 20
10.16555473396256
 30
0.0
 10
9.856502934081787
 20
10.18644292145534
 30
0.0
 10
10.08415986245242
 20
10.24048736872271
 30
0.0
 10
10.26789811615395
 20
10.26651718042251
 30
0.0
 10
10.66470419067458
 20
10.3002248792451
 30
0.0
 10
10.88162329216494
 20
10.30847223167889
 30
0.0
 10
11.1
 20
10.30847223167888
 30
0.0
  0
SPLINE
  5
231
330
1F
100
AcDbEntity
  8
SK3
  6
SLD-Dashed
370
    18
100
AcDbSpline
210
0.0
220
0.0
230
1.0
 70
     8
 71
     3
 72
    32
 73
    28
 74
     0
 42
0.000000001
 43
0.00000001
 40
0.0
 40
0.0
 40
0.0
 40
0.0
 40
0.0312500000000002
 40
0.0312500000000002
 40
0.0625000000000005
 40
0.0625000000000005
 40
0.0937500000000007
 40
0.0937500000000007
 40
0.1250000000000009
 40
0.1250000000000009
 40
0.1875000000000014
 40
0.1875000000000014
 40
0.2500000000000019
 40
0.2500000000000019
 40
0.281250000000002
 40
0.281250000000002
 40
0.3125000000000021
 40
0.3125000000000021
 40
0.3750000000000024
 40
0.3750000000000024
 40
0.4062500000000023
 40
0.4062500000000023
 40
0.4375000000000022
 40
0.4375000000000022
 40
0.4687500000000021
 40
0.4687500000000021
 40
0.500000000000002
 40
0.500000000000002
 40
0.500000000000002
 40
0.500000000000002
 10
11.1
 20
10.30847223167888
 30
0.0
 10
11.20918835391752
 20
10.30847223167888
 30
0.0
 10
11.31651771305064
 20
10.30642167162257
 30
0.0
 10
11.52762120394277
 20
10.2982103075458
 30
0.0
 10
11.63250189121383
 20
10.29194428668544
 30
0.0
 10
11.83223206661287
 20
10.27502374362115
 30
0.0
 10
11.92693470175493
 20
10.26444756624655
 30
0.0
 10
12.1061627660522
 20
10.23832625336567
 30
0.0
 10
12.1908896737172
 20
10.22264232876809
 30
0.0
 10
12.41879001739919
 20
10.16862580338099
 30
0.0
 10
12.54167185323994
 20
10.12171939803713
 30
0.0
 10
12.70636644254862
 20
10.00846559837552
 30
0.0
 10
12.74987701797388
 20
9.940762454420792
 30
0.0
 10
12.75006109004667
 20
9.830188859982671
 30
0.0
 10
12.73931049884441
 20
9.79113104931665
 30
0.0
 10
12.69714619983563
 20
9.712601504592842
 30
0.0
 10
12.66595101562507
 20
9.672920129814674
 30
0.0
 10
12.54179369836861
 20
9.553356030122167
 30
0.0
 10
12.42075253795669
 20
9.475480834566133
 30
0.0
 10
12.19025712142205
 20
9.372372874597787
 30
0.0
 10
12.10711918455321
 20
9.341110472901606
 30
0.0
 10
11.92862050550957
 20
9.28545275449008
 30
0.0
 10
11.8320868277702
 20
9.260851367286064
 30
0.0
 10
11.63247886509289
 20
9.221112207445598
 30
0.0
 10
11.52963804660004
 20
9.205875681199474
 30
0.0
 10
11.31787187764577
 20
9.185172446042548
 30
0.0
 10
11.20840273103245
 20
9.179826364018442
 30
0.0
 10
11.10063994677772
 20
9.179805819705136
 30
0.0
  0
SPLINE
  5
232
330
1F
100
AcDbEntity
  8
SK3
  6
SLD-Dashed
370
    18
100
AcDbSpline
210
0.0
220
0.0
230
1.0
 70
     8
 71
     3
 72
    28
 73
    24
 74
     0
 42
0.000000001
 43
0.00000001
 40
0.4999999999999973
 40
0.4999999999999973
 40
0.4999999999999973
 40
0.4999999999999973
 40
0.5624999999999976
 40
0.5624999999999976
 40
0.6249999999999979
 40
0.6249999999999979
 40
0.656249999999998
 40
0.656249999999998
 40
0.6874999999999982
 40
0.6874999999999982
 40
0.7499999999999986
 40
0.7499999999999986
 40
0.7812499999999989
 40
0.7812499999999989
 40
0.8124999999999992
 40
0.8124999999999992
 40
0.8437499999999996
 40
0.8437499999999996
 40
0.8749999999999998
 40
0.8749999999999998
 40
0.9375
 40
0.9375
 40
1.0
 40
1.0
 40
1.0
 40
1.0
 10
11.09936005322229
 20
-10.30847220779006
 30
0.0
 10
11.31488562173177
 20
-10.30848829867283
 30
0.0
 10
11.53232167918125
 20
-10.30038291810947
 30
0.0
 10
11.92960566625247
 20
-10.26682253963408
 30
0.0
 10
12.11338916258035
 20
-10.24091814244865
 30
0.0
 10
12.34174817531396
 20
-10.1869321671529
 30
0.0
 10
12.41142359500974
 20
-10.16604649126495
 30
0.0
 10
12.53113473074507
 20
-10.11961101162701
 30
0.0
 10
12.58191930455553
 20
-10.09396314355891
 30
0.0
 10
12.70662372734452
 20
-10.00844657689386
 30
0.0
 10
12.749818888542
 20
-9.94175795749265
 30
0.0
 10
12.7500897076427
 20
-9.829909964458713
 30
0.0
 10
12.73947463505526
 20
-9.791631368429512
 30
0.0
 10
12.69763839356473
 20
-9.713326598996652
 30
0.0
 10
12.66587299140592
 20
-9.672843473092142
 30
0.0
 10
12.58323810834346
 20
-9.593268717647867
 30
0.0
 10
12.5326421601093
 20
-9.554155622927114
 30
0.0
 10
12.41295046139106
 20
-9.478001434160644
 30
0.0
 10
12.34349706591821
 20
-9.440948896913389
 30
0.0
 10
12.11584013754757
 20
-9.339030254466113
 30
0.0
 10
11.93210188384605
 20
-9.280862582071114
 30
0.0
 10
11.53529580932541
 20
-9.201665512708304
 30
0.0
 10
11.31837670783505
 20
-9.179805758704182
 30
0.0
 10
11.1
 20
-9.179805758704175
 30
0.0
  0
SPLINE
  5
233
330
1F
100
AcDbEntity
  8
SK3
  6
SLD-Dashed
370
    18
100
AcDbSpline
210
0.0
220
0.0
230
1.0
 70
     8
 71
     3
 72
    32
 73
    28
 74
     0
 42
0.000000001
 43
0.00000001
 40
0.0
 40
0.0
 40
0.0
 40
0.0
 40
0.0312499999999997
 40
0.0312499999999997
 40
0.0624999999999995
 40
0.0624999999999995
 40
0.0937499999999992
 40
0.0937499999999992
 40
0.124999999999999
 40
0.124999999999999
 40
0.1874999999999985
 40
0.1874999999999985
 40
0.249999999999998
 40
0.249999999999998
 40
0.2812499999999979
 40
0.2812499999999979
 40
0.3124999999999978
 40
0.3124999999999978
 40
0.3749999999999978
 40
0.3749999999999978
 40
0.4062499999999978
 40
0.4062499999999978
 40
0.4374999999999976
 40
0.4374999999999976
 40
0.4687499999999975
 40
0.4687499999999975
 40
0.4999999999999973
 40
0.4999999999999973
 40
0.4999999999999973
 40
0.4999999999999973
 10
11.1
 20
-9.179805758704175
 30
0.0
 10
10.99081164608248
 20
-9.179805758704175
 30
0.0
 10
10.88348228694937
 20
-9.185095698610874
 30
0.0
 10
10.67237879605726
 20
-9.205623744994131
 30
0.0
 10
10.56749810878618
 20
-9.221113825588795
 30
0.0
 10
10.36776793338712
 20
-9.260883250848776
 30
0.0
 10
10.27306529824509
 20
-9.284980824838106
 30
0.0
 10
10.0938372339478
 20
-9.340759316938229
 30
0.0
 10
10.00911032628284
 20
-9.37266778468554
 30
0.0
 10
9.781209982600792
 20
-9.474579092729856
 30
0.0
 10
9.65832814676007
 20
-9.5534093248483
 30
0.0
 10
9.493633557451364
 20
-9.711670879081035
 30
0.0
 10
9.450122982026105
 20
-9.792652292130278
 30
0.0
 10
9.44993890995334
 20
-9.903280249185915
 30
0.0
 10
9.460689501155569
 20
-9.939134189522573
 30
0.0
 10
9.502853800164385
 20
-10.00544523446511
 30
0.0
 10
9.534048984374932
 20
-10.03617560862043
 30
0.0
 10
9.658206301631388
 20
-10.12179808298892
 30
0.0
 10
9.779247462043324
 20
-10.16814285650723
 30
0.0
 10
10.00974287857795
 20
-10.22280113190018
 30
0.0
 10
10.09288081544681
 20
-10.23815463549887
 30
0.0
 10
10.27137949449045
 20
-10.26423362425848
 30
0.0
 10
10.36791317222979
 20
-10.27503749928641
 30
0.0
 10
10.56752113490711
 20
-10.29194478470053
 30
0.0
 10
10.67036195339996
 20
-10.29810859820633
 30
0.0
 10
10.88212812235423
 20
-10.3063918904809
 30
0.0
 10
10.99159726896756
 20
-10.30846416234867
 30
0.0
 10
11.09936005322229
 20
-10.30847220779006
 30
0.0
  0
SPLINE
  5
234
330
1F
100
AcDbEntity
  8
SK3
  6
SLD-Dashed
370
    18
100
AcDbSpline
210
0.0
220
0.0
230
1.0
 70
     8
 71
     3
 72
    59
 73
    55
 74
     0
 42
0.000000001
 43
0.00000001
 40
0.0
 40
0.0
 40
0.0
 40
0.0
 40
0.0131921222726972
 40
0.0399198987027211
 40
0.0535091569807379
 40
0.0667074152871892
 40
0.0936599764317681
 40
0.1074608485133529
 40
0.1193584409998958
 40
0.1435131195704604
 40
0.1557852081134878
 40
0.168619607672618
 40
0.1946563417272574
 40
0.2078791816148234
 40
0.2219187984218865
 40
0.2504559447191163
 40
0.2649860415131378
 40
0.2792980307654594
 40
0.3084104956923415
 40
0.3232457974912701
 40
0.3375322229437086
 40
0.3665884064759879
 40
0.3813938380536603
 40
0.3956794347853584
 40
0.4247744699897639
 40
0.4396361533339388
 40
0.4531522597105707
 40
0.4807568273842428
 40
0.4949020386118123
 40
0.5069235576685949
 40
0.5313525070648328
 40
0.5437698843324734
 40
0.5612827032473531
 40
0.5969251665985892
 40
0.6150289134433536
 40
0.634688883262179
 40
0.6445427880780721
 40
0.6543488478988105
 40
0.6944766525147593
 40
0.7045997797429797
 40
0.7146893324123283
 40
0.7351188610340389
 40
0.7544430623895414
 40
0.7934334054419164
 40
0.8131656197358381
 40
0.8252126214520408
 40
0.8495471503832899
 40
0.8618813359443611
 40
0.897949584341448
 40
0.9343077301933027
 40
0.9651717508443277
 40
0.9762538226918782
 40
0.9988097616496311
 40
1.0
 40
1.0
 40
1.0
 40
1.0
 10
11.10000000000001
 20
-30.79630739284152
 30
0.0
 10
11.06658349927549
 20
-30.82039542218264
 30
0.0
 10
10.96546380857319
 20
-30.89328677896124
 30
0.0
 10
10.82170409777127
 20
-30.98526679258654
 30
0.0
 10
10.67392706915698
 20
-31.0700892192375
 30
0.0
 10
10.52373627147723
 20
-31.14988436609312
 30
0.0
 10
10.37230283707599
 20
-31.22165965002154
 30
0.0
 10
10.23013986073952
 20
-31.28377547753476
 30
0.0
 10
10.10024169721684
 20
-31.33867717802903
 30
0.0
 10
9.982235981583418
 20
-31.38753151859649
 30
0.0
 10
9.873225194424185
 20
-31.4347420948379
 30
0.0
 10
9.768658118574816
 20
-31.4826689023196
 30
0.0
 10
9.67669829221368
 20
-31.53092912850823
 30
0.0
 10
9.599644890495252
 20
-31.58123772978534
 30
0.0
 10
9.531675316993837
 20
-31.63501176808543
 30
0.0
 10
9.483100342554646
 20
-31.69245574169537
 30
0.0
 10
9.456810523293168
 20
-31.75259967675886
 30
0.0
 10
9.44554461699866
 20
-31.81483003645442
 30
0.0
 10
9.457610777053441
 20
-31.87934085396892
 30
0.0
 10
9.493026338723453
 20
-31.9438184685024
 30
0.0
 10
9.543550985957008
 20
-32.00746011139859
 30
0.0
 10
9.616305376082545
 20
-32.06873219721402
 30
0.0
 10
9.709764552084666
 20
-32.12386035894232
 30
0.0
 10
9.816356333611525
 20
-32.17354741794556
 30
0.0
 10
9.941812201326824
 20
-32.21290414457868
 30
0.0
 10
10.0805598929101
 20
-32.23578857726153
 30
0.0
 10
10.22372193957888
 20
-32.24633617234917
 30
0.0
 10
10.37478567415828
 20
-32.23754223573171
 30
0.0
 10
10.52496863157552
 20
-32.20717036381815
 30
0.0
 10
10.66657158411571
 20
-32.16576249110366
 30
0.0
 10
10.80202497599485
 20
-32.10871838540631
 30
0.0
 10
10.94747986425339
 20
-32.02892961746414
 30
0.0
 10
11.11736190100286
 20
-31.91830945536918
 30
0.0
 10
11.28994385568854
 20
-31.77496693898564
 30
0.0
 10
11.4551539453987
 20
-31.612054825255
 30
0.0
 10
11.55726987424238
 20
-31.50060552478533
 30
0.0
 10
11.63856804379995
 20
-31.40569620767505
 30
0.0
 10
11.75928371057276
 20
-31.25875935118154
 30
0.0
 10
11.8736687495708
 20
-31.10510534086363
 30
0.0
 10
11.98240871165661
 20
-30.94734886089655
 30
0.0
 10
12.05403757062547
 20
-30.84024443976001
 30
0.0
 10
12.13896360352854
 20
-30.70756116774356
 30
0.0
 10
12.26706298378061
 20
-30.49636069639686
 30
0.0
 10
12.3852199439954
 20
-30.28578111207864
 30
0.0
 10
12.48220220764137
 20
-30.09805263339518
 30
0.0
 10
12.5538505280734
 20
-29.95202694974711
 30
0.0
 10
12.6102964934684
 20
-29.82881859409343
 30
0.0
 10
12.68236736999632
 20
-29.65618203867291
 30
0.0
 10
12.74520601676787
 20
-29.4754518155012
 30
0.0
 10
12.75761664981454
 20
-29.34094994020674
 30
0.0
 10
12.71783396053018
 20
-29.31933490821467
 30
0.0
 10
12.66662130495597
 20
-29.33542071203221
 30
0.0
 10
12.6333913936934
 20
-29.3541992593381
 30
0.0
 10
12.60652122876699
 20
-29.37501736435699
 30
0.0
 10
12.60517440563998
 20
-29.37606083786662
 30
0.0
  0
SPLINE
  5
235
330
1F
100
AcDbEntity
  8
SK3
  6
SLD-Dashed
370
    18
100
AcDbSpline
210
0.0
220
0.0
230
1.0
 70
     8
 71
     3
 72
    30
 73
    26
 74
     0
 42
0.000000001
 43
0.00000001
 40
0.5000000000000041
 40
0.5000000000000041
 40
0.5000000000000041
 40
0.5000000000000041
 40
0.562500000000004
 40
0.562500000000004
 40
0.6250000000000039
 40
0.6250000000000039
 40
0.6875000000000038
 40
0.6875000000000038
 40
0.7500000000000036
 40
0.7500000000000036
 40
0.7812500000000031
 40
0.7812500000000031
 40
0.8125000000000027
 40
0.8125000000000027
 40
0.8437500000000022
 40
0.8437500000000022
 40
0.8750000000000018
 40
0.8750000000000018
 40
0.9062500000000013
 40
0.9062500000000013
 40
0.9375000000000009
 40
0.9375000000000009
 40
0.9687500000000004
 40
0.9687500000000004
 40
1.0
 40
1.0
 40
1.0
 40
1.0
 10
9.5778462795999
 20
-37.24120742422243
 30
0.0
 10
9.66145653869395
 20
-37.04732193407148
 30
0.0
 10
9.772407143447987
 20
-36.82949961594639
 30
0.0
 10
10.0151022360722
 20
-36.40195297995442
 30
0.0
 10
10.1507110634755
 20
-36.18529430665033
 30
0.0
 10
10.44343928875972
 20
-35.77313558508322
 30
0.0
 10
10.60055865364917
 20
-35.57611205358847
 30
0.0
 10
10.95645473780858
 20
-35.21646585199331
 30
0.0
 10
11.15657682258683
 20
-35.0552103494276
 30
0.0
 10
11.48301002825779
 20
-34.89264004797298
 30
0.0
 10
11.59373162334221
 20
-34.85273617911093
 30
0.0
 10
11.81720113938134
 20
-34.80331404734676
 30
0.0
 10
11.92912269444715
 20
-34.7945321901728
 30
0.0
 10
12.13607863552178
 20
-34.80407275771569
 30
0.0
 10
12.23401625186757
 20
-34.8222505955072
 30
0.0
 10
12.40552677631536
 20
-34.87497885884254
 30
0.0
 10
12.48093330594184
 20
-34.90980545355289
 30
0.0
 10
12.60500303324971
 20
-34.98743096943383
 30
0.0
 10
12.65341410243624
 20
-35.02976292790713
 30
0.0
 10
12.72289370637351
 20
-35.11771287342228
 30
0.0
 10
12.7431012463063
 20
-35.16265331441309
 30
0.0
 10
12.75391027826542
 20
-35.25020228545146
 30
0.0
 10
12.74440813581845
 20
-35.29376589109364
 30
0.0
 10
12.69629905847906
 20
-35.37645939524523
 30
0.0
 10
12.65801625646423
 20
-35.4158661888506
 30
0.0
 10
12.60540931107557
 20
-35.45448854251146
 30
0.0
  0
SPLINE
  5
236
330
1F
100
AcDbEntity
  8
SK3
  6
SLD-Dashed
370
    18
100
AcDbSpline
210
0.0
220
0.0
230
1.0
 70
     8
 71
     3
 72
    30
 73
    26
 74
     0
 42
0.000000001
 43
0.00000001
 40
0.0
 40
0.0
 40
0.0
 40
0.0
 40
0.0312500000000004
 40
0.0312500000000004
 40
0.0625000000000009
 40
0.0625000000000009
 40
0.0937500000000013
 40
0.0937500000000013
 40
0.1250000000000017
 40
0.1250000000000017
 40
0.1875000000000018
 40
0.1875000000000018
 40
0.2500000000000018
 40
0.2500000000000018
 40
0.3125000000000019
 40
0.3125000000000019
 40
0.3750000000000019
 40
0.3750000000000019
 40
0.4062500000000024
 40
0.4062500000000024
 40
0.437500000000003
 40
0.437500000000003
 40
0.4687500000000036
 40
0.4687500000000036
 40
0.5000000000000041
 40
0.5000000000000041
 40
0.5000000000000041
 40
0.5000000000000041
 10
12.60540931107557
 20
-35.45448854251146
 30
0.0
 10
12.5528023656869
 20
-35.49311089617231
 30
0.0
 10
12.48767206459291
 20
-35.52967124864378
 30
0.0
 10
12.33321503903328
 20
-35.60414285727781
 30
0.0
 10
12.24300655859496
 20
-35.64228604935729
 30
0.0
 10
12.04843499093603
 20
-35.72363874632417
 30
0.0
 10
11.94143370486041
 20
-35.76810195203307
 30
0.0
 10
11.72073264298186
 20
-35.86892523422527
 30
0.0
 10
11.60906552497734
 20
-35.92444386929753
 30
0.0
 10
11.27451801742665
 20
-36.11292799046568
 30
0.0
 10
11.0669842806993
 20
-36.26130433515571
 30
0.0
 10
10.69717844091628
 20
-36.56863401342731
 30
0.0
 10
10.53344908096576
 20
-36.72602022479929
 30
0.0
 10
10.2282495888269
 20
-37.03385397932787
 30
0.0
 10
10.09076882260292
 20
-37.1807693160756
 30
0.0
 10
9.837525619365127
 20
-37.44494222467331
 30
0.0
 10
9.721260896401851
 20
-37.56350654995141
 30
0.0
 10
9.580692660850307
 20
-37.67737553473782
 30
0.0
 10
9.540421636405977
 20
-37.70381257003227
 30
0.0
 10
9.478286004234517
 20
-37.7212494863834
 30
0.0
 10
9.457363995141257
 20
-37.71106233410286
 30
0.0
 10
9.445908412243728
 20
-37.6407545121811
 30
0.0
 10
9.455664817462697
 20
-37.58170627378448
 30
0.0
 10
9.500951505689748
 20
-37.42989632190255
 30
0.0
 10
9.536041150052881
 20
-37.33815016929792
 30
0.0
 10
9.5778462795999
 20
-37.24120742422243
 30
0.0
  0
INSERT
  5
237
330
1F
100
AcDbEntity
  8
80
100
AcDbBlockReference
  2
Block12
 10
-61.7273641656
 20
-130.3356800267
 30
0.0
  0
INSERT
  5
238
330
1F
100
AcDbEntity
  8
81
100
AcDbBlockReference
  2
Block11
 10
23.3735173495
 20
-130.2676275275
 30
0.0
  0
DIMENSION
  5
239
330
1F
100
AcDbEntity
  8
SK2
100
AcDbDimension
  2
_D
 10
37.9999999933
 20
58.6450266264
 30
0.0
 11
18.9983233585
 21
58.6450266264
 31
0.0
 70
   160
  1
<>
 71
     2
 42
-1.0
  3
SLDDIMSTYLE0
100
AcDbAlignedDimension
 13
0.0
 23
34.925
 33
0.0
 14
37.9999999933
 24
49.2286823296
 34
0.0
100
AcDbRotatedDimension
  0
DIMENSION
  5
245
330
1F
100
AcDbEntity
  8
SK2
100
AcDbDimension
  2
_D_1
 10
115.0
 20
58.6450266264
 30
0.0
 11
74.6647849823
 21
58.6450266264
 31
0.0
 70
   160
  1
<>
 71
     2
 42
-1.0
  3
SLDDIMSTYLE0
100
AcDbAlignedDimension
 13
37.9999999933
 23
49.2286823296
 33
0.0
 14
115.0
 24
30.3397459622
 34
0.0
 50
0.0
100
AcDbRotatedDimension
  0
DIMENSION
  5
24F
330
1F
100
AcDbEntity
  8
2
100
AcDbDimension
  2
_D_2
 10
115.0
 20
68.0174410835
 30
0.0
 11
56.3459749071
 21
68.0174410835
 31
0.0
 70
   160
  1
<>
 71
     2
 42
-1.0
  3
SLDDIMSTYLE0
100
AcDbAlignedDimension
 13
0.0
 23
34.925
 33
0.0
 14
115.0
 24
30.3397459622
 34
0.0
100
AcDbRotatedDimension
  0
DIMENSION
  5
259
330
1F
100
AcDbEntity
  8
SK2
100
AcDbDimension
  2
_D_3
 10
100.0
 20
48.4205744914
 30
0.0
 11
106.6161979041
 21
48.4205744914
 31
0.0
 70
   160
  1
<>
 71
     2
 42
-1.0
  3
SLDDIMSTYLE0
100
AcDbAlignedDimension
 13
115.0
 23
30.3397459622
 33
0.0
 14
100.0
 24
39.0
 34
0.0
100
AcDbRotatedDimension
  0
DIMENSION
  5
263
330
1F
100
AcDbEntity
  8
SK2
100
AcDbDimension
  2
_D_4
 10
152.2209302112
 20
-39.0
 30
0.0
 11
152.2209302112
 21
-0.3028392741
 31
0.0
 70
   160
  1
%%c<>
 71
     2
 42
-1.0
  3
SLDDIMSTYLE0
100
AcDbAlignedDimension
 13
100.0
 23
39.0
 33
0.0
 14
100.0
 24
-39.0
 34
0.0
 50
90.0
100
AcDbRotatedDimension
  0
DIMENSION
  5
26E
330
1F
100
AcDbEntity
  8
SK2
100
AcDbDimension
  2
_D_5
 10
140.8984728491
 20
-30.3397459622
 30
0.0
 11
140.8984728491
 21
-0.9670991043
 31
0.0
 70
   160
  1
%%c<>
 71
     2
 42
-1.0
  3
SLDDIMSTYLE0
100
AcDbAlignedDimension
 13
115.0
 23
30.3397459622
 33
0.0
 14
115.0
 24
-30.3397459622
 34
0.0
 50
90.0
100
AcDbRotatedDimension
  0
DIMENSION
  5
279
330
1F
100
AcDbEntity
  8
SK2
100
AcDbDimension
  2
_D_6
 10
130.4362581211
 20
20.0
 30
0.0
 11
130.4362581211
 21
-0.3028392741
 31
0.0
 70
   160
  1
%%c<>
 71
     2
 42
-1.0
  3
SLDDIMSTYLE0
100
AcDbAlignedDimension
 13
113.0
 23
-20.0
 33
0.0
 14
113.0
 24
20.0
 34
0.0
 50
90.0
100
AcDbRotatedDimension
  0
DIMENSION
  5
284
330
1F
100
AcDbEntity
  8
SK2
100
AcDbDimension
  2
_D_7
 10
85.0
 20
-49.5841115023
 30
0.0
 11
100.5641222107
 21
-49.5841115023
 31
0.0
 70
   160
  1
<>
 71
     2
 42
-1.0
  3
SLDDIMSTYLE0
100
AcDbAlignedDimension
 13
115.0
 23
-30.3397459622
 33
0.0
 14
85.0
 24
-38.8
 34
0.0
100
AcDbRotatedDimension
  0
DIMENSION
  5
28E
330
1F
100
AcDbEntity
  8
SK2
100
AcDbDimension
  2
_D_8
 10
53.0
 20
-49.5841115023
 30
0.0
 11
68.9576979102
 21
-49.5841115023
 31
0.0
 70
   160
  1
<>
 71
     2
 42
-1.0
  3
SLDDIMSTYLE0
100
AcDbAlignedDimension
 13
85.0
 23
-38.8
 33
0.0
 14
53.0
 24
-38.8
 34
0.0
 50
0.0
100
AcDbRotatedDimension
  0
DIMENSION
  5
298
330
1F
100
AcDbEntity
  8
SK2
100
AcDbDimension
  2
_D_9
 10
45.0
 20
-59.4548580572
 30
0.0
 11
79.6490575324
 21
-59.4548580572
 31
0.0
 70
   160
  1
<>
 71
     2
 42
-1.0
  3
SLDDIMSTYLE0
100
AcDbAlignedDimension
 13
115.0
 23
-30.3397459622
 33
0.0
 14
45.0
 24
-19.5703857908
 34
0.0
100
AcDbRotatedDimension
  0
DIMENSION
  5
2A2
330
1F
100
AcDbEntity
  8
SK2
100
AcDbDimension
  2
_D_10
 10
-129.1325837143
 20
-49.978682327
 30
0.0
 11
-129.1325837143
 21
-0.3028392741
 31
0.0
 70
   160
  1
%%c<>
 71
     2
 42
-1.0
  3
SLDDIMSTYLE0
100
AcDbAlignedDimension
 13
3.75
 23
49.978682327
 33
0.0
 14
3.75
 24
-49.978682327
 34
0.0
 50
90.0
100
AcDbRotatedDimension
  0
DIMENSION
  5
2AD
330
1F
100
AcDbEntity
  8
SK2
100
AcDbDimension
  2
_D_11
 10
-119.4443482521
 20
-34.925
 30
0.0
 11
-119.4443482521
 21
-0.3028392741
 31
0.0
 70
   160
  1
%%c<>
 71
     2
 42
-1.0
  3
SLDDIMSTYLE0
100
AcDbAlignedDimension
 13
0.0
 23
34.925
 33
0.0
 14
0.0
 24
-34.925
 34
0.0
 50
90.0
100
AcDbRotatedDimension
  0
DIMENSION
  5
2B8
330
1F
100
AcDbEntity
  8
SK2
100
AcDbDimension
  2
_D_12
 10
-109.9602710086
 20
12.0
 30
0.0
 11
-109.9602710086
 21
-0.3028392741
 31
0.0
 70
   160
  1
M<>
 71
     2
 42
-1.0
  3
SLDDIMSTYLE0
100
AcDbAlignedDimension
 13
-88.1169872981
 23
-12.0
 33
0.0
 14
-88.1169872981
 24
12.0
 34
0.0
 50
90.0
100
AcDbRotatedDimension
  0
MTEXT
  5
2C3
330
1F
100
AcDbEntity
  8
SK6
 62
     5
100
AcDbMText
 10
-33.7713796001
 20
44.3202631249
 30
0.0
 40
3.5
 41
0.0
 71
     1
 72
     1
  1
MAS-403 BT50
  7
SLDTEXTSTYLE0
 73
     1
 44
1.0
  0
MTEXT
  5
2C4
330
1F
100
AcDbEntity
  8
SK6
 62
     5
100
AcDbMText
 10
-101.7907140612
 20
-55.9688153904
 30
0.0
 40
3.5
 41
0.0
 71
     1
 72
     1
  1
A2B20-50 40 115
  7
SLDTEXTSTYLE0
 73
     1
 44
1.0
  0
ENDSEC
  0
SECTION
  2
OBJECTS
  0
DICTIONARY
  5
C
330
0
100
AcDbDictionary
281
     1
  3
ACAD_GROUP
350
D
  3
ACAD_LAYOUT
350
1A
  3
ACAD_MLINESTYLE
350
17
  3
ACAD_PLOTSETTINGS
350
19
  3
ACAD_PLOTSTYLENAME
350
E
  3
ACAD_SCALELIST
350
47
  0
DICTIONARY
  5
D
102
{ACAD_REACTORS
330
C
102
}
330
C
100
AcDbDictionary
281
     1
  0
DICTIONARY
  5
1A
102
{ACAD_REACTORS
330
C
102
}
330
C
100
AcDbDictionary
281
     1
  3
Layout1
350
1E
  3
Layout2
350
26
  3
Model
350
22
  0
DICTIONARY
  5
17
102
{ACAD_REACTORS
330
C
102
}
330
C
100
AcDbDictionary
281
     1
  3
Standard
350
18
  0
DICTIONARY
  5
19
102
{ACAD_REACTORS
330
C
102
}
330
C
100
AcDbDictionary
281
     1
  0
ACDBDICTIONARYWDFLT
  5
E
102
{ACAD_REACTORS
330
C
102
}
330
C
100
AcDbDictionary
281
     1
  3
Normal
350
F
100
AcDbDictionaryWithDefault
340
F
  0
DICTIONARY
  5
47
102
{ACAD_REACTORS
330
C
102
}
330
C
100
AcDbDictionary
281
     1
  3
A0
350
48
  3
A1
350
49
  3
A2
350
4A
  3
A3
350
4B
  3
A4
350
4C
  3
A5
350
4D
  3
A6
350
4E
  3
A7
350
4F
  3
A8
350
50
  3
A9
350
51
  3
B0
350
52
  3
B1
350
53
  3
B2
350
54
  3
B3
350
55
  3
B4
350
56
  3
B5
350
57
  3
B6
350
58
  3
B7
350
59
  3
B8
350
5A
  3
B9
350
5B
  3
C0
350
5C
  3
C1
350
5D
  3
C2
350
5E
  3
C3
350
5F
  3
C4
350
60
  3
C5
350
61
  3
C6
350
62
  3
C7
350
63
  3
C8
350
64
  3
C9
350
65
  3
D0
350
66
  3
D1
350
67
  3
D2
350
68
  0
LAYOUT
  5
1E
102
{ACAD_REACTORS
330
1A
102
}
330
1A
100
AcDbPlotSettings
  1

  2
none_device
  4

  6

 40
0.0
 41
0.0
 42
0.0
 43
0.0
 44
0.0
 45
0.0
 46
0.0
 47
0.0
 48
0.0
 49
0.0
140
0.0
141
0.0
142
1.0
143
1.0
 70
   688
 72
     1
 73
     0
 74
     5
  7

 75
    16
147
1.0
148
0.0
149
0.0
100
AcDbLayout
  1
Layout1
 70
     1
 71
     1
 10
0.0
 20
0.0
 11
420.0
 21
297.0
 12
0.0
 22
0.0
 32
0.0
 14
1.0000000000E+20
 24
1.0000000000E+20
 34
1.0000000000E+20
 15
-1.0000000000E+20
 25
-1.0000000000E+20
 35
-1.0000000000E+20
146
0.0
 13
0.0
 23
0.0
 33
0.0
 16
1.0
 26
0.0
 36
0.0
 17
0.0
 27
1.0
 37
0.0
 76
     0
330
1B
  0
LAYOUT
  5
26
102
{ACAD_REACTORS
330
1A
102
}
330
1A
100
AcDbPlotSettings
  1

  2
none_device
  4

  6

 40
0.0
 41
0.0
 42
0.0
 43
0.0
 44
0.0
 45
0.0
 46
0.0
 47
0.0
 48
0.0
 49
0.0
140
0.0
141
0.0
142
1.0
143
1.0
 70
   688
 72
     1
 73
     0
 74
     5
  7

 75
    16
147
1.0
148
0.0
149
0.0
100
AcDbLayout
  1
Layout2
 70
     1
 71
     2
 10
0.0
 20
0.0
 11
0.0
 21
0.0
 12
0.0
 22
0.0
 32
0.0
 14
0.0
 24
0.0
 34
0.0
 15
0.0
 25
0.0
 35
0.0
146
0.0
 13
0.0
 23
0.0
 33
0.0
 16
1.0
 26
0.0
 36
0.0
 17
0.0
 27
1.0
 37
0.0
 76
     0
330
23
  0
LAYOUT
  5
22
102
{ACAD_REACTORS
330
1A
102
}
330
1A
100
AcDbPlotSettings
  1

  2
none_device
  4
Letter_(8.50_x_11.00_Inches)
  6

 40
6.35
 41
6.35
 42
6.35000508
 43
6.35000508
 44
215.9
 45
279.4
 46
0.0
 47
0.0
 48
0.0
 49
0.0
140
0.0
141
0.0
142
1.0
143
1.0
 70
  1712
 72
     1
 73
     0
 74
     0
  7

 75
     0
147
1.0
148
0.0
149
0.0
100
AcDbLayout
  1
Model
 70
     1
 71
     0
 10
0.0
 20
0.0
 11
297.0
 21
210.0
 12
0.0
 22
0.0
 32
0.0
 14
0.0
 24
0.0
 34
0.0
 15
297.0
 25
210.0
 35
0.0
146
0.0
 13
0.0
 23
0.0
 33
0.0
 16
1.0
 26
0.0
 36
0.0
 17
0.0
 27
1.0
 37
0.0
 76
     0
330
1F
331
29
  0
MLINESTYLE
  5
18
102
{ACAD_REACTORS
330
17
102
}
330
17
100
AcDbMlineStyle
  2
Standard
 70
     0
  3

 62
   256
 51
90.0
 52
90.0
 71
     2
 49
0.5
 62
   256
  6
BYLAYER
 49
-0.5
 62
   256
  6
BYLAYER
  0
ACDBPLACEHOLDER
  5
F
102
{ACAD_REACTORS
330
E
102
}
330
E
  0
SCALE
  5
48
102
{ACAD_REACTORS
330
47
102
}
330
47
100
AcDbScale
 70
     0
300
1:1
140
1.0
141
1.0
290
     1
  0
SCALE
  5
49
102
{ACAD_REACTORS
330
47
102
}
330
47
100
AcDbScale
 70
     0
300
1:2
140
1.0
141
2.0
290
     0
  0
SCALE
  5
4A
102
{ACAD_REACTORS
330
47
102
}
330
47
100
AcDbScale
 70
     0
300
1:4
140
1.0
141
4.0
290
     0
  0
SCALE
  5
4B
102
{ACAD_REACTORS
330
47
102
}
330
47
100
AcDbScale
 70
     0
300
1:5
140
1.0
141
5.0
290
     0
  0
SCALE
  5
4C
102
{ACAD_REACTORS
330
47
102
}
330
47
100
AcDbScale
 70
     0
300
1:8
140
1.0
141
8.0
290
     0
  0
SCALE
  5
4D
102
{ACAD_REACTORS
330
47
102
}
330
47
100
AcDbScale
 70
     0
300
1:10
140
1.0
141
10.0
290
     0
  0
SCALE
  5
4E
102
{ACAD_REACTORS
330
47
102
}
330
47
100
AcDbScale
 70
     0
300
1:16
140
1.0
141
16.0
290
     0
  0
SCALE
  5
4F
102
{ACAD_REACTORS
330
47
102
}
330
47
100
AcDbScale
 70
     0
300
1:20
140
1.0
141
20.0
290
     0
  0
SCALE
  5
50
102
{ACAD_REACTORS
330
47
102
}
330
47
100
AcDbScale
 70
     0
300
1:30
140
1.0
141
30.0
290
     0
  0
SCALE
  5
51
102
{ACAD_REACTORS
330
47
102
}
330
47
100
AcDbScale
 70
     0
300
1:40
140
1.0
141
40.0
290
     0
  0
SCALE
  5
52
102
{ACAD_REACTORS
330
47
102
}
330
47
100
AcDbScale
 70
     0
300
1:50
140
1.0
141
50.0
290
     0
  0
SCALE
  5
53
102
{ACAD_REACTORS
330
47
102
}
330
47
100
AcDbScale
 70
     0
300
1:100
140
1.0
141
100.0
290
     0
  0
SCALE
  5
54
102
{ACAD_REACTORS
330
47
102
}
330
47
100
AcDbScale
 70
     0
300
2:1
140
2.0
141
1.0
290
     0
  0
SCALE
  5
55
102
{ACAD_REACTORS
330
47
102
}
330
47
100
AcDbScale
 70
     0
300
4:1
140
4.0
141
1.0
290
     0
  0
SCALE
  5
56
102
{ACAD_REACTORS
330
47
102
}
330
47
100
AcDbScale
 70
     0
300
8:1
140
8.0
141
1.0
290
     0
  0
SCALE
  5
57
102
{ACAD_REACTORS
330
47
102
}
330
47
100
AcDbScale
 70
     0
300
10:1
140
10.0
141
1.0
290
     0
  0
SCALE
  5
58
102
{ACAD_REACTORS
330
47
102
}
330
47
100
AcDbScale
 70
     0
300
100:1
140
100.0
141
1.0
290
     0
  0
SCALE
  5
59
102
{ACAD_REACTORS
330
47
102
}
330
47
100
AcDbScale
 70
     0
300
1/128" = 1'-0"
140
0.0078125
141
12.0
290
     0
  0
SCALE
  5
5A
102
{ACAD_REACTORS
330
47
102
}
330
47
100
AcDbScale
 70
     0
300
1/64" = 1'-0"
140
0.015625
141
12.0
290
     0
  0
SCALE
  5
5B
102
{ACAD_REACTORS
330
47
102
}
330
47
100
AcDbScale
 70
     0
300
1/32" = 1'-0"
140
0.03125
141
12.0
290
     0
  0
SCALE
  5
5C
102
{ACAD_REACTORS
330
47
102
}
330
47
100
AcDbScale
 70
     0
300
1/16" = 1'-0"
140
0.0625
141
12.0
290
     0
  0
SCALE
  5
5D
102
{ACAD_REACTORS
330
47
102
}
330
47
100
AcDbScale
 70
     0
300
3/32" = 1'-0"
140
0.09375
141
12.0
290
     0
  0
SCALE
  5
5E
102
{ACAD_REACTORS
330
47
102
}
330
47
100
AcDbScale
 70
     0
300
1/8" = 1'-0"
140
0.125
141
12.0
290
     0
  0
SCALE
  5
5F
102
{ACAD_REACTORS
330
47
102
}
330
47
100
AcDbScale
 70
     0
300
3/16" = 1'-0"
140
0.1875
141
12.0
290
     0
  0
SCALE
  5
60
102
{ACAD_REACTORS
330
47
102
}
330
47
100
AcDbScale
 70
     0
300
1/4" = 1'-0"
140
0.25
141
12.0
290
     0
  0
SCALE
  5
61
102
{ACAD_REACTORS
330
47
102
}
330
47
100
AcDbScale
 70
     0
300
3/8" = 1'-0"
140
0.375
141
12.0
290
     0
  0
SCALE
  5
62
102
{ACAD_REACTORS
330
47
102
}
330
47
100
AcDbScale
 70
     0
300
1/2" = 1'-0"
140
0.5
141
12.0
290
     0
  0
SCALE
  5
63
102
{ACAD_REACTORS
330
47
102
}
330
47
100
AcDbScale
 70
     0
300
3/4" = 1'-0"
140
0.75
141
12.0
290
     0
  0
SCALE
  5
64
102
{ACAD_REACTORS
330
47
102
}
330
47
100
AcDbScale
 70
     0
300
1" = 1'-0"
140
1.0
141
12.0
290
     0
  0
SCALE
  5
65
102
{ACAD_REACTORS
330
47
102
}
330
47
100
AcDbScale
 70
     0
300
1-1/2" = 1'-0"
140
1.5
141
12.0
290
     0
  0
SCALE
  5
66
102
{ACAD_REACTORS
330
47
102
}
330
47
100
AcDbScale
 70
     0
300
3" = 1'-0"
140
3.0
141
12.0
290
     0
  0
SCALE
  5
67
102
{ACAD_REACTORS
330
47
102
}
330
47
100
AcDbScale
 70
     0
300
6" = 1'-0"
140
6.0
141
12.0
290
     0
  0
SCALE
  5
68
102
{ACAD_REACTORS
330
47
102
}
330
47
100
AcDbScale
 70
     0
300
1'-0" = 1'-0"
140
12.0
141
12.0
290
     0
  0
ENDSEC
  0
EOF
