  0
SECTION
  2
HEADER
  9
$ACADVER
  1
AC1015
  9
$ACADMAINTVER
 70
     6
  9
$DWGCODEPAGE
  3
ANSI_1250
  9
$INSBASE
 10
0.0
 20
0.0
 30
0.0
  9
$EXTMIN
 10
0.0
 20
0.0
 30
0.0
  9
$EXTMAX
 10
297.0
 20
210.0
 30
0.0
  9
$LIMMIN
 10
0.0
 20
0.0
  9
$LIMMAX
 10
297.0
 20
210.0
  9
$ORTHOMODE
 70
     0
  9
$REGENMODE
 70
     1
  9
$FILLMODE
 70
     1
  9
$QTEXTMODE
 70
     0
  9
$MIRRTEXT
 70
     1
  9
$LTSCALE
 40
1.0
  9
$ATTMODE
 70
     1
  9
$TEXTSIZE
 40
3.5
  9
$TRACEWID
 40
1.0
  9
$TEXTSTYLE
  7
Standard
  9
$CLAYER
  8
0
  9
$CELTYPE
  6
ByLayer
  9
$CECOLOR
 62
   256
  9
$CELTSCALE
 40
1.0
  9
$DISPSILH
 70
     0
  9
$DIMSCALE
 40
1.0
  9
$DIMASZ
 40
3.302
  9
$DIMEXO
 40
1.0
  9
$DIMDLI
 40
3.75
  9
$DIMRND
 40
0.0
  9
$DIMDLE
 40
0.0
  9
$DIMEXE
 40
1.0
  9
$DIMTP
 40
0.0
  9
$DIMTM
 40
0.0
  9
$DIMTXT
 40
3.5
  9
$DIMCEN
 40
2.5
  9
$DIMTSZ
 40
0.0
  9
$DIMTOL
 70
     0
  9
$DIMLIM
 70
     0
  9
$DIMTIH
 70
     1
  9
$DIMTOH
 70
     1
  9
$DIMSE1
 70
     0
  9
$DIMSE2
 70
     0
  9
$DIMTAD
 70
     1
  9
$DIMZIN
 70
     0
  9
$DIMBLK
  1

  9
$DIMASO
 70
     1
  9
$DIMSHO
 70
     1
  9
$DIMPOST
  1

  9
$DIMAPOST
  1

  9
$DIMALT
 70
     0
  9
$DIMALTD
 70
     3
  9
$DIMALTF
 40
0.0393700787
  9
$DIMLFAC
 40
1.0
  9
$DIMTOFL
 70
     1
  9
$DIMTVP
 40
0.0
  9
$DIMTIX
 70
     0
  9
$DIMSOXD
 70
     0
  9
$DIMSAH
 70
     0
  9
$DIMBLK1
  1

  9
$DIMBLK2
  1

  9
$DIMSTYLE
  2
ISO-25
  9
$DIMCLRD
 70
     0
  9
$DIMCLRE
 70
     0
  9
$DIMCLRT
 70
     0
  9
$DIMTFAC
 40
1.0
  9
$DIMGAP
 40
1.524
  9
$DIMJUST
 70
     0
  9
$DIMSD1
 70
     0
  9
$DIMSD2
 70
     0
  9
$DIMTOLJ
 70
     0
  9
$DIMTZIN
 70
     0
  9
$DIMALTZ
 70
     0
  9
$DIMALTTZ
 70
     0
  9
$DIMUPT
 70
     0
  9
$DIMDEC
 70
     2
  9
$DIMTDEC
 70
     2
  9
$DIMALTU
 70
     2
  9
$DIMALTTD
 70
     3
  9
$DIMTXSTY
  7
Standard
  9
$DIMAUNIT
 70
     0
  9
$DIMADEC
 70
     2
  9
$DIMALTRND
 40
0.0
  9
$DIMAZIN
 70
     0
  9
$DIMDSEP
 70
    44
  9
$DIMATFIT
 70
     3
  9
$DIMFRAC
 70
     0
  9
$DIMLDRBLK
  1

  9
$DIMLUNIT
 70
     2
  9
$DIMLWD
 70
    -2
  9
$DIMLWE
 70
    -2
  9
$DIMTMOVE
 70
     0
  9
$LUNITS
 70
     2
  9
$LUPREC
 70
     2
  9
$SKETCHINC
 40
1.0
  9
$FILLETRAD
 40
10.0
  9
$AUNITS
 70
     0
  9
$AUPREC
 70
     2
  9
$MENU
  1
.
  9
$ELEVATION
 40
0.0
  9
$PELEVATION
 40
0.0
  9
$THICKNESS
 40
0.0
  9
$LIMCHECK
 70
     0
  9
$CHAMFERA
 40
0.0
  9
$CHAMFERB
 40
0.0
  9
$CHAMFERC
 40
0.0
  9
$CHAMFERD
 40
0.0
  9
$SKPOLY
 70
     0
  9
$TDCREATE
 40
2459290.487480232
  9
$TDUCREATE
 40
2459290.445813565
  9
$TDUPDATE
 40
2459290.487481366
  9
$TDUUPDATE
 40
2459290.445814699
  9
$TDINDWG
 40
0.0000000116
  9
$TDUSRTIMER
 40
0.0000000116
  9
$USRTIMER
 70
     1
  9
$ANGBASE
 50
0.0
  9
$ANGDIR
 70
     0
  9
$PDMODE
 70
     0
  9
$PDSIZE
 40
-1.0
  9
$PLINEWID
 40
0.0
  9
$SPLFRAME
 70
     0
  9
$SPLINETYPE
 70
     6
  9
$SPLINESEGS
 70
     8
  9
$HANDSEED
  5
2A7
  9
$SURFTAB1
 70
     6
  9
$SURFTAB2
 70
     6
  9
$SURFTYPE
 70
     6
  9
$SURFU
 70
     6
  9
$SURFV
 70
     6
  9
$UCSBASE
  2

  9
$UCSNAME
  2

  9
$UCSORG
 10
0.0
 20
0.0
 30
0.0
  9
$UCSXDIR
 10
1.0
 20
0.0
 30
0.0
  9
$UCSYDIR
 10
0.0
 20
1.0
 30
0.0
  9
$UCSORTHOREF
  2

  9
$UCSORTHOVIEW
 70
     0
  9
$UCSORGTOP
 10
0.0
 20
0.0
 30
0.0
  9
$UCSORGBOTTOM
 10
0.0
 20
0.0
 30
0.0
  9
$UCSORGLEFT
 10
0.0
 20
0.0
 30
0.0
  9
$UCSORGRIGHT
 10
0.0
 20
0.0
 30
0.0
  9
$UCSORGFRONT
 10
0.0
 20
0.0
 30
0.0
  9
$UCSORGBACK
 10
0.0
 20
0.0
 30
0.0
  9
$PUCSBASE
  2

  9
$PUCSNAME
  2

  9
$PUCSORG
 10
0.0
 20
0.0
 30
0.0
  9
$PUCSXDIR
 10
1.0
 20
0.0
 30
0.0
  9
$PUCSYDIR
 10
0.0
 20
1.0
 30
0.0
  9
$PUCSORTHOREF
  2

  9
$PUCSORTHOVIEW
 70
     0
  9
$PUCSORGTOP
 10
0.0
 20
0.0
 30
0.0
  9
$PUCSORGBOTTOM
 10
0.0
 20
0.0
 30
0.0
  9
$PUCSORGLEFT
 10
0.0
 20
0.0
 30
0.0
  9
$PUCSORGRIGHT
 10
0.0
 20
0.0
 30
0.0
  9
$PUCSORGFRONT
 10
0.0
 20
0.0
 30
0.0
  9
$PUCSORGBACK
 10
0.0
 20
0.0
 30
0.0
  9
$USERI1
 70
     0
  9
$USERI2
 70
     0
  9
$USERI3
 70
     0
  9
$USERI4
 70
     0
  9
$USERI5
 70
     0
  9
$USERR1
 40
0.0
  9
$USERR2
 40
0.0
  9
$USERR3
 40
0.0
  9
$USERR4
 40
0.0
  9
$USERR5
 40
0.0
  9
$WORLDVIEW
 70
     1
  9
$SHADEDGE
 70
     3
  9
$SHADEDIF
 70
    70
  9
$TILEMODE
 70
     1
  9
$MAXACTVP
 70
    64
  9
$PINSBASE
 10
0.0
 20
0.0
 30
0.0
  9
$PLIMCHECK
 70
     0
  9
$PEXTMIN
 10
1.0000000000E+20
 20
1.0000000000E+20
 30
1.0000000000E+20
  9
$PEXTMAX
 10
-1.0000000000E+20
 20
-1.0000000000E+20
 30
-1.0000000000E+20
  9
$PLIMMIN
 10
0.0
 20
0.0
  9
$PLIMMAX
 10
420.0
 20
297.0
  9
$UNITMODE
 70
     0
  9
$VISRETAIN
 70
     1
  9
$PLINEGEN
 70
     0
  9
$PSLTSCALE
 70
     1
  9
$TREEDEPTH
 70
  3020
  9
$CMLSTYLE
  2
Standard
  9
$CMLJUST
 70
     0
  9
$CMLSCALE
 40
20.0
  9
$PROXYGRAPHICS
 70
     1
  9
$MEASUREMENT
 70
     1
  9
$CELWEIGHT
370
    -1
  9
$ENDCAPS
280
     0
  9
$JOINSTYLE
280
     0
  9
$LWDISPLAY
290
     1
  9
$INSUNITS
 70
     4
  9
$HYPERLINKBASE
  1

  9
$STYLESHEET
  1

  9
$XEDIT
290
     1
  9
$CEPSNTYPE
380
     0
  9
$PSTYLEMODE
290
     1
  9
$FINGERPRINTGUID
  2
{7B2C0E1E-C727-4A4B-AD1C-DB61E941A55C}
  9
$VERSIONGUID
  2
{FAEB1C32-E019-11D5-929B-00C0DF256EC4}
  9
$EXTNAMES
290
     1
  9
$PSVPSCALE
 40
0.0
  9
$OLESTARTUP
290
     0
  0
ENDSEC
  0
SECTION
  2
CLASSES
  0
CLASS
  1
ACDBDICTIONARYWDFLT
  2
AcDbDictionaryWithDefault
  3
ObjectDBX Classes
 90
        0
280
     0
281
     0
  0
CLASS
  1
VISUALSTYLE
  2
AcDbVisualStyle
  3
ObjectDBX Classes
 90
     4095
280
     0
281
     0
  0
CLASS
  1
MATERIAL
  2
AcDbMaterial
  3
ObjectDBX Classes
 90
     1153
280
     0
281
     0
  0
CLASS
  1
SCALE
  2
AcDbScale
  3
ObjectDBX Classes
 90
     1153
280
     0
281
     0
  0
CLASS
  1
TABLESTYLE
  2
AcDbTableStyle
  3
ObjectDBX Classes
 90
     4095
280
     0
281
     0
  0
CLASS
  1
MLEADERSTYLE
  2
AcDbMLeaderStyle
  3
ACDB_MLEADERSTYLE_CLASS
 90
     4095
280
     0
281
     0
  0
CLASS
  1
SUN
  2
AcDbSun
  3
SCENEOE
 90
     1153
280
     0
281
     0
  0
CLASS
  1
ACDBPLACEHOLDER
  2
AcDbPlaceHolder
  3
ObjectDBX Classes
 90
        0
280
     0
281
     0
  0
CLASS
  1
LAYOUT
  2
AcDbLayout
  3
ObjectDBX Classes
 90
        0
280
     0
281
     0
  0
ENDSEC
  0
SECTION
  2
TABLES
  0
TABLE
  2
VPORT
  5
8
330
0
100
AcDbSymbolTable
 70
     1
  0
VPORT
  5
29
330
8
100
AcDbSymbolTableRecord
100
AcDbViewportTableRecord
  2
*Active
 70
     0
 10
0.0
 20
0.0
 11
1.0
 21
1.0
 12
148.5
 22
105.0
 13
0.0
 23
0.0
 14
10.0
 24
10.0
 15
10.0
 25
10.0
 16
0.0
 26
0.0
 36
1.0
 17
0.0
 27
0.0
 37
0.0
 40
210.0
 41
1.4142857143
 42
50.0
 43
0.0
 44
0.0
 50
0.0
 51
0.0
 71
     0
 72
  2000
 73
     1
 74
     3
 75
     0
 76
     0
 77
     0
 78
     0
281
     0
 65
     1
110
0.0
120
0.0
130
0.0
111
1.0
121
0.0
131
0.0
112
0.0
122
1.0
132
0.0
 79
     0
146
0.0
  0
ENDTAB
  0
TABLE
  2
LTYPE
  5
5
330
0
100
AcDbSymbolTable
 70
     8
  0
LTYPE
  5
14
330
5
100
AcDbSymbolTableRecord
100
AcDbLinetypeTableRecord
  2
ByBlock
 70
     0
  3

 72
    65
 73
     0
 40
0.0
  0
LTYPE
  5
15
330
5
100
AcDbSymbolTableRecord
100
AcDbLinetypeTableRecord
  2
ByLayer
 70
     0
  3

 72
    65
 73
     0
 40
0.0
  0
LTYPE
  5
16
330
5
100
AcDbSymbolTableRecord
100
AcDbLinetypeTableRecord
  2
Continuous
 70
     0
  3
Solid line
 72
    65
 73
     0
 40
0.0
  0
LTYPE
  5
6E
330
5
100
AcDbSymbolTableRecord
100
AcDbLinetypeTableRecord
  2
SLD-Solid
 70
     0
  3
SolidWorks Line Style
 72
    65
 73
     0
 40
0.0
  0
LTYPE
  5
6F
330
5
100
AcDbSymbolTableRecord
100
AcDbLinetypeTableRecord
  2
SLD-Dashed
 70
     0
  3
SolidWorks Line Style
 72
    65
 73
     2
 40
1.905
 49
1.27
 74
     0
 49
-0.635
 74
     0
  0
LTYPE
  5
70
330
5
100
AcDbSymbolTableRecord
100
AcDbLinetypeTableRecord
  2
SLD-Phantom
 70
     0
  3
SolidWorks Line Style
 72
    65
 73
     6
 40
12.7
 49
6.35
 74
     0
 49
-1.27
 74
     0
 49
1.27
 74
     0
 49
-1.27
 74
     0
 49
1.27
 74
     0
 49
-1.27
 74
     0
  0
LTYPE
  5
71
330
5
100
AcDbSymbolTableRecord
100
AcDbLinetypeTableRecord
  2
SLD-Chain
 70
     0
  3
SolidWorks Line Style
 72
    65
 73
     4
 40
10.16
 49
6.35
 74
     0
 49
-1.27
 74
     0
 49
1.27
 74
     0
 49
-1.27
 74
     0
  0
LTYPE
  5
72
330
5
100
AcDbSymbolTableRecord
100
AcDbLinetypeTableRecord
  2
SLD-Center
 70
     0
  3
SolidWorks Line Style
 72
    65
 73
     4
 40
19.05
 49
15.24
 74
     0
 49
-1.27
 74
     0
 49
1.27
 74
     0
 49
-1.27
 74
     0
  0
LTYPE
  5
73
330
5
100
AcDbSymbolTableRecord
100
AcDbLinetypeTableRecord
  2
SLD-Stitch
 70
     0
  3
SolidWorks Line Style
 72
    65
 73
     2
 40
0.635
 49
0.0
 74
     0
 49
-0.635
 74
     0
  0
LTYPE
  5
74
330
5
100
AcDbSymbolTableRecord
100
AcDbLinetypeTableRecord
  2
SLD-Thin-Thick-Chain
 70
     0
  3
SolidWorks Line Style
 72
    65
 73
     4
 40
10.16
 49
6.35
 74
     0
 49
-1.27
 74
     0
 49
1.27
 74
     0
 49
-1.27
 74
     0
  0
ENDTAB
  0
TABLE
  2
LAYER
  5
2
330
0
100
AcDbSymbolTable
 70
    12
  0
LAYER
  5
10
330
2
100
AcDbSymbolTableRecord
100
AcDbLayerTableRecord
  2
0
 70
     0
 62
     7
  6
Continuous
370
    -3
390
F
  0
LAYER
  5
75
330
2
100
AcDbSymbolTableRecord
100
AcDbLayerTableRecord
  2
SLD-0
 70
     0
 62
   179
  6
SLD-Solid
370
    -3
390
F
  0
LAYER
  5
76
330
2
100
AcDbSymbolTableRecord
100
AcDbLayerTableRecord
  2
80
 70
     0
 62
    -6
  6
SLD-Solid
290
     0
370
    -3
390
F
  0
LAYER
  5
77
330
2
100
AcDbSymbolTableRecord
100
AcDbLayerTableRecord
  2
81
 70
     0
 62
    -3
  6
SLD-Solid
290
     0
370
    -3
390
F
  0
LAYER
  5
78
330
2
100
AcDbSymbolTableRecord
100
AcDbLayerTableRecord
  2
1
 70
     0
 62
     4
  6
SLD-Solid
290
     0
370
    -3
390
F
  0
LAYER
  5
79
330
2
100
AcDbSymbolTableRecord
100
AcDbLayerTableRecord
  2
4
 70
     0
 62
    -2
  6
SLD-Chain
290
     0
370
    -3
390
F
  0
LAYER
  5
7A
330
2
100
AcDbSymbolTableRecord
100
AcDbLayerTableRecord
  2
2
 70
     0
 62
     7
  6
SLD-Solid
290
     0
370
    -3
390
F
  0
LAYER
  5
7B
330
2
100
AcDbSymbolTableRecord
100
AcDbLayerTableRecord
  2
SK3
 70
     0
 62
     1
  6
SLD-Dashed
290
     0
370
    -3
390
F
  0
LAYER
  5
7C
330
2
100
AcDbSymbolTableRecord
100
AcDbLayerTableRecord
  2
SK4
 70
     0
 62
     2
  6
SLD-Chain
290
     0
370
    -3
390
F
  0
LAYER
  5
7D
330
2
100
AcDbSymbolTableRecord
100
AcDbLayerTableRecord
  2
SK2
 70
     0
 62
     7
  6
SLD-Solid
290
     0
370
    -3
390
F
  0
LAYER
  5
7E
330
2
100
AcDbSymbolTableRecord
100
AcDbLayerTableRecord
  2
SK6
 70
     0
 62
     5
  6
SLD-Solid
290
     0
370
    -3
390
F
  0
LAYER
  5
7F
330
2
100
AcDbSymbolTableRecord
100
AcDbLayerTableRecord
  2
SK1
 70
     0
 62
     4
  6
SLD-Solid
370
    -3
390
F
  0
ENDTAB
  0
TABLE
  2
STYLE
  5
3
330
0
100
AcDbSymbolTable
 70
     2
  0
STYLE
  5
11
330
3
100
AcDbSymbolTableRecord
100
AcDbTextStyleTableRecord
  2
Standard
 70
     0
 40
0.0
 41
1.0
 50
0.0
 71
     0
 42
3.5
  3
txt
  4

  0
STYLE
  5
21C
330
3
100
AcDbSymbolTableRecord
100
AcDbTextStyleTableRecord
  2
SLDTEXTSTYLE0
 70
     0
 40
0.0
 41
0.75
 50
0.0
 71
     0
 42
3.5
  3
TXT
  4

  0
ENDTAB
  0
TABLE
  2
VIEW
  5
6
330
0
100
AcDbSymbolTable
 70
     0
  0
ENDTAB
  0
TABLE
  2
UCS
  5
7
330
0
100
AcDbSymbolTable
 70
     0
  0
ENDTAB
  0
TABLE
  2
APPID
  5
9
330
0
100
AcDbSymbolTable
 70
     1
  0
APPID
  5
12
330
9
100
AcDbSymbolTableRecord
100
AcDbRegAppTableRecord
  2
ACAD
 70
     0
  0
ENDTAB
  0
TABLE
  2
DIMSTYLE
  5
A
330
0
100
AcDbSymbolTable
 70
     2
100
AcDbDimStyleTable
  0
DIMSTYLE
105
27
330
A
100
AcDbSymbolTableRecord
100
AcDbDimStyleTableRecord
  2
ISO-25
 70
     0
 41
2.5
 42
0.625
 43
3.75
 44
1.25
 73
     0
 74
     0
 77
     1
 78
     8
140
2.5
141
2.5
143
0.0393700787
147
0.625
171
     3
172
     1
178
     0
271
     2
272
     2
274
     3
278
    44
283
     0
284
     8
340
11
  0
DIMSTYLE
105
21D
102
{ACAD_REACTORS
330
21B
330
227
330
231
330
23B
330
245
330
250
330
25B
330
266
330
270
330
27A
330
284
330
28F
330
29A
102
}
330
A
100
AcDbSymbolTableRecord
100
AcDbDimStyleTableRecord
  2
SLDDIMSTYLE0
 70
     0
 41
3.302
 44
0.0
 45
0.000000001
 73
     0
 74
     0
 77
     1
 78
    12
 79
     3
140
3.5
147
0.875
173
     1
178
     0
271
     2
272
     2
276
     2
284
    12
340
21C
  0
ENDTAB
  0
TABLE
  2
BLOCK_RECORD
  5
1
330
0
100
AcDbSymbolTable
 70
    16
  0
BLOCK_RECORD
  5
1F
330
1
100
AcDbSymbolTableRecord
100
AcDbBlockTableRecord
  2
*Model_Space
340
22
  0
BLOCK_RECORD
  5
1B
330
1
100
AcDbSymbolTableRecord
100
AcDbBlockTableRecord
  2
*Paper_Space
340
1E
  0
BLOCK_RECORD
  5
23
330
1
100
AcDbSymbolTableRecord
100
AcDbBlockTableRecord
  2
*Paper_Space0
340
26
  0
BLOCK_RECORD
  5
80
330
1
100
AcDbSymbolTableRecord
100
AcDbBlockTableRecord
  2
Block11
340
0
102
{BLKREFS
331
21A
102
}
  0
BLOCK_RECORD
  5
89
330
1
100
AcDbSymbolTableRecord
100
AcDbBlockTableRecord
  2
Block12
340
0
102
{BLKREFS
331
219
102
}
  0
BLOCK_RECORD
  5
21E
330
1
100
AcDbSymbolTableRecord
100
AcDbBlockTableRecord
  2
_D
340
0
  0
BLOCK_RECORD
  5
228
330
1
100
AcDbSymbolTableRecord
100
AcDbBlockTableRecord
  2
_D_1
340
0
  0
BLOCK_RECORD
  5
232
330
1
100
AcDbSymbolTableRecord
100
AcDbBlockTableRecord
  2
_D_2
340
0
  0
BLOCK_RECORD
  5
23C
330
1
100
AcDbSymbolTableRecord
100
AcDbBlockTableRecord
  2
_D_3
340
0
  0
BLOCK_RECORD
  5
246
330
1
100
AcDbSymbolTableRecord
100
AcDbBlockTableRecord
  2
_D_4
340
0
  0
BLOCK_RECORD
  5
251
330
1
100
AcDbSymbolTableRecord
100
AcDbBlockTableRecord
  2
_D_5
340
0
  0
BLOCK_RECORD
  5
25C
330
1
100
AcDbSymbolTableRecord
100
AcDbBlockTableRecord
  2
_D_6
340
0
  0
BLOCK_RECORD
  5
267
330
1
100
AcDbSymbolTableRecord
100
AcDbBlockTableRecord
  2
_D_7
340
0
  0
BLOCK_RECORD
  5
271
330
1
100
AcDbSymbolTableRecord
100
AcDbBlockTableRecord
  2
_D_8
340
0
  0
BLOCK_RECORD
  5
27B
330
1
100
AcDbSymbolTableRecord
100
AcDbBlockTableRecord
  2
_D_9
340
0
  0
BLOCK_RECORD
  5
285
330
1
100
AcDbSymbolTableRecord
100
AcDbBlockTableRecord
  2
_D_10
340
0
  0
BLOCK_RECORD
  5
290
330
1
100
AcDbSymbolTableRecord
100
AcDbBlockTableRecord
  2
_D_11
340
0
  0
BLOCK_RECORD
  5
29B
330
1
100
AcDbSymbolTableRecord
100
AcDbBlockTableRecord
  2
_D_12
340
0
  0
ENDTAB
  0
ENDSEC
  0
SECTION
  2
BLOCKS
  0
BLOCK
  5
20
330
1F
100
AcDbEntity
  8
0
100
AcDbBlockBegin
  2
*Model_Space
 70
     0
 10
0.0
 20
0.0
 30
0.0
  3
*Model_Space
  1

  0
ENDBLK
  5
21
330
1F
100
AcDbEntity
  8
0
100
AcDbBlockEnd
  0
BLOCK
  5
1C
330
1B
100
AcDbEntity
 67
     1
  8
0
100
AcDbBlockBegin
  2
*Paper_Space
 70
     0
 10
0.0
 20
0.0
 30
0.0
  3
*Paper_Space
  1

  0
ENDBLK
  5
1D
330
1B
100
AcDbEntity
 67
     1
  8
0
100
AcDbBlockEnd
  0
BLOCK
  5
24
330
23
100
AcDbEntity
  8
0
100
AcDbBlockBegin
  2
*Paper_Space0
 70
     0
 10
0.0
 20
0.0
 30
0.0
  3
*Paper_Space0
  1

  0
ENDBLK
  5
25
330
23
100
AcDbEntity
  8
0
100
AcDbBlockEnd
  0
BLOCK
  5
81
330
80
100
AcDbEntity
  8
0
100
AcDbBlockBegin
  2
Block11
 70
     0
 10
0.0
 20
0.0
 30
0.0
  3
Block11
  1

  0
CIRCLE
  5
83
330
80
100
AcDbEntity
  8
81
370
    18
100
AcDbCircle
 10
91.6264826505
 20
130.2676275275
 30
0.0
 40
2.499999999999981
  0
LINE
  5
84
330
80
100
AcDbEntity
  8
81
370
    18
100
AcDbLine
 10
91.6264826505
 20
130.2676275275
 30
0.0
 11
95.1620165565
 21
133.8031614334
 31
0.0
  0
LINE
  5
85
330
80
100
AcDbEntity
  8
81
370
    18
100
AcDbLine
 10
91.6264826505
 20
130.2676275275
 30
0.0
 11
88.0909487446
 21
126.7320936216
 31
0.0
  0
LINE
  5
86
330
80
100
AcDbEntity
  8
81
370
    18
100
AcDbLine
 10
91.6264826505
 20
130.2676275275
 30
0.0
 11
88.0909487446
 21
133.8031614334
 31
0.0
  0
LINE
  5
87
330
80
100
AcDbEntity
  8
81
100
AcDbLine
 10
91.6264826505
 20
130.2676275275
 30
0.0
 11
101.6264826505
 21
130.2676275275
 31
0.0
  0
LINE
  5
88
330
80
100
AcDbEntity
  8
81
370
    18
100
AcDbLine
 10
91.6264826505
 20
130.2676275275
 30
0.0
 11
95.1620165565
 21
126.7320936216
 31
0.0
  0
ENDBLK
  5
82
330
80
100
AcDbEntity
  8
0
100
AcDbBlockEnd
  0
BLOCK
  5
8A
330
89
100
AcDbEntity
  8
0
100
AcDbBlockBegin
  2
Block12
 70
     0
 10
0.0
 20
0.0
 30
0.0
  3
Block12
  1

  0
CIRCLE
  5
8C
330
89
100
AcDbEntity
  8
80
370
    18
100
AcDbCircle
 10
61.7273641656
 20
130.3356800267
 30
0.0
 40
2.500000000000004
  0
LINE
  5
8D
330
89
100
AcDbEntity
  8
80
370
    18
100
AcDbLine
 10
61.7273641656
 20
130.3356800267
 30
0.0
 11
65.2628980715
 21
133.8712139326
 31
0.0
  0
LINE
  5
8E
330
89
100
AcDbEntity
  8
80
370
    18
100
AcDbLine
 10
61.7273641656
 20
130.3356800267
 30
0.0
 11
58.1918302597
 21
126.8001461208
 31
0.0
  0
LINE
  5
8F
330
89
100
AcDbEntity
  8
80
370
    18
100
AcDbLine
 10
61.7273641656
 20
130.3356800267
 30
0.0
 11
58.1918302597
 21
133.8712139326
 31
0.0
  0
LINE
  5
90
330
89
100
AcDbEntity
  8
80
370
    18
100
AcDbLine
 10
61.7273641656
 20
130.3356800267
 30
0.0
 11
51.7273641656
 21
130.3356800267
 31
0.0
  0
LINE
  5
91
330
89
100
AcDbEntity
  8
80
370
    18
100
AcDbLine
 10
61.7273641656
 20
130.3356800267
 30
0.0
 11
65.2628980715
 21
126.8001461208
 31
0.0
  0
ENDBLK
  5
8B
330
89
100
AcDbEntity
  8
0
100
AcDbBlockEnd
  0
BLOCK
  5
21F
330
21E
100
AcDbEntity
  8
0
100
AcDbBlockBegin
  2
_D
 70
     0
 10
0.0
 20
0.0
 30
0.0
  3
_D
  1

  0
SOLID
  5
221
330
21E
100
AcDbEntity
  8
SK2
100
AcDbTrace
 10
0.0
 20
60.6727131861
 30
0.0
 11
3.302
 21
60.1647131861
 31
0.0
 12
3.302
 22
61.1807131861
 32
0.0
 13
3.302
 23
61.1807131861
 33
0.0
  0
SOLID
  5
222
330
21E
100
AcDbEntity
  8
SK2
100
AcDbTrace
 10
37.9999999933
 20
60.6727131861
 30
0.0
 11
34.6979999933
 21
61.1807131861
 31
0.0
 12
34.6979999933
 22
60.1647131861
 32
0.0
 13
34.6979999933
 23
60.1647131861
 33
0.0
  0
LINE
  5
223
330
21E
100
AcDbEntity
  8
SK2
100
AcDbLine
 10
0.0
 20
35.925
 30
0.0
 11
0.0
 21
61.6727131861
 31
0.0
  0
LINE
  5
224
330
21E
100
AcDbEntity
  8
SK2
100
AcDbLine
 10
37.9999999933
 20
50.2286823296
 30
0.0
 11
37.9999999933
 21
61.6727131861
 31
0.0
  0
LINE
  5
225
330
21E
100
AcDbEntity
  8
SK2
100
AcDbLine
 10
0.0
 20
60.6727131861
 30
0.0
 11
37.9999999933
 21
60.6727131861
 31
0.0
  0
MTEXT
  5
226
330
21E
100
AcDbEntity
  8
SK2
100
AcDbMText
 10
17.0601884307
 20
65.1844501007
 30
0.0
 40
3.5
 41
0.0
 71
     1
 72
     1
  1
38
  7
SLDTEXTSTYLE0
 73
     1
 44
1.0
  0
ENDBLK
  5
220
330
21E
100
AcDbEntity
  8
0
100
AcDbBlockEnd
  0
BLOCK
  5
229
330
228
100
AcDbEntity
  8
0
100
AcDbBlockBegin
  2
_D_1
 70
     0
 10
0.0
 20
0.0
 30
0.0
  3
_D_1
  1

  0
SOLID
  5
22B
330
228
100
AcDbEntity
  8
SK2
100
AcDbTrace
 10
37.9999999933
 20
60.6727131861
 30
0.0
 11
41.3019999933
 21
60.1647131861
 31
0.0
 12
41.3019999933
 22
61.1807131861
 32
0.0
 13
41.3019999933
 23
61.1807131861
 33
0.0
  0
SOLID
  5
22C
330
228
100
AcDbEntity
  8
SK2
100
AcDbTrace
 10
160.0
 20
60.6727131861
 30
0.0
 11
156.698
 21
61.1807131861
 31
0.0
 12
156.698
 22
60.1647131861
 32
0.0
 13
156.698
 23
60.1647131861
 33
0.0
  0
LINE
  5
22D
330
228
100
AcDbEntity
  8
SK2
100
AcDbLine
 10
37.9999999933
 20
50.2286823296
 30
0.0
 11
37.9999999933
 21
61.6727131861
 31
0.0
  0
LINE
  5
22E
330
228
100
AcDbEntity
  8
SK2
100
AcDbLine
 10
160.0
 20
30.0717967697
 30
0.0
 11
160.0
 21
61.6727131861
 31
0.0
  0
LINE
  5
22F
330
228
100
AcDbEntity
  8
SK2
100
AcDbLine
 10
37.9999999933
 20
60.6727131861
 30
0.0
 11
160.0
 21
60.6727131861
 31
0.0
  0
MTEXT
  5
230
330
228
100
AcDbEntity
  8
SK2
100
AcDbMText
 10
93.5506118109
 20
65.1844501007
 30
0.0
 40
3.5
 41
0.0
 71
     1
 72
     1
  1
122
  7
SLDTEXTSTYLE0
 73
     1
 44
1.0
  0
ENDBLK
  5
22A
330
228
100
AcDbEntity
  8
0
100
AcDbBlockEnd
  0
BLOCK
  5
233
330
232
100
AcDbEntity
  8
0
100
AcDbBlockBegin
  2
_D_2
 70
     0
 10
0.0
 20
0.0
 30
0.0
  3
_D_2
  1

  0
SOLID
  5
235
330
232
100
AcDbEntity
  8
2
100
AcDbTrace
 10
0.0
 20
73.6004064806
 30
0.0
 11
3.302
 21
73.0924064806
 31
0.0
 12
3.302
 22
74.1084064806
 32
0.0
 13
3.302
 23
74.1084064806
 33
0.0
  0
SOLID
  5
236
330
232
100
AcDbEntity
  8
2
100
AcDbTrace
 10
160.0
 20
73.6004064806
 30
0.0
 11
156.698
 21
74.1084064806
 31
0.0
 12
156.698
 22
73.0924064806
 32
0.0
 13
156.698
 23
73.0924064806
 33
0.0
  0
LINE
  5
237
330
232
100
AcDbEntity
  8
2
100
AcDbLine
 10
0.0
 20
35.925
 30
0.0
 11
0.0
 21
74.6004064806
 31
0.0
  0
LINE
  5
238
330
232
100
AcDbEntity
  8
2
100
AcDbLine
 10
160.0
 20
30.0717967697
 30
0.0
 11
160.0
 21
74.6004064806
 31
0.0
  0
LINE
  5
239
330
232
100
AcDbEntity
  8
2
100
AcDbLine
 10
0.0
 20
73.6004064806
 30
0.0
 11
160.0
 21
73.6004064806
 31
0.0
  0
MTEXT
  5
23A
330
232
100
AcDbEntity
  8
2
100
AcDbMText
 10
73.5874355536
 20
78.1121433952
 30
0.0
 40
3.5
 41
0.0
 71
     1
 72
     1
  1
160
  7
SLDTEXTSTYLE0
 73
     1
 44
1.0
  0
ENDBLK
  5
234
330
232
100
AcDbEntity
  8
0
100
AcDbBlockEnd
  0
BLOCK
  5
23D
330
23C
100
AcDbEntity
  8
0
100
AcDbBlockBegin
  2
_D_3
 70
     0
 10
0.0
 20
0.0
 30
0.0
  3
_D_3
  1

  0
SOLID
  5
23F
330
23C
100
AcDbEntity
  8
SK2
100
AcDbTrace
 10
160.0
 20
48.0804698217
 30
0.0
 11
156.698
 21
48.5884698217
 31
0.0
 12
156.698
 22
47.5724698217
 32
0.0
 13
156.698
 23
47.5724698217
 33
0.0
  0
SOLID
  5
240
330
23C
100
AcDbEntity
  8
SK2
100
AcDbTrace
 10
148.0
 20
48.0804698217
 30
0.0
 11
151.302
 21
47.5724698217
 31
0.0
 12
151.302
 22
48.5884698217
 32
0.0
 13
151.302
 23
48.5884698217
 33
0.0
  0
LINE
  5
241
330
23C
100
AcDbEntity
  8
SK2
100
AcDbLine
 10
160.0
 20
30.0717967697
 30
0.0
 11
160.0
 21
49.0804698217
 31
0.0
  0
LINE
  5
242
330
23C
100
AcDbEntity
  8
SK2
100
AcDbLine
 10
148.0
 20
37.0
 30
0.0
 11
148.0
 21
49.0804698217
 31
0.0
  0
LINE
  5
243
330
23C
100
AcDbEntity
  8
SK2
100
AcDbLine
 10
160.0
 20
48.0804698217
 30
0.0
 11
148.0
 21
48.0804698217
 31
0.0
  0
MTEXT
  5
244
330
23C
100
AcDbEntity
  8
SK2
100
AcDbMText
 10
151.0286891289
 20
52.5922067363
 30
0.0
 40
3.5
 41
0.0
 71
     1
 72
     1
  1
12
  7
SLDTEXTSTYLE0
 73
     1
 44
1.0
  0
ENDBLK
  5
23E
330
23C
100
AcDbEntity
  8
0
100
AcDbBlockEnd
  0
BLOCK
  5
247
330
246
100
AcDbEntity
  8
0
100
AcDbBlockBegin
  2
_D_4
 70
     0
 10
0.0
 20
0.0
 30
0.0
  3
_D_4
  1

  0
SOLID
  5
249
330
246
100
AcDbEntity
  8
SK2
100
AcDbTrace
 10
199.994832105
 20
36.0
 30
0.0
 11
199.486832105
 21
32.698
 31
0.0
 12
200.502832105
 22
32.698
 32
0.0
 13
200.502832105
 23
32.698
 33
0.0
  0
SOLID
  5
24A
330
246
100
AcDbEntity
  8
SK2
100
AcDbTrace
 10
199.994832105
 20
-36.0
 30
0.0
 11
200.502832105
 21
-32.698
 31
0.0
 12
199.486832105
 22
-32.698
 32
0.0
 13
199.486832105
 23
-32.698
 33
0.0
  0
LINE
  5
24B
330
246
100
AcDbEntity
  8
SK2
100
AcDbLine
 10
149.0
 20
36.0
 30
0.0
 11
200.994832105
 21
36.0
 31
0.0
  0
LINE
  5
24C
330
246
100
AcDbEntity
  8
SK2
100
AcDbLine
 10
149.0
 20
-36.0
 30
0.0
 11
200.994832105
 21
-36.0
 31
0.0
  0
LINE
  5
24D
330
246
100
AcDbEntity
  8
SK2
100
AcDbLine
 10
199.994832105
 20
36.0
 30
0.0
 11
199.994832105
 21
-36.0
 31
0.0
  0
MTEXT
  5
24E
330
246
100
AcDbEntity
  8
SK2
100
AcDbMText
 10
195.4830950158
 20
-5.9703188809
 30
0.0
 40
3.5
 41
0.0
 71
     1
 72
     1
  1
%%c
  7
SLDTEXTSTYLE0
 11
-7.044195017643634E-15
 21
1.0
 31
0.0
 73
     1
 44
1.0
  0
MTEXT
  5
24F
330
246
100
AcDbEntity
  8
SK2
100
AcDbMText
 10
195.4296228391
 20
-0.6918814826
 30
0.0
 40
3.5
 41
0.0
 71
     1
 72
     1
  1
72
  7
SLDTEXTSTYLE0
 11
-7.044195017643634E-15
 21
1.0
 31
0.0
 73
     1
 44
1.0
  0
ENDBLK
  5
248
330
246
100
AcDbEntity
  8
0
100
AcDbBlockEnd
  0
BLOCK
  5
252
330
251
100
AcDbEntity
  8
0
100
AcDbBlockBegin
  2
_D_5
 70
     0
 10
0.0
 20
0.0
 30
0.0
  3
_D_5
  1

  0
SOLID
  5
254
330
251
100
AcDbEntity
  8
SK2
100
AcDbTrace
 10
188.0087965172
 20
29.0717967697
 30
0.0
 11
187.5007965172
 21
25.7697967697
 31
0.0
 12
188.5167965172
 22
25.7697967697
 32
0.0
 13
188.5167965172
 23
25.7697967697
 33
0.0
  0
SOLID
  5
255
330
251
100
AcDbEntity
  8
SK2
100
AcDbTrace
 10
188.0087965172
 20
-29.0717967697
 30
0.0
 11
188.5167965172
 21
-25.7697967697
 31
0.0
 12
187.5007965172
 22
-25.7697967697
 32
0.0
 13
187.5007965172
 23
-25.7697967697
 33
0.0
  0
LINE
  5
256
330
251
100
AcDbEntity
  8
SK2
100
AcDbLine
 10
161.0
 20
29.0717967697
 30
0.0
 11
189.0087965172
 21
29.0717967697
 31
0.0
  0
LINE
  5
257
330
251
100
AcDbEntity
  8
SK2
100
AcDbLine
 10
161.0
 20
-29.0717967697
 30
0.0
 11
189.0087965172
 21
-29.0717967697
 31
0.0
  0
LINE
  5
258
330
251
100
AcDbEntity
  8
SK2
100
AcDbLine
 10
188.0087965172
 20
29.0717967697
 30
0.0
 11
188.0087965172
 21
-29.0717967697
 31
0.0
  0
MTEXT
  5
259
330
251
100
AcDbEntity
  8
SK2
100
AcDbMText
 10
183.497059428
 20
-9.2029576982
 30
0.0
 40
3.5
 41
0.0
 71
     1
 72
     1
  1
%%c
  7
SLDTEXTSTYLE0
 11
-7.044195017643634E-15
 21
1.0
 31
0.0
 73
     1
 44
1.0
  0
MTEXT
  5
25A
330
251
100
AcDbEntity
  8
SK2
100
AcDbMText
 10
183.4435872513
 20
-3.9245202999
 30
0.0
 40
3.5
 41
0.0
 71
     1
 72
     1
  1
58,14
  7
SLDTEXTSTYLE0
 11
-7.044195017643634E-15
 21
1.0
 31
0.0
 73
     1
 44
1.0
  0
ENDBLK
  5
253
330
251
100
AcDbEntity
  8
0
100
AcDbBlockEnd
  0
BLOCK
  5
25D
330
25C
100
AcDbEntity
  8
0
100
AcDbBlockBegin
  2
_D_6
 70
     0
 10
0.0
 20
0.0
 30
0.0
  3
_D_6
  1

  0
SOLID
  5
25F
330
25C
100
AcDbEntity
  8
SK2
100
AcDbTrace
 10
177.5820270641
 20
-16.0
 30
0.0
 11
178.0900270641
 21
-12.698
 31
0.0
 12
177.0740270641
 22
-12.698
 32
0.0
 13
177.0740270641
 23
-12.698
 33
0.0
  0
SOLID
  5
260
330
25C
100
AcDbEntity
  8
SK2
100
AcDbTrace
 10
177.5820270641
 20
16.0
 30
0.0
 11
177.0740270641
 21
12.698
 31
0.0
 12
178.0900270641
 22
12.698
 32
0.0
 13
178.0900270641
 23
12.698
 33
0.0
  0
LINE
  5
261
330
25C
100
AcDbEntity
  8
SK2
100
AcDbLine
 10
160.0
 20
-16.0
 30
0.0
 11
178.5820270641
 21
-16.0
 31
0.0
  0
LINE
  5
262
330
25C
100
AcDbEntity
  8
SK2
100
AcDbLine
 10
160.0
 20
16.0
 30
0.0
 11
178.5820270641
 21
16.0
 31
0.0
  0
LINE
  5
263
330
25C
100
AcDbEntity
  8
SK2
100
AcDbLine
 10
177.5820270641
 20
-16.0
 30
0.0
 11
177.5820270641
 21
16.0
 31
0.0
  0
MTEXT
  5
264
330
25C
100
AcDbEntity
  8
SK2
100
AcDbMText
 10
173.0702899749
 20
-5.9703188809
 30
0.0
 40
3.5
 41
0.0
 71
     1
 72
     1
  1
%%c
  7
SLDTEXTSTYLE0
 11
6.123233995736766E-17
 21
1.0
 31
0.0
 73
     1
 44
1.0
  0
MTEXT
  5
265
330
25C
100
AcDbEntity
  8
SK2
100
AcDbMText
 10
173.0168177982
 20
-0.6918814826
 30
0.0
 40
3.5
 41
0.0
 71
     1
 72
     1
  1
32
  7
SLDTEXTSTYLE0
 11
6.123233995736766E-17
 21
1.0
 31
0.0
 73
     1
 44
1.0
  0
ENDBLK
  5
25E
330
25C
100
AcDbEntity
  8
0
100
AcDbBlockEnd
  0
BLOCK
  5
268
330
267
100
AcDbEntity
  8
0
100
AcDbBlockBegin
  2
_D_7
 70
     0
 10
0.0
 20
0.0
 30
0.0
  3
_D_7
  1

  0
SOLID
  5
26A
330
267
100
AcDbEntity
  8
SK2
100
AcDbTrace
 10
160.0
 20
-47.323854293
 30
0.0
 11
156.698
 21
-46.815854293
 31
0.0
 12
156.698
 22
-47.831854293
 32
0.0
 13
156.698
 23
-47.831854293
 33
0.0
  0
SOLID
  5
26B
330
267
100
AcDbEntity
  8
SK2
100
AcDbTrace
 10
136.0
 20
-47.323854293
 30
0.0
 11
139.302
 21
-47.831854293
 31
0.0
 12
139.302
 22
-46.815854293
 32
0.0
 13
139.302
 23
-46.815854293
 33
0.0
  0
LINE
  5
26C
330
267
100
AcDbEntity
  8
SK2
100
AcDbLine
 10
160.0
 20
-30.0717967697
 30
0.0
 11
160.0
 21
-48.323854293
 31
0.0
  0
LINE
  5
26D
330
267
100
AcDbEntity
  8
SK2
100
AcDbLine
 10
136.0
 20
-36.8
 30
0.0
 11
136.0
 21
-48.323854293
 31
0.0
  0
LINE
  5
26E
330
267
100
AcDbEntity
  8
SK2
100
AcDbLine
 10
160.0
 20
-47.323854293
 30
0.0
 11
136.0
 21
-47.323854293
 31
0.0
  0
MTEXT
  5
26F
330
267
100
AcDbEntity
  8
SK2
100
AcDbMText
 10
145.9042981507
 20
-42.8121173784
 30
0.0
 40
3.5
 41
0.0
 71
     1
 72
     1
  1
24
  7
SLDTEXTSTYLE0
 73
     1
 44
1.0
  0
ENDBLK
  5
269
330
267
100
AcDbEntity
  8
0
100
AcDbBlockEnd
  0
BLOCK
  5
272
330
271
100
AcDbEntity
  8
0
100
AcDbBlockBegin
  2
_D_8
 70
     0
 10
0.0
 20
0.0
 30
0.0
  3
_D_8
  1

  0
SOLID
  5
274
330
271
100
AcDbEntity
  8
SK2
100
AcDbTrace
 10
136.0
 20
-47.323854293
 30
0.0
 11
132.698
 21
-46.815854293
 31
0.0
 12
132.698
 22
-47.831854293
 32
0.0
 13
132.698
 23
-47.831854293
 33
0.0
  0
SOLID
  5
275
330
271
100
AcDbEntity
  8
SK2
100
AcDbTrace
 10
108.0
 20
-47.323854293
 30
0.0
 11
111.302
 21
-47.831854293
 31
0.0
 12
111.302
 22
-46.815854293
 32
0.0
 13
111.302
 23
-46.815854293
 33
0.0
  0
LINE
  5
276
330
271
100
AcDbEntity
  8
SK2
100
AcDbLine
 10
136.0
 20
-36.8
 30
0.0
 11
136.0
 21
-48.323854293
 31
0.0
  0
LINE
  5
277
330
271
100
AcDbEntity
  8
SK2
100
AcDbLine
 10
108.0
 20
-36.8
 30
0.0
 11
108.0
 21
-48.323854293
 31
0.0
  0
LINE
  5
278
330
271
100
AcDbEntity
  8
SK2
100
AcDbLine
 10
136.0
 20
-47.323854293
 30
0.0
 11
108.0
 21
-47.323854293
 31
0.0
  0
MTEXT
  5
279
330
271
100
AcDbEntity
  8
SK2
100
AcDbMText
 10
118.6174860878
 20
-42.8121173784
 30
0.0
 40
3.5
 41
0.0
 71
     1
 72
     1
  1
28
  7
SLDTEXTSTYLE0
 73
     1
 44
1.0
  0
ENDBLK
  5
273
330
271
100
AcDbEntity
  8
0
100
AcDbBlockEnd
  0
BLOCK
  5
27C
330
27B
100
AcDbEntity
  8
0
100
AcDbBlockBegin
  2
_D_9
 70
     0
 10
0.0
 20
0.0
 30
0.0
  3
_D_9
  1

  0
SOLID
  5
27E
330
27B
100
AcDbEntity
  8
SK2
100
AcDbTrace
 10
160.0
 20
-57.6793163458
 30
0.0
 11
156.698
 21
-57.1713163458
 31
0.0
 12
156.698
 22
-58.1873163458
 32
0.0
 13
156.698
 23
-58.1873163458
 33
0.0
  0
SOLID
  5
27F
330
27B
100
AcDbEntity
  8
SK2
100
AcDbTrace
 10
102.0
 20
-57.6793163458
 30
0.0
 11
105.302
 21
-58.1873163458
 31
0.0
 12
105.302
 22
-57.1713163458
 32
0.0
 13
105.302
 23
-57.1713163458
 33
0.0
  0
LINE
  5
280
330
27B
100
AcDbEntity
  8
SK2
100
AcDbLine
 10
160.0
 20
-30.0717967697
 30
0.0
 11
160.0
 21
-58.6793163458
 31
0.0
  0
LINE
  5
281
330
27B
100
AcDbEntity
  8
SK2
100
AcDbLine
 10
102.0
 20
-15.5258390463
 30
0.0
 11
102.0
 21
-58.6793163458
 31
0.0
  0
LINE
  5
282
330
27B
100
AcDbEntity
  8
SK2
100
AcDbLine
 10
160.0
 20
-57.6793163458
 30
0.0
 11
102.0
 21
-57.6793163458
 31
0.0
  0
MTEXT
  5
283
330
27B
100
AcDbEntity
  8
SK2
100
AcDbMText
 10
127.6465320762
 20
-53.1675794312
 30
0.0
 40
3.5
 41
0.0
 71
     1
 72
     1
  1
58
  7
SLDTEXTSTYLE0
 73
     1
 44
1.0
  0
ENDBLK
  5
27D
330
27B
100
AcDbEntity
  8
0
100
AcDbBlockEnd
  0
BLOCK
  5
286
330
285
100
AcDbEntity
  8
0
100
AcDbBlockBegin
  2
_D_10
 70
     0
 10
0.0
 20
0.0
 30
0.0
  3
_D_10
  1

  0
SOLID
  5
288
330
285
100
AcDbEntity
  8
SK2
100
AcDbTrace
 10
-132.3995179545
 20
49.978682327
 30
0.0
 11
-132.9075179545
 21
46.676682327
 31
0.0
 12
-131.8915179545
 22
46.676682327
 32
0.0
 13
-131.8915179545
 23
46.676682327
 33
0.0
  0
SOLID
  5
289
330
285
100
AcDbEntity
  8
SK2
100
AcDbTrace
 10
-132.3995179545
 20
-49.978682327
 30
0.0
 11
-131.8915179545
 21
-46.676682327
 31
0.0
 12
-132.9075179545
 22
-46.676682327
 32
0.0
 13
-132.9075179545
 23
-46.676682327
 33
0.0
  0
LINE
  5
28A
330
285
100
AcDbEntity
  8
SK2
100
AcDbLine
 10
2.75
 20
49.978682327
 30
0.0
 11
-133.3995179545
 21
49.978682327
 31
0.0
  0
LINE
  5
28B
330
285
100
AcDbEntity
  8
SK2
100
AcDbLine
 10
2.75
 20
-49.978682327
 30
0.0
 11
-133.3995179545
 21
-49.978682327
 31
0.0
  0
LINE
  5
28C
330
285
100
AcDbEntity
  8
SK2
100
AcDbLine
 10
-132.3995179545
 20
49.978682327
 30
0.0
 11
-132.3995179545
 21
-49.978682327
 31
0.0
  0
MTEXT
  5
28D
330
285
100
AcDbEntity
  8
SK2
100
AcDbMText
 10
-136.9112550437
 20
-6.8420316939
 30
0.0
 40
3.5
 41
0.0
 71
     1
 72
     1
  1
%%c
  7
SLDTEXTSTYLE0
 11
-7.044195017643634E-15
 21
1.0
 31
0.0
 73
     1
 44
1.0
  0
MTEXT
  5
28E
330
285
100
AcDbEntity
  8
SK2
100
AcDbMText
 10
-136.9647272203
 20
-1.5635942955
 30
0.0
 40
3.5
 41
0.0
 71
     1
 72
     1
  1
100
  7
SLDTEXTSTYLE0
 11
-7.044195017643634E-15
 21
1.0
 31
0.0
 73
     1
 44
1.0
  0
ENDBLK
  5
287
330
285
100
AcDbEntity
  8
0
100
AcDbBlockEnd
  0
BLOCK
  5
291
330
290
100
AcDbEntity
  8
0
100
AcDbBlockBegin
  2
_D_11
 70
     0
 10
0.0
 20
0.0
 30
0.0
  3
_D_11
  1

  0
SOLID
  5
293
330
290
100
AcDbEntity
  8
SK2
100
AcDbTrace
 10
-121.394751458
 20
-34.925
 30
0.0
 11
-120.886751458
 21
-31.623
 31
0.0
 12
-121.902751458
 22
-31.623
 32
0.0
 13
-121.902751458
 23
-31.623
 33
0.0
  0
SOLID
  5
294
330
290
100
AcDbEntity
  8
SK2
100
AcDbTrace
 10
-121.394751458
 20
34.925
 30
0.0
 11
-121.902751458
 21
31.623
 31
0.0
 12
-120.886751458
 22
31.623
 32
0.0
 13
-120.886751458
 23
31.623
 33
0.0
  0
LINE
  5
295
330
290
100
AcDbEntity
  8
SK2
100
AcDbLine
 10
-1.0
 20
-34.925
 30
0.0
 11
-122.394751458
 21
-34.925
 31
0.0
  0
LINE
  5
296
330
290
100
AcDbEntity
  8
SK2
100
AcDbLine
 10
-1.0
 20
34.925
 30
0.0
 11
-122.394751458
 21
34.925
 31
0.0
  0
LINE
  5
297
330
290
100
AcDbEntity
  8
SK2
100
AcDbLine
 10
-121.394751458
 20
-34.925
 30
0.0
 11
-121.394751458
 21
34.925
 31
0.0
  0
MTEXT
  5
298
330
290
100
AcDbEntity
  8
SK2
100
AcDbMText
 10
-125.9064885472
 20
-8.781614798
 30
0.0
 40
3.5
 41
0.0
 71
     1
 72
     1
  1
%%c
  7
SLDTEXTSTYLE0
 11
6.123233995736766E-17
 21
1.0
 31
0.0
 73
     1
 44
1.0
  0
MTEXT
  5
299
330
290
100
AcDbEntity
  8
SK2
100
AcDbMText
 10
-125.9599607239
 20
-3.5031773996
 30
0.0
 40
3.5
 41
0.0
 71
     1
 72
     1
  1
69,85
  7
SLDTEXTSTYLE0
 11
6.123233995736766E-17
 21
1.0
 31
0.0
 73
     1
 44
1.0
  0
ENDBLK
  5
292
330
290
100
AcDbEntity
  8
0
100
AcDbBlockEnd
  0
BLOCK
  5
29C
330
29B
100
AcDbEntity
  8
0
100
AcDbBlockBegin
  2
_D_12
 70
     0
 10
0.0
 20
0.0
 30
0.0
  3
_D_12
  1

  0
SOLID
  5
29E
330
29B
100
AcDbEntity
  8
SK2
100
AcDbTrace
 10
-111.0718504022
 20
-12.0
 30
0.0
 11
-110.5638504022
 21
-8.698
 31
0.0
 12
-111.5798504022
 22
-8.698
 32
0.0
 13
-111.5798504022
 23
-8.698
 33
0.0
  0
SOLID
  5
29F
330
29B
100
AcDbEntity
  8
SK2
100
AcDbTrace
 10
-111.0718504022
 20
12.0
 30
0.0
 11
-111.5798504022
 21
8.698
 31
0.0
 12
-110.5638504022
 22
8.698
 32
0.0
 13
-110.5638504022
 23
8.698
 33
0.0
  0
LINE
  5
2A0
330
29B
100
AcDbEntity
  8
SK2
100
AcDbLine
 10
-89.1169872981
 20
-12.0
 30
0.0
 11
-112.0718504022
 21
-12.0
 31
0.0
  0
LINE
  5
2A1
330
29B
100
AcDbEntity
  8
SK2
100
AcDbLine
 10
-89.1169872981
 20
12.0
 30
0.0
 11
-112.0718504022
 21
12.0
 31
0.0
  0
LINE
  5
2A2
330
29B
100
AcDbEntity
  8
SK2
100
AcDbLine
 10
-111.0718504022
 20
-12.0
 30
0.0
 11
-111.0718504022
 21
12.0
 31
0.0
  0
MTEXT
  5
2A3
330
29B
100
AcDbEntity
  8
SK2
100
AcDbMText
 10
-115.5835873168
 20
-4.0001499982
 30
0.0
 40
3.5
 41
0.0
 71
     1
 72
     1
  1
M
  7
SLDTEXTSTYLE0
 11
3.613946018757869E-15
 21
1.0
 31
0.0
 73
     1
 44
1.0
  0
MTEXT
  5
2A4
330
29B
100
AcDbEntity
  8
SK2
100
AcDbMText
 10
-115.5835873168
 20
0.2873499363
 30
0.0
 40
3.5
 41
0.0
 71
     1
 72
     1
  1
24
  7
SLDTEXTSTYLE0
 11
3.613946018757869E-15
 21
1.0
 31
0.0
 73
     1
 44
1.0
  0
ENDBLK
  5
29D
330
29B
100
AcDbEntity
  8
0
100
AcDbBlockEnd
  0
ENDSEC
  0
SECTION
  2
ENTITIES
  0
LINE
  5
92
330
1F
100
AcDbEntity
  8
1
  6
SLD-Solid
370
    25
100
AcDbLine
 10
37.2500000057
 20
49.978682327
 30
0.0
 11
30.7300000057
 21
49.978682327
 31
0.0
  0
LINE
  5
93
330
1F
100
AcDbEntity
  8
1
  6
SLD-Solid
370
    25
100
AcDbLine
 10
30.7299999933
 20
-49.9786823243
 30
0.0
 11
37.2499999933
 21
-49.9786823243
 31
0.0
  0
LINE
  5
94
330
1F
100
AcDbEntity
  8
1
  6
SLD-Solid
370
    25
100
AcDbLine
 10
30.7300000057
 20
49.978682327
 30
0.0
 11
26.7050000062
 21
43.0071778284
 31
0.0
  0
LINE
  5
95
330
1F
100
AcDbEntity
  8
1
  6
SLD-Solid
370
    25
100
AcDbLine
 10
26.7049999933
 20
-43.0071778238
 30
0.0
 11
30.7299999933
 21
-49.9786823243
 31
0.0
  0
LINE
  5
96
330
1F
100
AcDbEntity
  8
1
  6
SLD-Solid
370
    25
100
AcDbLine
 10
3.75
 20
-49.978682327
 30
0.0
 11
15.68
 21
-49.978682327
 31
0.0
  0
LINE
  5
97
330
1F
100
AcDbEntity
  8
1
  6
SLD-Solid
370
    25
100
AcDbLine
 10
15.68
 20
49.978682327
 30
0.0
 11
3.75
 21
49.978682327
 31
0.0
  0
LINE
  5
98
330
1F
100
AcDbEntity
  8
1
  6
SLD-Solid
370
    25
100
AcDbLine
 10
15.68
 20
-49.978682327
 30
0.0
 11
19.705
 21
-43.0071778265
 31
0.0
  0
LINE
  5
99
330
1F
100
AcDbEntity
  8
1
  6
SLD-Solid
370
    25
100
AcDbLine
 10
19.705
 20
43.0071778265
 30
0.0
 11
15.68
 21
49.978682327
 31
0.0
  0
LINE
  5
9A
330
1F
100
AcDbEntity
  8
1
  6
SLD-Solid
370
    25
100
AcDbLine
 10
20.08
 20
-42.5
 30
0.0
 11
26.33
 21
-42.5
 31
0.0
  0
LINE
  5
9B
330
1F
100
AcDbEntity
  8
1
  6
SLD-Solid
370
    25
100
AcDbLine
 10
26.33
 20
42.5
 30
0.0
 11
20.08
 21
42.5
 31
0.0
  0
LINE
  5
9C
330
1F
100
AcDbEntity
  8
1
  6
SLD-Solid
370
    25
100
AcDbLine
 10
148.0
 20
-36.0
 30
0.0
 11
160.0
 21
-29.0717967697
 31
0.0
  0
LINE
  5
9D
330
1F
100
AcDbEntity
  8
1
  6
SLD-Solid
370
    25
100
AcDbLine
 10
160.0
 20
29.0717967697
 30
0.0
 11
148.0
 21
36.0
 31
0.0
  0
LINE
  5
9E
330
1F
100
AcDbEntity
  8
1
  6
SLD-Solid
370
    25
100
AcDbLine
 10
96.4027241454
 20
36.0
 30
0.0
 11
41.0
 21
36.0
 31
0.0
  0
LINE
  5
9F
330
1F
100
AcDbEntity
  8
1
  6
SLD-Solid
370
    25
100
AcDbLine
 10
124.3890956434
 20
36.0
 30
0.0
 11
119.605766038
 21
36.0
 31
0.0
  0
LINE
  5
A0
330
1F
100
AcDbEntity
  8
1
  6
SLD-Solid
370
    25
100
AcDbLine
 10
148.0
 20
36.0
 30
0.0
 11
147.5913947083
 21
36.0
 31
0.0
  0
LINE
  5
A1
330
1F
100
AcDbEntity
  8
1
  6
SLD-Solid
370
    25
100
AcDbLine
 10
147.1
 20
-36.0
 30
0.0
 11
148.0
 21
-36.0
 31
0.0
  0
LINE
  5
A2
330
1F
100
AcDbEntity
  8
1
  6
SLD-Solid
370
    25
100
AcDbLine
 10
119.1
 20
-36.0
 30
0.0
 11
124.9095937492
 21
-36.0
 31
0.0
  0
LINE
  5
A3
330
1F
100
AcDbEntity
  8
1
  6
SLD-Solid
370
    25
100
AcDbLine
 10
41.0
 20
-36.0
 30
0.0
 11
96.9095937492
 21
-36.0
 31
0.0
  0
LINE
  5
A4
330
1F
100
AcDbEntity
  8
SK1
  6
SLD-Solid
370
    25
100
AcDbLine
 10
0.0
 20
34.925
 30
0.0
 11
-100.944317822
 21
20.2028150506
 31
0.0
  0
LINE
  5
A5
330
1F
100
AcDbEntity
  8
SK1
  6
SLD-Solid
370
    25
100
AcDbLine
 10
-100.944317822
 20
-20.2028150506
 30
0.0
 11
0.0
 21
-34.925
 31
0.0
  0
LINE
  5
A6
330
1F
100
AcDbEntity
  8
1
  6
SLD-Solid
370
    25
100
AcDbLine
 10
0.2
 20
34.925
 30
0.0
 11
0.0
 21
34.925
 31
0.0
  0
LINE
  5
A7
330
1F
100
AcDbEntity
  8
1
  6
SLD-Solid
370
    25
100
AcDbLine
 10
0.0
 20
-34.925
 30
0.0
 11
0.2
 21
-34.925
 31
0.0
  0
LINE
  5
A8
330
1F
100
AcDbEntity
  8
1
  6
SLD-Solid
370
    25
100
AcDbLine
 10
0.2
 20
-34.925
 30
0.0
 11
0.3290707856
 21
-34.8504809472
 31
0.0
  0
LINE
  5
A9
330
1F
100
AcDbEntity
  8
1
  6
SLD-Solid
370
    25
100
AcDbLine
 10
0.3290707856
 20
34.8504809472
 30
0.0
 11
0.2
 21
34.925
 31
0.0
  0
LINE
  5
AA
330
1F
100
AcDbEntity
  8
1
  6
SLD-Solid
370
    25
100
AcDbLine
 10
2.25
 20
34.75
 30
0.0
 11
0.7040707856
 21
34.75
 31
0.0
  0
LINE
  5
AB
330
1F
100
AcDbEntity
  8
1
  6
SLD-Solid
370
    25
100
AcDbLine
 10
0.7040707856
 20
-34.75
 30
0.0
 11
2.25
 21
-34.75
 31
0.0
  0
LINE
  5
AC
330
1F
100
AcDbEntity
  8
1
  6
SLD-Solid
370
    25
100
AcDbLine
 10
30.7300000057
 20
49.978682327
 30
0.0
 11
30.7300000057
 21
10.3017892946
 31
0.0
  0
LINE
  5
AD
330
1F
100
AcDbEntity
  8
1
  6
SLD-Solid
370
    25
100
AcDbLine
 10
30.7299999932
 20
-10.3017892815
 30
0.0
 11
30.7299999933
 21
-49.9786823243
 31
0.0
  0
LINE
  5
AE
330
1F
100
AcDbEntity
  8
1
  6
SLD-Solid
370
    25
100
AcDbLine
 10
37.9999999933
 20
49.2286823296
 30
0.0
 11
37.9999999933
 21
-49.2286823243
 31
0.0
  0
LINE
  5
AF
330
1F
100
AcDbEntity
  8
1
  6
SLD-Solid
370
    25
100
AcDbLine
 10
26.7050000062
 20
43.0071778284
 30
0.0
 11
26.7050000062
 21
11.846897275
 31
0.0
  0
LINE
  5
B0
330
1F
100
AcDbEntity
  8
1
  6
SLD-Solid
370
    25
100
AcDbLine
 10
26.7049999933
 20
-11.8468972705
 30
0.0
 11
26.7049999933
 21
-43.0071778238
 31
0.0
  0
LINE
  5
B1
330
1F
100
AcDbEntity
  8
1
  6
SLD-Solid
370
    25
100
AcDbLine
 10
3.75
 20
-12.9
 30
0.0
 11
16.2300196942
 21
-12.9
 31
0.0
  0
LINE
  5
B2
330
1F
100
AcDbEntity
  8
1
  6
SLD-Solid
370
    25
100
AcDbLine
 10
15.68
 20
-13.8579580341
 30
0.0
 11
3.75
 21
-13.8579580341
 31
0.0
  0
LINE
  5
B3
330
1F
100
AcDbEntity
  8
1
  6
SLD-Solid
370
    25
100
AcDbLine
 10
3.0
 20
-13.65
 30
0.0
 11
3.75
 21
-12.9
 31
0.0
  0
LINE
  5
B4
330
1F
100
AcDbEntity
  8
1
  6
SLD-Solid
370
    25
100
AcDbLine
 10
15.68
 20
-13.8579580341
 30
0.0
 11
15.68
 21
-49.978682327
 31
0.0
  0
LINE
  5
B5
330
1F
100
AcDbEntity
  8
1
  6
SLD-Solid
370
    25
100
AcDbLine
 10
3.0
 20
-49.228682327
 30
0.0
 11
3.0
 21
-13.65
 31
0.0
  0
LINE
  5
B6
330
1F
100
AcDbEntity
  8
1
  6
SLD-Solid
370
    25
100
AcDbLine
 10
3.0
 20
13.65
 30
0.0
 11
3.0
 21
49.228682327
 31
0.0
  0
LINE
  5
B7
330
1F
100
AcDbEntity
  8
1
  6
SLD-Solid
370
    25
100
AcDbLine
 10
3.75
 20
12.9
 30
0.0
 11
3.0
 21
13.65
 31
0.0
  0
LINE
  5
B8
330
1F
100
AcDbEntity
  8
1
  6
SLD-Solid
370
    25
100
AcDbLine
 10
16.2300196942
 20
12.9
 30
0.0
 11
3.75
 21
12.9
 31
0.0
  0
LINE
  5
B9
330
1F
100
AcDbEntity
  8
1
  6
SLD-Solid
370
    25
100
AcDbLine
 10
3.75
 20
13.8579580341
 30
0.0
 11
15.68
 21
13.8579580341
 31
0.0
  0
LINE
  5
BA
330
1F
100
AcDbEntity
  8
1
  6
SLD-Solid
370
    25
100
AcDbLine
 10
15.68
 20
49.978682327
 30
0.0
 11
15.68
 21
13.8579580341
 31
0.0
  0
LINE
  5
BB
330
1F
100
AcDbEntity
  8
1
  6
SLD-Solid
370
    25
100
AcDbLine
 10
19.705
 20
-12.9
 30
0.0
 11
19.705
 21
-43.0071778265
 31
0.0
  0
LINE
  5
BC
330
1F
100
AcDbEntity
  8
1
  6
SLD-Solid
370
    25
100
AcDbLine
 10
19.705
 20
43.0071778265
 30
0.0
 11
19.705
 21
12.9
 31
0.0
  0
LINE
  5
BD
330
1F
100
AcDbEntity
  8
1
  6
SLD-Solid
370
    25
100
AcDbLine
 10
21.5999999933
 20
-12.8999999973
 30
0.0
 11
20.08
 21
-12.8999999973
 31
0.0
  0
LINE
  5
BE
330
1F
100
AcDbEntity
  8
1
  6
SLD-Solid
370
    25
100
AcDbLine
 10
20.08
 20
12.9000000019
 30
0.0
 11
21.6000000062
 21
12.9000000019
 31
0.0
  0
LINE
  5
BF
330
1F
100
AcDbEntity
  8
1
  6
SLD-Solid
370
    25
100
AcDbLine
 10
148.0
 20
36.0
 30
0.0
 11
148.0
 21
-36.0
 31
0.0
  0
LINE
  5
C0
330
1F
100
AcDbEntity
  8
1
  6
SLD-Solid
370
    25
100
AcDbLine
 10
160.0
 20
29.0717967697
 30
0.0
 11
160.0
 21
-29.0717967697
 31
0.0
  0
LINE
  5
C1
330
1F
100
AcDbEntity
  8
1
  6
SLD-Solid
370
    25
100
AcDbLine
 10
3.0
 20
11.4643398282
 30
0.0
 11
3.0
 21
13.65
 31
0.0
  0
LINE
  5
C2
330
1F
100
AcDbEntity
  8
1
  6
SLD-Solid
370
    25
100
AcDbLine
 10
3.0
 20
-13.65
 30
0.0
 11
3.0
 21
-11.4643398282
 31
0.0
  0
LINE
  5
C3
330
1F
100
AcDbEntity
  8
1
  6
SLD-Solid
370
    25
100
AcDbLine
 10
3.0
 20
3.7629775444
 30
0.0
 11
3.0
 21
11.4643398282
 31
0.0
  0
LINE
  5
C4
330
1F
100
AcDbEntity
  8
1
  6
SLD-Solid
370
    25
100
AcDbLine
 10
3.0
 20
-11.4643398282
 30
0.0
 11
3.0
 21
-3.7629775444
 31
0.0
  0
LINE
  5
C5
330
1F
100
AcDbEntity
  8
1
  6
SLD-Solid
370
    25
100
AcDbLine
 10
0.0
 20
34.925
 30
0.0
 11
0.0
 21
-34.925
 31
0.0
  0
LINE
  5
C6
330
1F
100
AcDbEntity
  8
SK1
  6
SLD-Solid
370
    25
100
AcDbLine
 10
-101.8
 20
-19.2132836634
 30
0.0
 11
-101.8
 21
19.2132836634
 31
0.0
  0
LINE
  5
C7
330
1F
100
AcDbEntity
  8
SK3
  6
SLD-Dashed
370
    18
100
AcDbLine
 10
11.1
 20
43.7958995207
 30
0.0
 11
10.4506010616
 21
43.7588363312
 31
0.0
  0
LINE
  5
C8
330
1F
100
AcDbEntity
  8
SK3
  6
SLD-Dashed
370
    18
100
AcDbLine
 10
10.4506010616
 20
43.7588363312
 30
0.0
 11
9.8715745746
 21
43.6516631343
 31
0.0
  0
LINE
  5
C9
330
1F
100
AcDbEntity
  8
SK3
  6
SLD-Dashed
370
    18
100
AcDbLine
 10
9.8715745746
 20
43.6516631343
 30
0.0
 11
9.4256670435
 21
43.4859938089
 31
0.0
  0
LINE
  5
CA
330
1F
100
AcDbEntity
  8
SK3
  6
SLD-Dashed
370
    18
100
AcDbLine
 10
9.4256670435
 20
43.4859938089
 30
0.0
 11
9.1611994681
 21
43.279781197
 31
0.0
  0
LINE
  5
CB
330
1F
100
AcDbEntity
  8
SK3
  6
SLD-Dashed
370
    18
100
AcDbLine
 10
9.1611994681
 20
43.279781197
 30
0.0
 11
9.106831014
 21
43.0553716349
 31
0.0
  0
LINE
  5
CC
330
1F
100
AcDbEntity
  8
SK3
  6
SLD-Dashed
370
    18
100
AcDbLine
 10
9.106831014
 20
43.0553716349
 30
0.0
 11
9.2684533467
 21
42.8370833806
 31
0.0
  0
LINE
  5
CD
330
1F
100
AcDbEntity
  8
SK3
  6
SLD-Dashed
370
    18
100
AcDbLine
 10
9.2684533467
 20
42.8370833806
 30
0.0
 11
9.6285521787
 21
42.6485713536
 31
0.0
  0
LINE
  5
CE
330
1F
100
AcDbEntity
  8
SK3
  6
SLD-Dashed
370
    18
100
AcDbLine
 10
9.6285521787
 20
42.6485713536
 30
0.0
 11
10.1481052139
 21
42.5102637571
 31
0.0
  0
LINE
  5
CF
330
1F
100
AcDbEntity
  8
SK3
  6
SLD-Dashed
370
    18
100
AcDbLine
 10
10.1481052139
 20
42.5102637571
 30
0.0
 11
10.7708108194
 21
42.4371483653
 31
0.0
  0
LINE
  5
D0
330
1F
100
AcDbEntity
  8
SK3
  6
SLD-Dashed
370
    18
100
AcDbLine
 10
10.7708108194
 20
42.4371483653
 30
0.0
 11
11.4291891806
 21
42.4371483653
 31
0.0
  0
LINE
  5
D1
330
1F
100
AcDbEntity
  8
SK3
  6
SLD-Dashed
370
    18
100
AcDbLine
 10
11.4291891806
 20
42.4371483653
 30
0.0
 11
12.0518947861
 21
42.5102637571
 31
0.0
  0
LINE
  5
D2
330
1F
100
AcDbEntity
  8
SK3
  6
SLD-Dashed
370
    18
100
AcDbLine
 10
12.0518947861
 20
42.5102637571
 30
0.0
 11
12.5714478213
 21
42.6485713536
 31
0.0
  0
LINE
  5
D3
330
1F
100
AcDbEntity
  8
SK3
  6
SLD-Dashed
370
    18
100
AcDbLine
 10
12.5714478213
 20
42.6485713536
 30
0.0
 11
12.9315466533
 21
42.8370833806
 31
0.0
  0
LINE
  5
D4
330
1F
100
AcDbEntity
  8
SK3
  6
SLD-Dashed
370
    18
100
AcDbLine
 10
12.9315466533
 20
42.8370833806
 30
0.0
 11
13.093168986
 21
43.0553716349
 31
0.0
  0
LINE
  5
D5
330
1F
100
AcDbEntity
  8
SK3
  6
SLD-Dashed
370
    18
100
AcDbLine
 10
13.093168986
 20
43.0553716349
 30
0.0
 11
13.0388005319
 21
43.279781197
 31
0.0
  0
LINE
  5
D6
330
1F
100
AcDbEntity
  8
SK3
  6
SLD-Dashed
370
    18
100
AcDbLine
 10
13.0388005319
 20
43.279781197
 30
0.0
 11
12.7743329565
 21
43.4859938089
 31
0.0
  0
LINE
  5
D7
330
1F
100
AcDbEntity
  8
SK3
  6
SLD-Dashed
370
    18
100
AcDbLine
 10
12.7743329565
 20
43.4859938089
 30
0.0
 11
12.3284254254
 21
43.6516631343
 31
0.0
  0
LINE
  5
D8
330
1F
100
AcDbEntity
  8
SK3
  6
SLD-Dashed
370
    18
100
AcDbLine
 10
12.3284254254
 20
43.6516631343
 30
0.0
 11
11.7493989384
 21
43.7588363312
 31
0.0
  0
LINE
  5
D9
330
1F
100
AcDbEntity
  8
SK3
  6
SLD-Dashed
370
    18
100
AcDbLine
 10
11.7493989384
 20
43.7588363312
 30
0.0
 11
11.1
 21
43.7958995207
 31
0.0
  0
LINE
  5
DA
330
1F
100
AcDbEntity
  8
SK3
  6
SLD-Dashed
370
    18
100
AcDbLine
 10
11.1
 20
43.4863063449
 30
0.0
 11
10.5039512508
 21
43.4481981795
 31
0.0
  0
LINE
  5
DB
330
1F
100
AcDbEntity
  8
SK3
  6
SLD-Dashed
370
    18
100
AcDbLine
 10
10.5039512508
 20
43.4481981795
 30
0.0
 11
9.988402188
 21
43.3390204024
 31
0.0
  0
LINE
  5
DC
330
1F
100
AcDbEntity
  8
SK3
  6
SLD-Dashed
370
    18
100
AcDbLine
 10
9.988402188
 20
43.3390204024
 30
0.0
 11
9.6229805693
 21
43.1735180773
 31
0.0
  0
LINE
  5
DD
330
1F
100
AcDbEntity
  8
SK3
  6
SLD-Dashed
370
    18
100
AcDbLine
 10
9.6229805693
 20
43.1735180773
 30
0.0
 11
9.4570386091
 21
42.9740432103
 31
0.0
  0
LINE
  5
DE
330
1F
100
AcDbEntity
  8
SK3
  6
SLD-Dashed
370
    18
100
AcDbLine
 10
9.4570386091
 20
42.9740432103
 30
0.0
 11
9.5129876888
 21
42.7675359875
 31
0.0
  0
LINE
  5
DF
330
1F
100
AcDbEntity
  8
SK3
  6
SLD-Dashed
370
    18
100
AcDbLine
 10
9.5129876888
 20
42.7675359875
 30
0.0
 11
9.783271575
 21
42.5818863536
 31
0.0
  0
LINE
  5
E0
330
1F
100
AcDbEntity
  8
SK3
  6
SLD-Dashed
370
    18
100
AcDbLine
 10
9.783271575
 20
42.5818863536
 30
0.0
 11
10.2313869313
 21
42.4421673205
 31
0.0
  0
LINE
  5
E1
330
1F
100
AcDbEntity
  8
SK3
  6
SLD-Dashed
370
    18
100
AcDbLine
 10
10.2313869313
 20
42.4421673205
 30
0.0
 11
10.7968132956
 21
42.3672487176
 31
0.0
  0
LINE
  5
E2
330
1F
100
AcDbEntity
  8
SK3
  6
SLD-Dashed
370
    18
100
AcDbLine
 10
10.7968132956
 20
42.3672487176
 30
0.0
 11
11.4031867044
 21
42.3672487176
 31
0.0
  0
LINE
  5
E3
330
1F
100
AcDbEntity
  8
SK3
  6
SLD-Dashed
370
    18
100
AcDbLine
 10
11.4031867044
 20
42.3672487176
 30
0.0
 11
11.9686130687
 21
42.4421673205
 31
0.0
  0
LINE
  5
E4
330
1F
100
AcDbEntity
  8
SK3
  6
SLD-Dashed
370
    18
100
AcDbLine
 10
11.9686130687
 20
42.4421673205
 30
0.0
 11
12.416728425
 21
42.5818863536
 31
0.0
  0
LINE
  5
E5
330
1F
100
AcDbEntity
  8
SK3
  6
SLD-Dashed
370
    18
100
AcDbLine
 10
12.416728425
 20
42.5818863536
 30
0.0
 11
12.6870123112
 21
42.7675359875
 31
0.0
  0
LINE
  5
E6
330
1F
100
AcDbEntity
  8
SK3
  6
SLD-Dashed
370
    18
100
AcDbLine
 10
12.6870123112
 20
42.7675359875
 30
0.0
 11
12.7429613909
 21
42.9740432103
 31
0.0
  0
LINE
  5
E7
330
1F
100
AcDbEntity
  8
SK3
  6
SLD-Dashed
370
    18
100
AcDbLine
 10
12.7429613909
 20
42.9740432103
 30
0.0
 11
12.5770194307
 21
43.1735180773
 31
0.0
  0
LINE
  5
E8
330
1F
100
AcDbEntity
  8
SK3
  6
SLD-Dashed
370
    18
100
AcDbLine
 10
12.5770194307
 20
43.1735180773
 30
0.0
 11
12.211597812
 21
43.3390204024
 31
0.0
  0
LINE
  5
E9
330
1F
100
AcDbEntity
  8
SK3
  6
SLD-Dashed
370
    18
100
AcDbLine
 10
12.211597812
 20
43.3390204024
 30
0.0
 11
11.6960487492
 21
43.4481981795
 31
0.0
  0
LINE
  5
EA
330
1F
100
AcDbEntity
  8
SK3
  6
SLD-Dashed
370
    18
100
AcDbLine
 10
11.6960487492
 20
43.4481981795
 30
0.0
 11
11.1
 21
43.4863063449
 31
0.0
  0
LINE
  5
EB
330
1F
100
AcDbEntity
  8
SK3
  6
SLD-Dashed
370
    18
100
AcDbLine
 10
3.1949403416
 20
36.0985003391
 30
0.0
 11
3.3816002207
 21
36.092114793
 31
0.0
  0
LINE
  5
EC
330
1F
100
AcDbEntity
  8
SK3
  6
SLD-Dashed
370
    18
100
AcDbLine
 10
3.3816002207
 20
36.092114793
 30
0.0
 11
3.6777929979
 21
36.2560372867
 31
0.0
  0
LINE
  5
ED
330
1F
100
AcDbEntity
  8
SK3
  6
SLD-Dashed
370
    18
100
AcDbLine
 10
3.6777929979
 20
36.2560372867
 30
0.0
 11
4.0595228959
 21
36.5769877948
 31
0.0
  0
LINE
  5
EE
330
1F
100
AcDbEntity
  8
SK3
  6
SLD-Dashed
370
    18
100
AcDbLine
 10
4.0595228959
 20
36.5769877948
 30
0.0
 11
4.4958644286
 21
37.0289648159
 31
0.0
  0
LINE
  5
EF
330
1F
100
AcDbEntity
  8
SK3
  6
SLD-Dashed
370
    18
100
AcDbLine
 10
4.4958644286
 20
37.0289648159
 30
0.0
 11
4.9514678
 21
37.5753518596
 31
0.0
  0
LINE
  5
F0
330
1F
100
AcDbEntity
  8
SK3
  6
SLD-Dashed
370
    18
100
AcDbLine
 10
4.9514678
 20
37.5753518596
 30
0.0
 11
5.3894227346
 21
38.1718838973
 31
0.0
  0
LINE
  5
F1
330
1F
100
AcDbEntity
  8
SK3
  6
SLD-Dashed
370
    18
100
AcDbLine
 10
5.3894227346
 20
38.1718838973
 30
0.0
 11
5.7742487283
 21
38.7702334509
 31
0.0
  0
LINE
  5
F2
330
1F
100
AcDbEntity
  8
SK3
  6
SLD-Dashed
370
    18
100
AcDbLine
 10
5.7742487283
 20
38.7702334509
 30
0.0
 11
6.0747694675
 21
39.3219257981
 31
0.0
  0
LINE
  5
F3
330
1F
100
AcDbEntity
  8
SK3
  6
SLD-Dashed
370
    18
100
AcDbLine
 10
6.0747694675
 20
39.3219257981
 30
0.0
 11
6.2666385494
 21
39.782266106
 31
0.0
  0
LINE
  5
F4
330
1F
100
AcDbEntity
  8
SK3
  6
SLD-Dashed
370
    18
100
AcDbLine
 10
6.2666385494
 20
39.782266106
 30
0.0
 11
6.3343118819
 21
40.1139603407
 31
0.0
  0
LINE
  5
F5
330
1F
100
AcDbEntity
  8
SK3
  6
SLD-Dashed
370
    18
100
AcDbLine
 10
6.3343118819
 20
40.1139603407
 30
0.0
 11
6.2723069743
 21
40.2901366077
 31
0.0
  0
LINE
  5
F6
330
1F
100
AcDbEntity
  8
SK3
  6
SLD-Dashed
370
    18
100
AcDbLine
 10
6.2723069743
 20
40.2901366077
 30
0.0
 11
6.0856470952
 21
40.2965221539
 31
0.0
  0
LINE
  5
F7
330
1F
100
AcDbEntity
  8
SK3
  6
SLD-Dashed
370
    18
100
AcDbLine
 10
6.0856470952
 20
40.2965221539
 30
0.0
 11
5.789454318
 21
40.1325996601
 31
0.0
  0
LINE
  5
F8
330
1F
100
AcDbEntity
  8
SK3
  6
SLD-Dashed
370
    18
100
AcDbLine
 10
5.789454318
 20
40.1325996601
 30
0.0
 11
5.40772442
 21
39.811649152
 31
0.0
  0
LINE
  5
F9
330
1F
100
AcDbEntity
  8
SK3
  6
SLD-Dashed
370
    18
100
AcDbLine
 10
5.40772442
 20
39.811649152
 30
0.0
 11
4.9713828873
 21
39.359672131
 31
0.0
  0
LINE
  5
FA
330
1F
100
AcDbEntity
  8
SK3
  6
SLD-Dashed
370
    18
100
AcDbLine
 10
4.9713828873
 20
39.359672131
 30
0.0
 11
4.5157795159
 21
38.8132850872
 31
0.0
  0
LINE
  5
FB
330
1F
100
AcDbEntity
  8
SK3
  6
SLD-Dashed
370
    18
100
AcDbLine
 10
4.5157795159
 20
38.8132850872
 30
0.0
 11
4.0778245812
 21
38.2167530495
 31
0.0
  0
LINE
  5
FC
330
1F
100
AcDbEntity
  8
SK3
  6
SLD-Dashed
370
    18
100
AcDbLine
 10
4.0778245812
 20
38.2167530495
 30
0.0
 11
3.6929985876
 21
37.6184034959
 31
0.0
  0
LINE
  5
FD
330
1F
100
AcDbEntity
  8
SK3
  6
SLD-Dashed
370
    18
100
AcDbLine
 10
3.6929985876
 20
37.6184034959
 30
0.0
 11
3.3924778483
 21
37.0667111487
 31
0.0
  0
LINE
  5
FE
330
1F
100
AcDbEntity
  8
SK3
  6
SLD-Dashed
370
    18
100
AcDbLine
 10
3.3924778483
 20
37.0667111487
 30
0.0
 11
3.2006087665
 21
36.6063708408
 31
0.0
  0
LINE
  5
FF
330
1F
100
AcDbEntity
  8
SK3
  6
SLD-Dashed
370
    18
100
AcDbLine
 10
3.2006087665
 20
36.6063708408
 30
0.0
 11
3.1329354339
 21
36.2746766062
 31
0.0
  0
LINE
  5
100
330
1F
100
AcDbEntity
  8
SK3
  6
SLD-Dashed
370
    18
100
AcDbLine
 10
3.1329354339
 20
36.2746766062
 30
0.0
 11
3.1949403416
 21
36.0985003391
 31
0.0
  0
LINE
  5
101
330
1F
100
AcDbEntity
  8
SK3
  6
SLD-Dashed
370
    18
100
AcDbLine
 10
159.0
 20
-16.0
 30
0.0
 11
159.0
 21
16.0
 31
0.0
  0
LINE
  5
102
330
1F
100
AcDbEntity
  8
SK3
  6
SLD-Dashed
370
    18
100
AcDbLine
 10
3.2837105329
 20
36.2194129238
 30
0.0
 11
3.4707009721
 21
36.2171618497
 31
0.0
  0
LINE
  5
103
330
1F
100
AcDbEntity
  8
SK3
  6
SLD-Dashed
370
    18
100
AcDbLine
 10
3.4707009721
 20
36.2171618497
 30
0.0
 11
3.7699076342
 21
36.3905898182
 31
0.0
  0
LINE
  5
104
330
1F
100
AcDbEntity
  8
SK3
  6
SLD-Dashed
370
    18
100
AcDbLine
 10
3.7699076342
 20
36.3905898182
 30
0.0
 11
4.1547446942
 21
36.7242869932
 31
0.0
  0
LINE
  5
105
330
1F
100
AcDbEntity
  8
SK3
  6
SLD-Dashed
370
    18
100
AcDbLine
 10
4.1547446942
 20
36.7242869932
 30
0.0
 11
4.5910176905
 21
37.1886029164
 31
0.0
  0
LINE
  5
106
330
1F
100
AcDbEntity
  8
SK3
  6
SLD-Dashed
370
    18
100
AcDbLine
 10
4.5910176905
 20
37.1886029164
 30
0.0
 11
5.0399618528
 21
37.7422810804
 31
0.0
  0
LINE
  5
107
330
1F
100
AcDbEntity
  8
SK3
  6
SLD-Dashed
370
    18
100
AcDbLine
 10
5.0399618528
 20
37.7422810804
 30
0.0
 11
5.4616865221
 21
38.3361247504
 31
0.0
  0
LINE
  5
108
330
1F
100
AcDbEntity
  8
SK3
  6
SLD-Dashed
370
    18
100
AcDbLine
 10
5.4616865221
 20
38.3361247504
 30
0.0
 11
5.818719611
 21
38.9173683105
 31
0.0
  0
LINE
  5
109
330
1F
100
AcDbEntity
  8
SK3
  6
SLD-Dashed
370
    18
100
AcDbLine
 10
5.818719611
 20
38.9173683105
 30
0.0
 11
6.0793371625
 21
39.4343657194
 31
0.0
  0
LINE
  5
10A
330
1F
100
AcDbEntity
  8
SK3
  6
SLD-Dashed
370
    18
100
AcDbLine
 10
6.0793371625
 20
39.4343657194
 30
0.0
 11
6.2203821635
 21
39.8411794887
 31
0.0
  0
LINE
  5
10B
330
1F
100
AcDbEntity
  8
SK3
  6
SLD-Dashed
370
    18
100
AcDbLine
 10
6.2203821635
 20
39.8411794887
 30
0.0
 11
6.2293221469
 21
40.1016624297
 31
0.0
  0
LINE
  5
10C
330
1F
100
AcDbEntity
  8
SK3
  6
SLD-Dashed
370
    18
100
AcDbLine
 10
6.2293221469
 20
40.1016624297
 30
0.0
 11
6.1053627557
 21
40.1926694899
 31
0.0
  0
LINE
  5
10D
330
1F
100
AcDbEntity
  8
SK3
  6
SLD-Dashed
370
    18
100
AcDbLine
 10
6.1053627557
 20
40.1926694899
 30
0.0
 11
5.8595183259
 21
40.1061142927
 31
0.0
  0
LINE
  5
10E
330
1F
100
AcDbEntity
  8
SK3
  6
SLD-Dashed
370
    18
100
AcDbLine
 10
5.8595183259
 20
40.1061142927
 30
0.0
 11
5.5136332139
 21
39.8496876471
 31
0.0
  0
LINE
  5
10F
330
1F
100
AcDbEntity
  8
SK3
  6
SLD-Dashed
370
    18
100
AcDbLine
 10
5.5136332139
 20
39.8496876471
 30
0.0
 11
5.0984408299
 21
39.446174186
 31
0.0
  0
LINE
  5
110
330
1F
100
AcDbEntity
  8
SK3
  6
SLD-Dashed
370
    18
100
AcDbLine
 10
5.0984408299
 20
39.446174186
 30
0.0
 11
4.6508328392
 21
38.9314278512
 31
0.0
  0
LINE
  5
111
330
1F
100
AcDbEntity
  8
SK3
  6
SLD-Dashed
370
    18
100
AcDbLine
 10
4.6508328392
 20
38.9314278512
 30
0.0
 11
4.210581176
 21
38.3511861134
 31
0.0
  0
LINE
  5
112
330
1F
100
AcDbEntity
  8
SK3
  6
SLD-Dashed
370
    18
100
AcDbLine
 10
4.210581176
 20
38.3511861134
 30
0.0
 11
3.8168041327
 21
37.7570059974
 31
0.0
  0
LINE
  5
113
330
1F
100
AcDbEntity
  8
SK3
  6
SLD-Dashed
370
    18
100
AcDbLine
 10
3.8168041327
 20
37.7570059974
 30
0.0
 11
3.5044905276
 21
37.201683014
 31
0.0
  0
LINE
  5
114
330
1F
100
AcDbEntity
  8
SK3
  6
SLD-Dashed
370
    18
100
AcDbLine
 10
3.5044905276
 20
37.201683014
 30
0.0
 11
3.3013907951
 21
36.7345600472
 31
0.0
  0
LINE
  5
115
330
1F
100
AcDbEntity
  8
SK3
  6
SLD-Dashed
370
    18
100
AcDbLine
 10
3.3013907951
 20
36.7345600472
 30
0.0
 11
3.2255512377
 21
36.3971430227
 31
0.0
  0
LINE
  5
116
330
1F
100
AcDbEntity
  8
SK3
  6
SLD-Dashed
370
    18
100
AcDbLine
 10
3.2255512377
 20
36.3971430227
 30
0.0
 11
3.2837105329
 21
36.2194129238
 31
0.0
  0
LINE
  5
117
330
1F
100
AcDbEntity
  8
SK3
  6
SLD-Dashed
370
    18
100
AcDbLine
 10
14.0794578574
 20
28.2935170536
 30
0.0
 11
14.2664482966
 21
28.2912659795
 31
0.0
  0
LINE
  5
118
330
1F
100
AcDbEntity
  8
SK3
  6
SLD-Dashed
370
    18
100
AcDbLine
 10
14.2664482966
 20
28.2912659795
 30
0.0
 11
14.5656549586
 21
28.464693948
 31
0.0
  0
LINE
  5
119
330
1F
100
AcDbEntity
  8
SK3
  6
SLD-Dashed
370
    18
100
AcDbLine
 10
14.5656549586
 20
28.464693948
 30
0.0
 11
14.9504920186
 21
28.7983911231
 31
0.0
  0
LINE
  5
11A
330
1F
100
AcDbEntity
  8
SK3
  6
SLD-Dashed
370
    18
100
AcDbLine
 10
14.9504920186
 20
28.7983911231
 30
0.0
 11
15.3867650149
 21
29.2627070463
 31
0.0
  0
LINE
  5
11B
330
1F
100
AcDbEntity
  8
SK3
  6
SLD-Dashed
370
    18
100
AcDbLine
 10
15.3867650149
 20
29.2627070463
 30
0.0
 11
15.8357091772
 21
29.8163852102
 31
0.0
  0
LINE
  5
11C
330
1F
100
AcDbEntity
  8
SK3
  6
SLD-Dashed
370
    18
100
AcDbLine
 10
15.8357091772
 20
29.8163852102
 30
0.0
 11
16.2574338466
 21
30.4102288803
 31
0.0
  0
LINE
  5
11D
330
1F
100
AcDbEntity
  8
SK3
  6
SLD-Dashed
370
    18
100
AcDbLine
 10
16.2574338466
 20
30.4102288803
 30
0.0
 11
16.6144669354
 21
30.9914724403
 31
0.0
  0
LINE
  5
11E
330
1F
100
AcDbEntity
  8
SK3
  6
SLD-Dashed
370
    18
100
AcDbLine
 10
16.6144669354
 20
30.9914724403
 30
0.0
 11
16.8750844869
 21
31.5084698493
 31
0.0
  0
LINE
  5
11F
330
1F
100
AcDbEntity
  8
SK3
  6
SLD-Dashed
370
    18
100
AcDbLine
 10
16.8750844869
 20
31.5084698493
 30
0.0
 11
17.016129488
 21
31.9152836186
 31
0.0
  0
LINE
  5
120
330
1F
100
AcDbEntity
  8
SK3
  6
SLD-Dashed
370
    18
100
AcDbLine
 10
17.016129488
 20
31.9152836186
 30
0.0
 11
17.0250694713
 21
32.1757665595
 31
0.0
  0
LINE
  5
121
330
1F
100
AcDbEntity
  8
SK3
  6
SLD-Dashed
370
    18
100
AcDbLine
 10
17.0250694713
 20
32.1757665595
 30
0.0
 11
16.9011100801
 21
32.2667736197
 31
0.0
  0
LINE
  5
122
330
1F
100
AcDbEntity
  8
SK3
  6
SLD-Dashed
370
    18
100
AcDbLine
 10
16.9011100801
 20
32.2667736197
 30
0.0
 11
16.6552656503
 21
32.1802184225
 31
0.0
  0
LINE
  5
123
330
1F
100
AcDbEntity
  8
SK3
  6
SLD-Dashed
370
    18
100
AcDbLine
 10
16.6552656503
 20
32.1802184225
 30
0.0
 11
16.3093805383
 21
31.923791777
 31
0.0
  0
LINE
  5
124
330
1F
100
AcDbEntity
  8
SK3
  6
SLD-Dashed
370
    18
100
AcDbLine
 10
16.3093805383
 20
31.923791777
 30
0.0
 11
15.8941881543
 21
31.5202783159
 31
0.0
  0
LINE
  5
125
330
1F
100
AcDbEntity
  8
SK3
  6
SLD-Dashed
370
    18
100
AcDbLine
 10
15.8941881543
 20
31.5202783159
 30
0.0
 11
15.4465801636
 21
31.005531981
 31
0.0
  0
LINE
  5
126
330
1F
100
AcDbEntity
  8
SK3
  6
SLD-Dashed
370
    18
100
AcDbLine
 10
15.4465801636
 20
31.005531981
 30
0.0
 11
15.0063285004
 21
30.4252902432
 31
0.0
  0
LINE
  5
127
330
1F
100
AcDbEntity
  8
SK3
  6
SLD-Dashed
370
    18
100
AcDbLine
 10
15.0063285004
 20
30.4252902432
 30
0.0
 11
14.6125514571
 21
29.8311101272
 31
0.0
  0
LINE
  5
128
330
1F
100
AcDbEntity
  8
SK3
  6
SLD-Dashed
370
    18
100
AcDbLine
 10
14.6125514571
 20
29.8311101272
 30
0.0
 11
14.300237852
 21
29.2757871438
 31
0.0
  0
LINE
  5
129
330
1F
100
AcDbEntity
  8
SK3
  6
SLD-Dashed
370
    18
100
AcDbLine
 10
14.300237852
 20
29.2757871438
 30
0.0
 11
14.0971381195
 21
28.8086641771
 31
0.0
  0
LINE
  5
12A
330
1F
100
AcDbEntity
  8
SK3
  6
SLD-Dashed
370
    18
100
AcDbLine
 10
14.0971381195
 20
28.8086641771
 30
0.0
 11
14.0212985621
 21
28.4712471526
 31
0.0
  0
LINE
  5
12B
330
1F
100
AcDbEntity
  8
SK3
  6
SLD-Dashed
370
    18
100
AcDbLine
 10
14.0212985621
 20
28.4712471526
 30
0.0
 11
14.0794578574
 21
28.2935170536
 31
0.0
  0
LINE
  5
12C
330
1F
100
AcDbEntity
  8
SK3
  6
SLD-Dashed
370
    18
100
AcDbLine
 10
101.75
 20
-14.9038585608
 30
0.0
 11
101.75
 21
16.25
 31
0.0
  0
LINE
  5
12D
330
1F
100
AcDbEntity
  8
SK3
  6
SLD-Dashed
370
    18
100
AcDbLine
 10
97.25
 20
16.25
 30
0.0
 11
97.25
 21
-16.25
 31
0.0
  0
LINE
  5
12E
330
1F
100
AcDbEntity
  8
SK3
  6
SLD-Dashed
370
    18
100
AcDbLine
 10
97.0
 20
16.0
 30
0.0
 11
97.0
 21
-15.99999998
 31
0.0
  0
LINE
  5
12F
330
1F
100
AcDbEntity
  8
SK3
  6
SLD-Dashed
370
    18
100
AcDbLine
 10
102.0
 20
16.0
 30
0.0
 11
102.0
 21
-14.5258390463
 31
0.0
  0
LINE
  5
130
330
1F
100
AcDbEntity
  8
SK3
  6
SLD-Dashed
370
    18
100
AcDbLine
 10
-100.05
 20
12.5075
 30
0.0
 11
-100.05
 21
-12.5075
 31
0.0
  0
LINE
  5
131
330
1F
100
AcDbEntity
  8
SK3
  6
SLD-Dashed
370
    18
100
AcDbLine
 10
-88.55
 20
12.75
 30
0.0
 11
-88.55
 21
-12.75
 31
0.0
  0
LINE
  5
132
330
1F
100
AcDbEntity
  8
SK3
  6
SLD-Dashed
370
    18
100
AcDbLine
 10
-91.55
 20
12.75
 30
0.0
 11
-91.55
 21
-12.75
 31
0.0
  0
LINE
  5
133
330
1F
100
AcDbEntity
  8
SK3
  6
SLD-Dashed
370
    18
100
AcDbLine
 10
-91.9700223208
 20
12.5075
 30
0.0
 11
-91.9700223208
 21
-12.5075
 31
0.0
  0
LINE
  5
134
330
1F
100
AcDbEntity
  8
SK3
  6
SLD-Dashed
370
    18
100
AcDbLine
 10
-87.2509618943
 20
10.5
 30
0.0
 11
-87.2509618943
 21
-10.5
 31
0.0
  0
LINE
  5
135
330
1F
100
AcDbEntity
  8
SK3
  6
SLD-Dashed
370
    18
100
AcDbLine
 10
147.1
 20
-33.8
 30
0.0
 11
124.9
 21
-33.8
 31
0.0
  0
LINE
  5
136
330
1F
100
AcDbEntity
  8
SK3
  6
SLD-Dashed
370
    18
100
AcDbLine
 10
119.1
 20
-33.8
 30
0.0
 11
96.9
 21
-33.8
 31
0.0
  0
LINE
  5
137
330
1F
100
AcDbEntity
  8
SK3
  6
SLD-Dashed
370
    18
100
AcDbLine
 10
16.9792841073
 20
-32.2433281529
 30
0.0
 11
16.7922936681
 21
-32.245579227
 31
0.0
  0
LINE
  5
138
330
1F
100
AcDbEntity
  8
SK3
  6
SLD-Dashed
370
    18
100
AcDbLine
 10
16.7922936681
 20
-32.245579227
 30
0.0
 11
16.4930870061
 21
-32.0721512585
 31
0.0
  0
LINE
  5
139
330
1F
100
AcDbEntity
  8
SK3
  6
SLD-Dashed
370
    18
100
AcDbLine
 10
16.4930870061
 20
-32.0721512585
 30
0.0
 11
16.1082499461
 21
-31.7384540835
 31
0.0
  0
LINE
  5
13A
330
1F
100
AcDbEntity
  8
SK3
  6
SLD-Dashed
370
    18
100
AcDbLine
 10
16.1082499461
 20
-31.7384540835
 30
0.0
 11
15.6719769498
 21
-31.2741381603
 31
0.0
  0
LINE
  5
13B
330
1F
100
AcDbEntity
  8
SK3
  6
SLD-Dashed
370
    18
100
AcDbLine
 10
15.6719769498
 20
-31.2741381603
 30
0.0
 11
15.2230327875
 21
-30.7204599963
 31
0.0
  0
LINE
  5
13C
330
1F
100
AcDbEntity
  8
SK3
  6
SLD-Dashed
370
    18
100
AcDbLine
 10
15.2230327875
 20
-30.7204599963
 30
0.0
 11
14.8013081181
 21
-30.1266163263
 31
0.0
  0
LINE
  5
13D
330
1F
100
AcDbEntity
  8
SK3
  6
SLD-Dashed
370
    18
100
AcDbLine
 10
14.8013081181
 20
-30.1266163263
 30
0.0
 11
14.4442750293
 21
-29.5453727662
 31
0.0
  0
LINE
  5
13E
330
1F
100
AcDbEntity
  8
SK3
  6
SLD-Dashed
370
    18
100
AcDbLine
 10
14.4442750293
 20
-29.5453727662
 30
0.0
 11
14.1836574778
 21
-29.0283753573
 31
0.0
  0
LINE
  5
13F
330
1F
100
AcDbEntity
  8
SK3
  6
SLD-Dashed
370
    18
100
AcDbLine
 10
14.1836574778
 20
-29.0283753573
 30
0.0
 11
14.0426124767
 21
-28.621561588
 31
0.0
  0
LINE
  5
140
330
1F
100
AcDbEntity
  8
SK3
  6
SLD-Dashed
370
    18
100
AcDbLine
 10
14.0426124767
 20
-28.621561588
 30
0.0
 11
14.0336724934
 21
-28.361078647
 31
0.0
  0
LINE
  5
141
330
1F
100
AcDbEntity
  8
SK3
  6
SLD-Dashed
370
    18
100
AcDbLine
 10
14.0336724934
 20
-28.361078647
 30
0.0
 11
14.1576318846
 21
-28.2700715868
 31
0.0
  0
LINE
  5
142
330
1F
100
AcDbEntity
  8
SK3
  6
SLD-Dashed
370
    18
100
AcDbLine
 10
14.1576318846
 20
-28.2700715868
 30
0.0
 11
14.4034763144
 21
-28.3566267841
 31
0.0
  0
LINE
  5
143
330
1F
100
AcDbEntity
  8
SK3
  6
SLD-Dashed
370
    18
100
AcDbLine
 10
14.4034763144
 20
-28.3566267841
 30
0.0
 11
14.7493614264
 21
-28.6130534296
 31
0.0
  0
LINE
  5
144
330
1F
100
AcDbEntity
  8
SK3
  6
SLD-Dashed
370
    18
100
AcDbLine
 10
14.7493614264
 20
-28.6130534296
 30
0.0
 11
15.1645538104
 21
-29.0165668907
 31
0.0
  0
LINE
  5
145
330
1F
100
AcDbEntity
  8
SK3
  6
SLD-Dashed
370
    18
100
AcDbLine
 10
15.1645538104
 20
-29.0165668907
 30
0.0
 11
15.6121618011
 21
-29.5313132255
 31
0.0
  0
LINE
  5
146
330
1F
100
AcDbEntity
  8
SK3
  6
SLD-Dashed
370
    18
100
AcDbLine
 10
15.6121618011
 20
-29.5313132255
 30
0.0
 11
16.0524134643
 21
-30.1115549633
 31
0.0
  0
LINE
  5
147
330
1F
100
AcDbEntity
  8
SK3
  6
SLD-Dashed
370
    18
100
AcDbLine
 10
16.0524134643
 20
-30.1115549633
 30
0.0
 11
16.4461905076
 21
-30.7057350794
 31
0.0
  0
LINE
  5
148
330
1F
100
AcDbEntity
  8
SK3
  6
SLD-Dashed
370
    18
100
AcDbLine
 10
16.4461905076
 20
-30.7057350794
 30
0.0
 11
16.7585041126
 21
-31.2610580628
 31
0.0
  0
LINE
  5
149
330
1F
100
AcDbEntity
  8
SK3
  6
SLD-Dashed
370
    18
100
AcDbLine
 10
16.7585041126
 20
-31.2610580628
 30
0.0
 11
16.9616038452
 21
-31.7281810295
 31
0.0
  0
LINE
  5
14A
330
1F
100
AcDbEntity
  8
SK3
  6
SLD-Dashed
370
    18
100
AcDbLine
 10
16.9616038452
 20
-31.7281810295
 30
0.0
 11
17.0374434025
 21
-32.065598054
 31
0.0
  0
LINE
  5
14B
330
1F
100
AcDbEntity
  8
SK3
  6
SLD-Dashed
370
    18
100
AcDbLine
 10
17.0374434025
 20
-32.065598054
 30
0.0
 11
16.9792841073
 21
-32.2433281529
 31
0.0
  0
LINE
  5
14C
330
1F
100
AcDbEntity
  8
SK3
  6
SLD-Dashed
370
    18
100
AcDbLine
 10
6.1835367829
 20
-40.1692240231
 30
0.0
 11
5.9965463437
 21
-40.1714750972
 31
0.0
  0
LINE
  5
14D
330
1F
100
AcDbEntity
  8
SK3
  6
SLD-Dashed
370
    18
100
AcDbLine
 10
5.9965463437
 20
-40.1714750972
 30
0.0
 11
5.6973396816
 21
-39.9980471287
 31
0.0
  0
LINE
  5
14E
330
1F
100
AcDbEntity
  8
SK3
  6
SLD-Dashed
370
    18
100
AcDbLine
 10
5.6973396816
 20
-39.9980471287
 30
0.0
 11
5.3125026217
 21
-39.6643499536
 31
0.0
  0
LINE
  5
14F
330
1F
100
AcDbEntity
  8
SK3
  6
SLD-Dashed
370
    18
100
AcDbLine
 10
5.3125026217
 20
-39.6643499536
 30
0.0
 11
4.8762296254
 21
-39.2000340304
 31
0.0
  0
LINE
  5
150
330
1F
100
AcDbEntity
  8
SK3
  6
SLD-Dashed
370
    18
100
AcDbLine
 10
4.8762296254
 20
-39.2000340304
 30
0.0
 11
4.4272854631
 21
-38.6463558665
 31
0.0
  0
LINE
  5
151
330
1F
100
AcDbEntity
  8
SK3
  6
SLD-Dashed
370
    18
100
AcDbLine
 10
4.4272854631
 20
-38.6463558665
 30
0.0
 11
4.0055607937
 21
-38.0525121964
 31
0.0
  0
LINE
  5
152
330
1F
100
AcDbEntity
  8
SK3
  6
SLD-Dashed
370
    18
100
AcDbLine
 10
4.0055607937
 20
-38.0525121964
 30
0.0
 11
3.6485277049
 21
-37.4712686364
 31
0.0
  0
LINE
  5
153
330
1F
100
AcDbEntity
  8
SK3
  6
SLD-Dashed
370
    18
100
AcDbLine
 10
3.6485277049
 20
-37.4712686364
 30
0.0
 11
3.3879101534
 21
-36.9542712274
 31
0.0
  0
LINE
  5
154
330
1F
100
AcDbEntity
  8
SK3
  6
SLD-Dashed
370
    18
100
AcDbLine
 10
3.3879101534
 20
-36.9542712274
 30
0.0
 11
3.2468651523
 21
-36.5474574581
 31
0.0
  0
LINE
  5
155
330
1F
100
AcDbEntity
  8
SK3
  6
SLD-Dashed
370
    18
100
AcDbLine
 10
3.2468651523
 20
-36.5474574581
 30
0.0
 11
3.237925169
 21
-36.2869745172
 31
0.0
  0
LINE
  5
156
330
1F
100
AcDbEntity
  8
SK3
  6
SLD-Dashed
370
    18
100
AcDbLine
 10
3.237925169
 20
-36.2869745172
 30
0.0
 11
3.3618845602
 21
-36.195967457
 31
0.0
  0
LINE
  5
157
330
1F
100
AcDbEntity
  8
SK3
  6
SLD-Dashed
370
    18
100
AcDbLine
 10
3.3618845602
 20
-36.195967457
 30
0.0
 11
3.60772899
 21
-36.2825226542
 31
0.0
  0
LINE
  5
158
330
1F
100
AcDbEntity
  8
SK3
  6
SLD-Dashed
370
    18
100
AcDbLine
 10
3.60772899
 20
-36.2825226542
 30
0.0
 11
3.9536141019
 21
-36.5389492997
 31
0.0
  0
LINE
  5
159
330
1F
100
AcDbEntity
  8
SK3
  6
SLD-Dashed
370
    18
100
AcDbLine
 10
3.9536141019
 20
-36.5389492997
 30
0.0
 11
4.368806486
 21
-36.9424627608
 31
0.0
  0
LINE
  5
15A
330
1F
100
AcDbEntity
  8
SK3
  6
SLD-Dashed
370
    18
100
AcDbLine
 10
4.368806486
 20
-36.9424627608
 30
0.0
 11
4.8164144767
 21
-37.4572090957
 31
0.0
  0
LINE
  5
15B
330
1F
100
AcDbEntity
  8
SK3
  6
SLD-Dashed
370
    18
100
AcDbLine
 10
4.8164144767
 20
-37.4572090957
 30
0.0
 11
5.2566661398
 21
-38.0374508335
 31
0.0
  0
LINE
  5
15C
330
1F
100
AcDbEntity
  8
SK3
  6
SLD-Dashed
370
    18
100
AcDbLine
 10
5.2566661398
 20
-38.0374508335
 30
0.0
 11
5.6504431831
 21
-38.6316309495
 31
0.0
  0
LINE
  5
15D
330
1F
100
AcDbEntity
  8
SK3
  6
SLD-Dashed
370
    18
100
AcDbLine
 10
5.6504431831
 20
-38.6316309495
 30
0.0
 11
5.9627567882
 21
-39.1869539329
 31
0.0
  0
LINE
  5
15E
330
1F
100
AcDbEntity
  8
SK3
  6
SLD-Dashed
370
    18
100
AcDbLine
 10
5.9627567882
 20
-39.1869539329
 30
0.0
 11
6.1658565207
 21
-39.6540768996
 31
0.0
  0
LINE
  5
15F
330
1F
100
AcDbEntity
  8
SK3
  6
SLD-Dashed
370
    18
100
AcDbLine
 10
6.1658565207
 20
-39.6540768996
 30
0.0
 11
6.2416960781
 21
-39.9914939241
 31
0.0
  0
LINE
  5
160
330
1F
100
AcDbEntity
  8
SK3
  6
SLD-Dashed
370
    18
100
AcDbLine
 10
6.2416960781
 20
-39.9914939241
 30
0.0
 11
6.1835367829
 21
-40.1692240231
 31
0.0
  0
LINE
  5
161
330
1F
100
AcDbEntity
  8
SK3
  6
SLD-Dashed
370
    18
100
AcDbLine
 10
11.1
 20
-39.8624815174
 30
0.0
 11
10.5039512508
 21
-39.9005896827
 31
0.0
  0
LINE
  5
162
330
1F
100
AcDbEntity
  8
SK3
  6
SLD-Dashed
370
    18
100
AcDbLine
 10
10.5039512508
 20
-39.9005896827
 30
0.0
 11
9.988402188
 21
-40.0097674598
 31
0.0
  0
LINE
  5
163
330
1F
100
AcDbEntity
  8
SK3
  6
SLD-Dashed
370
    18
100
AcDbLine
 10
9.988402188
 20
-40.0097674598
 30
0.0
 11
9.6229805693
 21
-40.1752697849
 31
0.0
  0
LINE
  5
164
330
1F
100
AcDbEntity
  8
SK3
  6
SLD-Dashed
370
    18
100
AcDbLine
 10
9.6229805693
 20
-40.1752697849
 30
0.0
 11
9.4570386091
 21
-40.3747446519
 31
0.0
  0
LINE
  5
165
330
1F
100
AcDbEntity
  8
SK3
  6
SLD-Dashed
370
    18
100
AcDbLine
 10
9.4570386091
 20
-40.3747446519
 30
0.0
 11
9.5129876888
 21
-40.5812518747
 31
0.0
  0
LINE
  5
166
330
1F
100
AcDbEntity
  8
SK3
  6
SLD-Dashed
370
    18
100
AcDbLine
 10
9.5129876888
 20
-40.5812518747
 30
0.0
 11
9.783271575
 21
-40.7669015086
 31
0.0
  0
LINE
  5
167
330
1F
100
AcDbEntity
  8
SK3
  6
SLD-Dashed
370
    18
100
AcDbLine
 10
9.783271575
 20
-40.7669015086
 30
0.0
 11
10.2313869313
 21
-40.9066205418
 31
0.0
  0
LINE
  5
168
330
1F
100
AcDbEntity
  8
SK3
  6
SLD-Dashed
370
    18
100
AcDbLine
 10
10.2313869313
 20
-40.9066205418
 30
0.0
 11
10.7968132956
 21
-40.9815391446
 31
0.0
  0
LINE
  5
169
330
1F
100
AcDbEntity
  8
SK3
  6
SLD-Dashed
370
    18
100
AcDbLine
 10
10.7968132956
 20
-40.9815391446
 30
0.0
 11
11.4031867044
 21
-40.9815391446
 31
0.0
  0
LINE
  5
16A
330
1F
100
AcDbEntity
  8
SK3
  6
SLD-Dashed
370
    18
100
AcDbLine
 10
11.4031867044
 20
-40.9815391446
 30
0.0
 11
11.9686130687
 21
-40.9066205418
 31
0.0
  0
LINE
  5
16B
330
1F
100
AcDbEntity
  8
SK3
  6
SLD-Dashed
370
    18
100
AcDbLine
 10
11.9686130687
 20
-40.9066205418
 30
0.0
 11
12.416728425
 21
-40.7669015086
 31
0.0
  0
LINE
  5
16C
330
1F
100
AcDbEntity
  8
SK3
  6
SLD-Dashed
370
    18
100
AcDbLine
 10
12.416728425
 20
-40.7669015086
 30
0.0
 11
12.6870123112
 21
-40.5812518747
 31
0.0
  0
LINE
  5
16D
330
1F
100
AcDbEntity
  8
SK3
  6
SLD-Dashed
370
    18
100
AcDbLine
 10
12.6870123112
 20
-40.5812518747
 30
0.0
 11
12.7429613909
 21
-40.3747446519
 31
0.0
  0
LINE
  5
16E
330
1F
100
AcDbEntity
  8
SK3
  6
SLD-Dashed
370
    18
100
AcDbLine
 10
12.7429613909
 20
-40.3747446519
 30
0.0
 11
12.5770194307
 21
-40.1752697849
 31
0.0
  0
LINE
  5
16F
330
1F
100
AcDbEntity
  8
SK3
  6
SLD-Dashed
370
    18
100
AcDbLine
 10
12.5770194307
 20
-40.1752697849
 30
0.0
 11
12.211597812
 21
-40.0097674598
 31
0.0
  0
LINE
  5
170
330
1F
100
AcDbEntity
  8
SK3
  6
SLD-Dashed
370
    18
100
AcDbLine
 10
12.211597812
 20
-40.0097674598
 30
0.0
 11
11.6960487492
 21
-39.9005896827
 31
0.0
  0
LINE
  5
171
330
1F
100
AcDbEntity
  8
SK3
  6
SLD-Dashed
370
    18
100
AcDbLine
 10
11.6960487492
 20
-39.9005896827
 30
0.0
 11
11.1
 21
-39.8624815174
 31
0.0
  0
LINE
  5
172
330
1F
100
AcDbEntity
  8
SK3
  6
SLD-Dashed
370
    18
100
AcDbLine
 10
6.2723069743
 20
-40.2901366077
 30
0.0
 11
6.0856470952
 21
-40.2965221539
 31
0.0
  0
LINE
  5
173
330
1F
100
AcDbEntity
  8
SK3
  6
SLD-Dashed
370
    18
100
AcDbLine
 10
6.0856470952
 20
-40.2965221539
 30
0.0
 11
5.789454318
 21
-40.1325996601
 31
0.0
  0
LINE
  5
174
330
1F
100
AcDbEntity
  8
SK3
  6
SLD-Dashed
370
    18
100
AcDbLine
 10
5.789454318
 20
-40.1325996601
 30
0.0
 11
5.40772442
 21
-39.811649152
 31
0.0
  0
LINE
  5
175
330
1F
100
AcDbEntity
  8
SK3
  6
SLD-Dashed
370
    18
100
AcDbLine
 10
5.40772442
 20
-39.811649152
 30
0.0
 11
4.9713828873
 21
-39.359672131
 31
0.0
  0
LINE
  5
176
330
1F
100
AcDbEntity
  8
SK3
  6
SLD-Dashed
370
    18
100
AcDbLine
 10
4.9713828873
 20
-39.359672131
 30
0.0
 11
4.5157795159
 21
-38.8132850872
 31
0.0
  0
LINE
  5
177
330
1F
100
AcDbEntity
  8
SK3
  6
SLD-Dashed
370
    18
100
AcDbLine
 10
4.5157795159
 20
-38.8132850872
 30
0.0
 11
4.0778245812
 21
-38.2167530495
 31
0.0
  0
LINE
  5
178
330
1F
100
AcDbEntity
  8
SK3
  6
SLD-Dashed
370
    18
100
AcDbLine
 10
4.0778245812
 20
-38.2167530495
 30
0.0
 11
3.6929985876
 21
-37.6184034959
 31
0.0
  0
LINE
  5
179
330
1F
100
AcDbEntity
  8
SK3
  6
SLD-Dashed
370
    18
100
AcDbLine
 10
3.6929985876
 20
-37.6184034959
 30
0.0
 11
3.3924778483
 21
-37.0667111487
 31
0.0
  0
LINE
  5
17A
330
1F
100
AcDbEntity
  8
SK3
  6
SLD-Dashed
370
    18
100
AcDbLine
 10
3.3924778483
 20
-37.0667111487
 30
0.0
 11
3.2006087665
 21
-36.6063708408
 31
0.0
  0
LINE
  5
17B
330
1F
100
AcDbEntity
  8
SK3
  6
SLD-Dashed
370
    18
100
AcDbLine
 10
3.2006087665
 20
-36.6063708408
 30
0.0
 11
3.1329354339
 21
-36.2746766062
 31
0.0
  0
LINE
  5
17C
330
1F
100
AcDbEntity
  8
SK3
  6
SLD-Dashed
370
    18
100
AcDbLine
 10
3.1329354339
 20
-36.2746766062
 30
0.0
 11
3.1949403416
 21
-36.0985003391
 31
0.0
  0
LINE
  5
17D
330
1F
100
AcDbEntity
  8
SK3
  6
SLD-Dashed
370
    18
100
AcDbLine
 10
3.1949403416
 20
-36.0985003391
 30
0.0
 11
3.3816002207
 21
-36.092114793
 31
0.0
  0
LINE
  5
17E
330
1F
100
AcDbEntity
  8
SK3
  6
SLD-Dashed
370
    18
100
AcDbLine
 10
3.3816002207
 20
-36.092114793
 30
0.0
 11
3.6777929979
 21
-36.2560372867
 31
0.0
  0
LINE
  5
17F
330
1F
100
AcDbEntity
  8
SK3
  6
SLD-Dashed
370
    18
100
AcDbLine
 10
3.6777929979
 20
-36.2560372867
 30
0.0
 11
4.0595228959
 21
-36.5769877948
 31
0.0
  0
LINE
  5
180
330
1F
100
AcDbEntity
  8
SK3
  6
SLD-Dashed
370
    18
100
AcDbLine
 10
4.0595228959
 20
-36.5769877948
 30
0.0
 11
4.4958644286
 21
-37.0289648159
 31
0.0
  0
LINE
  5
181
330
1F
100
AcDbEntity
  8
SK3
  6
SLD-Dashed
370
    18
100
AcDbLine
 10
4.4958644286
 20
-37.0289648159
 30
0.0
 11
4.9514678
 21
-37.5753518596
 31
0.0
  0
LINE
  5
182
330
1F
100
AcDbEntity
  8
SK3
  6
SLD-Dashed
370
    18
100
AcDbLine
 10
4.9514678
 20
-37.5753518596
 30
0.0
 11
5.3894227346
 21
-38.1718838973
 31
0.0
  0
LINE
  5
183
330
1F
100
AcDbEntity
  8
SK3
  6
SLD-Dashed
370
    18
100
AcDbLine
 10
5.3894227346
 20
-38.1718838973
 30
0.0
 11
5.7742487283
 21
-38.7702334509
 31
0.0
  0
LINE
  5
184
330
1F
100
AcDbEntity
  8
SK3
  6
SLD-Dashed
370
    18
100
AcDbLine
 10
5.7742487283
 20
-38.7702334509
 30
0.0
 11
6.0747694675
 21
-39.3219257981
 31
0.0
  0
LINE
  5
185
330
1F
100
AcDbEntity
  8
SK3
  6
SLD-Dashed
370
    18
100
AcDbLine
 10
6.0747694675
 20
-39.3219257981
 30
0.0
 11
6.2666385494
 21
-39.782266106
 31
0.0
  0
LINE
  5
186
330
1F
100
AcDbEntity
  8
SK3
  6
SLD-Dashed
370
    18
100
AcDbLine
 10
6.2666385494
 20
-39.782266106
 30
0.0
 11
6.3343118819
 21
-40.1139603407
 31
0.0
  0
LINE
  5
187
330
1F
100
AcDbEntity
  8
SK3
  6
SLD-Dashed
370
    18
100
AcDbLine
 10
6.3343118819
 20
-40.1139603407
 30
0.0
 11
6.2723069743
 21
-40.2901366077
 31
0.0
  0
LINE
  5
188
330
1F
100
AcDbEntity
  8
1
  6
SLD-Dashed
370
    18
100
AcDbLine
 10
25.3004456648
 20
-12.3578599232
 30
0.0
 11
26.3488067296
 21
-11.994116668
 31
0.0
  0
LINE
  5
189
330
1F
100
AcDbEntity
  8
1
  6
SLD-Dashed
370
    18
100
AcDbLine
 10
26.3488067296
 20
-11.994116668
 30
0.0
 11
27.4962819786
 21
-11.4736157696
 31
0.0
  0
LINE
  5
18A
330
1F
100
AcDbEntity
  8
1
  6
SLD-Dashed
370
    18
100
AcDbLine
 10
28.0476235163
 20
-11.1730994353
 30
0.0
 11
29.1824297546
 21
-10.4363192274
 31
0.0
  0
LINE
  5
18B
330
1F
100
AcDbEntity
  8
1
  6
SLD-Dashed
370
    18
100
AcDbLine
 10
29.1824297546
 20
-10.4363192274
 30
0.0
 11
30.3377833432
 21
-9.4900549128
 31
0.0
  0
LINE
  5
18C
330
1F
100
AcDbEntity
  8
1
  6
SLD-Dashed
370
    18
100
AcDbLine
 10
31.0903032725
 20
8.7375135935
 30
0.0
 11
30.4306576665
 21
9.4036952937
 31
0.0
  0
LINE
  5
18D
330
1F
100
AcDbEntity
  8
1
  6
SLD-Dashed
370
    18
100
AcDbLine
 10
30.4306576665
 20
9.4036952937
 30
0.0
 11
29.536658847
 21
10.1695352079
 31
0.0
  0
LINE
  5
18E
330
1F
100
AcDbEntity
  8
SK3
  6
SLD-Dashed
370
    18
100
AcDbLine
 10
9.1
 20
46.9644866781
 30
0.0
 11
9.1
 21
43.111859234
 31
0.0
  0
LINE
  5
18F
330
1F
100
AcDbEntity
  8
SK3
  6
SLD-Dashed
370
    18
100
AcDbLine
 10
13.1
 20
43.111859234
 30
0.0
 11
13.1
 21
46.9636476284
 31
0.0
  0
LINE
  5
190
330
1F
100
AcDbEntity
  8
SK3
  6
SLD-Dashed
370
    18
100
AcDbLine
 10
9.5474833261
 20
42.680630019
 30
0.0
 11
9.819173744
 21
42.566209006
 31
0.0
  0
LINE
  5
191
330
1F
100
AcDbEntity
  8
SK3
  6
SLD-Dashed
370
    18
100
AcDbLine
 10
12.380826256
 20
42.566209006
 30
0.0
 11
12.6525166739
 21
42.680630019
 31
0.0
  0
LINE
  5
192
330
1F
100
AcDbEntity
  8
SK3
  6
SLD-Dashed
370
    18
100
AcDbLine
 10
9.45
 20
42.9219731084
 30
0.0
 11
9.45
 21
37.6466575959
 31
0.0
  0
LINE
  5
193
330
1F
100
AcDbEntity
  8
SK3
  6
SLD-Dashed
370
    18
100
AcDbLine
 10
12.75
 20
35.2292695596
 30
0.0
 11
12.75
 21
42.9219731084
 31
0.0
  0
LINE
  5
194
330
1F
100
AcDbEntity
  8
SK3
  6
SLD-Dashed
370
    18
100
AcDbLine
 10
3.0
 20
36.2416193657
 30
0.0
 11
3.1949403416
 21
36.0985003391
 31
0.0
  0
LINE
  5
195
330
1F
100
AcDbEntity
  8
SK3
  6
SLD-Dashed
370
    18
100
AcDbLine
 10
6.2723069743
 20
40.2901366077
 30
0.0
 11
3.0
 21
42.6925607803
 31
0.0
  0
LINE
  5
196
330
1F
100
AcDbEntity
  8
SK3
  6
SLD-Dashed
370
    18
100
AcDbLine
 10
160.0
 20
16.5773502692
 30
0.0
 11
159.0
 21
16.0
 31
0.0
  0
LINE
  5
197
330
1F
100
AcDbEntity
  8
SK3
  6
SLD-Dashed
370
    18
100
AcDbLine
 10
159.0
 20
-16.0
 30
0.0
 11
160.0
 21
-16.5773502692
 31
0.0
  0
LINE
  5
198
330
1F
100
AcDbEntity
  8
SK3
  6
SLD-Dashed
370
    18
100
AcDbLine
 10
12.6054093111
 20
29.3757168249
 30
0.0
 11
14.0794578574
 21
28.2935170536
 31
0.0
  0
LINE
  5
199
330
1F
100
AcDbEntity
  8
SK3
  6
SLD-Dashed
370
    18
100
AcDbLine
 10
3.2837105329
 20
36.2194129238
 30
0.0
 11
9.5991218742
 21
31.5828378759
 31
0.0
  0
LINE
  5
19A
330
1F
100
AcDbEntity
  8
SK3
  6
SLD-Dashed
370
    18
100
AcDbLine
 10
9.6073492409
 20
37.6555693213
 30
0.0
 11
6.1835367829
 21
40.1692240231
 31
0.0
  0
LINE
  5
19B
330
1F
100
AcDbEntity
  8
SK3
  6
SLD-Dashed
370
    18
100
AcDbLine
 10
16.9792841073
 20
32.2433281529
 30
0.0
 11
12.6024732478
 21
35.4566441072
 31
0.0
  0
LINE
  5
19C
330
1F
100
AcDbEntity
  8
SK3
  6
SLD-Dashed
370
    18
100
AcDbLine
 10
101.75
 20
16.25
 30
0.0
 11
97.25
 21
16.25
 31
0.0
  0
LINE
  5
19D
330
1F
100
AcDbEntity
  8
SK3
  6
SLD-Dashed
370
    18
100
AcDbLine
 10
97.25
 20
-16.25
 30
0.0
 11
99.0143591851
 21
-16.25
 31
0.0
  0
LINE
  5
19E
330
1F
100
AcDbEntity
  8
SK3
  6
SLD-Dashed
370
    18
100
AcDbLine
 10
159.0
 20
16.0
 30
0.0
 11
102.0
 21
16.0
 31
0.0
  0
LINE
  5
19F
330
1F
100
AcDbEntity
  8
SK3
  6
SLD-Dashed
370
    18
100
AcDbLine
 10
145.0
 20
-16.0
 30
0.0
 11
159.0
 21
-16.0
 31
0.0
  0
LINE
  5
1A0
330
1F
100
AcDbEntity
  8
SK3
  6
SLD-Dashed
370
    18
100
AcDbLine
 10
116.9779621042
 20
-16.0
 30
0.0
 11
127.0027062673
 21
-16.0
 31
0.0
  0
LINE
  5
1A1
330
1F
100
AcDbEntity
  8
SK3
  6
SLD-Dashed
370
    18
100
AcDbLine
 10
-101.8
 20
-13.5178629711
 30
0.0
 11
-100.05
 21
-12.5075
 31
0.0
  0
LINE
  5
1A2
330
1F
100
AcDbEntity
  8
SK3
  6
SLD-Dashed
370
    18
100
AcDbLine
 10
-100.05
 20
12.5075
 30
0.0
 11
-101.8
 21
13.5178629711
 31
0.0
  0
LINE
  5
1A3
330
1F
100
AcDbEntity
  8
SK3
  6
SLD-Dashed
370
    18
100
AcDbLine
 10
14.3249003637
 20
28.3153293831
 30
0.0
 11
16.6894083239
 21
29.4167599163
 31
0.0
  0
LINE
  5
1A4
330
1F
100
AcDbEntity
  8
SK3
  6
SLD-Dashed
370
    18
100
AcDbLine
 10
16.6894083239
 20
29.4167599163
 30
0.0
 11
17.0319937976
 21
32.0026219208
 31
0.0
  0
LINE
  5
1A5
330
1F
100
AcDbEntity
  8
SK3
  6
SLD-Dashed
370
    18
100
AcDbLine
 10
9.45
 20
31.8109690343
 30
0.0
 11
9.45
 21
9.8663980169
 31
0.0
  0
LINE
  5
1A6
330
1F
100
AcDbEntity
  8
SK3
  6
SLD-Dashed
370
    18
100
AcDbLine
 10
12.75
 20
9.8637305233
 30
0.0
 11
12.75
 21
29.3998867967
 31
0.0
  0
LINE
  5
1A7
330
1F
100
AcDbEntity
  8
SK3
  6
SLD-Dashed
370
    18
100
AcDbLine
 10
-88.55
 20
12.75
 30
0.0
 11
-91.55
 21
12.75
 31
0.0
  0
LINE
  5
1A8
330
1F
100
AcDbEntity
  8
SK3
  6
SLD-Dashed
370
    18
100
AcDbLine
 10
-91.55
 20
-12.75
 30
0.0
 11
-88.55
 21
-12.75
 31
0.0
  0
LINE
  5
1A9
330
1F
100
AcDbEntity
  8
SK3
  6
SLD-Dashed
370
    18
100
AcDbLine
 10
-91.55
 20
12.75
 30
0.0
 11
-91.9700223208
 21
12.5075
 31
0.0
  0
LINE
  5
1AA
330
1F
100
AcDbEntity
  8
SK3
  6
SLD-Dashed
370
    18
100
AcDbLine
 10
-91.9700223208
 20
-12.5075
 30
0.0
 11
-91.55
 21
-12.75
 31
0.0
  0
LINE
  5
1AB
330
1F
100
AcDbEntity
  8
SK3
  6
SLD-Dashed
370
    18
100
AcDbLine
 10
-88.55
 20
-12.75
 30
0.0
 11
-87.2509618943
 21
-10.5
 31
0.0
  0
LINE
  5
1AC
330
1F
100
AcDbEntity
  8
SK3
  6
SLD-Dashed
370
    18
100
AcDbLine
 10
-87.2509618943
 20
10.5
 30
0.0
 11
-88.55
 21
12.75
 31
0.0
  0
LINE
  5
1AD
330
1F
100
AcDbEntity
  8
SK3
  6
SLD-Dashed
370
    18
100
AcDbLine
 10
-91.9700223208
 20
12.5075
 30
0.0
 11
-100.05
 21
12.5075
 31
0.0
  0
LINE
  5
1AE
330
1F
100
AcDbEntity
  8
SK3
  6
SLD-Dashed
370
    18
100
AcDbLine
 10
-100.05
 20
-12.5075
 30
0.0
 11
-91.9700223208
 21
-12.5075
 31
0.0
  0
LINE
  5
1AF
330
1F
100
AcDbEntity
  8
SK3
  6
SLD-Dashed
370
    18
100
AcDbLine
 10
147.1
 20
-36.0
 30
0.0
 11
147.1
 21
-33.8
 31
0.0
  0
LINE
  5
1B0
330
1F
100
AcDbEntity
  8
SK3
  6
SLD-Dashed
370
    18
100
AcDbLine
 10
124.9
 20
-33.8
 30
0.0
 11
124.9
 21
-36.0
 31
0.0
  0
LINE
  5
1B1
330
1F
100
AcDbEntity
  8
SK3
  6
SLD-Dashed
370
    18
100
AcDbLine
 10
119.1
 20
-36.0
 30
0.0
 11
119.1
 21
-33.8
 31
0.0
  0
LINE
  5
1B2
330
1F
100
AcDbEntity
  8
SK3
  6
SLD-Dashed
370
    18
100
AcDbLine
 10
96.9
 20
-33.8
 30
0.0
 11
96.9
 21
-36.0
 31
0.0
  0
LINE
  5
1B3
330
1F
100
AcDbEntity
  8
SK3
  6
SLD-Dashed
370
    18
100
AcDbLine
 10
-87.2509618943
 20
-10.5
 30
0.0
 11
-38.8
 21
-10.5
 31
0.0
  0
LINE
  5
1B4
330
1F
100
AcDbEntity
  8
SK3
  6
SLD-Dashed
370
    18
100
AcDbLine
 10
-38.8
 20
10.5
 30
0.0
 11
-87.2509618943
 21
10.5
 31
0.0
  0
LINE
  5
1B5
330
1F
100
AcDbEntity
  8
SK3
  6
SLD-Dashed
370
    18
100
AcDbLine
 10
-38.799969957
 20
-10.49995
 30
0.0
 11
97.0
 21
-10.49995
 31
0.0
  0
LINE
  5
1B6
330
1F
100
AcDbEntity
  8
SK3
  6
SLD-Dashed
370
    18
100
AcDbLine
 10
97.0
 20
10.49995
 30
0.0
 11
-38.799969957
 21
10.49995
 31
0.0
  0
LINE
  5
1B7
330
1F
100
AcDbEntity
  8
SK3
  6
SLD-Dashed
370
    18
100
AcDbLine
 10
145.0
 20
-33.8
 30
0.0
 11
145.0
 21
-16.0
 31
0.0
  0
LINE
  5
1B8
330
1F
100
AcDbEntity
  8
SK3
  6
SLD-Dashed
370
    18
100
AcDbLine
 10
127.0
 20
-15.9984806031
 30
0.0
 11
127.0
 21
-33.8
 31
0.0
  0
LINE
  5
1B9
330
1F
100
AcDbEntity
  8
SK3
  6
SLD-Dashed
370
    18
100
AcDbLine
 10
117.0
 20
-33.8
 30
0.0
 11
117.0
 21
-15.9876272824
 31
0.0
  0
LINE
  5
1BA
330
1F
100
AcDbEntity
  8
SK3
  6
SLD-Dashed
370
    18
100
AcDbLine
 10
99.0
 20
-16.2420825063
 30
0.0
 11
99.0
 21
-33.8
 31
0.0
  0
LINE
  5
1BB
330
1F
100
AcDbEntity
  8
SK3
  6
SLD-Dashed
370
    18
100
AcDbLine
 10
9.45
 20
-9.8637305233
 30
0.0
 11
9.45
 21
-31.8113816397
 31
0.0
  0
LINE
  5
1BC
330
1F
100
AcDbEntity
  8
SK3
  6
SLD-Dashed
370
    18
100
AcDbLine
 10
12.75
 20
-29.3998151041
 30
0.0
 11
12.75
 21
-9.8663980169
 31
0.0
  0
LINE
  5
1BD
330
1F
100
AcDbEntity
  8
SK3
  6
SLD-Dashed
370
    18
100
AcDbLine
 10
17.0319937976
 20
-32.0026219208
 30
0.0
 11
16.6894083239
 21
-29.4167599163
 31
0.0
  0
LINE
  5
1BE
330
1F
100
AcDbEntity
  8
SK3
  6
SLD-Dashed
370
    18
100
AcDbLine
 10
16.6894083239
 20
-29.4167599163
 30
0.0
 11
14.3249003637
 21
-28.3153293831
 31
0.0
  0
LINE
  5
1BF
330
1F
100
AcDbEntity
  8
SK3
  6
SLD-Dashed
370
    18
100
AcDbLine
 10
12.6054093111
 20
-35.4544885425
 30
0.0
 11
16.9792841073
 21
-32.2433281529
 31
0.0
  0
LINE
  5
1C0
330
1F
100
AcDbEntity
  8
SK3
  6
SLD-Dashed
370
    18
100
AcDbLine
 10
6.1835367829
 20
-40.1692240231
 30
0.0
 11
9.6109272698
 21
-37.6529424458
 31
0.0
  0
LINE
  5
1C1
330
1F
100
AcDbEntity
  8
SK3
  6
SLD-Dashed
370
    18
100
AcDbLine
 10
9.5964423095
 20
-31.5848051275
 30
0.0
 11
3.2837105329
 21
-36.2194129238
 31
0.0
  0
LINE
  5
1C2
330
1F
100
AcDbEntity
  8
SK3
  6
SLD-Dashed
370
    18
100
AcDbLine
 10
14.0794578574
 20
-28.2935170536
 30
0.0
 11
12.5954378483
 21
-29.3830375572
 31
0.0
  0
LINE
  5
1C3
330
1F
100
AcDbEntity
  8
SK3
  6
SLD-Dashed
370
    18
100
AcDbLine
 10
9.45
 20
-37.6463211517
 30
0.0
 11
9.45
 21
-40.4268147538
 31
0.0
  0
LINE
  5
1C4
330
1F
100
AcDbEntity
  8
SK3
  6
SLD-Dashed
370
    18
100
AcDbLine
 10
12.75
 20
-40.4268147538
 30
0.0
 11
12.75
 21
-35.229287829
 31
0.0
  0
LINE
  5
1C5
330
1F
100
AcDbEntity
  8
SK3
  6
SLD-Dashed
370
    18
100
AcDbLine
 10
3.0
 20
-42.6925607803
 30
0.0
 11
6.2723069743
 21
-40.2901366077
 31
0.0
  0
LINE
  5
1C6
330
1F
100
AcDbEntity
  8
SK3
  6
SLD-Dashed
370
    18
100
AcDbLine
 10
3.1949403416
 20
-36.0985003391
 30
0.0
 11
3.0
 21
-36.2416193657
 31
0.0
  0
LINE
  5
1C7
330
1F
100
AcDbEntity
  8
SK3
  6
SLD-Dashed
370
    18
100
AcDbLine
 10
9.7871669195
 20
-40.7686585921
 30
0.0
 11
11.1
 21
-41.3584448321
 31
0.0
  0
LINE
  5
1C8
330
1F
100
AcDbEntity
  8
SK3
  6
SLD-Dashed
370
    18
100
AcDbLine
 10
11.1
 20
-41.3584448321
 30
0.0
 11
12.4128330805
 21
-40.7686585921
 31
0.0
  0
LINE
  5
1C9
330
1F
100
AcDbEntity
  8
SK3
  6
SLD-Solid
370
    18
100
AcDbLine
 10
-88.1169872981
 20
12.0
 30
0.0
 11
-55.8
 21
12.0
 31
0.0
  0
LINE
  5
1CA
330
1F
100
AcDbEntity
  8
SK3
  6
SLD-Solid
370
    18
100
AcDbLine
 10
-88.1169872981
 20
-12.0
 30
0.0
 11
-55.8
 21
-12.0
 31
0.0
  0
LINE
  5
1CB
330
1F
100
AcDbEntity
  8
SK3
  6
SLD-Dashed
370
    18
100
AcDbLine
 10
-55.8
 20
-12.0
 30
0.0
 11
-55.8
 21
12.0
 31
0.0
  0
LINE
  5
1CC
330
1F
100
AcDbEntity
  8
SK3
  6
SLD-Solid
370
    18
100
AcDbLine
 10
98.0
 20
-33.8
 30
0.0
 11
98.0
 21
-16.25
 31
0.0
  0
LINE
  5
1CD
330
1F
100
AcDbEntity
  8
SK3
  6
SLD-Solid
370
    18
100
AcDbLine
 10
118.0
 20
-33.8
 30
0.0
 11
118.0
 21
-16.0
 31
0.0
  0
LINE
  5
1CE
330
1F
100
AcDbEntity
  8
SK3
  6
SLD-Solid
370
    18
100
AcDbLine
 10
126.0
 20
-33.8
 30
0.0
 11
126.0
 21
-16.0
 31
0.0
  0
LINE
  5
1CF
330
1F
100
AcDbEntity
  8
SK3
  6
SLD-Solid
370
    18
100
AcDbLine
 10
146.0
 20
-33.8
 30
0.0
 11
146.0
 21
-16.0
 31
0.0
  0
LINE
  5
1D0
330
1F
100
AcDbEntity
  8
4
  6
SLD-Center
370
    18
100
AcDbLine
 10
163.0
 20
0.0
 30
0.0
 11
1.0976579953
 21
0.0
 31
0.0
  0
LINE
  5
1D1
330
1F
100
AcDbEntity
  8
4
  6
SLD-Center
370
    18
100
AcDbLine
 10
136.0
 20
-35.8
 30
0.0
 11
136.0
 21
-14.0
 31
0.0
  0
LINE
  5
1D2
330
1F
100
AcDbEntity
  8
4
  6
SLD-Center
370
    18
100
AcDbLine
 10
108.0
 20
-14.125
 30
0.0
 11
108.0
 21
-35.8
 31
0.0
  0
LINE
  5
1D3
330
1F
100
AcDbEntity
  8
SK4
  6
SLD-Center
370
    18
100
AcDbLine
 10
163.5399048258
 20
0.0
 30
0.0
 11
-105.1137492685
 21
0.0
 31
0.0
  0
ARC
  5
1D4
330
1F
100
AcDbEntity
  8
1
  6
SLD-Solid
370
    25
100
AcDbCircle
 10
37.2499999933
 20
-49.2286823243
 30
0.0
 40
0.75
100
AcDbArc
 50
270.0
 51
0.0
  0
ARC
  5
1D5
330
1F
100
AcDbEntity
  8
1
  6
SLD-Solid
370
    25
100
AcDbCircle
 10
37.2499999933
 20
49.228682327
 30
0.0
 40
0.7500000000000001
100
AcDbArc
 50
0.0000002033
 51
89.9999990502
  0
ARC
  5
1D6
330
1F
100
AcDbEntity
  8
1
  6
SLD-Solid
370
    25
100
AcDbCircle
 10
3.75
 20
-49.228682327
 30
0.0
 40
0.7500000000000004
100
AcDbArc
 50
180.0
 51
270.0
  0
ARC
  5
1D7
330
1F
100
AcDbEntity
  8
1
  6
SLD-Solid
370
    25
100
AcDbCircle
 10
3.75
 20
49.228682327
 30
0.0
 40
0.7500000000000004
100
AcDbArc
 50
90.0
 51
180.0
  0
ARC
  5
1D8
330
1F
100
AcDbEntity
  8
1
  6
SLD-Solid
370
    25
100
AcDbCircle
 10
26.33
 20
42.875
 30
0.0
 40
0.3750000000000142
100
AcDbArc
 50
270.0
 51
0.0
  0
ARC
  5
1D9
330
1F
100
AcDbEntity
  8
1
  6
SLD-Solid
370
    25
100
AcDbCircle
 10
26.33
 20
-42.875
 30
0.0
 40
0.3750000000000142
100
AcDbArc
 50
0.0
 51
90.0
  0
ARC
  5
1DA
330
1F
100
AcDbEntity
  8
1
  6
SLD-Solid
370
    25
100
AcDbCircle
 10
20.08
 20
42.875
 30
0.0
 40
0.3750000000000142
100
AcDbArc
 50
180.0
 51
270.0
  0
ARC
  5
1DB
330
1F
100
AcDbEntity
  8
1
  6
SLD-Solid
370
    25
100
AcDbCircle
 10
20.08
 20
-42.875
 30
0.0
 40
0.3750000000000142
100
AcDbArc
 50
90.0
 51
180.0
  0
ARC
  5
1DC
330
1F
100
AcDbEntity
  8
1
  6
SLD-Solid
370
    25
100
AcDbCircle
 10
41.0
 20
-39.0
 30
0.0
 40
3.0
100
AcDbArc
 50
90.0
 51
180.0
  0
ARC
  5
1DD
330
1F
100
AcDbEntity
  8
1
  6
SLD-Solid
370
    25
100
AcDbCircle
 10
41.0
 20
39.0
 30
0.0
 40
3.0
100
AcDbArc
 50
180.0
 51
270.0
  0
ARC
  5
1DE
330
1F
100
AcDbEntity
  8
1
  6
SLD-Solid
370
    25
100
AcDbCircle
 10
2.25
 20
35.5
 30
0.0
 40
0.7500000000000009
100
AcDbArc
 50
270.0
 51
0.0
  0
ARC
  5
1DF
330
1F
100
AcDbEntity
  8
1
  6
SLD-Solid
370
    25
100
AcDbCircle
 10
2.25
 20
-35.5
 30
0.0
 40
0.7500000000000009
100
AcDbArc
 50
0.0
 51
90.0
  0
ARC
  5
1E0
330
1F
100
AcDbEntity
  8
1
  6
SLD-Solid
370
    25
100
AcDbCircle
 10
0.7040707856
 20
35.5
 30
0.0
 40
0.7500000000000071
100
AcDbArc
 50
240.0
 51
270.0
  0
ARC
  5
1E1
330
1F
100
AcDbEntity
  8
1
  6
SLD-Solid
370
    25
100
AcDbCircle
 10
0.7040707856
 20
-35.5
 30
0.0
 40
0.7500000000000071
100
AcDbArc
 50
90.0
 51
120.0
  0
ARC
  5
1E2
330
1F
100
AcDbEntity
  8
SK1
  6
SLD-Solid
370
    25
100
AcDbCircle
 10
-100.8
 20
19.2132836634
 30
0.0
 40
1.000000000000012
100
AcDbArc
 50
98.2977777778
 51
180.0
  0
ARC
  5
1E3
330
1F
100
AcDbEntity
  8
SK1
  6
SLD-Solid
370
    25
100
AcDbCircle
 10
-100.8
 20
-19.2132836634
 30
0.0
 40
1.000000000000005
100
AcDbArc
 50
180.0
 51
261.7022222222
  0
CIRCLE
  5
1E4
330
1F
100
AcDbEntity
  8
1
  6
SLD-Solid
370
    25
100
AcDbCircle
 10
20.5
 20
0.0
 30
0.0
 40
5.000000000000004
  0
ARC
  5
1E5
330
1F
100
AcDbEntity
  8
1
  6
SLD-Dashed
370
    18
100
AcDbCircle
 10
21.6
 20
0.0
 30
0.0
 40
12.90000000000001
100
AcDbArc
 50
55.2520318876
 51
81.359727831
  0
ARC
  5
1E6
330
1F
100
AcDbEntity
  8
SK3
  6
SLD-Dashed
370
    18
100
AcDbCircle
 10
97.25
 20
16.0
 30
0.0
 40
0.2500000000000284
100
AcDbArc
 50
90.0
 51
180.0
  0
ARC
  5
1E7
330
1F
100
AcDbEntity
  8
SK3
  6
SLD-Dashed
370
    18
100
AcDbCircle
 10
97.25
 20
-16.0
 30
0.0
 40
0.2500000000000124
100
AcDbArc
 50
179.9999954212
 51
270.0
  0
ARC
  5
1E8
330
1F
100
AcDbEntity
  8
SK3
  6
SLD-Dashed
370
    18
100
AcDbCircle
 10
101.75
 20
16.0
 30
0.0
 40
0.25
100
AcDbArc
 50
360.0
 51
89.9999999988
  0
ARC
  5
1E9
330
1F
100
AcDbEntity
  8
SK3
  6
SLD-Dashed
370
    18
100
AcDbCircle
 10
108.0
 20
40.63
 30
0.0
 40
12.50000000000004
100
AcDbArc
 50
201.7807304452
 51
338.2496601038
  0
ARC
  5
1EA
330
1F
100
AcDbEntity
  8
SK3
  6
SLD-Dashed
370
    18
100
AcDbCircle
 10
136.0
 20
40.63
 30
0.0
 40
12.50000000000004
100
AcDbArc
 50
201.7414530956
 51
338.2038831595
  0
ARC
  5
1EB
330
1F
100
AcDbEntity
  8
1
370
    25
100
AcDbCircle
 10
136.0
 20
-69.6779934125
 30
0.0
 40
35.46007953030325
100
AcDbArc
 50
71.7581892887
 51
108.2418107113
  0
ARC
  5
1EC
330
1F
100
AcDbEntity
  8
1
370
    25
100
AcDbCircle
 10
108.0
 20
-69.3352911397
 30
0.0
 40
35.13476391505012
100
AcDbArc
 50
71.5832503346
 51
108.4167496654
  0
ARC
  5
1ED
330
1F
100
AcDbEntity
  8
1
370
    25
100
AcDbCircle
 10
136.0162144073
 20
74.6202448076
 30
0.0
 40
40.33273163654345
100
AcDbArc
 50
253.2451311597
 51
286.7002050953
  0
ARC
  5
1EE
330
1F
100
AcDbEntity
  8
1
370
    25
100
AcDbCircle
 10
108.0042450917
 20
74.9896437293
 30
0.0
 40
40.67908069759004
100
AcDbArc
 50
253.4294207275
 51
286.5705792725
  0
SPLINE
  5
1EF
330
1F
100
AcDbEntity
  8
1
  6
SLD-Solid
370
    25
100
AcDbSpline
210
0.0
220
0.0
230
1.0
 70
     8
 71
     3
 72
    31
 73
    27
 74
     0
 42
0.000000001
 43
0.00000001
 40
0.0
 40
0.0
 40
0.0
 40
0.0
 40
0.0156299919018009
 40
0.0312611152461261
 40
0.0469036957956265
 40
0.0625680366518809
 40
0.0936299719589716
 40
0.1247049179463822
 40
0.1558339923036852
 40
0.1869705556222931
 40
0.2497987770515038
 40
0.3121643376927352
 40
0.3743966664430445
 40
0.4372018282094241
 40
0.5000178682536697
 40
0.5624441380575149
 40
0.6252062096387941
 40
0.6880556331759105
 40
0.7504022788912421
 40
0.8129367420855036
 40
0.8442931371643833
 40
0.8756529736402926
 40
0.9067355150709343
 40
0.9377975042399598
 40
0.9689206191812688
 40
1.0
 40
1.0
 40
1.0
 40
1.0
 10
30.7300000057163
 20
10.30178929462011
 30
0.0
 10
30.81802134523187
 20
10.22015632920639
 30
0.0
 10
30.99407039605692
 20
10.05688448903436
 30
0.0
 10
31.24994221809865
 20
9.803254609022149
 30
0.0
 10
31.4997319917581
 20
9.543289242089026
 30
0.0
 10
31.82233278114888
 20
9.189095771986102
 30
0.0
 10
32.20754148019189
 20
8.731716259609355
 30
0.0
 10
32.64038082647374
 20
8.159929071348826
 30
0.0
 10
33.04368278656694
 20
7.565647907444184
 30
0.0
 10
33.54253700968538
 20
6.741702231338423
 30
0.0
 10
34.08553770398992
 20
5.663359812699005
 30
0.0
 10
34.60000747094066
 20
4.307495301454946
 30
0.0
 10
34.97274499240257
 20
2.903179756704927
 30
0.0
 10
35.19930273774089
 20
1.462162433435409
 30
0.0
 10
35.27521152406329
 20
0.0026667713361392
 30
0.0
 10
35.19971876803038
 20
-1.456473360367937
 30
0.0
 10
34.97385380792775
 20
-2.899053879082923
 30
0.0
 10
34.60019116325175
 20
-4.307643948849853
 30
0.0
 10
34.08445148242475
 20
-5.665530632651482
 30
0.0
 10
33.54169256886303
 20
-6.743160098569005
 30
0.0
 10
33.04219515161921
 20
-7.568140719643749
 30
0.0
 10
32.63663444545151
 20
-8.165137557519957
 30
0.0
 10
32.20245486988441
 20
-8.738244579654976
 30
0.0
 10
31.74000865776708
 20
-9.28586044078318
 30
0.0
 10
31.25174038935713
 20
-9.810606415325482
 30
0.0
 10
30.90383192126534
 20
-10.13813842121768
 30
0.0
 10
30.7299999931768
 20
-10.30178928147761
 30
0.0
  0
SPLINE
  5
1F0
330
1F
100
AcDbEntity
  8
1
  6
SLD-Solid
370
    25
100
AcDbSpline
210
0.0
220
0.0
230
1.0
 70
     8
 71
     3
 72
     9
 73
     5
 74
     0
 42
0.000000001
 43
0.00000001
 40
0.0
 40
0.0
 40
0.0
 40
0.0
 40
0.5024637826898325
 40
1.0
 40
1.0
 40
1.0
 40
1.0
 10
30.7299999931768
 20
-10.30178928147761
 30
0.0
 10
30.64643751663498
 20
-10.18210438561964
 30
0.0
 10
30.48013204463756
 20
-9.943908320587349
 30
0.0
 10
30.31472976597244
 20
-9.704898026463841
 30
0.0
 10
30.2324361419109
 20
-9.585981748827423
 30
0.0
  0
SPLINE
  5
1F1
330
1F
100
AcDbEntity
  8
1
  6
SLD-Solid
370
    25
100
AcDbSpline
210
0.0
220
0.0
230
1.0
 70
     8
 71
     3
 72
    30
 73
    26
 74
     0
 42
0.000000001
 43
0.00000001
 40
0.0
 40
0.0
 40
0.0
 40
0.0
 40
0.0114576283288643
 40
0.0313181038201821
 40
0.0625127256572152
 40
0.093668889933218
 40
0.1248686720378016
 40
0.1876770117083496
 40
0.2502254852177034
 40
0.3125016583142611
 40
0.3752092577080573
 40
0.4377772188895507
 40
0.4999846765356207
 40
0.4999998180744116
 40
0.5625938520324555
 40
0.6252041603644382
 40
0.6872935440917746
 40
0.7495853764249609
 40
0.8124273759707611
 40
0.8747822710141954
 40
0.9059170529111136
 40
0.9371264788214326
 40
0.9684944127008401
 40
0.9885412915575096
 40
1.0
 40
1.0
 40
1.0
 40
1.0
 10
30.2324361419109
 20
-9.585981748827423
 30
0.0
 10
30.29311656522701
 20
-9.530703414656054
 30
0.0
 10
30.45897949451049
 20
-9.379606472174146
 30
0.0
 10
30.78052844574841
 20
-9.067780680935257
 30
0.0
 10
31.18643382034272
 20
-8.640701991393323
 30
0.0
 10
31.62231483228572
 20
-8.130967435655819
 30
0.0
 10
32.16960418355932
 20
-7.419422369869013
 30
0.0
 10
32.78399172221199
 20
-6.475982346035164
 30
0.0
 10
33.39917866535169
 20
-5.272261863727596
 30
0.0
 10
33.88628644089089
 20
-4.008627570958629
 30
0.0
 10
34.23918025732581
 20
-2.697813378524552
 30
0.0
 10
34.45250638077493
 20
-1.355488058537031
 30
0.0
 10
34.49999425120679
 20
-0.4508112828800967
 30
0.0
 10
34.50000578180126
 20
0.4532823723634727
 30
0.0
 10
34.45208045789214
 20
1.361080916079144
 30
0.0
 10
34.23808113506255
 20
2.701902899032889
 30
0.0
 10
33.8860297463211
 20
4.008678231798797
 30
0.0
 10
33.40013787223098
 20
5.27040405614565
 30
0.0
 10
32.78549210771139
 20
6.473269307890536
 30
0.0
 10
32.17219804172178
 20
7.415451392238169
 30
0.0
 10
31.62739023333877
 20
8.124704266020258
 30
0.0
 10
31.19108359434022
 20
8.635604119261988
 30
0.0
 10
30.78333228220459
 20
9.065016585889506
 30
0.0
 10
30.45997722923
 20
9.378695940138696
 30
0.0
 10
30.29312205130563
 20
9.5306979966812
 30
0.0
 10
30.23243615398208
 20
9.585981754195082
 30
0.0
  0
SPLINE
  5
1F2
330
1F
100
AcDbEntity
  8
1
  6
SLD-Solid
370
    25
100
AcDbSpline
210
0.0
220
0.0
230
1.0
 70
     8
 71
     3
 72
     9
 73
     5
 74
     0
 42
0.000000001
 43
0.00000001
 40
0.0
 40
0.0
 40
0.0
 40
0.0
 40
0.4975362207134703
 40
0.9999999999999999
 40
0.9999999999999999
 40
0.9999999999999999
 40
0.9999999999999999
 10
30.23243615398208
 20
9.585981754195082
 30
0.0
 10
30.3147297786246
 20
9.704898034108664
 30
0.0
 10
30.48013205732602
 20
9.94390833117418
 30
0.0
 10
30.64643752960097
 20
10.18210439844702
 30
0.0
 10
30.7300000057163
 20
10.30178929462011
 30
0.0
  0
SPLINE
  5
1F3
330
1F
100
AcDbEntity
  8
1
  6
SLD-Solid
370
    25
100
AcDbSpline
210
0.0
220
0.0
230
1.0
 70
     8
 71
     3
 72
    10
 73
     6
 74
     0
 42
0.000000001
 43
0.00000001
 40
0.0
 40
0.0
 40
0.0
 40
0.0
 40
0.5
 40
0.5
 40
1.0
 40
1.0
 40
1.0
 40
1.0
 10
26.70500000624229
 20
11.84689727503321
 30
0.0
 10
27.31223561896656
 20
11.58523063511145
 30
0.0
 10
27.91047593330273
 20
11.27265781630806
 30
0.0
 10
29.08730088918138
 20
10.52783197790881
 30
0.0
 10
29.6659573230402
 20
10.09611128119788
 30
0.0
 10
30.23243615398208
 20
9.585981754195082
 30
0.0
  0
SPLINE
  5
1F4
330
1F
100
AcDbEntity
  8
1
  6
SLD-Solid
370
    25
100
AcDbSpline
210
0.0
220
0.0
230
1.0
 70
     8
 71
     3
 72
    10
 73
     6
 74
     0
 42
0.000000001
 43
0.00000001
 40
0.0
 40
0.0
 40
0.0
 40
0.0
 40
0.5
 40
0.5
 40
1.0
 40
1.0
 40
1.0
 40
1.0
 10
30.2324361419109
 20
-9.585981748827423
 30
0.0
 10
29.66595731083413
 20
-10.0961112760467
 30
0.0
 10
29.08730087683215
 20
-10.52783197291976
 30
0.0
 10
27.91047592065665
 20
-11.27265781157658
 30
0.0
 10
27.31223560616661
 20
-11.58523063047456
 30
0.0
 10
26.7049999932838
 20
-11.84689727046464
 30
0.0
  0
SPLINE
  5
1F5
330
1F
100
AcDbEntity
  8
1
  6
SLD-Solid
370
    25
100
AcDbSpline
210
0.0
220
0.0
230
1.0
 70
     8
 71
     3
 72
     8
 73
     4
 74
     0
 42
0.000000001
 43
0.00000001
 40
0.0
 40
0.0
 40
0.0
 40
0.0
 40
0.0013188854064183
 40
0.0013188854064183
 40
0.0013188854064183
 40
0.0013188854064183
 10
16.23001969424186
 20
-12.9
 30
0.0
 10
16.04753937863331
 20
-13.21963364267904
 30
0.0
 10
15.86418062995508
 20
-13.53894782528738
 30
0.0
 10
15.68000000000002
 20
-13.85795803413957
 30
0.0
  0
SPLINE
  5
1F6
330
1F
100
AcDbEntity
  8
1
  6
SLD-Solid
370
    25
100
AcDbSpline
210
0.0
220
0.0
230
1.0
 70
     8
 71
     3
 72
    10
 73
     6
 74
     0
 42
0.000000001
 43
0.00000001
 40
0.0
 40
0.0
 40
0.0
 40
0.0
 40
0.5
 40
0.5
 40
1.0
 40
1.0
 40
1.0
 40
1.0
 10
3.750000000000004
 20
-13.85795803413965
 30
0.0
 10
3.553650459150654
 20
-13.85795803413965
 30
0.0
 10
3.358510005927545
 20
-13.83554575288122
 30
0.0
 10
3.08082982229263
 20
-13.75855131940355
 30
0.0
 10
3.000000000000003
 20
-13.70444328602566
 30
0.0
 10
3.000000000000003
 20
-13.64999999999999
 30
0.0
  0
SPLINE
  5
1F7
330
1F
100
AcDbEntity
  8
1
  6
SLD-Solid
370
    25
100
AcDbSpline
210
0.0
220
0.0
230
1.0
 70
     8
 71
     3
 72
    10
 73
     6
 74
     0
 42
0.000000001
 43
0.00000001
 40
0.0
 40
0.0
 40
0.0
 40
0.0
 40
0.5
 40
0.5
 40
1.0
 40
1.0
 40
1.0
 40
1.0
 10
2.999999999999989
 20
13.65
 30
0.0
 10
2.999999999999988
 20
13.70444328602569
 30
0.0
 10
3.080829822292643
 20
13.75855131940355
 30
0.0
 10
3.35851000592753
 20
13.83554575288121
 30
0.0
 10
3.553650459150639
 20
13.85795803413965
 30
0.0
 10
3.749999999999988
 20
13.85795803413966
 30
0.0
  0
SPLINE
  5
1F8
330
1F
100
AcDbEntity
  8
1
  6
SLD-Solid
370
    25
100
AcDbSpline
210
0.0
220
0.0
230
1.0
 70
     8
 71
     3
 72
     8
 73
     4
 74
     0
 42
0.000000001
 43
0.00000001
 40
0.0
 40
0.0
 40
0.0
 40
0.0
 40
0.0013188854064184
 40
0.0013188854064184
 40
0.0013188854064184
 40
0.0013188854064184
 10
15.68000000000001
 20
13.85795803413965
 30
0.0
 10
15.86418062995557
 20
13.5389478252866
 30
0.0
 10
16.0475393786343
 20
13.21963364267736
 30
0.0
 10
16.23001969424333
 20
12.89999999999745
 30
0.0
  0
SPLINE
  5
1F9
330
1F
100
AcDbEntity
  8
1
  6
SLD-Solid
370
    25
100
AcDbSpline
210
0.0
220
0.0
230
1.0
 70
     8
 71
     3
 72
    32
 73
    28
 74
     0
 42
0.000000001
 43
0.00000001
 40
0.5000000000000063
 40
0.5000000000000063
 40
0.5000000000000063
 40
0.5000000000000063
 40
0.5625000000000063
 40
0.5625000000000063
 40
0.6250000000000062
 40
0.6250000000000062
 40
0.6562500000000057
 40
0.6562500000000057
 40
0.6875000000000051
 40
0.6875000000000051
 40
0.7187500000000046
 40
0.7187500000000046
 40
0.750000000000004
 40
0.750000000000004
 40
0.7812500000000036
 40
0.7812500000000036
 40
0.812500000000003
 40
0.812500000000003
 40
0.8437500000000024
 40
0.8437500000000024
 40
0.8750000000000019
 40
0.8750000000000019
 40
0.9062500000000013
 40
0.9062500000000013
 40
0.9375000000000008
 40
0.9375000000000008
 40
1.0
 40
1.0
 40
1.0
 40
1.0
 10
11.10071146249392
 20
46.2429399369254
 30
0.0
 10
10.83966036263014
 20
46.24290468071934
 30
0.0
 10
10.57654432887647
 20
46.26283130064549
 30
0.0
 10
10.0950396931868
 20
46.3378480575818
 30
0.0
 10
9.871736797758935
 20
46.39368621299568
 30
0.0
 10
9.59486911967225
 20
46.49555476197273
 30
0.0
 10
9.510355808027935
 20
46.53319066240618
 30
0.0
 10
9.364898225395851
 20
46.61211139901827
 30
0.0
 10
9.303391160574353
 20
46.65344765224852
 30
0.0
 10
9.202887905830876
 20
46.73965007660369
 30
0.0
 10
9.164237099226021
 20
46.78455822929223
 30
0.0
 10
9.113189380564435
 20
46.87388294420759
 30
0.0
 10
9.100134371086934
 20
46.91878509458411
 30
0.0
 10
9.099867672658371
 20
47.00902982582041
 30
0.0
 10
9.11274552905142
 20
47.05316763831313
 30
0.0
 10
9.163318778191181
 20
47.13872657036479
 30
0.0
 10
9.201564549821601
 20
47.18069771324019
 30
0.0
 10
9.301851471514258
 20
47.2601835783914
 30
0.0
 10
9.363213060780057
 20
47.29742937389353
 30
0.0
 10
9.508037288393695
 20
47.36723524195034
 30
0.0
 10
9.592426282888006
 20
47.39998657776513
 30
0.0
 10
9.776893191111732
 20
47.45826780616675
 30
0.0
 10
9.877477150479361
 20
47.48415678629294
 30
0.0
 10
10.09565052704874
 20
47.52959536402749
 30
0.0
 10
10.21229123388059
 20
47.54884237695548
 30
0.0
 10
10.57316681370773
 20
47.59491735537484
 30
0.0
 10
10.83571231733926
 20
47.61102046218485
 30
0.0
 10
11.1
 20
47.61102046218485
 30
0.0
  0
SPLINE
  5
1FA
330
1F
100
AcDbEntity
  8
1
  6
SLD-Solid
370
    25
100
AcDbSpline
210
0.0
220
0.0
230
1.0
 70
     8
 71
     3
 72
    34
 73
    30
 74
     0
 42
0.000000001
 43
0.00000001
 40
0.0
 40
0.0
 40
0.0
 40
0.0
 40
0.0312500000000007
 40
0.0312500000000007
 40
0.0625000000000013
 40
0.0625000000000013
 40
0.093750000000002
 40
0.093750000000002
 40
0.1250000000000027
 40
0.1250000000000027
 40
0.1875000000000038
 40
0.1875000000000038
 40
0.250000000000005
 40
0.250000000000005
 40
0.2812500000000052
 40
0.2812500000000052
 40
0.3125000000000053
 40
0.3125000000000053
 40
0.3437500000000055
 40
0.3437500000000055
 40
0.3750000000000057
 40
0.3750000000000057
 40
0.4062500000000059
 40
0.4062500000000059
 40
0.4375000000000061
 40
0.4375000000000061
 40
0.4687500000000062
 40
0.4687500000000062
 40
0.5000000000000063
 40
0.5000000000000063
 40
0.5000000000000063
 40
0.5000000000000063
 10
11.1
 20
47.61102046218485
 30
0.0
 10
11.23214384133039
 20
47.61102046218485
 30
0.0
 10
11.36207683011832
 20
47.60707775994187
 30
0.0
 10
11.61770274340579
 20
47.5915758354741
 30
0.0
 10
11.74472034796746
 20
47.57982745159402
 30
0.0
 10
11.98691872226756
 20
47.54898133906418
 30
0.0
 10
12.10178825693582
 20
47.53003810633187
 30
0.0
 10
12.31918389765141
 20
47.48494043179043
 30
0.0
 10
12.42210399098251
 20
47.45854159182392
 30
0.0
 10
12.69882146131235
 20
47.37124279569227
 30
0.0
 10
12.8478254923194
 20
47.29985068225716
 30
0.0
 10
13.04732370421205
 20
47.14216623040048
 30
0.0
 10
13.09986054057427
 20
47.0541887237666
 30
0.0
 10
13.10006930284499
 20
46.92035145215259
 30
0.0
 10
13.08708888085487
 20
46.87454231371449
 30
0.0
 10
13.03607100299482
 20
46.78492686228006
 30
0.0
 10
12.99832227536034
 20
46.74090637299759
 30
0.0
 10
12.89820560779054
 20
46.65460492149247
 30
0.0
 10
12.83559212600233
 20
46.61244003049263
 30
0.0
 10
12.69084705245928
 20
46.53378144217984
 30
0.0
 10
12.60821628179987
 20
46.49678850176284
 30
0.0
 10
12.42162673177076
 20
46.42794131645881
 30
0.0
 10
12.32044387441548
 20
46.39713531384612
 30
0.0
 10
12.1038893478486
 20
46.34304900107737
 30
0.0
 10
11.98703949363668
 20
46.31952416888132
 30
0.0
 10
11.7446998281336
 20
46.28167360529466
 30
0.0
 10
11.62003428466964
 20
46.26734814958859
 30
0.0
 10
11.36379198463242
 20
46.24794534725472
 30
0.0
 10
11.23123701242582
 20
46.24295756502841
 30
0.0
 10
11.10071146249392
 20
46.2429399369254
 30
0.0
  0
SPLINE
  5
1FB
330
1F
100
AcDbEntity
  8
1
  6
SLD-Solid
370
    25
100
AcDbSpline
210
0.0
220
0.0
230
1.0
 70
    24
 71
     3
 72
     8
 73
     4
 74
     0
 42
0.000000001
 43
0.00000001
 40
0.0
 40
0.0
 40
0.0
 40
0.0
 40
1.0
 40
1.0
 40
1.0
 40
1.0
 10
19.705
 20
-12.9
 30
0.0
 10
18.5519882858111
 20
-12.9
 30
0.0
 10
17.39299087975339
 20
-12.90000000000001
 30
0.0
 10
16.23001969424186
 20
-12.9
 30
0.0
  0
SPLINE
  5
1FC
330
1F
100
AcDbEntity
  8
1
  6
SLD-Solid
370
    25
100
AcDbSpline
210
0.0
220
0.0
230
1.0
 70
    24
 71
     3
 72
     8
 73
     4
 74
     0
 42
0.000000001
 43
0.00000001
 40
0.0
 40
0.0
 40
0.0
 40
0.0
 40
1.0
 40
1.0
 40
1.0
 40
1.0
 10
16.23001969424333
 20
12.89999999999745
 30
0.0
 10
17.39299174097829
 20
12.89999999999745
 30
0.0
 10
18.55200333802486
 20
12.89999999999745
 30
0.0
 10
19.70500000000143
 20
12.89999999999745
 30
0.0
  0
SPLINE
  5
1FD
330
1F
100
AcDbEntity
  8
1
  6
SLD-Solid
370
    25
100
AcDbSpline
210
0.0
220
0.0
230
1.0
 70
     8
 71
     3
 72
    10
 73
     6
 74
     0
 42
0.000000001
 43
0.00000001
 40
0.0
 40
0.0
 40
0.0
 40
0.0
 40
0.5
 40
0.5
 40
1.0
 40
1.0
 40
1.0
 40
1.0
 10
26.32999999328423
 20
-12.00154573111802
 30
0.0
 10
25.57238485256655
 20
-12.30013390426544
 30
0.0
 10
24.7992268304876
 20
-12.52272939616222
 30
0.0
 10
23.22275584566907
 20
-12.82265445714507
 30
0.0
 10
22.41944728680981
 20
-12.89999999733854
 30
0.0
 10
21.59999999328424
 20
-12.89999999733854
 30
0.0
  0
SPLINE
  5
1FE
330
1F
100
AcDbEntity
  8
1
  6
SLD-Solid
370
    25
100
AcDbSpline
210
0.0
220
0.0
230
1.0
 70
     8
 71
     3
 72
    10
 73
     6
 74
     0
 42
0.000000001
 43
0.00000001
 40
0.0
 40
0.0
 40
0.0
 40
0.0
 40
0.5
 40
0.5
 40
1.0
 40
1.0
 40
1.0
 40
1.0
 10
21.60000000624238
 20
12.90000000190711
 30
0.0
 10
22.41944729976794
 20
12.90000000190711
 30
0.0
 10
23.22275585862721
 20
12.82265446171364
 30
0.0
 10
24.79922684344574
 20
12.52272940073079
 30
0.0
 10
25.57238486552468
 20
12.30013390883401
 30
0.0
 10
26.33000000624236
 20
12.00154573568658
 30
0.0
  0
SPLINE
  5
1FF
330
1F
100
AcDbEntity
  8
1
  6
SLD-Solid
370
    25
100
AcDbSpline
210
0.0
220
0.0
230
1.0
 70
     8
 71
     3
 72
     8
 73
     4
 74
     0
 42
0.000000001
 43
0.00000001
 40
0.0
 40
0.0
 40
0.0
 40
0.0
 40
0.5
 40
0.5
 40
0.5
 40
0.5
 10
26.33000000624236
 20
12.00154573568658
 30
0.0
 10
26.4310547523306
 20
11.96171845346809
 30
0.0
 10
26.5242386234717
 20
11.9233981280037
 30
0.0
 10
26.5929232808122
 20
11.89456671004152
 30
0.0
  0
SPLINE
  5
200
330
1F
100
AcDbEntity
  8
1
  6
SLD-Solid
370
    25
100
AcDbSpline
210
0.0
220
0.0
230
1.0
 70
     8
 71
     2
 72
     6
 73
     3
 74
     0
 42
0.000000001
 43
0.00000001
 40
0.5
 40
0.5
 40
0.5
 40
1.0
 40
1.0
 40
1.0
 10
26.5929232808122
 20
11.89456671004152
 30
0.0
 10
26.66160793815264
 20
11.86573529207934
 30
0.0
 10
26.70500000624229
 20
11.84689727503321
 30
0.0
  0
SPLINE
  5
201
330
1F
100
AcDbEntity
  8
1
  6
SLD-Solid
370
    25
100
AcDbSpline
210
0.0
220
0.0
230
1.0
 70
     8
 71
     2
 72
     6
 73
     3
 74
     0
 42
0.000000001
 43
0.00000001
 40
0.0
 40
0.0
 40
0.0
 40
0.5
 40
0.5
 40
0.5
 10
26.7049999932838
 20
-11.84689727046464
 30
0.0
 10
26.66092466349959
 20
-11.86602408952682
 30
0.0
 10
26.59262757436931
 20
-11.89469082293749
 30
0.0
  0
SPLINE
  5
202
330
1F
100
AcDbEntity
  8
1
  6
SLD-Solid
370
    25
100
AcDbSpline
210
0.0
220
0.0
230
1.0
 70
     8
 71
     3
 72
     8
 73
     4
 74
     0
 42
0.000000001
 43
0.00000001
 40
0.5
 40
0.5
 40
0.5
 40
0.5
 40
1.0
 40
1.0
 40
1.0
 40
1.0
 10
26.59262757436931
 20
-11.89469082293749
 30
0.0
 10
26.52433048523903
 20
-11.92335755634817
 30
0.0
 10
26.43081087043542
 20
-11.96181456152518
 30
0.0
 10
26.32999999328423
 20
-12.00154573111802
 30
0.0
  0
SPLINE
  5
203
330
1F
100
AcDbEntity
  8
1
  6
SLD-Solid
370
    25
100
AcDbSpline
210
0.0
220
0.0
230
1.0
 70
    24
 71
     2
 72
     6
 73
     3
 74
     0
 42
0.000000001
 43
0.00000001
 40
0.0
 40
0.0
 40
0.0
 40
0.5
 40
0.5
 40
0.5
 10
19.70500000000143
 20
12.89999999999745
 30
0.0
 10
19.74338373915201
 20
12.89999999999744
 30
0.0
 10
19.8114393716711
 20
12.89999999999744
 30
0.0
  0
SPLINE
  5
204
330
1F
100
AcDbEntity
  8
1
  6
SLD-Solid
370
    25
100
AcDbSpline
210
0.0
220
0.0
230
1.0
 70
    24
 71
     3
 72
     8
 73
     4
 74
     0
 42
0.000000001
 43
0.00000001
 40
0.5
 40
0.5
 40
0.5
 40
0.5
 40
1.0
 40
1.0
 40
1.0
 40
1.0
 10
19.8114393716711
 20
12.89999999999744
 30
0.0
 10
19.87949500419019
 20
12.90000000048137
 30
0.0
 10
19.97908463495472
 20
12.90000000118955
 30
0.0
 10
20.08000000000142
 20
12.90000000190711
 30
0.0
  0
SPLINE
  5
205
330
1F
100
AcDbEntity
  8
1
  6
SLD-Solid
370
    25
100
AcDbSpline
210
0.0
220
0.0
230
1.0
 70
    24
 71
     3
 72
     8
 73
     4
 74
     0
 42
0.000000001
 43
0.00000001
 40
0.0
 40
0.0
 40
0.0
 40
0.0
 40
0.5
 40
0.5
 40
0.5
 40
0.5
 10
20.08000000000002
 20
-12.89999999733854
 30
0.0
 10
19.97988956666463
 20
-12.89999999833069
 30
0.0
 10
19.87972107531741
 20
-12.89999999932342
 30
0.0
 10
19.81145023067701
 20
-12.90000000000002
 30
0.0
  0
SPLINE
  5
206
330
1F
100
AcDbEntity
  8
1
  6
SLD-Solid
370
    25
100
AcDbSpline
210
0.0
220
0.0
230
1.0
 70
    24
 71
     2
 72
     6
 73
     3
 74
     0
 42
0.000000001
 43
0.00000001
 40
0.5
 40
0.5
 40
0.5
 40
1.0
 40
1.0
 40
1.0
 10
19.81145023067699
 20
-12.90000000000002
 30
0.0
 10
19.74317938603659
 20
-12.9
 30
0.0
 10
19.70499999999997
 20
-12.9
 30
0.0
  0
SPLINE
  5
207
330
1F
100
AcDbEntity
  8
1
  6
SLD-Solid
370
    25
100
AcDbSpline
210
0.0
220
0.0
230
1.0
 70
     8
 71
     3
 72
    14
 73
    10
 74
     0
 42
0.000000001
 43
0.00000001
 40
0.0
 40
0.0
 40
0.0
 40
0.0
 40
0.2500000000000001
 40
0.2500000000000001
 40
0.5
 40
0.5
 40
0.75
 40
0.75
 40
1.0
 40
1.0
 40
1.0
 40
1.0
 10
3.000000000000003
 20
-3.762977544445746
 30
0.0
 10
3.000000000000003
 20
-3.135929825443085
 30
0.0
 10
2.991678313258084
 20
-2.508737538536407
 30
0.0
 10
2.978060621190701
 20
-1.2544055281557
 30
0.0
 10
2.972842150110358
 20
-0.627275587815078
 30
0.0
 10
2.972841079462676
 20
0.6270577910340511
 30
0.0
 10
2.978059537048022
 20
1.254301409576046
 30
0.0
 10
2.991678476802817
 20
2.5087568601194
 30
0.0
 10
3.000000000000003
 20
3.136051595231435
 30
0.0
 10
3.000000000000003
 20
3.762977544445725
 30
0.0
  0
SPLINE
  5
208
330
1F
100
AcDbEntity
  8
1
  6
SLD-Dashed
370
    18
100
AcDbSpline
210
0.0
220
0.0
230
1.0
 70
     8
 71
     3
 72
    31
 73
    27
 74
     0
 42
0.000000001
 43
0.00000001
 40
0.0
 40
0.0
 40
0.0
 40
0.0
 40
0.0155398018584989
 40
0.0310809192630964
 40
0.0466335010157381
 40
0.0622076735028253
 40
0.0932675544329683
 40
0.1243522097124299
 40
0.1557099214772268
 40
0.1870684468948196
 40
0.2496029157489098
 40
0.3119495670928928
 40
0.3747989962963762
 40
0.437561073544549
 40
0.4999873489797612
 40
0.5628033946911418
 40
0.625608562120464
 40
0.6878408964856253
 40
0.7502064627627841
 40
0.8130346898669224
 40
0.8441691395080911
 40
0.8753003331849
 40
0.9063731694800542
 40
0.9374372200973745
 40
0.9687404587451394
 40
1.0
 40
1.0
 40
1.0
 40
1.0
 10
30.7299999931768
 20
-10.30178928147761
 30
0.0
 10
30.81751693180973
 20
-10.22063125536971
 30
0.0
 10
30.99255821795813
 20
-10.058308332595
 30
0.0
 10
31.24701472777997
 20
-9.80619972425633
 30
0.0
 10
31.49546285806645
 20
-9.547824047556567
 30
0.0
 10
31.81730805267743
 20
-9.194838018236645
 30
0.0
 10
32.20237188987768
 20
-8.738168862359043
 30
0.0
 10
32.6366351390629
 20
-8.16518792648864
 30
0.0
 10
33.04218110080178
 20
-7.568148239224463
 30
0.0
 10
33.54168818872027
 20
-6.743178388116417
 30
0.0
 10
34.08445048208952
 20
-5.665529414221402
 30
0.0
 10
34.6001914535719
 20
-4.307644281857259
 30
0.0
 10
34.97385375297227
 20
-2.899053792236157
 30
0.0
 10
35.19971880548486
 20
-1.456473386798641
 30
0.0
 10
35.27521154365779
 20
0.002666784033753
 30
0.0
 10
35.19930273880411
 20
1.462162409227405
 30
0.0
 10
34.97274508318057
 20
2.903179847410085
 30
0.0
 10
34.60000721780707
 20
4.307494978719427
 30
0.0
 10
34.08553873054041
 20
5.663361038378008
 30
0.0
 10
33.54254137612492
 20
6.74168401790412
 30
0.0
 10
33.04369673583529
 20
7.565640391898151
 30
0.0
 10
32.64038026625227
 20
8.15987893647542
 30
0.0
 10
32.20762441097846
 20
8.731792010771725
 30
0.0
 10
31.74464026656515
 20
9.280690991842388
 30
0.0
 10
31.2547221857517
 20
9.807714719364299
 30
0.0
 10
30.90482593660135
 20
10.1371744739927
 30
0.0
 10
30.7300000057163
 20
10.30178929462011
 30
0.0
  0
SPLINE
  5
209
330
1F
100
AcDbEntity
  8
SK3
  6
SLD-Dashed
370
    18
100
AcDbSpline
210
0.0
220
0.0
230
1.0
 70
     8
 71
     3
 72
    34
 73
    30
 74
     0
 42
0.000000001
 43
0.00000001
 40
0.4999999999999966
 40
0.4999999999999966
 40
0.4999999999999966
 40
0.4999999999999966
 40
0.5624999999999961
 40
0.5624999999999961
 40
0.5937499999999963
 40
0.5937499999999963
 40
0.6249999999999966
 40
0.6249999999999966
 40
0.6562499999999968
 40
0.6562499999999968
 40
0.687499999999997
 40
0.687499999999997
 40
0.7187499999999972
 40
0.7187499999999972
 40
0.7499999999999974
 40
0.7499999999999974
 40
0.7812499999999977
 40
0.7812499999999977
 40
0.8124999999999979
 40
0.8124999999999979
 40
0.8437499999999981
 40
0.8437499999999981
 40
0.8749999999999983
 40
0.8749999999999983
 40
0.9062499999999986
 40
0.9062499999999986
 40
0.9374999999999988
 40
0.9374999999999988
 40
1.0
 40
1.0
 40
1.0
 40
1.0
 10
10.58308274902045
 20
35.60983886268014
 30
0.0
 10
10.7464399435272
 20
35.41801071160293
 30
0.0
 10
10.9289607682107
 20
35.23611610199762
 30
0.0
 10
11.23312245907616
 20
35.0211661534358
 30
0.0
 10
11.34141585866906
 20
34.95851159978362
 30
0.0
 10
11.56074352105284
 20
34.86359781293142
 30
0.0
 10
11.6721594486988
 20
34.83072556958464
 30
0.0
 10
11.8961718066789
 20
34.79557647347632
 30
0.0
 10
12.00393523597723
 20
34.7940756092167
 30
0.0
 10
12.2046103085303
 20
34.81544584534696
 30
0.0
 10
12.2976774283587
 20
34.8384522217579
 30
0.0
 10
12.45872543018654
 20
34.89843104309899
 30
0.0
 10
12.528660539161
 20
34.93606188986215
 30
0.0
 10
12.63989321927143
 20
35.01682758014757
 30
0.0
 10
12.68217730188428
 20
35.060325356534
 30
0.0
 10
12.73826417564933
 20
35.14936066894421
 30
0.0
 10
12.75135511926061
 20
35.19357413951565
 30
0.0
 10
12.74842672652904
 20
35.28047265380213
 30
0.0
 10
12.73184979458239
 20
35.32330578548299
 30
0.0
 10
12.67052150102996
 20
35.40419678085387
 30
0.0
 10
12.62533349294084
 20
35.44316624732113
 30
0.0
 10
12.50798957942556
 20
35.51912209477806
 30
0.0
 10
12.4371453620085
 20
35.55544933918426
 30
0.0
 10
12.27151277322139
 20
35.63087906439402
 30
0.0
 10
12.17650676240367
 20
35.66997505005086
 30
0.0
 10
11.97426684334574
 20
35.75479358581038
 30
0.0
 10
11.86385801145314
 20
35.8020406597236
 30
0.0
 10
11.52899205333034
 20
35.96187217315489
 30
0.0
 10
11.30216468948124
 20
36.09592276424299
 30
0.0
 10
11.10000000000003
 20
36.2443456783125
 30
0.0
  0
SPLINE
  5
20A
330
1F
100
AcDbEntity
  8
SK3
  6
SLD-Dashed
370
    18
100
AcDbSpline
210
0.0
220
0.0
230
1.0
 70
     8
 71
     3
 72
    30
 73
    26
 74
     0
 42
0.000000001
 43
0.00000001
 40
0.0
 40
0.0
 40
0.0
 40
0.0
 40
0.0624999999999996
 40
0.0624999999999996
 40
0.1249999999999991
 40
0.1249999999999991
 40
0.1562499999999989
 40
0.1562499999999989
 40
0.1874999999999987
 40
0.1874999999999987
 40
0.2187499999999985
 40
0.2187499999999985
 40
0.2499999999999983
 40
0.2499999999999983
 40
0.2812499999999981
 40
0.2812499999999981
 40
0.3124999999999979
 40
0.3124999999999979
 40
0.3437499999999977
 40
0.3437499999999977
 40
0.3749999999999974
 40
0.3749999999999974
 40
0.437499999999997
 40
0.437499999999997
 40
0.4999999999999966
 40
0.4999999999999966
 40
0.4999999999999966
 40
0.4999999999999966
 10
11.10000000000003
 20
36.2443456783125
 30
0.0
 10
10.8978353105188
 20
36.39276859238201
 30
0.0
 10
10.72214710048239
 20
36.54853149676892
 30
0.0
 10
10.39566988662173
 20
36.86090800864711
 30
0.0
 10
10.24875737476433
 20
37.01429263691674
 30
0.0
 10
10.04648943268485
 20
37.22656611238051
 30
0.0
 10
9.981990152996737
 20
37.29456924892077
 30
0.0
 10
9.858509956371192
 20
37.42240359315588
 30
0.0
 10
9.79926857309786
 20
37.48250250599094
 30
0.0
 10
9.69015470609033
 20
37.58682641033749
 30
0.0
 10
9.639396735733468
 20
37.63190951285129
 30
0.0
 10
9.55198186349912
 20
37.69634657709172
 30
0.0
 10
9.515303532497507
 20
37.71599964340817
 30
0.0
 10
9.462704529937998
 20
37.7150409225581
 30
0.0
 10
9.448745253197984
 20
37.69296188732565
 30
0.0
 10
9.45143808956056
 20
37.60145408034257
 30
0.0
 10
9.468197896427998
 20
37.53223380431291
 30
0.0
 10
9.52435334686122
 20
37.36723288791389
 30
0.0
 10
9.563589477848037
 20
37.27126764737795
 30
0.0
 10
9.65348001882431
 20
37.07215394358158
 30
0.0
 10
9.705204466999184
 20
36.96652933832155
 30
0.0
 10
9.87134859518446
 20
36.64775377486495
 30
0.0
 10
9.99583275682618
 20
36.43283113557882
 30
0.0
 10
10.27208420272974
 20
36.00673902508809
 30
0.0
 10
10.4197255545137
 20
35.80166701375737
 30
0.0
 10
10.58308274902045
 20
35.60983886268014
 30
0.0
  0
SPLINE
  5
20B
330
1F
100
AcDbEntity
  8
SK3
  6
SLD-Dashed
370
    18
100
AcDbSpline
210
0.0
220
0.0
230
1.0
 70
     8
 71
     3
 72
    34
 73
    30
 74
     0
 42
0.000000001
 43
0.00000001
 40
0.5000000000000002
 40
0.5000000000000002
 40
0.5000000000000002
 40
0.5000000000000002
 40
0.5312500000000003
 40
0.5312500000000003
 40
0.5625000000000004
 40
0.5625000000000004
 40
0.5937500000000006
 40
0.5937500000000006
 40
0.6250000000000007
 40
0.6250000000000007
 40
0.6562500000000008
 40
0.6562500000000008
 40
0.6875000000000009
 40
0.6875000000000009
 40
0.7500000000000007
 40
0.7500000000000007
 40
0.8125000000000013
 40
0.8125000000000013
 40
0.8437500000000011
 40
0.8437500000000011
 40
0.8750000000000009
 40
0.8750000000000009
 40
0.9062500000000007
 40
0.9062500000000007
 40
0.9375000000000004
 40
0.9375000000000004
 40
0.9687500000000002
 40
0.9687500000000002
 40
1.0
 40
1.0
 40
1.0
 40
1.0
 10
9.613805742161711
 20
32.06281097659473
 30
0.0
 10
9.668881160736303
 20
32.10309805177793
 30
0.0
 10
9.73817928315665
 20
32.14073483518616
 30
0.0
 10
9.898515798149973
 20
32.20110344536893
 30
0.0
 10
9.988902763524528
 20
32.22393554112017
 30
0.0
 10
10.1894569494921
 20
32.24641795601577
 30
0.0
 10
10.29767837600208
 20
32.24530201799806
 30
0.0
 10
10.51807526498122
 20
32.21214772693889
 30
0.0
 10
10.63291658596824
 20
32.17923875118971
 30
0.0
 10
10.85319871140988
 20
32.0850030547948
 30
0.0
 10
10.96108094611137
 20
32.02309673503584
 30
0.0
 10
11.16468749579594
 20
31.88015690790776
 30
0.0
 10
11.26027842069083
 20
31.79975923962912
 30
0.0
 10
11.53398297450221
 20
31.53947932429291
 30
0.0
 10
11.69837034356695
 20
31.34149906618455
 30
0.0
 10
11.99694861504763
 20
30.93451949723766
 30
0.0
 10
12.13420875119765
 20
30.72108106609182
 30
0.0
 10
12.32260730605758
 20
30.39792759977521
 30
0.0
 10
12.38188352391459
 20
30.29060318554873
 30
0.0
 10
12.49280294837551
 20
30.0781022259803
 30
0.0
 10
12.54469006353044
 20
29.972328755619
 30
0.0
 10
12.63491931900843
 20
29.77290420087406
 30
0.0
 10
12.67429072119647
 20
29.67687735577866
 30
0.0
 10
12.73086568636479
 20
29.51167662882574
 30
0.0
 10
12.74803399215493
 20
29.44172730744222
 30
0.0
 10
12.75163319740261
 20
29.34952447988204
 30
0.0
 10
12.73806993948381
 20
29.32639093213393
 30
0.0
 10
12.6867084196995
 20
29.32396546256974
 30
0.0
 10
12.6496999389252
 20
29.34320004830023
 30
0.0
 10
12.60540931107557
 20
29.37571682493556
 30
0.0
  0
SPLINE
  5
20C
330
1F
100
AcDbEntity
  8
SK3
  6
SLD-Dashed
370
    18
100
AcDbSpline
210
0.0
220
0.0
230
1.0
 70
     8
 71
     3
 72
    26
 73
    22
 74
     0
 42
0.000000001
 43
0.00000001
 40
0.0
 40
0.0
 40
0.0
 40
0.0
 40
0.0625
 40
0.0625
 40
0.125
 40
0.125
 40
0.1874999999999999
 40
0.1874999999999999
 40
0.2499999999999999
 40
0.2499999999999999
 40
0.2812500000000003
 40
0.2812500000000003
 40
0.3125000000000007
 40
0.3125000000000007
 40
0.3750000000000003
 40
0.3750000000000003
 40
0.4375
 40
0.4375
 40
0.4687500000000001
 40
0.4687500000000001
 40
0.5000000000000002
 40
0.5000000000000002
 40
0.5000000000000002
 40
0.5000000000000002
 10
12.60540931107557
 20
29.37571682493556
 30
0.0
 10
12.51682805537629
 20
29.44075037820619
 30
0.0
 10
12.40700682775375
 20
29.55051611962867
 30
0.0
 10
12.15919932759159
 20
29.80687692943999
 30
0.0
 10
12.02334522926919
 20
29.95248630818571
 30
0.0
 10
11.72814013646128
 20
30.2540381035831
 30
0.0
 10
11.56591385222425
 20
30.41343063102241
 30
0.0
 10
11.20504729019511
 20
30.72369135776141
 30
0.0
 10
11.00228334192552
 20
30.87603903040807
 30
0.0
 10
10.67487000905186
 20
31.07115716362111
 30
0.0
 10
10.56031472788944
 20
31.13155590588755
 30
0.0
 10
10.33896153134629
 20
31.23732451856054
 30
0.0
 10
10.22949961952679
 20
31.28426500057825
 30
0.0
 10
9.922578697971307
 20
31.41303027982767
 30
0.0
 10
9.751646578307197
 20
31.48319067939763
 30
0.0
 10
9.51745196156617
 20
31.63426232662331
 30
0.0
 10
9.453612055377938
 20
31.71535651469054
 30
0.0
 10
9.448421112414271
 20
31.84603582485067
 30
0.0
 10
9.461345898652649
 20
31.89014951197766
 30
0.0
 10
9.516390615621026
 20
31.9785612869524
 30
0.0
 10
9.558730323587117
 20
32.02252390141155
 30
0.0
 10
9.613805742161711
 20
32.06281097659473
 30
0.0
  0
SPLINE
  5
20D
330
1F
100
AcDbEntity
  8
SK3
  6
SLD-Dashed
370
    18
100
AcDbSpline
210
0.0
220
0.0
230
1.0
 70
     8
 71
     3
 72
    12
 73
     8
 74
     0
 42
0.000000001
 43
0.00000001
 40
0.0
 40
0.0
 40
0.0
 40
0.0
 40
0.2069995423152734
 40
0.419520292357925
 40
0.6266790870573011
 40
0.8410099389317129
 40
1.0
 40
1.0
 40
1.0
 40
1.0
 10
101.75
 20
-14.90385856078889
 30
0.0
 10
101.4150581050795
 20
-15.05016851449406
 30
0.0
 10
100.7362405574254
 20
-15.34669088293379
 30
0.0
 10
99.95298296426469
 20
-15.73954444318407
 30
0.0
 10
99.3729504001979
 20
-16.04459265836372
 30
0.0
 10
99.04525519223701
 20
-16.22491398991323
 30
0.0
 10
99.02358717083185
 20
-16.23694381841734
 30
0.0
 10
99.01435918513098
 20
-16.24206708663566
 30
0.0
  0
SPLINE
  5
20E
330
1F
100
AcDbEntity
  8
SK3
  6
SLD-Dashed
370
    18
100
AcDbSpline
210
0.0
220
0.0
230
1.0
 70
     8
 71
     3
 72
    12
 73
     8
 74
     0
 42
0.000000001
 43
0.00000001
 40
0.0
 40
0.0
 40
0.0
 40
0.0
 40
0.2500000000000082
 40
0.2500000000000082
 40
0.5000000000000164
 40
0.5000000000000164
 40
1.0
 40
1.0
 40
1.0
 40
1.0
 10
101.9999999999948
 20
-14.52583904631538
 30
0.0
 10
101.9999999999948
 20
-14.5712844930626
 30
0.0
 10
101.9899870996635
 20
-14.6159022235938
 30
0.0
 10
101.9599333829407
 20
-14.69639839187994
 30
0.0
 10
101.9396357224328
 20
-14.7330339276038
 30
0.0
 10
101.8701958919617
 20
-14.82960122920532
 30
0.0
 10
101.8125178903887
 20
-14.87764140277199
 30
0.0
 10
101.75
 20
-14.90385856078889
 30
0.0
  0
SPLINE
  5
20F
330
1F
100
AcDbEntity
  8
SK3
  6
SLD-Dashed
370
    18
100
AcDbSpline
210
0.0
220
0.0
230
1.0
 70
     8
 71
     3
 72
    24
 73
    20
 74
     0
 42
0.000000001
 43
0.00000001
 40
0.0
 40
0.0
 40
0.0
 40
0.0
 40
0.0438654820261606
 40
0.1098781720790009
 40
0.1721958005876753
 40
0.2360455525417332
 40
0.3040841920275666
 40
0.3737133635220706
 40
0.4494249359713995
 40
0.4882917372114631
 40
0.5274794112930605
 40
0.5891621952179393
 40
0.652555299693385
 40
0.7142866620757059
 40
0.7779899252253183
 40
0.8373340433175765
 40
0.8980344382977491
 40
0.9486956926091273
 40
1.0
 40
1.0
 40
1.0
 40
1.0
 10
116.977962104162
 20
-15.98762068158336
 30
0.0
 10
116.9773734950314
 20
-15.98727670386678
 30
0.0
 10
116.9758990943785
 20
-15.98641507780027
 30
0.0
 10
116.736091326595
 20
-15.85216949634768
 30
0.0
 10
116.3062734771338
 20
-15.61836978479832
 30
0.0
 10
115.6910484204841
 20
-15.29801203297056
 30
0.0
 10
114.8866287314446
 20
-14.90681702117118
 30
0.0
 10
113.8697857482686
 20
-14.46065727148982
 30
0.0
 10
112.8571240493309
 20
-14.08111144735444
 30
0.0
 10
111.9355360524377
 20
-13.79600406207675
 30
0.0
 10
111.0541835431758
 20
-13.56559783724432
 30
0.0
 10
109.958158722583
 20
-13.35271510634801
 30
0.0
 10
108.6536390462094
 20
-13.22270275497726
 30
0.0
 10
107.3143483923605
 20
-13.22422223237913
 30
0.0
 10
106.0249579380744
 20
-13.35595466507139
 30
0.0
 10
104.7997909178998
 20
-13.59455261313858
 30
0.0
 10
103.7360976727053
 20
-13.88852670874183
 30
0.0
 10
102.7938219333281
 20
-14.20775165420848
 30
0.0
 10
102.2657174872108
 20
-14.41936506393142
 30
0.0
 10
101.9999999999948
 20
-14.52583904631538
 30
0.0
  0
SPLINE
  5
210
330
1F
100
AcDbEntity
  8
SK3
  6
SLD-Dashed
370
    18
100
AcDbSpline
210
0.0
220
0.0
230
1.0
 70
     8
 71
     3
 72
    30
 73
    26
 74
     0
 42
0.000000001
 43
0.00000001
 40
0.0
 40
0.0
 40
0.0
 40
0.0
 40
0.0475803919917218
 40
0.0966591393461138
 40
0.144212317948474
 40
0.1929801550904119
 40
0.2439680637607787
 40
0.2961707002366919
 40
0.3522345269785624
 40
0.381079967542075
 40
0.4101913239511206
 40
0.4542403853418838
 40
0.4995341240380136
 40
0.5436039743661356
 40
0.5889691329873759
 40
0.6331589440102557
 40
0.6783181894402576
 40
0.7293722210033579
 40
0.7816320391343796
 40
0.8378729652648118
 40
0.866827343511211
 40
0.8960474596424407
 40
0.9481954529908667
 40
0.9751375434216172
 40
1.0
 40
1.0
 40
1.0
 40
1.0
 10
144.9999999999949
 20
-15.99999999998144
 30
0.0
 10
144.9795965073193
 20
-15.98847793631741
 30
0.0
 10
144.9381469950493
 20
-15.96507096738255
 30
0.0
 10
144.6073853277964
 20
-15.78116624808032
 30
0.0
 10
144.0923465205533
 20
-15.50484355681078
 30
0.0
 10
143.3870238181954
 20
-15.14620069675653
 30
0.0
 10
142.4903636818763
 20
-14.72624034544427
 30
0.0
 10
141.3869192172496
 20
-14.26915118400589
 30
0.0
 10
140.3038716415174
 20
-13.89830377255474
 30
0.0
 10
139.3304472365995
 20
-13.63492528962475
 30
0.0
 10
138.4194820619973
 20
-13.43615078564032
 30
0.0
 10
137.3114771839624
 20
-13.27327345534385
 30
0.0
 10
136.0246814095317
 20
-13.20744812106549
 30
0.0
 10
134.7249215898699
 20
-13.2696074179228
 30
0.0
 10
133.4730481100915
 20
-13.44994578118955
 30
0.0
 10
132.2794967290878
 20
-13.72721144432856
 30
0.0
 10
131.1268701696097
 20
-14.08435895758003
 30
0.0
 10
130.0272707320958
 20
-14.50361159587754
 30
0.0
 10
129.0007722909553
 20
-14.95826672894562
 30
0.0
 10
128.2732866927424
 20
-15.31725764241151
 30
0.0
 10
127.7867653374045
 20
-15.5701470827076
 30
0.0
 10
127.4001489897509
 20
-15.77725227573759
 30
0.0
 10
127.1448793009154
 20
-15.91873909754271
 30
0.0
 10
127.0164567252468
 20
-15.99072955603965
 30
0.0
 10
127.0071654237459
 20
-15.99596608539201
 30
0.0
 10
127.0027062672923
 20
-15.99847924284942
 30
0.0
  0
SPLINE
  5
211
330
1F
100
AcDbEntity
  8
SK3
  6
SLD-Dashed
370
    18
100
AcDbSpline
210
0.0
220
0.0
230
1.0
 70
     8
 71
     3
 72
    28
 73
    24
 74
     0
 42
0.000000001
 43
0.00000001
 40
0.500000000000002
 40
0.500000000000002
 40
0.500000000000002
 40
0.500000000000002
 40
0.5625000000000017
 40
0.5625000000000017
 40
0.6250000000000013
 40
0.6250000000000013
 40
0.6562500000000013
 40
0.6562500000000013
 40
0.6875000000000012
 40
0.6875000000000012
 40
0.7500000000000011
 40
0.7500000000000011
 40
0.7812500000000011
 40
0.7812500000000011
 40
0.8125000000000011
 40
0.8125000000000011
 40
0.8437500000000011
 40
0.8437500000000011
 40
0.8750000000000011
 40
0.8750000000000011
 40
0.9375000000000007
 40
0.9375000000000007
 40
1.0
 40
1.0
 40
1.0
 40
1.0
 10
11.10063994677772
 20
9.179805819705136
 30
0.0
 10
10.88511437826825
 20
9.179764731078517
 30
0.0
 10
10.66767832081876
 20
9.20126512292447
 30
0.0
 10
10.27039433374753
 20
9.280173808064236
 30
0.0
 10
10.08661083741964
 20
9.338138102846443
 30
0.0
 10
9.858251824686025
 20
9.440065379806315
 30
0.0
 10
9.788576404990257
 20
9.477149305158452
 30
0.0
 10
9.668865269254923
 20
9.553080163044104
 30
0.0
 10
9.618080695444453
 20
9.592168311290665
 30
0.0
 10
9.493376272655492
 20
9.711752477283794
 30
0.0
 10
9.450181111458011
 20
9.791639621509377
 30
0.0
 10
9.449910292357325
 20
9.903567596435028
 30
0.0
 10
9.460525364944752
 20
9.93868264375513
 30
0.0
 10
9.502361606435251
 20
10.00486157884361
 30
0.0
 10
9.534127008594073
 20
10.03623086510928
 30
0.0
 10
9.616761891656529
 20
10.09321537097385
 30
0.0
 10
9.667357839890714
 20
10.11892320032905
 30
0.0
 10
9.787049538608954
 20
10.16555473396256
 30
0.0
 10
9.856502934081787
 20
10.18644292145533
 30
0.0
 10
10.08415986245242
 20
10.2404873687227
 30
0.0
 10
10.26789811615395
 20
10.26651718042251
 30
0.0
 10
10.66470419067458
 20
10.3002248792451
 30
0.0
 10
10.88162329216495
 20
10.30847223167889
 30
0.0
 10
11.1
 20
10.30847223167888
 30
0.0
  0
SPLINE
  5
212
330
1F
100
AcDbEntity
  8
SK3
  6
SLD-Dashed
370
    18
100
AcDbSpline
210
0.0
220
0.0
230
1.0
 70
     8
 71
     3
 72
    32
 73
    28
 74
     0
 42
0.000000001
 43
0.00000001
 40
0.0
 40
0.0
 40
0.0
 40
0.0
 40
0.0312500000000002
 40
0.0312500000000002
 40
0.0625000000000005
 40
0.0625000000000005
 40
0.0937500000000007
 40
0.0937500000000007
 40
0.1250000000000009
 40
0.1250000000000009
 40
0.1875000000000014
 40
0.1875000000000014
 40
0.2500000000000019
 40
0.2500000000000019
 40
0.281250000000002
 40
0.281250000000002
 40
0.3125000000000021
 40
0.3125000000000021
 40
0.3750000000000024
 40
0.3750000000000024
 40
0.4062500000000023
 40
0.4062500000000023
 40
0.4375000000000022
 40
0.4375000000000022
 40
0.4687500000000021
 40
0.4687500000000021
 40
0.500000000000002
 40
0.500000000000002
 40
0.500000000000002
 40
0.500000000000002
 10
11.1
 20
10.30847223167888
 30
0.0
 10
11.20918835391753
 20
10.30847223167888
 30
0.0
 10
11.31651771305064
 20
10.30642167162257
 30
0.0
 10
11.52762120394278
 20
10.2982103075458
 30
0.0
 10
11.63250189121384
 20
10.29194428668544
 30
0.0
 10
11.83223206661288
 20
10.27502374362114
 30
0.0
 10
11.92693470175493
 20
10.26444756624655
 30
0.0
 10
12.10616276605221
 20
10.23832625336567
 30
0.0
 10
12.19088967371722
 20
10.22264232876808
 30
0.0
 10
12.41879001739921
 20
10.16862580338099
 30
0.0
 10
12.54167185323995
 20
10.12171939803713
 30
0.0
 10
12.70636644254863
 20
10.00846559837552
 30
0.0
 10
12.74987701797389
 20
9.940762454420792
 30
0.0
 10
12.75006109004667
 20
9.830188859982664
 30
0.0
 10
12.73931049884443
 20
9.79113104931665
 30
0.0
 10
12.69714619983564
 20
9.712601504592834
 30
0.0
 10
12.66595101562508
 20
9.672920129814667
 30
0.0
 10
12.54179369836861
 20
9.553356030122167
 30
0.0
 10
12.42075253795669
 20
9.47548083456614
 30
0.0
 10
12.19025712142205
 20
9.372372874597787
 30
0.0
 10
12.10711918455322
 20
9.341110472901606
 30
0.0
 10
11.92862050550958
 20
9.28545275449008
 30
0.0
 10
11.83208682777022
 20
9.26085136728607
 30
0.0
 10
11.6324788650929
 20
9.221112207445598
 30
0.0
 10
11.52963804660005
 20
9.205875681199474
 30
0.0
 10
11.31787187764578
 20
9.185172446042555
 30
0.0
 10
11.20840273103245
 20
9.179826364018442
 30
0.0
 10
11.10063994677772
 20
9.179805819705136
 30
0.0
  0
SPLINE
  5
213
330
1F
100
AcDbEntity
  8
SK3
  6
SLD-Dashed
370
    18
100
AcDbSpline
210
0.0
220
0.0
230
1.0
 70
     8
 71
     3
 72
    28
 73
    24
 74
     0
 42
0.000000001
 43
0.00000001
 40
0.4999999999999973
 40
0.4999999999999973
 40
0.4999999999999973
 40
0.4999999999999973
 40
0.5624999999999976
 40
0.5624999999999976
 40
0.6249999999999979
 40
0.6249999999999979
 40
0.656249999999998
 40
0.656249999999998
 40
0.6874999999999982
 40
0.6874999999999982
 40
0.7499999999999986
 40
0.7499999999999986
 40
0.7812499999999989
 40
0.7812499999999989
 40
0.8124999999999992
 40
0.8124999999999992
 40
0.8437499999999996
 40
0.8437499999999996
 40
0.8749999999999998
 40
0.8749999999999998
 40
0.9375
 40
0.9375
 40
1.0
 40
1.0
 40
1.0
 40
1.0
 10
11.09936005322232
 20
-10.30847220779006
 30
0.0
 10
11.31488562173177
 20
-10.30848829867284
 30
0.0
 10
11.53232167918125
 20
-10.30038291810946
 30
0.0
 10
11.92960566625248
 20
-10.26682253963408
 30
0.0
 10
12.11338916258038
 20
-10.24091814244865
 30
0.0
 10
12.34174817531397
 20
-10.18693216715288
 30
0.0
 10
12.41142359500975
 20
-10.16604649126495
 30
0.0
 10
12.53113473074509
 20
-10.119611011627
 30
0.0
 10
12.58191930455554
 20
-10.09396314355891
 30
0.0
 10
12.70662372734453
 20
-10.00844657689386
 30
0.0
 10
12.74981888854201
 20
-9.941757957492637
 30
0.0
 10
12.7500897076427
 20
-9.829909964458706
 30
0.0
 10
12.73947463505526
 20
-9.791631368429504
 30
0.0
 10
12.69763839356475
 20
-9.713326598996659
 30
0.0
 10
12.66587299140594
 20
-9.672843473092142
 30
0.0
 10
12.58323810834347
 20
-9.593268717647874
 30
0.0
 10
12.53264216010931
 20
-9.554155622927107
 30
0.0
 10
12.41295046139107
 20
-9.478001434160644
 30
0.0
 10
12.34349706591822
 20
-9.440948896913381
 30
0.0
 10
12.11584013754759
 20
-9.33903025446612
 30
0.0
 10
11.93210188384607
 20
-9.280862582071121
 30
0.0
 10
11.53529580932543
 20
-9.201665512708319
 30
0.0
 10
11.31837670783506
 20
-9.17980575870419
 30
0.0
 10
11.10000000000003
 20
-9.17980575870419
 30
0.0
  0
SPLINE
  5
214
330
1F
100
AcDbEntity
  8
SK3
  6
SLD-Dashed
370
    18
100
AcDbSpline
210
0.0
220
0.0
230
1.0
 70
     8
 71
     3
 72
    32
 73
    28
 74
     0
 42
0.000000001
 43
0.00000001
 40
0.0
 40
0.0
 40
0.0
 40
0.0
 40
0.0312499999999997
 40
0.0312499999999997
 40
0.0624999999999995
 40
0.0624999999999995
 40
0.0937499999999992
 40
0.0937499999999992
 40
0.124999999999999
 40
0.124999999999999
 40
0.1874999999999985
 40
0.1874999999999985
 40
0.249999999999998
 40
0.249999999999998
 40
0.2812499999999979
 40
0.2812499999999979
 40
0.3124999999999978
 40
0.3124999999999978
 40
0.3749999999999978
 40
0.3749999999999978
 40
0.4062499999999978
 40
0.4062499999999978
 40
0.4374999999999976
 40
0.4374999999999976
 40
0.4687499999999975
 40
0.4687499999999975
 40
0.4999999999999973
 40
0.4999999999999973
 40
0.4999999999999973
 40
0.4999999999999973
 10
11.10000000000003
 20
-9.179805758704175
 30
0.0
 10
10.99081164608251
 20
-9.179805758704175
 30
0.0
 10
10.88348228694939
 20
-9.185095698610867
 30
0.0
 10
10.67237879605727
 20
-9.205623744994124
 30
0.0
 10
10.5674981087862
 20
-9.221113825588787
 30
0.0
 10
10.36776793338715
 20
-9.260883250848769
 30
0.0
 10
10.27306529824512
 20
-9.284980824838092
 30
0.0
 10
10.09383723394783
 20
-9.340759316938202
 30
0.0
 10
10.00911032628285
 20
-9.372667784685532
 30
0.0
 10
9.781209982600819
 20
-9.474579092729835
 30
0.0
 10
9.658328146760084
 20
-9.553409324848278
 30
0.0
 10
9.493633557451378
 20
-9.711670879081016
 30
0.0
 10
9.450122982026118
 20
-9.792652292130256
 30
0.0
 10
9.449938909953353
 20
-9.903280249185894
 30
0.0
 10
9.460689501155583
 20
-9.93913418952256
 30
0.0
 10
9.502853800164413
 20
-10.00544523446509
 30
0.0
 10
9.534048984374946
 20
-10.03617560862041
 30
0.0
 10
9.658206301631417
 20
-10.12179808298891
 30
0.0
 10
9.779247462043353
 20
-10.16814285650722
 30
0.0
 10
10.00974287857796
 20
-10.22280113190017
 30
0.0
 10
10.09288081544681
 20
-10.23815463549886
 30
0.0
 10
10.27137949449045
 20
-10.26423362425846
 30
0.0
 10
10.36791317222979
 20
-10.27503749928639
 30
0.0
 10
10.56752113490711
 20
-10.29194478470052
 30
0.0
 10
10.67036195339996
 20
-10.29810859820632
 30
0.0
 10
10.88212812235424
 20
-10.3063918904809
 30
0.0
 10
10.99159726896758
 20
-10.30846416234867
 30
0.0
 10
11.09936005322232
 20
-10.30847220779006
 30
0.0
  0
SPLINE
  5
215
330
1F
100
AcDbEntity
  8
SK3
  6
SLD-Dashed
370
    18
100
AcDbSpline
210
0.0
220
0.0
230
1.0
 70
     8
 71
     3
 72
    26
 73
    22
 74
     0
 42
0.000000001
 43
0.00000001
 40
0.4999999999999966
 40
0.4999999999999966
 40
0.4999999999999966
 40
0.4999999999999966
 40
0.562499999999997
 40
0.562499999999997
 40
0.6249999999999974
 40
0.6249999999999974
 40
0.6562499999999976
 40
0.6562499999999976
 40
0.6874999999999977
 40
0.6874999999999977
 40
0.7187499999999978
 40
0.7187499999999978
 40
0.7499999999999979
 40
0.7499999999999979
 40
0.8124999999999984
 40
0.8124999999999984
 40
0.874999999999999
 40
0.874999999999999
 40
0.9374999999999996
 40
0.9374999999999996
 40
1.0
 40
1.0
 40
1.0
 40
1.0
 10
11.61369831779573
 20
-31.4345898707158
 30
0.0
 10
11.77817915771352
 20
-31.24188044205917
 30
0.0
 10
11.92581782962324
 20
-31.03685188148985
 30
0.0
 10
12.20116299685256
 20
-30.612748315972
 30
0.0
 10
12.32736515469927
 20
-30.39519355739397
 30
0.0
 10
12.49374661426345
 20
-30.07622175565615
 30
0.0
 10
12.54551953396262
 20
-29.97060073968973
 30
0.0
 10
12.63570184098393
 20
-29.77106749702011
 30
0.0
 10
12.67501796005851
 20
-29.67499650261715
 30
0.0
 10
12.73124339139554
 20
-29.51032620686441
 30
0.0
 10
12.74823165300573
 20
-29.44066325535373
 30
0.0
 10
12.75149462889749
 20
-29.34900523743123
 30
0.0
 10
12.73778670669284
 20
-29.32611922066647
 30
0.0
 10
12.66016730486988
 20
-29.32323598341124
 30
0.0
 10
12.56496305158957
 20
-29.40123698033912
 30
0.0
 10
12.34815603453726
 20
-29.60831074976816
 30
0.0
 10
12.22247178673941
 20
-29.74170837524677
 30
0.0
 10
11.9517673751945
 20
-30.02581575846276
 30
0.0
 10
11.80602686354768
 20
-30.17801440915275
 30
0.0
 10
11.48008373269932
 20
-30.49009299414069
 30
0.0
 10
11.30247339457478
 20
-30.64765783726654
 30
0.0
 10
11.1
 20
-30.7963073928415
 30
0.0
  0
SPLINE
  5
216
330
1F
100
AcDbEntity
  8
SK3
  6
SLD-Dashed
370
    18
100
AcDbSpline
210
0.0
220
0.0
230
1.0
 70
     8
 71
     3
 72
    34
 73
    30
 74
     0
 42
0.000000001
 43
0.00000001
 40
0.0
 40
0.0
 40
0.0
 40
0.0
 40
0.0312499999999994
 40
0.0312499999999994
 40
0.0624999999999989
 40
0.0624999999999989
 40
0.0937499999999987
 40
0.0937499999999987
 40
0.1249999999999985
 40
0.1249999999999985
 40
0.1562499999999983
 40
0.1562499999999983
 40
0.1874999999999981
 40
0.1874999999999981
 40
0.2187499999999979
 40
0.2187499999999979
 40
0.2499999999999977
 40
0.2499999999999977
 40
0.2812499999999975
 40
0.2812499999999975
 40
0.3124999999999973
 40
0.3124999999999973
 40
0.374999999999997
 40
0.374999999999997
 40
0.4062499999999969
 40
0.4062499999999969
 40
0.4374999999999968
 40
0.4374999999999968
 40
0.4999999999999966
 40
0.4999999999999966
 40
0.4999999999999966
 40
0.4999999999999966
 10
11.09999999999999
 20
-30.79630739284149
 30
0.0
 10
10.99876330271262
 20
-30.87063217062897
 30
0.0
 10
10.89375434041333
 20
-30.94070300792381
 30
0.0
 10
10.67482193729477
 20
-31.07119838641707
 30
0.0
 10
10.56065504429782
 20
-31.1313821694254
 30
0.0
 10
10.33933306908851
 20
-31.23715807591855
 30
0.0
 10
10.22886240054302
 20
-31.28453388313674
 30
0.0
 10
10.0249875386661
 20
-31.37006423452739
 30
0.0
 10
9.930887873020975
 20
-31.40873992690081
 30
0.0
 10
9.764076352163546
 20
-31.48458944888354
 30
0.0
 10
9.693022202672056
 20
-31.52097848016948
 30
0.0
 10
9.575536001433154
 20
-31.59682321304021
 30
0.0
 10
9.530159683901195
 20
-31.63579611308831
 30
0.0
 10
9.468538953914292
 20
-31.71660035162584
 30
0.0
 10
9.451799814585936
 20
-31.75936243922392
 30
0.0
 10
9.448480888754673
 20
-31.84615790545502
 30
0.0
 10
9.461354225371807
 20
-31.89031367314395
 30
0.0
 10
9.516906609790457
 20
-31.97923784772517
 30
0.0
 10
9.5589391259038
 20
-32.02273028574064
 30
0.0
 10
9.66936138573959
 20
-32.10339534755476
 30
0.0
 10
9.73904698691735
 20
-32.1411258991319
 30
0.0
 10
9.978991200491777
 20
-32.23127384232362
 30
0.0
 10
10.18777179464265
 20
-32.26201965489406
 30
0.0
 10
10.5194699112901
 20
-32.21184508840296
 30
0.0
 10
10.6342589859006
 20
-32.17877958661838
 30
0.0
 10
10.85434718809658
 20
-32.08439532349009
 30
0.0
 10
10.96264418607855
 20
-32.02210819728818
 30
0.0
 10
11.26710738731387
 20
-31.80803424741536
 30
0.0
 10
11.44921747787793
 20
-31.62729929937244
 30
0.0
 10
11.61369831779573
 20
-31.4345898707158
 30
0.0
  0
SPLINE
  5
217
330
1F
100
AcDbEntity
  8
SK3
  6
SLD-Dashed
370
    18
100
AcDbSpline
210
0.0
220
0.0
230
1.0
 70
     8
 71
     3
 72
    30
 73
    26
 74
     0
 42
0.000000001
 43
0.00000001
 40
0.5000000000000041
 40
0.5000000000000041
 40
0.5000000000000041
 40
0.5000000000000041
 40
0.562500000000004
 40
0.562500000000004
 40
0.6250000000000039
 40
0.6250000000000039
 40
0.6875000000000038
 40
0.6875000000000038
 40
0.7500000000000036
 40
0.7500000000000036
 40
0.7812500000000031
 40
0.7812500000000031
 40
0.8125000000000027
 40
0.8125000000000027
 40
0.8437500000000022
 40
0.8437500000000022
 40
0.8750000000000018
 40
0.8750000000000018
 40
0.9062500000000013
 40
0.9062500000000013
 40
0.9375000000000009
 40
0.9375000000000009
 40
0.9687500000000004
 40
0.9687500000000004
 40
1.0
 40
1.0
 40
1.0
 40
1.0
 10
9.577846279599914
 20
-37.24120742422244
 30
0.0
 10
9.661456538693963
 20
-37.04732193407149
 30
0.0
 10
9.772407143448
 20
-36.82949961594638
 30
0.0
 10
10.01510223607221
 20
-36.40195297995441
 30
0.0
 10
10.15071106347551
 20
-36.18529430665033
 30
0.0
 10
10.44343928875974
 20
-35.77313558508322
 30
0.0
 10
10.60055865364917
 20
-35.57611205358849
 30
0.0
 10
10.9564547378086
 20
-35.21646585199332
 30
0.0
 10
11.15657682258685
 20
-35.0552103494276
 30
0.0
 10
11.4830100282578
 20
-34.89264004797298
 30
0.0
 10
11.59373162334221
 20
-34.85273617911091
 30
0.0
 10
11.81720113938134
 20
-34.80331404734677
 30
0.0
 10
11.92912269444717
 20
-34.79453219017278
 30
0.0
 10
12.13607863552178
 20
-34.8040727577157
 30
0.0
 10
12.23401625186758
 20
-34.8222505955072
 30
0.0
 10
12.40552677631537
 20
-34.87497885884255
 30
0.0
 10
12.48093330594186
 20
-34.90980545355292
 30
0.0
 10
12.60500303324973
 20
-34.98743096943383
 30
0.0
 10
12.65341410243625
 20
-35.02976292790711
 30
0.0
 10
12.72289370637353
 20
-35.11771287342228
 30
0.0
 10
12.74310124630632
 20
-35.16265331441311
 30
0.0
 10
12.75391027826543
 20
-35.25020228545146
 30
0.0
 10
12.74440813581847
 20
-35.29376589109363
 30
0.0
 10
12.69629905847908
 20
-35.37645939524521
 30
0.0
 10
12.65801625646425
 20
-35.4158661888506
 30
0.0
 10
12.60540931107557
 20
-35.45448854251146
 30
0.0
  0
SPLINE
  5
218
330
1F
100
AcDbEntity
  8
SK3
  6
SLD-Dashed
370
    18
100
AcDbSpline
210
0.0
220
0.0
230
1.0
 70
     8
 71
     3
 72
    30
 73
    26
 74
     0
 42
0.000000001
 43
0.00000001
 40
0.0
 40
0.0
 40
0.0
 40
0.0
 40
0.0312500000000004
 40
0.0312500000000004
 40
0.0625000000000009
 40
0.0625000000000009
 40
0.0937500000000013
 40
0.0937500000000013
 40
0.1250000000000017
 40
0.1250000000000017
 40
0.1875000000000018
 40
0.1875000000000018
 40
0.2500000000000018
 40
0.2500000000000018
 40
0.3125000000000019
 40
0.3125000000000019
 40
0.3750000000000019
 40
0.3750000000000019
 40
0.4062500000000024
 40
0.4062500000000024
 40
0.437500000000003
 40
0.437500000000003
 40
0.4687500000000036
 40
0.4687500000000036
 40
0.5000000000000041
 40
0.5000000000000041
 40
0.5000000000000041
 40
0.5000000000000041
 10
12.60540931107558
 20
-35.45448854251144
 30
0.0
 10
12.55280236568689
 20
-35.49311089617228
 30
0.0
 10
12.48767206459291
 20
-35.52967124864374
 30
0.0
 10
12.33321503903328
 20
-35.60414285727778
 30
0.0
 10
12.24300655859496
 20
-35.64228604935727
 30
0.0
 10
12.04843499093603
 20
-35.72363874632415
 30
0.0
 10
11.94143370486041
 20
-35.76810195203305
 30
0.0
 10
11.72073264298186
 20
-35.86892523422526
 30
0.0
 10
11.60906552497734
 20
-35.92444386929752
 30
0.0
 10
11.27451801742667
 20
-36.11292799046566
 30
0.0
 10
11.06698428069931
 20
-36.2613043351557
 30
0.0
 10
10.69717844091629
 20
-36.56863401342731
 30
0.0
 10
10.53344908096578
 20
-36.72602022479928
 30
0.0
 10
10.2282495888269
 20
-37.03385397932785
 30
0.0
 10
10.09076882260293
 20
-37.18076931607559
 30
0.0
 10
9.837525619365142
 20
-37.4449422246733
 30
0.0
 10
9.721260896401866
 20
-37.56350654995141
 30
0.0
 10
9.580692660850321
 20
-37.67737553473783
 30
0.0
 10
9.540421636405991
 20
-37.70381257003226
 30
0.0
 10
9.478286004234517
 20
-37.72124948638341
 30
0.0
 10
9.457363995141272
 20
-37.71106233410285
 30
0.0
 10
9.445908412243742
 20
-37.6407545121811
 30
0.0
 10
9.455664817462726
 20
-37.58170627378448
 30
0.0
 10
9.50095150568976
 20
-37.42989632190254
 30
0.0
 10
9.536041150052881
 20
-37.33815016929792
 30
0.0
 10
9.577846279599914
 20
-37.24120742422244
 30
0.0
  0
INSERT
  5
219
330
1F
100
AcDbEntity
  8
80
100
AcDbBlockReference
  2
Block12
 10
-61.7273641656
 20
-130.3356800267
 30
0.0
  0
INSERT
  5
21A
330
1F
100
AcDbEntity
  8
81
100
AcDbBlockReference
  2
Block11
 10
68.3735173495
 20
-130.2676275275
 30
0.0
  0
DIMENSION
  5
21B
330
1F
100
AcDbEntity
  8
SK2
100
AcDbDimension
  2
_D
 10
37.9999999933
 20
60.6727131861
 30
0.0
 11
19.6462996242
 21
60.6727131861
 31
0.0
 70
   160
  1
<>
 71
     2
 42
-1.0
  3
SLDDIMSTYLE0
100
AcDbAlignedDimension
 13
0.0
 23
34.925
 33
0.0
 14
37.9999999933
 24
49.2286823296
 34
0.0
100
AcDbRotatedDimension
  0
DIMENSION
  5
227
330
1F
100
AcDbEntity
  8
SK2
100
AcDbDimension
  2
_D_1
 10
160.0
 20
60.6727131861
 30
0.0
 11
97.4297784848
 21
60.6727131861
 31
0.0
 70
   160
  1
<>
 71
     2
 42
-1.0
  3
SLDDIMSTYLE0
100
AcDbAlignedDimension
 13
37.9999999933
 23
49.2286823296
 33
0.0
 14
160.0
 24
29.0717967697
 34
0.0
 50
0.0
100
AcDbRotatedDimension
  0
DIMENSION
  5
231
330
1F
100
AcDbEntity
  8
2
100
AcDbDimension
  2
_D_2
 10
160.0
 20
73.6004064806
 30
0.0
 11
77.4666022274
 21
73.6004064806
 31
0.0
 70
   160
  1
<>
 71
     2
 42
-1.0
  3
SLDDIMSTYLE0
100
AcDbAlignedDimension
 13
0.0
 23
34.925
 33
0.0
 14
160.0
 24
29.0717967697
 34
0.0
100
AcDbRotatedDimension
  0
DIMENSION
  5
23B
330
1F
100
AcDbEntity
  8
SK2
100
AcDbDimension
  2
_D_3
 10
148.0
 20
48.0804698217
 30
0.0
 11
153.6148003224
 21
48.0804698217
 31
0.0
 70
   160
  1
<>
 71
     2
 42
-1.0
  3
SLDDIMSTYLE0
100
AcDbAlignedDimension
 13
160.0
 23
29.0717967697
 33
0.0
 14
148.0
 24
36.0
 34
0.0
100
AcDbRotatedDimension
  0
DIMENSION
  5
245
330
1F
100
AcDbEntity
  8
SK2
100
AcDbDimension
  2
_D_4
 10
199.994832105
 20
-36.0
 30
0.0
 11
199.994832105
 21
-0.7449887554
 31
0.0
 70
   160
  1
%%c<>
 71
     2
 42
-1.0
  3
SLDDIMSTYLE0
100
AcDbAlignedDimension
 13
148.0
 23
36.0
 33
0.0
 14
148.0
 24
-36.0
 34
0.0
 50
90.0
100
AcDbRotatedDimension
  0
DIMENSION
  5
250
330
1F
100
AcDbEntity
  8
SK2
100
AcDbDimension
  2
_D_5
 10
188.0087965172
 20
-29.0717967697
 30
0.0
 11
188.0087965172
 21
-0.7449887554
 31
0.0
 70
   160
  1
%%c<>
 71
     2
 42
-1.0
  3
SLDDIMSTYLE0
100
AcDbAlignedDimension
 13
160.0
 23
29.0717967697
 33
0.0
 14
160.0
 24
-29.0717967697
 34
0.0
 50
90.0
100
AcDbRotatedDimension
  0
DIMENSION
  5
25B
330
1F
100
AcDbEntity
  8
SK2
100
AcDbDimension
  2
_D_6
 10
177.5820270641
 20
16.0
 30
0.0
 11
177.5820270641
 21
-0.7449887554
 31
0.0
 70
   160
  1
%%c<>
 71
     2
 42
-1.0
  3
SLDDIMSTYLE0
100
AcDbAlignedDimension
 13
159.0
 23
-16.0
 33
0.0
 14
159.0
 24
16.0
 34
0.0
 50
90.0
100
AcDbRotatedDimension
  0
DIMENSION
  5
266
330
1F
100
AcDbEntity
  8
SK2
100
AcDbDimension
  2
_D_7
 10
136.0
 20
-47.323854293
 30
0.0
 11
148.4904093443
 21
-47.323854293
 31
0.0
 70
   160
  1
<>
 71
     2
 42
-1.0
  3
SLDDIMSTYLE0
100
AcDbAlignedDimension
 13
160.0
 23
-29.0717967697
 33
0.0
 14
136.0
 24
-35.8
 34
0.0
100
AcDbRotatedDimension
  0
DIMENSION
  5
270
330
1F
100
AcDbEntity
  8
SK2
100
AcDbDimension
  2
_D_8
 10
108.0
 20
-47.323854293
 30
0.0
 11
121.2035972813
 21
-47.323854293
 31
0.0
 70
   160
  1
<>
 71
     2
 42
-1.0
  3
SLDDIMSTYLE0
100
AcDbAlignedDimension
 13
136.0
 23
-35.8
 33
0.0
 14
108.0
 24
-35.8
 34
0.0
 50
0.0
100
AcDbRotatedDimension
  0
DIMENSION
  5
27A
330
1F
100
AcDbEntity
  8
SK2
100
AcDbDimension
  2
_D_9
 10
102.0
 20
-57.6793163458
 30
0.0
 11
130.2326432698
 21
-57.6793163458
 31
0.0
 70
   160
  1
<>
 71
     2
 42
-1.0
  3
SLDDIMSTYLE0
100
AcDbAlignedDimension
 13
160.0
 23
-29.0717967697
 33
0.0
 14
102.0
 24
-14.5258390463
 34
0.0
100
AcDbRotatedDimension
  0
DIMENSION
  5
284
330
1F
100
AcDbEntity
  8
SK2
100
AcDbDimension
  2
_D_10
 10
-132.3995179545
 20
-49.978682327
 30
0.0
 11
-132.3995179545
 21
-0.3236458552
 31
0.0
 70
   160
  1
%%c<>
 71
     2
 42
-1.0
  3
SLDDIMSTYLE0
100
AcDbAlignedDimension
 13
3.75
 23
49.978682327
 33
0.0
 14
3.75
 24
-49.978682327
 34
0.0
 50
90.0
100
AcDbRotatedDimension
  0
DIMENSION
  5
28F
330
1F
100
AcDbEntity
  8
SK2
100
AcDbDimension
  2
_D_11
 10
-121.394751458
 20
34.925
 30
0.0
 11
-121.394751458
 21
-0.3236458552
 31
0.0
 70
   160
  1
%%c<>
 71
     2
 42
-1.0
  3
SLDDIMSTYLE0
100
AcDbAlignedDimension
 13
0.0
 23
-34.925
 33
0.0
 14
0.0
 24
34.925
 34
0.0
 50
90.0
100
AcDbRotatedDimension
  0
DIMENSION
  5
29A
330
1F
100
AcDbEntity
  8
SK2
100
AcDbDimension
  2
_D_12
 10
-111.0718504022
 20
12.0
 30
0.0
 11
-111.0718504022
 21
0.7297113954
 31
0.0
 70
   160
  1
M<>
 71
     2
 42
-1.0
  3
SLDDIMSTYLE0
100
AcDbAlignedDimension
 13
-88.1169872981
 23
-12.0
 33
0.0
 14
-88.1169872981
 24
12.0
 34
0.0
 50
90.0
100
AcDbRotatedDimension
  0
MTEXT
  5
2A5
330
1F
100
AcDbEntity
  8
SK6
 62
     5
100
AcDbMText
 10
-34.7456470647
 20
44.2321366382
 30
0.0
 40
3.5
 41
0.0
 71
     1
 72
     1
  1
MAS-403 BT50
  7
SLDTEXTSTYLE0
 73
     1
 44
1.0
  0
MTEXT
  5
2A6
330
1F
100
AcDbEntity
  8
SK6
 62
     5
100
AcDbMText
 10
-101.6474289072
 20
-54.1932736791
 30
0.0
 40
3.5
 41
0.0
 71
     1
 72
     1
  1
A2B20-50 32 160
  7
SLDTEXTSTYLE0
 73
     1
 44
1.0
  0
ENDSEC
  0
SECTION
  2
OBJECTS
  0
DICTIONARY
  5
C
330
0
100
AcDbDictionary
281
     1
  3
ACAD_GROUP
350
D
  3
ACAD_LAYOUT
350
1A
  3
ACAD_MLINESTYLE
350
17
  3
ACAD_PLOTSETTINGS
350
19
  3
ACAD_PLOTSTYLENAME
350
E
  3
ACAD_SCALELIST
350
47
  0
DICTIONARY
  5
D
102
{ACAD_REACTORS
330
C
102
}
330
C
100
AcDbDictionary
281
     1
  0
DICTIONARY
  5
1A
102
{ACAD_REACTORS
330
C
102
}
330
C
100
AcDbDictionary
281
     1
  3
Layout1
350
1E
  3
Layout2
350
26
  3
Model
350
22
  0
DICTIONARY
  5
17
102
{ACAD_REACTORS
330
C
102
}
330
C
100
AcDbDictionary
281
     1
  3
Standard
350
18
  0
DICTIONARY
  5
19
102
{ACAD_REACTORS
330
C
102
}
330
C
100
AcDbDictionary
281
     1
  0
ACDBDICTIONARYWDFLT
  5
E
102
{ACAD_REACTORS
330
C
102
}
330
C
100
AcDbDictionary
281
     1
  3
Normal
350
F
100
AcDbDictionaryWithDefault
340
F
  0
DICTIONARY
  5
47
102
{ACAD_REACTORS
330
C
102
}
330
C
100
AcDbDictionary
281
     1
  3
A0
350
48
  3
A1
350
49
  3
A2
350
4A
  3
A3
350
4B
  3
A4
350
4C
  3
A5
350
4D
  3
A6
350
4E
  3
A7
350
4F
  3
A8
350
50
  3
A9
350
51
  3
B0
350
52
  3
B1
350
53
  3
B2
350
54
  3
B3
350
55
  3
B4
350
56
  3
B5
350
57
  3
B6
350
58
  3
B7
350
59
  3
B8
350
5A
  3
B9
350
5B
  3
C0
350
5C
  3
C1
350
5D
  3
C2
350
5E
  3
C3
350
5F
  3
C4
350
60
  3
C5
350
61
  3
C6
350
62
  3
C7
350
63
  3
C8
350
64
  3
C9
350
65
  3
D0
350
66
  3
D1
350
67
  3
D2
350
68
  0
LAYOUT
  5
1E
102
{ACAD_REACTORS
330
1A
102
}
330
1A
100
AcDbPlotSettings
  1

  2
none_device
  4

  6

 40
0.0
 41
0.0
 42
0.0
 43
0.0
 44
0.0
 45
0.0
 46
0.0
 47
0.0
 48
0.0
 49
0.0
140
0.0
141
0.0
142
1.0
143
1.0
 70
   688
 72
     1
 73
     0
 74
     5
  7

 75
    16
147
1.0
148
0.0
149
0.0
100
AcDbLayout
  1
Layout1
 70
     1
 71
     1
 10
0.0
 20
0.0
 11
420.0
 21
297.0
 12
0.0
 22
0.0
 32
0.0
 14
1.0000000000E+20
 24
1.0000000000E+20
 34
1.0000000000E+20
 15
-1.0000000000E+20
 25
-1.0000000000E+20
 35
-1.0000000000E+20
146
0.0
 13
0.0
 23
0.0
 33
0.0
 16
1.0
 26
0.0
 36
0.0
 17
0.0
 27
1.0
 37
0.0
 76
     0
330
1B
  0
LAYOUT
  5
26
102
{ACAD_REACTORS
330
1A
102
}
330
1A
100
AcDbPlotSettings
  1

  2
none_device
  4

  6

 40
0.0
 41
0.0
 42
0.0
 43
0.0
 44
0.0
 45
0.0
 46
0.0
 47
0.0
 48
0.0
 49
0.0
140
0.0
141
0.0
142
1.0
143
1.0
 70
   688
 72
     1
 73
     0
 74
     5
  7

 75
    16
147
1.0
148
0.0
149
0.0
100
AcDbLayout
  1
Layout2
 70
     1
 71
     2
 10
0.0
 20
0.0
 11
0.0
 21
0.0
 12
0.0
 22
0.0
 32
0.0
 14
0.0
 24
0.0
 34
0.0
 15
0.0
 25
0.0
 35
0.0
146
0.0
 13
0.0
 23
0.0
 33
0.0
 16
1.0
 26
0.0
 36
0.0
 17
0.0
 27
1.0
 37
0.0
 76
     0
330
23
  0
LAYOUT
  5
22
102
{ACAD_REACTORS
330
1A
102
}
330
1A
100
AcDbPlotSettings
  1

  2
none_device
  4
Letter_(8.50_x_11.00_Inches)
  6

 40
6.35
 41
6.35
 42
6.35000508
 43
6.35000508
 44
215.9
 45
279.4
 46
0.0
 47
0.0
 48
0.0
 49
0.0
140
0.0
141
0.0
142
1.0
143
1.0
 70
  1712
 72
     1
 73
     0
 74
     0
  7

 75
     0
147
1.0
148
0.0
149
0.0
100
AcDbLayout
  1
Model
 70
     1
 71
     0
 10
0.0
 20
0.0
 11
297.0
 21
210.0
 12
0.0
 22
0.0
 32
0.0
 14
0.0
 24
0.0
 34
0.0
 15
297.0
 25
210.0
 35
0.0
146
0.0
 13
0.0
 23
0.0
 33
0.0
 16
1.0
 26
0.0
 36
0.0
 17
0.0
 27
1.0
 37
0.0
 76
     0
330
1F
331
29
  0
MLINESTYLE
  5
18
102
{ACAD_REACTORS
330
17
102
}
330
17
100
AcDbMlineStyle
  2
Standard
 70
     0
  3

 62
   256
 51
90.0
 52
90.0
 71
     2
 49
0.5
 62
   256
  6
BYLAYER
 49
-0.5
 62
   256
  6
BYLAYER
  0
ACDBPLACEHOLDER
  5
F
102
{ACAD_REACTORS
330
E
102
}
330
E
  0
SCALE
  5
48
102
{ACAD_REACTORS
330
47
102
}
330
47
100
AcDbScale
 70
     0
300
1:1
140
1.0
141
1.0
290
     1
  0
SCALE
  5
49
102
{ACAD_REACTORS
330
47
102
}
330
47
100
AcDbScale
 70
     0
300
1:2
140
1.0
141
2.0
290
     0
  0
SCALE
  5
4A
102
{ACAD_REACTORS
330
47
102
}
330
47
100
AcDbScale
 70
     0
300
1:4
140
1.0
141
4.0
290
     0
  0
SCALE
  5
4B
102
{ACAD_REACTORS
330
47
102
}
330
47
100
AcDbScale
 70
     0
300
1:5
140
1.0
141
5.0
290
     0
  0
SCALE
  5
4C
102
{ACAD_REACTORS
330
47
102
}
330
47
100
AcDbScale
 70
     0
300
1:8
140
1.0
141
8.0
290
     0
  0
SCALE
  5
4D
102
{ACAD_REACTORS
330
47
102
}
330
47
100
AcDbScale
 70
     0
300
1:10
140
1.0
141
10.0
290
     0
  0
SCALE
  5
4E
102
{ACAD_REACTORS
330
47
102
}
330
47
100
AcDbScale
 70
     0
300
1:16
140
1.0
141
16.0
290
     0
  0
SCALE
  5
4F
102
{ACAD_REACTORS
330
47
102
}
330
47
100
AcDbScale
 70
     0
300
1:20
140
1.0
141
20.0
290
     0
  0
SCALE
  5
50
102
{ACAD_REACTORS
330
47
102
}
330
47
100
AcDbScale
 70
     0
300
1:30
140
1.0
141
30.0
290
     0
  0
SCALE
  5
51
102
{ACAD_REACTORS
330
47
102
}
330
47
100
AcDbScale
 70
     0
300
1:40
140
1.0
141
40.0
290
     0
  0
SCALE
  5
52
102
{ACAD_REACTORS
330
47
102
}
330
47
100
AcDbScale
 70
     0
300
1:50
140
1.0
141
50.0
290
     0
  0
SCALE
  5
53
102
{ACAD_REACTORS
330
47
102
}
330
47
100
AcDbScale
 70
     0
300
1:100
140
1.0
141
100.0
290
     0
  0
SCALE
  5
54
102
{ACAD_REACTORS
330
47
102
}
330
47
100
AcDbScale
 70
     0
300
2:1
140
2.0
141
1.0
290
     0
  0
SCALE
  5
55
102
{ACAD_REACTORS
330
47
102
}
330
47
100
AcDbScale
 70
     0
300
4:1
140
4.0
141
1.0
290
     0
  0
SCALE
  5
56
102
{ACAD_REACTORS
330
47
102
}
330
47
100
AcDbScale
 70
     0
300
8:1
140
8.0
141
1.0
290
     0
  0
SCALE
  5
57
102
{ACAD_REACTORS
330
47
102
}
330
47
100
AcDbScale
 70
     0
300
10:1
140
10.0
141
1.0
290
     0
  0
SCALE
  5
58
102
{ACAD_REACTORS
330
47
102
}
330
47
100
AcDbScale
 70
     0
300
100:1
140
100.0
141
1.0
290
     0
  0
SCALE
  5
59
102
{ACAD_REACTORS
330
47
102
}
330
47
100
AcDbScale
 70
     0
300
1/128" = 1'-0"
140
0.0078125
141
12.0
290
     0
  0
SCALE
  5
5A
102
{ACAD_REACTORS
330
47
102
}
330
47
100
AcDbScale
 70
     0
300
1/64" = 1'-0"
140
0.015625
141
12.0
290
     0
  0
SCALE
  5
5B
102
{ACAD_REACTORS
330
47
102
}
330
47
100
AcDbScale
 70
     0
300
1/32" = 1'-0"
140
0.03125
141
12.0
290
     0
  0
SCALE
  5
5C
102
{ACAD_REACTORS
330
47
102
}
330
47
100
AcDbScale
 70
     0
300
1/16" = 1'-0"
140
0.0625
141
12.0
290
     0
  0
SCALE
  5
5D
102
{ACAD_REACTORS
330
47
102
}
330
47
100
AcDbScale
 70
     0
300
3/32" = 1'-0"
140
0.09375
141
12.0
290
     0
  0
SCALE
  5
5E
102
{ACAD_REACTORS
330
47
102
}
330
47
100
AcDbScale
 70
     0
300
1/8" = 1'-0"
140
0.125
141
12.0
290
     0
  0
SCALE
  5
5F
102
{ACAD_REACTORS
330
47
102
}
330
47
100
AcDbScale
 70
     0
300
3/16" = 1'-0"
140
0.1875
141
12.0
290
     0
  0
SCALE
  5
60
102
{ACAD_REACTORS
330
47
102
}
330
47
100
AcDbScale
 70
     0
300
1/4" = 1'-0"
140
0.25
141
12.0
290
     0
  0
SCALE
  5
61
102
{ACAD_REACTORS
330
47
102
}
330
47
100
AcDbScale
 70
     0
300
3/8" = 1'-0"
140
0.375
141
12.0
290
     0
  0
SCALE
  5
62
102
{ACAD_REACTORS
330
47
102
}
330
47
100
AcDbScale
 70
     0
300
1/2" = 1'-0"
140
0.5
141
12.0
290
     0
  0
SCALE
  5
63
102
{ACAD_REACTORS
330
47
102
}
330
47
100
AcDbScale
 70
     0
300
3/4" = 1'-0"
140
0.75
141
12.0
290
     0
  0
SCALE
  5
64
102
{ACAD_REACTORS
330
47
102
}
330
47
100
AcDbScale
 70
     0
300
1" = 1'-0"
140
1.0
141
12.0
290
     0
  0
SCALE
  5
65
102
{ACAD_REACTORS
330
47
102
}
330
47
100
AcDbScale
 70
     0
300
1-1/2" = 1'-0"
140
1.5
141
12.0
290
     0
  0
SCALE
  5
66
102
{ACAD_REACTORS
330
47
102
}
330
47
100
AcDbScale
 70
     0
300
3" = 1'-0"
140
3.0
141
12.0
290
     0
  0
SCALE
  5
67
102
{ACAD_REACTORS
330
47
102
}
330
47
100
AcDbScale
 70
     0
300
6" = 1'-0"
140
6.0
141
12.0
290
     0
  0
SCALE
  5
68
102
{ACAD_REACTORS
330
47
102
}
330
47
100
AcDbScale
 70
     0
300
1'-0" = 1'-0"
140
12.0
141
12.0
290
     0
  0
ENDSEC
  0
EOF
