  0
SECTION
  2
HEADER
  9
$ACADVER
  1
AC1015
  9
$ACADMAINTVER
 70
     6
  9
$DWGCODEPAGE
  3
ANSI_1250
  9
$INSBASE
 10
0.0
 20
0.0
 30
0.0
  9
$EXTMIN
 10
0.0
 20
0.0
 30
0.0
  9
$EXTMAX
 10
297.0
 20
210.0
 30
0.0
  9
$LIMMIN
 10
0.0
 20
0.0
  9
$LIMMAX
 10
297.0
 20
210.0
  9
$ORTHOMODE
 70
     0
  9
$REGENMODE
 70
     1
  9
$FILLMODE
 70
     1
  9
$QTEXTMODE
 70
     0
  9
$MIRRTEXT
 70
     1
  9
$LTSCALE
 40
1.0
  9
$ATTMODE
 70
     1
  9
$TEXTSIZE
 40
3.5
  9
$TRACEWID
 40
1.0
  9
$TEXTSTYLE
  7
Standard
  9
$CLAYER
  8
0
  9
$CELTYPE
  6
ByLayer
  9
$CECOLOR
 62
   256
  9
$CELTSCALE
 40
1.0
  9
$DISPSILH
 70
     0
  9
$DIMSCALE
 40
1.0
  9
$DIMASZ
 40
3.302
  9
$DIMEXO
 40
1.0
  9
$DIMDLI
 40
3.75
  9
$DIMRND
 40
0.0
  9
$DIMDLE
 40
0.0
  9
$DIMEXE
 40
1.0
  9
$DIMTP
 40
0.0
  9
$DIMTM
 40
0.0
  9
$DIMTXT
 40
3.5
  9
$DIMCEN
 40
2.5
  9
$DIMTSZ
 40
0.0
  9
$DIMTOL
 70
     0
  9
$DIMLIM
 70
     0
  9
$DIMTIH
 70
     1
  9
$DIMTOH
 70
     1
  9
$DIMSE1
 70
     0
  9
$DIMSE2
 70
     0
  9
$DIMTAD
 70
     1
  9
$DIMZIN
 70
     0
  9
$DIMBLK
  1

  9
$DIMASO
 70
     1
  9
$DIMSHO
 70
     1
  9
$DIMPOST
  1

  9
$DIMAPOST
  1

  9
$DIMALT
 70
     0
  9
$DIMALTD
 70
     3
  9
$DIMALTF
 40
0.0393700787
  9
$DIMLFAC
 40
1.0
  9
$DIMTOFL
 70
     1
  9
$DIMTVP
 40
0.0
  9
$DIMTIX
 70
     0
  9
$DIMSOXD
 70
     0
  9
$DIMSAH
 70
     0
  9
$DIMBLK1
  1

  9
$DIMBLK2
  1

  9
$DIMSTYLE
  2
ISO-25
  9
$DIMCLRD
 70
     0
  9
$DIMCLRE
 70
     0
  9
$DIMCLRT
 70
     0
  9
$DIMTFAC
 40
1.0
  9
$DIMGAP
 40
1.524
  9
$DIMJUST
 70
     0
  9
$DIMSD1
 70
     0
  9
$DIMSD2
 70
     0
  9
$DIMTOLJ
 70
     0
  9
$DIMTZIN
 70
     0
  9
$DIMALTZ
 70
     0
  9
$DIMALTTZ
 70
     0
  9
$DIMUPT
 70
     0
  9
$DIMDEC
 70
     2
  9
$DIMTDEC
 70
     2
  9
$DIMALTU
 70
     2
  9
$DIMALTTD
 70
     3
  9
$DIMTXSTY
  7
Standard
  9
$DIMAUNIT
 70
     0
  9
$DIMADEC
 70
     2
  9
$DIMALTRND
 40
0.0
  9
$DIMAZIN
 70
     0
  9
$DIMDSEP
 70
    44
  9
$DIMATFIT
 70
     3
  9
$DIMFRAC
 70
     0
  9
$DIMLDRBLK
  1

  9
$DIMLUNIT
 70
     2
  9
$DIMLWD
 70
    -2
  9
$DIMLWE
 70
    -2
  9
$DIMTMOVE
 70
     0
  9
$LUNITS
 70
     2
  9
$LUPREC
 70
     2
  9
$SKETCHINC
 40
1.0
  9
$FILLETRAD
 40
10.0
  9
$AUNITS
 70
     0
  9
$AUPREC
 70
     2
  9
$MENU
  1
.
  9
$ELEVATION
 40
0.0
  9
$PELEVATION
 40
0.0
  9
$THICKNESS
 40
0.0
  9
$LIMCHECK
 70
     0
  9
$CHAMFERA
 40
0.0
  9
$CHAMFERB
 40
0.0
  9
$CHAMFERC
 40
0.0
  9
$CHAMFERD
 40
0.0
  9
$SKPOLY
 70
     0
  9
$TDCREATE
 40
2459290.478814526
  9
$TDUCREATE
 40
2459290.437147859
  9
$TDUPDATE
 40
2459290.478815683
  9
$TDUUPDATE
 40
2459290.437149016
  9
$TDINDWG
 40
0.0000000116
  9
$TDUSRTIMER
 40
0.0000000116
  9
$USRTIMER
 70
     1
  9
$ANGBASE
 50
0.0
  9
$ANGDIR
 70
     0
  9
$PDMODE
 70
     0
  9
$PDSIZE
 40
-1.0
  9
$PLINEWID
 40
0.0
  9
$SPLFRAME
 70
     0
  9
$SPLINETYPE
 70
     6
  9
$SPLINESEGS
 70
     8
  9
$HANDSEED
  5
30C
  9
$SURFTAB1
 70
     6
  9
$SURFTAB2
 70
     6
  9
$SURFTYPE
 70
     6
  9
$SURFU
 70
     6
  9
$SURFV
 70
     6
  9
$UCSBASE
  2

  9
$UCSNAME
  2

  9
$UCSORG
 10
0.0
 20
0.0
 30
0.0
  9
$UCSXDIR
 10
1.0
 20
0.0
 30
0.0
  9
$UCSYDIR
 10
0.0
 20
1.0
 30
0.0
  9
$UCSORTHOREF
  2

  9
$UCSORTHOVIEW
 70
     0
  9
$UCSORGTOP
 10
0.0
 20
0.0
 30
0.0
  9
$UCSORGBOTTOM
 10
0.0
 20
0.0
 30
0.0
  9
$UCSORGLEFT
 10
0.0
 20
0.0
 30
0.0
  9
$UCSORGRIGHT
 10
0.0
 20
0.0
 30
0.0
  9
$UCSORGFRONT
 10
0.0
 20
0.0
 30
0.0
  9
$UCSORGBACK
 10
0.0
 20
0.0
 30
0.0
  9
$PUCSBASE
  2

  9
$PUCSNAME
  2

  9
$PUCSORG
 10
0.0
 20
0.0
 30
0.0
  9
$PUCSXDIR
 10
1.0
 20
0.0
 30
0.0
  9
$PUCSYDIR
 10
0.0
 20
1.0
 30
0.0
  9
$PUCSORTHOREF
  2

  9
$PUCSORTHOVIEW
 70
     0
  9
$PUCSORGTOP
 10
0.0
 20
0.0
 30
0.0
  9
$PUCSORGBOTTOM
 10
0.0
 20
0.0
 30
0.0
  9
$PUCSORGLEFT
 10
0.0
 20
0.0
 30
0.0
  9
$PUCSORGRIGHT
 10
0.0
 20
0.0
 30
0.0
  9
$PUCSORGFRONT
 10
0.0
 20
0.0
 30
0.0
  9
$PUCSORGBACK
 10
0.0
 20
0.0
 30
0.0
  9
$USERI1
 70
     0
  9
$USERI2
 70
     0
  9
$USERI3
 70
     0
  9
$USERI4
 70
     0
  9
$USERI5
 70
     0
  9
$USERR1
 40
0.0
  9
$USERR2
 40
0.0
  9
$USERR3
 40
0.0
  9
$USERR4
 40
0.0
  9
$USERR5
 40
0.0
  9
$WORLDVIEW
 70
     1
  9
$SHADEDGE
 70
     3
  9
$SHADEDIF
 70
    70
  9
$TILEMODE
 70
     1
  9
$MAXACTVP
 70
    64
  9
$PINSBASE
 10
0.0
 20
0.0
 30
0.0
  9
$PLIMCHECK
 70
     0
  9
$PEXTMIN
 10
1.0000000000E+20
 20
1.0000000000E+20
 30
1.0000000000E+20
  9
$PEXTMAX
 10
-1.0000000000E+20
 20
-1.0000000000E+20
 30
-1.0000000000E+20
  9
$PLIMMIN
 10
0.0
 20
0.0
  9
$PLIMMAX
 10
420.0
 20
297.0
  9
$UNITMODE
 70
     0
  9
$VISRETAIN
 70
     1
  9
$PLINEGEN
 70
     0
  9
$PSLTSCALE
 70
     1
  9
$TREEDEPTH
 70
  3020
  9
$CMLSTYLE
  2
Standard
  9
$CMLJUST
 70
     0
  9
$CMLSCALE
 40
20.0
  9
$PROXYGRAPHICS
 70
     1
  9
$MEASUREMENT
 70
     1
  9
$CELWEIGHT
370
    -1
  9
$ENDCAPS
280
     0
  9
$JOINSTYLE
280
     0
  9
$LWDISPLAY
290
     1
  9
$INSUNITS
 70
     4
  9
$HYPERLINKBASE
  1

  9
$STYLESHEET
  1

  9
$XEDIT
290
     1
  9
$CEPSNTYPE
380
     0
  9
$PSTYLEMODE
290
     1
  9
$FINGERPRINTGUID
  2
{553BF686-E19F-426F-931A-41E729EA465A}
  9
$VERSIONGUID
  2
{FAEB1C32-E019-11D5-929B-00C0DF256EC4}
  9
$EXTNAMES
290
     1
  9
$PSVPSCALE
 40
0.0
  9
$OLESTARTUP
290
     0
  0
ENDSEC
  0
SECTION
  2
CLASSES
  0
CLASS
  1
ACDBDICTIONARYWDFLT
  2
AcDbDictionaryWithDefault
  3
ObjectDBX Classes
 90
        0
280
     0
281
     0
  0
CLASS
  1
VISUALSTYLE
  2
AcDbVisualStyle
  3
ObjectDBX Classes
 90
     4095
280
     0
281
     0
  0
CLASS
  1
MATERIAL
  2
AcDbMaterial
  3
ObjectDBX Classes
 90
     1153
280
     0
281
     0
  0
CLASS
  1
SCALE
  2
AcDbScale
  3
ObjectDBX Classes
 90
     1153
280
     0
281
     0
  0
CLASS
  1
TABLESTYLE
  2
AcDbTableStyle
  3
ObjectDBX Classes
 90
     4095
280
     0
281
     0
  0
CLASS
  1
MLEADERSTYLE
  2
AcDbMLeaderStyle
  3
ACDB_MLEADERSTYLE_CLASS
 90
     4095
280
     0
281
     0
  0
CLASS
  1
SUN
  2
AcDbSun
  3
SCENEOE
 90
     1153
280
     0
281
     0
  0
CLASS
  1
ACDBPLACEHOLDER
  2
AcDbPlaceHolder
  3
ObjectDBX Classes
 90
        0
280
     0
281
     0
  0
CLASS
  1
LAYOUT
  2
AcDbLayout
  3
ObjectDBX Classes
 90
        0
280
     0
281
     0
  0
ENDSEC
  0
SECTION
  2
TABLES
  0
TABLE
  2
VPORT
  5
8
330
0
100
AcDbSymbolTable
 70
     1
  0
VPORT
  5
29
330
8
100
AcDbSymbolTableRecord
100
AcDbViewportTableRecord
  2
*Active
 70
     0
 10
0.0
 20
0.0
 11
1.0
 21
1.0
 12
148.5
 22
105.0
 13
0.0
 23
0.0
 14
10.0
 24
10.0
 15
10.0
 25
10.0
 16
0.0
 26
0.0
 36
1.0
 17
0.0
 27
0.0
 37
0.0
 40
210.0
 41
1.4142857143
 42
50.0
 43
0.0
 44
0.0
 50
0.0
 51
0.0
 71
     0
 72
  2000
 73
     1
 74
     3
 75
     0
 76
     0
 77
     0
 78
     0
281
     0
 65
     1
110
0.0
120
0.0
130
0.0
111
1.0
121
0.0
131
0.0
112
0.0
122
1.0
132
0.0
 79
     0
146
0.0
  0
ENDTAB
  0
TABLE
  2
LTYPE
  5
5
330
0
100
AcDbSymbolTable
 70
     8
  0
LTYPE
  5
14
330
5
100
AcDbSymbolTableRecord
100
AcDbLinetypeTableRecord
  2
ByBlock
 70
     0
  3

 72
    65
 73
     0
 40
0.0
  0
LTYPE
  5
15
330
5
100
AcDbSymbolTableRecord
100
AcDbLinetypeTableRecord
  2
ByLayer
 70
     0
  3

 72
    65
 73
     0
 40
0.0
  0
LTYPE
  5
16
330
5
100
AcDbSymbolTableRecord
100
AcDbLinetypeTableRecord
  2
Continuous
 70
     0
  3
Solid line
 72
    65
 73
     0
 40
0.0
  0
LTYPE
  5
6E
330
5
100
AcDbSymbolTableRecord
100
AcDbLinetypeTableRecord
  2
SLD-Solid
 70
     0
  3
SolidWorks Line Style
 72
    65
 73
     0
 40
0.0
  0
LTYPE
  5
6F
330
5
100
AcDbSymbolTableRecord
100
AcDbLinetypeTableRecord
  2
SLD-Dashed
 70
     0
  3
SolidWorks Line Style
 72
    65
 73
     2
 40
1.905
 49
1.27
 74
     0
 49
-0.635
 74
     0
  0
LTYPE
  5
70
330
5
100
AcDbSymbolTableRecord
100
AcDbLinetypeTableRecord
  2
SLD-Phantom
 70
     0
  3
SolidWorks Line Style
 72
    65
 73
     6
 40
12.7
 49
6.35
 74
     0
 49
-1.27
 74
     0
 49
1.27
 74
     0
 49
-1.27
 74
     0
 49
1.27
 74
     0
 49
-1.27
 74
     0
  0
LTYPE
  5
71
330
5
100
AcDbSymbolTableRecord
100
AcDbLinetypeTableRecord
  2
SLD-Chain
 70
     0
  3
SolidWorks Line Style
 72
    65
 73
     4
 40
10.16
 49
6.35
 74
     0
 49
-1.27
 74
     0
 49
1.27
 74
     0
 49
-1.27
 74
     0
  0
LTYPE
  5
72
330
5
100
AcDbSymbolTableRecord
100
AcDbLinetypeTableRecord
  2
SLD-Center
 70
     0
  3
SolidWorks Line Style
 72
    65
 73
     4
 40
19.05
 49
15.24
 74
     0
 49
-1.27
 74
     0
 49
1.27
 74
     0
 49
-1.27
 74
     0
  0
LTYPE
  5
73
330
5
100
AcDbSymbolTableRecord
100
AcDbLinetypeTableRecord
  2
SLD-Stitch
 70
     0
  3
SolidWorks Line Style
 72
    65
 73
     2
 40
0.635
 49
0.0
 74
     0
 49
-0.635
 74
     0
  0
LTYPE
  5
74
330
5
100
AcDbSymbolTableRecord
100
AcDbLinetypeTableRecord
  2
SLD-Thin-Thick-Chain
 70
     0
  3
SolidWorks Line Style
 72
    65
 73
     4
 40
10.16
 49
6.35
 74
     0
 49
-1.27
 74
     0
 49
1.27
 74
     0
 49
-1.27
 74
     0
  0
ENDTAB
  0
TABLE
  2
LAYER
  5
2
330
0
100
AcDbSymbolTable
 70
    12
  0
LAYER
  5
10
330
2
100
AcDbSymbolTableRecord
100
AcDbLayerTableRecord
  2
0
 70
     0
 62
     7
  6
Continuous
370
    -3
390
F
  0
LAYER
  5
75
330
2
100
AcDbSymbolTableRecord
100
AcDbLayerTableRecord
  2
SLD-0
 70
     0
 62
   179
  6
SLD-Solid
370
    -3
390
F
  0
LAYER
  5
76
330
2
100
AcDbSymbolTableRecord
100
AcDbLayerTableRecord
  2
80
 70
     0
 62
    -6
  6
SLD-Solid
290
     0
370
    -3
390
F
  0
LAYER
  5
77
330
2
100
AcDbSymbolTableRecord
100
AcDbLayerTableRecord
  2
81
 70
     0
 62
    -3
  6
SLD-Solid
290
     0
370
    -3
390
F
  0
LAYER
  5
78
330
2
100
AcDbSymbolTableRecord
100
AcDbLayerTableRecord
  2
1
 70
     0
 62
     4
  6
SLD-Solid
290
     0
370
    -3
390
F
  0
LAYER
  5
79
330
2
100
AcDbSymbolTableRecord
100
AcDbLayerTableRecord
  2
4
 70
     0
 62
    -2
  6
SLD-Chain
290
     0
370
    -3
390
F
  0
LAYER
  5
7A
330
2
100
AcDbSymbolTableRecord
100
AcDbLayerTableRecord
  2
2
 70
     0
 62
     7
  6
SLD-Solid
290
     0
370
    -3
390
F
  0
LAYER
  5
7B
330
2
100
AcDbSymbolTableRecord
100
AcDbLayerTableRecord
  2
SK3
 70
     0
 62
     1
  6
SLD-Dashed
290
     0
370
    -3
390
F
  0
LAYER
  5
7C
330
2
100
AcDbSymbolTableRecord
100
AcDbLayerTableRecord
  2
SK4
 70
     0
 62
     2
  6
SLD-Chain
290
     0
370
    -3
390
F
  0
LAYER
  5
7D
330
2
100
AcDbSymbolTableRecord
100
AcDbLayerTableRecord
  2
SK2
 70
     0
 62
     7
  6
SLD-Solid
290
     0
370
    -3
390
F
  0
LAYER
  5
7E
330
2
100
AcDbSymbolTableRecord
100
AcDbLayerTableRecord
  2
SK6
 70
     0
 62
     5
  6
SLD-Solid
290
     0
370
    -3
390
F
  0
LAYER
  5
7F
330
2
100
AcDbSymbolTableRecord
100
AcDbLayerTableRecord
  2
SK1
 70
     0
 62
     4
  6
SLD-Solid
370
    -3
390
F
  0
ENDTAB
  0
TABLE
  2
STYLE
  5
3
330
0
100
AcDbSymbolTable
 70
     2
  0
STYLE
  5
11
330
3
100
AcDbSymbolTableRecord
100
AcDbTextStyleTableRecord
  2
Standard
 70
     0
 40
0.0
 41
1.0
 50
0.0
 71
     0
 42
3.5
  3
txt
  4

  0
STYLE
  5
28A
330
3
100
AcDbSymbolTableRecord
100
AcDbTextStyleTableRecord
  2
SLDTEXTSTYLE0
 70
     0
 40
0.0
 41
0.75
 50
0.0
 71
     0
 42
3.5
  3
TXT
  4

  0
ENDTAB
  0
TABLE
  2
VIEW
  5
6
330
0
100
AcDbSymbolTable
 70
     0
  0
ENDTAB
  0
TABLE
  2
UCS
  5
7
330
0
100
AcDbSymbolTable
 70
     0
  0
ENDTAB
  0
TABLE
  2
APPID
  5
9
330
0
100
AcDbSymbolTable
 70
     1
  0
APPID
  5
12
330
9
100
AcDbSymbolTableRecord
100
AcDbRegAppTableRecord
  2
ACAD
 70
     0
  0
ENDTAB
  0
TABLE
  2
DIMSTYLE
  5
A
330
0
100
AcDbSymbolTable
 70
     3
100
AcDbDimStyleTable
  0
DIMSTYLE
105
27
330
A
100
AcDbSymbolTableRecord
100
AcDbDimStyleTableRecord
  2
ISO-25
 70
     0
 41
2.5
 42
0.625
 43
3.75
 44
1.25
 73
     0
 74
     0
 77
     1
 78
     8
140
2.5
141
2.5
143
0.0393700787
147
0.625
171
     3
172
     1
178
     0
271
     2
272
     2
274
     3
278
    44
283
     0
284
     8
340
11
  0
DIMSTYLE
105
28B
102
{ACAD_REACTORS
330
289
330
295
330
29F
330
2A9
330
2B3
330
2CA
330
2D5
330
2DF
330
2E9
330
2F4
330
2FF
102
}
330
A
100
AcDbSymbolTableRecord
100
AcDbDimStyleTableRecord
  2
SLDDIMSTYLE0
 70
     0
 41
3.302
 44
0.0
 45
0.000000001
 73
     0
 74
     0
 77
     1
 78
    12
 79
     3
140
3.5
147
0.875
173
     1
178
     0
271
     2
272
     2
276
     2
284
    12
340
28A
  0
DIMSTYLE
105
2BF
102
{ACAD_REACTORS
330
2BE
102
}
330
A
100
AcDbSymbolTableRecord
100
AcDbDimStyleTableRecord
  2
SLDDIMSTYLE1
 70
     0
 41
3.302
 44
0.0
 45
0.000000001
 73
     0
 74
     0
 77
     1
 78
    12
 79
     3
140
3.5
147
0.875
173
     1
178
     0
271
     1
272
     2
276
     2
284
    12
340
28A
  0
ENDTAB
  0
TABLE
  2
BLOCK_RECORD
  5
1
330
0
100
AcDbSymbolTable
 70
    15
  0
BLOCK_RECORD
  5
1F
330
1
100
AcDbSymbolTableRecord
100
AcDbBlockTableRecord
  2
*Model_Space
340
22
  0
BLOCK_RECORD
  5
1B
330
1
100
AcDbSymbolTableRecord
100
AcDbBlockTableRecord
  2
*Paper_Space
340
1E
  0
BLOCK_RECORD
  5
23
330
1
100
AcDbSymbolTableRecord
100
AcDbBlockTableRecord
  2
*Paper_Space0
340
26
  0
BLOCK_RECORD
  5
80
330
1
100
AcDbSymbolTableRecord
100
AcDbBlockTableRecord
  2
Block11
340
0
102
{BLKREFS
331
287
102
}
  0
BLOCK_RECORD
  5
89
330
1
100
AcDbSymbolTableRecord
100
AcDbBlockTableRecord
  2
Block12
340
0
102
{BLKREFS
331
288
102
}
  0
BLOCK_RECORD
  5
28C
330
1
100
AcDbSymbolTableRecord
100
AcDbBlockTableRecord
  2
_D
340
0
  0
BLOCK_RECORD
  5
296
330
1
100
AcDbSymbolTableRecord
100
AcDbBlockTableRecord
  2
_D_1
340
0
  0
BLOCK_RECORD
  5
2A0
330
1
100
AcDbSymbolTableRecord
100
AcDbBlockTableRecord
  2
_D_2
340
0
  0
BLOCK_RECORD
  5
2AA
330
1
100
AcDbSymbolTableRecord
100
AcDbBlockTableRecord
  2
_D_3
340
0
  0
BLOCK_RECORD
  5
2B4
330
1
100
AcDbSymbolTableRecord
100
AcDbBlockTableRecord
  2
_D_4
340
0
  0
BLOCK_RECORD
  5
2C0
330
1
100
AcDbSymbolTableRecord
100
AcDbBlockTableRecord
  2
_D_5
340
0
  0
BLOCK_RECORD
  5
2CB
330
1
100
AcDbSymbolTableRecord
100
AcDbBlockTableRecord
  2
_D_6
340
0
  0
BLOCK_RECORD
  5
2D6
330
1
100
AcDbSymbolTableRecord
100
AcDbBlockTableRecord
  2
_D_7
340
0
  0
BLOCK_RECORD
  5
2E0
330
1
100
AcDbSymbolTableRecord
100
AcDbBlockTableRecord
  2
_D_8
340
0
  0
BLOCK_RECORD
  5
2EA
330
1
100
AcDbSymbolTableRecord
100
AcDbBlockTableRecord
  2
_D_9
340
0
  0
BLOCK_RECORD
  5
2F5
330
1
100
AcDbSymbolTableRecord
100
AcDbBlockTableRecord
  2
_D_10
340
0
  0
BLOCK_RECORD
  5
300
330
1
100
AcDbSymbolTableRecord
100
AcDbBlockTableRecord
  2
_D_11
340
0
  0
ENDTAB
  0
ENDSEC
  0
SECTION
  2
BLOCKS
  0
BLOCK
  5
20
330
1F
100
AcDbEntity
  8
0
100
AcDbBlockBegin
  2
*Model_Space
 70
     0
 10
0.0
 20
0.0
 30
0.0
  3
*Model_Space
  1

  0
ENDBLK
  5
21
330
1F
100
AcDbEntity
  8
0
100
AcDbBlockEnd
  0
BLOCK
  5
1C
330
1B
100
AcDbEntity
 67
     1
  8
0
100
AcDbBlockBegin
  2
*Paper_Space
 70
     0
 10
0.0
 20
0.0
 30
0.0
  3
*Paper_Space
  1

  0
ENDBLK
  5
1D
330
1B
100
AcDbEntity
 67
     1
  8
0
100
AcDbBlockEnd
  0
BLOCK
  5
24
330
23
100
AcDbEntity
  8
0
100
AcDbBlockBegin
  2
*Paper_Space0
 70
     0
 10
0.0
 20
0.0
 30
0.0
  3
*Paper_Space0
  1

  0
ENDBLK
  5
25
330
23
100
AcDbEntity
  8
0
100
AcDbBlockEnd
  0
BLOCK
  5
81
330
80
100
AcDbEntity
  8
0
100
AcDbBlockBegin
  2
Block11
 70
     0
 10
0.0
 20
0.0
 30
0.0
  3
Block11
  1

  0
CIRCLE
  5
83
330
80
100
AcDbEntity
  8
81
370
    18
100
AcDbCircle
 10
91.6264826505
 20
130.2676275275
 30
0.0
 40
2.499999999999981
  0
LINE
  5
84
330
80
100
AcDbEntity
  8
81
370
    18
100
AcDbLine
 10
91.6264826505
 20
130.2676275275
 30
0.0
 11
95.1620165565
 21
133.8031614334
 31
0.0
  0
LINE
  5
85
330
80
100
AcDbEntity
  8
81
370
    18
100
AcDbLine
 10
91.6264826505
 20
130.2676275275
 30
0.0
 11
88.0909487446
 21
126.7320936216
 31
0.0
  0
LINE
  5
86
330
80
100
AcDbEntity
  8
81
370
    18
100
AcDbLine
 10
91.6264826505
 20
130.2676275275
 30
0.0
 11
88.0909487446
 21
133.8031614334
 31
0.0
  0
LINE
  5
87
330
80
100
AcDbEntity
  8
81
100
AcDbLine
 10
91.6264826505
 20
130.2676275275
 30
0.0
 11
101.6264826505
 21
130.2676275275
 31
0.0
  0
LINE
  5
88
330
80
100
AcDbEntity
  8
81
370
    18
100
AcDbLine
 10
91.6264826505
 20
130.2676275275
 30
0.0
 11
95.1620165565
 21
126.7320936216
 31
0.0
  0
ENDBLK
  5
82
330
80
100
AcDbEntity
  8
0
100
AcDbBlockEnd
  0
BLOCK
  5
8A
330
89
100
AcDbEntity
  8
0
100
AcDbBlockBegin
  2
Block12
 70
     0
 10
0.0
 20
0.0
 30
0.0
  3
Block12
  1

  0
CIRCLE
  5
8C
330
89
100
AcDbEntity
  8
80
370
    18
100
AcDbCircle
 10
61.7273641656
 20
130.3356800267
 30
0.0
 40
2.500000000000004
  0
LINE
  5
8D
330
89
100
AcDbEntity
  8
80
370
    18
100
AcDbLine
 10
61.7273641656
 20
130.3356800267
 30
0.0
 11
65.2628980715
 21
133.8712139326
 31
0.0
  0
LINE
  5
8E
330
89
100
AcDbEntity
  8
80
370
    18
100
AcDbLine
 10
61.7273641656
 20
130.3356800267
 30
0.0
 11
58.1918302597
 21
126.8001461208
 31
0.0
  0
LINE
  5
8F
330
89
100
AcDbEntity
  8
80
370
    18
100
AcDbLine
 10
61.7273641656
 20
130.3356800267
 30
0.0
 11
58.1918302597
 21
133.8712139326
 31
0.0
  0
LINE
  5
90
330
89
100
AcDbEntity
  8
80
370
    18
100
AcDbLine
 10
61.7273641656
 20
130.3356800267
 30
0.0
 11
51.7273641656
 21
130.3356800267
 31
0.0
  0
LINE
  5
91
330
89
100
AcDbEntity
  8
80
370
    18
100
AcDbLine
 10
61.7273641656
 20
130.3356800267
 30
0.0
 11
65.2628980715
 21
126.8001461208
 31
0.0
  0
ENDBLK
  5
8B
330
89
100
AcDbEntity
  8
0
100
AcDbBlockEnd
  0
BLOCK
  5
28D
330
28C
100
AcDbEntity
  8
0
100
AcDbBlockBegin
  2
_D
 70
     0
 10
0.0
 20
0.0
 30
0.0
  3
_D
  1

  0
SOLID
  5
28F
330
28C
100
AcDbEntity
  8
2
100
AcDbTrace
 10
0.0
 20
51.3929333814
 30
0.0
 11
3.302
 21
50.8849333814
 31
0.0
 12
3.302
 22
51.9009333814
 32
0.0
 13
3.302
 23
51.9009333814
 33
0.0
  0
SOLID
  5
290
330
28C
100
AcDbEntity
  8
2
100
AcDbTrace
 10
63.0
 20
51.3929333814
 30
0.0
 11
59.698
 21
51.9009333814
 31
0.0
 12
59.698
 22
50.8849333814
 32
0.0
 13
59.698
 23
50.8849333814
 33
0.0
  0
LINE
  5
291
330
28C
100
AcDbEntity
  8
2
100
AcDbLine
 10
0.0
 20
23.225
 30
0.0
 11
0.0
 21
52.3929333814
 31
0.0
  0
LINE
  5
292
330
28C
100
AcDbEntity
  8
2
100
AcDbLine
 10
63.0
 20
19.4944465005
 30
0.0
 11
63.0
 21
52.3929333814
 31
0.0
  0
LINE
  5
293
330
28C
100
AcDbEntity
  8
2
100
AcDbLine
 10
0.0
 20
51.3929333814
 30
0.0
 11
63.0
 21
51.3929333814
 31
0.0
  0
MTEXT
  5
294
330
28C
100
AcDbEntity
  8
2
100
AcDbMText
 10
30.193314638
 20
55.904670296
 30
0.0
 40
3.5
 41
0.0
 71
     1
 72
     1
  1
63
  7
SLDTEXTSTYLE0
 73
     1
 44
1.0
  0
ENDBLK
  5
28E
330
28C
100
AcDbEntity
  8
0
100
AcDbBlockEnd
  0
BLOCK
  5
297
330
296
100
AcDbEntity
  8
0
100
AcDbBlockBegin
  2
_D_1
 70
     0
 10
0.0
 20
0.0
 30
0.0
  3
_D_1
  1

  0
SOLID
  5
299
330
296
100
AcDbEntity
  8
SK2
100
AcDbTrace
 10
0.0
 20
42.3789318494
 30
0.0
 11
3.302
 21
41.8709318494
 31
0.0
 12
3.302
 22
42.8869318494
 32
0.0
 13
3.302
 23
42.8869318494
 33
0.0
  0
SOLID
  5
29A
330
296
100
AcDbEntity
  8
SK2
100
AcDbTrace
 10
27.0
 20
42.3789318494
 30
0.0
 11
23.698
 21
42.8869318494
 31
0.0
 12
23.698
 22
41.8709318494
 32
0.0
 13
23.698
 23
41.8709318494
 33
0.0
  0
LINE
  5
29B
330
296
100
AcDbEntity
  8
SK2
100
AcDbLine
 10
0.0
 20
23.225
 30
0.0
 11
0.0
 21
43.3789318494
 31
0.0
  0
LINE
  5
29C
330
296
100
AcDbEntity
  8
SK2
100
AcDbLine
 10
27.0
 20
31.75
 30
0.0
 11
27.0
 21
43.3789318494
 31
0.0
  0
LINE
  5
29D
330
296
100
AcDbEntity
  8
SK2
100
AcDbLine
 10
0.0
 20
42.3789318494
 30
0.0
 11
27.0
 21
42.3789318494
 31
0.0
  0
MTEXT
  5
29E
330
296
100
AcDbEntity
  8
SK2
100
AcDbMText
 10
12.318091261
 20
46.890668764
 30
0.0
 40
3.5
 41
0.0
 71
     1
 72
     1
  1
27
  7
SLDTEXTSTYLE0
 73
     1
 44
1.0
  0
ENDBLK
  5
298
330
296
100
AcDbEntity
  8
0
100
AcDbBlockEnd
  0
BLOCK
  5
2A1
330
2A0
100
AcDbEntity
  8
0
100
AcDbBlockBegin
  2
_D_2
 70
     0
 10
0.0
 20
0.0
 30
0.0
  3
_D_2
  1

  0
SOLID
  5
2A3
330
2A0
100
AcDbEntity
  8
SK2
100
AcDbTrace
 10
27.0
 20
42.3789318494
 30
0.0
 11
30.302
 21
41.8709318494
 31
0.0
 12
30.302
 22
42.8869318494
 32
0.0
 13
30.302
 23
42.8869318494
 33
0.0
  0
SOLID
  5
2A4
330
2A0
100
AcDbEntity
  8
SK2
100
AcDbTrace
 10
63.0
 20
42.3789318494
 30
0.0
 11
59.698
 21
42.8869318494
 31
0.0
 12
59.698
 22
41.8709318494
 32
0.0
 13
59.698
 23
41.8709318494
 33
0.0
  0
LINE
  5
2A5
330
2A0
100
AcDbEntity
  8
SK2
100
AcDbLine
 10
27.0
 20
31.75
 30
0.0
 11
27.0
 21
43.3789318494
 31
0.0
  0
LINE
  5
2A6
330
2A0
100
AcDbEntity
  8
SK2
100
AcDbLine
 10
63.0
 20
19.4944465005
 30
0.0
 11
63.0
 21
43.3789318494
 31
0.0
  0
LINE
  5
2A7
330
2A0
100
AcDbEntity
  8
SK2
100
AcDbLine
 10
27.0
 20
42.3789318494
 30
0.0
 11
63.0
 21
42.3789318494
 31
0.0
  0
MTEXT
  5
2A8
330
2A0
100
AcDbEntity
  8
SK2
100
AcDbMText
 10
42.1101302226
 20
46.890668764
 30
0.0
 40
3.5
 41
0.0
 71
     1
 72
     1
  1
36
  7
SLDTEXTSTYLE0
 73
     1
 44
1.0
  0
ENDBLK
  5
2A2
330
2A0
100
AcDbEntity
  8
0
100
AcDbBlockEnd
  0
BLOCK
  5
2AB
330
2AA
100
AcDbEntity
  8
0
100
AcDbBlockBegin
  2
_D_3
 70
     0
 10
0.0
 20
0.0
 30
0.0
  3
_D_3
  1

  0
SOLID
  5
2AD
330
2AA
100
AcDbEntity
  8
SK2
100
AcDbTrace
 10
63.0
 20
32.9065912565
 30
0.0
 11
59.698
 21
33.4145912565
 31
0.0
 12
59.698
 22
32.3985912565
 32
0.0
 13
59.698
 23
32.3985912565
 33
0.0
  0
SOLID
  5
2AE
330
2AA
100
AcDbEntity
  8
SK2
100
AcDbTrace
 10
50.0
 20
32.9065912565
 30
0.0
 11
53.302
 21
32.3985912565
 31
0.0
 12
53.302
 22
33.4145912565
 32
0.0
 13
53.302
 23
33.4145912565
 33
0.0
  0
LINE
  5
2AF
330
2AA
100
AcDbEntity
  8
SK2
100
AcDbLine
 10
63.0
 20
19.4944465005
 30
0.0
 11
63.0
 21
33.9065912565
 31
0.0
  0
LINE
  5
2B0
330
2AA
100
AcDbEntity
  8
SK2
100
AcDbLine
 10
50.0
 20
27.0
 30
0.0
 11
50.0
 21
33.9065912565
 31
0.0
  0
LINE
  5
2B1
330
2AA
100
AcDbEntity
  8
SK2
100
AcDbLine
 10
63.0
 20
32.9065912565
 30
0.0
 11
50.0
 21
32.9065912565
 31
0.0
  0
MTEXT
  5
2B2
330
2AA
100
AcDbEntity
  8
SK2
100
AcDbMText
 10
53.4158270594
 20
37.4183281711
 30
0.0
 40
3.5
 41
0.0
 71
     1
 72
     1
  1
13
  7
SLDTEXTSTYLE0
 73
     1
 44
1.0
  0
ENDBLK
  5
2AC
330
2AA
100
AcDbEntity
  8
0
100
AcDbBlockEnd
  0
BLOCK
  5
2B5
330
2B4
100
AcDbEntity
  8
0
100
AcDbBlockBegin
  2
_D_4
 70
     0
 10
0.0
 20
0.0
 30
0.0
  3
_D_4
  1

  0
SOLID
  5
2B7
330
2B4
100
AcDbEntity
  8
SK2
100
AcDbTrace
 10
98.7923127598
 20
26.0
 30
0.0
 11
98.2843127598
 21
22.698
 31
0.0
 12
99.3003127598
 22
22.698
 32
0.0
 13
99.3003127598
 23
22.698
 33
0.0
  0
SOLID
  5
2B8
330
2B4
100
AcDbEntity
  8
SK2
100
AcDbTrace
 10
98.7923127598
 20
-26.0
 30
0.0
 11
99.3003127598
 21
-22.698
 31
0.0
 12
98.2843127598
 22
-22.698
 32
0.0
 13
98.2843127598
 23
-22.698
 33
0.0
  0
LINE
  5
2B9
330
2B4
100
AcDbEntity
  8
SK2
100
AcDbLine
 10
51.0
 20
26.0
 30
0.0
 11
99.7923127598
 21
26.0
 31
0.0
  0
LINE
  5
2BA
330
2B4
100
AcDbEntity
  8
SK2
100
AcDbLine
 10
51.0
 20
-26.0
 30
0.0
 11
99.7923127598
 21
-26.0
 31
0.0
  0
LINE
  5
2BB
330
2B4
100
AcDbEntity
  8
SK2
100
AcDbLine
 10
98.7923127598
 20
26.0
 30
0.0
 11
98.7923127598
 21
-26.0
 31
0.0
  0
MTEXT
  5
2BC
330
2B4
100
AcDbEntity
  8
SK2
100
AcDbMText
 10
94.2805756706
 20
-5.4984804905
 30
0.0
 40
3.5
 41
0.0
 71
     1
 72
     1
  1
%%c
  7
SLDTEXTSTYLE0
 11
-7.044195017643634E-15
 21
1.0
 31
0.0
 73
     1
 44
1.0
  0
MTEXT
  5
2BD
330
2B4
100
AcDbEntity
  8
SK2
100
AcDbMText
 10
94.227103494
 20
-0.2200430921
 30
0.0
 40
3.5
 41
0.0
 71
     1
 72
     1
  1
52
  7
SLDTEXTSTYLE0
 11
-7.044195017643634E-15
 21
1.0
 31
0.0
 73
     1
 44
1.0
  0
ENDBLK
  5
2B6
330
2B4
100
AcDbEntity
  8
0
100
AcDbBlockEnd
  0
BLOCK
  5
2C1
330
2C0
100
AcDbEntity
  8
0
100
AcDbBlockBegin
  2
_D_5
 70
     0
 10
0.0
 20
0.0
 30
0.0
  3
_D_5
  1

  0
SOLID
  5
2C3
330
2C0
100
AcDbEntity
  8
SK2
100
AcDbTrace
 10
86.0177254273
 20
18.4944465005
 30
0.0
 11
85.5097254273
 21
15.1924465005
 31
0.0
 12
86.5257254273
 22
15.1924465005
 32
0.0
 13
86.5257254273
 23
15.1924465005
 33
0.0
  0
SOLID
  5
2C4
330
2C0
100
AcDbEntity
  8
SK2
100
AcDbTrace
 10
86.0177254273
 20
-18.4944465005
 30
0.0
 11
86.5257254273
 21
-15.1924465005
 31
0.0
 12
85.5097254273
 22
-15.1924465005
 32
0.0
 13
85.5097254273
 23
-15.1924465005
 33
0.0
  0
LINE
  5
2C5
330
2C0
100
AcDbEntity
  8
SK2
100
AcDbLine
 10
64.0
 20
18.4944465005
 30
0.0
 11
87.0177254273
 21
18.4944465005
 31
0.0
  0
LINE
  5
2C6
330
2C0
100
AcDbEntity
  8
SK2
100
AcDbLine
 10
64.0
 20
-18.4944465005
 30
0.0
 11
87.0177254273
 21
-18.4944465005
 31
0.0
  0
LINE
  5
2C7
330
2C0
100
AcDbEntity
  8
SK2
100
AcDbLine
 10
86.0177254273
 20
18.4944465005
 30
0.0
 11
86.0177254273
 21
-18.4944465005
 31
0.0
  0
MTEXT
  5
2C8
330
2C0
100
AcDbEntity
  8
SK2
100
AcDbMText
 10
81.5059883381
 20
-5.4984804905
 30
0.0
 40
3.5
 41
0.0
 71
     1
 72
     1
  1
%%c
  7
SLDTEXTSTYLE0
 11
-7.044195017643634E-15
 21
1.0
 31
0.0
 73
     1
 44
1.0
  0
MTEXT
  5
2C9
330
2C0
100
AcDbEntity
  8
SK2
100
AcDbMText
 10
81.4525161614
 20
-0.2200430921
 30
0.0
 40
3.5
 41
0.0
 71
     1
 72
     1
  1
37
  7
SLDTEXTSTYLE0
 11
-7.044195017643634E-15
 21
1.0
 31
0.0
 73
     1
 44
1.0
  0
ENDBLK
  5
2C2
330
2C0
100
AcDbEntity
  8
0
100
AcDbBlockEnd
  0
BLOCK
  5
2CC
330
2CB
100
AcDbEntity
  8
0
100
AcDbBlockBegin
  2
_D_6
 70
     0
 10
0.0
 20
0.0
 30
0.0
  3
_D_6
  1

  0
SOLID
  5
2CE
330
2CB
100
AcDbEntity
  8
SK2
100
AcDbTrace
 10
75.1442079096
 20
-10.0
 30
0.0
 11
75.6522079096
 21
-6.698
 31
0.0
 12
74.6362079096
 22
-6.698
 32
0.0
 13
74.6362079096
 23
-6.698
 33
0.0
  0
SOLID
  5
2CF
330
2CB
100
AcDbEntity
  8
SK2
100
AcDbTrace
 10
75.1442079096
 20
10.0
 30
0.0
 11
74.6362079096
 21
6.698
 31
0.0
 12
75.6522079096
 22
6.698
 32
0.0
 13
75.6522079096
 23
6.698
 33
0.0
  0
LINE
  5
2D0
330
2CB
100
AcDbEntity
  8
SK2
100
AcDbLine
 10
63.0
 20
-10.0
 30
0.0
 11
76.1442079096
 21
-10.0
 31
0.0
  0
LINE
  5
2D1
330
2CB
100
AcDbEntity
  8
SK2
100
AcDbLine
 10
63.0
 20
10.0
 30
0.0
 11
76.1442079096
 21
10.0
 31
0.0
  0
LINE
  5
2D2
330
2CB
100
AcDbEntity
  8
SK2
100
AcDbLine
 10
75.1442079096
 20
-10.0
 30
0.0
 11
75.1442079096
 21
10.0
 31
0.0
  0
MTEXT
  5
2D3
330
2CB
100
AcDbEntity
  8
SK2
100
AcDbMText
 10
70.6324708204
 20
-5.4984804905
 30
0.0
 40
3.5
 41
0.0
 71
     1
 72
     1
  1
%%c
  7
SLDTEXTSTYLE0
 11
6.123233995736766E-17
 21
1.0
 31
0.0
 73
     1
 44
1.0
  0
MTEXT
  5
2D4
330
2CB
100
AcDbEntity
  8
SK2
100
AcDbMText
 10
70.5789986437
 20
-0.2200430921
 30
0.0
 40
3.5
 41
0.0
 71
     1
 72
     1
  1
20
  7
SLDTEXTSTYLE0
 11
6.123233995736766E-17
 21
1.0
 31
0.0
 73
     1
 44
1.0
  0
ENDBLK
  5
2CD
330
2CB
100
AcDbEntity
  8
0
100
AcDbBlockEnd
  0
BLOCK
  5
2D7
330
2D6
100
AcDbEntity
  8
0
100
AcDbBlockBegin
  2
_D_7
 70
     0
 10
0.0
 20
0.0
 30
0.0
  3
_D_7
  1

  0
SOLID
  5
2D9
330
2D6
100
AcDbEntity
  8
SK2
100
AcDbTrace
 10
63.0
 20
-37.1522674519
 30
0.0
 11
59.698
 21
-36.6442674519
 31
0.0
 12
59.698
 22
-37.6602674519
 32
0.0
 13
59.698
 23
-37.6602674519
 33
0.0
  0
SOLID
  5
2DA
330
2D6
100
AcDbEntity
  8
SK2
100
AcDbTrace
 10
38.0
 20
-37.1522674519
 30
0.0
 11
41.302
 21
-37.6602674519
 31
0.0
 12
41.302
 22
-36.6442674519
 32
0.0
 13
41.302
 23
-36.6442674519
 33
0.0
  0
LINE
  5
2DB
330
2D6
100
AcDbEntity
  8
SK2
100
AcDbLine
 10
63.0
 20
-19.4944465005
 30
0.0
 11
63.0
 21
-38.1522674519
 31
0.0
  0
LINE
  5
2DC
330
2D6
100
AcDbEntity
  8
SK2
100
AcDbLine
 10
38.0
 20
-26.9
 30
0.0
 11
38.0
 21
-38.1522674519
 31
0.0
  0
LINE
  5
2DD
330
2D6
100
AcDbEntity
  8
SK2
100
AcDbLine
 10
63.0
 20
-37.1522674519
 30
0.0
 11
38.0
 21
-37.1522674519
 31
0.0
  0
MTEXT
  5
2DE
330
2D6
100
AcDbEntity
  8
SK2
100
AcDbMText
 10
47.7336929342
 20
-32.6405305373
 30
0.0
 40
3.5
 41
0.0
 71
     1
 72
     1
  1
25
  7
SLDTEXTSTYLE0
 73
     1
 44
1.0
  0
ENDBLK
  5
2D8
330
2D6
100
AcDbEntity
  8
0
100
AcDbBlockEnd
  0
BLOCK
  5
2E1
330
2E0
100
AcDbEntity
  8
0
100
AcDbBlockBegin
  2
_D_8
 70
     0
 10
0.0
 20
0.0
 30
0.0
  3
_D_8
  1

  0
SOLID
  5
2E3
330
2E0
100
AcDbEntity
  8
SK2
100
AcDbTrace
 10
63.0
 20
-47.8076537923
 30
0.0
 11
59.698
 21
-47.2996537923
 31
0.0
 12
59.698
 22
-48.3156537923
 32
0.0
 13
59.698
 23
-48.3156537923
 33
0.0
  0
SOLID
  5
2E4
330
2E0
100
AcDbEntity
  8
SK2
100
AcDbTrace
 10
14.0
 20
-47.8076537923
 30
0.0
 11
17.302
 21
-48.3156537923
 31
0.0
 12
17.302
 22
-47.2996537923
 32
0.0
 13
17.302
 23
-47.2996537923
 33
0.0
  0
LINE
  5
2E5
330
2E0
100
AcDbEntity
  8
SK2
100
AcDbLine
 10
63.0
 20
-19.4944465005
 30
0.0
 11
63.0
 21
-48.8076537923
 31
0.0
  0
LINE
  5
2E6
330
2E0
100
AcDbEntity
  8
SK2
100
AcDbLine
 10
14.0
 20
-10.999999975
 30
0.0
 11
14.0
 21
-48.8076537923
 31
0.0
  0
LINE
  5
2E7
330
2E0
100
AcDbEntity
  8
SK2
100
AcDbLine
 10
63.0
 20
-47.8076537923
 30
0.0
 11
14.0
 21
-47.8076537923
 31
0.0
  0
MTEXT
  5
2E8
330
2E0
100
AcDbEntity
  8
SK2
100
AcDbMText
 10
37.4362493852
 20
-43.2959168777
 30
0.0
 40
3.5
 41
0.0
 71
     1
 72
     1
  1
49
  7
SLDTEXTSTYLE0
 73
     1
 44
1.0
  0
ENDBLK
  5
2E2
330
2E0
100
AcDbEntity
  8
0
100
AcDbBlockEnd
  0
BLOCK
  5
2EB
330
2EA
100
AcDbEntity
  8
0
100
AcDbBlockBegin
  2
_D_9
 70
     0
 10
0.0
 20
0.0
 30
0.0
  3
_D_9
  1

  0
SOLID
  5
2ED
330
2EA
100
AcDbEntity
  8
SK2
100
AcDbTrace
 10
-72.9690393374
 20
-8.00000038
 30
0.0
 11
-72.4610393374
 21
-4.69800038
 31
0.0
 12
-73.4770393374
 22
-4.69800038
 32
0.0
 13
-73.4770393374
 23
-4.69800038
 33
0.0
  0
SOLID
  5
2EE
330
2EA
100
AcDbEntity
  8
SK2
100
AcDbTrace
 10
-72.9690393374
 20
8.00000038
 30
0.0
 11
-73.4770393374
 21
4.69800038
 31
0.0
 12
-72.4610393374
 22
4.69800038
 32
0.0
 13
-72.4610393374
 23
4.69800038
 33
0.0
  0
LINE
  5
2EF
330
2EA
100
AcDbEntity
  8
SK2
100
AcDbLine
 10
-56.6881204247
 20
-8.00000038
 30
0.0
 11
-73.9690393374
 21
-8.00000038
 31
0.0
  0
LINE
  5
2F0
330
2EA
100
AcDbEntity
  8
SK2
100
AcDbLine
 10
-56.6881204247
 20
8.00000038
 30
0.0
 11
-73.9690393374
 21
8.00000038
 31
0.0
  0
LINE
  5
2F1
330
2EA
100
AcDbEntity
  8
SK2
100
AcDbLine
 10
-72.9690393374
 20
-8.00000038
 30
0.0
 11
-72.9690393374
 21
8.00000038
 31
0.0
  0
MTEXT
  5
2F2
330
2EA
100
AcDbEntity
  8
SK2
100
AcDbMText
 10
-77.480776252
 20
-4.8715903942
 30
0.0
 40
3.5
 41
0.0
 71
     1
 72
     1
  1
M
  7
SLDTEXTSTYLE0
 11
3.613946018757869E-15
 21
1.0
 31
0.0
 73
     1
 44
1.0
  0
MTEXT
  5
2F3
330
2EA
100
AcDbEntity
  8
SK2
100
AcDbMText
 10
-77.480776252
 20
-0.5840904598
 30
0.0
 40
3.5
 41
0.0
 71
     1
 72
     1
  1
16
  7
SLDTEXTSTYLE0
 11
3.613946018757869E-15
 21
1.0
 31
0.0
 73
     1
 44
1.0
  0
ENDBLK
  5
2EC
330
2EA
100
AcDbEntity
  8
0
100
AcDbBlockEnd
  0
BLOCK
  5
2F6
330
2F5
100
AcDbEntity
  8
0
100
AcDbBlockBegin
  2
_D_10
 70
     0
 10
0.0
 20
0.0
 30
0.0
  3
_D_10
  1

  0
SOLID
  5
2F8
330
2F5
100
AcDbEntity
  8
SK2
100
AcDbTrace
 10
-82.9422560269
 20
22.225
 30
0.0
 11
-83.4502560269
 21
18.923
 31
0.0
 12
-82.4342560269
 22
18.923
 32
0.0
 13
-82.4342560269
 23
18.923
 33
0.0
  0
SOLID
  5
2F9
330
2F5
100
AcDbEntity
  8
SK2
100
AcDbTrace
 10
-82.9422560269
 20
-22.225
 30
0.0
 11
-82.4342560269
 21
-18.923
 31
0.0
 12
-83.4502560269
 22
-18.923
 32
0.0
 13
-83.4502560269
 23
-18.923
 33
0.0
  0
LINE
  5
2FA
330
2F5
100
AcDbEntity
  8
SK2
100
AcDbLine
 10
-0.8
 20
22.225
 30
0.0
 11
-83.9422560269
 21
22.225
 31
0.0
  0
LINE
  5
2FB
330
2F5
100
AcDbEntity
  8
SK2
100
AcDbLine
 10
-1.0
 20
-22.225
 30
0.0
 11
-83.9422560269
 21
-22.225
 31
0.0
  0
LINE
  5
2FC
330
2F5
100
AcDbEntity
  8
SK2
100
AcDbLine
 10
-82.9422560269
 20
22.225
 30
0.0
 11
-82.9422560269
 21
-22.225
 31
0.0
  0
MTEXT
  5
2FD
330
2F5
100
AcDbEntity
  8
SK2
100
AcDbMText
 10
-87.4539931161
 20
-9.4156127915
 30
0.0
 40
3.5
 41
0.0
 71
     1
 72
     1
  1
%%c
  7
SLDTEXTSTYLE0
 11
-7.044195017643634E-15
 21
1.0
 31
0.0
 73
     1
 44
1.0
  0
MTEXT
  5
2FE
330
2F5
100
AcDbEntity
  8
SK2
100
AcDbMText
 10
-87.5074652928
 20
-4.1371753931
 30
0.0
 40
3.5
 41
0.0
 71
     1
 72
     1
  1
44,45
  7
SLDTEXTSTYLE0
 11
-7.044195017643634E-15
 21
1.0
 31
0.0
 73
     1
 44
1.0
  0
ENDBLK
  5
2F7
330
2F5
100
AcDbEntity
  8
0
100
AcDbBlockEnd
  0
BLOCK
  5
301
330
300
100
AcDbEntity
  8
0
100
AcDbBlockBegin
  2
_D_11
 70
     0
 10
0.0
 20
0.0
 30
0.0
  3
_D_11
  1

  0
SOLID
  5
303
330
300
100
AcDbEntity
  8
SK2
100
AcDbTrace
 10
-93.6878458664
 20
31.5
 30
0.0
 11
-94.1958458664
 21
28.198
 31
0.0
 12
-93.1798458664
 22
28.198
 32
0.0
 13
-93.1798458664
 23
28.198
 33
0.0
  0
SOLID
  5
304
330
300
100
AcDbEntity
  8
SK2
100
AcDbTrace
 10
-93.6878458664
 20
-31.5
 30
0.0
 11
-93.1798458664
 21
-28.198
 31
0.0
 12
-94.1958458664
 22
-28.198
 32
0.0
 13
-94.1958458664
 23
-28.198
 33
0.0
  0
LINE
  5
305
330
300
100
AcDbEntity
  8
SK2
100
AcDbLine
 10
1.75
 20
31.5
 30
0.0
 11
-94.6878458664
 21
31.5
 31
0.0
  0
LINE
  5
306
330
300
100
AcDbEntity
  8
SK2
100
AcDbLine
 10
1.75
 20
-31.5
 30
0.0
 11
-94.6878458664
 21
-31.5
 31
0.0
  0
LINE
  5
307
330
300
100
AcDbEntity
  8
SK2
100
AcDbLine
 10
-93.6878458664
 20
31.5
 30
0.0
 11
-93.6878458664
 21
-31.5
 31
0.0
  0
MTEXT
  5
308
330
300
100
AcDbEntity
  8
SK2
100
AcDbMText
 10
-98.1995829556
 20
-6.1829739742
 30
0.0
 40
3.5
 41
0.0
 71
     1
 72
     1
  1
%%c
  7
SLDTEXTSTYLE0
 11
-7.044195017643634E-15
 21
1.0
 31
0.0
 73
     1
 44
1.0
  0
MTEXT
  5
309
330
300
100
AcDbEntity
  8
SK2
100
AcDbMText
 10
-98.2530551323
 20
-0.9045365758
 30
0.0
 40
3.5
 41
0.0
 71
     1
 72
     1
  1
63
  7
SLDTEXTSTYLE0
 11
-7.044195017643634E-15
 21
1.0
 31
0.0
 73
     1
 44
1.0
  0
ENDBLK
  5
302
330
300
100
AcDbEntity
  8
0
100
AcDbBlockEnd
  0
ENDSEC
  0
SECTION
  2
ENTITIES
  0
LINE
  5
92
330
1F
100
AcDbEntity
  8
1
  6
SLD-Solid
370
    25
100
AcDbLine
 10
26.25
 20
31.5
 30
0.0
 11
21.62
 21
31.5
 31
0.0
  0
LINE
  5
93
330
1F
100
AcDbEntity
  8
1
  6
SLD-Solid
370
    25
100
AcDbLine
 10
21.62
 20
-31.5
 30
0.0
 11
26.25
 21
-31.5
 31
0.0
  0
LINE
  5
94
330
1F
100
AcDbEntity
  8
1
  6
SLD-Solid
370
    25
100
AcDbLine
 10
19.1
 20
-27.113157367
 30
0.0
 11
21.62
 21
-31.5
 31
0.0
  0
LINE
  5
95
330
1F
100
AcDbEntity
  8
1
  6
SLD-Solid
370
    25
100
AcDbLine
 10
21.62
 20
31.5
 30
0.0
 11
19.1000001077
 21
27.1131572383
 31
0.0
  0
LINE
  5
96
330
1F
100
AcDbEntity
  8
1
  6
SLD-Solid
370
    25
100
AcDbLine
 10
2.75
 20
-31.5
 30
0.0
 11
11.58
 21
-31.5
 31
0.0
  0
LINE
  5
97
330
1F
100
AcDbEntity
  8
1
  6
SLD-Solid
370
    25
100
AcDbLine
 10
11.58
 20
-31.5
 30
0.0
 11
14.1
 21
-27.113157367
 31
0.0
  0
LINE
  5
98
330
1F
100
AcDbEntity
  8
1
  6
SLD-Solid
370
    25
100
AcDbLine
 10
11.58
 20
31.5
 30
0.0
 11
2.75
 21
31.5
 31
0.0
  0
LINE
  5
99
330
1F
100
AcDbEntity
  8
1
  6
SLD-Solid
370
    25
100
AcDbLine
 10
14.1
 20
27.113157367
 30
0.0
 11
11.58
 21
31.5
 31
0.0
  0
LINE
  5
9A
330
1F
100
AcDbEntity
  8
1
  6
SLD-Solid
370
    25
100
AcDbLine
 10
30.0247622335
 20
26.0
 30
0.0
 11
29.0
 21
26.0
 31
0.0
  0
LINE
  5
9B
330
1F
100
AcDbEntity
  8
1
  6
SLD-Solid
370
    25
100
AcDbLine
 10
50.0
 20
26.0
 30
0.0
 11
45.9711578819
 21
26.0
 31
0.0
  0
LINE
  5
9C
330
1F
100
AcDbEntity
  8
1
  6
SLD-Solid
370
    25
100
AcDbLine
 10
47.1
 20
-26.0
 30
0.0
 11
50.0
 21
-26.0
 31
0.0
  0
LINE
  5
9D
330
1F
100
AcDbEntity
  8
1
  6
SLD-Solid
370
    25
100
AcDbLine
 10
50.0
 20
-26.0
 30
0.0
 11
63.0
 21
-18.4944465005
 31
0.0
  0
LINE
  5
9E
330
1F
100
AcDbEntity
  8
1
  6
SLD-Solid
370
    25
100
AcDbLine
 10
63.0
 20
18.4944465005
 30
0.0
 11
50.0
 21
26.0
 31
0.0
  0
LINE
  5
9F
330
1F
100
AcDbEntity
  8
1
  6
SLD-Solid
370
    25
100
AcDbLine
 10
14.475
 20
-26.5
 30
0.0
 11
18.725
 21
-26.5
 31
0.0
  0
LINE
  5
A0
330
1F
100
AcDbEntity
  8
1
  6
SLD-Solid
370
    25
100
AcDbLine
 10
18.725
 20
26.5
 30
0.0
 11
14.475
 21
26.5
 31
0.0
  0
LINE
  5
A1
330
1F
100
AcDbEntity
  8
1
  6
SLD-Solid
370
    25
100
AcDbLine
 10
0.2
 20
22.225
 30
0.0
 11
0.0
 21
22.225
 31
0.0
  0
LINE
  5
A2
330
1F
100
AcDbEntity
  8
1
  6
SLD-Solid
370
    25
100
AcDbLine
 10
0.0
 20
-22.225
 30
0.0
 11
0.2
 21
-22.225
 31
0.0
  0
LINE
  5
A3
330
1F
100
AcDbEntity
  8
SK1
  6
SLD-Solid
370
    25
100
AcDbLine
 10
0.0
 20
22.225
 30
0.0
 11
-64.544317822
 21
12.8115589574
 31
0.0
  0
LINE
  5
A4
330
1F
100
AcDbEntity
  8
SK1
  6
SLD-Solid
370
    25
100
AcDbLine
 10
-64.544317822
 20
-12.8115589574
 30
0.0
 11
0.0
 21
-22.225
 31
0.0
  0
LINE
  5
A5
330
1F
100
AcDbEntity
  8
1
  6
SLD-Solid
370
    25
100
AcDbLine
 10
0.2
 20
-22.225
 30
0.0
 11
0.9330363037
 21
-21.8831795579
 31
0.0
  0
LINE
  5
A6
330
1F
100
AcDbEntity
  8
1
  6
SLD-Solid
370
    25
100
AcDbLine
 10
0.9330363037
 20
21.8831795579
 30
0.0
 11
0.2
 21
22.225
 31
0.0
  0
LINE
  5
A7
330
1F
100
AcDbEntity
  8
1
  6
SLD-Solid
370
    25
100
AcDbLine
 10
21.62
 20
31.5
 30
0.0
 11
21.6200003604
 21
5.8238672254
 31
0.0
  0
LINE
  5
A8
330
1F
100
AcDbEntity
  8
1
  6
SLD-Solid
370
    25
100
AcDbLine
 10
21.6200000025
 20
-5.823866909
 30
0.0
 11
21.62
 21
-31.5
 31
0.0
  0
LINE
  5
A9
330
1F
100
AcDbEntity
  8
1
  6
SLD-Solid
370
    25
100
AcDbLine
 10
21.3784546204
 20
5.4632284209
 30
0.0
 11
21.6200003604
 21
5.8238672254
 31
0.0
  0
LINE
  5
AA
330
1F
100
AcDbEntity
  8
1
  6
SLD-Solid
370
    25
100
AcDbLine
 10
21.6200000025
 20
-5.823866909
 30
0.0
 11
21.3784546216
 21
-5.4632284305
 31
0.0
  0
LINE
  5
AB
330
1F
100
AcDbEntity
  8
1
  6
SLD-Solid
370
    25
100
AcDbLine
 10
27.0
 20
30.75
 30
0.0
 11
27.0
 21
-30.75
 31
0.0
  0
LINE
  5
AC
330
1F
100
AcDbEntity
  8
1
  6
SLD-Solid
370
    25
100
AcDbLine
 10
19.1
 20
-7.2024995661
 30
0.0
 11
19.1
 21
-27.113157367
 31
0.0
  0
LINE
  5
AD
330
1F
100
AcDbEntity
  8
1
  6
SLD-Solid
370
    25
100
AcDbLine
 10
19.1000001077
 20
27.1131572383
 30
0.0
 11
19.1000001077
 21
7.2024994374
 31
0.0
  0
LINE
  5
AE
330
1F
100
AcDbEntity
  8
1
  6
SLD-Solid
370
    25
100
AcDbLine
 10
2.3219692183
 20
-8.095
 30
0.0
 11
2.0
 21
-8.3532699268
 31
0.0
  0
LINE
  5
AF
330
1F
100
AcDbEntity
  8
1
  6
SLD-Solid
370
    25
100
AcDbLine
 10
2.0
 20
-30.75
 30
0.0
 11
2.0
 21
-8.3532699268
 31
0.0
  0
LINE
  5
B0
330
1F
100
AcDbEntity
  8
1
  6
SLD-Solid
370
    25
100
AcDbLine
 10
11.58
 20
-8.439532456
 30
0.0
 11
2.75
 21
-8.439532456
 31
0.0
  0
LINE
  5
B1
330
1F
100
AcDbEntity
  8
1
  6
SLD-Solid
370
    25
100
AcDbLine
 10
11.58
 20
-8.439532456
 30
0.0
 11
11.58
 21
-31.5
 31
0.0
  0
LINE
  5
B2
330
1F
100
AcDbEntity
  8
1
  6
SLD-Solid
370
    25
100
AcDbLine
 10
2.75
 20
-8.095
 30
0.0
 11
11.804131339
 21
-8.095
 31
0.0
  0
LINE
  5
B3
330
1F
100
AcDbEntity
  8
1
  6
SLD-Solid
370
    25
100
AcDbLine
 10
14.1
 20
-8.095
 30
0.0
 11
14.1
 21
-27.113157367
 31
0.0
  0
LINE
  5
B4
330
1F
100
AcDbEntity
  8
1
  6
SLD-Solid
370
    25
100
AcDbLine
 10
2.0
 20
8.47
 30
0.0
 11
2.375
 21
8.095
 31
0.0
  0
LINE
  5
B5
330
1F
100
AcDbEntity
  8
1
  6
SLD-Solid
370
    25
100
AcDbLine
 10
11.58
 20
31.5
 30
0.0
 11
11.58
 21
8.5720481928
 31
0.0
  0
LINE
  5
B6
330
1F
100
AcDbEntity
  8
1
  6
SLD-Solid
370
    25
100
AcDbLine
 10
2.75
 20
8.5720481928
 30
0.0
 11
11.58
 21
8.5720481928
 31
0.0
  0
LINE
  5
B7
330
1F
100
AcDbEntity
  8
1
  6
SLD-Solid
370
    25
100
AcDbLine
 10
11.8528324644
 20
8.095
 30
0.0
 11
2.75
 21
8.095
 31
0.0
  0
LINE
  5
B8
330
1F
100
AcDbEntity
  8
1
  6
SLD-Solid
370
    25
100
AcDbLine
 10
2.0
 20
8.47
 30
0.0
 11
2.0
 21
30.75
 31
0.0
  0
LINE
  5
B9
330
1F
100
AcDbEntity
  8
1
  6
SLD-Solid
370
    25
100
AcDbLine
 10
14.1
 20
27.113157367
 30
0.0
 11
14.1
 21
8.095
 31
0.0
  0
LINE
  5
BA
330
1F
100
AcDbEntity
  8
1
  6
SLD-Solid
370
    25
100
AcDbLine
 10
29.0
 20
-26.0
 30
0.0
 11
28.9062797924
 21
-26.0
 31
0.0
  0
LINE
  5
BB
330
1F
100
AcDbEntity
  8
1
  6
SLD-Solid
370
    25
100
AcDbLine
 10
50.0
 20
26.0
 30
0.0
 11
50.0
 21
-26.0
 31
0.0
  0
LINE
  5
BC
330
1F
100
AcDbEntity
  8
1
  6
SLD-Solid
370
    25
100
AcDbLine
 10
63.0
 20
18.4944465005
 30
0.0
 11
63.0
 21
-18.4944465005
 31
0.0
  0
LINE
  5
BD
330
1F
100
AcDbEntity
  8
1
  6
SLD-Solid
370
    25
100
AcDbLine
 10
14.475
 20
-8.095
 30
0.0
 11
15.405
 21
-8.095
 31
0.0
  0
LINE
  5
BE
330
1F
100
AcDbEntity
  8
1
  6
SLD-Solid
370
    25
100
AcDbLine
 10
15.4050001077
 20
8.0949998713
 30
0.0
 11
14.475
 21
8.095
 31
0.0
  0
LINE
  5
BF
330
1F
100
AcDbEntity
  8
1
  6
SLD-Solid
370
    25
100
AcDbLine
 10
2.0
 20
8.47
 30
0.0
 11
2.0
 21
2.2544235705
 31
0.0
  0
LINE
  5
C0
330
1F
100
AcDbEntity
  8
1
  6
SLD-Solid
370
    25
100
AcDbLine
 10
2.0
 20
-2.2544235705
 30
0.0
 11
2.0
 21
-8.3532699268
 31
0.0
  0
LINE
  5
C1
330
1F
100
AcDbEntity
  8
1
  6
SLD-Solid
370
    25
100
AcDbLine
 10
0.0
 20
22.225
 30
0.0
 11
0.0
 21
-22.225
 31
0.0
  0
LINE
  5
C2
330
1F
100
AcDbEntity
  8
SK1
  6
SLD-Solid
370
    25
100
AcDbLine
 10
-65.4
 20
-11.8220275702
 30
0.0
 11
-65.4
 21
11.8220275702
 31
0.0
  0
LINE
  5
C3
330
1F
100
AcDbEntity
  8
SK3
  6
SLD-Dashed
370
    18
100
AcDbLine
 10
9.0
 20
26.4316180962
 30
0.0
 11
8.5387682585
 21
26.4131797017
 31
0.0
  0
LINE
  5
C4
330
1F
100
AcDbEntity
  8
SK3
  6
SLD-Dashed
370
    18
100
AcDbLine
 10
8.5387682585
 20
26.4131797017
 30
0.0
 11
8.1024016396
 21
26.358858537
 31
0.0
  0
LINE
  5
C5
330
1F
100
AcDbEntity
  8
SK3
  6
SLD-Dashed
370
    18
100
AcDbLine
 10
8.1024016396
 20
26.358858537
 30
0.0
 11
7.7144247806
 21
26.27158307
 31
0.0
  0
LINE
  5
C6
330
1F
100
AcDbEntity
  8
SK3
  6
SLD-Dashed
370
    18
100
AcDbLine
 10
7.7144247806
 20
26.27158307
 30
0.0
 11
7.3957536145
 21
26.1560583438
 31
0.0
  0
LINE
  5
C7
330
1F
100
AcDbEntity
  8
SK3
  6
SLD-Dashed
370
    18
100
AcDbLine
 10
7.3957536145
 20
26.1560583438
 30
0.0
 11
7.1635677862
 21
26.0185123262
 31
0.0
  0
LINE
  5
C8
330
1F
100
AcDbEntity
  8
SK3
  6
SLD-Dashed
370
    18
100
AcDbLine
 10
7.1635677862
 20
26.0185123262
 30
0.0
 11
7.030384494
 21
25.8663601588
 31
0.0
  0
LINE
  5
C9
330
1F
100
AcDbEntity
  8
SK3
  6
SLD-Dashed
370
    18
100
AcDbLine
 10
7.030384494
 20
25.8663601588
 30
0.0
 11
7.0033836835
 21
25.7078044041
 31
0.0
  0
LINE
  5
CA
330
1F
100
AcDbEntity
  8
SK3
  6
SLD-Dashed
370
    18
100
AcDbLine
 10
7.0033836835
 20
25.7078044041
 30
0.0
 11
7.0840209754
 21
25.551392844
 31
0.0
  0
LINE
  5
CB
330
1F
100
AcDbEntity
  8
SK3
  6
SLD-Dashed
370
    18
100
AcDbLine
 10
7.0840209754
 20
25.551392844
 30
0.0
 11
7.2679491924
 21
25.4055576662
 31
0.0
  0
LINE
  5
CC
330
1F
100
AcDbEntity
  8
SK3
  6
SLD-Dashed
370
    18
100
AcDbLine
 10
7.2679491924
 20
25.4055576662
 30
0.0
 11
7.5452527169
 21
25.2781608829
 31
0.0
  0
LINE
  5
CD
330
1F
100
AcDbEntity
  8
SK3
  6
SLD-Dashed
370
    18
100
AcDbLine
 10
7.5452527169
 20
25.2781608829
 30
0.0
 11
7.9009820439
 21
25.1760704875
 31
0.0
  0
LINE
  5
CE
330
1F
100
AcDbEntity
  8
SK3
  6
SLD-Dashed
370
    18
100
AcDbLine
 10
7.9009820439
 20
25.1760704875
 30
0.0
 11
8.3159597133
 21
25.1047901998
 31
0.0
  0
LINE
  5
CF
330
1F
100
AcDbEntity
  8
SK3
  6
SLD-Dashed
370
    18
100
AcDbLine
 10
8.3159597133
 20
25.1047901998
 30
0.0
 11
8.7678141717
 21
25.0681627586
 31
0.0
  0
LINE
  5
D0
330
1F
100
AcDbEntity
  8
SK3
  6
SLD-Dashed
370
    18
100
AcDbLine
 10
8.7678141717
 20
25.0681627586
 30
0.0
 11
9.2321858283
 21
25.0681627586
 31
0.0
  0
LINE
  5
D1
330
1F
100
AcDbEntity
  8
SK3
  6
SLD-Dashed
370
    18
100
AcDbLine
 10
9.2321858283
 20
25.0681627586
 30
0.0
 11
9.6840402867
 21
25.1047901998
 31
0.0
  0
LINE
  5
D2
330
1F
100
AcDbEntity
  8
SK3
  6
SLD-Dashed
370
    18
100
AcDbLine
 10
9.6840402867
 20
25.1047901998
 30
0.0
 11
10.0990179561
 21
25.1760704875
 31
0.0
  0
LINE
  5
D3
330
1F
100
AcDbEntity
  8
SK3
  6
SLD-Dashed
370
    18
100
AcDbLine
 10
10.0990179561
 20
25.1760704875
 30
0.0
 11
10.4547472831
 21
25.2781608829
 31
0.0
  0
LINE
  5
D4
330
1F
100
AcDbEntity
  8
SK3
  6
SLD-Dashed
370
    18
100
AcDbLine
 10
10.4547472831
 20
25.2781608829
 30
0.0
 11
10.7320508076
 21
25.4055576662
 31
0.0
  0
LINE
  5
D5
330
1F
100
AcDbEntity
  8
SK3
  6
SLD-Dashed
370
    18
100
AcDbLine
 10
10.7320508076
 20
25.4055576662
 30
0.0
 11
10.9159790246
 21
25.551392844
 31
0.0
  0
LINE
  5
D6
330
1F
100
AcDbEntity
  8
SK3
  6
SLD-Dashed
370
    18
100
AcDbLine
 10
10.9159790246
 20
25.551392844
 30
0.0
 11
10.9966163165
 21
25.7078044041
 31
0.0
  0
LINE
  5
D7
330
1F
100
AcDbEntity
  8
SK3
  6
SLD-Dashed
370
    18
100
AcDbLine
 10
10.9966163165
 20
25.7078044041
 30
0.0
 11
10.969615506
 21
25.8663601588
 31
0.0
  0
LINE
  5
D8
330
1F
100
AcDbEntity
  8
SK3
  6
SLD-Dashed
370
    18
100
AcDbLine
 10
10.969615506
 20
25.8663601588
 30
0.0
 11
10.8364322138
 21
26.0185123262
 31
0.0
  0
LINE
  5
D9
330
1F
100
AcDbEntity
  8
SK3
  6
SLD-Dashed
370
    18
100
AcDbLine
 10
10.8364322138
 20
26.0185123262
 30
0.0
 11
10.6042463855
 21
26.1560583438
 31
0.0
  0
LINE
  5
DA
330
1F
100
AcDbEntity
  8
SK3
  6
SLD-Dashed
370
    18
100
AcDbLine
 10
10.6042463855
 20
26.1560583438
 30
0.0
 11
10.2855752194
 21
26.27158307
 31
0.0
  0
LINE
  5
DB
330
1F
100
AcDbEntity
  8
SK3
  6
SLD-Dashed
370
    18
100
AcDbLine
 10
10.2855752194
 20
26.27158307
 30
0.0
 11
9.8975983604
 21
26.358858537
 31
0.0
  0
LINE
  5
DC
330
1F
100
AcDbEntity
  8
SK3
  6
SLD-Dashed
370
    18
100
AcDbLine
 10
9.8975983604
 20
26.358858537
 30
0.0
 11
9.4612317415
 21
26.4131797017
 31
0.0
  0
LINE
  5
DD
330
1F
100
AcDbEntity
  8
SK3
  6
SLD-Dashed
370
    18
100
AcDbLine
 10
9.4612317415
 20
26.4131797017
 30
0.0
 11
9.0
 21
26.4316180962
 31
0.0
  0
LINE
  5
DE
330
1F
100
AcDbEntity
  8
SK3
  6
SLD-Dashed
370
    18
100
AcDbLine
 10
2.2382596061
 20
22.7011180302
 30
0.0
 11
2.348740495
 21
22.6961839777
 31
0.0
  0
LINE
  5
DF
330
1F
100
AcDbEntity
  8
SK3
  6
SLD-Dashed
370
    18
100
AcDbLine
 10
2.348740495
 20
22.6961839777
 30
0.0
 11
2.5154938814
 21
22.7860910821
 31
0.0
  0
LINE
  5
E0
330
1F
100
AcDbEntity
  8
SK3
  6
SLD-Dashed
370
    18
100
AcDbLine
 10
2.5154938814
 20
22.7860910821
 30
0.0
 11
2.729530047
 21
22.9659924283
 31
0.0
  0
LINE
  5
E1
330
1F
100
AcDbEntity
  8
SK3
  6
SLD-Dashed
370
    18
100
AcDbLine
 10
2.729530047
 20
22.9659924283
 30
0.0
 11
2.9793102468
 21
23.2261894879
 31
0.0
  0
LINE
  5
E2
330
1F
100
AcDbEntity
  8
SK3
  6
SLD-Dashed
370
    18
100
AcDbLine
 10
2.9793102468
 20
23.2261894879
 30
0.0
 11
3.2513687656
 21
23.5526549703
 31
0.0
  0
LINE
  5
E3
330
1F
100
AcDbEntity
  8
SK3
  6
SLD-Dashed
370
    18
100
AcDbLine
 10
3.2513687656
 20
23.5526549703
 30
0.0
 11
3.5310388582
 21
23.9277890367
 31
0.0
  0
LINE
  5
E4
330
1F
100
AcDbEntity
  8
SK3
  6
SLD-Dashed
370
    18
100
AcDbLine
 10
3.5310388582
 20
23.9277890367
 30
0.0
 11
3.8032434375
 21
24.3313681126
 31
0.0
  0
LINE
  5
E5
330
1F
100
AcDbEntity
  8
SK3
  6
SLD-Dashed
370
    18
100
AcDbLine
 10
3.8032434375
 20
24.3313681126
 30
0.0
 11
4.0533078842
 21
24.7416351454
 31
0.0
  0
LINE
  5
E6
330
1F
100
AcDbEntity
  8
SK3
  6
SLD-Dashed
370
    18
100
AcDbLine
 10
4.0533078842
 20
24.7416351454
 30
0.0
 11
4.2677511592
 21
25.1364725333
 31
0.0
  0
LINE
  5
E7
330
1F
100
AcDbEntity
  8
SK3
  6
SLD-Dashed
370
    18
100
AcDbLine
 10
4.2677511592
 20
25.1364725333
 30
0.0
 11
4.4350125701
 21
25.4945944905
 31
0.0
  0
LINE
  5
E8
330
1F
100
AcDbEntity
  8
SK3
  6
SLD-Dashed
370
    18
100
AcDbLine
 10
4.4350125701
 20
25.4945944905
 30
0.0
 11
4.5460750109
 21
25.7966945695
 31
0.0
  0
LINE
  5
E9
330
1F
100
AcDbEntity
  8
SK3
  6
SLD-Dashed
370
    18
100
AcDbLine
 10
4.5460750109
 20
25.7966945695
 30
0.0
 11
4.5949510767
 21
26.0264864769
 31
0.0
  0
LINE
  5
EA
330
1F
100
AcDbEntity
  8
SK3
  6
SLD-Dashed
370
    18
100
AcDbLine
 10
4.5949510767
 20
26.0264864769
 30
0.0
 11
4.5790058462
 21
26.1715820715
 31
0.0
  0
LINE
  5
EB
330
1F
100
AcDbEntity
  8
SK3
  6
SLD-Dashed
370
    18
100
AcDbLine
 10
4.5790058462
 20
26.1715820715
 30
0.0
 11
4.4990989307
 21
26.2241592123
 31
0.0
  0
LINE
  5
EC
330
1F
100
AcDbEntity
  8
SK3
  6
SLD-Dashed
370
    18
100
AcDbLine
 10
4.4990989307
 20
26.2241592123
 30
0.0
 11
4.3595381329
 21
26.1813834519
 31
0.0
  0
LINE
  5
ED
330
1F
100
AcDbEntity
  8
SK3
  6
SLD-Dashed
370
    18
100
AcDbLine
 10
4.3595381329
 20
26.1813834519
 30
0.0
 11
4.1678472115
 21
26.0455608427
 31
0.0
  0
LINE
  5
EE
330
1F
100
AcDbEntity
  8
SK3
  6
SLD-Dashed
370
    18
100
AcDbLine
 10
4.1678472115
 20
26.0455608427
 30
0.0
 11
3.9343602736
 21
25.8240136167
 31
0.0
  0
LINE
  5
EF
330
1F
100
AcDbEntity
  8
SK3
  6
SLD-Dashed
370
    18
100
AcDbLine
 10
3.9343602736
 20
25.8240136167
 30
0.0
 11
3.6716646605
 21
25.5286854423
 31
0.0
  0
LINE
  5
F0
330
1F
100
AcDbEntity
  8
SK3
  6
SLD-Dashed
370
    18
100
AcDbLine
 10
3.6716646605
 20
25.5286854423
 30
0.0
 11
3.3939223608
 21
25.1754975376
 31
0.0
  0
LINE
  5
F1
330
1F
100
AcDbEntity
  8
SK3
  6
SLD-Dashed
370
    18
100
AcDbLine
 10
3.3939223608
 20
25.1754975376
 30
0.0
 11
3.1161065336
 21
24.7834903541
 31
0.0
  0
LINE
  5
F2
330
1F
100
AcDbEntity
  8
SK3
  6
SLD-Dashed
370
    18
100
AcDbLine
 10
3.1161065336
 20
24.7834903541
 30
0.0
 11
2.8531943022
 21
24.3737971006
 31
0.0
  0
LINE
  5
F3
330
1F
100
AcDbEntity
  8
SK3
  6
SLD-Dashed
370
    18
100
AcDbLine
 10
2.8531943022
 20
24.3737971006
 30
0.0
 11
2.6193593329
 21
23.9685044463
 31
0.0
  0
LINE
  5
F4
330
1F
100
AcDbEntity
  8
SK3
  6
SLD-Dashed
370
    18
100
AcDbLine
 10
2.6193593329
 20
23.9685044463
 30
0.0
 11
2.4272077295
 21
23.5894618231
 31
0.0
  0
LINE
  5
F5
330
1F
100
AcDbEntity
  8
SK3
  6
SLD-Dashed
370
    18
100
AcDbLine
 10
2.4272077295
 20
23.5894618231
 30
0.0
 11
2.2870984348
 21
23.2571035171
 31
0.0
  0
LINE
  5
F6
330
1F
100
AcDbEntity
  8
SK3
  6
SLD-Dashed
370
    18
100
AcDbLine
 10
2.2870984348
 20
23.2571035171
 30
0.0
 11
2.2065847769
 21
22.9893470504
 31
0.0
  0
LINE
  5
F7
330
1F
100
AcDbEntity
  8
SK3
  6
SLD-Dashed
370
    18
100
AcDbLine
 10
2.2065847769
 20
22.9893470504
 30
0.0
 11
2.1900072681
 21
22.8006272436
 31
0.0
  0
LINE
  5
F8
330
1F
100
AcDbEntity
  8
SK3
  6
SLD-Dashed
370
    18
100
AcDbLine
 10
2.1900072681
 20
22.8006272436
 30
0.0
 11
2.2382596061
 21
22.7011180302
 31
0.0
  0
LINE
  5
F9
330
1F
100
AcDbEntity
  8
SK3
  6
SLD-Dashed
370
    18
100
AcDbLine
 10
9.0
 20
26.1220249204
 30
0.0
 11
8.5729485756
 21
26.1027957316
 31
0.0
  0
LINE
  5
FA
330
1F
100
AcDbEntity
  8
SK3
  6
SLD-Dashed
370
    18
100
AcDbLine
 10
8.5729485756
 20
26.1027957316
 30
0.0
 11
8.175
 21
26.0464186029
 31
0.0
  0
LINE
  5
FB
330
1F
100
AcDbEntity
  8
SK3
  6
SLD-Dashed
370
    18
100
AcDbLine
 10
8.175
 20
26.0464186029
 30
0.0
 11
7.833273811
 21
25.9567355423
 31
0.0
  0
LINE
  5
FC
330
1F
100
AcDbEntity
  8
SK3
  6
SLD-Dashed
370
    18
100
AcDbLine
 10
7.833273811
 20
25.9567355423
 30
0.0
 11
7.5710580838
 21
25.8398583021
 31
0.0
  0
LINE
  5
FD
330
1F
100
AcDbEntity
  8
SK3
  6
SLD-Dashed
370
    18
100
AcDbLine
 10
7.5710580838
 20
25.8398583021
 30
0.0
 11
7.4062223866
 21
25.7037518733
 31
0.0
  0
LINE
  5
FE
330
1F
100
AcDbEntity
  8
SK3
  6
SLD-Dashed
370
    18
100
AcDbLine
 10
7.4062223866
 20
25.7037518733
 30
0.0
 11
7.35
 21
25.5576916839
 31
0.0
  0
LINE
  5
FF
330
1F
100
AcDbEntity
  8
SK3
  6
SLD-Dashed
370
    18
100
AcDbLine
 10
7.35
 20
25.5576916839
 30
0.0
 11
7.4062223866
 21
25.4116314945
 31
0.0
  0
LINE
  5
100
330
1F
100
AcDbEntity
  8
SK3
  6
SLD-Dashed
370
    18
100
AcDbLine
 10
7.4062223866
 20
25.4116314945
 30
0.0
 11
7.5710580838
 21
25.2755250656
 31
0.0
  0
LINE
  5
101
330
1F
100
AcDbEntity
  8
SK3
  6
SLD-Dashed
370
    18
100
AcDbLine
 10
7.5710580838
 20
25.2755250656
 30
0.0
 11
7.833273811
 21
25.1586478255
 31
0.0
  0
LINE
  5
102
330
1F
100
AcDbEntity
  8
SK3
  6
SLD-Dashed
370
    18
100
AcDbLine
 10
7.833273811
 20
25.1586478255
 30
0.0
 11
8.175
 21
25.0689647649
 31
0.0
  0
LINE
  5
103
330
1F
100
AcDbEntity
  8
SK3
  6
SLD-Dashed
370
    18
100
AcDbLine
 10
8.175
 20
25.0689647649
 30
0.0
 11
8.5729485756
 21
25.0125876361
 31
0.0
  0
LINE
  5
104
330
1F
100
AcDbEntity
  8
SK3
  6
SLD-Dashed
370
    18
100
AcDbLine
 10
8.5729485756
 20
25.0125876361
 30
0.0
 11
9.0
 21
24.9933584474
 31
0.0
  0
LINE
  5
105
330
1F
100
AcDbEntity
  8
SK3
  6
SLD-Dashed
370
    18
100
AcDbLine
 10
9.0
 20
24.9933584474
 30
0.0
 11
9.4270514244
 21
25.0125876361
 31
0.0
  0
LINE
  5
106
330
1F
100
AcDbEntity
  8
SK3
  6
SLD-Dashed
370
    18
100
AcDbLine
 10
9.4270514244
 20
25.0125876361
 30
0.0
 11
9.825
 21
25.0689647649
 31
0.0
  0
LINE
  5
107
330
1F
100
AcDbEntity
  8
SK3
  6
SLD-Dashed
370
    18
100
AcDbLine
 10
9.825
 20
25.0689647649
 30
0.0
 11
10.166726189
 21
25.1586478255
 31
0.0
  0
LINE
  5
108
330
1F
100
AcDbEntity
  8
SK3
  6
SLD-Dashed
370
    18
100
AcDbLine
 10
10.166726189
 20
25.1586478255
 30
0.0
 11
10.4289419162
 21
25.2755250656
 31
0.0
  0
LINE
  5
109
330
1F
100
AcDbEntity
  8
SK3
  6
SLD-Dashed
370
    18
100
AcDbLine
 10
10.4289419162
 20
25.2755250656
 30
0.0
 11
10.5937776134
 21
25.4116314945
 31
0.0
  0
LINE
  5
10A
330
1F
100
AcDbEntity
  8
SK3
  6
SLD-Dashed
370
    18
100
AcDbLine
 10
10.5937776134
 20
25.4116314945
 30
0.0
 11
10.65
 21
25.5576916839
 31
0.0
  0
LINE
  5
10B
330
1F
100
AcDbEntity
  8
SK3
  6
SLD-Dashed
370
    18
100
AcDbLine
 10
10.65
 20
25.5576916839
 30
0.0
 11
10.5937776134
 21
25.7037518733
 31
0.0
  0
LINE
  5
10C
330
1F
100
AcDbEntity
  8
SK3
  6
SLD-Dashed
370
    18
100
AcDbLine
 10
10.5937776134
 20
25.7037518733
 30
0.0
 11
10.4289419162
 21
25.8398583021
 31
0.0
  0
LINE
  5
10D
330
1F
100
AcDbEntity
  8
SK3
  6
SLD-Dashed
370
    18
100
AcDbLine
 10
10.4289419162
 20
25.8398583021
 30
0.0
 11
10.166726189
 21
25.9567355423
 31
0.0
  0
LINE
  5
10E
330
1F
100
AcDbEntity
  8
SK3
  6
SLD-Dashed
370
    18
100
AcDbLine
 10
10.166726189
 20
25.9567355423
 30
0.0
 11
9.825
 21
26.0464186029
 31
0.0
  0
LINE
  5
10F
330
1F
100
AcDbEntity
  8
SK3
  6
SLD-Dashed
370
    18
100
AcDbLine
 10
9.825
 20
26.0464186029
 30
0.0
 11
9.4270514244
 21
26.1027957316
 31
0.0
  0
LINE
  5
110
330
1F
100
AcDbEntity
  8
SK3
  6
SLD-Dashed
370
    18
100
AcDbLine
 10
9.4270514244
 20
26.1027957316
 30
0.0
 11
9.0
 21
26.1220249204
 31
0.0
  0
LINE
  5
111
330
1F
100
AcDbEntity
  8
SK3
  6
SLD-Dashed
370
    18
100
AcDbLine
 10
2.3207095254
 20
22.8264256948
 30
0.0
 11
2.4283332575
 21
22.823440645
 31
0.0
  0
LINE
  5
112
330
1F
100
AcDbEntity
  8
SK3
  6
SLD-Dashed
370
    18
100
AcDbLine
 10
2.4283332575
 20
22.823440645
 30
0.0
 11
2.5919942545
 21
22.9153006134
 31
0.0
  0
LINE
  5
113
330
1F
100
AcDbEntity
  8
SK3
  6
SLD-Dashed
370
    18
100
AcDbLine
 10
2.5919942545
 20
22.9153006134
 30
0.0
 11
2.8021811341
 21
23.0966670324
 31
0.0
  0
LINE
  5
114
330
1F
100
AcDbEntity
  8
SK3
  6
SLD-Dashed
370
    18
100
AcDbLine
 10
2.8021811341
 20
23.0966670324
 30
0.0
 11
3.0466785988
 21
23.3569995452
 31
0.0
  0
LINE
  5
115
330
1F
100
AcDbEntity
  8
SK3
  6
SLD-Dashed
370
    18
100
AcDbLine
 10
3.0466785988
 20
23.3569995452
 30
0.0
 11
3.3112773447
 21
23.6811685723
 31
0.0
  0
LINE
  5
116
330
1F
100
AcDbEntity
  8
SK3
  6
SLD-Dashed
370
    18
100
AcDbLine
 10
3.3112773447
 20
23.6811685723
 30
0.0
 11
3.5805998545
 21
24.0503345881
 31
0.0
  0
LINE
  5
117
330
1F
100
AcDbEntity
  8
SK3
  6
SLD-Dashed
370
    18
100
AcDbLine
 10
3.5805998545
 20
24.0503345881
 30
0.0
 11
3.8389940828
 21
24.4430430056
 31
0.0
  0
LINE
  5
118
330
1F
100
AcDbEntity
  8
SK3
  6
SLD-Dashed
370
    18
100
AcDbLine
 10
3.8389940828
 20
24.4430430056
 30
0.0
 11
4.0714430963
 21
24.8364710392
 31
0.0
  0
LINE
  5
119
330
1F
100
AcDbEntity
  8
SK3
  6
SLD-Dashed
370
    18
100
AcDbLine
 10
4.0714430963
 20
24.8364710392
 30
0.0
 11
4.2644378033
 21
25.2077540815
 31
0.0
  0
LINE
  5
11A
330
1F
100
AcDbEntity
  8
SK3
  6
SLD-Dashed
370
    18
100
AcDbLine
 10
4.2644378033
 20
25.2077540815
 30
0.0
 11
4.406762053
 21
25.5353145117
 31
0.0
  0
LINE
  5
11B
330
1F
100
AcDbEntity
  8
SK3
  6
SLD-Dashed
370
    18
100
AcDbLine
 10
4.406762053
 20
25.5353145117
 30
0.0
 11
4.4901444771
 21
25.8001157082
 31
0.0
  0
LINE
  5
11C
330
1F
100
AcDbEntity
  8
SK3
  6
SLD-Dashed
370
    18
100
AcDbLine
 10
4.4901444771
 20
25.8001157082
 30
0.0
 11
4.5097391924
 21
25.9867683879
 31
0.0
  0
LINE
  5
11D
330
1F
100
AcDbEntity
  8
SK3
  6
SLD-Dashed
370
    18
100
AcDbLine
 10
4.5097391924
 20
25.9867683879
 30
0.0
 11
4.4644074252
 21
26.0844249757
 31
0.0
  0
LINE
  5
11E
330
1F
100
AcDbEntity
  8
SK3
  6
SLD-Dashed
370
    18
100
AcDbLine
 10
4.4644074252
 20
26.0844249757
 30
0.0
 11
4.3567836931
 21
26.0874100255
 31
0.0
  0
LINE
  5
11F
330
1F
100
AcDbEntity
  8
SK3
  6
SLD-Dashed
370
    18
100
AcDbLine
 10
4.3567836931
 20
26.0874100255
 30
0.0
 11
4.1931226961
 21
25.9955500571
 31
0.0
  0
LINE
  5
120
330
1F
100
AcDbEntity
  8
SK3
  6
SLD-Dashed
370
    18
100
AcDbLine
 10
4.1931226961
 20
25.9955500571
 30
0.0
 11
3.9829358165
 21
25.814183638
 31
0.0
  0
LINE
  5
121
330
1F
100
AcDbEntity
  8
SK3
  6
SLD-Dashed
370
    18
100
AcDbLine
 10
3.9829358165
 20
25.814183638
 30
0.0
 11
3.7384383518
 21
25.5538511253
 31
0.0
  0
LINE
  5
122
330
1F
100
AcDbEntity
  8
SK3
  6
SLD-Dashed
370
    18
100
AcDbLine
 10
3.7384383518
 20
25.5538511253
 30
0.0
 11
3.4738396059
 21
25.2296820982
 31
0.0
  0
LINE
  5
123
330
1F
100
AcDbEntity
  8
SK3
  6
SLD-Dashed
370
    18
100
AcDbLine
 10
3.4738396059
 20
25.2296820982
 30
0.0
 11
3.2045170961
 21
24.8605160824
 31
0.0
  0
LINE
  5
124
330
1F
100
AcDbEntity
  8
SK3
  6
SLD-Dashed
370
    18
100
AcDbLine
 10
3.2045170961
 20
24.8605160824
 30
0.0
 11
2.9461228678
 21
24.4678076648
 31
0.0
  0
LINE
  5
125
330
1F
100
AcDbEntity
  8
SK3
  6
SLD-Dashed
370
    18
100
AcDbLine
 10
2.9461228678
 20
24.4678076648
 30
0.0
 11
2.7136738542
 21
24.0743796312
 31
0.0
  0
LINE
  5
126
330
1F
100
AcDbEntity
  8
SK3
  6
SLD-Dashed
370
    18
100
AcDbLine
 10
2.7136738542
 20
24.0743796312
 30
0.0
 11
2.5206791472
 21
23.7030965889
 31
0.0
  0
LINE
  5
127
330
1F
100
AcDbEntity
  8
SK3
  6
SLD-Dashed
370
    18
100
AcDbLine
 10
2.5206791472
 20
23.7030965889
 30
0.0
 11
2.3783548976
 21
23.3755361588
 31
0.0
  0
LINE
  5
128
330
1F
100
AcDbEntity
  8
SK3
  6
SLD-Dashed
370
    18
100
AcDbLine
 10
2.3783548976
 20
23.3755361588
 30
0.0
 11
2.2949724735
 21
23.1107349623
 31
0.0
  0
LINE
  5
129
330
1F
100
AcDbEntity
  8
SK3
  6
SLD-Dashed
370
    18
100
AcDbLine
 10
2.2949724735
 20
23.1107349623
 30
0.0
 11
2.2753777582
 21
22.9240822825
 31
0.0
  0
LINE
  5
12A
330
1F
100
AcDbEntity
  8
SK3
  6
SLD-Dashed
370
    18
100
AcDbLine
 10
2.2753777582
 20
22.9240822825
 30
0.0
 11
2.3207095254
 21
22.8264256948
 31
0.0
  0
LINE
  5
12B
330
1F
100
AcDbEntity
  8
SK3
  6
SLD-Dashed
370
    18
100
AcDbLine
 10
7.4570510199
 20
24.1052202839
 30
0.0
 11
7.3976883993
 21
24.1456788519
 31
0.0
  0
LINE
  5
12C
330
1F
100
AcDbEntity
  8
SK3
  6
SLD-Dashed
370
    18
100
AcDbLine
 10
7.3976883993
 20
24.1456788519
 30
0.0
 11
7.3535770614
 21
24.1197714526
 31
0.0
  0
LINE
  5
12D
330
1F
100
AcDbEntity
  8
SK3
  6
SLD-Dashed
370
    18
100
AcDbLine
 10
7.3535770614
 20
24.1197714526
 30
0.0
 11
7.361074152
 21
24.0051579741
 31
0.0
  0
LINE
  5
12E
330
1F
100
AcDbEntity
  8
SK3
  6
SLD-Dashed
370
    18
100
AcDbLine
 10
7.361074152
 20
24.0051579741
 30
0.0
 11
7.4129285201
 21
23.831942356
 31
0.0
  0
LINE
  5
12F
330
1F
100
AcDbEntity
  8
SK3
  6
SLD-Dashed
370
    18
100
AcDbLine
 10
7.4129285201
 20
23.831942356
 30
0.0
 11
7.5585112941
 21
23.4782549596
 31
0.0
  0
LINE
  5
130
330
1F
100
AcDbEntity
  8
SK3
  6
SLD-Dashed
370
    18
100
AcDbLine
 10
7.5585112941
 20
23.4782549596
 30
0.0
 11
7.9049335919
 21
22.7960887741
 31
0.0
  0
LINE
  5
131
330
1F
100
AcDbEntity
  8
SK3
  6
SLD-Dashed
370
    18
100
AcDbLine
 10
7.9049335919
 20
22.7960887741
 30
0.0
 11
8.2587545243
 21
22.2137219987
 31
0.0
  0
LINE
  5
132
330
1F
100
AcDbEntity
  8
SK3
  6
SLD-Dashed
370
    18
100
AcDbLine
 10
8.2587545243
 20
22.2137219987
 30
0.0
 11
8.6897174442
 21
21.6598949107
 31
0.0
  0
LINE
  5
133
330
1F
100
AcDbEntity
  8
SK3
  6
SLD-Dashed
370
    18
100
AcDbLine
 10
8.6897174442
 20
21.6598949107
 30
0.0
 11
9.0187825099
 21
21.3815375084
 31
0.0
  0
LINE
  5
134
330
1F
100
AcDbEntity
  8
SK3
  6
SLD-Dashed
370
    18
100
AcDbLine
 10
9.0187825099
 20
21.3815375084
 30
0.0
 11
9.3310463374
 21
21.2463430543
 31
0.0
  0
LINE
  5
135
330
1F
100
AcDbEntity
  8
SK3
  6
SLD-Dashed
370
    18
100
AcDbLine
 10
9.3310463374
 20
21.2463430543
 30
0.0
 11
9.6616044379
 21
21.2267833783
 31
0.0
  0
LINE
  5
136
330
1F
100
AcDbEntity
  8
SK3
  6
SLD-Dashed
370
    18
100
AcDbLine
 10
9.6616044379
 20
21.2267833783
 30
0.0
 11
10.0490816672
 21
21.3339609132
 31
0.0
  0
LINE
  5
137
330
1F
100
AcDbEntity
  8
SK3
  6
SLD-Dashed
370
    18
100
AcDbLine
 10
10.0490816672
 20
21.3339609132
 30
0.0
 11
10.3629042855
 21
21.51710624
 31
0.0
  0
LINE
  5
138
330
1F
100
AcDbEntity
  8
SK3
  6
SLD-Dashed
370
    18
100
AcDbLine
 10
10.3629042855
 20
21.51710624
 30
0.0
 11
10.5951935462
 21
21.75600212
 31
0.0
  0
LINE
  5
139
330
1F
100
AcDbEntity
  8
SK3
  6
SLD-Dashed
370
    18
100
AcDbLine
 10
10.5951935462
 20
21.75600212
 30
0.0
 11
10.6450791666
 21
21.9591380276
 31
0.0
  0
LINE
  5
13A
330
1F
100
AcDbEntity
  8
SK3
  6
SLD-Dashed
370
    18
100
AcDbLine
 10
10.6450791666
 20
21.9591380276
 30
0.0
 11
10.5210923685
 21
22.0969583763
 31
0.0
  0
LINE
  5
13B
330
1F
100
AcDbEntity
  8
SK3
  6
SLD-Dashed
370
    18
100
AcDbLine
 10
10.5210923685
 20
22.0969583763
 30
0.0
 11
10.2406535263
 21
22.1781146638
 31
0.0
  0
LINE
  5
13C
330
1F
100
AcDbEntity
  8
SK3
  6
SLD-Dashed
370
    18
100
AcDbLine
 10
10.2406535263
 20
22.1781146638
 30
0.0
 11
9.8074172571
 21
22.2364096103
 31
0.0
  0
LINE
  5
13D
330
1F
100
AcDbEntity
  8
SK3
  6
SLD-Dashed
370
    18
100
AcDbLine
 10
9.8074172571
 20
22.2364096103
 30
0.0
 11
9.4692948959
 21
22.3061562179
 31
0.0
  0
LINE
  5
13E
330
1F
100
AcDbEntity
  8
SK3
  6
SLD-Dashed
370
    18
100
AcDbLine
 10
9.4692948959
 20
22.3061562179
 30
0.0
 11
9.1269876917
 21
22.4459693682
 31
0.0
  0
LINE
  5
13F
330
1F
100
AcDbEntity
  8
SK3
  6
SLD-Dashed
370
    18
100
AcDbLine
 10
9.1269876917
 20
22.4459693682
 30
0.0
 11
9.0
 21
22.5223312367
 31
0.0
  0
LINE
  5
140
330
1F
100
AcDbEntity
  8
SK3
  6
SLD-Dashed
370
    18
100
AcDbLine
 10
13.5430925321
 20
15.4423237325
 30
0.0
 11
13.6507162643
 21
15.4393386827
 31
0.0
  0
LINE
  5
141
330
1F
100
AcDbEntity
  8
SK3
  6
SLD-Dashed
370
    18
100
AcDbLine
 10
13.6507162643
 20
15.4393386827
 30
0.0
 11
13.8143772613
 21
15.531198651
 31
0.0
  0
LINE
  5
142
330
1F
100
AcDbEntity
  8
SK3
  6
SLD-Dashed
370
    18
100
AcDbLine
 10
13.8143772613
 20
15.531198651
 30
0.0
 11
14.0245641408
 21
15.7125650701
 31
0.0
  0
LINE
  5
143
330
1F
100
AcDbEntity
  8
SK3
  6
SLD-Dashed
370
    18
100
AcDbLine
 10
14.0245641408
 20
15.7125650701
 30
0.0
 11
14.2690616055
 21
15.9728975829
 31
0.0
  0
LINE
  5
144
330
1F
100
AcDbEntity
  8
SK3
  6
SLD-Dashed
370
    18
100
AcDbLine
 10
14.2690616055
 20
15.9728975829
 30
0.0
 11
14.5336603515
 21
16.2970666099
 31
0.0
  0
LINE
  5
145
330
1F
100
AcDbEntity
  8
SK3
  6
SLD-Dashed
370
    18
100
AcDbLine
 10
14.5336603515
 20
16.2970666099
 30
0.0
 11
14.8029828612
 21
16.6662326257
 31
0.0
  0
LINE
  5
146
330
1F
100
AcDbEntity
  8
SK3
  6
SLD-Dashed
370
    18
100
AcDbLine
 10
14.8029828612
 20
16.6662326257
 30
0.0
 11
15.0613770896
 21
17.0589410433
 31
0.0
  0
LINE
  5
147
330
1F
100
AcDbEntity
  8
SK3
  6
SLD-Dashed
370
    18
100
AcDbLine
 10
15.0613770896
 20
17.0589410433
 30
0.0
 11
15.2938261031
 21
17.4523690769
 31
0.0
  0
LINE
  5
148
330
1F
100
AcDbEntity
  8
SK3
  6
SLD-Dashed
370
    18
100
AcDbLine
 10
15.2938261031
 20
17.4523690769
 30
0.0
 11
15.4868208101
 21
17.8236521192
 31
0.0
  0
LINE
  5
149
330
1F
100
AcDbEntity
  8
SK3
  6
SLD-Dashed
370
    18
100
AcDbLine
 10
15.4868208101
 20
17.8236521192
 30
0.0
 11
15.6291450597
 21
18.1512125494
 31
0.0
  0
LINE
  5
14A
330
1F
100
AcDbEntity
  8
SK3
  6
SLD-Dashed
370
    18
100
AcDbLine
 10
15.6291450597
 20
18.1512125494
 30
0.0
 11
15.7125274839
 21
18.4160137459
 31
0.0
  0
LINE
  5
14B
330
1F
100
AcDbEntity
  8
SK3
  6
SLD-Dashed
370
    18
100
AcDbLine
 10
15.7125274839
 20
18.4160137459
 30
0.0
 11
15.7321221992
 21
18.6026664256
 31
0.0
  0
LINE
  5
14C
330
1F
100
AcDbEntity
  8
SK3
  6
SLD-Dashed
370
    18
100
AcDbLine
 10
15.7321221992
 20
18.6026664256
 30
0.0
 11
15.686790432
 21
18.7003230133
 31
0.0
  0
LINE
  5
14D
330
1F
100
AcDbEntity
  8
SK3
  6
SLD-Dashed
370
    18
100
AcDbLine
 10
15.686790432
 20
18.7003230133
 30
0.0
 11
15.5791666998
 21
18.7033080631
 31
0.0
  0
LINE
  5
14E
330
1F
100
AcDbEntity
  8
SK3
  6
SLD-Dashed
370
    18
100
AcDbLine
 10
15.5791666998
 20
18.7033080631
 30
0.0
 11
15.4155057028
 21
18.6114480948
 31
0.0
  0
LINE
  5
14F
330
1F
100
AcDbEntity
  8
SK3
  6
SLD-Dashed
370
    18
100
AcDbLine
 10
15.4155057028
 20
18.6114480948
 30
0.0
 11
15.2053188233
 21
18.4300816757
 31
0.0
  0
LINE
  5
150
330
1F
100
AcDbEntity
  8
SK3
  6
SLD-Dashed
370
    18
100
AcDbLine
 10
15.2053188233
 20
18.4300816757
 30
0.0
 11
14.9608213586
 21
18.1697491629
 31
0.0
  0
LINE
  5
151
330
1F
100
AcDbEntity
  8
SK3
  6
SLD-Dashed
370
    18
100
AcDbLine
 10
14.9608213586
 20
18.1697491629
 30
0.0
 11
14.6962226126
 21
17.8455801359
 31
0.0
  0
LINE
  5
152
330
1F
100
AcDbEntity
  8
SK3
  6
SLD-Dashed
370
    18
100
AcDbLine
 10
14.6962226126
 20
17.8455801359
 30
0.0
 11
14.4269001029
 21
17.4764141201
 31
0.0
  0
LINE
  5
153
330
1F
100
AcDbEntity
  8
SK3
  6
SLD-Dashed
370
    18
100
AcDbLine
 10
14.4269001029
 20
17.4764141201
 30
0.0
 11
14.1685058745
 21
17.0837057025
 31
0.0
  0
LINE
  5
154
330
1F
100
AcDbEntity
  8
SK3
  6
SLD-Dashed
370
    18
100
AcDbLine
 10
14.1685058745
 20
17.0837057025
 30
0.0
 11
13.936056861
 21
16.6902776689
 31
0.0
  0
LINE
  5
155
330
1F
100
AcDbEntity
  8
SK3
  6
SLD-Dashed
370
    18
100
AcDbLine
 10
13.936056861
 20
16.6902776689
 30
0.0
 11
13.743062154
 21
16.3189946266
 31
0.0
  0
LINE
  5
156
330
1F
100
AcDbEntity
  8
SK3
  6
SLD-Dashed
370
    18
100
AcDbLine
 10
13.743062154
 20
16.3189946266
 30
0.0
 11
13.6007379044
 21
15.9914341964
 31
0.0
  0
LINE
  5
157
330
1F
100
AcDbEntity
  8
SK3
  6
SLD-Dashed
370
    18
100
AcDbLine
 10
13.6007379044
 20
15.9914341964
 30
0.0
 11
13.5173554802
 21
15.726633
 31
0.0
  0
LINE
  5
158
330
1F
100
AcDbEntity
  8
SK3
  6
SLD-Dashed
370
    18
100
AcDbLine
 10
13.5173554802
 20
15.726633
 30
0.0
 11
13.4977607649
 21
15.5399803202
 31
0.0
  0
LINE
  5
159
330
1F
100
AcDbEntity
  8
SK3
  6
SLD-Dashed
370
    18
100
AcDbLine
 10
13.4977607649
 20
15.5399803202
 30
0.0
 11
13.5430925321
 21
15.4423237325
 31
0.0
  0
LINE
  5
15A
330
1F
100
AcDbEntity
  8
SK3
  6
SLD-Dashed
370
    18
100
AcDbLine
 10
62.0
 20
-10.0
 30
0.0
 11
62.0
 21
10.0
 31
0.0
  0
LINE
  5
15B
330
1F
100
AcDbEntity
  8
SK3
  6
SLD-Dashed
370
    18
100
AcDbLine
 10
11.0
 20
10.0
 30
0.0
 11
11.0
 21
-9.999999975
 31
0.0
  0
LINE
  5
15C
330
1F
100
AcDbEntity
  8
SK3
  6
SLD-Dashed
370
    18
100
AcDbLine
 10
11.25
 20
10.25
 30
0.0
 11
11.25
 21
-10.2364094213
 31
0.0
  0
LINE
  5
15D
330
1F
100
AcDbEntity
  8
SK3
  6
SLD-Dashed
370
    18
100
AcDbLine
 10
13.75
 20
10.25
 30
0.0
 11
13.75
 21
-10.2364094213
 31
0.0
  0
LINE
  5
15E
330
1F
100
AcDbEntity
  8
SK3
  6
SLD-Dashed
370
    18
100
AcDbLine
 10
14.0
 20
10.0
 30
0.0
 11
14.0
 21
-9.999999975
 31
0.0
  0
LINE
  5
15F
330
1F
100
AcDbEntity
  8
SK3
  6
SLD-Dashed
370
    18
100
AcDbLine
 10
-63.65
 20
-8.505
 30
0.0
 11
-63.65
 21
8.505
 31
0.0
  0
LINE
  5
160
330
1F
100
AcDbEntity
  8
SK3
  6
SLD-Dashed
370
    18
100
AcDbLine
 10
28.9062797924
 20
-26.0
 30
0.0
 11
28.9
 21
-26.0
 31
0.0
  0
LINE
  5
161
330
1F
100
AcDbEntity
  8
SK3
  6
SLD-Dashed
370
    18
100
AcDbLine
 10
47.1
 20
-23.9
 30
0.0
 11
28.9
 21
-23.9
 31
0.0
  0
LINE
  5
162
330
1F
100
AcDbEntity
  8
SK3
  6
SLD-Dashed
370
    18
100
AcDbLine
 10
-59.15
 20
-8.8
 30
0.0
 11
-59.15
 21
8.8
 31
0.0
  0
LINE
  5
163
330
1F
100
AcDbEntity
  8
SK3
  6
SLD-Dashed
370
    18
100
AcDbLine
 10
-59.6609549882
 20
-8.505
 30
0.0
 11
-59.6609549882
 21
8.505
 31
0.0
  0
LINE
  5
164
330
1F
100
AcDbEntity
  8
SK3
  6
SLD-Dashed
370
    18
100
AcDbLine
 10
-56.15
 20
-8.8
 30
0.0
 11
-56.15
 21
8.8
 31
0.0
  0
LINE
  5
165
330
1F
100
AcDbEntity
  8
SK3
  6
SLD-Dashed
370
    18
100
AcDbLine
 10
-55.1107695155
 20
-7.0
 30
0.0
 11
-55.1107695155
 21
7.0
 31
0.0
  0
LINE
  5
166
330
1F
100
AcDbEntity
  8
SK3
  6
SLD-Dashed
370
    18
100
AcDbLine
 10
15.686790432
 20
-18.7003230133
 30
0.0
 11
15.5791666998
 21
-18.7033080631
 31
0.0
  0
LINE
  5
167
330
1F
100
AcDbEntity
  8
SK3
  6
SLD-Dashed
370
    18
100
AcDbLine
 10
15.5791666998
 20
-18.7033080631
 30
0.0
 11
15.4155057028
 21
-18.6114480948
 31
0.0
  0
LINE
  5
168
330
1F
100
AcDbEntity
  8
SK3
  6
SLD-Dashed
370
    18
100
AcDbLine
 10
15.4155057028
 20
-18.6114480948
 30
0.0
 11
15.2053188233
 21
-18.4300816757
 31
0.0
  0
LINE
  5
169
330
1F
100
AcDbEntity
  8
SK3
  6
SLD-Dashed
370
    18
100
AcDbLine
 10
15.2053188233
 20
-18.4300816757
 30
0.0
 11
14.9608213586
 21
-18.1697491629
 31
0.0
  0
LINE
  5
16A
330
1F
100
AcDbEntity
  8
SK3
  6
SLD-Dashed
370
    18
100
AcDbLine
 10
14.9608213586
 20
-18.1697491629
 30
0.0
 11
14.6962226126
 21
-17.8455801359
 31
0.0
  0
LINE
  5
16B
330
1F
100
AcDbEntity
  8
SK3
  6
SLD-Dashed
370
    18
100
AcDbLine
 10
14.6962226126
 20
-17.8455801359
 30
0.0
 11
14.4269001029
 21
-17.4764141201
 31
0.0
  0
LINE
  5
16C
330
1F
100
AcDbEntity
  8
SK3
  6
SLD-Dashed
370
    18
100
AcDbLine
 10
14.4269001029
 20
-17.4764141201
 30
0.0
 11
14.1685058745
 21
-17.0837057025
 31
0.0
  0
LINE
  5
16D
330
1F
100
AcDbEntity
  8
SK3
  6
SLD-Dashed
370
    18
100
AcDbLine
 10
14.1685058745
 20
-17.0837057025
 30
0.0
 11
13.936056861
 21
-16.6902776689
 31
0.0
  0
LINE
  5
16E
330
1F
100
AcDbEntity
  8
SK3
  6
SLD-Dashed
370
    18
100
AcDbLine
 10
13.936056861
 20
-16.6902776689
 30
0.0
 11
13.743062154
 21
-16.3189946266
 31
0.0
  0
LINE
  5
16F
330
1F
100
AcDbEntity
  8
SK3
  6
SLD-Dashed
370
    18
100
AcDbLine
 10
13.743062154
 20
-16.3189946266
 30
0.0
 11
13.6007379044
 21
-15.9914341964
 31
0.0
  0
LINE
  5
170
330
1F
100
AcDbEntity
  8
SK3
  6
SLD-Dashed
370
    18
100
AcDbLine
 10
13.6007379044
 20
-15.9914341964
 30
0.0
 11
13.5173554802
 21
-15.726633
 31
0.0
  0
LINE
  5
171
330
1F
100
AcDbEntity
  8
SK3
  6
SLD-Dashed
370
    18
100
AcDbLine
 10
13.5173554802
 20
-15.726633
 30
0.0
 11
13.4977607649
 21
-15.5399803202
 31
0.0
  0
LINE
  5
172
330
1F
100
AcDbEntity
  8
SK3
  6
SLD-Dashed
370
    18
100
AcDbLine
 10
13.4977607649
 20
-15.5399803202
 30
0.0
 11
13.5430925321
 21
-15.4423237325
 31
0.0
  0
LINE
  5
173
330
1F
100
AcDbEntity
  8
SK3
  6
SLD-Dashed
370
    18
100
AcDbLine
 10
13.5430925321
 20
-15.4423237325
 30
0.0
 11
13.6507162643
 21
-15.4393386827
 31
0.0
  0
LINE
  5
174
330
1F
100
AcDbEntity
  8
SK3
  6
SLD-Dashed
370
    18
100
AcDbLine
 10
13.6507162643
 20
-15.4393386827
 30
0.0
 11
13.8143772613
 21
-15.531198651
 31
0.0
  0
LINE
  5
175
330
1F
100
AcDbEntity
  8
SK3
  6
SLD-Dashed
370
    18
100
AcDbLine
 10
13.8143772613
 20
-15.531198651
 30
0.0
 11
14.0245641408
 21
-15.7125650701
 31
0.0
  0
LINE
  5
176
330
1F
100
AcDbEntity
  8
SK3
  6
SLD-Dashed
370
    18
100
AcDbLine
 10
14.0245641408
 20
-15.7125650701
 30
0.0
 11
14.2690616055
 21
-15.9728975829
 31
0.0
  0
LINE
  5
177
330
1F
100
AcDbEntity
  8
SK3
  6
SLD-Dashed
370
    18
100
AcDbLine
 10
14.2690616055
 20
-15.9728975829
 30
0.0
 11
14.5336603515
 21
-16.2970666099
 31
0.0
  0
LINE
  5
178
330
1F
100
AcDbEntity
  8
SK3
  6
SLD-Dashed
370
    18
100
AcDbLine
 10
14.5336603515
 20
-16.2970666099
 30
0.0
 11
14.8029828612
 21
-16.6662326257
 31
0.0
  0
LINE
  5
179
330
1F
100
AcDbEntity
  8
SK3
  6
SLD-Dashed
370
    18
100
AcDbLine
 10
14.8029828612
 20
-16.6662326257
 30
0.0
 11
15.0613770896
 21
-17.0589410433
 31
0.0
  0
LINE
  5
17A
330
1F
100
AcDbEntity
  8
SK3
  6
SLD-Dashed
370
    18
100
AcDbLine
 10
15.0613770896
 20
-17.0589410433
 30
0.0
 11
15.2938261031
 21
-17.4523690769
 31
0.0
  0
LINE
  5
17B
330
1F
100
AcDbEntity
  8
SK3
  6
SLD-Dashed
370
    18
100
AcDbLine
 10
15.2938261031
 20
-17.4523690769
 30
0.0
 11
15.4868208101
 21
-17.8236521192
 31
0.0
  0
LINE
  5
17C
330
1F
100
AcDbEntity
  8
SK3
  6
SLD-Dashed
370
    18
100
AcDbLine
 10
15.4868208101
 20
-17.8236521192
 30
0.0
 11
15.6291450597
 21
-18.1512125494
 31
0.0
  0
LINE
  5
17D
330
1F
100
AcDbEntity
  8
SK3
  6
SLD-Dashed
370
    18
100
AcDbLine
 10
15.6291450597
 20
-18.1512125494
 30
0.0
 11
15.7125274839
 21
-18.4160137459
 31
0.0
  0
LINE
  5
17E
330
1F
100
AcDbEntity
  8
SK3
  6
SLD-Dashed
370
    18
100
AcDbLine
 10
15.7125274839
 20
-18.4160137459
 30
0.0
 11
15.7321221992
 21
-18.6026664256
 31
0.0
  0
LINE
  5
17F
330
1F
100
AcDbEntity
  8
SK3
  6
SLD-Dashed
370
    18
100
AcDbLine
 10
15.7321221992
 20
-18.6026664256
 30
0.0
 11
15.686790432
 21
-18.7003230133
 31
0.0
  0
LINE
  5
180
330
1F
100
AcDbEntity
  8
SK3
  6
SLD-Dashed
370
    18
100
AcDbLine
 10
4.4644074252
 20
-26.0844249757
 30
0.0
 11
4.3567836931
 21
-26.0874100255
 31
0.0
  0
LINE
  5
181
330
1F
100
AcDbEntity
  8
SK3
  6
SLD-Dashed
370
    18
100
AcDbLine
 10
4.3567836931
 20
-26.0874100255
 30
0.0
 11
4.1931226961
 21
-25.9955500571
 31
0.0
  0
LINE
  5
182
330
1F
100
AcDbEntity
  8
SK3
  6
SLD-Dashed
370
    18
100
AcDbLine
 10
4.1931226961
 20
-25.9955500571
 30
0.0
 11
3.9829358165
 21
-25.814183638
 31
0.0
  0
LINE
  5
183
330
1F
100
AcDbEntity
  8
SK3
  6
SLD-Dashed
370
    18
100
AcDbLine
 10
3.9829358165
 20
-25.814183638
 30
0.0
 11
3.7384383518
 21
-25.5538511253
 31
0.0
  0
LINE
  5
184
330
1F
100
AcDbEntity
  8
SK3
  6
SLD-Dashed
370
    18
100
AcDbLine
 10
3.7384383518
 20
-25.5538511253
 30
0.0
 11
3.4738396059
 21
-25.2296820982
 31
0.0
  0
LINE
  5
185
330
1F
100
AcDbEntity
  8
SK3
  6
SLD-Dashed
370
    18
100
AcDbLine
 10
3.4738396059
 20
-25.2296820982
 30
0.0
 11
3.2045170961
 21
-24.8605160824
 31
0.0
  0
LINE
  5
186
330
1F
100
AcDbEntity
  8
SK3
  6
SLD-Dashed
370
    18
100
AcDbLine
 10
3.2045170961
 20
-24.8605160824
 30
0.0
 11
2.9461228678
 21
-24.4678076648
 31
0.0
  0
LINE
  5
187
330
1F
100
AcDbEntity
  8
SK3
  6
SLD-Dashed
370
    18
100
AcDbLine
 10
2.9461228678
 20
-24.4678076648
 30
0.0
 11
2.7136738542
 21
-24.0743796312
 31
0.0
  0
LINE
  5
188
330
1F
100
AcDbEntity
  8
SK3
  6
SLD-Dashed
370
    18
100
AcDbLine
 10
2.7136738542
 20
-24.0743796312
 30
0.0
 11
2.5206791472
 21
-23.7030965889
 31
0.0
  0
LINE
  5
189
330
1F
100
AcDbEntity
  8
SK3
  6
SLD-Dashed
370
    18
100
AcDbLine
 10
2.5206791472
 20
-23.7030965889
 30
0.0
 11
2.3783548976
 21
-23.3755361588
 31
0.0
  0
LINE
  5
18A
330
1F
100
AcDbEntity
  8
SK3
  6
SLD-Dashed
370
    18
100
AcDbLine
 10
2.3783548976
 20
-23.3755361588
 30
0.0
 11
2.2949724735
 21
-23.1107349623
 31
0.0
  0
LINE
  5
18B
330
1F
100
AcDbEntity
  8
SK3
  6
SLD-Dashed
370
    18
100
AcDbLine
 10
2.2949724735
 20
-23.1107349623
 30
0.0
 11
2.2753777582
 21
-22.9240822825
 31
0.0
  0
LINE
  5
18C
330
1F
100
AcDbEntity
  8
SK3
  6
SLD-Dashed
370
    18
100
AcDbLine
 10
2.2753777582
 20
-22.9240822825
 30
0.0
 11
2.3207095254
 21
-22.8264256948
 31
0.0
  0
LINE
  5
18D
330
1F
100
AcDbEntity
  8
SK3
  6
SLD-Dashed
370
    18
100
AcDbLine
 10
2.3207095254
 20
-22.8264256948
 30
0.0
 11
2.4283332575
 21
-22.823440645
 31
0.0
  0
LINE
  5
18E
330
1F
100
AcDbEntity
  8
SK3
  6
SLD-Dashed
370
    18
100
AcDbLine
 10
2.4283332575
 20
-22.823440645
 30
0.0
 11
2.5919942545
 21
-22.9153006134
 31
0.0
  0
LINE
  5
18F
330
1F
100
AcDbEntity
  8
SK3
  6
SLD-Dashed
370
    18
100
AcDbLine
 10
2.5919942545
 20
-22.9153006134
 30
0.0
 11
2.8021811341
 21
-23.0966670324
 31
0.0
  0
LINE
  5
190
330
1F
100
AcDbEntity
  8
SK3
  6
SLD-Dashed
370
    18
100
AcDbLine
 10
2.8021811341
 20
-23.0966670324
 30
0.0
 11
3.0466785988
 21
-23.3569995452
 31
0.0
  0
LINE
  5
191
330
1F
100
AcDbEntity
  8
SK3
  6
SLD-Dashed
370
    18
100
AcDbLine
 10
3.0466785988
 20
-23.3569995452
 30
0.0
 11
3.3112773447
 21
-23.6811685723
 31
0.0
  0
LINE
  5
192
330
1F
100
AcDbEntity
  8
SK3
  6
SLD-Dashed
370
    18
100
AcDbLine
 10
3.3112773447
 20
-23.6811685723
 30
0.0
 11
3.5805998545
 21
-24.0503345881
 31
0.0
  0
LINE
  5
193
330
1F
100
AcDbEntity
  8
SK3
  6
SLD-Dashed
370
    18
100
AcDbLine
 10
3.5805998545
 20
-24.0503345881
 30
0.0
 11
3.8389940828
 21
-24.4430430056
 31
0.0
  0
LINE
  5
194
330
1F
100
AcDbEntity
  8
SK3
  6
SLD-Dashed
370
    18
100
AcDbLine
 10
3.8389940828
 20
-24.4430430056
 30
0.0
 11
4.0714430963
 21
-24.8364710392
 31
0.0
  0
LINE
  5
195
330
1F
100
AcDbEntity
  8
SK3
  6
SLD-Dashed
370
    18
100
AcDbLine
 10
4.0714430963
 20
-24.8364710392
 30
0.0
 11
4.2644378033
 21
-25.2077540815
 31
0.0
  0
LINE
  5
196
330
1F
100
AcDbEntity
  8
SK3
  6
SLD-Dashed
370
    18
100
AcDbLine
 10
4.2644378033
 20
-25.2077540815
 30
0.0
 11
4.406762053
 21
-25.5353145117
 31
0.0
  0
LINE
  5
197
330
1F
100
AcDbEntity
  8
SK3
  6
SLD-Dashed
370
    18
100
AcDbLine
 10
4.406762053
 20
-25.5353145117
 30
0.0
 11
4.4901444771
 21
-25.8001157082
 31
0.0
  0
LINE
  5
198
330
1F
100
AcDbEntity
  8
SK3
  6
SLD-Dashed
370
    18
100
AcDbLine
 10
4.4901444771
 20
-25.8001157082
 30
0.0
 11
4.5097391924
 21
-25.9867683879
 31
0.0
  0
LINE
  5
199
330
1F
100
AcDbEntity
  8
SK3
  6
SLD-Dashed
370
    18
100
AcDbLine
 10
4.5097391924
 20
-25.9867683879
 30
0.0
 11
4.4644074252
 21
-26.0844249757
 31
0.0
  0
LINE
  5
19A
330
1F
100
AcDbEntity
  8
SK3
  6
SLD-Dashed
370
    18
100
AcDbLine
 10
7.3820378341
 20
-24.1470331691
 30
0.0
 11
7.3504918459
 21
-24.1014337538
 31
0.0
  0
LINE
  5
19B
330
1F
100
AcDbEntity
  8
SK3
  6
SLD-Dashed
370
    18
100
AcDbLine
 10
7.3504918459
 20
-24.1014337538
 30
0.0
 11
7.3687923493
 21
-23.9729506595
 31
0.0
  0
LINE
  5
19C
330
1F
100
AcDbEntity
  8
SK3
  6
SLD-Dashed
370
    18
100
AcDbLine
 10
7.3687923493
 20
-23.9729506595
 30
0.0
 11
7.4479218764
 21
-23.7382957702
 31
0.0
  0
LINE
  5
19D
330
1F
100
AcDbEntity
  8
SK3
  6
SLD-Dashed
370
    18
100
AcDbLine
 10
7.4479218764
 20
-23.7382957702
 30
0.0
 11
7.6410805432
 21
-23.3023903098
 31
0.0
  0
LINE
  5
19E
330
1F
100
AcDbEntity
  8
SK3
  6
SLD-Dashed
370
    18
100
AcDbLine
 10
7.6410805432
 20
-23.3023903098
 30
0.0
 11
8.105178812
 21
-22.4536692312
 31
0.0
  0
LINE
  5
19F
330
1F
100
AcDbEntity
  8
SK3
  6
SLD-Dashed
370
    18
100
AcDbLine
 10
8.105178812
 20
-22.4536692312
 30
0.0
 11
8.4071182826
 21
-22.0018213588
 31
0.0
  0
LINE
  5
1A0
330
1F
100
AcDbEntity
  8
SK3
  6
SLD-Dashed
370
    18
100
AcDbLine
 10
8.4071182826
 20
-22.0018213588
 30
0.0
 11
8.7667857623
 21
-21.582430302
 31
0.0
  0
LINE
  5
1A1
330
1F
100
AcDbEntity
  8
SK3
  6
SLD-Dashed
370
    18
100
AcDbLine
 10
8.7667857623
 20
-21.582430302
 30
0.0
 11
9.093568309
 21
-21.3378291832
 31
0.0
  0
LINE
  5
1A2
330
1F
100
AcDbEntity
  8
SK3
  6
SLD-Dashed
370
    18
100
AcDbLine
 10
9.093568309
 20
-21.3378291832
 30
0.0
 11
9.4029273959
 21
-21.2321009531
 31
0.0
  0
LINE
  5
1A3
330
1F
100
AcDbEntity
  8
SK3
  6
SLD-Dashed
370
    18
100
AcDbLine
 10
9.4029273959
 20
-21.2321009531
 30
0.0
 11
9.7191716979
 21
-21.2345133763
 31
0.0
  0
LINE
  5
1A4
330
1F
100
AcDbEntity
  8
SK3
  6
SLD-Dashed
370
    18
100
AcDbLine
 10
9.7191716979
 20
-21.2345133763
 30
0.0
 11
10.1148068689
 21
-21.3646203742
 31
0.0
  0
LINE
  5
1A5
330
1F
100
AcDbEntity
  8
SK3
  6
SLD-Dashed
370
    18
100
AcDbLine
 10
10.1148068689
 20
-21.3646203742
 30
0.0
 11
10.4222460794
 21
-21.5646137107
 31
0.0
  0
LINE
  5
1A6
330
1F
100
AcDbEntity
  8
SK3
  6
SLD-Dashed
370
    18
100
AcDbLine
 10
10.4222460794
 20
-21.5646137107
 30
0.0
 11
10.6206198047
 21
-21.8019877866
 31
0.0
  0
LINE
  5
1A7
330
1F
100
AcDbEntity
  8
SK3
  6
SLD-Dashed
370
    18
100
AcDbLine
 10
10.6206198047
 20
-21.8019877866
 30
0.0
 11
10.633134177
 21
-21.9923554895
 31
0.0
  0
LINE
  5
1A8
330
1F
100
AcDbEntity
  8
SK3
  6
SLD-Dashed
370
    18
100
AcDbLine
 10
10.633134177
 20
-21.9923554895
 30
0.0
 11
10.5530882486
 21
-22.0781956401
 31
0.0
  0
LINE
  5
1A9
330
1F
100
AcDbEntity
  8
SK3
  6
SLD-Dashed
370
    18
100
AcDbLine
 10
9.0
 20
-24.3375212143
 30
0.0
 11
8.5729485756
 21
-24.3567504031
 31
0.0
  0
LINE
  5
1AA
330
1F
100
AcDbEntity
  8
SK3
  6
SLD-Dashed
370
    18
100
AcDbLine
 10
8.5729485756
 20
-24.3567504031
 30
0.0
 11
8.175
 21
-24.4131275318
 31
0.0
  0
LINE
  5
1AB
330
1F
100
AcDbEntity
  8
SK3
  6
SLD-Dashed
370
    18
100
AcDbLine
 10
8.175
 20
-24.4131275318
 30
0.0
 11
7.833273811
 21
-24.5028105925
 31
0.0
  0
LINE
  5
1AC
330
1F
100
AcDbEntity
  8
SK3
  6
SLD-Dashed
370
    18
100
AcDbLine
 10
7.833273811
 20
-24.5028105925
 30
0.0
 11
7.5710580838
 21
-24.6196878326
 31
0.0
  0
LINE
  5
1AD
330
1F
100
AcDbEntity
  8
SK3
  6
SLD-Dashed
370
    18
100
AcDbLine
 10
7.5710580838
 20
-24.6196878326
 30
0.0
 11
7.4062223866
 21
-24.7557942614
 31
0.0
  0
LINE
  5
1AE
330
1F
100
AcDbEntity
  8
SK3
  6
SLD-Dashed
370
    18
100
AcDbLine
 10
7.4062223866
 20
-24.7557942614
 30
0.0
 11
7.35
 21
-24.9018544508
 31
0.0
  0
LINE
  5
1AF
330
1F
100
AcDbEntity
  8
SK3
  6
SLD-Dashed
370
    18
100
AcDbLine
 10
7.35
 20
-24.9018544508
 30
0.0
 11
7.4062223866
 21
-25.0479146402
 31
0.0
  0
LINE
  5
1B0
330
1F
100
AcDbEntity
  8
SK3
  6
SLD-Dashed
370
    18
100
AcDbLine
 10
7.4062223866
 20
-25.0479146402
 30
0.0
 11
7.5710580838
 21
-25.1840210691
 31
0.0
  0
LINE
  5
1B1
330
1F
100
AcDbEntity
  8
SK3
  6
SLD-Dashed
370
    18
100
AcDbLine
 10
7.5710580838
 20
-25.1840210691
 30
0.0
 11
7.833273811
 21
-25.3008983092
 31
0.0
  0
LINE
  5
1B2
330
1F
100
AcDbEntity
  8
SK3
  6
SLD-Dashed
370
    18
100
AcDbLine
 10
7.833273811
 20
-25.3008983092
 30
0.0
 11
8.175
 21
-25.3905813698
 31
0.0
  0
LINE
  5
1B3
330
1F
100
AcDbEntity
  8
SK3
  6
SLD-Dashed
370
    18
100
AcDbLine
 10
8.175
 20
-25.3905813698
 30
0.0
 11
8.5729485756
 21
-25.4469584986
 31
0.0
  0
LINE
  5
1B4
330
1F
100
AcDbEntity
  8
SK3
  6
SLD-Dashed
370
    18
100
AcDbLine
 10
8.5729485756
 20
-25.4469584986
 30
0.0
 11
9.0
 21
-25.4661876873
 31
0.0
  0
LINE
  5
1B5
330
1F
100
AcDbEntity
  8
SK3
  6
SLD-Dashed
370
    18
100
AcDbLine
 10
9.0
 20
-25.4661876873
 30
0.0
 11
9.4270514244
 21
-25.4469584986
 31
0.0
  0
LINE
  5
1B6
330
1F
100
AcDbEntity
  8
SK3
  6
SLD-Dashed
370
    18
100
AcDbLine
 10
9.4270514244
 20
-25.4469584986
 30
0.0
 11
9.825
 21
-25.3905813698
 31
0.0
  0
LINE
  5
1B7
330
1F
100
AcDbEntity
  8
SK3
  6
SLD-Dashed
370
    18
100
AcDbLine
 10
9.825
 20
-25.3905813698
 30
0.0
 11
10.166726189
 21
-25.3008983092
 31
0.0
  0
LINE
  5
1B8
330
1F
100
AcDbEntity
  8
SK3
  6
SLD-Dashed
370
    18
100
AcDbLine
 10
10.166726189
 20
-25.3008983092
 30
0.0
 11
10.4289419162
 21
-25.1840210691
 31
0.0
  0
LINE
  5
1B9
330
1F
100
AcDbEntity
  8
SK3
  6
SLD-Dashed
370
    18
100
AcDbLine
 10
10.4289419162
 20
-25.1840210691
 30
0.0
 11
10.5937776134
 21
-25.0479146402
 31
0.0
  0
LINE
  5
1BA
330
1F
100
AcDbEntity
  8
SK3
  6
SLD-Dashed
370
    18
100
AcDbLine
 10
10.5937776134
 20
-25.0479146402
 30
0.0
 11
10.65
 21
-24.9018544508
 31
0.0
  0
LINE
  5
1BB
330
1F
100
AcDbEntity
  8
SK3
  6
SLD-Dashed
370
    18
100
AcDbLine
 10
10.65
 20
-24.9018544508
 30
0.0
 11
10.5937776134
 21
-24.7557942614
 31
0.0
  0
LINE
  5
1BC
330
1F
100
AcDbEntity
  8
SK3
  6
SLD-Dashed
370
    18
100
AcDbLine
 10
10.5937776134
 20
-24.7557942614
 30
0.0
 11
10.4289419162
 21
-24.6196878326
 31
0.0
  0
LINE
  5
1BD
330
1F
100
AcDbEntity
  8
SK3
  6
SLD-Dashed
370
    18
100
AcDbLine
 10
10.4289419162
 20
-24.6196878326
 30
0.0
 11
10.166726189
 21
-24.5028105925
 31
0.0
  0
LINE
  5
1BE
330
1F
100
AcDbEntity
  8
SK3
  6
SLD-Dashed
370
    18
100
AcDbLine
 10
10.166726189
 20
-24.5028105925
 30
0.0
 11
9.825
 21
-24.4131275318
 31
0.0
  0
LINE
  5
1BF
330
1F
100
AcDbEntity
  8
SK3
  6
SLD-Dashed
370
    18
100
AcDbLine
 10
9.825
 20
-24.4131275318
 30
0.0
 11
9.4270514244
 21
-24.3567504031
 31
0.0
  0
LINE
  5
1C0
330
1F
100
AcDbEntity
  8
SK3
  6
SLD-Dashed
370
    18
100
AcDbLine
 10
9.4270514244
 20
-24.3567504031
 30
0.0
 11
9.0
 21
-24.3375212143
 31
0.0
  0
LINE
  5
1C1
330
1F
100
AcDbEntity
  8
SK3
  6
SLD-Dashed
370
    18
100
AcDbLine
 10
4.5468573445
 20
-26.2097326403
 30
0.0
 11
4.4363764556
 21
-26.2146666928
 31
0.0
  0
LINE
  5
1C2
330
1F
100
AcDbEntity
  8
SK3
  6
SLD-Dashed
370
    18
100
AcDbLine
 10
4.4363764556
 20
-26.2146666928
 30
0.0
 11
4.2696230692
 21
-26.1247595884
 31
0.0
  0
LINE
  5
1C3
330
1F
100
AcDbEntity
  8
SK3
  6
SLD-Dashed
370
    18
100
AcDbLine
 10
4.2696230692
 20
-26.1247595884
 30
0.0
 11
4.0555869036
 21
-25.9448582422
 31
0.0
  0
LINE
  5
1C4
330
1F
100
AcDbEntity
  8
SK3
  6
SLD-Dashed
370
    18
100
AcDbLine
 10
4.0555869036
 20
-25.9448582422
 30
0.0
 11
3.8058067038
 21
-25.6846611825
 31
0.0
  0
LINE
  5
1C5
330
1F
100
AcDbEntity
  8
SK3
  6
SLD-Dashed
370
    18
100
AcDbLine
 10
3.8058067038
 20
-25.6846611825
 30
0.0
 11
3.533748185
 21
-25.3581957002
 31
0.0
  0
LINE
  5
1C6
330
1F
100
AcDbEntity
  8
SK3
  6
SLD-Dashed
370
    18
100
AcDbLine
 10
3.533748185
 20
-25.3581957002
 30
0.0
 11
3.2540780924
 21
-24.9830616337
 31
0.0
  0
LINE
  5
1C7
330
1F
100
AcDbEntity
  8
SK3
  6
SLD-Dashed
370
    18
100
AcDbLine
 10
3.2540780924
 20
-24.9830616337
 30
0.0
 11
2.9818735131
 21
-24.5794825579
 31
0.0
  0
LINE
  5
1C8
330
1F
100
AcDbEntity
  8
SK3
  6
SLD-Dashed
370
    18
100
AcDbLine
 10
2.9818735131
 20
-24.5794825579
 30
0.0
 11
2.7318090664
 21
-24.1692155251
 31
0.0
  0
LINE
  5
1C9
330
1F
100
AcDbEntity
  8
SK3
  6
SLD-Dashed
370
    18
100
AcDbLine
 10
2.7318090664
 20
-24.1692155251
 30
0.0
 11
2.5173657914
 21
-23.7743781372
 31
0.0
  0
LINE
  5
1CA
330
1F
100
AcDbEntity
  8
SK3
  6
SLD-Dashed
370
    18
100
AcDbLine
 10
2.5173657914
 20
-23.7743781372
 30
0.0
 11
2.3501043805
 21
-23.41625618
 31
0.0
  0
LINE
  5
1CB
330
1F
100
AcDbEntity
  8
SK3
  6
SLD-Dashed
370
    18
100
AcDbLine
 10
2.3501043805
 20
-23.41625618
 30
0.0
 11
2.2390419397
 21
-23.114156101
 31
0.0
  0
LINE
  5
1CC
330
1F
100
AcDbEntity
  8
SK3
  6
SLD-Dashed
370
    18
100
AcDbLine
 10
2.2390419397
 20
-23.114156101
 30
0.0
 11
2.1901658739
 21
-22.8843641936
 31
0.0
  0
LINE
  5
1CD
330
1F
100
AcDbEntity
  8
SK3
  6
SLD-Dashed
370
    18
100
AcDbLine
 10
2.1901658739
 20
-22.8843641936
 30
0.0
 11
2.2061111044
 21
-22.7392685989
 31
0.0
  0
LINE
  5
1CE
330
1F
100
AcDbEntity
  8
SK3
  6
SLD-Dashed
370
    18
100
AcDbLine
 10
2.2061111044
 20
-22.7392685989
 30
0.0
 11
2.2860180199
 21
-22.6866914582
 31
0.0
  0
LINE
  5
1CF
330
1F
100
AcDbEntity
  8
SK3
  6
SLD-Dashed
370
    18
100
AcDbLine
 10
2.2860180199
 20
-22.6866914582
 30
0.0
 11
2.4255788177
 21
-22.7294672186
 31
0.0
  0
LINE
  5
1D0
330
1F
100
AcDbEntity
  8
SK3
  6
SLD-Dashed
370
    18
100
AcDbLine
 10
2.4255788177
 20
-22.7294672186
 30
0.0
 11
2.6172697391
 21
-22.8652898277
 31
0.0
  0
LINE
  5
1D1
330
1F
100
AcDbEntity
  8
SK3
  6
SLD-Dashed
370
    18
100
AcDbLine
 10
2.6172697391
 20
-22.8652898277
 30
0.0
 11
2.850756677
 21
-23.0868370537
 31
0.0
  0
LINE
  5
1D2
330
1F
100
AcDbEntity
  8
SK3
  6
SLD-Dashed
370
    18
100
AcDbLine
 10
2.850756677
 20
-23.0868370537
 30
0.0
 11
3.11345229
 21
-23.3821652282
 31
0.0
  0
LINE
  5
1D3
330
1F
100
AcDbEntity
  8
SK3
  6
SLD-Dashed
370
    18
100
AcDbLine
 10
3.11345229
 20
-23.3821652282
 30
0.0
 11
3.3911945898
 21
-23.7353531329
 31
0.0
  0
LINE
  5
1D4
330
1F
100
AcDbEntity
  8
SK3
  6
SLD-Dashed
370
    18
100
AcDbLine
 10
3.3911945898
 20
-23.7353531329
 30
0.0
 11
3.669010417
 21
-24.1273603164
 31
0.0
  0
LINE
  5
1D5
330
1F
100
AcDbEntity
  8
SK3
  6
SLD-Dashed
370
    18
100
AcDbLine
 10
3.669010417
 20
-24.1273603164
 30
0.0
 11
3.9319226484
 21
-24.5370535699
 31
0.0
  0
LINE
  5
1D6
330
1F
100
AcDbEntity
  8
SK3
  6
SLD-Dashed
370
    18
100
AcDbLine
 10
3.9319226484
 20
-24.5370535699
 30
0.0
 11
4.1657576177
 21
-24.9423462242
 31
0.0
  0
LINE
  5
1D7
330
1F
100
AcDbEntity
  8
SK3
  6
SLD-Dashed
370
    18
100
AcDbLine
 10
4.1657576177
 20
-24.9423462242
 30
0.0
 11
4.357909221
 21
-25.3213888474
 31
0.0
  0
LINE
  5
1D8
330
1F
100
AcDbEntity
  8
SK3
  6
SLD-Dashed
370
    18
100
AcDbLine
 10
4.357909221
 20
-25.3213888474
 30
0.0
 11
4.4980185158
 21
-25.6537471534
 31
0.0
  0
LINE
  5
1D9
330
1F
100
AcDbEntity
  8
SK3
  6
SLD-Dashed
370
    18
100
AcDbLine
 10
4.4980185158
 20
-25.6537471534
 30
0.0
 11
4.5785321737
 21
-25.9215036201
 31
0.0
  0
LINE
  5
1DA
330
1F
100
AcDbEntity
  8
SK3
  6
SLD-Dashed
370
    18
100
AcDbLine
 10
4.5785321737
 20
-25.9215036201
 30
0.0
 11
4.5951096825
 21
-26.1102234269
 31
0.0
  0
LINE
  5
1DB
330
1F
100
AcDbEntity
  8
SK3
  6
SLD-Dashed
370
    18
100
AcDbLine
 10
4.5951096825
 20
-26.1102234269
 30
0.0
 11
4.5468573445
 21
-26.2097326403
 31
0.0
  0
LINE
  5
1DC
330
1F
100
AcDbEntity
  8
1
  6
SLD-Dashed
370
    18
100
AcDbLine
 10
20.8487170173
 20
-5.9912411098
 30
0.0
 11
21.2930896285
 21
-5.5551260585
 31
0.0
  0
LINE
  5
1DD
330
1F
100
AcDbEntity
  8
1
  6
SLD-Dashed
370
    18
100
AcDbLine
 10
21.2930896285
 20
-5.5551260585
 30
0.0
 11
21.7494649288
 21
-5.0276027854
 31
0.0
  0
LINE
  5
1DE
330
1F
100
AcDbEntity
  8
1
  6
SLD-Dashed
370
    18
100
AcDbLine
 10
2.75
 20
8.095
 30
0.0
 11
2.75
 21
8.5720481928
 31
0.0
  0
LINE
  5
1DF
330
1F
100
AcDbEntity
  8
SK3
  6
SLD-Dashed
370
    18
100
AcDbLine
 10
7.0
 20
29.6001745626
 30
0.0
 11
7.0
 21
25.7475778095
 31
0.0
  0
LINE
  5
1E0
330
1F
100
AcDbEntity
  8
SK3
  6
SLD-Dashed
370
    18
100
AcDbLine
 10
11.0
 20
25.7475778095
 30
0.0
 11
11.0
 21
29.5988125155
 31
0.0
  0
LINE
  5
1E1
330
1F
100
AcDbEntity
  8
SK3
  6
SLD-Dashed
370
    18
100
AcDbLine
 10
2.0
 20
22.8578880517
 30
0.0
 11
2.2382596061
 21
22.7011180302
 31
0.0
  0
LINE
  5
1E2
330
1F
100
AcDbEntity
  8
SK3
  6
SLD-Dashed
370
    18
100
AcDbLine
 10
4.5468573445
 20
26.2097326403
 30
0.0
 11
2.0
 21
27.8855134708
 31
0.0
  0
LINE
  5
1E3
330
1F
100
AcDbEntity
  8
SK3
  6
SLD-Dashed
370
    18
100
AcDbLine
 10
7.4474833261
 20
25.3163485945
 30
0.0
 11
7.719173744
 21
25.2019275815
 31
0.0
  0
LINE
  5
1E4
330
1F
100
AcDbEntity
  8
SK3
  6
SLD-Dashed
370
    18
100
AcDbLine
 10
10.280826256
 20
25.2019275815
 30
0.0
 11
10.5525166739
 21
25.3163485945
 31
0.0
  0
LINE
  5
1E5
330
1F
100
AcDbEntity
  8
SK3
  6
SLD-Dashed
370
    18
100
AcDbLine
 10
7.35
 20
25.5576916839
 30
0.0
 11
7.35
 21
24.0782137397
 31
0.0
  0
LINE
  5
1E6
330
1F
100
AcDbEntity
  8
SK3
  6
SLD-Dashed
370
    18
100
AcDbLine
 10
10.65
 20
21.9120695751
 30
0.0
 11
10.65
 21
25.5576916839
 31
0.0
  0
LINE
  5
1E7
330
1F
100
AcDbEntity
  8
SK3
  6
SLD-Dashed
370
    18
100
AcDbLine
 10
10.5530882486
 20
17.4096863224
 30
0.0
 11
13.5430925321
 21
15.4423237325
 31
0.0
  0
LINE
  5
1E8
330
1F
100
AcDbEntity
  8
SK3
  6
SLD-Dashed
370
    18
100
AcDbLine
 10
2.3207095254
 20
22.8264256948
 30
0.0
 11
7.458905343
 21
19.4455963472
 31
0.0
  0
LINE
  5
1E9
330
1F
100
AcDbEntity
  8
SK3
  6
SLD-Dashed
370
    18
100
AcDbLine
 10
7.4616816698
 20
24.1122788978
 30
0.0
 11
4.4644074252
 21
26.0844249757
 31
0.0
  0
LINE
  5
1EA
330
1F
100
AcDbEntity
  8
SK3
  6
SLD-Dashed
370
    18
100
AcDbLine
 10
15.686790432
 20
18.7003230133
 30
0.0
 11
10.5469004204
 21
22.0822671065
 31
0.0
  0
LINE
  5
1EB
330
1F
100
AcDbEntity
  8
SK3
  6
SLD-Dashed
370
    18
100
AcDbLine
 10
63.0
 20
10.5773502692
 30
0.0
 11
62.0
 21
10.0
 31
0.0
  0
LINE
  5
1EC
330
1F
100
AcDbEntity
  8
SK3
  6
SLD-Dashed
370
    18
100
AcDbLine
 10
62.0
 20
-10.0
 30
0.0
 11
63.0
 21
-10.5773502692
 31
0.0
  0
LINE
  5
1ED
330
1F
100
AcDbEntity
  8
SK3
  6
SLD-Dashed
370
    18
100
AcDbLine
 10
13.75
 20
10.25
 30
0.0
 11
11.25
 21
10.25
 31
0.0
  0
LINE
  5
1EE
330
1F
100
AcDbEntity
  8
SK3
  6
SLD-Dashed
370
    18
100
AcDbLine
 10
11.25
 20
-10.25
 30
0.0
 11
13.75
 21
-10.25
 31
0.0
  0
LINE
  5
1EF
330
1F
100
AcDbEntity
  8
1
  6
SLD-Dashed
370
    18
100
AcDbLine
 10
62.0
 20
10.0
 30
0.0
 11
14.0
 21
10.0
 31
0.0
  0
LINE
  5
1F0
330
1F
100
AcDbEntity
  8
SK3
  6
SLD-Dashed
370
    18
100
AcDbLine
 10
45.0
 20
-10.0
 30
0.0
 11
62.0
 21
-10.0
 31
0.0
  0
LINE
  5
1F1
330
1F
100
AcDbEntity
  8
SK3
  6
SLD-Dashed
370
    18
100
AcDbLine
 10
14.0
 20
-9.999999975
 30
0.0
 11
31.0004980682
 21
-9.999999975
 31
0.0
  0
LINE
  5
1F2
330
1F
100
AcDbEntity
  8
SK3
  6
SLD-Dashed
370
    18
100
AcDbLine
 10
-65.4
 20
-9.5153629711
 30
0.0
 11
-63.65
 21
-8.505
 31
0.0
  0
LINE
  5
1F3
330
1F
100
AcDbEntity
  8
SK3
  6
SLD-Dashed
370
    18
100
AcDbLine
 10
-63.65
 20
8.505
 30
0.0
 11
-65.4
 21
9.5153629711
 31
0.0
  0
LINE
  5
1F4
330
1F
100
AcDbEntity
  8
SK3
  6
SLD-Dashed
370
    18
100
AcDbLine
 10
47.1
 20
-26.0
 30
0.0
 11
47.1
 21
-23.9
 31
0.0
  0
LINE
  5
1F5
330
1F
100
AcDbEntity
  8
SK3
  6
SLD-Dashed
370
    18
100
AcDbLine
 10
28.9
 20
-23.9
 30
0.0
 11
28.9
 21
-26.0
 31
0.0
  0
LINE
  5
1F6
330
1F
100
AcDbEntity
  8
SK3
  6
SLD-Dashed
370
    18
100
AcDbLine
 10
7.35
 20
19.6209851702
 30
0.0
 11
7.35
 21
6.5760827024
 31
0.0
  0
LINE
  5
1F7
330
1F
100
AcDbEntity
  8
SK3
  6
SLD-Dashed
370
    18
100
AcDbLine
 10
10.65
 20
6.5734926391
 30
0.0
 11
10.65
 21
17.4508800412
 31
0.0
  0
LINE
  5
1F8
330
1F
100
AcDbEntity
  8
SK3
  6
SLD-Dashed
370
    18
100
AcDbLine
 10
-59.15
 20
8.8
 30
0.0
 11
-59.6609549882
 21
8.505
 31
0.0
  0
LINE
  5
1F9
330
1F
100
AcDbEntity
  8
SK3
  6
SLD-Dashed
370
    18
100
AcDbLine
 10
-59.6609549882
 20
-8.505
 30
0.0
 11
-59.15
 21
-8.8
 31
0.0
  0
LINE
  5
1FA
330
1F
100
AcDbEntity
  8
SK3
  6
SLD-Dashed
370
    18
100
AcDbLine
 10
-59.15
 20
-8.8
 30
0.0
 11
-56.15
 21
-8.8
 31
0.0
  0
LINE
  5
1FB
330
1F
100
AcDbEntity
  8
SK3
  6
SLD-Dashed
370
    18
100
AcDbLine
 10
-56.15
 20
8.8
 30
0.0
 11
-59.15
 21
8.8
 31
0.0
  0
LINE
  5
1FC
330
1F
100
AcDbEntity
  8
SK3
  6
SLD-Dashed
370
    18
100
AcDbLine
 10
-56.15
 20
-8.8
 30
0.0
 11
-55.1107695155
 21
-7.0
 31
0.0
  0
LINE
  5
1FD
330
1F
100
AcDbEntity
  8
SK3
  6
SLD-Dashed
370
    18
100
AcDbLine
 10
-55.1107695155
 20
7.0
 30
0.0
 11
-56.15
 21
8.8
 31
0.0
  0
LINE
  5
1FE
330
1F
100
AcDbEntity
  8
SK3
  6
SLD-Dashed
370
    18
100
AcDbLine
 10
-63.65
 20
-8.505
 30
0.0
 11
-59.6609549882
 21
-8.505
 31
0.0
  0
LINE
  5
1FF
330
1F
100
AcDbEntity
  8
SK3
  6
SLD-Dashed
370
    18
100
AcDbLine
 10
-59.6609549882
 20
8.505
 30
0.0
 11
-63.65
 21
8.505
 31
0.0
  0
LINE
  5
200
330
1F
100
AcDbEntity
  8
SK3
  6
SLD-Dashed
370
    18
100
AcDbLine
 10
13.7106542296
 20
15.4652612534
 30
0.0
 11
15.5747240806
 21
16.4398057562
 31
0.0
  0
LINE
  5
201
330
1F
100
AcDbEntity
  8
SK3
  6
SLD-Dashed
370
    18
100
AcDbLine
 10
15.5747240806
 20
16.4398057562
 30
0.0
 11
15.7320353246
 21
18.5373630427
 31
0.0
  0
LINE
  5
202
330
1F
100
AcDbEntity
  8
SK3
  6
SLD-Dashed
370
    18
100
AcDbLine
 10
-55.1107695155
 20
-7.0
 30
0.0
 11
-5.4
 21
-7.0
 31
0.0
  0
LINE
  5
203
330
1F
100
AcDbEntity
  8
SK3
  6
SLD-Dashed
370
    18
100
AcDbLine
 10
-5.4
 20
7.0
 30
0.0
 11
-55.1107695155
 21
7.0
 31
0.0
  0
LINE
  5
204
330
1F
100
AcDbEntity
  8
SK3
  6
SLD-Dashed
370
    18
100
AcDbLine
 10
45.0
 20
-23.9
 30
0.0
 11
45.0
 21
-10.0
 31
0.0
  0
LINE
  5
205
330
1F
100
AcDbEntity
  8
SK3
  6
SLD-Dashed
370
    18
100
AcDbLine
 10
31.0
 20
-9.9996533339
 30
0.0
 11
31.0
 21
-23.9
 31
0.0
  0
LINE
  5
206
330
1F
100
AcDbEntity
  8
SK3
  6
SLD-Dashed
370
    18
100
AcDbLine
 10
-5.399969957
 20
-6.99995
 30
0.0
 11
11.0
 21
-6.99995
 31
0.0
  0
LINE
  5
207
330
1F
100
AcDbEntity
  8
SK3
  6
SLD-Dashed
370
    18
100
AcDbLine
 10
11.0
 20
6.99995
 30
0.0
 11
-5.399969957
 21
6.99995
 31
0.0
  0
LINE
  5
208
330
1F
100
AcDbEntity
  8
SK3
  6
SLD-Dashed
370
    18
100
AcDbLine
 10
7.35
 20
-6.5734926391
 30
0.0
 11
7.35
 21
-19.620297775
 31
0.0
  0
LINE
  5
209
330
1F
100
AcDbEntity
  8
SK3
  6
SLD-Dashed
370
    18
100
AcDbLine
 10
10.65
 20
-17.4451559932
 30
0.0
 11
10.65
 21
-6.5760827024
 31
0.0
  0
LINE
  5
20A
330
1F
100
AcDbEntity
  8
SK3
  6
SLD-Dashed
370
    18
100
AcDbLine
 10
15.7320353246
 20
-18.5373630427
 30
0.0
 11
15.5747240806
 21
-16.4398057562
 31
0.0
  0
LINE
  5
20B
330
1F
100
AcDbEntity
  8
SK3
  6
SLD-Dashed
370
    18
100
AcDbLine
 10
15.5747240806
 20
-16.4398057562
 30
0.0
 11
13.7106542296
 21
-15.4652612534
 31
0.0
  0
LINE
  5
20C
330
1F
100
AcDbEntity
  8
SK3
  6
SLD-Dashed
370
    18
100
AcDbLine
 10
10.5530882486
 20
-22.0781956401
 30
0.0
 11
15.686790432
 21
-18.7003230133
 31
0.0
  0
LINE
  5
20D
330
1F
100
AcDbEntity
  8
SK3
  6
SLD-Dashed
370
    18
100
AcDbLine
 10
4.4644074252
 20
-26.0844249757
 30
0.0
 11
7.4591862887
 21
-24.1139208083
 31
0.0
  0
LINE
  5
20E
330
1F
100
AcDbEntity
  8
SK3
  6
SLD-Dashed
370
    18
100
AcDbLine
 10
7.4577573144
 20
-19.4463517268
 30
0.0
 11
2.3207095254
 21
-22.8264256948
 31
0.0
  0
LINE
  5
20F
330
1F
100
AcDbEntity
  8
SK3
  6
SLD-Dashed
370
    18
100
AcDbLine
 10
13.5430925321
 20
-15.4423237325
 30
0.0
 11
10.5491667264
 21
-17.412266605
 31
0.0
  0
LINE
  5
210
330
1F
100
AcDbEntity
  8
SK3
  6
SLD-Dashed
370
    18
100
AcDbLine
 10
7.35
 20
-24.0835192562
 30
0.0
 11
7.35
 21
-24.9018544508
 31
0.0
  0
LINE
  5
211
330
1F
100
AcDbEntity
  8
SK3
  6
SLD-Dashed
370
    18
100
AcDbLine
 10
10.65
 20
-24.9018544508
 30
0.0
 11
10.65
 21
-21.9102094894
 31
0.0
  0
LINE
  5
212
330
1F
100
AcDbEntity
  8
SK3
  6
SLD-Dashed
370
    18
100
AcDbLine
 10
2.0
 20
-27.8855134708
 30
0.0
 11
4.5468573445
 21
-26.2097326403
 31
0.0
  0
LINE
  5
213
330
1F
100
AcDbEntity
  8
SK3
  6
SLD-Dashed
370
    18
100
AcDbLine
 10
2.2382596061
 20
-22.7011180302
 30
0.0
 11
2.0
 21
-22.8578880517
 31
0.0
  0
LINE
  5
214
330
1F
100
AcDbEntity
  8
SK3
  6
SLD-Dashed
370
    18
100
AcDbLine
 10
7.6871669195
 20
-25.2436982891
 30
0.0
 11
9.0
 21
-25.833484529
 31
0.0
  0
LINE
  5
215
330
1F
100
AcDbEntity
  8
SK3
  6
SLD-Dashed
370
    18
100
AcDbLine
 10
9.0
 20
-25.833484529
 30
0.0
 11
10.3128330805
 21
-25.2436982891
 31
0.0
  0
LINE
  5
216
330
1F
100
AcDbEntity
  8
SK3
  6
SLD-Solid
370
    18
100
AcDbLine
 10
-34.4000011683
 20
8.00000038
 30
0.0
 11
-55.6881204247
 21
8.00000038
 31
0.0
  0
LINE
  5
217
330
1F
100
AcDbEntity
  8
SK3
  6
SLD-Solid
370
    18
100
AcDbLine
 10
-55.6881204247
 20
-8.00000038
 30
0.0
 11
-34.4000011683
 21
-8.00000038
 31
0.0
  0
LINE
  5
218
330
1F
100
AcDbEntity
  8
SK3
  6
SLD-Solid
370
    18
100
AcDbLine
 10
-34.4000011683
 20
8.00000038
 30
0.0
 11
-34.4000011683
 21
7.918571122
 31
0.0
  0
LINE
  5
219
330
1F
100
AcDbEntity
  8
SK3
  6
SLD-Solid
370
    18
100
AcDbLine
 10
-34.4000011683
 20
7.918571122
 30
0.0
 11
-34.4000011683
 21
7.6759438962
 31
0.0
  0
LINE
  5
21A
330
1F
100
AcDbEntity
  8
SK3
  6
SLD-Solid
370
    18
100
AcDbLine
 10
-34.4000011683
 20
7.6759438962
 30
0.0
 11
-34.4000011683
 21
7.2770561092
 31
0.0
  0
LINE
  5
21B
330
1F
100
AcDbEntity
  8
SK3
  6
SLD-Solid
370
    18
100
AcDbLine
 10
-34.4000011683
 20
7.2770561092
 30
0.0
 11
-34.4000011683
 21
6.7300284281
 31
0.0
  0
LINE
  5
21C
330
1F
100
AcDbEntity
  8
SK3
  6
SLD-Solid
370
    18
100
AcDbLine
 10
-34.4000011683
 20
6.7300284281
 30
0.0
 11
-34.4000011683
 21
6.0459966771
 31
0.0
  0
LINE
  5
21D
330
1F
100
AcDbEntity
  8
SK3
  6
SLD-Solid
370
    18
100
AcDbLine
 10
-34.4000011683
 20
6.0459966771
 30
0.0
 11
-34.4000011683
 21
5.2388859913
 31
0.0
  0
LINE
  5
21E
330
1F
100
AcDbEntity
  8
SK3
  6
SLD-Solid
370
    18
100
AcDbLine
 10
-34.4000011683
 20
5.2388859913
 30
0.0
 11
-34.4000011683
 21
4.3251267634
 31
0.0
  0
LINE
  5
21F
330
1F
100
AcDbEntity
  8
SK3
  6
SLD-Solid
370
    18
100
AcDbLine
 10
-34.4000011683
 20
4.3251267634
 30
0.0
 11
-34.4000011683
 21
3.3233200666
 31
0.0
  0
LINE
  5
220
330
1F
100
AcDbEntity
  8
SK3
  6
SLD-Solid
370
    18
100
AcDbLine
 10
-34.4000011683
 20
3.3233200666
 30
0.0
 11
-34.4000011683
 21
2.253860468
 31
0.0
  0
LINE
  5
221
330
1F
100
AcDbEntity
  8
SK3
  6
SLD-Solid
370
    18
100
AcDbLine
 10
-34.4000011683
 20
2.253860468
 30
0.0
 11
-34.4000011683
 21
1.1385186808
 31
0.0
  0
LINE
  5
222
330
1F
100
AcDbEntity
  8
SK3
  6
SLD-Solid
370
    18
100
AcDbLine
 10
-34.4000011683
 20
1.1385186808
 30
0.0
 11
-34.4000011683
 21
0.0
 31
0.0
  0
LINE
  5
223
330
1F
100
AcDbEntity
  8
SK3
  6
SLD-Solid
370
    18
100
AcDbLine
 10
-34.4000011683
 20
0.0
 30
0.0
 11
-34.4000011683
 21
-1.1385186808
 31
0.0
  0
LINE
  5
224
330
1F
100
AcDbEntity
  8
SK3
  6
SLD-Solid
370
    18
100
AcDbLine
 10
-34.4000011683
 20
-1.1385186808
 30
0.0
 11
-34.4000011683
 21
-2.253860468
 31
0.0
  0
LINE
  5
225
330
1F
100
AcDbEntity
  8
SK3
  6
SLD-Solid
370
    18
100
AcDbLine
 10
-34.4000011683
 20
-2.253860468
 30
0.0
 11
-34.4000011683
 21
-3.3233200666
 31
0.0
  0
LINE
  5
226
330
1F
100
AcDbEntity
  8
SK3
  6
SLD-Solid
370
    18
100
AcDbLine
 10
-34.4000011683
 20
-3.3233200666
 30
0.0
 11
-34.4000011683
 21
-4.3251267634
 31
0.0
  0
LINE
  5
227
330
1F
100
AcDbEntity
  8
SK3
  6
SLD-Solid
370
    18
100
AcDbLine
 10
-34.4000011683
 20
-4.3251267634
 30
0.0
 11
-34.4000011683
 21
-5.2388859913
 31
0.0
  0
LINE
  5
228
330
1F
100
AcDbEntity
  8
SK3
  6
SLD-Solid
370
    18
100
AcDbLine
 10
-34.4000011683
 20
-5.2388859913
 30
0.0
 11
-34.4000011683
 21
-6.0459966771
 31
0.0
  0
LINE
  5
229
330
1F
100
AcDbEntity
  8
SK3
  6
SLD-Solid
370
    18
100
AcDbLine
 10
-34.4000011683
 20
-6.0459966771
 30
0.0
 11
-34.4000011683
 21
-6.7300284281
 31
0.0
  0
LINE
  5
22A
330
1F
100
AcDbEntity
  8
SK3
  6
SLD-Solid
370
    18
100
AcDbLine
 10
-34.4000011683
 20
-6.7300284281
 30
0.0
 11
-34.4000011683
 21
-7.2770561092
 31
0.0
  0
LINE
  5
22B
330
1F
100
AcDbEntity
  8
SK3
  6
SLD-Solid
370
    18
100
AcDbLine
 10
-34.4000011683
 20
-7.2770561092
 30
0.0
 11
-34.4000011683
 21
-7.6759438962
 31
0.0
  0
LINE
  5
22C
330
1F
100
AcDbEntity
  8
SK3
  6
SLD-Solid
370
    18
100
AcDbLine
 10
-34.4000011683
 20
-7.6759438962
 30
0.0
 11
-34.4000011683
 21
-7.918571122
 31
0.0
  0
LINE
  5
22D
330
1F
100
AcDbEntity
  8
SK3
  6
SLD-Solid
370
    18
100
AcDbLine
 10
-34.4000011683
 20
-7.918571122
 30
0.0
 11
-34.4000011683
 21
-8.00000038
 31
0.0
  0
LINE
  5
22E
330
1F
100
AcDbEntity
  8
SK3
  6
SLD-Solid
370
    18
100
AcDbLine
 10
29.9999993294
 20
-9.9999997765
 30
0.0
 11
29.9999993294
 21
-23.9000003785
 31
0.0
  0
LINE
  5
22F
330
1F
100
AcDbEntity
  8
SK3
  6
SLD-Solid
370
    18
100
AcDbLine
 10
46.0000000894
 20
-23.9000003785
 30
0.0
 11
46.0000000894
 21
-9.9999997765
 31
0.0
  0
LINE
  5
230
330
1F
100
AcDbEntity
  8
SK3
  6
SLD-Solid
370
    18
100
AcDbLine
 10
29.9999858046
 20
-9.9999997765
 30
0.0
 11
46.0000000894
 21
-9.9999997765
 31
0.0
  0
LINE
  5
231
330
1F
100
AcDbEntity
  8
4
  6
SLD-Center
370
    18
100
AcDbLine
 10
65.0
 20
0.0
 30
0.0
 11
0.4443143343
 21
0.0
 31
0.0
  0
LINE
  5
232
330
1F
100
AcDbEntity
  8
4
  6
SLD-Center
370
    18
100
AcDbLine
 10
38.0
 20
-8.0
 30
0.0
 11
38.0
 21
-25.9
 31
0.0
  0
LINE
  5
233
330
1F
100
AcDbEntity
  8
SK4
  6
SLD-Center
370
    18
100
AcDbLine
 10
65.1774394526
 20
0.0
 30
0.0
 11
-67.7590401718
 21
0.0
 31
0.0
  0
ARC
  5
234
330
1F
100
AcDbEntity
  8
1
  6
SLD-Solid
370
    25
100
AcDbCircle
 10
26.25
 20
-30.75
 30
0.0
 40
0.75
100
AcDbArc
 50
270.0
 51
0.0
  0
ARC
  5
235
330
1F
100
AcDbEntity
  8
1
  6
SLD-Solid
370
    25
100
AcDbCircle
 10
26.25
 20
30.75
 30
0.0
 40
0.75
100
AcDbArc
 50
0.0
 51
90.0
  0
ARC
  5
236
330
1F
100
AcDbEntity
  8
1
  6
SLD-Solid
370
    25
100
AcDbCircle
 10
2.75
 20
-30.75
 30
0.0
 40
0.7500000000000004
100
AcDbArc
 50
180.0
 51
270.0
  0
ARC
  5
237
330
1F
100
AcDbEntity
  8
1
  6
SLD-Solid
370
    25
100
AcDbCircle
 10
2.75
 20
30.75
 30
0.0
 40
0.7500000000000004
100
AcDbArc
 50
90.0
 51
180.0
  0
ARC
  5
238
330
1F
100
AcDbEntity
  8
1
  6
SLD-Solid
370
    25
100
AcDbCircle
 10
29.0
 20
-28.0
 30
0.0
 40
2.0
100
AcDbArc
 50
89.9750386665
 51
180.0
  0
ARC
  5
239
330
1F
100
AcDbEntity
  8
1
  6
SLD-Solid
370
    25
100
AcDbCircle
 10
29.0
 20
28.0
 30
0.0
 40
2.0
100
AcDbArc
 50
180.0
 51
270.0
  0
ARC
  5
23A
330
1F
100
AcDbEntity
  8
1
  6
SLD-Solid
370
    25
100
AcDbCircle
 10
18.725
 20
-26.875
 30
0.0
 40
0.3750000000000036
100
AcDbArc
 50
0.0
 51
90.0
  0
ARC
  5
23B
330
1F
100
AcDbEntity
  8
1
  6
SLD-Solid
370
    25
100
AcDbCircle
 10
18.725
 20
26.875
 30
0.0
 40
0.3750000000000142
100
AcDbArc
 50
270.0
 51
0.0
  0
ARC
  5
23C
330
1F
100
AcDbEntity
  8
1
  6
SLD-Solid
370
    25
100
AcDbCircle
 10
14.475
 20
-26.875
 30
0.0
 40
0.3750000000000036
100
AcDbArc
 50
90.0
 51
180.0
  0
ARC
  5
23D
330
1F
100
AcDbEntity
  8
1
  6
SLD-Solid
370
    25
100
AcDbCircle
 10
14.475
 20
26.875
 30
0.0
 40
0.3750000000000071
100
AcDbArc
 50
180.0
 51
270.0000000016
  0
ARC
  5
23E
330
1F
100
AcDbEntity
  8
1
  6
SLD-Solid
370
    25
100
AcDbCircle
 10
1.25
 20
22.5629103982
 30
0.0
 40
0.7500000000000009
100
AcDbArc
 50
245.0
 51
0.0
  0
ARC
  5
23F
330
1F
100
AcDbEntity
  8
1
  6
SLD-Solid
370
    25
100
AcDbCircle
 10
1.25
 20
-22.5629103982
 30
0.0
 40
0.7500000000000012
100
AcDbArc
 50
0.0
 51
115.0
  0
ARC
  5
240
330
1F
100
AcDbEntity
  8
SK1
  6
SLD-Solid
370
    25
100
AcDbCircle
 10
-64.4
 20
11.8220275702
 30
0.0
 40
1.000000000000014
100
AcDbArc
 50
98.2977777777
 51
180.0
  0
ARC
  5
241
330
1F
100
AcDbEntity
  8
SK1
  6
SLD-Solid
370
    25
100
AcDbCircle
 10
-64.4
 20
-11.8220275702
 30
0.0
 40
1.000000000000014
100
AcDbArc
 50
180.0
 51
261.7022222223
  0
CIRCLE
  5
242
330
1F
100
AcDbEntity
  8
1
  6
SLD-Solid
370
    25
100
AcDbCircle
 10
14.5
 20
0.0
 30
0.0
 40
4.999999999999991
  0
ARC
  5
243
330
1F
100
AcDbEntity
  8
1
  6
SLD-Dashed
370
    18
100
AcDbCircle
 10
15.405
 20
0.0
 30
0.0
 40
8.095000000000002
100
AcDbArc
 50
285.0430203418
 51
308.3210243484
  0
ARC
  5
244
330
1F
100
AcDbEntity
  8
1
  6
SLD-Dashed
370
    18
100
AcDbCircle
 10
15.405
 20
0.0
 30
0.0
 40
8.095000000000002
100
AcDbArc
 50
41.8951431918
 51
53.8566901637
  0
ARC
  5
245
330
1F
100
AcDbEntity
  8
1
  6
SLD-Dashed
370
    18
100
AcDbCircle
 10
15.405
 20
0.0
 30
0.0
 40
8.095000000000006
100
AcDbArc
 50
56.6629173256
 51
67.0924509809
  0
ARC
  5
246
330
1F
100
AcDbEntity
  8
SK3
  6
SLD-Dashed
370
    18
100
AcDbCircle
 10
11.25
 20
10.0
 30
0.0
 40
0.2500000000000142
100
AcDbArc
 50
90.0
 51
180.0
  0
ARC
  5
247
330
1F
100
AcDbEntity
  8
SK3
  6
SLD-Dashed
370
    18
100
AcDbCircle
 10
11.25
 20
-10.0
 30
0.0
 40
0.2500000000000154
100
AcDbArc
 50
179.9999942658
 51
270.0
  0
ARC
  5
248
330
1F
100
AcDbEntity
  8
SK3
  6
SLD-Dashed
370
    18
100
AcDbCircle
 10
13.75
 20
10.0
 30
0.0
 40
0.2500000000000142
100
AcDbArc
 50
0.0
 51
90.0
  0
ARC
  5
249
330
1F
100
AcDbEntity
  8
SK3
  6
SLD-Dashed
370
    18
100
AcDbCircle
 10
13.75
 20
-10.0
 30
0.0
 40
0.2500000000000154
100
AcDbArc
 50
270.0
 51
0.0000057342
  0
ARC
  5
24A
330
1F
100
AcDbEntity
  8
SK3
  6
SLD-Dashed
370
    18
100
AcDbCircle
 10
38.0
 20
26.2
 30
0.0
 40
8.000000000000025
100
AcDbArc
 50
181.4948537452
 51
358.5052901464
  0
ARC
  5
24B
330
1F
100
AcDbEntity
  8
1
370
    25
100
AcDbCircle
 10
37.9731738232
 20
51.2711807759
 30
0.0
 40
26.50660911569881
100
AcDbArc
 50
252.5005436925
 51
287.5618691025
  0
SPLINE
  5
24C
330
1F
100
AcDbEntity
  8
1
  6
SLD-Solid
370
    25
100
AcDbSpline
210
0.0
220
0.0
230
1.0
 70
     8
 71
     3
 72
    28
 73
    24
 74
     0
 42
0.000000001
 43
0.00000001
 40
0.0
 40
0.0
 40
0.0
 40
0.0
 40
0.0207858127036613
 40
0.0415710762785928
 40
0.0623748580548716
 40
0.0937270008617246
 40
0.1250848978846605
 40
0.187349424577538
 40
0.2496708886179869
 40
0.3125394829960986
 40
0.375132203157574
 40
0.4374541246844015
 40
0.5000756334531936
 40
0.5630077694104405
 40
0.6253444518636615
 40
0.6875870131392509
 40
0.7502971038394485
 40
0.8129514609106467
 40
0.8751106021476266
 40
0.9062159067551524
 40
0.9373306543633031
 40
0.9686737077378401
 40
1.0
 40
1.0
 40
1.0
 40
1.0
 10
21.62000036044562
 20
5.823867225354371
 30
0.0
 10
21.67887807785234
 20
5.758347786738435
 30
0.0
 10
21.79663195720837
 20
5.627310640427867
 30
0.0
 10
21.96553148010053
 20
5.423838411245343
 30
0.0
 10
22.15613949014811
 20
5.180290553591774
 30
0.0
 10
22.36340695197514
 20
4.892880909181871
 30
0.0
 10
22.65342247007357
 20
4.448647298308309
 30
0.0
 10
22.97676390987933
 20
3.869212088749019
 30
0.0
 10
23.30006075891067
 20
3.138684387560375
 30
0.0
 10
23.5553103735943
 20
2.378643522698044
 30
0.0
 10
23.73928104456866
 20
1.596975977747189
 30
0.0
 10
23.85028723689535
 20
0.801764124417216
 30
0.0
 10
23.8874914184999
 20
-0.0022807071187111
 30
0.0
 10
23.84992349873981
 20
-0.8063863986940423
 30
0.0
 10
23.73837850787257
 20
-1.601409963118059
 30
0.0
 10
23.5545576171878
 20
-2.38092277010446
 30
0.0
 10
23.29949862863696
 20
-3.140226218598111
 30
0.0
 10
22.97593069412408
 20
-3.870974387726586
 30
0.0
 10
22.65242049635634
 20
-4.450166402359478
 30
0.0
 10
22.36381870270501
 20
-4.892326597190081
 30
0.0
 10
22.13144965929846
 20
-5.214141952617616
 30
0.0
 10
21.88493963526407
 20
-5.526343302895843
 30
0.0
 10
21.70829746555543
 20
-5.724710058251866
 30
0.0
 10
21.62000000245135
 20
-5.823866909025497
 30
0.0
  0
SPLINE
  5
24D
330
1F
100
AcDbEntity
  8
1
  6
SLD-Solid
370
    25
100
AcDbSpline
210
0.0
220
0.0
230
1.0
 70
     8
 71
     3
 72
    29
 73
    25
 74
     0
 42
0.000000001
 43
0.00000001
 40
0.0
 40
0.0
 40
0.0
 40
0.0
 40
0.0230663837971191
 40
0.0440225352239045
 40
0.0628684662202246
 40
0.0952096355302547
 40
0.1252070778029583
 40
0.1874433642827066
 40
0.2501294624714331
 40
0.3127669124399241
 40
0.3749089742081316
 40
0.4371218866260102
 40
0.4999111694600343
 40
0.5000015146531738
 40
0.5624696363129266
 40
0.6246518458511697
 40
0.6871247126410441
 40
0.7499411646625902
 40
0.8122670361742227
 40
0.874577657821327
 40
0.9047904009105396
 40
0.9373946981596897
 40
0.9663358577880867
 40
1.0
 40
1.0
 40
1.0
 40
1.0
 10
21.37845462159044
 20
-5.463228430497742
 30
0.0
 10
21.43968048488168
 20
-5.394961302229849
 30
0.0
 10
21.55653095208361
 20
-5.264672476497947
 30
0.0
 10
21.71560511829232
 20
-5.071758676239158
 30
0.0
 10
21.8921027252531
 20
-4.845511463675941
 30
0.0
 10
22.0809780434512
 20
-4.583270534046935
 30
0.0
 10
22.35220085383857
 20
-4.167846022607756
 30
0.0
 10
22.65429554915196
 20
-3.628148349416535
 30
0.0
 10
22.95872006986106
 20
-2.942611934423165
 30
0.0
 10
23.19861776881077
 20
-2.23075663887936
 30
0.0
 10
23.37148733661121
 20
-1.500355534365998
 30
0.0
 10
23.47639954189715
 20
-0.755612944653046
 30
0.0
 10
23.49998301693212
 20
-0.2528920903509778
 30
0.0
 10
23.50001686206163
 20
0.2505137726295237
 30
0.0
 10
23.47668764518386
 20
0.7518198752287861
 30
0.0
 10
23.37226014104489
 20
1.496549466375216
 30
0.0
 10
23.19924549850188
 20
2.22891155168916
 30
0.0
 10
22.95917289957128
 20
2.941347011615879
 30
0.0
 10
22.65505348782217
 20
3.626543732636891
 30
0.0
 10
22.35325963711389
 20
4.166080913924591
 30
0.0
 10
22.08097444106534
 20
4.583468076039557
 30
0.0
 10
21.86720762170664
 20
4.879597172804326
 30
0.0
 10
21.63275480960852
 20
5.177140340463356
 30
0.0
 10
21.46738000913492
 20
5.363187230028307
 30
0.0
 10
21.37845462042566
 20
5.463228420858675
 30
0.0
  0
SPLINE
  5
24E
330
1F
100
AcDbEntity
  8
1
  6
SLD-Solid
370
    25
100
AcDbSpline
210
0.0
220
0.0
230
1.0
 70
     8
 71
     3
 72
    10
 73
     6
 74
     0
 42
0.000000001
 43
0.00000001
 40
0.0
 40
0.0
 40
0.0
 40
0.0
 40
0.5
 40
0.5
 40
1.0
 40
1.0
 40
1.0
 40
1.0
 10
19.10000000000002
 20
-7.202499566123375
 30
0.0
 10
19.49579104774721
 20
-6.999452289549408
 30
0.0
 10
19.88446432465933
 20
-6.759413056975954
 30
0.0
 10
20.64524840052843
 20
-6.188300429962087
 30
0.0
 10
21.01747268260147
 20
-5.857923482919094
 30
0.0
 10
21.37845462159044
 20
-5.463228430497746
 30
0.0
  0
SPLINE
  5
24F
330
1F
100
AcDbEntity
  8
1
  6
SLD-Solid
370
    25
100
AcDbSpline
210
0.0
220
0.0
230
1.0
 70
     8
 71
     3
 72
    10
 73
     6
 74
     0
 42
0.000000001
 43
0.00000001
 40
0.0
 40
0.0
 40
0.0
 40
0.0
 40
0.5
 40
0.5
 40
1.0
 40
1.0
 40
1.0
 40
1.0
 10
21.37845462042566
 20
5.463228420858675
 30
0.0
 10
21.01828732092907
 20
5.857032736565876
 30
0.0
 10
20.6464127990022
 20
6.187322552259456
 30
0.0
 10
19.88555427862789
 20
6.758698213453005
 30
0.0
 10
19.49593576684384
 20
6.999377972857067
 30
0.0
 10
19.10000010771839
 20
7.202499437431641
 30
0.0
  0
SPLINE
  5
250
330
1F
100
AcDbEntity
  8
1
  6
SLD-Solid
370
    25
100
AcDbSpline
210
0.0
220
0.0
230
1.0
 70
    24
 71
     3
 72
    63
 73
    59
 74
     0
 42
0.000000001
 43
0.00000001
 40
0.0
 40
0.0
 40
0.0
 40
0.0
 40
0.0157295157055994
 40
0.031422074234084
 40
0.0439554384940822
 40
0.0627308195836761
 40
0.0877444204354877
 40
0.1027535466968316
 40
0.1252799962043012
 40
0.1416547533301804
 40
0.1662894095368008
 40
0.1786159749224169
 40
0.1970505205304782
 40
0.2184788700430704
 40
0.2313066989620065
 40
0.2505190728270451
 40
0.2667670769854795
 40
0.2911322934021384
 40
0.3033217097733919
 40
0.3216239404912597
 40
0.3430175351158149
 40
0.3558901504979025
 40
0.375272504382348
 40
0.3917161976147457
 40
0.4162913796883942
 40
0.4285394952917361
 40
0.4468710955821854
 40
0.4682186365340774
 40
0.4810168198013257
 40
0.5002109812802532
 40
0.5164697654542666
 40
0.5408976995044128
 40
0.5531386085851936
 40
0.5715482257911025
 40
0.5931083106509799
 40
0.606047313614312
 40
0.6253935778583544
 40
0.6417053778005348
 40
0.6661245429600033
 40
0.6783182135136201
 40
0.6965960868825017
 40
0.7179269875418145
 40
0.7307375012761065
 40
0.7499789322767985
 40
0.7663145205709632
 40
0.7909228061602738
 40
0.8032612506346957
 40
0.8217178636892551
 40
0.8431546207703584
 40
0.8559812701724099
 40
0.875187944859314
 40
0.9000553704843862
 40
0.9149757888089226
 40
0.9373785494047091
 40
0.9498468283169813
 40
0.968592693534194
 40
0.9842666733420213
 40
1.0
 40
1.0
 40
1.0
 40
1.0
 10
2.321969218327724
 20
-8.094999999999999
 30
0.0
 10
2.321993397395889
 20
-8.094999999999999
 30
0.0
 10
2.322041698722494
 20
-8.094999999999999
 30
0.0
 10
2.322406149385975
 20
-8.094999999999999
 30
0.0
 10
2.32300303963788
 20
-8.094999999999999
 30
0.0
 10
2.324021843331372
 20
-8.094999999999999
 30
0.0
 10
2.325518386346897
 20
-8.094999999999999
 30
0.0
 10
2.327532786373252
 20
-8.094999999999999
 30
0.0
 10
2.329608433204178
 20
-8.095000000000004
 30
0.0
 10
2.332468150510192
 20
-8.094999999999999
 30
0.0
 10
2.335233935131922
 20
-8.094999999999999
 30
0.0
 10
2.338444748372637
 20
-8.094999999999999
 30
0.0
 10
2.341735343308033
 20
-8.094999999999999
 30
0.0
 10
2.345401208996331
 20
-8.094999999999999
 30
0.0
 10
2.349419105887318
 20
-8.094999999999999
 30
0.0
 10
2.353298491200792
 20
-8.094999999999999
 30
0.0
 10
2.358444267123894
 20
-8.095
 30
0.0
 10
2.363327876500107
 20
-8.094999999999999
 30
0.0
 10
2.368716386326561
 20
-8.094999999999999
 30
0.0
 10
2.374059587044189
 20
-8.094999999999999
 30
0.0
 10
2.379794509526967
 20
-8.094999999999999
 30
0.0
 10
2.385927180867373
 20
-8.094999999999999
 30
0.0
 10
2.391730887594048
 20
-8.094999999999999
 30
0.0
 10
2.399249282476215
 20
-8.095
 30
0.0
 10
2.406200022457061
 20
-8.095
 30
0.0
 10
2.413686765886367
 20
-8.094999999999999
 30
0.0
 10
2.420960250775137
 20
-8.094999999999999
 30
0.0
 10
2.428599505721898
 20
-8.095
 30
0.0
 10
2.436610864465047
 20
-8.095
 30
0.0
 10
2.44406436025163
 20
-8.094999999999999
 30
0.0
 10
2.453590084938284
 20
-8.094999999999999
 30
0.0
 10
2.462285248095136
 20
-8.095
 30
0.0
 10
2.47158082024665
 20
-8.094999999999999
 30
0.0
 10
2.480584947827991
 20
-8.094999999999999
 30
0.0
 10
2.489959325866015
 20
-8.094999999999999
 30
0.0
 10
2.499706241659738
 20
-8.094999999999999
 30
0.0
 10
2.508676179910629
 20
-8.094999999999999
 30
0.0
 10
2.519992201880678
 20
-8.095
 30
0.0
 10
2.530180668881901
 20
-8.094999999999999
 30
0.0
 10
2.540940155035962
 20
-8.095
 30
0.0
 10
2.551242183200755
 20
-8.094999999999999
 30
0.0
 10
2.561851640364335
 20
-8.094999999999999
 30
0.0
 10
2.572807424090565
 20
-8.095
 30
0.0
 10
2.582862497191391
 20
-8.094999999999999
 30
0.0
 10
2.595529095689719
 20
-8.095
 30
0.0
 10
2.606897943694536
 20
-8.095
 30
0.0
 10
2.618848053426159
 20
-8.094999999999999
 30
0.0
 10
2.630211496703436
 20
-8.095
 30
0.0
 10
2.641796398349411
 20
-8.095
 30
0.0
 10
2.653634317679121
 20
-8.094999999999999
 30
0.0
 10
2.666313651356639
 20
-8.094999999999999
 30
0.0
 10
2.679561341264527
 20
-8.094999999999999
 30
0.0
 10
2.693602759555227
 20
-8.094999999999999
 30
0.0
 10
2.704895432241242
 20
-8.094999999999999
 30
0.0
 10
2.71709121309234
 20
-8.094999999999999
 30
0.0
 10
2.727780256489273
 20
-8.095
 30
0.0
 10
2.739230294237435
 20
-8.094999999999999
 30
0.0
 10
2.746405578636854
 20
-8.095
 30
0.0
 10
2.749999999999988
 20
-8.094999999999999
 30
0.0
  0
SPLINE
  5
251
330
1F
100
AcDbEntity
  8
1
  6
SLD-Solid
370
    25
100
AcDbSpline
210
0.0
220
0.0
230
1.0
 70
     8
 71
     3
 72
    18
 73
    14
 74
     0
 42
0.000000001
 43
0.00000001
 40
0.0
 40
0.0
 40
0.0
 40
0.0
 40
0.0626482473860757
 40
0.1257017858649318
 40
0.189176135616779
 40
0.2530864219763319
 40
0.3784696579957303
 40
0.5038788462432556
 40
0.6284396298377477
 40
0.7522705273054919
 40
0.8761638109126594
 40
0.9302069410252553
 40
1.0
 40
1.0
 40
1.0
 40
1.0
 10
2.749999999999988
 20
-8.439532455962565
 30
0.0
 10
2.725257861912938
 20
-8.439453539551923
 30
0.0
 10
2.67561352111452
 20
-8.439295196195726
 30
0.0
 10
2.601654207373238
 20
-8.437995004105879
 30
0.0
 10
2.528714112184638
 20
-8.43590001104029
 30
0.0
 10
2.43495332809171
 20
-8.432011419944784
 30
0.0
 10
2.325373217853935
 20
-8.42522959261642
 30
0.0
 10
2.21155176946615
 20
-8.41436997952215
 30
0.0
 10
2.119115299988372
 20
-8.401221457266711
 30
0.0
 10
2.050973292507918
 20
-8.386308066943414
 30
0.0
 10
2.017342905936498
 20
-8.373159139804736
 30
0.0
 10
2.00234403067609
 20
-8.362077257943207
 30
0.0
 10
2.000844898551485
 20
-8.35644450187522
 30
0.0
 10
1.999999999999988
 20
-8.353269926822952
 30
0.0
  0
SPLINE
  5
252
330
1F
100
AcDbEntity
  8
1
  6
SLD-Solid
370
    25
100
AcDbSpline
210
0.0
220
0.0
230
1.0
 70
     8
 71
     3
 72
     8
 73
     4
 74
     0
 42
0.000000001
 43
0.00000001
 40
0.0
 40
0.0
 40
0.0
 40
0.0
 40
0.0005149373009987
 40
0.0005149373009987
 40
0.0005149373009987
 40
0.0005149373009987
 10
11.80413133902068
 20
-8.094999999999999
 30
0.0
 10
11.72957739294794
 20
-8.209900308283274
 30
0.0
 10
11.65486478285152
 20
-8.324743826175315
 30
0.0
 10
11.57999999999999
 20
-8.439532455962565
 30
0.0
  0
SPLINE
  5
253
330
1F
100
AcDbEntity
  8
1
  6
SLD-Solid
370
    25
100
AcDbSpline
210
0.0
220
0.0
230
1.0
 70
    24
 71
     3
 72
     8
 73
     4
 74
     0
 42
0.000000001
 43
0.00000001
 40
0.0
 40
0.0
 40
0.0
 40
0.0
 40
1.0
 40
1.0
 40
1.0
 40
1.0
 10
11.80413133902067
 20
-8.094999999999999
 30
0.0
 10
12.57258501008908
 20
-8.094999999999999
 30
0.0
 10
13.33836559689469
 20
-8.094999999999999
 30
0.0
 10
14.09999999999999
 20
-8.094999999999999
 30
0.0
  0
SPLINE
  5
254
330
1F
100
AcDbEntity
  8
1
  6
SLD-Solid
370
    25
100
AcDbSpline
210
0.0
220
0.0
230
1.0
 70
    24
 71
     3
 72
    33
 73
    29
 74
     0
 42
0.000000001
 43
0.00000001
 40
0.0
 40
0.0
 40
0.0
 40
0.0
 40
0.0252074134106571
 40
0.0503577904579094
 40
0.1006529947214882
 40
0.149935890310849
 40
0.1865968300683722
 40
0.2121850661003454
 40
0.250550859328388
 40
0.2790355981719718
 40
0.3220351822744535
 40
0.3758116768115432
 40
0.4042896239144425
 40
0.4469019640738551
 40
0.5002393641057616
 40
0.528851603727054
 40
0.5719840762781346
 40
0.6254852477883666
 40
0.6539061918383582
 40
0.6965246131662995
 40
0.7500236545650174
 40
0.7787621048148653
 40
0.8217598145492507
 40
0.875142661548997
 40
0.9000107751982666
 40
0.9373541865199109
 40
0.968588669576068
 40
1.0
 40
1.0
 40
1.0
 40
1.0
 10
2.749999999999947
 20
8.094999999999999
 30
0.0
 10
2.744952075539028
 20
8.094999999999999
 30
0.0
 10
2.734867648465575
 20
8.094999999999999
 30
0.0
 10
2.714748012478743
 20
8.094999999999992
 30
0.0
 10
2.68993809363488
 20
8.094999999999999
 30
0.0
 10
2.66321766329912
 20
8.094999999999992
 30
0.0
 10
2.641737731956209
 20
8.094999999999999
 30
0.0
 10
2.622677452818953
 20
8.094999999999999
 30
0.0
 10
2.605498004815979
 20
8.094999999999992
 30
0.0
 10
2.58557094177074
 20
8.094999999999999
 30
0.0
 10
2.563495615805753
 20
8.094999999999992
 30
0.0
 10
2.542410579551416
 20
8.094999999999992
 30
0.0
 10
2.522358340672506
 20
8.094999999999999
 30
0.0
 10
2.503240257474975
 20
8.094999999999999
 30
0.0
 10
2.485365150187324
 20
8.094999999999999
 30
0.0
 10
2.468594930052123
 20
8.094999999999992
 30
0.0
 10
2.452863354130808
 20
8.094999999999992
 30
0.0
 10
2.43865244057917
 20
8.094999999999999
 30
0.0
 10
2.425831939336515
 20
8.094999999999999
 30
0.0
 10
2.414186000781568
 20
8.094999999999999
 30
0.0
 10
2.404147153635586
 20
8.094999999999999
 30
0.0
 10
2.39553141507344
 20
8.094999999999992
 30
0.0
 10
2.388195715005689
 20
8.094999999999999
 30
0.0
 10
2.382777406320563
 20
8.094999999999999
 30
0.0
 10
2.378932867898989
 20
8.094999999999999
 30
0.0
 10
2.376698345849415
 20
8.094999999999999
 30
0.0
 10
2.375252749706736
 20
8.094999999999999
 30
0.0
 10
2.375084408309927
 20
8.094999999999992
 30
0.0
 10
2.375000000000002
 20
8.094999999999999
 30
0.0
  0
SPLINE
  5
255
330
1F
100
AcDbEntity
  8
1
  6
SLD-Solid
370
    25
100
AcDbSpline
210
0.0
220
0.0
230
1.0
 70
     8
 71
     3
 72
    32
 73
    28
 74
     0
 42
0.000000001
 43
0.00000001
 40
0.4999999999999966
 40
0.4999999999999966
 40
0.4999999999999966
 40
0.4999999999999966
 40
0.5624999999999969
 40
0.5624999999999969
 40
0.6249999999999972
 40
0.6249999999999972
 40
0.6562499999999976
 40
0.6562499999999976
 40
0.6874999999999978
 40
0.6874999999999978
 40
0.7187499999999981
 40
0.7187499999999981
 40
0.7499999999999983
 40
0.7499999999999983
 40
0.7812499999999987
 40
0.7812499999999987
 40
0.812499999999999
 40
0.812499999999999
 40
0.8437499999999992
 40
0.8437499999999992
 40
0.8749999999999996
 40
0.8749999999999996
 40
0.9062499999999998
 40
0.9062499999999998
 40
0.9374999999999999
 40
0.9374999999999999
 40
1.0
 40
1.0
 40
1.0
 40
1.0
 10
9.000718311324096
 20
28.85655404586558
 30
0.0
 10
8.739648845282138
 20
28.85651637090116
 30
0.0
 10
8.476483617751885
 20
28.87764834218615
 30
0.0
 10
7.994978454253427
 20
28.95674520765163
 30
0.0
 10
7.771727105570017
 20
29.01546373101426
 30
0.0
 10
7.494870704764899
 20
29.1216515795484
 30
0.0
 10
7.410357175501065
 20
29.16075139711488
 30
0.0
 10
7.264939772708326
 20
29.24231679164009
 30
0.0
 10
7.203428503355383
 20
29.28486307536838
 30
0.0
 10
7.102898551066827
 20
29.37313007885738
 30
0.0
 10
7.064253503967056
 20
29.41885676962863
 30
0.0
 10
7.013197151496009
 20
29.50928715680261
 30
0.0
 10
7.000132293476069
 20
29.55449055760333
 30
0.0
 10
6.999869686187473
 20
29.64478332664316
 30
0.0
 10
7.012746684787796
 20
29.68860883293812
 30
0.0
 10
7.063332711442605
 20
29.77308562765029
 30
0.0
 10
7.101609104832068
 20
29.81425848927941
 30
0.0
 10
7.201880072252378
 20
29.8916752280011
 30
0.0
 10
7.26323616197104
 20
29.92770534060369
 30
0.0
 10
7.408082569311358
 20
29.99485472251368
 30
0.0
 10
7.492460159511674
 20
30.02613496318348
 30
0.0
 10
7.676867575711039
 20
30.08151243681515
 30
0.0
 10
7.777440638244593
 20
30.10596752726187
 30
0.0
 10
7.995666654038586
 20
30.14873009768034
 30
0.0
 10
8.112221692950394
 20
30.16672835399465
 30
0.0
 10
8.473071046004115
 20
30.20974024765999
 30
0.0
 10
8.735669452941089
 20
30.22463456733846
 30
0.0
 10
9.000000000000021
 20
30.22463456733846
 30
0.0
  0
SPLINE
  5
256
330
1F
100
AcDbEntity
  8
1
  6
SLD-Solid
370
    25
100
AcDbSpline
210
0.0
220
0.0
230
1.0
 70
     8
 71
     3
 72
    34
 73
    30
 74
     0
 42
0.000000001
 43
0.00000001
 40
0.0
 40
0.0
 40
0.0
 40
0.0
 40
0.0312499999999996
 40
0.0312499999999996
 40
0.0624999999999992
 40
0.0624999999999992
 40
0.0937499999999989
 40
0.0937499999999989
 40
0.1249999999999985
 40
0.1249999999999985
 40
0.1874999999999977
 40
0.1874999999999977
 40
0.2499999999999969
 40
0.2499999999999969
 40
0.2812499999999969
 40
0.2812499999999969
 40
0.3124999999999968
 40
0.3124999999999968
 40
0.3437499999999968
 40
0.3437499999999968
 40
0.3749999999999967
 40
0.3749999999999967
 40
0.4062499999999967
 40
0.4062499999999967
 40
0.4374999999999967
 40
0.4374999999999967
 40
0.4687499999999966
 40
0.4687499999999966
 40
0.4999999999999966
 40
0.4999999999999966
 40
0.4999999999999966
 40
0.4999999999999966
 10
9.000000000000021
 20
30.22463456733846
 30
0.0
 10
9.132165273529475
 20
30.22463456733846
 30
0.0
 10
9.26211531690857
 20
30.22098059739493
 30
0.0
 10
9.517768175951819
 20
30.20657876108876
 30
0.0
 10
9.64479762534745
 20
30.19565415329598
 30
0.0
 10
9.88698558643726
 20
30.16685895133089
 30
0.0
 10
10.00184700916196
 20
30.14913144031858
 30
0.0
 10
10.21922714441985
 20
30.10670409231734
 30
0.0
 10
10.32212467954467
 20
30.08177337880266
 30
0.0
 10
10.59879176140524
 20
29.99881474713835
 30
0.0
 10
10.74779008738132
 20
29.93031869116877
 30
0.0
 10
10.94730142923195
 20
29.77670931193757
 30
0.0
 10
10.99985953044358
 20
29.68992163715389
 30
0.0
 10
11.00006980186095
 20
29.55606671380143
 30
0.0
 10
10.98708402266281
 20
29.50995920123074
 30
0.0
 10
10.93605685755787
 20
29.41923444804258
 30
0.0
 10
10.89830163888694
 20
29.37440176171911
 30
0.0
 10
10.79816322090124
 20
29.28604871920951
 30
0.0
 10
10.73555746439632
 20
29.24265838728704
 30
0.0
 10
10.59082402928065
 20
29.16135197089564
 30
0.0
 10
10.50819662566585
 20
29.12292728814683
 30
0.0
 10
10.32159156855532
 20
29.05115888240975
 30
0.0
 10
10.22047644564857
 20
29.0189364750088
 30
0.0
 10
10.00394371977603
 20
28.96218884147901
 30
0.0
 10
9.887073612138378
 20
28.93741971981141
 30
0.0
 10
9.64477589668894
 20
28.89751849970316
 30
0.0
 10
9.52011197922327
 20
28.88237644429806
 30
0.0
 10
9.263825058387576
 20
28.86185505429756
 30
0.0
 10
9.131253044345062
 20
28.85657288334779
 30
0.0
 10
9.000718311324096
 20
28.85655404586558
 30
0.0
  0
SPLINE
  5
257
330
1F
100
AcDbEntity
  8
1
  6
SLD-Solid
370
    25
100
AcDbSpline
210
0.0
220
0.0
230
1.0
 70
     8
 71
     3
 72
     8
 73
     4
 74
     0
 42
0.000000001
 43
0.00000001
 40
0.0
 40
0.0
 40
0.0
 40
0.0
 40
0.0006574372199583
 40
0.0006574372199583
 40
0.0006574372199583
 40
0.0006574372199583
 10
11.57999999999999
 20
8.572048192771096
 30
0.0
 10
11.67127640594345
 20
8.413153260635214
 30
0.0
 10
11.76222642389328
 20
8.254138786342985
 30
0.0
 10
11.85283246435887
 20
8.094999999999999
 30
0.0
  0
SPLINE
  5
258
330
1F
100
AcDbEntity
  8
1
  6
SLD-Solid
370
    25
100
AcDbSpline
210
0.0
220
0.0
230
1.0
 70
    24
 71
     3
 72
     8
 73
     4
 74
     0
 42
0.000000001
 43
0.00000001
 40
0.0
 40
0.0
 40
0.0
 40
0.0
 40
1.0
 40
1.0
 40
1.0
 40
1.0
 10
14.09999999999999
 20
8.094999999999999
 30
0.0
 10
13.35444575301457
 20
8.094999999999999
 30
0.0
 10
12.60493632912238
 20
8.094999999999999
 30
0.0
 10
11.85283246435887
 20
8.094999999999999
 30
0.0
  0
SPLINE
  5
259
330
1F
100
AcDbEntity
  8
1
  6
SLD-Solid
370
    25
100
AcDbSpline
210
0.0
220
0.0
230
1.0
 70
     8
 71
     3
 72
     8
 73
     4
 74
     0
 42
0.000000001
 43
0.00000001
 40
0.0
 40
0.0
 40
0.0
 40
0.0
 40
1.0
 40
1.0
 40
1.0
 40
1.0
 10
28.90627979236163
 20
-25.99999999999957
 30
0.0
 10
28.9188334296604
 20
-25.9950202975772
 30
0.0
 10
28.95009243014049
 20
-25.98246784869432
 30
0.0
 10
29.0
 20
-25.96516897691983
 30
0.0
  0
SPLINE
  5
25A
330
1F
100
AcDbEntity
  8
1
  6
SLD-Solid
370
    25
100
AcDbSpline
210
0.0
220
0.0
230
1.0
 70
     8
 71
     3
 72
     8
 73
     4
 74
     0
 42
0.000000001
 43
0.00000001
 40
0.0
 40
0.0
 40
0.0
 40
0.0
 40
0.0624999999999987
 40
0.0624999999999987
 40
0.0624999999999987
 40
0.0624999999999987
 10
29.0
 20
-25.96516897691983
 30
0.0
 10
29.08534640918552
 20
-25.93558635863021
 30
0.0
 10
29.22288531533451
 20
-25.88815749413969
 30
0.0
 10
29.40971570953084
 20
-25.82601371081261
 30
0.0
  0
SPLINE
  5
25B
330
1F
100
AcDbEntity
  8
1
  6
SLD-Solid
370
    25
100
AcDbSpline
210
0.0
220
0.0
230
1.0
 70
     8
 71
     3
 72
     8
 73
     4
 74
     0
 42
0.000000001
 43
0.00000001
 40
0.0624999999999987
 40
0.0624999999999987
 40
0.0624999999999987
 40
0.0624999999999987
 40
0.0937499999999981
 40
0.0937499999999981
 40
0.0937499999999981
 40
0.0937499999999981
 10
29.40971570953084
 20
-25.82601371081261
 30
0.0
 10
29.503130906629
 20
-25.79494181914908
 30
0.0
 10
29.60895964920808
 20
-25.76018223205892
 30
0.0
 10
29.72736442577996
 20
-25.72210137885027
 30
0.0
  0
SPLINE
  5
25C
330
1F
100
AcDbEntity
  8
1
  6
SLD-Solid
370
    25
100
AcDbSpline
210
0.0
220
0.0
230
1.0
 70
     8
 71
     3
 72
     8
 73
     4
 74
     0
 42
0.000000001
 43
0.00000001
 40
0.0937499999999981
 40
0.0937499999999981
 40
0.0937499999999981
 40
0.0937499999999981
 40
0.1249999999999976
 40
0.1249999999999976
 40
0.1249999999999976
 40
0.1249999999999976
 10
29.72736442577996
 20
-25.72210137885027
 30
0.0
 10
29.84576920235182
 20
-25.68402052564162
 30
0.0
 10
29.97746796072316
 20
-25.64240240915372
 30
0.0
 10
30.11933576247733
 20
-25.59872787512241
 30
0.0
  0
SPLINE
  5
25D
330
1F
100
AcDbEntity
  8
1
  6
SLD-Solid
370
    25
100
AcDbSpline
210
0.0
220
0.0
230
1.0
 70
     8
 71
     3
 72
     8
 73
     4
 74
     0
 42
0.000000001
 43
0.00000001
 40
0.1249999999999976
 40
0.1249999999999976
 40
0.1249999999999976
 40
0.1249999999999976
 40
0.1874999999999966
 40
0.1874999999999966
 40
0.1874999999999966
 40
0.1874999999999966
 10
30.11933576247735
 20
-25.59872787512241
 30
0.0
 10
30.40307136598568
 20
-25.51137880705981
 30
0.0
 10
30.72841591467152
 20
-25.41538396755015
 30
0.0
 10
31.09471634397933
 20
-25.31546844066107
 30
0.0
  0
SPLINE
  5
25E
330
1F
100
AcDbEntity
  8
1
  6
SLD-Solid
370
    25
100
AcDbSpline
210
0.0
220
0.0
230
1.0
 70
     8
 71
     3
 72
     8
 73
     4
 74
     0
 42
0.000000001
 43
0.00000001
 40
0.1874999999999966
 40
0.1874999999999966
 40
0.1874999999999966
 40
0.1874999999999966
 40
0.2499999999999958
 40
0.2499999999999958
 40
0.2499999999999958
 40
0.2499999999999958
 10
31.09471634397931
 20
-25.31546844066107
 30
0.0
 10
31.46101677328712
 20
-25.21555291377199
 30
0.0
 10
31.8725338485983
 20
-25.11081461454624
 30
0.0
 10
32.31162832802048
 20
-25.01094904793856
 30
0.0
  0
SPLINE
  5
25F
330
1F
100
AcDbEntity
  8
1
  6
SLD-Solid
370
    25
100
AcDbSpline
210
0.0
220
0.0
230
1.0
 70
     8
 71
     3
 72
     8
 73
     4
 74
     0
 42
0.000000001
 43
0.00000001
 40
0.2499999999999958
 40
0.2499999999999958
 40
0.2499999999999958
 40
0.2499999999999958
 40
0.3124999999999951
 40
0.3124999999999951
 40
0.3124999999999951
 40
0.3124999999999951
 10
32.31162832802048
 20
-25.01094904793856
 30
0.0
 10
32.75072280744266
 20
-24.91108348133088
 30
0.0
 10
33.21933381954491
 20
-24.81537596377116
 30
0.0
 10
33.71869256666843
 20
-24.72892220333712
 30
0.0
  0
SPLINE
  5
260
330
1F
100
AcDbEntity
  8
1
  6
SLD-Solid
370
    25
100
AcDbSpline
210
0.0
220
0.0
230
1.0
 70
     8
 71
     3
 72
     8
 73
     4
 74
     0
 42
0.000000001
 43
0.00000001
 40
0.3124999999999951
 40
0.3124999999999951
 40
0.3124999999999951
 40
0.3124999999999951
 40
0.3437499999999947
 40
0.3437499999999947
 40
0.3437499999999947
 40
0.3437499999999947
 10
33.71869256666843
 20
-24.72892220333712
 30
0.0
 10
33.96837194023023
 20
-24.6856953231201
 30
0.0
 10
34.22726897215878
 20
-24.64458773250387
 30
0.0
 10
34.49033300275018
 20
-24.60706732692022
 30
0.0
  0
SPLINE
  5
261
330
1F
100
AcDbEntity
  8
1
  6
SLD-Solid
370
    25
100
AcDbSpline
210
0.0
220
0.0
230
1.0
 70
     8
 71
     3
 72
     8
 73
     4
 74
     0
 42
0.000000001
 43
0.00000001
 40
0.3437499999999947
 40
0.3437499999999947
 40
0.3437499999999947
 40
0.3437499999999947
 40
0.3749999999999943
 40
0.3749999999999943
 40
0.3749999999999943
 40
0.3749999999999943
 10
34.4903330027502
 20
-24.60706732692021
 30
0.0
 10
34.75339703334163
 20
-24.56954692133656
 30
0.0
 10
35.02012187485534
 20
-24.53563687743823
 30
0.0
 10
35.29047385085668
 20
-24.50574487651602
 30
0.0
  0
SPLINE
  5
262
330
1F
100
AcDbEntity
  8
1
  6
SLD-Solid
370
    25
100
AcDbSpline
210
0.0
220
0.0
230
1.0
 70
     8
 71
     3
 72
     8
 73
     4
 74
     0
 42
0.000000001
 43
0.00000001
 40
0.3749999999999943
 40
0.3749999999999943
 40
0.3749999999999943
 40
0.3749999999999943
 40
0.4374999999999944
 40
0.4374999999999944
 40
0.4374999999999944
 40
0.4374999999999944
 10
35.29047385085666
 20
-24.50574487651602
 30
0.0
 10
35.83117780285934
 20
-24.4459608746716
 30
0.0
 10
36.38629852706624
 20
-24.40224000308305
 30
0.0
 10
36.95665907900757
 20
-24.37782927738681
 30
0.0
  0
SPLINE
  5
263
330
1F
100
AcDbEntity
  8
1
  6
SLD-Solid
370
    25
100
AcDbSpline
210
0.0
220
0.0
230
1.0
 70
     8
 71
     3
 72
     8
 73
     4
 74
     0
 42
0.000000001
 43
0.00000001
 40
0.4374999999999944
 40
0.4374999999999944
 40
0.4374999999999944
 40
0.4374999999999944
 40
0.4687499999999947
 40
0.4687499999999947
 40
0.4687499999999947
 40
0.4687499999999947
 10
36.95665907900757
 20
-24.37782927738681
 30
0.0
 10
37.24183935497825
 20
-24.36562391453868
 30
0.0
 10
37.53120971568169
 20
-24.35831987248041
 30
0.0
 10
37.81760440909071
 20
-24.3561751543953
 30
0.0
  0
SPLINE
  5
264
330
1F
100
AcDbEntity
  8
1
  6
SLD-Solid
370
    25
100
AcDbSpline
210
0.0
220
0.0
230
1.0
 70
     8
 71
     3
 72
     8
 73
     4
 74
     0
 42
0.000000001
 43
0.00000001
 40
0.4687499999999947
 40
0.4687499999999947
 40
0.4687499999999947
 40
0.4687499999999947
 40
0.4999999999999951
 40
0.4999999999999951
 40
0.4999999999999951
 40
0.4999999999999951
 10
37.81760440909071
 20
-24.3561751543953
 30
0.0
 10
38.10399910249973
 20
-24.3540304363102
 30
0.0
 10
38.38912835839164
 20
-24.35694735354884
 30
0.0
 10
38.67301691123325
 20
-24.36478912528545
 30
0.0
  0
SPLINE
  5
265
330
1F
100
AcDbEntity
  8
1
  6
SLD-Solid
370
    25
100
AcDbSpline
210
0.0
220
0.0
230
1.0
 70
     8
 71
     3
 72
     8
 73
     4
 74
     0
 42
0.000000001
 43
0.00000001
 40
0.4999999999999951
 40
0.4999999999999951
 40
0.4999999999999951
 40
0.4999999999999951
 40
0.5312499999999954
 40
0.5312499999999954
 40
0.5312499999999954
 40
0.5312499999999954
 10
38.67301691123325
 20
-24.36478912528545
 30
0.0
 10
38.95690546407485
 20
-24.37263089702206
 30
0.0
 10
39.23955331386615
 20
-24.38539752325665
 30
0.0
 10
39.52095634370617
 20
-24.40293646673408
 30
0.0
  0
SPLINE
  5
266
330
1F
100
AcDbEntity
  8
1
  6
SLD-Solid
370
    25
100
AcDbSpline
210
0.0
220
0.0
230
1.0
 70
     8
 71
     3
 72
     8
 73
     4
 74
     0
 42
0.000000001
 43
0.00000001
 40
0.5312499999999954
 40
0.5312499999999954
 40
0.5312499999999954
 40
0.5312499999999954
 40
0.5624999999999959
 40
0.5624999999999959
 40
0.5624999999999959
 40
0.5624999999999959
 10
39.52095634370619
 20
-24.40293646673408
 30
0.0
 10
39.8023593735462
 20
-24.4204754102115
 30
0.0
 10
40.08378038673951
 20
-24.4429144404059
 30
0.0
 10
40.3608889888776
 20
-24.46965052504435
 30
0.0
  0
SPLINE
  5
267
330
1F
100
AcDbEntity
  8
1
  6
SLD-Solid
370
    25
100
AcDbSpline
210
0.0
220
0.0
230
1.0
 70
     8
 71
     3
 72
     8
 73
     4
 74
     0
 42
0.000000001
 43
0.00000001
 40
0.5624999999999959
 40
0.5624999999999959
 40
0.5624999999999959
 40
0.5624999999999959
 40
0.6249999999999966
 40
0.6249999999999966
 40
0.6249999999999966
 40
0.6249999999999966
 10
40.36088898887759
 20
-24.46965052504435
 30
0.0
 10
40.91510619315379
 20
-24.52312269432127
 30
0.0
 10
41.44600502587491
 20
-24.59293480174941
 30
0.0
 10
41.95508975132459
 20
-24.67453616465835
 30
0.0
  0
SPLINE
  5
268
330
1F
100
AcDbEntity
  8
1
  6
SLD-Solid
370
    25
100
AcDbSpline
210
0.0
220
0.0
230
1.0
 70
     8
 71
     3
 72
     8
 73
     4
 74
     0
 42
0.000000001
 43
0.00000001
 40
0.6249999999999966
 40
0.6249999999999966
 40
0.6249999999999966
 40
0.6249999999999966
 40
0.6874999999999973
 40
0.6874999999999973
 40
0.6874999999999973
 40
0.6874999999999973
 10
41.95508975132459
 20
-24.67453616465835
 30
0.0
 10
42.46417447677429
 20
-24.75613752756729
 30
0.0
 10
42.95549729748709
 20
-24.85057513482633
 30
0.0
 10
43.40885039936474
 20
-24.94886094880301
 30
0.0
  0
SPLINE
  5
269
330
1F
100
AcDbEntity
  8
1
  6
SLD-Solid
370
    25
100
AcDbSpline
210
0.0
220
0.0
230
1.0
 70
     8
 71
     3
 72
     8
 73
     4
 74
     0
 42
0.000000001
 43
0.00000001
 40
0.6874999999999973
 40
0.6874999999999973
 40
0.6874999999999973
 40
0.6874999999999973
 40
0.749999999999998
 40
0.749999999999998
 40
0.749999999999998
 40
0.749999999999998
 10
43.40885039936474
 20
-24.94886094880301
 30
0.0
 10
43.86220350124238
 20
-25.04714676277969
 30
0.0
 10
44.28052244814851
 20
-25.149509354762
 30
0.0
 10
44.66446240668488
 20
-25.25084274178025
 30
0.0
  0
SPLINE
  5
26A
330
1F
100
AcDbEntity
  8
1
  6
SLD-Solid
370
    25
100
AcDbSpline
210
0.0
220
0.0
230
1.0
 70
     8
 71
     3
 72
     8
 73
     4
 74
     0
 42
0.000000001
 43
0.00000001
 40
0.749999999999998
 40
0.749999999999998
 40
0.749999999999998
 40
0.749999999999998
 40
0.7812499999999983
 40
0.7812499999999983
 40
0.7812499999999983
 40
0.7812499999999983
 10
44.66446240668488
 20
-25.25084274178025
 30
0.0
 10
44.85643238595309
 20
-25.30150943528938
 30
0.0
 10
45.04061113130712
 20
-25.35217495223447
 30
0.0
 10
45.21334321367149
 20
-25.40122674829349
 30
0.0
  0
SPLINE
  5
26B
330
1F
100
AcDbEntity
  8
1
  6
SLD-Solid
370
    25
100
AcDbSpline
210
0.0
220
0.0
230
1.0
 70
     8
 71
     3
 72
     8
 73
     4
 74
     0
 42
0.000000001
 43
0.00000001
 40
0.7812499999999983
 40
0.7812499999999983
 40
0.7812499999999983
 40
0.7812499999999983
 40
0.8124999999999986
 40
0.8124999999999986
 40
0.8124999999999986
 40
0.8124999999999986
 10
45.21334321367149
 20
-25.40122674829349
 30
0.0
 10
45.38607529603583
 20
-25.45027854435251
 30
0.0
 10
45.54733462572452
 20
-25.49768191854529
 30
0.0
 10
45.69740803425411
 20
-25.54290685191878
 30
0.0
  0
SPLINE
  5
26C
330
1F
100
AcDbEntity
  8
1
  6
SLD-Solid
370
    25
100
AcDbSpline
210
0.0
220
0.0
230
1.0
 70
     8
 71
     3
 72
     8
 73
     4
 74
     0
 42
0.000000001
 43
0.00000001
 40
0.8124999999999986
 40
0.8124999999999986
 40
0.8124999999999986
 40
0.8124999999999986
 40
0.874999999999999
 40
0.874999999999999
 40
0.874999999999999
 40
0.874999999999999
 10
45.69740803425412
 20
-25.54290685191878
 30
0.0
 10
45.99755485131323
 20
-25.63335671866576
 30
0.0
 10
46.25328054254702
 20
-25.71512014429134
 30
0.0
 10
46.4629779675718
 20
-25.78394841911544
 30
0.0
  0
SPLINE
  5
26D
330
1F
100
AcDbEntity
  8
1
  6
SLD-Solid
370
    25
100
AcDbSpline
210
0.0
220
0.0
230
1.0
 70
     8
 71
     3
 72
     8
 73
     4
 74
     0
 42
0.000000001
 43
0.00000001
 40
0.874999999999999
 40
0.874999999999999
 40
0.874999999999999
 40
0.874999999999999
 40
0.9062499999999992
 40
0.9062499999999992
 40
0.9062499999999992
 40
0.9062499999999992
 10
46.4629779675718
 20
-25.78394841911544
 30
0.0
 10
46.56782668008418
 20
-25.81836255652749
 30
0.0
 10
46.6610456268693
 20
-25.84952864128673
 30
0.0
 10
46.74041218338184
 20
-25.87633677967981
 30
0.0
  0
SPLINE
  5
26E
330
1F
100
AcDbEntity
  8
1
  6
SLD-Solid
370
    25
100
AcDbSpline
210
0.0
220
0.0
230
1.0
 70
     8
 71
     3
 72
     8
 73
     4
 74
     0
 42
0.000000001
 43
0.00000001
 40
0.9062499999999992
 40
0.9062499999999992
 40
0.9062499999999992
 40
0.9062499999999992
 40
0.9374999999999994
 40
0.9374999999999994
 40
0.9374999999999994
 40
0.9374999999999994
 10
46.74041218338185
 20
-25.87633677967981
 30
0.0
 10
46.8197787398944
 20
-25.90314491807288
 30
0.0
 10
46.88595025805535
 20
-25.92580996342745
 30
0.0
 10
46.93910207579489
 20
-25.94412353349946
 30
0.0
  0
SPLINE
  5
26F
330
1F
100
AcDbEntity
  8
1
  6
SLD-Solid
370
    25
100
AcDbSpline
210
0.0
220
0.0
230
1.0
 70
     8
 71
     2
 72
     6
 73
     3
 74
     0
 42
0.000000001
 43
0.00000001
 40
0.9374999999999994
 40
0.9374999999999994
 40
0.9374999999999994
 40
1.0
 40
1.0
 40
1.0
 10
46.93910207579489
 20
-25.94412353349946
 30
0.0
 10
47.04540571127396
 20
-25.98075067364348
 30
0.0
 10
47.09999999999999
 20
-26.0
 30
0.0
  0
SPLINE
  5
270
330
1F
100
AcDbEntity
  8
1
  6
SLD-Solid
370
    25
100
AcDbSpline
210
0.0
220
0.0
230
1.0
 70
     8
 71
     3
 72
     8
 73
     4
 74
     0
 42
0.000000001
 43
0.00000001
 40
0.0
 40
0.0
 40
0.0
 40
0.0
 40
0.4999999999999993
 40
0.4999999999999993
 40
0.4999999999999993
 40
0.4999999999999993
 10
18.725
 20
-7.382860218099759
 30
0.0
 10
18.82551825775781
 20
-7.337658141140759
 30
0.0
 10
18.91735913082719
 20
-7.293714212873545
 30
0.0
 10
18.98629537144469
 20
-7.259707188480045
 30
0.0
  0
SPLINE
  5
271
330
1F
100
AcDbEntity
  8
1
  6
SLD-Solid
370
    25
100
AcDbSpline
210
0.0
220
0.0
230
1.0
 70
     8
 71
     3
 72
     8
 73
     4
 74
     0
 42
0.000000001
 43
0.00000001
 40
0.4999999999999993
 40
0.4999999999999993
 40
0.4999999999999993
 40
0.4999999999999993
 40
0.7499999999999997
 40
0.7499999999999997
 40
0.7499999999999997
 40
0.7499999999999997
 10
18.98629537144469
 20
-7.259707188480045
 30
0.0
 10
19.02076349175345
 20
-7.242703676283293
 30
0.0
 10
19.04869102210012
 20
-7.228626825593044
 30
0.0
 10
19.06873084400279
 20
-7.218455603707933
 30
0.0
  0
SPLINE
  5
272
330
1F
100
AcDbEntity
  8
1
  6
SLD-Solid
370
    25
100
AcDbSpline
210
0.0
220
0.0
230
1.0
 70
     8
 71
     2
 72
     6
 73
     3
 74
     0
 42
0.000000001
 43
0.00000001
 40
0.7499999999999997
 40
0.7499999999999997
 40
0.7499999999999997
 40
1.0
 40
1.0
 40
1.0
 10
19.06873084400279
 20
-7.218455603707933
 30
0.0
 10
19.08877066590546
 20
-7.208284381822825
 30
0.0
 10
19.10000000000002
 20
-7.202499566123374
 30
0.0
  0
SPLINE
  5
273
330
1F
100
AcDbEntity
  8
1
  6
SLD-Solid
370
    25
100
AcDbSpline
210
0.0
220
0.0
230
1.0
 70
     8
 71
     2
 72
     6
 73
     3
 74
     0
 42
0.000000001
 43
0.00000001
 40
0.0
 40
0.0
 40
0.0
 40
0.5
 40
0.5
 40
0.5
 10
19.10000010771839
 20
7.202499437431641
 30
0.0
 10
19.05448213914489
 20
7.226071880363477
 30
0.0
 10
18.98611858964212
 20
7.259794318703591
 30
0.0
  0
SPLINE
  5
274
330
1F
100
AcDbEntity
  8
1
  6
SLD-Solid
370
    25
100
AcDbSpline
210
0.0
220
0.0
230
1.0
 70
     8
 71
     3
 72
     8
 73
     4
 74
     0
 42
0.000000001
 43
0.00000001
 40
0.5
 40
0.5
 40
0.5
 40
0.5
 40
1.0
 40
1.0
 40
1.0
 40
1.0
 10
18.98611858964212
 20
7.259794318703591
 30
0.0
 10
18.91775504013937
 20
7.293516757043705
 30
0.0
 10
18.8252876598724
 20
7.33776175850228
 30
0.0
 10
18.72500010771881
 20
7.382860089408472
 30
0.0
  0
SPLINE
  5
275
330
1F
100
AcDbEntity
  8
1
  6
SLD-Solid
370
    25
100
AcDbSpline
210
0.0
220
0.0
230
1.0
 70
     8
 71
     3
 72
    10
 73
     6
 74
     0
 42
0.000000001
 43
0.00000001
 40
0.0
 40
0.0
 40
0.0
 40
0.0
 40
0.5000000000000001
 40
0.5000000000000001
 40
1.0
 40
1.0
 40
1.0
 40
1.0
 10
15.40499999999999
 20
-8.094999999999999
 30
0.0
 10
15.98112657985153
 20
-8.095000000000004
 30
0.0
 10
16.54624836374906
 20
-8.034200497612773
 30
0.0
 10
17.65561942498761
 20
-7.796508043186358
 30
0.0
 10
18.20339005803118
 20
-7.617423105135177
 30
0.0
 10
18.725
 20
-7.382860218099759
 30
0.0
  0
SPLINE
  5
276
330
1F
100
AcDbEntity
  8
1
  6
SLD-Solid
370
    25
100
AcDbSpline
210
0.0
220
0.0
230
1.0
 70
     8
 71
     3
 72
    10
 73
     6
 74
     0
 42
0.000000001
 43
0.00000001
 40
0.0
 40
0.0
 40
0.0
 40
0.0
 40
0.4999999999999999
 40
0.4999999999999999
 40
1.0
 40
1.0
 40
1.0
 40
1.0
 10
18.72500010771881
 20
7.382860089408472
 30
0.0
 10
18.20352437575645
 20
7.617362623517213
 30
0.0
 10
17.66546737266203
 20
7.793658058452148
 30
0.0
 10
16.55640670316609
 20
8.03275052384788
 30
0.0
 10
15.98103488572565
 20
8.094999871308705
 30
0.0
 10
15.4050001077188
 20
8.094999871308712
 30
0.0
  0
SPLINE
  5
277
330
1F
100
AcDbEntity
  8
1
  6
SLD-Solid
370
    25
100
AcDbSpline
210
0.0
220
0.0
230
1.0
 70
    24
 71
     2
 72
     6
 73
     3
 74
     0
 42
0.000000001
 43
0.00000001
 40
0.0
 40
0.0
 40
0.0
 40
0.5
 40
0.5
 40
0.5
 10
14.09999999999999
 20
-8.094999999999999
 30
0.0
 10
14.13829554285045
 20
-8.095
 30
0.0
 10
14.20649777567377
 20
-8.095
 30
0.0
  0
SPLINE
  5
278
330
1F
100
AcDbEntity
  8
1
  6
SLD-Solid
370
    25
100
AcDbSpline
210
0.0
220
0.0
230
1.0
 70
    24
 71
     3
 72
     8
 73
     4
 74
     0
 42
0.000000001
 43
0.00000001
 40
0.5
 40
0.5
 40
0.5
 40
0.5
 40
1.0
 40
1.0
 40
1.0
 40
1.0
 10
14.20649777567377
 20
-8.095
 30
0.0
 10
14.27470000849711
 20
-8.094999999999999
 30
0.0
 10
14.3735280842214
 20
-8.094999999999999
 30
0.0
 10
14.47499999999999
 20
-8.094999999999999
 30
0.0
  0
SPLINE
  5
279
330
1F
100
AcDbEntity
  8
1
  6
SLD-Solid
370
    25
100
AcDbSpline
210
0.0
220
0.0
230
1.0
 70
    24
 71
     3
 72
     8
 73
     4
 74
     0
 42
0.000000001
 43
0.00000001
 40
0.0
 40
0.0
 40
0.0
 40
0.0
 40
0.5
 40
0.5
 40
0.5
 40
0.5
 10
14.47499999999999
 20
8.094999999999999
 30
0.0
 10
14.37490394397867
 20
8.094999999999992
 30
0.0
 10
14.2745797149141
 20
8.094999999999999
 30
0.0
 10
14.20643128914249
 20
8.094999999999992
 30
0.0
  0
SPLINE
  5
27A
330
1F
100
AcDbEntity
  8
1
  6
SLD-Solid
370
    25
100
AcDbSpline
210
0.0
220
0.0
230
1.0
 70
    24
 71
     2
 72
     6
 73
     3
 74
     0
 42
0.000000001
 43
0.00000001
 40
0.5
 40
0.5
 40
0.5
 40
1.0
 40
1.0
 40
1.0
 10
14.20643128914249
 20
8.094999999999992
 30
0.0
 10
14.13828286337092
 20
8.094999999999992
 30
0.0
 10
14.09999999999997
 20
8.094999999999999
 30
0.0
  0
SPLINE
  5
27B
330
1F
100
AcDbEntity
  8
1
  6
SLD-Solid
370
    25
100
AcDbSpline
210
0.0
220
0.0
230
1.0
 70
     8
 71
     3
 72
    10
 73
     6
 74
     0
 42
0.000000001
 43
0.00000001
 40
0.0
 40
0.0
 40
0.0
 40
0.0
 40
0.5
 40
0.5
 40
1.0
 40
1.0
 40
1.0
 40
1.0
 10
1.999999999999988
 20
2.254423570529095
 30
0.0
 10
1.999999999999988
 20
1.503942689015998
 30
0.0
 10
1.991466734792183
 20
0.753347077269463
 30
0.0
 10
1.99143755517249
 20
-0.7476150780783632
 30
0.0
 10
1.999999999999988
 20
-1.502087565517844
 30
0.0
 10
1.999999999999988
 20
-2.254423570529091
 30
0.0
  0
SPLINE
  5
27C
330
1F
100
AcDbEntity
  8
1
  6
SLD-Dashed
370
    18
100
AcDbSpline
210
0.0
220
0.0
230
1.0
 70
     8
 71
     3
 72
    28
 73
    24
 74
     0
 42
0.000000001
 43
0.00000001
 40
0.0
 40
0.0
 40
0.0
 40
0.0
 40
0.0208848787716957
 40
0.0417692468620445
 40
0.0626724436867332
 40
0.0937833486192978
 40
0.1248924931938351
 40
0.1870516317136043
 40
0.2497059860485744
 40
0.3124160740059261
 40
0.3746586325612334
 40
0.4369953122912586
 40
0.4999274454992637
 40
0.5625489515323492
 40
0.6248708703360697
 40
0.6874635877609493
 40
0.7503321793926552
 40
0.8126536407098703
 40
0.8749181646787996
 40
0.9062722023423184
 40
0.9376282017468617
 40
0.9688222759527391
 40
1.0
 40
1.0
 40
1.0
 40
1.0
 10
21.62000000245135
 20
-5.823866909025495
 30
0.0
 10
21.67915553758489
 20
-5.758032575143387
 30
0.0
 10
21.79746516136866
 20
-5.626365517173829
 30
0.0
 10
21.96712444256969
 20
-5.421882999838489
 30
0.0
 10
22.15753277321367
 20
-5.17840696255363
 30
0.0
 10
22.36375927093888
 20
-4.892291257015558
 30
0.0
 10
22.65244147444166
 20
-4.450208806487399
 30
0.0
 10
22.97592077463061
 20
-3.870964748288471
 30
0.0
 10
23.29950129640806
 20
-3.140228812871442
 30
0.0
 10
23.55455690563594
 20
-2.380922079821456
 30
0.0
 10
23.73837869429078
 20
-1.601410148282325
 30
0.0
 10
23.84992344842057
 20
-0.8063863450149984
 30
0.0
 10
23.88749141587385
 20
-0.002280733928009
 30
0.0
 10
23.85028728179708
 20
0.8017641774757043
 30
0.0
 10
23.73928085306733
 20
1.596975791768762
 30
0.0
 10
23.555311085435
 20
2.37864421670618
 30
0.0
 10
23.30005808851219
 20
3.138681793653987
 30
0.0
 10
22.97677376595969
 20
3.869221668067753
 30
0.0
 10
22.65340141861892
 20
4.448604732016754
 30
0.0
 10
22.36346693539368
 20
4.892916686012862
 30
0.0
 10
22.13016957740643
 20
5.215847801404876
 30
0.0
 10
21.88370076560125
 20
5.527772855820345
 30
0.0
 10
21.70788513271299
 20
5.725186352183949
 30
0.0
 10
21.62000036044562
 20
5.823867225354371
 30
0.0
  0
SPLINE
  5
27D
330
1F
100
AcDbEntity
  8
SK3
  6
SLD-Dashed
370
    18
100
AcDbSpline
210
0.0
220
0.0
230
1.0
 70
     8
 71
     3
 72
    14
 73
    10
 74
     0
 42
0.000000001
 43
0.00000001
 40
0.0
 40
0.0
 40
0.0
 40
0.0
 40
0.2500000000000001
 40
0.2500000000000001
 40
0.5000000000000002
 40
0.5000000000000002
 40
0.7500000000000003
 40
0.7500000000000003
 40
1.0
 40
1.0
 40
1.0
 40
1.0
 10
9.000000000000007
 20
22.52233123672764
 30
0.0
 10
8.812777191913575
 20
22.64552007315852
 30
0.0
 10
8.662112875109054
 20
22.7878545875938
 30
0.0
 10
8.381886162599134
 20
23.07755921415752
 30
0.0
 10
8.25495645917841
 20
23.22498791588271
 30
0.0
 10
8.019354036156571
 20
23.5032207217443
 30
0.0
 10
7.909797220188294
 20
23.63589376155359
 30
0.0
 10
7.703969370161295
 20
23.87567519811309
 30
0.0
 10
7.607104185181568
 20
23.98396357657228
 30
0.0
 10
7.525977601282722
 20
24.05824340254708
 30
0.0
  0
SPLINE
  5
27E
330
1F
100
AcDbEntity
  8
SK3
  6
SLD-Dashed
370
    18
100
AcDbSpline
210
0.0
220
0.0
230
1.0
 70
     8
 71
     3
 72
    32
 73
    28
 74
     0
 42
0.000000001
 43
0.00000001
 40
0.5000000000000012
 40
0.5000000000000012
 40
0.5000000000000012
 40
0.5000000000000012
 40
0.5625000000000009
 40
0.5625000000000009
 40
0.5937500000000006
 40
0.5937500000000006
 40
0.6250000000000002
 40
0.6250000000000002
 40
0.6562499999999999
 40
0.6562499999999999
 40
0.6874999999999996
 40
0.6874999999999996
 40
0.7187499999999992
 40
0.7187499999999992
 40
0.7499999999999989
 40
0.7499999999999989
 40
0.8124999999999992
 40
0.8124999999999992
 40
0.8749999999999996
 40
0.8749999999999996
 40
0.9062499999999997
 40
0.9062499999999997
 40
0.9374999999999998
 40
0.9374999999999998
 40
0.9687499999999999
 40
0.9687499999999999
 40
1.0
 40
1.0
 40
1.0
 40
1.0
 10
7.456230207610131
 20
19.84600673884608
 30
0.0
 10
7.546439438621988
 20
19.95426866967478
 30
0.0
 10
7.692733571173976
 20
20.07094934226745
 30
0.0
 10
7.972968724529419
 20
20.21091817829939
 30
0.0
 10
8.07528136341637
 20
20.25117971404978
 30
0.0
 10
8.299556825010074
 20
20.30548974841722
 30
0.0
 10
8.420055834779797
 20
20.31835458358098
 30
0.0
 10
8.664330351546527
 20
20.29472325415856
 30
0.0
 10
8.78429562543473
 20
20.25778638738562
 30
0.0
 10
9.008919125679359
 20
20.1403224878861
 30
0.0
 10
9.109838184184357
 20
20.06343380589293
 30
0.0
 10
9.297290894689962
 20
19.89078717598883
 30
0.0
 10
9.383733967009256
 20
19.79494548607432
 30
0.0
 10
9.545098872194638
 20
19.59705747977521
 30
0.0
 10
9.620726716161599
 20
19.49411222683431
 30
0.0
 10
9.838475211045125
 20
19.17772611922446
 30
0.0
 10
9.972459158192171
 20
18.9555174712461
 30
0.0
 10
10.2181075349755
 20
18.51489382659244
 30
0.0
 10
10.33101402996077
 20
18.29446640444081
 30
0.0
 10
10.47999063705324
 20
17.96958614238823
 30
0.0
 10
10.52474319299179
 20
17.86515021015935
 30
0.0
 10
10.59843589743609
 20
17.67242127134741
 30
0.0
 10
10.62620768260131
 20
17.587028417322
 30
0.0
 10
10.65415209263677
 20
17.45435220691152
 30
0.0
 10
10.65286856709549
 20
17.41091530379839
 30
0.0
 10
10.62120361374107
 20
17.37653193951724
 30
0.0
 10
10.59130436150139
 20
17.38454088990771
 30
0.0
 10
10.55308824864454
 20
17.40968632236791
 30
0.0
  0
SPLINE
  5
27F
330
1F
100
AcDbEntity
  8
SK3
  6
SLD-Dashed
370
    18
100
AcDbSpline
210
0.0
220
0.0
230
1.0
 70
     8
 71
     3
 72
    32
 73
    28
 74
     0
 42
0.000000001
 43
0.00000001
 40
0.0
 40
0.0
 40
0.0
 40
0.0
 40
0.0312499999999999
 40
0.0312499999999999
 40
0.0624999999999998
 40
0.0624999999999998
 40
0.1250000000000003
 40
0.1250000000000003
 40
0.1875000000000009
 40
0.1875000000000009
 40
0.218750000000001
 40
0.218750000000001
 40
0.2500000000000012
 40
0.2500000000000012
 40
0.2812500000000013
 40
0.2812500000000013
 40
0.3125000000000014
 40
0.3125000000000014
 40
0.3437500000000016
 40
0.3437500000000016
 40
0.3750000000000016
 40
0.3750000000000016
 40
0.4062500000000016
 40
0.4062500000000016
 40
0.4375000000000016
 40
0.4375000000000016
 40
0.5000000000000012
 40
0.5000000000000012
 40
0.5000000000000012
 40
0.5000000000000012
 10
10.55308824864454
 20
17.40968632236791
 30
0.0
 10
10.51487213578767
 20
17.43483175482812
 30
0.0
 10
10.46983022717768
 20
17.47541959914544
 30
0.0
 10
10.3708190435485
 20
17.57495501224682
 30
0.0
 10
10.31630583330355
 20
17.63468171470313
 30
0.0
 10
10.14470275204581
 20
17.83011468983805
 30
0.0
 10
10.0208717841328
 20
17.98043066739106
 30
0.0
 10
9.751365665135777
 20
18.2996711778114
 30
0.0
 10
9.60624404303484
 20
18.46955195332398
 30
0.0
 10
9.360735956978672
 20
18.71806092835867
 30
0.0
 10
9.273067061356304
 20
18.80074761294372
 30
0.0
 10
9.082481598369593
 20
18.95594905056459
 30
0.0
 10
8.978191466547589
 20
19.02910999751616
 30
0.0
 10
8.752139650361437
 20
19.15082152874419
 30
0.0
 10
8.629341373283737
 20
19.19863634895722
 30
0.0
 10
8.387204787212276
 20
19.26501062988958
 30
0.0
 10
8.266814367632215
 20
19.28512289757325
 30
0.0
 10
8.046561717486494
 20
19.3156318921451
 30
0.0
 10
7.944121662684142
 20
19.3266893603509
 30
0.0
 10
7.760725737691571
 20
19.35213271930933
 30
0.0
 10
7.680377292549625
 20
19.36624187488923
 30
0.0
 10
7.541999915855982
 20
19.40397372362142
 30
0.0
 10
7.486162551754938
 20
19.42699569581447
 30
0.0
 10
7.401526261015659
 20
19.48406624904845
 30
0.0
 10
7.372625165964458
 20
19.51869988496407
 30
0.0
 10
7.332227545734385
 20
19.63671408738469
 30
0.0
 10
7.366020976598275
 20
19.73774480801737
 30
0.0
 10
7.456230207610131
 20
19.84600673884608
 30
0.0
  0
SPLINE
  5
280
330
1F
100
AcDbEntity
  8
SK3
  6
SLD-Dashed
370
    18
100
AcDbSpline
210
0.0
220
0.0
230
1.0
 70
     8
 71
     3
 72
    30
 73
    26
 74
     0
 42
0.000000001
 43
0.00000001
 40
0.5000000000000009
 40
0.5000000000000009
 40
0.5000000000000009
 40
0.5000000000000009
 40
0.5625000000000012
 40
0.5625000000000012
 40
0.5937500000000014
 40
0.5937500000000014
 40
0.6250000000000017
 40
0.6250000000000017
 40
0.6562500000000016
 40
0.6562500000000016
 40
0.6875000000000014
 40
0.6875000000000014
 40
0.750000000000001
 40
0.750000000000001
 40
0.7812500000000009
 40
0.7812500000000009
 40
0.8125000000000008
 40
0.8125000000000008
 40
0.8750000000000006
 40
0.8750000000000006
 40
0.9375000000000003
 40
0.9375000000000003
 40
0.9687500000000002
 40
0.9687500000000002
 40
1.0
 40
1.0
 40
1.0
 40
1.0
 10
9.000696316941545
 20
5.828118860750117
 30
0.0
 10
8.784908724696699
 20
5.82806695911723
 30
0.0
 10
8.567048694399087
 20
5.853178352513256
 30
0.0
 10
8.268946802941713
 20
5.9213308556013
 30
0.0
 10
8.172466043233683
 20
5.949419321585631
 30
0.0
 10
7.993203237886867
 20
6.012924687184104
 30
0.0
 10
7.910379012452839
 20
6.04817924035337
 30
0.0
 10
7.758121289792086
 20
6.124333354423847
 30
0.0
 10
7.68868193396828
 20
6.165418181912422
 30
0.0
 10
7.569279941293249
 20
6.248573285672888
 30
0.0
 10
7.518412105938579
 20
6.291049151618503
 30
0.0
 10
7.393205589629498
 20
6.419647104437542
 30
0.0
 10
7.35012532902915
 20
6.50297594938342
 30
0.0
 10
7.349937743673027
 20
6.614727810660213
 30
0.0
 10
7.360546983124008
 20
6.649079505291756
 30
0.0
 10
7.402585039394061
 20
6.712381754065973
 30
0.0
 10
7.434548798404952
 20
6.741521134481808
 30
0.0
 10
7.558420656055969
 20
6.818244166438434
 30
0.0
 10
7.681132065308683
 20
6.856913129969278
 30
0.0
 10
7.983931170274364
 20
6.912480095519862
 30
0.0
 10
8.167181972037765
 20
6.930192911438398
 30
0.0
 10
8.464950082261877
 20
6.94662534792248
 30
0.0
 10
8.569947795646405
 20
6.950524619014963
 30
0.0
 10
8.782695288988284
 20
6.955579984062175
 30
0.0
 10
8.89057868551757
 20
6.956785249985095
 30
0.0
 10
8.999999999999995
 20
6.956785249985095
 30
0.0
  0
SPLINE
  5
281
330
1F
100
AcDbEntity
  8
SK3
  6
SLD-Dashed
370
    18
100
AcDbSpline
210
0.0
220
0.0
230
1.0
 70
     8
 71
     3
 72
    32
 73
    28
 74
     0
 42
0.000000001
 43
0.00000001
 40
0.0
 40
0.0
 40
0.0
 40
0.0
 40
0.0312500000000001
 40
0.0312500000000001
 40
0.0625000000000002
 40
0.0625000000000002
 40
0.0937500000000003
 40
0.0937500000000003
 40
0.1250000000000004
 40
0.1250000000000004
 40
0.1875000000000007
 40
0.1875000000000007
 40
0.2500000000000009
 40
0.2500000000000009
 40
0.2812500000000011
 40
0.2812500000000011
 40
0.3125000000000012
 40
0.3125000000000012
 40
0.3750000000000011
 40
0.3750000000000011
 40
0.4062500000000011
 40
0.4062500000000011
 40
0.437500000000001
 40
0.437500000000001
 40
0.4687500000000009
 40
0.4687500000000009
 40
0.5000000000000009
 40
0.5000000000000009
 40
0.5000000000000009
 40
0.5000000000000009
 10
8.999999999999995
 20
6.956785249985095
 30
0.0
 10
9.109421314482418
 20
6.956785249985089
 30
0.0
 10
9.216934141527217
 20
6.955579635659605
 30
0.0
 10
9.428324443196134
 20
6.950574738100422
 30
0.0
 10
9.53332098289328
 20
6.946705728820862
 30
0.0
 10
9.732933064688087
 20
6.93571995219959
 30
0.0
 10
9.827545190420908
 20
6.928648943863705
 30
0.0
 10
10.00660221727667
 20
6.910183829536301
 30
0.0
 10
10.0910674534529
 20
6.898696105629806
 30
0.0
 10
10.31845668439876
 20
6.857030184983508
 30
0.0
 10
10.44127007785231
 20
6.818300476594014
 30
0.0
 10
10.60612945459308
 20
6.71646056097866
 30
0.0
 10
10.6498670631745
 20
6.652019447780856
 30
0.0
 10
10.6500660021792
 20
6.541211798441047
 30
0.0
 10
10.63926006613777
 20
6.501252463902041
 30
0.0
 10
10.59698911749947
 20
6.419578813744928
 30
0.0
 10
10.56571768111608
 20
6.377598407896416
 30
0.0
 10
10.4411817957864
 20
6.249271679382558
 30
0.0
 10
10.31980936785252
 20
6.163428739056981
 30
0.0
 10
10.09031421017587
 20
6.048468009215193
 30
0.0
 10
10.00743739559384
 20
6.013200883306917
 30
0.0
 10
9.829108445560813
 20
5.949928459094076
 30
0.0
 10
9.732492335567915
 20
5.921708122695684
 30
0.0
 10
9.533290589479437
 20
5.876070401958457
 30
0.0
 10
9.430444258687873
 20
5.858412277425416
 30
0.0
 10
9.218127825784975
 20
5.834356571066242
 30
0.0
 10
9.108590113063961
 20
5.828144811566557
 30
0.0
 10
9.000696316941545
 20
5.828118860750117
 30
0.0
  0
SPLINE
  5
282
330
1F
100
AcDbEntity
  8
SK3
  6
SLD-Dashed
370
    18
100
AcDbSpline
210
0.0
220
0.0
230
1.0
 70
     8
 71
     3
 72
    30
 73
    26
 74
     0
 42
0.000000001
 43
0.00000001
 40
0.4999999999999977
 40
0.4999999999999977
 40
0.4999999999999977
 40
0.4999999999999977
 40
0.5624999999999981
 40
0.5624999999999981
 40
0.5937499999999982
 40
0.5937499999999982
 40
0.6249999999999983
 40
0.6249999999999983
 40
0.6562499999999986
 40
0.6562499999999986
 40
0.6874999999999987
 40
0.6874999999999987
 40
0.749999999999999
 40
0.749999999999999
 40
0.7812499999999992
 40
0.7812499999999992
 40
0.8124999999999996
 40
0.8124999999999996
 40
0.8749999999999997
 40
0.8749999999999997
 40
0.9374999999999999
 40
0.9374999999999999
 40
0.96875
 40
0.96875
 40
1.0
 40
1.0
 40
1.0
 40
1.0
 10
8.999303683058457
 20
-6.956785233221206
 30
0.0
 10
9.215091275303303
 20
-6.956795623434965
 30
0.0
 10
9.432951305600914
 20
-6.95219321718072
 30
0.0
 10
9.731053197058289
 20
-6.935841424474246
 30
0.0
 10
9.827533956766318
 20
-6.928651961099114
 30
0.0
 10
10.00679676211313
 20
-6.910161906578553
 30
0.0
 10
10.08962098754716
 20
-6.898922416800193
 30
0.0
 10
10.24187871020792
 20
-6.871100206533844
 30
0.0
 10
10.31131806603171
 20
-6.854385757486227
 30
0.0
 10
10.43072005870674
 20
-6.8155653209316
 30
0.0
 10
10.48158789406141
 20
-6.793338880874089
 30
0.0
 10
10.60679441037049
 20
-6.716160531564947
 30
0.0
 10
10.64987467097084
 20
-6.652571251466271
 30
0.0
 10
10.65006225632696
 20
-6.540902490698282
 30
0.0
 10
10.63945301687599
 20
-6.501808848192771
 30
0.0
 10
10.59741496060593
 20
-6.420220705647812
 30
0.0
 10
10.56545120159504
 20
-6.377316705302408
 30
0.0
 10
10.44157934394402
 20
-6.24969556347859
 30
0.0
 10
10.31886793469132
 20
-6.16302870586721
 30
0.0
 10
10.01606882972562
 20
-6.011205112641492
 30
0.0
 10
9.832818027962237
 20
-5.944805669355187
 30
0.0
 10
9.535049917738124
 20
-5.876417755056647
 30
0.0
 10
9.430052204353585
 20
-5.858344814756927
 30
0.0
 10
9.217304711011703
 20
-5.834286485611691
 30
0.0
 10
9.109421314482432
 20
-5.828118777010397
 30
0.0
 10
8.999999999999995
 20
-5.828118777010397
 30
0.0
  0
SPLINE
  5
283
330
1F
100
AcDbEntity
  8
SK3
  6
SLD-Dashed
370
    18
100
AcDbSpline
210
0.0
220
0.0
230
1.0
 70
     8
 71
     3
 72
    32
 73
    28
 74
     0
 42
0.000000001
 43
0.00000001
 40
0.0
 40
0.0
 40
0.0
 40
0.0
 40
0.0312499999999998
 40
0.0312499999999998
 40
0.0624999999999996
 40
0.0624999999999996
 40
0.0937499999999995
 40
0.0937499999999995
 40
0.1249999999999993
 40
0.1249999999999993
 40
0.1874999999999988
 40
0.1874999999999988
 40
0.2499999999999984
 40
0.2499999999999984
 40
0.2812499999999982
 40
0.2812499999999982
 40
0.3124999999999981
 40
0.3124999999999981
 40
0.3749999999999977
 40
0.3749999999999977
 40
0.4062499999999977
 40
0.4062499999999977
 40
0.4374999999999977
 40
0.4374999999999977
 40
0.4687499999999977
 40
0.4687499999999977
 40
0.4999999999999977
 40
0.4999999999999977
 40
0.4999999999999977
 40
0.4999999999999977
 10
8.999999999999995
 20
-5.828118777010397
 30
0.0
 10
8.89057868551757
 20
-5.828118777010397
 30
0.0
 10
8.78306585847277
 20
-5.834284418330168
 30
0.0
 10
8.571675556803854
 20
-5.858109988008064
 30
0.0
 10
8.466679017106724
 20
-5.876067982477962
 30
0.0
 10
8.267066935311886
 20
-5.921818499940109
 30
0.0
 10
8.17245480957908
 20
-5.949427367456884
 30
0.0
 10
7.993397782723316
 20
-6.012851705936409
 30
0.0
 10
7.908932546547106
 20
-6.048842538536839
 30
0.0
 10
7.681543315601225
 20
-6.162756727646983
 30
0.0
 10
7.558729922147678
 20
-6.24952195618832
 30
0.0
 10
7.39387054540691
 20
-6.419081974581037
 30
0.0
 10
7.350132936825501
 20
-6.503524382808403
 30
0.0
 10
7.349933997820787
 20
-6.614420162333253
 30
0.0
 10
7.360739933862229
 20
-6.649550307798461
 30
0.0
 10
7.403010882500547
 20
-6.712840086506223
 30
0.0
 10
7.43428231888392
 20
-6.741349407769732
 30
0.0
 10
7.558818204213585
 20
-6.818503738973199
 30
0.0
 10
7.680190632147477
 20
-6.856785886595794
 30
0.0
 10
7.909685789824122
 20
-6.898832345070032
 30
0.0
 10
7.992562604406145
 20
-6.910073301990255
 30
0.0
 10
8.170891554439189
 20
-6.928511809027594
 30
0.0
 10
8.267507664432086
 20
-6.93574718036594
 30
0.0
 10
8.46670941052055
 20
-6.946704422141261
 30
0.0
 10
8.569555741312115
 20
-6.950509985122831
 30
0.0
 10
8.781872174215014
 20
-6.95556571242259
 30
0.0
 10
8.891409886936028
 20
-6.956780038114331
 30
0.0
 10
8.999303683058457
 20
-6.956785233221206
 30
0.0
  0
SPLINE
  5
284
330
1F
100
AcDbEntity
  8
SK3
  6
SLD-Dashed
370
    18
100
AcDbSpline
210
0.0
220
0.0
230
1.0
 70
     8
 71
     3
 72
    30
 73
    26
 74
     0
 42
0.000000001
 43
0.00000001
 40
0.5000000000000007
 40
0.5000000000000007
 40
0.5000000000000007
 40
0.5000000000000007
 40
0.5625000000000007
 40
0.5625000000000007
 40
0.6250000000000008
 40
0.6250000000000008
 40
0.6562500000000008
 40
0.6562500000000008
 40
0.6875000000000007
 40
0.6875000000000007
 40
0.7187500000000007
 40
0.7187500000000007
 40
0.7500000000000007
 40
0.7500000000000007
 40
0.7812500000000007
 40
0.7812500000000007
 40
0.8125000000000006
 40
0.8125000000000006
 40
0.8750000000000004
 40
0.8750000000000004
 40
0.9375000000000002
 40
0.9375000000000002
 40
0.9687500000000001
 40
0.9687500000000001
 40
1.0
 40
1.0
 40
1.0
 40
1.0
 10
9.604893377742021
 20
-19.51347850842545
 30
0.0
 10
9.755793318841771
 20
-19.30677243266501
 30
0.0
 10
9.893662796082017
 20
-19.08656912488682
 30
0.0
 10
10.14805664695101
 20
-18.64615615242747
 30
0.0
 10
10.26529533769356
 20
-18.4244169964217
 30
0.0
 10
10.4239244039589
 20
-18.0939927972754
 30
0.0
 10
10.47259202337669
 20
-17.98671496934673
 30
0.0
 10
10.55785759585892
 20
-17.78229420130051
 30
0.0
 10
10.59326128133256
 20
-17.68804522709434
 30
0.0
 10
10.64183233662706
 20
-17.52669154829956
 30
0.0
 10
10.6533951452847
 20
-17.46303104768353
 30
0.0
 10
10.64476472747594
 20
-17.38873292205965
 30
0.0
 10
10.62471573718476
 20
-17.37809859267778
 30
0.0
 10
10.56411130935853
 20
-17.39839565630087
 30
0.0
 10
10.52329695534175
 20
-17.42868893004588
 30
0.0
 10
10.43204397918217
 20
-17.51153884675923
 30
0.0
 10
10.38099542270569
 20
-17.56445171258742
 30
0.0
 10
10.21662618950934
 20
-17.74507224580027
 30
0.0
 10
10.09647406147368
 20
-17.8895537070524
 30
0.0
 10
9.8354537132061
 20
-18.20069059067215
 30
0.0
 10
9.694824864369608
 20
-18.36836325662091
 30
0.0
 10
9.46256118267684
 20
-18.61652471163249
 30
0.0
 10
9.381211268074715
 20
-18.69902254918872
 30
0.0
 10
9.204128124353284
 20
-18.85969063580465
 30
0.0
 10
9.106631126133122
 20
-18.93919115918042
 30
0.0
 10
8.999999999999995
 20
-19.00935229227052
 30
0.0
  0
SPLINE
  5
285
330
1F
100
AcDbEntity
  8
SK3
  6
SLD-Dashed
370
    18
100
AcDbSpline
210
0.0
220
0.0
230
1.0
 70
     8
 71
     3
 72
    36
 73
    32
 74
     0
 42
0.000000001
 43
0.00000001
 40
0.0
 40
0.0
 40
0.0
 40
0.0
 40
0.0312500000000001
 40
0.0312500000000001
 40
0.0625000000000002
 40
0.0625000000000002
 40
0.0937500000000002
 40
0.0937500000000002
 40
0.1250000000000003
 40
0.1250000000000003
 40
0.1875000000000004
 40
0.1875000000000004
 40
0.2187500000000004
 40
0.2187500000000004
 40
0.2500000000000004
 40
0.2500000000000004
 40
0.2812500000000004
 40
0.2812500000000004
 40
0.3125000000000005
 40
0.3125000000000005
 40
0.3437500000000005
 40
0.3437500000000005
 40
0.3750000000000006
 40
0.3750000000000006
 40
0.4062500000000006
 40
0.4062500000000006
 40
0.4375000000000006
 40
0.4375000000000006
 40
0.4687500000000006
 40
0.4687500000000006
 40
0.5000000000000007
 40
0.5000000000000007
 40
0.5000000000000007
 40
0.5000000000000007
 10
8.999999999999995
 20
-19.00935229227052
 30
0.0
 10
8.893368873866866
 20
-19.07951342536062
 30
0.0
 10
8.779078496880505
 20
-19.13876343643519
 30
0.0
 10
8.53588822531287
 20
-19.22910219513932
 30
0.0
 10
8.413981832791295
 20
-19.25794010302164
 30
0.0
 10
8.179271157767829
 20
-19.29928852710619
 30
0.0
 10
8.0708031897785
 20
-19.31172242241065
 30
0.0
 10
7.870144624719078
 20
-19.33654780644656
 30
0.0
 10
7.780090866186293
 20
-19.34853604168465
 30
0.0
 10
7.544512767225509
 20
-19.3953110187003
 30
0.0
 10
7.434195142488748
 20
-19.44192055633949
 30
0.0
 10
7.357340922935024
 20
-19.54785336765127
 30
0.0
 10
7.346659110617132
 20
-19.58805593582038
 30
0.0
 10
7.355124597261009
 20
-19.67872704820322
 30
0.0
 10
7.374722264446492
 20
-19.72901567754585
 30
0.0
 10
7.442070988465901
 20
-19.83365591862577
 30
0.0
 10
7.490734580698655
 20
-19.88938085498789
 30
0.0
 10
7.612774729317485
 20
-19.9992837788017
 30
0.0
 10
7.685839339782327
 20
-20.0536750251711
 30
0.0
 10
7.857040323147602
 20
-20.1562846595996
 30
0.0
 10
7.952261026647978
 20
-20.20282117663173
 30
0.0
 10
8.161504958136959
 20
-20.27630660982454
 30
0.0
 10
8.27758816215013
 20
-20.30338148582379
 30
0.0
 10
8.516407933335564
 20
-20.31580644474792
 30
0.0
 10
8.641679517825185
 20
-20.29974308132086
 30
0.0
 10
8.87595150365178
 20
-20.21819193323017
 30
0.0
 10
8.987353019303715
 20
-20.15278169598955
 30
0.0
 10
9.187585804504113
 20
-19.99813205379245
 30
0.0
 10
9.279840777074972
 20
-19.90750849637212
 30
0.0
 10
9.450435476899097
 20
-19.71714874234591
 30
0.0
 10
9.52944340719214
 20
-19.61683154630567
 30
0.0
 10
9.604893377742021
 20
-19.51347850842545
 30
0.0
  0
SPLINE
  5
286
330
1F
100
AcDbEntity
  8
SK3
  6
SLD-Dashed
370
    18
100
AcDbSpline
210
0.0
220
0.0
230
1.0
 70
     8
 71
     3
 72
    17
 73
    13
 74
     0
 42
0.000000001
 43
0.00000001
 40
0.0
 40
0.0
 40
0.0
 40
0.0
 40
0.1125962084631593
 40
0.2251681550871067
 40
0.3017048564870105
 40
0.3788515390169508
 40
0.4652354027211698
 40
0.6359757469078763
 40
0.7629622816103587
 40
0.8937151135414556
 40
0.9740070234963218
 40
1.0
 40
1.0
 40
1.0
 40
1.0
 10
10.55308824864454
 20
-22.07819564013879
 30
0.0
 10
10.47281539603494
 20
-22.11283399186943
 30
0.0
 10
10.31228698773075
 20
-22.18210323157921
 30
0.0
 10
9.922893180811062
 20
-22.21626159933791
 30
0.0
 10
9.515964065579766
 20
-22.28064402087961
 30
0.0
 10
9.131323407064947
 20
-22.42295330449019
 30
0.0
 10
8.68383837575261
 20
-22.74221651174738
 30
0.0
 10
8.298021905527794
 20
-23.17031221967511
 30
0.0
 10
7.925603906948783
 20
-23.61789054118149
 30
0.0
 10
7.673092509371704
 20
-23.91078278679013
 30
0.0
 10
7.511383730702162
 20
-24.08256742753226
 30
0.0
 10
7.466326591182126
 20
-24.10308797505352
 30
0.0
 10
7.455307440596471
 20
-24.10810646947295
 30
0.0
  0
INSERT
  5
287
330
1F
100
AcDbEntity
  8
81
100
AcDbBlockReference
  2
Block11
 10
-28.6264826505
 20
-130.2676275275
 30
0.0
  0
INSERT
  5
288
330
1F
100
AcDbEntity
  8
80
100
AcDbBlockReference
  2
Block12
 10
-61.7273641656
 20
-130.3356800267
 30
0.0
  0
DIMENSION
  5
289
330
1F
100
AcDbEntity
  8
2
100
AcDbDimension
  2
_D
 10
63.0
 20
51.3929333814
 30
0.0
 11
32.7794258315
 21
51.3929333814
 31
0.0
 70
   160
  1
<>
 71
     2
 42
-1.0
  3
SLDDIMSTYLE0
100
AcDbAlignedDimension
 13
0.0
 23
22.225
 33
0.0
 14
63.0
 24
18.4944465005
 34
0.0
 50
0.0
100
AcDbRotatedDimension
  0
DIMENSION
  5
295
330
1F
100
AcDbEntity
  8
SK2
100
AcDbDimension
  2
_D_1
 10
27.0
 20
42.3789318494
 30
0.0
 11
14.9042024545
 21
42.3789318494
 31
0.0
 70
   160
  1
<>
 71
     2
 42
-1.0
  3
SLDDIMSTYLE0
100
AcDbAlignedDimension
 13
0.0
 23
22.225
 33
0.0
 14
27.0
 24
30.75
 34
0.0
100
AcDbRotatedDimension
  0
DIMENSION
  5
29F
330
1F
100
AcDbEntity
  8
SK2
100
AcDbDimension
  2
_D_2
 10
63.0
 20
42.3789318494
 30
0.0
 11
44.6962414162
 21
42.3789318494
 31
0.0
 70
   160
  1
<>
 71
     2
 42
-1.0
  3
SLDDIMSTYLE0
100
AcDbAlignedDimension
 13
27.0
 23
30.75
 33
0.0
 14
63.0
 24
18.4944465005
 34
0.0
100
AcDbRotatedDimension
  0
DIMENSION
  5
2A9
330
1F
100
AcDbEntity
  8
SK2
100
AcDbDimension
  2
_D_3
 10
50.0
 20
32.9065912565
 30
0.0
 11
56.0019382529
 21
32.9065912565
 31
0.0
 70
   160
  1
<>
 71
     2
 42
-1.0
  3
SLDDIMSTYLE0
100
AcDbAlignedDimension
 13
63.0
 23
18.4944465005
 33
0.0
 14
50.0
 24
26.0
 34
0.0
100
AcDbRotatedDimension
  0
DIMENSION
  5
2B3
330
1F
100
AcDbEntity
  8
SK2
100
AcDbDimension
  2
_D_4
 10
98.7923127598
 20
-26.0
 30
0.0
 11
98.7923127598
 21
-0.273150365
 31
0.0
 70
   160
  1
%%c<>
 71
     2
 42
-1.0
  3
SLDDIMSTYLE0
100
AcDbAlignedDimension
 13
50.0
 23
26.0
 33
0.0
 14
50.0
 24
-26.0
 34
0.0
 50
90.0
100
AcDbRotatedDimension
  0
DIMENSION
  5
2BE
330
1F
100
AcDbEntity
  8
SK2
100
AcDbDimension
  2
_D_5
 10
86.0177254273
 20
-18.4944465005
 30
0.0
 11
86.0177254273
 21
-0.273150365
 31
0.0
 70
   160
  1
%%c<>
 71
     2
 42
-1.0
  3
SLDDIMSTYLE1
100
AcDbAlignedDimension
 13
63.0
 23
18.4944465005
 33
0.0
 14
63.0
 24
-18.4944465005
 34
0.0
 50
90.0
100
AcDbRotatedDimension
  0
DIMENSION
  5
2CA
330
1F
100
AcDbEntity
  8
SK2
100
AcDbDimension
  2
_D_6
 10
75.1442079096
 20
10.0
 30
0.0
 11
75.1442079096
 21
-0.273150365
 31
0.0
 70
   160
  1
%%c<>
 71
     2
 42
-1.0
  3
SLDDIMSTYLE0
100
AcDbAlignedDimension
 13
62.0
 23
-10.0
 33
0.0
 14
62.0
 24
10.0
 34
0.0
 50
90.0
100
AcDbRotatedDimension
  0
DIMENSION
  5
2D5
330
1F
100
AcDbEntity
  8
SK2
100
AcDbDimension
  2
_D_7
 10
38.0
 20
-37.1522674519
 30
0.0
 11
50.3198041277
 21
-37.1522674519
 31
0.0
 70
   160
  1
<>
 71
     2
 42
-1.0
  3
SLDDIMSTYLE0
100
AcDbAlignedDimension
 13
63.0
 23
-18.4944465005
 33
0.0
 14
38.0
 24
-25.9
 34
0.0
100
AcDbRotatedDimension
  0
DIMENSION
  5
2DF
330
1F
100
AcDbEntity
  8
SK2
100
AcDbDimension
  2
_D_8
 10
14.0
 20
-47.8076537923
 30
0.0
 11
40.0223605787
 21
-47.8076537923
 31
0.0
 70
   160
  1
<>
 71
     2
 42
-1.0
  3
SLDDIMSTYLE0
100
AcDbAlignedDimension
 13
63.0
 23
-18.4944465005
 33
0.0
 14
14.0
 24
-9.999999975
 34
0.0
100
AcDbRotatedDimension
  0
DIMENSION
  5
2E9
330
1F
100
AcDbEntity
  8
SK2
100
AcDbDimension
  2
_D_9
 10
-72.9690393374
 20
8.00000038
 30
0.0
 11
-72.9690393374
 21
-0.1417290006
 31
0.0
 70
   160
  1
M<>
 71
     2
 42
-1.0
  3
SLDDIMSTYLE0
100
AcDbAlignedDimension
 13
-55.6881204247
 23
-8.00000038
 33
0.0
 14
-55.6881204247
 24
8.00000038
 34
0.0
 50
90.0
100
AcDbRotatedDimension
  0
DIMENSION
  5
2F4
330
1F
100
AcDbEntity
  8
SK2
100
AcDbDimension
  2
_D_10
 10
-82.9422560269
 20
-22.225
 30
0.0
 11
-82.9422560269
 21
-0.9576438487
 31
0.0
 70
   160
  1
%%c<>
 71
     2
 42
-1.0
  3
SLDDIMSTYLE0
100
AcDbAlignedDimension
 13
0.2
 23
22.225
 33
0.0
 14
0.0
 24
-22.225
 34
0.0
 50
90.0
100
AcDbRotatedDimension
  0
DIMENSION
  5
2FF
330
1F
100
AcDbEntity
  8
SK2
100
AcDbDimension
  2
_D_11
 10
-93.6878458664
 20
-31.5
 30
0.0
 11
-93.6878458664
 21
-0.9576438487
 31
0.0
 70
   160
  1
%%c<>
 71
     2
 42
-1.0
  3
SLDDIMSTYLE0
100
AcDbAlignedDimension
 13
2.75
 23
31.5
 33
0.0
 14
2.75
 24
-31.5
 34
0.0
 50
90.0
100
AcDbRotatedDimension
  0
MTEXT
  5
30A
330
1F
100
AcDbEntity
  8
SK6
 62
     5
100
AcDbMText
 10
-32.8454426987
 20
28.7521667347
 30
0.0
 40
3.5
 41
0.0
 71
     1
 72
     1
  1
MAS-403 BT40
  7
SLDTEXTSTYLE0
 73
     1
 44
1.0
  0
MTEXT
  5
30B
330
1F
100
AcDbEntity
  8
SK6
 62
     5
100
AcDbMText
 10
-65.1920957844
 20
-44.3216111255
 30
0.0
 40
3.5
 41
0.0
 71
     1
 72
     1
  1
A2B20-40 20 063
  7
SLDTEXTSTYLE0
 73
     1
 44
1.0
  0
ENDSEC
  0
SECTION
  2
OBJECTS
  0
DICTIONARY
  5
C
330
0
100
AcDbDictionary
281
     1
  3
ACAD_GROUP
350
D
  3
ACAD_LAYOUT
350
1A
  3
ACAD_MLINESTYLE
350
17
  3
ACAD_PLOTSETTINGS
350
19
  3
ACAD_PLOTSTYLENAME
350
E
  3
ACAD_SCALELIST
350
47
  0
DICTIONARY
  5
D
102
{ACAD_REACTORS
330
C
102
}
330
C
100
AcDbDictionary
281
     1
  0
DICTIONARY
  5
1A
102
{ACAD_REACTORS
330
C
102
}
330
C
100
AcDbDictionary
281
     1
  3
Layout1
350
1E
  3
Layout2
350
26
  3
Model
350
22
  0
DICTIONARY
  5
17
102
{ACAD_REACTORS
330
C
102
}
330
C
100
AcDbDictionary
281
     1
  3
Standard
350
18
  0
DICTIONARY
  5
19
102
{ACAD_REACTORS
330
C
102
}
330
C
100
AcDbDictionary
281
     1
  0
ACDBDICTIONARYWDFLT
  5
E
102
{ACAD_REACTORS
330
C
102
}
330
C
100
AcDbDictionary
281
     1
  3
Normal
350
F
100
AcDbDictionaryWithDefault
340
F
  0
DICTIONARY
  5
47
102
{ACAD_REACTORS
330
C
102
}
330
C
100
AcDbDictionary
281
     1
  3
A0
350
48
  3
A1
350
49
  3
A2
350
4A
  3
A3
350
4B
  3
A4
350
4C
  3
A5
350
4D
  3
A6
350
4E
  3
A7
350
4F
  3
A8
350
50
  3
A9
350
51
  3
B0
350
52
  3
B1
350
53
  3
B2
350
54
  3
B3
350
55
  3
B4
350
56
  3
B5
350
57
  3
B6
350
58
  3
B7
350
59
  3
B8
350
5A
  3
B9
350
5B
  3
C0
350
5C
  3
C1
350
5D
  3
C2
350
5E
  3
C3
350
5F
  3
C4
350
60
  3
C5
350
61
  3
C6
350
62
  3
C7
350
63
  3
C8
350
64
  3
C9
350
65
  3
D0
350
66
  3
D1
350
67
  3
D2
350
68
  0
LAYOUT
  5
1E
102
{ACAD_REACTORS
330
1A
102
}
330
1A
100
AcDbPlotSettings
  1

  2
none_device
  4

  6

 40
0.0
 41
0.0
 42
0.0
 43
0.0
 44
0.0
 45
0.0
 46
0.0
 47
0.0
 48
0.0
 49
0.0
140
0.0
141
0.0
142
1.0
143
1.0
 70
   688
 72
     1
 73
     0
 74
     5
  7

 75
    16
147
1.0
148
0.0
149
0.0
100
AcDbLayout
  1
Layout1
 70
     1
 71
     1
 10
0.0
 20
0.0
 11
420.0
 21
297.0
 12
0.0
 22
0.0
 32
0.0
 14
1.0000000000E+20
 24
1.0000000000E+20
 34
1.0000000000E+20
 15
-1.0000000000E+20
 25
-1.0000000000E+20
 35
-1.0000000000E+20
146
0.0
 13
0.0
 23
0.0
 33
0.0
 16
1.0
 26
0.0
 36
0.0
 17
0.0
 27
1.0
 37
0.0
 76
     0
330
1B
  0
LAYOUT
  5
26
102
{ACAD_REACTORS
330
1A
102
}
330
1A
100
AcDbPlotSettings
  1

  2
none_device
  4

  6

 40
0.0
 41
0.0
 42
0.0
 43
0.0
 44
0.0
 45
0.0
 46
0.0
 47
0.0
 48
0.0
 49
0.0
140
0.0
141
0.0
142
1.0
143
1.0
 70
   688
 72
     1
 73
     0
 74
     5
  7

 75
    16
147
1.0
148
0.0
149
0.0
100
AcDbLayout
  1
Layout2
 70
     1
 71
     2
 10
0.0
 20
0.0
 11
0.0
 21
0.0
 12
0.0
 22
0.0
 32
0.0
 14
0.0
 24
0.0
 34
0.0
 15
0.0
 25
0.0
 35
0.0
146
0.0
 13
0.0
 23
0.0
 33
0.0
 16
1.0
 26
0.0
 36
0.0
 17
0.0
 27
1.0
 37
0.0
 76
     0
330
23
  0
LAYOUT
  5
22
102
{ACAD_REACTORS
330
1A
102
}
330
1A
100
AcDbPlotSettings
  1

  2
none_device
  4
Letter_(8.50_x_11.00_Inches)
  6

 40
6.35
 41
6.35
 42
6.35000508
 43
6.35000508
 44
215.9
 45
279.4
 46
0.0
 47
0.0
 48
0.0
 49
0.0
140
0.0
141
0.0
142
1.0
143
1.0
 70
  1712
 72
     1
 73
     0
 74
     0
  7

 75
     0
147
1.0
148
0.0
149
0.0
100
AcDbLayout
  1
Model
 70
     1
 71
     0
 10
0.0
 20
0.0
 11
297.0
 21
210.0
 12
0.0
 22
0.0
 32
0.0
 14
0.0
 24
0.0
 34
0.0
 15
297.0
 25
210.0
 35
0.0
146
0.0
 13
0.0
 23
0.0
 33
0.0
 16
1.0
 26
0.0
 36
0.0
 17
0.0
 27
1.0
 37
0.0
 76
     0
330
1F
331
29
  0
MLINESTYLE
  5
18
102
{ACAD_REACTORS
330
17
102
}
330
17
100
AcDbMlineStyle
  2
Standard
 70
     0
  3

 62
   256
 51
90.0
 52
90.0
 71
     2
 49
0.5
 62
   256
  6
BYLAYER
 49
-0.5
 62
   256
  6
BYLAYER
  0
ACDBPLACEHOLDER
  5
F
102
{ACAD_REACTORS
330
E
102
}
330
E
  0
SCALE
  5
48
102
{ACAD_REACTORS
330
47
102
}
330
47
100
AcDbScale
 70
     0
300
1:1
140
1.0
141
1.0
290
     1
  0
SCALE
  5
49
102
{ACAD_REACTORS
330
47
102
}
330
47
100
AcDbScale
 70
     0
300
1:2
140
1.0
141
2.0
290
     0
  0
SCALE
  5
4A
102
{ACAD_REACTORS
330
47
102
}
330
47
100
AcDbScale
 70
     0
300
1:4
140
1.0
141
4.0
290
     0
  0
SCALE
  5
4B
102
{ACAD_REACTORS
330
47
102
}
330
47
100
AcDbScale
 70
     0
300
1:5
140
1.0
141
5.0
290
     0
  0
SCALE
  5
4C
102
{ACAD_REACTORS
330
47
102
}
330
47
100
AcDbScale
 70
     0
300
1:8
140
1.0
141
8.0
290
     0
  0
SCALE
  5
4D
102
{ACAD_REACTORS
330
47
102
}
330
47
100
AcDbScale
 70
     0
300
1:10
140
1.0
141
10.0
290
     0
  0
SCALE
  5
4E
102
{ACAD_REACTORS
330
47
102
}
330
47
100
AcDbScale
 70
     0
300
1:16
140
1.0
141
16.0
290
     0
  0
SCALE
  5
4F
102
{ACAD_REACTORS
330
47
102
}
330
47
100
AcDbScale
 70
     0
300
1:20
140
1.0
141
20.0
290
     0
  0
SCALE
  5
50
102
{ACAD_REACTORS
330
47
102
}
330
47
100
AcDbScale
 70
     0
300
1:30
140
1.0
141
30.0
290
     0
  0
SCALE
  5
51
102
{ACAD_REACTORS
330
47
102
}
330
47
100
AcDbScale
 70
     0
300
1:40
140
1.0
141
40.0
290
     0
  0
SCALE
  5
52
102
{ACAD_REACTORS
330
47
102
}
330
47
100
AcDbScale
 70
     0
300
1:50
140
1.0
141
50.0
290
     0
  0
SCALE
  5
53
102
{ACAD_REACTORS
330
47
102
}
330
47
100
AcDbScale
 70
     0
300
1:100
140
1.0
141
100.0
290
     0
  0
SCALE
  5
54
102
{ACAD_REACTORS
330
47
102
}
330
47
100
AcDbScale
 70
     0
300
2:1
140
2.0
141
1.0
290
     0
  0
SCALE
  5
55
102
{ACAD_REACTORS
330
47
102
}
330
47
100
AcDbScale
 70
     0
300
4:1
140
4.0
141
1.0
290
     0
  0
SCALE
  5
56
102
{ACAD_REACTORS
330
47
102
}
330
47
100
AcDbScale
 70
     0
300
8:1
140
8.0
141
1.0
290
     0
  0
SCALE
  5
57
102
{ACAD_REACTORS
330
47
102
}
330
47
100
AcDbScale
 70
     0
300
10:1
140
10.0
141
1.0
290
     0
  0
SCALE
  5
58
102
{ACAD_REACTORS
330
47
102
}
330
47
100
AcDbScale
 70
     0
300
100:1
140
100.0
141
1.0
290
     0
  0
SCALE
  5
59
102
{ACAD_REACTORS
330
47
102
}
330
47
100
AcDbScale
 70
     0
300
1/128" = 1'-0"
140
0.0078125
141
12.0
290
     0
  0
SCALE
  5
5A
102
{ACAD_REACTORS
330
47
102
}
330
47
100
AcDbScale
 70
     0
300
1/64" = 1'-0"
140
0.015625
141
12.0
290
     0
  0
SCALE
  5
5B
102
{ACAD_REACTORS
330
47
102
}
330
47
100
AcDbScale
 70
     0
300
1/32" = 1'-0"
140
0.03125
141
12.0
290
     0
  0
SCALE
  5
5C
102
{ACAD_REACTORS
330
47
102
}
330
47
100
AcDbScale
 70
     0
300
1/16" = 1'-0"
140
0.0625
141
12.0
290
     0
  0
SCALE
  5
5D
102
{ACAD_REACTORS
330
47
102
}
330
47
100
AcDbScale
 70
     0
300
3/32" = 1'-0"
140
0.09375
141
12.0
290
     0
  0
SCALE
  5
5E
102
{ACAD_REACTORS
330
47
102
}
330
47
100
AcDbScale
 70
     0
300
1/8" = 1'-0"
140
0.125
141
12.0
290
     0
  0
SCALE
  5
5F
102
{ACAD_REACTORS
330
47
102
}
330
47
100
AcDbScale
 70
     0
300
3/16" = 1'-0"
140
0.1875
141
12.0
290
     0
  0
SCALE
  5
60
102
{ACAD_REACTORS
330
47
102
}
330
47
100
AcDbScale
 70
     0
300
1/4" = 1'-0"
140
0.25
141
12.0
290
     0
  0
SCALE
  5
61
102
{ACAD_REACTORS
330
47
102
}
330
47
100
AcDbScale
 70
     0
300
3/8" = 1'-0"
140
0.375
141
12.0
290
     0
  0
SCALE
  5
62
102
{ACAD_REACTORS
330
47
102
}
330
47
100
AcDbScale
 70
     0
300
1/2" = 1'-0"
140
0.5
141
12.0
290
     0
  0
SCALE
  5
63
102
{ACAD_REACTORS
330
47
102
}
330
47
100
AcDbScale
 70
     0
300
3/4" = 1'-0"
140
0.75
141
12.0
290
     0
  0
SCALE
  5
64
102
{ACAD_REACTORS
330
47
102
}
330
47
100
AcDbScale
 70
     0
300
1" = 1'-0"
140
1.0
141
12.0
290
     0
  0
SCALE
  5
65
102
{ACAD_REACTORS
330
47
102
}
330
47
100
AcDbScale
 70
     0
300
1-1/2" = 1'-0"
140
1.5
141
12.0
290
     0
  0
SCALE
  5
66
102
{ACAD_REACTORS
330
47
102
}
330
47
100
AcDbScale
 70
     0
300
3" = 1'-0"
140
3.0
141
12.0
290
     0
  0
SCALE
  5
67
102
{ACAD_REACTORS
330
47
102
}
330
47
100
AcDbScale
 70
     0
300
6" = 1'-0"
140
6.0
141
12.0
290
     0
  0
SCALE
  5
68
102
{ACAD_REACTORS
330
47
102
}
330
47
100
AcDbScale
 70
     0
300
1'-0" = 1'-0"
140
12.0
141
12.0
290
     0
  0
ENDSEC
  0
EOF
